  0
SECTION
  2
HEADER
  9
$ACADVER
  1
AC1015
  9
$ACADMAINTVER
 70
    20
  9
$DWGCODEPAGE
  3
ANSI_932
  9
$INSBASE
 10
0.0
 20
0.0
 30
0.0
  9
$EXTMIN
 10
-0.1602050617329951
 20
-0.22504996767384
 30
-0.0015258207003583
  9
$EXTMAX
 10
5250.160229508953
 20
7375.225084310193
 30
0.0000000349246037
  9
$LIMMIN
 10
0.0
 20
0.0
  9
$LIMMAX
 10
297.0
 20
210.0
  9
$ORTHOMODE
 70
     1
  9
$REGENMODE
 70
     1
  9
$FILLMODE
 70
     0
  9
$QTEXTMODE
 70
     0
  9
$MIRRTEXT
 70
     1
  9
$LTSCALE
 40
100.0
  9
$ATTMODE
 70
     1
  9
$TEXTSIZE
 40
180.0
  9
$TRACEWID
 40
0.05
  9
$TEXTSTYLE
  7
STANDARD
  9
$CLAYER
  8
3
  9
$CELTYPE
  6
ByLayer
  9
$CECOLOR
 62
   256
  9
$CELTSCALE
 40
1.0
  9
$DISPSILH
 70
     0
  9
$DIMSCALE
 40
25.0
  9
$DIMASZ
 40
2.0
  9
$DIMEXO
 40
1.0
  9
$DIMDLI
 40
10.0
  9
$DIMRND
 40
0.0
  9
$DIMDLE
 40
0.0
  9
$DIMEXE
 40
1.0
  9
$DIMTP
 40
1.0
  9
$DIMTM
 40
1.0
  9
$DIMTXT
 40
3.0
  9
$DIMCEN
 40
0.0
  9
$DIMTSZ
 40
0.0
  9
$DIMTOL
 70
     0
  9
$DIMLIM
 70
     0
  9
$DIMTIH
 70
     0
  9
$DIMTOH
 70
     0
  9
$DIMSE1
 70
     0
  9
$DIMSE2
 70
     0
  9
$DIMTAD
 70
     1
  9
$DIMZIN
 70
     8
  9
$DIMBLK
  1

  9
$DIMASO
 70
     1
  9
$DIMSHO
 70
     1
  9
$DIMPOST
  1

  9
$DIMAPOST
  1

  9
$DIMALT
 70
     0
  9
$DIMALTD
 70
     2
  9
$DIMALTF
 40
0.039
  9
$DIMLFAC
 40
1.0
  9
$DIMTOFL
 70
     1
  9
$DIMTVP
 40
0.0
  9
$DIMTIX
 70
     0
  9
$DIMSOXD
 70
     0
  9
$DIMSAH
 70
     1
  9
$DIMBLK1
  1
OPEN
  9
$DIMBLK2
  1
OPEN
  9
$DIMSTYLE
  2
IGA
  9
$DIMCLRD
 70
     0
  9
$DIMCLRE
 70
     0
  9
$DIMCLRT
 70
     0
  9
$DIMTFAC
 40
10.0
  9
$DIMGAP
 40
1.0
  9
$DIMJUST
 70
     0
  9
$DIMSD1
 70
     0
  9
$DIMSD2
 70
     0
  9
$DIMTOLJ
 70
     1
  9
$DIMTZIN
 70
     0
  9
$DIMALTZ
 70
     0
  9
$DIMALTTZ
 70
     0
  9
$DIMUPT
 70
     0
  9
$DIMDEC
 70
     4
  9
$DIMTDEC
 70
     4
  9
$DIMALTU
 70
     2
  9
$DIMALTTD
 70
     2
  9
$DIMTXSTY
  7
STANDARD
  9
$DIMAUNIT
 70
     0
  9
$DIMADEC
 70
     0
  9
$DIMALTRND
 40
0.0
  9
$DIMAZIN
 70
     0
  9
$DIMDSEP
 70
    46
  9
$DIMATFIT
 70
     3
  9
$DIMFRAC
 70
     0
  9
$DIMLDRBLK
  1
OPEN
  9
$DIMLUNIT
 70
     2
  9
$DIMLWD
 70
    -2
  9
$DIMLWE
 70
    -2
  9
$DIMTMOVE
 70
     0
  9
$LUNITS
 70
     2
  9
$LUPREC
 70
     3
  9
$SKETCHINC
 40
0.1
  9
$FILLETRAD
 40
50.0
  9
$AUNITS
 70
     0
  9
$AUPREC
 70
     0
  9
$MENU
  1
acad
  9
$ELEVATION
 40
0.0
  9
$PELEVATION
 40
0.0
  9
$THICKNESS
 40
0.0
  9
$LIMCHECK
 70
     0
  9
$CHAMFERA
 40
0.5
  9
$CHAMFERB
 40
0.5
  9
$CHAMFERC
 40
0.0
  9
$CHAMFERD
 40
0.0
  9
$SKPOLY
 70
     0
  9
$TDCREATE
 40
2451389.450209723
  9
$TDUCREATE
 40
2451389.075209723
  9
$TDUPDATE
 40
2460265.737494144
  9
$TDUUPDATE
 40
2460265.362494144
  9
$TDINDWG
 40
0.0159671759
  9
$TDUSRTIMER
 40
0.0159669444
  9
$USRTIMER
 70
     1
  9
$ANGBASE
 50
0.0
  9
$ANGDIR
 70
     0
  9
$PDMODE
 70
     0
  9
$PDSIZE
 40
0.0
  9
$PLINEWID
 40
0.0
  9
$SPLFRAME
 70
     0
  9
$SPLINETYPE
 70
     6
  9
$SPLINESEGS
 70
     8
  9
$HANDSEED
  5
84D8
  9
$SURFTAB1
 70
     6
  9
$SURFTAB2
 70
     6
  9
$SURFTYPE
 70
     6
  9
$SURFU
 70
     6
  9
$SURFV
 70
     6
  9
$UCSBASE
  2

  9
$UCSNAME
  2

  9
$UCSORG
 10
0.0
 20
0.0
 30
0.0
  9
$UCSXDIR
 10
1.0
 20
0.0
 30
0.0
  9
$UCSYDIR
 10
0.0
 20
1.0
 30
0.0
  9
$UCSORTHOREF
  2

  9
$UCSORTHOVIEW
 70
     0
  9
$UCSORGTOP
 10
0.0
 20
0.0
 30
0.0
  9
$UCSORGBOTTOM
 10
0.0
 20
0.0
 30
0.0
  9
$UCSORGLEFT
 10
0.0
 20
0.0
 30
0.0
  9
$UCSORGRIGHT
 10
0.0
 20
0.0
 30
0.0
  9
$UCSORGFRONT
 10
0.0
 20
0.0
 30
0.0
  9
$UCSORGBACK
 10
0.0
 20
0.0
 30
0.0
  9
$PUCSBASE
  2

  9
$PUCSNAME
  2

  9
$PUCSORG
 10
0.0
 20
0.0
 30
0.0
  9
$PUCSXDIR
 10
1.0
 20
0.0
 30
0.0
  9
$PUCSYDIR
 10
0.0
 20
1.0
 30
0.0
  9
$PUCSORTHOREF
  2

  9
$PUCSORTHOVIEW
 70
     0
  9
$PUCSORGTOP
 10
0.0
 20
0.0
 30
0.0
  9
$PUCSORGBOTTOM
 10
0.0
 20
0.0
 30
0.0
  9
$PUCSORGLEFT
 10
0.0
 20
0.0
 30
0.0
  9
$PUCSORGRIGHT
 10
0.0
 20
0.0
 30
0.0
  9
$PUCSORGFRONT
 10
0.0
 20
0.0
 30
0.0
  9
$PUCSORGBACK
 10
0.0
 20
0.0
 30
0.0
  9
$USERI1
 70
     0
  9
$USERI2
 70
     0
  9
$USERI3
 70
     0
  9
$USERI4
 70
     0
  9
$USERI5
 70
     0
  9
$USERR1
 40
0.0
  9
$USERR2
 40
0.0
  9
$USERR3
 40
0.0
  9
$USERR4
 40
0.0
  9
$USERR5
 40
0.0
  9
$WORLDVIEW
 70
     1
  9
$SHADEDGE
 70
     3
  9
$SHADEDIF
 70
    70
  9
$TILEMODE
 70
     1
  9
$MAXACTVP
 70
    16
  9
$PINSBASE
 10
0.0
 20
0.0
 30
0.0
  9
$PLIMCHECK
 70
     0
  9
$PEXTMIN
 10
1.000000000000000E+20
 20
1.000000000000000E+20
 30
1.000000000000000E+20
  9
$PEXTMAX
 10
-1.000000000000000E+20
 20
-1.000000000000000E+20
 30
-1.000000000000000E+20
  9
$PLIMMIN
 10
0.0
 20
0.0
  9
$PLIMMAX
 10
12.0
 20
9.0
  9
$UNITMODE
 70
     0
  9
$VISRETAIN
 70
     0
  9
$PLINEGEN
 70
     0
  9
$PSLTSCALE
 70
     1
  9
$TREEDEPTH
 70
  3020
  9
$CMLSTYLE
  2
Standard
  9
$CMLJUST
 70
     0
  9
$CMLSCALE
 40
1.0
  9
$PROXYGRAPHICS
 70
     1
  9
$MEASUREMENT
 70
     0
  9
$CELWEIGHT
370
    -1
  9
$ENDCAPS
280
     0
  9
$JOINSTYLE
280
     0
  9
$LWDISPLAY
290
     0
  9
$INSUNITS
 70
     0
  9
$HYPERLINKBASE
  1

  9
$STYLESHEET
  1

  9
$XEDIT
290
     1
  9
$CEPSNTYPE
380
     0
  9
$PSTYLEMODE
290
     1
  9
$FINGERPRINTGUID
  2
{119DDAE0-A209-4BEA-A970-C2FA67A38AA3}
  9
$VERSIONGUID
  2
{D6932439-3129-4409-857F-70E75E79DFF5}
  9
$EXTNAMES
290
     1
  9
$PSVPSCALE
 40
0.0
  9
$OLESTARTUP
290
     0
  0
ENDSEC
  0
SECTION
  2
CLASSES
  0
CLASS
  1
ACDBDICTIONARYWDFLT
  2
AcDbDictionaryWithDefault
  3
ObjectDBX Classes
 90
        0
280
     0
281
     0
  0
CLASS
  1
MATERIAL
  2
AcDbMaterial
  3
ObjectDBX Classes
 90
     1153
280
     0
281
     0
  0
CLASS
  1
VISUALSTYLE
  2
AcDbVisualStyle
  3
ObjectDBX Classes
 90
     4095
280
     0
281
     0
  0
CLASS
  1
SCALE
  2
AcDbScale
  3
ObjectDBX Classes
 90
     1153
280
     0
281
     0
  0
CLASS
  1
TABLESTYLE
  2
AcDbTableStyle
  3
ObjectDBX Classes
 90
     4095
280
     0
281
     0
  0
CLASS
  1
MLEADERSTYLE
  2
AcDbMLeaderStyle
  3
ACDB_MLEADERSTYLE_CLASS
 90
     4095
280
     0
281
     0
  0
CLASS
  1
ACDBSECTIONVIEWSTYLE
  2
AcDbSectionViewStyle
  3
ObjectDBX Classes
 90
     1025
280
     0
281
     0
  0
CLASS
  1
ACDBDETAILVIEWSTYLE
  2
AcDbDetailViewStyle
  3
ObjectDBX Classes
 90
     1025
280
     0
281
     0
  0
CLASS
  1
DICTIONARYVAR
  2
AcDbDictionaryVar
  3
ObjectDBX Classes
 90
        0
280
     0
281
     0
  0
CLASS
  1
CELLSTYLEMAP
  2
AcDbCellStyleMap
  3
ObjectDBX Classes
 90
     1152
280
     0
281
     0
  0
CLASS
  1
ACDBPLACEHOLDER
  2
AcDbPlaceHolder
  3
ObjectDBX Classes
 90
        0
280
     0
281
     0
  0
CLASS
  1
LAYOUT
  2
AcDbLayout
  3
ObjectDBX Classes
 90
        0
280
     0
281
     0
  0
ENDSEC
  0
SECTION
  2
TABLES
  0
TABLE
  2
VPORT
  5
80AB
330
0
100
AcDbSymbolTable
 70
     1
  0
VPORT
  5
8117
330
80AB
100
AcDbSymbolTableRecord
100
AcDbViewportTableRecord
  2
*ACTIVE
 70
     0
 10
0.0
 20
0.0
 11
1.0
 21
1.0
 12
2625.00001222361
 22
3687.500017171259
 13
0.0
 23
0.0
 14
10.0
 24
10.0
 15
10.0
 25
10.0
 16
0.0
 26
0.0
 36
1.0
 17
0.0
 27
0.0
 37
0.0
 40
7422.678203440799
 41
2.050213675213675
 42
50.0
 43
0.0
 44
0.0
 50
0.0
 51
0.0
 71
     0
 72
   100
 73
     1
 74
     0
 75
     0
 76
     0
 77
     0
 78
     0
281
     0
 65
     1
110
0.0
120
0.0
130
0.0
111
1.0
121
0.0
131
0.0
112
0.0
122
1.0
132
0.0
 79
     0
146
0.0
1001
ACAD_NAV_VCDISPLAY
1070
     3
  0
ENDTAB
  0
TABLE
  2
LTYPE
  5
80A8
330
0
100
AcDbSymbolTable
 70
     3
  0
LTYPE
  5
80FD
330
80A8
100
AcDbSymbolTableRecord
100
AcDbLinetypeTableRecord
  2
ByBlock
 70
     0
  3

 72
    65
 73
     0
 40
0.0
  0
LTYPE
  5
80FE
330
80A8
100
AcDbSymbolTableRecord
100
AcDbLinetypeTableRecord
  2
ByLayer
 70
     0
  3

 72
    65
 73
     0
 40
0.0
  0
LTYPE
  5
80FF
330
80A8
100
AcDbSymbolTableRecord
100
AcDbLinetypeTableRecord
  2
CONTINUOUS
 70
     0
  3
Solid line
 72
    65
 73
     0
 40
0.0
  0
LTYPE
  5
8118
330
80A8
100
AcDbSymbolTableRecord
100
AcDbLinetypeTableRecord
  2
CENTER
 70
     0
  3
____ _ ____ _ ____ _ ____ _ ____ _ ____ _ ____ 
 72
    65
 73
     4
 40
2.0
 49
1.25
 74
     0
 49
-0.25
 74
     0
 49
0.25
 74
     0
 49
-0.25
 74
     0
  0
ENDTAB
  0
TABLE
  2
LAYER
  5
80A5
102
{ACAD_XDICTIONARY
360
8160
102
}
330
0
100
AcDbSymbolTable
 70
     7
  0
LAYER
  5
80F7
102
{ACAD_XDICTIONARY
360
8441
102
}
330
80A5
100
AcDbSymbolTableRecord
100
AcDbLayerTableRecord
  2
0
 70
     0
 62
     7
  6
CONTINUOUS
370
    -3
390
80B2
  0
LAYER
  5
8116
102
{ACAD_XDICTIONARY
360
8443
102
}
330
80A5
100
AcDbSymbolTableRecord
100
AcDbLayerTableRecord
  2
3
 70
     0
 62
     2
  6
CONTINUOUS
370
    -3
390
80B2
  0
LAYER
  5
8119
102
{ACAD_XDICTIONARY
360
8445
102
}
330
80A5
100
AcDbSymbolTableRecord
100
AcDbLayerTableRecord
  2
2
 70
     0
 62
     3
  6
CENTER
370
    -3
390
80B2
  0
LAYER
  5
811A
102
{ACAD_XDICTIONARY
360
8447
102
}
330
80A5
100
AcDbSymbolTableRecord
100
AcDbLayerTableRecord
  2
1
 70
     0
 62
     4
  6
CONTINUOUS
370
    -3
390
80B2
  0
LAYER
  5
811B
102
{ACAD_XDICTIONARY
360
8449
102
}
330
80A5
100
AcDbSymbolTableRecord
100
AcDbLayerTableRecord
  2
4
 70
     0
 62
     7
  6
CONTINUOUS
370
    -3
390
80B2
  0
LAYER
  5
811C
330
80A5
100
AcDbSymbolTableRecord
100
AcDbLayerTableRecord
  2
DEFPOINTS
 70
     0
 62
     7
  6
CONTINUOUS
290
     0
370
    -3
390
80B2
  0
LAYER
  5
815D
102
{ACAD_XDICTIONARY
360
815E
102
}
330
80A5
100
AcDbSymbolTableRecord
100
AcDbLayerTableRecord
  2
FUTO
 70
     0
 62
     4
  6
CONTINUOUS
370
    -3
390
80B2
  0
ENDTAB
  0
TABLE
  2
STYLE
  5
80A6
330
0
100
AcDbSymbolTable
 70
     2
  0
STYLE
  5
80F8
330
80A6
100
AcDbSymbolTableRecord
100
AcDbTextStyleTableRecord
  2
STANDARD
 70
     0
 40
0.0
 41
1.0
 50
0.0
 71
     0
 42
180.0
  3
simplex.shx
  4
extfont.shx
  0
STYLE
  5
80FC
330
80A6
100
AcDbSymbolTableRecord
100
AcDbTextStyleTableRecord
  2
Annotative
 70
     0
 40
0.0
 41
1.0
 50
0.0
 71
     0
 42
0.2
  3
txt
  4

1001
AcadAnnotative
1000
AnnotativeData
1002
{
1070
     1
1070
     1
1002
}
  0
ENDTAB
  0
TABLE
  2
VIEW
  5
80A9
330
0
100
AcDbSymbolTable
 70
     0
  0
ENDTAB
  0
TABLE
  2
UCS
  5
80AA
330
0
100
AcDbSymbolTable
 70
     0
  0
ENDTAB
  0
TABLE
  2
APPID
  5
80AC
330
0
100
AcDbSymbolTable
 70
     8
  0
APPID
  5
80F9
330
80AC
100
AcDbSymbolTableRecord
100
AcDbRegAppTableRecord
  2
ACAD
 70
     0
  0
APPID
  5
8100
330
80AC
100
AcDbSymbolTableRecord
100
AcDbRegAppTableRecord
  2
AcadAnnotative
 70
     0
  0
APPID
  5
815F
330
80AC
100
AcDbSymbolTableRecord
100
AcDbRegAppTableRecord
  2
ACAD_NAV_VCDISPLAY
 70
     0
  0
APPID
  5
8197
330
80AC
100
AcDbSymbolTableRecord
100
AcDbRegAppTableRecord
  2
ACAD_DSTYLE_DIMJAG
 70
     0
  0
APPID
  5
8198
330
80AC
100
AcDbSymbolTableRecord
100
AcDbRegAppTableRecord
  2
ACAD_DSTYLE_DIMTALN
 70
     0
  0
APPID
  5
81B3
330
80AC
100
AcDbSymbolTableRecord
100
AcDbRegAppTableRecord
  2
AcadAnnoMonitorAlertIconDisabled
 70
     0
  0
APPID
  5
81B4
330
80AC
100
AcDbSymbolTableRecord
100
AcDbRegAppTableRecord
  2
ACAD_EXEMPT_FROM_CAD_STANDARDS
 70
     0
  0
APPID
  5
84CF
330
80AC
100
AcDbSymbolTableRecord
100
AcDbRegAppTableRecord
  2
ACAD_MLEADERVER
 70
     0
  0
ENDTAB
  0
TABLE
  2
DIMSTYLE
  5
80AD
330
0
100
AcDbSymbolTable
 70
     4
100
AcDbDimStyleTable
 71
     1
340
811D
  0
DIMSTYLE
105
80FA
102
{ACAD_REACTORS
330
7C31
330
7C32
330
7C76
330
7C99
330
7C9A
330
7C9B
330
7CAA
330
7CC0
330
7CCB
102
}
330
80AD
100
AcDbSymbolTableRecord
100
AcDbDimStyleTableRecord
  2
Standard
 70
     0
340
80F8
  0
DIMSTYLE
105
80FB
330
80AD
100
AcDbSymbolTableRecord
100
AcDbDimStyleTableRecord
  2
Annotative
 70
     0
340
80F8
1001
AcadAnnotative
1000
AnnotativeData
1002
{
1070
     1
1070
     1
1002
}
  0
DIMSTYLE
105
811D
102
{ACAD_REACTORS
330
8199
330
81A6
330
81FE
330
820B
330
827A
330
8287
330
8294
330
82A1
330
82AE
330
82BB
330
82CD
330
83ED
330
8403
330
8422
102
}
330
80AD
100
AcDbSymbolTableRecord
100
AcDbDimStyleTableRecord
  2
IGA
 70
     0
 40
2.0
 41
2.0
 42
0.5
 43
10.0
 44
1.0
 47
1.0
 48
1.0
 73
     0
 74
     0
 77
     1
 78
     8
140
3.0
141
0.0
143
0.03937
146
10.0
147
1.0
173
     1
271
     3
272
     3
279
     2
284
     8
285
     8
286
     8
340
80F8
  0
DIMSTYLE
105
811E
330
80AD
100
AcDbSymbolTableRecord
100
AcDbDimStyleTableRecord
  2
MATSU
 70
     0
 41
2.0
 42
1.0
 43
10.0
 44
1.0
 73
     0
 74
     0
 77
     1
 78
     8
140
3.0
141
0.0
143
0.03937
147
0.5
172
     1
173
     1
176
   256
177
   256
178
   256
271
     3
272
     3
279
     2
284
     8
285
     8
286
     8
340
80F8
  0
ENDTAB
  0
TABLE
  2
BLOCK_RECORD
  5
80A4
330
0
100
AcDbSymbolTable
 70
    52
  0
BLOCK_RECORD
  5
8112
330
80A4
100
AcDbSymbolTableRecord
100
AcDbBlockTableRecord
  2
*Model_Space
340
8115
  0
BLOCK_RECORD
  5
810E
330
80A4
100
AcDbSymbolTableRecord
100
AcDbBlockTableRecord
  2
*Paper_Space
340
8111
  0
BLOCK_RECORD
  5
8122
330
80A4
100
AcDbSymbolTableRecord
100
AcDbBlockTableRecord
  2
$MODEL_SPACE
340
0
  0
BLOCK_RECORD
  5
8124
330
80A4
100
AcDbSymbolTableRecord
100
AcDbBlockTableRecord
  2
$PAPER_SPACE
340
0
  0
BLOCK_RECORD
  5
8126
330
80A4
100
AcDbSymbolTableRecord
100
AcDbBlockTableRecord
  2
_OPEN
340
0
102
{BLKREFS
331
821B
331
821C
331
7E0A
331
7E0B
331
7E15
331
7E16
331
7E36
331
7E37
331
7E4C
331
7E4D
331
7E57
331
7E58
331
7E62
331
7E63
331
7E6D
331
7E6E
331
7F6D
331
7F6E
331
807E
331
807F
331
8086
331
8087
331
7F58
331
7F59
331
808E
331
808F
331
81EF
331
81F0
331
81F8
331
81F9
331
8205
331
8206
331
7EB8
331
7EB9
331
8096
331
8097
331
7ECD
331
7ECE
331
7EF1
331
7F06
331
7F07
331
7FAD
331
7FAE
331
7FBA
331
7FBB
331
7FC7
331
7FC8
331
7FD4
331
7FD5
331
8008
331
8009
331
8281
331
8282
331
828E
331
828F
331
829B
331
829C
331
82A8
331
82A9
331
83CA
331
83CB
331
83D6
331
83E9
331
83FD
331
83FE
331
841C
331
841D
331
843B
331
843C
102
}
  0
BLOCK_RECORD
  5
8128
330
80A4
100
AcDbSymbolTableRecord
100
AcDbBlockTableRecord
  2
YA_N
340
0
102
{BLKREFS
331
7C0C
331
7C2E
331
7C46
331
7C48
102
}
  0
BLOCK_RECORD
  5
812A
330
80A4
100
AcDbSymbolTableRecord
100
AcDbBlockTableRecord
  2
_DOT
340
0
102
{BLKREFS
331
7EF0
102
}
  0
BLOCK_RECORD
  5
812C
330
80A4
100
AcDbSymbolTableRecord
100
AcDbBlockTableRecord
  2
*D5
340
0
  0
BLOCK_RECORD
  5
812E
330
80A4
100
AcDbSymbolTableRecord
100
AcDbBlockTableRecord
  2
*D6
340
0
  0
BLOCK_RECORD
  5
8130
330
80A4
100
AcDbSymbolTableRecord
100
AcDbBlockTableRecord
  2
*D7
340
0
  0
BLOCK_RECORD
  5
8132
330
80A4
100
AcDbSymbolTableRecord
100
AcDbBlockTableRecord
  2
*D8
340
0
  0
BLOCK_RECORD
  5
8134
330
80A4
100
AcDbSymbolTableRecord
100
AcDbBlockTableRecord
  2
*D9
340
0
  0
BLOCK_RECORD
  5
8136
330
80A4
100
AcDbSymbolTableRecord
100
AcDbBlockTableRecord
  2
*D10
340
0
  0
BLOCK_RECORD
  5
8138
330
80A4
100
AcDbSymbolTableRecord
100
AcDbBlockTableRecord
  2
*D11
340
0
  0
BLOCK_RECORD
  5
813A
330
80A4
100
AcDbSymbolTableRecord
100
AcDbBlockTableRecord
  2
*D12
340
0
  0
BLOCK_RECORD
  5
813C
330
80A4
100
AcDbSymbolTableRecord
100
AcDbBlockTableRecord
  2
*D13
340
0
  0
BLOCK_RECORD
  5
813E
330
80A4
100
AcDbSymbolTableRecord
100
AcDbBlockTableRecord
  2
*D14
340
0
  0
BLOCK_RECORD
  5
8140
330
80A4
100
AcDbSymbolTableRecord
100
AcDbBlockTableRecord
  2
*D15
340
0
  0
BLOCK_RECORD
  5
8142
330
80A4
100
AcDbSymbolTableRecord
100
AcDbBlockTableRecord
  2
*D16
340
0
  0
BLOCK_RECORD
  5
8144
330
80A4
100
AcDbSymbolTableRecord
100
AcDbBlockTableRecord
  2
*D17
340
0
  0
BLOCK_RECORD
  5
8146
330
80A4
100
AcDbSymbolTableRecord
100
AcDbBlockTableRecord
  2
*D18
340
0
  0
BLOCK_RECORD
  5
8148
330
80A4
100
AcDbSymbolTableRecord
100
AcDbBlockTableRecord
  2
*D19
340
0
  0
BLOCK_RECORD
  5
814A
330
80A4
100
AcDbSymbolTableRecord
100
AcDbBlockTableRecord
  2
*D20
340
0
  0
BLOCK_RECORD
  5
814C
330
80A4
100
AcDbSymbolTableRecord
100
AcDbBlockTableRecord
  2
*D21
340
0
  0
BLOCK_RECORD
  5
814E
330
80A4
100
AcDbSymbolTableRecord
100
AcDbBlockTableRecord
  2
*D22
340
0
  0
BLOCK_RECORD
  5
8150
330
80A4
100
AcDbSymbolTableRecord
100
AcDbBlockTableRecord
  2
*D23
340
0
  0
BLOCK_RECORD
  5
8152
330
80A4
100
AcDbSymbolTableRecord
100
AcDbBlockTableRecord
  2
*D24
340
0
  0
BLOCK_RECORD
  5
8154
330
80A4
100
AcDbSymbolTableRecord
100
AcDbBlockTableRecord
  2
*D25
340
0
  0
BLOCK_RECORD
  5
8156
330
80A4
100
AcDbSymbolTableRecord
100
AcDbBlockTableRecord
  2
_NONE
340
0
  0
BLOCK_RECORD
  5
8158
330
80A4
100
AcDbSymbolTableRecord
100
AcDbBlockTableRecord
  2
*D27
340
0
  0
BLOCK_RECORD
  5
815A
330
80A4
100
AcDbSymbolTableRecord
100
AcDbBlockTableRecord
  2
*D28
340
0
  0
BLOCK_RECORD
  5
819A
330
80A4
100
AcDbSymbolTableRecord
100
AcDbBlockTableRecord
  2
*D30
340
0
  0
BLOCK_RECORD
  5
81A7
330
80A4
100
AcDbSymbolTableRecord
100
AcDbBlockTableRecord
  2
*D31
340
0
  0
BLOCK_RECORD
  5
81FF
330
80A4
100
AcDbSymbolTableRecord
100
AcDbBlockTableRecord
  2
*D32
340
0
  0
BLOCK_RECORD
  5
820C
330
80A4
100
AcDbSymbolTableRecord
100
AcDbBlockTableRecord
  2
*D33
340
0
  0
BLOCK_RECORD
  5
8221
330
80A4
100
AcDbSymbolTableRecord
100
AcDbBlockTableRecord
  2
*D34
340
0
  0
BLOCK_RECORD
  5
822E
330
80A4
100
AcDbSymbolTableRecord
100
AcDbBlockTableRecord
  2
*D35
340
0
  0
BLOCK_RECORD
  5
823B
330
80A4
100
AcDbSymbolTableRecord
100
AcDbBlockTableRecord
  2
*D36
340
0
  0
BLOCK_RECORD
  5
8248
330
80A4
100
AcDbSymbolTableRecord
100
AcDbBlockTableRecord
  2
*D37
340
0
  0
BLOCK_RECORD
  5
8255
330
80A4
100
AcDbSymbolTableRecord
100
AcDbBlockTableRecord
  2
*D38
340
0
  0
BLOCK_RECORD
  5
8260
330
80A4
100
AcDbSymbolTableRecord
100
AcDbBlockTableRecord
  2
*D39
340
0
  0
BLOCK_RECORD
  5
826D
330
80A4
100
AcDbSymbolTableRecord
100
AcDbBlockTableRecord
  2
*D40
340
0
  0
BLOCK_RECORD
  5
827B
330
80A4
100
AcDbSymbolTableRecord
100
AcDbBlockTableRecord
  2
*D41
340
0
  0
BLOCK_RECORD
  5
8288
330
80A4
100
AcDbSymbolTableRecord
100
AcDbBlockTableRecord
  2
*D42
340
0
  0
BLOCK_RECORD
  5
8295
330
80A4
100
AcDbSymbolTableRecord
100
AcDbBlockTableRecord
  2
*D43
340
0
  0
BLOCK_RECORD
  5
82A2
330
80A4
100
AcDbSymbolTableRecord
100
AcDbBlockTableRecord
  2
*D44
340
0
  0
BLOCK_RECORD
  5
82AF
330
80A4
100
AcDbSymbolTableRecord
100
AcDbBlockTableRecord
  2
*D45
340
0
  0
BLOCK_RECORD
  5
82BC
330
80A4
100
AcDbSymbolTableRecord
100
AcDbBlockTableRecord
  2
*D46
340
0
  0
BLOCK_RECORD
  5
82CE
330
80A4
100
AcDbSymbolTableRecord
100
AcDbBlockTableRecord
  2
*D47
340
0
  0
BLOCK_RECORD
  5
8363
330
80A4
100
AcDbSymbolTableRecord
100
AcDbBlockTableRecord
  2
_DotSmall
340
0
102
{BLKREFS
331
83D7
331
83E8
102
}
  0
BLOCK_RECORD
  5
83EE
330
80A4
100
AcDbSymbolTableRecord
100
AcDbBlockTableRecord
  2
*D49
340
0
  0
BLOCK_RECORD
  5
8404
330
80A4
100
AcDbSymbolTableRecord
100
AcDbBlockTableRecord
  2
*D50
340
0
  0
BLOCK_RECORD
  5
8423
330
80A4
100
AcDbSymbolTableRecord
100
AcDbBlockTableRecord
  2
*D51
340
0
  0
ENDTAB
  0
ENDSEC
  0
SECTION
  2
BLOCKS
  0
BLOCK
  5
8113
330
8112
100
AcDbEntity
  8
0
100
AcDbBlockBegin
  2
*Model_Space
 70
     0
 10
0.0
 20
0.0
 30
0.0
  3
*Model_Space
  1

  0
ENDBLK
  5
8114
330
8112
100
AcDbEntity
  8
0
100
AcDbBlockEnd
  0
BLOCK
  5
810F
330
810E
100
AcDbEntity
 67
     1
  8
0
100
AcDbBlockBegin
  2
*Paper_Space
 70
     0
 10
0.0
 20
0.0
 30
0.0
  3
*Paper_Space
  1

  0
ENDBLK
  5
8110
330
810E
100
AcDbEntity
 67
     1
  8
0
100
AcDbBlockEnd
  0
BLOCK
  5
8123
330
8122
100
AcDbEntity
  8
0
100
AcDbBlockBegin
  2
$MODEL_SPACE
 70
     0
 10
0.0
 20
0.0
 30
0.0
  3
$MODEL_SPACE
  1

  0
ENDBLK
  5
1B
330
8122
100
AcDbEntity
  8
0
100
AcDbBlockEnd
  0
BLOCK
  5
8125
330
8124
100
AcDbEntity
  8
0
100
AcDbBlockBegin
  2
$PAPER_SPACE
 70
     0
 10
0.0
 20
0.0
 30
0.0
  3
$PAPER_SPACE
  1

  0
ENDBLK
  5
18
330
8124
100
AcDbEntity
  8
0
100
AcDbBlockEnd
  0
BLOCK
  5
8127
330
8126
100
AcDbEntity
  8
0
100
AcDbBlockBegin
  2
_OPEN
 70
     0
 10
0.0
 20
0.0
 30
0.0
  3
_OPEN
  1

  0
LINE
  5
79FD
330
8126
100
AcDbEntity
  8
0
  6
ByBlock
 62
     0
100
AcDbLine
 10
-1.0
 20
0.1666666666666666
 30
0.0
 11
0.0
 21
0.0
 31
0.0
  0
LINE
  5
79FE
330
8126
100
AcDbEntity
  8
0
  6
ByBlock
 62
     0
100
AcDbLine
 10
0.0
 20
0.0
 30
0.0
 11
-1.0
 21
-0.1666666666666666
 31
0.0
  0
LINE
  5
79FF
330
8126
100
AcDbEntity
  8
0
  6
ByBlock
 62
     0
100
AcDbLine
 10
0.0
 20
0.0
 30
0.0
 11
-1.0
 21
0.0
 31
0.0
  0
ENDBLK
  5
7A01
330
8126
100
AcDbEntity
  8
0
100
AcDbBlockEnd
  0
BLOCK
  5
8129
330
8128
100
AcDbEntity
  8
0
100
AcDbBlockBegin
  2
YA_N
 70
     0
 10
0.0
 20
0.0
 30
0.0
  3
YA_N
  1

  0
ENDBLK
  5
7A04
330
8128
100
AcDbEntity
  8
0
100
AcDbBlockEnd
  0
BLOCK
  5
812B
330
812A
100
AcDbEntity
  8
0
100
AcDbBlockBegin
  2
_DOT
 70
     0
 10
0.0
 20
0.0
 30
0.0
  3
_DOT
  1

  0
LWPOLYLINE
  5
7F2E
330
812A
100
AcDbEntity
  8
0
  6
ByBlock
 62
     0
100
AcDbPolyline
 90
        2
 70
     1
 43
0.25
 10
-0.125
 20
0.0
 42
1.0
 10
0.125
 20
0.0
 42
1.0
  0
LINE
  5
7F32
330
812A
100
AcDbEntity
  8
0
  6
ByBlock
 62
     0
100
AcDbLine
 10
-0.25
 20
0.0
 30
0.0
 11
-1.0
 21
0.0
 31
0.0
  0
ENDBLK
  5
7B23
330
812A
100
AcDbEntity
  8
0
100
AcDbBlockEnd
  0
BLOCK
  5
812D
330
812C
100
AcDbEntity
  8
0
100
AcDbBlockBegin
  2
*D5
 70
     1
 10
0.0
 20
0.0
 30
0.0
  3
*D5
  1

  0
LINE
  5
7E07
330
812C
100
AcDbEntity
  8
0
  6
ByBlock
100
AcDbLine
 10
1241.29309838609
 20
713.8876154094804
 30
0.0
 11
1092.947754844026
 21
713.8876154094804
 31
0.0
  0
LINE
  5
7E08
330
812C
100
AcDbEntity
  8
0
  6
ByBlock
100
AcDbLine
 10
1241.29309838609
 20
1538.88761540948
 30
0.0
 11
1092.947754844026
 21
1538.88761540948
 31
0.0
  0
LINE
  5
7E09
330
812C
100
AcDbEntity
  8
0
  6
ByBlock
100
AcDbLine
 10
1117.947754844026
 20
763.8876154094804
 30
0.0
 11
1117.947754844026
 21
1488.88761540948
 31
0.0
  0
INSERT
  5
7E0A
330
812C
100
AcDbEntity
  8
0
  6
ByBlock
100
AcDbBlockReference
  2
_OPEN
 10
1117.947754844026
 20
713.8876154094804
 30
0.0
 41
50.0
 42
50.0
 43
50.0
 50
270.0
  0
INSERT
  5
7E0B
330
812C
100
AcDbEntity
  8
0
  6
ByBlock
100
AcDbBlockReference
  2
_OPEN
 10
1117.947754844026
 20
1538.88761540948
 30
0.0
 41
50.0
 42
50.0
 43
50.0
 50
90.0
  0
TEXT
  5
7E0C
330
812C
100
AcDbEntity
  8
3
100
AcDbText
 10
1105.447754844026
 20
1029.959043980909
 30
0.0
 40
75.0
  1
825
 50
90.0
100
AcDbText
  0
POINT
  5
7E0D
330
812C
100
AcDbEntity
  8
DEFPOINTS
  6
ByBlock
 62
     0
100
AcDbPoint
 10
1266.29309838609
 20
713.8876154094804
 30
0.0
  0
POINT
  5
7E0E
330
812C
100
AcDbEntity
  8
DEFPOINTS
  6
ByBlock
 62
     0
100
AcDbPoint
 10
1266.29309838609
 20
1538.88761540948
 30
0.0
  0
POINT
  5
7E0F
330
812C
100
AcDbEntity
  8
DEFPOINTS
  6
ByBlock
 62
     0
100
AcDbPoint
 10
1117.947754844026
 20
1538.88761540948
 30
0.0
  0
ENDBLK
  5
7E10
330
812C
100
AcDbEntity
  8
0
100
AcDbBlockEnd
  0
BLOCK
  5
812F
330
812E
100
AcDbEntity
  8
0
100
AcDbBlockBegin
  2
*D6
 70
     1
 10
0.0
 20
0.0
 30
0.0
  3
*D6
  1

  0
LINE
  5
7E12
330
812E
100
AcDbEntity
  8
0
  6
ByBlock
100
AcDbLine
 10
1241.29309838609
 20
713.8876154094804
 30
0.0
 11
940.6643522702234
 21
713.8876154094804
 31
0.0
  0
LINE
  5
7E13
330
812E
100
AcDbEntity
  8
0
  6
ByBlock
100
AcDbLine
 10
1119.821306535699
 20
1561.887615409481
 30
0.0
 11
940.6643522702234
 21
1561.887615409481
 31
0.0
  0
LINE
  5
7E14
330
812E
100
AcDbEntity
  8
0
  6
ByBlock
100
AcDbLine
 10
965.6643522702234
 20
763.8876154094804
 30
0.0
 11
965.6643522702234
 21
1511.887615409481
 31
0.0
  0
INSERT
  5
7E15
330
812E
100
AcDbEntity
  8
0
  6
ByBlock
100
AcDbBlockReference
  2
_OPEN
 10
965.6643522702234
 20
713.8876154094804
 30
0.0
 41
50.0
 42
50.0
 43
50.0
 50
270.0
  0
INSERT
  5
7E16
330
812E
100
AcDbEntity
  8
0
  6
ByBlock
100
AcDbBlockReference
  2
_OPEN
 10
965.6643522702234
 20
1561.887615409481
 30
0.0
 41
50.0
 42
50.0
 43
50.0
 50
90.0
  0
TEXT
  5
7E17
330
812E
100
AcDbEntity
  8
3
100
AcDbText
 10
953.1643522702234
 20
1041.459043980909
 30
0.0
 40
75.0
  1
848
 50
90.0
100
AcDbText
  0
POINT
  5
7E18
330
812E
100
AcDbEntity
  8
DEFPOINTS
  6
ByBlock
 62
     0
100
AcDbPoint
 10
1266.29309838609
 20
713.8876154094804
 30
0.0
  0
POINT
  5
7E19
330
812E
100
AcDbEntity
  8
DEFPOINTS
  6
ByBlock
 62
     0
100
AcDbPoint
 10
1144.821306535699
 20
1561.887615409481
 30
0.0
  0
POINT
  5
7E1A
330
812E
100
AcDbEntity
  8
DEFPOINTS
  6
ByBlock
 62
     0
100
AcDbPoint
 10
965.6643522702234
 20
1561.887615409481
 30
0.0
  0
ENDBLK
  5
7E1B
330
812E
100
AcDbEntity
  8
0
100
AcDbBlockEnd
  0
BLOCK
  5
8131
330
8130
100
AcDbEntity
  8
0
100
AcDbBlockBegin
  2
*D7
 70
     1
 10
0.0
 20
0.0
 30
0.0
  3
*D7
  1

  0
LINE
  5
7E33
330
8130
100
AcDbEntity
  8
0
  6
ByBlock
100
AcDbLine
 10
5441.207505112644
 20
1986.88761540948
 30
0.0
 11
5740.43091600962
 21
1986.88761540948
 31
0.0
  0
LINE
  5
7E34
330
8130
100
AcDbEntity
  8
0
  6
ByBlock
100
AcDbLine
 10
5441.207505112644
 20
1136.887615409481
 30
0.0
 11
5740.43091600962
 21
1136.887615409481
 31
0.0
  0
LINE
  5
7E35
330
8130
100
AcDbEntity
  8
0
  6
ByBlock
100
AcDbLine
 10
5715.43091600962
 20
1936.88761540948
 30
0.0
 11
5715.43091600962
 21
1186.887615409481
 31
0.0
  0
INSERT
  5
7E36
330
8130
100
AcDbEntity
  8
0
  6
ByBlock
100
AcDbBlockReference
  2
_OPEN
 10
5715.43091600962
 20
1986.88761540948
 30
0.0
 41
50.0
 42
50.0
 43
50.0
 50
90.0
  0
INSERT
  5
7E37
330
8130
100
AcDbEntity
  8
0
  6
ByBlock
100
AcDbBlockReference
  2
_OPEN
 10
5715.43091600962
 20
1136.887615409481
 30
0.0
 41
50.0
 42
50.0
 43
50.0
 50
270.0
  0
TEXT
  5
7E38
330
8130
100
AcDbEntity
  8
3
100
AcDbText
 10
5702.93091600962
 20
1427.959043980909
 30
0.0
 40
75.0
  1
\U+03C6850
 50
90.0
100
AcDbText
  0
POINT
  5
7E39
330
8130
100
AcDbEntity
  8
DEFPOINTS
  6
ByBlock
 62
     0
100
AcDbPoint
 10
5416.207505112645
 20
1986.88761540948
 30
0.0
  0
POINT
  5
7E3A
330
8130
100
AcDbEntity
  8
DEFPOINTS
  6
ByBlock
 62
     0
100
AcDbPoint
 10
5416.207505112645
 20
1136.887615409481
 30
0.0
  0
POINT
  5
7E3B
330
8130
100
AcDbEntity
  8
DEFPOINTS
  6
ByBlock
 62
     0
100
AcDbPoint
 10
5715.43091600962
 20
1136.887615409481
 30
0.0
  0
ENDBLK
  5
7E3C
330
8130
100
AcDbEntity
  8
0
100
AcDbBlockEnd
  0
BLOCK
  5
8133
330
8132
100
AcDbEntity
  8
0
100
AcDbBlockBegin
  2
*D8
 70
     1
 10
0.0
 20
0.0
 30
0.0
  3
*D8
  1

  0
LINE
  5
7E49
330
8132
100
AcDbEntity
  8
0
  6
ByBlock
100
AcDbLine
 10
2311.293098386091
 20
4579.380572240498
 30
0.0
 11
2311.293098386091
 21
4730.503855791452
 31
0.0
  0
LINE
  5
7E4A
330
8132
100
AcDbEntity
  8
0
  6
ByBlock
100
AcDbLine
 10
1311.29309838609
 20
4579.380572240498
 30
0.0
 11
1311.29309838609
 21
4730.503855791452
 31
0.0
  0
LINE
  5
7E4B
330
8132
100
AcDbEntity
  8
0
  6
ByBlock
100
AcDbLine
 10
2261.293098386091
 20
4705.503855791452
 30
0.0
 11
1361.29309838609
 21
4705.503855791452
 31
0.0
  0
INSERT
  5
7E4C
330
8132
100
AcDbEntity
  8
0
  6
ByBlock
100
AcDbBlockReference
  2
_OPEN
 10
2311.293098386091
 20
4705.503855791452
 30
0.0
 41
50.0
 42
50.0
 43
50.0
  0
INSERT
  5
7E4D
330
8132
100
AcDbEntity
  8
0
  6
ByBlock
100
AcDbBlockReference
  2
_OPEN
 10
1311.29309838609
 20
4705.503855791452
 30
0.0
 41
50.0
 42
50.0
 43
50.0
 50
180.0
  0
TEXT
  5
7E4E
330
8132
100
AcDbEntity
  8
3
100
AcDbText
 10
1686.29309838609
 20
4718.003855791452
 30
0.0
 40
75.0
  1
1000
100
AcDbText
  0
POINT
  5
7E4F
330
8132
100
AcDbEntity
  8
DEFPOINTS
  6
ByBlock
 62
     0
100
AcDbPoint
 10
2311.293098386091
 20
4554.380572240497
 30
0.0
  0
POINT
  5
7E50
330
8132
100
AcDbEntity
  8
DEFPOINTS
  6
ByBlock
 62
     0
100
AcDbPoint
 10
1311.29309838609
 20
4554.380572240497
 30
0.0
  0
POINT
  5
7E51
330
8132
100
AcDbEntity
  8
DEFPOINTS
  6
ByBlock
 62
     0
100
AcDbPoint
 10
1311.29309838609
 20
4705.503855791452
 30
0.0
  0
ENDBLK
  5
7E52
330
8132
100
AcDbEntity
  8
0
100
AcDbBlockEnd
  0
BLOCK
  5
8135
330
8134
100
AcDbEntity
  8
0
100
AcDbBlockBegin
  2
*D9
 70
     1
 10
0.0
 20
0.0
 30
0.0
  3
*D9
  1

  0
LINE
  5
7E54
330
8134
100
AcDbEntity
  8
0
  6
ByBlock
100
AcDbLine
 10
1286.29309838609
 20
4554.380572240497
 30
0.0
 11
1068.3563702362
 21
4554.380572240497
 31
0.0
  0
LINE
  5
7E55
330
8134
100
AcDbEntity
  8
0
  6
ByBlock
100
AcDbLine
 10
1286.29309838609
 20
3299.3805722405
 30
0.0
 11
1068.3563702362
 21
3299.3805722405
 31
0.0
  0
LINE
  5
7E56
330
8134
100
AcDbEntity
  8
0
  6
ByBlock
100
AcDbLine
 10
1093.3563702362
 20
4504.380572240497
 30
0.0
 11
1093.3563702362
 21
3349.380572240499
 31
0.0
  0
INSERT
  5
7E57
330
8134
100
AcDbEntity
  8
0
  6
ByBlock
100
AcDbBlockReference
  2
_OPEN
 10
1093.3563702362
 20
4554.380572240497
 30
0.0
 41
50.0
 42
50.0
 43
50.0
 50
90.0
  0
INSERT
  5
7E58
330
8134
100
AcDbEntity
  8
0
  6
ByBlock
100
AcDbBlockReference
  2
_OPEN
 10
1093.3563702362
 20
3299.3805722405
 30
0.0
 41
50.0
 42
50.0
 43
50.0
 50
270.0
  0
TEXT
  5
7E59
330
8134
100
AcDbEntity
  8
3
100
AcDbText
 10
1080.8563702362
 20
3801.8805722405
 30
0.0
 40
75.0
  1
1255
 50
90.0
100
AcDbText
  0
POINT
  5
7E5A
330
8134
100
AcDbEntity
  8
DEFPOINTS
  6
ByBlock
 62
     0
100
AcDbPoint
 10
1311.29309838609
 20
4554.380572240497
 30
0.0
  0
POINT
  5
7E5B
330
8134
100
AcDbEntity
  8
DEFPOINTS
  6
ByBlock
 62
     0
100
AcDbPoint
 10
1311.29309838609
 20
3299.3805722405
 30
0.0
  0
POINT
  5
7E5C
330
8134
100
AcDbEntity
  8
DEFPOINTS
  6
ByBlock
 62
     0
100
AcDbPoint
 10
1093.3563702362
 20
3299.3805722405
 30
0.0
  0
ENDBLK
  5
7E5D
330
8134
100
AcDbEntity
  8
0
100
AcDbBlockEnd
  0
BLOCK
  5
8137
330
8136
100
AcDbEntity
  8
0
100
AcDbBlockBegin
  2
*D10
 70
     1
 10
0.0
 20
0.0
 30
0.0
  3
*D10
  1

  0
LINE
  5
7E5F
330
8136
100
AcDbEntity
  8
0
  6
ByBlock
100
AcDbLine
 10
3086.293098386089
 20
4049.380572240499
 30
0.0
 11
3238.445927509403
 21
4049.380572240499
 31
0.0
  0
LINE
  5
7E60
330
8136
100
AcDbEntity
  8
0
  6
ByBlock
100
AcDbLine
 10
3086.293098386089
 20
3299.3805722405
 30
0.0
 11
3238.445927509403
 21
3299.3805722405
 31
0.0
  0
LINE
  5
7E61
330
8136
100
AcDbEntity
  8
0
  6
ByBlock
100
AcDbLine
 10
3213.445927509403
 20
3999.380572240499
 30
0.0
 11
3213.445927509403
 21
3349.3805722405
 31
0.0
  0
INSERT
  5
7E62
330
8136
100
AcDbEntity
  8
0
  6
ByBlock
100
AcDbBlockReference
  2
_OPEN
 10
3213.445927509403
 20
4049.380572240499
 30
0.0
 41
50.0
 42
50.0
 43
50.0
 50
90.0
  0
INSERT
  5
7E63
330
8136
100
AcDbEntity
  8
0
  6
ByBlock
100
AcDbBlockReference
  2
_OPEN
 10
3213.445927509403
 20
3299.3805722405
 30
0.0
 41
50.0
 42
50.0
 43
50.0
 50
270.0
  0
TEXT
  5
7E64
330
8136
100
AcDbEntity
  8
3
100
AcDbText
 10
3200.945927509403
 20
3577.952000811928
 30
0.0
 40
75.0
  1
750
 50
90.0
100
AcDbText
  0
POINT
  5
7E65
330
8136
100
AcDbEntity
  8
DEFPOINTS
  6
ByBlock
 62
     0
100
AcDbPoint
 10
3061.293098386089
 20
4049.380572240499
 30
0.0
  0
POINT
  5
7E66
330
8136
100
AcDbEntity
  8
DEFPOINTS
  6
ByBlock
 62
     0
100
AcDbPoint
 10
3061.293098386089
 20
3299.3805722405
 30
0.0
  0
POINT
  5
7E67
330
8136
100
AcDbEntity
  8
DEFPOINTS
  6
ByBlock
 62
     0
100
AcDbPoint
 10
3213.445927509403
 20
3299.3805722405
 30
0.0
  0
ENDBLK
  5
7E68
330
8136
100
AcDbEntity
  8
0
100
AcDbBlockEnd
  0
BLOCK
  5
8139
330
8138
100
AcDbEntity
  8
0
100
AcDbBlockBegin
  2
*D11
 70
     1
 10
0.0
 20
0.0
 30
0.0
  3
*D11
  1

  0
LINE
  5
7E6A
330
8138
100
AcDbEntity
  8
0
  6
ByBlock
100
AcDbLine
 10
3061.293098386089
 20
3274.3805722405
 30
0.0
 11
3061.293098386089
 21
3013.7147873961
 31
0.0
  0
LINE
  5
7E6B
330
8138
100
AcDbEntity
  8
0
  6
ByBlock
100
AcDbLine
 10
1311.29309838609
 20
3274.380572240499
 30
0.0
 11
1311.29309838609
 21
3013.7147873961
 31
0.0
  0
LINE
  5
7E6C
330
8138
100
AcDbEntity
  8
0
  6
ByBlock
100
AcDbLine
 10
3011.293098386091
 20
3038.7147873961
 30
0.0
 11
1361.29309838609
 21
3038.7147873961
 31
0.0
  0
INSERT
  5
7E6D
330
8138
100
AcDbEntity
  8
0
  6
ByBlock
100
AcDbBlockReference
  2
_OPEN
 10
3061.293098386089
 20
3038.7147873961
 30
0.0
 41
50.0
 42
50.0
 43
50.0
  0
INSERT
  5
7E6E
330
8138
100
AcDbEntity
  8
0
  6
ByBlock
100
AcDbBlockReference
  2
_OPEN
 10
1311.29309838609
 20
3038.7147873961
 30
0.0
 41
50.0
 42
50.0
 43
50.0
 50
180.0
  0
TEXT
  5
7E6F
330
8138
100
AcDbEntity
  8
3
100
AcDbText
 10
2061.293098386089
 20
3051.2147873961
 30
0.0
 40
75.0
  1
1750
100
AcDbText
  0
POINT
  5
7E70
330
8138
100
AcDbEntity
  8
DEFPOINTS
  6
ByBlock
 62
     0
100
AcDbPoint
 10
3061.293098386089
 20
3299.3805722405
 30
0.0
  0
POINT
  5
7E71
330
8138
100
AcDbEntity
  8
DEFPOINTS
  6
ByBlock
 62
     0
100
AcDbPoint
 10
1311.29309838609
 20
3299.3805722405
 30
0.0
  0
POINT
  5
7E72
330
8138
100
AcDbEntity
  8
DEFPOINTS
  6
ByBlock
 62
     0
100
AcDbPoint
 10
1311.29309838609
 20
3038.7147873961
 30
0.0
  0
ENDBLK
  5
7E73
330
8138
100
AcDbEntity
  8
0
100
AcDbBlockEnd
  0
BLOCK
  5
813B
330
813A
100
AcDbEntity
  8
0
100
AcDbBlockBegin
  2
*D12
 70
     1
 10
0.0
 20
0.0
 30
0.0
  3
*D12
  1

  0
LINE
  5
7F6A
330
813A
100
AcDbEntity
  8
0
  6
ByBlock
100
AcDbLine
 10
3714.249582193797
 20
3421.435029840878
 30
0.0
 11
3714.249582193797
 21
3543.440210206699
 31
0.0
  0
LINE
  5
7F6B
330
813A
100
AcDbEntity
  8
0
  6
ByBlock
100
AcDbLine
 10
4714.249582193798
 20
3421.435029840878
 30
0.0
 11
4714.249582193798
 21
3543.440210206699
 31
0.0
  0
LINE
  5
7F6C
330
813A
100
AcDbEntity
  8
0
  6
ByBlock
100
AcDbLine
 10
3764.249582193798
 20
3518.440210206699
 30
0.0
 11
4664.249582193798
 21
3518.440210206699
 31
0.0
  0
INSERT
  5
7F6D
330
813A
100
AcDbEntity
  8
0
  6
ByBlock
100
AcDbBlockReference
  2
_OPEN
 10
3714.249582193797
 20
3518.440210206699
 30
0.0
 41
50.0
 42
50.0
 43
50.0
 50
180.0
  0
INSERT
  5
7F6E
330
813A
100
AcDbEntity
  8
0
  6
ByBlock
100
AcDbBlockReference
  2
_OPEN
 10
4714.249582193798
 20
3518.440210206699
 30
0.0
 41
50.0
 42
50.0
 43
50.0
  0
TEXT
  5
7F6F
330
813A
100
AcDbEntity
  8
3
100
AcDbText
 10
4089.249582193796
 20
3530.940210206699
 30
0.0
 40
75.0
  1
1000
100
AcDbText
  0
POINT
  5
7F70
330
813A
100
AcDbEntity
  8
DEFPOINTS
  6
ByBlock
 62
     0
100
AcDbPoint
 10
3714.249582193797
 20
3396.435029840878
 30
0.0
  0
POINT
  5
7F71
330
813A
100
AcDbEntity
  8
DEFPOINTS
  6
ByBlock
 62
     0
100
AcDbPoint
 10
4714.249582193798
 20
3396.435029840878
 30
0.0
  0
POINT
  5
7F72
330
813A
100
AcDbEntity
  8
DEFPOINTS
  6
ByBlock
 62
     0
100
AcDbPoint
 10
4714.249582193798
 20
3518.440210206699
 30
0.0
  0
ENDBLK
  5
7F73
330
813A
100
AcDbEntity
  8
0
100
AcDbBlockEnd
  0
BLOCK
  5
813D
330
813C
100
AcDbEntity
  8
0
100
AcDbBlockBegin
  2
*D13
 70
     1
 10
0.0
 20
0.0
 30
0.0
  3
*D13
  1

  0
LINE
  5
807C
330
813C
100
AcDbEntity
  8
3
100
AcDbLine
 10
2995.287641258175
 20
4997.90473181634
 30
0.0
 11
2995.287641258175
 21
5654.028015367292
 31
0.0
  0
LINE
  5
807D
330
813C
100
AcDbEntity
  8
3
100
AcDbLine
 10
2295.287641258176
 20
5629.028015367293
 30
0.0
 11
2945.287641258175
 21
5629.028015367293
 31
0.0
  0
INSERT
  5
807E
330
813C
100
AcDbEntity
  8
3
100
AcDbBlockReference
  2
_OPEN
 10
2245.287641258176
 20
5629.028015367293
 30
0.0
 41
50.0
 42
50.0
 43
50.0
 50
180.0
  0
INSERT
  5
807F
330
813C
100
AcDbEntity
  8
3
100
AcDbBlockReference
  2
_OPEN
 10
2995.287641258175
 20
5629.028015367293
 30
0.0
 41
50.0
 42
50.0
 43
50.0
  0
TEXT
  5
809F
330
813C
100
AcDbEntity
  8
3
100
AcDbText
 10
2470.29
 20
5546.28
 30
0.0
 40
75.0
  1
750
100
AcDbText
  0
POINT
  5
8081
330
813C
100
AcDbEntity
  8
DEFPOINTS
 62
     0
100
AcDbPoint
 10
2245.287641258176
 20
5477.904731816339
 30
0.0
  0
POINT
  5
8082
330
813C
100
AcDbEntity
  8
DEFPOINTS
 62
     0
100
AcDbPoint
 10
2995.287641258175
 20
4972.904731816339
 30
0.0
  0
POINT
  5
8083
330
813C
100
AcDbEntity
  8
DEFPOINTS
 62
     0
100
AcDbPoint
 10
2995.287641258175
 20
5629.028015367293
 30
0.0
  0
ENDBLK
  5
7E9E
330
813C
100
AcDbEntity
  8
0
100
AcDbBlockEnd
  0
BLOCK
  5
813F
330
813E
100
AcDbEntity
  8
0
100
AcDbBlockBegin
  2
*D14
 70
     1
 10
0.0
 20
0.0
 30
0.0
  3
*D14
  1

  0
LINE
  5
7F55
330
813E
100
AcDbEntity
  8
0
  6
ByBlock
100
AcDbLine
 10
4814.249582193799
 20
2813.935029840878
 30
0.0
 11
4814.249582193799
 21
3740.71610307365
 31
0.0
  0
LINE
  5
7F56
330
813E
100
AcDbEntity
  8
0
  6
ByBlock
100
AcDbLine
 10
4214.249582193797
 20
3644.043403609869
 30
0.0
 11
4214.249582193797
 21
3740.71610307365
 31
0.0
  0
LINE
  5
7F57
330
813E
100
AcDbEntity
  8
0
  6
ByBlock
100
AcDbLine
 10
4764.249582193798
 20
3715.71610307365
 30
0.0
 11
4264.249582193797
 21
3715.71610307365
 31
0.0
  0
INSERT
  5
7F58
330
813E
100
AcDbEntity
  8
0
  6
ByBlock
100
AcDbBlockReference
  2
_OPEN
 10
4814.249582193799
 20
3715.71610307365
 30
0.0
 41
50.0
 42
50.0
 43
50.0
  0
INSERT
  5
7F59
330
813E
100
AcDbEntity
  8
0
  6
ByBlock
100
AcDbBlockReference
  2
_OPEN
 10
4214.249582193797
 20
3715.71610307365
 30
0.0
 41
50.0
 42
50.0
 43
50.0
 50
180.0
  0
TEXT
  5
7F5A
330
813E
100
AcDbEntity
  8
3
100
AcDbText
 10
4376.749582193798
 20
3760.358960216506
 30
0.0
 40
75.0
  1
(610)
100
AcDbText
  0
POINT
  5
7F5B
330
813E
100
AcDbEntity
  8
DEFPOINTS
  6
ByBlock
 62
     0
100
AcDbPoint
 10
4814.249582193799
 20
2788.935029840879
 30
0.0
  0
POINT
  5
7F5C
330
813E
100
AcDbEntity
  8
DEFPOINTS
  6
ByBlock
 62
     0
100
AcDbPoint
 10
4214.249582193797
 20
3619.043403609868
 30
0.0
  0
POINT
  5
7F5D
330
813E
100
AcDbEntity
  8
DEFPOINTS
  6
ByBlock
 62
     0
100
AcDbPoint
 10
4214.249582193797
 20
3715.71610307365
 30
0.0
  0
ENDBLK
  5
7F5E
330
813E
100
AcDbEntity
  8
0
100
AcDbBlockEnd
  0
BLOCK
  5
8141
330
8140
100
AcDbEntity
  8
0
100
AcDbBlockBegin
  2
*D15
 70
     1
 10
0.0
 20
0.0
 30
0.0
  3
*D15
  1

  0
LINE
  5
8084
330
8140
100
AcDbEntity
  8
3
100
AcDbLine
 10
3404.249582193797
 20
3073.435029840878
 30
0.0
 11
3404.249582193797
 21
3740.71610307365
 31
0.0
  0
LINE
  5
8085
330
8140
100
AcDbEntity
  8
3
100
AcDbLine
 10
4164.249582193797
 20
3715.71610307365
 30
0.0
 11
3454.249582193797
 21
3715.71610307365
 31
0.0
  0
INSERT
  5
8086
330
8140
100
AcDbEntity
  8
3
100
AcDbBlockReference
  2
_OPEN
 10
4214.249582193797
 20
3715.71610307365
 30
0.0
 41
50.0
 42
50.0
 43
50.0
  0
INSERT
  5
8087
330
8140
100
AcDbEntity
  8
3
100
AcDbBlockReference
  2
_OPEN
 10
3404.249582193797
 20
3715.71610307365
 30
0.0
 41
50.0
 42
50.0
 43
50.0
 50
180.0
  0
TEXT
  5
80A0
330
8140
100
AcDbEntity
  8
3
100
AcDbText
 10
3659.25
 20
3695.47
 30
0.0
 40
75.0
  1
MAX
100
AcDbText
  0
TEXT
  5
80A1
330
8140
100
AcDbEntity
  8
3
100
AcDbText
 10
3659.25
 20
3597.97
 30
0.0
 40
75.0
  1
860
100
AcDbText
  0
POINT
  5
8089
330
8140
100
AcDbEntity
  8
DEFPOINTS
 62
     0
100
AcDbPoint
 10
4214.249582193797
 20
3619.043403609868
 30
0.0
  0
POINT
  5
808A
330
8140
100
AcDbEntity
  8
DEFPOINTS
 62
     0
100
AcDbPoint
 10
3404.249582193797
 20
3048.435029840878
 30
0.0
  0
POINT
  5
808B
330
8140
100
AcDbEntity
  8
DEFPOINTS
 62
     0
100
AcDbPoint
 10
3404.249582193797
 20
3715.71610307365
 30
0.0
  0
ENDBLK
  5
7F68
330
8140
100
AcDbEntity
  8
0
100
AcDbBlockEnd
  0
BLOCK
  5
8143
330
8142
100
AcDbEntity
  8
0
100
AcDbBlockBegin
  2
*D16
 70
     1
 10
0.0
 20
0.0
 30
0.0
  3
*D16
  1

  0
LINE
  5
7EB5
330
8142
100
AcDbEntity
  8
0
  6
ByBlock
100
AcDbLine
 10
1266.29309838609
 20
1606.38761540948
 30
0.0
 11
1266.29309838609
 21
2284.4493873368
 31
0.0
  0
LINE
  5
7EB6
330
8142
100
AcDbEntity
  8
0
  6
ByBlock
100
AcDbLine
 10
1811.293098386089
 20
2243.905936120953
 30
0.0
 11
1811.293098386089
 21
2284.4493873368
 31
0.0
  0
LINE
  5
7EB7
330
8142
100
AcDbEntity
  8
0
  6
ByBlock
100
AcDbLine
 10
1316.29309838609
 20
2259.4493873368
 30
0.0
 11
1761.29309838609
 21
2259.4493873368
 31
0.0
  0
INSERT
  5
7EB8
330
8142
100
AcDbEntity
  8
0
  6
ByBlock
100
AcDbBlockReference
  2
_OPEN
 10
1266.29309838609
 20
2259.4493873368
 30
0.0
 41
50.0
 42
50.0
 43
50.0
 50
180.0
  0
INSERT
  5
7EB9
330
8142
100
AcDbEntity
  8
0
  6
ByBlock
100
AcDbBlockReference
  2
_OPEN
 10
1811.293098386089
 20
2259.4493873368
 30
0.0
 41
50.0
 42
50.0
 43
50.0
  0
TEXT
  5
7EBA
330
8142
100
AcDbEntity
  8
3
100
AcDbText
 10
1442.364526957519
 20
2271.949387336801
 30
0.0
 40
75.0
  1
545
100
AcDbText
  0
POINT
  5
7EBB
330
8142
100
AcDbEntity
  8
DEFPOINTS
  6
ByBlock
 62
     0
100
AcDbPoint
 10
1266.29309838609
 20
1581.38761540948
 30
0.0
  0
POINT
  5
7EBC
330
8142
100
AcDbEntity
  8
DEFPOINTS
  6
ByBlock
 62
     0
100
AcDbPoint
 10
1811.293098386089
 20
2218.905936120953
 30
0.0
  0
POINT
  5
7EBD
330
8142
100
AcDbEntity
  8
DEFPOINTS
  6
ByBlock
 62
     0
100
AcDbPoint
 10
1811.293098386089
 20
2259.4493873368
 30
0.0
  0
ENDBLK
  5
7EBE
330
8142
100
AcDbEntity
  8
0
100
AcDbBlockEnd
  0
BLOCK
  5
8145
330
8144
100
AcDbEntity
  8
0
100
AcDbBlockBegin
  2
*D17
 70
     1
 10
0.0
 20
0.0
 30
0.0
  3
*D17
  1

  0
LINE
  5
808C
330
8144
100
AcDbEntity
  8
3
100
AcDbLine
 10
2431.287641258176
 20
2794.435029840878
 30
0.0
 11
2431.287641258176
 21
3550.996801768198
 31
0.0
  0
LINE
  5
808D
330
8144
100
AcDbEntity
  8
3
100
AcDbLine
 10
1795.287641258175
 20
3525.996801768199
 30
0.0
 11
2381.287641258175
 21
3525.996801768199
 31
0.0
  0
INSERT
  5
808E
330
8144
100
AcDbEntity
  8
3
100
AcDbBlockReference
  2
_OPEN
 10
1745.287641258175
 20
3525.996801768199
 30
0.0
 41
50.0
 42
50.0
 43
50.0
 50
180.0
  0
INSERT
  5
808F
330
8144
100
AcDbEntity
  8
3
100
AcDbBlockReference
  2
_OPEN
 10
2431.287641258176
 20
3525.996801768199
 30
0.0
 41
50.0
 42
50.0
 43
50.0
  0
TEXT
  5
80A2
330
8144
100
AcDbEntity
  8
3
100
AcDbText
 10
1938.29
 20
3443.25
 30
0.0
 40
75.0
  1
686
100
AcDbText
  0
POINT
  5
8091
330
8144
100
AcDbEntity
  8
DEFPOINTS
 62
     0
100
AcDbPoint
 10
1745.287641258175
 20
3485.45335055235
 30
0.0
  0
POINT
  5
8092
330
8144
100
AcDbEntity
  8
DEFPOINTS
 62
     0
100
AcDbPoint
 10
2431.287641258176
 20
2769.435029840878
 30
0.0
  0
POINT
  5
8093
330
8144
100
AcDbEntity
  8
DEFPOINTS
 62
     0
100
AcDbPoint
 10
2431.287641258176
 20
3525.996801768199
 30
0.0
  0
ENDBLK
  5
7EC8
330
8144
100
AcDbEntity
  8
0
100
AcDbBlockEnd
  0
BLOCK
  5
8147
330
8146
100
AcDbEntity
  8
0
100
AcDbBlockBegin
  2
*D18
 70
     1
 10
0.0
 20
0.0
 30
0.0
  3
*D18
  1

  0
LINE
  5
7ECA
330
8146
100
AcDbEntity
  8
0
  6
ByBlock
100
AcDbLine
 10
1845.293098386089
 20
2129.88761540948
 30
0.0
 11
785.372573656188
 21
2129.88761540948
 31
0.0
  0
LINE
  5
7ECB
330
8146
100
AcDbEntity
  8
0
  6
ByBlock
100
AcDbLine
 10
1094.821306535699
 20
1561.887615409481
 30
0.0
 11
785.372573656188
 21
1561.887615409481
 31
0.0
  0
LINE
  5
7ECC
330
8146
100
AcDbEntity
  8
0
  6
ByBlock
100
AcDbLine
 10
810.372573656188
 20
2079.88761540948
 30
0.0
 11
810.372573656188
 21
1611.887615409481
 31
0.0
  0
INSERT
  5
7ECD
330
8146
100
AcDbEntity
  8
0
  6
ByBlock
100
AcDbBlockReference
  2
_OPEN
 10
810.372573656188
 20
2129.88761540948
 30
0.0
 41
50.0
 42
50.0
 43
50.0
 50
90.0
  0
INSERT
  5
7ECE
330
8146
100
AcDbEntity
  8
0
  6
ByBlock
100
AcDbBlockReference
  2
_OPEN
 10
810.372573656188
 20
1561.887615409481
 30
0.0
 41
50.0
 42
50.0
 43
50.0
 50
270.0
  0
TEXT
  5
7ECF
330
8146
100
AcDbEntity
  8
3
100
AcDbText
 10
797.872573656188
 20
1749.459043980909
 30
0.0
 40
75.0
  1
568
 50
90.0
100
AcDbText
  0
POINT
  5
7ED0
330
8146
100
AcDbEntity
  8
DEFPOINTS
  6
ByBlock
 62
     0
100
AcDbPoint
 10
1870.293098386089
 20
2129.88761540948
 30
0.0
  0
POINT
  5
7ED1
330
8146
100
AcDbEntity
  8
DEFPOINTS
  6
ByBlock
 62
     0
100
AcDbPoint
 10
1119.821306535699
 20
1561.887615409481
 30
0.0
  0
POINT
  5
7ED2
330
8146
100
AcDbEntity
  8
DEFPOINTS
  6
ByBlock
 62
     0
100
AcDbPoint
 10
810.372573656188
 20
1561.887615409481
 30
0.0
  0
ENDBLK
  5
7ED3
330
8146
100
AcDbEntity
  8
0
100
AcDbBlockEnd
  0
BLOCK
  5
8149
330
8148
100
AcDbEntity
  8
0
100
AcDbBlockBegin
  2
*D19
 70
     1
 10
0.0
 20
0.0
 30
0.0
  3
*D19
  1

  0
LINE
  5
8094
330
8148
100
AcDbEntity
  8
3
100
AcDbLine
 10
1220.287641258176
 20
1868.435029840878
 30
0.0
 11
719.3671165282739
 21
1868.435029840878
 31
0.0
  0
LINE
  5
8095
330
8148
100
AcDbEntity
  8
3
100
AcDbLine
 10
744.3671165282741
 20
2778.435029840879
 30
0.0
 11
744.3671165282737
 21
1918.435029840878
 31
0.0
  0
INSERT
  5
8096
330
8148
100
AcDbEntity
  8
3
100
AcDbBlockReference
  2
_OPEN
 10
744.3671165282742
 20
2828.435029840878
 30
0.0
 41
50.0
 42
50.0
 43
50.0
 50
90.0
  0
INSERT
  5
8097
330
8148
100
AcDbEntity
  8
3
100
AcDbBlockReference
  2
_OPEN
 10
744.3671165282737
 20
1868.435029840878
 30
0.0
 41
50.0
 42
50.0
 43
50.0
 50
270.0
  0
TEXT
  5
80A3
330
8148
100
AcDbEntity
  8
3
100
AcDbText
 10
544.367
 20
2215.69
 30
0.0
 40
75.0
  1
960
100
AcDbText
  0
POINT
  5
8099
330
8148
100
AcDbEntity
  8
DEFPOINTS
 62
     0
100
AcDbPoint
 10
1053.815849407785
 20
2828.435029840878
 30
0.0
  0
POINT
  5
809A
330
8148
100
AcDbEntity
  8
DEFPOINTS
 62
     0
100
AcDbPoint
 10
1245.287641258175
 20
1868.435029840878
 30
0.0
  0
POINT
  5
809B
330
8148
100
AcDbEntity
  8
DEFPOINTS
 62
     0
100
AcDbPoint
 10
744.3671165282737
 20
1868.435029840878
 30
0.0
  0
ENDBLK
  5
7EDD
330
8148
100
AcDbEntity
  8
0
100
AcDbBlockEnd
  0
BLOCK
  5
814B
330
814A
100
AcDbEntity
  8
0
100
AcDbBlockBegin
  2
*D20
 70
     1
 10
0.0
 20
0.0
 30
0.0
  3
*D20
  1

  0
LINE
  5
7EEB
330
814A
100
AcDbEntity
  8
0
  6
ByBlock
100
AcDbLine
 10
1286.29309838609
 20
556.8876154094814
 30
0.0
 11
785.372573656188
 21
556.8876154094814
 31
0.0
  0
LINE
  5
7EEC
330
814A
100
AcDbEntity
  8
0
  6
ByBlock
100
AcDbLine
 10
1286.29309838609
 20
456.8876154094813
 30
0.0
 11
785.372573656188
 21
456.8876154094813
 31
0.0
  0
LINE
  5
7EED
330
814A
100
AcDbEntity
  8
0
  6
ByBlock
100
AcDbLine
 10
810.372573656188
 20
606.8876154094815
 30
0.0
 11
810.372573656188
 21
656.8876154094815
 31
0.0
  0
LINE
  5
7EEE
330
814A
100
AcDbEntity
  8
0
  6
ByBlock
100
AcDbLine
 10
810.372573656188
 20
406.8876154094813
 30
0.0
 11
810.372573656188
 21
153.3161868380529
 31
0.0
  0
LINE
  5
7EEF
330
814A
100
AcDbEntity
  8
0
  6
ByBlock
100
AcDbLine
 10
810.372573656188
 20
556.8876154094814
 30
0.0
 11
810.372573656188
 21
456.8876154094813
 31
0.0
  0
INSERT
  5
7EF0
330
814A
100
AcDbEntity
  8
0
  6
ByBlock
100
AcDbBlockReference
  2
_DOT
 10
810.372573656188
 20
556.8876154094814
 30
0.0
 41
50.0
 42
50.0
 43
50.0
 50
270.0
  0
INSERT
  5
7EF1
330
814A
100
AcDbEntity
  8
0
  6
ByBlock
100
AcDbBlockReference
  2
_OPEN
 10
810.372573656188
 20
456.8876154094813
 30
0.0
 41
50.0
 42
50.0
 43
50.0
 50
90.0
  0
TEXT
  5
7EF2
330
814A
100
AcDbEntity
  8
3
100
AcDbText
 10
797.872573656188
 20
165.8161868380528
 30
0.0
 40
75.0
  1
100
 50
90.0
100
AcDbText
  0
POINT
  5
7EF3
330
814A
100
AcDbEntity
  8
DEFPOINTS
  6
ByBlock
 62
     0
100
AcDbPoint
 10
1311.29309838609
 20
556.8876154094814
 30
0.0
  0
POINT
  5
7EF4
330
814A
100
AcDbEntity
  8
DEFPOINTS
  6
ByBlock
 62
     0
100
AcDbPoint
 10
1311.29309838609
 20
456.8876154094813
 30
0.0
  0
POINT
  5
7EF5
330
814A
100
AcDbEntity
  8
DEFPOINTS
  6
ByBlock
 62
     0
100
AcDbPoint
 10
810.372573656188
 20
456.8876154094813
 30
0.0
  0
ENDBLK
  5
7EF6
330
814A
100
AcDbEntity
  8
0
100
AcDbBlockEnd
  0
BLOCK
  5
814D
330
814C
100
AcDbEntity
  8
0
100
AcDbBlockBegin
  2
*D21
 70
     1
 10
0.0
 20
0.0
 30
0.0
  3
*D21
  1

  0
LINE
  5
7F03
330
814C
100
AcDbEntity
  8
0
  6
ByBlock
100
AcDbLine
 10
1266.29309838609
 20
1606.38761540948
 30
0.0
 11
1266.29309838609
 21
2429.427103778762
 31
0.0
  0
LINE
  5
7F04
330
814C
100
AcDbEntity
  8
0
  6
ByBlock
100
AcDbLine
 10
3061.293098386091
 20
726.8876154094804
 30
0.0
 11
3061.293098386091
 21
2429.427103778762
 31
0.0
  0
LINE
  5
7F05
330
814C
100
AcDbEntity
  8
0
  6
ByBlock
100
AcDbLine
 10
1316.29309838609
 20
2404.427103778762
 30
0.0
 11
3011.293098386091
 21
2404.427103778762
 31
0.0
  0
INSERT
  5
7F06
330
814C
100
AcDbEntity
  8
0
  6
ByBlock
100
AcDbBlockReference
  2
_OPEN
 10
1266.29309838609
 20
2404.427103778762
 30
0.0
 41
50.0
 42
50.0
 43
50.0
 50
180.0
  0
INSERT
  5
7F07
330
814C
100
AcDbEntity
  8
0
  6
ByBlock
100
AcDbBlockReference
  2
_OPEN
 10
3061.293098386091
 20
2404.427103778762
 30
0.0
 41
50.0
 42
50.0
 43
50.0
  0
TEXT
  5
7F08
330
814C
100
AcDbEntity
  8
3
100
AcDbText
 10
2038.79309838609
 20
2416.927103778762
 30
0.0
 40
75.0
  1
1795
100
AcDbText
  0
POINT
  5
7F09
330
814C
100
AcDbEntity
  8
DEFPOINTS
  6
ByBlock
 62
     0
100
AcDbPoint
 10
1266.29309838609
 20
1581.38761540948
 30
0.0
  0
POINT
  5
7F0A
330
814C
100
AcDbEntity
  8
DEFPOINTS
  6
ByBlock
 62
     0
100
AcDbPoint
 10
3061.293098386091
 20
701.8876154094804
 30
0.0
  0
POINT
  5
7F0B
330
814C
100
AcDbEntity
  8
DEFPOINTS
  6
ByBlock
 62
     0
100
AcDbPoint
 10
3061.293098386091
 20
2404.427103778762
 30
0.0
  0
ENDBLK
  5
7F0C
330
814C
100
AcDbEntity
  8
0
100
AcDbBlockEnd
  0
BLOCK
  5
814F
330
814E
100
AcDbEntity
  8
0
100
AcDbBlockBegin
  2
*D22
 70
     1
 10
0.0
 20
0.0
 30
0.0
  3
*D22
  1

  0
LINE
  5
7FAA
330
814E
100
AcDbEntity
  8
0
  6
ByBlock
 62
     0
100
AcDbLine
 10
1245.287641258175
 20
1716.435029840879
 30
0.0
 11
1245.287641258175
 21
1541.86154046152
 31
0.0
  0
LINE
  5
7FAB
330
814E
100
AcDbEntity
  8
0
  6
ByBlock
 62
     0
100
AcDbLine
 10
1745.287641258175
 20
1716.435029840879
 30
0.0
 11
1745.287641258175
 21
1541.86154046152
 31
0.0
  0
LINE
  5
7FAC
330
814E
100
AcDbEntity
  8
0
  6
ByBlock
 62
     0
100
AcDbLine
 10
1295.287641258175
 20
1566.861540461521
 30
0.0
 11
1695.287641258175
 21
1566.861540461521
 31
0.0
  0
INSERT
  5
7FAD
330
814E
100
AcDbEntity
  8
0
  6
ByBlock
 62
     0
100
AcDbBlockReference
  2
_OPEN
 10
1245.287641258175
 20
1566.861540461521
 30
0.0
 41
50.0
 42
50.0
 43
50.0
 50
180.0
  0
INSERT
  5
7FAE
330
814E
100
AcDbEntity
  8
0
  6
ByBlock
 62
     0
100
AcDbBlockReference
  2
_OPEN
 10
1745.287641258175
 20
1566.861540461521
 30
0.0
 41
50.0
 42
50.0
 43
50.0
  0
TEXT
  5
7FAF
330
814E
100
AcDbEntity
  8
3
 62
     0
100
AcDbText
 10
1398.859069829604
 20
1591.861540461521
 30
0.0
 40
75.0
  1
500
100
AcDbText
  0
POINT
  5
7FB0
330
814E
100
AcDbEntity
  8
DEFPOINTS
  6
ByBlock
 62
     0
100
AcDbPoint
 10
1245.287641258175
 20
1741.435029840879
 30
0.0
  0
POINT
  5
7FB1
330
814E
100
AcDbEntity
  8
DEFPOINTS
  6
ByBlock
 62
     0
100
AcDbPoint
 10
1745.287641258175
 20
1741.435029840879
 30
0.0
  0
POINT
  5
7FB2
330
814E
100
AcDbEntity
  8
DEFPOINTS
  6
ByBlock
 62
     0
100
AcDbPoint
 10
1745.287641258175
 20
1566.861540461521
 30
0.0
  0
ENDBLK
  5
7FB3
330
814E
100
AcDbEntity
  8
0
100
AcDbBlockEnd
  0
BLOCK
  5
8151
330
8150
100
AcDbEntity
  8
0
100
AcDbBlockBegin
  2
*D23
 70
     1
 10
0.0
 20
0.0
 30
0.0
  3
*D23
  1

  0
LINE
  5
7FB7
330
8150
100
AcDbEntity
  8
0
  6
ByBlock
 62
     0
100
AcDbLine
 10
1745.287641258175
 20
1716.435029840879
 30
0.0
 11
1745.287641258175
 21
1541.86154046152
 31
0.0
  0
LINE
  5
7FB8
330
8150
100
AcDbEntity
  8
0
  6
ByBlock
 62
     0
100
AcDbLine
 10
2995.287641258176
 20
1716.435029840879
 30
0.0
 11
2995.287641258176
 21
1541.86154046152
 31
0.0
  0
LINE
  5
7FB9
330
8150
100
AcDbEntity
  8
0
  6
ByBlock
 62
     0
100
AcDbLine
 10
1795.287641258175
 20
1566.861540461521
 30
0.0
 11
2945.287641258175
 21
1566.861540461521
 31
0.0
  0
INSERT
  5
7FBA
330
8150
100
AcDbEntity
  8
0
  6
ByBlock
 62
     0
100
AcDbBlockReference
  2
_OPEN
 10
1745.287641258175
 20
1566.861540461521
 30
0.0
 41
50.0
 42
50.0
 43
50.0
 50
180.0
  0
INSERT
  5
7FBB
330
8150
100
AcDbEntity
  8
0
  6
ByBlock
 62
     0
100
AcDbBlockReference
  2
_OPEN
 10
2995.287641258176
 20
1566.861540461521
 30
0.0
 41
50.0
 42
50.0
 43
50.0
  0
TEXT
  5
7FBC
330
8150
100
AcDbEntity
  8
3
 62
     0
100
AcDbText
 10
2245.287641258176
 20
1591.861540461521
 30
0.0
 40
75.0
  1
1250
100
AcDbText
  0
POINT
  5
7FBD
330
8150
100
AcDbEntity
  8
DEFPOINTS
  6
ByBlock
 62
     0
100
AcDbPoint
 10
1745.287641258175
 20
1741.435029840879
 30
0.0
  0
POINT
  5
7FBE
330
8150
100
AcDbEntity
  8
DEFPOINTS
  6
ByBlock
 62
     0
100
AcDbPoint
 10
2995.287641258176
 20
1741.435029840879
 30
0.0
  0
POINT
  5
7FBF
330
8150
100
AcDbEntity
  8
DEFPOINTS
  6
ByBlock
 62
     0
100
AcDbPoint
 10
2995.287641258176
 20
1566.861540461521
 30
0.0
  0
ENDBLK
  5
7FC0
330
8150
100
AcDbEntity
  8
0
100
AcDbBlockEnd
  0
BLOCK
  5
8153
330
8152
100
AcDbEntity
  8
0
100
AcDbBlockBegin
  2
*D24
 70
     1
 10
0.0
 20
0.0
 30
0.0
  3
*D24
  1

  0
LINE
  5
7FC4
330
8152
100
AcDbEntity
  8
0
  6
ByBlock
 62
     0
100
AcDbLine
 10
3512.249582193797
 20
1716.435029840879
 30
0.0
 11
3512.249582193797
 21
1541.86154046152
 31
0.0
  0
LINE
  5
7FC5
330
8152
100
AcDbEntity
  8
0
  6
ByBlock
 62
     0
100
AcDbLine
 10
4214.249582193797
 20
1716.435029840878
 30
0.0
 11
4214.249582193797
 21
1541.86154046152
 31
0.0
  0
LINE
  5
7FC6
330
8152
100
AcDbEntity
  8
0
  6
ByBlock
 62
     0
100
AcDbLine
 10
3562.249582193797
 20
1566.861540461521
 30
0.0
 11
4164.249582193797
 21
1566.861540461521
 31
0.0
  0
INSERT
  5
7FC7
330
8152
100
AcDbEntity
  8
0
  6
ByBlock
 62
     0
100
AcDbBlockReference
  2
_OPEN
 10
3512.249582193797
 20
1566.861540461521
 30
0.0
 41
50.0
 42
50.0
 43
50.0
 50
180.0
  0
INSERT
  5
7FC8
330
8152
100
AcDbEntity
  8
0
  6
ByBlock
 62
     0
100
AcDbBlockReference
  2
_OPEN
 10
4214.249582193797
 20
1566.861540461521
 30
0.0
 41
50.0
 42
50.0
 43
50.0
  0
TEXT
  5
7FC9
330
8152
100
AcDbEntity
  8
3
 62
     0
100
AcDbText
 10
3766.821010765226
 20
1591.861540461521
 30
0.0
 40
75.0
  1
702
100
AcDbText
  0
POINT
  5
7FCA
330
8152
100
AcDbEntity
  8
DEFPOINTS
  6
ByBlock
 62
     0
100
AcDbPoint
 10
3512.249582193797
 20
1741.435029840879
 30
0.0
  0
POINT
  5
7FCB
330
8152
100
AcDbEntity
  8
DEFPOINTS
  6
ByBlock
 62
     0
100
AcDbPoint
 10
4214.249582193797
 20
1741.435029840878
 30
0.0
  0
POINT
  5
7FCC
330
8152
100
AcDbEntity
  8
DEFPOINTS
  6
ByBlock
 62
     0
100
AcDbPoint
 10
4214.249582193797
 20
1566.861540461521
 30
0.0
  0
ENDBLK
  5
7FCD
330
8152
100
AcDbEntity
  8
0
100
AcDbBlockEnd
  0
BLOCK
  5
8155
330
8154
100
AcDbEntity
  8
0
100
AcDbBlockBegin
  2
*D25
 70
     1
 10
0.0
 20
0.0
 30
0.0
  3
*D25
  1

  0
LINE
  5
7FD1
330
8154
100
AcDbEntity
  8
0
  6
ByBlock
 62
     0
100
AcDbLine
 10
4214.249582193797
 20
1716.435029840878
 30
0.0
 11
4214.249582193797
 21
1541.86154046152
 31
0.0
  0
LINE
  5
7FD2
330
8154
100
AcDbEntity
  8
0
  6
ByBlock
 62
     0
100
AcDbLine
 10
4767.249582193797
 20
1716.435029840879
 30
0.0
 11
4767.249582193797
 21
1541.86154046152
 31
0.0
  0
LINE
  5
7FD3
330
8154
100
AcDbEntity
  8
0
  6
ByBlock
 62
     0
100
AcDbLine
 10
4264.249582193797
 20
1566.861540461521
 30
0.0
 11
4717.249582193796
 21
1566.861540461521
 31
0.0
  0
INSERT
  5
7FD4
330
8154
100
AcDbEntity
  8
0
  6
ByBlock
 62
     0
100
AcDbBlockReference
  2
_OPEN
 10
4214.249582193797
 20
1566.861540461521
 30
0.0
 41
50.0
 42
50.0
 43
50.0
 50
180.0
  0
INSERT
  5
7FD5
330
8154
100
AcDbEntity
  8
0
  6
ByBlock
 62
     0
100
AcDbBlockReference
  2
_OPEN
 10
4767.249582193797
 20
1566.861540461521
 30
0.0
 41
50.0
 42
50.0
 43
50.0
  0
TEXT
  5
7FD6
330
8154
100
AcDbEntity
  8
3
 62
     0
100
AcDbText
 10
4394.321010765224
 20
1591.861540461521
 30
0.0
 40
75.0
  1
553
100
AcDbText
  0
POINT
  5
7FD7
330
8154
100
AcDbEntity
  8
DEFPOINTS
  6
ByBlock
 62
     0
100
AcDbPoint
 10
4214.249582193797
 20
1741.435029840878
 30
0.0
  0
POINT
  5
7FD8
330
8154
100
AcDbEntity
  8
DEFPOINTS
  6
ByBlock
 62
     0
100
AcDbPoint
 10
4767.249582193797
 20
1741.435029840879
 30
0.0
  0
POINT
  5
7FD9
330
8154
100
AcDbEntity
  8
DEFPOINTS
  6
ByBlock
 62
     0
100
AcDbPoint
 10
4767.249582193797
 20
1566.861540461521
 30
0.0
  0
ENDBLK
  5
7FDA
330
8154
100
AcDbEntity
  8
0
100
AcDbBlockEnd
  0
BLOCK
  5
8157
330
8156
100
AcDbEntity
  8
0
100
AcDbBlockBegin
  2
_NONE
 70
     0
 10
0.0
 20
0.0
 30
0.0
  3
_NONE
  1

  0
CIRCLE
  5
7FDE
330
8156
100
AcDbEntity
  8
0
  6
ByBlock
 62
     0
100
AcDbCircle
 10
0.0
 20
0.0
 30
0.0
 40
0.25
  0
ENDBLK
  5
7FDF
330
8156
100
AcDbEntity
  8
0
100
AcDbBlockEnd
  0
BLOCK
  5
8159
330
8158
100
AcDbEntity
  8
0
100
AcDbBlockBegin
  2
*D27
 70
     1
 10
0.0
 20
0.0
 30
0.0
  3
*D27
  1

  0
LINE
  5
7FFC
330
8158
100
AcDbEntity
  8
0
  6
ByBlock
 62
     0
100
AcDbLine
 10
745.3138825184067
 20
1773.435029840879
 30
0.0
 11
745.3138825184067
 21
1868.435029840878
 31
0.0
  0
TEXT
  5
7FFD
330
8158
100
AcDbEntity
  8
3
 62
     0
100
AcDbText
 10
650.6710253755498
 20
1712.006458412307
 30
0.0
 40
75.0
  1
(95)
 50
90.0
100
AcDbText
  0
POINT
  5
7FFE
330
8158
100
AcDbEntity
  8
DEFPOINTS
  6
ByBlock
 62
     0
100
AcDbPoint
 10
1245.287641258175
 20
1773.435029840879
 30
0.0
  0
POINT
  5
7FFF
330
8158
100
AcDbEntity
  8
DEFPOINTS
  6
ByBlock
 62
     0
100
AcDbPoint
 10
1245.287641258175
 20
1868.435029840878
 30
0.0
  0
POINT
  5
8000
330
8158
100
AcDbEntity
  8
DEFPOINTS
  6
ByBlock
 62
     0
100
AcDbPoint
 10
745.3138825184067
 20
1868.435029840878
 30
0.0
  0
ENDBLK
  5
8001
330
8158
100
AcDbEntity
  8
0
100
AcDbBlockEnd
  0
BLOCK
  5
815B
330
815A
100
AcDbEntity
  8
0
100
AcDbBlockBegin
  2
*D28
 70
     1
 10
0.0
 20
0.0
 30
0.0
  3
*D28
  1

  0
LINE
  5
8005
330
815A
100
AcDbEntity
  8
0
  6
ByBlock
 62
     0
100
AcDbLine
 10
1220.287641258176
 20
1673.435029840879
 30
0.0
 11
497.5924637177048
 21
1673.435029840879
 31
0.0
  0
LINE
  5
8006
330
815A
100
AcDbEntity
  8
0
  6
ByBlock
 62
     0
100
AcDbLine
 10
1754.287641258176
 20
3396.435029840878
 30
0.0
 11
497.5924637177048
 21
3396.435029840878
 31
0.0
  0
LINE
  5
8007
330
815A
100
AcDbEntity
  8
0
  6
ByBlock
 62
     0
100
AcDbLine
 10
522.5924637177048
 20
1723.435029840879
 30
0.0
 11
522.5924637177048
 21
3346.435029840878
 31
0.0
  0
INSERT
  5
8008
330
815A
100
AcDbEntity
  8
0
  6
ByBlock
 62
     0
100
AcDbBlockReference
  2
_OPEN
 10
522.5924637177048
 20
1673.435029840879
 30
0.0
 41
50.0
 42
50.0
 43
50.0
 50
270.0
  0
INSERT
  5
8009
330
815A
100
AcDbEntity
  8
0
  6
ByBlock
 62
     0
100
AcDbBlockReference
  2
_OPEN
 10
522.5924637177048
 20
3396.435029840878
 30
0.0
 41
50.0
 42
50.0
 43
50.0
 50
90.0
  0
TEXT
  5
800A
330
815A
100
AcDbEntity
  8
3
 62
     0
100
AcDbText
 10
465.4496065748477
 20
2361.720744126592
 30
0.0
 40
75.0
  1
(1723)
 50
90.0
100
AcDbText
  0
POINT
  5
800B
330
815A
100
AcDbEntity
  8
DEFPOINTS
  6
ByBlock
 62
     0
100
AcDbPoint
 10
1245.287641258175
 20
1673.435029840879
 30
0.0
  0
POINT
  5
800C
330
815A
100
AcDbEntity
  8
DEFPOINTS
  6
ByBlock
 62
     0
100
AcDbPoint
 10
1779.287641258175
 20
3396.435029840878
 30
0.0
  0
POINT
  5
800D
330
815A
100
AcDbEntity
  8
DEFPOINTS
  6
ByBlock
 62
     0
100
AcDbPoint
 10
522.5924637177048
 20
3396.435029840878
 30
0.0
  0
ENDBLK
  5
800E
330
815A
100
AcDbEntity
  8
0
100
AcDbBlockEnd
  0
BLOCK
  5
819B
330
819A
100
AcDbEntity
  8
0
100
AcDbBlockBegin
  2
*D30
 70
     1
 10
0.0
 20
0.0
 30
0.0
  3
*D30
  1

  0
LINE
  5
81EC
330
819A
100
AcDbEntity
  8
3
 62
     0
370
    -2
100
AcDbLine
 10
3314.249582193797
 20
3073.435029840878
 30
0.0
 11
3314.249582193797
 21
3708.341739612657
 31
0.0
  0
LINE
  5
81ED
330
819A
100
AcDbEntity
  8
3
 62
     0
370
    -2
100
AcDbLine
 10
4214.249582193797
 20
3630.940210206699
 30
0.0
 11
4214.249582193797
 21
3708.341739612657
 31
0.0
  0
LINE
  5
81EE
330
819A
100
AcDbEntity
  8
3
 62
     0
370
    -2
100
AcDbLine
 10
3364.249582193797
 20
3683.341739612657
 30
0.0
 11
4164.249582193797
 21
3683.341739612657
 31
0.0
  0
INSERT
  5
81EF
330
819A
100
AcDbEntity
  8
3
 62
     0
370
    -2
100
AcDbBlockReference
  2
_OPEN
 10
3314.249582193797
 20
3683.341739612657
 30
0.0
 41
50.0
 42
50.0
 43
50.0
 50
180.0
  0
INSERT
  5
81F0
330
819A
100
AcDbEntity
  8
3
 62
     0
370
    -2
100
AcDbBlockReference
  2
_OPEN
 10
4214.249582193797
 20
3683.341739612657
 30
0.0
 41
50.0
 42
50.0
 43
50.0
  0
MTEXT
  5
81F1
330
819A
100
AcDbEntity
  8
3
 62
     0
100
AcDbMText
 10
3764.249582193798
 20
3765.484596755515
 30
0.0
 40
75.0
 41
0.0
 71
     5
 72
     1
  1
\A1;(900)
 73
     1
 44
1.0
1001
ACAD
1000
MTEXTBEGIN
1070
    73
1070
     1
1070
    44
1040
1.0
1070
    74
1070
     0
1000
MTEXTEND
  0
POINT
  5
81F2
330
819A
100
AcDbEntity
  8
DEFPOINTS
 62
     0
100
AcDbPoint
 10
3314.249582193797
 20
3048.435029840878
 30
0.0
  0
POINT
  5
81F3
330
819A
100
AcDbEntity
  8
DEFPOINTS
 62
     0
100
AcDbPoint
 10
4214.249582193797
 20
3605.940210206699
 30
0.0
  0
POINT
  5
81F4
330
819A
100
AcDbEntity
  8
DEFPOINTS
 62
     0
100
AcDbPoint
 10
4214.249582193797
 20
3683.341739612657
 30
0.0
  0
ENDBLK
  5
819C
330
819A
100
AcDbEntity
  8
0
100
AcDbBlockEnd
  0
BLOCK
  5
81A8
330
81A7
100
AcDbEntity
  8
0
100
AcDbBlockBegin
  2
*D31
 70
     1
 10
0.0
 20
0.0
 30
0.0
  3
*D31
  1

  0
LINE
  5
81F5
330
81A7
100
AcDbEntity
  8
3
 62
     0
370
    -2
100
AcDbLine
 10
4214.249582193797
 20
3630.940210206699
 30
0.0
 11
4214.249582193797
 21
3708.341739612657
 31
0.0
  0
LINE
  5
81F6
330
81A7
100
AcDbEntity
  8
3
 62
     0
370
    -2
100
AcDbLine
 10
4824.249582193799
 20
2813.935029840878
 30
0.0
 11
4824.249582193799
 21
3708.341739612657
 31
0.0
  0
LINE
  5
81F7
330
81A7
100
AcDbEntity
  8
3
 62
     0
370
    -2
100
AcDbLine
 10
4264.249582193797
 20
3683.341739612657
 30
0.0
 11
4774.249582193799
 21
3683.341739612657
 31
0.0
  0
INSERT
  5
81F8
330
81A7
100
AcDbEntity
  8
3
 62
     0
370
    -2
100
AcDbBlockReference
  2
_OPEN
 10
4214.249582193797
 20
3683.341739612657
 30
0.0
 41
50.0
 42
50.0
 43
50.0
 50
180.0
  0
INSERT
  5
81F9
330
81A7
100
AcDbEntity
  8
3
 62
     0
370
    -2
100
AcDbBlockReference
  2
_OPEN
 10
4824.249582193799
 20
3683.341739612657
 30
0.0
 41
50.0
 42
50.0
 43
50.0
  0
MTEXT
  5
81FA
330
81A7
100
AcDbEntity
  8
3
 62
     0
100
AcDbMText
 10
4519.249582193798
 20
3765.484596755515
 30
0.0
 40
75.0
 41
0.0
 71
     5
 72
     1
  1
\A1;(610)
 73
     1
 44
1.0
1001
ACAD
1000
MTEXTBEGIN
1070
    73
1070
     1
1070
    44
1040
1.0
1070
    74
1070
     0
1000
MTEXTEND
  0
POINT
  5
81FB
330
81A7
100
AcDbEntity
  8
DEFPOINTS
 62
     0
100
AcDbPoint
 10
4214.249582193797
 20
3605.940210206699
 30
0.0
  0
POINT
  5
81FC
330
81A7
100
AcDbEntity
  8
DEFPOINTS
 62
     0
100
AcDbPoint
 10
4824.249582193799
 20
2788.935029840879
 30
0.0
  0
POINT
  5
81FD
330
81A7
100
AcDbEntity
  8
DEFPOINTS
 62
     0
100
AcDbPoint
 10
4824.249582193799
 20
3683.341739612657
 30
0.0
  0
ENDBLK
  5
81A9
330
81A7
100
AcDbEntity
  8
0
100
AcDbBlockEnd
  0
BLOCK
  5
8200
330
81FF
100
AcDbEntity
  8
0
100
AcDbBlockBegin
  2
*D32
 70
     1
 10
0.0
 20
0.0
 30
0.0
  3
*D32
  1

  0
LINE
  5
8202
330
81FF
100
AcDbEntity
  8
3
 62
     0
370
    -2
100
AcDbLine
 10
1245.287641258175
 20
4197.904731816339
 30
0.0
 11
1245.287641258175
 21
3845.059586582953
 31
0.0
  0
LINE
  5
8203
330
81FF
100
AcDbEntity
  8
3
 62
     0
370
    -2
100
AcDbLine
 10
2995.287641258175
 20
4197.904731816339
 30
0.0
 11
2995.287641258175
 21
3845.059586582953
 31
0.0
  0
LINE
  5
8204
330
81FF
100
AcDbEntity
  8
3
 62
     0
370
    -2
100
AcDbLine
 10
1295.287641258175
 20
3870.059586582953
 30
0.0
 11
2945.287641258175
 21
3870.059586582953
 31
0.0
  0
INSERT
  5
8205
330
81FF
100
AcDbEntity
  8
3
 62
     0
370
    -2
100
AcDbBlockReference
  2
_OPEN
 10
1245.287641258175
 20
3870.059586582953
 30
0.0
 41
50.0
 42
50.0
 43
50.0
 50
180.0
  0
INSERT
  5
8206
330
81FF
100
AcDbEntity
  8
3
 62
     0
370
    -2
100
AcDbBlockReference
  2
_OPEN
 10
2995.287641258175
 20
3870.059586582953
 30
0.0
 41
50.0
 42
50.0
 43
50.0
  0
MTEXT
  5
8207
330
81FF
100
AcDbEntity
  8
3
 62
     0
100
AcDbMText
 10
2120.287641258175
 20
3932.559586582953
 30
0.0
 40
75.0
 41
0.0
 71
     5
 72
     1
  1
\A1;1750
 73
     1
 44
1.0
1001
ACAD
1000
MTEXTBEGIN
1070
    73
1070
     1
1070
    44
1040
1.0
1070
    74
1070
     0
1000
MTEXTEND
  0
POINT
  5
8208
330
81FF
100
AcDbEntity
  8
DEFPOINTS
 62
     0
100
AcDbPoint
 10
1245.287641258175
 20
4222.904731816339
 30
0.0
  0
POINT
  5
8209
330
81FF
100
AcDbEntity
  8
DEFPOINTS
 62
     0
100
AcDbPoint
 10
2995.287641258175
 20
4222.904731816339
 30
0.0
  0
POINT
  5
820A
330
81FF
100
AcDbEntity
  8
DEFPOINTS
 62
     0
100
AcDbPoint
 10
2995.287641258175
 20
3870.059586582953
 30
0.0
  0
ENDBLK
  5
8201
330
81FF
100
AcDbEntity
  8
0
100
AcDbBlockEnd
  0
BLOCK
  5
820D
330
820C
100
AcDbEntity
  8
0
100
AcDbBlockBegin
  2
*D33
 70
     1
 10
0.0
 20
0.0
 30
0.0
  3
*D33
  1

  0
LINE
  5
8218
330
820C
100
AcDbEntity
  8
3
 62
     0
370
    -2
100
AcDbLine
 10
2245.287641258175
 20
5502.904731816339
 30
0.0
 11
2245.287641258175
 21
5654.028015367292
 31
0.0
  0
LINE
  5
8219
330
820C
100
AcDbEntity
  8
3
 62
     0
370
    -2
100
AcDbLine
 10
2995.287641258175
 20
4997.90473181634
 30
0.0
 11
2995.287641258175
 21
5654.028015367292
 31
0.0
  0
LINE
  5
821A
330
820C
100
AcDbEntity
  8
3
 62
     0
370
    -2
100
AcDbLine
 10
2295.287641258175
 20
5629.028015367293
 30
0.0
 11
2945.287641258175
 21
5629.028015367293
 31
0.0
  0
INSERT
  5
821B
330
820C
100
AcDbEntity
  8
3
 62
     0
370
    -2
100
AcDbBlockReference
  2
_OPEN
 10
2245.287641258175
 20
5629.028015367293
 30
0.0
 41
50.0
 42
50.0
 43
50.0
 50
180.0
  0
INSERT
  5
821C
330
820C
100
AcDbEntity
  8
3
 62
     0
370
    -2
100
AcDbBlockReference
  2
_OPEN
 10
2995.287641258175
 20
5629.028015367293
 30
0.0
 41
50.0
 42
50.0
 43
50.0
  0
MTEXT
  5
821D
330
820C
100
AcDbEntity
  8
3
 62
     0
100
AcDbMText
 10
2620.287641258175
 20
5691.528015367293
 30
0.0
 40
75.0
 41
0.0
 71
     5
 72
     1
  1
\A1;750
 73
     1
 44
1.0
1001
ACAD
1000
MTEXTBEGIN
1070
    73
1070
     1
1070
    44
1040
1.0
1070
    74
1070
     0
1000
MTEXTEND
  0
POINT
  5
821E
330
820C
100
AcDbEntity
  8
DEFPOINTS
 62
     0
100
AcDbPoint
 10
2245.287641258175
 20
5477.904731816339
 30
0.0
  0
POINT
  5
821F
330
820C
100
AcDbEntity
  8
DEFPOINTS
 62
     0
100
AcDbPoint
 10
2995.287641258175
 20
4972.904731816339
 30
0.0
  0
POINT
  5
8220
330
820C
100
AcDbEntity
  8
DEFPOINTS
 62
     0
100
AcDbPoint
 10
2995.287641258175
 20
5629.028015367293
 30
0.0
  0
ENDBLK
  5
820E
330
820C
100
AcDbEntity
  8
0
100
AcDbBlockEnd
  0
BLOCK
  5
8222
330
8221
100
AcDbEntity
  8
0
100
AcDbBlockBegin
  2
*D34
 70
     1
 10
0.0
 20
0.0
 30
0.0
  3
*D34
  1

  0
LINE
  5
8224
330
8221
100
AcDbEntity
  8
3
 62
     0
370
    -2
100
AcDbLine
 10
1245.287641258175
 20
1663.435029840879
 30
0.0
 11
1245.287641258175
 21
1509.361540461521
 31
0.0
  0
LINE
  5
8225
330
8221
100
AcDbEntity
  8
3
 62
     0
370
    -2
100
AcDbLine
 10
1745.287641258175
 20
1663.435029840879
 30
0.0
 11
1745.287641258175
 21
1509.361540461521
 31
0.0
  0
LINE
  5
8226
330
8221
100
AcDbEntity
  8
3
 62
     0
370
    -2
100
AcDbLine
 10
1249.787641258175
 20
1513.861540461521
 30
0.0
 11
1487.251926972461
 21
1513.861540461521
 31
0.0
  0
LINE
  5
8227
330
8221
100
AcDbEntity
  8
3
 62
     0
370
    -2
100
AcDbLine
 10
1740.787641258175
 20
1513.861540461521
 30
0.0
 11
1503.323355543889
 21
1513.861540461521
 31
0.0
  0
SOLID
  5
8228
330
8221
100
AcDbEntity
  8
3
 62
     0
100
AcDbTrace
 10
1249.787641258175
 20
1514.611540461521
 30
0.0
 11
1249.787641258175
 21
1513.111540461521
 31
0.0
 12
1245.287641258175
 22
1513.861540461521
 32
0.0
 13
1245.287641258175
 23
1513.861540461521
 33
0.0
  0
SOLID
  5
8229
330
8221
100
AcDbEntity
  8
3
 62
     0
100
AcDbTrace
 10
1740.787641258175
 20
1514.611540461521
 30
0.0
 11
1740.787641258175
 21
1513.111540461521
 31
0.0
 12
1745.287641258175
 22
1513.861540461521
 32
0.0
 13
1745.287641258175
 23
1513.861540461521
 33
0.0
  0
MTEXT
  5
822A
330
8221
100
AcDbEntity
  8
3
 62
     0
100
AcDbMText
 10
1495.287641258175
 20
1513.861540461521
 30
0.0
 40
4.5
 41
0.0
 71
     5
 72
     1
  1
\A1;500
 73
     1
 44
1.0
1001
ACAD
1000
MTEXTBEGIN
1070
    73
1070
     1
1070
    44
1040
1.0
1070
    74
1070
     0
1000
MTEXTEND
  0
POINT
  5
822B
330
8221
100
AcDbEntity
  8
DEFPOINTS
 62
     0
100
AcDbPoint
 10
1245.287641258175
 20
1688.435029840879
 30
0.0
  0
POINT
  5
822C
330
8221
100
AcDbEntity
  8
DEFPOINTS
 62
     0
100
AcDbPoint
 10
1745.287641258175
 20
1688.435029840879
 30
0.0
  0
POINT
  5
822D
330
8221
100
AcDbEntity
  8
DEFPOINTS
 62
     0
100
AcDbPoint
 10
1745.287641258175
 20
1513.861540461521
 30
0.0
  0
ENDBLK
  5
8223
330
8221
100
AcDbEntity
  8
0
100
AcDbBlockEnd
  0
BLOCK
  5
822F
330
822E
100
AcDbEntity
  8
0
100
AcDbBlockBegin
  2
*D35
 70
     1
 10
0.0
 20
0.0
 30
0.0
  3
*D35
  1

  0
LINE
  5
8231
330
822E
100
AcDbEntity
  8
3
 62
     0
370
    -2
100
AcDbLine
 10
1745.287641258175
 20
1663.435029840879
 30
0.0
 11
1745.287641258175
 21
1509.361540461521
 31
0.0
  0
LINE
  5
8232
330
822E
100
AcDbEntity
  8
3
 62
     0
370
    -2
100
AcDbLine
 10
2995.287641258176
 20
1663.435029840879
 30
0.0
 11
2995.287641258176
 21
1509.361540461521
 31
0.0
  0
LINE
  5
8233
330
822E
100
AcDbEntity
  8
3
 62
     0
370
    -2
100
AcDbLine
 10
1749.787641258175
 20
1513.861540461521
 30
0.0
 11
2360.537641258176
 21
1513.861540461521
 31
0.0
  0
LINE
  5
8234
330
822E
100
AcDbEntity
  8
3
 62
     0
370
    -2
100
AcDbLine
 10
2990.787641258176
 20
1513.861540461521
 30
0.0
 11
2380.037641258176
 21
1513.861540461521
 31
0.0
  0
SOLID
  5
8235
330
822E
100
AcDbEntity
  8
3
 62
     0
100
AcDbTrace
 10
1749.787641258175
 20
1514.611540461521
 30
0.0
 11
1749.787641258175
 21
1513.111540461521
 31
0.0
 12
1745.287641258175
 22
1513.861540461521
 32
0.0
 13
1745.287641258175
 23
1513.861540461521
 33
0.0
  0
SOLID
  5
8236
330
822E
100
AcDbEntity
  8
3
 62
     0
100
AcDbTrace
 10
2990.787641258176
 20
1514.611540461521
 30
0.0
 11
2990.787641258176
 21
1513.111540461521
 31
0.0
 12
2995.287641258176
 22
1513.861540461521
 32
0.0
 13
2995.287641258176
 23
1513.861540461521
 33
0.0
  0
MTEXT
  5
8237
330
822E
100
AcDbEntity
  8
3
 62
     0
100
AcDbMText
 10
2370.287641258176
 20
1513.861540461521
 30
0.0
 40
4.5
 41
0.0
 71
     5
 72
     1
  1
\A1;1250
 73
     1
 44
1.0
1001
ACAD
1000
MTEXTBEGIN
1070
    73
1070
     1
1070
    44
1040
1.0
1070
    74
1070
     0
1000
MTEXTEND
  0
POINT
  5
8238
330
822E
100
AcDbEntity
  8
DEFPOINTS
 62
     0
100
AcDbPoint
 10
1745.287641258175
 20
1688.435029840879
 30
0.0
  0
POINT
  5
8239
330
822E
100
AcDbEntity
  8
DEFPOINTS
 62
     0
100
AcDbPoint
 10
2995.287641258176
 20
1688.435029840879
 30
0.0
  0
POINT
  5
823A
330
822E
100
AcDbEntity
  8
DEFPOINTS
 62
     0
100
AcDbPoint
 10
2995.287641258176
 20
1513.861540461521
 30
0.0
  0
ENDBLK
  5
8230
330
822E
100
AcDbEntity
  8
0
100
AcDbBlockEnd
  0
BLOCK
  5
823C
330
823B
100
AcDbEntity
  8
0
100
AcDbBlockBegin
  2
*D36
 70
     1
 10
0.0
 20
0.0
 30
0.0
  3
*D36
  1

  0
LINE
  5
823E
330
823B
100
AcDbEntity
  8
3
 62
     0
370
    -2
100
AcDbLine
 10
3512.249582193797
 20
1663.435029840879
 30
0.0
 11
3512.249582193797
 21
1509.361540461521
 31
0.0
  0
LINE
  5
823F
330
823B
100
AcDbEntity
  8
3
 62
     0
370
    -2
100
AcDbLine
 10
4214.249582193797
 20
1663.435029840878
 30
0.0
 11
4214.249582193797
 21
1509.361540461521
 31
0.0
  0
LINE
  5
8240
330
823B
100
AcDbEntity
  8
3
 62
     0
370
    -2
100
AcDbLine
 10
3516.749582193797
 20
1513.861540461521
 30
0.0
 11
3855.213867908084
 21
1513.861540461521
 31
0.0
  0
LINE
  5
8241
330
823B
100
AcDbEntity
  8
3
 62
     0
370
    -2
100
AcDbLine
 10
4209.749582193797
 20
1513.861540461521
 30
0.0
 11
3871.285296479512
 21
1513.861540461521
 31
0.0
  0
SOLID
  5
8242
330
823B
100
AcDbEntity
  8
3
 62
     0
100
AcDbTrace
 10
3516.749582193797
 20
1514.611540461521
 30
0.0
 11
3516.749582193797
 21
1513.111540461521
 31
0.0
 12
3512.249582193797
 22
1513.861540461521
 32
0.0
 13
3512.249582193797
 23
1513.861540461521
 33
0.0
  0
SOLID
  5
8243
330
823B
100
AcDbEntity
  8
3
 62
     0
100
AcDbTrace
 10
4209.749582193797
 20
1514.611540461521
 30
0.0
 11
4209.749582193797
 21
1513.111540461521
 31
0.0
 12
4214.249582193797
 22
1513.861540461521
 32
0.0
 13
4214.249582193797
 23
1513.861540461521
 33
0.0
  0
MTEXT
  5
8244
330
823B
100
AcDbEntity
  8
3
 62
     0
100
AcDbMText
 10
3863.249582193797
 20
1513.861540461521
 30
0.0
 40
4.5
 41
0.0
 71
     5
 72
     1
  1
\A1;702
 73
     1
 44
1.0
1001
ACAD
1000
MTEXTBEGIN
1070
    73
1070
     1
1070
    44
1040
1.0
1070
    74
1070
     0
1000
MTEXTEND
  0
POINT
  5
8245
330
823B
100
AcDbEntity
  8
DEFPOINTS
 62
     0
100
AcDbPoint
 10
3512.249582193797
 20
1688.435029840879
 30
0.0
  0
POINT
  5
8246
330
823B
100
AcDbEntity
  8
DEFPOINTS
 62
     0
100
AcDbPoint
 10
4214.249582193797
 20
1688.435029840878
 30
0.0
  0
POINT
  5
8247
330
823B
100
AcDbEntity
  8
DEFPOINTS
 62
     0
100
AcDbPoint
 10
4214.249582193797
 20
1513.861540461521
 30
0.0
  0
ENDBLK
  5
823D
330
823B
100
AcDbEntity
  8
0
100
AcDbBlockEnd
  0
BLOCK
  5
8249
330
8248
100
AcDbEntity
  8
0
100
AcDbBlockBegin
  2
*D37
 70
     1
 10
0.0
 20
0.0
 30
0.0
  3
*D37
  1

  0
LINE
  5
824B
330
8248
100
AcDbEntity
  8
3
 62
     0
370
    -2
100
AcDbLine
 10
4214.249582193797
 20
1663.435029840878
 30
0.0
 11
4214.249582193797
 21
1509.361540461521
 31
0.0
  0
LINE
  5
824C
330
8248
100
AcDbEntity
  8
3
 62
     0
370
    -2
100
AcDbLine
 10
4767.249582193797
 20
1663.435029840879
 30
0.0
 11
4767.249582193797
 21
1509.361540461521
 31
0.0
  0
LINE
  5
824D
330
8248
100
AcDbEntity
  8
3
 62
     0
370
    -2
100
AcDbLine
 10
4218.749582193797
 20
1513.861540461521
 30
0.0
 11
4482.713867908082
 21
1513.861540461521
 31
0.0
  0
LINE
  5
824E
330
8248
100
AcDbEntity
  8
3
 62
     0
370
    -2
100
AcDbLine
 10
4762.749582193797
 20
1513.861540461521
 30
0.0
 11
4498.785296479512
 21
1513.861540461521
 31
0.0
  0
SOLID
  5
824F
330
8248
100
AcDbEntity
  8
3
 62
     0
100
AcDbTrace
 10
4218.749582193797
 20
1514.611540461521
 30
0.0
 11
4218.749582193797
 21
1513.111540461521
 31
0.0
 12
4214.249582193797
 22
1513.861540461521
 32
0.0
 13
4214.249582193797
 23
1513.861540461521
 33
0.0
  0
SOLID
  5
8250
330
8248
100
AcDbEntity
  8
3
 62
     0
100
AcDbTrace
 10
4762.749582193797
 20
1514.611540461521
 30
0.0
 11
4762.749582193797
 21
1513.111540461521
 31
0.0
 12
4767.249582193797
 22
1513.861540461521
 32
0.0
 13
4767.249582193797
 23
1513.861540461521
 33
0.0
  0
MTEXT
  5
8251
330
8248
100
AcDbEntity
  8
3
 62
     0
100
AcDbMText
 10
4490.749582193797
 20
1513.861540461521
 30
0.0
 40
4.5
 41
0.0
 71
     5
 72
     1
  1
\A1;553
 73
     1
 44
1.0
1001
ACAD
1000
MTEXTBEGIN
1070
    73
1070
     1
1070
    44
1040
1.0
1070
    74
1070
     0
1000
MTEXTEND
  0
POINT
  5
8252
330
8248
100
AcDbEntity
  8
DEFPOINTS
 62
     0
100
AcDbPoint
 10
4214.249582193797
 20
1688.435029840878
 30
0.0
  0
POINT
  5
8253
330
8248
100
AcDbEntity
  8
DEFPOINTS
 62
     0
100
AcDbPoint
 10
4767.249582193797
 20
1688.435029840879
 30
0.0
  0
POINT
  5
8254
330
8248
100
AcDbEntity
  8
DEFPOINTS
 62
     0
100
AcDbPoint
 10
4767.249582193797
 20
1513.861540461521
 30
0.0
  0
ENDBLK
  5
824A
330
8248
100
AcDbEntity
  8
0
100
AcDbBlockEnd
  0
BLOCK
  5
8256
330
8255
100
AcDbEntity
  8
0
100
AcDbBlockBegin
  2
*D38
 70
     1
 10
0.0
 20
0.0
 30
0.0
  3
*D38
  1

  0
LINE
  5
8258
330
8255
100
AcDbEntity
  8
3
 62
     0
370
    -2
100
AcDbLine
 10
745.3138825184067
 20
1792.935029840879
 30
0.0
 11
745.3138825184067
 21
1822.756458412307
 31
0.0
  0
LINE
  5
8259
330
8255
100
AcDbEntity
  8
3
 62
     0
370
    -2
100
AcDbLine
 10
745.3138825184067
 20
1863.935029840878
 30
0.0
 11
745.3138825184067
 21
1834.11360126945
 31
0.0
  0
SOLID
  5
825A
330
8255
100
AcDbEntity
  8
3
 62
     0
100
AcDbTrace
 10
744.5638825184068
 20
1792.935029840879
 30
0.0
 11
746.0638825184068
 21
1792.935029840879
 31
0.0
 12
745.3138825184066
 22
1788.435029840879
 32
0.0
 13
745.3138825184066
 23
1788.435029840879
 33
0.0
  0
SOLID
  5
825B
330
8255
100
AcDbEntity
  8
3
 62
     0
100
AcDbTrace
 10
744.5638825184068
 20
1863.935029840878
 30
0.0
 11
746.0638825184068
 21
1863.935029840878
 31
0.0
 12
745.3138825184067
 22
1868.435029840878
 32
0.0
 13
745.3138825184067
 23
1868.435029840878
 33
0.0
  0
MTEXT
  5
825C
330
8255
100
AcDbEntity
  8
3
 62
     0
100
AcDbMText
 10
745.3138825184064
 20
1828.435029840879
 30
0.0
 40
4.5
 41
0.0
 71
     5
 72
     1
  1
\A1;(80)
 73
     1
 44
1.0
1001
ACAD
1000
MTEXTBEGIN
1070
    73
1070
     1
1070
    44
1040
1.0
1070
    74
1070
     0
1000
MTEXTEND
  0
POINT
  5
825D
330
8255
100
AcDbEntity
  8
DEFPOINTS
 62
     0
100
AcDbPoint
 10
1245.287641258175
 20
1788.435029840879
 30
0.0
  0
POINT
  5
825E
330
8255
100
AcDbEntity
  8
DEFPOINTS
 62
     0
100
AcDbPoint
 10
1245.287641258175
 20
1868.435029840878
 30
0.0
  0
POINT
  5
825F
330
8255
100
AcDbEntity
  8
DEFPOINTS
 62
     0
100
AcDbPoint
 10
745.3138825184067
 20
1868.435029840878
 30
0.0
  0
ENDBLK
  5
8257
330
8255
100
AcDbEntity
  8
0
100
AcDbBlockEnd
  0
BLOCK
  5
8261
330
8260
100
AcDbEntity
  8
0
100
AcDbBlockBegin
  2
*D39
 70
     1
 10
0.0
 20
0.0
 30
0.0
  3
*D39
  1

  0
LINE
  5
8263
330
8260
100
AcDbEntity
  8
3
 62
     0
370
    -2
100
AcDbLine
 10
1220.287641258175
 20
1688.435029840879
 30
0.0
 11
518.0924637177043
 21
1688.435029840879
 31
0.0
  0
LINE
  5
8264
330
8260
100
AcDbEntity
  8
3
 62
     0
370
    -2
100
AcDbLine
 10
1754.287641258175
 20
3396.435029840878
 30
0.0
 11
518.0924637177048
 21
3396.435029840879
 31
0.0
  0
LINE
  5
8265
330
8260
100
AcDbEntity
  8
3
 62
     0
370
    -2
100
AcDbLine
 10
522.5924637177043
 20
1692.935029840879
 30
0.0
 11
522.5924637177046
 21
2536.756458412308
 31
0.0
  0
LINE
  5
8266
330
8260
100
AcDbEntity
  8
3
 62
     0
370
    -2
100
AcDbLine
 10
522.5924637177048
 20
3391.935029840879
 30
0.0
 11
522.5924637177046
 21
2548.113601269451
 31
0.0
  0
SOLID
  5
8267
330
8260
100
AcDbEntity
  8
3
 62
     0
100
AcDbTrace
 10
521.8424637177044
 20
1692.935029840879
 30
0.0
 11
523.3424637177043
 21
1692.935029840879
 31
0.0
 12
522.5924637177043
 22
1688.435029840879
 32
0.0
 13
522.5924637177043
 23
1688.435029840879
 33
0.0
  0
SOLID
  5
8268
330
8260
100
AcDbEntity
  8
3
 62
     0
100
AcDbTrace
 10
521.8424637177048
 20
3391.935029840879
 30
0.0
 11
523.3424637177048
 21
3391.935029840879
 31
0.0
 12
522.5924637177048
 22
3396.435029840879
 32
0.0
 13
522.5924637177048
 23
3396.435029840879
 33
0.0
  0
MTEXT
  5
8269
330
8260
100
AcDbEntity
  8
3
 62
     0
100
AcDbMText
 10
522.5924637177041
 20
2542.435029840879
 30
0.0
 40
4.5
 41
0.0
 71
     5
 72
     1
  1
\A1;(1708)
 73
     1
 44
1.0
1001
ACAD
1000
MTEXTBEGIN
1070
    73
1070
     1
1070
    44
1040
1.0
1070
    74
1070
     0
1000
MTEXTEND
  0
POINT
  5
826A
330
8260
100
AcDbEntity
  8
DEFPOINTS
 62
     0
100
AcDbPoint
 10
1245.287641258175
 20
1688.435029840879
 30
0.0
  0
POINT
  5
826B
330
8260
100
AcDbEntity
  8
DEFPOINTS
 62
     0
100
AcDbPoint
 10
1779.287641258175
 20
3396.435029840878
 30
0.0
  0
POINT
  5
826C
330
8260
100
AcDbEntity
  8
DEFPOINTS
 62
     0
100
AcDbPoint
 10
522.5924637177048
 20
3396.435029840879
 30
0.0
  0
ENDBLK
  5
8262
330
8260
100
AcDbEntity
  8
0
100
AcDbBlockEnd
  0
BLOCK
  5
826E
330
826D
100
AcDbEntity
  8
0
100
AcDbBlockBegin
  2
*D40
 70
     1
 10
0.0
 20
0.0
 30
0.0
  3
*D40
  1

  0
LINE
  5
8270
330
826D
100
AcDbEntity
  8
3
 62
     0
370
    -2
100
AcDbLine
 10
1243.725141258175
 20
1788.435029840879
 30
0.0
 11
739.8671165282737
 21
1788.435029840879
 31
0.0
  0
LINE
  5
8271
330
826D
100
AcDbEntity
  8
3
 62
     0
370
    -2
100
AcDbLine
 10
1243.725141258175
 20
1688.435029840879
 30
0.0
 11
739.8671165282737
 21
1688.435029840879
 31
0.0
  0
LINE
  5
8272
330
826D
100
AcDbEntity
  8
3
 62
     0
370
    -2
100
AcDbLine
 10
744.3671165282737
 20
1783.935029840879
 30
0.0
 11
744.3671165282737
 21
1742.935029840879
 31
0.0
  0
LINE
  5
8273
330
826D
100
AcDbEntity
  8
3
 62
     0
370
    -2
100
AcDbLine
 10
744.3671165282737
 20
1692.935029840879
 30
0.0
 11
744.3671165282737
 21
1733.935029840879
 31
0.0
  0
SOLID
  5
8274
330
826D
100
AcDbEntity
  8
3
 62
     0
100
AcDbTrace
 10
743.6171165282737
 20
1783.935029840879
 30
0.0
 11
745.1171165282737
 21
1783.935029840879
 31
0.0
 12
744.3671165282737
 22
1788.435029840879
 32
0.0
 13
744.3671165282737
 23
1788.435029840879
 33
0.0
  0
SOLID
  5
8275
330
826D
100
AcDbEntity
  8
3
 62
     0
100
AcDbTrace
 10
743.6171165282737
 20
1692.935029840879
 30
0.0
 11
745.1171165282737
 21
1692.935029840879
 31
0.0
 12
744.3671165282737
 22
1688.435029840879
 32
0.0
 13
744.3671165282737
 23
1688.435029840879
 33
0.0
  0
MTEXT
  5
8276
330
826D
100
AcDbEntity
  8
3
 62
     0
100
AcDbMText
 10
744.3671165282735
 20
1738.435029840879
 30
0.0
 40
4.5
 41
0.0
 71
     5
 72
     1
  1
\A1;100.0000
 73
     1
 44
1.0
1001
ACAD
1000
MTEXTBEGIN
1070
    73
1070
     1
1070
    44
1040
1.0
1070
    74
1070
     0
1000
MTEXTEND
  0
POINT
  5
8277
330
826D
100
AcDbEntity
  8
DEFPOINTS
 62
     0
100
AcDbPoint
 10
1245.287641258175
 20
1788.435029840879
 30
0.0
  0
POINT
  5
8278
330
826D
100
AcDbEntity
  8
DEFPOINTS
 62
     0
100
AcDbPoint
 10
1245.287641258175
 20
1688.435029840879
 30
0.0
  0
POINT
  5
8279
330
826D
100
AcDbEntity
  8
DEFPOINTS
 62
     0
100
AcDbPoint
 10
744.3671165282737
 20
1688.435029840879
 30
0.0
  0
ENDBLK
  5
826F
330
826D
100
AcDbEntity
  8
0
100
AcDbBlockEnd
  0
BLOCK
  5
827C
330
827B
100
AcDbEntity
  8
0
100
AcDbBlockBegin
  2
*D41
 70
     1
 10
0.0
 20
0.0
 30
0.0
  3
*D41
  1

  0
LINE
  5
827E
330
827B
100
AcDbEntity
  8
3
 62
     0
370
    -2
100
AcDbLine
 10
3512.249582193797
 20
1663.435029840879
 30
0.0
 11
3512.249582193797
 21
1483.318097207226
 31
0.0
  0
LINE
  5
827F
330
827B
100
AcDbEntity
  8
3
 62
     0
370
    -2
100
AcDbLine
 10
4214.249582193797
 20
1663.435029840879
 30
0.0
 11
4214.249582193797
 21
1483.318097207226
 31
0.0
  0
LINE
  5
8280
330
827B
100
AcDbEntity
  8
3
 62
     0
370
    -2
100
AcDbLine
 10
3562.249582193797
 20
1508.318097207226
 30
0.0
 11
4164.249582193797
 21
1508.318097207226
 31
0.0
  0
INSERT
  5
8281
330
827B
100
AcDbEntity
  8
3
 62
     0
370
    -2
100
AcDbBlockReference
  2
_OPEN
 10
3512.249582193797
 20
1508.318097207226
 30
0.0
 41
50.0
 42
50.0
 43
50.0
 50
180.0
  0
INSERT
  5
8282
330
827B
100
AcDbEntity
  8
3
 62
     0
370
    -2
100
AcDbBlockReference
  2
_OPEN
 10
4214.249582193797
 20
1508.318097207226
 30
0.0
 41
50.0
 42
50.0
 43
50.0
  0
MTEXT
  5
8283
330
827B
100
AcDbEntity
  8
3
 62
     0
100
AcDbMText
 10
3863.249582193797
 20
1570.818097207226
 30
0.0
 40
75.0
 41
0.0
 71
     5
 72
     1
  1
\A1;702
 73
     1
 44
1.0
1001
ACAD
1000
MTEXTBEGIN
1070
    73
1070
     1
1070
    44
1040
1.0
1070
    74
1070
     0
1000
MTEXTEND
  0
POINT
  5
8284
330
827B
100
AcDbEntity
  8
DEFPOINTS
 62
     0
100
AcDbPoint
 10
3512.249582193797
 20
1688.435029840879
 30
0.0
  0
POINT
  5
8285
330
827B
100
AcDbEntity
  8
DEFPOINTS
 62
     0
100
AcDbPoint
 10
4214.249582193797
 20
1688.435029840879
 30
0.0
  0
POINT
  5
8286
330
827B
100
AcDbEntity
  8
DEFPOINTS
 62
     0
100
AcDbPoint
 10
4214.249582193797
 20
1508.318097207226
 30
0.0
  0
ENDBLK
  5
827D
330
827B
100
AcDbEntity
  8
0
100
AcDbBlockEnd
  0
BLOCK
  5
8289
330
8288
100
AcDbEntity
  8
0
100
AcDbBlockBegin
  2
*D42
 70
     1
 10
0.0
 20
0.0
 30
0.0
  3
*D42
  1

  0
LINE
  5
828B
330
8288
100
AcDbEntity
  8
3
 62
     0
370
    -2
100
AcDbLine
 10
4214.249582193797
 20
1663.435029840879
 30
0.0
 11
4214.249582193797
 21
1483.318097207226
 31
0.0
  0
LINE
  5
828C
330
8288
100
AcDbEntity
  8
3
 62
     0
370
    -2
100
AcDbLine
 10
4767.249582193797
 20
1663.435029840879
 30
0.0
 11
4767.249582193797
 21
1483.318097207226
 31
0.0
  0
LINE
  5
828D
330
8288
100
AcDbEntity
  8
3
 62
     0
370
    -2
100
AcDbLine
 10
4264.249582193797
 20
1508.318097207226
 30
0.0
 11
4717.249582193796
 21
1508.318097207226
 31
0.0
  0
INSERT
  5
828E
330
8288
100
AcDbEntity
  8
3
 62
     0
370
    -2
100
AcDbBlockReference
  2
_OPEN
 10
4214.249582193797
 20
1508.318097207226
 30
0.0
 41
50.0
 42
50.0
 43
50.0
 50
180.0
  0
INSERT
  5
828F
330
8288
100
AcDbEntity
  8
3
 62
     0
370
    -2
100
AcDbBlockReference
  2
_OPEN
 10
4767.249582193797
 20
1508.318097207226
 30
0.0
 41
50.0
 42
50.0
 43
50.0
  0
MTEXT
  5
8290
330
8288
100
AcDbEntity
  8
3
 62
     0
100
AcDbMText
 10
4490.749582193797
 20
1570.818097207226
 30
0.0
 40
75.0
 41
0.0
 71
     5
 72
     1
  1
\A1;553
 73
     1
 44
1.0
1001
ACAD
1000
MTEXTBEGIN
1070
    73
1070
     1
1070
    44
1040
1.0
1070
    74
1070
     0
1000
MTEXTEND
  0
POINT
  5
8291
330
8288
100
AcDbEntity
  8
DEFPOINTS
 62
     0
100
AcDbPoint
 10
4214.249582193797
 20
1688.435029840879
 30
0.0
  0
POINT
  5
8292
330
8288
100
AcDbEntity
  8
DEFPOINTS
 62
     0
100
AcDbPoint
 10
4767.249582193797
 20
1688.435029840879
 30
0.0
  0
POINT
  5
8293
330
8288
100
AcDbEntity
  8
DEFPOINTS
 62
     0
100
AcDbPoint
 10
4767.249582193797
 20
1508.318097207226
 30
0.0
  0
ENDBLK
  5
828A
330
8288
100
AcDbEntity
  8
0
100
AcDbBlockEnd
  0
BLOCK
  5
8296
330
8295
100
AcDbEntity
  8
0
100
AcDbBlockBegin
  2
*D43
 70
     1
 10
0.0
 20
0.0
 30
0.0
  3
*D43
  1

  0
LINE
  5
8298
330
8295
100
AcDbEntity
  8
3
 62
     0
370
    -2
100
AcDbLine
 10
1245.287641258175
 20
1663.435029840879
 30
0.0
 11
1245.287641258175
 21
1488.554426952527
 31
0.0
  0
LINE
  5
8299
330
8295
100
AcDbEntity
  8
3
 62
     0
370
    -2
100
AcDbLine
 10
1745.287641258175
 20
1663.435029840878
 30
0.0
 11
1745.287641258175
 21
1488.554426952527
 31
0.0
  0
LINE
  5
829A
330
8295
100
AcDbEntity
  8
3
 62
     0
370
    -2
100
AcDbLine
 10
1295.287641258175
 20
1513.554426952527
 30
0.0
 11
1695.287641258175
 21
1513.554426952527
 31
0.0
  0
INSERT
  5
829B
330
8295
100
AcDbEntity
  8
3
 62
     0
370
    -2
100
AcDbBlockReference
  2
_OPEN
 10
1245.287641258175
 20
1513.554426952527
 30
0.0
 41
50.0
 42
50.0
 43
50.0
 50
180.0
  0
INSERT
  5
829C
330
8295
100
AcDbEntity
  8
3
 62
     0
370
    -2
100
AcDbBlockReference
  2
_OPEN
 10
1745.287641258175
 20
1513.554426952527
 30
0.0
 41
50.0
 42
50.0
 43
50.0
  0
MTEXT
  5
829D
330
8295
100
AcDbEntity
  8
3
 62
     0
100
AcDbMText
 10
1495.287641258175
 20
1576.054426952527
 30
0.0
 40
75.0
 41
0.0
 71
     5
 72
     1
  1
\A1;500
 73
     1
 44
1.0
1001
ACAD
1000
MTEXTBEGIN
1070
    73
1070
     1
1070
    44
1040
1.0
1070
    74
1070
     0
1000
MTEXTEND
  0
POINT
  5
829E
330
8295
100
AcDbEntity
  8
DEFPOINTS
 62
     0
100
AcDbPoint
 10
1245.287641258175
 20
1688.435029840879
 30
0.0
  0
POINT
  5
829F
330
8295
100
AcDbEntity
  8
DEFPOINTS
 62
     0
100
AcDbPoint
 10
1745.287641258175
 20
1688.435029840878
 30
0.0
  0
POINT
  5
82A0
330
8295
100
AcDbEntity
  8
DEFPOINTS
 62
     0
100
AcDbPoint
 10
1745.287641258175
 20
1513.554426952527
 30
0.0
  0
ENDBLK
  5
8297
330
8295
100
AcDbEntity
  8
0
100
AcDbBlockEnd
  0
BLOCK
  5
82A3
330
82A2
100
AcDbEntity
  8
0
100
AcDbBlockBegin
  2
*D44
 70
     1
 10
0.0
 20
0.0
 30
0.0
  3
*D44
  1

  0
LINE
  5
82A5
330
82A2
100
AcDbEntity
  8
3
 62
     0
370
    -2
100
AcDbLine
 10
1745.287641258175
 20
1663.435029840878
 30
0.0
 11
1745.287641258175
 21
1488.554426952527
 31
0.0
  0
LINE
  5
82A6
330
82A2
100
AcDbEntity
  8
3
 62
     0
370
    -2
100
AcDbLine
 10
2995.287641258176
 20
1663.435029840879
 30
0.0
 11
2995.287641258176
 21
1488.554426952527
 31
0.0
  0
LINE
  5
82A7
330
82A2
100
AcDbEntity
  8
3
 62
     0
370
    -2
100
AcDbLine
 10
1795.287641258175
 20
1513.554426952527
 30
0.0
 11
2945.287641258176
 21
1513.554426952527
 31
0.0
  0
INSERT
  5
82A8
330
82A2
100
AcDbEntity
  8
3
 62
     0
370
    -2
100
AcDbBlockReference
  2
_OPEN
 10
1745.287641258175
 20
1513.554426952527
 30
0.0
 41
50.0
 42
50.0
 43
50.0
 50
180.0
  0
INSERT
  5
82A9
330
82A2
100
AcDbEntity
  8
3
 62
     0
370
    -2
100
AcDbBlockReference
  2
_OPEN
 10
2995.287641258176
 20
1513.554426952527
 30
0.0
 41
50.0
 42
50.0
 43
50.0
  0
MTEXT
  5
82AA
330
82A2
100
AcDbEntity
  8
3
 62
     0
100
AcDbMText
 10
2370.287641258176
 20
1576.054426952527
 30
0.0
 40
75.0
 41
0.0
 71
     5
 72
     1
  1
\A1;1250
 73
     1
 44
1.0
1001
ACAD
1000
MTEXTBEGIN
1070
    73
1070
     1
1070
    44
1040
1.0
1070
    74
1070
     0
1000
MTEXTEND
  0
POINT
  5
82AB
330
82A2
100
AcDbEntity
  8
DEFPOINTS
 62
     0
100
AcDbPoint
 10
1745.287641258175
 20
1688.435029840878
 30
0.0
  0
POINT
  5
82AC
330
82A2
100
AcDbEntity
  8
DEFPOINTS
 62
     0
100
AcDbPoint
 10
2995.287641258176
 20
1688.435029840879
 30
0.0
  0
POINT
  5
82AD
330
82A2
100
AcDbEntity
  8
DEFPOINTS
 62
     0
100
AcDbPoint
 10
2995.287641258176
 20
1513.554426952527
 30
0.0
  0
ENDBLK
  5
82A4
330
82A2
100
AcDbEntity
  8
0
100
AcDbBlockEnd
  0
BLOCK
  5
82B0
330
82AF
100
AcDbEntity
  8
0
100
AcDbBlockBegin
  2
*D45
 70
     1
 10
0.0
 20
0.0
 30
0.0
  3
*D45
  1

  0
LINE
  5
83C7
330
82AF
100
AcDbEntity
  8
3
 62
     0
370
    -2
100
AcDbLine
 10
1053.815849407785
 20
2828.435029840878
 30
0.0
 11
719.3671165282738
 21
2828.435029840879
 31
0.0
  0
LINE
  5
83C8
330
82AF
100
AcDbEntity
  8
3
 62
     0
370
    -2
100
AcDbLine
 10
1220.287641258175
 20
1868.435029840878
 30
0.0
 11
719.3671165282736
 21
1868.435029840878
 31
0.0
  0
LINE
  5
83C9
330
82AF
100
AcDbEntity
  8
3
 62
     0
370
    -2
100
AcDbLine
 10
744.3671165282737
 20
2778.435029840879
 30
0.0
 11
744.3671165282736
 21
1918.435029840878
 31
0.0
  0
INSERT
  5
83CA
330
82AF
100
AcDbEntity
  8
3
 62
     0
370
    -2
100
AcDbBlockReference
  2
_OPEN
 10
744.3671165282738
 20
2828.435029840879
 30
0.0
 41
50.0
 42
50.0
 43
50.0
 50
90.0
  0
INSERT
  5
83CB
330
82AF
100
AcDbEntity
  8
3
 62
     0
370
    -2
100
AcDbBlockReference
  2
_OPEN
 10
744.3671165282736
 20
1868.435029840878
 30
0.0
 41
50.0
 42
50.0
 43
50.0
 50
270.0
  0
MTEXT
  5
83CC
330
82AF
100
AcDbEntity
  8
3
 62
     0
100
AcDbMText
 10
681.8671165282733
 20
2348.435029840878
 30
0.0
 40
75.0
 41
0.0
 71
     5
 72
     1
  1
\A1;960
 11
0.0000000000000001
 21
1.0
 31
0.0
 73
     1
 44
1.0
1001
ACAD
1000
MTEXTBEGIN
1070
    73
1070
     1
1070
    44
1040
1.0
1070
    74
1070
     0
1000
MTEXTEND
  0
POINT
  5
83CD
330
82AF
100
AcDbEntity
  8
DEFPOINTS
 62
     0
100
AcDbPoint
 10
1078.815849407785
 20
2828.435029840878
 30
0.0
  0
POINT
  5
83CE
330
82AF
100
AcDbEntity
  8
DEFPOINTS
 62
     0
100
AcDbPoint
 10
1245.287641258175
 20
1868.435029840878
 30
0.0
  0
POINT
  5
83CF
330
82AF
100
AcDbEntity
  8
DEFPOINTS
 62
     0
100
AcDbPoint
 10
744.3671165282736
 20
1868.435029840878
 30
0.0
  0
ENDBLK
  5
82B1
330
82AF
100
AcDbEntity
  8
0
100
AcDbBlockEnd
  0
BLOCK
  5
82BD
330
82BC
100
AcDbEntity
  8
0
100
AcDbBlockBegin
  2
*D46
 70
     1
 10
0.0
 20
0.0
 30
0.0
  3
*D46
  1

  0
LINE
  5
83D0
330
82BC
100
AcDbEntity
  8
3
 62
     0
370
    -2
100
AcDbLine
 10
1220.287641258175
 20
1868.435029840878
 30
0.0
 11
719.3671165282737
 21
1868.435029840878
 31
0.0
  0
LINE
  5
83D1
330
82BC
100
AcDbEntity
  8
3
 62
     0
370
    -2
100
AcDbLine
 10
1220.287641258175
 20
1788.435029840879
 30
0.0
 11
719.3671165282736
 21
1788.435029840879
 31
0.0
  0
LINE
  5
83D2
330
82BC
100
AcDbEntity
  8
3
 62
     0
370
    -2
100
AcDbLine
 10
744.3671165282737
 20
1918.435029840878
 30
0.0
 11
744.3671165282737
 21
1968.435029840878
 31
0.0
  0
LINE
  5
83D3
330
82BC
100
AcDbEntity
  8
3
 62
     0
370
    -2
100
AcDbLine
 10
744.3671165282736
 20
1788.435029840879
 30
0.0
 11
744.3671165282736
 21
1738.435029840879
 31
0.0
  0
MTEXT
  5
83D4
330
82BC
100
AcDbEntity
  8
3
 62
     0
100
AcDbMText
 10
619.8670140415177
 20
1828.435029840878
 30
0.0
 40
75.0
 41
0.0
 71
     5
 72
     1
  1
\A1;(80)
 11
0.0000000000000001
 21
1.0
 31
0.0
 73
     1
 44
1.0
1001
ACAD
1000
MTEXTBEGIN
1070
    73
1070
     1
1070
    44
1040
1.0
1070
    74
1070
     0
1000
MTEXTEND
  0
LINE
  5
83D5
330
82BC
100
AcDbEntity
  8
3
 62
     0
370
    -2
100
AcDbLine
 10
744.3671165282737
 20
1868.435029840878
 30
0.0
 11
744.3671165282736
 21
1788.435029840879
 31
0.0
  0
INSERT
  5
83D6
330
82BC
100
AcDbEntity
  8
3
 62
     0
370
    -2
100
AcDbBlockReference
  2
_OPEN
 10
744.3671165282737
 20
1868.435029840878
 30
0.0
 41
50.0
 42
50.0
 43
50.0
 50
270.0
  0
INSERT
  5
83D7
330
82BC
100
AcDbEntity
  8
3
 62
     0
370
    -2
100
AcDbBlockReference
  2
_DotSmall
 10
744.3671165282736
 20
1788.435029840879
 30
0.0
 41
50.0
 42
50.0
 43
50.0
 50
90.0
  0
POINT
  5
83D8
330
82BC
100
AcDbEntity
  8
DEFPOINTS
 62
     0
100
AcDbPoint
 10
1245.287641258175
 20
1868.435029840878
 30
0.0
  0
POINT
  5
83D9
330
82BC
100
AcDbEntity
  8
DEFPOINTS
 62
     0
100
AcDbPoint
 10
1245.287641258175
 20
1788.435029840879
 30
0.0
  0
POINT
  5
83DA
330
82BC
100
AcDbEntity
  8
DEFPOINTS
 62
     0
100
AcDbPoint
 10
744.3671165282736
 20
1788.435029840879
 30
0.0
  0
ENDBLK
  5
82BE
330
82BC
100
AcDbEntity
  8
0
100
AcDbBlockEnd
  0
BLOCK
  5
82CF
330
82CE
100
AcDbEntity
  8
0
100
AcDbBlockBegin
  2
*D47
 70
     1
 10
0.0
 20
0.0
 30
0.0
  3
*D47
  1

  0
LINE
  5
83E4
330
82CE
100
AcDbEntity
  8
3
 62
     0
370
    -2
100
AcDbLine
 10
1220.287641258175
 20
1788.435029840879
 30
0.0
 11
719.3671165282736
 21
1788.435029840879
 31
0.0
  0
LINE
  5
83E5
330
82CE
100
AcDbEntity
  8
3
 62
     0
370
    -2
100
AcDbLine
 10
1220.287641258175
 20
1688.435029840879
 30
0.0
 11
719.3671165282736
 21
1688.435029840879
 31
0.0
  0
LINE
  5
83E6
330
82CE
100
AcDbEntity
  8
3
 62
     0
370
    -2
100
AcDbLine
 10
744.3671165282736
 20
1788.435029840879
 30
0.0
 11
744.3671165282736
 21
1738.435029840879
 31
0.0
  0
MTEXT
  5
83E7
330
82CE
100
AcDbEntity
  8
3
 62
     0
100
AcDbMText
 10
679.5901485936919
 20
1553.226447075478
 30
0.0
 40
75.0
 41
0.0
 71
     5
 72
     1
  1
\A1;100
 11
0.0000000000000001
 21
1.0
 31
0.0
 73
     1
 44
1.0
1001
ACAD
1000
MTEXTBEGIN
1070
    73
1070
     1
1070
    44
1040
1.0
1070
    74
1070
     0
1000
MTEXTEND
  0
INSERT
  5
83E8
330
82CE
100
AcDbEntity
  8
3
 62
     0
370
    -2
100
AcDbBlockReference
  2
_DotSmall
 10
744.3671165282736
 20
1788.435029840879
 30
0.0
 41
50.0
 42
50.0
 43
50.0
 50
90.0
  0
INSERT
  5
83E9
330
82CE
100
AcDbEntity
  8
3
 62
     0
370
    -2
100
AcDbBlockReference
  2
_OPEN
 10
744.3671165282736
 20
1688.435029840879
 30
0.0
 41
50.0
 42
50.0
 43
50.0
 50
270.0
  0
POINT
  5
83EA
330
82CE
100
AcDbEntity
  8
DEFPOINTS
 62
     0
100
AcDbPoint
 10
1245.287641258175
 20
1788.435029840879
 30
0.0
  0
POINT
  5
83EB
330
82CE
100
AcDbEntity
  8
DEFPOINTS
 62
     0
100
AcDbPoint
 10
1245.287641258175
 20
1688.435029840879
 30
0.0
  0
POINT
  5
83EC
330
82CE
100
AcDbEntity
  8
DEFPOINTS
 62
     0
100
AcDbPoint
 10
744.3671165282736
 20
1688.435029840879
 30
0.0
  0
ENDBLK
  5
82D0
330
82CE
100
AcDbEntity
  8
0
100
AcDbBlockEnd
  0
BLOCK
  5
8365
330
8363
100
AcDbEntity
  8
0
100
AcDbBlockBegin
  2
_DotSmall
 70
     0
 10
0.0
 20
0.0
 30
0.0
  3
_DotSmall
  1

  0
LWPOLYLINE
  5
8364
330
8363
100
AcDbEntity
  8
0
  6
ByBlock
 62
     0
100
AcDbPolyline
 90
        2
 70
     1
 43
0.5
 10
-0.0625
 20
0.0
 42
1.0
 10
0.0625
 20
0.0
 42
1.0
  0
ENDBLK
  5
8366
330
8363
100
AcDbEntity
  8
0
100
AcDbBlockEnd
  0
BLOCK
  5
83EF
330
83EE
100
AcDbEntity
  8
0
100
AcDbBlockBegin
  2
*D49
 70
     1
 10
0.0
 20
0.0
 30
0.0
  3
*D49
  1

  0
LINE
  5
83FA
330
83EE
100
AcDbEntity
  8
3
 62
     0
370
    -2
100
AcDbLine
 10
1053.815849407785
 20
2828.435029840878
 30
0.0
 11
719.3671165282737
 21
2828.435029840879
 31
0.0
  0
LINE
  5
83FB
330
83EE
100
AcDbEntity
  8
3
 62
     0
370
    -2
100
AcDbLine
 10
1779.287641258175
 20
3386.435029840878
 30
0.0
 11
719.3671165282738
 21
3386.435029840879
 31
0.0
  0
LINE
  5
83FC
330
83EE
100
AcDbEntity
  8
3
 62
     0
370
    -2
100
AcDbLine
 10
744.3671165282737
 20
2878.435029840879
 30
0.0
 11
744.3671165282738
 21
3336.435029840879
 31
0.0
  0
INSERT
  5
83FD
330
83EE
100
AcDbEntity
  8
3
 62
     0
370
    -2
100
AcDbBlockReference
  2
_OPEN
 10
744.3671165282737
 20
2828.435029840879
 30
0.0
 41
50.0
 42
50.0
 43
50.0
 50
270.0
  0
INSERT
  5
83FE
330
83EE
100
AcDbEntity
  8
3
 62
     0
370
    -2
100
AcDbBlockReference
  2
_OPEN
 10
744.3671165282738
 20
3386.435029840879
 30
0.0
 41
50.0
 42
50.0
 43
50.0
 50
90.0
  0
MTEXT
  5
83FF
330
83EE
100
AcDbEntity
  8
3
 62
     0
100
AcDbMText
 10
681.8671165282733
 20
3107.435029840879
 30
0.0
 40
75.0
 41
0.0
 71
     5
 72
     1
  1
\A1;558
 11
0.0000000000000001
 21
1.0
 31
0.0
 73
     1
 44
1.0
1001
ACAD
1000
MTEXTBEGIN
1070
    73
1070
     1
1070
    44
1040
1.0
1070
    74
1070
     0
1000
MTEXTEND
  0
POINT
  5
8400
330
83EE
100
AcDbEntity
  8
DEFPOINTS
 62
     0
100
AcDbPoint
 10
1078.815849407785
 20
2828.435029840878
 30
0.0
  0
POINT
  5
8401
330
83EE
100
AcDbEntity
  8
DEFPOINTS
 62
     0
100
AcDbPoint
 10
1804.287641258175
 20
3386.435029840878
 30
0.0
  0
POINT
  5
8402
330
83EE
100
AcDbEntity
  8
DEFPOINTS
 62
     0
100
AcDbPoint
 10
744.3671165282738
 20
3386.435029840879
 30
0.0
  0
ENDBLK
  5
83F0
330
83EE
100
AcDbEntity
  8
0
100
AcDbBlockEnd
  0
BLOCK
  5
8405
330
8404
100
AcDbEntity
  8
0
100
AcDbBlockBegin
  2
*D50
 70
     1
 10
0.0
 20
0.0
 30
0.0
  3
*D50
  1

  0
LINE
  5
8419
330
8404
100
AcDbEntity
  8
3
 62
     0
370
    -2
100
AcDbLine
 10
1220.287641258175
 20
1688.435029840879
 30
0.0
 11
468.1321542097864
 21
1688.435029840879
 31
0.0
  0
LINE
  5
841A
330
8404
100
AcDbEntity
  8
3
 62
     0
370
    -2
100
AcDbLine
 10
1779.287641258175
 20
3386.435029840878
 30
0.0
 11
468.1321542097867
 21
3386.435029840879
 31
0.0
  0
LINE
  5
841B
330
8404
100
AcDbEntity
  8
3
 62
     0
370
    -2
100
AcDbLine
 10
493.1321542097864
 20
1738.435029840879
 30
0.0
 11
493.1321542097868
 21
3336.435029840879
 31
0.0
  0
INSERT
  5
841C
330
8404
100
AcDbEntity
  8
3
 62
     0
370
    -2
100
AcDbBlockReference
  2
_OPEN
 10
493.1321542097864
 20
1688.435029840879
 30
0.0
 41
50.0
 42
50.0
 43
50.0
 50
270.0
  0
INSERT
  5
841D
330
8404
100
AcDbEntity
  8
3
 62
     0
370
    -2
100
AcDbBlockReference
  2
_OPEN
 10
493.1321542097868
 20
3386.435029840879
 30
0.0
 41
50.0
 42
50.0
 43
50.0
 50
90.0
  0
MTEXT
  5
841E
330
8404
100
AcDbEntity
  8
3
 62
     0
100
AcDbMText
 10
410.9892970669291
 20
2537.435029840879
 30
0.0
 40
75.0
 41
0.0
 71
     5
 72
     1
  1
\A1;(1698)
 11
0.0000000000000001
 21
1.0
 31
0.0
 73
     1
 44
1.0
1001
ACAD
1000
MTEXTBEGIN
1070
    73
1070
     1
1070
    44
1040
1.0
1070
    74
1070
     0
1000
MTEXTEND
  0
POINT
  5
841F
330
8404
100
AcDbEntity
  8
DEFPOINTS
 62
     0
100
AcDbPoint
 10
1245.287641258175
 20
1688.435029840879
 30
0.0
  0
POINT
  5
8420
330
8404
100
AcDbEntity
  8
DEFPOINTS
 62
     0
100
AcDbPoint
 10
1804.287641258175
 20
3386.435029840878
 30
0.0
  0
POINT
  5
8421
330
8404
100
AcDbEntity
  8
DEFPOINTS
 62
     0
100
AcDbPoint
 10
493.1321542097868
 20
3386.435029840879
 30
0.0
  0
ENDBLK
  5
8406
330
8404
100
AcDbEntity
  8
0
100
AcDbBlockEnd
  0
BLOCK
  5
8424
330
8423
100
AcDbEntity
  8
0
100
AcDbBlockBegin
  2
*D51
 70
     1
 10
0.0
 20
0.0
 30
0.0
  3
*D51
  1

  0
LINE
  5
8438
330
8423
100
AcDbEntity
  8
3
 62
     0
370
    -2
100
AcDbLine
 10
1745.287641258175
 20
3510.45335055235
 30
0.0
 11
1745.287641258175
 21
3550.996801768198
 31
0.0
  0
LINE
  5
8439
330
8423
100
AcDbEntity
  8
3
 62
     0
370
    -2
100
AcDbLine
 10
2421.287641258175
 20
2794.435029840878
 30
0.0
 11
2421.287641258175
 21
3550.996801768198
 31
0.0
  0
LINE
  5
843A
330
8423
100
AcDbEntity
  8
3
 62
     0
370
    -2
100
AcDbLine
 10
1795.287641258175
 20
3525.996801768198
 30
0.0
 11
2371.287641258175
 21
3525.996801768198
 31
0.0
  0
INSERT
  5
843B
330
8423
100
AcDbEntity
  8
3
 62
     0
370
    -2
100
AcDbBlockReference
  2
_OPEN
 10
1745.287641258175
 20
3525.996801768198
 30
0.0
 41
50.0
 42
50.0
 43
50.0
 50
180.0
  0
INSERT
  5
843C
330
8423
100
AcDbEntity
  8
3
 62
     0
370
    -2
100
AcDbBlockReference
  2
_OPEN
 10
2421.287641258175
 20
3525.996801768198
 30
0.0
 41
50.0
 42
50.0
 43
50.0
  0
MTEXT
  5
843D
330
8423
100
AcDbEntity
  8
3
 62
     0
100
AcDbMText
 10
2083.287641258175
 20
3588.496801768198
 30
0.0
 40
75.0
 41
0.0
 71
     5
 72
     1
  1
\A1;676
 73
     1
 44
1.0
1001
ACAD
1000
MTEXTBEGIN
1070
    73
1070
     1
1070
    44
1040
1.0
1070
    74
1070
     0
1000
MTEXTEND
  0
POINT
  5
843E
330
8423
100
AcDbEntity
  8
DEFPOINTS
 62
     0
100
AcDbPoint
 10
1745.287641258175
 20
3485.45335055235
 30
0.0
  0
POINT
  5
843F
330
8423
100
AcDbEntity
  8
DEFPOINTS
 62
     0
100
AcDbPoint
 10
2421.287641258175
 20
2769.435029840878
 30
0.0
  0
POINT
  5
8440
330
8423
100
AcDbEntity
  8
DEFPOINTS
 62
     0
100
AcDbPoint
 10
2421.287641258175
 20
3525.996801768198
 30
0.0
  0
ENDBLK
  5
8425
330
8423
100
AcDbEntity
  8
0
100
AcDbBlockEnd
  0
ENDSEC
  0
SECTION
  2
ENTITIES
  0
INSERT
  5
7C0C
330
8112
100
AcDbEntity
  8
0
100
AcDbBlockReference
  2
YA_N
 10
6.0
 20
5.0
 30
0.0
  0
LINE
  5
7C0E
330
8112
100
AcDbEntity
  8
2
100
AcDbLine
 10
1745.287641258175
 20
3485.45335055235
 30
0.0
 11
1745.287641258175
 21
1688.435029840878
 31
0.0
  0
LINE
  5
7C0F
330
8112
100
AcDbEntity
  8
2
100
AcDbLine
 10
1078.815849407785
 20
2828.435029840878
 30
0.0
 11
2503.191218448212
 21
2828.435029840878
 31
0.0
  0
LINE
  5
7C1A
330
8112
100
AcDbEntity
  8
1
100
AcDbLine
 10
2995.287641258176
 20
1688.435029840879
 30
0.0
 11
1245.287641258175
 21
1688.435029840879
 31
0.0
  0
LINE
  5
7C1B
330
8112
100
AcDbEntity
  8
1
100
AcDbLine
 10
1245.287641258175
 20
1788.435029840879
 30
0.0
 11
1245.287641258175
 21
1688.435029840879
 31
0.0
  0
LINE
  5
7C1C
330
8112
100
AcDbEntity
  8
1
100
AcDbLine
 10
2995.287641258176
 20
1788.435029840879
 30
0.0
 11
2995.287641258176
 21
1688.435029840879
 31
0.0
  0
LINE
  5
7C1D
330
8112
100
AcDbEntity
  8
1
100
AcDbLine
 10
2545.287641258175
 20
2008.435029840878
 30
0.0
 11
2545.287641258175
 21
1968.435029840878
 31
0.0
  0
LINE
  5
7C1E
330
8112
100
AcDbEntity
  8
1
100
AcDbLine
 10
4714.249582193798
 20
3396.435029840878
 30
0.0
 11
4714.249582193797
 21
2851.435029840878
 31
0.0
  0
LINE
  5
7C1F
330
8112
100
AcDbEntity
  8
1
100
AcDbLine
 10
3512.249582193797
 20
1688.435029840879
 30
0.0
 11
4767.249582193797
 21
1688.435029840879
 31
0.0
  0
LINE
  5
7C20
330
8112
100
AcDbEntity
  8
1
100
AcDbLine
 10
3512.249582193797
 20
1788.435029840879
 30
0.0
 11
3512.249582193797
 21
1688.435029840879
 31
0.0
  0
LINE
  5
7C21
330
8112
100
AcDbEntity
  8
2
100
AcDbLine
 10
3324.931651640504
 20
2828.435029840878
 30
0.0
 11
4865.299428772996
 21
2828.435029840878
 31
0.0
  0
LINE
  5
7C22
330
8112
100
AcDbEntity
  8
2
100
AcDbLine
 10
3324.931651640504
 20
2218.435029840878
 30
0.0
 11
4139.443032638628
 21
2218.435029840878
 31
0.0
  0
LINE
  5
7C23
330
8112
100
AcDbEntity
  8
1
100
AcDbLine
 10
3446.249582193797
 20
2955.435029840878
 30
0.0
 11
3446.249582193797
 21
2701.435029840878
 31
0.0
  0
LINE
  5
7C24
330
8112
100
AcDbEntity
  8
1
100
AcDbLine
 10
3314.249582193797
 20
3048.435029840878
 30
0.0
 11
3314.249582193797
 21
1998.435029840878
 31
0.0
  0
LINE
  5
7C25
330
8112
100
AcDbEntity
  8
1
100
AcDbLine
 10
3314.249582193797
 20
3048.435029840878
 30
0.0
 11
3564.249582193797
 21
3048.435029840878
 31
0.0
  0
LINE
  5
7C26
330
8112
100
AcDbEntity
  8
1
100
AcDbLine
 10
3564.249582193797
 20
3048.435029840878
 30
0.0
 11
3564.249582193797
 21
2998.435029840878
 31
0.0
  0
LINE
  5
7C27
330
8112
100
AcDbEntity
  8
1
100
AcDbLine
 10
3564.249582193798
 20
2040.930807232216
 30
0.0
 11
3564.249582193798
 21
1998.435029840878
 31
0.0
  0
LINE
  5
7C28
330
8112
100
AcDbEntity
  8
2
100
AcDbLine
 10
4214.249582193797
 20
3501.910675355758
 30
0.0
 11
4214.249582193797
 21
1688.435029840879
 31
0.0
  0
POINT
  5
7C29
330
8112
100
AcDbEntity
  8
1
100
AcDbPoint
 10
1245.287641258175
 20
1868.435029840878
 30
0.0
  0
POINT
  5
7C2A
330
8112
100
AcDbEntity
  8
1
100
AcDbPoint
 10
1245.287641258175
 20
1868.435029840878
 30
0.0
  0
POINT
  5
7C2B
330
8112
100
AcDbEntity
  8
1
100
AcDbPoint
 10
1245.287641258175
 20
1868.435029840878
 30
0.0
  0
INSERT
  5
7C2E
330
8112
100
AcDbEntity
  8
0
100
AcDbBlockReference
  2
YA_N
 10
-733.6448571667497
 20
-271.0302667023643
 30
0.0
 41
20.0
 42
20.0
 43
20.0
  0
DIMENSION
  5
7C31
330
8112
100
AcDbEntity
  8
3
100
AcDbDimension
  2
*D5
 10
1051.942297716112
 20
2805.435029840878
 30
0.0
 11
1001.942297716112
 21
2392.935029840878
 31
0.0
 12
-66.00545712791426
 22
1266.547414431397
 32
0.0
 71
     5
 42
-1.0
  3
Standard
100
AcDbAlignedDimension
 13
1200.287641258175
 23
1980.435029840878
 33
0.0
 14
1200.287641258175
 24
2805.435029840878
 34
0.0
 50
90.0
100
AcDbRotatedDimension
1001
ACAD
1000
DSTYLE
1002
{
1070
    40
1040
25.0
1002
}
  0
DIMENSION
  5
7C32
330
8112
100
AcDbEntity
  8
3
100
AcDbDimension
  2
*D6
 10
899.658895142309
 20
2828.435029840878
 30
0.0
 11
849.658895142309
 21
2404.435029840878
 31
0.0
 12
-66.00545712791426
 22
1266.547414431397
 32
0.0
 71
     5
 42
-1.0
  3
Standard
100
AcDbAlignedDimension
 13
1200.287641258175
 23
1980.435029840878
 33
0.0
 14
1078.815849407785
 24
2828.435029840878
 34
0.0
 50
90.0
100
AcDbRotatedDimension
1001
ACAD
1000
DSTYLE
1002
{
1070
    40
1040
25.0
1002
}
  0
LINE
  5
7C33
330
8112
100
AcDbEntity
  8
1
100
AcDbLine
 10
2879.746541258177
 20
2128.123029840879
 30
0.0
 11
2899.287641258175
 21
2074.435029840878
 31
0.0
  0
LINE
  5
7C34
330
8112
100
AcDbEntity
  8
1
100
AcDbLine
 10
2610.840841258176
 20
2128.156029840878
 30
0.0
 11
2591.287641258175
 21
2074.435029840878
 31
0.0
  0
ARC
  5
7C35
330
8112
100
AcDbEntity
  8
1
100
AcDbCircle
 10
2745.287641258175
 20
2218.435029840878
 30
0.0
 40
162.0
100
AcDbArc
 50
326.1051229528019
 51
0.0
  0
ARC
  5
7C36
330
8112
100
AcDbEntity
  8
1
100
AcDbCircle
 10
2745.287641258175
 20
2218.435029840878
 30
0.0
 40
162.0
100
AcDbArc
 50
0.0
 51
213.8949135395933
  0
LINE
  5
7C37
330
8112
100
AcDbEntity
  8
2
100
AcDbLine
 10
2745.287641258175
 20
2396.884797928064
 30
0.0
 11
2745.287641258176
 21
1688.435029840879
 31
0.0
  0
LINE
  5
7C38
330
8112
100
AcDbEntity
  8
1
100
AcDbLine
 10
2591.287641258175
 20
2058.435029840878
 30
0.0
 11
2591.287641258175
 21
2074.435029840878
 31
0.0
  0
LINE
  5
7C39
330
8112
100
AcDbEntity
  8
1
100
AcDbLine
 10
2899.287641258175
 20
2058.435029840878
 30
0.0
 11
2899.287641258175
 21
2074.435029840878
 31
0.0
  0
LINE
  5
7C3A
330
8112
100
AcDbEntity
  8
2
100
AcDbLine
 10
2557.177197195504
 20
2218.435029840878
 30
0.0
 11
2932.256002225533
 21
2218.435029840877
 31
0.0
  0
LINE
  5
7C3B
330
8112
100
AcDbEntity
  8
1
100
AcDbLine
 10
2933.802284524215
 20
2058.435029840878
 30
0.0
 11
2556.532773643365
 21
2058.435029840877
 31
0.0
  0
LINE
  5
7C3C
330
8112
100
AcDbEntity
  8
1
100
AcDbLine
 10
2543.287641258176
 20
2008.435029840878
 30
0.0
 11
2556.532773643365
 21
2058.435029840878
 31
0.0
  0
LINE
  5
7C3D
330
8112
100
AcDbEntity
  8
1
100
AcDbLine
 10
2947.287641258176
 20
2008.435029840878
 30
0.0
 11
2933.802284524215
 21
2058.435029840878
 31
0.0
  0
CIRCLE
  5
7C3E
330
8112
100
AcDbEntity
  8
1
100
AcDbCircle
 10
2745.287641258175
 20
2218.435029840878
 30
0.0
 40
110.0
  0
CIRCLE
  5
7C3F
330
8112
100
AcDbEntity
  8
1
100
AcDbCircle
 10
1745.287641258175
 20
2828.435029840878
 30
0.0
 40
127.0
  0
LINE
  5
7C40
330
8112
100
AcDbEntity
  8
1
100
AcDbLine
 10
3446.249582193797
 20
2955.435029840878
 30
0.0
 11
3531.249582193797
 21
2955.435029840878
 31
0.0
  0
LINE
  5
7C41
330
8112
100
AcDbEntity
  8
1
100
AcDbLine
 10
3446.249582193797
 20
2701.435029840878
 30
0.0
 11
3531.249582193798
 21
2701.435029840878
 31
0.0
  0
LINE
  5
7C42
330
8112
100
AcDbEntity
  8
1
100
AcDbLine
 10
3446.249582193798
 20
2328.435029840878
 30
0.0
 11
3531.249582193797
 21
2328.435029840878
 31
0.0
  0
LINE
  5
7C43
330
8112
100
AcDbEntity
  8
1
100
AcDbLine
 10
3446.249582193797
 20
2108.435029840878
 30
0.0
 11
3531.249582193797
 21
2108.435029840878
 31
0.0
  0
LINE
  5
7C44
330
8112
100
AcDbEntity
  8
1
100
AcDbLine
 10
3314.249582193797
 20
1998.435029840878
 30
0.0
 11
3564.249582193797
 21
1998.435029840878
 31
0.0
  0
LINE
  5
7C45
330
8112
100
AcDbEntity
  8
1
100
AcDbLine
 10
3531.249582193797
 20
2955.435029840878
 30
0.0
 11
3531.249582193797
 21
2701.435029840878
 31
0.0
  0
INSERT
  5
7C46
330
8112
100
AcDbEntity
  8
0
100
AcDbBlockReference
  2
YA_N
 10
-36.73462870802178
 20
301.6536876033205
 30
0.0
 41
20.0
 42
20.0
 43
20.0
  0
INSERT
  5
7C48
330
8112
100
AcDbEntity
  8
0
100
AcDbBlockReference
  2
YA_N
 10
77.48489664613955
 20
225.3119777640749
 30
0.0
 41
20.0
 42
20.0
 43
20.0
  0
LINE
  5
7C4A
330
8112
100
AcDbEntity
  8
1
100
AcDbLine
 10
3512.249582193796
 20
1788.435029840878
 30
0.0
 11
4767.249582193797
 21
1788.435029840879
 31
0.0
1001
ACAD
1000
ASC_BOUNDS
1002
{
1070
    19
1002
}
  0
LINE
  5
7C4B
330
8112
100
AcDbEntity
  8
1
100
AcDbLine
 10
1245.287641258175
 20
1788.435029840879
 30
0.0
 11
2995.287641258176
 21
1788.435029840878
 31
0.0
1001
ACAD
1000
ASC_BOUNDS
1002
{
1070
    19
1005
0
1005
0
1002
}
  0
POINT
  5
7C4C
330
8112
100
AcDbEntity
  8
1
100
AcDbPoint
 10
1245.287641258175
 20
1788.435029840879
 30
0.0
  0
POINT
  5
7C4D
330
8112
100
AcDbEntity
  8
1
100
AcDbPoint
 10
1245.287641258175
 20
1688.435029840879
 30
0.0
  0
POINT
  5
7C4E
330
8112
100
AcDbEntity
  8
1
100
AcDbPoint
 10
1245.287641258175
 20
1788.435029840879
 30
0.0
  0
POINT
  5
7C4F
330
8112
100
AcDbEntity
  8
1
100
AcDbPoint
 10
1245.287641258175
 20
1868.435029840878
 30
0.0
  0
LINE
  5
7C50
330
8112
100
AcDbEntity
  8
1
100
AcDbLine
 10
4767.249582193797
 20
1788.435029840879
 30
0.0
 11
4767.249582193797
 21
1688.435029840879
 31
0.0
  0
POINT
  5
7C52
330
8112
100
AcDbEntity
  8
1
100
AcDbPoint
 10
1245.287641258175
 20
1788.435029840879
 30
0.0
  0
POINT
  5
7C53
330
8112
100
AcDbEntity
  8
1
100
AcDbPoint
 10
1245.287641258175
 20
1688.435029840879
 30
0.0
  0
POINT
  5
7C54
330
8112
100
AcDbEntity
  8
1
100
AcDbPoint
 10
1245.287641258175
 20
1788.435029840879
 30
0.0
  0
POINT
  5
7C55
330
8112
100
AcDbEntity
  8
1
100
AcDbPoint
 10
1245.287641258175
 20
1868.435029840878
 30
0.0
  0
LINE
  5
7C56
330
8112
100
AcDbEntity
  8
1
100
AcDbLine
 10
4214.249582193797
 20
3396.435029840878
 30
0.0
 11
4714.249582193797
 21
3396.435029840878
 31
0.0
  0
LINE
  5
7C57
330
8112
100
AcDbEntity
  8
1
100
AcDbLine
 10
4714.249582193797
 20
2851.435029840878
 30
0.0
 11
4714.249582193797
 21
1980.435029840878
 31
0.0
  0
LINE
  5
7C58
330
8112
100
AcDbEntity
  8
1
100
AcDbLine
 10
3714.249582193797
 20
2851.435029840878
 30
0.0
 11
3714.249582193798
 21
2380.435029840878
 31
0.0
  0
LINE
  5
7C59
330
8112
100
AcDbEntity
  8
1
100
AcDbLine
 10
3714.249582193797
 20
3396.435029840878
 30
0.0
 11
3714.249582193798
 21
2851.435029840878
 31
0.0
  0
LINE
  5
7C5A
330
8112
100
AcDbEntity
  8
1
100
AcDbLine
 10
4214.249582193797
 20
3396.435029840878
 30
0.0
 11
3714.249582193797
 21
3396.435029840878
 31
0.0
  0
LINE
  5
7C5B
330
8112
100
AcDbEntity
  8
1
100
AcDbLine
 10
3576.249582193797
 20
2792.635029840877
 30
0.0
 11
3576.249582193797
 21
2662.635029840878
 31
0.0
  0
LINE
  5
7C5C
330
8112
100
AcDbEntity
  8
1
100
AcDbLine
 10
3586.249582193797
 20
2802.635029840878
 30
0.0
 11
3714.249582193797
 21
2802.635029840878
 31
0.0
  0
LINE
  5
7C5D
330
8112
100
AcDbEntity
  8
1
100
AcDbLine
 10
3586.249582193797
 20
2652.635029840879
 30
0.0
 11
3714.249582193797
 21
2652.635029840878
 31
0.0
  0
ARC
  5
7C5E
330
8112
100
AcDbEntity
  8
1
100
AcDbCircle
 10
3586.249582193797
 20
2792.635029840877
 30
0.0
 40
10.0
100
AcDbArc
 50
90.0
 51
180.0
  0
ARC
  5
7C5F
330
8112
100
AcDbEntity
  8
1
100
AcDbCircle
 10
3586.249582193797
 20
2662.635029840878
 30
0.0
 40
10.0
100
AcDbArc
 50
180.0
 51
270.0
  0
LINE
  5
7C60
330
8112
100
AcDbEntity
  8
1
100
AcDbLine
 10
4824.249582193799
 20
2788.935029840879
 30
0.0
 11
4824.249582193799
 21
2688.935029840878
 31
0.0
  0
ARC
  5
7C61
330
8112
100
AcDbEntity
  8
1
100
AcDbCircle
 10
4814.249582193799
 20
2688.935029840878
 30
0.0
 40
10.0
100
AcDbArc
 50
270.0
 51
0.0
  0
ARC
  5
7C62
330
8112
100
AcDbEntity
  8
1
100
AcDbCircle
 10
4814.249582193799
 20
2788.935029840879
 30
0.0
 40
10.0
100
AcDbArc
 50
0.0
 51
90.0
  0
LINE
  5
7C63
330
8112
100
AcDbEntity
  8
1
100
AcDbLine
 10
4714.249582193797
 20
2678.935029840878
 30
0.0
 11
4814.249582193799
 21
2678.935029840878
 31
0.0
  0
LINE
  5
7C64
330
8112
100
AcDbEntity
  8
1
100
AcDbLine
 10
4714.249582193797
 20
2798.93502984088
 30
0.0
 11
4814.249582193799
 21
2798.935029840878
 31
0.0
  0
LINE
  5
7C65
330
8112
100
AcDbEntity
  8
1
100
AcDbLine
 10
2945.287641258176
 20
2008.435029840878
 30
0.0
 11
2945.287641258176
 21
1968.435029840878
 31
0.0
  0
POINT
  5
7C66
330
8112
100
AcDbEntity
  8
1
100
AcDbPoint
 10
4824.249582193799
 20
2788.935029840879
 30
0.0
  0
LINE
  5
7C67
330
8112
100
AcDbEntity
  8
1
100
AcDbLine
 10
2995.287641258175
 20
4222.904731816339
 30
0.0
 11
1245.287641258175
 21
4222.904731816339
 31
0.0
  0
LINE
  5
7C68
330
8112
100
AcDbEntity
  8
1
100
AcDbLine
 10
2245.287641258175
 20
5477.904731816339
 30
0.0
 11
1245.287641258175
 21
5477.904731816339
 31
0.0
  0
LINE
  5
7C69
330
8112
100
AcDbEntity
  8
1
100
AcDbLine
 10
1245.287641258175
 20
5477.904731816339
 30
0.0
 11
1245.287641258175
 21
5424.904731816337
 31
0.0
  0
LINE
  5
7C6A
330
8112
100
AcDbEntity
  8
1
100
AcDbLine
 10
2995.287641258175
 20
4972.904731816339
 30
0.0
 11
2995.287641258175
 21
4222.904731816339
 31
0.0
  0
LINE
  5
7C6B
330
8112
100
AcDbEntity
  8
1
100
AcDbLine
 10
2245.287641258176
 20
5477.904731816339
 30
0.0
 11
2245.287641258176
 21
5424.904731816339
 31
0.0
  0
LINE
  5
7C6C
330
8112
100
AcDbEntity
  8
1
100
AcDbLine
 10
2995.287641258175
 20
4972.904731816339
 30
0.0
 11
2428.947725011167
 21
4972.904731816339
 31
0.0
  0
LINE
  5
7C6D
330
8112
100
AcDbEntity
  8
2
100
AcDbLine
 10
2479.013526400451
 20
4924.904731816339
 30
0.0
 11
1164.895272849744
 21
4924.904731816337
 31
0.0
  0
LINE
  5
7C6E
330
8112
100
AcDbEntity
  8
2
100
AcDbLine
 10
1745.287641258177
 20
5510.888647353266
 30
0.0
 11
1745.287641258175
 21
3988.041080666202
 31
0.0
  0
LINE
  5
7C6F
330
8112
100
AcDbEntity
  8
2
100
AcDbLine
 10
2745.287641258175
 20
4839.394721300283
 30
0.0
 11
2745.287641258175
 21
3988.041080666202
 31
0.0
  0
LINE
  5
7C72
330
8112
100
AcDbEntity
  8
1
100
AcDbLine
 10
4767.249582193797
 20
1968.435029840878
 30
0.0
 11
4767.249582193797
 21
1868.435029840878
 31
0.0
  0
LINE
  5
7C73
330
8112
100
AcDbEntity
  8
1
100
AcDbLine
 10
3512.249582193796
 20
1968.435029840878
 30
0.0
 11
4767.249582193797
 21
1968.435029840878
 31
0.0
1001
ACAD
1000
ASC_BOUNDS
1002
{
1070
    19
1002
}
  0
LINE
  5
7C74
330
8112
100
AcDbEntity
  8
1
100
AcDbLine
 10
3512.249582193797
 20
1868.435029840878
 30
0.0
 11
4767.249582193797
 21
1868.435029840878
 31
0.0
  0
LINE
  5
7C75
330
8112
100
AcDbEntity
  8
1
100
AcDbLine
 10
3512.249582193797
 20
1968.435029840878
 30
0.0
 11
3512.249582193797
 21
1868.435029840878
 31
0.0
  0
DIMENSION
  5
7C76
330
8112
100
AcDbEntity
  8
3
100
AcDbDimension
  2
*D7
 10
5015.772993090774
 20
2403.435029840879
 30
0.0
 11
4965.772993090773
 21
2828.435029840878
 31
0.0
 12
-699.6579229188464
 22
1266.547414431397
 32
0.0
 71
     5
 42
-1.0
  3
Standard
100
AcDbAlignedDimension
 13
4716.549582193796
 23
3253.435029840878
 33
0.0
 14
4716.549582193796
 24
2403.435029840879
 34
0.0
 50
90.0
100
AcDbRotatedDimension
1001
ACAD
1000
DSTYLE
1002
{
1070
    40
1040
25.0
1070
     3
1000
\U+03C6<>
1002
}
  0
LINE
  5
7C77
330
8112
100
AcDbEntity
  8
1
100
AcDbLine
 10
3531.249582193797
 20
2858.435029840878
 30
0.0
 11
3714.249582193798
 21
2858.435029840878
 31
0.0
  0
LINE
  5
7C78
330
8112
100
AcDbEntity
  8
1
100
AcDbLine
 10
3531.249582193797
 20
2798.435029840879
 30
0.0
 11
3578.103417452029
 21
2798.435029840878
 31
0.0
  0
ARC
  5
7C7A
330
8112
100
AcDbEntity
  8
1
100
AcDbCircle
 10
1745.287641258175
 20
2828.435029840878
 30
0.0
 40
220.0
100
AcDbArc
 50
76.50426671920421
 51
256.5042667192043
  0
ARC
  5
7C7B
330
8112
100
AcDbEntity
  8
1
100
AcDbCircle
 10
2745.287641258176
 20
2218.435029840878
 30
0.0
 40
220.0
100
AcDbArc
 50
256.5042667192043
 51
76.50426671920415
  0
LINE
  5
7C7C
330
8112
100
AcDbEntity
  8
1
100
AcDbLine
 10
1796.629690802746
 20
3042.360236276592
 30
0.0
 11
2796.629690802747
 21
2432.360236276592
 31
0.0
  0
LINE
  5
7C7D
330
8112
100
AcDbEntity
  8
1
100
AcDbLine
 10
1776.963370976368
 20
2951.42140366668
 30
0.0
 11
2772.723312667634
 21
2324.95866071362
 31
0.0
  0
LINE
  5
7C7E
330
8112
100
AcDbEntity
  8
1
100
AcDbLine
 10
1717.694740586881
 20
2704.46877704382
 30
0.0
 11
2721.388278472015
 21
2111.062684898544
 31
0.0
  0
LINE
  5
7C7F
330
8112
100
AcDbEntity
  8
1
100
AcDbLine
 10
1693.945591713604
 20
2614.509823405164
 30
0.0
 11
2693.945591713605
 21
2004.509823405164
 31
0.0
  0
LINE
  5
7C80
330
8112
100
AcDbEntity
  8
1
100
AcDbLine
 10
2995.287641258176
 20
1868.435029840878
 30
0.0
 11
1245.287641258175
 21
1868.435029840878
 31
0.0
  0
LINE
  5
7C81
330
8112
100
AcDbEntity
  8
1
100
AcDbLine
 10
1245.287641258175
 20
1968.435029840878
 30
0.0
 11
2995.287641258176
 21
1968.435029840878
 31
0.0
1001
ACAD
1000
ASC_BOUNDS
1002
{
1070
    19
1005
0
1005
0
1002
}
  0
LINE
  5
7C82
330
8112
100
AcDbEntity
  8
1
100
AcDbLine
 10
2995.287641258176
 20
1968.435029840878
 30
0.0
 11
2995.287641258176
 21
1868.435029840878
 31
0.0
  0
LINE
  5
7C83
330
8112
100
AcDbEntity
  8
1
100
AcDbLine
 10
1245.287641258175
 20
1968.435029840878
 30
0.0
 11
1245.287641258175
 21
1868.435029840878
 31
0.0
  0
CIRCLE
  5
7C85
330
8112
100
AcDbEntity
  8
1
100
AcDbCircle
 10
1745.287641258175
 20
2828.435029840878
 30
0.0
 40
425.0
  0
CIRCLE
  5
7C86
330
8112
100
AcDbEntity
  8
1
100
AcDbCircle
 10
1745.287641258175
 20
2828.435029840878
 30
0.0
 40
465.0
  0
LINE
  5
7C87
330
8112
100
AcDbEntity
  8
1
100
AcDbLine
 10
2543.287641258176
 20
2008.435029840878
 30
0.0
 11
2947.287641258176
 21
2008.435029840878
 31
0.0
  0
POINT
  5
7C89
330
8112
100
AcDbEntity
  8
1
100
AcDbPoint
 10
1245.287641258175
 20
1788.435029840879
 30
0.0
  0
POINT
  5
7C8A
330
8112
100
AcDbEntity
  8
1
100
AcDbPoint
 10
1245.287641258175
 20
1868.435029840878
 30
0.0
  0
LINE
  5
7C8B
330
8112
100
AcDbEntity
  8
1
100
AcDbLine
 10
2428.947725011167
 20
5424.904731816339
 30
0.0
 11
1200.287641258177
 21
5424.904731816337
 31
0.0
  0
LINE
  5
7C8C
330
8112
100
AcDbEntity
  8
1
100
AcDbLine
 10
2428.947725011167
 20
4424.904731816339
 30
0.0
 11
1200.287641258176
 21
4424.904731816337
 31
0.0
  0
LINE
  5
7C8D
330
8112
100
AcDbEntity
  8
1
100
AcDbLine
 10
1200.287641258177
 20
5467.904731816339
 30
0.0
 11
1200.287641258175
 21
4381.904731816339
 31
0.0
  0
LINE
  5
7C8E
330
8112
100
AcDbEntity
  8
1
100
AcDbLine
 10
2428.947725011167
 20
4424.904731816339
 30
0.0
 11
2428.947725011167
 21
5424.904731816339
 31
0.0
  0
LINE
  5
7C8F
330
8112
100
AcDbEntity
  8
1
100
AcDbLine
 10
1203.287641258177
 20
5467.904731816339
 30
0.0
 11
1200.287641258177
 21
5467.904731816339
 31
0.0
  0
LINE
  5
7C90
330
8112
100
AcDbEntity
  8
1
100
AcDbLine
 10
1203.287641258175
 20
4381.904731816337
 30
0.0
 11
1200.287641258176
 21
4381.904731816337
 31
0.0
  0
LINE
  5
7C91
330
8112
100
AcDbEntity
  8
1
100
AcDbLine
 10
1240.287641258177
 20
5424.904731816337
 30
0.0
 11
1240.287641258175
 21
4424.904731816337
 31
0.0
  0
LINE
  5
7C92
330
8112
100
AcDbEntity
  8
1
100
AcDbLine
 10
1203.287641258177
 20
5467.904731816339
 30
0.0
 11
1203.287641258175
 21
4381.904731816339
 31
0.0
  0
LINE
  5
7C93
330
8112
100
AcDbEntity
  8
1
100
AcDbLine
 10
1245.287641258175
 20
4424.904731816337
 30
0.0
 11
1245.287641258175
 21
4222.904731816339
 31
0.0
  0
DIMENSION
  5
7C99
330
8112
100
AcDbEntity
  8
3
100
AcDbDimension
  2
*D8
 10
1245.287641258175
 20
5629.028015367293
 30
0.0
 11
1745.287641258176
 21
5679.028015367292
 31
0.0
 12
-66.00545712791426
 22
923.5241595758397
 32
0.0
 71
     5
 42
-1.0
  3
Standard
100
AcDbAlignedDimension
 13
2245.287641258176
 23
5477.904731816339
 33
0.0
 14
1245.287641258175
 24
5477.904731816339
 34
0.0
100
AcDbRotatedDimension
1001
ACAD
1000
DSTYLE
1002
{
1070
    40
1040
25.0
1002
}
  0
DIMENSION
  5
7C9A
330
8112
100
AcDbEntity
  8
3
100
AcDbDimension
  2
*D9
 10
1027.350913108286
 20
4222.904731816339
 30
0.0
 11
1027.350913108286
 21
4850.40473181634
 31
0.0
 12
-66.00545712791426
 22
923.5241595758397
 32
0.0
 70
   128
 71
     5
 42
-1.0
  3
Standard
100
AcDbAlignedDimension
 13
1245.287641258175
 23
5477.904731816339
 33
0.0
 14
1245.287641258175
 24
4222.904731816339
 34
0.0
 50
270.0
100
AcDbRotatedDimension
1001
ACAD
1000
DSTYLE
1002
{
1070
    40
1040
25.0
1002
}
  0
DIMENSION
  5
7C9B
330
8112
100
AcDbEntity
  8
3
100
AcDbDimension
  2
*D10
 10
3147.44047038149
 20
4222.904731816339
 30
0.0
 11
3097.440470381489
 21
4597.904731816339
 31
0.0
 12
-66.00545712791426
 22
923.5241595758397
 32
0.0
 71
     5
 42
-1.0
  3
Standard
100
AcDbAlignedDimension
 13
2995.287641258175
 23
4972.904731816339
 33
0.0
 14
2995.287641258175
 24
4222.904731816339
 34
0.0
 50
270.0
100
AcDbRotatedDimension
1001
ACAD
1000
DSTYLE
1002
{
1070
    40
1040
25.0
1002
}
  0
LINE
  5
7C9C
330
8112
100
AcDbEntity
  8
1
100
AcDbLine
 10
2855.287641258175
 20
4156.904731816341
 30
0.0
 11
2635.287641258175
 21
4156.904731816339
 31
0.0
  0
LINE
  5
7C9D
330
8112
100
AcDbEntity
  8
1
100
AcDbLine
 10
2855.287641258175
 20
4241.904731816341
 30
0.0
 11
2635.287641258176
 21
4241.904731816341
 31
0.0
  0
LINE
  5
7C9E
330
8112
100
AcDbEntity
  8
1
100
AcDbLine
 10
1618.287641258175
 20
4241.904731816339
 30
0.0
 11
1618.287641258175
 21
4156.904731816339
 31
0.0
  0
LINE
  5
7C9F
330
8112
100
AcDbEntity
  8
1
100
AcDbLine
 10
1872.287641258175
 20
4241.904731816341
 30
0.0
 11
1872.287641258175
 21
4156.904731816339
 31
0.0
  0
LINE
  5
7CA0
330
8112
100
AcDbEntity
  8
1
100
AcDbLine
 10
2635.287641258175
 20
4241.904731816341
 30
0.0
 11
2635.287641258175
 21
4156.904731816341
 31
0.0
  0
LINE
  5
7CA1
330
8112
100
AcDbEntity
  8
1
100
AcDbLine
 10
2855.287641258175
 20
4241.904731816343
 30
0.0
 11
2855.287641258175
 21
4156.904731816341
 31
0.0
  0
LINE
  5
7CA2
330
8112
100
AcDbEntity
  8
1
100
AcDbLine
 10
1872.287641258175
 20
4156.904731816339
 30
0.0
 11
1618.287641258175
 21
4156.904731816339
 31
0.0
  0
LINE
  5
7CA3
330
8112
100
AcDbEntity
  8
1
100
AcDbLine
 10
1872.287641258175
 20
4241.904731816339
 30
0.0
 11
1618.287641258175
 21
4241.904731816339
 31
0.0
  0
LINE
  5
7CA4
330
8112
100
AcDbEntity
  8
1
100
AcDbLine
 10
2965.287641258175
 20
4024.904731816339
 30
0.0
 11
1525.287641258175
 21
4024.904731816339
 31
0.0
  0
LINE
  5
7CA5
330
8112
100
AcDbEntity
  8
1
100
AcDbLine
 10
1525.287641258175
 20
4271.90473181634
 30
0.0
 11
1525.287641258175
 21
4024.904731816339
 31
0.0
  0
LINE
  5
7CA6
330
8112
100
AcDbEntity
  8
1
100
AcDbLine
 10
2965.287641258175
 20
4271.904731816341
 30
0.0
 11
2965.287641258175
 21
4024.904731816339
 31
0.0
  0
LINE
  5
7CA7
330
8112
100
AcDbEntity
  8
1
100
AcDbLine
 10
2965.287641258175
 20
4271.904731816341
 30
0.0
 11
1525.287641258174
 21
4271.90473181634
 31
0.0
  0
POINT
  5
7CA9
330
8112
100
AcDbEntity
  8
1
100
AcDbPoint
 10
4824.249582193799
 20
2788.935029840879
 30
0.0
  0
DIMENSION
  5
7CAA
330
8112
100
AcDbEntity
  8
3
100
AcDbDimension
  2
*D12
 10
4714.249582193798
 20
3518.440210206699
 30
0.0
 11
4214.249582193797
 21
3568.440210206698
 31
0.0
 71
     5
 42
-1.0
  3
Standard
100
AcDbAlignedDimension
 13
3714.249582193797
 23
3396.435029840878
 33
0.0
 14
4714.249582193798
 24
3396.435029840878
 34
0.0
100
AcDbRotatedDimension
1001
ACAD
1000
DSTYLE
1002
{
1070
    40
1040
25.0
1002
}
  0
POINT
  5
7CAB
330
8112
100
AcDbEntity
  8
1
100
AcDbPoint
 10
4824.249582193799
 20
2788.935029840879
 30
0.0
  0
POINT
  5
7CAC
330
8112
100
AcDbEntity
  8
1
100
AcDbPoint
 10
3314.249582193797
 20
3048.435029840878
 30
0.0
  0
LINE
  5
7CAD
330
8112
100
AcDbEntity
  8
1
100
AcDbLine
 10
2907.287641258175
 20
4811.404731816342
 30
0.0
 11
2583.287641258175
 21
4811.404731816339
 31
0.0
  0
LINE
  5
7CAE
330
8112
100
AcDbEntity
  8
1
100
AcDbLine
 10
2907.287641258175
 20
4282.404731816341
 30
0.0
 11
2583.287641258175
 21
4282.404731816339
 31
0.0
  0
LINE
  5
7CAF
330
8112
100
AcDbEntity
  8
1
100
AcDbLine
 10
2724.287641258175
 20
4282.404731816341
 30
0.0
 11
2724.287641258175
 21
4241.904731816341
 31
0.0
  0
LINE
  5
7CB0
330
8112
100
AcDbEntity
  8
1
100
AcDbLine
 10
2766.287641258175
 20
4282.404731816341
 30
0.0
 11
2766.287641258175
 21
4241.904731816341
 31
0.0
  0
LINE
  5
7CB1
330
8112
100
AcDbEntity
  8
1
100
AcDbLine
 10
2907.287641258175
 20
4811.404731816343
 30
0.0
 11
2907.287641258175
 21
4282.404731816341
 31
0.0
  0
LINE
  5
7CB2
330
8112
100
AcDbEntity
  8
1
100
AcDbLine
 10
2583.287641258175
 20
4811.404731816339
 30
0.0
 11
2583.287641258175
 21
4282.404731816339
 31
0.0
  0
LINE
  5
7CB3
330
8112
100
AcDbEntity
  8
1
100
AcDbLine
 10
4100.749582193794
 20
2056.435029840878
 30
0.0
 11
3571.749582193796
 21
2056.435029840878
 31
0.0
  0
LINE
  5
7CB4
330
8112
100
AcDbEntity
  8
1
100
AcDbLine
 10
4100.749582193798
 20
2380.435029840878
 30
0.0
 11
3571.749582193799
 21
2380.435029840878
 31
0.0
  0
LINE
  5
7CB5
330
8112
100
AcDbEntity
  8
1
100
AcDbLine
 10
3571.749582193798
 20
2380.435029840878
 30
0.0
 11
3571.749582193795
 21
2056.435029840878
 31
0.0
  0
LINE
  5
7CB6
330
8112
100
AcDbEntity
  8
1
100
AcDbLine
 10
3571.749582193797
 20
2239.435029840878
 30
0.0
 11
3531.249582193798
 21
2239.435029840878
 31
0.0
  0
LINE
  5
7CB7
330
8112
100
AcDbEntity
  8
1
100
AcDbLine
 10
3571.749582193797
 20
2197.435029840878
 30
0.0
 11
3531.249582193798
 21
2197.435029840878
 31
0.0
  0
LINE
  5
7CB8
330
8112
100
AcDbEntity
  8
1
100
AcDbLine
 10
3531.249582193797
 20
2328.435029840878
 30
0.0
 11
3531.249582193797
 21
2108.435029840878
 31
0.0
  0
LINE
  5
7CB9
330
8112
100
AcDbEntity
  8
1
100
AcDbLine
 10
3446.249582193797
 20
2328.435029840878
 30
0.0
 11
3446.249582193797
 21
2108.435029840878
 31
0.0
  0
DIMENSION
  5
7CC0
330
8112
100
AcDbEntity
  8
3
100
AcDbDimension
  2
*D16
 10
1745.287641258175
 20
3525.996801768199
 30
0.0
 11
1472.787641258176
 21
3575.996801768198
 31
0.0
 12
-66.00545712791426
 22
1266.547414431397
 32
0.0
 71
     5
 42
-1.0
  3
Standard
100
AcDbAlignedDimension
 13
1200.287641258176
 23
2847.935029840878
 33
0.0
 14
1745.287641258175
 24
3485.45335055235
 34
0.0
100
AcDbRotatedDimension
1001
ACAD
1000
DSTYLE
1002
{
1070
    40
1040
25.0
1002
}
  0
LINE
  5
7CC2
330
8112
100
AcDbEntity
  8
1
100
AcDbLine
 10
4036.012020898634
 20
1980.435029840878
 30
0.0
 11
4714.249582193797
 21
1980.435029840878
 31
0.0
  0
DIMENSION
  5
7CCB
330
8112
100
AcDbEntity
  8
3
100
AcDbDimension
  2
*D21
 10
2995.287641258176
 20
3670.97451821016
 30
0.0
 11
2097.787641258176
 21
3720.97451821016
 31
0.0
 12
-66.00545712791426
 22
1266.547414431397
 32
0.0
 71
     5
 42
-1.0
  3
Standard
100
AcDbAlignedDimension
 13
1200.287641258176
 23
2847.935029840878
 33
0.0
 14
2995.287641258176
 24
1968.435029840878
 34
0.0
100
AcDbRotatedDimension
1001
ACAD
1000
DSTYLE
1002
{
1070
    40
1040
25.0
1002
}
  0
LINE
  5
7CCC
330
8112
100
AcDbEntity
  8
1
100
AcDbLine
 10
4100.749582193798
 20
2380.435029840874
 30
0.0
 11
4100.749582193794
 21
2056.435029840874
 31
0.0
  0
LINE
  5
7CCD
330
8112
100
AcDbEntity
  8
1
100
AcDbLine
 10
3659.977849953
 20
2008.435029840878
 30
0.0
 11
4036.012020898634
 21
2008.435029840878
 31
0.0
  0
LINE
  5
7CCE
330
8112
100
AcDbEntity
  8
1
100
AcDbLine
 10
4036.012020898634
 20
2056.435029840878
 30
0.0
 11
4036.012020898634
 21
1968.435029840878
 31
0.0
  0
LINE
  5
7CCF
330
8112
100
AcDbEntity
  8
1
100
AcDbLine
 10
3659.977849953
 20
2056.435029840878
 30
0.0
 11
3659.977849953
 21
1968.435029840878
 31
0.0
  0
LINE
  5
7F0D
330
8112
100
AcDbEntity
  8
4
100
AcDbLine
 10
4625.0
 20
1250.0
 30
0.0
 11
4625.0
 21
750.0
 31
0.0
  0
LINE
  5
7F0E
330
8112
100
AcDbEntity
  8
4
100
AcDbLine
 10
2875.0
 20
1250.0
 30
0.0
 11
2875.0
 21
750.0
 31
0.0
  0
LINE
  5
7F0F
330
8112
100
AcDbEntity
  8
4
100
AcDbLine
 10
1625.0
 20
1250.0
 30
0.0
 11
1625.0
 21
750.0
 31
0.0
  0
LINE
  5
7F12
330
8112
100
AcDbEntity
  8
4
100
AcDbLine
 10
1625.0
 20
750.0
 30
0.0
 11
4625.0
 21
750.0
 31
0.0
  0
LINE
  5
7F13
330
8112
100
AcDbEntity
  8
4
100
AcDbLine
 10
1625.0
 20
1000.0
 30
0.0
 11
4625.0
 21
1000.0
 31
0.0
  0
TEXT
  5
7F14
330
8112
100
AcDbEntity
  8
4
100
AcDbText
 10
1721.255202117253
 20
1078.857564666532
 30
0.0
 40
125.0
  1
機器名称
100
AcDbText
  0
TEXT
  5
7F15
330
8112
100
AcDbEntity
  8
4
100
AcDbText
 10
1715.645265061993
 20
804.1128918300273
 30
0.0
 40
125.0
  1
機器型番
100
AcDbText
  0
TEXT
  5
7F16
330
8112
100
AcDbEntity
  8
4
100
AcDbText
 10
2944.196863719162
 20
1056.429422393921
 30
0.0
 40
125.0
  1
ミツヤ多翼送風機
100
AcDbText
  0
TEXT
  5
7F17
330
8112
100
AcDbEntity
  8
4
100
AcDbText
 10
2966.636238963701
 20
792.8989606998584
 30
0.0
 40
125.0
  1
MF#5-5
100
AcDbText
  0
TEXT
  5
7F19
330
8112
100
AcDbEntity
  8
4
100
AcDbText
 10
2024.344742216864
 20
5958.572103331289
 30
0.0
 40
135.0
  1
床置防振ベット
100
AcDbText
  0
TEXT
  5
7F1A
330
8112
100
AcDbEntity
  8
4
100
AcDbText
 10
790.4189833236158
 20
6334.702440498245
 30
0.0
 40
180.0
  1
遠心式両吸込両持多翼ファン
100
AcDbText
  0
LINE
  5
7F1B
330
8112
100
AcDbEntity
  8
4
100
AcDbLine
 10
625.0
 20
6173.521885662012
 30
0.0
 11
4625.0
 21
6173.521885662012
 31
0.0
  0
LINE
  5
7F1C
330
8112
100
AcDbEntity
  8
4
100
AcDbLine
 10
625.0
 20
6673.521885662011
 30
0.0
 11
4625.0
 21
6673.521885662011
 31
0.0
  0
LINE
  5
7F1D
330
8112
100
AcDbEntity
  8
4
100
AcDbLine
 10
1625.0
 20
1250.0
 30
0.0
 11
4625.0
 21
1250.0
 31
0.0
  0
LINE
  5
7F1E
330
8112
100
AcDbEntity
  8
4
100
AcDbLine
 10
625.0
 20
6673.521885662011
 30
0.0
 11
625.0
 21
6173.521885662012
 31
0.0
  0
TEXT
  5
7F1F
330
8112
100
AcDbEntity
  8
4
100
AcDbText
 10
934.6976616101091
 20
5955.798693865858
 30
0.0
 40
135.0
  1
右回転左横向
100
AcDbText
  0
TEXT
  5
7F20
330
8112
100
AcDbEntity
  8
4
100
AcDbText
 10
3672.423898123224
 20
6765.15270373827
 30
0.0
 40
140.0
  1
No.
100
AcDbText
  0
TEXT
  5
7F21
330
8112
100
AcDbEntity
  8
4
100
AcDbText
 10
3278.240156500032
 20
5958.572103331289
 30
0.0
 40
135.0
  1
縮尺：1/25
100
AcDbText
  0
LINE
  5
7F22
330
8112
100
AcDbEntity
  8
4
100
AcDbLine
 10
4625.0
 20
6673.521885662011
 30
0.0
 11
4625.0
 21
6173.521885662012
 31
0.0
  0
LINE
  5
7F23
330
8112
100
AcDbEntity
  8
4
100
AcDbLine
 10
5250.0
 20
7375.0
 30
0.0
 11
5250.0
 21
7375.0
 31
0.0
  0
LINE
  5
7F24
330
8112
100
AcDbEntity
  8
4
100
AcDbLine
 10
3601.543555899662
 20
6703.158957813504
 30
0.0
 11
3601.543555899662
 21
6966.630653874381
 31
0.0
  0
LINE
  5
7F25
330
8112
100
AcDbEntity
  8
4
100
AcDbLine
 10
3601.543555899662
 20
6966.630653874381
 30
0.0
 11
4625.0
 21
6966.630653874381
 31
0.0
  0
LINE
  5
7F26
330
8112
100
AcDbEntity
  8
4
100
AcDbLine
 10
4625.0
 20
6966.630653874381
 30
0.0
 11
4625.0
 21
6703.158957813504
 31
0.0
  0
LINE
  5
7F27
330
8112
100
AcDbEntity
  8
4
100
AcDbLine
 10
4625.0
 20
6703.158957813504
 30
0.0
 11
3601.543555899662
 21
6703.158957813504
 31
0.0
  0
LINE
  5
7F28
330
8112
100
AcDbEntity
  8
4
100
AcDbLine
 10
0.0
 20
0.0
 30
0.0
 11
0.0
 21
7375.0
 31
0.0
  0
LINE
  5
7F29
330
8112
100
AcDbEntity
  8
4
100
AcDbLine
 10
0.0
 20
7375.0
 30
0.0
 11
5250.0
 21
7375.0
 31
0.0
  0
LINE
  5
7F2A
330
8112
100
AcDbEntity
  8
4
100
AcDbLine
 10
5250.0
 20
7375.0
 30
0.0
 11
5250.0
 21
0.0
 31
0.0
  0
LINE
  5
7F2B
330
8112
100
AcDbEntity
  8
4
100
AcDbLine
 10
5250.0
 20
0.0
 30
0.0
 11
0.0
 21
0.0
 31
0.0
  0
ARC
  5
8188
330
8112
100
AcDbEntity
  8
FUTO
100
AcDbCircle
 10
1792.787641258175
 20
2875.935029840878
 30
0.0
 40
510.5
100
AcDbArc
 50
95.33886758813828
 51
180.0
  0
LINE
  5
8189
330
8112
100
AcDbEntity
  8
FUTO
100
AcDbLine
 10
1200.287641258175
 20
1980.435029840878
 30
0.0
 11
1745.287641258175
 21
2036.806884053399
 31
0.0
  0
ARC
  5
818A
330
8112
100
AcDbEntity
  8
FUTO
100
AcDbCircle
 10
1804.287641258175
 20
2769.435029840878
 30
0.0
 40
617.0
100
AcDbArc
 50
0.0
 51
95.48723514289923
  0
ARC
  5
818B
330
8112
100
AcDbEntity
  8
FUTO
100
AcDbCircle
 10
1686.287641258175
 20
2769.435029840878
 30
0.0
 40
735.0
100
AcDbArc
 50
274.6042067265012
 51
0.0
  0
ARC
  5
818C
330
8112
100
AcDbEntity
  8
FUTO
100
AcDbCircle
 10
1714.787641258175
 20
2858.935029840878
 30
0.0
 40
432.5
100
AcDbArc
 50
180.0
 51
187.1056552472967
  0
LINE
  5
818D
330
8112
100
AcDbEntity
  8
FUTO
100
AcDbLine
 10
1285.609356625785
 20
2805.435029840878
 30
0.0
 11
1200.287641258175
 21
2805.435029840878
 31
0.0
  0
LINE
  5
818E
330
8112
100
AcDbEntity
  8
FUTO
100
AcDbLine
 10
1282.287641258175
 20
2875.935029840878
 30
0.0
 11
1282.287641258175
 21
2858.935029840878
 31
0.0
  0
LINE
  5
818F
330
8112
100
AcDbEntity
  8
1
100
AcDbLine
 10
1200.287641258175
 20
1937.935029840878
 30
0.0
 11
1200.287641258177
 21
2847.935029840878
 31
0.0
  0
LINE
  5
8190
330
8112
100
AcDbEntity
  8
1
100
AcDbLine
 10
1200.287641258175
 20
1937.935029840878
 30
0.0
 11
1203.287641258175
 21
1937.935029840878
 31
0.0
  0
LINE
  5
8191
330
8112
100
AcDbEntity
  8
1
100
AcDbLine
 10
1200.287641258177
 20
2847.935029840878
 30
0.0
 11
1203.287641258176
 21
2847.935029840878
 31
0.0
  0
LINE
  5
8192
330
8112
100
AcDbEntity
  8
1
100
AcDbLine
 10
1240.287641258175
 20
1983.836124611301
 30
0.0
 11
1240.287641258177
 21
2805.435029840878
 31
0.0
  0
LINE
  5
8193
330
8112
100
AcDbEntity
  8
1
100
AcDbLine
 10
1203.287641258175
 20
1937.935029840878
 30
0.0
 11
1203.287641258176
 21
2847.935029840878
 31
0.0
  0
POINT
  5
8194
330
8112
100
AcDbEntity
  8
1
100
AcDbPoint
 10
1180.069730589153
 20
2828.435029840878
 30
0.0
  0
POINT
  5
8195
330
8112
100
AcDbEntity
  8
1
100
AcDbPoint
 10
1180.069730589153
 20
2828.435029840878
 30
0.0
  0
DIMENSION
  5
8199
330
8112
100
AcDbEntity
  8
3
100
AcDbDimension
  2
*D30
 10
4214.249582193797
 20
3683.341739612657
 30
0.0
 11
3764.249582193798
 21
3765.484596755515
 31
0.0
 70
    32
  1
(<>)
 71
     5
 42
900.0000000000005
  3
IGA
100
AcDbAlignedDimension
 13
3314.249582193797
 23
3048.435029840878
 33
0.0
 14
4214.249582193797
 24
3605.940210206699
 34
0.0
100
AcDbRotatedDimension
1001
ACAD
1000
DSTYLE
1002
{
1070
    40
1040
25.0
1070
    42
1040
1.0
1070
   143
1040
0.039
1070
   172
1070
     1
1070
   271
1070
     4
1070
   272
1070
     4
1070
   279
1070
     0
1070
   284
1070
     0
1070
   285
1070
     0
1070
   286
1070
     0
1070
   341
1005
8126
1070
   343
1005
8126
1070
   344
1005
8126
1002
}
  0
DIMENSION
  5
81A6
330
8112
100
AcDbEntity
  8
3
100
AcDbDimension
  2
*D31
 10
4824.249582193799
 20
3683.341739612657
 30
0.0
 11
4519.249582193798
 21
3765.484596755515
 31
0.0
 70
    32
  1
(<>)
 71
     5
 42
610.0000000000018
  3
IGA
100
AcDbAlignedDimension
 13
4214.249582193797
 23
3605.940210206699
 33
0.0
 14
4824.249582193799
 24
2788.935029840879
 34
0.0
100
AcDbRotatedDimension
1001
ACAD
1000
DSTYLE
1002
{
1070
    40
1040
25.0
1070
    42
1040
1.0
1070
   143
1040
0.039
1070
   172
1070
     1
1070
   271
1070
     4
1070
   272
1070
     4
1070
   279
1070
     1
1070
   284
1070
     0
1070
   285
1070
     0
1070
   286
1070
     0
1070
   341
1005
8126
1070
   343
1005
8126
1070
   344
1005
8126
1002
}
  0
DIMENSION
  5
81FE
330
8112
100
AcDbEntity
  8
3
100
AcDbDimension
  2
*D32
 10
2995.287641258175
 20
3870.059586582953
 30
0.0
 11
2120.287641258175
 21
3932.559586582953
 31
0.0
 70
    32
 71
     5
 42
1750.0
  3
IGA
100
AcDbAlignedDimension
 13
1245.287641258175
 23
4222.904731816339
 33
0.0
 14
2995.287641258175
 24
4222.904731816339
 34
0.0
100
AcDbRotatedDimension
1001
ACAD
1000
DSTYLE
1002
{
1070
    40
1040
25.0
1070
    42
1040
1.0
1070
   143
1040
0.039
1070
   172
1070
     1
1070
   271
1070
     4
1070
   272
1070
     4
1070
   279
1070
     0
1070
   284
1070
     0
1070
   285
1070
     0
1070
   286
1070
     0
1070
   341
1005
8126
1070
   343
1005
8126
1070
   344
1005
8126
1002
}
  0
DIMENSION
  5
820B
330
8112
100
AcDbEntity
  8
3
100
AcDbDimension
  2
*D33
 10
2995.287641258175
 20
5629.028015367293
 30
0.0
 11
2620.287641258175
 21
5691.528015367293
 31
0.0
 70
    32
 71
     5
 42
750.0
  3
IGA
100
AcDbAlignedDimension
 13
2245.287641258175
 23
5477.904731816339
 33
0.0
 14
2995.287641258175
 24
4972.904731816339
 34
0.0
100
AcDbRotatedDimension
1001
ACAD
1000
DSTYLE
1002
{
1070
    40
1040
25.0
1070
    42
1040
1.0
1070
   143
1040
0.039
1070
   172
1070
     1
1070
   271
1070
     4
1070
   272
1070
     4
1070
   279
1070
     0
1070
   284
1070
     0
1070
   285
1070
     0
1070
   286
1070
     0
1070
   341
1005
8126
1070
   343
1005
8126
1070
   344
1005
8126
1002
}
  0
DIMENSION
  5
827A
330
8112
100
AcDbEntity
  8
3
100
AcDbDimension
  2
*D41
 10
4214.249582193797
 20
1508.318097207226
 30
0.0
 11
3863.249582193797
 21
1570.818097207226
 31
0.0
 70
    32
 71
     5
 42
702.0000000000004
  3
IGA
100
AcDbAlignedDimension
 13
3512.249582193797
 23
1688.435029840879
 33
0.0
 14
4214.249582193797
 24
1688.435029840879
 34
0.0
100
AcDbRotatedDimension
1001
ACAD
1000
DSTYLE
1002
{
1070
    40
1040
25.0
1070
    42
1040
1.0
1070
   143
1040
0.039
1070
   172
1070
     1
1070
   271
1070
     4
1070
   272
1070
     4
1070
   279
1070
     0
1070
   284
1070
     0
1070
   285
1070
     0
1070
   286
1070
     0
1070
   341
1005
8126
1070
   343
1005
8126
1070
   344
1005
8126
1002
}
  0
DIMENSION
  5
8287
330
8112
100
AcDbEntity
  8
3
100
AcDbDimension
  2
*D42
 10
4767.249582193797
 20
1508.318097207226
 30
0.0
 11
4490.749582193797
 21
1570.818097207226
 31
0.0
 70
    32
 71
     5
 42
553.0
  3
IGA
100
AcDbAlignedDimension
 13
4214.249582193797
 23
1688.435029840879
 33
0.0
 14
4767.249582193797
 24
1688.435029840879
 34
0.0
100
AcDbRotatedDimension
1001
ACAD
1000
DSTYLE
1002
{
1070
    40
1040
25.0
1070
    42
1040
1.0
1070
   143
1040
0.039
1070
   172
1070
     1
1070
   271
1070
     4
1070
   272
1070
     4
1070
   279
1070
     1
1070
   284
1070
     0
1070
   285
1070
     0
1070
   286
1070
     0
1070
   341
1005
8126
1070
   343
1005
8126
1070
   344
1005
8126
1002
}
  0
DIMENSION
  5
8294
330
8112
100
AcDbEntity
  8
3
100
AcDbDimension
  2
*D43
 10
1745.287641258175
 20
1513.554426952527
 30
0.0
 11
1495.287641258175
 21
1576.054426952527
 31
0.0
 70
    32
 71
     5
 42
500.0
  3
IGA
100
AcDbAlignedDimension
 13
1245.287641258175
 23
1688.435029840879
 33
0.0
 14
1745.287641258175
 24
1688.435029840878
 34
0.0
100
AcDbRotatedDimension
1001
ACAD
1000
DSTYLE
1002
{
1070
    40
1040
25.0
1070
    42
1040
1.0
1070
   143
1040
0.039
1070
   172
1070
     1
1070
   271
1070
     4
1070
   272
1070
     4
1070
   279
1070
     0
1070
   284
1070
     0
1070
   285
1070
     0
1070
   286
1070
     0
1070
   341
1005
8126
1070
   343
1005
8126
1070
   344
1005
8126
1002
}
  0
DIMENSION
  5
82A1
330
8112
100
AcDbEntity
  8
3
100
AcDbDimension
  2
*D44
 10
2995.287641258176
 20
1513.554426952527
 30
0.0
 11
2370.287641258176
 21
1576.054426952527
 31
0.0
 70
    32
 71
     5
 42
1250.000000000001
  3
IGA
100
AcDbAlignedDimension
 13
1745.287641258175
 23
1688.435029840878
 33
0.0
 14
2995.287641258176
 24
1688.435029840879
 34
0.0
100
AcDbRotatedDimension
1001
ACAD
1000
DSTYLE
1002
{
1070
    40
1040
25.0
1070
    42
1040
1.0
1070
   143
1040
0.039
1070
   172
1070
     1
1070
   271
1070
     4
1070
   272
1070
     4
1070
   279
1070
     1
1070
   284
1070
     0
1070
   285
1070
     0
1070
   286
1070
     0
1070
   341
1005
8126
1070
   343
1005
8126
1070
   344
1005
8126
1002
}
  0
DIMENSION
  5
82AE
330
8112
100
AcDbEntity
  8
3
100
AcDbDimension
  2
*D45
 10
744.3671165282736
 20
1868.435029840878
 30
0.0
 11
681.8671165282733
 21
2348.435029840878
 31
0.0
 70
    32
 71
     5
 42
960.0000000000003
  3
IGA
100
AcDbAlignedDimension
 13
1078.815849407785
 23
2828.435029840878
 33
0.0
 14
1245.287641258175
 24
1868.435029840878
 34
0.0
 50
90.0
100
AcDbRotatedDimension
1001
ACAD
1000
DSTYLE
1002
{
1070
    40
1040
25.0
1070
    42
1040
1.0
1070
   143
1040
0.039
1070
   172
1070
     1
1070
   271
1070
     4
1070
   272
1070
     4
1070
   279
1070
     0
1070
   284
1070
     0
1070
   285
1070
     0
1070
   286
1070
     0
1070
   341
1005
8126
1070
   343
1005
8126
1070
   344
1005
8126
1002
}
  0
DIMENSION
  5
82BB
330
8112
100
AcDbEntity
  8
3
100
AcDbDimension
  2
*D46
 10
744.3671165282736
 20
1788.435029840879
 30
0.0
 11
702.0098711843748
 21
1828.435029840878
 31
0.0
 70
   160
  1
(<>)
 71
     5
 42
79.99999999999909
  3
IGA
100
AcDbAlignedDimension
 13
1245.287641258175
 23
1868.435029840878
 33
0.0
 14
1245.287641258175
 24
1788.435029840879
 34
0.0
 50
90.0
100
AcDbRotatedDimension
1001
ACAD
1000
DSTYLE
1002
{
1070
    40
1040
25.0
1070
    42
1040
1.0
1070
   143
1040
0.039
1070
   172
1070
     1
1070
   271
1070
     4
1070
   272
1070
     4
1070
   279
1070
     1
1070
   284
1070
     0
1070
   285
1070
     0
1070
   286
1070
     0
1070
   341
1005
8126
1070
   343
1005
8126
1070
   344
1005
8363
1002
}
  0
DIMENSION
  5
82CD
330
8112
100
AcDbEntity
  8
3
100
AcDbDimension
  2
*D47
 10
744.3671165282736
 20
1688.435029840879
 30
0.0
 11
742.0901485936919
 21
1553.226447075478
 31
0.0
 70
   160
 71
     5
 42
100.0
  3
IGA
100
AcDbAlignedDimension
 13
1245.287641258175
 23
1788.435029840879
 33
0.0
 14
1245.287641258175
 24
1688.435029840879
 34
0.0
 50
90.0
100
AcDbRotatedDimension
1001
ACAD
1000
DSTYLE
1002
{
1070
    40
1040
25.0
1070
    42
1040
1.0
1070
   143
1040
0.039
1070
   172
1070
     1
1070
   271
1070
     4
1070
   272
1070
     4
1070
   279
1070
     1
1070
   284
1070
     0
1070
   285
1070
     0
1070
   286
1070
     0
1070
   341
1005
8126
1070
   343
1005
8363
1070
   344
1005
8126
1002
}
  0
DIMENSION
  5
83ED
330
8112
100
AcDbEntity
  8
3
100
AcDbDimension
  2
*D49
 10
744.3671165282738
 20
3386.435029840879
 30
0.0
 11
681.8671165282733
 21
3107.435029840879
 31
0.0
 70
    32
 71
     5
 42
558.0
  3
IGA
100
AcDbAlignedDimension
 13
1078.815849407785
 23
2828.435029840878
 33
0.0
 14
1804.287641258175
 24
3386.435029840878
 34
0.0
 50
90.0
100
AcDbRotatedDimension
1001
ACAD
1000
DSTYLE
1002
{
1070
    40
1040
25.0
1070
    42
1040
1.0
1070
   143
1040
0.039
1070
   172
1070
     1
1070
   271
1070
     4
1070
   272
1070
     4
1070
   279
1070
     0
1070
   284
1070
     0
1070
   285
1070
     0
1070
   286
1070
     0
1070
   341
1005
8126
1070
   343
1005
8126
1070
   344
1005
8126
1002
}
  0
DIMENSION
  5
8403
330
8112
100
AcDbEntity
  8
3
100
AcDbDimension
  2
*D50
 10
493.1321542097868
 20
3386.435029840879
 30
0.0
 11
410.9892970669291
 21
2537.435029840879
 31
0.0
 70
    32
  1
(<>)
 71
     5
 42
1697.999999999999
  3
IGA
100
AcDbAlignedDimension
 13
1245.287641258175
 23
1688.435029840879
 33
0.0
 14
1804.287641258175
 24
3386.435029840878
 34
0.0
 50
90.0
100
AcDbRotatedDimension
1001
ACAD
1000
DSTYLE
1002
{
1070
    40
1040
25.0
1070
    42
1040
1.0
1070
   143
1040
0.039
1070
   172
1070
     1
1070
   271
1070
     4
1070
   272
1070
     4
1070
   279
1070
     0
1070
   284
1070
     0
1070
   285
1070
     0
1070
   286
1070
     0
1070
   341
1005
8126
1070
   343
1005
8126
1070
   344
1005
8126
1002
}
  0
DIMENSION
  5
8422
330
8112
100
AcDbEntity
  8
3
100
AcDbDimension
  2
*D51
 10
2421.287641258175
 20
3525.996801768198
 30
0.0
 11
2083.287641258175
 21
3588.496801768198
 31
0.0
 70
    32
 71
     5
 42
676.0
  3
IGA
100
AcDbAlignedDimension
 13
1745.287641258175
 23
3485.45335055235
 33
0.0
 14
2421.287641258175
 24
2769.435029840878
 34
0.0
100
AcDbRotatedDimension
1001
ACAD
1000
DSTYLE
1002
{
1070
    40
1040
25.0
1070
    42
1040
1.0
1070
   143
1040
0.039
1070
   172
1070
     1
1070
   271
1070
     4
1070
   272
1070
     4
1070
   279
1070
     0
1070
   284
1070
     0
1070
   285
1070
     0
1070
   286
1070
     0
1070
   341
1005
8126
1070
   343
1005
8126
1070
   344
1005
8126
1002
}
  0
ENDSEC
  0
SECTION
  2
OBJECTS
  0
DICTIONARY
  5
80AF
330
0
100
AcDbDictionary
281
     1
  3
ACAD_CIP_PREVIOUS_PRODUCT_INFO
350
815C
  3
ACAD_COLOR
350
8105
  3
ACAD_DETAILVIEWSTYLE
350
810C
  3
ACAD_GROUP
350
80B0
  3
ACAD_LAYOUT
350
8104
  3
ACAD_MATERIAL
350
80B3
  3
ACAD_MLEADERSTYLE
350
8108
  3
ACAD_MLINESTYLE
350
8101
  3
ACAD_PLOTSETTINGS
350
8103
  3
ACAD_PLOTSTYLENAME
350
80B1
  3
ACAD_SCALELIST
350
80E5
  3
ACAD_SECTIONVIEWSTYLE
350
810A
  3
ACAD_TABLESTYLE
350
8106
  3
ACAD_VISUALSTYLE
350
80CC
  3
ACDB_RECOMPOSE_DATA
350
8499
  3
AcDbVariableDictionary
350
844C
  3
DWGPROPS
350
849A
  0
DICTIONARY
  5
8160
330
80A5
100
AcDbDictionary
280
     1
281
     1
  3
ACAD_LAYERSTATES
360
8161
  0
DICTIONARY
  5
8441
330
80F7
100
AcDbDictionary
280
     1
281
     1
  3
ADSK_XREC_LAYER_RECONCILED
360
8442
  0
DICTIONARY
  5
8443
330
8116
100
AcDbDictionary
280
     1
281
     1
  3
ADSK_XREC_LAYER_RECONCILED
360
8444
  0
DICTIONARY
  5
8445
330
8119
100
AcDbDictionary
280
     1
281
     1
  3
ADSK_XREC_LAYER_RECONCILED
360
8446
  0
DICTIONARY
  5
8447
330
811A
100
AcDbDictionary
280
     1
281
     1
  3
ADSK_XREC_LAYER_RECONCILED
360
8448
  0
DICTIONARY
  5
8449
330
811B
100
AcDbDictionary
280
     1
281
     1
  3
ADSK_XREC_LAYER_RECONCILED
360
844A
  0
DICTIONARY
  5
815E
330
815D
100
AcDbDictionary
280
     1
281
     1
  3
ADSK_XREC_LAYER_RECONCILED
360
844B
  0
XRECORD
  5
815C
102
{ACAD_REACTORS
330
80AF
102
}
330
80AF
100
AcDbXrecord
280
     1
300
ACDLT
300
2015
300
INVLTS_F_S
  0
DICTIONARY
  5
8105
102
{ACAD_REACTORS
330
80AF
102
}
330
80AF
100
AcDbDictionary
281
     1
  0
DICTIONARY
  5
810C
102
{ACAD_REACTORS
330
80AF
102
}
330
80AF
100
AcDbDictionary
281
     1
  3
Imperial24
350
810D
  0
DICTIONARY
  5
80B0
102
{ACAD_REACTORS
330
80AF
102
}
330
80AF
100
AcDbDictionary
281
     1
  0
DICTIONARY
  5
8104
102
{ACAD_REACTORS
330
80AF
102
}
330
80AF
100
AcDbDictionary
281
     1
  3
Model
350
8115
  3
レイアウト1
350
8111
  0
DICTIONARY
  5
80B3
102
{ACAD_REACTORS
330
80AF
102
}
330
80AF
100
AcDbDictionary
281
     1
  3
ByBlock
350
80BC
  3
ByLayer
350
80B4
  3
Global
350
80C4
  0
DICTIONARY
  5
8108
102
{ACAD_REACTORS
330
80AF
102
}
330
80AF
100
AcDbDictionary
281
     1
  3
Standard
350
8109
  0
DICTIONARY
  5
8101
102
{ACAD_REACTORS
330
80AF
102
}
330
80AF
100
AcDbDictionary
281
     1
  3
Standard
350
8102
  0
DICTIONARY
  5
8103
102
{ACAD_REACTORS
330
80AF
102
}
330
80AF
100
AcDbDictionary
281
     1
  0
ACDBDICTIONARYWDFLT
  5
80B1
102
{ACAD_REACTORS
330
80AF
102
}
330
80AF
100
AcDbDictionary
281
     1
  3
Normal
350
80B2
100
AcDbDictionaryWithDefault
340
80B2
  0
DICTIONARY
  5
80E5
102
{ACAD_REACTORS
330
80AF
102
}
330
80AF
100
AcDbDictionary
281
     1
  3
A0
350
80E6
  3
A1
350
80E7
  3
A2
350
80E8
  3
A3
350
80E9
  3
A4
350
80EA
  3
A5
350
80EB
  3
A6
350
80EC
  3
A7
350
80ED
  3
A8
350
80EE
  3
A9
350
80EF
  3
B0
350
80F0
  3
B1
350
80F1
  3
B2
350
80F2
  3
B3
350
80F3
  3
B4
350
80F4
  3
B5
350
80F5
  3
B6
350
80F6
  0
DICTIONARY
  5
810A
102
{ACAD_REACTORS
330
80AF
102
}
330
80AF
100
AcDbDictionary
281
     1
  3
Imperial24
350
810B
  0
DICTIONARY
  5
8106
102
{ACAD_REACTORS
330
80AF
102
}
330
80AF
100
AcDbDictionary
281
     1
  3
Standard
350
8107
  0
DICTIONARY
  5
80CC
102
{ACAD_REACTORS
330
80AF
102
}
330
80AF
100
AcDbDictionary
281
     1
  3
2dWireframe
350
80D2
  3
Basic
350
80D1
  3
Brighten
350
80D8
  3
ColorChange
350
80DC
  3
Conceptual
350
80D5
  3
Dim
350
80D7
  3
EdgeColorOff
350
80E4
  3
Facepattern
350
80DB
  3
Flat
350
80CD
  3
FlatWithEdges
350
80CE
  3
Gouraud
350
80CF
  3
GouraudWithEdges
350
80D0
  3
Hidden
350
80D4
  3
JitterOff
350
80E2
  3
Linepattern
350
80DA
  3
OverhangOff
350
80E3
  3
Realistic
350
80D6
  3
Shaded
350
80E1
  3
Shaded with edges
350
80E0
  3
Shades of Gray
350
80DD
  3
Sketchy
350
80DE
  3
Thicken
350
80D9
  3
Wireframe
350
80D3
  3
X-Ray
350
80DF
  0
XRECORD
  5
8499
102
{ACAD_REACTORS
330
80AF
102
}
330
80AF
100
AcDbXrecord
280
     1
 90
        1
330
8107
  0
DICTIONARY
  5
844C
102
{ACAD_REACTORS
330
80AF
102
}
330
80AF
100
AcDbDictionary
281
     1
  3
CANNOSCALE
350
8451
  3
CMLEADERSTYLE
350
844E
  3
CTABLESTYLE
350
844D
  3
CVIEWDETAILSTYLE
350
844F
  3
CVIEWSECTIONSTYLE
350
8450
  3
DIMASSOC
350
8454
  3
INDEXCTL
350
8453
  3
SORTENTS
350
8452
  3
XCLIPFRAME
350
8455
  0
XRECORD
  5
849A
102
{ACAD_REACTORS
330
80AF
102
}
330
80AF
100
AcDbXrecord
280
     1
  1
DWGPROPS COOKIE
  2

  3

  4

  6

  7

  8
yasukiyo.ogawa
  9

300
=
301
=
302
=
303
=
304
=
305
=
306
=
307
=
308
=
309
=
 40
0.0159662384259259
 41
2451389.450209723
 42
2460265.737494144
  1

 90
        0
  0
DICTIONARY
  5
8161
102
{ACAD_REACTORS
330
8160
102
}
330
8160
100
AcDbDictionary
281
     1
  0
XRECORD
  5
8442
102
{ACAD_REACTORS
330
8441
102
}
330
8441
100
AcDbXrecord
280
     1
290
     1
  0
XRECORD
  5
8444
102
{ACAD_REACTORS
330
8443
102
}
330
8443
100
AcDbXrecord
280
     1
290
     1
  0
XRECORD
  5
8446
102
{ACAD_REACTORS
330
8445
102
}
330
8445
100
AcDbXrecord
280
     1
290
     1
  0
XRECORD
  5
8448
102
{ACAD_REACTORS
330
8447
102
}
330
8447
100
AcDbXrecord
280
     1
290
     1
  0
XRECORD
  5
844A
102
{ACAD_REACTORS
330
8449
102
}
330
8449
100
AcDbXrecord
280
     1
290
     1
  0
XRECORD
  5
844B
102
{ACAD_REACTORS
330
815E
102
}
330
815E
100
AcDbXrecord
280
     1
290
     1
  0
ACDBDETAILVIEWSTYLE
  5
810D
102
{ACAD_XDICTIONARY
360
84D2
102
}
102
{ACAD_REACTORS
330
810C
102
}
330
810C
100
AcDbModelDocViewStyle
 70
     0
  3
Imperial24
290
     0
100
AcDbDetailViewStyle
 70
     0
 71
     0
 90
        3
 71
     1
340
80F8
 40
0.24
340
0
 40
0.24
300

 40
0.36
280
     3
 71
     2
340
80FF
 90
       25
 71
     3
340
80F8
 40
0.24
 90
        1
 40
0.75
 90
        1
300
%<\AcVar ViewType \f "%tc1">% %<\AcVar ViewDetailId>%\PSCALE %<\AcVar ViewScale \f "%sn">%
 71
     4
340
80FF
 90
       25
340
80FF
 90
       25
280
     0
  0
LAYOUT
  5
8115
102
{ACAD_XDICTIONARY
360
84D6
102
}
102
{ACAD_REACTORS
330
8104
102
}
330
8104
100
AcDbPlotSettings
  1

  2
RICOH imagio MP W3600 RPCS
  4

  6

 40
0.0
 41
0.0
 42
0.0
 43
0.0
 44
0.0
 45
0.0
 46
0.0
 47
0.0
 48
0.0
 49
0.0
140
0.0
141
0.0
142
1.0
143
1.0
 70
  1712
 72
     0
 73
     0
 74
     0
  7

 75
     0
147
1.0
148
0.0
149
0.0
100
AcDbLayout
  1
Model
 70
     1
 71
     0
 10
0.0
 20
0.0
 11
12.0
 21
9.0
 12
0.0
 22
0.0
 32
0.0
 14
0.0
 24
0.0
 34
0.0
 15
0.0
 25
0.0
 35
0.0
146
0.0
 13
0.0
 23
0.0
 33
0.0
 16
1.0
 26
0.0
 36
0.0
 17
0.0
 27
1.0
 37
0.0
 76
     0
330
8112
331
8117
  0
LAYOUT
  5
8111
102
{ACAD_XDICTIONARY
360
84D4
102
}
102
{ACAD_REACTORS
330
8104
102
}
330
8104
100
AcDbPlotSettings
  1

  2
RICOH imagio MP W3600 RPCS
  4

  6

 40
0.0
 41
0.0
 42
0.0
 43
0.0
 44
0.0
 45
0.0
 46
0.0
 47
0.0
 48
0.0
 49
0.0
140
0.0
141
0.0
142
1.0
143
1.0
 70
   688
 72
     0
 73
     0
 74
     5
  7

 75
    16
147
1.0
148
0.0
149
0.0
100
AcDbLayout
  1
レイアウト1
 70
     1
 71
     1
 10
0.0
 20
0.0
 11
12.0
 21
9.0
 12
0.0
 22
0.0
 32
0.0
 14
1.000000000000000E+20
 24
1.000000000000000E+20
 34
1.000000000000000E+20
 15
-1.000000000000000E+20
 25
-1.000000000000000E+20
 35
-1.000000000000000E+20
146
0.0
 13
0.0
 23
0.0
 33
0.0
 16
1.0
 26
0.0
 36
0.0
 17
0.0
 27
1.0
 37
0.0
 76
     0
330
810E
  0
MATERIAL
  5
80BC
102
{ACAD_XDICTIONARY
360
80BD
102
}
102
{ACAD_REACTORS
330
80B3
102
}
330
80B3
100
AcDbMaterial
  1
ByBlock
 72
     0
 43
0.0208333333333333
 43
0.0
 43
0.0
 43
0.0
 43
0.0
 43
0.0208333333333333
 43
0.0
 43
0.0
 43
0.0
 43
0.0
 43
1.0
 43
0.0
 43
0.0
 43
0.0
 43
0.0
 43
1.0
 77
     0
 47
0.0208333333333333
 47
0.0
 47
0.0
 47
0.0
 47
0.0
 47
0.0208333333333333
 47
0.0
 47
0.0
 47
0.0
 47
0.0
 47
1.0
 47
0.0
 47
0.0
 47
0.0
 47
0.0
 47
1.0
171
     0
 49
0.0208333333333333
 49
0.0
 49
0.0
 49
0.0
 49
0.0
 49
0.0208333333333333
 49
0.0
 49
0.0
 49
0.0
 49
0.0
 49
1.0
 49
0.0
 49
0.0
 49
0.0
 49
0.0
 49
1.0
175
     0
142
0.0208333333333333
142
0.0
142
0.0
142
0.0
142
0.0
142
0.0208333333333333
142
0.0
142
0.0
142
0.0
142
0.0
142
1.0
142
0.0
142
0.0
142
0.0
142
0.0
142
1.0
179
     0
144
0.0208333333333333
144
0.0
144
0.0
144
0.0
144
0.0
144
0.0208333333333333
144
0.0
144
0.0
144
0.0
144
0.0
144
1.0
144
0.0
144
0.0
144
0.0
144
0.0
144
1.0
147
0.0208333333333333
147
0.0
147
0.0
147
0.0
147
0.0
147
0.0208333333333333
147
0.0
147
0.0
147
0.0
147
0.0
147
1.0
147
0.0
147
0.0
147
0.0
147
0.0
147
1.0
  0
MATERIAL
  5
80B4
102
{ACAD_XDICTIONARY
360
80B5
102
}
102
{ACAD_REACTORS
330
80B3
102
}
330
80B3
100
AcDbMaterial
  1
ByLayer
 72
     0
 43
0.0208333333333333
 43
0.0
 43
0.0
 43
0.0
 43
0.0
 43
0.0208333333333333
 43
0.0
 43
0.0
 43
0.0
 43
0.0
 43
1.0
 43
0.0
 43
0.0
 43
0.0
 43
0.0
 43
1.0
 77
     0
 47
0.0208333333333333
 47
0.0
 47
0.0
 47
0.0
 47
0.0
 47
0.0208333333333333
 47
0.0
 47
0.0
 47
0.0
 47
0.0
 47
1.0
 47
0.0
 47
0.0
 47
0.0
 47
0.0
 47
1.0
171
     0
 49
0.0208333333333333
 49
0.0
 49
0.0
 49
0.0
 49
0.0
 49
0.0208333333333333
 49
0.0
 49
0.0
 49
0.0
 49
0.0
 49
1.0
 49
0.0
 49
0.0
 49
0.0
 49
0.0
 49
1.0
175
     0
142
0.0208333333333333
142
0.0
142
0.0
142
0.0
142
0.0
142
0.0208333333333333
142
0.0
142
0.0
142
0.0
142
0.0
142
1.0
142
0.0
142
0.0
142
0.0
142
0.0
142
1.0
179
     0
144
0.0208333333333333
144
0.0
144
0.0
144
0.0
144
0.0
144
0.0208333333333333
144
0.0
144
0.0
144
0.0
144
0.0
144
1.0
144
0.0
144
0.0
144
0.0
144
0.0
144
1.0
147
0.0208333333333333
147
0.0
147
0.0
147
0.0
147
0.0
147
0.0208333333333333
147
0.0
147
0.0
147
0.0
147
0.0
147
1.0
147
0.0
147
0.0
147
0.0
147
0.0
147
1.0
  0
MATERIAL
  5
80C4
102
{ACAD_XDICTIONARY
360
80C5
102
}
102
{ACAD_REACTORS
330
80B3
102
}
330
80B3
100
AcDbMaterial
  1
Global
 72
     0
 43
0.0208333333333333
 43
0.0
 43
0.0
 43
0.0
 43
0.0
 43
0.0208333333333333
 43
0.0
 43
0.0
 43
0.0
 43
0.0
 43
1.0
 43
0.0
 43
0.0
 43
0.0
 43
0.0
 43
1.0
 77
     0
 47
0.0208333333333333
 47
0.0
 47
0.0
 47
0.0
 47
0.0
 47
0.0208333333333333
 47
0.0
 47
0.0
 47
0.0
 47
0.0
 47
1.0
 47
0.0
 47
0.0
 47
0.0
 47
0.0
 47
1.0
171
     0
 49
0.0208333333333333
 49
0.0
 49
0.0
 49
0.0
 49
0.0
 49
0.0208333333333333
 49
0.0
 49
0.0
 49
0.0
 49
0.0
 49
1.0
 49
0.0
 49
0.0
 49
0.0
 49
0.0
 49
1.0
175
     0
142
0.0208333333333333
142
0.0
142
0.0
142
0.0
142
0.0
142
0.0208333333333333
142
0.0
142
0.0
142
0.0
142
0.0
142
1.0
142
0.0
142
0.0
142
0.0
142
0.0
142
1.0
179
     0
144
0.0208333333333333
144
0.0
144
0.0
144
0.0
144
0.0
144
0.0208333333333333
144
0.0
144
0.0
144
0.0
144
0.0
144
1.0
144
0.0
144
0.0
144
0.0
144
0.0
144
1.0
147
0.0208333333333333
147
0.0
147
0.0
147
0.0
147
0.0
147
0.0208333333333333
147
0.0
147
0.0
147
0.0
147
0.0
147
1.0
147
0.0
147
0.0
147
0.0
147
0.0
147
1.0
  0
MLEADERSTYLE
  5
8109
102
{ACAD_REACTORS
330
8108
102
}
330
8108
100
AcDbMLeaderStyle
170
     2
171
     1
172
     0
 90
        2
 40
0.0
 41
0.0
173
     1
 91
-1056964608
340
80FD
 92
       -2
290
     1
 42
0.09
291
     1
 43
0.36
  3
Standard
 44
0.18
300

342
80F8
174
     1
178
     6
175
     1
176
     0
 93
-1056964608
 45
0.18
292
     0
297
     0
 46
0.18
 94
-1056964608
 47
1.0
 49
1.0
140
1.0
293
     1
141
0.0
294
     1
177
     0
142
1.0
295
     0
296
     0
143
0.125
1001
ACAD_MLEADERVER
1070
     2
  0
MLINESTYLE
  5
8102
102
{ACAD_REACTORS
330
8101
102
}
330
8101
100
AcDbMlineStyle
  2
STANDARD
 70
     0
  3

 62
   256
 51
90.0
 52
90.0
 71
     2
 49
0.5
 62
   256
  6
BYLAYER
 49
-0.5
 62
   256
  6
BYLAYER
  0
ACDBPLACEHOLDER
  5
80B2
102
{ACAD_REACTORS
330
80B1
102
}
330
80B1
  0
SCALE
  5
80E6
102
{ACAD_REACTORS
330
80E5
102
}
330
80E5
100
AcDbScale
 70
     0
300
1:1
140
1.0
141
1.0
290
     1
  0
SCALE
  5
80E7
102
{ACAD_REACTORS
330
80E5
102
}
330
80E5
100
AcDbScale
 70
     0
300
1/128" = 1'-0"
140
0.0078125
141
12.0
290
     0
  0
SCALE
  5
80E8
102
{ACAD_REACTORS
330
80E5
102
}
330
80E5
100
AcDbScale
 70
     0
300
1/64" = 1'-0"
140
0.015625
141
12.0
290
     0
  0
SCALE
  5
80E9
102
{ACAD_REACTORS
330
80E5
102
}
330
80E5
100
AcDbScale
 70
     0
300
1/32" = 1'-0"
140
0.03125
141
12.0
290
     0
  0
SCALE
  5
80EA
102
{ACAD_REACTORS
330
80E5
102
}
330
80E5
100
AcDbScale
 70
     0
300
1/16" = 1'-0"
140
0.0625
141
12.0
290
     0
  0
SCALE
  5
80EB
102
{ACAD_REACTORS
330
80E5
102
}
330
80E5
100
AcDbScale
 70
     0
300
3/32" = 1'-0"
140
0.09375
141
12.0
290
     0
  0
SCALE
  5
80EC
102
{ACAD_REACTORS
330
80E5
102
}
330
80E5
100
AcDbScale
 70
     0
300
1/8" = 1'-0"
140
0.125
141
12.0
290
     0
  0
SCALE
  5
80ED
102
{ACAD_REACTORS
330
80E5
102
}
330
80E5
100
AcDbScale
 70
     0
300
3/16" = 1'-0"
140
0.1875
141
12.0
290
     0
  0
SCALE
  5
80EE
102
{ACAD_REACTORS
330
80E5
102
}
330
80E5
100
AcDbScale
 70
     0
300
1/4" = 1'-0"
140
0.25
141
12.0
290
     0
  0
SCALE
  5
80EF
102
{ACAD_REACTORS
330
80E5
102
}
330
80E5
100
AcDbScale
 70
     0
300
3/8" = 1'-0"
140
0.375
141
12.0
290
     0
  0
SCALE
  5
80F0
102
{ACAD_REACTORS
330
80E5
102
}
330
80E5
100
AcDbScale
 70
     0
300
1/2" = 1'-0"
140
0.5
141
12.0
290
     0
  0
SCALE
  5
80F1
102
{ACAD_REACTORS
330
80E5
102
}
330
80E5
100
AcDbScale
 70
     0
300
3/4" = 1'-0"
140
0.75
141
12.0
290
     0
  0
SCALE
  5
80F2
102
{ACAD_REACTORS
330
80E5
102
}
330
80E5
100
AcDbScale
 70
     0
300
1" = 1'-0"
140
1.0
141
12.0
290
     0
  0
SCALE
  5
80F3
102
{ACAD_REACTORS
330
80E5
102
}
330
80E5
100
AcDbScale
 70
     0
300
1-1/2" = 1'-0"
140
1.5
141
12.0
290
     0
  0
SCALE
  5
80F4
102
{ACAD_REACTORS
330
80E5
102
}
330
80E5
100
AcDbScale
 70
     0
300
3" = 1'-0"
140
3.0
141
12.0
290
     0
  0
SCALE
  5
80F5
102
{ACAD_REACTORS
330
80E5
102
}
330
80E5
100
AcDbScale
 70
     0
300
6" = 1'-0"
140
6.0
141
12.0
290
     0
  0
SCALE
  5
80F6
102
{ACAD_REACTORS
330
80E5
102
}
330
80E5
100
AcDbScale
 70
     0
300
1'-0" = 1'-0"
140
12.0
141
12.0
290
     0
  0
ACDBSECTIONVIEWSTYLE
  5
810B
102
{ACAD_XDICTIONARY
360
84D0
102
}
102
{ACAD_REACTORS
330
810A
102
}
330
810A
100
AcDbModelDocViewStyle
 70
     0
  3
Imperial24
290
     0
100
AcDbSectionViewStyle
 70
     0
 71
     0
 90
       78
 71
     1
340
80F8
 40
0.24
340
0
340
0
 40
0.24
300
I, O, Q, S, X, Z
 40
0.48
 90
        3
 40
0.18
 90
        1
 71
     2
340
80FF
 90
       25
340
80FF
 90
       50
 40
0.24
 40
0.0
 40
0.24
 71
     3
340
80F8
 40
0.24
 90
        1
 40
0.75
 90
        1
300
%<\AcVar ViewType \f "%tc1">% %<\AcVar ViewSectionStartId>%-%<\AcVar ViewSectionEndId>%\PSCALE %<\AcVar ViewScale \f "%sn">%
 71
     4
300
ANSI31
 40
1.0
 90
        0
290
     0
290
     0
 90
        6
 40
0.0
 40
1.570796326794896
 40
0.2617993877991494
 40
1.308996938995747
 40
-0.2617993877991494
 40
1.832595714594046
  0
TABLESTYLE
  5
8107
102
{ACAD_XDICTIONARY
360
8497
102
}
102
{ACAD_REACTORS
330
8106
102
}
330
8106
100
AcDbTableStyle
  3
Standard
 70
     0
 71
     0
 40
0.06
 41
0.06
280
     0
281
     0
  7
STANDARD
140
0.18
170
     2
 62
     0
 63
     7
283
     0
274
    -2
284
     1
 64
     0
275
    -2
285
     1
 65
     0
276
    -2
286
     1
 66
     0
277
    -2
287
     1
 67
     0
278
    -2
288
     1
 68
     0
279
    -2
289
     1
 69
     0
  7
STANDARD
140
0.25
170
     5
 62
     0
 63
     7
283
     0
274
    -2
284
     1
 64
     0
275
    -2
285
     1
 65
     0
276
    -2
286
     1
 66
     0
277
    -2
287
     1
 67
     0
278
    -2
288
     1
 68
     0
279
    -2
289
     1
 69
     0
  7
STANDARD
140
0.18
170
     5
 62
     0
 63
     7
283
     0
274
    -2
284
     1
 64
     0
275
    -2
285
     1
 65
     0
276
    -2
286
     1
 66
     0
277
    -2
287
     1
 67
     0
278
    -2
288
     1
 68
     0
279
    -2
289
     1
 69
     0
  0
VISUALSTYLE
  5
80D2
102
{ACAD_XDICTIONARY
360
84A8
102
}
102
{ACAD_REACTORS
330
80CC
102
}
330
80CC
100
AcDbVisualStyle
  2
2dWireframe
 70
     4
 71
     0
 72
     2
 73
     0
 90
        0
 40
-0.6
 41
-30.0
 62
     5
 63
     7
 74
     1
 91
        4
 64
     7
 65
   257
 75
     1
175
     1
 42
1.0
 92
        0
 66
   257
 43
1.0
 76
     1
 77
     6
 78
     2
 67
     7
 79
     5
170
     0
171
     0
290
     0
174
     0
 93
        1
 44
0.0
173
     0
291
     0
 45
0.0
1001
ACAD
1000
AcDbSavedByObjectVersion
1070
     0
  0
VISUALSTYLE
  5
80D1
102
{ACAD_XDICTIONARY
360
84A6
102
}
102
{ACAD_REACTORS
330
80CC
102
}
330
80CC
100
AcDbVisualStyle
  2
Basic
 70
     7
 71
     1
 72
     0
 73
     1
 90
        0
 40
-0.6
 41
-30.0
 62
     5
 63
     7
 74
     0
 91
        4
 64
     7
 65
   257
 75
     1
175
     1
 42
1.0
 92
        8
 66
     7
 43
1.0
 76
     1
 77
     6
 78
     2
 67
     7
 79
     5
170
     0
171
     0
290
     0
174
     0
 93
        1
 44
0.0
173
     0
291
     1
 45
0.0
1001
ACAD
1000
AcDbSavedByObjectVersion
1070
     0
  0
VISUALSTYLE
  5
80D8
102
{ACAD_XDICTIONARY
360
84B4
102
}
102
{ACAD_REACTORS
330
80CC
102
}
330
80CC
100
AcDbVisualStyle
  2
Brighten
 70
    12
 71
     2
 72
     2
 73
     0
 90
        0
 40
-0.6
 41
-30.0
 62
     5
 63
     7
 74
     1
 91
        4
 64
     7
 65
   257
 75
     1
175
     1
 42
1.0
 92
        8
 66
     7
 43
1.0
 76
     1
 77
     6
 78
     2
 67
     7
 79
     5
170
     0
171
     0
290
     0
174
     0
 93
        1
 44
50.0
173
     0
291
     1
 45
0.0
1001
ACAD
1000
AcDbSavedByObjectVersion
1070
     0
  0
VISUALSTYLE
  5
80DC
102
{ACAD_XDICTIONARY
360
84BC
102
}
102
{ACAD_REACTORS
330
80CC
102
}
330
80CC
100
AcDbVisualStyle
  2
ColorChange
 70
    16
 71
     2
 72
     2
 73
     3
 90
        0
 40
-0.6
 41
-30.0
 62
     5
 63
     8
 74
     1
 91
        4
 64
     7
 65
   257
 75
     1
175
     1
 42
1.0
 92
        8
 66
     8
 43
1.0
 76
     1
 77
     6
 78
     2
 67
     7
 79
     5
170
     0
171
     0
290
     0
174
     0
 93
        1
 44
0.0
173
     0
291
     1
 45
0.0
1001
ACAD
1000
AcDbSavedByObjectVersion
1070
     0
  0
VISUALSTYLE
  5
80D5
102
{ACAD_XDICTIONARY
360
84AE
102
}
102
{ACAD_REACTORS
330
80CC
102
}
330
80CC
100
AcDbVisualStyle
  2
Conceptual
 70
     9
 71
     3
 72
     2
 73
     0
 90
        0
 40
-0.6
 41
-30.0
 62
     5
 63
     7
 74
     2
 91
        2
 64
     7
 65
   257
 75
     1
175
     1
 42
179.0
 92
        8
 66
     7
 43
1.0
 76
     1
 77
     6
 78
     2
 67
     7
 79
     3
170
     0
171
     0
290
     0
174
     0
 93
        1
 44
0.0
173
     0
291
     0
 45
0.0
1001
ACAD
1000
AcDbSavedByObjectVersion
1070
     0
  0
VISUALSTYLE
  5
80D7
102
{ACAD_XDICTIONARY
360
84B2
102
}
102
{ACAD_REACTORS
330
80CC
102
}
330
80CC
100
AcDbVisualStyle
  2
Dim
 70
    11
 71
     2
 72
     2
 73
     0
 90
        0
 40
-0.6
 41
-30.0
 62
     5
 63
     7
 74
     1
 91
        4
 64
     7
 65
   257
 75
     1
175
     1
 42
1.0
 92
        8
 66
     7
 43
1.0
 76
     1
 77
     6
 78
     2
 67
     7
 79
     5
170
     0
171
     0
290
     0
174
     0
 93
        1
 44
-50.0
173
     0
291
     1
 45
0.0
1001
ACAD
1000
AcDbSavedByObjectVersion
1070
     0
  0
VISUALSTYLE
  5
80E4
102
{ACAD_XDICTIONARY
360
84CC
102
}
102
{ACAD_REACTORS
330
80CC
102
}
330
80CC
100
AcDbVisualStyle
  2
EdgeColorOff
 70
    22
 71
     2
 72
     2
 73
     0
 90
        0
 40
-0.6
 41
-30.0
 62
     5
 63
     7
 74
     1
 91
        4
 64
     7
 65
   257
 75
     1
175
     1
 42
1.0
 92
        8
 66
     7
 43
1.0
 76
     1
 77
     6
 78
     2
 67
     7
 79
     5
170
     0
171
     0
290
     0
174
     0
 93
        1
 44
0.0
173
     0
291
     1
 45
0.0
1001
ACAD
1000
AcDbSavedByObjectVersion
1070
     0
  0
VISUALSTYLE
  5
80DB
102
{ACAD_XDICTIONARY
360
84BA
102
}
102
{ACAD_REACTORS
330
80CC
102
}
330
80CC
100
AcDbVisualStyle
  2
Facepattern
 70
    15
 71
     2
 72
     2
 73
     0
 90
        0
 40
-0.6
 41
-30.0
 62
     5
 63
     7
 74
     1
 91
        4
 64
     7
 65
   257
 75
     1
175
     1
 42
1.0
 92
        8
 66
     7
 43
1.0
 76
     1
 77
     6
 78
     2
 67
     7
 79
     5
170
     0
171
     0
290
     0
174
     0
 93
        1
 44
0.0
173
     0
291
     1
 45
0.0
1001
ACAD
1000
AcDbSavedByObjectVersion
1070
     0
  0
VISUALSTYLE
  5
80CD
102
{ACAD_XDICTIONARY
360
849E
102
}
102
{ACAD_REACTORS
330
80CC
102
}
330
80CC
100
AcDbVisualStyle
  2
Flat
 70
     0
 71
     2
 72
     1
 73
     1
 90
        2
 40
-0.6
 41
30.0
 62
     5
 63
     7
 74
     0
 91
        0
 64
     7
 65
   257
 75
     1
175
     1
 42
1.0
 92
        8
 66
     7
 43
1.0
 76
     1
 77
     6
 78
     2
 67
     7
 79
     5
170
     0
171
     0
290
     0
174
     0
 93
       13
 44
0.0
173
     0
291
     1
 45
0.0
1001
ACAD
1000
AcDbSavedByObjectVersion
1070
     0
  0
VISUALSTYLE
  5
80CE
102
{ACAD_XDICTIONARY
360
84A0
102
}
102
{ACAD_REACTORS
330
80CC
102
}
330
80CC
100
AcDbVisualStyle
  2
FlatWithEdges
 70
     1
 71
     2
 72
     1
 73
     1
 90
        2
 40
-0.6
 41
30.0
 62
     5
 63
     7
 74
     1
 91
        0
 64
     7
 65
   257
 75
     1
175
     1
 42
1.0
 92
        0
 66
   257
 43
1.0
 76
     1
 77
     6
 78
     2
 67
     7
 79
     5
170
     0
171
     0
290
     0
174
     0
 93
       13
 44
0.0
173
     0
291
     1
 45
0.0
1001
ACAD
1000
AcDbSavedByObjectVersion
1070
     0
  0
VISUALSTYLE
  5
80CF
102
{ACAD_XDICTIONARY
360
84A2
102
}
102
{ACAD_REACTORS
330
80CC
102
}
330
80CC
100
AcDbVisualStyle
  2
Gouraud
 70
     2
 71
     2
 72
     2
 73
     1
 90
        2
 40
-0.6
 41
30.0
 62
     5
 63
     7
 74
     0
 91
        0
 64
     7
 65
   257
 75
     1
175
     1
 42
1.0
 92
        0
 66
     7
 43
1.0
 76
     1
 77
     6
 78
     2
 67
     7
 79
     5
170
     0
171
     0
290
     0
174
     0
 93
       13
 44
0.0
173
     0
291
     1
 45
0.0
1001
ACAD
1000
AcDbSavedByObjectVersion
1070
     0
  0
VISUALSTYLE
  5
80D0
102
{ACAD_XDICTIONARY
360
84A4
102
}
102
{ACAD_REACTORS
330
80CC
102
}
330
80CC
100
AcDbVisualStyle
  2
GouraudWithEdges
 70
     3
 71
     2
 72
     2
 73
     1
 90
        2
 40
-0.6
 41
30.0
 62
     5
 63
     7
 74
     1
 91
        0
 64
     7
 65
   257
 75
     1
175
     1
 42
1.0
 92
        0
 66
   257
 43
1.0
 76
     1
 77
     6
 78
     2
 67
     7
 79
     5
170
     0
171
     0
290
     0
174
     0
 93
       13
 44
0.0
173
     0
291
     1
 45
0.0
1001
ACAD
1000
AcDbSavedByObjectVersion
1070
     0
  0
VISUALSTYLE
  5
80D4
102
{ACAD_XDICTIONARY
360
84AC
102
}
102
{ACAD_REACTORS
330
80CC
102
}
330
80CC
100
AcDbVisualStyle
  2
Hidden
 70
     6
 71
     1
 72
     2
 73
     2
 90
        0
 40
-0.6
 41
-30.0
 62
     5
 63
     7
 74
     2
 91
        2
 64
     7
 65
   257
 75
     2
175
     1
 42
40.0
 92
        0
 66
   257
 43
1.0
 76
     1
 77
     6
 78
     2
 67
     7
 79
     3
170
     0
171
     0
290
     0
174
     0
 93
        1
 44
0.0
173
     0
291
     0
 45
0.0
1001
ACAD
1000
AcDbSavedByObjectVersion
1070
     0
  0
VISUALSTYLE
  5
80E2
102
{ACAD_XDICTIONARY
360
84C8
102
}
102
{ACAD_REACTORS
330
80CC
102
}
330
80CC
100
AcDbVisualStyle
  2
JitterOff
 70
    20
 71
     2
 72
     2
 73
     0
 90
        0
 40
-0.6
 41
-30.0
 62
     5
 63
     7
 74
     1
 91
        4
 64
     7
 65
   257
 75
     1
175
     1
 42
1.0
 92
       10
 66
     7
 43
1.0
 76
     1
 77
     6
 78
     2
 67
     7
 79
     5
170
     0
171
     0
290
     0
174
     0
 93
        1
 44
0.0
173
     0
291
     1
 45
0.0
1001
ACAD
1000
AcDbSavedByObjectVersion
1070
     0
  0
VISUALSTYLE
  5
80DA
102
{ACAD_XDICTIONARY
360
84B8
102
}
102
{ACAD_REACTORS
330
80CC
102
}
330
80CC
100
AcDbVisualStyle
  2
Linepattern
 70
    14
 71
     2
 72
     2
 73
     0
 90
        0
 40
-0.6
 41
-30.0
 62
     5
 63
     7
 74
     1
 91
        4
 64
     7
 65
   257
 75
     7
175
     7
 42
1.0
 92
        8
 66
     7
 43
1.0
 76
     1
 77
     6
 78
     2
 67
     7
 79
     5
170
     0
171
     0
290
     0
174
     0
 93
        1
 44
0.0
173
     0
291
     1
 45
0.0
1001
ACAD
1000
AcDbSavedByObjectVersion
1070
     0
  0
VISUALSTYLE
  5
80E3
102
{ACAD_XDICTIONARY
360
84CA
102
}
102
{ACAD_REACTORS
330
80CC
102
}
330
80CC
100
AcDbVisualStyle
  2
OverhangOff
 70
    21
 71
     2
 72
     2
 73
     0
 90
        0
 40
-0.6
 41
-30.0
 62
     5
 63
     7
 74
     1
 91
        4
 64
     7
 65
   257
 75
     1
175
     1
 42
1.0
 92
        9
 66
     7
 43
1.0
 76
     1
 77
     6
 78
     2
 67
     7
 79
     5
170
     0
171
     0
290
     0
174
     0
 93
        1
 44
0.0
173
     0
291
     1
 45
0.0
1001
ACAD
1000
AcDbSavedByObjectVersion
1070
     0
  0
VISUALSTYLE
  5
80D6
102
{ACAD_XDICTIONARY
360
84B0
102
}
102
{ACAD_REACTORS
330
80CC
102
}
330
80CC
100
AcDbVisualStyle
  2
Realistic
 70
     8
 71
     2
 72
     3
 73
     0
 90
        2
 40
-0.6
 41
30.0
 62
     5
 63
     7
 74
     0
 91
        0
 64
     7
 65
   257
 75
     1
175
     1
 42
1.0
 92
        8
 66
   257
 43
1.0
 76
     1
 77
     6
 78
     2
 67
     7
 79
     3
170
     0
171
     0
290
     0
174
     0
 93
       13
 44
0.0
173
     0
291
     0
 45
0.0
1001
ACAD
1000
AcDbSavedByObjectVersion
1070
     0
  0
VISUALSTYLE
  5
80E1
102
{ACAD_XDICTIONARY
360
84C6
102
}
102
{ACAD_REACTORS
330
80CC
102
}
330
80CC
100
AcDbVisualStyle
  2
Shaded
 70
    27
 71
     2
 72
     2
 73
     1
 90
        2
 40
-0.6
 41
30.0
 62
     5
 63
     7
 74
     0
 91
        4
 64
     7
 65
   257
 75
     1
175
     1
 42
1.0
 92
        8
 66
   257
 43
1.0
 76
     1
 77
     6
 78
     2
 67
     8
 79
     3
170
     0
171
     0
290
     0
174
     0
 93
        5
 44
0.0
173
     0
291
     0
 45
0.0
1001
ACAD
1000
AcDbSavedByObjectVersion
1070
     0
  0
VISUALSTYLE
  5
80E0
102
{ACAD_XDICTIONARY
360
84C4
102
}
102
{ACAD_REACTORS
330
80CC
102
}
330
80CC
100
AcDbVisualStyle
  2
Shaded with edges
 70
    26
 71
     2
 72
     2
 73
     1
 90
        2
 40
-0.6
 41
30.0
 62
     5
 63
     7
 74
     1
 91
       10
 64
     7
 65
   257
 75
     2
175
     1
 42
1.0
 92
        8
 66
   257
 43
1.0
 76
     1
 77
     6
 78
     2
 67
     7
 79
     3
170
     0
171
     0
290
     0
174
     0
 93
        5
 44
0.0
173
     0
291
     0
 45
0.0
1001
ACAD
1000
AcDbSavedByObjectVersion
1070
     0
  0
VISUALSTYLE
  5
80DD
102
{ACAD_XDICTIONARY
360
84BE
102
}
102
{ACAD_REACTORS
330
80CC
102
}
330
80CC
100
AcDbVisualStyle
  2
Shades of Gray
 70
    23
 71
     2
 72
     2
 73
     3
 90
        0
 40
-0.6
 41
-30.0
 62
     5
 63
     7
 74
     2
 91
        2
 64
     7
 65
     7
 75
     1
175
     1
 42
40.0
 92
        8
 66
     7
 43
1.0
 76
     1
 77
     6
 78
     2
 67
     7
 79
     3
170
     0
171
     0
290
     0
174
     0
 93
        1
 44
0.0
173
     0
291
     0
 45
0.0
1001
ACAD
1000
AcDbSavedByObjectVersion
1070
     0
  0
VISUALSTYLE
  5
80DE
102
{ACAD_XDICTIONARY
360
84C0
102
}
102
{ACAD_REACTORS
330
80CC
102
}
330
80CC
100
AcDbVisualStyle
  2
Sketchy
 70
    24
 71
     1
 72
     2
 73
     2
 90
        0
 40
-0.6
 41
-30.0
 62
     5
 63
     7
 74
     2
 91
        2
 64
     7
 65
     7
 75
     1
175
     1
 42
40.0
 92
       11
 66
     7
 43
1.0
 76
     1
 77
     6
 78
     2
 67
     7
 79
     6
170
     0
171
     0
290
     0
174
     0
 93
        1
 44
0.0
173
     0
291
     0
 45
0.0
1001
ACAD
1000
AcDbSavedByObjectVersion
1070
     0
  0
VISUALSTYLE
  5
80D9
102
{ACAD_XDICTIONARY
360
84B6
102
}
102
{ACAD_REACTORS
330
80CC
102
}
330
80CC
100
AcDbVisualStyle
  2
Thicken
 70
    13
 71
     2
 72
     2
 73
     0
 90
        0
 40
-0.6
 41
-30.0
 62
     5
 63
     7
 74
     1
 91
        4
 64
     7
 65
   257
 75
     1
175
     1
 42
1.0
 92
       12
 66
     7
 43
1.0
 76
     1
 77
     6
 78
     2
 67
     7
 79
     5
170
     0
171
     0
290
     0
174
     0
 93
        1
 44
0.0
173
     0
291
     1
 45
0.0
1001
ACAD
1000
AcDbSavedByObjectVersion
1070
     0
  0
VISUALSTYLE
  5
80D3
102
{ACAD_XDICTIONARY
360
84AA
102
}
102
{ACAD_REACTORS
330
80CC
102
}
330
80CC
100
AcDbVisualStyle
  2
Wireframe
 70
     5
 71
     0
 72
     2
 73
     0
 90
        0
 40
-0.6
 41
-30.0
 62
     5
 63
     7
 74
     1
 91
        4
 64
     7
 65
   257
 75
     1
175
     1
 42
1.0
 92
        0
 66
   257
 43
1.0
 76
     1
 77
     6
 78
     2
 67
     7
 79
     3
170
     0
171
     0
290
     0
174
     0
 93
        1
 44
0.0
173
     0
291
     0
 45
0.0
1001
ACAD
1000
AcDbSavedByObjectVersion
1070
     0
  0
VISUALSTYLE
  5
80DF
102
{ACAD_XDICTIONARY
360
84C2
102
}
102
{ACAD_REACTORS
330
80CC
102
}
330
80CC
100
AcDbVisualStyle
  2
X-Ray
 70
    25
 71
     2
 72
     2
 73
     1
 90
        1
 40
0.5
 41
-30.0
 62
     5
 63
     7
 74
     1
 91
        0
 64
     7
 65
   257
 75
     1
175
     1
 42
1.0
 92
        8
 66
     7
 43
1.0
 76
     1
 77
     6
 78
     2
 67
     7
 79
     3
170
     0
171
     0
290
     0
174
     0
 93
       13
 44
0.0
173
     0
291
     0
 45
0.0
1001
ACAD
1000
AcDbSavedByObjectVersion
1070
     0
  0
DICTIONARYVAR
  5
8451
102
{ACAD_REACTORS
330
844C
102
}
330
844C
100
DictionaryVariables
280
     0
  1
1:1
  0
DICTIONARYVAR
  5
844E
102
{ACAD_REACTORS
330
844C
102
}
330
844C
100
DictionaryVariables
280
     0
  1
STANDARD
  0
DICTIONARYVAR
  5
844D
102
{ACAD_REACTORS
330
844C
102
}
330
844C
100
DictionaryVariables
280
     0
  1
STANDARD
  0
DICTIONARYVAR
  5
844F
102
{ACAD_REACTORS
330
844C
102
}
330
844C
100
DictionaryVariables
280
     0
  1
Imperial24
  0
DICTIONARYVAR
  5
8450
102
{ACAD_REACTORS
330
844C
102
}
330
844C
100
DictionaryVariables
280
     0
  1
Imperial24
  0
DICTIONARYVAR
  5
8454
102
{ACAD_REACTORS
330
844C
102
}
330
844C
100
DictionaryVariables
280
     0
  1
1
  0
DICTIONARYVAR
  5
8453
102
{ACAD_REACTORS
330
844C
102
}
330
844C
100
DictionaryVariables
280
     0
  1
0
  0
DICTIONARYVAR
  5
8452
102
{ACAD_REACTORS
330
844C
102
}
330
844C
100
DictionaryVariables
280
     0
  1
127
  0
DICTIONARYVAR
  5
8455
102
{ACAD_REACTORS
330
844C
102
}
330
844C
100
DictionaryVariables
280
     0
  1
2
  0
DICTIONARY
  5
84D2
330
810D
100
AcDbDictionary
280
     1
281
     1
  3
ACAD_XREC_ROUNDTRIP
360
84D3
  0
DICTIONARY
  5
84D6
330
8115
100
AcDbDictionary
280
     1
281
     1
  3
ACAD_XREC_ROUNDTRIP
360
84D7
  0
DICTIONARY
  5
84D4
330
8111
100
AcDbDictionary
280
     1
281
     1
  3
ACAD_XREC_ROUNDTRIP
360
84D5
  0
DICTIONARY
  5
80BD
330
80BC
100
AcDbDictionary
280
     1
281
     1
  3
ACAD_XREC_ROUNDTRIP
360
849C
  3
BUMPTILE
360
80BF
  3
DIFFUSETILE
360
80BE
  3
OPACITYTILE
360
80C2
  3
REFLECTIONTILE
360
80C1
  3
REFRACTIONTILE
360
80C3
  3
SPECULARTILE
360
80C0
  0
DICTIONARY
  5
80B5
330
80B4
100
AcDbDictionary
280
     1
281
     1
  3
ACAD_XREC_ROUNDTRIP
360
849B
  3
BUMPTILE
360
80B7
  3
DIFFUSETILE
360
80B6
  3
OPACITYTILE
360
80BA
  3
REFLECTIONTILE
360
80B9
  3
REFRACTIONTILE
360
80BB
  3
SPECULARTILE
360
80B8
  0
DICTIONARY
  5
80C5
330
80C4
100
AcDbDictionary
280
     1
281
     1
  3
ACAD_XREC_ROUNDTRIP
360
849D
  3
BUMPTILE
360
80C7
  3
DIFFUSETILE
360
80C6
  3
FBXASSET
360
8196
  3
OPACITYTILE
360
80CA
  3
REFLECTIONTILE
360
80C9
  3
REFRACTIONTILE
360
80CB
  3
SPECULARTILE
360
80C8
  0
DICTIONARY
  5
84D0
330
810B
100
AcDbDictionary
280
     1
281
     1
  3
ACAD_XREC_ROUNDTRIP
360
84D1
  0
DICTIONARY
  5
8497
330
8107
100
AcDbDictionary
280
     1
281
     1
  3
ACAD_ROUNDTRIP_2008_TABLESTYLE_CELLSTYLEMAP
360
8498
  3
ACAD_XREC_ROUNDTRIP
360
84CE
  0
DICTIONARY
  5
84A8
330
80D2
100
AcDbDictionary
280
     1
281
     1
  3
ACAD_XREC_ROUNDTRIP
360
84A9
  0
DICTIONARY
  5
84A6
330
80D1
100
AcDbDictionary
280
     1
281
     1
  3
ACAD_XREC_ROUNDTRIP
360
84A7
  0
DICTIONARY
  5
84B4
330
80D8
100
AcDbDictionary
280
     1
281
     1
  3
ACAD_XREC_ROUNDTRIP
360
84B5
  0
DICTIONARY
  5
84BC
330
80DC
100
AcDbDictionary
280
     1
281
     1
  3
ACAD_XREC_ROUNDTRIP
360
84BD
  0
DICTIONARY
  5
84AE
330
80D5
100
AcDbDictionary
280
     1
281
     1
  3
ACAD_XREC_ROUNDTRIP
360
84AF
  0
DICTIONARY
  5
84B2
330
80D7
100
AcDbDictionary
280
     1
281
     1
  3
ACAD_XREC_ROUNDTRIP
360
84B3
  0
DICTIONARY
  5
84CC
330
80E4
100
AcDbDictionary
280
     1
281
     1
  3
ACAD_XREC_ROUNDTRIP
360
84CD
  0
DICTIONARY
  5
84BA
330
80DB
100
AcDbDictionary
280
     1
281
     1
  3
ACAD_XREC_ROUNDTRIP
360
84BB
  0
DICTIONARY
  5
849E
330
80CD
100
AcDbDictionary
280
     1
281
     1
  3
ACAD_XREC_ROUNDTRIP
360
849F
  0
DICTIONARY
  5
84A0
330
80CE
100
AcDbDictionary
280
     1
281
     1
  3
ACAD_XREC_ROUNDTRIP
360
84A1
  0
DICTIONARY
  5
84A2
330
80CF
100
AcDbDictionary
280
     1
281
     1
  3
ACAD_XREC_ROUNDTRIP
360
84A3
  0
DICTIONARY
  5
84A4
330
80D0
100
AcDbDictionary
280
     1
281
     1
  3
ACAD_XREC_ROUNDTRIP
360
84A5
  0
DICTIONARY
  5
84AC
330
80D4
100
AcDbDictionary
280
     1
281
     1
  3
ACAD_XREC_ROUNDTRIP
360
84AD
  0
DICTIONARY
  5
84C8
330
80E2
100
AcDbDictionary
280
     1
281
     1
  3
ACAD_XREC_ROUNDTRIP
360
84C9
  0
DICTIONARY
  5
84B8
330
80DA
100
AcDbDictionary
280
     1
281
     1
  3
ACAD_XREC_ROUNDTRIP
360
84B9
  0
DICTIONARY
  5
84CA
330
80E3
100
AcDbDictionary
280
     1
281
     1
  3
ACAD_XREC_ROUNDTRIP
360
84CB
  0
DICTIONARY
  5
84B0
330
80D6
100
AcDbDictionary
280
     1
281
     1
  3
ACAD_XREC_ROUNDTRIP
360
84B1
  0
DICTIONARY
  5
84C6
330
80E1
100
AcDbDictionary
280
     1
281
     1
  3
ACAD_XREC_ROUNDTRIP
360
84C7
  0
DICTIONARY
  5
84C4
330
80E0
100
AcDbDictionary
280
     1
281
     1
  3
ACAD_XREC_ROUNDTRIP
360
84C5
  0
DICTIONARY
  5
84BE
330
80DD
100
AcDbDictionary
280
     1
281
     1
  3
ACAD_XREC_ROUNDTRIP
360
84BF
  0
DICTIONARY
  5
84C0
330
80DE
100
AcDbDictionary
280
     1
281
     1
  3
ACAD_XREC_ROUNDTRIP
360
84C1
  0
DICTIONARY
  5
84B6
330
80D9
100
AcDbDictionary
280
     1
281
     1
  3
ACAD_XREC_ROUNDTRIP
360
84B7
  0
DICTIONARY
  5
84AA
330
80D3
100
AcDbDictionary
280
     1
281
     1
  3
ACAD_XREC_ROUNDTRIP
360
84AB
  0
DICTIONARY
  5
84C2
330
80DF
100
AcDbDictionary
280
     1
281
     1
  3
ACAD_XREC_ROUNDTRIP
360
84C3
  0
XRECORD
  5
84D3
102
{ACAD_REACTORS
330
84D2
102
}
330
84D2
100
AcDbXrecord
280
     1
102
DISPLAYNAME
  1
Imperial24
102
FLAGS
 90
        0
  0
XRECORD
  5
84D7
102
{ACAD_REACTORS
330
84D6
102
}
330
84D6
100
AcDbXrecord
280
     1
102
SHADEPLOT
 70
     0
102
SHADEPLOTRESLEVEL
 70
     2
102
SHADEPLOTCUSTOMDPI
 70
   300
  0
XRECORD
  5
84D5
102
{ACAD_REACTORS
330
84D4
102
}
330
84D4
100
AcDbXrecord
280
     1
102
SHADEPLOT
 70
     0
102
SHADEPLOTRESLEVEL
 70
     2
102
SHADEPLOTCUSTOMDPI
 70
   300
  0
XRECORD
  5
849C
102
{ACAD_REACTORS
330
80BD
102
}
330
80BD
100
AcDbXrecord
280
     1
102
MATERIAL
148
0.0
149
0.0
149
0.0
 93
        0
 94
      127
282
     0
 72
     0
 77
     0
171
     0
175
     0
179
     0
273
     0
  0
XRECORD
  5
80BF
102
{ACAD_REACTORS
330
80BD
102
}
330
80BD
100
AcDbXrecord
280
     1
270
     1
271
     1
  0
XRECORD
  5
80BE
102
{ACAD_REACTORS
330
80BD
102
}
330
80BD
100
AcDbXrecord
280
     1
270
     1
271
     1
  0
XRECORD
  5
80C2
102
{ACAD_REACTORS
330
80BD
102
}
330
80BD
100
AcDbXrecord
280
     1
270
     1
271
     1
  0
XRECORD
  5
80C1
102
{ACAD_REACTORS
330
80BD
102
}
330
80BD
100
AcDbXrecord
280
     1
270
     1
271
     1
  0
XRECORD
  5
80C3
102
{ACAD_REACTORS
330
80BD
102
}
330
80BD
100
AcDbXrecord
280
     1
270
     1
271
     1
  0
XRECORD
  5
80C0
102
{ACAD_REACTORS
330
80BD
102
}
330
80BD
100
AcDbXrecord
280
     1
270
     1
271
     1
  0
XRECORD
  5
849B
102
{ACAD_REACTORS
330
80B5
102
}
330
80B5
100
AcDbXrecord
280
     1
102
MATERIAL
148
0.0
149
0.0
149
0.0
 93
        0
 94
      127
282
     0
 72
     0
 77
     0
171
     0
175
     0
179
     0
273
     0
  0
XRECORD
  5
80B7
102
{ACAD_REACTORS
330
80B5
102
}
330
80B5
100
AcDbXrecord
280
     1
270
     1
271
     1
  0
XRECORD
  5
80B6
102
{ACAD_REACTORS
330
80B5
102
}
330
80B5
100
AcDbXrecord
280
     1
270
     1
271
     1
  0
XRECORD
  5
80BA
102
{ACAD_REACTORS
330
80B5
102
}
330
80B5
100
AcDbXrecord
280
     1
270
     1
271
     1
  0
XRECORD
  5
80B9
102
{ACAD_REACTORS
330
80B5
102
}
330
80B5
100
AcDbXrecord
280
     1
270
     1
271
     1
  0
XRECORD
  5
80BB
102
{ACAD_REACTORS
330
80B5
102
}
330
80B5
100
AcDbXrecord
280
     1
270
     1
271
     1
  0
XRECORD
  5
80B8
102
{ACAD_REACTORS
330
80B5
102
}
330
80B5
100
AcDbXrecord
280
     1
270
     1
271
     1
  0
XRECORD
  5
849D
102
{ACAD_REACTORS
330
80C5
102
}
330
80C5
100
AcDbXrecord
280
     1
102
MATERIAL
148
0.0
149
0.0
149
0.0
 93
        0
 94
      127
282
     0
 72
     0
 77
     0
171
     0
175
     0
179
     0
273
     0
  0
XRECORD
  5
80C7
102
{ACAD_REACTORS
330
80C5
102
}
330
80C5
100
AcDbXrecord
280
     1
270
     1
271
     1
  0
XRECORD
  5
80C6
102
{ACAD_REACTORS
330
80C5
102
}
330
80C5
100
AcDbXrecord
280
     1
270
     1
271
     1
  0
XRECORD
  5
8196
102
{ACAD_REACTORS
330
80C5
102
}
330
80C5
100
AcDbXrecord
280
     1
 70
     1
 90
1959938040
 71
     1
  1
77E46A7D-CBB3-43A2-A640-F36B8484366D
311
504B03041400060808007D8C705759CAB7E9D9000000200100004F00000035323134323645352D383635422D344535352D393033352D3830333634433146434243382F4173736574446174612F446566696E6974696F6E4974657261746F7250726F706572746965732E62696E454E3D4FC33010350C200606FE41D5DDF82B
311
8949D41601A14CED02134B7575AE2592935471223132F2AFE12C8A7AD2BB779FEFEE9B31F673340AD919E18BFC35F10BB6D8D7EED57D6003EC22567CB7057F79EA9D5318D3127730FA216EADEAE0D07B68B11BC3CD6974D2C04072E06FE3D215E1BF10A2C2FEEF58BCBF26C49722437528EE21041CE662B7FD14E621593E6A
311
6D79266DCE13F55CF23B99599EE44B2BCD539926C6881E4337F60E83D0426E8ECA9B43BBAFABC56CA81B9CB4D0E07CEA7AA49FAAE9424B6DB8525C656FCA16262DD2FC7D26E2E42F504B03041400060808007D8C7057F47F503322010000300200004500000035323134323645352D383635422D344535352D393033352D38
311
30333634433146434243382F4173736574446174612F496E7374616E636550726F706572746965732E62696E6D513B4EC340147C094844FC940350418A502C8AEDCD3AAEFC0FA24191D2D258B6455CC48589A07549C7796873060EC011D2509B59DBD844CE93E67D666776B5BBEF4454D481967A408E7C817A1FA7719684CB
311
7015AF8311085DF7B9B0758FB98EA331AED92AB3059FB0B9269C199F714D08EFA4354A8BA670CF57A7069B720E8B5015E6CC1D8F29BA367185EB1AB66F40569E4BB74F1FDB9FF19789DA0797037F735931237666A5261A5A342CA9328DACB63FD8C15845D31C94816C04BB234C39505BBFEB7A0EAA1BF21DDB9566938E30FA
311
B43ADC1ED1B5CAADC7FF343BF31893FCAD4B60F9166CC21573B2208DE2A85A9159C615708A4BDC0CD0DCC1812BE5D767188A825E3659923E132D1E175EFC9A84F18347038BA84F522D3F61CFBEEEFD02504B03041400060808007D8C705728BB58AF800100009E0500003D00000035323134323645352D383635422D344535
311
352D393033352D3830333634433146434243382F536368656D61732F436F6D6D6F6E536368656D612E786D6CBD544D4FC23018BEFB2B96DE15493C78601010A34B880709DEDFB52FD0D8B54BD70DF6EFED3AC0B12E6442E2716BFB3CEFF3D18E26FB440405EA8C2B1992E1C323095052C5B8DC842437EBFB673219DF8DA659
311
866649B798C078B48AE6410122242F2A4994AC7F93815DF85C049C8564CA0A901499DD886B2EB9B1E02448F358701A9235880C49A0119892A20C89D1B9FD768815CAD268CB5E0355B40B1E47F3E37A2020464BED06AA57CE8FCC20C3C3446D46761A2632A8C1283D07031EFF2AE7CCB1BFEEE916E406DFAC8E36FFD99A9D60
311
A6944090EEDC3B670C7DC13DE86B6B2C5C240D6E503BB85ACD579D513F1B9F9A69DC9CC22AFA80C426D40AF0B21EA168559156B6276F0F726A6BFF04DCD513A87A62CAD41FB24FCB2858B3952E3D852084DA25B9303C15687973CC8E8AAE11DF2836C38C6A9E765E8C1BA1BFB1DC29CDFE518C8B5A7655A4ED7E77291ABEB8
311
0DBD82EC866ADE1B8D05AF9E35CF09D7A061F38A986D9EC412B8F0F65E5D81534D9B231D1E5A8FE577A241F3A5FD01504B03041400060808007D8C70572CCEBD668A040000E01200003E00000035323134323645352D383635422D344535352D393033352D3830333634433146434243382F536368656D61732F47656E6572
311
6963536368656D612E786D6CD5586D6FDB380CFE7EBF42F0F7A649B70E1B90744856B4970F450FCD7A5F05459613EDE4174872DADCAF3F522F8ED3B88D2F1D06AC4050DBA2493EE4438AF2F8EB73AEC8466823CB62928C06C384888297A92C5693A4B6D9D9E7E4EBD51FE3A931C22EF85AE4EC6AFC38BF261BA626C9AD2884
311
96DC3F4FCEAFC63366845F7A10452AF41DB320C0D44EC26EAB20918735565582695670811A6A49643A49A6E9069FA4604A64B29016DC4B48552F95E4932463CA888468C1D2B250DB4962750DF7CE273069CE8363F1FF4EDB00E0A21999574AE4A2B00C353B93F3BD4777B8A61ED8F604ABFEDD79CE56A2B7BDFBDBC50996E0
311
ADDE16FED26223C5D30956C29BDF4A55EA686E5E58B112DA45CE67F76F4FA27EFA3FB672FD7372FC388FAECDCA5209E693CAD167BADCD272F943701B3812F8A3D852008B1D2E32DB927B2F833C6EA95879925356D254582695095A3CE982924720BE5774A3CB9CDCDB350427D2DF20DA1B5532EBE2D5D6288D75D4F7E4FD98
311
90A0EF8E3D93EBB8F8BA4758158EF6FB90A6F9520281C93DE7AAC6D24607DA296BB96018123F821A7D6A5C5884050C475DA4865442732C8B95684A50165CBB3A32F25F783A4A480ED59AD7F924B968AEA50131F46303223E6A397B0E52976030DC1DCA81D7E7C1EDEEA42C19FF27635C505E2BD5198A599020DF50A2330FCB
311
3AAF28CB0124108429553EF1B228802E2265D8F7CC2401042B155BCC7070F1E5C55F13B4A9577362CCCE46C32174E010C3C378C44841A4BDA00FE3A12006CE11EE6AEC59894D3526DDE1CD59D503ECC324017F8061B7F162162FA62EDD81AE3308617770796DCBDAD2B2625C5AE8A63DE20B2C8AA5E95E76E5730823955956
311
E33E705425A2187C185D36489A1B44D3DCEC2172F6BA2105C3546287A7194B2331768EBBE64F6E70A9930ABE0ADEA89E9E2C38523B810287AD67A54A039C1606EAFE68F8304610BB9093DBDDABC0B2AE4E290DCDA15376D7E39F72B556F0B32EAB5D3D498B4C41ABADEC3A1434C422D87E8025A84BDCB2B1417ED750FAE4DA
311
8976863974C577C7F902D3F156AD354DEA3540DE6BEAE2BEA52F7A2EB4CA43802ECE5BF2CE2EDC9347179FFB023CE412E60BE16DA0BE29B374988A553F561DC04615DD35F7D2C8979F60E5955CE93DF29DED8AFA1EE6642D53418086C03C47C377910F75F7E8F5EF665F70B60FFB22AEDF897D119E8423C773E819A3C1E55E
311
550599EE6EDCA34D0C86FD72057DF2CD46F16A470682471C164E4346D5306BF12D7D12D82CFF673D41636C347443FEB51B50D72EA171A8E4A58623A4A16E0FA2B8B10A0D23268D87C33896EE8FB73305A74BF224EDBADFA0BD674AB354D63DB7BD5D83426761C077DE767728235446A552754EB93B755891C3C4CC6CADE37C
311
F0E912A7BB38DBA010F9DE1282EDF470CA69A9CDA482E334C4A6EA4107987980B17E72F31730EBF88BBD39E7C629F56797A3C0009C2C5AE7951D9A05A02773440F02EEB4DE396A3B6A570C72CCFBCD823B0B8ED3F1D5CEDDFED772FA70236C83FB7D86C385D570B87107535572A60A96035F8F7C6A7192F13007246BBE0521
311
855E6AC46F3E27689CEE7D186A6FD679D98CDCAD13333E04EBE7ED6F55FF01504B03041400060808007D8C70576180134D5F0100006B0300004500000035323134323645352D383635422D344535352D393033352D3830333634433146434243382F536368656D61732F52656E6465724D6174657269616C536368656D612E
311
786D6CA5934D6FC2300C86EFFB1551EEE343DBA41D1A103009551ADAD40EAE28A4A68D9426284961FCFBE5A340113B2071746D3F765EBF4DC6BFB5407BD0862B49F0B037C0082453059725C18DDD3EBFE3F1E829991803366715D474942CD30FB4A782E00C64017A412D684E454CE3FE28995203B162A6EA5AC94B66997D22
311
5E109CD63B0135484BAD1B3C07E9080CA35DB3119C11BCA5C200461A68A1A438126C75E3E230D40FF81FB3F03C91D1E3A3A0AF79FE28E25BC39EC3E17E4C2A2D94A0833A51AF55BCCA7D88572FCBAC529C4140B020FC3AAFA886621DCED7EAD7664CC86024E806DC297DA1BB393E4156543457A4537DB8817349A70F8ACBF0
311
9B3EEE2CB2F33E91B65D60786E4E3B39B77E3FEEEF5650424525DA657FB8B46BE6BF064646F0A0F7327C0BC1BC1B4CBBC1C419FA3CCB23500007872A2580CAAE5461865565294E4EDB4617B62FF579DF9A5B2F54E834076A597573A020912FED777F9B3F504B03041400060808007D8C70576CA4DA84510000005700000047
311
00000035323134323645352D383635422D344535352D393033352D3830333634433146434243382F4173736574446174612F41737365745461626C654F66436F6E74656E74732E62696E536160603037773531733477D175767232D635317634D275343331D075333673B230B130313633731102AACB4D2C492DCA4CCC492C
311
28484D2C4ACC4B4E050A82012F90744FCD03CA26072767A4E6260200504B03041400060808007D8C7057F865834058000000680000004500000035323134323645352D383635422D344535352D393033352D3830333634433146434243382F4173736574446174612F53747265616D56657273696F6E5461626C652E696E66
311
558CBD0A80300C06F73E4B117FB66E451741D041DC5BF98480A492E4FDD18EAEC7DD4555D89EF28DF51A0B1BD8340C4DE7DD848B988C0ACF0649566493F2408C508DDEBB99D5129FF8F1AF8CF5B9503E20FAE5A16B5AF702504B03041400060808007D8C7057C56E17D0360100009A0400003600000035323134323645352D
311
383635422D344535352D393033352D3830333634433146434243382F4173736574446174612F636E782E786D6CCD943F6FC32010C5BF8AC56E8813A57F224C54B54BA6566AD4A1DB059F13140C169CABF6DB17120FAD5275CAE0F578773C7EE29D5C7F76B6F8C0108D7735ABF88C15E8B46F8CDBD76CA0B6BC63C55AC9E03D
311
FD90B1C2418735CB65A6E43EF8A11F4B0DB630D85CB5C61DC7E2438C485BD8597C6E1FBD23741459A12DC458B3A80FD80187817C83F1C81B20E0150F18FD1034A649643A1C27E98040D830359FCD17655595D5CDB6BA5D2D96ABE5FDBB1459A9E4CE7B3BEA4DBA2CF8BED0E75B999A49918F951C821935F92D4CFDE591EF8C
311
932229958C141293B183BEFAD4017D6F8D064AE884D7845426114227C559ACA4C80C7E9178C2D638935B36C918900F2FC91E0632383922FF79BD3E998D8B044EE374795C3ABC3E85D7D30F7A3B07F29498A9E5E4D22137AEBD424AC4698DA4D0E4ADA2BE01504B03041400060808007D8C7057FF8F554A090100004F030000
311
3400000035323134323645352D383635422D344535352D393033352D3830333634433146434243382F536368656D61732F636E782E786D6CCD933B6F03211084FFCA89FE5EB69C87C5E12245AA3449AA7404D63632B0A705A2E4DF072E14B6942E29DCC1F009CD0C0BDF7D3ADB7C0005837E626337B006BC426DFC616229EE
311
DB3BD6EC0427C47886B1C64B07132B3213FC4098E62A69D8CB648B6A8D3F55F1019D43FFA28EE0246B9495214C2C2CDB4EA6881AC2A9D332CA6EEC08022652906F88C641BD4111C8089A89D5B05AB7E3D88E37AFE3ED76BDD96EEEDF785F48C1DF116DE58D8F4038370AF3C2673B03EFCBB1E0894C654A0626CEBD75B90DDE
311
6742F010297750C9F8356752CEB3354AC65C55BF803F8CE07D897A11F8113C9051D799F8C2DCBF457E06AF819EF22B9191F63A93FFE6F16F05F4CBECE711285F417C03504B03041400060808007D8C7057410A3D5871000000A40000002C00000035323134323645352D383635422D344535352D393033352D383033363443
311
3146434243382F636E782E786D6C55CC4D0E82301086E1AB34B31774E7A22D31F1069E60020334B633A63FC6E34B0909B07DDE2F9FEE7EC1AB2FC5E4840DDC9A2B28E25E06C7938192C7CB1D54677514C9871928C640062A83D55394F2D968A0118BAFEA1DBF377CA444F98919176EAB9FEAAB9F2960DA5BBB1E2ED3FA6FFF
311
504B03041400060808007D8C70579106D7487E000000A300000007000000636E782E786D6C4D8CD10A832018855F45FE7B372B15076A90B4F7886521330D97638F3F1D5DECEAE37C9C7364FFD93C7ADBF4723128682E04900D8F38BBB02AC8C78205A05ECB14E3F1570314A6CD2AA81AB45C53CCFBA966BB4CD957EB5D789E
311
92B50D6DF9C8B0E06CC074640CDF485722E93835CDDD0C4694C5B54E0A7E7F85F55E7F01504B03041400060808007D8C705716E99B5DA600000035010000130000005B436F6E74656E745F54797065735D2E786D6C9590410E82301045AFD2740F4517C6180A0BF5065E60AC53688469D30E066F6F91AD9AB89CF9FFFD3F99
311
BA9DC7413C3026E749CB4D59498164FCCD51A7E5C4B6D84BD136F5E5193089ECA5A465CF1C0E4A25D3E308A9F401292BD6C711388FB15301CC1D3A54DBAADA29E38991B8E0254336F5092D4C038BF39CD76B6FC6A538AEBEA54A4B08617006389FA516557DE4AE8E7E70DE30729138228C5F021CD93F02D4FB0DCD0B504B03
311
041400060808007D8C70573DEE336E64000000790000001B0000006175746F6465736B2D64657369676E2D7061636B6167652E786D6C35CBC10E83200C00D05F21DCA56CA76D41FC96062B120735B69A7DBE268BB7777961F8D5AF396893C2ADB70FE7ADA196782C2DF776D7A97B5933C430F15651E5469C55D70F80A4992A
311
3ADC954792C525AE70A1E4D6AD9816CC044FEFDF01FE3FDE907802504B03041400060808007D8C7057B9D6AB80FA000000960100003700000035323134323645352D383635422D344535352D393033352D3830333634433146434243382F4173736574446174612F636F72652E786D6C8550CB6E833010FC15B477438C2190
311
C8382241F9829E7AB36C875A0936F2A3EAE7D74EA8D49E7ADAD5ECCCECEED0D3D7F2283E95F3DA9A0170B983421961A536F30031DC500FC58951676DF84583C2F0450D906160747636AE1B24AC09CA64D458A936907BAF0214E2919A01BCF8500B2F790C89E1EFE5CAC59DCFAAC4E58BC7688C5A6E522D939BBE69E5803597
311
FA509F4987A6B625A899C60BEADBAE41FBF3B5EB47328EFD75A25516331AF4F2B35D38C58392C0EA5D4D10C608EFDF707724EDB13DBCD32A3319F5C1A59FB7A5F93B6063BE7AE281D3EA35FDE31A57F9BF6BD426907A737D293C309C8E7C0E18AD724AA93C234C3527CABE01504B03041400060808007D8C70571B3F4A69F8
311
000000940100003500000035323134323645352D383635422D344535352D393033352D3830333634433146434243382F536368656D61732F636F72652E786D6C8550CB6E833010FC15B477438C2190C8382241F981F6D49B651C6225D8C88FAA9F5F3B50A93DF5B4ABD999D9DDA1A7AFF9997D4AEB94D11DE07C0799D4C28C
311
4A4F1D047F432D642746AD31FE170D32CD67D9418281D1C99AB06C9030DA4B9D506D46B981DC39E92113CFD874E0C45DCE3CE7C147867BE40B170F3EC91CE72B8FD110D4B849D518DDD44D490BACBA9487F24C1A34D43541D5D05F505B3715DA9FAF4DDB93BE6FAF032D929851AFE69FEDC24AEEE508ACDC9504618CF0FE1D
311
3747521FEBC3072D129351E76DFC795B9ABE03F6F6BAD3D1629DFDF10CCBF8BF6750DA9372F35C150E188E27BE068C1629A3585E01C69AF264DF504B03041400060808007D8C7057F46F5B4000010000D70100002D00000035323134323645352D383635422D344535352D393033352D3830333634433146434243382F636F
311
72652E786D6C9591CD4EC42014855F85B0A72D6DA99D09659269C62770E50ECB9D4A660A0D3FC6C7176C8DBAD31570F8CE85732F3FBD2F77F406CE6B6B064C8B0A23309355DACC038EE14A7A8C4E823B6BC30F0C232317187096B1E0B3B371DDA5C99A0026ABC62AD845E93D048CA67BDA0CD84FAFB0C842C690087F2B5639
311
DDE40C052D364EF0A0972FEBE440065058D455DD104A09ED9EE8C3B161477678E66526058FDA84A6DE1F83E50514B26B4891B060BCDC6E1315B5DA19ADD21FF555834B444DDBBABB30D277EC4CDA0B63E45035E958355D3BD2C7F13CF6A948320BEE834B9DD98BE41EFCD5BE197F258BABFA67B2CDE1B1A0DFA1CADC66C1CB
311
CF19A4358F447C00504B03041400060808007D8C7057E36E6F3D08010000B201000008000000636F72652E786D6C8D50C18E832014FC15F2EEA88856DB208DADE917EC696FAC504BAA60049BDDBF5F68DD64F7B6A74766E6BD19861D3FA7113DD4E2B4350D902403A44C6FA5364303ABBFE21AD091B3C55AFF4B06C8884935
311
1061E06C58EC3A6F506F8D5726A2C64AB581C239E501F5637834E0FA9B9A4422561F14EE9ECCA2BF8B41252479E938F37AFA59ED1725BC92C0F32CA798104C766FA43AD0F250EEDF591A959CADAB969B9596C15D5FB55A8017E77C9F9F6885BBB2A4B8E8DA33AECBAAC0BBD3A5AA5BDAB6F5A563695CE6CCF925FC793B1272
311
7AE4C423FAB2F44571F661EDB809422889AC19BF80672C8DC49FD0EB2CFF115A1B4FF3EDE06BC3012721D09308C6B1C1309EF58619DBE6DF504B010214001400060808007D8C705759CAB7E9D9000000200100004F000000000000000000000000000000000035323134323645352D383635422D344535352D393033352D38
311
30333634433146434243382F4173736574446174612F446566696E6974696F6E4974657261746F7250726F706572746965732E62696E504B010214001400060808007D8C7057F47F5033220100003002000045000000000000000000000000004601000035323134323645352D383635422D344535352D393033352D383033
311
3634433146434243382F4173736574446174612F496E7374616E636550726F706572746965732E62696E504B010214001400060808007D8C705728BB58AF800100009E0500003D00000000000000000000000000CB02000035323134323645352D383635422D344535352D393033352D3830333634433146434243382F5363
311
68656D61732F436F6D6D6F6E536368656D612E786D6C504B010214001400060808007D8C70572CCEBD668A040000E01200003E00000000000000000000000000A604000035323134323645352D383635422D344535352D393033352D3830333634433146434243382F536368656D61732F47656E65726963536368656D612E
311
786D6C504B010214001400060808007D8C70576180134D5F0100006B03000045000000000000000000000000008C09000035323134323645352D383635422D344535352D393033352D3830333634433146434243382F536368656D61732F52656E6465724D6174657269616C536368656D612E786D6C504B01021400140006
311
0808007D8C70576CA4DA84510000005700000047000000000000000000000000004E0B000035323134323645352D383635422D344535352D393033352D3830333634433146434243382F4173736574446174612F41737365745461626C654F66436F6E74656E74732E62696E504B010214001400060808007D8C7057F86583
311
4058000000680000004500000000000000000000000000040C000035323134323645352D383635422D344535352D393033352D3830333634433146434243382F4173736574446174612F53747265616D56657273696F6E5461626C652E696E66504B010214001400060808007D8C7057C56E17D0360100009A040000360000
311
0000000000000000000000BF0C000035323134323645352D383635422D344535352D393033352D3830333634433146434243382F4173736574446174612F636E782E786D6C504B010214001400060808007D8C7057FF8F554A090100004F0300003400000000000000000000000000490E000035323134323645352D383635
311
422D344535352D393033352D3830333634433146434243382F536368656D61732F636E782E786D6C504B010214001400060808007D8C7057410A3D5871000000A40000002C00000000000000000000000000A40F000035323134323645352D383635422D344535352D393033352D3830333634433146434243382F636E782E
311
786D6C504B010214001400060808007D8C70579106D7487E000000A300000007000000000000000000000000005F100000636E782E786D6C504B010214001400060808007D8C705716E99B5DA6000000350100001300000000000000000000000000021100005B436F6E74656E745F54797065735D2E786D6C504B01021400
311
1400060808007D8C70573DEE336E64000000790000001B00000000000000000000000000D91100006175746F6465736B2D64657369676E2D7061636B6167652E786D6C504B010214001400060808007D8C7057B9D6AB80FA0000009601000037000000000000000000000000007612000035323134323645352D383635422D
311
344535352D393033352D3830333634433146434243382F4173736574446174612F636F72652E786D6C504B010214001400060808007D8C70571B3F4A69F8000000940100003500000000000000000000000000C513000035323134323645352D383635422D344535352D393033352D3830333634433146434243382F536368
311
656D61732F636F72652E786D6C504B010214001400060808007D8C7057F46F5B4000010000D70100002D000000000000000000000000001015000035323134323645352D383635422D344535352D393033352D3830333634433146434243382F636F72652E786D6C504B010214001400060808007D8C7057E36E6F3D080100
311
00B201000008000000000000000000000000005B160000636F72652E786D6C504B050600000000110011005A060000891700000000
310
504B03041400060808007D8C7057000000000000000000000000370000006662782F44413245414445342D454537462D343637422D424230412D4143303836464344373644392F617474726962757465732E62696E504B03041400060808007D8C7057000000000000000000000000350000006662782F4441324541444534
310
2D454537462D343637422D424230412D4143303836464344373644392F76657274696365732E62696E504B03041400060808007D8C7057F270F1330600000004000000360000006662782F44413245414445342D454537462D343637422D424230412D4143303836464344373644392F747269616E676C65732E62696E6366
310
60600000504B03041400060808007D8C705751464CB48900000043010000360000006662782F44413245414445342D454537462D343637422D424230412D4143303836464344373644392F6469726563746F72792E786D6C9D8F310EC2300C45AF127987122606C71DD918B841D4B851A43646695A717C52A85029031293A5
310
A76FBF6FACEF7DA7264E43906840EF0FA03836E242F406C6DCEE4EA06AC22492573150D1F66C60C640E8938CB705396EEDD86DE9B5042FE27813D640EA63BB001C722AF6E55CB61E4863F58284D5D3F53DD715CE1C3985E63FD7F1B7EBDD617E9F1E504B03041400060808007D8C7057C3D3CE4C3E070000201C0000340000
310
006662782F44413245414445342D454537462D343637422D424230412D4143303836464344373644392F6F626A656374732E786D6CDD595B6FA33814FE2B887DD97D204020B7519A512EED281A756634D1ACF60D39C449BD35171968D3FDF57B6C6C822949E85CA4D5B652931AFBF89CEFDC0FD3F7C7881A4F986524896F4C
310
B7E798068EC36447E2C38D59E47B6B6C1AEF67C69425495EDB671A318AF08DC997CDD9F4C09222954B3BBC47056DAEDE2DFE32B210C7D834428AB2ECC6CCC2071CA11E2AF26487B3C7DE0EE5A877D81F7B6EAFDCA8933D30943E34AE4A11C3710EACC27A0C542407AEFE2F8864CFA636DFA06DF3BA6DEB5FD8660BC1754649
310
9CE5280E5F71D5B8AE7F86ABC6759EEBAF6EFB838935F07DCFF2877DD75ADC2D56963BF29CE570B99CCC6F27A6319B6E9384560A4871BC032DBE9833776AF32795F8128536BEC3248E7128D16CDBB0C3922EC15913130D585788565348296B6DC1EB28FC996D9D40D158D2D056C2A9CFBAF526DBBF0184AC8B95B20C732BCF
310
7206BA96D897FEE04CED7255D30BC98C08E59811440D4AB60C3150106C2D15A491E1DEC249191C33A14545AFCE2B18F6755F6AE3725F50CAFDD79C094F0BC01F719E09CEC83F989DB8AFDF063C81B40589F3B114367F4981C4646A8BC5F299D7970F4B208D3D4507B01610936FF2FA0DBC963C16AC57E6ECE3DDF6B8E1F1A1
310
FDF29425296639B73CE1CCD2EF94066BA605C6D7019412575D772754BE02F49F00F98A17630A9A63E4E81F7D253B4371B64F5804DA311CC372E08F63F0AFAFBE4DEDEAF0CC30B458790E5370DB9F84A9268676770DD2D9F4098C3E619E146E13220A367D4F62EEE76028064D6009E2FD7E7B34676B08A6B008A71005E9E177
310
6AF3AF067C947420DE3434D4167E3B284A394CD3CF4EBAFA0036C34858A94A93F11CBE839F82EF7CB5F9B829D81E85F85E3AF60AEF494C7248A6ED0C69A06B2EFF6DFD4978E4079A6C113D9DD6368570CD21E171A3452D1BA91643E80538E169B8D48C58B927E0ED94A218274526D7DBE25498D08405DB97A074E1D6BBFE54
310
36505E260DA0359641720F19493926E64C6AAB0A84BD9AA0606188490B3C945A0DB6459406284A8A9887DAD7A6D8E403E20CB744A02AA829C3565EABC8EEC87E5F6410BC5A492E3520A53F2BC2A585FB10C7DAF86578CF1024D1240E08E4607096D61BB40B2AF02EF39C61BA0F08A54514EC09853C1244283D43BFA304F5CC
310
F5885F9E13B66B25A85B96F24965431C7009AC024965AB32E64B9D32FC44789929F299CA06DA0E59879A33FF4CBAE099A20550658CC2CC47A35B7F381FADACE56201159337EF5BF3A1EF5877DE7031F6C7BE371CAE9A7CAA6855CF77A04A5EE668FE973F14D1364684C2032E36DAA5EFDE8BEC79634368B4BDB97FB7E8F747
310
D6D0194D2CDFBD5D59636738B2FCC9DDC8F196AB81EF7936C35952B0106776DF76026592697C38C795E2EE750C85B2E67AB253FA6A0AF33F8EA1CD9CA029F1BF1A44ABD8D55210760DA2FC683384A2F091A7A82084AAAFD57D1A41B4C9475B9C7B635C767A9E237E5C77D27726FDF1645819FBC5402DEEF9E138D72641087D
310
679107498A4292B727D4062E1DE3F49B724BCF730706A053FDAD2EB99C67E4250189D001077BC4BB8496C0784D82D61C76A04996911867A2CB7B55FD35683A3D28A6F49CDB6284240B229CA3EFB13FD136346C1A62330DA01FCDF944E06A555019B4EC40CE51E4DD2F246E21FF4B90A128A565A77B0D03B7AF20503D4E9BC5
310
71A6F9154F606F01CA036787C5E0E21AF58A7D551FB46AAD497DF2DDE4CFC0A3EA9A5F088FBAA27BE9D41BB813FE3386A0321CB8DE4829E21A56EAAA9CF771B480CE337C099E31393C742A34BBE9A456B29545758E236863515EB04EFE3A1C38AF2E9271A1E110B59BDE581C8AFE4D7570809E68E0CE95B7B56BA00E2531CC
310
B93A09F24A8A561316BA10333D3EBA7A835F5F54769DEA0FC7CB5F5E31D79D2F12C39FEB3840B55C0660197DB49ABAB5EAD6EAA1EC19E52104D28DF8B416E0113BBC3B35661AB9B6125DD5A7D7AAE7350FA8114C6C118FB3F7FC0BFD8A40D5D03D67F687B268B3CBF5354F6C3D184E9FF8D098D6697DFEB069508195CEA7BF
310
708CF07383825C5DF26EF802A96FEB53CFDFA02025FAB6BE70FC3FD1512805D6C668300DCE124A60288F77C6012790BD61ECD0A1DB6011CE445606E395414ABD11E870FAA99CA9E6684BD5E9F001C1609ACA5EAC0861280A19F3C694EBC66F3006E59348319CEA3D421B26639869148CDC9860B139816EABB7857196181E0A
310
EA8D712538368A0F3CDF97A7AAFF4FC7383A10954E72557BBAE02225D39C090ADB54BC2780AAAF7C309B7EBFE88A1D03E5F0755BE49530A78593341204F542A0140EA67E8F12DE23141497E5727B628F0649A7C9FC453B28A95A396207315EAFE13D5F7DB1F9647CFDD9486971E0EABCD4FD6A942CDE75D3A29C424DC130A4
310
9829E235E4F29DFD8525F08A2932EE081881F1FB713CFCC35E265194C4E5923D972FAA8CCD03BC76DAD96AE4076DBCE30E6C31059063FD608B32DC43BBEC111640B58CF0D96809B166005534AD1980D208D7051CD3F6AF5786AC8D6A13927AD8E5F08899BE018EC4DFE570B7A96FA80D20C117802BF1F0F4452D4C6D0643F0
310
D9BF504B03041400060808007D8C70572613670B3F01000046050000300000006662782F44413245414445342D454537462D343637422D424230412D4143303836464344373644392F636E782E786D6CCD944D4EC3301085AF62799FA46955FEE4B8120B4EC002B1739C6930753C913D41F4F6D8C52D2054C4A252BBB3C66F
310
A4F7CD3C8D58BD0F96BD810F065DC3EB72C619388D9D717DC3275A17379CADA4F088F44DC6995303343C95B914BDC769CCA50ED66AB2A96A8DDBE4A222F2A69D080267DAAA101A1EF40B0CAA541361076153768A5459971E024E5E43EC273340EED71E1441C7E57C365F14755DD4578FF5F5DD6279B7BC7D1655524AD122DA
310
AC378EC0E3C834C6878B6666A24ADF524CDE644D22E0F2CB59D91A27AAF82F45886E5D9F75B41D936E1CADD18AE2982AD404544411A841549F6229AAC4FB83FAE1FE69EF8075C68326F4DB330DA03E368083B13226E17FFC3BE1DFD8D8BE46DC736DFB286CB67532D47D5A438CEBEFFDC71429D7DBCB0BFDC1D8E9331F4F09
310
197D79C87B5F2722AE76272F2E3D5D40F901504B03041400060808007D8C705763A1A7CC7E000000A30000000B0000006662782F636E782E786D6C4D8CD10AC22018465F45FE7BCB62E802E7D0E9DE63343724A761337AFC3476D1D50787EF1CDE7F368FDE36BD5C0C1D5C4E04900DF738BBB07690F705B7807AC1538CFBDF
310
0D509836DB41C520F89A627E1E68B6CB947DA5DE85C701B5BC1AA94D838D61236E2853582922B11C484BC74133AA6FC53857A5CCAF57B6E6C517504B03041400060808007D8C7057A6D797065F0000008200000007000000636E782E786D6C4DCB3B0E80201045D1AD90E9FD7516806B51190811670C8A61F982B1B0BAC9C9
310
7B72CA7B1037C6D3332918DA1E04D2CAC69353902EDB8C20262D23F3F59B81A079470595414B17391D1F19B4730A5583A7ED43BBE4025D9592775E5ADFFA01504B03041400060808007D8C70574FEB6A7CA0000000F4000000130000005B436F6E74656E745F54797065735D2E786D6C7D8F4B0EC2300C44AF1279DFA6B040
310
0835ED02B8011730C16D239A8F121795DB93D02D6269CFBC19BBED573B8B17C564BC53B0AB1B10E4B47F18372A5878A88E20FAAEBDBD032591BD2E299898C349CAA427B2986A1FC86565F0D122E7318E32A07EE24872DF3407A9BD63725C71C980AEBDD080CBCCE2BAE6F5D69B7110E7CD57AA146008B3D1C8F92C5954F993
310
BB1BF787F39A89ABC491D09600F9FDA2FB00504B03041400060808007D8C70573DEE336E64000000790000001B0000006175746F6465736B2D64657369676E2D7061636B6167652E786D6C35CBC10E83200C00D05F21DCA56CA76D41FC96062B120735B69A7DBE268BB7777961F8D5AF396893C2ADB70FE7ADA196782C2DF7
310
76D7A97B5933C430F15651E5469C55D70F80A4992A3ADC954792C525AE70A1E4D6AD9816CC044FEFDF01FE3FDE907802504B03041400060808007D8C70579AECFE95F9000000960100003B0000006662782F44413245414445342D454537462D343637422D424230412D4143303836464344373644392F7265736F75726365
310
732F636F72652E786D6C8550CB6E833010FC15B47703863C20328E1A105FD0536F96D9102BC18EFCA8FAF9B50395DA534FBB9A9D99DD1D76FE5A1ED9275AA78CEE80E62564A8A599949E3B08FE4A1AC8CE9C5963FC2F1A645A2CD8418281B3D99AF0DC2069B4479D506D26DC40E11C7AC8E423361D3879C345E422F8C870F7
310
FC29E45DCC98D37CE57116829A36A99AA29BBA2AB4C00F17DAF4ED5812DAEC8E6477195A72A1634FEAA11F87BEACEAB7FD811549CC9957CBCF766951789C805791422825F4F04E8FA77A7FDAB71FAC484CCE9CB7F1E76D69FA0EB845678295E858B14EFFB886E7F4BF6B50DAD7D5E6BA2A1C701A8F7C0D382B524AB1BC228C
310
3525CABF01504B03041400060808007D8C7057E11E65FAF4000000B1010000310000006662782F44413245414445342D454537462D343637422D424230412D4143303836464344373644392F636F72652E786D6C8D50CB6E833010FC15B47703860492C8388240BEA0A7DE2CE3102BC1467E54FDFCDA814AED2DA7B566673C
310
B343CEDFF333F912C64AAD1AC0690E89505C8F524D0D7877430748CE9418ADDD1F1A248ACDA28108032593D17ED920AE95132AA24A8F620399B5C241C29FE1D180E57731B394791718F6912E8C3FD824529CAE3C4A9C9C7FA5DC08E6C408B4C88B12618C70F581EB53B93FED8F9F248B4C4ABC97E36625C7E02E6F5218A07D
310
5B0C6D3FECD030D457B4ABEA0E755DDEA2F6921FAAEBA5AFABFE48B228A6C43A136EDE3E89D7BD2B5F85FF32FB657C23B354AE2C36C3556181E290E7B5A0248B0586F16A37CC5836FD01504B03041400060808007D8C7057EB5E18D753010000DD0200000C0000006662782F636F72652E786D6C8D52D98E842010FC15C3BB
310
073A7790C98E93F9827DDA370619978C824130F3F9DB78C4F5618F9820A9EEAEAEAA40CEAFA60E7A613AA9558E7094A04028AE4BA9AA1C39FB080F28385362B4B6DFDA50A0582372E461444965B46B27886B6585F2A8D2A59840D675C2A280D770C951C73F45C322E62C7474CFA865FCC92A11E168ECA3C439594EA3B20436
310
F990C220BABBE04371BC25213E6CF6E1E6723D86177C2BC2EC5ADCAE4592666FDB1D89FD30255636F3766E04B3A24434859610E310EFDEF1FE946D4FDBE307897D27259D35E0795AEADD21FAB8BF483CE22B3ED7967FF339A96C964E7CE34487280679438192D8E703BF21BC7586B018F2B3EC5ECF169E00F5825B6D365029
310
B55B4A3DAB9D00EA24183E128F55601E087EE2497FE1F99D038262AA0269CCC2F5EEACDFBED6D40A13F6F615286D1A562FE24689CBB92C5A599AC7B9AEB5F9CFF46C750E33F60F937E01504B03041400060808007D8C7057F843C03B06010000B201000008000000636F72652E786D6C8D50CD6E8420107E15327754747575
310
836CAAC627E8A9372AAC25AB600437EDDB17569BB4B79E867CF3FD31F4FA394FE82157AB8CAE81440920A90723941E6BD8DC0D9780AE8CAEC6B85F34409ACFB2860003A3E36AB6E58006A39DD401D546C803E4D64A076898FCA3063B7CC899477C739E61EFD1C2873B1F6544A29DC7A853F38F7458257752004B9334C38460
310
52BC92F325CB2F79F546E3C06474DB9438A294F0E9EAA6E40AAC6848D9567D8249793AE353D355B8217D8BB3AEEDBBD6FBBDE4058D839851EB56FFE7C3C4F774C8F247C8A5F1BE62F4DD98E920F85202193D7D014B681C167F4A6F8BF84769A55D961E86BBC20223BED073E183C305FD789ED7CF706DF60D504B0102140014
310
00060808007D8C70570000000000000000000000003700000000000000000000000000000000006662782F44413245414445342D454537462D343637422D424230412D4143303836464344373644392F617474726962757465732E62696E504B010214001400060808007D8C70570000000000000000000000003500000000
310
000000000000000000550000006662782F44413245414445342D454537462D343637422D424230412D4143303836464344373644392F76657274696365732E62696E504B010214001400060808007D8C7057F270F13306000000040000003600000000000000000000000000A80000006662782F44413245414445342D4545
310
37462D343637422D424230412D4143303836464344373644392F747269616E676C65732E62696E504B010214001400060808007D8C705751464CB489000000430100003600000000000000000000000000020100006662782F44413245414445342D454537462D343637422D424230412D4143303836464344373644392F64
310
69726563746F72792E786D6C504B010214001400060808007D8C7057C3D3CE4C3E070000201C00003400000000000000000000000000DF0100006662782F44413245414445342D454537462D343637422D424230412D4143303836464344373644392F6F626A656374732E786D6C504B010214001400060808007D8C705726
310
13670B3F0100004605000030000000000000000000000000006F0900006662782F44413245414445342D454537462D343637422D424230412D4143303836464344373644392F636E782E786D6C504B010214001400060808007D8C705763A1A7CC7E000000A30000000B00000000000000000000000000FC0A00006662782F
310
636E782E786D6C504B010214001400060808007D8C7057A6D797065F000000820000000700000000000000000000000000A30B0000636E782E786D6C504B010214001400060808007D8C70574FEB6A7CA0000000F40000001300000000000000000000000000270C00005B436F6E74656E745F54797065735D2E786D6C504B
310
010214001400060808007D8C70573DEE336E64000000790000001B00000000000000000000000000F80C00006175746F6465736B2D64657369676E2D7061636B6167652E786D6C504B010214001400060808007D8C70579AECFE95F9000000960100003B00000000000000000000000000950D00006662782F444132454144
310
45342D454537462D343637422D424230412D4143303836464344373644392F7265736F75726365732F636F72652E786D6C504B010214001400060808007D8C7057E11E65FAF4000000B10100003100000000000000000000000000E70E00006662782F44413245414445342D454537462D343637422D424230412D41433038
310
36464344373644392F636F72652E786D6C504B010214001400060808007D8C7057EB5E18D753010000DD0200000C000000000000000000000000002A1000006662782F636F72652E786D6C504B010214001400060808007D8C7057F843C03B06010000B20100000800000000000000000000000000A7110000636F72652E78
310
6D6C504B0506000000000E000E0080040000D31200000000
  0
XRECORD
  5
80CA
102
{ACAD_REACTORS
330
80C5
102
}
330
80C5
100
AcDbXrecord
280
     1
270
     1
271
     1
  0
XRECORD
  5
80C9
102
{ACAD_REACTORS
330
80C5
102
}
330
80C5
100
AcDbXrecord
280
     1
270
     1
271
     1
  0
XRECORD
  5
80CB
102
{ACAD_REACTORS
330
80C5
102
}
330
80C5
100
AcDbXrecord
280
     1
270
     1
271
     1
  0
XRECORD
  5
80C8
102
{ACAD_REACTORS
330
80C5
102
}
330
80C5
100
AcDbXrecord
280
     1
270
     1
271
     1
  0
XRECORD
  5
84D1
102
{ACAD_REACTORS
330
84D0
102
}
330
84D0
100
AcDbXrecord
280
     1
102
DISPLAYNAME
  1
Imperial24
102
FLAGS
 90
        0
  0
CELLSTYLEMAP
  5
8498
102
{ACAD_REACTORS
330
8497
102
}
330
8497
100
AcDbCellStyleMap
 90
        3
300
CELLSTYLE
  1
TABLEFORMAT_BEGIN
 90
        5
170
     1
 91
        0
 92
    32768
 62
   257
 93
        1
300
CONTENTFORMAT
  1
CONTENTFORMAT_BEGIN
 90
        0
 91
        0
 92
      512
 93
        0
300

 40
0.0
140
1.0
 94
        5
 62
     0
340
80F8
144
0.25
309
CONTENTFORMAT_END
171
     0
 94
        0
309
TABLEFORMAT_END
  1
CELLSTYLE_BEGIN
 90
        1
 91
        1
300
_TITLE
309
CELLSTYLE_END
300
CELLSTYLE
  1
TABLEFORMAT_BEGIN
 90
        5
170
     1
 91
        0
 92
        0
 62
   257
 93
        1
300
CONTENTFORMAT
  1
CONTENTFORMAT_BEGIN
 90
        0
 91
        0
 92
      512
 93
        0
300

 40
0.0
140
1.0
 94
        5
 62
     0
340
80F8
144
0.18
309
CONTENTFORMAT_END
171
     0
 94
        0
309
TABLEFORMAT_END
  1
CELLSTYLE_BEGIN
 90
        2
 91
        1
300
_HEADER
309
CELLSTYLE_END
300
CELLSTYLE
  1
TABLEFORMAT_BEGIN
 90
        5
170
     1
 91
        0
 92
        0
 62
   257
 93
        1
300
CONTENTFORMAT
  1
CONTENTFORMAT_BEGIN
 90
        0
 91
        0
 92
      512
 93
        0
300

 40
0.0
140
1.0
 94
        2
 62
     0
340
80F8
144
0.18
309
CONTENTFORMAT_END
171
     0
 94
        0
309
TABLEFORMAT_END
  1
CELLSTYLE_BEGIN
 90
        3
 91
        2
300
_DATA
309
CELLSTYLE_END
  0
XRECORD
  5
84CE
102
{ACAD_REACTORS
330
8497
102
}
330
8497
100
AcDbXrecord
280
     1
102
ACAD_ROUNDTRIP_PRE2007_TABLESTYLE
 90
      512
 91
        0
  1

 92
      512
 93
        0
  2

 94
      512
 95
        0
  3

  0
XRECORD
  5
84A9
102
{ACAD_REACTORS
330
84A8
102
}
330
84A8
100
AcDbXrecord
280
     1
102
RTVSPost2010Prop28
280
     1
102
RTVSPost2010PropOp28
 70
     1
102
RTVSPost2010Prop29
280
     1
102
RTVSPost2010PropOp29
 70
     1
102
RTVSPost2010Prop30
280
     0
102
RTVSPost2010PropOp30
 70
     1
102
RTVSPost2010Prop31
280
     0
102
RTVSPost2010PropOp31
 70
     1
102
RTVSPost2010Prop32
280
     0
102
RTVSPost2010PropOp32
 70
     1
102
RTVSPost2010Prop33
280
     0
102
RTVSPost2010PropOp33
 70
     1
102
RTVSPost2010Prop34
280
     0
102
RTVSPost2010PropOp34
 70
     1
102
RTVSPost2010Prop35
280
     0
102
RTVSPost2010PropOp35
 70
     1
102
RTVSPost2010Prop36
280
     0
102
RTVSPost2010PropOp36
 70
     1
102
RTVSPost2010Prop37
 90
       50
102
RTVSPost2010PropOp37
 70
     1
102
RTVSPost2010Prop38
140
0.0
102
RTVSPost2010PropOp38
 70
     1
102
RTVSPost2010Prop39
140
1.0
102
RTVSPost2010PropOp39
 70
     1
102
RTVSPost2010Prop40
 90
        0
102
RTVSPost2010PropOp40
 70
     1
102
RTVSPost2010Prop41ColorIndex
 90
       18
102
RTVSPost2010Prop41ColorRGB
 90
        0
102
RTVSPost2010PropOp41
 70
     1
102
RTVSPost2010Prop42
 90
       50
102
RTVSPost2010PropOp42
 70
     1
102
RTVSPost2010Prop43
 90
        3
102
RTVSPost2010PropOp43
 70
     1
102
RTVSPost2010Prop44ColorIndex
 90
        5
102
RTVSPost2010Prop44ColorRGB
 90
      255
102
RTVSPost2010PropOp44
 70
     1
102
RTVSPost2010Prop45
280
     0
102
RTVSPost2010PropOp45
 70
     1
102
RTVSPost2010Prop46
 90
       50
102
RTVSPost2010PropOp46
 70
     1
102
RTVSPost2010Prop47
 90
       50
102
RTVSPost2010PropOp47
 70
     1
102
RTVSPost2010Prop48
 90
       50
102
RTVSPost2010PropOp48
 70
     1
102
RTVSPost2010Prop49
280
     0
102
RTVSPost2010PropOp49
 70
     1
102
RTVSPost2010Prop50
 90
       50
102
RTVSPost2010PropOp50
 70
     1
102
RTVSPost2010Prop51ColorIndex
 90
      256
102
RTVSPost2010Prop51ColorRGB
 90
-16777216
102
RTVSPost2010PropOp51
 70
     0
102
RTVSPost2010Prop52
140
1.0
102
RTVSPost2010PropOp52
 70
     0
102
RTVSPost2010Prop53
 90
        2
102
RTVSPost2010PropOp53
 70
     1
102
RTVSPost2010Prop54
  1
strokes_ogs.tif
102
RTVSPost2010PropOp54
 70
     1
102
RTVSPost2010Prop55
280
     0
102
RTVSPost2010PropOp55
 70
     1
102
RTVSPost2010Prop56
140
1.0
102
RTVSPost2010PropOp56
 70
     1
102
RTVSPost2010Prop57
140
1.0
102
RTVSPost2010PropOp57
 70
     1
102
RTVSPropertyOp0
 70
     1
102
RTVSPropertyOp1
 70
     1
102
RTVSPropertyOp2
 70
     1
102
RTVSPropertyOp3
 70
     1
102
RTVSPropertyOp4
 70
     1
102
RTVSPropertyOp5
 70
     1
102
RTVSPropertyOp6
 70
     1
102
RTVSPropertyOp7
 70
     1
102
RTVSPropertyOp8
 70
     1
102
RTVSPropertyOp9
 70
     1
102
RTVSPropertyOp10
 70
     1
102
RTVSPropertyOp11
 70
     1
102
RTVSPropertyOp12
 70
     1
102
RTVSPropertyOp13
 70
     1
102
RTVSPropertyOp14
 70
     1
102
RTVSPropertyOp15
 70
     1
102
RTVSPropertyOp16
 70
     1
102
RTVSPropertyOp17
 70
     1
102
RTVSPropertyOp18
 70
     1
102
RTVSPropertyOp19
 70
     1
102
RTVSPropertyOp20
 70
     1
102
RTVSPropertyOp21
 70
     1
102
RTVSPropertyOp22
 70
     1
102
RTVSPropertyOp23
 70
     1
102
RTVSPropertyOp24
 70
     1
102
RTVSPropertyOp25
 70
     1
102
RTVSPropertyOp26
 70
     1
102
RTVSPropertyOp27
 70
     1
102
RTVSPropertyOp28
 70
     1
102
RTVSPropertyOp29
 70
     1
102
RTVSPropertyOp30
 70
     1
102
RTVSPropertyOp31
 70
     1
102
RTVSPropertyOp32
 70
     1
102
RTVSPropertyOp33
 70
     1
102
RTVSPropertyOp34
 70
     1
102
RTVSPropertyOp35
 70
     1
102
RTVSPropertyOp36
 70
     1
102
RTVSPropertyOp37
 70
     1
102
RTVSPropertyOp38
 70
     1
102
RTVSPropertyOp39
 70
     1
102
RTVSPropertyOp40
 70
     1
102
RTVSPropertyOp41
 70
     1
102
RTVSPropertyOp42
 70
     1
102
RTVSPropertyOp43
 70
     1
102
RTVSPropertyOp44
 70
     1
102
RTVSPropertyOp45
 70
     1
102
RTVSPropertyOp46
 70
     1
102
RTVSPropertyOp47
 70
     1
102
RTVSPropertyOp48
 70
     1
102
RTVSPropertyOp49
 70
     1
102
RTVSPropertyOp50
 70
     1
102
RTVSPropertyOp51
 70
     0
102
RTVSPropertyOp52
 70
     0
102
RTVSPropertyOp53
 70
     1
102
RTVSPropertyOp54
 70
     1
102
RTVSPropertyOp55
 70
     1
102
RTVSPropertyOp56
 70
     1
102
RTVSPropertyOp57
 70
     1
102
RTVSPropertyOp58
 70
     1
102
RTVSPropertyOp59
 70
     1
102
RTVSPropertyOp60
 70
     1
102
RTVSPropertyOp61
 70
     1
102
RTVSPropertyOp62
 70
     1
  0
XRECORD
  5
84A7
102
{ACAD_REACTORS
330
84A6
102
}
330
84A6
100
AcDbXrecord
280
     1
102
RTVSPost2010Prop28
280
     0
102
RTVSPost2010PropOp28
 70
     1
102
RTVSPost2010Prop29
280
     1
102
RTVSPost2010PropOp29
 70
     1
102
RTVSPost2010Prop30
280
     1
102
RTVSPost2010PropOp30
 70
     1
102
RTVSPost2010Prop31
280
     0
102
RTVSPost2010PropOp31
 70
     1
102
RTVSPost2010Prop32
280
     0
102
RTVSPost2010PropOp32
 70
     1
102
RTVSPost2010Prop33
280
     0
102
RTVSPost2010PropOp33
 70
     1
102
RTVSPost2010Prop34
280
     0
102
RTVSPost2010PropOp34
 70
     1
102
RTVSPost2010Prop35
280
     0
102
RTVSPost2010PropOp35
 70
     1
102
RTVSPost2010Prop36
280
     0
102
RTVSPost2010PropOp36
 70
     1
102
RTVSPost2010Prop37
 90
       50
102
RTVSPost2010PropOp37
 70
     1
102
RTVSPost2010Prop38
140
0.0
102
RTVSPost2010PropOp38
 70
     1
102
RTVSPost2010Prop39
140
1.0
102
RTVSPost2010PropOp39
 70
     1
102
RTVSPost2010Prop40
 90
        0
102
RTVSPost2010PropOp40
 70
     1
102
RTVSPost2010Prop41ColorIndex
 90
       18
102
RTVSPost2010Prop41ColorRGB
 90
        0
102
RTVSPost2010PropOp41
 70
     1
102
RTVSPost2010Prop42
 90
       50
102
RTVSPost2010PropOp42
 70
     1
102
RTVSPost2010Prop43
 90
        3
102
RTVSPost2010PropOp43
 70
     1
102
RTVSPost2010Prop44ColorIndex
 90
        5
102
RTVSPost2010Prop44ColorRGB
 90
      255
102
RTVSPost2010PropOp44
 70
     1
102
RTVSPost2010Prop45
280
     0
102
RTVSPost2010PropOp45
 70
     1
102
RTVSPost2010Prop46
 90
       50
102
RTVSPost2010PropOp46
 70
     1
102
RTVSPost2010Prop47
 90
       50
102
RTVSPost2010PropOp47
 70
     1
102
RTVSPost2010Prop48
 90
       50
102
RTVSPost2010PropOp48
 70
     1
102
RTVSPost2010Prop49
280
     0
102
RTVSPost2010PropOp49
 70
     1
102
RTVSPost2010Prop50
 90
       50
102
RTVSPost2010PropOp50
 70
     1
102
RTVSPost2010Prop51ColorIndex
 90
      256
102
RTVSPost2010Prop51ColorRGB
 90
-16777216
102
RTVSPost2010PropOp51
 70
     0
102
RTVSPost2010Prop52
140
1.0
102
RTVSPost2010PropOp52
 70
     0
102
RTVSPost2010Prop53
 90
        2
102
RTVSPost2010PropOp53
 70
     1
102
RTVSPost2010Prop54
  1
strokes_ogs.tif
102
RTVSPost2010PropOp54
 70
     1
102
RTVSPost2010Prop55
280
     0
102
RTVSPost2010PropOp55
 70
     1
102
RTVSPost2010Prop56
140
1.0
102
RTVSPost2010PropOp56
 70
     1
102
RTVSPost2010Prop57
140
1.0
102
RTVSPost2010PropOp57
 70
     1
102
RTVSPropertyOp0
 70
     1
102
RTVSPropertyOp1
 70
     1
102
RTVSPropertyOp2
 70
     1
102
RTVSPropertyOp3
 70
     1
102
RTVSPropertyOp4
 70
     1
102
RTVSPropertyOp5
 70
     1
102
RTVSPropertyOp6
 70
     1
102
RTVSPropertyOp7
 70
     1
102
RTVSPropertyOp8
 70
     1
102
RTVSPropertyOp9
 70
     1
102
RTVSPropertyOp10
 70
     1
102
RTVSPropertyOp11
 70
     1
102
RTVSPropertyOp12
 70
     1
102
RTVSPropertyOp13
 70
     1
102
RTVSPropertyOp14
 70
     1
102
RTVSPropertyOp15
 70
     1
102
RTVSPropertyOp16
 70
     1
102
RTVSPropertyOp17
 70
     1
102
RTVSPropertyOp18
 70
     1
102
RTVSPropertyOp19
 70
     1
102
RTVSPropertyOp20
 70
     1
102
RTVSPropertyOp21
 70
     1
102
RTVSPropertyOp22
 70
     1
102
RTVSPropertyOp23
 70
     1
102
RTVSPropertyOp24
 70
     1
102
RTVSPropertyOp25
 70
     1
102
RTVSPropertyOp26
 70
     1
102
RTVSPropertyOp27
 70
     1
102
RTVSPropertyOp28
 70
     1
102
RTVSPropertyOp29
 70
     1
102
RTVSPropertyOp30
 70
     1
102
RTVSPropertyOp31
 70
     1
102
RTVSPropertyOp32
 70
     1
102
RTVSPropertyOp33
 70
     1
102
RTVSPropertyOp34
 70
     1
102
RTVSPropertyOp35
 70
     1
102
RTVSPropertyOp36
 70
     1
102
RTVSPropertyOp37
 70
     1
102
RTVSPropertyOp38
 70
     1
102
RTVSPropertyOp39
 70
     1
102
RTVSPropertyOp40
 70
     1
102
RTVSPropertyOp41
 70
     1
102
RTVSPropertyOp42
 70
     1
102
RTVSPropertyOp43
 70
     1
102
RTVSPropertyOp44
 70
     1
102
RTVSPropertyOp45
 70
     1
102
RTVSPropertyOp46
 70
     1
102
RTVSPropertyOp47
 70
     1
102
RTVSPropertyOp48
 70
     1
102
RTVSPropertyOp49
 70
     1
102
RTVSPropertyOp50
 70
     1
102
RTVSPropertyOp51
 70
     0
102
RTVSPropertyOp52
 70
     0
102
RTVSPropertyOp53
 70
     1
102
RTVSPropertyOp54
 70
     1
102
RTVSPropertyOp55
 70
     1
102
RTVSPropertyOp56
 70
     1
102
RTVSPropertyOp57
 70
     1
102
RTVSPropertyOp58
 70
     1
102
RTVSPropertyOp59
 70
     1
102
RTVSPropertyOp60
 70
     1
102
RTVSPropertyOp61
 70
     1
102
RTVSPropertyOp62
 70
     1
  0
XRECORD
  5
84B5
102
{ACAD_REACTORS
330
84B4
102
}
330
84B4
100
AcDbXrecord
280
     1
102
RTVSPost2010Prop28
280
     0
102
RTVSPost2010PropOp28
 70
     1
102
RTVSPost2010Prop29
280
     1
102
RTVSPost2010PropOp29
 70
     1
102
RTVSPost2010Prop30
280
     1
102
RTVSPost2010PropOp30
 70
     1
102
RTVSPost2010Prop31
280
     0
102
RTVSPost2010PropOp31
 70
     1
102
RTVSPost2010Prop32
280
     0
102
RTVSPost2010PropOp32
 70
     1
102
RTVSPost2010Prop33
280
     0
102
RTVSPost2010PropOp33
 70
     1
102
RTVSPost2010Prop34
280
     0
102
RTVSPost2010PropOp34
 70
     1
102
RTVSPost2010Prop35
280
     0
102
RTVSPost2010PropOp35
 70
     1
102
RTVSPost2010Prop36
280
     0
102
RTVSPost2010PropOp36
 70
     1
102
RTVSPost2010Prop37
 90
       50
102
RTVSPost2010PropOp37
 70
     1
102
RTVSPost2010Prop38
140
0.0
102
RTVSPost2010PropOp38
 70
     1
102
RTVSPost2010Prop39
140
1.0
102
RTVSPost2010PropOp39
 70
     1
102
RTVSPost2010Prop40
 90
        0
102
RTVSPost2010PropOp40
 70
     1
102
RTVSPost2010Prop41ColorIndex
 90
       18
102
RTVSPost2010Prop41ColorRGB
 90
        0
102
RTVSPost2010PropOp41
 70
     1
102
RTVSPost2010Prop42
 90
       50
102
RTVSPost2010PropOp42
 70
     1
102
RTVSPost2010Prop43
 90
        3
102
RTVSPost2010PropOp43
 70
     1
102
RTVSPost2010Prop44ColorIndex
 90
        5
102
RTVSPost2010Prop44ColorRGB
 90
      255
102
RTVSPost2010PropOp44
 70
     1
102
RTVSPost2010Prop45
280
     0
102
RTVSPost2010PropOp45
 70
     1
102
RTVSPost2010Prop46
 90
       50
102
RTVSPost2010PropOp46
 70
     1
102
RTVSPost2010Prop47
 90
       50
102
RTVSPost2010PropOp47
 70
     1
102
RTVSPost2010Prop48
 90
       50
102
RTVSPost2010PropOp48
 70
     1
102
RTVSPost2010Prop49
280
     0
102
RTVSPost2010PropOp49
 70
     1
102
RTVSPost2010Prop50
 90
       50
102
RTVSPost2010PropOp50
 70
     1
102
RTVSPost2010Prop51ColorIndex
 90
      256
102
RTVSPost2010Prop51ColorRGB
 90
-16777216
102
RTVSPost2010PropOp51
 70
     0
102
RTVSPost2010Prop52
140
1.0
102
RTVSPost2010PropOp52
 70
     0
102
RTVSPost2010Prop53
 90
        2
102
RTVSPost2010PropOp53
 70
     1
102
RTVSPost2010Prop54
  1
strokes_ogs.tif
102
RTVSPost2010PropOp54
 70
     1
102
RTVSPost2010Prop55
280
     0
102
RTVSPost2010PropOp55
 70
     1
102
RTVSPost2010Prop56
140
1.0
102
RTVSPost2010PropOp56
 70
     1
102
RTVSPost2010Prop57
140
1.0
102
RTVSPost2010PropOp57
 70
     1
102
RTVSPropertyOp0
 70
     1
102
RTVSPropertyOp1
 70
     1
102
RTVSPropertyOp2
 70
     1
102
RTVSPropertyOp3
 70
     1
102
RTVSPropertyOp4
 70
     1
102
RTVSPropertyOp5
 70
     1
102
RTVSPropertyOp6
 70
     1
102
RTVSPropertyOp7
 70
     1
102
RTVSPropertyOp8
 70
     1
102
RTVSPropertyOp9
 70
     1
102
RTVSPropertyOp10
 70
     1
102
RTVSPropertyOp11
 70
     1
102
RTVSPropertyOp12
 70
     1
102
RTVSPropertyOp13
 70
     1
102
RTVSPropertyOp14
 70
     1
102
RTVSPropertyOp15
 70
     1
102
RTVSPropertyOp16
 70
     1
102
RTVSPropertyOp17
 70
     1
102
RTVSPropertyOp18
 70
     1
102
RTVSPropertyOp19
 70
     1
102
RTVSPropertyOp20
 70
     1
102
RTVSPropertyOp21
 70
     1
102
RTVSPropertyOp22
 70
     1
102
RTVSPropertyOp23
 70
     1
102
RTVSPropertyOp24
 70
     1
102
RTVSPropertyOp25
 70
     1
102
RTVSPropertyOp26
 70
     1
102
RTVSPropertyOp27
 70
     1
102
RTVSPropertyOp28
 70
     1
102
RTVSPropertyOp29
 70
     1
102
RTVSPropertyOp30
 70
     1
102
RTVSPropertyOp31
 70
     1
102
RTVSPropertyOp32
 70
     1
102
RTVSPropertyOp33
 70
     1
102
RTVSPropertyOp34
 70
     1
102
RTVSPropertyOp35
 70
     1
102
RTVSPropertyOp36
 70
     1
102
RTVSPropertyOp37
 70
     1
102
RTVSPropertyOp38
 70
     1
102
RTVSPropertyOp39
 70
     1
102
RTVSPropertyOp40
 70
     1
102
RTVSPropertyOp41
 70
     1
102
RTVSPropertyOp42
 70
     1
102
RTVSPropertyOp43
 70
     1
102
RTVSPropertyOp44
 70
     1
102
RTVSPropertyOp45
 70
     1
102
RTVSPropertyOp46
 70
     1
102
RTVSPropertyOp47
 70
     1
102
RTVSPropertyOp48
 70
     1
102
RTVSPropertyOp49
 70
     1
102
RTVSPropertyOp50
 70
     1
102
RTVSPropertyOp51
 70
     0
102
RTVSPropertyOp52
 70
     0
102
RTVSPropertyOp53
 70
     1
102
RTVSPropertyOp54
 70
     1
102
RTVSPropertyOp55
 70
     1
102
RTVSPropertyOp56
 70
     1
102
RTVSPropertyOp57
 70
     1
102
RTVSPropertyOp58
 70
     1
102
RTVSPropertyOp59
 70
     1
102
RTVSPropertyOp60
 70
     1
102
RTVSPropertyOp61
 70
     1
102
RTVSPropertyOp62
 70
     1
  0
XRECORD
  5
84BD
102
{ACAD_REACTORS
330
84BC
102
}
330
84BC
100
AcDbXrecord
280
     1
102
RTVSPost2010Prop28
280
     0
102
RTVSPost2010PropOp28
 70
     1
102
RTVSPost2010Prop29
280
     1
102
RTVSPost2010PropOp29
 70
     1
102
RTVSPost2010Prop30
280
     1
102
RTVSPost2010PropOp30
 70
     1
102
RTVSPost2010Prop31
280
     0
102
RTVSPost2010PropOp31
 70
     1
102
RTVSPost2010Prop32
280
     0
102
RTVSPost2010PropOp32
 70
     1
102
RTVSPost2010Prop33
280
     0
102
RTVSPost2010PropOp33
 70
     1
102
RTVSPost2010Prop34
280
     0
102
RTVSPost2010PropOp34
 70
     1
102
RTVSPost2010Prop35
280
     0
102
RTVSPost2010PropOp35
 70
     1
102
RTVSPost2010Prop36
280
     0
102
RTVSPost2010PropOp36
 70
     1
102
RTVSPost2010Prop37
 90
       50
102
RTVSPost2010PropOp37
 70
     1
102
RTVSPost2010Prop38
140
0.0
102
RTVSPost2010PropOp38
 70
     1
102
RTVSPost2010Prop39
140
1.0
102
RTVSPost2010PropOp39
 70
     1
102
RTVSPost2010Prop40
 90
        0
102
RTVSPost2010PropOp40
 70
     1
102
RTVSPost2010Prop41ColorIndex
 90
       18
102
RTVSPost2010Prop41ColorRGB
 90
        0
102
RTVSPost2010PropOp41
 70
     1
102
RTVSPost2010Prop42
 90
       50
102
RTVSPost2010PropOp42
 70
     1
102
RTVSPost2010Prop43
 90
        3
102
RTVSPost2010PropOp43
 70
     1
102
RTVSPost2010Prop44ColorIndex
 90
        5
102
RTVSPost2010Prop44ColorRGB
 90
      255
102
RTVSPost2010PropOp44
 70
     1
102
RTVSPost2010Prop45
280
     0
102
RTVSPost2010PropOp45
 70
     1
102
RTVSPost2010Prop46
 90
       50
102
RTVSPost2010PropOp46
 70
     1
102
RTVSPost2010Prop47
 90
       50
102
RTVSPost2010PropOp47
 70
     1
102
RTVSPost2010Prop48
 90
       50
102
RTVSPost2010PropOp48
 70
     1
102
RTVSPost2010Prop49
280
     0
102
RTVSPost2010PropOp49
 70
     1
102
RTVSPost2010Prop50
 90
       50
102
RTVSPost2010PropOp50
 70
     1
102
RTVSPost2010Prop51ColorIndex
 90
      256
102
RTVSPost2010Prop51ColorRGB
 90
-16777216
102
RTVSPost2010PropOp51
 70
     0
102
RTVSPost2010Prop52
140
1.0
102
RTVSPost2010PropOp52
 70
     0
102
RTVSPost2010Prop53
 90
        2
102
RTVSPost2010PropOp53
 70
     1
102
RTVSPost2010Prop54
  1
strokes_ogs.tif
102
RTVSPost2010PropOp54
 70
     1
102
RTVSPost2010Prop55
280
     0
102
RTVSPost2010PropOp55
 70
     1
102
RTVSPost2010Prop56
140
1.0
102
RTVSPost2010PropOp56
 70
     1
102
RTVSPost2010Prop57
140
1.0
102
RTVSPost2010PropOp57
 70
     1
102
RTVSPropertyOp0
 70
     1
102
RTVSPropertyOp1
 70
     1
102
RTVSPropertyOp2
 70
     1
102
RTVSPropertyOp3
 70
     1
102
RTVSPropertyOp4
 70
     1
102
RTVSPropertyOp5
 70
     1
102
RTVSPropertyOp6
 70
     1
102
RTVSPropertyOp7
 70
     1
102
RTVSPropertyOp8
 70
     1
102
RTVSPropertyOp9
 70
     1
102
RTVSPropertyOp10
 70
     1
102
RTVSPropertyOp11
 70
     1
102
RTVSPropertyOp12
 70
     1
102
RTVSPropertyOp13
 70
     1
102
RTVSPropertyOp14
 70
     1
102
RTVSPropertyOp15
 70
     1
102
RTVSPropertyOp16
 70
     1
102
RTVSPropertyOp17
 70
     1
102
RTVSPropertyOp18
 70
     1
102
RTVSPropertyOp19
 70
     1
102
RTVSPropertyOp20
 70
     1
102
RTVSPropertyOp21
 70
     1
102
RTVSPropertyOp22
 70
     1
102
RTVSPropertyOp23
 70
     1
102
RTVSPropertyOp24
 70
     1
102
RTVSPropertyOp25
 70
     1
102
RTVSPropertyOp26
 70
     1
102
RTVSPropertyOp27
 70
     1
102
RTVSPropertyOp28
 70
     1
102
RTVSPropertyOp29
 70
     1
102
RTVSPropertyOp30
 70
     1
102
RTVSPropertyOp31
 70
     1
102
RTVSPropertyOp32
 70
     1
102
RTVSPropertyOp33
 70
     1
102
RTVSPropertyOp34
 70
     1
102
RTVSPropertyOp35
 70
     1
102
RTVSPropertyOp36
 70
     1
102
RTVSPropertyOp37
 70
     1
102
RTVSPropertyOp38
 70
     1
102
RTVSPropertyOp39
 70
     1
102
RTVSPropertyOp40
 70
     1
102
RTVSPropertyOp41
 70
     1
102
RTVSPropertyOp42
 70
     1
102
RTVSPropertyOp43
 70
     1
102
RTVSPropertyOp44
 70
     1
102
RTVSPropertyOp45
 70
     1
102
RTVSPropertyOp46
 70
     1
102
RTVSPropertyOp47
 70
     1
102
RTVSPropertyOp48
 70
     1
102
RTVSPropertyOp49
 70
     1
102
RTVSPropertyOp50
 70
     1
102
RTVSPropertyOp51
 70
     0
102
RTVSPropertyOp52
 70
     0
102
RTVSPropertyOp53
 70
     1
102
RTVSPropertyOp54
 70
     1
102
RTVSPropertyOp55
 70
     1
102
RTVSPropertyOp56
 70
     1
102
RTVSPropertyOp57
 70
     1
102
RTVSPropertyOp58
 70
     1
102
RTVSPropertyOp59
 70
     1
102
RTVSPropertyOp60
 70
     1
102
RTVSPropertyOp61
 70
     1
102
RTVSPropertyOp62
 70
     1
  0
XRECORD
  5
84AF
102
{ACAD_REACTORS
330
84AE
102
}
330
84AE
100
AcDbXrecord
280
     1
102
RTVSPost2010Prop28
280
     0
102
RTVSPost2010PropOp28
 70
     1
102
RTVSPost2010Prop29
280
     1
102
RTVSPost2010PropOp29
 70
     1
102
RTVSPost2010Prop30
280
     1
102
RTVSPost2010PropOp30
 70
     1
102
RTVSPost2010Prop31
280
     0
102
RTVSPost2010PropOp31
 70
     1
102
RTVSPost2010Prop32
280
     0
102
RTVSPost2010PropOp32
 70
     1
102
RTVSPost2010Prop33
280
     0
102
RTVSPost2010PropOp33
 70
     1
102
RTVSPost2010Prop34
280
     0
102
RTVSPost2010PropOp34
 70
     1
102
RTVSPost2010Prop35
280
     0
102
RTVSPost2010PropOp35
 70
     1
102
RTVSPost2010Prop36
280
     0
102
RTVSPost2010PropOp36
 70
     1
102
RTVSPost2010Prop37
 90
       50
102
RTVSPost2010PropOp37
 70
     1
102
RTVSPost2010Prop38
140
0.0
102
RTVSPost2010PropOp38
 70
     1
102
RTVSPost2010Prop39
140
1.0
102
RTVSPost2010PropOp39
 70
     1
102
RTVSPost2010Prop40
 90
        0
102
RTVSPost2010PropOp40
 70
     1
102
RTVSPost2010Prop41ColorIndex
 90
       18
102
RTVSPost2010Prop41ColorRGB
 90
        0
102
RTVSPost2010PropOp41
 70
     1
102
RTVSPost2010Prop42
 90
       50
102
RTVSPost2010PropOp42
 70
     1
102
RTVSPost2010Prop43
 90
        3
102
RTVSPost2010PropOp43
 70
     1
102
RTVSPost2010Prop44ColorIndex
 90
        5
102
RTVSPost2010Prop44ColorRGB
 90
      255
102
RTVSPost2010PropOp44
 70
     1
102
RTVSPost2010Prop45
280
     0
102
RTVSPost2010PropOp45
 70
     1
102
RTVSPost2010Prop46
 90
       50
102
RTVSPost2010PropOp46
 70
     1
102
RTVSPost2010Prop47
 90
       50
102
RTVSPost2010PropOp47
 70
     1
102
RTVSPost2010Prop48
 90
       50
102
RTVSPost2010PropOp48
 70
     1
102
RTVSPost2010Prop49
280
     0
102
RTVSPost2010PropOp49
 70
     1
102
RTVSPost2010Prop50
 90
       50
102
RTVSPost2010PropOp50
 70
     1
102
RTVSPost2010Prop51ColorIndex
 90
      256
102
RTVSPost2010Prop51ColorRGB
 90
-16777216
102
RTVSPost2010PropOp51
 70
     0
102
RTVSPost2010Prop52
140
1.0
102
RTVSPost2010PropOp52
 70
     0
102
RTVSPost2010Prop53
 90
        2
102
RTVSPost2010PropOp53
 70
     1
102
RTVSPost2010Prop54
  1
strokes_ogs.tif
102
RTVSPost2010PropOp54
 70
     1
102
RTVSPost2010Prop55
280
     0
102
RTVSPost2010PropOp55
 70
     1
102
RTVSPost2010Prop56
140
1.0
102
RTVSPost2010PropOp56
 70
     1
102
RTVSPost2010Prop57
140
1.0
102
RTVSPost2010PropOp57
 70
     1
102
RTVSPropertyOp0
 70
     1
102
RTVSPropertyOp1
 70
     1
102
RTVSPropertyOp2
 70
     1
102
RTVSPropertyOp3
 70
     1
102
RTVSPropertyOp4
 70
     1
102
RTVSPropertyOp5
 70
     1
102
RTVSPropertyOp6
 70
     1
102
RTVSPropertyOp7
 70
     1
102
RTVSPropertyOp8
 70
     1
102
RTVSPropertyOp9
 70
     1
102
RTVSPropertyOp10
 70
     1
102
RTVSPropertyOp11
 70
     1
102
RTVSPropertyOp12
 70
     1
102
RTVSPropertyOp13
 70
     1
102
RTVSPropertyOp14
 70
     1
102
RTVSPropertyOp15
 70
     1
102
RTVSPropertyOp16
 70
     1
102
RTVSPropertyOp17
 70
     1
102
RTVSPropertyOp18
 70
     1
102
RTVSPropertyOp19
 70
     1
102
RTVSPropertyOp20
 70
     1
102
RTVSPropertyOp21
 70
     1
102
RTVSPropertyOp22
 70
     1
102
RTVSPropertyOp23
 70
     1
102
RTVSPropertyOp24
 70
     1
102
RTVSPropertyOp25
 70
     1
102
RTVSPropertyOp26
 70
     1
102
RTVSPropertyOp27
 70
     1
102
RTVSPropertyOp28
 70
     1
102
RTVSPropertyOp29
 70
     1
102
RTVSPropertyOp30
 70
     1
102
RTVSPropertyOp31
 70
     1
102
RTVSPropertyOp32
 70
     1
102
RTVSPropertyOp33
 70
     1
102
RTVSPropertyOp34
 70
     1
102
RTVSPropertyOp35
 70
     1
102
RTVSPropertyOp36
 70
     1
102
RTVSPropertyOp37
 70
     1
102
RTVSPropertyOp38
 70
     1
102
RTVSPropertyOp39
 70
     1
102
RTVSPropertyOp40
 70
     1
102
RTVSPropertyOp41
 70
     1
102
RTVSPropertyOp42
 70
     1
102
RTVSPropertyOp43
 70
     1
102
RTVSPropertyOp44
 70
     1
102
RTVSPropertyOp45
 70
     1
102
RTVSPropertyOp46
 70
     1
102
RTVSPropertyOp47
 70
     1
102
RTVSPropertyOp48
 70
     1
102
RTVSPropertyOp49
 70
     1
102
RTVSPropertyOp50
 70
     1
102
RTVSPropertyOp51
 70
     0
102
RTVSPropertyOp52
 70
     0
102
RTVSPropertyOp53
 70
     1
102
RTVSPropertyOp54
 70
     1
102
RTVSPropertyOp55
 70
     1
102
RTVSPropertyOp56
 70
     1
102
RTVSPropertyOp57
 70
     1
102
RTVSPropertyOp58
 70
     1
102
RTVSPropertyOp59
 70
     1
102
RTVSPropertyOp60
 70
     1
102
RTVSPropertyOp61
 70
     1
102
RTVSPropertyOp62
 70
     1
  0
XRECORD
  5
84B3
102
{ACAD_REACTORS
330
84B2
102
}
330
84B2
100
AcDbXrecord
280
     1
102
RTVSPost2010Prop28
280
     0
102
RTVSPost2010PropOp28
 70
     1
102
RTVSPost2010Prop29
280
     1
102
RTVSPost2010PropOp29
 70
     1
102
RTVSPost2010Prop30
280
     1
102
RTVSPost2010PropOp30
 70
     1
102
RTVSPost2010Prop31
280
     0
102
RTVSPost2010PropOp31
 70
     1
102
RTVSPost2010Prop32
280
     0
102
RTVSPost2010PropOp32
 70
     1
102
RTVSPost2010Prop33
280
     0
102
RTVSPost2010PropOp33
 70
     1
102
RTVSPost2010Prop34
280
     0
102
RTVSPost2010PropOp34
 70
     1
102
RTVSPost2010Prop35
280
     0
102
RTVSPost2010PropOp35
 70
     1
102
RTVSPost2010Prop36
280
     0
102
RTVSPost2010PropOp36
 70
     1
102
RTVSPost2010Prop37
 90
       50
102
RTVSPost2010PropOp37
 70
     1
102
RTVSPost2010Prop38
140
0.0
102
RTVSPost2010PropOp38
 70
     1
102
RTVSPost2010Prop39
140
1.0
102
RTVSPost2010PropOp39
 70
     1
102
RTVSPost2010Prop40
 90
        0
102
RTVSPost2010PropOp40
 70
     1
102
RTVSPost2010Prop41ColorIndex
 90
       18
102
RTVSPost2010Prop41ColorRGB
 90
        0
102
RTVSPost2010PropOp41
 70
     1
102
RTVSPost2010Prop42
 90
       50
102
RTVSPost2010PropOp42
 70
     1
102
RTVSPost2010Prop43
 90
        3
102
RTVSPost2010PropOp43
 70
     1
102
RTVSPost2010Prop44ColorIndex
 90
        5
102
RTVSPost2010Prop44ColorRGB
 90
      255
102
RTVSPost2010PropOp44
 70
     1
102
RTVSPost2010Prop45
280
     0
102
RTVSPost2010PropOp45
 70
     1
102
RTVSPost2010Prop46
 90
       50
102
RTVSPost2010PropOp46
 70
     1
102
RTVSPost2010Prop47
 90
       50
102
RTVSPost2010PropOp47
 70
     1
102
RTVSPost2010Prop48
 90
       50
102
RTVSPost2010PropOp48
 70
     1
102
RTVSPost2010Prop49
280
     0
102
RTVSPost2010PropOp49
 70
     1
102
RTVSPost2010Prop50
 90
       50
102
RTVSPost2010PropOp50
 70
     1
102
RTVSPost2010Prop51ColorIndex
 90
      256
102
RTVSPost2010Prop51ColorRGB
 90
-16777216
102
RTVSPost2010PropOp51
 70
     0
102
RTVSPost2010Prop52
140
1.0
102
RTVSPost2010PropOp52
 70
     0
102
RTVSPost2010Prop53
 90
        2
102
RTVSPost2010PropOp53
 70
     1
102
RTVSPost2010Prop54
  1
strokes_ogs.tif
102
RTVSPost2010PropOp54
 70
     1
102
RTVSPost2010Prop55
280
     0
102
RTVSPost2010PropOp55
 70
     1
102
RTVSPost2010Prop56
140
1.0
102
RTVSPost2010PropOp56
 70
     1
102
RTVSPost2010Prop57
140
1.0
102
RTVSPost2010PropOp57
 70
     1
102
RTVSPropertyOp0
 70
     1
102
RTVSPropertyOp1
 70
     1
102
RTVSPropertyOp2
 70
     1
102
RTVSPropertyOp3
 70
     1
102
RTVSPropertyOp4
 70
     1
102
RTVSPropertyOp5
 70
     1
102
RTVSPropertyOp6
 70
     1
102
RTVSPropertyOp7
 70
     1
102
RTVSPropertyOp8
 70
     1
102
RTVSPropertyOp9
 70
     1
102
RTVSPropertyOp10
 70
     1
102
RTVSPropertyOp11
 70
     1
102
RTVSPropertyOp12
 70
     1
102
RTVSPropertyOp13
 70
     1
102
RTVSPropertyOp14
 70
     1
102
RTVSPropertyOp15
 70
     1
102
RTVSPropertyOp16
 70
     1
102
RTVSPropertyOp17
 70
     1
102
RTVSPropertyOp18
 70
     1
102
RTVSPropertyOp19
 70
     1
102
RTVSPropertyOp20
 70
     1
102
RTVSPropertyOp21
 70
     1
102
RTVSPropertyOp22
 70
     1
102
RTVSPropertyOp23
 70
     1
102
RTVSPropertyOp24
 70
     1
102
RTVSPropertyOp25
 70
     1
102
RTVSPropertyOp26
 70
     1
102
RTVSPropertyOp27
 70
     1
102
RTVSPropertyOp28
 70
     1
102
RTVSPropertyOp29
 70
     1
102
RTVSPropertyOp30
 70
     1
102
RTVSPropertyOp31
 70
     1
102
RTVSPropertyOp32
 70
     1
102
RTVSPropertyOp33
 70
     1
102
RTVSPropertyOp34
 70
     1
102
RTVSPropertyOp35
 70
     1
102
RTVSPropertyOp36
 70
     1
102
RTVSPropertyOp37
 70
     1
102
RTVSPropertyOp38
 70
     1
102
RTVSPropertyOp39
 70
     1
102
RTVSPropertyOp40
 70
     1
102
RTVSPropertyOp41
 70
     1
102
RTVSPropertyOp42
 70
     1
102
RTVSPropertyOp43
 70
     1
102
RTVSPropertyOp44
 70
     1
102
RTVSPropertyOp45
 70
     1
102
RTVSPropertyOp46
 70
     1
102
RTVSPropertyOp47
 70
     1
102
RTVSPropertyOp48
 70
     1
102
RTVSPropertyOp49
 70
     1
102
RTVSPropertyOp50
 70
     1
102
RTVSPropertyOp51
 70
     0
102
RTVSPropertyOp52
 70
     0
102
RTVSPropertyOp53
 70
     1
102
RTVSPropertyOp54
 70
     1
102
RTVSPropertyOp55
 70
     1
102
RTVSPropertyOp56
 70
     1
102
RTVSPropertyOp57
 70
     1
102
RTVSPropertyOp58
 70
     1
102
RTVSPropertyOp59
 70
     1
102
RTVSPropertyOp60
 70
     1
102
RTVSPropertyOp61
 70
     1
102
RTVSPropertyOp62
 70
     1
  0
XRECORD
  5
84CD
102
{ACAD_REACTORS
330
84CC
102
}
330
84CC
100
AcDbXrecord
280
     1
102
RTVSPost2010Prop28
280
     0
102
RTVSPost2010PropOp28
 70
     1
102
RTVSPost2010Prop29
280
     1
102
RTVSPost2010PropOp29
 70
     1
102
RTVSPost2010Prop30
280
     1
102
RTVSPost2010PropOp30
 70
     1
102
RTVSPost2010Prop31
280
     0
102
RTVSPost2010PropOp31
 70
     1
102
RTVSPost2010Prop32
280
     0
102
RTVSPost2010PropOp32
 70
     1
102
RTVSPost2010Prop33
280
     0
102
RTVSPost2010PropOp33
 70
     1
102
RTVSPost2010Prop34
280
     0
102
RTVSPost2010PropOp34
 70
     1
102
RTVSPost2010Prop35
280
     0
102
RTVSPost2010PropOp35
 70
     1
102
RTVSPost2010Prop36
280
     0
102
RTVSPost2010PropOp36
 70
     1
102
RTVSPost2010Prop37
 90
       50
102
RTVSPost2010PropOp37
 70
     0
102
RTVSPost2010Prop38
140
0.0
102
RTVSPost2010PropOp38
 70
     0
102
RTVSPost2010Prop39
140
1.0
102
RTVSPost2010PropOp39
 70
     0
102
RTVSPost2010Prop40
 90
        0
102
RTVSPost2010PropOp40
 70
     0
102
RTVSPost2010Prop41ColorIndex
 90
       18
102
RTVSPost2010Prop41ColorRGB
 90
        0
102
RTVSPost2010PropOp41
 70
     0
102
RTVSPost2010Prop42
 90
       50
102
RTVSPost2010PropOp42
 70
     0
102
RTVSPost2010Prop43
 90
        3
102
RTVSPost2010PropOp43
 70
     0
102
RTVSPost2010Prop44ColorIndex
 90
        5
102
RTVSPost2010Prop44ColorRGB
 90
      255
102
RTVSPost2010PropOp44
 70
     0
102
RTVSPost2010Prop45
280
     0
102
RTVSPost2010PropOp45
 70
     1
102
RTVSPost2010Prop46
 90
       50
102
RTVSPost2010PropOp46
 70
     0
102
RTVSPost2010Prop47
 90
       50
102
RTVSPost2010PropOp47
 70
     0
102
RTVSPost2010Prop48
 90
       50
102
RTVSPost2010PropOp48
 70
     0
102
RTVSPost2010Prop49
280
     0
102
RTVSPost2010PropOp49
 70
     1
102
RTVSPost2010Prop50
 90
       50
102
RTVSPost2010PropOp50
 70
     0
102
RTVSPost2010Prop51ColorIndex
 90
      256
102
RTVSPost2010Prop51ColorRGB
 90
-16777216
102
RTVSPost2010PropOp51
 70
     0
102
RTVSPost2010Prop52
140
1.0
102
RTVSPost2010PropOp52
 70
     0
102
RTVSPost2010Prop53
 90
        2
102
RTVSPost2010PropOp53
 70
     0
102
RTVSPost2010Prop54
  1
strokes_ogs.tif
102
RTVSPost2010PropOp54
 70
     0
102
RTVSPost2010Prop55
280
     0
102
RTVSPost2010PropOp55
 70
     1
102
RTVSPost2010Prop56
140
1.0
102
RTVSPost2010PropOp56
 70
     0
102
RTVSPost2010Prop57
140
1.0
102
RTVSPost2010PropOp57
 70
     0
102
RTVSPropertyOp0
 70
     0
102
RTVSPropertyOp1
 70
     0
102
RTVSPropertyOp2
 70
     0
102
RTVSPropertyOp3
 70
     0
102
RTVSPropertyOp4
 70
     0
102
RTVSPropertyOp5
 70
     0
102
RTVSPropertyOp6
 70
     0
102
RTVSPropertyOp7
 70
     0
102
RTVSPropertyOp8
 70
     0
102
RTVSPropertyOp9
 70
     0
102
RTVSPropertyOp10
 70
     0
102
RTVSPropertyOp11
 70
     0
102
RTVSPropertyOp12
 70
     0
102
RTVSPropertyOp13
 70
     0
102
RTVSPropertyOp14
 70
     2
102
RTVSPropertyOp15
 70
     0
102
RTVSPropertyOp16
 70
     0
102
RTVSPropertyOp17
 70
     0
102
RTVSPropertyOp18
 70
     0
102
RTVSPropertyOp19
 70
     0
102
RTVSPropertyOp20
 70
     0
102
RTVSPropertyOp21
 70
     0
102
RTVSPropertyOp22
 70
     0
102
RTVSPropertyOp23
 70
     0
102
RTVSPropertyOp24
 70
     0
102
RTVSPropertyOp25
 70
     0
102
RTVSPropertyOp26
 70
     0
102
RTVSPropertyOp27
 70
     0
102
RTVSPropertyOp28
 70
     1
102
RTVSPropertyOp29
 70
     1
102
RTVSPropertyOp30
 70
     1
102
RTVSPropertyOp31
 70
     1
102
RTVSPropertyOp32
 70
     1
102
RTVSPropertyOp33
 70
     1
102
RTVSPropertyOp34
 70
     1
102
RTVSPropertyOp35
 70
     1
102
RTVSPropertyOp36
 70
     1
102
RTVSPropertyOp37
 70
     0
102
RTVSPropertyOp38
 70
     0
102
RTVSPropertyOp39
 70
     0
102
RTVSPropertyOp40
 70
     0
102
RTVSPropertyOp41
 70
     0
102
RTVSPropertyOp42
 70
     0
102
RTVSPropertyOp43
 70
     0
102
RTVSPropertyOp44
 70
     0
102
RTVSPropertyOp45
 70
     1
102
RTVSPropertyOp46
 70
     0
102
RTVSPropertyOp47
 70
     0
102
RTVSPropertyOp48
 70
     0
102
RTVSPropertyOp49
 70
     1
102
RTVSPropertyOp50
 70
     0
102
RTVSPropertyOp51
 70
     0
102
RTVSPropertyOp52
 70
     0
102
RTVSPropertyOp53
 70
     0
102
RTVSPropertyOp54
 70
     0
102
RTVSPropertyOp55
 70
     1
102
RTVSPropertyOp56
 70
     0
102
RTVSPropertyOp57
 70
     0
102
RTVSPropertyOp58
 70
     0
102
RTVSPropertyOp59
 70
     0
102
RTVSPropertyOp60
 70
     0
102
RTVSPropertyOp61
 70
     0
102
RTVSPropertyOp62
 70
     0
  0
XRECORD
  5
84BB
102
{ACAD_REACTORS
330
84BA
102
}
330
84BA
100
AcDbXrecord
280
     1
102
RTVSPost2010Prop28
280
     0
102
RTVSPost2010PropOp28
 70
     1
102
RTVSPost2010Prop29
280
     1
102
RTVSPost2010PropOp29
 70
     1
102
RTVSPost2010Prop30
280
     1
102
RTVSPost2010PropOp30
 70
     1
102
RTVSPost2010Prop31
280
     0
102
RTVSPost2010PropOp31
 70
     1
102
RTVSPost2010Prop32
280
     0
102
RTVSPost2010PropOp32
 70
     1
102
RTVSPost2010Prop33
280
     0
102
RTVSPost2010PropOp33
 70
     1
102
RTVSPost2010Prop34
280
     0
102
RTVSPost2010PropOp34
 70
     1
102
RTVSPost2010Prop35
280
     0
102
RTVSPost2010PropOp35
 70
     1
102
RTVSPost2010Prop36
280
     0
102
RTVSPost2010PropOp36
 70
     1
102
RTVSPost2010Prop37
 90
       50
102
RTVSPost2010PropOp37
 70
     1
102
RTVSPost2010Prop38
140
0.0
102
RTVSPost2010PropOp38
 70
     1
102
RTVSPost2010Prop39
140
1.0
102
RTVSPost2010PropOp39
 70
     1
102
RTVSPost2010Prop40
 90
        0
102
RTVSPost2010PropOp40
 70
     1
102
RTVSPost2010Prop41ColorIndex
 90
       18
102
RTVSPost2010Prop41ColorRGB
 90
        0
102
RTVSPost2010PropOp41
 70
     1
102
RTVSPost2010Prop42
 90
       50
102
RTVSPost2010PropOp42
 70
     1
102
RTVSPost2010Prop43
 90
        3
102
RTVSPost2010PropOp43
 70
     1
102
RTVSPost2010Prop44ColorIndex
 90
        5
102
RTVSPost2010Prop44ColorRGB
 90
      255
102
RTVSPost2010PropOp44
 70
     1
102
RTVSPost2010Prop45
280
     0
102
RTVSPost2010PropOp45
 70
     1
102
RTVSPost2010Prop46
 90
       50
102
RTVSPost2010PropOp46
 70
     1
102
RTVSPost2010Prop47
 90
       50
102
RTVSPost2010PropOp47
 70
     1
102
RTVSPost2010Prop48
 90
       50
102
RTVSPost2010PropOp48
 70
     1
102
RTVSPost2010Prop49
280
     0
102
RTVSPost2010PropOp49
 70
     1
102
RTVSPost2010Prop50
 90
       50
102
RTVSPost2010PropOp50
 70
     1
102
RTVSPost2010Prop51ColorIndex
 90
      256
102
RTVSPost2010Prop51ColorRGB
 90
-16777216
102
RTVSPost2010PropOp51
 70
     0
102
RTVSPost2010Prop52
140
1.0
102
RTVSPost2010PropOp52
 70
     0
102
RTVSPost2010Prop53
 90
        2
102
RTVSPost2010PropOp53
 70
     1
102
RTVSPost2010Prop54
  1
strokes_ogs.tif
102
RTVSPost2010PropOp54
 70
     1
102
RTVSPost2010Prop55
280
     0
102
RTVSPost2010PropOp55
 70
     1
102
RTVSPost2010Prop56
140
1.0
102
RTVSPost2010PropOp56
 70
     1
102
RTVSPost2010Prop57
140
1.0
102
RTVSPost2010PropOp57
 70
     1
102
RTVSPropertyOp0
 70
     1
102
RTVSPropertyOp1
 70
     1
102
RTVSPropertyOp2
 70
     1
102
RTVSPropertyOp3
 70
     1
102
RTVSPropertyOp4
 70
     1
102
RTVSPropertyOp5
 70
     1
102
RTVSPropertyOp6
 70
     1
102
RTVSPropertyOp7
 70
     1
102
RTVSPropertyOp8
 70
     1
102
RTVSPropertyOp9
 70
     1
102
RTVSPropertyOp10
 70
     1
102
RTVSPropertyOp11
 70
     1
102
RTVSPropertyOp12
 70
     1
102
RTVSPropertyOp13
 70
     1
102
RTVSPropertyOp14
 70
     1
102
RTVSPropertyOp15
 70
     1
102
RTVSPropertyOp16
 70
     1
102
RTVSPropertyOp17
 70
     1
102
RTVSPropertyOp18
 70
     1
102
RTVSPropertyOp19
 70
     1
102
RTVSPropertyOp20
 70
     1
102
RTVSPropertyOp21
 70
     1
102
RTVSPropertyOp22
 70
     1
102
RTVSPropertyOp23
 70
     1
102
RTVSPropertyOp24
 70
     1
102
RTVSPropertyOp25
 70
     1
102
RTVSPropertyOp26
 70
     1
102
RTVSPropertyOp27
 70
     1
102
RTVSPropertyOp28
 70
     1
102
RTVSPropertyOp29
 70
     1
102
RTVSPropertyOp30
 70
     1
102
RTVSPropertyOp31
 70
     1
102
RTVSPropertyOp32
 70
     1
102
RTVSPropertyOp33
 70
     1
102
RTVSPropertyOp34
 70
     1
102
RTVSPropertyOp35
 70
     1
102
RTVSPropertyOp36
 70
     1
102
RTVSPropertyOp37
 70
     1
102
RTVSPropertyOp38
 70
     1
102
RTVSPropertyOp39
 70
     1
102
RTVSPropertyOp40
 70
     1
102
RTVSPropertyOp41
 70
     1
102
RTVSPropertyOp42
 70
     1
102
RTVSPropertyOp43
 70
     1
102
RTVSPropertyOp44
 70
     1
102
RTVSPropertyOp45
 70
     1
102
RTVSPropertyOp46
 70
     1
102
RTVSPropertyOp47
 70
     1
102
RTVSPropertyOp48
 70
     1
102
RTVSPropertyOp49
 70
     1
102
RTVSPropertyOp50
 70
     1
102
RTVSPropertyOp51
 70
     0
102
RTVSPropertyOp52
 70
     0
102
RTVSPropertyOp53
 70
     1
102
RTVSPropertyOp54
 70
     1
102
RTVSPropertyOp55
 70
     1
102
RTVSPropertyOp56
 70
     1
102
RTVSPropertyOp57
 70
     1
102
RTVSPropertyOp58
 70
     1
102
RTVSPropertyOp59
 70
     1
102
RTVSPropertyOp60
 70
     1
102
RTVSPropertyOp61
 70
     1
102
RTVSPropertyOp62
 70
     1
  0
XRECORD
  5
849F
102
{ACAD_REACTORS
330
849E
102
}
330
849E
100
AcDbXrecord
280
     1
102
RTVSPost2010Prop28
280
     0
102
RTVSPost2010PropOp28
 70
     1
102
RTVSPost2010Prop29
280
     1
102
RTVSPost2010PropOp29
 70
     1
102
RTVSPost2010Prop30
280
     1
102
RTVSPost2010PropOp30
 70
     1
102
RTVSPost2010Prop31
280
     0
102
RTVSPost2010PropOp31
 70
     1
102
RTVSPost2010Prop32
280
     0
102
RTVSPost2010PropOp32
 70
     1
102
RTVSPost2010Prop33
280
     0
102
RTVSPost2010PropOp33
 70
     1
102
RTVSPost2010Prop34
280
     0
102
RTVSPost2010PropOp34
 70
     1
102
RTVSPost2010Prop35
280
     0
102
RTVSPost2010PropOp35
 70
     1
102
RTVSPost2010Prop36
280
     0
102
RTVSPost2010PropOp36
 70
     1
102
RTVSPost2010Prop37
 90
       50
102
RTVSPost2010PropOp37
 70
     1
102
RTVSPost2010Prop38
140
0.0
102
RTVSPost2010PropOp38
 70
     1
102
RTVSPost2010Prop39
140
1.0
102
RTVSPost2010PropOp39
 70
     1
102
RTVSPost2010Prop40
 90
        0
102
RTVSPost2010PropOp40
 70
     1
102
RTVSPost2010Prop41ColorIndex
 90
       18
102
RTVSPost2010Prop41ColorRGB
 90
        0
102
RTVSPost2010PropOp41
 70
     1
102
RTVSPost2010Prop42
 90
       50
102
RTVSPost2010PropOp42
 70
     1
102
RTVSPost2010Prop43
 90
        3
102
RTVSPost2010PropOp43
 70
     1
102
RTVSPost2010Prop44ColorIndex
 90
        5
102
RTVSPost2010Prop44ColorRGB
 90
      255
102
RTVSPost2010PropOp44
 70
     1
102
RTVSPost2010Prop45
280
     0
102
RTVSPost2010PropOp45
 70
     1
102
RTVSPost2010Prop46
 90
       50
102
RTVSPost2010PropOp46
 70
     1
102
RTVSPost2010Prop47
 90
       50
102
RTVSPost2010PropOp47
 70
     1
102
RTVSPost2010Prop48
 90
       50
102
RTVSPost2010PropOp48
 70
     1
102
RTVSPost2010Prop49
280
     0
102
RTVSPost2010PropOp49
 70
     1
102
RTVSPost2010Prop50
 90
       50
102
RTVSPost2010PropOp50
 70
     1
102
RTVSPost2010Prop51ColorIndex
 90
      256
102
RTVSPost2010Prop51ColorRGB
 90
-16777216
102
RTVSPost2010PropOp51
 70
     0
102
RTVSPost2010Prop52
140
1.0
102
RTVSPost2010PropOp52
 70
     0
102
RTVSPost2010Prop53
 90
        2
102
RTVSPost2010PropOp53
 70
     1
102
RTVSPost2010Prop54
  1
strokes_ogs.tif
102
RTVSPost2010PropOp54
 70
     1
102
RTVSPost2010Prop55
280
     0
102
RTVSPost2010PropOp55
 70
     1
102
RTVSPost2010Prop56
140
1.0
102
RTVSPost2010PropOp56
 70
     1
102
RTVSPost2010Prop57
140
1.0
102
RTVSPost2010PropOp57
 70
     1
102
RTVSPropertyOp0
 70
     1
102
RTVSPropertyOp1
 70
     1
102
RTVSPropertyOp2
 70
     1
102
RTVSPropertyOp3
 70
     1
102
RTVSPropertyOp4
 70
     1
102
RTVSPropertyOp5
 70
     1
102
RTVSPropertyOp6
 70
     1
102
RTVSPropertyOp7
 70
     1
102
RTVSPropertyOp8
 70
     1
102
RTVSPropertyOp9
 70
     1
102
RTVSPropertyOp10
 70
     1
102
RTVSPropertyOp11
 70
     1
102
RTVSPropertyOp12
 70
     1
102
RTVSPropertyOp13
 70
     1
102
RTVSPropertyOp14
 70
     1
102
RTVSPropertyOp15
 70
     1
102
RTVSPropertyOp16
 70
     1
102
RTVSPropertyOp17
 70
     1
102
RTVSPropertyOp18
 70
     1
102
RTVSPropertyOp19
 70
     1
102
RTVSPropertyOp20
 70
     1
102
RTVSPropertyOp21
 70
     1
102
RTVSPropertyOp22
 70
     1
102
RTVSPropertyOp23
 70
     1
102
RTVSPropertyOp24
 70
     1
102
RTVSPropertyOp25
 70
     1
102
RTVSPropertyOp26
 70
     1
102
RTVSPropertyOp27
 70
     1
102
RTVSPropertyOp28
 70
     1
102
RTVSPropertyOp29
 70
     1
102
RTVSPropertyOp30
 70
     1
102
RTVSPropertyOp31
 70
     1
102
RTVSPropertyOp32
 70
     1
102
RTVSPropertyOp33
 70
     1
102
RTVSPropertyOp34
 70
     1
102
RTVSPropertyOp35
 70
     1
102
RTVSPropertyOp36
 70
     1
102
RTVSPropertyOp37
 70
     1
102
RTVSPropertyOp38
 70
     1
102
RTVSPropertyOp39
 70
     1
102
RTVSPropertyOp40
 70
     1
102
RTVSPropertyOp41
 70
     1
102
RTVSPropertyOp42
 70
     1
102
RTVSPropertyOp43
 70
     1
102
RTVSPropertyOp44
 70
     1
102
RTVSPropertyOp45
 70
     1
102
RTVSPropertyOp46
 70
     1
102
RTVSPropertyOp47
 70
     1
102
RTVSPropertyOp48
 70
     1
102
RTVSPropertyOp49
 70
     1
102
RTVSPropertyOp50
 70
     1
102
RTVSPropertyOp51
 70
     0
102
RTVSPropertyOp52
 70
     0
102
RTVSPropertyOp53
 70
     1
102
RTVSPropertyOp54
 70
     1
102
RTVSPropertyOp55
 70
     1
102
RTVSPropertyOp56
 70
     1
102
RTVSPropertyOp57
 70
     1
102
RTVSPropertyOp58
 70
     1
102
RTVSPropertyOp59
 70
     1
102
RTVSPropertyOp60
 70
     1
102
RTVSPropertyOp61
 70
     1
102
RTVSPropertyOp62
 70
     1
  0
XRECORD
  5
84A1
102
{ACAD_REACTORS
330
84A0
102
}
330
84A0
100
AcDbXrecord
280
     1
102
RTVSPost2010Prop28
280
     0
102
RTVSPost2010PropOp28
 70
     1
102
RTVSPost2010Prop29
280
     1
102
RTVSPost2010PropOp29
 70
     1
102
RTVSPost2010Prop30
280
     1
102
RTVSPost2010PropOp30
 70
     1
102
RTVSPost2010Prop31
280
     0
102
RTVSPost2010PropOp31
 70
     1
102
RTVSPost2010Prop32
280
     0
102
RTVSPost2010PropOp32
 70
     1
102
RTVSPost2010Prop33
280
     0
102
RTVSPost2010PropOp33
 70
     1
102
RTVSPost2010Prop34
280
     0
102
RTVSPost2010PropOp34
 70
     1
102
RTVSPost2010Prop35
280
     0
102
RTVSPost2010PropOp35
 70
     1
102
RTVSPost2010Prop36
280
     0
102
RTVSPost2010PropOp36
 70
     1
102
RTVSPost2010Prop37
 90
       50
102
RTVSPost2010PropOp37
 70
     1
102
RTVSPost2010Prop38
140
0.0
102
RTVSPost2010PropOp38
 70
     1
102
RTVSPost2010Prop39
140
1.0
102
RTVSPost2010PropOp39
 70
     1
102
RTVSPost2010Prop40
 90
        0
102
RTVSPost2010PropOp40
 70
     1
102
RTVSPost2010Prop41ColorIndex
 90
       18
102
RTVSPost2010Prop41ColorRGB
 90
        0
102
RTVSPost2010PropOp41
 70
     1
102
RTVSPost2010Prop42
 90
       50
102
RTVSPost2010PropOp42
 70
     1
102
RTVSPost2010Prop43
 90
        3
102
RTVSPost2010PropOp43
 70
     1
102
RTVSPost2010Prop44ColorIndex
 90
        5
102
RTVSPost2010Prop44ColorRGB
 90
      255
102
RTVSPost2010PropOp44
 70
     1
102
RTVSPost2010Prop45
280
     0
102
RTVSPost2010PropOp45
 70
     1
102
RTVSPost2010Prop46
 90
       50
102
RTVSPost2010PropOp46
 70
     1
102
RTVSPost2010Prop47
 90
       50
102
RTVSPost2010PropOp47
 70
     1
102
RTVSPost2010Prop48
 90
       50
102
RTVSPost2010PropOp48
 70
     1
102
RTVSPost2010Prop49
280
     0
102
RTVSPost2010PropOp49
 70
     1
102
RTVSPost2010Prop50
 90
       50
102
RTVSPost2010PropOp50
 70
     1
102
RTVSPost2010Prop51ColorIndex
 90
      256
102
RTVSPost2010Prop51ColorRGB
 90
-16777216
102
RTVSPost2010PropOp51
 70
     0
102
RTVSPost2010Prop52
140
1.0
102
RTVSPost2010PropOp52
 70
     0
102
RTVSPost2010Prop53
 90
        2
102
RTVSPost2010PropOp53
 70
     1
102
RTVSPost2010Prop54
  1
strokes_ogs.tif
102
RTVSPost2010PropOp54
 70
     1
102
RTVSPost2010Prop55
280
     0
102
RTVSPost2010PropOp55
 70
     1
102
RTVSPost2010Prop56
140
1.0
102
RTVSPost2010PropOp56
 70
     1
102
RTVSPost2010Prop57
140
1.0
102
RTVSPost2010PropOp57
 70
     1
102
RTVSPropertyOp0
 70
     1
102
RTVSPropertyOp1
 70
     1
102
RTVSPropertyOp2
 70
     1
102
RTVSPropertyOp3
 70
     1
102
RTVSPropertyOp4
 70
     1
102
RTVSPropertyOp5
 70
     1
102
RTVSPropertyOp6
 70
     1
102
RTVSPropertyOp7
 70
     1
102
RTVSPropertyOp8
 70
     1
102
RTVSPropertyOp9
 70
     1
102
RTVSPropertyOp10
 70
     1
102
RTVSPropertyOp11
 70
     1
102
RTVSPropertyOp12
 70
     1
102
RTVSPropertyOp13
 70
     1
102
RTVSPropertyOp14
 70
     1
102
RTVSPropertyOp15
 70
     1
102
RTVSPropertyOp16
 70
     1
102
RTVSPropertyOp17
 70
     1
102
RTVSPropertyOp18
 70
     1
102
RTVSPropertyOp19
 70
     1
102
RTVSPropertyOp20
 70
     1
102
RTVSPropertyOp21
 70
     1
102
RTVSPropertyOp22
 70
     1
102
RTVSPropertyOp23
 70
     1
102
RTVSPropertyOp24
 70
     1
102
RTVSPropertyOp25
 70
     1
102
RTVSPropertyOp26
 70
     1
102
RTVSPropertyOp27
 70
     1
102
RTVSPropertyOp28
 70
     1
102
RTVSPropertyOp29
 70
     1
102
RTVSPropertyOp30
 70
     1
102
RTVSPropertyOp31
 70
     1
102
RTVSPropertyOp32
 70
     1
102
RTVSPropertyOp33
 70
     1
102
RTVSPropertyOp34
 70
     1
102
RTVSPropertyOp35
 70
     1
102
RTVSPropertyOp36
 70
     1
102
RTVSPropertyOp37
 70
     1
102
RTVSPropertyOp38
 70
     1
102
RTVSPropertyOp39
 70
     1
102
RTVSPropertyOp40
 70
     1
102
RTVSPropertyOp41
 70
     1
102
RTVSPropertyOp42
 70
     1
102
RTVSPropertyOp43
 70
     1
102
RTVSPropertyOp44
 70
     1
102
RTVSPropertyOp45
 70
     1
102
RTVSPropertyOp46
 70
     1
102
RTVSPropertyOp47
 70
     1
102
RTVSPropertyOp48
 70
     1
102
RTVSPropertyOp49
 70
     1
102
RTVSPropertyOp50
 70
     1
102
RTVSPropertyOp51
 70
     0
102
RTVSPropertyOp52
 70
     0
102
RTVSPropertyOp53
 70
     1
102
RTVSPropertyOp54
 70
     1
102
RTVSPropertyOp55
 70
     1
102
RTVSPropertyOp56
 70
     1
102
RTVSPropertyOp57
 70
     1
102
RTVSPropertyOp58
 70
     1
102
RTVSPropertyOp59
 70
     1
102
RTVSPropertyOp60
 70
     1
102
RTVSPropertyOp61
 70
     1
102
RTVSPropertyOp62
 70
     1
  0
XRECORD
  5
84A3
102
{ACAD_REACTORS
330
84A2
102
}
330
84A2
100
AcDbXrecord
280
     1
102
RTVSPost2010Prop28
280
     0
102
RTVSPost2010PropOp28
 70
     1
102
RTVSPost2010Prop29
280
     1
102
RTVSPost2010PropOp29
 70
     1
102
RTVSPost2010Prop30
280
     1
102
RTVSPost2010PropOp30
 70
     1
102
RTVSPost2010Prop31
280
     0
102
RTVSPost2010PropOp31
 70
     1
102
RTVSPost2010Prop32
280
     0
102
RTVSPost2010PropOp32
 70
     1
102
RTVSPost2010Prop33
280
     0
102
RTVSPost2010PropOp33
 70
     1
102
RTVSPost2010Prop34
280
     0
102
RTVSPost2010PropOp34
 70
     1
102
RTVSPost2010Prop35
280
     0
102
RTVSPost2010PropOp35
 70
     1
102
RTVSPost2010Prop36
280
     0
102
RTVSPost2010PropOp36
 70
     1
102
RTVSPost2010Prop37
 90
       50
102
RTVSPost2010PropOp37
 70
     1
102
RTVSPost2010Prop38
140
0.0
102
RTVSPost2010PropOp38
 70
     1
102
RTVSPost2010Prop39
140
1.0
102
RTVSPost2010PropOp39
 70
     1
102
RTVSPost2010Prop40
 90
        0
102
RTVSPost2010PropOp40
 70
     1
102
RTVSPost2010Prop41ColorIndex
 90
       18
102
RTVSPost2010Prop41ColorRGB
 90
        0
102
RTVSPost2010PropOp41
 70
     1
102
RTVSPost2010Prop42
 90
       50
102
RTVSPost2010PropOp42
 70
     1
102
RTVSPost2010Prop43
 90
        3
102
RTVSPost2010PropOp43
 70
     1
102
RTVSPost2010Prop44ColorIndex
 90
        5
102
RTVSPost2010Prop44ColorRGB
 90
      255
102
RTVSPost2010PropOp44
 70
     1
102
RTVSPost2010Prop45
280
     0
102
RTVSPost2010PropOp45
 70
     1
102
RTVSPost2010Prop46
 90
       50
102
RTVSPost2010PropOp46
 70
     1
102
RTVSPost2010Prop47
 90
       50
102
RTVSPost2010PropOp47
 70
     1
102
RTVSPost2010Prop48
 90
       50
102
RTVSPost2010PropOp48
 70
     1
102
RTVSPost2010Prop49
280
     0
102
RTVSPost2010PropOp49
 70
     1
102
RTVSPost2010Prop50
 90
       50
102
RTVSPost2010PropOp50
 70
     1
102
RTVSPost2010Prop51ColorIndex
 90
      256
102
RTVSPost2010Prop51ColorRGB
 90
-16777216
102
RTVSPost2010PropOp51
 70
     0
102
RTVSPost2010Prop52
140
1.0
102
RTVSPost2010PropOp52
 70
     0
102
RTVSPost2010Prop53
 90
        2
102
RTVSPost2010PropOp53
 70
     1
102
RTVSPost2010Prop54
  1
strokes_ogs.tif
102
RTVSPost2010PropOp54
 70
     1
102
RTVSPost2010Prop55
280
     0
102
RTVSPost2010PropOp55
 70
     1
102
RTVSPost2010Prop56
140
1.0
102
RTVSPost2010PropOp56
 70
     1
102
RTVSPost2010Prop57
140
1.0
102
RTVSPost2010PropOp57
 70
     1
102
RTVSPropertyOp0
 70
     1
102
RTVSPropertyOp1
 70
     1
102
RTVSPropertyOp2
 70
     1
102
RTVSPropertyOp3
 70
     1
102
RTVSPropertyOp4
 70
     1
102
RTVSPropertyOp5
 70
     1
102
RTVSPropertyOp6
 70
     1
102
RTVSPropertyOp7
 70
     1
102
RTVSPropertyOp8
 70
     1
102
RTVSPropertyOp9
 70
     1
102
RTVSPropertyOp10
 70
     1
102
RTVSPropertyOp11
 70
     1
102
RTVSPropertyOp12
 70
     1
102
RTVSPropertyOp13
 70
     1
102
RTVSPropertyOp14
 70
     1
102
RTVSPropertyOp15
 70
     1
102
RTVSPropertyOp16
 70
     1
102
RTVSPropertyOp17
 70
     1
102
RTVSPropertyOp18
 70
     1
102
RTVSPropertyOp19
 70
     1
102
RTVSPropertyOp20
 70
     1
102
RTVSPropertyOp21
 70
     1
102
RTVSPropertyOp22
 70
     1
102
RTVSPropertyOp23
 70
     1
102
RTVSPropertyOp24
 70
     1
102
RTVSPropertyOp25
 70
     1
102
RTVSPropertyOp26
 70
     1
102
RTVSPropertyOp27
 70
     1
102
RTVSPropertyOp28
 70
     1
102
RTVSPropertyOp29
 70
     1
102
RTVSPropertyOp30
 70
     1
102
RTVSPropertyOp31
 70
     1
102
RTVSPropertyOp32
 70
     1
102
RTVSPropertyOp33
 70
     1
102
RTVSPropertyOp34
 70
     1
102
RTVSPropertyOp35
 70
     1
102
RTVSPropertyOp36
 70
     1
102
RTVSPropertyOp37
 70
     1
102
RTVSPropertyOp38
 70
     1
102
RTVSPropertyOp39
 70
     1
102
RTVSPropertyOp40
 70
     1
102
RTVSPropertyOp41
 70
     1
102
RTVSPropertyOp42
 70
     1
102
RTVSPropertyOp43
 70
     1
102
RTVSPropertyOp44
 70
     1
102
RTVSPropertyOp45
 70
     1
102
RTVSPropertyOp46
 70
     1
102
RTVSPropertyOp47
 70
     1
102
RTVSPropertyOp48
 70
     1
102
RTVSPropertyOp49
 70
     1
102
RTVSPropertyOp50
 70
     1
102
RTVSPropertyOp51
 70
     0
102
RTVSPropertyOp52
 70
     0
102
RTVSPropertyOp53
 70
     1
102
RTVSPropertyOp54
 70
     1
102
RTVSPropertyOp55
 70
     1
102
RTVSPropertyOp56
 70
     1
102
RTVSPropertyOp57
 70
     1
102
RTVSPropertyOp58
 70
     1
102
RTVSPropertyOp59
 70
     1
102
RTVSPropertyOp60
 70
     1
102
RTVSPropertyOp61
 70
     1
102
RTVSPropertyOp62
 70
     1
  0
XRECORD
  5
84A5
102
{ACAD_REACTORS
330
84A4
102
}
330
84A4
100
AcDbXrecord
280
     1
102
RTVSPost2010Prop28
280
     0
102
RTVSPost2010PropOp28
 70
     1
102
RTVSPost2010Prop29
280
     1
102
RTVSPost2010PropOp29
 70
     1
102
RTVSPost2010Prop30
280
     1
102
RTVSPost2010PropOp30
 70
     1
102
RTVSPost2010Prop31
280
     0
102
RTVSPost2010PropOp31
 70
     1
102
RTVSPost2010Prop32
280
     0
102
RTVSPost2010PropOp32
 70
     1
102
RTVSPost2010Prop33
280
     0
102
RTVSPost2010PropOp33
 70
     1
102
RTVSPost2010Prop34
280
     0
102
RTVSPost2010PropOp34
 70
     1
102
RTVSPost2010Prop35
280
     0
102
RTVSPost2010PropOp35
 70
     1
102
RTVSPost2010Prop36
280
     0
102
RTVSPost2010PropOp36
 70
     1
102
RTVSPost2010Prop37
 90
       50
102
RTVSPost2010PropOp37
 70
     1
102
RTVSPost2010Prop38
140
0.0
102
RTVSPost2010PropOp38
 70
     1
102
RTVSPost2010Prop39
140
1.0
102
RTVSPost2010PropOp39
 70
     1
102
RTVSPost2010Prop40
 90
        0
102
RTVSPost2010PropOp40
 70
     1
102
RTVSPost2010Prop41ColorIndex
 90
       18
102
RTVSPost2010Prop41ColorRGB
 90
        0
102
RTVSPost2010PropOp41
 70
     1
102
RTVSPost2010Prop42
 90
       50
102
RTVSPost2010PropOp42
 70
     1
102
RTVSPost2010Prop43
 90
        3
102
RTVSPost2010PropOp43
 70
     1
102
RTVSPost2010Prop44ColorIndex
 90
        5
102
RTVSPost2010Prop44ColorRGB
 90
      255
102
RTVSPost2010PropOp44
 70
     1
102
RTVSPost2010Prop45
280
     0
102
RTVSPost2010PropOp45
 70
     1
102
RTVSPost2010Prop46
 90
       50
102
RTVSPost2010PropOp46
 70
     1
102
RTVSPost2010Prop47
 90
       50
102
RTVSPost2010PropOp47
 70
     1
102
RTVSPost2010Prop48
 90
       50
102
RTVSPost2010PropOp48
 70
     1
102
RTVSPost2010Prop49
280
     0
102
RTVSPost2010PropOp49
 70
     1
102
RTVSPost2010Prop50
 90
       50
102
RTVSPost2010PropOp50
 70
     1
102
RTVSPost2010Prop51ColorIndex
 90
      256
102
RTVSPost2010Prop51ColorRGB
 90
-16777216
102
RTVSPost2010PropOp51
 70
     0
102
RTVSPost2010Prop52
140
1.0
102
RTVSPost2010PropOp52
 70
     0
102
RTVSPost2010Prop53
 90
        2
102
RTVSPost2010PropOp53
 70
     1
102
RTVSPost2010Prop54
  1
strokes_ogs.tif
102
RTVSPost2010PropOp54
 70
     1
102
RTVSPost2010Prop55
280
     0
102
RTVSPost2010PropOp55
 70
     1
102
RTVSPost2010Prop56
140
1.0
102
RTVSPost2010PropOp56
 70
     1
102
RTVSPost2010Prop57
140
1.0
102
RTVSPost2010PropOp57
 70
     1
102
RTVSPropertyOp0
 70
     1
102
RTVSPropertyOp1
 70
     1
102
RTVSPropertyOp2
 70
     1
102
RTVSPropertyOp3
 70
     1
102
RTVSPropertyOp4
 70
     1
102
RTVSPropertyOp5
 70
     1
102
RTVSPropertyOp6
 70
     1
102
RTVSPropertyOp7
 70
     1
102
RTVSPropertyOp8
 70
     1
102
RTVSPropertyOp9
 70
     1
102
RTVSPropertyOp10
 70
     1
102
RTVSPropertyOp11
 70
     1
102
RTVSPropertyOp12
 70
     1
102
RTVSPropertyOp13
 70
     1
102
RTVSPropertyOp14
 70
     1
102
RTVSPropertyOp15
 70
     1
102
RTVSPropertyOp16
 70
     1
102
RTVSPropertyOp17
 70
     1
102
RTVSPropertyOp18
 70
     1
102
RTVSPropertyOp19
 70
     1
102
RTVSPropertyOp20
 70
     1
102
RTVSPropertyOp21
 70
     1
102
RTVSPropertyOp22
 70
     1
102
RTVSPropertyOp23
 70
     1
102
RTVSPropertyOp24
 70
     1
102
RTVSPropertyOp25
 70
     1
102
RTVSPropertyOp26
 70
     1
102
RTVSPropertyOp27
 70
     1
102
RTVSPropertyOp28
 70
     1
102
RTVSPropertyOp29
 70
     1
102
RTVSPropertyOp30
 70
     1
102
RTVSPropertyOp31
 70
     1
102
RTVSPropertyOp32
 70
     1
102
RTVSPropertyOp33
 70
     1
102
RTVSPropertyOp34
 70
     1
102
RTVSPropertyOp35
 70
     1
102
RTVSPropertyOp36
 70
     1
102
RTVSPropertyOp37
 70
     1
102
RTVSPropertyOp38
 70
     1
102
RTVSPropertyOp39
 70
     1
102
RTVSPropertyOp40
 70
     1
102
RTVSPropertyOp41
 70
     1
102
RTVSPropertyOp42
 70
     1
102
RTVSPropertyOp43
 70
     1
102
RTVSPropertyOp44
 70
     1
102
RTVSPropertyOp45
 70
     1
102
RTVSPropertyOp46
 70
     1
102
RTVSPropertyOp47
 70
     1
102
RTVSPropertyOp48
 70
     1
102
RTVSPropertyOp49
 70
     1
102
RTVSPropertyOp50
 70
     1
102
RTVSPropertyOp51
 70
     0
102
RTVSPropertyOp52
 70
     0
102
RTVSPropertyOp53
 70
     1
102
RTVSPropertyOp54
 70
     1
102
RTVSPropertyOp55
 70
     1
102
RTVSPropertyOp56
 70
     1
102
RTVSPropertyOp57
 70
     1
102
RTVSPropertyOp58
 70
     1
102
RTVSPropertyOp59
 70
     1
102
RTVSPropertyOp60
 70
     1
102
RTVSPropertyOp61
 70
     1
102
RTVSPropertyOp62
 70
     1
  0
XRECORD
  5
84AD
102
{ACAD_REACTORS
330
84AC
102
}
330
84AC
100
AcDbXrecord
280
     1
102
RTVSPost2010Prop28
280
     0
102
RTVSPost2010PropOp28
 70
     1
102
RTVSPost2010Prop29
280
     1
102
RTVSPost2010PropOp29
 70
     1
102
RTVSPost2010Prop30
280
     1
102
RTVSPost2010PropOp30
 70
     1
102
RTVSPost2010Prop31
280
     0
102
RTVSPost2010PropOp31
 70
     1
102
RTVSPost2010Prop32
280
     0
102
RTVSPost2010PropOp32
 70
     1
102
RTVSPost2010Prop33
280
     0
102
RTVSPost2010PropOp33
 70
     1
102
RTVSPost2010Prop34
280
     0
102
RTVSPost2010PropOp34
 70
     1
102
RTVSPost2010Prop35
280
     0
102
RTVSPost2010PropOp35
 70
     1
102
RTVSPost2010Prop36
280
     0
102
RTVSPost2010PropOp36
 70
     1
102
RTVSPost2010Prop37
 90
       50
102
RTVSPost2010PropOp37
 70
     1
102
RTVSPost2010Prop38
140
0.0
102
RTVSPost2010PropOp38
 70
     1
102
RTVSPost2010Prop39
140
1.0
102
RTVSPost2010PropOp39
 70
     1
102
RTVSPost2010Prop40
 90
        0
102
RTVSPost2010PropOp40
 70
     1
102
RTVSPost2010Prop41ColorIndex
 90
       18
102
RTVSPost2010Prop41ColorRGB
 90
        0
102
RTVSPost2010PropOp41
 70
     1
102
RTVSPost2010Prop42
 90
       50
102
RTVSPost2010PropOp42
 70
     1
102
RTVSPost2010Prop43
 90
        3
102
RTVSPost2010PropOp43
 70
     1
102
RTVSPost2010Prop44ColorIndex
 90
        5
102
RTVSPost2010Prop44ColorRGB
 90
      255
102
RTVSPost2010PropOp44
 70
     1
102
RTVSPost2010Prop45
280
     0
102
RTVSPost2010PropOp45
 70
     1
102
RTVSPost2010Prop46
 90
       50
102
RTVSPost2010PropOp46
 70
     1
102
RTVSPost2010Prop47
 90
       50
102
RTVSPost2010PropOp47
 70
     1
102
RTVSPost2010Prop48
 90
       50
102
RTVSPost2010PropOp48
 70
     1
102
RTVSPost2010Prop49
280
     0
102
RTVSPost2010PropOp49
 70
     1
102
RTVSPost2010Prop50
 90
       50
102
RTVSPost2010PropOp50
 70
     1
102
RTVSPost2010Prop51ColorIndex
 90
      256
102
RTVSPost2010Prop51ColorRGB
 90
-16777216
102
RTVSPost2010PropOp51
 70
     0
102
RTVSPost2010Prop52
140
1.0
102
RTVSPost2010PropOp52
 70
     0
102
RTVSPost2010Prop53
 90
        2
102
RTVSPost2010PropOp53
 70
     1
102
RTVSPost2010Prop54
  1
strokes_ogs.tif
102
RTVSPost2010PropOp54
 70
     1
102
RTVSPost2010Prop55
280
     0
102
RTVSPost2010PropOp55
 70
     1
102
RTVSPost2010Prop56
140
1.0
102
RTVSPost2010PropOp56
 70
     1
102
RTVSPost2010Prop57
140
1.0
102
RTVSPost2010PropOp57
 70
     1
102
RTVSPropertyOp0
 70
     1
102
RTVSPropertyOp1
 70
     1
102
RTVSPropertyOp2
 70
     1
102
RTVSPropertyOp3
 70
     1
102
RTVSPropertyOp4
 70
     1
102
RTVSPropertyOp5
 70
     1
102
RTVSPropertyOp6
 70
     1
102
RTVSPropertyOp7
 70
     1
102
RTVSPropertyOp8
 70
     1
102
RTVSPropertyOp9
 70
     1
102
RTVSPropertyOp10
 70
     1
102
RTVSPropertyOp11
 70
     1
102
RTVSPropertyOp12
 70
     1
102
RTVSPropertyOp13
 70
     1
102
RTVSPropertyOp14
 70
     1
102
RTVSPropertyOp15
 70
     1
102
RTVSPropertyOp16
 70
     1
102
RTVSPropertyOp17
 70
     1
102
RTVSPropertyOp18
 70
     1
102
RTVSPropertyOp19
 70
     1
102
RTVSPropertyOp20
 70
     1
102
RTVSPropertyOp21
 70
     1
102
RTVSPropertyOp22
 70
     1
102
RTVSPropertyOp23
 70
     1
102
RTVSPropertyOp24
 70
     1
102
RTVSPropertyOp25
 70
     1
102
RTVSPropertyOp26
 70
     1
102
RTVSPropertyOp27
 70
     1
102
RTVSPropertyOp28
 70
     1
102
RTVSPropertyOp29
 70
     1
102
RTVSPropertyOp30
 70
     1
102
RTVSPropertyOp31
 70
     1
102
RTVSPropertyOp32
 70
     1
102
RTVSPropertyOp33
 70
     1
102
RTVSPropertyOp34
 70
     1
102
RTVSPropertyOp35
 70
     1
102
RTVSPropertyOp36
 70
     1
102
RTVSPropertyOp37
 70
     1
102
RTVSPropertyOp38
 70
     1
102
RTVSPropertyOp39
 70
     1
102
RTVSPropertyOp40
 70
     1
102
RTVSPropertyOp41
 70
     1
102
RTVSPropertyOp42
 70
     1
102
RTVSPropertyOp43
 70
     1
102
RTVSPropertyOp44
 70
     1
102
RTVSPropertyOp45
 70
     1
102
RTVSPropertyOp46
 70
     1
102
RTVSPropertyOp47
 70
     1
102
RTVSPropertyOp48
 70
     1
102
RTVSPropertyOp49
 70
     1
102
RTVSPropertyOp50
 70
     1
102
RTVSPropertyOp51
 70
     0
102
RTVSPropertyOp52
 70
     0
102
RTVSPropertyOp53
 70
     1
102
RTVSPropertyOp54
 70
     1
102
RTVSPropertyOp55
 70
     1
102
RTVSPropertyOp56
 70
     1
102
RTVSPropertyOp57
 70
     1
102
RTVSPropertyOp58
 70
     1
102
RTVSPropertyOp59
 70
     1
102
RTVSPropertyOp60
 70
     1
102
RTVSPropertyOp61
 70
     1
102
RTVSPropertyOp62
 70
     1
  0
XRECORD
  5
84C9
102
{ACAD_REACTORS
330
84C8
102
}
330
84C8
100
AcDbXrecord
280
     1
102
RTVSPost2010Prop28
280
     0
102
RTVSPost2010PropOp28
 70
     1
102
RTVSPost2010Prop29
280
     1
102
RTVSPost2010PropOp29
 70
     1
102
RTVSPost2010Prop30
280
     1
102
RTVSPost2010PropOp30
 70
     1
102
RTVSPost2010Prop31
280
     0
102
RTVSPost2010PropOp31
 70
     1
102
RTVSPost2010Prop32
280
     0
102
RTVSPost2010PropOp32
 70
     1
102
RTVSPost2010Prop33
280
     0
102
RTVSPost2010PropOp33
 70
     1
102
RTVSPost2010Prop34
280
     0
102
RTVSPost2010PropOp34
 70
     1
102
RTVSPost2010Prop35
280
     0
102
RTVSPost2010PropOp35
 70
     1
102
RTVSPost2010Prop36
280
     0
102
RTVSPost2010PropOp36
 70
     1
102
RTVSPost2010Prop37
 90
       50
102
RTVSPost2010PropOp37
 70
     0
102
RTVSPost2010Prop38
140
0.0
102
RTVSPost2010PropOp38
 70
     0
102
RTVSPost2010Prop39
140
1.0
102
RTVSPost2010PropOp39
 70
     0
102
RTVSPost2010Prop40
 90
        0
102
RTVSPost2010PropOp40
 70
     0
102
RTVSPost2010Prop41ColorIndex
 90
       18
102
RTVSPost2010Prop41ColorRGB
 90
        0
102
RTVSPost2010PropOp41
 70
     0
102
RTVSPost2010Prop42
 90
       50
102
RTVSPost2010PropOp42
 70
     0
102
RTVSPost2010Prop43
 90
        3
102
RTVSPost2010PropOp43
 70
     0
102
RTVSPost2010Prop44ColorIndex
 90
        5
102
RTVSPost2010Prop44ColorRGB
 90
      255
102
RTVSPost2010PropOp44
 70
     0
102
RTVSPost2010Prop45
280
     0
102
RTVSPost2010PropOp45
 70
     1
102
RTVSPost2010Prop46
 90
       50
102
RTVSPost2010PropOp46
 70
     0
102
RTVSPost2010Prop47
 90
       50
102
RTVSPost2010PropOp47
 70
     0
102
RTVSPost2010Prop48
 90
       50
102
RTVSPost2010PropOp48
 70
     0
102
RTVSPost2010Prop49
280
     0
102
RTVSPost2010PropOp49
 70
     1
102
RTVSPost2010Prop50
 90
       50
102
RTVSPost2010PropOp50
 70
     0
102
RTVSPost2010Prop51ColorIndex
 90
      256
102
RTVSPost2010Prop51ColorRGB
 90
-16777216
102
RTVSPost2010PropOp51
 70
     0
102
RTVSPost2010Prop52
140
1.0
102
RTVSPost2010PropOp52
 70
     0
102
RTVSPost2010Prop53
 90
        2
102
RTVSPost2010PropOp53
 70
     0
102
RTVSPost2010Prop54
  1
strokes_ogs.tif
102
RTVSPost2010PropOp54
 70
     0
102
RTVSPost2010Prop55
280
     0
102
RTVSPost2010PropOp55
 70
     1
102
RTVSPost2010Prop56
140
1.0
102
RTVSPost2010PropOp56
 70
     0
102
RTVSPost2010Prop57
140
1.0
102
RTVSPost2010PropOp57
 70
     0
102
RTVSPropertyOp0
 70
     0
102
RTVSPropertyOp1
 70
     0
102
RTVSPropertyOp2
 70
     0
102
RTVSPropertyOp3
 70
     0
102
RTVSPropertyOp4
 70
     0
102
RTVSPropertyOp5
 70
     0
102
RTVSPropertyOp6
 70
     0
102
RTVSPropertyOp7
 70
     0
102
RTVSPropertyOp8
 70
     0
102
RTVSPropertyOp9
 70
     0
102
RTVSPropertyOp10
 70
     0
102
RTVSPropertyOp11
 70
     0
102
RTVSPropertyOp12
 70
     0
102
RTVSPropertyOp13
 70
     0
102
RTVSPropertyOp14
 70
     2
102
RTVSPropertyOp15
 70
     0
102
RTVSPropertyOp16
 70
     0
102
RTVSPropertyOp17
 70
     0
102
RTVSPropertyOp18
 70
     0
102
RTVSPropertyOp19
 70
     0
102
RTVSPropertyOp20
 70
     0
102
RTVSPropertyOp21
 70
     0
102
RTVSPropertyOp22
 70
     0
102
RTVSPropertyOp23
 70
     0
102
RTVSPropertyOp24
 70
     0
102
RTVSPropertyOp25
 70
     0
102
RTVSPropertyOp26
 70
     0
102
RTVSPropertyOp27
 70
     0
102
RTVSPropertyOp28
 70
     1
102
RTVSPropertyOp29
 70
     1
102
RTVSPropertyOp30
 70
     1
102
RTVSPropertyOp31
 70
     1
102
RTVSPropertyOp32
 70
     1
102
RTVSPropertyOp33
 70
     1
102
RTVSPropertyOp34
 70
     1
102
RTVSPropertyOp35
 70
     1
102
RTVSPropertyOp36
 70
     1
102
RTVSPropertyOp37
 70
     0
102
RTVSPropertyOp38
 70
     0
102
RTVSPropertyOp39
 70
     0
102
RTVSPropertyOp40
 70
     0
102
RTVSPropertyOp41
 70
     0
102
RTVSPropertyOp42
 70
     0
102
RTVSPropertyOp43
 70
     0
102
RTVSPropertyOp44
 70
     0
102
RTVSPropertyOp45
 70
     1
102
RTVSPropertyOp46
 70
     0
102
RTVSPropertyOp47
 70
     0
102
RTVSPropertyOp48
 70
     0
102
RTVSPropertyOp49
 70
     1
102
RTVSPropertyOp50
 70
     0
102
RTVSPropertyOp51
 70
     0
102
RTVSPropertyOp52
 70
     0
102
RTVSPropertyOp53
 70
     0
102
RTVSPropertyOp54
 70
     0
102
RTVSPropertyOp55
 70
     1
102
RTVSPropertyOp56
 70
     0
102
RTVSPropertyOp57
 70
     0
102
RTVSPropertyOp58
 70
     0
102
RTVSPropertyOp59
 70
     0
102
RTVSPropertyOp60
 70
     0
102
RTVSPropertyOp61
 70
     0
102
RTVSPropertyOp62
 70
     0
  0
XRECORD
  5
84B9
102
{ACAD_REACTORS
330
84B8
102
}
330
84B8
100
AcDbXrecord
280
     1
102
RTVSPost2010Prop28
280
     0
102
RTVSPost2010PropOp28
 70
     1
102
RTVSPost2010Prop29
280
     1
102
RTVSPost2010PropOp29
 70
     1
102
RTVSPost2010Prop30
280
     1
102
RTVSPost2010PropOp30
 70
     1
102
RTVSPost2010Prop31
280
     0
102
RTVSPost2010PropOp31
 70
     1
102
RTVSPost2010Prop32
280
     0
102
RTVSPost2010PropOp32
 70
     1
102
RTVSPost2010Prop33
280
     0
102
RTVSPost2010PropOp33
 70
     1
102
RTVSPost2010Prop34
280
     0
102
RTVSPost2010PropOp34
 70
     1
102
RTVSPost2010Prop35
280
     0
102
RTVSPost2010PropOp35
 70
     1
102
RTVSPost2010Prop36
280
     0
102
RTVSPost2010PropOp36
 70
     1
102
RTVSPost2010Prop37
 90
       50
102
RTVSPost2010PropOp37
 70
     1
102
RTVSPost2010Prop38
140
0.0
102
RTVSPost2010PropOp38
 70
     1
102
RTVSPost2010Prop39
140
1.0
102
RTVSPost2010PropOp39
 70
     1
102
RTVSPost2010Prop40
 90
        0
102
RTVSPost2010PropOp40
 70
     1
102
RTVSPost2010Prop41ColorIndex
 90
       18
102
RTVSPost2010Prop41ColorRGB
 90
        0
102
RTVSPost2010PropOp41
 70
     1
102
RTVSPost2010Prop42
 90
       50
102
RTVSPost2010PropOp42
 70
     1
102
RTVSPost2010Prop43
 90
        3
102
RTVSPost2010PropOp43
 70
     1
102
RTVSPost2010Prop44ColorIndex
 90
        5
102
RTVSPost2010Prop44ColorRGB
 90
      255
102
RTVSPost2010PropOp44
 70
     1
102
RTVSPost2010Prop45
280
     0
102
RTVSPost2010PropOp45
 70
     1
102
RTVSPost2010Prop46
 90
       50
102
RTVSPost2010PropOp46
 70
     1
102
RTVSPost2010Prop47
 90
       50
102
RTVSPost2010PropOp47
 70
     1
102
RTVSPost2010Prop48
 90
       50
102
RTVSPost2010PropOp48
 70
     1
102
RTVSPost2010Prop49
280
     0
102
RTVSPost2010PropOp49
 70
     1
102
RTVSPost2010Prop50
 90
       50
102
RTVSPost2010PropOp50
 70
     1
102
RTVSPost2010Prop51ColorIndex
 90
      256
102
RTVSPost2010Prop51ColorRGB
 90
-16777216
102
RTVSPost2010PropOp51
 70
     0
102
RTVSPost2010Prop52
140
1.0
102
RTVSPost2010PropOp52
 70
     0
102
RTVSPost2010Prop53
 90
        2
102
RTVSPost2010PropOp53
 70
     1
102
RTVSPost2010Prop54
  1
strokes_ogs.tif
102
RTVSPost2010PropOp54
 70
     1
102
RTVSPost2010Prop55
280
     0
102
RTVSPost2010PropOp55
 70
     1
102
RTVSPost2010Prop56
140
1.0
102
RTVSPost2010PropOp56
 70
     1
102
RTVSPost2010Prop57
140
1.0
102
RTVSPost2010PropOp57
 70
     1
102
RTVSPropertyOp0
 70
     1
102
RTVSPropertyOp1
 70
     1
102
RTVSPropertyOp2
 70
     1
102
RTVSPropertyOp3
 70
     1
102
RTVSPropertyOp4
 70
     1
102
RTVSPropertyOp5
 70
     1
102
RTVSPropertyOp6
 70
     1
102
RTVSPropertyOp7
 70
     1
102
RTVSPropertyOp8
 70
     1
102
RTVSPropertyOp9
 70
     1
102
RTVSPropertyOp10
 70
     1
102
RTVSPropertyOp11
 70
     1
102
RTVSPropertyOp12
 70
     1
102
RTVSPropertyOp13
 70
     1
102
RTVSPropertyOp14
 70
     1
102
RTVSPropertyOp15
 70
     1
102
RTVSPropertyOp16
 70
     1
102
RTVSPropertyOp17
 70
     1
102
RTVSPropertyOp18
 70
     1
102
RTVSPropertyOp19
 70
     1
102
RTVSPropertyOp20
 70
     1
102
RTVSPropertyOp21
 70
     1
102
RTVSPropertyOp22
 70
     1
102
RTVSPropertyOp23
 70
     1
102
RTVSPropertyOp24
 70
     1
102
RTVSPropertyOp25
 70
     1
102
RTVSPropertyOp26
 70
     1
102
RTVSPropertyOp27
 70
     1
102
RTVSPropertyOp28
 70
     1
102
RTVSPropertyOp29
 70
     1
102
RTVSPropertyOp30
 70
     1
102
RTVSPropertyOp31
 70
     1
102
RTVSPropertyOp32
 70
     1
102
RTVSPropertyOp33
 70
     1
102
RTVSPropertyOp34
 70
     1
102
RTVSPropertyOp35
 70
     1
102
RTVSPropertyOp36
 70
     1
102
RTVSPropertyOp37
 70
     1
102
RTVSPropertyOp38
 70
     1
102
RTVSPropertyOp39
 70
     1
102
RTVSPropertyOp40
 70
     1
102
RTVSPropertyOp41
 70
     1
102
RTVSPropertyOp42
 70
     1
102
RTVSPropertyOp43
 70
     1
102
RTVSPropertyOp44
 70
     1
102
RTVSPropertyOp45
 70
     1
102
RTVSPropertyOp46
 70
     1
102
RTVSPropertyOp47
 70
     1
102
RTVSPropertyOp48
 70
     1
102
RTVSPropertyOp49
 70
     1
102
RTVSPropertyOp50
 70
     1
102
RTVSPropertyOp51
 70
     0
102
RTVSPropertyOp52
 70
     0
102
RTVSPropertyOp53
 70
     1
102
RTVSPropertyOp54
 70
     1
102
RTVSPropertyOp55
 70
     1
102
RTVSPropertyOp56
 70
     1
102
RTVSPropertyOp57
 70
     1
102
RTVSPropertyOp58
 70
     1
102
RTVSPropertyOp59
 70
     1
102
RTVSPropertyOp60
 70
     1
102
RTVSPropertyOp61
 70
     1
102
RTVSPropertyOp62
 70
     1
  0
XRECORD
  5
84CB
102
{ACAD_REACTORS
330
84CA
102
}
330
84CA
100
AcDbXrecord
280
     1
102
RTVSPost2010Prop28
280
     0
102
RTVSPost2010PropOp28
 70
     1
102
RTVSPost2010Prop29
280
     1
102
RTVSPost2010PropOp29
 70
     1
102
RTVSPost2010Prop30
280
     1
102
RTVSPost2010PropOp30
 70
     1
102
RTVSPost2010Prop31
280
     0
102
RTVSPost2010PropOp31
 70
     1
102
RTVSPost2010Prop32
280
     0
102
RTVSPost2010PropOp32
 70
     1
102
RTVSPost2010Prop33
280
     0
102
RTVSPost2010PropOp33
 70
     1
102
RTVSPost2010Prop34
280
     0
102
RTVSPost2010PropOp34
 70
     1
102
RTVSPost2010Prop35
280
     0
102
RTVSPost2010PropOp35
 70
     1
102
RTVSPost2010Prop36
280
     0
102
RTVSPost2010PropOp36
 70
     1
102
RTVSPost2010Prop37
 90
       50
102
RTVSPost2010PropOp37
 70
     0
102
RTVSPost2010Prop38
140
0.0
102
RTVSPost2010PropOp38
 70
     0
102
RTVSPost2010Prop39
140
1.0
102
RTVSPost2010PropOp39
 70
     0
102
RTVSPost2010Prop40
 90
        0
102
RTVSPost2010PropOp40
 70
     0
102
RTVSPost2010Prop41ColorIndex
 90
       18
102
RTVSPost2010Prop41ColorRGB
 90
        0
102
RTVSPost2010PropOp41
 70
     0
102
RTVSPost2010Prop42
 90
       50
102
RTVSPost2010PropOp42
 70
     0
102
RTVSPost2010Prop43
 90
        3
102
RTVSPost2010PropOp43
 70
     0
102
RTVSPost2010Prop44ColorIndex
 90
        5
102
RTVSPost2010Prop44ColorRGB
 90
      255
102
RTVSPost2010PropOp44
 70
     0
102
RTVSPost2010Prop45
280
     0
102
RTVSPost2010PropOp45
 70
     1
102
RTVSPost2010Prop46
 90
       50
102
RTVSPost2010PropOp46
 70
     0
102
RTVSPost2010Prop47
 90
       50
102
RTVSPost2010PropOp47
 70
     0
102
RTVSPost2010Prop48
 90
       50
102
RTVSPost2010PropOp48
 70
     0
102
RTVSPost2010Prop49
280
     0
102
RTVSPost2010PropOp49
 70
     1
102
RTVSPost2010Prop50
 90
       50
102
RTVSPost2010PropOp50
 70
     0
102
RTVSPost2010Prop51ColorIndex
 90
      256
102
RTVSPost2010Prop51ColorRGB
 90
-16777216
102
RTVSPost2010PropOp51
 70
     0
102
RTVSPost2010Prop52
140
1.0
102
RTVSPost2010PropOp52
 70
     0
102
RTVSPost2010Prop53
 90
        2
102
RTVSPost2010PropOp53
 70
     0
102
RTVSPost2010Prop54
  1
strokes_ogs.tif
102
RTVSPost2010PropOp54
 70
     0
102
RTVSPost2010Prop55
280
     0
102
RTVSPost2010PropOp55
 70
     1
102
RTVSPost2010Prop56
140
1.0
102
RTVSPost2010PropOp56
 70
     0
102
RTVSPost2010Prop57
140
1.0
102
RTVSPost2010PropOp57
 70
     0
102
RTVSPropertyOp0
 70
     0
102
RTVSPropertyOp1
 70
     0
102
RTVSPropertyOp2
 70
     0
102
RTVSPropertyOp3
 70
     0
102
RTVSPropertyOp4
 70
     0
102
RTVSPropertyOp5
 70
     0
102
RTVSPropertyOp6
 70
     0
102
RTVSPropertyOp7
 70
     0
102
RTVSPropertyOp8
 70
     0
102
RTVSPropertyOp9
 70
     0
102
RTVSPropertyOp10
 70
     0
102
RTVSPropertyOp11
 70
     0
102
RTVSPropertyOp12
 70
     0
102
RTVSPropertyOp13
 70
     0
102
RTVSPropertyOp14
 70
     2
102
RTVSPropertyOp15
 70
     0
102
RTVSPropertyOp16
 70
     0
102
RTVSPropertyOp17
 70
     0
102
RTVSPropertyOp18
 70
     0
102
RTVSPropertyOp19
 70
     0
102
RTVSPropertyOp20
 70
     0
102
RTVSPropertyOp21
 70
     0
102
RTVSPropertyOp22
 70
     0
102
RTVSPropertyOp23
 70
     0
102
RTVSPropertyOp24
 70
     0
102
RTVSPropertyOp25
 70
     0
102
RTVSPropertyOp26
 70
     0
102
RTVSPropertyOp27
 70
     0
102
RTVSPropertyOp28
 70
     1
102
RTVSPropertyOp29
 70
     1
102
RTVSPropertyOp30
 70
     1
102
RTVSPropertyOp31
 70
     1
102
RTVSPropertyOp32
 70
     1
102
RTVSPropertyOp33
 70
     1
102
RTVSPropertyOp34
 70
     1
102
RTVSPropertyOp35
 70
     1
102
RTVSPropertyOp36
 70
     1
102
RTVSPropertyOp37
 70
     0
102
RTVSPropertyOp38
 70
     0
102
RTVSPropertyOp39
 70
     0
102
RTVSPropertyOp40
 70
     0
102
RTVSPropertyOp41
 70
     0
102
RTVSPropertyOp42
 70
     0
102
RTVSPropertyOp43
 70
     0
102
RTVSPropertyOp44
 70
     0
102
RTVSPropertyOp45
 70
     1
102
RTVSPropertyOp46
 70
     0
102
RTVSPropertyOp47
 70
     0
102
RTVSPropertyOp48
 70
     0
102
RTVSPropertyOp49
 70
     1
102
RTVSPropertyOp50
 70
     0
102
RTVSPropertyOp51
 70
     0
102
RTVSPropertyOp52
 70
     0
102
RTVSPropertyOp53
 70
     0
102
RTVSPropertyOp54
 70
     0
102
RTVSPropertyOp55
 70
     1
102
RTVSPropertyOp56
 70
     0
102
RTVSPropertyOp57
 70
     0
102
RTVSPropertyOp58
 70
     0
102
RTVSPropertyOp59
 70
     0
102
RTVSPropertyOp60
 70
     0
102
RTVSPropertyOp61
 70
     0
102
RTVSPropertyOp62
 70
     0
  0
XRECORD
  5
84B1
102
{ACAD_REACTORS
330
84B0
102
}
330
84B0
100
AcDbXrecord
280
     1
102
RTVSPost2010Prop28
280
     0
102
RTVSPost2010PropOp28
 70
     1
102
RTVSPost2010Prop29
280
     1
102
RTVSPost2010PropOp29
 70
     1
102
RTVSPost2010Prop30
280
     1
102
RTVSPost2010PropOp30
 70
     1
102
RTVSPost2010Prop31
280
     0
102
RTVSPost2010PropOp31
 70
     1
102
RTVSPost2010Prop32
280
     0
102
RTVSPost2010PropOp32
 70
     1
102
RTVSPost2010Prop33
280
     0
102
RTVSPost2010PropOp33
 70
     1
102
RTVSPost2010Prop34
280
     0
102
RTVSPost2010PropOp34
 70
     1
102
RTVSPost2010Prop35
280
     0
102
RTVSPost2010PropOp35
 70
     1
102
RTVSPost2010Prop36
280
     0
102
RTVSPost2010PropOp36
 70
     1
102
RTVSPost2010Prop37
 90
       50
102
RTVSPost2010PropOp37
 70
     1
102
RTVSPost2010Prop38
140
0.0
102
RTVSPost2010PropOp38
 70
     1
102
RTVSPost2010Prop39
140
1.0
102
RTVSPost2010PropOp39
 70
     1
102
RTVSPost2010Prop40
 90
        0
102
RTVSPost2010PropOp40
 70
     1
102
RTVSPost2010Prop41ColorIndex
 90
       18
102
RTVSPost2010Prop41ColorRGB
 90
        0
102
RTVSPost2010PropOp41
 70
     1
102
RTVSPost2010Prop42
 90
       50
102
RTVSPost2010PropOp42
 70
     1
102
RTVSPost2010Prop43
 90
        3
102
RTVSPost2010PropOp43
 70
     1
102
RTVSPost2010Prop44ColorIndex
 90
        5
102
RTVSPost2010Prop44ColorRGB
 90
      255
102
RTVSPost2010PropOp44
 70
     1
102
RTVSPost2010Prop45
280
     0
102
RTVSPost2010PropOp45
 70
     1
102
RTVSPost2010Prop46
 90
       50
102
RTVSPost2010PropOp46
 70
     1
102
RTVSPost2010Prop47
 90
       50
102
RTVSPost2010PropOp47
 70
     1
102
RTVSPost2010Prop48
 90
       50
102
RTVSPost2010PropOp48
 70
     1
102
RTVSPost2010Prop49
280
     0
102
RTVSPost2010PropOp49
 70
     1
102
RTVSPost2010Prop50
 90
       50
102
RTVSPost2010PropOp50
 70
     1
102
RTVSPost2010Prop51ColorIndex
 90
      256
102
RTVSPost2010Prop51ColorRGB
 90
-16777216
102
RTVSPost2010PropOp51
 70
     0
102
RTVSPost2010Prop52
140
1.0
102
RTVSPost2010PropOp52
 70
     0
102
RTVSPost2010Prop53
 90
        2
102
RTVSPost2010PropOp53
 70
     1
102
RTVSPost2010Prop54
  1
strokes_ogs.tif
102
RTVSPost2010PropOp54
 70
     1
102
RTVSPost2010Prop55
280
     0
102
RTVSPost2010PropOp55
 70
     1
102
RTVSPost2010Prop56
140
1.0
102
RTVSPost2010PropOp56
 70
     1
102
RTVSPost2010Prop57
140
1.0
102
RTVSPost2010PropOp57
 70
     1
102
RTVSPropertyOp0
 70
     1
102
RTVSPropertyOp1
 70
     1
102
RTVSPropertyOp2
 70
     1
102
RTVSPropertyOp3
 70
     1
102
RTVSPropertyOp4
 70
     1
102
RTVSPropertyOp5
 70
     1
102
RTVSPropertyOp6
 70
     1
102
RTVSPropertyOp7
 70
     1
102
RTVSPropertyOp8
 70
     1
102
RTVSPropertyOp9
 70
     1
102
RTVSPropertyOp10
 70
     1
102
RTVSPropertyOp11
 70
     1
102
RTVSPropertyOp12
 70
     1
102
RTVSPropertyOp13
 70
     1
102
RTVSPropertyOp14
 70
     1
102
RTVSPropertyOp15
 70
     1
102
RTVSPropertyOp16
 70
     1
102
RTVSPropertyOp17
 70
     1
102
RTVSPropertyOp18
 70
     1
102
RTVSPropertyOp19
 70
     1
102
RTVSPropertyOp20
 70
     1
102
RTVSPropertyOp21
 70
     1
102
RTVSPropertyOp22
 70
     1
102
RTVSPropertyOp23
 70
     1
102
RTVSPropertyOp24
 70
     1
102
RTVSPropertyOp25
 70
     1
102
RTVSPropertyOp26
 70
     1
102
RTVSPropertyOp27
 70
     1
102
RTVSPropertyOp28
 70
     1
102
RTVSPropertyOp29
 70
     1
102
RTVSPropertyOp30
 70
     1
102
RTVSPropertyOp31
 70
     1
102
RTVSPropertyOp32
 70
     1
102
RTVSPropertyOp33
 70
     1
102
RTVSPropertyOp34
 70
     1
102
RTVSPropertyOp35
 70
     1
102
RTVSPropertyOp36
 70
     1
102
RTVSPropertyOp37
 70
     1
102
RTVSPropertyOp38
 70
     1
102
RTVSPropertyOp39
 70
     1
102
RTVSPropertyOp40
 70
     1
102
RTVSPropertyOp41
 70
     1
102
RTVSPropertyOp42
 70
     1
102
RTVSPropertyOp43
 70
     1
102
RTVSPropertyOp44
 70
     1
102
RTVSPropertyOp45
 70
     1
102
RTVSPropertyOp46
 70
     1
102
RTVSPropertyOp47
 70
     1
102
RTVSPropertyOp48
 70
     1
102
RTVSPropertyOp49
 70
     1
102
RTVSPropertyOp50
 70
     1
102
RTVSPropertyOp51
 70
     0
102
RTVSPropertyOp52
 70
     0
102
RTVSPropertyOp53
 70
     1
102
RTVSPropertyOp54
 70
     1
102
RTVSPropertyOp55
 70
     1
102
RTVSPropertyOp56
 70
     1
102
RTVSPropertyOp57
 70
     1
102
RTVSPropertyOp58
 70
     1
102
RTVSPropertyOp59
 70
     1
102
RTVSPropertyOp60
 70
     1
102
RTVSPropertyOp61
 70
     1
102
RTVSPropertyOp62
 70
     1
  0
XRECORD
  5
84C7
102
{ACAD_REACTORS
330
84C6
102
}
330
84C6
100
AcDbXrecord
280
     1
102
RTVSPost2010Prop28
280
     0
102
RTVSPost2010PropOp28
 70
     1
102
RTVSPost2010Prop29
280
     1
102
RTVSPost2010PropOp29
 70
     1
102
RTVSPost2010Prop30
280
     1
102
RTVSPost2010PropOp30
 70
     1
102
RTVSPost2010Prop31
280
     0
102
RTVSPost2010PropOp31
 70
     1
102
RTVSPost2010Prop32
280
     0
102
RTVSPost2010PropOp32
 70
     1
102
RTVSPost2010Prop33
280
     0
102
RTVSPost2010PropOp33
 70
     1
102
RTVSPost2010Prop34
280
     0
102
RTVSPost2010PropOp34
 70
     1
102
RTVSPost2010Prop35
280
     0
102
RTVSPost2010PropOp35
 70
     1
102
RTVSPost2010Prop36
280
     0
102
RTVSPost2010PropOp36
 70
     1
102
RTVSPost2010Prop37
 90
       50
102
RTVSPost2010PropOp37
 70
     1
102
RTVSPost2010Prop38
140
0.0
102
RTVSPost2010PropOp38
 70
     1
102
RTVSPost2010Prop39
140
1.0
102
RTVSPost2010PropOp39
 70
     1
102
RTVSPost2010Prop40
 90
        0
102
RTVSPost2010PropOp40
 70
     1
102
RTVSPost2010Prop41ColorIndex
 90
       18
102
RTVSPost2010Prop41ColorRGB
 90
        0
102
RTVSPost2010PropOp41
 70
     1
102
RTVSPost2010Prop42
 90
       50
102
RTVSPost2010PropOp42
 70
     1
102
RTVSPost2010Prop43
 90
        3
102
RTVSPost2010PropOp43
 70
     1
102
RTVSPost2010Prop44ColorIndex
 90
        5
102
RTVSPost2010Prop44ColorRGB
 90
      255
102
RTVSPost2010PropOp44
 70
     1
102
RTVSPost2010Prop45
280
     0
102
RTVSPost2010PropOp45
 70
     1
102
RTVSPost2010Prop46
 90
       50
102
RTVSPost2010PropOp46
 70
     1
102
RTVSPost2010Prop47
 90
       50
102
RTVSPost2010PropOp47
 70
     1
102
RTVSPost2010Prop48
 90
       50
102
RTVSPost2010PropOp48
 70
     1
102
RTVSPost2010Prop49
280
     0
102
RTVSPost2010PropOp49
 70
     1
102
RTVSPost2010Prop50
 90
       50
102
RTVSPost2010PropOp50
 70
     1
102
RTVSPost2010Prop51ColorIndex
 90
      256
102
RTVSPost2010Prop51ColorRGB
 90
-16777216
102
RTVSPost2010PropOp51
 70
     0
102
RTVSPost2010Prop52
140
1.0
102
RTVSPost2010PropOp52
 70
     0
102
RTVSPost2010Prop53
 90
        2
102
RTVSPost2010PropOp53
 70
     1
102
RTVSPost2010Prop54
  1
strokes_ogs.tif
102
RTVSPost2010PropOp54
 70
     1
102
RTVSPost2010Prop55
280
     0
102
RTVSPost2010PropOp55
 70
     1
102
RTVSPost2010Prop56
140
1.0
102
RTVSPost2010PropOp56
 70
     1
102
RTVSPost2010Prop57
140
1.0
102
RTVSPost2010PropOp57
 70
     1
102
RTVSPropertyOp0
 70
     1
102
RTVSPropertyOp1
 70
     1
102
RTVSPropertyOp2
 70
     1
102
RTVSPropertyOp3
 70
     1
102
RTVSPropertyOp4
 70
     1
102
RTVSPropertyOp5
 70
     1
102
RTVSPropertyOp6
 70
     1
102
RTVSPropertyOp7
 70
     1
102
RTVSPropertyOp8
 70
     1
102
RTVSPropertyOp9
 70
     1
102
RTVSPropertyOp10
 70
     1
102
RTVSPropertyOp11
 70
     1
102
RTVSPropertyOp12
 70
     1
102
RTVSPropertyOp13
 70
     1
102
RTVSPropertyOp14
 70
     1
102
RTVSPropertyOp15
 70
     1
102
RTVSPropertyOp16
 70
     1
102
RTVSPropertyOp17
 70
     1
102
RTVSPropertyOp18
 70
     1
102
RTVSPropertyOp19
 70
     1
102
RTVSPropertyOp20
 70
     1
102
RTVSPropertyOp21
 70
     1
102
RTVSPropertyOp22
 70
     1
102
RTVSPropertyOp23
 70
     1
102
RTVSPropertyOp24
 70
     1
102
RTVSPropertyOp25
 70
     1
102
RTVSPropertyOp26
 70
     1
102
RTVSPropertyOp27
 70
     1
102
RTVSPropertyOp28
 70
     1
102
RTVSPropertyOp29
 70
     1
102
RTVSPropertyOp30
 70
     1
102
RTVSPropertyOp31
 70
     1
102
RTVSPropertyOp32
 70
     1
102
RTVSPropertyOp33
 70
     1
102
RTVSPropertyOp34
 70
     1
102
RTVSPropertyOp35
 70
     1
102
RTVSPropertyOp36
 70
     1
102
RTVSPropertyOp37
 70
     1
102
RTVSPropertyOp38
 70
     1
102
RTVSPropertyOp39
 70
     1
102
RTVSPropertyOp40
 70
     1
102
RTVSPropertyOp41
 70
     1
102
RTVSPropertyOp42
 70
     1
102
RTVSPropertyOp43
 70
     1
102
RTVSPropertyOp44
 70
     1
102
RTVSPropertyOp45
 70
     1
102
RTVSPropertyOp46
 70
     1
102
RTVSPropertyOp47
 70
     1
102
RTVSPropertyOp48
 70
     1
102
RTVSPropertyOp49
 70
     1
102
RTVSPropertyOp50
 70
     1
102
RTVSPropertyOp51
 70
     0
102
RTVSPropertyOp52
 70
     0
102
RTVSPropertyOp53
 70
     1
102
RTVSPropertyOp54
 70
     1
102
RTVSPropertyOp55
 70
     1
102
RTVSPropertyOp56
 70
     1
102
RTVSPropertyOp57
 70
     1
102
RTVSPropertyOp58
 70
     1
102
RTVSPropertyOp59
 70
     1
102
RTVSPropertyOp60
 70
     1
102
RTVSPropertyOp61
 70
     1
102
RTVSPropertyOp62
 70
     1
  0
XRECORD
  5
84C5
102
{ACAD_REACTORS
330
84C4
102
}
330
84C4
100
AcDbXrecord
280
     1
102
RTVSPost2010Prop28
280
     0
102
RTVSPost2010PropOp28
 70
     1
102
RTVSPost2010Prop29
280
     1
102
RTVSPost2010PropOp29
 70
     1
102
RTVSPost2010Prop30
280
     1
102
RTVSPost2010PropOp30
 70
     1
102
RTVSPost2010Prop31
280
     0
102
RTVSPost2010PropOp31
 70
     1
102
RTVSPost2010Prop32
280
     0
102
RTVSPost2010PropOp32
 70
     1
102
RTVSPost2010Prop33
280
     0
102
RTVSPost2010PropOp33
 70
     1
102
RTVSPost2010Prop34
280
     0
102
RTVSPost2010PropOp34
 70
     1
102
RTVSPost2010Prop35
280
     0
102
RTVSPost2010PropOp35
 70
     1
102
RTVSPost2010Prop36
280
     0
102
RTVSPost2010PropOp36
 70
     1
102
RTVSPost2010Prop37
 90
       50
102
RTVSPost2010PropOp37
 70
     1
102
RTVSPost2010Prop38
140
0.0
102
RTVSPost2010PropOp38
 70
     1
102
RTVSPost2010Prop39
140
1.0
102
RTVSPost2010PropOp39
 70
     1
102
RTVSPost2010Prop40
 90
        0
102
RTVSPost2010PropOp40
 70
     1
102
RTVSPost2010Prop41ColorIndex
 90
       18
102
RTVSPost2010Prop41ColorRGB
 90
        0
102
RTVSPost2010PropOp41
 70
     1
102
RTVSPost2010Prop42
 90
       50
102
RTVSPost2010PropOp42
 70
     1
102
RTVSPost2010Prop43
 90
        3
102
RTVSPost2010PropOp43
 70
     1
102
RTVSPost2010Prop44ColorIndex
 90
        5
102
RTVSPost2010Prop44ColorRGB
 90
      255
102
RTVSPost2010PropOp44
 70
     1
102
RTVSPost2010Prop45
280
     0
102
RTVSPost2010PropOp45
 70
     1
102
RTVSPost2010Prop46
 90
       50
102
RTVSPost2010PropOp46
 70
     1
102
RTVSPost2010Prop47
 90
       50
102
RTVSPost2010PropOp47
 70
     1
102
RTVSPost2010Prop48
 90
       50
102
RTVSPost2010PropOp48
 70
     1
102
RTVSPost2010Prop49
280
     0
102
RTVSPost2010PropOp49
 70
     1
102
RTVSPost2010Prop50
 90
       50
102
RTVSPost2010PropOp50
 70
     1
102
RTVSPost2010Prop51ColorIndex
 90
      256
102
RTVSPost2010Prop51ColorRGB
 90
-16777216
102
RTVSPost2010PropOp51
 70
     0
102
RTVSPost2010Prop52
140
1.0
102
RTVSPost2010PropOp52
 70
     0
102
RTVSPost2010Prop53
 90
        2
102
RTVSPost2010PropOp53
 70
     1
102
RTVSPost2010Prop54
  1
strokes_ogs.tif
102
RTVSPost2010PropOp54
 70
     1
102
RTVSPost2010Prop55
280
     0
102
RTVSPost2010PropOp55
 70
     1
102
RTVSPost2010Prop56
140
1.0
102
RTVSPost2010PropOp56
 70
     1
102
RTVSPost2010Prop57
140
1.0
102
RTVSPost2010PropOp57
 70
     1
102
RTVSPropertyOp0
 70
     1
102
RTVSPropertyOp1
 70
     1
102
RTVSPropertyOp2
 70
     1
102
RTVSPropertyOp3
 70
     1
102
RTVSPropertyOp4
 70
     1
102
RTVSPropertyOp5
 70
     1
102
RTVSPropertyOp6
 70
     1
102
RTVSPropertyOp7
 70
     1
102
RTVSPropertyOp8
 70
     1
102
RTVSPropertyOp9
 70
     1
102
RTVSPropertyOp10
 70
     1
102
RTVSPropertyOp11
 70
     1
102
RTVSPropertyOp12
 70
     1
102
RTVSPropertyOp13
 70
     1
102
RTVSPropertyOp14
 70
     1
102
RTVSPropertyOp15
 70
     1
102
RTVSPropertyOp16
 70
     1
102
RTVSPropertyOp17
 70
     1
102
RTVSPropertyOp18
 70
     1
102
RTVSPropertyOp19
 70
     1
102
RTVSPropertyOp20
 70
     1
102
RTVSPropertyOp21
 70
     1
102
RTVSPropertyOp22
 70
     1
102
RTVSPropertyOp23
 70
     1
102
RTVSPropertyOp24
 70
     1
102
RTVSPropertyOp25
 70
     1
102
RTVSPropertyOp26
 70
     1
102
RTVSPropertyOp27
 70
     1
102
RTVSPropertyOp28
 70
     1
102
RTVSPropertyOp29
 70
     1
102
RTVSPropertyOp30
 70
     1
102
RTVSPropertyOp31
 70
     1
102
RTVSPropertyOp32
 70
     1
102
RTVSPropertyOp33
 70
     1
102
RTVSPropertyOp34
 70
     1
102
RTVSPropertyOp35
 70
     1
102
RTVSPropertyOp36
 70
     1
102
RTVSPropertyOp37
 70
     1
102
RTVSPropertyOp38
 70
     1
102
RTVSPropertyOp39
 70
     1
102
RTVSPropertyOp40
 70
     1
102
RTVSPropertyOp41
 70
     1
102
RTVSPropertyOp42
 70
     1
102
RTVSPropertyOp43
 70
     1
102
RTVSPropertyOp44
 70
     1
102
RTVSPropertyOp45
 70
     1
102
RTVSPropertyOp46
 70
     1
102
RTVSPropertyOp47
 70
     1
102
RTVSPropertyOp48
 70
     1
102
RTVSPropertyOp49
 70
     1
102
RTVSPropertyOp50
 70
     1
102
RTVSPropertyOp51
 70
     0
102
RTVSPropertyOp52
 70
     0
102
RTVSPropertyOp53
 70
     1
102
RTVSPropertyOp54
 70
     1
102
RTVSPropertyOp55
 70
     1
102
RTVSPropertyOp56
 70
     1
102
RTVSPropertyOp57
 70
     1
102
RTVSPropertyOp58
 70
     1
102
RTVSPropertyOp59
 70
     1
102
RTVSPropertyOp60
 70
     1
102
RTVSPropertyOp61
 70
     1
102
RTVSPropertyOp62
 70
     1
  0
XRECORD
  5
84BF
102
{ACAD_REACTORS
330
84BE
102
}
330
84BE
100
AcDbXrecord
280
     1
102
RTVSPost2010Prop28
280
     0
102
RTVSPost2010PropOp28
 70
     1
102
RTVSPost2010Prop29
280
     1
102
RTVSPost2010PropOp29
 70
     1
102
RTVSPost2010Prop30
280
     1
102
RTVSPost2010PropOp30
 70
     1
102
RTVSPost2010Prop31
280
     0
102
RTVSPost2010PropOp31
 70
     1
102
RTVSPost2010Prop32
280
     0
102
RTVSPost2010PropOp32
 70
     1
102
RTVSPost2010Prop33
280
     0
102
RTVSPost2010PropOp33
 70
     1
102
RTVSPost2010Prop34
280
     0
102
RTVSPost2010PropOp34
 70
     1
102
RTVSPost2010Prop35
280
     0
102
RTVSPost2010PropOp35
 70
     1
102
RTVSPost2010Prop36
280
     0
102
RTVSPost2010PropOp36
 70
     1
102
RTVSPost2010Prop37
 90
       50
102
RTVSPost2010PropOp37
 70
     1
102
RTVSPost2010Prop38
140
0.0
102
RTVSPost2010PropOp38
 70
     1
102
RTVSPost2010Prop39
140
1.0
102
RTVSPost2010PropOp39
 70
     1
102
RTVSPost2010Prop40
 90
        0
102
RTVSPost2010PropOp40
 70
     1
102
RTVSPost2010Prop41ColorIndex
 90
       18
102
RTVSPost2010Prop41ColorRGB
 90
        0
102
RTVSPost2010PropOp41
 70
     1
102
RTVSPost2010Prop42
 90
       50
102
RTVSPost2010PropOp42
 70
     1
102
RTVSPost2010Prop43
 90
        3
102
RTVSPost2010PropOp43
 70
     1
102
RTVSPost2010Prop44ColorIndex
 90
        5
102
RTVSPost2010Prop44ColorRGB
 90
      255
102
RTVSPost2010PropOp44
 70
     1
102
RTVSPost2010Prop45
280
     0
102
RTVSPost2010PropOp45
 70
     1
102
RTVSPost2010Prop46
 90
       50
102
RTVSPost2010PropOp46
 70
     1
102
RTVSPost2010Prop47
 90
       50
102
RTVSPost2010PropOp47
 70
     1
102
RTVSPost2010Prop48
 90
       50
102
RTVSPost2010PropOp48
 70
     1
102
RTVSPost2010Prop49
280
     0
102
RTVSPost2010PropOp49
 70
     1
102
RTVSPost2010Prop50
 90
       50
102
RTVSPost2010PropOp50
 70
     1
102
RTVSPost2010Prop51ColorIndex
 90
      256
102
RTVSPost2010Prop51ColorRGB
 90
-16777216
102
RTVSPost2010PropOp51
 70
     0
102
RTVSPost2010Prop52
140
1.0
102
RTVSPost2010PropOp52
 70
     0
102
RTVSPost2010Prop53
 90
        2
102
RTVSPost2010PropOp53
 70
     1
102
RTVSPost2010Prop54
  1
strokes_ogs.tif
102
RTVSPost2010PropOp54
 70
     1
102
RTVSPost2010Prop55
280
     0
102
RTVSPost2010PropOp55
 70
     1
102
RTVSPost2010Prop56
140
1.0
102
RTVSPost2010PropOp56
 70
     1
102
RTVSPost2010Prop57
140
1.0
102
RTVSPost2010PropOp57
 70
     1
102
RTVSPropertyOp0
 70
     1
102
RTVSPropertyOp1
 70
     1
102
RTVSPropertyOp2
 70
     1
102
RTVSPropertyOp3
 70
     1
102
RTVSPropertyOp4
 70
     1
102
RTVSPropertyOp5
 70
     1
102
RTVSPropertyOp6
 70
     1
102
RTVSPropertyOp7
 70
     1
102
RTVSPropertyOp8
 70
     1
102
RTVSPropertyOp9
 70
     1
102
RTVSPropertyOp10
 70
     1
102
RTVSPropertyOp11
 70
     1
102
RTVSPropertyOp12
 70
     1
102
RTVSPropertyOp13
 70
     1
102
RTVSPropertyOp14
 70
     1
102
RTVSPropertyOp15
 70
     1
102
RTVSPropertyOp16
 70
     1
102
RTVSPropertyOp17
 70
     1
102
RTVSPropertyOp18
 70
     1
102
RTVSPropertyOp19
 70
     1
102
RTVSPropertyOp20
 70
     1
102
RTVSPropertyOp21
 70
     1
102
RTVSPropertyOp22
 70
     1
102
RTVSPropertyOp23
 70
     1
102
RTVSPropertyOp24
 70
     1
102
RTVSPropertyOp25
 70
     1
102
RTVSPropertyOp26
 70
     1
102
RTVSPropertyOp27
 70
     1
102
RTVSPropertyOp28
 70
     1
102
RTVSPropertyOp29
 70
     1
102
RTVSPropertyOp30
 70
     1
102
RTVSPropertyOp31
 70
     1
102
RTVSPropertyOp32
 70
     1
102
RTVSPropertyOp33
 70
     1
102
RTVSPropertyOp34
 70
     1
102
RTVSPropertyOp35
 70
     1
102
RTVSPropertyOp36
 70
     1
102
RTVSPropertyOp37
 70
     1
102
RTVSPropertyOp38
 70
     1
102
RTVSPropertyOp39
 70
     1
102
RTVSPropertyOp40
 70
     1
102
RTVSPropertyOp41
 70
     1
102
RTVSPropertyOp42
 70
     1
102
RTVSPropertyOp43
 70
     1
102
RTVSPropertyOp44
 70
     1
102
RTVSPropertyOp45
 70
     1
102
RTVSPropertyOp46
 70
     1
102
RTVSPropertyOp47
 70
     1
102
RTVSPropertyOp48
 70
     1
102
RTVSPropertyOp49
 70
     1
102
RTVSPropertyOp50
 70
     1
102
RTVSPropertyOp51
 70
     0
102
RTVSPropertyOp52
 70
     0
102
RTVSPropertyOp53
 70
     1
102
RTVSPropertyOp54
 70
     1
102
RTVSPropertyOp55
 70
     1
102
RTVSPropertyOp56
 70
     1
102
RTVSPropertyOp57
 70
     1
102
RTVSPropertyOp58
 70
     1
102
RTVSPropertyOp59
 70
     1
102
RTVSPropertyOp60
 70
     1
102
RTVSPropertyOp61
 70
     1
102
RTVSPropertyOp62
 70
     1
  0
XRECORD
  5
84C1
102
{ACAD_REACTORS
330
84C0
102
}
330
84C0
100
AcDbXrecord
280
     1
102
RTVSPost2010Prop28
280
     0
102
RTVSPost2010PropOp28
 70
     1
102
RTVSPost2010Prop29
280
     1
102
RTVSPost2010PropOp29
 70
     1
102
RTVSPost2010Prop30
280
     1
102
RTVSPost2010PropOp30
 70
     1
102
RTVSPost2010Prop31
280
     0
102
RTVSPost2010PropOp31
 70
     1
102
RTVSPost2010Prop32
280
     0
102
RTVSPost2010PropOp32
 70
     1
102
RTVSPost2010Prop33
280
     0
102
RTVSPost2010PropOp33
 70
     1
102
RTVSPost2010Prop34
280
     0
102
RTVSPost2010PropOp34
 70
     1
102
RTVSPost2010Prop35
280
     0
102
RTVSPost2010PropOp35
 70
     1
102
RTVSPost2010Prop36
280
     0
102
RTVSPost2010PropOp36
 70
     1
102
RTVSPost2010Prop37
 90
       50
102
RTVSPost2010PropOp37
 70
     1
102
RTVSPost2010Prop38
140
0.0
102
RTVSPost2010PropOp38
 70
     1
102
RTVSPost2010Prop39
140
1.0
102
RTVSPost2010PropOp39
 70
     1
102
RTVSPost2010Prop40
 90
        0
102
RTVSPost2010PropOp40
 70
     1
102
RTVSPost2010Prop41ColorIndex
 90
       18
102
RTVSPost2010Prop41ColorRGB
 90
        0
102
RTVSPost2010PropOp41
 70
     1
102
RTVSPost2010Prop42
 90
       50
102
RTVSPost2010PropOp42
 70
     1
102
RTVSPost2010Prop43
 90
        3
102
RTVSPost2010PropOp43
 70
     1
102
RTVSPost2010Prop44ColorIndex
 90
        5
102
RTVSPost2010Prop44ColorRGB
 90
      255
102
RTVSPost2010PropOp44
 70
     1
102
RTVSPost2010Prop45
280
     0
102
RTVSPost2010PropOp45
 70
     1
102
RTVSPost2010Prop46
 90
       50
102
RTVSPost2010PropOp46
 70
     1
102
RTVSPost2010Prop47
 90
       50
102
RTVSPost2010PropOp47
 70
     1
102
RTVSPost2010Prop48
 90
       50
102
RTVSPost2010PropOp48
 70
     1
102
RTVSPost2010Prop49
280
     0
102
RTVSPost2010PropOp49
 70
     1
102
RTVSPost2010Prop50
 90
       50
102
RTVSPost2010PropOp50
 70
     1
102
RTVSPost2010Prop51ColorIndex
 90
      256
102
RTVSPost2010Prop51ColorRGB
 90
-16777216
102
RTVSPost2010PropOp51
 70
     0
102
RTVSPost2010Prop52
140
1.0
102
RTVSPost2010PropOp52
 70
     0
102
RTVSPost2010Prop53
 90
        2
102
RTVSPost2010PropOp53
 70
     1
102
RTVSPost2010Prop54
  1
strokes_ogs.tif
102
RTVSPost2010PropOp54
 70
     1
102
RTVSPost2010Prop55
280
     0
102
RTVSPost2010PropOp55
 70
     1
102
RTVSPost2010Prop56
140
1.0
102
RTVSPost2010PropOp56
 70
     1
102
RTVSPost2010Prop57
140
1.0
102
RTVSPost2010PropOp57
 70
     1
102
RTVSPropertyOp0
 70
     1
102
RTVSPropertyOp1
 70
     1
102
RTVSPropertyOp2
 70
     1
102
RTVSPropertyOp3
 70
     1
102
RTVSPropertyOp4
 70
     1
102
RTVSPropertyOp5
 70
     1
102
RTVSPropertyOp6
 70
     1
102
RTVSPropertyOp7
 70
     1
102
RTVSPropertyOp8
 70
     1
102
RTVSPropertyOp9
 70
     1
102
RTVSPropertyOp10
 70
     1
102
RTVSPropertyOp11
 70
     1
102
RTVSPropertyOp12
 70
     1
102
RTVSPropertyOp13
 70
     1
102
RTVSPropertyOp14
 70
     1
102
RTVSPropertyOp15
 70
     1
102
RTVSPropertyOp16
 70
     1
102
RTVSPropertyOp17
 70
     1
102
RTVSPropertyOp18
 70
     1
102
RTVSPropertyOp19
 70
     1
102
RTVSPropertyOp20
 70
     1
102
RTVSPropertyOp21
 70
     1
102
RTVSPropertyOp22
 70
     1
102
RTVSPropertyOp23
 70
     1
102
RTVSPropertyOp24
 70
     1
102
RTVSPropertyOp25
 70
     1
102
RTVSPropertyOp26
 70
     1
102
RTVSPropertyOp27
 70
     1
102
RTVSPropertyOp28
 70
     1
102
RTVSPropertyOp29
 70
     1
102
RTVSPropertyOp30
 70
     1
102
RTVSPropertyOp31
 70
     1
102
RTVSPropertyOp32
 70
     1
102
RTVSPropertyOp33
 70
     1
102
RTVSPropertyOp34
 70
     1
102
RTVSPropertyOp35
 70
     1
102
RTVSPropertyOp36
 70
     1
102
RTVSPropertyOp37
 70
     1
102
RTVSPropertyOp38
 70
     1
102
RTVSPropertyOp39
 70
     1
102
RTVSPropertyOp40
 70
     1
102
RTVSPropertyOp41
 70
     1
102
RTVSPropertyOp42
 70
     1
102
RTVSPropertyOp43
 70
     1
102
RTVSPropertyOp44
 70
     1
102
RTVSPropertyOp45
 70
     1
102
RTVSPropertyOp46
 70
     1
102
RTVSPropertyOp47
 70
     1
102
RTVSPropertyOp48
 70
     1
102
RTVSPropertyOp49
 70
     1
102
RTVSPropertyOp50
 70
     1
102
RTVSPropertyOp51
 70
     0
102
RTVSPropertyOp52
 70
     0
102
RTVSPropertyOp53
 70
     1
102
RTVSPropertyOp54
 70
     1
102
RTVSPropertyOp55
 70
     1
102
RTVSPropertyOp56
 70
     1
102
RTVSPropertyOp57
 70
     1
102
RTVSPropertyOp58
 70
     1
102
RTVSPropertyOp59
 70
     1
102
RTVSPropertyOp60
 70
     1
102
RTVSPropertyOp61
 70
     1
102
RTVSPropertyOp62
 70
     1
  0
XRECORD
  5
84B7
102
{ACAD_REACTORS
330
84B6
102
}
330
84B6
100
AcDbXrecord
280
     1
102
RTVSPost2010Prop28
280
     0
102
RTVSPost2010PropOp28
 70
     1
102
RTVSPost2010Prop29
280
     1
102
RTVSPost2010PropOp29
 70
     1
102
RTVSPost2010Prop30
280
     1
102
RTVSPost2010PropOp30
 70
     1
102
RTVSPost2010Prop31
280
     0
102
RTVSPost2010PropOp31
 70
     1
102
RTVSPost2010Prop32
280
     0
102
RTVSPost2010PropOp32
 70
     1
102
RTVSPost2010Prop33
280
     0
102
RTVSPost2010PropOp33
 70
     1
102
RTVSPost2010Prop34
280
     0
102
RTVSPost2010PropOp34
 70
     1
102
RTVSPost2010Prop35
280
     0
102
RTVSPost2010PropOp35
 70
     1
102
RTVSPost2010Prop36
280
     0
102
RTVSPost2010PropOp36
 70
     1
102
RTVSPost2010Prop37
 90
       50
102
RTVSPost2010PropOp37
 70
     1
102
RTVSPost2010Prop38
140
0.0
102
RTVSPost2010PropOp38
 70
     1
102
RTVSPost2010Prop39
140
1.0
102
RTVSPost2010PropOp39
 70
     1
102
RTVSPost2010Prop40
 90
        0
102
RTVSPost2010PropOp40
 70
     1
102
RTVSPost2010Prop41ColorIndex
 90
       18
102
RTVSPost2010Prop41ColorRGB
 90
        0
102
RTVSPost2010PropOp41
 70
     1
102
RTVSPost2010Prop42
 90
       50
102
RTVSPost2010PropOp42
 70
     1
102
RTVSPost2010Prop43
 90
        3
102
RTVSPost2010PropOp43
 70
     1
102
RTVSPost2010Prop44ColorIndex
 90
        5
102
RTVSPost2010Prop44ColorRGB
 90
      255
102
RTVSPost2010PropOp44
 70
     1
102
RTVSPost2010Prop45
280
     0
102
RTVSPost2010PropOp45
 70
     1
102
RTVSPost2010Prop46
 90
       50
102
RTVSPost2010PropOp46
 70
     1
102
RTVSPost2010Prop47
 90
       50
102
RTVSPost2010PropOp47
 70
     1
102
RTVSPost2010Prop48
 90
       50
102
RTVSPost2010PropOp48
 70
     1
102
RTVSPost2010Prop49
280
     0
102
RTVSPost2010PropOp49
 70
     1
102
RTVSPost2010Prop50
 90
       50
102
RTVSPost2010PropOp50
 70
     1
102
RTVSPost2010Prop51ColorIndex
 90
      256
102
RTVSPost2010Prop51ColorRGB
 90
-16777216
102
RTVSPost2010PropOp51
 70
     0
102
RTVSPost2010Prop52
140
1.0
102
RTVSPost2010PropOp52
 70
     0
102
RTVSPost2010Prop53
 90
        2
102
RTVSPost2010PropOp53
 70
     1
102
RTVSPost2010Prop54
  1
strokes_ogs.tif
102
RTVSPost2010PropOp54
 70
     1
102
RTVSPost2010Prop55
280
     0
102
RTVSPost2010PropOp55
 70
     1
102
RTVSPost2010Prop56
140
1.0
102
RTVSPost2010PropOp56
 70
     1
102
RTVSPost2010Prop57
140
1.0
102
RTVSPost2010PropOp57
 70
     1
102
RTVSPropertyOp0
 70
     1
102
RTVSPropertyOp1
 70
     1
102
RTVSPropertyOp2
 70
     1
102
RTVSPropertyOp3
 70
     1
102
RTVSPropertyOp4
 70
     1
102
RTVSPropertyOp5
 70
     1
102
RTVSPropertyOp6
 70
     1
102
RTVSPropertyOp7
 70
     1
102
RTVSPropertyOp8
 70
     1
102
RTVSPropertyOp9
 70
     1
102
RTVSPropertyOp10
 70
     1
102
RTVSPropertyOp11
 70
     1
102
RTVSPropertyOp12
 70
     1
102
RTVSPropertyOp13
 70
     1
102
RTVSPropertyOp14
 70
     1
102
RTVSPropertyOp15
 70
     1
102
RTVSPropertyOp16
 70
     1
102
RTVSPropertyOp17
 70
     1
102
RTVSPropertyOp18
 70
     1
102
RTVSPropertyOp19
 70
     1
102
RTVSPropertyOp20
 70
     1
102
RTVSPropertyOp21
 70
     1
102
RTVSPropertyOp22
 70
     1
102
RTVSPropertyOp23
 70
     1
102
RTVSPropertyOp24
 70
     1
102
RTVSPropertyOp25
 70
     1
102
RTVSPropertyOp26
 70
     1
102
RTVSPropertyOp27
 70
     1
102
RTVSPropertyOp28
 70
     1
102
RTVSPropertyOp29
 70
     1
102
RTVSPropertyOp30
 70
     1
102
RTVSPropertyOp31
 70
     1
102
RTVSPropertyOp32
 70
     1
102
RTVSPropertyOp33
 70
     1
102
RTVSPropertyOp34
 70
     1
102
RTVSPropertyOp35
 70
     1
102
RTVSPropertyOp36
 70
     1
102
RTVSPropertyOp37
 70
     1
102
RTVSPropertyOp38
 70
     1
102
RTVSPropertyOp39
 70
     1
102
RTVSPropertyOp40
 70
     1
102
RTVSPropertyOp41
 70
     1
102
RTVSPropertyOp42
 70
     1
102
RTVSPropertyOp43
 70
     1
102
RTVSPropertyOp44
 70
     1
102
RTVSPropertyOp45
 70
     1
102
RTVSPropertyOp46
 70
     1
102
RTVSPropertyOp47
 70
     1
102
RTVSPropertyOp48
 70
     1
102
RTVSPropertyOp49
 70
     1
102
RTVSPropertyOp50
 70
     1
102
RTVSPropertyOp51
 70
     0
102
RTVSPropertyOp52
 70
     0
102
RTVSPropertyOp53
 70
     1
102
RTVSPropertyOp54
 70
     1
102
RTVSPropertyOp55
 70
     1
102
RTVSPropertyOp56
 70
     1
102
RTVSPropertyOp57
 70
     1
102
RTVSPropertyOp58
 70
     1
102
RTVSPropertyOp59
 70
     1
102
RTVSPropertyOp60
 70
     1
102
RTVSPropertyOp61
 70
     1
102
RTVSPropertyOp62
 70
     1
  0
XRECORD
  5
84AB
102
{ACAD_REACTORS
330
84AA
102
}
330
84AA
100
AcDbXrecord
280
     1
102
RTVSPost2010Prop28
280
     0
102
RTVSPost2010PropOp28
 70
     1
102
RTVSPost2010Prop29
280
     1
102
RTVSPost2010PropOp29
 70
     1
102
RTVSPost2010Prop30
280
     1
102
RTVSPost2010PropOp30
 70
     1
102
RTVSPost2010Prop31
280
     0
102
RTVSPost2010PropOp31
 70
     1
102
RTVSPost2010Prop32
280
     0
102
RTVSPost2010PropOp32
 70
     1
102
RTVSPost2010Prop33
280
     0
102
RTVSPost2010PropOp33
 70
     1
102
RTVSPost2010Prop34
280
     0
102
RTVSPost2010PropOp34
 70
     1
102
RTVSPost2010Prop35
280
     0
102
RTVSPost2010PropOp35
 70
     1
102
RTVSPost2010Prop36
280
     0
102
RTVSPost2010PropOp36
 70
     1
102
RTVSPost2010Prop37
 90
       50
102
RTVSPost2010PropOp37
 70
     1
102
RTVSPost2010Prop38
140
0.0
102
RTVSPost2010PropOp38
 70
     1
102
RTVSPost2010Prop39
140
1.0
102
RTVSPost2010PropOp39
 70
     1
102
RTVSPost2010Prop40
 90
        0
102
RTVSPost2010PropOp40
 70
     1
102
RTVSPost2010Prop41ColorIndex
 90
       18
102
RTVSPost2010Prop41ColorRGB
 90
        0
102
RTVSPost2010PropOp41
 70
     1
102
RTVSPost2010Prop42
 90
       50
102
RTVSPost2010PropOp42
 70
     1
102
RTVSPost2010Prop43
 90
        3
102
RTVSPost2010PropOp43
 70
     1
102
RTVSPost2010Prop44ColorIndex
 90
        5
102
RTVSPost2010Prop44ColorRGB
 90
      255
102
RTVSPost2010PropOp44
 70
     1
102
RTVSPost2010Prop45
280
     0
102
RTVSPost2010PropOp45
 70
     1
102
RTVSPost2010Prop46
 90
       50
102
RTVSPost2010PropOp46
 70
     1
102
RTVSPost2010Prop47
 90
       50
102
RTVSPost2010PropOp47
 70
     1
102
RTVSPost2010Prop48
 90
       50
102
RTVSPost2010PropOp48
 70
     1
102
RTVSPost2010Prop49
280
     0
102
RTVSPost2010PropOp49
 70
     1
102
RTVSPost2010Prop50
 90
       50
102
RTVSPost2010PropOp50
 70
     1
102
RTVSPost2010Prop51ColorIndex
 90
      256
102
RTVSPost2010Prop51ColorRGB
 90
-16777216
102
RTVSPost2010PropOp51
 70
     0
102
RTVSPost2010Prop52
140
1.0
102
RTVSPost2010PropOp52
 70
     0
102
RTVSPost2010Prop53
 90
        2
102
RTVSPost2010PropOp53
 70
     1
102
RTVSPost2010Prop54
  1
strokes_ogs.tif
102
RTVSPost2010PropOp54
 70
     1
102
RTVSPost2010Prop55
280
     0
102
RTVSPost2010PropOp55
 70
     1
102
RTVSPost2010Prop56
140
1.0
102
RTVSPost2010PropOp56
 70
     1
102
RTVSPost2010Prop57
140
1.0
102
RTVSPost2010PropOp57
 70
     1
102
RTVSPropertyOp0
 70
     1
102
RTVSPropertyOp1
 70
     1
102
RTVSPropertyOp2
 70
     1
102
RTVSPropertyOp3
 70
     1
102
RTVSPropertyOp4
 70
     1
102
RTVSPropertyOp5
 70
     1
102
RTVSPropertyOp6
 70
     1
102
RTVSPropertyOp7
 70
     1
102
RTVSPropertyOp8
 70
     1
102
RTVSPropertyOp9
 70
     1
102
RTVSPropertyOp10
 70
     1
102
RTVSPropertyOp11
 70
     1
102
RTVSPropertyOp12
 70
     1
102
RTVSPropertyOp13
 70
     1
102
RTVSPropertyOp14
 70
     1
102
RTVSPropertyOp15
 70
     1
102
RTVSPropertyOp16
 70
     1
102
RTVSPropertyOp17
 70
     1
102
RTVSPropertyOp18
 70
     1
102
RTVSPropertyOp19
 70
     1
102
RTVSPropertyOp20
 70
     1
102
RTVSPropertyOp21
 70
     1
102
RTVSPropertyOp22
 70
     1
102
RTVSPropertyOp23
 70
     1
102
RTVSPropertyOp24
 70
     1
102
RTVSPropertyOp25
 70
     1
102
RTVSPropertyOp26
 70
     1
102
RTVSPropertyOp27
 70
     1
102
RTVSPropertyOp28
 70
     1
102
RTVSPropertyOp29
 70
     1
102
RTVSPropertyOp30
 70
     1
102
RTVSPropertyOp31
 70
     1
102
RTVSPropertyOp32
 70
     1
102
RTVSPropertyOp33
 70
     1
102
RTVSPropertyOp34
 70
     1
102
RTVSPropertyOp35
 70
     1
102
RTVSPropertyOp36
 70
     1
102
RTVSPropertyOp37
 70
     1
102
RTVSPropertyOp38
 70
     1
102
RTVSPropertyOp39
 70
     1
102
RTVSPropertyOp40
 70
     1
102
RTVSPropertyOp41
 70
     1
102
RTVSPropertyOp42
 70
     1
102
RTVSPropertyOp43
 70
     1
102
RTVSPropertyOp44
 70
     1
102
RTVSPropertyOp45
 70
     1
102
RTVSPropertyOp46
 70
     1
102
RTVSPropertyOp47
 70
     1
102
RTVSPropertyOp48
 70
     1
102
RTVSPropertyOp49
 70
     1
102
RTVSPropertyOp50
 70
     1
102
RTVSPropertyOp51
 70
     0
102
RTVSPropertyOp52
 70
     0
102
RTVSPropertyOp53
 70
     1
102
RTVSPropertyOp54
 70
     1
102
RTVSPropertyOp55
 70
     1
102
RTVSPropertyOp56
 70
     1
102
RTVSPropertyOp57
 70
     1
102
RTVSPropertyOp58
 70
     1
102
RTVSPropertyOp59
 70
     1
102
RTVSPropertyOp60
 70
     1
102
RTVSPropertyOp61
 70
     1
102
RTVSPropertyOp62
 70
     1
  0
XRECORD
  5
84C3
102
{ACAD_REACTORS
330
84C2
102
}
330
84C2
100
AcDbXrecord
280
     1
102
RTVSPost2010Prop28
280
     0
102
RTVSPost2010PropOp28
 70
     1
102
RTVSPost2010Prop29
280
     1
102
RTVSPost2010PropOp29
 70
     1
102
RTVSPost2010Prop30
280
     1
102
RTVSPost2010PropOp30
 70
     1
102
RTVSPost2010Prop31
280
     0
102
RTVSPost2010PropOp31
 70
     1
102
RTVSPost2010Prop32
280
     0
102
RTVSPost2010PropOp32
 70
     1
102
RTVSPost2010Prop33
280
     0
102
RTVSPost2010PropOp33
 70
     1
102
RTVSPost2010Prop34
280
     0
102
RTVSPost2010PropOp34
 70
     1
102
RTVSPost2010Prop35
280
     0
102
RTVSPost2010PropOp35
 70
     1
102
RTVSPost2010Prop36
280
     0
102
RTVSPost2010PropOp36
 70
     1
102
RTVSPost2010Prop37
 90
       50
102
RTVSPost2010PropOp37
 70
     1
102
RTVSPost2010Prop38
140
0.0
102
RTVSPost2010PropOp38
 70
     1
102
RTVSPost2010Prop39
140
1.0
102
RTVSPost2010PropOp39
 70
     1
102
RTVSPost2010Prop40
 90
        0
102
RTVSPost2010PropOp40
 70
     1
102
RTVSPost2010Prop41ColorIndex
 90
       18
102
RTVSPost2010Prop41ColorRGB
 90
        0
102
RTVSPost2010PropOp41
 70
     1
102
RTVSPost2010Prop42
 90
       50
102
RTVSPost2010PropOp42
 70
     1
102
RTVSPost2010Prop43
 90
        3
102
RTVSPost2010PropOp43
 70
     1
102
RTVSPost2010Prop44ColorIndex
 90
        5
102
RTVSPost2010Prop44ColorRGB
 90
      255
102
RTVSPost2010PropOp44
 70
     1
102
RTVSPost2010Prop45
280
     0
102
RTVSPost2010PropOp45
 70
     1
102
RTVSPost2010Prop46
 90
       50
102
RTVSPost2010PropOp46
 70
     1
102
RTVSPost2010Prop47
 90
       50
102
RTVSPost2010PropOp47
 70
     1
102
RTVSPost2010Prop48
 90
       50
102
RTVSPost2010PropOp48
 70
     1
102
RTVSPost2010Prop49
280
     0
102
RTVSPost2010PropOp49
 70
     1
102
RTVSPost2010Prop50
 90
       50
102
RTVSPost2010PropOp50
 70
     1
102
RTVSPost2010Prop51ColorIndex
 90
      256
102
RTVSPost2010Prop51ColorRGB
 90
-16777216
102
RTVSPost2010PropOp51
 70
     0
102
RTVSPost2010Prop52
140
1.0
102
RTVSPost2010PropOp52
 70
     0
102
RTVSPost2010Prop53
 90
        2
102
RTVSPost2010PropOp53
 70
     1
102
RTVSPost2010Prop54
  1
strokes_ogs.tif
102
RTVSPost2010PropOp54
 70
     1
102
RTVSPost2010Prop55
280
     0
102
RTVSPost2010PropOp55
 70
     1
102
RTVSPost2010Prop56
140
1.0
102
RTVSPost2010PropOp56
 70
     1
102
RTVSPost2010Prop57
140
1.0
102
RTVSPost2010PropOp57
 70
     1
102
RTVSPropertyOp0
 70
     1
102
RTVSPropertyOp1
 70
     1
102
RTVSPropertyOp2
 70
     1
102
RTVSPropertyOp3
 70
     1
102
RTVSPropertyOp4
 70
     1
102
RTVSPropertyOp5
 70
     1
102
RTVSPropertyOp6
 70
     1
102
RTVSPropertyOp7
 70
     1
102
RTVSPropertyOp8
 70
     1
102
RTVSPropertyOp9
 70
     1
102
RTVSPropertyOp10
 70
     1
102
RTVSPropertyOp11
 70
     1
102
RTVSPropertyOp12
 70
     1
102
RTVSPropertyOp13
 70
     1
102
RTVSPropertyOp14
 70
     1
102
RTVSPropertyOp15
 70
     1
102
RTVSPropertyOp16
 70
     1
102
RTVSPropertyOp17
 70
     1
102
RTVSPropertyOp18
 70
     1
102
RTVSPropertyOp19
 70
     1
102
RTVSPropertyOp20
 70
     1
102
RTVSPropertyOp21
 70
     1
102
RTVSPropertyOp22
 70
     1
102
RTVSPropertyOp23
 70
     1
102
RTVSPropertyOp24
 70
     1
102
RTVSPropertyOp25
 70
     1
102
RTVSPropertyOp26
 70
     1
102
RTVSPropertyOp27
 70
     1
102
RTVSPropertyOp28
 70
     1
102
RTVSPropertyOp29
 70
     1
102
RTVSPropertyOp30
 70
     1
102
RTVSPropertyOp31
 70
     1
102
RTVSPropertyOp32
 70
     1
102
RTVSPropertyOp33
 70
     1
102
RTVSPropertyOp34
 70
     1
102
RTVSPropertyOp35
 70
     1
102
RTVSPropertyOp36
 70
     1
102
RTVSPropertyOp37
 70
     1
102
RTVSPropertyOp38
 70
     1
102
RTVSPropertyOp39
 70
     1
102
RTVSPropertyOp40
 70
     1
102
RTVSPropertyOp41
 70
     1
102
RTVSPropertyOp42
 70
     1
102
RTVSPropertyOp43
 70
     1
102
RTVSPropertyOp44
 70
     1
102
RTVSPropertyOp45
 70
     1
102
RTVSPropertyOp46
 70
     1
102
RTVSPropertyOp47
 70
     1
102
RTVSPropertyOp48
 70
     1
102
RTVSPropertyOp49
 70
     1
102
RTVSPropertyOp50
 70
     1
102
RTVSPropertyOp51
 70
     0
102
RTVSPropertyOp52
 70
     0
102
RTVSPropertyOp53
 70
     1
102
RTVSPropertyOp54
 70
     1
102
RTVSPropertyOp55
 70
     1
102
RTVSPropertyOp56
 70
     1
102
RTVSPropertyOp57
 70
     1
102
RTVSPropertyOp58
 70
     1
102
RTVSPropertyOp59
 70
     1
102
RTVSPropertyOp60
 70
     1
102
RTVSPropertyOp61
 70
     1
102
RTVSPropertyOp62
 70
     1
  0
ENDSEC
  0
EOF
