  0
SECTION
  2
HEADER
  9
$ACADVER
  1
AC1015
  9
$ACADMAINTVER
 70
    20
  9
$DWGCODEPAGE
  3
ANSI_932
  9
$INSBASE
 10
0.0
 20
0.0
 30
0.0
  9
$EXTMIN
 10
-0.1602050617329951
 20
-0.22504996767384
 30
-0.0015258207003583
  9
$EXTMAX
 10
5250.160229508953
 20
7375.225084310193
 30
0.0000000349246037
  9
$LIMMIN
 10
0.0
 20
0.0
  9
$LIMMAX
 10
297.0
 20
210.0
  9
$ORTHOMODE
 70
     1
  9
$REGENMODE
 70
     1
  9
$FILLMODE
 70
     0
  9
$QTEXTMODE
 70
     0
  9
$MIRRTEXT
 70
     1
  9
$LTSCALE
 40
100.0
  9
$ATTMODE
 70
     1
  9
$TEXTSIZE
 40
180.0
  9
$TRACEWID
 40
0.05
  9
$TEXTSTYLE
  7
STANDARD
  9
$CLAYER
  8
3
  9
$CELTYPE
  6
ByLayer
  9
$CECOLOR
 62
   256
  9
$CELTSCALE
 40
1.0
  9
$DISPSILH
 70
     0
  9
$DIMSCALE
 40
25.0
  9
$DIMASZ
 40
2.0
  9
$DIMEXO
 40
1.0
  9
$DIMDLI
 40
10.0
  9
$DIMRND
 40
0.0
  9
$DIMDLE
 40
0.0
  9
$DIMEXE
 40
1.0
  9
$DIMTP
 40
1.0
  9
$DIMTM
 40
1.0
  9
$DIMTXT
 40
3.0
  9
$DIMCEN
 40
0.0
  9
$DIMTSZ
 40
0.0
  9
$DIMTOL
 70
     0
  9
$DIMLIM
 70
     0
  9
$DIMTIH
 70
     0
  9
$DIMTOH
 70
     0
  9
$DIMSE1
 70
     0
  9
$DIMSE2
 70
     0
  9
$DIMTAD
 70
     1
  9
$DIMZIN
 70
     8
  9
$DIMBLK
  1

  9
$DIMASO
 70
     1
  9
$DIMSHO
 70
     1
  9
$DIMPOST
  1

  9
$DIMAPOST
  1

  9
$DIMALT
 70
     0
  9
$DIMALTD
 70
     2
  9
$DIMALTF
 40
0.039
  9
$DIMLFAC
 40
1.0
  9
$DIMTOFL
 70
     1
  9
$DIMTVP
 40
0.0
  9
$DIMTIX
 70
     0
  9
$DIMSOXD
 70
     0
  9
$DIMSAH
 70
     1
  9
$DIMBLK1
  1
OPEN
  9
$DIMBLK2
  1
OPEN
  9
$DIMSTYLE
  2
IGA
  9
$DIMCLRD
 70
     0
  9
$DIMCLRE
 70
     0
  9
$DIMCLRT
 70
     0
  9
$DIMTFAC
 40
10.0
  9
$DIMGAP
 40
1.0
  9
$DIMJUST
 70
     0
  9
$DIMSD1
 70
     0
  9
$DIMSD2
 70
     0
  9
$DIMTOLJ
 70
     1
  9
$DIMTZIN
 70
     0
  9
$DIMALTZ
 70
     0
  9
$DIMALTTZ
 70
     0
  9
$DIMUPT
 70
     0
  9
$DIMDEC
 70
     4
  9
$DIMTDEC
 70
     4
  9
$DIMALTU
 70
     2
  9
$DIMALTTD
 70
     2
  9
$DIMTXSTY
  7
STANDARD
  9
$DIMAUNIT
 70
     0
  9
$DIMADEC
 70
     0
  9
$DIMALTRND
 40
0.0
  9
$DIMAZIN
 70
     0
  9
$DIMDSEP
 70
    46
  9
$DIMATFIT
 70
     3
  9
$DIMFRAC
 70
     0
  9
$DIMLDRBLK
  1
OPEN
  9
$DIMLUNIT
 70
     2
  9
$DIMLWD
 70
    -2
  9
$DIMLWE
 70
    -2
  9
$DIMTMOVE
 70
     0
  9
$LUNITS
 70
     2
  9
$LUPREC
 70
     3
  9
$SKETCHINC
 40
0.1
  9
$FILLETRAD
 40
50.0
  9
$AUNITS
 70
     0
  9
$AUPREC
 70
     0
  9
$MENU
  1
acad
  9
$ELEVATION
 40
0.0
  9
$PELEVATION
 40
0.0
  9
$THICKNESS
 40
0.0
  9
$LIMCHECK
 70
     0
  9
$CHAMFERA
 40
0.5
  9
$CHAMFERB
 40
0.5
  9
$CHAMFERC
 40
0.0
  9
$CHAMFERD
 40
0.0
  9
$SKPOLY
 70
     0
  9
$TDCREATE
 40
2451389.445084028
  9
$TDUCREATE
 40
2451389.070084028
  9
$TDUPDATE
 40
2460265.732141482
  9
$TDUUPDATE
 40
2460265.357141482
  9
$TDINDWG
 40
0.0172862731
  9
$TDUSRTIMER
 40
0.0172860417
  9
$USRTIMER
 70
     1
  9
$ANGBASE
 50
0.0
  9
$ANGDIR
 70
     0
  9
$PDMODE
 70
     0
  9
$PDSIZE
 40
0.0
  9
$PLINEWID
 40
0.0
  9
$SPLFRAME
 70
     0
  9
$SPLINETYPE
 70
     6
  9
$SPLINESEGS
 70
     8
  9
$HANDSEED
  5
855E
  9
$SURFTAB1
 70
     6
  9
$SURFTAB2
 70
     6
  9
$SURFTYPE
 70
     6
  9
$SURFU
 70
     6
  9
$SURFV
 70
     6
  9
$UCSBASE
  2

  9
$UCSNAME
  2

  9
$UCSORG
 10
0.0
 20
0.0
 30
0.0
  9
$UCSXDIR
 10
1.0
 20
0.0
 30
0.0
  9
$UCSYDIR
 10
0.0
 20
1.0
 30
0.0
  9
$UCSORTHOREF
  2

  9
$UCSORTHOVIEW
 70
     0
  9
$UCSORGTOP
 10
0.0
 20
0.0
 30
0.0
  9
$UCSORGBOTTOM
 10
0.0
 20
0.0
 30
0.0
  9
$UCSORGLEFT
 10
0.0
 20
0.0
 30
0.0
  9
$UCSORGRIGHT
 10
0.0
 20
0.0
 30
0.0
  9
$UCSORGFRONT
 10
0.0
 20
0.0
 30
0.0
  9
$UCSORGBACK
 10
0.0
 20
0.0
 30
0.0
  9
$PUCSBASE
  2

  9
$PUCSNAME
  2

  9
$PUCSORG
 10
0.0
 20
0.0
 30
0.0
  9
$PUCSXDIR
 10
1.0
 20
0.0
 30
0.0
  9
$PUCSYDIR
 10
0.0
 20
1.0
 30
0.0
  9
$PUCSORTHOREF
  2

  9
$PUCSORTHOVIEW
 70
     0
  9
$PUCSORGTOP
 10
0.0
 20
0.0
 30
0.0
  9
$PUCSORGBOTTOM
 10
0.0
 20
0.0
 30
0.0
  9
$PUCSORGLEFT
 10
0.0
 20
0.0
 30
0.0
  9
$PUCSORGRIGHT
 10
0.0
 20
0.0
 30
0.0
  9
$PUCSORGFRONT
 10
0.0
 20
0.0
 30
0.0
  9
$PUCSORGBACK
 10
0.0
 20
0.0
 30
0.0
  9
$USERI1
 70
     0
  9
$USERI2
 70
     0
  9
$USERI3
 70
     0
  9
$USERI4
 70
     0
  9
$USERI5
 70
     0
  9
$USERR1
 40
0.0
  9
$USERR2
 40
0.0
  9
$USERR3
 40
0.0
  9
$USERR4
 40
0.0
  9
$USERR5
 40
0.0
  9
$WORLDVIEW
 70
     1
  9
$SHADEDGE
 70
     3
  9
$SHADEDIF
 70
    70
  9
$TILEMODE
 70
     1
  9
$MAXACTVP
 70
    16
  9
$PINSBASE
 10
0.0
 20
0.0
 30
0.0
  9
$PLIMCHECK
 70
     0
  9
$PEXTMIN
 10
1.000000000000000E+20
 20
1.000000000000000E+20
 30
1.000000000000000E+20
  9
$PEXTMAX
 10
-1.000000000000000E+20
 20
-1.000000000000000E+20
 30
-1.000000000000000E+20
  9
$PLIMMIN
 10
0.0
 20
0.0
  9
$PLIMMAX
 10
12.0
 20
9.0
  9
$UNITMODE
 70
     0
  9
$VISRETAIN
 70
     0
  9
$PLINEGEN
 70
     0
  9
$PSLTSCALE
 70
     1
  9
$TREEDEPTH
 70
  3020
  9
$CMLSTYLE
  2
Standard
  9
$CMLJUST
 70
     0
  9
$CMLSCALE
 40
1.0
  9
$PROXYGRAPHICS
 70
     1
  9
$MEASUREMENT
 70
     0
  9
$CELWEIGHT
370
    -1
  9
$ENDCAPS
280
     0
  9
$JOINSTYLE
280
     0
  9
$LWDISPLAY
290
     0
  9
$INSUNITS
 70
     0
  9
$HYPERLINKBASE
  1

  9
$STYLESHEET
  1

  9
$XEDIT
290
     1
  9
$CEPSNTYPE
380
     0
  9
$PSTYLEMODE
290
     1
  9
$FINGERPRINTGUID
  2
{AD6D50C9-037F-40B2-BF84-D807A2B236AB}
  9
$VERSIONGUID
  2
{E1E9F7B9-A93A-429C-9CFD-830793035380}
  9
$EXTNAMES
290
     1
  9
$PSVPSCALE
 40
0.0
  9
$OLESTARTUP
290
     0
  0
ENDSEC
  0
SECTION
  2
CLASSES
  0
CLASS
  1
ACDBDICTIONARYWDFLT
  2
AcDbDictionaryWithDefault
  3
ObjectDBX Classes
 90
        0
280
     0
281
     0
  0
CLASS
  1
MATERIAL
  2
AcDbMaterial
  3
ObjectDBX Classes
 90
     1153
280
     0
281
     0
  0
CLASS
  1
VISUALSTYLE
  2
AcDbVisualStyle
  3
ObjectDBX Classes
 90
     4095
280
     0
281
     0
  0
CLASS
  1
SCALE
  2
AcDbScale
  3
ObjectDBX Classes
 90
     1153
280
     0
281
     0
  0
CLASS
  1
TABLESTYLE
  2
AcDbTableStyle
  3
ObjectDBX Classes
 90
     4095
280
     0
281
     0
  0
CLASS
  1
MLEADERSTYLE
  2
AcDbMLeaderStyle
  3
ACDB_MLEADERSTYLE_CLASS
 90
     4095
280
     0
281
     0
  0
CLASS
  1
ACDBSECTIONVIEWSTYLE
  2
AcDbSectionViewStyle
  3
ObjectDBX Classes
 90
     1025
280
     0
281
     0
  0
CLASS
  1
ACDBDETAILVIEWSTYLE
  2
AcDbDetailViewStyle
  3
ObjectDBX Classes
 90
     1025
280
     0
281
     0
  0
CLASS
  1
DICTIONARYVAR
  2
AcDbDictionaryVar
  3
ObjectDBX Classes
 90
        0
280
     0
281
     0
  0
CLASS
  1
CELLSTYLEMAP
  2
AcDbCellStyleMap
  3
ObjectDBX Classes
 90
     1152
280
     0
281
     0
  0
CLASS
  1
ACDBPLACEHOLDER
  2
AcDbPlaceHolder
  3
ObjectDBX Classes
 90
        0
280
     0
281
     0
  0
CLASS
  1
LAYOUT
  2
AcDbLayout
  3
ObjectDBX Classes
 90
        0
280
     0
281
     0
  0
ENDSEC
  0
SECTION
  2
TABLES
  0
TABLE
  2
VPORT
  5
80B0
330
0
100
AcDbSymbolTable
 70
     1
  0
VPORT
  5
811C
330
80B0
100
AcDbSymbolTableRecord
100
AcDbViewportTableRecord
  2
*ACTIVE
 70
     0
 10
0.0
 20
0.0
 11
1.0
 21
1.0
 12
2625.000010937384
 22
3695.430211225643
 13
0.0
 23
0.0
 14
10.0
 24
10.0
 15
10.0
 25
10.0
 16
0.0
 26
0.0
 36
1.0
 17
0.0
 27
0.0
 37
0.0
 40
7422.678199727601
 41
2.050213675213675
 42
50.0
 43
0.0
 44
0.0
 50
0.0
 51
0.0
 71
     0
 72
   100
 73
     1
 74
     0
 75
     0
 76
     0
 77
     0
 78
     0
281
     0
 65
     1
110
0.0
120
0.0
130
0.0
111
1.0
121
0.0
131
0.0
112
0.0
122
1.0
132
0.0
 79
     0
146
0.0
1001
ACAD_NAV_VCDISPLAY
1070
     3
  0
ENDTAB
  0
TABLE
  2
LTYPE
  5
80AD
330
0
100
AcDbSymbolTable
 70
     4
  0
LTYPE
  5
8102
330
80AD
100
AcDbSymbolTableRecord
100
AcDbLinetypeTableRecord
  2
ByBlock
 70
     0
  3

 72
    65
 73
     0
 40
0.0
  0
LTYPE
  5
8103
330
80AD
100
AcDbSymbolTableRecord
100
AcDbLinetypeTableRecord
  2
ByLayer
 70
     0
  3

 72
    65
 73
     0
 40
0.0
  0
LTYPE
  5
8104
330
80AD
100
AcDbSymbolTableRecord
100
AcDbLinetypeTableRecord
  2
CONTINUOUS
 70
     0
  3
Solid line
 72
    65
 73
     0
 40
0.0
  0
LTYPE
  5
811D
330
80AD
100
AcDbSymbolTableRecord
100
AcDbLinetypeTableRecord
  2
CENTER
 70
     0
  3
____ _ ____ _ ____ _ ____ _ ____ _ ____ _ ____ 
 72
    65
 73
     4
 40
2.0
 49
1.25
 74
     0
 49
-0.25
 74
     0
 49
0.25
 74
     0
 49
-0.25
 74
     0
  0
ENDTAB
  0
TABLE
  2
LAYER
  5
80AA
102
{ACAD_XDICTIONARY
360
81B8
102
}
330
0
100
AcDbSymbolTable
 70
     7
  0
LAYER
  5
80FC
102
{ACAD_XDICTIONARY
360
8160
102
}
330
80AA
100
AcDbSymbolTableRecord
100
AcDbLayerTableRecord
  2
0
 70
     0
 62
     7
  6
CONTINUOUS
370
    -3
390
80B7
  0
LAYER
  5
811B
102
{ACAD_XDICTIONARY
360
8162
102
}
330
80AA
100
AcDbSymbolTableRecord
100
AcDbLayerTableRecord
  2
3
 70
     0
 62
     2
  6
CONTINUOUS
370
    -3
390
80B7
  0
LAYER
  5
811E
102
{ACAD_XDICTIONARY
360
8164
102
}
330
80AA
100
AcDbSymbolTableRecord
100
AcDbLayerTableRecord
  2
2
 70
     0
 62
     3
  6
CENTER
370
    -3
390
80B7
  0
LAYER
  5
811F
102
{ACAD_XDICTIONARY
360
8166
102
}
330
80AA
100
AcDbSymbolTableRecord
100
AcDbLayerTableRecord
  2
1
 70
     0
 62
     4
  6
CONTINUOUS
370
    -3
390
80B7
  0
LAYER
  5
8120
102
{ACAD_XDICTIONARY
360
8168
102
}
330
80AA
100
AcDbSymbolTableRecord
100
AcDbLayerTableRecord
  2
4
 70
     0
 62
     7
  6
CONTINUOUS
370
    -3
390
80B7
  0
LAYER
  5
8121
330
80AA
100
AcDbSymbolTableRecord
100
AcDbLayerTableRecord
  2
DEFPOINTS
 70
     0
 62
     7
  6
CONTINUOUS
290
     0
370
    -3
390
80B7
  0
LAYER
  5
81B6
102
{ACAD_XDICTIONARY
360
81B7
102
}
330
80AA
100
AcDbSymbolTableRecord
100
AcDbLayerTableRecord
  2
FUTO
 70
     0
 62
     4
  6
CONTINUOUS
370
    -3
390
80B7
  0
ENDTAB
  0
TABLE
  2
STYLE
  5
80AB
330
0
100
AcDbSymbolTable
 70
     2
  0
STYLE
  5
80FD
330
80AB
100
AcDbSymbolTableRecord
100
AcDbTextStyleTableRecord
  2
STANDARD
 70
     0
 40
0.0
 41
1.0
 50
0.0
 71
     0
 42
180.0
  3
simplex.shx
  4
extfont.shx
  0
STYLE
  5
8101
330
80AB
100
AcDbSymbolTableRecord
100
AcDbTextStyleTableRecord
  2
Annotative
 70
     0
 40
0.0
 41
1.0
 50
0.0
 71
     0
 42
0.2
  3
txt
  4

1001
AcadAnnotative
1000
AnnotativeData
1002
{
1070
     1
1070
     1
1002
}
  0
ENDTAB
  0
TABLE
  2
VIEW
  5
80AE
330
0
100
AcDbSymbolTable
 70
     0
  0
ENDTAB
  0
TABLE
  2
UCS
  5
80AF
330
0
100
AcDbSymbolTable
 70
     0
  0
ENDTAB
  0
TABLE
  2
APPID
  5
80B1
330
0
100
AcDbSymbolTable
 70
     8
  0
APPID
  5
80FE
330
80B1
100
AcDbSymbolTableRecord
100
AcDbRegAppTableRecord
  2
ACAD
 70
     0
  0
APPID
  5
8105
330
80B1
100
AcDbSymbolTableRecord
100
AcDbRegAppTableRecord
  2
AcadAnnotative
 70
     0
  0
APPID
  5
8174
330
80B1
100
AcDbSymbolTableRecord
100
AcDbRegAppTableRecord
  2
ACAD_NAV_VCDISPLAY
 70
     0
  0
APPID
  5
81EF
330
80B1
100
AcDbSymbolTableRecord
100
AcDbRegAppTableRecord
  2
ACAD_DSTYLE_DIMJAG
 70
     0
  0
APPID
  5
81F0
330
80B1
100
AcDbSymbolTableRecord
100
AcDbRegAppTableRecord
  2
ACAD_DSTYLE_DIMTALN
 70
     0
  0
APPID
  5
8299
330
80B1
100
AcDbSymbolTableRecord
100
AcDbRegAppTableRecord
  2
AcadAnnoMonitorAlertIconDisabled
 70
     0
  0
APPID
  5
829A
330
80B1
100
AcDbSymbolTableRecord
100
AcDbRegAppTableRecord
  2
ACAD_EXEMPT_FROM_CAD_STANDARDS
 70
     0
  0
APPID
  5
8555
330
80B1
100
AcDbSymbolTableRecord
100
AcDbRegAppTableRecord
  2
ACAD_MLEADERVER
 70
     0
  0
ENDTAB
  0
TABLE
  2
DIMSTYLE
  5
80B2
330
0
100
AcDbSymbolTable
 70
     5
100
AcDbDimStyleTable
 71
     1
340
8122
  0
DIMSTYLE
105
80FF
102
{ACAD_REACTORS
330
7C21
330
7C22
330
7C68
330
7C85
330
7C86
330
7C87
330
7C96
330
7CAD
102
}
330
80B2
100
AcDbSymbolTableRecord
100
AcDbDimStyleTableRecord
  2
Standard
 70
     0
340
80FD
  0
DIMSTYLE
105
8100
330
80B2
100
AcDbSymbolTableRecord
100
AcDbDimStyleTableRecord
  2
Annotative
 70
     0
340
80FD
1001
AcadAnnotative
1000
AnnotativeData
1002
{
1070
     1
1070
     1
1002
}
  0
DIMSTYLE
105
8122
102
{ACAD_REACTORS
330
81F1
330
81FE
330
8276
330
828C
330
82D2
330
82DF
330
82EC
330
82F9
330
8306
330
8313
330
8325
330
84CC
330
84F1
330
8507
102
}
330
80B2
100
AcDbSymbolTableRecord
100
AcDbDimStyleTableRecord
  2
IGA
 70
     0
 40
2.0
 41
2.0
 42
0.5
 43
10.0
 44
1.0
 47
1.0
 48
1.0
 73
     0
 74
     0
 77
     1
 78
     8
140
3.0
141
0.0
143
0.03937
146
10.0
147
1.0
173
     1
271
     3
272
     3
279
     2
284
     8
285
     8
286
     8
340
80FD
  0
DIMSTYLE
105
8123
330
80B2
100
AcDbSymbolTableRecord
100
AcDbDimStyleTableRecord
  2
MATSU
 70
     0
 41
2.0
 42
1.0
 43
10.0
 44
1.0
 73
     0
 74
     0
 77
     1
 78
     8
140
3.0
141
0.0
143
0.03937
147
0.5
172
     1
173
     1
176
   256
177
   256
178
   256
271
     3
272
     3
279
     2
284
     8
285
     8
286
     8
340
80FD
  0
ENDTAB
  0
TABLE
  2
BLOCK_RECORD
  5
80A9
330
0
100
AcDbSymbolTable
 70
    52
  0
BLOCK_RECORD
  5
8117
330
80A9
100
AcDbSymbolTableRecord
100
AcDbBlockTableRecord
  2
*Model_Space
340
811A
  0
BLOCK_RECORD
  5
8113
330
80A9
100
AcDbSymbolTableRecord
100
AcDbBlockTableRecord
  2
*Paper_Space
340
8116
  0
BLOCK_RECORD
  5
8127
330
80A9
100
AcDbSymbolTableRecord
100
AcDbBlockTableRecord
  2
$MODEL_SPACE
340
0
  0
BLOCK_RECORD
  5
8129
330
80A9
100
AcDbSymbolTableRecord
100
AcDbBlockTableRecord
  2
$PAPER_SPACE
340
0
  0
BLOCK_RECORD
  5
812B
330
80A9
100
AcDbSymbolTableRecord
100
AcDbBlockTableRecord
  2
_OPEN
340
0
102
{BLKREFS
331
8472
331
84C8
331
84E5
331
84E6
331
8501
331
8502
331
850E
331
850F
331
7DEA
331
7DEB
331
7DF5
331
7DF6
331
7E16
331
7E17
331
7E2C
331
7E2D
331
7E37
331
7E38
331
7E42
331
7E43
331
7E4D
331
7E4E
331
7F87
331
7F88
331
8077
331
8078
331
807F
331
7F7C
331
7F7D
331
8080
331
8087
331
8088
331
808F
331
7EA2
331
7EA3
331
8090
331
809B
331
7EDB
331
7EDC
331
7F9B
331
7F9C
331
7FA8
331
7FA9
331
7FB5
331
7FB6
331
7FC2
331
7FC3
331
7FF6
331
7FF7
331
8286
331
8287
331
8293
331
8294
331
82C3
331
82C4
331
82CC
331
82CD
331
82D9
331
82DA
331
82E6
331
82E7
331
82F3
331
82F4
331
8300
331
8301
331
836F
331
8370
102
}
  0
BLOCK_RECORD
  5
812D
330
80A9
100
AcDbSymbolTableRecord
100
AcDbBlockTableRecord
  2
YA_N
340
0
102
{BLKREFS
331
7BFC
331
7C1E
331
7C36
331
7C38
102
}
  0
BLOCK_RECORD
  5
812F
330
80A9
100
AcDbSymbolTableRecord
100
AcDbBlockTableRecord
  2
*D4
340
0
  0
BLOCK_RECORD
  5
8131
330
80A9
100
AcDbSymbolTableRecord
100
AcDbBlockTableRecord
  2
*D5
340
0
  0
BLOCK_RECORD
  5
8133
330
80A9
100
AcDbSymbolTableRecord
100
AcDbBlockTableRecord
  2
*D6
340
0
  0
BLOCK_RECORD
  5
8135
330
80A9
100
AcDbSymbolTableRecord
100
AcDbBlockTableRecord
  2
*D7
340
0
  0
BLOCK_RECORD
  5
8137
330
80A9
100
AcDbSymbolTableRecord
100
AcDbBlockTableRecord
  2
*D8
340
0
  0
BLOCK_RECORD
  5
8139
330
80A9
100
AcDbSymbolTableRecord
100
AcDbBlockTableRecord
  2
*D9
340
0
  0
BLOCK_RECORD
  5
813B
330
80A9
100
AcDbSymbolTableRecord
100
AcDbBlockTableRecord
  2
*D10
340
0
  0
BLOCK_RECORD
  5
813D
330
80A9
100
AcDbSymbolTableRecord
100
AcDbBlockTableRecord
  2
*D11
340
0
  0
BLOCK_RECORD
  5
813F
330
80A9
100
AcDbSymbolTableRecord
100
AcDbBlockTableRecord
  2
*D12
340
0
  0
BLOCK_RECORD
  5
8141
330
80A9
100
AcDbSymbolTableRecord
100
AcDbBlockTableRecord
  2
*D13
340
0
  0
BLOCK_RECORD
  5
8143
330
80A9
100
AcDbSymbolTableRecord
100
AcDbBlockTableRecord
  2
*D14
340
0
  0
BLOCK_RECORD
  5
8145
330
80A9
100
AcDbSymbolTableRecord
100
AcDbBlockTableRecord
  2
*D15
340
0
  0
BLOCK_RECORD
  5
8147
330
80A9
100
AcDbSymbolTableRecord
100
AcDbBlockTableRecord
  2
*D16
340
0
  0
BLOCK_RECORD
  5
8149
330
80A9
100
AcDbSymbolTableRecord
100
AcDbBlockTableRecord
  2
*D17
340
0
  0
BLOCK_RECORD
  5
814B
330
80A9
100
AcDbSymbolTableRecord
100
AcDbBlockTableRecord
  2
*D18
340
0
  0
BLOCK_RECORD
  5
814D
330
80A9
100
AcDbSymbolTableRecord
100
AcDbBlockTableRecord
  2
_DOT
340
0
102
{BLKREFS
331
809A
102
}
  0
BLOCK_RECORD
  5
814E
330
80A9
100
AcDbSymbolTableRecord
100
AcDbBlockTableRecord
  2
*D20
340
0
  0
BLOCK_RECORD
  5
8151
330
80A9
100
AcDbSymbolTableRecord
100
AcDbBlockTableRecord
  2
*D21
340
0
  0
BLOCK_RECORD
  5
8153
330
80A9
100
AcDbSymbolTableRecord
100
AcDbBlockTableRecord
  2
*D22
340
0
  0
BLOCK_RECORD
  5
8155
330
80A9
100
AcDbSymbolTableRecord
100
AcDbBlockTableRecord
  2
*D23
340
0
  0
BLOCK_RECORD
  5
8157
330
80A9
100
AcDbSymbolTableRecord
100
AcDbBlockTableRecord
  2
*D24
340
0
  0
BLOCK_RECORD
  5
8159
330
80A9
100
AcDbSymbolTableRecord
100
AcDbBlockTableRecord
  2
_NONE
340
0
  0
BLOCK_RECORD
  5
815B
330
80A9
100
AcDbSymbolTableRecord
100
AcDbBlockTableRecord
  2
*D26
340
0
  0
BLOCK_RECORD
  5
815D
330
80A9
100
AcDbSymbolTableRecord
100
AcDbBlockTableRecord
  2
*D27
340
0
  0
BLOCK_RECORD
  5
81F2
330
80A9
100
AcDbSymbolTableRecord
100
AcDbBlockTableRecord
  2
*D29
340
0
  0
BLOCK_RECORD
  5
81FF
330
80A9
100
AcDbSymbolTableRecord
100
AcDbBlockTableRecord
  2
*D30
340
0
  0
BLOCK_RECORD
  5
821D
330
80A9
100
AcDbSymbolTableRecord
100
AcDbBlockTableRecord
  2
*D31
340
0
  0
BLOCK_RECORD
  5
822A
330
80A9
100
AcDbSymbolTableRecord
100
AcDbBlockTableRecord
  2
*D32
340
0
  0
BLOCK_RECORD
  5
8237
330
80A9
100
AcDbSymbolTableRecord
100
AcDbBlockTableRecord
  2
*D33
340
0
  0
BLOCK_RECORD
  5
8244
330
80A9
100
AcDbSymbolTableRecord
100
AcDbBlockTableRecord
  2
*D34
340
0
  0
BLOCK_RECORD
  5
8251
330
80A9
100
AcDbSymbolTableRecord
100
AcDbBlockTableRecord
  2
*D35
340
0
  0
BLOCK_RECORD
  5
825C
330
80A9
100
AcDbSymbolTableRecord
100
AcDbBlockTableRecord
  2
*D36
340
0
  0
BLOCK_RECORD
  5
8269
330
80A9
100
AcDbSymbolTableRecord
100
AcDbBlockTableRecord
  2
*D37
340
0
  0
BLOCK_RECORD
  5
8277
330
80A9
100
AcDbSymbolTableRecord
100
AcDbBlockTableRecord
  2
*D38
340
0
  0
BLOCK_RECORD
  5
828D
330
80A9
100
AcDbSymbolTableRecord
100
AcDbBlockTableRecord
  2
*D39
340
0
  0
BLOCK_RECORD
  5
82D3
330
80A9
100
AcDbSymbolTableRecord
100
AcDbBlockTableRecord
  2
*D40
340
0
  0
BLOCK_RECORD
  5
82E0
330
80A9
100
AcDbSymbolTableRecord
100
AcDbBlockTableRecord
  2
*D41
340
0
  0
BLOCK_RECORD
  5
82ED
330
80A9
100
AcDbSymbolTableRecord
100
AcDbBlockTableRecord
  2
*D42
340
0
  0
BLOCK_RECORD
  5
82FA
330
80A9
100
AcDbSymbolTableRecord
100
AcDbBlockTableRecord
  2
*D43
340
0
  0
BLOCK_RECORD
  5
8307
330
80A9
100
AcDbSymbolTableRecord
100
AcDbBlockTableRecord
  2
*D44
340
0
  0
BLOCK_RECORD
  5
8314
330
80A9
100
AcDbSymbolTableRecord
100
AcDbBlockTableRecord
  2
*D45
340
0
  0
BLOCK_RECORD
  5
8326
330
80A9
100
AcDbSymbolTableRecord
100
AcDbBlockTableRecord
  2
*D46
340
0
  0
BLOCK_RECORD
  5
8465
330
80A9
100
AcDbSymbolTableRecord
100
AcDbBlockTableRecord
  2
_DotSmall
340
0
102
{BLKREFS
331
8473
331
84C7
102
}
  0
BLOCK_RECORD
  5
84CD
330
80A9
100
AcDbSymbolTableRecord
100
AcDbBlockTableRecord
  2
*D48
340
0
  0
BLOCK_RECORD
  5
84F2
330
80A9
100
AcDbSymbolTableRecord
100
AcDbBlockTableRecord
  2
*D50
340
0
  0
BLOCK_RECORD
  5
8508
330
80A9
100
AcDbSymbolTableRecord
100
AcDbBlockTableRecord
  2
*D51
340
0
  0
ENDTAB
  0
ENDSEC
  0
SECTION
  2
BLOCKS
  0
BLOCK
  5
8118
330
8117
100
AcDbEntity
  8
0
100
AcDbBlockBegin
  2
*Model_Space
 70
     0
 10
0.0
 20
0.0
 30
0.0
  3
*Model_Space
  1

  0
ENDBLK
  5
8119
330
8117
100
AcDbEntity
  8
0
100
AcDbBlockEnd
  0
BLOCK
  5
8114
330
8113
100
AcDbEntity
 67
     1
  8
0
100
AcDbBlockBegin
  2
*Paper_Space
 70
     0
 10
0.0
 20
0.0
 30
0.0
  3
*Paper_Space
  1

  0
ENDBLK
  5
8115
330
8113
100
AcDbEntity
 67
     1
  8
0
100
AcDbBlockEnd
  0
BLOCK
  5
8128
330
8127
100
AcDbEntity
  8
0
100
AcDbBlockBegin
  2
$MODEL_SPACE
 70
     0
 10
0.0
 20
0.0
 30
0.0
  3
$MODEL_SPACE
  1

  0
ENDBLK
  5
1B
330
8127
100
AcDbEntity
  8
0
100
AcDbBlockEnd
  0
BLOCK
  5
812A
330
8129
100
AcDbEntity
  8
0
100
AcDbBlockBegin
  2
$PAPER_SPACE
 70
     0
 10
0.0
 20
0.0
 30
0.0
  3
$PAPER_SPACE
  1

  0
ENDBLK
  5
18
330
8129
100
AcDbEntity
  8
0
100
AcDbBlockEnd
  0
BLOCK
  5
812C
330
812B
100
AcDbEntity
  8
0
100
AcDbBlockBegin
  2
_OPEN
 70
     0
 10
0.0
 20
0.0
 30
0.0
  3
_OPEN
  1

  0
LINE
  5
79FD
330
812B
100
AcDbEntity
  8
0
  6
ByBlock
 62
     0
100
AcDbLine
 10
-1.0
 20
0.1666666666666666
 30
0.0
 11
0.0
 21
0.0
 31
0.0
  0
LINE
  5
79FE
330
812B
100
AcDbEntity
  8
0
  6
ByBlock
 62
     0
100
AcDbLine
 10
0.0
 20
0.0
 30
0.0
 11
-1.0
 21
-0.1666666666666666
 31
0.0
  0
LINE
  5
79FF
330
812B
100
AcDbEntity
  8
0
  6
ByBlock
 62
     0
100
AcDbLine
 10
0.0
 20
0.0
 30
0.0
 11
-1.0
 21
0.0
 31
0.0
  0
ENDBLK
  5
7A01
330
812B
100
AcDbEntity
  8
0
100
AcDbBlockEnd
  0
BLOCK
  5
812E
330
812D
100
AcDbEntity
  8
0
100
AcDbBlockBegin
  2
YA_N
 70
     0
 10
0.0
 20
0.0
 30
0.0
  3
YA_N
  1

  0
ENDBLK
  5
7A0C
330
812D
100
AcDbEntity
  8
0
100
AcDbBlockEnd
  0
BLOCK
  5
8130
330
812F
100
AcDbEntity
  8
0
100
AcDbBlockBegin
  2
*D4
 70
     1
 10
0.0
 20
0.0
 30
0.0
  3
*D4
  1

  0
LINE
  5
7DE7
330
812F
100
AcDbEntity
  8
0
  6
ByBlock
100
AcDbLine
 10
1380.866167799454
 20
2131.887615409481
 30
0.0
 11
1380.866167799454
 21
2280.232958951545
 31
0.0
  0
LINE
  5
7DE8
330
812F
100
AcDbEntity
  8
0
  6
ByBlock
100
AcDbLine
 10
2205.866167799455
 20
2131.887615409481
 30
0.0
 11
2205.866167799455
 21
2280.232958951545
 31
0.0
  0
LINE
  5
7DE9
330
812F
100
AcDbEntity
  8
0
  6
ByBlock
100
AcDbLine
 10
1430.866167799454
 20
2255.232958951544
 30
0.0
 11
2155.866167799455
 21
2255.232958951544
 31
0.0
  0
INSERT
  5
7DEA
330
812F
100
AcDbEntity
  8
0
  6
ByBlock
100
AcDbBlockReference
  2
_OPEN
 10
1380.866167799454
 20
2255.232958951544
 30
0.0
 41
50.0
 42
50.0
 43
50.0
 50
180.0
  0
INSERT
  5
7DEB
330
812F
100
AcDbEntity
  8
0
  6
ByBlock
100
AcDbBlockReference
  2
_OPEN
 10
2205.866167799455
 20
2255.232958951544
 30
0.0
 41
50.0
 42
50.0
 43
50.0
  0
TEXT
  5
7DEC
330
812F
100
AcDbEntity
  8
3
100
AcDbText
 10
1696.937596370882
 20
2267.732958951544
 30
0.0
 40
75.0
  1
825
100
AcDbText
  0
POINT
  5
7DED
330
812F
100
AcDbEntity
  8
DEFPOINTS
  6
ByBlock
 62
     0
100
AcDbPoint
 10
1380.866167799454
 20
2106.887615409481
 30
0.0
  0
POINT
  5
7DEE
330
812F
100
AcDbEntity
  8
DEFPOINTS
  6
ByBlock
 62
     0
100
AcDbPoint
 10
2205.866167799455
 20
2106.887615409481
 30
0.0
  0
POINT
  5
7DEF
330
812F
100
AcDbEntity
  8
DEFPOINTS
  6
ByBlock
 62
     0
100
AcDbPoint
 10
2205.866167799455
 20
2255.232958951544
 30
0.0
  0
ENDBLK
  5
7DF0
330
812F
100
AcDbEntity
  8
0
100
AcDbBlockEnd
  0
BLOCK
  5
8132
330
8131
100
AcDbEntity
  8
0
100
AcDbBlockBegin
  2
*D5
 70
     1
 10
0.0
 20
0.0
 30
0.0
  3
*D5
  1

  0
LINE
  5
7DF2
330
8131
100
AcDbEntity
  8
0
  6
ByBlock
100
AcDbLine
 10
1380.866167799454
 20
2131.887615409481
 30
0.0
 11
1380.866167799454
 21
2432.516361525348
 31
0.0
  0
LINE
  5
7DF3
330
8131
100
AcDbEntity
  8
0
  6
ByBlock
100
AcDbLine
 10
2228.866167799455
 20
2253.359407259871
 30
0.0
 11
2228.866167799455
 21
2432.516361525348
 31
0.0
  0
LINE
  5
7DF4
330
8131
100
AcDbEntity
  8
0
  6
ByBlock
100
AcDbLine
 10
1430.866167799454
 20
2407.516361525347
 30
0.0
 11
2178.866167799455
 21
2407.516361525347
 31
0.0
  0
INSERT
  5
7DF5
330
8131
100
AcDbEntity
  8
0
  6
ByBlock
100
AcDbBlockReference
  2
_OPEN
 10
1380.866167799454
 20
2407.516361525347
 30
0.0
 41
50.0
 42
50.0
 43
50.0
 50
180.0
  0
INSERT
  5
7DF6
330
8131
100
AcDbEntity
  8
0
  6
ByBlock
100
AcDbBlockReference
  2
_OPEN
 10
2228.866167799455
 20
2407.516361525347
 30
0.0
 41
50.0
 42
50.0
 43
50.0
  0
TEXT
  5
7DF7
330
8131
100
AcDbEntity
  8
3
100
AcDbText
 10
1708.437596370883
 20
2420.016361525347
 30
0.0
 40
75.0
  1
848
100
AcDbText
  0
POINT
  5
7DF8
330
8131
100
AcDbEntity
  8
DEFPOINTS
  6
ByBlock
 62
     0
100
AcDbPoint
 10
1380.866167799454
 20
2106.887615409481
 30
0.0
  0
POINT
  5
7DF9
330
8131
100
AcDbEntity
  8
DEFPOINTS
  6
ByBlock
 62
     0
100
AcDbPoint
 10
2228.866167799455
 20
2228.359407259871
 30
0.0
  0
POINT
  5
7DFA
330
8131
100
AcDbEntity
  8
DEFPOINTS
  6
ByBlock
 62
     0
100
AcDbPoint
 10
2228.866167799455
 20
2407.516361525347
 30
0.0
  0
ENDBLK
  5
7DFB
330
8131
100
AcDbEntity
  8
0
100
AcDbBlockEnd
  0
BLOCK
  5
8134
330
8133
100
AcDbEntity
  8
0
100
AcDbBlockBegin
  2
*D6
 70
     1
 10
0.0
 20
0.0
 30
0.0
  3
*D6
  1

  0
LINE
  5
7E13
330
8133
100
AcDbEntity
  8
0
  6
ByBlock
100
AcDbLine
 10
5441.207505112644
 20
1986.88761540948
 30
0.0
 11
5740.43091600962
 21
1986.88761540948
 31
0.0
  0
LINE
  5
7E14
330
8133
100
AcDbEntity
  8
0
  6
ByBlock
100
AcDbLine
 10
5441.207505112644
 20
1136.887615409481
 30
0.0
 11
5740.43091600962
 21
1136.887615409481
 31
0.0
  0
LINE
  5
7E15
330
8133
100
AcDbEntity
  8
0
  6
ByBlock
100
AcDbLine
 10
5715.43091600962
 20
1936.88761540948
 30
0.0
 11
5715.43091600962
 21
1186.887615409481
 31
0.0
  0
INSERT
  5
7E16
330
8133
100
AcDbEntity
  8
0
  6
ByBlock
100
AcDbBlockReference
  2
_OPEN
 10
5715.43091600962
 20
1986.88761540948
 30
0.0
 41
50.0
 42
50.0
 43
50.0
 50
90.0
  0
INSERT
  5
7E17
330
8133
100
AcDbEntity
  8
0
  6
ByBlock
100
AcDbBlockReference
  2
_OPEN
 10
5715.43091600962
 20
1136.887615409481
 30
0.0
 41
50.0
 42
50.0
 43
50.0
 50
270.0
  0
TEXT
  5
7E18
330
8133
100
AcDbEntity
  8
3
100
AcDbText
 10
5702.93091600962
 20
1427.959043980909
 30
0.0
 40
75.0
  1
\U+03C6850
 50
90.0
100
AcDbText
  0
POINT
  5
7E19
330
8133
100
AcDbEntity
  8
DEFPOINTS
  6
ByBlock
 62
     0
100
AcDbPoint
 10
5416.207505112645
 20
1986.88761540948
 30
0.0
  0
POINT
  5
7E1A
330
8133
100
AcDbEntity
  8
DEFPOINTS
  6
ByBlock
 62
     0
100
AcDbPoint
 10
5416.207505112645
 20
1136.887615409481
 30
0.0
  0
POINT
  5
7E1B
330
8133
100
AcDbEntity
  8
DEFPOINTS
  6
ByBlock
 62
     0
100
AcDbPoint
 10
5715.43091600962
 20
1136.887615409481
 30
0.0
  0
ENDBLK
  5
7E1C
330
8133
100
AcDbEntity
  8
0
100
AcDbBlockEnd
  0
BLOCK
  5
8136
330
8135
100
AcDbEntity
  8
0
100
AcDbBlockBegin
  2
*D7
 70
     1
 10
0.0
 20
0.0
 30
0.0
  3
*D7
  1

  0
LINE
  5
7E29
330
8135
100
AcDbEntity
  8
0
  6
ByBlock
100
AcDbLine
 10
1728.866167799454
 20
4579.380572240498
 30
0.0
 11
1728.866167799454
 21
4730.503855791452
 31
0.0
  0
LINE
  5
7E2A
330
8135
100
AcDbEntity
  8
0
  6
ByBlock
100
AcDbLine
 10
2728.866167799455
 20
4579.380572240498
 30
0.0
 11
2728.866167799455
 21
4730.503855791452
 31
0.0
  0
LINE
  5
7E2B
330
8135
100
AcDbEntity
  8
0
  6
ByBlock
100
AcDbLine
 10
1778.866167799454
 20
4705.503855791452
 30
0.0
 11
2678.866167799455
 21
4705.503855791452
 31
0.0
  0
INSERT
  5
7E2C
330
8135
100
AcDbEntity
  8
0
  6
ByBlock
100
AcDbBlockReference
  2
_OPEN
 10
1728.866167799454
 20
4705.503855791452
 30
0.0
 41
50.0
 42
50.0
 43
50.0
 50
180.0
  0
INSERT
  5
7E2D
330
8135
100
AcDbEntity
  8
0
  6
ByBlock
100
AcDbBlockReference
  2
_OPEN
 10
2728.866167799455
 20
4705.503855791452
 30
0.0
 41
50.0
 42
50.0
 43
50.0
  0
TEXT
  5
7E2E
330
8135
100
AcDbEntity
  8
3
100
AcDbText
 10
2103.866167799455
 20
4718.003855791452
 30
0.0
 40
75.0
  1
1000
100
AcDbText
  0
POINT
  5
7E2F
330
8135
100
AcDbEntity
  8
DEFPOINTS
  6
ByBlock
 62
     0
100
AcDbPoint
 10
1728.866167799454
 20
4554.380572240497
 30
0.0
  0
POINT
  5
7E30
330
8135
100
AcDbEntity
  8
DEFPOINTS
  6
ByBlock
 62
     0
100
AcDbPoint
 10
2728.866167799455
 20
4554.380572240497
 30
0.0
  0
POINT
  5
7E31
330
8135
100
AcDbEntity
  8
DEFPOINTS
  6
ByBlock
 62
     0
100
AcDbPoint
 10
2728.866167799455
 20
4705.503855791452
 30
0.0
  0
ENDBLK
  5
7E32
330
8135
100
AcDbEntity
  8
0
100
AcDbBlockEnd
  0
BLOCK
  5
8138
330
8137
100
AcDbEntity
  8
0
100
AcDbBlockBegin
  2
*D8
 70
     1
 10
0.0
 20
0.0
 30
0.0
  3
*D8
  1

  0
LINE
  5
7E34
330
8137
100
AcDbEntity
  8
0
  6
ByBlock
100
AcDbLine
 10
2753.866167799455
 20
4554.380572240497
 30
0.0
 11
2971.802895949344
 21
4554.380572240497
 31
0.0
  0
LINE
  5
7E35
330
8137
100
AcDbEntity
  8
0
  6
ByBlock
100
AcDbLine
 10
2753.866167799455
 20
3299.3805722405
 30
0.0
 11
2971.802895949344
 21
3299.3805722405
 31
0.0
  0
LINE
  5
7E36
330
8137
100
AcDbEntity
  8
0
  6
ByBlock
100
AcDbLine
 10
2946.802895949344
 20
4504.380572240497
 30
0.0
 11
2946.802895949344
 21
3349.380572240499
 31
0.0
  0
INSERT
  5
7E37
330
8137
100
AcDbEntity
  8
0
  6
ByBlock
100
AcDbBlockReference
  2
_OPEN
 10
2946.802895949344
 20
4554.380572240497
 30
0.0
 41
50.0
 42
50.0
 43
50.0
 50
90.0
  0
INSERT
  5
7E38
330
8137
100
AcDbEntity
  8
0
  6
ByBlock
100
AcDbBlockReference
  2
_OPEN
 10
2946.802895949344
 20
3299.3805722405
 30
0.0
 41
50.0
 42
50.0
 43
50.0
 50
270.0
  0
TEXT
  5
7E39
330
8137
100
AcDbEntity
  8
3
100
AcDbText
 10
2934.302895949344
 20
3801.8805722405
 30
0.0
 40
75.0
  1
1255
 50
90.0
100
AcDbText
  0
POINT
  5
7E3A
330
8137
100
AcDbEntity
  8
DEFPOINTS
  6
ByBlock
 62
     0
100
AcDbPoint
 10
2728.866167799455
 20
4554.380572240497
 30
0.0
  0
POINT
  5
7E3B
330
8137
100
AcDbEntity
  8
DEFPOINTS
  6
ByBlock
 62
     0
100
AcDbPoint
 10
2728.866167799455
 20
3299.3805722405
 30
0.0
  0
POINT
  5
7E3C
330
8137
100
AcDbEntity
  8
DEFPOINTS
  6
ByBlock
 62
     0
100
AcDbPoint
 10
2946.802895949344
 20
3299.3805722405
 30
0.0
  0
ENDBLK
  5
7E3D
330
8137
100
AcDbEntity
  8
0
100
AcDbBlockEnd
  0
BLOCK
  5
813A
330
8139
100
AcDbEntity
  8
0
100
AcDbBlockBegin
  2
*D9
 70
     1
 10
0.0
 20
0.0
 30
0.0
  3
*D9
  1

  0
LINE
  5
7E3F
330
8139
100
AcDbEntity
  8
0
  6
ByBlock
100
AcDbLine
 10
953.8661677994548
 20
4049.380572240499
 30
0.0
 11
801.7133386761415
 21
4049.380572240499
 31
0.0
  0
LINE
  5
7E40
330
8139
100
AcDbEntity
  8
0
  6
ByBlock
100
AcDbLine
 10
953.8661677994548
 20
3299.3805722405
 30
0.0
 11
801.7133386761415
 21
3299.3805722405
 31
0.0
  0
LINE
  5
7E41
330
8139
100
AcDbEntity
  8
0
  6
ByBlock
100
AcDbLine
 10
826.7133386761415
 20
3999.380572240499
 30
0.0
 11
826.7133386761415
 21
3349.3805722405
 31
0.0
  0
INSERT
  5
7E42
330
8139
100
AcDbEntity
  8
0
  6
ByBlock
100
AcDbBlockReference
  2
_OPEN
 10
826.7133386761415
 20
4049.380572240499
 30
0.0
 41
50.0
 42
50.0
 43
50.0
 50
90.0
  0
INSERT
  5
7E43
330
8139
100
AcDbEntity
  8
0
  6
ByBlock
100
AcDbBlockReference
  2
_OPEN
 10
826.7133386761415
 20
3299.3805722405
 30
0.0
 41
50.0
 42
50.0
 43
50.0
 50
270.0
  0
TEXT
  5
7E44
330
8139
100
AcDbEntity
  8
3
100
AcDbText
 10
814.2133386761415
 20
3577.952000811928
 30
0.0
 40
75.0
  1
750
 50
90.0
100
AcDbText
  0
POINT
  5
7E45
330
8139
100
AcDbEntity
  8
DEFPOINTS
  6
ByBlock
 62
     0
100
AcDbPoint
 10
978.8661677994548
 20
4049.380572240499
 30
0.0
  0
POINT
  5
7E46
330
8139
100
AcDbEntity
  8
DEFPOINTS
  6
ByBlock
 62
     0
100
AcDbPoint
 10
978.8661677994548
 20
3299.3805722405
 30
0.0
  0
POINT
  5
7E47
330
8139
100
AcDbEntity
  8
DEFPOINTS
  6
ByBlock
 62
     0
100
AcDbPoint
 10
826.7133386761415
 20
3299.3805722405
 30
0.0
  0
ENDBLK
  5
7E48
330
8139
100
AcDbEntity
  8
0
100
AcDbBlockEnd
  0
BLOCK
  5
813C
330
813B
100
AcDbEntity
  8
0
100
AcDbBlockBegin
  2
*D10
 70
     1
 10
0.0
 20
0.0
 30
0.0
  3
*D10
  1

  0
LINE
  5
7E4A
330
813B
100
AcDbEntity
  8
0
  6
ByBlock
100
AcDbLine
 10
978.8661677994548
 20
3274.3805722405
 30
0.0
 11
978.8661677994548
 21
3013.7147873961
 31
0.0
  0
LINE
  5
7E4B
330
813B
100
AcDbEntity
  8
0
  6
ByBlock
100
AcDbLine
 10
2728.866167799455
 20
3274.380572240499
 30
0.0
 11
2728.866167799455
 21
3013.7147873961
 31
0.0
  0
LINE
  5
7E4C
330
813B
100
AcDbEntity
  8
0
  6
ByBlock
100
AcDbLine
 10
1028.866167799455
 20
3038.7147873961
 30
0.0
 11
2678.866167799455
 21
3038.7147873961
 31
0.0
  0
INSERT
  5
7E4D
330
813B
100
AcDbEntity
  8
0
  6
ByBlock
100
AcDbBlockReference
  2
_OPEN
 10
978.8661677994548
 20
3038.7147873961
 30
0.0
 41
50.0
 42
50.0
 43
50.0
 50
180.0
  0
INSERT
  5
7E4E
330
813B
100
AcDbEntity
  8
0
  6
ByBlock
100
AcDbBlockReference
  2
_OPEN
 10
2728.866167799455
 20
3038.7147873961
 30
0.0
 41
50.0
 42
50.0
 43
50.0
  0
TEXT
  5
7E4F
330
813B
100
AcDbEntity
  8
3
100
AcDbText
 10
1728.866167799455
 20
3051.2147873961
 30
0.0
 40
75.0
  1
1750
100
AcDbText
  0
POINT
  5
7E50
330
813B
100
AcDbEntity
  8
DEFPOINTS
  6
ByBlock
 62
     0
100
AcDbPoint
 10
978.8661677994548
 20
3299.3805722405
 30
0.0
  0
POINT
  5
7E51
330
813B
100
AcDbEntity
  8
DEFPOINTS
  6
ByBlock
 62
     0
100
AcDbPoint
 10
2728.866167799455
 20
3299.3805722405
 30
0.0
  0
POINT
  5
7E52
330
813B
100
AcDbEntity
  8
DEFPOINTS
  6
ByBlock
 62
     0
100
AcDbPoint
 10
2728.866167799455
 20
3038.7147873961
 30
0.0
  0
ENDBLK
  5
7E53
330
813B
100
AcDbEntity
  8
0
100
AcDbBlockEnd
  0
BLOCK
  5
813E
330
813D
100
AcDbEntity
  8
0
100
AcDbBlockBegin
  2
*D11
 70
     1
 10
0.0
 20
0.0
 30
0.0
  3
*D11
  1

  0
LINE
  5
7F84
330
813D
100
AcDbEntity
  8
0
  6
ByBlock
100
AcDbLine
 10
3489.831002171238
 20
3160.957379976157
 30
0.0
 11
3489.831002171238
 21
3275.072520919997
 31
0.0
  0
LINE
  5
7F85
330
813D
100
AcDbEntity
  8
0
  6
ByBlock
100
AcDbLine
 10
4489.831002171237
 20
3160.957379976157
 30
0.0
 11
4489.831002171237
 21
3275.072520919997
 31
0.0
  0
LINE
  5
7F86
330
813D
100
AcDbEntity
  8
0
  6
ByBlock
100
AcDbLine
 10
3539.831002171236
 20
3250.072520919997
 30
0.0
 11
4439.831002171238
 21
3250.072520919997
 31
0.0
  0
INSERT
  5
7F87
330
813D
100
AcDbEntity
  8
0
  6
ByBlock
100
AcDbBlockReference
  2
_OPEN
 10
3489.831002171238
 20
3250.072520919997
 30
0.0
 41
50.0
 42
50.0
 43
50.0
 50
180.0
  0
INSERT
  5
7F88
330
813D
100
AcDbEntity
  8
0
  6
ByBlock
100
AcDbBlockReference
  2
_OPEN
 10
4489.831002171237
 20
3250.072520919997
 30
0.0
 41
50.0
 42
50.0
 43
50.0
  0
TEXT
  5
7F89
330
813D
100
AcDbEntity
  8
3
100
AcDbText
 10
3864.831002171238
 20
3262.572520919997
 30
0.0
 40
75.0
  1
1000
100
AcDbText
  0
POINT
  5
7F8A
330
813D
100
AcDbEntity
  8
DEFPOINTS
  6
ByBlock
 62
     0
100
AcDbPoint
 10
3489.831002171238
 20
3135.957379976157
 30
0.0
  0
POINT
  5
7F8B
330
813D
100
AcDbEntity
  8
DEFPOINTS
  6
ByBlock
 62
     0
100
AcDbPoint
 10
4489.831002171237
 20
3135.957379976157
 30
0.0
  0
POINT
  5
7F8C
330
813D
100
AcDbEntity
  8
DEFPOINTS
  6
ByBlock
 62
     0
100
AcDbPoint
 10
4489.831002171237
 20
3250.072520919997
 30
0.0
  0
ENDBLK
  5
7F8D
330
813D
100
AcDbEntity
  8
0
100
AcDbBlockEnd
  0
BLOCK
  5
8140
330
813F
100
AcDbEntity
  8
0
100
AcDbBlockBegin
  2
*D12
 70
     1
 10
0.0
 20
0.0
 30
0.0
  3
*D12
  1

  0
LINE
  5
8075
330
813F
100
AcDbEntity
  8
3
100
AcDbLine
 10
582.8333992443276
 20
4958.325114919922
 30
0.0
 11
582.8333992443276
 21
5614.448398470875
 31
0.0
  0
LINE
  5
8076
330
813F
100
AcDbEntity
  8
3
100
AcDbLine
 10
1282.833399244326
 20
5589.448398470874
 30
0.0
 11
632.8333992443276
 21
5589.448398470874
 31
0.0
  0
INSERT
  5
8077
330
813F
100
AcDbEntity
  8
3
100
AcDbBlockReference
  2
_OPEN
 10
1332.833399244326
 20
5589.448398470874
 30
0.0
 41
50.0
 42
50.0
 43
50.0
  0
INSERT
  5
8078
330
813F
100
AcDbEntity
  8
3
100
AcDbBlockReference
  2
_OPEN
 10
582.8333992443276
 20
5589.448398470874
 30
0.0
 41
50.0
 42
50.0
 43
50.0
 50
180.0
  0
TEXT
  5
80A3
330
813F
100
AcDbEntity
  8
3
100
AcDbText
 10
807.8330000000001
 20
5506.7
 30
0.0
 40
75.0
  1
750
100
AcDbText
  0
POINT
  5
807A
330
813F
100
AcDbEntity
  8
DEFPOINTS
 62
     0
100
AcDbPoint
 10
1332.833399244326
 20
5438.325114919923
 30
0.0
  0
POINT
  5
807B
330
813F
100
AcDbEntity
  8
DEFPOINTS
 62
     0
100
AcDbPoint
 10
582.8333992443276
 20
4933.325114919922
 30
0.0
  0
POINT
  5
807C
330
813F
100
AcDbEntity
  8
DEFPOINTS
 62
     0
100
AcDbPoint
 10
582.8333992443276
 20
5589.448398470874
 30
0.0
  0
ENDBLK
  5
7E7E
330
813F
100
AcDbEntity
  8
0
100
AcDbBlockEnd
  0
BLOCK
  5
8142
330
8141
100
AcDbEntity
  8
0
100
AcDbBlockBegin
  2
*D13
 70
     1
 10
0.0
 20
0.0
 30
0.0
  3
*D13
  1

  0
LINE
  5
7F79
330
8141
100
AcDbEntity
  8
0
  6
ByBlock
100
AcDbLine
 10
4589.831002171236
 20
2576.457379976157
 30
0.0
 11
4589.831002171236
 21
3449.940726555132
 31
0.0
  0
LINE
  5
7F7A
330
8141
100
AcDbEntity
  8
0
  6
ByBlock
100
AcDbLine
 10
3989.831002171238
 20
3383.565753745148
 30
0.0
 11
3989.831002171238
 21
3449.940726555132
 31
0.0
  0
LINE
  5
7F7B
330
8141
100
AcDbEntity
  8
0
  6
ByBlock
100
AcDbLine
 10
4539.831002171236
 20
3424.940726555131
 30
0.0
 11
4039.831002171236
 21
3424.940726555131
 31
0.0
  0
INSERT
  5
7F7C
330
8141
100
AcDbEntity
  8
0
  6
ByBlock
100
AcDbBlockReference
  2
_OPEN
 10
4589.831002171236
 20
3424.940726555131
 30
0.0
 41
50.0
 42
50.0
 43
50.0
  0
INSERT
  5
7F7D
330
8141
100
AcDbEntity
  8
0
  6
ByBlock
100
AcDbBlockReference
  2
_OPEN
 10
3989.831002171238
 20
3424.940726555131
 30
0.0
 41
50.0
 42
50.0
 43
50.0
 50
180.0
  0
TEXT
  5
7F7E
330
8141
100
AcDbEntity
  8
3
100
AcDbText
 10
4152.331002171236
 20
3469.583583697989
 30
0.0
 40
75.0
  1
(610)
100
AcDbText
  0
POINT
  5
7F7F
330
8141
100
AcDbEntity
  8
DEFPOINTS
  6
ByBlock
 62
     0
100
AcDbPoint
 10
4589.831002171236
 20
2551.457379976157
 30
0.0
  0
POINT
  5
7F80
330
8141
100
AcDbEntity
  8
DEFPOINTS
  6
ByBlock
 62
     0
100
AcDbPoint
 10
3989.831002171238
 20
3358.565753745148
 30
0.0
  0
POINT
  5
7F81
330
8141
100
AcDbEntity
  8
DEFPOINTS
  6
ByBlock
 62
     0
100
AcDbPoint
 10
3989.831002171238
 20
3424.940726555131
 30
0.0
  0
ENDBLK
  5
7F82
330
8141
100
AcDbEntity
  8
0
100
AcDbBlockEnd
  0
BLOCK
  5
8144
330
8143
100
AcDbEntity
  8
0
100
AcDbBlockBegin
  2
*D14
 70
     1
 10
0.0
 20
0.0
 30
0.0
  3
*D14
  1

  0
LINE
  5
807D
330
8143
100
AcDbEntity
  8
3
100
AcDbLine
 10
3179.831002171237
 20
2835.957379976158
 30
0.0
 11
3179.831002171237
 21
3449.940726555132
 31
0.0
  0
LINE
  5
807E
330
8143
100
AcDbEntity
  8
3
100
AcDbLine
 10
3939.831002171238
 20
3424.940726555131
 30
0.0
 11
3229.831002171236
 21
3424.940726555131
 31
0.0
  0
INSERT
  5
807F
330
8143
100
AcDbEntity
  8
3
100
AcDbBlockReference
  2
_OPEN
 10
3989.831002171238
 20
3424.940726555131
 30
0.0
 41
50.0
 42
50.0
 43
50.0
  0
INSERT
  5
8080
330
8143
100
AcDbEntity
  8
3
100
AcDbBlockReference
  2
_OPEN
 10
3179.831002171237
 20
3424.940726555131
 30
0.0
 41
50.0
 42
50.0
 43
50.0
 50
180.0
  0
TEXT
  5
80A4
330
8143
100
AcDbEntity
  8
3
100
AcDbText
 10
3434.83
 20
3404.69
 30
0.0
 40
75.0
  1
MAX
100
AcDbText
  0
TEXT
  5
80A5
330
8143
100
AcDbEntity
  8
3
100
AcDbText
 10
3434.83
 20
3307.19
 30
0.0
 40
75.0
  1
860
100
AcDbText
  0
POINT
  5
8082
330
8143
100
AcDbEntity
  8
DEFPOINTS
 62
     0
100
AcDbPoint
 10
3989.831002171238
 20
3358.565753745148
 30
0.0
  0
POINT
  5
8083
330
8143
100
AcDbEntity
  8
DEFPOINTS
 62
     0
100
AcDbPoint
 10
3179.831002171237
 20
2810.957379976157
 30
0.0
  0
POINT
  5
8084
330
8143
100
AcDbEntity
  8
DEFPOINTS
 62
     0
100
AcDbPoint
 10
3179.831002171237
 20
3424.940726555131
 30
0.0
  0
ENDBLK
  5
7F77
330
8143
100
AcDbEntity
  8
0
100
AcDbBlockEnd
  0
BLOCK
  5
8146
330
8145
100
AcDbEntity
  8
0
100
AcDbBlockBegin
  2
*D15
 70
     1
 10
0.0
 20
0.0
 30
0.0
  3
*D15
  1

  0
LINE
  5
8085
330
8145
100
AcDbEntity
  8
3
100
AcDbLine
 10
2400.833399244326
 20
2556.957379976157
 30
0.0
 11
2400.833399244326
 21
3461.586126092024
 31
0.0
  0
LINE
  5
8086
330
8145
100
AcDbEntity
  8
3
100
AcDbLine
 10
1882.833399244327
 20
3436.586126092024
 30
0.0
 11
2350.833399244327
 21
3436.586126092024
 31
0.0
  0
INSERT
  5
8087
330
8145
100
AcDbEntity
  8
3
100
AcDbBlockReference
  2
_OPEN
 10
1832.833399244327
 20
3436.586126092024
 30
0.0
 41
50.0
 42
50.0
 43
50.0
 50
180.0
  0
INSERT
  5
8088
330
8145
100
AcDbEntity
  8
3
100
AcDbBlockReference
  2
_OPEN
 10
2400.833399244326
 20
3436.586126092024
 30
0.0
 41
50.0
 42
50.0
 43
50.0
  0
TEXT
  5
80A6
330
8145
100
AcDbEntity
  8
3
100
AcDbText
 10
1966.83
 20
3353.84
 30
0.0
 40
75.0
  1
568
100
AcDbText
  0
POINT
  5
808A
330
8145
100
AcDbEntity
  8
DEFPOINTS
 62
     0
100
AcDbPoint
 10
1832.833399244327
 20
3257.429171826548
 30
0.0
  0
POINT
  5
808B
330
8145
100
AcDbEntity
  8
DEFPOINTS
 62
     0
100
AcDbPoint
 10
2400.833399244326
 20
2531.957379976157
 30
0.0
  0
POINT
  5
808C
330
8145
100
AcDbEntity
  8
DEFPOINTS
 62
     0
100
AcDbPoint
 10
2400.833399244326
 20
3436.586126092024
 30
0.0
  0
ENDBLK
  5
7E9D
330
8145
100
AcDbEntity
  8
0
100
AcDbBlockEnd
  0
BLOCK
  5
8148
330
8147
100
AcDbEntity
  8
0
100
AcDbBlockBegin
  2
*D16
 70
     1
 10
0.0
 20
0.0
 30
0.0
  3
*D16
  1

  0
LINE
  5
7E9F
330
8147
100
AcDbEntity
  8
0
  6
ByBlock
100
AcDbLine
 10
2273.366167799455
 20
2106.88761540948
 30
0.0
 11
3055.339309700877
 21
2106.88761540948
 31
0.0
  0
LINE
  5
7EA0
330
8147
100
AcDbEntity
  8
0
  6
ByBlock
100
AcDbLine
 10
2920.337959649845
 20
1561.887615409481
 30
0.0
 11
3055.339309700877
 21
1561.887615409481
 31
0.0
  0
LINE
  5
7EA1
330
8147
100
AcDbEntity
  8
0
  6
ByBlock
100
AcDbLine
 10
3030.339309700877
 20
2056.88761540948
 30
0.0
 11
3030.339309700877
 21
1611.887615409481
 31
0.0
  0
INSERT
  5
7EA2
330
8147
100
AcDbEntity
  8
0
  6
ByBlock
100
AcDbBlockReference
  2
_OPEN
 10
3030.339309700877
 20
2106.88761540948
 30
0.0
 41
50.0
 42
50.0
 43
50.0
 50
90.0
  0
INSERT
  5
7EA3
330
8147
100
AcDbEntity
  8
0
  6
ByBlock
100
AcDbBlockReference
  2
_OPEN
 10
3030.339309700877
 20
1561.887615409481
 30
0.0
 41
50.0
 42
50.0
 43
50.0
 50
270.0
  0
TEXT
  5
7EA4
330
8147
100
AcDbEntity
  8
3
100
AcDbText
 10
3017.839309700877
 20
1737.959043980909
 30
0.0
 40
75.0
  1
545
 50
90.0
100
AcDbText
  0
POINT
  5
7EA5
330
8147
100
AcDbEntity
  8
DEFPOINTS
  6
ByBlock
 62
     0
100
AcDbPoint
 10
2248.366167799455
 20
2106.88761540948
 30
0.0
  0
POINT
  5
7EA6
330
8147
100
AcDbEntity
  8
DEFPOINTS
  6
ByBlock
 62
     0
100
AcDbPoint
 10
2895.337959649845
 20
1561.887615409481
 30
0.0
  0
POINT
  5
7EA7
330
8147
100
AcDbEntity
  8
DEFPOINTS
  6
ByBlock
 62
     0
100
AcDbPoint
 10
3030.339309700877
 20
1561.887615409481
 30
0.0
  0
ENDBLK
  5
7EA8
330
8147
100
AcDbEntity
  8
0
100
AcDbBlockEnd
  0
BLOCK
  5
814A
330
8149
100
AcDbEntity
  8
0
100
AcDbBlockBegin
  2
*D17
 70
     1
 10
0.0
 20
0.0
 30
0.0
  3
*D17
  1

  0
LINE
  5
808D
330
8149
100
AcDbEntity
  8
3
100
AcDbLine
 10
2357.833399244327
 20
1890.957379976157
 30
0.0
 11
2659.30654114575
 21
1890.957379976157
 31
0.0
  0
LINE
  5
808E
330
8149
100
AcDbEntity
  8
3
100
AcDbLine
 10
2634.30654114575
 20
2540.957379976157
 30
0.0
 11
2634.30654114575
 21
1940.957379976157
 31
0.0
  0
INSERT
  5
808F
330
8149
100
AcDbEntity
  8
3
100
AcDbBlockReference
  2
_OPEN
 10
2634.30654114575
 20
2590.957379976158
 30
0.0
 41
50.0
 42
50.0
 43
50.0
 50
90.0
  0
INSERT
  5
8090
330
8149
100
AcDbEntity
  8
3
100
AcDbBlockReference
  2
_OPEN
 10
2634.30654114575
 20
1890.957379976157
 30
0.0
 41
50.0
 42
50.0
 43
50.0
 50
270.0
  0
TEXT
  5
80A7
330
8149
100
AcDbEntity
  8
3
100
AcDbText
 10
2434.31
 20
2108.21
 30
0.0
 40
75.0
  1
700
100
AcDbText
  0
POINT
  5
8092
330
8149
100
AcDbEntity
  8
DEFPOINTS
 62
     0
100
AcDbPoint
 10
2499.305191094717
 20
2590.957379976158
 30
0.0
  0
POINT
  5
8093
330
8149
100
AcDbEntity
  8
DEFPOINTS
 62
     0
100
AcDbPoint
 10
2332.833399244327
 20
1890.957379976157
 30
0.0
  0
POINT
  5
8094
330
8149
100
AcDbEntity
  8
DEFPOINTS
 62
     0
100
AcDbPoint
 10
2634.30654114575
 20
1890.957379976157
 30
0.0
  0
ENDBLK
  5
7EB2
330
8149
100
AcDbEntity
  8
0
100
AcDbBlockEnd
  0
BLOCK
  5
814C
330
814B
100
AcDbEntity
  8
0
100
AcDbBlockBegin
  2
*D18
 70
     1
 10
0.0
 20
0.0
 30
0.0
  3
*D18
  1

  0
LINE
  5
8095
330
814B
100
AcDbEntity
  8
3
 62
     0
100
AcDbLine
 10
2345.333399244327
 20
1795.957379976158
 30
0.0
 11
2659.30654114575
 21
1795.957379976158
 31
0.0
  0
LINE
  5
8096
330
814B
100
AcDbEntity
  8
3
 62
     0
100
AcDbLine
 10
2345.333399244327
 20
1695.957379976158
 30
0.0
 11
2659.30654114575
 21
1695.957379976158
 31
0.0
  0
LINE
  5
8097
330
814B
100
AcDbEntity
  8
3
 62
     0
100
AcDbLine
 10
2634.30654114575
 20
1845.957379976158
 30
0.0
 11
2634.30654114575
 21
1895.957379976158
 31
0.0
  0
LINE
  5
8098
330
814B
100
AcDbEntity
  8
3
 62
     0
100
AcDbLine
 10
2634.30654114575
 20
1645.957379976158
 30
0.0
 11
2634.30654114575
 21
1367.385951404729
 31
0.0
  0
LINE
  5
8099
330
814B
100
AcDbEntity
  8
3
 62
     0
100
AcDbLine
 10
2634.30654114575
 20
1795.957379976158
 30
0.0
 11
2634.30654114575
 21
1695.957379976158
 31
0.0
  0
INSERT
  5
809A
330
814B
100
AcDbEntity
  8
3
 62
     0
100
AcDbBlockReference
  2
_DOT
 10
2634.30654114575
 20
1795.957379976158
 30
0.0
 41
50.0
 42
50.0
 43
50.0
 50
270.0
  0
INSERT
  5
809B
330
814B
100
AcDbEntity
  8
3
 62
     0
100
AcDbBlockReference
  2
_OPEN
 10
2634.30654114575
 20
1695.957379976158
 30
0.0
 41
50.0
 42
50.0
 43
50.0
 50
90.0
  0
TEXT
  5
80A8
330
814B
100
AcDbEntity
  8
3
 62
     0
100
AcDbText
 10
2421.81
 20
1348.92
 30
0.0
 40
75.0
  1
100
100
AcDbText
  0
POINT
  5
809D
330
814B
100
AcDbEntity
  8
DEFPOINTS
 62
     0
100
AcDbPoint
 10
2332.833399244327
 20
1795.957379976158
 30
0.0
  0
POINT
  5
809E
330
814B
100
AcDbEntity
  8
DEFPOINTS
 62
     0
100
AcDbPoint
 10
2332.833399244327
 20
1695.957379976158
 30
0.0
  0
POINT
  5
809F
330
814B
100
AcDbEntity
  8
DEFPOINTS
 62
     0
100
AcDbPoint
 10
2634.30654114575
 20
1695.957379976158
 30
0.0
  0
ENDBLK
  5
7F5E
330
814B
100
AcDbEntity
  8
0
100
AcDbBlockEnd
  0
BLOCK
  5
8150
330
814D
100
AcDbEntity
  8
0
100
AcDbBlockBegin
  2
_DOT
 70
     0
 10
0.0
 20
0.0
 30
0.0
  3
_DOT
  1

  0
LWPOLYLINE
  5
7F61
330
814D
100
AcDbEntity
  8
0
  6
ByBlock
 62
     0
100
AcDbPolyline
 90
        2
 70
     1
 43
0.25
 10
-0.125
 20
0.0
 42
1.0
 10
0.125
 20
0.0
 42
1.0
  0
LINE
  5
7F65
330
814D
100
AcDbEntity
  8
0
  6
ByBlock
 62
     0
100
AcDbLine
 10
-0.25
 20
0.0
 30
0.0
 11
-1.0
 21
0.0
 31
0.0
  0
ENDBLK
  5
7F44
330
814D
100
AcDbEntity
  8
0
100
AcDbBlockEnd
  0
BLOCK
  5
814F
330
814E
100
AcDbEntity
  8
0
100
AcDbBlockBegin
  2
*D20
 70
     1
 10
0.0
 20
0.0
 30
0.0
  3
*D20
  1

  0
LINE
  5
7ED8
330
814E
100
AcDbEntity
  8
0
  6
ByBlock
100
AcDbLine
 10
2796.866167799454
 20
1527.887615409481
 30
0.0
 11
2796.866167799454
 21
2580.097017149203
 31
0.0
  0
LINE
  5
7ED9
330
814E
100
AcDbEntity
  8
0
  6
ByBlock
100
AcDbLine
 10
978.8661677994548
 20
986.8876154094804
 30
0.0
 11
978.8661677994548
 21
2580.097017149203
 31
0.0
  0
LINE
  5
7EDA
330
814E
100
AcDbEntity
  8
0
  6
ByBlock
100
AcDbLine
 10
2746.866167799455
 20
2555.097017149203
 30
0.0
 11
1028.866167799454
 21
2555.097017149203
 31
0.0
  0
INSERT
  5
7EDB
330
814E
100
AcDbEntity
  8
0
  6
ByBlock
100
AcDbBlockReference
  2
_OPEN
 10
2796.866167799454
 20
2555.097017149203
 30
0.0
 41
50.0
 42
50.0
 43
50.0
  0
INSERT
  5
7EDC
330
814E
100
AcDbEntity
  8
0
  6
ByBlock
100
AcDbBlockReference
  2
_OPEN
 10
978.8661677994548
 20
2555.097017149203
 30
0.0
 41
50.0
 42
50.0
 43
50.0
 50
180.0
  0
TEXT
  5
7EDD
330
814E
100
AcDbEntity
  8
3
100
AcDbText
 10
1770.009024942311
 20
2567.597017149203
 30
0.0
 40
75.0
  1
1818
100
AcDbText
  0
POINT
  5
7EDE
330
814E
100
AcDbEntity
  8
DEFPOINTS
  6
ByBlock
 62
     0
100
AcDbPoint
 10
2796.866167799454
 20
1502.887615409481
 30
0.0
  0
POINT
  5
7EDF
330
814E
100
AcDbEntity
  8
DEFPOINTS
  6
ByBlock
 62
     0
100
AcDbPoint
 10
978.8661677994548
 20
961.8876154094804
 30
0.0
  0
POINT
  5
7EE0
330
814E
100
AcDbEntity
  8
DEFPOINTS
  6
ByBlock
 62
     0
100
AcDbPoint
 10
978.8661677994548
 20
2555.097017149203
 30
0.0
  0
ENDBLK
  5
7EE1
330
814E
100
AcDbEntity
  8
0
100
AcDbBlockEnd
  0
BLOCK
  5
8152
330
8151
100
AcDbEntity
  8
0
100
AcDbBlockBegin
  2
*D21
 70
     1
 10
0.0
 20
0.0
 30
0.0
  3
*D21
  1

  0
LINE
  5
7F98
330
8151
100
AcDbEntity
  8
0
  6
ByBlock
 62
     0
100
AcDbLine
 10
582.8333992443272
 20
1738.957379976158
 30
0.0
 11
582.8333992443272
 21
1568.069038644256
 31
0.0
  0
LINE
  5
7F99
330
8151
100
AcDbEntity
  8
0
  6
ByBlock
 62
     0
100
AcDbLine
 10
1832.833399244327
 20
1738.957379976158
 30
0.0
 11
1832.833399244327
 21
1568.069038644256
 31
0.0
  0
LINE
  5
7F9A
330
8151
100
AcDbEntity
  8
0
  6
ByBlock
 62
     0
100
AcDbLine
 10
632.8333992443272
 20
1593.069038644256
 30
0.0
 11
1782.833399244327
 21
1593.069038644256
 31
0.0
  0
INSERT
  5
7F9B
330
8151
100
AcDbEntity
  8
0
  6
ByBlock
 62
     0
100
AcDbBlockReference
  2
_OPEN
 10
582.8333992443272
 20
1593.069038644256
 30
0.0
 41
50.0
 42
50.0
 43
50.0
 50
180.0
  0
INSERT
  5
7F9C
330
8151
100
AcDbEntity
  8
0
  6
ByBlock
 62
     0
100
AcDbBlockReference
  2
_OPEN
 10
1832.833399244327
 20
1593.069038644256
 30
0.0
 41
50.0
 42
50.0
 43
50.0
  0
TEXT
  5
7F9D
330
8151
100
AcDbEntity
  8
3
 62
     0
100
AcDbText
 10
1082.833399244327
 20
1618.069038644256
 30
0.0
 40
75.0
  1
1250
100
AcDbText
  0
POINT
  5
7F9E
330
8151
100
AcDbEntity
  8
DEFPOINTS
  6
ByBlock
 62
     0
100
AcDbPoint
 10
582.8333992443272
 20
1763.957379976158
 30
0.0
  0
POINT
  5
7F9F
330
8151
100
AcDbEntity
  8
DEFPOINTS
  6
ByBlock
 62
     0
100
AcDbPoint
 10
1832.833399244327
 20
1763.957379976158
 30
0.0
  0
POINT
  5
7FA0
330
8151
100
AcDbEntity
  8
DEFPOINTS
  6
ByBlock
 62
     0
100
AcDbPoint
 10
1832.833399244327
 20
1593.069038644256
 30
0.0
  0
ENDBLK
  5
7FA1
330
8151
100
AcDbEntity
  8
0
100
AcDbBlockEnd
  0
BLOCK
  5
8154
330
8153
100
AcDbEntity
  8
0
100
AcDbBlockBegin
  2
*D22
 70
     1
 10
0.0
 20
0.0
 30
0.0
  3
*D22
  1

  0
LINE
  5
7FA5
330
8153
100
AcDbEntity
  8
0
  6
ByBlock
 62
     0
100
AcDbLine
 10
1832.833399244327
 20
1738.957379976158
 30
0.0
 11
1832.833399244327
 21
1568.069038644256
 31
0.0
  0
LINE
  5
7FA6
330
8153
100
AcDbEntity
  8
0
  6
ByBlock
 62
     0
100
AcDbLine
 10
2332.833399244327
 20
1738.957379976158
 30
0.0
 11
2332.833399244327
 21
1568.069038644256
 31
0.0
  0
LINE
  5
7FA7
330
8153
100
AcDbEntity
  8
0
  6
ByBlock
 62
     0
100
AcDbLine
 10
1882.833399244327
 20
1593.069038644256
 30
0.0
 11
2282.833399244327
 21
1593.069038644256
 31
0.0
  0
INSERT
  5
7FA8
330
8153
100
AcDbEntity
  8
0
  6
ByBlock
 62
     0
100
AcDbBlockReference
  2
_OPEN
 10
1832.833399244327
 20
1593.069038644256
 30
0.0
 41
50.0
 42
50.0
 43
50.0
 50
180.0
  0
INSERT
  5
7FA9
330
8153
100
AcDbEntity
  8
0
  6
ByBlock
 62
     0
100
AcDbBlockReference
  2
_OPEN
 10
2332.833399244327
 20
1593.069038644256
 30
0.0
 41
50.0
 42
50.0
 43
50.0
  0
TEXT
  5
7FAA
330
8153
100
AcDbEntity
  8
3
 62
     0
100
AcDbText
 10
1986.404827815755
 20
1618.069038644256
 30
0.0
 40
75.0
  1
500
100
AcDbText
  0
POINT
  5
7FAB
330
8153
100
AcDbEntity
  8
DEFPOINTS
  6
ByBlock
 62
     0
100
AcDbPoint
 10
1832.833399244327
 20
1763.957379976158
 30
0.0
  0
POINT
  5
7FAC
330
8153
100
AcDbEntity
  8
DEFPOINTS
  6
ByBlock
 62
     0
100
AcDbPoint
 10
2332.833399244327
 20
1763.957379976158
 30
0.0
  0
POINT
  5
7FAD
330
8153
100
AcDbEntity
  8
DEFPOINTS
  6
ByBlock
 62
     0
100
AcDbPoint
 10
2332.833399244327
 20
1593.069038644256
 30
0.0
  0
ENDBLK
  5
7FAE
330
8153
100
AcDbEntity
  8
0
100
AcDbBlockEnd
  0
BLOCK
  5
8156
330
8155
100
AcDbEntity
  8
0
100
AcDbBlockBegin
  2
*D23
 70
     1
 10
0.0
 20
0.0
 30
0.0
  3
*D23
  1

  0
LINE
  5
7FB2
330
8155
100
AcDbEntity
  8
0
  6
ByBlock
 62
     0
100
AcDbLine
 10
3287.831002171236
 20
1738.957379976158
 30
0.0
 11
3287.831002171236
 21
1568.069038644256
 31
0.0
  0
LINE
  5
7FB3
330
8155
100
AcDbEntity
  8
0
  6
ByBlock
 62
     0
100
AcDbLine
 10
3989.831002171238
 20
1738.957379976158
 30
0.0
 11
3989.831002171238
 21
1568.069038644256
 31
0.0
  0
LINE
  5
7FB4
330
8155
100
AcDbEntity
  8
0
  6
ByBlock
 62
     0
100
AcDbLine
 10
3337.831002171236
 20
1593.069038644256
 30
0.0
 11
3939.831002171239
 21
1593.069038644256
 31
0.0
  0
INSERT
  5
7FB5
330
8155
100
AcDbEntity
  8
0
  6
ByBlock
 62
     0
100
AcDbBlockReference
  2
_OPEN
 10
3287.831002171236
 20
1593.069038644256
 30
0.0
 41
50.0
 42
50.0
 43
50.0
 50
180.0
  0
INSERT
  5
7FB6
330
8155
100
AcDbEntity
  8
0
  6
ByBlock
 62
     0
100
AcDbBlockReference
  2
_OPEN
 10
3989.831002171238
 20
1593.069038644256
 30
0.0
 41
50.0
 42
50.0
 43
50.0
  0
TEXT
  5
7FB7
330
8155
100
AcDbEntity
  8
3
 62
     0
100
AcDbText
 10
3542.402430742667
 20
1618.069038644256
 30
0.0
 40
75.0
  1
702
100
AcDbText
  0
POINT
  5
7FB8
330
8155
100
AcDbEntity
  8
DEFPOINTS
  6
ByBlock
 62
     0
100
AcDbPoint
 10
3287.831002171236
 20
1763.957379976158
 30
0.0
  0
POINT
  5
7FB9
330
8155
100
AcDbEntity
  8
DEFPOINTS
  6
ByBlock
 62
     0
100
AcDbPoint
 10
3989.831002171238
 20
1763.957379976158
 30
0.0
  0
POINT
  5
7FBA
330
8155
100
AcDbEntity
  8
DEFPOINTS
  6
ByBlock
 62
     0
100
AcDbPoint
 10
3989.831002171238
 20
1593.069038644256
 30
0.0
  0
ENDBLK
  5
7FBB
330
8155
100
AcDbEntity
  8
0
100
AcDbBlockEnd
  0
BLOCK
  5
8158
330
8157
100
AcDbEntity
  8
0
100
AcDbBlockBegin
  2
*D24
 70
     1
 10
0.0
 20
0.0
 30
0.0
  3
*D24
  1

  0
LINE
  5
7FBF
330
8157
100
AcDbEntity
  8
0
  6
ByBlock
 62
     0
100
AcDbLine
 10
3989.831002171238
 20
1738.957379976158
 30
0.0
 11
3989.831002171238
 21
1568.069038644256
 31
0.0
  0
LINE
  5
7FC0
330
8157
100
AcDbEntity
  8
0
  6
ByBlock
 62
     0
100
AcDbLine
 10
4542.831002171237
 20
1738.957379976158
 30
0.0
 11
4542.831002171237
 21
1568.069038644256
 31
0.0
  0
LINE
  5
7FC1
330
8157
100
AcDbEntity
  8
0
  6
ByBlock
 62
     0
100
AcDbLine
 10
4039.831002171238
 20
1593.069038644256
 30
0.0
 11
4492.831002171237
 21
1593.069038644256
 31
0.0
  0
INSERT
  5
7FC2
330
8157
100
AcDbEntity
  8
0
  6
ByBlock
 62
     0
100
AcDbBlockReference
  2
_OPEN
 10
3989.831002171238
 20
1593.069038644256
 30
0.0
 41
50.0
 42
50.0
 43
50.0
 50
180.0
  0
INSERT
  5
7FC3
330
8157
100
AcDbEntity
  8
0
  6
ByBlock
 62
     0
100
AcDbBlockReference
  2
_OPEN
 10
4542.831002171237
 20
1593.069038644256
 30
0.0
 41
50.0
 42
50.0
 43
50.0
  0
TEXT
  5
7FC4
330
8157
100
AcDbEntity
  8
3
 62
     0
100
AcDbText
 10
4169.902430742665
 20
1618.069038644256
 30
0.0
 40
75.0
  1
553
100
AcDbText
  0
POINT
  5
7FC5
330
8157
100
AcDbEntity
  8
DEFPOINTS
  6
ByBlock
 62
     0
100
AcDbPoint
 10
3989.831002171238
 20
1763.957379976158
 30
0.0
  0
POINT
  5
7FC6
330
8157
100
AcDbEntity
  8
DEFPOINTS
  6
ByBlock
 62
     0
100
AcDbPoint
 10
4542.831002171237
 20
1763.957379976158
 30
0.0
  0
POINT
  5
7FC7
330
8157
100
AcDbEntity
  8
DEFPOINTS
  6
ByBlock
 62
     0
100
AcDbPoint
 10
4542.831002171237
 20
1593.069038644256
 30
0.0
  0
ENDBLK
  5
7FC8
330
8157
100
AcDbEntity
  8
0
100
AcDbBlockEnd
  0
BLOCK
  5
815A
330
8159
100
AcDbEntity
  8
0
100
AcDbBlockBegin
  2
_NONE
 70
     0
 10
0.0
 20
0.0
 30
0.0
  3
_NONE
  1

  0
CIRCLE
  5
7FCC
330
8159
100
AcDbEntity
  8
0
  6
ByBlock
 62
     0
100
AcDbCircle
 10
0.0
 20
0.0
 30
0.0
 40
0.25
  0
ENDBLK
  5
7FCD
330
8159
100
AcDbEntity
  8
0
100
AcDbBlockEnd
  0
BLOCK
  5
815C
330
815B
100
AcDbEntity
  8
0
100
AcDbBlockBegin
  2
*D26
 70
     1
 10
0.0
 20
0.0
 30
0.0
  3
*D26
  1

  0
LINE
  5
7FEA
330
815B
100
AcDbEntity
  8
0
  6
ByBlock
 62
     0
100
AcDbLine
 10
2631.554463051707
 20
1795.957379976158
 30
0.0
 11
2631.554463051707
 21
1890.957379976157
 31
0.0
  0
TEXT
  5
7FEB
330
815B
100
AcDbEntity
  8
3
 62
     0
100
AcDbText
 10
2776.197320194564
 20
1734.528808547586
 30
0.0
 40
75.0
  1
(95)
 50
90.0
100
AcDbText
  0
POINT
  5
7FEC
330
815B
100
AcDbEntity
  8
DEFPOINTS
  6
ByBlock
 62
     0
100
AcDbPoint
 10
2332.833399244327
 20
1795.957379976158
 30
0.0
  0
POINT
  5
7FED
330
815B
100
AcDbEntity
  8
DEFPOINTS
  6
ByBlock
 62
     0
100
AcDbPoint
 10
2332.833399244327
 20
1890.957379976157
 30
0.0
  0
POINT
  5
7FEE
330
815B
100
AcDbEntity
  8
DEFPOINTS
  6
ByBlock
 62
     0
100
AcDbPoint
 10
2631.554463051707
 20
1890.957379976157
 30
0.0
  0
ENDBLK
  5
7FEF
330
815B
100
AcDbEntity
  8
0
100
AcDbBlockEnd
  0
BLOCK
  5
815E
330
815D
100
AcDbEntity
  8
0
100
AcDbBlockBegin
  2
*D27
 70
     1
 10
0.0
 20
0.0
 30
0.0
  3
*D27
  1

  0
LINE
  5
7FF3
330
815D
100
AcDbEntity
  8
0
  6
ByBlock
 62
     0
100
AcDbLine
 10
1877.333399244326
 20
3135.957379976157
 30
0.0
 11
2843.735815005683
 21
3135.957379976157
 31
0.0
  0
LINE
  5
7FF4
330
815D
100
AcDbEntity
  8
0
  6
ByBlock
 62
     0
100
AcDbLine
 10
2357.833399244327
 20
1695.957379976158
 30
0.0
 11
2843.735815005683
 21
1695.957379976158
 31
0.0
  0
LINE
  5
7FF5
330
815D
100
AcDbEntity
  8
0
  6
ByBlock
 62
     0
100
AcDbLine
 10
2818.735815005682
 20
3085.957379976158
 30
0.0
 11
2818.735815005682
 21
1745.957379976158
 31
0.0
  0
INSERT
  5
7FF6
330
815D
100
AcDbEntity
  8
0
  6
ByBlock
 62
     0
100
AcDbBlockReference
  2
_OPEN
 10
2818.735815005682
 20
3135.957379976157
 30
0.0
 41
50.0
 42
50.0
 43
50.0
 50
90.0
  0
INSERT
  5
7FF7
330
815D
100
AcDbEntity
  8
0
  6
ByBlock
 62
     0
100
AcDbBlockReference
  2
_OPEN
 10
2818.735815005682
 20
1695.957379976158
 30
0.0
 41
50.0
 42
50.0
 43
50.0
 50
270.0
  0
TEXT
  5
7FF8
330
815D
100
AcDbEntity
  8
3
 62
     0
100
AcDbText
 10
2761.592957862825
 20
2242.743094261872
 30
0.0
 40
75.0
  1
(1440)
 50
90.0
100
AcDbText
  0
POINT
  5
7FF9
330
815D
100
AcDbEntity
  8
DEFPOINTS
  6
ByBlock
 62
     0
100
AcDbPoint
 10
1852.333399244326
 20
3135.957379976157
 30
0.0
  0
POINT
  5
7FFA
330
815D
100
AcDbEntity
  8
DEFPOINTS
  6
ByBlock
 62
     0
100
AcDbPoint
 10
2332.833399244327
 20
1695.957379976158
 30
0.0
  0
POINT
  5
7FFB
330
815D
100
AcDbEntity
  8
DEFPOINTS
  6
ByBlock
 62
     0
100
AcDbPoint
 10
2818.735815005682
 20
1695.957379976158
 30
0.0
  0
ENDBLK
  5
7FFC
330
815D
100
AcDbEntity
  8
0
100
AcDbBlockEnd
  0
BLOCK
  5
81F3
330
81F2
100
AcDbEntity
  8
0
100
AcDbBlockBegin
  2
*D29
 70
     1
 10
0.0
 20
0.0
 30
0.0
  3
*D29
  1

  0
LINE
  5
82C0
330
81F2
100
AcDbEntity
  8
3
 62
     0
370
    -2
100
AcDbLine
 10
3089.831002171238
 20
2835.957379976158
 30
0.0
 11
3089.831002171238
 21
3585.211759849623
 31
0.0
  0
LINE
  5
82C1
330
81F2
100
AcDbEntity
  8
3
 62
     0
370
    -2
100
AcDbLine
 10
3989.831002171238
 20
3362.572520919997
 30
0.0
 11
3989.831002171238
 21
3585.211759849623
 31
0.0
  0
LINE
  5
82C2
330
81F2
100
AcDbEntity
  8
3
 62
     0
370
    -2
100
AcDbLine
 10
3139.831002171237
 20
3560.211759849623
 30
0.0
 11
3939.831002171238
 21
3560.211759849623
 31
0.0
  0
INSERT
  5
82C3
330
81F2
100
AcDbEntity
  8
3
 62
     0
370
    -2
100
AcDbBlockReference
  2
_OPEN
 10
3089.831002171238
 20
3560.211759849623
 30
0.0
 41
50.0
 42
50.0
 43
50.0
 50
180.0
  0
INSERT
  5
82C4
330
81F2
100
AcDbEntity
  8
3
 62
     0
370
    -2
100
AcDbBlockReference
  2
_OPEN
 10
3989.831002171238
 20
3560.211759849623
 30
0.0
 41
50.0
 42
50.0
 43
50.0
  0
MTEXT
  5
82C5
330
81F2
100
AcDbEntity
  8
3
 62
     0
100
AcDbMText
 10
3539.831002171238
 20
3642.35461699248
 30
0.0
 40
75.0
 41
0.0
 71
     5
 72
     1
  1
\A1;(900)
 73
     1
 44
1.0
1001
ACAD
1000
MTEXTBEGIN
1070
    73
1070
     1
1070
    44
1040
1.0
1070
    74
1070
     0
1000
MTEXTEND
  0
POINT
  5
82C6
330
81F2
100
AcDbEntity
  8
DEFPOINTS
 62
     0
100
AcDbPoint
 10
3089.831002171238
 20
2810.957379976157
 30
0.0
  0
POINT
  5
82C7
330
81F2
100
AcDbEntity
  8
DEFPOINTS
 62
     0
100
AcDbPoint
 10
3989.831002171238
 20
3337.572520919997
 30
0.0
  0
POINT
  5
82C8
330
81F2
100
AcDbEntity
  8
DEFPOINTS
 62
     0
100
AcDbPoint
 10
3989.831002171238
 20
3560.211759849623
 30
0.0
  0
ENDBLK
  5
81F4
330
81F2
100
AcDbEntity
  8
0
100
AcDbBlockEnd
  0
BLOCK
  5
8200
330
81FF
100
AcDbEntity
  8
0
100
AcDbBlockBegin
  2
*D30
 70
     1
 10
0.0
 20
0.0
 30
0.0
  3
*D30
  1

  0
LINE
  5
82C9
330
81FF
100
AcDbEntity
  8
3
 62
     0
370
    -2
100
AcDbLine
 10
3989.831002171238
 20
3362.572520919997
 30
0.0
 11
3989.831002171238
 21
3585.211759849623
 31
0.0
  0
LINE
  5
82CA
330
81FF
100
AcDbEntity
  8
3
 62
     0
370
    -2
100
AcDbLine
 10
4599.831002171237
 20
2551.196906222125
 30
0.0
 11
4599.831002171237
 21
3585.211759849623
 31
0.0
  0
LINE
  5
82CB
330
81FF
100
AcDbEntity
  8
3
 62
     0
370
    -2
100
AcDbLine
 10
4039.831002171237
 20
3560.211759849623
 30
0.0
 11
4549.831002171237
 21
3560.211759849623
 31
0.0
  0
INSERT
  5
82CC
330
81FF
100
AcDbEntity
  8
3
 62
     0
370
    -2
100
AcDbBlockReference
  2
_OPEN
 10
3989.831002171238
 20
3560.211759849623
 30
0.0
 41
50.0
 42
50.0
 43
50.0
 50
180.0
  0
INSERT
  5
82CD
330
81FF
100
AcDbEntity
  8
3
 62
     0
370
    -2
100
AcDbBlockReference
  2
_OPEN
 10
4599.831002171237
 20
3560.211759849623
 30
0.0
 41
50.0
 42
50.0
 43
50.0
  0
MTEXT
  5
82CE
330
81FF
100
AcDbEntity
  8
3
 62
     0
100
AcDbMText
 10
4294.831002171236
 20
3642.35461699248
 30
0.0
 40
75.0
 41
0.0
 71
     5
 72
     1
  1
\A1;(610)
 73
     1
 44
1.0
1001
ACAD
1000
MTEXTBEGIN
1070
    73
1070
     1
1070
    44
1040
1.0
1070
    74
1070
     0
1000
MTEXTEND
  0
POINT
  5
82CF
330
81FF
100
AcDbEntity
  8
DEFPOINTS
 62
     0
100
AcDbPoint
 10
3989.831002171238
 20
3337.572520919997
 30
0.0
  0
POINT
  5
82D0
330
81FF
100
AcDbEntity
  8
DEFPOINTS
 62
     0
100
AcDbPoint
 10
4599.831002171237
 20
2526.196906222125
 30
0.0
  0
POINT
  5
82D1
330
81FF
100
AcDbEntity
  8
DEFPOINTS
 62
     0
100
AcDbPoint
 10
4599.831002171237
 20
3560.211759849623
 30
0.0
  0
ENDBLK
  5
8201
330
81FF
100
AcDbEntity
  8
0
100
AcDbBlockEnd
  0
BLOCK
  5
821E
330
821D
100
AcDbEntity
  8
0
100
AcDbBlockBegin
  2
*D31
 70
     1
 10
0.0
 20
0.0
 30
0.0
  3
*D31
  1

  0
LINE
  5
8220
330
821D
100
AcDbEntity
  8
3
 62
     0
370
    -2
100
AcDbLine
 10
582.8333992443276
 20
1685.957379976158
 30
0.0
 11
582.8333992443276
 21
1535.569038644256
 31
0.0
  0
LINE
  5
8221
330
821D
100
AcDbEntity
  8
3
 62
     0
370
    -2
100
AcDbLine
 10
1832.833399244327
 20
1685.957379976158
 30
0.0
 11
1832.833399244327
 21
1535.569038644256
 31
0.0
  0
LINE
  5
8222
330
821D
100
AcDbEntity
  8
3
 62
     0
370
    -2
100
AcDbLine
 10
587.3333992443276
 20
1540.069038644256
 30
0.0
 11
1198.083399244327
 21
1540.069038644256
 31
0.0
  0
LINE
  5
8223
330
821D
100
AcDbEntity
  8
3
 62
     0
370
    -2
100
AcDbLine
 10
1828.333399244327
 20
1540.069038644256
 30
0.0
 11
1217.583399244327
 21
1540.069038644256
 31
0.0
  0
SOLID
  5
8224
330
821D
100
AcDbEntity
  8
3
 62
     0
100
AcDbTrace
 10
587.3333992443276
 20
1540.819038644256
 30
0.0
 11
587.3333992443276
 21
1539.319038644256
 31
0.0
 12
582.8333992443276
 22
1540.069038644256
 32
0.0
 13
582.8333992443276
 23
1540.069038644256
 33
0.0
  0
SOLID
  5
8225
330
821D
100
AcDbEntity
  8
3
 62
     0
100
AcDbTrace
 10
1828.333399244327
 20
1540.819038644256
 30
0.0
 11
1828.333399244327
 21
1539.319038644256
 31
0.0
 12
1832.833399244327
 22
1540.069038644256
 32
0.0
 13
1832.833399244327
 23
1540.069038644256
 33
0.0
  0
MTEXT
  5
8226
330
821D
100
AcDbEntity
  8
3
 62
     0
100
AcDbMText
 10
1207.833399244327
 20
1540.069038644256
 30
0.0
 40
4.5
 41
0.0
 71
     5
 72
     1
  1
\A1;1250
 73
     1
 44
1.0
1001
ACAD
1000
MTEXTBEGIN
1070
    73
1070
     1
1070
    44
1040
1.0
1070
    74
1070
     0
1000
MTEXTEND
  0
POINT
  5
8227
330
821D
100
AcDbEntity
  8
DEFPOINTS
 62
     0
100
AcDbPoint
 10
582.8333992443276
 20
1710.957379976158
 30
0.0
  0
POINT
  5
8228
330
821D
100
AcDbEntity
  8
DEFPOINTS
 62
     0
100
AcDbPoint
 10
1832.833399244327
 20
1710.957379976158
 30
0.0
  0
POINT
  5
8229
330
821D
100
AcDbEntity
  8
DEFPOINTS
 62
     0
100
AcDbPoint
 10
1832.833399244327
 20
1540.069038644256
 30
0.0
  0
ENDBLK
  5
821F
330
821D
100
AcDbEntity
  8
0
100
AcDbBlockEnd
  0
BLOCK
  5
822B
330
822A
100
AcDbEntity
  8
0
100
AcDbBlockBegin
  2
*D32
 70
     1
 10
0.0
 20
0.0
 30
0.0
  3
*D32
  1

  0
LINE
  5
822D
330
822A
100
AcDbEntity
  8
3
 62
     0
370
    -2
100
AcDbLine
 10
1832.833399244327
 20
1685.957379976158
 30
0.0
 11
1832.833399244327
 21
1535.569038644256
 31
0.0
  0
LINE
  5
822E
330
822A
100
AcDbEntity
  8
3
 62
     0
370
    -2
100
AcDbLine
 10
2332.833399244327
 20
1685.957379976158
 30
0.0
 11
2332.833399244327
 21
1535.569038644256
 31
0.0
  0
LINE
  5
822F
330
822A
100
AcDbEntity
  8
3
 62
     0
370
    -2
100
AcDbLine
 10
1837.333399244327
 20
1540.069038644256
 30
0.0
 11
2074.797684958613
 21
1540.069038644256
 31
0.0
  0
LINE
  5
8230
330
822A
100
AcDbEntity
  8
3
 62
     0
370
    -2
100
AcDbLine
 10
2328.333399244327
 20
1540.069038644256
 30
0.0
 11
2090.869113530041
 21
1540.069038644256
 31
0.0
  0
SOLID
  5
8231
330
822A
100
AcDbEntity
  8
3
 62
     0
100
AcDbTrace
 10
1837.333399244327
 20
1540.819038644256
 30
0.0
 11
1837.333399244327
 21
1539.319038644256
 31
0.0
 12
1832.833399244327
 22
1540.069038644256
 32
0.0
 13
1832.833399244327
 23
1540.069038644256
 33
0.0
  0
SOLID
  5
8232
330
822A
100
AcDbEntity
  8
3
 62
     0
100
AcDbTrace
 10
2328.333399244327
 20
1540.819038644256
 30
0.0
 11
2328.333399244327
 21
1539.319038644256
 31
0.0
 12
2332.833399244327
 22
1540.069038644256
 32
0.0
 13
2332.833399244327
 23
1540.069038644256
 33
0.0
  0
MTEXT
  5
8233
330
822A
100
AcDbEntity
  8
3
 62
     0
100
AcDbMText
 10
2082.833399244327
 20
1540.069038644256
 30
0.0
 40
4.5
 41
0.0
 71
     5
 72
     1
  1
\A1;500
 73
     1
 44
1.0
1001
ACAD
1000
MTEXTBEGIN
1070
    73
1070
     1
1070
    44
1040
1.0
1070
    74
1070
     0
1000
MTEXTEND
  0
POINT
  5
8234
330
822A
100
AcDbEntity
  8
DEFPOINTS
 62
     0
100
AcDbPoint
 10
1832.833399244327
 20
1710.957379976158
 30
0.0
  0
POINT
  5
8235
330
822A
100
AcDbEntity
  8
DEFPOINTS
 62
     0
100
AcDbPoint
 10
2332.833399244327
 20
1710.957379976158
 30
0.0
  0
POINT
  5
8236
330
822A
100
AcDbEntity
  8
DEFPOINTS
 62
     0
100
AcDbPoint
 10
2332.833399244327
 20
1540.069038644256
 30
0.0
  0
ENDBLK
  5
822C
330
822A
100
AcDbEntity
  8
0
100
AcDbBlockEnd
  0
BLOCK
  5
8238
330
8237
100
AcDbEntity
  8
0
100
AcDbBlockBegin
  2
*D33
 70
     1
 10
0.0
 20
0.0
 30
0.0
  3
*D33
  1

  0
LINE
  5
823A
330
8237
100
AcDbEntity
  8
3
 62
     0
370
    -2
100
AcDbLine
 10
3287.831002171236
 20
1685.957379976158
 30
0.0
 11
3287.831002171236
 21
1535.569038644256
 31
0.0
  0
LINE
  5
823B
330
8237
100
AcDbEntity
  8
3
 62
     0
370
    -2
100
AcDbLine
 10
3989.831002171238
 20
1685.957379976158
 30
0.0
 11
3989.831002171238
 21
1535.569038644256
 31
0.0
  0
LINE
  5
823C
330
8237
100
AcDbEntity
  8
3
 62
     0
370
    -2
100
AcDbLine
 10
3292.331002171236
 20
1540.069038644256
 30
0.0
 11
3630.795287885522
 21
1540.069038644256
 31
0.0
  0
LINE
  5
823D
330
8237
100
AcDbEntity
  8
3
 62
     0
370
    -2
100
AcDbLine
 10
3985.331002171238
 20
1540.069038644256
 30
0.0
 11
3646.866716456951
 21
1540.069038644256
 31
0.0
  0
SOLID
  5
823E
330
8237
100
AcDbEntity
  8
3
 62
     0
100
AcDbTrace
 10
3292.331002171236
 20
1540.819038644256
 30
0.0
 11
3292.331002171236
 21
1539.319038644256
 31
0.0
 12
3287.831002171236
 22
1540.069038644256
 32
0.0
 13
3287.831002171236
 23
1540.069038644256
 33
0.0
  0
SOLID
  5
823F
330
8237
100
AcDbEntity
  8
3
 62
     0
100
AcDbTrace
 10
3985.331002171238
 20
1540.819038644256
 30
0.0
 11
3985.331002171238
 21
1539.319038644256
 31
0.0
 12
3989.831002171238
 22
1540.069038644256
 32
0.0
 13
3989.831002171238
 23
1540.069038644256
 33
0.0
  0
MTEXT
  5
8240
330
8237
100
AcDbEntity
  8
3
 62
     0
100
AcDbMText
 10
3638.831002171237
 20
1540.069038644256
 30
0.0
 40
4.5
 41
0.0
 71
     5
 72
     1
  1
\A1;702
 73
     1
 44
1.0
1001
ACAD
1000
MTEXTBEGIN
1070
    73
1070
     1
1070
    44
1040
1.0
1070
    74
1070
     0
1000
MTEXTEND
  0
POINT
  5
8241
330
8237
100
AcDbEntity
  8
DEFPOINTS
 62
     0
100
AcDbPoint
 10
3287.831002171236
 20
1710.957379976158
 30
0.0
  0
POINT
  5
8242
330
8237
100
AcDbEntity
  8
DEFPOINTS
 62
     0
100
AcDbPoint
 10
3989.831002171238
 20
1710.957379976158
 30
0.0
  0
POINT
  5
8243
330
8237
100
AcDbEntity
  8
DEFPOINTS
 62
     0
100
AcDbPoint
 10
3989.831002171238
 20
1540.069038644256
 30
0.0
  0
ENDBLK
  5
8239
330
8237
100
AcDbEntity
  8
0
100
AcDbBlockEnd
  0
BLOCK
  5
8245
330
8244
100
AcDbEntity
  8
0
100
AcDbBlockBegin
  2
*D34
 70
     1
 10
0.0
 20
0.0
 30
0.0
  3
*D34
  1

  0
LINE
  5
8247
330
8244
100
AcDbEntity
  8
3
 62
     0
370
    -2
100
AcDbLine
 10
3989.831002171238
 20
1685.957379976158
 30
0.0
 11
3989.831002171238
 21
1535.569038644256
 31
0.0
  0
LINE
  5
8248
330
8244
100
AcDbEntity
  8
3
 62
     0
370
    -2
100
AcDbLine
 10
4542.831002171237
 20
1685.957379976158
 30
0.0
 11
4542.831002171237
 21
1535.569038644256
 31
0.0
  0
LINE
  5
8249
330
8244
100
AcDbEntity
  8
3
 62
     0
370
    -2
100
AcDbLine
 10
3994.331002171239
 20
1540.069038644256
 30
0.0
 11
4258.295287885522
 21
1540.069038644256
 31
0.0
  0
LINE
  5
824A
330
8244
100
AcDbEntity
  8
3
 62
     0
370
    -2
100
AcDbLine
 10
4538.331002171236
 20
1540.069038644256
 30
0.0
 11
4274.366716456952
 21
1540.069038644256
 31
0.0
  0
SOLID
  5
824B
330
8244
100
AcDbEntity
  8
3
 62
     0
100
AcDbTrace
 10
3994.331002171239
 20
1540.819038644256
 30
0.0
 11
3994.331002171239
 21
1539.319038644256
 31
0.0
 12
3989.831002171238
 22
1540.069038644256
 32
0.0
 13
3989.831002171238
 23
1540.069038644256
 33
0.0
  0
SOLID
  5
824C
330
8244
100
AcDbEntity
  8
3
 62
     0
100
AcDbTrace
 10
4538.331002171236
 20
1540.819038644256
 30
0.0
 11
4538.331002171236
 21
1539.319038644256
 31
0.0
 12
4542.831002171237
 22
1540.069038644256
 32
0.0
 13
4542.831002171237
 23
1540.069038644256
 33
0.0
  0
MTEXT
  5
824D
330
8244
100
AcDbEntity
  8
3
 62
     0
100
AcDbMText
 10
4266.331002171237
 20
1540.069038644256
 30
0.0
 40
4.5
 41
0.0
 71
     5
 72
     1
  1
\A1;553
 73
     1
 44
1.0
1001
ACAD
1000
MTEXTBEGIN
1070
    73
1070
     1
1070
    44
1040
1.0
1070
    74
1070
     0
1000
MTEXTEND
  0
POINT
  5
824E
330
8244
100
AcDbEntity
  8
DEFPOINTS
 62
     0
100
AcDbPoint
 10
3989.831002171238
 20
1710.957379976158
 30
0.0
  0
POINT
  5
824F
330
8244
100
AcDbEntity
  8
DEFPOINTS
 62
     0
100
AcDbPoint
 10
4542.831002171237
 20
1710.957379976158
 30
0.0
  0
POINT
  5
8250
330
8244
100
AcDbEntity
  8
DEFPOINTS
 62
     0
100
AcDbPoint
 10
4542.831002171237
 20
1540.069038644256
 30
0.0
  0
ENDBLK
  5
8246
330
8244
100
AcDbEntity
  8
0
100
AcDbBlockEnd
  0
BLOCK
  5
8252
330
8251
100
AcDbEntity
  8
0
100
AcDbBlockBegin
  2
*D35
 70
     1
 10
0.0
 20
0.0
 30
0.0
  3
*D35
  1

  0
LINE
  5
8254
330
8251
100
AcDbEntity
  8
3
 62
     0
370
    -2
100
AcDbLine
 10
2631.554463051707
 20
1815.457379976158
 30
0.0
 11
2631.554463051707
 21
1845.278808547586
 31
0.0
  0
LINE
  5
8255
330
8251
100
AcDbEntity
  8
3
 62
     0
370
    -2
100
AcDbLine
 10
2631.554463051707
 20
1886.457379976157
 30
0.0
 11
2631.554463051707
 21
1856.635951404728
 31
0.0
  0
SOLID
  5
8256
330
8251
100
AcDbEntity
  8
3
 62
     0
100
AcDbTrace
 10
2630.804463051707
 20
1815.457379976158
 30
0.0
 11
2632.304463051707
 21
1815.457379976158
 31
0.0
 12
2631.554463051707
 22
1810.957379976158
 32
0.0
 13
2631.554463051707
 23
1810.957379976158
 33
0.0
  0
SOLID
  5
8257
330
8251
100
AcDbEntity
  8
3
 62
     0
100
AcDbTrace
 10
2630.804463051707
 20
1886.457379976157
 30
0.0
 11
2632.304463051707
 21
1886.457379976157
 31
0.0
 12
2631.554463051707
 22
1890.957379976157
 32
0.0
 13
2631.554463051707
 23
1890.957379976157
 33
0.0
  0
MTEXT
  5
8258
330
8251
100
AcDbEntity
  8
3
 62
     0
100
AcDbMText
 10
2631.554463051707
 20
1850.957379976157
 30
0.0
 40
4.5
 41
0.0
 71
     5
 72
     1
  1
\A1;(80)
 73
     1
 44
1.0
1001
ACAD
1000
MTEXTBEGIN
1070
    73
1070
     1
1070
    44
1040
1.0
1070
    74
1070
     0
1000
MTEXTEND
  0
POINT
  5
8259
330
8251
100
AcDbEntity
  8
DEFPOINTS
 62
     0
100
AcDbPoint
 10
2332.833399244327
 20
1810.957379976158
 30
0.0
  0
POINT
  5
825A
330
8251
100
AcDbEntity
  8
DEFPOINTS
 62
     0
100
AcDbPoint
 10
2332.833399244327
 20
1890.957379976157
 30
0.0
  0
POINT
  5
825B
330
8251
100
AcDbEntity
  8
DEFPOINTS
 62
     0
100
AcDbPoint
 10
2631.554463051707
 20
1890.957379976157
 30
0.0
  0
ENDBLK
  5
8253
330
8251
100
AcDbEntity
  8
0
100
AcDbBlockEnd
  0
BLOCK
  5
825D
330
825C
100
AcDbEntity
  8
0
100
AcDbBlockBegin
  2
*D36
 70
     1
 10
0.0
 20
0.0
 30
0.0
  3
*D36
  1

  0
LINE
  5
825F
330
825C
100
AcDbEntity
  8
3
 62
     0
370
    -2
100
AcDbLine
 10
1877.333399244326
 20
3135.957379976157
 30
0.0
 11
2823.235815005682
 21
3135.957379976157
 31
0.0
  0
LINE
  5
8260
330
825C
100
AcDbEntity
  8
3
 62
     0
370
    -2
100
AcDbLine
 10
2357.833399244327
 20
1710.957379976158
 30
0.0
 11
2823.235815005682
 21
1710.957379976158
 31
0.0
  0
LINE
  5
8261
330
825C
100
AcDbEntity
  8
3
 62
     0
370
    -2
100
AcDbLine
 10
2818.735815005682
 20
3131.457379976158
 30
0.0
 11
2818.735815005682
 21
2429.13595140473
 31
0.0
  0
LINE
  5
8262
330
825C
100
AcDbEntity
  8
3
 62
     0
370
    -2
100
AcDbLine
 10
2818.735815005682
 20
1715.457379976158
 30
0.0
 11
2818.735815005682
 21
2417.778808547586
 31
0.0
  0
SOLID
  5
8263
330
825C
100
AcDbEntity
  8
3
 62
     0
100
AcDbTrace
 10
2817.985815005682
 20
3131.457379976158
 30
0.0
 11
2819.485815005682
 21
3131.457379976158
 31
0.0
 12
2818.735815005682
 22
3135.957379976157
 32
0.0
 13
2818.735815005682
 23
3135.957379976157
 33
0.0
  0
SOLID
  5
8264
330
825C
100
AcDbEntity
  8
3
 62
     0
100
AcDbTrace
 10
2817.985815005682
 20
1715.457379976158
 30
0.0
 11
2819.485815005682
 21
1715.457379976158
 31
0.0
 12
2818.735815005682
 22
1710.957379976158
 32
0.0
 13
2818.735815005682
 23
1710.957379976158
 33
0.0
  0
MTEXT
  5
8265
330
825C
100
AcDbEntity
  8
3
 62
     0
100
AcDbMText
 10
2818.735815005681
 20
2423.457379976158
 30
0.0
 40
4.5
 41
0.0
 71
     5
 72
     1
  1
\A1;(1425)
 73
     1
 44
1.0
1001
ACAD
1000
MTEXTBEGIN
1070
    73
1070
     1
1070
    44
1040
1.0
1070
    74
1070
     0
1000
MTEXTEND
  0
POINT
  5
8266
330
825C
100
AcDbEntity
  8
DEFPOINTS
 62
     0
100
AcDbPoint
 10
1852.333399244326
 20
3135.957379976157
 30
0.0
  0
POINT
  5
8267
330
825C
100
AcDbEntity
  8
DEFPOINTS
 62
     0
100
AcDbPoint
 10
2332.833399244327
 20
1710.957379976158
 30
0.0
  0
POINT
  5
8268
330
825C
100
AcDbEntity
  8
DEFPOINTS
 62
     0
100
AcDbPoint
 10
2818.735815005682
 20
1710.957379976158
 30
0.0
  0
ENDBLK
  5
825E
330
825C
100
AcDbEntity
  8
0
100
AcDbBlockEnd
  0
BLOCK
  5
826A
330
8269
100
AcDbEntity
  8
0
100
AcDbBlockBegin
  2
*D37
 70
     1
 10
0.0
 20
0.0
 30
0.0
  3
*D37
  1

  0
LINE
  5
826C
330
8269
100
AcDbEntity
  8
3
 62
     0
370
    -2
100
AcDbLine
 10
2334.395899244327
 20
1810.957379976158
 30
0.0
 11
2638.80654114575
 21
1810.957379976158
 31
0.0
  0
LINE
  5
826D
330
8269
100
AcDbEntity
  8
3
 62
     0
370
    -2
100
AcDbLine
 10
2334.395899244327
 20
1710.957379976158
 30
0.0
 11
2638.80654114575
 21
1710.957379976158
 31
0.0
  0
LINE
  5
826E
330
8269
100
AcDbEntity
  8
3
 62
     0
370
    -2
100
AcDbLine
 10
2634.30654114575
 20
1806.457379976158
 30
0.0
 11
2634.30654114575
 21
1765.457379976158
 31
0.0
  0
LINE
  5
826F
330
8269
100
AcDbEntity
  8
3
 62
     0
370
    -2
100
AcDbLine
 10
2634.30654114575
 20
1715.457379976158
 30
0.0
 11
2634.30654114575
 21
1756.457379976158
 31
0.0
  0
SOLID
  5
8270
330
8269
100
AcDbEntity
  8
3
 62
     0
100
AcDbTrace
 10
2633.55654114575
 20
1806.457379976158
 30
0.0
 11
2635.05654114575
 21
1806.457379976158
 31
0.0
 12
2634.30654114575
 22
1810.957379976158
 32
0.0
 13
2634.30654114575
 23
1810.957379976158
 33
0.0
  0
SOLID
  5
8271
330
8269
100
AcDbEntity
  8
3
 62
     0
100
AcDbTrace
 10
2633.55654114575
 20
1715.457379976158
 30
0.0
 11
2635.05654114575
 21
1715.457379976158
 31
0.0
 12
2634.30654114575
 22
1710.957379976158
 32
0.0
 13
2634.30654114575
 23
1710.957379976158
 33
0.0
  0
MTEXT
  5
8272
330
8269
100
AcDbEntity
  8
3
 62
     0
100
AcDbMText
 10
2634.30654114575
 20
1760.957379976158
 30
0.0
 40
4.5
 41
0.0
 71
     5
 72
     1
  1
\A1;100
 73
     1
 44
1.0
1001
ACAD
1000
MTEXTBEGIN
1070
    73
1070
     1
1070
    44
1040
1.0
1070
    74
1070
     0
1000
MTEXTEND
  0
POINT
  5
8273
330
8269
100
AcDbEntity
  8
DEFPOINTS
 62
     0
100
AcDbPoint
 10
2332.833399244327
 20
1810.957379976158
 30
0.0
  0
POINT
  5
8274
330
8269
100
AcDbEntity
  8
DEFPOINTS
 62
     0
100
AcDbPoint
 10
2332.833399244327
 20
1710.957379976158
 30
0.0
  0
POINT
  5
8275
330
8269
100
AcDbEntity
  8
DEFPOINTS
 62
     0
100
AcDbPoint
 10
2634.30654114575
 20
1710.957379976158
 30
0.0
  0
ENDBLK
  5
826B
330
8269
100
AcDbEntity
  8
0
100
AcDbBlockEnd
  0
BLOCK
  5
8278
330
8277
100
AcDbEntity
  8
0
100
AcDbBlockBegin
  2
*D38
 70
     1
 10
0.0
 20
0.0
 30
0.0
  3
*D38
  1

  0
LINE
  5
8283
330
8277
100
AcDbEntity
  8
3
 62
     0
370
    -2
100
AcDbLine
 10
582.8333992443276
 20
4958.325114919922
 30
0.0
 11
582.8333992443276
 21
5614.448398470875
 31
0.0
  0
LINE
  5
8284
330
8277
100
AcDbEntity
  8
3
 62
     0
370
    -2
100
AcDbLine
 10
1332.833399244326
 20
5463.325114919923
 30
0.0
 11
1332.833399244326
 21
5614.448398470875
 31
0.0
  0
LINE
  5
8285
330
8277
100
AcDbEntity
  8
3
 62
     0
370
    -2
100
AcDbLine
 10
632.8333992443276
 20
5589.448398470874
 30
0.0
 11
1282.833399244326
 21
5589.448398470874
 31
0.0
  0
INSERT
  5
8286
330
8277
100
AcDbEntity
  8
3
 62
     0
370
    -2
100
AcDbBlockReference
  2
_OPEN
 10
582.8333992443276
 20
5589.448398470874
 30
0.0
 41
50.0
 42
50.0
 43
50.0
 50
180.0
  0
INSERT
  5
8287
330
8277
100
AcDbEntity
  8
3
 62
     0
370
    -2
100
AcDbBlockReference
  2
_OPEN
 10
1332.833399244326
 20
5589.448398470874
 30
0.0
 41
50.0
 42
50.0
 43
50.0
  0
MTEXT
  5
8288
330
8277
100
AcDbEntity
  8
3
 62
     0
100
AcDbMText
 10
957.8333992443269
 20
5651.948398470874
 30
0.0
 40
75.0
 41
0.0
 71
     5
 72
     1
  1
\A1;750
 73
     1
 44
1.0
1001
ACAD
1000
MTEXTBEGIN
1070
    73
1070
     1
1070
    44
1040
1.0
1070
    74
1070
     0
1000
MTEXTEND
  0
POINT
  5
8289
330
8277
100
AcDbEntity
  8
DEFPOINTS
 62
     0
100
AcDbPoint
 10
582.8333992443276
 20
4933.325114919922
 30
0.0
  0
POINT
  5
828A
330
8277
100
AcDbEntity
  8
DEFPOINTS
 62
     0
100
AcDbPoint
 10
1332.833399244326
 20
5438.325114919923
 30
0.0
  0
POINT
  5
828B
330
8277
100
AcDbEntity
  8
DEFPOINTS
 62
     0
100
AcDbPoint
 10
1332.833399244326
 20
5589.448398470874
 30
0.0
  0
ENDBLK
  5
8279
330
8277
100
AcDbEntity
  8
0
100
AcDbBlockEnd
  0
BLOCK
  5
828E
330
828D
100
AcDbEntity
  8
0
100
AcDbBlockBegin
  2
*D39
 70
     1
 10
0.0
 20
0.0
 30
0.0
  3
*D39
  1

  0
LINE
  5
8290
330
828D
100
AcDbEntity
  8
3
 62
     0
370
    -2
100
AcDbLine
 10
582.8333992443276
 20
4158.325114919921
 30
0.0
 11
582.8333992443276
 21
3794.315434890585
 31
0.0
  0
LINE
  5
8291
330
828D
100
AcDbEntity
  8
3
 62
     0
370
    -2
100
AcDbLine
 10
2332.833399244327
 20
4158.325114919921
 30
0.0
 11
2332.833399244327
 21
3794.315434890585
 31
0.0
  0
LINE
  5
8292
330
828D
100
AcDbEntity
  8
3
 62
     0
370
    -2
100
AcDbLine
 10
632.8333992443276
 20
3819.315434890585
 30
0.0
 11
2282.833399244327
 21
3819.315434890585
 31
0.0
  0
INSERT
  5
8293
330
828D
100
AcDbEntity
  8
3
 62
     0
370
    -2
100
AcDbBlockReference
  2
_OPEN
 10
582.8333992443276
 20
3819.315434890585
 30
0.0
 41
50.0
 42
50.0
 43
50.0
 50
180.0
  0
INSERT
  5
8294
330
828D
100
AcDbEntity
  8
3
 62
     0
370
    -2
100
AcDbBlockReference
  2
_OPEN
 10
2332.833399244327
 20
3819.315434890585
 30
0.0
 41
50.0
 42
50.0
 43
50.0
  0
MTEXT
  5
8295
330
828D
100
AcDbEntity
  8
3
 62
     0
100
AcDbMText
 10
1457.833399244327
 20
3881.815434890585
 30
0.0
 40
75.0
 41
0.0
 71
     5
 72
     1
  1
\A1;1750
 73
     1
 44
1.0
1001
ACAD
1000
MTEXTBEGIN
1070
    73
1070
     1
1070
    44
1040
1.0
1070
    74
1070
     0
1000
MTEXTEND
  0
POINT
  5
8296
330
828D
100
AcDbEntity
  8
DEFPOINTS
 62
     0
100
AcDbPoint
 10
582.8333992443276
 20
4183.325114919921
 30
0.0
  0
POINT
  5
8297
330
828D
100
AcDbEntity
  8
DEFPOINTS
 62
     0
100
AcDbPoint
 10
2332.833399244327
 20
4183.325114919921
 30
0.0
  0
POINT
  5
8298
330
828D
100
AcDbEntity
  8
DEFPOINTS
 62
     0
100
AcDbPoint
 10
2332.833399244327
 20
3819.315434890585
 30
0.0
  0
ENDBLK
  5
828F
330
828D
100
AcDbEntity
  8
0
100
AcDbBlockEnd
  0
BLOCK
  5
82D4
330
82D3
100
AcDbEntity
  8
0
100
AcDbBlockBegin
  2
*D40
 70
     1
 10
0.0
 20
0.0
 30
0.0
  3
*D40
  1

  0
LINE
  5
82D6
330
82D3
100
AcDbEntity
  8
3
 62
     0
370
    -2
100
AcDbLine
 10
3287.831002171236
 20
1685.957379976158
 30
0.0
 11
3287.831002171236
 21
1509.613952183543
 31
0.0
  0
LINE
  5
82D7
330
82D3
100
AcDbEntity
  8
3
 62
     0
370
    -2
100
AcDbLine
 10
3989.831002171238
 20
1685.957379976158
 30
0.0
 11
3989.831002171238
 21
1509.613952183543
 31
0.0
  0
LINE
  5
82D8
330
82D3
100
AcDbEntity
  8
3
 62
     0
370
    -2
100
AcDbLine
 10
3337.831002171236
 20
1534.613952183543
 30
0.0
 11
3939.831002171239
 21
1534.613952183543
 31
0.0
  0
INSERT
  5
82D9
330
82D3
100
AcDbEntity
  8
3
 62
     0
370
    -2
100
AcDbBlockReference
  2
_OPEN
 10
3287.831002171236
 20
1534.613952183543
 30
0.0
 41
50.0
 42
50.0
 43
50.0
 50
180.0
  0
INSERT
  5
82DA
330
82D3
100
AcDbEntity
  8
3
 62
     0
370
    -2
100
AcDbBlockReference
  2
_OPEN
 10
3989.831002171238
 20
1534.613952183543
 30
0.0
 41
50.0
 42
50.0
 43
50.0
  0
MTEXT
  5
82DB
330
82D3
100
AcDbEntity
  8
3
 62
     0
100
AcDbMText
 10
3638.831002171237
 20
1597.113952183543
 30
0.0
 40
75.0
 41
0.0
 71
     5
 72
     1
  1
\A1;702
 73
     1
 44
1.0
1001
ACAD
1000
MTEXTBEGIN
1070
    73
1070
     1
1070
    44
1040
1.0
1070
    74
1070
     0
1000
MTEXTEND
  0
POINT
  5
82DC
330
82D3
100
AcDbEntity
  8
DEFPOINTS
 62
     0
100
AcDbPoint
 10
3287.831002171236
 20
1710.957379976158
 30
0.0
  0
POINT
  5
82DD
330
82D3
100
AcDbEntity
  8
DEFPOINTS
 62
     0
100
AcDbPoint
 10
3989.831002171238
 20
1710.957379976158
 30
0.0
  0
POINT
  5
82DE
330
82D3
100
AcDbEntity
  8
DEFPOINTS
 62
     0
100
AcDbPoint
 10
3989.831002171238
 20
1534.613952183543
 30
0.0
  0
ENDBLK
  5
82D5
330
82D3
100
AcDbEntity
  8
0
100
AcDbBlockEnd
  0
BLOCK
  5
82E1
330
82E0
100
AcDbEntity
  8
0
100
AcDbBlockBegin
  2
*D41
 70
     1
 10
0.0
 20
0.0
 30
0.0
  3
*D41
  1

  0
LINE
  5
82E3
330
82E0
100
AcDbEntity
  8
3
 62
     0
370
    -2
100
AcDbLine
 10
3989.831002171238
 20
1685.957379976158
 30
0.0
 11
3989.831002171238
 21
1509.613952183543
 31
0.0
  0
LINE
  5
82E4
330
82E0
100
AcDbEntity
  8
3
 62
     0
370
    -2
100
AcDbLine
 10
4542.831002171237
 20
1685.957379976158
 30
0.0
 11
4542.831002171237
 21
1509.613952183543
 31
0.0
  0
LINE
  5
82E5
330
82E0
100
AcDbEntity
  8
3
 62
     0
370
    -2
100
AcDbLine
 10
4039.831002171238
 20
1534.613952183543
 30
0.0
 11
4492.831002171237
 21
1534.613952183543
 31
0.0
  0
INSERT
  5
82E6
330
82E0
100
AcDbEntity
  8
3
 62
     0
370
    -2
100
AcDbBlockReference
  2
_OPEN
 10
3989.831002171238
 20
1534.613952183543
 30
0.0
 41
50.0
 42
50.0
 43
50.0
 50
180.0
  0
INSERT
  5
82E7
330
82E0
100
AcDbEntity
  8
3
 62
     0
370
    -2
100
AcDbBlockReference
  2
_OPEN
 10
4542.831002171237
 20
1534.613952183543
 30
0.0
 41
50.0
 42
50.0
 43
50.0
  0
MTEXT
  5
82E8
330
82E0
100
AcDbEntity
  8
3
 62
     0
100
AcDbMText
 10
4266.331002171237
 20
1597.113952183543
 30
0.0
 40
75.0
 41
0.0
 71
     5
 72
     1
  1
\A1;553
 73
     1
 44
1.0
1001
ACAD
1000
MTEXTBEGIN
1070
    73
1070
     1
1070
    44
1040
1.0
1070
    74
1070
     0
1000
MTEXTEND
  0
POINT
  5
82E9
330
82E0
100
AcDbEntity
  8
DEFPOINTS
 62
     0
100
AcDbPoint
 10
3989.831002171238
 20
1710.957379976158
 30
0.0
  0
POINT
  5
82EA
330
82E0
100
AcDbEntity
  8
DEFPOINTS
 62
     0
100
AcDbPoint
 10
4542.831002171237
 20
1710.957379976158
 30
0.0
  0
POINT
  5
82EB
330
82E0
100
AcDbEntity
  8
DEFPOINTS
 62
     0
100
AcDbPoint
 10
4542.831002171237
 20
1534.613952183543
 30
0.0
  0
ENDBLK
  5
82E2
330
82E0
100
AcDbEntity
  8
0
100
AcDbBlockEnd
  0
BLOCK
  5
82EE
330
82ED
100
AcDbEntity
  8
0
100
AcDbBlockBegin
  2
*D42
 70
     1
 10
0.0
 20
0.0
 30
0.0
  3
*D42
  1

  0
LINE
  5
82F0
330
82ED
100
AcDbEntity
  8
3
 62
     0
370
    -2
100
AcDbLine
 10
582.8333992443276
 20
1685.957379976158
 30
0.0
 11
582.8333992443276
 21
1490.279013592502
 31
0.0
  0
LINE
  5
82F1
330
82ED
100
AcDbEntity
  8
3
 62
     0
370
    -2
100
AcDbLine
 10
1832.833399244327
 20
1685.957379976158
 30
0.0
 11
1832.833399244327
 21
1490.279013592502
 31
0.0
  0
LINE
  5
82F2
330
82ED
100
AcDbEntity
  8
3
 62
     0
370
    -2
100
AcDbLine
 10
632.8333992443276
 20
1515.279013592502
 30
0.0
 11
1782.833399244327
 21
1515.279013592502
 31
0.0
  0
INSERT
  5
82F3
330
82ED
100
AcDbEntity
  8
3
 62
     0
370
    -2
100
AcDbBlockReference
  2
_OPEN
 10
582.8333992443276
 20
1515.279013592502
 30
0.0
 41
50.0
 42
50.0
 43
50.0
 50
180.0
  0
INSERT
  5
82F4
330
82ED
100
AcDbEntity
  8
3
 62
     0
370
    -2
100
AcDbBlockReference
  2
_OPEN
 10
1832.833399244327
 20
1515.279013592502
 30
0.0
 41
50.0
 42
50.0
 43
50.0
  0
MTEXT
  5
82F5
330
82ED
100
AcDbEntity
  8
3
 62
     0
100
AcDbMText
 10
1207.833399244327
 20
1577.779013592502
 30
0.0
 40
75.0
 41
0.0
 71
     5
 72
     1
  1
\A1;1250
 73
     1
 44
1.0
1001
ACAD
1000
MTEXTBEGIN
1070
    73
1070
     1
1070
    44
1040
1.0
1070
    74
1070
     0
1000
MTEXTEND
  0
POINT
  5
82F6
330
82ED
100
AcDbEntity
  8
DEFPOINTS
 62
     0
100
AcDbPoint
 10
582.8333992443276
 20
1710.957379976158
 30
0.0
  0
POINT
  5
82F7
330
82ED
100
AcDbEntity
  8
DEFPOINTS
 62
     0
100
AcDbPoint
 10
1832.833399244327
 20
1710.957379976158
 30
0.0
  0
POINT
  5
82F8
330
82ED
100
AcDbEntity
  8
DEFPOINTS
 62
     0
100
AcDbPoint
 10
1832.833399244327
 20
1515.279013592502
 30
0.0
  0
ENDBLK
  5
82EF
330
82ED
100
AcDbEntity
  8
0
100
AcDbBlockEnd
  0
BLOCK
  5
82FB
330
82FA
100
AcDbEntity
  8
0
100
AcDbBlockBegin
  2
*D43
 70
     1
 10
0.0
 20
0.0
 30
0.0
  3
*D43
  1

  0
LINE
  5
82FD
330
82FA
100
AcDbEntity
  8
3
 62
     0
370
    -2
100
AcDbLine
 10
1832.833399244327
 20
1685.957379976158
 30
0.0
 11
1832.833399244327
 21
1490.279013592502
 31
0.0
  0
LINE
  5
82FE
330
82FA
100
AcDbEntity
  8
3
 62
     0
370
    -2
100
AcDbLine
 10
2332.833399244327
 20
1685.957379976158
 30
0.0
 11
2332.833399244327
 21
1490.279013592502
 31
0.0
  0
LINE
  5
82FF
330
82FA
100
AcDbEntity
  8
3
 62
     0
370
    -2
100
AcDbLine
 10
1882.833399244327
 20
1515.279013592502
 30
0.0
 11
2282.833399244327
 21
1515.279013592502
 31
0.0
  0
INSERT
  5
8300
330
82FA
100
AcDbEntity
  8
3
 62
     0
370
    -2
100
AcDbBlockReference
  2
_OPEN
 10
1832.833399244327
 20
1515.279013592502
 30
0.0
 41
50.0
 42
50.0
 43
50.0
 50
180.0
  0
INSERT
  5
8301
330
82FA
100
AcDbEntity
  8
3
 62
     0
370
    -2
100
AcDbBlockReference
  2
_OPEN
 10
2332.833399244327
 20
1515.279013592502
 30
0.0
 41
50.0
 42
50.0
 43
50.0
  0
MTEXT
  5
8302
330
82FA
100
AcDbEntity
  8
3
 62
     0
100
AcDbMText
 10
2082.833399244327
 20
1577.779013592502
 30
0.0
 40
75.0
 41
0.0
 71
     5
 72
     1
  1
\A1;500
 73
     1
 44
1.0
1001
ACAD
1000
MTEXTBEGIN
1070
    73
1070
     1
1070
    44
1040
1.0
1070
    74
1070
     0
1000
MTEXTEND
  0
POINT
  5
8303
330
82FA
100
AcDbEntity
  8
DEFPOINTS
 62
     0
100
AcDbPoint
 10
1832.833399244327
 20
1710.957379976158
 30
0.0
  0
POINT
  5
8304
330
82FA
100
AcDbEntity
  8
DEFPOINTS
 62
     0
100
AcDbPoint
 10
2332.833399244327
 20
1710.957379976158
 30
0.0
  0
POINT
  5
8305
330
82FA
100
AcDbEntity
  8
DEFPOINTS
 62
     0
100
AcDbPoint
 10
2332.833399244327
 20
1515.279013592502
 30
0.0
  0
ENDBLK
  5
82FC
330
82FA
100
AcDbEntity
  8
0
100
AcDbBlockEnd
  0
BLOCK
  5
8308
330
8307
100
AcDbEntity
  8
0
100
AcDbBlockBegin
  2
*D44
 70
     1
 10
0.0
 20
0.0
 30
0.0
  3
*D44
  1

  0
LINE
  5
836C
330
8307
100
AcDbEntity
  8
3
 62
     0
370
    -2
100
AcDbLine
 10
2524.305191094717
 20
2590.957379976158
 30
0.0
 11
2659.30654114575
 21
2590.957379976158
 31
0.0
  0
LINE
  5
836D
330
8307
100
AcDbEntity
  8
3
 62
     0
370
    -2
100
AcDbLine
 10
2357.833399244327
 20
1890.957379976157
 30
0.0
 11
2659.30654114575
 21
1890.957379976157
 31
0.0
  0
LINE
  5
836E
330
8307
100
AcDbEntity
  8
3
 62
     0
370
    -2
100
AcDbLine
 10
2634.30654114575
 20
2540.957379976158
 30
0.0
 11
2634.30654114575
 21
1940.957379976157
 31
0.0
  0
INSERT
  5
836F
330
8307
100
AcDbEntity
  8
3
 62
     0
370
    -2
100
AcDbBlockReference
  2
_OPEN
 10
2634.30654114575
 20
2590.957379976158
 30
0.0
 41
50.0
 42
50.0
 43
50.0
 50
90.0
  0
INSERT
  5
8370
330
8307
100
AcDbEntity
  8
3
 62
     0
370
    -2
100
AcDbBlockReference
  2
_OPEN
 10
2634.30654114575
 20
1890.957379976157
 30
0.0
 41
50.0
 42
50.0
 43
50.0
 50
270.0
  0
MTEXT
  5
8371
330
8307
100
AcDbEntity
  8
3
 62
     0
100
AcDbMText
 10
2571.806541145749
 20
2240.957379976157
 30
0.0
 40
75.0
 41
0.0
 71
     5
 72
     1
  1
\A1;700
 11
0.0000000000000001
 21
1.0
 31
0.0
 73
     1
 44
1.0
1001
ACAD
1000
MTEXTBEGIN
1070
    73
1070
     1
1070
    44
1040
1.0
1070
    74
1070
     0
1000
MTEXTEND
  0
POINT
  5
8372
330
8307
100
AcDbEntity
  8
DEFPOINTS
 62
     0
100
AcDbPoint
 10
2499.305191094717
 20
2590.957379976158
 30
0.0
  0
POINT
  5
8373
330
8307
100
AcDbEntity
  8
DEFPOINTS
 62
     0
100
AcDbPoint
 10
2332.833399244327
 20
1890.957379976157
 30
0.0
  0
POINT
  5
8374
330
8307
100
AcDbEntity
  8
DEFPOINTS
 62
     0
100
AcDbPoint
 10
2634.30654114575
 20
1890.957379976157
 30
0.0
  0
ENDBLK
  5
8309
330
8307
100
AcDbEntity
  8
0
100
AcDbBlockEnd
  0
BLOCK
  5
8315
330
8314
100
AcDbEntity
  8
0
100
AcDbBlockBegin
  2
*D45
 70
     1
 10
0.0
 20
0.0
 30
0.0
  3
*D45
  1

  0
LINE
  5
8469
330
8314
100
AcDbEntity
  8
3
 62
     0
370
    -2
100
AcDbLine
 10
2357.833399244327
 20
1890.957379976157
 30
0.0
 11
2659.30654114575
 21
1890.957379976157
 31
0.0
  0
LINE
  5
846A
330
8314
100
AcDbEntity
  8
3
 62
     0
370
    -2
100
AcDbLine
 10
2357.833399244327
 20
1810.957379976158
 30
0.0
 11
2659.30654114575
 21
1810.957379976158
 31
0.0
  0
LINE
  5
846B
330
8314
100
AcDbEntity
  8
3
 62
     0
370
    -2
100
AcDbLine
 10
2634.30654114575
 20
1940.957379976157
 30
0.0
 11
2634.30654114575
 21
1990.957379976157
 31
0.0
  0
LINE
  5
846C
330
8314
100
AcDbEntity
  8
3
 62
     0
370
    -2
100
AcDbLine
 10
2634.30654114575
 20
1810.957379976158
 30
0.0
 11
2634.30654114575
 21
1760.957379976158
 31
0.0
  0
LINE
  5
846D
330
8314
100
AcDbEntity
  8
3
 62
     0
370
    -2
100
AcDbLine
 10
2634.30654114575
 20
1850.957379976157
 30
0.0
 11
2799.7177569727
 21
1921.135951404728
 31
0.0
  0
LINE
  5
846E
330
8314
100
AcDbEntity
  8
3
 62
     0
370
    -2
100
AcDbLine
 10
2799.7177569727
 20
1921.135951404728
 30
0.0
 11
2799.7177569727
 21
2188.993094261872
 31
0.0
  0
MTEXT
  5
846F
330
8314
100
AcDbEntity
  8
3
 62
     0
100
AcDbMText
 10
2717.574899829842
 20
2055.064522833301
 30
0.0
 40
75.0
 41
0.0
 71
     5
 72
     1
  1
\A1;(80)
 11
0.0000000000000001
 21
1.0
 31
0.0
 73
     1
 44
1.0
1001
ACAD
1000
MTEXTBEGIN
1070
    73
1070
     1
1070
    44
1040
1.0
1070
    74
1070
     0
1000
MTEXTEND
  0
LINE
  5
8470
330
8314
100
AcDbEntity
  8
3
 62
     0
370
    -2
100
AcDbLine
 10
2634.30654114575
 20
1890.957379976157
 30
0.0
 11
2634.30654114575
 21
1810.957379976158
 31
0.0
  0
LINE
  5
8471
330
8314
100
AcDbEntity
  8
3
 62
     0
370
    -2
100
AcDbLine
 10
2634.30654114575
 20
1890.957379976157
 30
0.0
 11
2634.30654114575
 21
1810.957379976158
 31
0.0
  0
INSERT
  5
8472
330
8314
100
AcDbEntity
  8
3
 62
     0
370
    -2
100
AcDbBlockReference
  2
_OPEN
 10
2634.30654114575
 20
1890.957379976157
 30
0.0
 41
50.0
 42
50.0
 43
50.0
 50
270.0
  0
INSERT
  5
8473
330
8314
100
AcDbEntity
  8
3
 62
     0
370
    -2
100
AcDbBlockReference
  2
_DotSmall
 10
2634.30654114575
 20
1810.957379976158
 30
0.0
 41
50.0
 42
50.0
 43
50.0
 50
90.0
  0
POINT
  5
8474
330
8314
100
AcDbEntity
  8
DEFPOINTS
 62
     0
100
AcDbPoint
 10
2332.833399244327
 20
1890.957379976157
 30
0.0
  0
POINT
  5
8475
330
8314
100
AcDbEntity
  8
DEFPOINTS
 62
     0
100
AcDbPoint
 10
2332.833399244327
 20
1810.957379976158
 30
0.0
  0
POINT
  5
8476
330
8314
100
AcDbEntity
  8
DEFPOINTS
 62
     0
100
AcDbPoint
 10
2634.30654114575
 20
1810.957379976158
 30
0.0
  0
ENDBLK
  5
8316
330
8314
100
AcDbEntity
  8
0
100
AcDbBlockEnd
  0
BLOCK
  5
8327
330
8326
100
AcDbEntity
  8
0
100
AcDbBlockBegin
  2
*D46
 70
     1
 10
0.0
 20
0.0
 30
0.0
  3
*D46
  1

  0
LINE
  5
84C3
330
8326
100
AcDbEntity
  8
3
 62
     0
370
    -2
100
AcDbLine
 10
2357.833399244327
 20
1810.957379976158
 30
0.0
 11
2659.30654114575
 21
1810.957379976158
 31
0.0
  0
LINE
  5
84C4
330
8326
100
AcDbEntity
  8
3
 62
     0
370
    -2
100
AcDbLine
 10
2357.833399244327
 20
1710.957379976158
 30
0.0
 11
2659.30654114575
 21
1710.957379976158
 31
0.0
  0
LINE
  5
84C5
330
8326
100
AcDbEntity
  8
3
 62
     0
370
    -2
100
AcDbLine
 10
2634.30654114575
 20
1810.957379976158
 30
0.0
 11
2634.30654114575
 21
1760.957379976158
 31
0.0
  0
MTEXT
  5
84C6
330
8326
100
AcDbEntity
  8
3
 62
     0
100
AcDbMText
 10
2564.9773639899
 20
1589.49333058023
 30
0.0
 40
75.0
 41
0.0
 71
     5
 72
     1
  1
\A1;100
 11
0.0000000000000001
 21
1.0
 31
0.0
 73
     1
 44
1.0
1001
ACAD
1000
MTEXTBEGIN
1070
    73
1070
     1
1070
    44
1040
1.0
1070
    74
1070
     0
1000
MTEXTEND
  0
INSERT
  5
84C7
330
8326
100
AcDbEntity
  8
3
 62
     0
370
    -2
100
AcDbBlockReference
  2
_DotSmall
 10
2634.30654114575
 20
1810.957379976158
 30
0.0
 41
50.0
 42
50.0
 43
50.0
 50
90.0
  0
INSERT
  5
84C8
330
8326
100
AcDbEntity
  8
3
 62
     0
370
    -2
100
AcDbBlockReference
  2
_OPEN
 10
2634.30654114575
 20
1710.957379976158
 30
0.0
 41
50.0
 42
50.0
 43
50.0
 50
270.0
  0
POINT
  5
84C9
330
8326
100
AcDbEntity
  8
DEFPOINTS
 62
     0
100
AcDbPoint
 10
2332.833399244327
 20
1810.957379976158
 30
0.0
  0
POINT
  5
84CA
330
8326
100
AcDbEntity
  8
DEFPOINTS
 62
     0
100
AcDbPoint
 10
2332.833399244327
 20
1710.957379976158
 30
0.0
  0
POINT
  5
84CB
330
8326
100
AcDbEntity
  8
DEFPOINTS
 62
     0
100
AcDbPoint
 10
2634.30654114575
 20
1710.957379976158
 30
0.0
  0
ENDBLK
  5
8328
330
8326
100
AcDbEntity
  8
0
100
AcDbBlockEnd
  0
BLOCK
  5
8467
330
8465
100
AcDbEntity
  8
0
100
AcDbBlockBegin
  2
_DotSmall
 70
     0
 10
0.0
 20
0.0
 30
0.0
  3
_DotSmall
  1

  0
LWPOLYLINE
  5
8466
330
8465
100
AcDbEntity
  8
0
  6
ByBlock
 62
     0
100
AcDbPolyline
 90
        2
 70
     1
 43
0.5
 10
-0.0625
 20
0.0
 42
1.0
 10
0.0625
 20
0.0
 42
1.0
  0
ENDBLK
  5
8468
330
8465
100
AcDbEntity
  8
0
100
AcDbBlockEnd
  0
BLOCK
  5
84CE
330
84CD
100
AcDbEntity
  8
0
100
AcDbBlockBegin
  2
*D48
 70
     1
 10
0.0
 20
0.0
 30
0.0
  3
*D48
  1

  0
LINE
  5
84E2
330
84CD
100
AcDbEntity
  8
3
 62
     0
370
    -2
100
AcDbLine
 10
2357.833399244327
 20
1710.957379976158
 30
0.0
 11
2880.383234353664
 21
1710.957379976158
 31
0.0
  0
LINE
  5
84E3
330
84CD
100
AcDbEntity
  8
3
 62
     0
370
    -2
100
AcDbLine
 10
1877.333399244326
 20
3135.957379976157
 30
0.0
 11
2880.383234353664
 21
3135.957379976157
 31
0.0
  0
LINE
  5
84E4
330
84CD
100
AcDbEntity
  8
3
 62
     0
370
    -2
100
AcDbLine
 10
2855.383234353663
 20
1760.957379976158
 30
0.0
 11
2855.383234353664
 21
3085.957379976158
 31
0.0
  0
INSERT
  5
84E5
330
84CD
100
AcDbEntity
  8
3
 62
     0
370
    -2
100
AcDbBlockReference
  2
_OPEN
 10
2855.383234353663
 20
1710.957379976158
 30
0.0
 41
50.0
 42
50.0
 43
50.0
 50
270.0
  0
INSERT
  5
84E6
330
84CD
100
AcDbEntity
  8
3
 62
     0
370
    -2
100
AcDbBlockReference
  2
_OPEN
 10
2855.383234353664
 20
3135.957379976157
 30
0.0
 41
50.0
 42
50.0
 43
50.0
 50
90.0
  0
MTEXT
  5
84E7
330
84CD
100
AcDbEntity
  8
3
 62
     0
100
AcDbMText
 10
2773.240377210806
 20
2423.457379976158
 30
0.0
 40
75.0
 41
0.0
 71
     5
 72
     1
  1
\A1;(1425)
 11
0.0000000000000001
 21
1.0
 31
0.0
 73
     1
 44
1.0
1001
ACAD
1000
MTEXTBEGIN
1070
    73
1070
     1
1070
    44
1040
1.0
1070
    74
1070
     0
1000
MTEXTEND
  0
POINT
  5
84E8
330
84CD
100
AcDbEntity
  8
DEFPOINTS
 62
     0
100
AcDbPoint
 10
2332.833399244327
 20
1710.957379976158
 30
0.0
  0
POINT
  5
84E9
330
84CD
100
AcDbEntity
  8
DEFPOINTS
 62
     0
100
AcDbPoint
 10
1852.333399244326
 20
3135.957379976157
 30
0.0
  0
POINT
  5
84EA
330
84CD
100
AcDbEntity
  8
DEFPOINTS
 62
     0
100
AcDbPoint
 10
2855.383234353664
 20
3135.957379976157
 30
0.0
  0
ENDBLK
  5
84CF
330
84CD
100
AcDbEntity
  8
0
100
AcDbBlockEnd
  0
BLOCK
  5
84F3
330
84F2
100
AcDbEntity
  8
0
100
AcDbBlockBegin
  2
*D50
 70
     1
 10
0.0
 20
0.0
 30
0.0
  3
*D50
  1

  0
LINE
  5
84FE
330
84F2
100
AcDbEntity
  8
3
 62
     0
370
    -2
100
AcDbLine
 10
1832.833399244327
 20
3279.45346799582
 30
0.0
 11
1832.833399244327
 21
3461.586126092024
 31
0.0
  0
LINE
  5
84FF
330
84F2
100
AcDbEntity
  8
3
 62
     0
370
    -2
100
AcDbLine
 10
2390.833399244328
 20
2556.957379976158
 30
0.0
 11
2390.833399244328
 21
3461.586126092024
 31
0.0
  0
LINE
  5
8500
330
84F2
100
AcDbEntity
  8
3
 62
     0
370
    -2
100
AcDbLine
 10
1882.833399244327
 20
3436.586126092024
 30
0.0
 11
2340.833399244328
 21
3436.586126092024
 31
0.0
  0
INSERT
  5
8501
330
84F2
100
AcDbEntity
  8
3
 62
     0
370
    -2
100
AcDbBlockReference
  2
_OPEN
 10
1832.833399244327
 20
3436.586126092024
 30
0.0
 41
50.0
 42
50.0
 43
50.0
 50
180.0
  0
INSERT
  5
8502
330
84F2
100
AcDbEntity
  8
3
 62
     0
370
    -2
100
AcDbBlockReference
  2
_OPEN
 10
2390.833399244328
 20
3436.586126092024
 30
0.0
 41
50.0
 42
50.0
 43
50.0
  0
MTEXT
  5
8503
330
84F2
100
AcDbEntity
  8
3
 62
     0
100
AcDbMText
 10
2111.833399244327
 20
3499.086126092024
 30
0.0
 40
75.0
 41
0.0
 71
     5
 72
     1
  1
\A1;558
 73
     1
 44
1.0
1001
ACAD
1000
MTEXTBEGIN
1070
    73
1070
     1
1070
    44
1040
1.0
1070
    74
1070
     0
1000
MTEXTEND
  0
POINT
  5
8504
330
84F2
100
AcDbEntity
  8
DEFPOINTS
 62
     0
100
AcDbPoint
 10
1832.833399244327
 20
3254.45346799582
 30
0.0
  0
POINT
  5
8505
330
84F2
100
AcDbEntity
  8
DEFPOINTS
 62
     0
100
AcDbPoint
 10
2390.833399244328
 20
2531.957379976157
 30
0.0
  0
POINT
  5
8506
330
84F2
100
AcDbEntity
  8
DEFPOINTS
 62
     0
100
AcDbPoint
 10
2390.833399244328
 20
3436.586126092024
 30
0.0
  0
ENDBLK
  5
84F4
330
84F2
100
AcDbEntity
  8
0
100
AcDbBlockEnd
  0
BLOCK
  5
8509
330
8508
100
AcDbEntity
  8
0
100
AcDbBlockBegin
  2
*D51
 70
     1
 10
0.0
 20
0.0
 30
0.0
  3
*D51
  1

  0
LINE
  5
850B
330
8508
100
AcDbEntity
  8
3
 62
     0
370
    -2
100
AcDbLine
 10
582.8333992443272
 20
2015.957379976157
 30
0.0
 11
582.8333992443273
 21
3607.188501838999
 31
0.0
  0
LINE
  5
850C
330
8508
100
AcDbEntity
  8
3
 62
     0
370
    -2
100
AcDbLine
 10
2390.833399244328
 20
2556.957379976158
 30
0.0
 11
2390.833399244328
 21
3607.188501838999
 31
0.0
  0
LINE
  5
850D
330
8508
100
AcDbEntity
  8
3
 62
     0
370
    -2
100
AcDbLine
 10
632.8333992443273
 20
3582.188501838999
 30
0.0
 11
2340.833399244328
 21
3582.188501838999
 31
0.0
  0
INSERT
  5
850E
330
8508
100
AcDbEntity
  8
3
 62
     0
370
    -2
100
AcDbBlockReference
  2
_OPEN
 10
582.8333992443273
 20
3582.188501838999
 30
0.0
 41
50.0
 42
50.0
 43
50.0
 50
180.0
  0
INSERT
  5
850F
330
8508
100
AcDbEntity
  8
3
 62
     0
370
    -2
100
AcDbBlockReference
  2
_OPEN
 10
2390.833399244328
 20
3582.188501838999
 30
0.0
 41
50.0
 42
50.0
 43
50.0
  0
MTEXT
  5
8510
330
8508
100
AcDbEntity
  8
3
 62
     0
100
AcDbMText
 10
1486.833399244327
 20
3644.688501838999
 30
0.0
 40
75.0
 41
0.0
 71
     5
 72
     1
  1
\A1;1808
 73
     1
 44
1.0
1001
ACAD
1000
MTEXTBEGIN
1070
    73
1070
     1
1070
    44
1040
1.0
1070
    74
1070
     0
1000
MTEXTEND
  0
POINT
  5
8511
330
8508
100
AcDbEntity
  8
DEFPOINTS
 62
     0
100
AcDbPoint
 10
582.8333992443272
 20
1990.957379976157
 30
0.0
  0
POINT
  5
8512
330
8508
100
AcDbEntity
  8
DEFPOINTS
 62
     0
100
AcDbPoint
 10
2390.833399244328
 20
2531.957379976157
 30
0.0
  0
POINT
  5
8513
330
8508
100
AcDbEntity
  8
DEFPOINTS
 62
     0
100
AcDbPoint
 10
2390.833399244328
 20
3582.188501838999
 30
0.0
  0
ENDBLK
  5
850A
330
8508
100
AcDbEntity
  8
0
100
AcDbBlockEnd
  0
ENDSEC
  0
SECTION
  2
ENTITIES
  0
INSERT
  5
7BFC
330
8117
100
AcDbEntity
  8
0
100
AcDbBlockReference
  2
YA_N
 10
6.0
 20
5.0
 30
0.0
  0
LINE
  5
7BFE
330
8117
100
AcDbEntity
  8
2
100
AcDbLine
 10
1832.833399244327
 20
3254.45346799582
 30
0.0
 11
1832.833399244327
 21
1710.957379976158
 31
0.0
  0
LINE
  5
7BFF
330
8117
100
AcDbEntity
  8
2
100
AcDbLine
 10
2499.305191094717
 20
2590.957379976158
 30
0.0
 11
968.4518555902995
 21
2590.957379976158
 31
0.0
  0
LINE
  5
7C0A
330
8117
100
AcDbEntity
  8
1
100
AcDbLine
 10
582.8333992443276
 20
1710.957379976158
 30
0.0
 11
2332.833399244327
 21
1710.957379976158
 31
0.0
  0
LINE
  5
7C0B
330
8117
100
AcDbEntity
  8
1
100
AcDbLine
 10
2332.833399244327
 20
1810.957379976158
 30
0.0
 11
2332.833399244327
 21
1710.957379976158
 31
0.0
  0
LINE
  5
7C0C
330
8117
100
AcDbEntity
  8
1
100
AcDbLine
 10
582.8333992443276
 20
1810.957379976158
 30
0.0
 11
582.8333992443276
 21
1710.957379976158
 31
0.0
  0
LINE
  5
7C0D
330
8117
100
AcDbEntity
  8
1
100
AcDbLine
 10
1032.833399244327
 20
2030.957379976157
 30
0.0
 11
1032.833399244327
 21
1990.957379976157
 31
0.0
  0
LINE
  5
7C0E
330
8117
100
AcDbEntity
  8
1
100
AcDbLine
 10
4489.831002171237
 20
3135.957379976157
 30
0.0
 11
4489.831002171236
 21
2613.957379976158
 31
0.0
  0
LINE
  5
7C0F
330
8117
100
AcDbEntity
  8
1
100
AcDbLine
 10
3287.831002171236
 20
1710.957379976158
 30
0.0
 11
4492.831002171238
 21
1710.957379976158
 31
0.0
  0
LINE
  5
7C10
330
8117
100
AcDbEntity
  8
1
100
AcDbLine
 10
3287.831002171236
 20
1810.957379976158
 30
0.0
 11
3287.831002171236
 21
1710.957379976158
 31
0.0
  0
LINE
  5
7C11
330
8117
100
AcDbEntity
  8
2
100
AcDbLine
 10
3100.513071617944
 20
2590.957379976158
 30
0.0
 11
4640.880848750433
 21
2590.957379976158
 31
0.0
  0
LINE
  5
7C12
330
8117
100
AcDbEntity
  8
2
100
AcDbLine
 10
3100.513071617944
 20
2240.957379976157
 30
0.0
 11
3489.831002171238
 21
2240.957379976157
 31
0.0
  0
LINE
  5
7C13
330
8117
100
AcDbEntity
  8
1
100
AcDbLine
 10
3221.831002171238
 20
2717.957379976157
 30
0.0
 11
3221.831002171238
 21
2463.957379976157
 31
0.0
  0
LINE
  5
7C14
330
8117
100
AcDbEntity
  8
1
100
AcDbLine
 10
3089.831002171238
 20
2810.957379976157
 30
0.0
 11
3089.831002171238
 21
2020.957379976157
 31
0.0
  0
LINE
  5
7C15
330
8117
100
AcDbEntity
  8
1
100
AcDbLine
 10
3089.831002171238
 20
2810.957379976157
 30
0.0
 11
3339.831002171238
 21
2810.957379976157
 31
0.0
  0
LINE
  5
7C16
330
8117
100
AcDbEntity
  8
1
100
AcDbLine
 10
3339.831002171238
 20
2810.957379976157
 30
0.0
 11
3339.831002171238
 21
2760.957379976157
 31
0.0
  0
LINE
  5
7C17
330
8117
100
AcDbEntity
  8
1
100
AcDbLine
 10
3339.831002171238
 20
2063.453157367495
 30
0.0
 11
3339.831002171238
 21
2020.957379976157
 31
0.0
  0
LINE
  5
7C18
330
8117
100
AcDbEntity
  8
2
100
AcDbLine
 10
3989.831002171238
 20
3233.542986069056
 30
0.0
 11
3989.831002171238
 21
1710.957379976158
 31
0.0
  0
POINT
  5
7C19
330
8117
100
AcDbEntity
  8
1
100
AcDbPoint
 10
2332.833399244327
 20
1890.957379976157
 30
0.0
  0
POINT
  5
7C1A
330
8117
100
AcDbEntity
  8
1
100
AcDbPoint
 10
2332.833399244327
 20
1890.957379976157
 30
0.0
  0
POINT
  5
7C1B
330
8117
100
AcDbEntity
  8
1
100
AcDbPoint
 10
2332.833399244327
 20
1890.957379976157
 30
0.0
  0
INSERT
  5
7C1E
330
8117
100
AcDbEntity
  8
0
100
AcDbBlockReference
  2
YA_N
 10
-733.6448571667497
 20
-271.0302667023643
 30
0.0
 41
20.0
 42
20.0
 43
20.0
  0
DIMENSION
  5
7C21
330
8117
100
AcDbEntity
  8
3
100
AcDbDimension
  2
*D4
 10
1809.833399244326
 20
3284.302723518222
 30
0.0
 11
1397.333399244326
 21
3334.302723518222
 31
0.0
 12
-396.0327685551274
 22
1029.069764566677
 32
0.0
 71
     5
 42
-1.0
  3
Standard
100
AcDbAlignedDimension
 13
984.8333992443267
 23
3135.957379976157
 33
0.0
 14
1809.833399244326
 24
3135.957379976157
 34
0.0
100
AcDbRotatedDimension
1001
ACAD
1000
DSTYLE
1002
{
1070
    40
1040
25.0
1002
}
  0
DIMENSION
  5
7C22
330
8117
100
AcDbEntity
  8
3
100
AcDbDimension
  2
*D5
 10
1832.833399244327
 20
3436.586126092024
 30
0.0
 11
1408.833399244326
 21
3486.586126092024
 31
0.0
 12
-396.0327685551274
 22
1029.069764566677
 32
0.0
 71
     5
 42
-1.0
  3
Standard
100
AcDbAlignedDimension
 13
984.8333992443267
 23
3135.957379976157
 33
0.0
 14
1832.833399244327
 24
3257.429171826548
 34
0.0
100
AcDbRotatedDimension
1001
ACAD
1000
DSTYLE
1002
{
1070
    40
1040
25.0
1002
}
  0
LINE
  5
7C23
330
8117
100
AcDbEntity
  8
1
100
AcDbLine
 10
698.3744992443271
 20
2150.645379976157
 30
0.0
 11
678.8333992443272
 21
2096.957379976157
 31
0.0
  0
LINE
  5
7C24
330
8117
100
AcDbEntity
  8
1
100
AcDbLine
 10
967.2801992443272
 20
2150.678379976157
 30
0.0
 11
986.8333992443272
 21
2096.957379976157
 31
0.0
  0
ARC
  5
7C25
330
8117
100
AcDbEntity
  8
1
100
AcDbCircle
 10
832.8333992443274
 20
2240.957379976157
 30
0.0
 40
162.0
100
AcDbArc
 50
180.0
 51
213.894877047198
  0
ARC
  5
7C26
330
8117
100
AcDbEntity
  8
1
100
AcDbCircle
 10
832.8333992443274
 20
2240.957379976157
 30
0.0
 40
162.0
100
AcDbArc
 50
326.1050864604068
 51
180.0
  0
LINE
  5
7C27
330
8117
100
AcDbEntity
  8
2
100
AcDbLine
 10
832.8333992443274
 20
2419.407148063344
 30
0.0
 11
832.8333992443267
 21
1710.957379976158
 31
0.0
  0
LINE
  5
7C28
330
8117
100
AcDbEntity
  8
1
100
AcDbLine
 10
986.8333992443272
 20
2080.957379976157
 30
0.0
 11
986.8333992443272
 21
2096.957379976157
 31
0.0
  0
LINE
  5
7C29
330
8117
100
AcDbEntity
  8
1
100
AcDbLine
 10
678.8333992443272
 20
2080.957379976157
 30
0.0
 11
678.8333992443272
 21
2096.957379976157
 31
0.0
  0
LINE
  5
7C2A
330
8117
100
AcDbEntity
  8
2
100
AcDbLine
 10
1020.943843306999
 20
2240.957379976157
 30
0.0
 11
645.8650382769701
 21
2240.957379976157
 31
0.0
  0
LINE
  5
7C2B
330
8117
100
AcDbEntity
  8
1
100
AcDbLine
 10
644.3187559782868
 20
2080.957379976157
 30
0.0
 11
1021.588266859138
 21
2080.957379976156
 31
0.0
  0
LINE
  5
7C2C
330
8117
100
AcDbEntity
  8
1
100
AcDbLine
 10
1034.833399244326
 20
2030.957379976157
 30
0.0
 11
1021.588266859138
 21
2080.957379976157
 31
0.0
  0
LINE
  5
7C2D
330
8117
100
AcDbEntity
  8
1
100
AcDbLine
 10
630.8333992443267
 20
2030.957379976157
 30
0.0
 11
644.3187559782877
 21
2080.957379976157
 31
0.0
  0
CIRCLE
  5
7C2E
330
8117
100
AcDbEntity
  8
1
100
AcDbCircle
 10
832.8333992443274
 20
2240.957379976157
 30
0.0
 40
110.0
  0
CIRCLE
  5
7C2F
330
8117
100
AcDbEntity
  8
1
100
AcDbCircle
 10
1832.833399244327
 20
2590.957379976158
 30
0.0
 40
127.0
  0
LINE
  5
7C30
330
8117
100
AcDbEntity
  8
1
100
AcDbLine
 10
3221.831002171238
 20
2717.957379976157
 30
0.0
 11
3306.831002171237
 21
2717.957379976157
 31
0.0
  0
LINE
  5
7C31
330
8117
100
AcDbEntity
  8
1
100
AcDbLine
 10
3221.831002171238
 20
2463.957379976157
 30
0.0
 11
3306.831002171239
 21
2463.957379976157
 31
0.0
  0
LINE
  5
7C32
330
8117
100
AcDbEntity
  8
1
100
AcDbLine
 10
3221.831002171238
 20
2350.957379976157
 30
0.0
 11
3306.831002171237
 21
2350.957379976157
 31
0.0
  0
LINE
  5
7C33
330
8117
100
AcDbEntity
  8
1
100
AcDbLine
 10
3221.831002171238
 20
2130.957379976157
 30
0.0
 11
3306.831002171237
 21
2130.957379976157
 31
0.0
  0
LINE
  5
7C34
330
8117
100
AcDbEntity
  8
1
100
AcDbLine
 10
3089.831002171238
 20
2020.957379976157
 30
0.0
 11
3339.831002171238
 21
2020.957379976157
 31
0.0
  0
LINE
  5
7C35
330
8117
100
AcDbEntity
  8
1
100
AcDbLine
 10
3306.831002171237
 20
2717.957379976157
 30
0.0
 11
3306.831002171237
 21
2463.957379976157
 31
0.0
  0
INSERT
  5
7C36
330
8117
100
AcDbEntity
  8
0
100
AcDbBlockReference
  2
YA_N
 10
-36.73462870802178
 20
301.6536876033205
 30
0.0
 41
20.0
 42
20.0
 43
20.0
  0
INSERT
  5
7C38
330
8117
100
AcDbEntity
  8
0
100
AcDbBlockReference
  2
YA_N
 10
77.48489664613955
 20
225.3119777640749
 30
0.0
 41
20.0
 42
20.0
 43
20.0
  0
LINE
  5
7C3A
330
8117
100
AcDbEntity
  8
1
100
AcDbLine
 10
3287.831002171236
 20
1810.957379976157
 30
0.0
 11
4542.831002171237
 21
1810.957379976158
 31
0.0
1001
ACAD
1000
ASC_BOUNDS
1002
{
1070
    19
1002
}
  0
LINE
  5
7C3B
330
8117
100
AcDbEntity
  8
1
100
AcDbLine
 10
2332.833399244327
 20
1810.957379976158
 30
0.0
 11
582.8333992443276
 21
1810.957379976157
 31
0.0
1001
ACAD
1000
ASC_BOUNDS
1002
{
1070
    19
1005
0
1005
0
1002
}
  0
POINT
  5
7C3C
330
8117
100
AcDbEntity
  8
1
100
AcDbPoint
 10
2332.833399244327
 20
1810.957379976158
 30
0.0
  0
POINT
  5
7C3D
330
8117
100
AcDbEntity
  8
1
100
AcDbPoint
 10
2332.833399244327
 20
1710.957379976158
 30
0.0
  0
POINT
  5
7C3E
330
8117
100
AcDbEntity
  8
1
100
AcDbPoint
 10
2332.833399244327
 20
1810.957379976158
 30
0.0
  0
POINT
  5
7C3F
330
8117
100
AcDbEntity
  8
1
100
AcDbPoint
 10
2332.833399244327
 20
1890.957379976157
 30
0.0
  0
LINE
  5
7C40
330
8117
100
AcDbEntity
  8
1
100
AcDbLine
 10
4542.831002171237
 20
1810.957379976158
 30
0.0
 11
4542.831002171237
 21
1710.957379976158
 31
0.0
  0
LINE
  5
7C41
330
8117
100
AcDbEntity
  8
1
100
AcDbLine
 10
4492.831002171237
 20
1710.957379976158
 30
0.0
 11
4542.831002171237
 21
1710.957379976158
 31
0.0
  0
POINT
  5
7C42
330
8117
100
AcDbEntity
  8
1
100
AcDbPoint
 10
2332.833399244327
 20
1810.957379976158
 30
0.0
  0
POINT
  5
7C43
330
8117
100
AcDbEntity
  8
1
100
AcDbPoint
 10
2332.833399244327
 20
1710.957379976158
 30
0.0
  0
POINT
  5
7C44
330
8117
100
AcDbEntity
  8
1
100
AcDbPoint
 10
2332.833399244327
 20
1810.957379976158
 30
0.0
  0
POINT
  5
7C45
330
8117
100
AcDbEntity
  8
1
100
AcDbPoint
 10
2332.833399244327
 20
1890.957379976157
 30
0.0
  0
LINE
  5
7C46
330
8117
100
AcDbEntity
  8
1
100
AcDbLine
 10
3989.831002171238
 20
3135.957379976157
 30
0.0
 11
4529.831002171238
 21
3135.957379976157
 31
0.0
  0
LINE
  5
7C48
330
8117
100
AcDbEntity
  8
1
100
AcDbLine
 10
4489.831002171237
 20
2613.957379976158
 30
0.0
 11
4489.831002171237
 21
1990.957379976157
 31
0.0
  0
LINE
  5
7C4A
330
8117
100
AcDbEntity
  8
1
100
AcDbLine
 10
3489.831002171238
 20
2613.957379976158
 30
0.0
 11
3489.831002171238
 21
1990.957379976157
 31
0.0
  0
LINE
  5
7C4B
330
8117
100
AcDbEntity
  8
1
100
AcDbLine
 10
3489.831002171238
 20
3135.957379976157
 30
0.0
 11
3489.831002171238
 21
2613.957379976158
 31
0.0
  0
LINE
  5
7C4C
330
8117
100
AcDbEntity
  8
1
100
AcDbLine
 10
3989.831002171238
 20
3135.957379976157
 30
0.0
 11
3449.831002171237
 21
3135.957379976157
 31
0.0
  0
LINE
  5
7C4D
330
8117
100
AcDbEntity
  8
1
100
AcDbLine
 10
3351.831002171236
 20
2555.157379976157
 30
0.0
 11
3351.831002171236
 21
2425.157379976159
 31
0.0
  0
LINE
  5
7C4E
330
8117
100
AcDbEntity
  8
1
100
AcDbLine
 10
3361.831002171236
 20
2565.157379976159
 30
0.0
 11
3489.831002171238
 21
2565.157379976157
 31
0.0
  0
LINE
  5
7C4F
330
8117
100
AcDbEntity
  8
1
100
AcDbLine
 10
3361.831002171236
 20
2415.157379976159
 30
0.0
 11
3489.831002171238
 21
2415.157379976157
 31
0.0
  0
ARC
  5
7C50
330
8117
100
AcDbEntity
  8
1
100
AcDbCircle
 10
3361.831002171236
 20
2555.157379976157
 30
0.0
 40
10.0
100
AcDbArc
 50
90.0
 51
180.0
  0
ARC
  5
7C51
330
8117
100
AcDbEntity
  8
1
100
AcDbCircle
 10
3361.831002171236
 20
2425.157379976159
 30
0.0
 40
10.0
100
AcDbArc
 50
180.0
 51
270.0
  0
LINE
  5
7C52
330
8117
100
AcDbEntity
  8
1
100
AcDbLine
 10
4599.831002171237
 20
2551.457379976157
 30
0.0
 11
4599.831002171237
 21
2451.457379976157
 31
0.0
  0
ARC
  5
7C53
330
8117
100
AcDbEntity
  8
1
100
AcDbCircle
 10
4589.831002171236
 20
2451.457379976157
 30
0.0
 40
10.0
100
AcDbArc
 50
270.0
 51
0.0
  0
ARC
  5
7C54
330
8117
100
AcDbEntity
  8
1
100
AcDbCircle
 10
4589.831002171236
 20
2551.457379976157
 30
0.0
 40
10.0
100
AcDbArc
 50
0.0
 51
90.0
  0
LINE
  5
7C55
330
8117
100
AcDbEntity
  8
1
100
AcDbLine
 10
4489.831002171237
 20
2441.457379976157
 30
0.0
 11
4589.831002171236
 21
2441.457379976157
 31
0.0
  0
LINE
  5
7C56
330
8117
100
AcDbEntity
  8
1
100
AcDbLine
 10
4489.831002171237
 20
2561.45737997616
 30
0.0
 11
4589.831002171236
 21
2561.457379976157
 31
0.0
  0
LINE
  5
7C57
330
8117
100
AcDbEntity
  8
1
100
AcDbLine
 10
632.8333992443267
 20
2030.957379976157
 30
0.0
 11
632.8333992443267
 21
1990.957379976157
 31
0.0
  0
POINT
  5
7C58
330
8117
100
AcDbEntity
  8
1
100
AcDbPoint
 10
4599.831002171237
 20
2551.457379976157
 30
0.0
  0
LINE
  5
7C59
330
8117
100
AcDbEntity
  8
1
100
AcDbLine
 10
582.8333992443276
 20
4183.325114919921
 30
0.0
 11
2332.833399244327
 21
4183.325114919921
 31
0.0
  0
LINE
  5
7C5A
330
8117
100
AcDbEntity
  8
1
100
AcDbLine
 10
1332.833399244327
 20
5438.325114919923
 30
0.0
 11
2332.833399244327
 21
5438.325114919923
 31
0.0
  0
LINE
  5
7C5B
330
8117
100
AcDbEntity
  8
1
100
AcDbLine
 10
2332.833399244327
 20
5438.325114919923
 30
0.0
 11
2332.833399244327
 21
5385.325114919922
 31
0.0
  0
LINE
  5
7C5C
330
8117
100
AcDbEntity
  8
1
100
AcDbLine
 10
582.8333992443276
 20
4933.325114919922
 30
0.0
 11
582.8333992443276
 21
4183.325114919921
 31
0.0
  0
LINE
  5
7C5D
330
8117
100
AcDbEntity
  8
1
100
AcDbLine
 10
1332.833399244326
 20
5438.325114919923
 30
0.0
 11
1332.833399244326
 21
5385.325114919923
 31
0.0
  0
LINE
  5
7C5E
330
8117
100
AcDbEntity
  8
1
100
AcDbLine
 10
582.8333992443276
 20
4933.325114919922
 30
0.0
 11
984.8333992443267
 21
4933.325114919922
 31
0.0
  0
LINE
  5
7C5F
330
8117
100
AcDbEntity
  8
2
100
AcDbLine
 10
1099.107514102052
 20
4885.325114919923
 30
0.0
 11
2413.225767652758
 21
4885.325114919922
 31
0.0
  0
LINE
  5
7C60
330
8117
100
AcDbEntity
  8
2
100
AcDbLine
 10
1832.833399244325
 20
5471.30903045685
 30
0.0
 11
1832.833399244327
 21
3948.461463769785
 31
0.0
  0
LINE
  5
7C61
330
8117
100
AcDbEntity
  8
2
100
AcDbLine
 10
832.8333992443274
 20
4799.815104403865
 30
0.0
 11
832.8333992443274
 21
3948.461463769785
 31
0.0
  0
LINE
  5
7C64
330
8117
100
AcDbEntity
  8
1
100
AcDbLine
 10
4542.831002171237
 20
1990.957379976157
 30
0.0
 11
4542.831002171237
 21
1890.957379976157
 31
0.0
  0
LINE
  5
7C65
330
8117
100
AcDbEntity
  8
1
100
AcDbLine
 10
3287.831002171236
 20
1990.957379976157
 30
0.0
 11
4542.831002171236
 21
1990.957379976158
 31
0.0
1001
ACAD
1000
ASC_BOUNDS
1002
{
1070
    19
1002
}
  0
LINE
  5
7C66
330
8117
100
AcDbEntity
  8
1
100
AcDbLine
 10
3287.831002171236
 20
1890.957379976157
 30
0.0
 11
4542.831002171237
 21
1890.957379976157
 31
0.0
  0
LINE
  5
7C67
330
8117
100
AcDbEntity
  8
1
100
AcDbLine
 10
3287.831002171236
 20
1990.957379976157
 30
0.0
 11
3287.831002171236
 21
1890.957379976157
 31
0.0
  0
DIMENSION
  5
7C68
330
8117
100
AcDbEntity
  8
3
100
AcDbDimension
  2
*D6
 10
4791.354413068213
 20
2165.957379976157
 30
0.0
 11
4741.354413068213
 21
2590.957379976158
 31
0.0
 12
-924.0765029414067
 22
1029.069764566677
 32
0.0
 71
     5
 42
-1.0
  3
Standard
100
AcDbAlignedDimension
 13
4492.131002171237
 23
3015.957379976157
 33
0.0
 14
4492.131002171237
 24
2165.957379976157
 34
0.0
 50
90.0
100
AcDbRotatedDimension
1001
ACAD
1000
DSTYLE
1002
{
1070
    40
1040
25.0
1070
     3
1000
\U+03C6<>
1002
}
  0
LINE
  5
7C69
330
8117
100
AcDbEntity
  8
1
100
AcDbLine
 10
3306.831002171237
 20
2620.957379976157
 30
0.0
 11
3489.831002171238
 21
2620.957379976157
 31
0.0
  0
LINE
  5
7C6A
330
8117
100
AcDbEntity
  8
1
100
AcDbLine
 10
3306.831002171237
 20
2560.957379976159
 30
0.0
 11
3353.68483742947
 21
2560.957379976157
 31
0.0
  0
ARC
  5
7C6C
330
8117
100
AcDbEntity
  8
1
100
AcDbCircle
 10
1832.833399244327
 20
2590.957379976158
 30
0.0
 40
220.0
100
AcDbArc
 50
283.4957332807956
 51
103.4957332807957
  0
ARC
  5
7C6D
330
8117
100
AcDbEntity
  8
1
100
AcDbCircle
 10
832.8333992443267
 20
2240.957379976157
 30
0.0
 40
220.0
100
AcDbArc
 50
103.4957332807958
 51
283.4957332807956
  0
LINE
  5
7C6E
330
8117
100
AcDbEntity
  8
1
100
AcDbLine
 10
1781.491349699756
 20
2804.882586411872
 30
0.0
 11
781.491349699756
 21
2454.882586411871
 31
0.0
  0
LINE
  5
7C6F
330
8117
100
AcDbEntity
  8
1
100
AcDbLine
 10
1801.157669526135
 20
2713.94375380196
 30
0.0
 11
805.3977278348693
 21
2347.4810108489
 31
0.0
  0
LINE
  5
7C70
330
8117
100
AcDbEntity
  8
1
100
AcDbLine
 10
1860.426299915621
 20
2466.991127179099
 30
0.0
 11
856.7327620304871
 21
2133.585035033824
 31
0.0
  0
LINE
  5
7C71
330
8117
100
AcDbEntity
  8
1
100
AcDbLine
 10
1884.175448788897
 20
2377.032173540444
 30
0.0
 11
884.1754487888982
 21
2027.032173540443
 31
0.0
  0
LINE
  5
7C72
330
8117
100
AcDbEntity
  8
1
100
AcDbLine
 10
582.8333992443272
 20
1890.957379976157
 30
0.0
 11
2332.833399244327
 21
1890.957379976157
 31
0.0
  0
LINE
  5
7C73
330
8117
100
AcDbEntity
  8
1
100
AcDbLine
 10
2332.833399244327
 20
1990.957379976157
 30
0.0
 11
582.8333992443272
 21
1990.957379976157
 31
0.0
1001
ACAD
1000
ASC_BOUNDS
1002
{
1070
    19
1005
0
1005
0
1002
}
  0
LINE
  5
7C74
330
8117
100
AcDbEntity
  8
1
100
AcDbLine
 10
582.8333992443272
 20
1990.957379976157
 30
0.0
 11
582.8333992443272
 21
1890.957379976157
 31
0.0
  0
LINE
  5
7C75
330
8117
100
AcDbEntity
  8
1
100
AcDbLine
 10
2332.833399244327
 20
1990.957379976157
 30
0.0
 11
2332.833399244327
 21
1890.957379976157
 31
0.0
  0
CIRCLE
  5
7C77
330
8117
100
AcDbEntity
  8
1
100
AcDbCircle
 10
1832.833399244327
 20
2590.957379976158
 30
0.0
 40
425.0
  0
CIRCLE
  5
7C78
330
8117
100
AcDbEntity
  8
1
100
AcDbCircle
 10
1832.833399244327
 20
2590.957379976158
 30
0.0
 40
465.0
  0
LINE
  5
7C7A
330
8117
100
AcDbEntity
  8
1
100
AcDbLine
 10
630.8333992443267
 20
2030.957379976157
 30
0.0
 11
1034.833399244326
 21
2030.957379976157
 31
0.0
  0
POINT
  5
7C7B
330
8117
100
AcDbEntity
  8
1
100
AcDbPoint
 10
2332.833399244327
 20
1810.957379976158
 30
0.0
  0
POINT
  5
7C7C
330
8117
100
AcDbEntity
  8
1
100
AcDbPoint
 10
2332.833399244327
 20
1890.957379976157
 30
0.0
  0
LINE
  5
7C7D
330
8117
100
AcDbEntity
  8
1
100
AcDbLine
 10
984.8333992443267
 20
5385.325114919925
 30
0.0
 11
2400.833399244326
 21
5385.325114919922
 31
0.0
  0
LINE
  5
7C7E
330
8117
100
AcDbEntity
  8
1
100
AcDbLine
 10
984.8333992443276
 20
4385.325114919921
 30
0.0
 11
2400.833399244327
 21
4385.325114919921
 31
0.0
  0
LINE
  5
7C7F
330
8117
100
AcDbEntity
  8
1
100
AcDbLine
 10
2332.833399244327
 20
4385.325114919921
 30
0.0
 11
2332.833399244327
 21
4183.325114919921
 31
0.0
  0
DIMENSION
  5
7C85
330
8117
100
AcDbEntity
  8
3
100
AcDbDimension
  2
*D7
 10
2332.833399244327
 20
5589.448398470874
 30
0.0
 11
1832.833399244327
 21
5639.448398470875
 31
0.0
 12
-396.0327685551274
 22
883.9445426794227
 32
0.0
 71
     5
 42
-1.0
  3
Standard
100
AcDbAlignedDimension
 13
1332.833399244326
 23
5438.325114919923
 33
0.0
 14
2332.833399244327
 24
5438.325114919923
 34
0.0
100
AcDbRotatedDimension
1001
ACAD
1000
DSTYLE
1002
{
1070
    40
1040
25.0
1002
}
  0
DIMENSION
  5
7C86
330
8117
100
AcDbEntity
  8
3
100
AcDbDimension
  2
*D8
 10
2550.770127394216
 20
4183.325114919921
 30
0.0
 11
2550.770127394216
 21
4810.825114919922
 31
0.0
 12
-396.0327685551274
 22
883.9445426794227
 32
0.0
 70
   128
 71
     5
 42
-1.0
  3
Standard
100
AcDbAlignedDimension
 13
2332.833399244327
 23
5438.325114919923
 33
0.0
 14
2332.833399244327
 24
4183.325114919921
 34
0.0
 50
90.0
100
AcDbRotatedDimension
1001
ACAD
1000
DSTYLE
1002
{
1070
    40
1040
25.0
1002
}
  0
DIMENSION
  5
7C87
330
8117
100
AcDbEntity
  8
3
100
AcDbDimension
  2
*D9
 10
430.6805701210142
 20
4183.325114919921
 30
0.0
 11
380.6805701210141
 21
4558.325114919922
 31
0.0
 12
-396.0327685551274
 22
883.9445426794227
 32
0.0
 71
     5
 42
-1.0
  3
Standard
100
AcDbAlignedDimension
 13
582.8333992443276
 23
4933.325114919922
 33
0.0
 14
582.8333992443276
 24
4183.325114919921
 34
0.0
 50
90.0
100
AcDbRotatedDimension
1001
ACAD
1000
DSTYLE
1002
{
1070
    40
1040
25.0
1002
}
  0
LINE
  5
7C88
330
8117
100
AcDbEntity
  8
1
100
AcDbLine
 10
722.8333992443277
 20
4117.325114919924
 30
0.0
 11
942.8333992443276
 21
4117.325114919923
 31
0.0
  0
LINE
  5
7C89
330
8117
100
AcDbEntity
  8
1
100
AcDbLine
 10
722.8333992443277
 20
4202.325114919924
 30
0.0
 11
942.8333992443267
 21
4202.325114919924
 31
0.0
  0
LINE
  5
7C8A
330
8117
100
AcDbEntity
  8
1
100
AcDbLine
 10
1959.833399244327
 20
4202.325114919921
 30
0.0
 11
1959.833399244327
 21
4117.325114919921
 31
0.0
  0
LINE
  5
7C8B
330
8117
100
AcDbEntity
  8
1
100
AcDbLine
 10
1705.833399244327
 20
4202.325114919924
 30
0.0
 11
1705.833399244327
 21
4117.325114919923
 31
0.0
  0
LINE
  5
7C8C
330
8117
100
AcDbEntity
  8
1
100
AcDbLine
 10
942.8333992443276
 20
4202.325114919924
 30
0.0
 11
942.8333992443276
 21
4117.325114919924
 31
0.0
  0
LINE
  5
7C8D
330
8117
100
AcDbEntity
  8
1
100
AcDbLine
 10
722.8333992443277
 20
4202.325114919925
 30
0.0
 11
722.8333992443277
 21
4117.325114919924
 31
0.0
  0
LINE
  5
7C8E
330
8117
100
AcDbEntity
  8
1
100
AcDbLine
 10
1705.833399244327
 20
4117.325114919921
 30
0.0
 11
1959.833399244327
 21
4117.325114919921
 31
0.0
  0
LINE
  5
7C8F
330
8117
100
AcDbEntity
  8
1
100
AcDbLine
 10
1705.833399244327
 20
4202.325114919923
 30
0.0
 11
1959.833399244327
 21
4202.325114919921
 31
0.0
  0
LINE
  5
7C90
330
8117
100
AcDbEntity
  8
1
100
AcDbLine
 10
612.8333992443276
 20
3985.325114919924
 30
0.0
 11
2052.833399244327
 21
3985.325114919922
 31
0.0
  0
LINE
  5
7C91
330
8117
100
AcDbEntity
  8
1
100
AcDbLine
 10
2052.833399244327
 20
4232.325114919921
 30
0.0
 11
2052.833399244327
 21
3985.325114919922
 31
0.0
  0
LINE
  5
7C92
330
8117
100
AcDbEntity
  8
1
100
AcDbLine
 10
612.8333992443276
 20
4232.325114919924
 30
0.0
 11
612.8333992443276
 21
3985.325114919924
 31
0.0
  0
LINE
  5
7C93
330
8117
100
AcDbEntity
  8
1
100
AcDbLine
 10
612.8333992443276
 20
4232.325114919924
 30
0.0
 11
2052.833399244328
 21
4232.325114919921
 31
0.0
  0
POINT
  5
7C95
330
8117
100
AcDbEntity
  8
1
100
AcDbPoint
 10
4599.831002171237
 20
2551.457379976157
 30
0.0
  0
DIMENSION
  5
7C96
330
8117
100
AcDbEntity
  8
3
100
AcDbDimension
  2
*D11
 10
4489.831002171237
 20
3250.072520919997
 30
0.0
 11
3989.831002171238
 21
3300.072520919997
 31
0.0
 71
     5
 42
-1.0
  3
Standard
100
AcDbAlignedDimension
 13
3489.831002171238
 23
3135.957379976157
 33
0.0
 14
4489.831002171237
 24
3135.957379976157
 34
0.0
100
AcDbRotatedDimension
1001
ACAD
1000
DSTYLE
1002
{
1070
    40
1040
25.0
1002
}
  0
POINT
  5
7C97
330
8117
100
AcDbEntity
  8
1
100
AcDbPoint
 10
4599.831002171237
 20
2551.457379976157
 30
0.0
  0
POINT
  5
7C98
330
8117
100
AcDbEntity
  8
1
100
AcDbPoint
 10
3089.831002171238
 20
2810.957379976157
 30
0.0
  0
LINE
  5
7C99
330
8117
100
AcDbEntity
  8
1
100
AcDbLine
 10
670.8333992443276
 20
4771.825114919925
 30
0.0
 11
984.8333992443267
 21
4771.825114919923
 31
0.0
  0
LINE
  5
7C9A
330
8117
100
AcDbEntity
  8
1
100
AcDbLine
 10
670.8333992443276
 20
4242.825114919924
 30
0.0
 11
994.8333992443277
 21
4242.825114919923
 31
0.0
  0
LINE
  5
7C9B
330
8117
100
AcDbEntity
  8
1
100
AcDbLine
 10
853.8333992443277
 20
4242.825114919924
 30
0.0
 11
853.8333992443277
 21
4202.325114919924
 31
0.0
  0
LINE
  5
7C9C
330
8117
100
AcDbEntity
  8
1
100
AcDbLine
 10
811.8333992443277
 20
4242.825114919924
 30
0.0
 11
811.8333992443277
 21
4202.325114919924
 31
0.0
  0
LINE
  5
7C9D
330
8117
100
AcDbEntity
  8
1
100
AcDbLine
 10
670.8333992443276
 20
4771.825114919926
 30
0.0
 11
670.8333992443276
 21
4242.825114919924
 31
0.0
  0
LINE
  5
7C9E
330
8117
100
AcDbEntity
  8
1
100
AcDbLine
 10
994.8333992443277
 20
4385.325114919921
 30
0.0
 11
994.8333992443277
 21
4242.825114919923
 31
0.0
  0
LINE
  5
7C9F
330
8117
100
AcDbEntity
  8
1
100
AcDbLine
 10
3489.831002171238
 20
2078.957379976158
 30
0.0
 11
3347.331002171236
 21
2078.957379976158
 31
0.0
  0
LINE
  5
7CA0
330
8117
100
AcDbEntity
  8
1
100
AcDbLine
 10
3489.831002171238
 20
2402.957379976157
 30
0.0
 11
3347.331002171238
 21
2402.957379976157
 31
0.0
  0
LINE
  5
7CA1
330
8117
100
AcDbEntity
  8
1
100
AcDbLine
 10
3347.331002171237
 20
2402.957379976157
 30
0.0
 11
3347.331002171234
 21
2078.957379976158
 31
0.0
  0
LINE
  5
7CA2
330
8117
100
AcDbEntity
  8
1
100
AcDbLine
 10
3347.331002171237
 20
2261.957379976157
 30
0.0
 11
3306.831002171239
 21
2261.957379976157
 31
0.0
  0
LINE
  5
7CA3
330
8117
100
AcDbEntity
  8
1
100
AcDbLine
 10
3347.331002171237
 20
2219.957379976158
 30
0.0
 11
3306.831002171239
 21
2219.957379976158
 31
0.0
  0
LINE
  5
7CA4
330
8117
100
AcDbEntity
  8
1
100
AcDbLine
 10
3306.831002171237
 20
2350.957379976157
 30
0.0
 11
3306.831002171237
 21
2130.957379976157
 31
0.0
  0
LINE
  5
7CA5
330
8117
100
AcDbEntity
  8
1
100
AcDbLine
 10
3221.831002171238
 20
2350.957379976157
 30
0.0
 11
3221.831002171238
 21
2130.957379976157
 31
0.0
  0
DIMENSION
  5
7CAD
330
8117
100
AcDbEntity
  8
3
100
AcDbDimension
  2
*D16
 10
2634.30654114575
 20
2590.957379976158
 30
0.0
 11
2584.30654114575
 21
2863.457379976157
 31
0.0
 12
-396.0327685551274
 22
1029.069764566677
 32
0.0
 71
     5
 42
-1.0
  3
Standard
100
AcDbAlignedDimension
 13
1852.333399244326
 23
3135.957379976157
 33
0.0
 14
2499.305191094717
 24
2590.957379976158
 34
0.0
 50
90.0
100
AcDbRotatedDimension
1001
ACAD
1000
DSTYLE
1002
{
1070
    40
1040
25.0
1002
}
  0
LINE
  5
7CB3
330
8117
100
AcDbEntity
  8
1
100
AcDbLine
 10
3989.831002171238
 20
3132.957379976158
 30
0.0
 11
3449.831002171237
 21
3132.957379976158
 31
0.0
  0
LINE
  5
7CB4
330
8117
100
AcDbEntity
  8
1
100
AcDbLine
 10
3989.831002171238
 20
3132.957379976158
 30
0.0
 11
4529.831002171238
 21
3132.957379976158
 31
0.0
  0
LINE
  5
7CB5
330
8117
100
AcDbEntity
  8
1
100
AcDbLine
 10
3449.831002171237
 20
3135.957379976157
 30
0.0
 11
3449.831002171237
 21
3132.957379976158
 31
0.0
  0
LINE
  5
7CB6
330
8117
100
AcDbEntity
  8
1
100
AcDbLine
 10
4529.831002171238
 20
3135.957379976157
 30
0.0
 11
4529.831002171238
 21
3132.957379976158
 31
0.0
  0
LINE
  5
7CB7
330
8117
100
AcDbEntity
  8
1
100
AcDbLine
 10
984.8333992443256
 20
5385.325114919925
 30
0.0
 11
984.8333992443276
 21
4385.325114919921
 31
0.0
  0
LINE
  5
7CB8
330
8117
100
AcDbEntity
  8
1
100
AcDbLine
 10
2400.833399244326
 20
5385.325114919922
 30
0.0
 11
2400.833399244327
 21
4385.325114919921
 31
0.0
  0
LINE
  5
7CB9
330
8117
100
AcDbEntity
  8
1
100
AcDbLine
 10
1809.833399244325
 20
5385.325114919925
 30
0.0
 11
1809.833399244327
 21
4385.325114919925
 31
0.0
  0
LINE
  5
7CBA
330
8117
100
AcDbEntity
  8
1
100
AcDbLine
 10
1809.833399244325
 20
5385.325114919922
 30
0.0
 11
984.8333992443276
 21
4385.325114919921
 31
0.0
  0
LINE
  5
7CBB
330
8117
100
AcDbEntity
  8
1
100
AcDbLine
 10
984.8333992443256
 20
5385.325114919925
 30
0.0
 11
1809.833399244327
 21
4385.325114919921
 31
0.0
  0
LINE
  5
7EE2
330
8117
100
AcDbEntity
  8
4
100
AcDbLine
 10
4625.0
 20
1250.0
 30
0.0
 11
4625.0
 21
750.0
 31
0.0
  0
LINE
  5
7EE3
330
8117
100
AcDbEntity
  8
4
100
AcDbLine
 10
2875.0
 20
1250.0
 30
0.0
 11
2875.0
 21
750.0
 31
0.0
  0
LINE
  5
7EE4
330
8117
100
AcDbEntity
  8
4
100
AcDbLine
 10
1625.0
 20
1250.0
 30
0.0
 11
1625.0
 21
750.0
 31
0.0
  0
LINE
  5
7EE7
330
8117
100
AcDbEntity
  8
4
100
AcDbLine
 10
1625.0
 20
750.0
 30
0.0
 11
4625.0
 21
750.0
 31
0.0
  0
LINE
  5
7EE8
330
8117
100
AcDbEntity
  8
4
100
AcDbLine
 10
1625.0
 20
1000.0
 30
0.0
 11
4625.0
 21
1000.0
 31
0.0
  0
TEXT
  5
7EE9
330
8117
100
AcDbEntity
  8
4
100
AcDbText
 10
1721.255202117253
 20
1078.857564666532
 30
0.0
 40
125.0
  1
機器名称
100
AcDbText
  0
TEXT
  5
7EEA
330
8117
100
AcDbEntity
  8
4
100
AcDbText
 10
1715.645265061993
 20
804.1128918300273
 30
0.0
 40
125.0
  1
機器型番
100
AcDbText
  0
TEXT
  5
7EEB
330
8117
100
AcDbEntity
  8
4
100
AcDbText
 10
2944.196863719162
 20
1056.429422393921
 30
0.0
 40
125.0
  1
ミツヤ多翼送風機
100
AcDbText
  0
TEXT
  5
7EEC
330
8117
100
AcDbEntity
  8
4
100
AcDbText
 10
2966.636238963701
 20
792.8989606998584
 30
0.0
 40
125.0
  1
MF#5-5
100
AcDbText
  0
TEXT
  5
7EEE
330
8117
100
AcDbEntity
  8
4
100
AcDbText
 10
1958.339285088954
 20
5958.572103331289
 30
0.0
 40
135.0
  1
床置防振ベット
100
AcDbText
  0
TEXT
  5
7EEF
330
8117
100
AcDbEntity
  8
4
100
AcDbText
 10
790.4189833236158
 20
6334.702440498245
 30
0.0
 40
180.0
  1
遠心式両吸込両持多翼ファン
100
AcDbText
  0
LINE
  5
7EF0
330
8117
100
AcDbEntity
  8
4
100
AcDbLine
 10
625.0
 20
6173.521885662012
 30
0.0
 11
4625.0
 21
6173.521885662012
 31
0.0
  0
LINE
  5
7EF1
330
8117
100
AcDbEntity
  8
4
100
AcDbLine
 10
625.0
 20
6673.521885662011
 30
0.0
 11
4625.0
 21
6673.521885662011
 31
0.0
  0
LINE
  5
7EF2
330
8117
100
AcDbEntity
  8
4
100
AcDbLine
 10
1625.0
 20
1250.0
 30
0.0
 11
4625.0
 21
1250.0
 31
0.0
  0
LINE
  5
7EF3
330
8117
100
AcDbEntity
  8
4
100
AcDbLine
 10
625.0
 20
6673.521885662011
 30
0.0
 11
625.0
 21
6173.521885662012
 31
0.0
  0
TEXT
  5
7EF4
330
8117
100
AcDbEntity
  8
4
100
AcDbText
 10
868.6922044821983
 20
5955.798693865858
 30
0.0
 40
135.0
  1
右回転上向
100
AcDbText
  0
TEXT
  5
7EF5
330
8117
100
AcDbEntity
  8
4
100
AcDbText
 10
3672.423898123224
 20
6765.15270373827
 30
0.0
 40
140.0
  1
No.
100
AcDbText
  0
TEXT
  5
7EF6
330
8117
100
AcDbEntity
  8
4
100
AcDbText
 10
3278.240156500032
 20
5958.572103331289
 30
0.0
 40
135.0
  1
縮尺：1/25
100
AcDbText
  0
LINE
  5
7EF7
330
8117
100
AcDbEntity
  8
4
100
AcDbLine
 10
4625.0
 20
6673.521885662011
 30
0.0
 11
4625.0
 21
6173.521885662012
 31
0.0
  0
LINE
  5
7EF8
330
8117
100
AcDbEntity
  8
4
100
AcDbLine
 10
5250.0
 20
7375.0
 30
0.0
 11
5250.0
 21
7375.0
 31
0.0
  0
LINE
  5
7EF9
330
8117
100
AcDbEntity
  8
4
100
AcDbLine
 10
3601.543555899662
 20
6703.158957813504
 30
0.0
 11
3601.543555899662
 21
6966.630653874381
 31
0.0
  0
LINE
  5
7EFA
330
8117
100
AcDbEntity
  8
4
100
AcDbLine
 10
3601.543555899662
 20
6966.630653874381
 30
0.0
 11
4625.0
 21
6966.630653874381
 31
0.0
  0
LINE
  5
7EFB
330
8117
100
AcDbEntity
  8
4
100
AcDbLine
 10
4625.0
 20
6966.630653874381
 30
0.0
 11
4625.0
 21
6703.158957813504
 31
0.0
  0
LINE
  5
7EFC
330
8117
100
AcDbEntity
  8
4
100
AcDbLine
 10
4625.0
 20
6703.158957813504
 30
0.0
 11
3601.543555899662
 21
6703.158957813504
 31
0.0
  0
LINE
  5
7EFD
330
8117
100
AcDbEntity
  8
4
100
AcDbLine
 10
0.0
 20
0.0
 30
0.0
 11
0.0
 21
7375.0
 31
0.0
  0
LINE
  5
7EFE
330
8117
100
AcDbEntity
  8
4
100
AcDbLine
 10
0.0
 20
7375.0
 30
0.0
 11
5250.0
 21
7375.0
 31
0.0
  0
LINE
  5
7EFF
330
8117
100
AcDbEntity
  8
4
100
AcDbLine
 10
5250.0
 20
7375.0
 30
0.0
 11
5250.0
 21
0.0
 31
0.0
  0
LINE
  5
7F00
330
8117
100
AcDbEntity
  8
4
100
AcDbLine
 10
5250.0
 20
0.0
 30
0.0
 11
0.0
 21
0.0
 31
0.0
  0
ARC
  5
81E0
330
8117
100
AcDbEntity
  8
FUTO
100
AcDbCircle
 10
1880.333399244327
 20
2543.457379976158
 30
0.0
 40
510.5
100
AcDbArc
 50
5.338867588143347
 51
90.0
  0
LINE
  5
81E1
330
8117
100
AcDbEntity
  8
FUTO
100
AcDbLine
 10
984.8333992443276
 20
3135.957379976157
 30
0.0
 11
1041.205253456848
 21
2590.957379976157
 31
0.0
  0
ARC
  5
81E2
330
8117
100
AcDbEntity
  8
FUTO
100
AcDbCircle
 10
1773.833399244328
 20
2531.957379976157
 30
0.0
 40
617.0
100
AcDbArc
 50
298.7384928435364
 51
5.487235142904334
  0
ARC
  5
81E3
330
8117
100
AcDbEntity
  8
FUTO
100
AcDbCircle
 10
1773.833399244328
 20
2649.957379976158
 30
0.0
 40
735.0
100
AcDbArc
 50
184.6042067265012
 51
243.7145140431399
  0
ARC
  5
81E4
330
8117
100
AcDbEntity
  8
FUTO
100
AcDbCircle
 10
1863.333399244327
 20
2621.457379976158
 30
0.0
 40
432.5
100
AcDbArc
 50
90.0
 51
97.10565524729716
  0
LINE
  5
81E5
330
8117
100
AcDbEntity
  8
FUTO
100
AcDbLine
 10
1809.833399244327
 20
3050.635664608547
 30
0.0
 11
1809.833399244327
 21
3135.957379976157
 31
0.0
  0
LINE
  5
81E6
330
8117
100
AcDbEntity
  8
FUTO
100
AcDbLine
 10
1880.333399244327
 20
3053.957379976158
 30
0.0
 11
1863.333399244327
 21
3053.957379976158
 31
0.0
  0
LINE
  5
81E7
330
8117
100
AcDbEntity
  8
1
100
AcDbLine
 10
942.3333992443277
 20
3135.957379976157
 30
0.0
 11
1852.333399244327
 21
3135.957379976156
 31
0.0
  0
LINE
  5
81E8
330
8117
100
AcDbEntity
  8
1
100
AcDbLine
 10
942.3333992443277
 20
3135.957379976157
 30
0.0
 11
942.3333992443277
 21
3132.957379976157
 31
0.0
  0
LINE
  5
81E9
330
8117
100
AcDbEntity
  8
1
100
AcDbLine
 10
1852.333399244327
 20
3135.957379976156
 30
0.0
 11
1852.333399244327
 21
3132.957379976156
 31
0.0
  0
LINE
  5
81EA
330
8117
100
AcDbEntity
  8
1
100
AcDbLine
 10
988.2344940147504
 20
3095.957379976157
 30
0.0
 11
1809.833399244327
 21
3095.957379976156
 31
0.0
  0
LINE
  5
81EB
330
8117
100
AcDbEntity
  8
1
100
AcDbLine
 10
942.3333992443277
 20
3132.957379976157
 30
0.0
 11
1852.333399244327
 21
3132.957379976156
 31
0.0
  0
POINT
  5
81EC
330
8117
100
AcDbEntity
  8
1
100
AcDbPoint
 10
1832.833399244327
 20
3156.17529064518
 30
0.0
 50
270.0
  0
POINT
  5
81ED
330
8117
100
AcDbEntity
  8
1
100
AcDbPoint
 10
1832.833399244327
 20
3156.17529064518
 30
0.0
 50
270.0
  0
DIMENSION
  5
81F1
330
8117
100
AcDbEntity
  8
3
100
AcDbDimension
  2
*D29
 10
3989.831002171238
 20
3560.211759849623
 30
0.0
 11
3539.831002171238
 21
3642.35461699248
 31
0.0
 70
    32
  1
(<>)
 71
     5
 42
900.0
  3
IGA
100
AcDbAlignedDimension
 13
3089.831002171238
 23
2810.957379976157
 33
0.0
 14
3989.831002171238
 24
3337.572520919997
 34
0.0
100
AcDbRotatedDimension
1001
ACAD
1000
DSTYLE
1002
{
1070
    40
1040
25.0
1070
    42
1040
1.0
1070
   143
1040
0.039
1070
   172
1070
     1
1070
   271
1070
     4
1070
   272
1070
     4
1070
   279
1070
     0
1070
   284
1070
     0
1070
   285
1070
     0
1070
   286
1070
     0
1070
   341
1005
812B
1070
   343
1005
812B
1070
   344
1005
812B
1002
}
  0
DIMENSION
  5
81FE
330
8117
100
AcDbEntity
  8
3
100
AcDbDimension
  2
*D30
 10
4599.831002171237
 20
3560.211759849623
 30
0.0
 11
4294.831002171236
 21
3642.35461699248
 31
0.0
 70
    32
  1
(<>)
 71
     5
 42
609.9999999999995
  3
IGA
100
AcDbAlignedDimension
 13
3989.831002171238
 23
3337.572520919997
 33
0.0
 14
4599.831002171237
 24
2526.196906222125
 34
0.0
100
AcDbRotatedDimension
1001
ACAD
1000
DSTYLE
1002
{
1070
    40
1040
25.0
1070
    42
1040
1.0
1070
   143
1040
0.039
1070
   172
1070
     1
1070
   271
1070
     4
1070
   272
1070
     4
1070
   279
1070
     1
1070
   284
1070
     0
1070
   285
1070
     0
1070
   286
1070
     0
1070
   341
1005
812B
1070
   343
1005
812B
1070
   344
1005
812B
1002
}
  0
DIMENSION
  5
8276
330
8117
100
AcDbEntity
  8
3
100
AcDbDimension
  2
*D38
 10
1332.833399244326
 20
5589.448398470874
 30
0.0
 11
957.8333992443269
 21
5651.948398470874
 31
0.0
 70
    32
 71
     5
 42
749.9999999999984
  3
IGA
100
AcDbAlignedDimension
 13
582.8333992443276
 23
4933.325114919922
 33
0.0
 14
1332.833399244326
 24
5438.325114919923
 34
0.0
100
AcDbRotatedDimension
1001
ACAD
1000
DSTYLE
1002
{
1070
    40
1040
25.0
1070
    42
1040
1.0
1070
   143
1040
0.039
1070
   172
1070
     1
1070
   271
1070
     4
1070
   272
1070
     4
1070
   279
1070
     0
1070
   284
1070
     0
1070
   285
1070
     0
1070
   286
1070
     0
1070
   341
1005
812B
1070
   343
1005
812B
1070
   344
1005
812B
1002
}
  0
DIMENSION
  5
828C
330
8117
100
AcDbEntity
  8
3
100
AcDbDimension
  2
*D39
 10
2332.833399244327
 20
3819.315434890585
 30
0.0
 11
1457.833399244327
 21
3881.815434890585
 31
0.0
 70
    32
 71
     5
 42
1750.0
  3
IGA
100
AcDbAlignedDimension
 13
582.8333992443276
 23
4183.325114919921
 33
0.0
 14
2332.833399244327
 24
4183.325114919921
 34
0.0
100
AcDbRotatedDimension
1001
ACAD
1000
DSTYLE
1002
{
1070
    40
1040
25.0
1070
    42
1040
1.0
1070
   143
1040
0.039
1070
   172
1070
     1
1070
   271
1070
     4
1070
   272
1070
     4
1070
   279
1070
     0
1070
   284
1070
     0
1070
   285
1070
     0
1070
   286
1070
     0
1070
   341
1005
812B
1070
   343
1005
812B
1070
   344
1005
812B
1002
}
  0
DIMENSION
  5
82D2
330
8117
100
AcDbEntity
  8
3
100
AcDbDimension
  2
*D40
 10
3989.831002171238
 20
1534.613952183543
 30
0.0
 11
3638.831002171237
 21
1597.113952183543
 31
0.0
 70
    32
 71
     5
 42
702.0000000000022
  3
IGA
100
AcDbAlignedDimension
 13
3287.831002171236
 23
1710.957379976158
 33
0.0
 14
3989.831002171238
 24
1710.957379976158
 34
0.0
100
AcDbRotatedDimension
1001
ACAD
1000
DSTYLE
1002
{
1070
    40
1040
25.0
1070
    42
1040
1.0
1070
   143
1040
0.039
1070
   172
1070
     1
1070
   271
1070
     4
1070
   272
1070
     4
1070
   279
1070
     0
1070
   284
1070
     0
1070
   285
1070
     0
1070
   286
1070
     0
1070
   341
1005
812B
1070
   343
1005
812B
1070
   344
1005
812B
1002
}
  0
DIMENSION
  5
82DF
330
8117
100
AcDbEntity
  8
3
100
AcDbDimension
  2
*D41
 10
4542.831002171237
 20
1534.613952183543
 30
0.0
 11
4266.331002171237
 21
1597.113952183543
 31
0.0
 70
    32
 71
     5
 42
552.9999999999986
  3
IGA
100
AcDbAlignedDimension
 13
3989.831002171238
 23
1710.957379976158
 33
0.0
 14
4542.831002171237
 24
1710.957379976158
 34
0.0
100
AcDbRotatedDimension
1001
ACAD
1000
DSTYLE
1002
{
1070
    40
1040
25.0
1070
    42
1040
1.0
1070
   143
1040
0.039
1070
   172
1070
     1
1070
   271
1070
     4
1070
   272
1070
     4
1070
   279
1070
     1
1070
   284
1070
     0
1070
   285
1070
     0
1070
   286
1070
     0
1070
   341
1005
812B
1070
   343
1005
812B
1070
   344
1005
812B
1002
}
  0
DIMENSION
  5
82EC
330
8117
100
AcDbEntity
  8
3
100
AcDbDimension
  2
*D42
 10
1832.833399244327
 20
1515.279013592502
 30
0.0
 11
1207.833399244327
 21
1577.779013592502
 31
0.0
 70
    32
 71
     5
 42
1249.999999999999
  3
IGA
100
AcDbAlignedDimension
 13
582.8333992443276
 23
1710.957379976158
 33
0.0
 14
1832.833399244327
 24
1710.957379976158
 34
0.0
100
AcDbRotatedDimension
1001
ACAD
1000
DSTYLE
1002
{
1070
    40
1040
25.0
1070
    42
1040
1.0
1070
   143
1040
0.039
1070
   172
1070
     1
1070
   271
1070
     4
1070
   272
1070
     4
1070
   279
1070
     0
1070
   284
1070
     0
1070
   285
1070
     0
1070
   286
1070
     0
1070
   341
1005
812B
1070
   343
1005
812B
1070
   344
1005
812B
1002
}
  0
DIMENSION
  5
82F9
330
8117
100
AcDbEntity
  8
3
100
AcDbDimension
  2
*D43
 10
2332.833399244327
 20
1515.279013592502
 30
0.0
 11
2082.833399244327
 21
1577.779013592502
 31
0.0
 70
    32
 71
     5
 42
500.0000000000002
  3
IGA
100
AcDbAlignedDimension
 13
1832.833399244327
 23
1710.957379976158
 33
0.0
 14
2332.833399244327
 24
1710.957379976158
 34
0.0
100
AcDbRotatedDimension
1001
ACAD
1000
DSTYLE
1002
{
1070
    40
1040
25.0
1070
    42
1040
1.0
1070
   143
1040
0.039
1070
   172
1070
     1
1070
   271
1070
     4
1070
   272
1070
     4
1070
   279
1070
     1
1070
   284
1070
     0
1070
   285
1070
     0
1070
   286
1070
     0
1070
   341
1005
812B
1070
   343
1005
812B
1070
   344
1005
812B
1002
}
  0
DIMENSION
  5
8306
330
8117
100
AcDbEntity
  8
3
100
AcDbDimension
  2
*D44
 10
2634.30654114575
 20
1890.957379976157
 30
0.0
 11
2571.806541145749
 21
2240.957379976157
 31
0.0
 70
    32
 71
     5
 42
700.0000000000004
  3
IGA
100
AcDbAlignedDimension
 13
2499.305191094717
 23
2590.957379976158
 33
0.0
 14
2332.833399244327
 24
1890.957379976157
 34
0.0
 50
90.0
100
AcDbRotatedDimension
1001
ACAD
1000
DSTYLE
1002
{
1070
    40
1040
25.0
1070
    42
1040
1.0
1070
   143
1040
0.039
1070
   172
1070
     1
1070
   271
1070
     4
1070
   272
1070
     4
1070
   279
1070
     0
1070
   284
1070
     0
1070
   285
1070
     0
1070
   286
1070
     0
1070
   341
1005
812B
1070
   343
1005
812B
1070
   344
1005
812B
1002
}
  0
DIMENSION
  5
8313
330
8117
100
AcDbEntity
  8
3
100
AcDbDimension
  2
*D45
 10
2634.30654114575
 20
1810.957379976158
 30
0.0
 11
2799.717756972699
 21
1946.135951404729
 31
0.0
 70
   160
  1
(<>)
 71
     5
 42
79.99999999999886
  3
IGA
100
AcDbAlignedDimension
 13
2332.833399244327
 23
1890.957379976157
 33
0.0
 14
2332.833399244327
 24
1810.957379976158
 34
0.0
 50
90.0
100
AcDbRotatedDimension
1001
ACAD
1000
DSTYLE
1002
{
1070
    40
1040
25.0
1070
    42
1040
1.0
1070
   143
1040
0.039
1070
   172
1070
     1
1070
   271
1070
     4
1070
   272
1070
     4
1070
   279
1070
     1
1070
   284
1070
     0
1070
   285
1070
     0
1070
   286
1070
     0
1070
   341
1005
812B
1070
   343
1005
812B
1070
   344
1005
8465
1002
}
  0
DIMENSION
  5
8325
330
8117
100
AcDbEntity
  8
3
100
AcDbDimension
  2
*D46
 10
2634.30654114575
 20
1710.957379976158
 30
0.0
 11
2627.4773639899
 21
1589.49333058023
 31
0.0
 70
   160
 71
     5
 42
100.0
  3
IGA
100
AcDbAlignedDimension
 13
2332.833399244327
 23
1810.957379976158
 33
0.0
 14
2332.833399244327
 24
1710.957379976158
 34
0.0
 50
90.0
100
AcDbRotatedDimension
1001
ACAD
1000
DSTYLE
1002
{
1070
    40
1040
25.0
1070
    42
1040
1.0
1070
   143
1040
0.039
1070
   172
1070
     1
1070
   271
1070
     4
1070
   272
1070
     4
1070
   279
1070
     1
1070
   284
1070
     0
1070
   285
1070
     0
1070
   286
1070
     0
1070
   341
1005
812B
1070
   343
1005
8465
1070
   344
1005
812B
1002
}
  0
DIMENSION
  5
84CC
330
8117
100
AcDbEntity
  8
3
100
AcDbDimension
  2
*D48
 10
2855.383234353664
 20
3135.957379976157
 30
0.0
 11
2773.240377210806
 21
2423.457379976158
 31
0.0
 70
    32
  1
(<>)
 71
     5
 42
1424.999999999999
  3
IGA
100
AcDbAlignedDimension
 13
2332.833399244327
 23
1710.957379976158
 33
0.0
 14
1852.333399244326
 24
3135.957379976157
 34
0.0
 50
90.0
100
AcDbRotatedDimension
1001
ACAD
1000
DSTYLE
1002
{
1070
    40
1040
25.0
1070
    42
1040
1.0
1070
   143
1040
0.039
1070
   172
1070
     1
1070
   271
1070
     4
1070
   272
1070
     4
1070
   279
1070
     0
1070
   284
1070
     0
1070
   285
1070
     0
1070
   286
1070
     0
1070
   341
1005
812B
1070
   343
1005
812B
1070
   344
1005
812B
1002
}
  0
DIMENSION
  5
84F1
330
8117
100
AcDbEntity
  8
3
100
AcDbDimension
  2
*D50
 10
2390.833399244328
 20
3436.586126092024
 30
0.0
 11
2111.833399244327
 21
3499.086126092024
 31
0.0
 70
    32
 71
     5
 42
558.0000000000007
  3
IGA
100
AcDbAlignedDimension
 13
1832.833399244327
 23
3254.45346799582
 33
0.0
 14
2390.833399244328
 24
2531.957379976157
 34
0.0
100
AcDbRotatedDimension
1001
ACAD
1000
DSTYLE
1002
{
1070
    40
1040
25.0
1070
    42
1040
1.0
1070
   143
1040
0.039
1070
   172
1070
     1
1070
   271
1070
     4
1070
   272
1070
     4
1070
   279
1070
     0
1070
   284
1070
     0
1070
   285
1070
     0
1070
   286
1070
     0
1070
   341
1005
812B
1070
   343
1005
812B
1070
   344
1005
812B
1002
}
  0
DIMENSION
  5
8507
330
8117
100
AcDbEntity
  8
3
100
AcDbDimension
  2
*D51
 10
2390.833399244328
 20
3582.188501838999
 30
0.0
 11
1486.833399244327
 21
3644.688501838999
 31
0.0
 70
    32
 71
     5
 42
1808.0
  3
IGA
100
AcDbAlignedDimension
 13
582.8333992443272
 23
1990.957379976157
 33
0.0
 14
2390.833399244328
 24
2531.957379976157
 34
0.0
100
AcDbRotatedDimension
1001
ACAD
1000
DSTYLE
1002
{
1070
    40
1040
25.0
1070
    42
1040
1.0
1070
   143
1040
0.039
1070
   172
1070
     1
1070
   271
1070
     4
1070
   272
1070
     4
1070
   279
1070
     0
1070
   284
1070
     0
1070
   285
1070
     0
1070
   286
1070
     0
1070
   341
1005
812B
1070
   343
1005
812B
1070
   344
1005
812B
1002
}
  0
ENDSEC
  0
SECTION
  2
OBJECTS
  0
DICTIONARY
  5
80B4
330
0
100
AcDbDictionary
281
     1
  3
ACAD_CIP_PREVIOUS_PRODUCT_INFO
350
815F
  3
ACAD_COLOR
350
810A
  3
ACAD_DETAILVIEWSTYLE
350
8111
  3
ACAD_GROUP
350
80B5
  3
ACAD_LAYOUT
350
8109
  3
ACAD_MATERIAL
350
80B8
  3
ACAD_MLEADERSTYLE
350
810D
  3
ACAD_MLINESTYLE
350
8106
  3
ACAD_PLOTSETTINGS
350
8108
  3
ACAD_PLOTSTYLENAME
350
80B6
  3
ACAD_SCALELIST
350
80EA
  3
ACAD_SECTIONVIEWSTYLE
350
810F
  3
ACAD_TABLESTYLE
350
810B
  3
ACAD_VISUALSTYLE
350
80D1
  3
ACDB_RECOMPOSE_DATA
350
851F
  3
AcDbVariableDictionary
350
816A
  3
DWGPROPS
350
8520
  0
DICTIONARY
  5
81B8
330
80AA
100
AcDbDictionary
280
     1
281
     1
  3
ACAD_LAYERSTATES
360
81B9
  0
DICTIONARY
  5
8160
330
80FC
100
AcDbDictionary
280
     1
281
     1
  3
ADSK_XREC_LAYER_RECONCILED
360
8161
  0
DICTIONARY
  5
8162
330
811B
100
AcDbDictionary
280
     1
281
     1
  3
ADSK_XREC_LAYER_RECONCILED
360
8163
  0
DICTIONARY
  5
8164
330
811E
100
AcDbDictionary
280
     1
281
     1
  3
ADSK_XREC_LAYER_RECONCILED
360
8165
  0
DICTIONARY
  5
8166
330
811F
100
AcDbDictionary
280
     1
281
     1
  3
ADSK_XREC_LAYER_RECONCILED
360
8167
  0
DICTIONARY
  5
8168
330
8120
100
AcDbDictionary
280
     1
281
     1
  3
ADSK_XREC_LAYER_RECONCILED
360
8169
  0
DICTIONARY
  5
81B7
330
81B6
100
AcDbDictionary
280
     1
281
     1
  0
XRECORD
  5
815F
102
{ACAD_REACTORS
330
80B4
102
}
330
80B4
100
AcDbXrecord
280
     1
300
ACDLT
300
2015
300
INVLTS_F_S
  0
DICTIONARY
  5
810A
102
{ACAD_REACTORS
330
80B4
102
}
330
80B4
100
AcDbDictionary
281
     1
  0
DICTIONARY
  5
8111
102
{ACAD_REACTORS
330
80B4
102
}
330
80B4
100
AcDbDictionary
281
     1
  3
Imperial24
350
8112
  0
DICTIONARY
  5
80B5
102
{ACAD_REACTORS
330
80B4
102
}
330
80B4
100
AcDbDictionary
281
     1
  0
DICTIONARY
  5
8109
102
{ACAD_REACTORS
330
80B4
102
}
330
80B4
100
AcDbDictionary
281
     1
  3
Model
350
811A
  3
レイアウト1
350
8116
  0
DICTIONARY
  5
80B8
102
{ACAD_REACTORS
330
80B4
102
}
330
80B4
100
AcDbDictionary
281
     1
  3
ByBlock
350
80C1
  3
ByLayer
350
80B9
  3
Global
350
80C9
  0
DICTIONARY
  5
810D
102
{ACAD_REACTORS
330
80B4
102
}
330
80B4
100
AcDbDictionary
281
     1
  3
Standard
350
810E
  0
DICTIONARY
  5
8106
102
{ACAD_REACTORS
330
80B4
102
}
330
80B4
100
AcDbDictionary
281
     1
  3
Standard
350
8107
  0
DICTIONARY
  5
8108
102
{ACAD_REACTORS
330
80B4
102
}
330
80B4
100
AcDbDictionary
281
     1
  0
ACDBDICTIONARYWDFLT
  5
80B6
102
{ACAD_REACTORS
330
80B4
102
}
330
80B4
100
AcDbDictionary
281
     1
  3
Normal
350
80B7
100
AcDbDictionaryWithDefault
340
80B7
  0
DICTIONARY
  5
80EA
102
{ACAD_REACTORS
330
80B4
102
}
330
80B4
100
AcDbDictionary
281
     1
  3
A0
350
80EB
  3
A1
350
80EC
  3
A2
350
80ED
  3
A3
350
80EE
  3
A4
350
80EF
  3
A5
350
80F0
  3
A6
350
80F1
  3
A7
350
80F2
  3
A8
350
80F3
  3
A9
350
80F4
  3
B0
350
80F5
  3
B1
350
80F6
  3
B2
350
80F7
  3
B3
350
80F8
  3
B4
350
80F9
  3
B5
350
80FA
  3
B6
350
80FB
  0
DICTIONARY
  5
810F
102
{ACAD_REACTORS
330
80B4
102
}
330
80B4
100
AcDbDictionary
281
     1
  3
Imperial24
350
8110
  0
DICTIONARY
  5
810B
102
{ACAD_REACTORS
330
80B4
102
}
330
80B4
100
AcDbDictionary
281
     1
  3
Standard
350
810C
  0
DICTIONARY
  5
80D1
102
{ACAD_REACTORS
330
80B4
102
}
330
80B4
100
AcDbDictionary
281
     1
  3
2dWireframe
350
80D7
  3
Basic
350
80D6
  3
Brighten
350
80DD
  3
ColorChange
350
80E1
  3
Conceptual
350
80DA
  3
Dim
350
80DC
  3
EdgeColorOff
350
80E9
  3
Facepattern
350
80E0
  3
Flat
350
80D2
  3
FlatWithEdges
350
80D3
  3
Gouraud
350
80D4
  3
GouraudWithEdges
350
80D5
  3
Hidden
350
80D9
  3
JitterOff
350
80E7
  3
Linepattern
350
80DF
  3
OverhangOff
350
80E8
  3
Realistic
350
80DB
  3
Shaded
350
80E6
  3
Shaded with edges
350
80E5
  3
Shades of Gray
350
80E2
  3
Sketchy
350
80E3
  3
Thicken
350
80DE
  3
Wireframe
350
80D8
  3
X-Ray
350
80E4
  0
XRECORD
  5
851F
102
{ACAD_REACTORS
330
80B4
102
}
330
80B4
100
AcDbXrecord
280
     1
 90
        1
330
810C
  0
DICTIONARY
  5
816A
102
{ACAD_REACTORS
330
80B4
102
}
330
80B4
100
AcDbDictionary
281
     1
  3
CANNOSCALE
350
816F
  3
CMLEADERSTYLE
350
816C
  3
CTABLESTYLE
350
816B
  3
CVIEWDETAILSTYLE
350
816D
  3
CVIEWSECTIONSTYLE
350
816E
  3
DIMASSOC
350
8172
  3
INDEXCTL
350
8171
  3
SORTENTS
350
8170
  3
XCLIPFRAME
350
8173
  0
XRECORD
  5
8520
102
{ACAD_REACTORS
330
80B4
102
}
330
80B4
100
AcDbXrecord
280
     1
  1
DWGPROPS COOKIE
  2

  3

  4

  6

  7

  8
yasukiyo.ogawa
  9

300
=
301
=
302
=
303
=
304
=
305
=
306
=
307
=
308
=
309
=
 40
0.0172853703703704
 41
2451389.445084028
 42
2460265.732141482
  1

 90
        0
  0
DICTIONARY
  5
81B9
102
{ACAD_REACTORS
330
81B8
102
}
330
81B8
100
AcDbDictionary
281
     1
  0
XRECORD
  5
8161
102
{ACAD_REACTORS
330
8160
102
}
330
8160
100
AcDbXrecord
280
     1
290
     1
  0
XRECORD
  5
8163
102
{ACAD_REACTORS
330
8162
102
}
330
8162
100
AcDbXrecord
280
     1
290
     1
  0
XRECORD
  5
8165
102
{ACAD_REACTORS
330
8164
102
}
330
8164
100
AcDbXrecord
280
     1
290
     1
  0
XRECORD
  5
8167
102
{ACAD_REACTORS
330
8166
102
}
330
8166
100
AcDbXrecord
280
     1
290
     1
  0
XRECORD
  5
8169
102
{ACAD_REACTORS
330
8168
102
}
330
8168
100
AcDbXrecord
280
     1
290
     1
  0
ACDBDETAILVIEWSTYLE
  5
8112
102
{ACAD_XDICTIONARY
360
8558
102
}
102
{ACAD_REACTORS
330
8111
102
}
330
8111
100
AcDbModelDocViewStyle
 70
     0
  3
Imperial24
290
     0
100
AcDbDetailViewStyle
 70
     0
 71
     0
 90
        3
 71
     1
340
80FD
 40
0.24
340
0
 40
0.24
300

 40
0.36
280
     3
 71
     2
340
8104
 90
       25
 71
     3
340
80FD
 40
0.24
 90
        1
 40
0.75
 90
        1
300
%<\AcVar ViewType \f "%tc1">% %<\AcVar ViewDetailId>%\PSCALE %<\AcVar ViewScale \f "%sn">%
 71
     4
340
8104
 90
       25
340
8104
 90
       25
280
     0
  0
LAYOUT
  5
811A
102
{ACAD_XDICTIONARY
360
855C
102
}
102
{ACAD_REACTORS
330
8109
102
}
330
8109
100
AcDbPlotSettings
  1

  2
RICOH imagio MP W3600 RPCS
  4

  6

 40
0.0
 41
0.0
 42
0.0
 43
0.0
 44
0.0
 45
0.0
 46
0.0
 47
0.0
 48
0.0
 49
0.0
140
0.0
141
0.0
142
1.0
143
1.0
 70
  1712
 72
     0
 73
     0
 74
     0
  7

 75
     0
147
1.0
148
0.0
149
0.0
100
AcDbLayout
  1
Model
 70
     1
 71
     0
 10
0.0
 20
0.0
 11
12.0
 21
9.0
 12
0.0
 22
0.0
 32
0.0
 14
0.0
 24
0.0
 34
0.0
 15
0.0
 25
0.0
 35
0.0
146
0.0
 13
0.0
 23
0.0
 33
0.0
 16
1.0
 26
0.0
 36
0.0
 17
0.0
 27
1.0
 37
0.0
 76
     0
330
8117
331
811C
  0
LAYOUT
  5
8116
102
{ACAD_XDICTIONARY
360
855A
102
}
102
{ACAD_REACTORS
330
8109
102
}
330
8109
100
AcDbPlotSettings
  1

  2
RICOH imagio MP W3600 RPCS
  4

  6

 40
0.0
 41
0.0
 42
0.0
 43
0.0
 44
0.0
 45
0.0
 46
0.0
 47
0.0
 48
0.0
 49
0.0
140
0.0
141
0.0
142
1.0
143
1.0
 70
   688
 72
     0
 73
     0
 74
     5
  7

 75
    16
147
1.0
148
0.0
149
0.0
100
AcDbLayout
  1
レイアウト1
 70
     1
 71
     1
 10
0.0
 20
0.0
 11
12.0
 21
9.0
 12
0.0
 22
0.0
 32
0.0
 14
1.000000000000000E+20
 24
1.000000000000000E+20
 34
1.000000000000000E+20
 15
-1.000000000000000E+20
 25
-1.000000000000000E+20
 35
-1.000000000000000E+20
146
0.0
 13
0.0
 23
0.0
 33
0.0
 16
1.0
 26
0.0
 36
0.0
 17
0.0
 27
1.0
 37
0.0
 76
     0
330
8113
  0
MATERIAL
  5
80C1
102
{ACAD_XDICTIONARY
360
80C2
102
}
102
{ACAD_REACTORS
330
80B8
102
}
330
80B8
100
AcDbMaterial
  1
ByBlock
 72
     0
 43
0.0208333333333333
 43
0.0
 43
0.0
 43
0.0
 43
0.0
 43
0.0208333333333333
 43
0.0
 43
0.0
 43
0.0
 43
0.0
 43
1.0
 43
0.0
 43
0.0
 43
0.0
 43
0.0
 43
1.0
 77
     0
 47
0.0208333333333333
 47
0.0
 47
0.0
 47
0.0
 47
0.0
 47
0.0208333333333333
 47
0.0
 47
0.0
 47
0.0
 47
0.0
 47
1.0
 47
0.0
 47
0.0
 47
0.0
 47
0.0
 47
1.0
171
     0
 49
0.0208333333333333
 49
0.0
 49
0.0
 49
0.0
 49
0.0
 49
0.0208333333333333
 49
0.0
 49
0.0
 49
0.0
 49
0.0
 49
1.0
 49
0.0
 49
0.0
 49
0.0
 49
0.0
 49
1.0
175
     0
142
0.0208333333333333
142
0.0
142
0.0
142
0.0
142
0.0
142
0.0208333333333333
142
0.0
142
0.0
142
0.0
142
0.0
142
1.0
142
0.0
142
0.0
142
0.0
142
0.0
142
1.0
179
     0
144
0.0208333333333333
144
0.0
144
0.0
144
0.0
144
0.0
144
0.0208333333333333
144
0.0
144
0.0
144
0.0
144
0.0
144
1.0
144
0.0
144
0.0
144
0.0
144
0.0
144
1.0
147
0.0208333333333333
147
0.0
147
0.0
147
0.0
147
0.0
147
0.0208333333333333
147
0.0
147
0.0
147
0.0
147
0.0
147
1.0
147
0.0
147
0.0
147
0.0
147
0.0
147
1.0
  0
MATERIAL
  5
80B9
102
{ACAD_XDICTIONARY
360
80BA
102
}
102
{ACAD_REACTORS
330
80B8
102
}
330
80B8
100
AcDbMaterial
  1
ByLayer
 72
     0
 43
0.0208333333333333
 43
0.0
 43
0.0
 43
0.0
 43
0.0
 43
0.0208333333333333
 43
0.0
 43
0.0
 43
0.0
 43
0.0
 43
1.0
 43
0.0
 43
0.0
 43
0.0
 43
0.0
 43
1.0
 77
     0
 47
0.0208333333333333
 47
0.0
 47
0.0
 47
0.0
 47
0.0
 47
0.0208333333333333
 47
0.0
 47
0.0
 47
0.0
 47
0.0
 47
1.0
 47
0.0
 47
0.0
 47
0.0
 47
0.0
 47
1.0
171
     0
 49
0.0208333333333333
 49
0.0
 49
0.0
 49
0.0
 49
0.0
 49
0.0208333333333333
 49
0.0
 49
0.0
 49
0.0
 49
0.0
 49
1.0
 49
0.0
 49
0.0
 49
0.0
 49
0.0
 49
1.0
175
     0
142
0.0208333333333333
142
0.0
142
0.0
142
0.0
142
0.0
142
0.0208333333333333
142
0.0
142
0.0
142
0.0
142
0.0
142
1.0
142
0.0
142
0.0
142
0.0
142
0.0
142
1.0
179
     0
144
0.0208333333333333
144
0.0
144
0.0
144
0.0
144
0.0
144
0.0208333333333333
144
0.0
144
0.0
144
0.0
144
0.0
144
1.0
144
0.0
144
0.0
144
0.0
144
0.0
144
1.0
147
0.0208333333333333
147
0.0
147
0.0
147
0.0
147
0.0
147
0.0208333333333333
147
0.0
147
0.0
147
0.0
147
0.0
147
1.0
147
0.0
147
0.0
147
0.0
147
0.0
147
1.0
  0
MATERIAL
  5
80C9
102
{ACAD_XDICTIONARY
360
80CA
102
}
102
{ACAD_REACTORS
330
80B8
102
}
330
80B8
100
AcDbMaterial
  1
Global
 72
     0
 43
0.0208333333333333
 43
0.0
 43
0.0
 43
0.0
 43
0.0
 43
0.0208333333333333
 43
0.0
 43
0.0
 43
0.0
 43
0.0
 43
1.0
 43
0.0
 43
0.0
 43
0.0
 43
0.0
 43
1.0
 77
     0
 47
0.0208333333333333
 47
0.0
 47
0.0
 47
0.0
 47
0.0
 47
0.0208333333333333
 47
0.0
 47
0.0
 47
0.0
 47
0.0
 47
1.0
 47
0.0
 47
0.0
 47
0.0
 47
0.0
 47
1.0
171
     0
 49
0.0208333333333333
 49
0.0
 49
0.0
 49
0.0
 49
0.0
 49
0.0208333333333333
 49
0.0
 49
0.0
 49
0.0
 49
0.0
 49
1.0
 49
0.0
 49
0.0
 49
0.0
 49
0.0
 49
1.0
175
     0
142
0.0208333333333333
142
0.0
142
0.0
142
0.0
142
0.0
142
0.0208333333333333
142
0.0
142
0.0
142
0.0
142
0.0
142
1.0
142
0.0
142
0.0
142
0.0
142
0.0
142
1.0
179
     0
144
0.0208333333333333
144
0.0
144
0.0
144
0.0
144
0.0
144
0.0208333333333333
144
0.0
144
0.0
144
0.0
144
0.0
144
1.0
144
0.0
144
0.0
144
0.0
144
0.0
144
1.0
147
0.0208333333333333
147
0.0
147
0.0
147
0.0
147
0.0
147
0.0208333333333333
147
0.0
147
0.0
147
0.0
147
0.0
147
1.0
147
0.0
147
0.0
147
0.0
147
0.0
147
1.0
  0
MLEADERSTYLE
  5
810E
102
{ACAD_REACTORS
330
810D
102
}
330
810D
100
AcDbMLeaderStyle
170
     2
171
     1
172
     0
 90
        2
 40
0.0
 41
0.0
173
     1
 91
-1056964608
340
8102
 92
       -2
290
     1
 42
0.09
291
     1
 43
0.36
  3
Standard
 44
0.18
300

342
80FD
174
     1
178
     6
175
     1
176
     0
 93
-1056964608
 45
0.18
292
     0
297
     0
 46
0.18
 94
-1056964608
 47
1.0
 49
1.0
140
1.0
293
     1
141
0.0
294
     1
177
     0
142
1.0
295
     0
296
     0
143
0.125
1001
ACAD_MLEADERVER
1070
     2
  0
MLINESTYLE
  5
8107
102
{ACAD_REACTORS
330
8106
102
}
330
8106
100
AcDbMlineStyle
  2
STANDARD
 70
     0
  3

 62
   256
 51
90.0
 52
90.0
 71
     2
 49
0.5
 62
   256
  6
BYLAYER
 49
-0.5
 62
   256
  6
BYLAYER
  0
ACDBPLACEHOLDER
  5
80B7
102
{ACAD_REACTORS
330
80B6
102
}
330
80B6
  0
SCALE
  5
80EB
102
{ACAD_REACTORS
330
80EA
102
}
330
80EA
100
AcDbScale
 70
     0
300
1:1
140
1.0
141
1.0
290
     1
  0
SCALE
  5
80EC
102
{ACAD_REACTORS
330
80EA
102
}
330
80EA
100
AcDbScale
 70
     0
300
1/128" = 1'-0"
140
0.0078125
141
12.0
290
     0
  0
SCALE
  5
80ED
102
{ACAD_REACTORS
330
80EA
102
}
330
80EA
100
AcDbScale
 70
     0
300
1/64" = 1'-0"
140
0.015625
141
12.0
290
     0
  0
SCALE
  5
80EE
102
{ACAD_REACTORS
330
80EA
102
}
330
80EA
100
AcDbScale
 70
     0
300
1/32" = 1'-0"
140
0.03125
141
12.0
290
     0
  0
SCALE
  5
80EF
102
{ACAD_REACTORS
330
80EA
102
}
330
80EA
100
AcDbScale
 70
     0
300
1/16" = 1'-0"
140
0.0625
141
12.0
290
     0
  0
SCALE
  5
80F0
102
{ACAD_REACTORS
330
80EA
102
}
330
80EA
100
AcDbScale
 70
     0
300
3/32" = 1'-0"
140
0.09375
141
12.0
290
     0
  0
SCALE
  5
80F1
102
{ACAD_REACTORS
330
80EA
102
}
330
80EA
100
AcDbScale
 70
     0
300
1/8" = 1'-0"
140
0.125
141
12.0
290
     0
  0
SCALE
  5
80F2
102
{ACAD_REACTORS
330
80EA
102
}
330
80EA
100
AcDbScale
 70
     0
300
3/16" = 1'-0"
140
0.1875
141
12.0
290
     0
  0
SCALE
  5
80F3
102
{ACAD_REACTORS
330
80EA
102
}
330
80EA
100
AcDbScale
 70
     0
300
1/4" = 1'-0"
140
0.25
141
12.0
290
     0
  0
SCALE
  5
80F4
102
{ACAD_REACTORS
330
80EA
102
}
330
80EA
100
AcDbScale
 70
     0
300
3/8" = 1'-0"
140
0.375
141
12.0
290
     0
  0
SCALE
  5
80F5
102
{ACAD_REACTORS
330
80EA
102
}
330
80EA
100
AcDbScale
 70
     0
300
1/2" = 1'-0"
140
0.5
141
12.0
290
     0
  0
SCALE
  5
80F6
102
{ACAD_REACTORS
330
80EA
102
}
330
80EA
100
AcDbScale
 70
     0
300
3/4" = 1'-0"
140
0.75
141
12.0
290
     0
  0
SCALE
  5
80F7
102
{ACAD_REACTORS
330
80EA
102
}
330
80EA
100
AcDbScale
 70
     0
300
1" = 1'-0"
140
1.0
141
12.0
290
     0
  0
SCALE
  5
80F8
102
{ACAD_REACTORS
330
80EA
102
}
330
80EA
100
AcDbScale
 70
     0
300
1-1/2" = 1'-0"
140
1.5
141
12.0
290
     0
  0
SCALE
  5
80F9
102
{ACAD_REACTORS
330
80EA
102
}
330
80EA
100
AcDbScale
 70
     0
300
3" = 1'-0"
140
3.0
141
12.0
290
     0
  0
SCALE
  5
80FA
102
{ACAD_REACTORS
330
80EA
102
}
330
80EA
100
AcDbScale
 70
     0
300
6" = 1'-0"
140
6.0
141
12.0
290
     0
  0
SCALE
  5
80FB
102
{ACAD_REACTORS
330
80EA
102
}
330
80EA
100
AcDbScale
 70
     0
300
1'-0" = 1'-0"
140
12.0
141
12.0
290
     0
  0
ACDBSECTIONVIEWSTYLE
  5
8110
102
{ACAD_XDICTIONARY
360
8556
102
}
102
{ACAD_REACTORS
330
810F
102
}
330
810F
100
AcDbModelDocViewStyle
 70
     0
  3
Imperial24
290
     0
100
AcDbSectionViewStyle
 70
     0
 71
     0
 90
       78
 71
     1
340
80FD
 40
0.24
340
0
340
0
 40
0.24
300
I, O, Q, S, X, Z
 40
0.48
 90
        3
 40
0.18
 90
        1
 71
     2
340
8104
 90
       25
340
8104
 90
       50
 40
0.24
 40
0.0
 40
0.24
 71
     3
340
80FD
 40
0.24
 90
        1
 40
0.75
 90
        1
300
%<\AcVar ViewType \f "%tc1">% %<\AcVar ViewSectionStartId>%-%<\AcVar ViewSectionEndId>%\PSCALE %<\AcVar ViewScale \f "%sn">%
 71
     4
300
ANSI31
 40
1.0
 90
        0
290
     0
290
     0
 90
        6
 40
0.0
 40
1.570796326794896
 40
0.2617993877991494
 40
1.308996938995747
 40
-0.2617993877991494
 40
1.832595714594046
  0
TABLESTYLE
  5
810C
102
{ACAD_XDICTIONARY
360
851D
102
}
102
{ACAD_REACTORS
330
810B
102
}
330
810B
100
AcDbTableStyle
  3
Standard
 70
     0
 71
     0
 40
0.06
 41
0.06
280
     0
281
     0
  7
STANDARD
140
0.18
170
     2
 62
     0
 63
     7
283
     0
274
    -2
284
     1
 64
     0
275
    -2
285
     1
 65
     0
276
    -2
286
     1
 66
     0
277
    -2
287
     1
 67
     0
278
    -2
288
     1
 68
     0
279
    -2
289
     1
 69
     0
  7
STANDARD
140
0.25
170
     5
 62
     0
 63
     7
283
     0
274
    -2
284
     1
 64
     0
275
    -2
285
     1
 65
     0
276
    -2
286
     1
 66
     0
277
    -2
287
     1
 67
     0
278
    -2
288
     1
 68
     0
279
    -2
289
     1
 69
     0
  7
STANDARD
140
0.18
170
     5
 62
     0
 63
     7
283
     0
274
    -2
284
     1
 64
     0
275
    -2
285
     1
 65
     0
276
    -2
286
     1
 66
     0
277
    -2
287
     1
 67
     0
278
    -2
288
     1
 68
     0
279
    -2
289
     1
 69
     0
  0
VISUALSTYLE
  5
80D7
102
{ACAD_XDICTIONARY
360
852E
102
}
102
{ACAD_REACTORS
330
80D1
102
}
330
80D1
100
AcDbVisualStyle
  2
2dWireframe
 70
     4
 71
     0
 72
     2
 73
     0
 90
        0
 40
-0.6
 41
-30.0
 62
     5
 63
     7
 74
     1
 91
        4
 64
     7
 65
   257
 75
     1
175
     1
 42
1.0
 92
        0
 66
   257
 43
1.0
 76
     1
 77
     6
 78
     2
 67
     7
 79
     5
170
     0
171
     0
290
     0
174
     0
 93
        1
 44
0.0
173
     0
291
     0
 45
0.0
1001
ACAD
1000
AcDbSavedByObjectVersion
1070
     0
  0
VISUALSTYLE
  5
80D6
102
{ACAD_XDICTIONARY
360
852C
102
}
102
{ACAD_REACTORS
330
80D1
102
}
330
80D1
100
AcDbVisualStyle
  2
Basic
 70
     7
 71
     1
 72
     0
 73
     1
 90
        0
 40
-0.6
 41
-30.0
 62
     5
 63
     7
 74
     0
 91
        4
 64
     7
 65
   257
 75
     1
175
     1
 42
1.0
 92
        8
 66
     7
 43
1.0
 76
     1
 77
     6
 78
     2
 67
     7
 79
     5
170
     0
171
     0
290
     0
174
     0
 93
        1
 44
0.0
173
     0
291
     1
 45
0.0
1001
ACAD
1000
AcDbSavedByObjectVersion
1070
     0
  0
VISUALSTYLE
  5
80DD
102
{ACAD_XDICTIONARY
360
853A
102
}
102
{ACAD_REACTORS
330
80D1
102
}
330
80D1
100
AcDbVisualStyle
  2
Brighten
 70
    12
 71
     2
 72
     2
 73
     0
 90
        0
 40
-0.6
 41
-30.0
 62
     5
 63
     7
 74
     1
 91
        4
 64
     7
 65
   257
 75
     1
175
     1
 42
1.0
 92
        8
 66
     7
 43
1.0
 76
     1
 77
     6
 78
     2
 67
     7
 79
     5
170
     0
171
     0
290
     0
174
     0
 93
        1
 44
50.0
173
     0
291
     1
 45
0.0
1001
ACAD
1000
AcDbSavedByObjectVersion
1070
     0
  0
VISUALSTYLE
  5
80E1
102
{ACAD_XDICTIONARY
360
8542
102
}
102
{ACAD_REACTORS
330
80D1
102
}
330
80D1
100
AcDbVisualStyle
  2
ColorChange
 70
    16
 71
     2
 72
     2
 73
     3
 90
        0
 40
-0.6
 41
-30.0
 62
     5
 63
     8
 74
     1
 91
        4
 64
     7
 65
   257
 75
     1
175
     1
 42
1.0
 92
        8
 66
     8
 43
1.0
 76
     1
 77
     6
 78
     2
 67
     7
 79
     5
170
     0
171
     0
290
     0
174
     0
 93
        1
 44
0.0
173
     0
291
     1
 45
0.0
1001
ACAD
1000
AcDbSavedByObjectVersion
1070
     0
  0
VISUALSTYLE
  5
80DA
102
{ACAD_XDICTIONARY
360
8534
102
}
102
{ACAD_REACTORS
330
80D1
102
}
330
80D1
100
AcDbVisualStyle
  2
Conceptual
 70
     9
 71
     3
 72
     2
 73
     0
 90
        0
 40
-0.6
 41
-30.0
 62
     5
 63
     7
 74
     2
 91
        2
 64
     7
 65
   257
 75
     1
175
     1
 42
179.0
 92
        8
 66
     7
 43
1.0
 76
     1
 77
     6
 78
     2
 67
     7
 79
     3
170
     0
171
     0
290
     0
174
     0
 93
        1
 44
0.0
173
     0
291
     0
 45
0.0
1001
ACAD
1000
AcDbSavedByObjectVersion
1070
     0
  0
VISUALSTYLE
  5
80DC
102
{ACAD_XDICTIONARY
360
8538
102
}
102
{ACAD_REACTORS
330
80D1
102
}
330
80D1
100
AcDbVisualStyle
  2
Dim
 70
    11
 71
     2
 72
     2
 73
     0
 90
        0
 40
-0.6
 41
-30.0
 62
     5
 63
     7
 74
     1
 91
        4
 64
     7
 65
   257
 75
     1
175
     1
 42
1.0
 92
        8
 66
     7
 43
1.0
 76
     1
 77
     6
 78
     2
 67
     7
 79
     5
170
     0
171
     0
290
     0
174
     0
 93
        1
 44
-50.0
173
     0
291
     1
 45
0.0
1001
ACAD
1000
AcDbSavedByObjectVersion
1070
     0
  0
VISUALSTYLE
  5
80E9
102
{ACAD_XDICTIONARY
360
8552
102
}
102
{ACAD_REACTORS
330
80D1
102
}
330
80D1
100
AcDbVisualStyle
  2
EdgeColorOff
 70
    22
 71
     2
 72
     2
 73
     0
 90
        0
 40
-0.6
 41
-30.0
 62
     5
 63
     7
 74
     1
 91
        4
 64
     7
 65
   257
 75
     1
175
     1
 42
1.0
 92
        8
 66
     7
 43
1.0
 76
     1
 77
     6
 78
     2
 67
     7
 79
     5
170
     0
171
     0
290
     0
174
     0
 93
        1
 44
0.0
173
     0
291
     1
 45
0.0
1001
ACAD
1000
AcDbSavedByObjectVersion
1070
     0
  0
VISUALSTYLE
  5
80E0
102
{ACAD_XDICTIONARY
360
8540
102
}
102
{ACAD_REACTORS
330
80D1
102
}
330
80D1
100
AcDbVisualStyle
  2
Facepattern
 70
    15
 71
     2
 72
     2
 73
     0
 90
        0
 40
-0.6
 41
-30.0
 62
     5
 63
     7
 74
     1
 91
        4
 64
     7
 65
   257
 75
     1
175
     1
 42
1.0
 92
        8
 66
     7
 43
1.0
 76
     1
 77
     6
 78
     2
 67
     7
 79
     5
170
     0
171
     0
290
     0
174
     0
 93
        1
 44
0.0
173
     0
291
     1
 45
0.0
1001
ACAD
1000
AcDbSavedByObjectVersion
1070
     0
  0
VISUALSTYLE
  5
80D2
102
{ACAD_XDICTIONARY
360
8524
102
}
102
{ACAD_REACTORS
330
80D1
102
}
330
80D1
100
AcDbVisualStyle
  2
Flat
 70
     0
 71
     2
 72
     1
 73
     1
 90
        2
 40
-0.6
 41
30.0
 62
     5
 63
     7
 74
     0
 91
        0
 64
     7
 65
   257
 75
     1
175
     1
 42
1.0
 92
        8
 66
     7
 43
1.0
 76
     1
 77
     6
 78
     2
 67
     7
 79
     5
170
     0
171
     0
290
     0
174
     0
 93
       13
 44
0.0
173
     0
291
     1
 45
0.0
1001
ACAD
1000
AcDbSavedByObjectVersion
1070
     0
  0
VISUALSTYLE
  5
80D3
102
{ACAD_XDICTIONARY
360
8526
102
}
102
{ACAD_REACTORS
330
80D1
102
}
330
80D1
100
AcDbVisualStyle
  2
FlatWithEdges
 70
     1
 71
     2
 72
     1
 73
     1
 90
        2
 40
-0.6
 41
30.0
 62
     5
 63
     7
 74
     1
 91
        0
 64
     7
 65
   257
 75
     1
175
     1
 42
1.0
 92
        0
 66
   257
 43
1.0
 76
     1
 77
     6
 78
     2
 67
     7
 79
     5
170
     0
171
     0
290
     0
174
     0
 93
       13
 44
0.0
173
     0
291
     1
 45
0.0
1001
ACAD
1000
AcDbSavedByObjectVersion
1070
     0
  0
VISUALSTYLE
  5
80D4
102
{ACAD_XDICTIONARY
360
8528
102
}
102
{ACAD_REACTORS
330
80D1
102
}
330
80D1
100
AcDbVisualStyle
  2
Gouraud
 70
     2
 71
     2
 72
     2
 73
     1
 90
        2
 40
-0.6
 41
30.0
 62
     5
 63
     7
 74
     0
 91
        0
 64
     7
 65
   257
 75
     1
175
     1
 42
1.0
 92
        0
 66
     7
 43
1.0
 76
     1
 77
     6
 78
     2
 67
     7
 79
     5
170
     0
171
     0
290
     0
174
     0
 93
       13
 44
0.0
173
     0
291
     1
 45
0.0
1001
ACAD
1000
AcDbSavedByObjectVersion
1070
     0
  0
VISUALSTYLE
  5
80D5
102
{ACAD_XDICTIONARY
360
852A
102
}
102
{ACAD_REACTORS
330
80D1
102
}
330
80D1
100
AcDbVisualStyle
  2
GouraudWithEdges
 70
     3
 71
     2
 72
     2
 73
     1
 90
        2
 40
-0.6
 41
30.0
 62
     5
 63
     7
 74
     1
 91
        0
 64
     7
 65
   257
 75
     1
175
     1
 42
1.0
 92
        0
 66
   257
 43
1.0
 76
     1
 77
     6
 78
     2
 67
     7
 79
     5
170
     0
171
     0
290
     0
174
     0
 93
       13
 44
0.0
173
     0
291
     1
 45
0.0
1001
ACAD
1000
AcDbSavedByObjectVersion
1070
     0
  0
VISUALSTYLE
  5
80D9
102
{ACAD_XDICTIONARY
360
8532
102
}
102
{ACAD_REACTORS
330
80D1
102
}
330
80D1
100
AcDbVisualStyle
  2
Hidden
 70
     6
 71
     1
 72
     2
 73
     2
 90
        0
 40
-0.6
 41
-30.0
 62
     5
 63
     7
 74
     2
 91
        2
 64
     7
 65
   257
 75
     2
175
     1
 42
40.0
 92
        0
 66
   257
 43
1.0
 76
     1
 77
     6
 78
     2
 67
     7
 79
     3
170
     0
171
     0
290
     0
174
     0
 93
        1
 44
0.0
173
     0
291
     0
 45
0.0
1001
ACAD
1000
AcDbSavedByObjectVersion
1070
     0
  0
VISUALSTYLE
  5
80E7
102
{ACAD_XDICTIONARY
360
854E
102
}
102
{ACAD_REACTORS
330
80D1
102
}
330
80D1
100
AcDbVisualStyle
  2
JitterOff
 70
    20
 71
     2
 72
     2
 73
     0
 90
        0
 40
-0.6
 41
-30.0
 62
     5
 63
     7
 74
     1
 91
        4
 64
     7
 65
   257
 75
     1
175
     1
 42
1.0
 92
       10
 66
     7
 43
1.0
 76
     1
 77
     6
 78
     2
 67
     7
 79
     5
170
     0
171
     0
290
     0
174
     0
 93
        1
 44
0.0
173
     0
291
     1
 45
0.0
1001
ACAD
1000
AcDbSavedByObjectVersion
1070
     0
  0
VISUALSTYLE
  5
80DF
102
{ACAD_XDICTIONARY
360
853E
102
}
102
{ACAD_REACTORS
330
80D1
102
}
330
80D1
100
AcDbVisualStyle
  2
Linepattern
 70
    14
 71
     2
 72
     2
 73
     0
 90
        0
 40
-0.6
 41
-30.0
 62
     5
 63
     7
 74
     1
 91
        4
 64
     7
 65
   257
 75
     7
175
     7
 42
1.0
 92
        8
 66
     7
 43
1.0
 76
     1
 77
     6
 78
     2
 67
     7
 79
     5
170
     0
171
     0
290
     0
174
     0
 93
        1
 44
0.0
173
     0
291
     1
 45
0.0
1001
ACAD
1000
AcDbSavedByObjectVersion
1070
     0
  0
VISUALSTYLE
  5
80E8
102
{ACAD_XDICTIONARY
360
8550
102
}
102
{ACAD_REACTORS
330
80D1
102
}
330
80D1
100
AcDbVisualStyle
  2
OverhangOff
 70
    21
 71
     2
 72
     2
 73
     0
 90
        0
 40
-0.6
 41
-30.0
 62
     5
 63
     7
 74
     1
 91
        4
 64
     7
 65
   257
 75
     1
175
     1
 42
1.0
 92
        9
 66
     7
 43
1.0
 76
     1
 77
     6
 78
     2
 67
     7
 79
     5
170
     0
171
     0
290
     0
174
     0
 93
        1
 44
0.0
173
     0
291
     1
 45
0.0
1001
ACAD
1000
AcDbSavedByObjectVersion
1070
     0
  0
VISUALSTYLE
  5
80DB
102
{ACAD_XDICTIONARY
360
8536
102
}
102
{ACAD_REACTORS
330
80D1
102
}
330
80D1
100
AcDbVisualStyle
  2
Realistic
 70
     8
 71
     2
 72
     3
 73
     0
 90
        2
 40
-0.6
 41
30.0
 62
     5
 63
     7
 74
     0
 91
        0
 64
     7
 65
   257
 75
     1
175
     1
 42
1.0
 92
        8
 66
   257
 43
1.0
 76
     1
 77
     6
 78
     2
 67
     7
 79
     3
170
     0
171
     0
290
     0
174
     0
 93
       13
 44
0.0
173
     0
291
     0
 45
0.0
1001
ACAD
1000
AcDbSavedByObjectVersion
1070
     0
  0
VISUALSTYLE
  5
80E6
102
{ACAD_XDICTIONARY
360
854C
102
}
102
{ACAD_REACTORS
330
80D1
102
}
330
80D1
100
AcDbVisualStyle
  2
Shaded
 70
    27
 71
     2
 72
     2
 73
     1
 90
        2
 40
-0.6
 41
30.0
 62
     5
 63
     7
 74
     0
 91
        4
 64
     7
 65
   257
 75
     1
175
     1
 42
1.0
 92
        8
 66
   257
 43
1.0
 76
     1
 77
     6
 78
     2
 67
     8
 79
     3
170
     0
171
     0
290
     0
174
     0
 93
        5
 44
0.0
173
     0
291
     0
 45
0.0
1001
ACAD
1000
AcDbSavedByObjectVersion
1070
     0
  0
VISUALSTYLE
  5
80E5
102
{ACAD_XDICTIONARY
360
854A
102
}
102
{ACAD_REACTORS
330
80D1
102
}
330
80D1
100
AcDbVisualStyle
  2
Shaded with edges
 70
    26
 71
     2
 72
     2
 73
     1
 90
        2
 40
-0.6
 41
30.0
 62
     5
 63
     7
 74
     1
 91
       10
 64
     7
 65
   257
 75
     2
175
     1
 42
1.0
 92
        8
 66
   257
 43
1.0
 76
     1
 77
     6
 78
     2
 67
     7
 79
     3
170
     0
171
     0
290
     0
174
     0
 93
        5
 44
0.0
173
     0
291
     0
 45
0.0
1001
ACAD
1000
AcDbSavedByObjectVersion
1070
     0
  0
VISUALSTYLE
  5
80E2
102
{ACAD_XDICTIONARY
360
8544
102
}
102
{ACAD_REACTORS
330
80D1
102
}
330
80D1
100
AcDbVisualStyle
  2
Shades of Gray
 70
    23
 71
     2
 72
     2
 73
     3
 90
        0
 40
-0.6
 41
-30.0
 62
     5
 63
     7
 74
     2
 91
        2
 64
     7
 65
     7
 75
     1
175
     1
 42
40.0
 92
        8
 66
     7
 43
1.0
 76
     1
 77
     6
 78
     2
 67
     7
 79
     3
170
     0
171
     0
290
     0
174
     0
 93
        1
 44
0.0
173
     0
291
     0
 45
0.0
1001
ACAD
1000
AcDbSavedByObjectVersion
1070
     0
  0
VISUALSTYLE
  5
80E3
102
{ACAD_XDICTIONARY
360
8546
102
}
102
{ACAD_REACTORS
330
80D1
102
}
330
80D1
100
AcDbVisualStyle
  2
Sketchy
 70
    24
 71
     1
 72
     2
 73
     2
 90
        0
 40
-0.6
 41
-30.0
 62
     5
 63
     7
 74
     2
 91
        2
 64
     7
 65
     7
 75
     1
175
     1
 42
40.0
 92
       11
 66
     7
 43
1.0
 76
     1
 77
     6
 78
     2
 67
     7
 79
     6
170
     0
171
     0
290
     0
174
     0
 93
        1
 44
0.0
173
     0
291
     0
 45
0.0
1001
ACAD
1000
AcDbSavedByObjectVersion
1070
     0
  0
VISUALSTYLE
  5
80DE
102
{ACAD_XDICTIONARY
360
853C
102
}
102
{ACAD_REACTORS
330
80D1
102
}
330
80D1
100
AcDbVisualStyle
  2
Thicken
 70
    13
 71
     2
 72
     2
 73
     0
 90
        0
 40
-0.6
 41
-30.0
 62
     5
 63
     7
 74
     1
 91
        4
 64
     7
 65
   257
 75
     1
175
     1
 42
1.0
 92
       12
 66
     7
 43
1.0
 76
     1
 77
     6
 78
     2
 67
     7
 79
     5
170
     0
171
     0
290
     0
174
     0
 93
        1
 44
0.0
173
     0
291
     1
 45
0.0
1001
ACAD
1000
AcDbSavedByObjectVersion
1070
     0
  0
VISUALSTYLE
  5
80D8
102
{ACAD_XDICTIONARY
360
8530
102
}
102
{ACAD_REACTORS
330
80D1
102
}
330
80D1
100
AcDbVisualStyle
  2
Wireframe
 70
     5
 71
     0
 72
     2
 73
     0
 90
        0
 40
-0.6
 41
-30.0
 62
     5
 63
     7
 74
     1
 91
        4
 64
     7
 65
   257
 75
     1
175
     1
 42
1.0
 92
        0
 66
   257
 43
1.0
 76
     1
 77
     6
 78
     2
 67
     7
 79
     3
170
     0
171
     0
290
     0
174
     0
 93
        1
 44
0.0
173
     0
291
     0
 45
0.0
1001
ACAD
1000
AcDbSavedByObjectVersion
1070
     0
  0
VISUALSTYLE
  5
80E4
102
{ACAD_XDICTIONARY
360
8548
102
}
102
{ACAD_REACTORS
330
80D1
102
}
330
80D1
100
AcDbVisualStyle
  2
X-Ray
 70
    25
 71
     2
 72
     2
 73
     1
 90
        1
 40
0.5
 41
-30.0
 62
     5
 63
     7
 74
     1
 91
        0
 64
     7
 65
   257
 75
     1
175
     1
 42
1.0
 92
        8
 66
     7
 43
1.0
 76
     1
 77
     6
 78
     2
 67
     7
 79
     3
170
     0
171
     0
290
     0
174
     0
 93
       13
 44
0.0
173
     0
291
     0
 45
0.0
1001
ACAD
1000
AcDbSavedByObjectVersion
1070
     0
  0
DICTIONARYVAR
  5
816F
102
{ACAD_REACTORS
330
816A
102
}
330
816A
100
DictionaryVariables
280
     0
  1
1:1
  0
DICTIONARYVAR
  5
816C
102
{ACAD_REACTORS
330
816A
102
}
330
816A
100
DictionaryVariables
280
     0
  1
STANDARD
  0
DICTIONARYVAR
  5
816B
102
{ACAD_REACTORS
330
816A
102
}
330
816A
100
DictionaryVariables
280
     0
  1
STANDARD
  0
DICTIONARYVAR
  5
816D
102
{ACAD_REACTORS
330
816A
102
}
330
816A
100
DictionaryVariables
280
     0
  1
Imperial24
  0
DICTIONARYVAR
  5
816E
102
{ACAD_REACTORS
330
816A
102
}
330
816A
100
DictionaryVariables
280
     0
  1
Imperial24
  0
DICTIONARYVAR
  5
8172
102
{ACAD_REACTORS
330
816A
102
}
330
816A
100
DictionaryVariables
280
     0
  1
1
  0
DICTIONARYVAR
  5
8171
102
{ACAD_REACTORS
330
816A
102
}
330
816A
100
DictionaryVariables
280
     0
  1
0
  0
DICTIONARYVAR
  5
8170
102
{ACAD_REACTORS
330
816A
102
}
330
816A
100
DictionaryVariables
280
     0
  1
127
  0
DICTIONARYVAR
  5
8173
102
{ACAD_REACTORS
330
816A
102
}
330
816A
100
DictionaryVariables
280
     0
  1
2
  0
DICTIONARY
  5
8558
330
8112
100
AcDbDictionary
280
     1
281
     1
  3
ACAD_XREC_ROUNDTRIP
360
8559
  0
DICTIONARY
  5
855C
330
811A
100
AcDbDictionary
280
     1
281
     1
  3
ACAD_XREC_ROUNDTRIP
360
855D
  0
DICTIONARY
  5
855A
330
8116
100
AcDbDictionary
280
     1
281
     1
  3
ACAD_XREC_ROUNDTRIP
360
855B
  0
DICTIONARY
  5
80C2
330
80C1
100
AcDbDictionary
280
     1
281
     1
  3
ACAD_XREC_ROUNDTRIP
360
8522
  3
BUMPTILE
360
80C4
  3
DIFFUSETILE
360
80C3
  3
OPACITYTILE
360
80C7
  3
REFLECTIONTILE
360
80C6
  3
REFRACTIONTILE
360
80C8
  3
SPECULARTILE
360
80C5
  0
DICTIONARY
  5
80BA
330
80B9
100
AcDbDictionary
280
     1
281
     1
  3
ACAD_XREC_ROUNDTRIP
360
8521
  3
BUMPTILE
360
80BC
  3
DIFFUSETILE
360
80BB
  3
OPACITYTILE
360
80BF
  3
REFLECTIONTILE
360
80BE
  3
REFRACTIONTILE
360
80C0
  3
SPECULARTILE
360
80BD
  0
DICTIONARY
  5
80CA
330
80C9
100
AcDbDictionary
280
     1
281
     1
  3
ACAD_XREC_ROUNDTRIP
360
8523
  3
BUMPTILE
360
80CC
  3
DIFFUSETILE
360
80CB
  3
FBXASSET
360
81EE
  3
OPACITYTILE
360
80CF
  3
REFLECTIONTILE
360
80CE
  3
REFRACTIONTILE
360
80D0
  3
SPECULARTILE
360
80CD
  0
DICTIONARY
  5
8556
330
8110
100
AcDbDictionary
280
     1
281
     1
  3
ACAD_XREC_ROUNDTRIP
360
8557
  0
DICTIONARY
  5
851D
330
810C
100
AcDbDictionary
280
     1
281
     1
  3
ACAD_ROUNDTRIP_2008_TABLESTYLE_CELLSTYLEMAP
360
851E
  3
ACAD_XREC_ROUNDTRIP
360
8554
  0
DICTIONARY
  5
852E
330
80D7
100
AcDbDictionary
280
     1
281
     1
  3
ACAD_XREC_ROUNDTRIP
360
852F
  0
DICTIONARY
  5
852C
330
80D6
100
AcDbDictionary
280
     1
281
     1
  3
ACAD_XREC_ROUNDTRIP
360
852D
  0
DICTIONARY
  5
853A
330
80DD
100
AcDbDictionary
280
     1
281
     1
  3
ACAD_XREC_ROUNDTRIP
360
853B
  0
DICTIONARY
  5
8542
330
80E1
100
AcDbDictionary
280
     1
281
     1
  3
ACAD_XREC_ROUNDTRIP
360
8543
  0
DICTIONARY
  5
8534
330
80DA
100
AcDbDictionary
280
     1
281
     1
  3
ACAD_XREC_ROUNDTRIP
360
8535
  0
DICTIONARY
  5
8538
330
80DC
100
AcDbDictionary
280
     1
281
     1
  3
ACAD_XREC_ROUNDTRIP
360
8539
  0
DICTIONARY
  5
8552
330
80E9
100
AcDbDictionary
280
     1
281
     1
  3
ACAD_XREC_ROUNDTRIP
360
8553
  0
DICTIONARY
  5
8540
330
80E0
100
AcDbDictionary
280
     1
281
     1
  3
ACAD_XREC_ROUNDTRIP
360
8541
  0
DICTIONARY
  5
8524
330
80D2
100
AcDbDictionary
280
     1
281
     1
  3
ACAD_XREC_ROUNDTRIP
360
8525
  0
DICTIONARY
  5
8526
330
80D3
100
AcDbDictionary
280
     1
281
     1
  3
ACAD_XREC_ROUNDTRIP
360
8527
  0
DICTIONARY
  5
8528
330
80D4
100
AcDbDictionary
280
     1
281
     1
  3
ACAD_XREC_ROUNDTRIP
360
8529
  0
DICTIONARY
  5
852A
330
80D5
100
AcDbDictionary
280
     1
281
     1
  3
ACAD_XREC_ROUNDTRIP
360
852B
  0
DICTIONARY
  5
8532
330
80D9
100
AcDbDictionary
280
     1
281
     1
  3
ACAD_XREC_ROUNDTRIP
360
8533
  0
DICTIONARY
  5
854E
330
80E7
100
AcDbDictionary
280
     1
281
     1
  3
ACAD_XREC_ROUNDTRIP
360
854F
  0
DICTIONARY
  5
853E
330
80DF
100
AcDbDictionary
280
     1
281
     1
  3
ACAD_XREC_ROUNDTRIP
360
853F
  0
DICTIONARY
  5
8550
330
80E8
100
AcDbDictionary
280
     1
281
     1
  3
ACAD_XREC_ROUNDTRIP
360
8551
  0
DICTIONARY
  5
8536
330
80DB
100
AcDbDictionary
280
     1
281
     1
  3
ACAD_XREC_ROUNDTRIP
360
8537
  0
DICTIONARY
  5
854C
330
80E6
100
AcDbDictionary
280
     1
281
     1
  3
ACAD_XREC_ROUNDTRIP
360
854D
  0
DICTIONARY
  5
854A
330
80E5
100
AcDbDictionary
280
     1
281
     1
  3
ACAD_XREC_ROUNDTRIP
360
854B
  0
DICTIONARY
  5
8544
330
80E2
100
AcDbDictionary
280
     1
281
     1
  3
ACAD_XREC_ROUNDTRIP
360
8545
  0
DICTIONARY
  5
8546
330
80E3
100
AcDbDictionary
280
     1
281
     1
  3
ACAD_XREC_ROUNDTRIP
360
8547
  0
DICTIONARY
  5
853C
330
80DE
100
AcDbDictionary
280
     1
281
     1
  3
ACAD_XREC_ROUNDTRIP
360
853D
  0
DICTIONARY
  5
8530
330
80D8
100
AcDbDictionary
280
     1
281
     1
  3
ACAD_XREC_ROUNDTRIP
360
8531
  0
DICTIONARY
  5
8548
330
80E4
100
AcDbDictionary
280
     1
281
     1
  3
ACAD_XREC_ROUNDTRIP
360
8549
  0
XRECORD
  5
8559
102
{ACAD_REACTORS
330
8558
102
}
330
8558
100
AcDbXrecord
280
     1
102
DISPLAYNAME
  1
Imperial24
102
FLAGS
 90
        0
  0
XRECORD
  5
855D
102
{ACAD_REACTORS
330
855C
102
}
330
855C
100
AcDbXrecord
280
     1
102
SHADEPLOT
 70
     0
102
SHADEPLOTRESLEVEL
 70
     2
102
SHADEPLOTCUSTOMDPI
 70
   300
  0
XRECORD
  5
855B
102
{ACAD_REACTORS
330
855A
102
}
330
855A
100
AcDbXrecord
280
     1
102
SHADEPLOT
 70
     0
102
SHADEPLOTRESLEVEL
 70
     2
102
SHADEPLOTCUSTOMDPI
 70
   300
  0
XRECORD
  5
8522
102
{ACAD_REACTORS
330
80C2
102
}
330
80C2
100
AcDbXrecord
280
     1
102
MATERIAL
148
0.0
149
0.0
149
0.0
 93
        0
 94
      127
282
     0
 72
     0
 77
     0
171
     0
175
     0
179
     0
273
     0
  0
XRECORD
  5
80C4
102
{ACAD_REACTORS
330
80C2
102
}
330
80C2
100
AcDbXrecord
280
     1
270
     1
271
     1
  0
XRECORD
  5
80C3
102
{ACAD_REACTORS
330
80C2
102
}
330
80C2
100
AcDbXrecord
280
     1
270
     1
271
     1
  0
XRECORD
  5
80C7
102
{ACAD_REACTORS
330
80C2
102
}
330
80C2
100
AcDbXrecord
280
     1
270
     1
271
     1
  0
XRECORD
  5
80C6
102
{ACAD_REACTORS
330
80C2
102
}
330
80C2
100
AcDbXrecord
280
     1
270
     1
271
     1
  0
XRECORD
  5
80C8
102
{ACAD_REACTORS
330
80C2
102
}
330
80C2
100
AcDbXrecord
280
     1
270
     1
271
     1
  0
XRECORD
  5
80C5
102
{ACAD_REACTORS
330
80C2
102
}
330
80C2
100
AcDbXrecord
280
     1
270
     1
271
     1
  0
XRECORD
  5
8521
102
{ACAD_REACTORS
330
80BA
102
}
330
80BA
100
AcDbXrecord
280
     1
102
MATERIAL
148
0.0
149
0.0
149
0.0
 93
        0
 94
      127
282
     0
 72
     0
 77
     0
171
     0
175
     0
179
     0
273
     0
  0
XRECORD
  5
80BC
102
{ACAD_REACTORS
330
80BA
102
}
330
80BA
100
AcDbXrecord
280
     1
270
     1
271
     1
  0
XRECORD
  5
80BB
102
{ACAD_REACTORS
330
80BA
102
}
330
80BA
100
AcDbXrecord
280
     1
270
     1
271
     1
  0
XRECORD
  5
80BF
102
{ACAD_REACTORS
330
80BA
102
}
330
80BA
100
AcDbXrecord
280
     1
270
     1
271
     1
  0
XRECORD
  5
80BE
102
{ACAD_REACTORS
330
80BA
102
}
330
80BA
100
AcDbXrecord
280
     1
270
     1
271
     1
  0
XRECORD
  5
80C0
102
{ACAD_REACTORS
330
80BA
102
}
330
80BA
100
AcDbXrecord
280
     1
270
     1
271
     1
  0
XRECORD
  5
80BD
102
{ACAD_REACTORS
330
80BA
102
}
330
80BA
100
AcDbXrecord
280
     1
270
     1
271
     1
  0
XRECORD
  5
8523
102
{ACAD_REACTORS
330
80CA
102
}
330
80CA
100
AcDbXrecord
280
     1
102
MATERIAL
148
0.0
149
0.0
149
0.0
 93
        0
 94
      127
282
     0
 72
     0
 77
     0
171
     0
175
     0
179
     0
273
     0
  0
XRECORD
  5
80CC
102
{ACAD_REACTORS
330
80CA
102
}
330
80CA
100
AcDbXrecord
280
     1
270
     1
271
     1
  0
XRECORD
  5
80CB
102
{ACAD_REACTORS
330
80CA
102
}
330
80CA
100
AcDbXrecord
280
     1
270
     1
271
     1
  0
XRECORD
  5
81EE
102
{ACAD_REACTORS
330
80CA
102
}
330
80CA
100
AcDbXrecord
280
     1
 70
     1
 90
1959938040
 71
     1
  1
7473A7DC-A2F7-4D89-B699-00609C09851C
311
504B03041400060808001B8B7057B245BDB8B4000000200100004F00000042344431433735332D443537462D343546312D423945322D3136354333383232363538362F4173736574446174612F446566696E6974696F6E4974657261746F7250726F706572746965732E62696EEB606060F80F0540260323103700495E20ED
311
9E9A975A94991C9C9C919A9BC8C00612C9C94F4ACC6147C831019920AE4B6A5A62694E0948976F6671726A4E4E625E6A7E69B12042A9426E6209D0B8C41C3D90264E20860914834C48875806B2DF0F88414E02D189290556F689C5C5A925B6FA694915FAC68E266E4E4646E6BA6606E696BA2686AE2EBA160666E6BA26966E
311
E606C6CE2EA626C6C6FA45A9C5F9A545C9A9C5FA46FA06F15093E30BF2D28106920800504B03041400060808001B8B70572057B5B303010000300200004500000042344431433735332D443537462D343546312D423945322D3136354333383232363538362F4173736574446174612F496E7374616E636550726F70657274
311
6965732E62696EEB606060F80F0540260323103700495E20ED9E9A975A94991C9C9C919A9BA802143037313776347771D675347233D73571B1B0D47532B3B4D435303033B07436B0B4303574664768046931363471713532B5D435353131D635313332D475727372D13534373670367376B67474B5042A03DBCBA019D37FE8
311
ABC6157B20CD04146B0062181F4C03F940F0C11EA29A8141C08141002C0426541C106CAC2CA046088033B02A030AC2157C6006F21A8018AAF50194E6010A610250382264E08660284CD9E98021862280A91564B406929A0FF62C401E28B6F88038B83CB1243943D7A928312F25350524C3C0A0DD70F56A83369809E6AC0A85
311
B251645054A1A983A947A601504B03041400060808001B8B705728BB58AF800100009E0500003D00000042344431433735332D443537462D343546312D423945322D3136354333383232363538362F536368656D61732F436F6D6D6F6E536368656D612E786D6CBD544D4FC23018BEFB2B96DE15493C78601010A34B880709
311
DEDFB52FD0D8B54BD70DF6EFED3AC0B12E6442E2716BFB3CEFF3D18E26FB440405EA8C2B1992E1C323095052C5B8DC842437EBFB673219DF8DA659866649B798C078B48AE6410122242F2A4994AC7F93815DF85C049C8564CA0A901499DD886B2EB9B1E02448F358701A9235880C49A0119892A20C89D1B9FD768815CAD268
311
CB5E0355B40B1E47F3E37A2020464BED06AA57CE8FCC20C3C3446D46761A2632A8C1283D07031EFF2AE7CCB1BFEEE916E406DFAC8E36FFD99A9D60A6944090EEDC3B670C7DC13DE86B6B2C5C240D6E503BB85ACD579D513F1B9F9A69DC9CC22AFA80C426D40AF0B21EA168559156B6276F0F726A6BFF04DCD513A87A62CAD4
311
1FB24FCB2858B3952E3D852084DA25B9303C15687973CC8E8AAE11DF2836C38C6A9E765E8C1BA1BFB1DC29CDFE518C8B5A7655A4ED7E77291ABEB80DBD82EC866ADE1B8D05AF9E35CF09D7A061F38A986D9EC412B8F0F65E5D81534D9B231D1E5A8FE577A241F3A5FD01504B03041400060808001B8B70572CCEBD668A0400
311
00E01200003E00000042344431433735332D443537462D343546312D423945322D3136354333383232363538362F536368656D61732F47656E65726963536368656D612E786D6CD5586D6FDB380CFE7EBF42F0F7A649B70E1B90744856B4970F450FCD7A5F05459613EDE4174872DADCAF3F522F8ED3B88D2F1D06AC4050DB
311
A2493EE4438AF2F8EB73AEC8466823CB62928C06C384888297A92C5693A4B6D9D9E7E4EBD51FE3A931C22EF85AE4EC6AFC38BF261BA626C9AD288496DC3F4FCEAFC63366845F7A10452AF41DB320C0D44EC26EAB20918735565582695670811A6A49643A49A6E9069FA4604A64B29016DC4B48552F95E4932463CA888468C1
311
D2B250DB4962750DF7CE273069CE8363F1FF4EDB00E0A21999574AE4A2B00C353B93F3BD4777B8A61ED8F604ABFEDD79CE56A2B7BDFBDBC50996E0ADDE16FED26223C5D30956C29BDF4A55EA686E5E58B112DA45CE67F76F4FA27EFA3FB672FD7372FC388FAECDCA5209E693CAD167BADCD272F943701B3812F8A3D852008B
311
1D2E32DB927B2F833C6EA95879925356D254582695095A3CE982924720BE5774A3CB9CDCDB350427D2DF20DA1B5532EBE2D5D6288D75D4F7E4FD9890A0EF8E3D93EBB8F8BA4758158EF6FB90A6F9520281C93DE7AAC6D24607DA296BB96018123F821A7D6A5C5884050C475DA4865442732C8B95684A50165CBB3A32F25F78
311
3A4A480ED59AD7F924B968AEA50131F46303223E6A397B0E52976030DC1DCA81D7E7C1EDEEA42C19FF27635C505E2BD5198A599020DF50A2330FCB3AAF28CB0124108429553EF1B228802E2265D8F7CC2401042B155BCC7070F1E5C55F13B4A9577362CCCE46C32174E010C3C378C44841A4BDA00FE3A12006CE11EE6AEC59
311
894D3526DDE1CD59D503ECC324017F8061B7F162162FA62EDD81AE3308617770796DCBDAD2B2625C5AE8A63DE20B2C8AA5E95E76E5730823955956E33E705425A2187C185D36489A1B44D3DCEC2172F6BA2105C3546287A7194B2331768EBBE64F6E70A9930ABE0ADEA89E9E2C38523B810287AD67A54A039C1606EAFE68F8
311
304610BB9093DBDDABC0B2AE4E290DCDA15376D7E39F72B556F0B32EAB5D3D498B4C41ABADEC3A1434C422D87E8025A84BDCB2B1417ED750FAE4DA8976863974C577C7F902D3F156AD354DEA3540DE6BEAE2BEA52F7A2EB4CA43802ECE5BF2CE2EDC9347179FFB023CE412E60BE16DA0BE29B374988A553F561DC04615DD35
311
F7D2C8979F60E5955CE93DF29DED8AFA1EE6642D53418086C03C47C377910F75F7E8F5EF665F70B60FFB22AEDF897D119E8423C773E819A3C1E55E550599EE6EDCA34D0C86FD72057DF2CD46F16A470682471C164E4346D5306BF12D7D12D82CFF673D41636C347443FEB51B50D72EA171A8E4A58623A4A16E0FA2B8B10A0D
311
23268D87C33896EE8FB73305A74BF224EDBADFA0BD674AB354D63DB7BD5D83426761C077DE767728235446A552754EB93B755891C3C4CC6CADE37CF0E912A7BB38DBA010F9DE1282EDF470CA69A9CDA482E334C4A6EA4107987980B17E72F31730EBF88BBD39E7C629F56797A3C0009C2C5AE7951D9A05A02773440F02EEB4
311
DE396A3B6A570C72CCFBCD823B0B8ED3F1D5CEDDFED772FA70236C83FB7D86C385D570B87107535572A60A96035F8F7C6A7192F13007246BBE0521855E6AC46F3E27689CEE7D186A6FD679D98CDCAD13333E04EBE7ED6F55FF01504B03041400060808001B8B70576180134D5F0100006B0300004500000042344431433735
311
332D443537462D343546312D423945322D3136354333383232363538362F536368656D61732F52656E6465724D6174657269616C536368656D612E786D6CA5934D6FC2300C86EFFB1551EEE343DBA41D1A103009551ADAD40EAE28A4A68D9426284961FCFBE5A340113B2071746D3F765EBF4DC6BFB5407BD0862B49F0B037
311
C0082453059725C18DDD3EBFE3F1E829991803366715D474942CD30FB4A782E00C64017A412D684E454CE3FE28995203B162A6EA5AC94B66997D225E109CD63B0135484BAD1B3C07E9080CA35DB3119C11BCA5C200461A68A1A438126C75E3E230D40FF81FB3F03C91D1E3A3A0AF79FE28E25BC39EC3E17E4C2A2D94A0833A
311
51AF55BCCA7D88572FCBAC529C4140B020FC3AAFA886621DCED7EAD7664CC86024E806DC297DA1BB393E4156543457A4537DB8817349A70F8ACBF09B3EEE2CB2F33E91B65D60786E4E3B39B77E3FEEEF5650424525DA657FB8B46BE6BF064646F0A0F7327C0BC1BC1B4CBBC1C419FA3CCB23500007872A2580CAAE54618655
311
65294E4EDB4617B62FF579DF9A5B2F54E834076A597573A020912FED777F9B3F504B03041400060808001B8B7057FE84B61551000000570000004700000042344431433735332D443537462D343546312D423945322D3136354333383232363538362F4173736574446174612F41737365745461626C654F66436F6E74656E
311
74732E62696E536160603037313776347771D675347233D73571B1B0D47532B3B4D435303033B07436B0B43035741602AACB4D2C492DCA4CCC492C28484D2C4ACC4B4E050A82012F90744FCD03CA26072767A4E6260200504B03041400060808001B8B7057F865834058000000680000004500000042344431433735332D44
311
3537462D343546312D423945322D3136354333383232363538362F4173736574446174612F53747265616D56657273696F6E5461626C652E696E66558CBD0A80300C06F73E4B117FB66E451741D041DC5BF98480A492E4FDD18EAEC7DD4555D89EF28DF51A0B1BD8340C4DE7DD848B988C0ACF0649566493F2408C508DDEBB
311
99D5129FF8F1AF8CF5B9503E20FAE5A16B5AF702504B03041400060808001B8B70571FE0E8A6350100009A0400003600000042344431433735332D443537462D343546312D423945322D3136354333383232363538362F4173736574446174612F636E782E786D6CCD94314FC3301085FF4AE43D765228A0CA718560E90412
311
1503DBD5B914AB8E1DD91704FF1E3BCD002A62EAD0F5FCEEFCFCC9EFE4FAB3B7C5078668BC6B58CD2B56A0D3BE356EDFB091BAF28E156B2583F7F443C60A073D362C979992FBE0C7612EB5D8C16873D51A77988BF731226D6167F1A97BF08ED0516485B61063C3A27EC71E388CE45B8C07DE0201AF79C0E8C7A0314D22D3E3
311
3C490704C296A945B5B82AEBBAAC6FB6F5ED6A71BD5A2EDFA4C84A2577DEDB596FD265C10F853EDECA5425453E56720C66D6E4B730F59747BE334E8AA4543252484CE60EFA1A52070C83351A28A1135E1352994408BD1447B1922233F845E2113BE34C6ED92463403E3C277B18C8E0C511F9CFEBF9C96C5C24701A2F97C7A9
311
C3F35378997ED0EB319053622E2D27A70EB971DD195222A635924293B78AFA06504B03041400060808001B8B7057AB74E6B9090100004F0300003400000042344431433735332D443537462D343546312D423945322D3136354333383232363538362F536368656D61732F636E782E786D6CCD93BD4E042114855F85D00FCC
311
8CAE9A0DC3161656366A6587CCDD952C7027FC187D7B61A4D84DECB4D80E0E5FC839878BD87D3A4B3E2044837EA203EB2901AF7136FE30D19CF6DD1D253B2902623AC128F1CAC144AB4CA53804CC4B9366D8AB6CAB6A8D3F36F11E9D43FFACDFC1294AB455314E34AE5BA672C219E291CD2A2936B0001173D0506E48C641BB
311
41075009662AC77EBCEA86A11B6E5E86DBED78BDDD6C5E05AFA4146F88B6F1C62708B8108D65E18B9D5EF07A2C450EA631350395A7DE586943F042481153281D34327D2D8554CB628D56A954C557F0879182D7A867811FC04330FA32139F99FBB7C84FE067088FE5958251F63293FFE6F16F05F075F6CB08D4AF20BF01504B
311
03041400060808001B8B7057410A3D5871000000A40000002C00000042344431433735332D443537462D343546312D423945322D3136354333383232363538362F636E782E786D6C55CC4D0E82301086E1AB34B31774E7A22D31F1069E60020334B633A63FC6E34B0909B07DDE2F9FEE7EC1AB2FC5E4840DDC9A2B28E25E06
311
C7938192C7CB1D54677514C9871928C640062A83D55394F2D968A0118BAFEA1DBF377CA444F98919176EAB9FEAAB9F2960DA5BBB1E2ED3FA6FFF504B03041400060808001B8B7057E496A0387F000000A300000007000000636E782E786D6C4D8CD10E822018465F85FDF754A0206D809B9AEFE1121D0BA191B41E3F685E74
311
F56D67DF39B2FD6C0EBD4D7CD9E01590D30590F1F7305BBF2A48FB8205A056CB18C2FE7703E4A7CD282818B45C6348CF03CD6699922BD459FF3860570FA46F588507D68CB86623C1DDF54631E1ACAF04A59C099E8D7351F2FC7A794B5E7F01504B03041400060808001B8B705716E99B5DA600000035010000130000005B43
311
6F6E74656E745F54797065735D2E786D6C9590410E82301045AFD2740F4517C6180A0BF5065E60AC53688469D30E066F6F91AD9AB89CF9FFFD3F99BA9DC7413C3026E749CB4D59498164FCCD51A7E5C4B6D84BD136F5E5193089ECA5A465CF1C0E4A25D3E308A9F401292BD6C711388FB15301CC1D3A54DBAADA29E38991B8
311
E0254336F5092D4C038BF39CD76B6FC6A538AEBEA54A4B08617006389FA516557DE4AE8E7E70DE30729138228C5F021CD93F02D4FB0DCD0B504B03041400060808001B8B70573DEE336E64000000790000001B0000006175746F6465736B2D64657369676E2D7061636B6167652E786D6C35CBC10E83200C00D05F21DCA56C
311
A76D41FC96062B120735B69A7DBE268BB7777961F8D5AF396893C2ADB70FE7ADA196782C2DF776D7A97B5933C430F15651E5469C55D70F80A4992A3ADC954792C525AE70A1E4D6AD9816CC044FEFDF01FE3FDE907802504B03041400060808001B8B7057645F2396F8000000960100003700000042344431433735332D4435
311
37462D343546312D423945322D3136354333383232363538362F4173736574446174612F636F72652E786D6C8550CB6EC32010FC156BEFD806BFD20813D58DFFA0A7DE10100725068B47D5CF2F24AED49E7ADAD5ECCCECEED0D3D77A2F3E95F3DA9A11705943A18CB0529B6584182EE800C58951676DF84583C2F0558D9061
311
607471366E3B24AC09CA64D458A976907BAF0214E29E9A11BCB8AA95973C86C4F0B772E3E2C61755E2F2C96334462D77A996C94D5FB472C0BA97692033E91021D38CDAB669D0D4BCD508D7FD800FDDDC9FFB895659CC68D0EBCF76E1140F4A0223356910C608F7EF783892F6D8751FB4CA4C467D70E9E77D69FE0ED86BBEFA
311
CC03A7D573FAC7356EF27FD7A84D68C8EEFA547860381DF918305AE594527944986A4E947D03504B03041400060808001B8B7057E936DEF6F6000000940100003500000042344431433735332D443537462D343546312D423945322D3136354333383232363538362F536368656D61732F636F72652E786D6C8550CB6EC320
311
10FC156BEFD806BFD20813C9ADBFA03DF58680B82831583CAA7E7EC171A5F6D4D3AE66676677875EBED67BF1A99CD7D68C80CB1A0A658495DA2C23C4704527282E8C3A6BC32F1A1486AF6A840C03A38BB3713B20614D5026A3C64A7580DC7B15A010F7D48CE0C5875A79C963480C7F2B372E6E7C51252E1F3C4663D4F2906A
311
99DCF4552B07AC7B9A0632930E1132CDA86D9B064DCD738D70DD0FF8D4CDFD4B3FD12A8B190D7AFDD92E9CE2414960A4260DC218E1FE0D0F67D29EBBEE9D5699C9A80F2EFD7C2CCDDF017BDDEFF4B47ACCFE78C64DFEEF19B5090D393C1F0A0F0CA713F701A355CE28953DC054739EEC1B504B03041400060808001B8B7057
311
CFAF031301010000D70100002D00000042344431433735332D443537462D343546312D423945322D3136354333383232363538362F636F72652E786D6C9591C172832010865FC5D93B1A50D46690CC24699EA0A7DE286C2C93088E60A78F5FAC76DADEDA13CCCFF7EFF2EF8AC3FB70CFDE700AD6BB0E68BE830C9DF6C6BABE
311
83395E490BD9418AC9FBF80383CCA9013B586490A29FFC3C6E92F62EA25B54E70D6EA20A012364FA9E2E1D04FD8A83CAD51C13116EF9A8F44DF598D37CE5A48876F8B2EA0955440392ED58492825B47EA2CD9E557BCE9F45B19052CCD6C5926DCD70784193F931A64820B928D6D744CDD66C8C35E98FF66A710279ACCEF4D4
311
F0929C79732115BF50727C7864A9113F952D63356FEB542499A508714A93D98A2C33F8AB7D35FE4A368FE69FC956470049BF4315CB98A5283E7790CE6525F203504B03041400060808001B8B7057B0823B8906010000B201000008000000636F72652E786D6C8D50CB6EC32010FC15B4776C835F698489E4D67FD0536FD410
311
17C5060B70D4FE7D2176A5F6D6D3A299D99D61D8E57399D15D39AFADE98064052065462BB5993AD8C2159F005D3873D6865F3240462CAA8304036793B3DB7A40A3354199841A2BD5010AEF550034CEF1D1811F3FD42232B185A8F0B76C15E34D4C2A23D9AEE32CE8E56775744A042581D3829698104C9A57D29E6975AEEB37
311
96272567DBA6E561A56574D757AD1CF0FAA96FE9406B4C693FE0AA2A4BDC97CF052645D392533D342F4DCFF2B4CC990F2EFEF938127306E4C53DF9B27CA7387BB7763E04319444D6CC5FC00B9627E24FE86D95FF08AD4D28E97170DFF0C0490CF420A2716A308E47BD71A6B6F937504B010214001400060808001B8B7057B2
311
45BDB8B4000000200100004F000000000000000000000000000000000042344431433735332D443537462D343546312D423945322D3136354333383232363538362F4173736574446174612F446566696E6974696F6E4974657261746F7250726F706572746965732E62696E504B010214001400060808001B8B70572057B5
311
B3030100003002000045000000000000000000000000002101000042344431433735332D443537462D343546312D423945322D3136354333383232363538362F4173736574446174612F496E7374616E636550726F706572746965732E62696E504B010214001400060808001B8B705728BB58AF800100009E0500003D0000
311
00000000000000000000008702000042344431433735332D443537462D343546312D423945322D3136354333383232363538362F536368656D61732F436F6D6D6F6E536368656D612E786D6C504B010214001400060808001B8B70572CCEBD668A040000E01200003E00000000000000000000000000620400004234443143
311
3735332D443537462D343546312D423945322D3136354333383232363538362F536368656D61732F47656E65726963536368656D612E786D6C504B010214001400060808001B8B70576180134D5F0100006B03000045000000000000000000000000004809000042344431433735332D443537462D343546312D423945322D
311
3136354333383232363538362F536368656D61732F52656E6465724D6174657269616C536368656D612E786D6C504B010214001400060808001B8B7057FE84B615510000005700000047000000000000000000000000000A0B000042344431433735332D443537462D343546312D423945322D313635433338323236353836
311
2F4173736574446174612F41737365745461626C654F66436F6E74656E74732E62696E504B010214001400060808001B8B7057F865834058000000680000004500000000000000000000000000C00B000042344431433735332D443537462D343546312D423945322D3136354333383232363538362F417373657444617461
311
2F53747265616D56657273696F6E5461626C652E696E66504B010214001400060808001B8B70571FE0E8A6350100009A04000036000000000000000000000000007B0C000042344431433735332D443537462D343546312D423945322D3136354333383232363538362F4173736574446174612F636E782E786D6C504B0102
311
14001400060808001B8B7057AB74E6B9090100004F0300003400000000000000000000000000040E000042344431433735332D443537462D343546312D423945322D3136354333383232363538362F536368656D61732F636E782E786D6C504B010214001400060808001B8B7057410A3D5871000000A40000002C00000000
311
0000000000000000005F0F000042344431433735332D443537462D343546312D423945322D3136354333383232363538362F636E782E786D6C504B010214001400060808001B8B7057E496A0387F000000A300000007000000000000000000000000001A100000636E782E786D6C504B010214001400060808001B8B705716
311
E99B5DA6000000350100001300000000000000000000000000BE1000005B436F6E74656E745F54797065735D2E786D6C504B010214001400060808001B8B70573DEE336E64000000790000001B00000000000000000000000000951100006175746F6465736B2D64657369676E2D7061636B6167652E786D6C504B01021400
311
1400060808001B8B7057645F2396F80000009601000037000000000000000000000000003212000042344431433735332D443537462D343546312D423945322D3136354333383232363538362F4173736574446174612F636F72652E786D6C504B010214001400060808001B8B7057E936DEF6F60000009401000035000000
311
000000000000000000007F13000042344431433735332D443537462D343546312D423945322D3136354333383232363538362F536368656D61732F636F72652E786D6C504B010214001400060808001B8B7057CFAF031301010000D70100002D00000000000000000000000000C814000042344431433735332D443537462D
311
343546312D423945322D3136354333383232363538362F636F72652E786D6C504B010214001400060808001B8B7057B0823B8906010000B2010000080000000000000000000000000014160000636F72652E786D6C504B050600000000110011005A060000401700000000
310
504B03041400060808001B8B7057000000000000000000000000370000006662782F44424632353138422D423331312D344635312D423245322D3946413531364639413730452F617474726962757465732E62696E504B03041400060808001B8B7057000000000000000000000000350000006662782F4442463235313842
310
2D423331312D344635312D423245322D3946413531364639413730452F76657274696365732E62696E504B03041400060808001B8B7057F270F1330600000004000000360000006662782F44424632353138422D423331312D344635312D423245322D3946413531364639413730452F747269616E676C65732E62696E6366
310
60600000504B03041400060808001B8B705751464CB48900000043010000360000006662782F44424632353138422D423331312D344635312D423245322D3946413531364639413730452F6469726563746F72792E786D6C9D8F310EC2300C45AF127987122606C71DD918B841D4B851A43646695A717C52A85029031293A5
310
A76FBF6FACEF7DA7264E43906840EF0FA03836E242F406C6DCEE4EA06AC22492573150D1F66C60C640E8938CB705396EEDD86DE9B5042FE27813D640EA63BB001C722AF6E55CB61E4863F58284D5D3F53DD715CE1C3985E63FD7F1B7EBDD617E9F1E504B03041400060808001B8B70573F3EE04541070000201C0000340000
310
006662782F44424632353138422D423331312D344635312D423245322D3946413531364639413730452F6F626A656374732E786D6CDD59596FDB3810FE2B84F665F74197E54B85E322B19BC028D21635BAD837819669871B5DA0A4C4D95FBF438A944545B6951EC0621DC056286A38F3CD3D9ABD3FC4117A222CA7697265B8
310
9663209284E99626FB2BA32C76E6D440EFE768C6D2B468EC335082637265F065633EDBB3B4CCE4D296EC7019B5576F6FFE4279481262A030C2797E65E4E10389B185CB22DD92FCD1DAE2025BFBDDC172AD6AA34E76CF70F6D03A2AC38C2405B00AEB0950911CB8FABF20923D9FD97C83B6CDEBB76D70669B2D04D719A5495E
310
E0247CC555EBB8C109AE5AC779EE70F96130F2CDD170E899C3F1C0356F6E6F96A63BF19CC578B1F0AF3FF8069ACF36691AD50AC848B2052DBE18737766F33BB5F812852EBEC334494828D1ECDAB025922E25791B130D585788D65048256B63C1EB29FC896DBD40D158D2D056C2A9DFA6F5A69BBF0184BC8F95B29C702BCF0B
310
06BA96D857FEE0CCEC6A55D30BCD518C0BC2288E5044370C3350106CAD14A491E1DEC249218E99D0A2A2D7E4150CFBB22F7571B92BA388FBAF31179E16803F9222179CD17F083B72DF3C0D7802694B9A1453296CF19201097F668BC5EA9E3790372B20D12EC27BB01610936FF2062DBC163C16AC96C6FCE3EDE6B0E6F1A1FB
310
F08CA5196105B73CE1CCD2EF94061BA605C6D703940A575D774754BE02F49F00F99A173403CD317A181E864A7686937C97B218B4831C643AF0E5207EF9EA6A66D70FCF11D262E5294CC16D7F12A69A18DAD90D48E7B32730FA947952B8758823B0E97B9A703F074341510A4B10EF779B83315F41308545780A47203DFCCD6C
310
7E89E0A7A203F1A6A5A1AEF0DB4351CA61DA7E76D4D51DD80CA361AD2A4DC653F88E7E0ABED7CBF5C775C9763824F7D2B1976447135A4032ED6648035D73F96FAB4FC223EFA27483A3E3D3DAA6108ED9A73C6E74A8652DD582845E80139E862BCD88957B0ADE1E4538216999CBF5AE3815A651CA82CD4B50B970E7597F2A1B
310
A80E9306D019CB20B9878C661C13632EB5550742AB2128581866D202F79556834D1967018ED332E1A1F6B529B6F98038C32D11A80A6ACAB095D72AB25BBADB953904AF4E920B0D48E9CF8A7065E14388635DFC32B2631892689A04147230384BE709DA013578E779CE49B40B68149571B0A311E49120C6D909FA3D256866AE
310
47F2F29CB26D2741DDB2944F2A1BE2804B6015482A5B55315FEA949127CACB4C91CF5436D076C83AD4980F4FA40B9E293A0055C628CC7C329C78D793E5C2BC1EDC4ECCE172EA9B3763DF371D67ECF80BC79F8E5C80475A8940E018AD9AF90E54C9CB1CCDFF8A8732DE249846708353C0DBECDD7B913DAF6C088DB6773DBCBD
310
190C26E6D899F8E6D0FDB034A7CE18B8F06F278EB7588E869E673392A7250B496E0F6C2750269925FB535CD5B194672D901FBE25A450D65C4E764A5F6D61FEC731B49D133425FE5783681DBB3A0AC2BE41943FDA0EA1387CE4292A08A1EAEB749F56106DF3D115E7DE18971DCB73C4C775FD81E30FA6FEB836F6B3815A9CF3
310
C371AE4B8210FACEB208D20C87B4E84EA82D5C7AC6E937E516CB734708D0A9BFEB43CEE71979484063BC27C10EF32EA123305E92A03387EDA334CF694272D1E5BDAAFE5A341D0B8A293DE7761821CD839814F87BEC4FB40D2D9B86D81C05D08F167C2270B12AA80D5A7620A728F2EE1712B790FF25C8719C4555A77B090377
310
A020503D4E97C571A6F9114F606F012E02674BC4E0E212F59A7D551F746AAD4DDDFF6EF227E05175CD2F84471DD1BF74B246AECF3F53082AE391EB4D94222E61A58E2A781F1795D079862FC133A1FB875E85663F9D344AB6AAA82E480C6D2C2E4AD6CB5FC723E7D541322EB41CA271D21B8B43D1BFA90E0ED0130DDCA9F2B6
310
710CD4A1348139572F415E49D169C2421762A6C747576FF0EBB3CA6E52FDE178F9CB2BE6A6F3C550E8F5C101AAE52A00CBE8A3D5D49D55B7560FE5CFB8082190AEC5AF79031EB125DB6363A691EB2AD1557D7AA97A5EF1801AC3C416F3387BCF2FA2AF18540DDD736EDF55459B5DADAF7862B360387DE443635AA7F5F96EDD
310
A2022BBD9FFEC23122CF2D0A7275C1BBE133A4BEAD8E3D7F8B8294E8DBEACCE3FF898E4229B0D159C034384F230A4379B2457B9242F686B1438F6E83C5241759F9D8A5A837023D9E7EAA66AA05DE44AAC7091F300CA623D98B95210C4521635E19721DFD0663503E8914C329EB11DA3019C30C54327A6580C51614BA2D6B03
310
E32C313C14D45BE34A706C9CEC79BEAF9EAAFF3F3EF6AAFBAAF7F4C1454AA6391314B699784F00555F75633EFB7ED1153B081770B9298B5A98E3C2511A09827A2150090753BF4709EF010A8AF372B996D8A335A4BD26F367EDA0A26A1698EDC578BD6193D7CB2F369F8CAF3EA32C2AF75C9DE7BA5F8D92C9BBEEA8ACA65033
310
300C296686790DB978677F6129BC628AD12D052340BF1FA6E33FEC451AC769522DD9D7F245155A3FC06BA7ADAD467ED0C63BEEC816530039D60F36382716DEE68FB000AA6594CF462B883503A8A369C3009446B82EE0316DFF6A89646DD4989034C32E8747CCF41138127F97C3DDA6B9A13180045F00AEC4CDE3855A98D90C
310
86E0F37F01504B03041400060808001B8B7057F52B30223F01000046050000300000006662782F44424632353138422D423331312D344635312D423245322D3946413531364639413730452F636E782E786D6CCD94C14EC3300C865F25CABDCD3A18A029CD240E3C0107C42D4DBD1296C655E222F6F624A31B2034C461D276
310
8B9CDFD2FFD9BF2C57EFBD636F10A2455FF3AA9C7106DE606B7D57F391D6C51D672B2503227D9371E6750F35CF65AE6417701CA6520B6B3DBA5C75D66FA6A2260AB619092267C6E9186B1ECD0BF4BAD423610B7153B69A74599501228EC140EA27DBC3D46F02688296ABF96C7E55545551DD3C56B7CBF9F572B17896222B95
310
6C10DDA4B79E20E0C00CA6874F666652E46F25C760274D26E0EACB59D9582F45FA573226B7BE9B74B41DB26E189C359AD298041A022A9208742FC5A7584991797F503FDC3FED1DB0D6063084617BA60154C706703056A624FC8F7F27FC1B1B9BD7847BAE6D1F859D6C9D0C759FD698E2FA7BFF2945DA77EEF2427F3076FACC
310
A75342D65C1EF2DED78988C5EEE4A5A5E70BA83E00504B03041400060808001B8B7057CA67CAAC7F000000A30000000B0000006662782F636E782E786D6C4D8CD10E822018465F85FDF7943F45E9063859F21E2ED1B1109A49EBF183E64557DF76F69D23DACFE2C9DBAE2F1783043C54406CB8C7D1855942DA265A03699558
310
63DCFE6E40C2B05809058312F31AD37347A39D86E40BF52E3C7678D38671AC35D527447A361CA9663DA38DE9385E4CD35DAB3E1BC7A2E4F9F5F296BCFA02504B03041400060808001B8B7057A6D797065F0000008200000007000000636E782E786D6C4DCB3B0E80201045D1AD90E9FD7516806B51190811670C8A61F982B1
310
B0BAC9C97B72CA7B1037C6D3332918DA1E04D2CAC69353902EDB8C20262D23F3F59B81A079470595414B17391D1F19B4730A5583A7ED43BBE4025D9592775E5ADFFA01504B03041400060808001B8B70574FEB6A7CA0000000F4000000130000005B436F6E74656E745F54797065735D2E786D6C7D8F4B0EC2300C44AF1279
310
DFA6B0400835ED02B8011730C16D239A8F121795DB93D02D6269CFBC19BBED573B8B17C564BC53B0AB1B10E4B47F18372A5878A88E20FAAEBDBD032591BD2E299898C349CAA427B2986A1FC86565F0D122E7318E32A07EE24872DF3407A9BD63725C71C980AEBDD080CBCCE2BAE6F5D69B7110E7CD57AA146008B3D1C8F92C
310
5954F993BB1BF787F39A89ABC491D09600F9FDA2FB00504B03041400060808001B8B70573DEE336E64000000790000001B0000006175746F6465736B2D64657369676E2D7061636B6167652E786D6C35CBC10E83200C00D05F21DCA56CA76D41FC96062B120735B69A7DBE268BB7777961F8D5AF396893C2ADB70FE7ADA196
310
782C2DF776D7A97B5933C430F15651E5469C55D70F80A4992A3ADC954792C525AE70A1E4D6AD9816CC044FEFDF01FE3FDE907802504B03041400060808001B8B7057A2179FD2F7000000960100003B0000006662782F44424632353138422D423331312D344635312D423245322D3946413531364639413730452F7265736F
310
75726365732F636F72652E786D6C8550CB6E833010FC15B477430C0468641C1545FD829E7AB3EC0DB1126CE447D5CFAF1DA8D49E7ADAD5ECCCECEEB0F3D7F2283ED1796DCD08B43C4081465AA5CD3C420C57324071E6CC591B7ED1A03062C111320C9CCDCEC67587A435014D468D55B883C27B0C50C8476A46F0F2868B2845
310
0C89E1EFE52AE45DCC58D272E37116A356BB54ABE4A6AF1A1DF0FE503787F6A525D3F4DA90F6320C64A26F13A9BB66E8E885765D4F5995C59C05BDFC6C970E454005BC4E7A4229A1DD3BED4F757B3A1E3F5895999CF9E0D2CFFBD2FC1D7087DE4627D1B36A9BFE718DABFADF356A139A7A77DD141E783EF239E0ACCA29A5F2
310
8C30D59C28FF06504B03041400060808001B8B70579142E818F1000000B1010000310000006662782F44424632353138422D423331312D344635312D423245322D3946413531364639413730452F636F72652E786D6C8D50CB6EC32010FC156BEFD806C7790913C54AFC053DF58680B82831583CAA7C7E2176A5F696D3A2D9
310
196676E8E9393D8A6FE5BCB6A6035CD6502823ACD466EC20861BDA437162D4591BFED0A0307C521D6418181D9D8DF30A096B8232193556AA15E4DEAB008578A447075E7CA989973C86C4F0F772E6E2CE4755E272E1311AF4F42B154EF1A02430529306618CF0F603EF8E64736CDB4F5A6526A3316AB95A6999DCF54D2B07EC
310
D20FA4C5FB1EF54D126E8616A39E5C093A0CE7166F87C379575F6995C58CFAE0D2CDEB27F9BA77E58BF05FE638CB37326B131AB21A2E0A0F0CA73CAF05A3552E308D57BB69E6B2D90F504B03041400060808001B8B70579FEAD1F552010000DD0200000C0000006662782F636F72652E786D6C8D525D6F832014FD2B867754
310
D45AD720CD4CB35FB0A7BD51A49654C12098FEFC811F713EAC5B4C909C7BCFB9E79E80CFCFAE0D46AE07A16409501883804BA66A219B125873830508CE046BA5CC8F361048DAF112781810DC6865FB05624A1A2E3D2A55CD17900E03372060ADBB94606077DED1905AE33A8647D853F6A00D0F5138F7116CADA817AAA89D9A
310
B809AE0139C6491A676F19ACAAF7146697A28015FAA86092A7458E2E28CF8F08479E4CB011DD3A9D694E0DAF01491C1F220451FE898EA7243B1D0E5F38F29D040F46BB9D97A17E3B406ED7278E667CA767FBFA6F3D2BA44993456F660C80787B5381E0C8E7E37E5378FB0CDD60979FA1D7765DE1E1A09133A374E62AB5B25B
310
69A4ADE54E3A0EA60F4773D5294F02BFE9242F745E6BB8A0A86C9C356ADCF56A8D9FBEF7D4730D47F30CA4D21D6D3773B3C5EDDC06ED565AE94CB54AFF87BDAEBA8619F98749BE01504B03041400060808001B8B705721D7A4A105010000B201000008000000636F72652E786D6C8D50CB6EC32010FC15B4776C633B8E1B61
310
A25A51BFA0A7DEA8212E8A0D168FA8FDFB424CA5F6D6D3A279EC0C4BCF9FEB82EED23A65F400A4A800493D19A1F43C40F057DC033A336A8DF1BF6480345FE500090646676BC296A1C9682F7542B5113283DC39E9014D4B7C0CE0A60FB9F282071F15EE566C7CBAF15916A4D8758C7AB5FE58272BB99702585DD50D260493EE
310
951C4F757B3A1CDE6899948C86A0448E5222A6ABAB9216D8315AAAF6A9C5E3F8DCE0F6D2F778242F23AEBBA6EFC88574DD91D032991975DEC63FE725B1A7478EDF532E2D778AD17763962C88A504327AF90256D132117F4A874DFCA3B4D2BEA9F3C2DDE180A5420F2206A70BC6F1386F9CE9DAEC1B504B0102140014000608
310
08001B8B70570000000000000000000000003700000000000000000000000000000000006662782F44424632353138422D423331312D344635312D423245322D3946413531364639413730452F617474726962757465732E62696E504B010214001400060808001B8B70570000000000000000000000003500000000000000
310
000000000000550000006662782F44424632353138422D423331312D344635312D423245322D3946413531364639413730452F76657274696365732E62696E504B010214001400060808001B8B7057F270F13306000000040000003600000000000000000000000000A80000006662782F44424632353138422D423331312D
310
344635312D423245322D3946413531364639413730452F747269616E676C65732E62696E504B010214001400060808001B8B705751464CB489000000430100003600000000000000000000000000020100006662782F44424632353138422D423331312D344635312D423245322D3946413531364639413730452F64697265
310
63746F72792E786D6C504B010214001400060808001B8B70573F3EE04541070000201C00003400000000000000000000000000DF0100006662782F44424632353138422D423331312D344635312D423245322D3946413531364639413730452F6F626A656374732E786D6C504B010214001400060808001B8B7057F52B3022
310
3F010000460500003000000000000000000000000000720900006662782F44424632353138422D423331312D344635312D423245322D3946413531364639413730452F636E782E786D6C504B010214001400060808001B8B7057CA67CAAC7F000000A30000000B00000000000000000000000000FF0A00006662782F636E78
310
2E786D6C504B010214001400060808001B8B7057A6D797065F000000820000000700000000000000000000000000A70B0000636E782E786D6C504B010214001400060808001B8B70574FEB6A7CA0000000F400000013000000000000000000000000002B0C00005B436F6E74656E745F54797065735D2E786D6C504B010214
310
001400060808001B8B70573DEE336E64000000790000001B00000000000000000000000000FC0C00006175746F6465736B2D64657369676E2D7061636B6167652E786D6C504B010214001400060808001B8B7057A2179FD2F7000000960100003B00000000000000000000000000990D00006662782F44424632353138422D
310
423331312D344635312D423245322D3946413531364639413730452F7265736F75726365732F636F72652E786D6C504B010214001400060808001B8B70579142E818F1000000B10100003100000000000000000000000000E90E00006662782F44424632353138422D423331312D344635312D423245322D39464135313646
310
39413730452F636F72652E786D6C504B010214001400060808001B8B70579FEAD1F552010000DD0200000C00000000000000000000000000291000006662782F636F72652E786D6C504B010214001400060808001B8B705721D7A4A105010000B20100000800000000000000000000000000A5110000636F72652E786D6C50
310
4B0506000000000E000E0080040000D01200000000
  0
XRECORD
  5
80CF
102
{ACAD_REACTORS
330
80CA
102
}
330
80CA
100
AcDbXrecord
280
     1
270
     1
271
     1
  0
XRECORD
  5
80CE
102
{ACAD_REACTORS
330
80CA
102
}
330
80CA
100
AcDbXrecord
280
     1
270
     1
271
     1
  0
XRECORD
  5
80D0
102
{ACAD_REACTORS
330
80CA
102
}
330
80CA
100
AcDbXrecord
280
     1
270
     1
271
     1
  0
XRECORD
  5
80CD
102
{ACAD_REACTORS
330
80CA
102
}
330
80CA
100
AcDbXrecord
280
     1
270
     1
271
     1
  0
XRECORD
  5
8557
102
{ACAD_REACTORS
330
8556
102
}
330
8556
100
AcDbXrecord
280
     1
102
DISPLAYNAME
  1
Imperial24
102
FLAGS
 90
        0
  0
CELLSTYLEMAP
  5
851E
102
{ACAD_REACTORS
330
851D
102
}
330
851D
100
AcDbCellStyleMap
 90
        3
300
CELLSTYLE
  1
TABLEFORMAT_BEGIN
 90
        5
170
     1
 91
        0
 92
    32768
 62
   257
 93
        1
300
CONTENTFORMAT
  1
CONTENTFORMAT_BEGIN
 90
        0
 91
        0
 92
      512
 93
        0
300

 40
0.0
140
1.0
 94
        5
 62
     0
340
80FD
144
0.25
309
CONTENTFORMAT_END
171
     0
 94
        0
309
TABLEFORMAT_END
  1
CELLSTYLE_BEGIN
 90
        1
 91
        1
300
_TITLE
309
CELLSTYLE_END
300
CELLSTYLE
  1
TABLEFORMAT_BEGIN
 90
        5
170
     1
 91
        0
 92
        0
 62
   257
 93
        1
300
CONTENTFORMAT
  1
CONTENTFORMAT_BEGIN
 90
        0
 91
        0
 92
      512
 93
        0
300

 40
0.0
140
1.0
 94
        5
 62
     0
340
80FD
144
0.18
309
CONTENTFORMAT_END
171
     0
 94
        0
309
TABLEFORMAT_END
  1
CELLSTYLE_BEGIN
 90
        2
 91
        1
300
_HEADER
309
CELLSTYLE_END
300
CELLSTYLE
  1
TABLEFORMAT_BEGIN
 90
        5
170
     1
 91
        0
 92
        0
 62
   257
 93
        1
300
CONTENTFORMAT
  1
CONTENTFORMAT_BEGIN
 90
        0
 91
        0
 92
      512
 93
        0
300

 40
0.0
140
1.0
 94
        2
 62
     0
340
80FD
144
0.18
309
CONTENTFORMAT_END
171
     0
 94
        0
309
TABLEFORMAT_END
  1
CELLSTYLE_BEGIN
 90
        3
 91
        2
300
_DATA
309
CELLSTYLE_END
  0
XRECORD
  5
8554
102
{ACAD_REACTORS
330
851D
102
}
330
851D
100
AcDbXrecord
280
     1
102
ACAD_ROUNDTRIP_PRE2007_TABLESTYLE
 90
      512
 91
        0
  1

 92
      512
 93
        0
  2

 94
      512
 95
        0
  3

  0
XRECORD
  5
852F
102
{ACAD_REACTORS
330
852E
102
}
330
852E
100
AcDbXrecord
280
     1
102
RTVSPost2010Prop28
280
     1
102
RTVSPost2010PropOp28
 70
     1
102
RTVSPost2010Prop29
280
     1
102
RTVSPost2010PropOp29
 70
     1
102
RTVSPost2010Prop30
280
     0
102
RTVSPost2010PropOp30
 70
     1
102
RTVSPost2010Prop31
280
     0
102
RTVSPost2010PropOp31
 70
     1
102
RTVSPost2010Prop32
280
     0
102
RTVSPost2010PropOp32
 70
     1
102
RTVSPost2010Prop33
280
     0
102
RTVSPost2010PropOp33
 70
     1
102
RTVSPost2010Prop34
280
     0
102
RTVSPost2010PropOp34
 70
     1
102
RTVSPost2010Prop35
280
     0
102
RTVSPost2010PropOp35
 70
     1
102
RTVSPost2010Prop36
280
     0
102
RTVSPost2010PropOp36
 70
     1
102
RTVSPost2010Prop37
 90
       50
102
RTVSPost2010PropOp37
 70
     1
102
RTVSPost2010Prop38
140
0.0
102
RTVSPost2010PropOp38
 70
     1
102
RTVSPost2010Prop39
140
1.0
102
RTVSPost2010PropOp39
 70
     1
102
RTVSPost2010Prop40
 90
        0
102
RTVSPost2010PropOp40
 70
     1
102
RTVSPost2010Prop41ColorIndex
 90
       18
102
RTVSPost2010Prop41ColorRGB
 90
        0
102
RTVSPost2010PropOp41
 70
     1
102
RTVSPost2010Prop42
 90
       50
102
RTVSPost2010PropOp42
 70
     1
102
RTVSPost2010Prop43
 90
        3
102
RTVSPost2010PropOp43
 70
     1
102
RTVSPost2010Prop44ColorIndex
 90
        5
102
RTVSPost2010Prop44ColorRGB
 90
      255
102
RTVSPost2010PropOp44
 70
     1
102
RTVSPost2010Prop45
280
     0
102
RTVSPost2010PropOp45
 70
     1
102
RTVSPost2010Prop46
 90
       50
102
RTVSPost2010PropOp46
 70
     1
102
RTVSPost2010Prop47
 90
       50
102
RTVSPost2010PropOp47
 70
     1
102
RTVSPost2010Prop48
 90
       50
102
RTVSPost2010PropOp48
 70
     1
102
RTVSPost2010Prop49
280
     0
102
RTVSPost2010PropOp49
 70
     1
102
RTVSPost2010Prop50
 90
       50
102
RTVSPost2010PropOp50
 70
     1
102
RTVSPost2010Prop51ColorIndex
 90
      256
102
RTVSPost2010Prop51ColorRGB
 90
-16777216
102
RTVSPost2010PropOp51
 70
     0
102
RTVSPost2010Prop52
140
1.0
102
RTVSPost2010PropOp52
 70
     0
102
RTVSPost2010Prop53
 90
        2
102
RTVSPost2010PropOp53
 70
     1
102
RTVSPost2010Prop54
  1
strokes_ogs.tif
102
RTVSPost2010PropOp54
 70
     1
102
RTVSPost2010Prop55
280
     0
102
RTVSPost2010PropOp55
 70
     1
102
RTVSPost2010Prop56
140
1.0
102
RTVSPost2010PropOp56
 70
     1
102
RTVSPost2010Prop57
140
1.0
102
RTVSPost2010PropOp57
 70
     1
102
RTVSPropertyOp0
 70
     1
102
RTVSPropertyOp1
 70
     1
102
RTVSPropertyOp2
 70
     1
102
RTVSPropertyOp3
 70
     1
102
RTVSPropertyOp4
 70
     1
102
RTVSPropertyOp5
 70
     1
102
RTVSPropertyOp6
 70
     1
102
RTVSPropertyOp7
 70
     1
102
RTVSPropertyOp8
 70
     1
102
RTVSPropertyOp9
 70
     1
102
RTVSPropertyOp10
 70
     1
102
RTVSPropertyOp11
 70
     1
102
RTVSPropertyOp12
 70
     1
102
RTVSPropertyOp13
 70
     1
102
RTVSPropertyOp14
 70
     1
102
RTVSPropertyOp15
 70
     1
102
RTVSPropertyOp16
 70
     1
102
RTVSPropertyOp17
 70
     1
102
RTVSPropertyOp18
 70
     1
102
RTVSPropertyOp19
 70
     1
102
RTVSPropertyOp20
 70
     1
102
RTVSPropertyOp21
 70
     1
102
RTVSPropertyOp22
 70
     1
102
RTVSPropertyOp23
 70
     1
102
RTVSPropertyOp24
 70
     1
102
RTVSPropertyOp25
 70
     1
102
RTVSPropertyOp26
 70
     1
102
RTVSPropertyOp27
 70
     1
102
RTVSPropertyOp28
 70
     1
102
RTVSPropertyOp29
 70
     1
102
RTVSPropertyOp30
 70
     1
102
RTVSPropertyOp31
 70
     1
102
RTVSPropertyOp32
 70
     1
102
RTVSPropertyOp33
 70
     1
102
RTVSPropertyOp34
 70
     1
102
RTVSPropertyOp35
 70
     1
102
RTVSPropertyOp36
 70
     1
102
RTVSPropertyOp37
 70
     1
102
RTVSPropertyOp38
 70
     1
102
RTVSPropertyOp39
 70
     1
102
RTVSPropertyOp40
 70
     1
102
RTVSPropertyOp41
 70
     1
102
RTVSPropertyOp42
 70
     1
102
RTVSPropertyOp43
 70
     1
102
RTVSPropertyOp44
 70
     1
102
RTVSPropertyOp45
 70
     1
102
RTVSPropertyOp46
 70
     1
102
RTVSPropertyOp47
 70
     1
102
RTVSPropertyOp48
 70
     1
102
RTVSPropertyOp49
 70
     1
102
RTVSPropertyOp50
 70
     1
102
RTVSPropertyOp51
 70
     0
102
RTVSPropertyOp52
 70
     0
102
RTVSPropertyOp53
 70
     1
102
RTVSPropertyOp54
 70
     1
102
RTVSPropertyOp55
 70
     1
102
RTVSPropertyOp56
 70
     1
102
RTVSPropertyOp57
 70
     1
102
RTVSPropertyOp58
 70
     1
102
RTVSPropertyOp59
 70
     1
102
RTVSPropertyOp60
 70
     1
102
RTVSPropertyOp61
 70
     1
102
RTVSPropertyOp62
 70
     1
  0
XRECORD
  5
852D
102
{ACAD_REACTORS
330
852C
102
}
330
852C
100
AcDbXrecord
280
     1
102
RTVSPost2010Prop28
280
     0
102
RTVSPost2010PropOp28
 70
     1
102
RTVSPost2010Prop29
280
     1
102
RTVSPost2010PropOp29
 70
     1
102
RTVSPost2010Prop30
280
     1
102
RTVSPost2010PropOp30
 70
     1
102
RTVSPost2010Prop31
280
     0
102
RTVSPost2010PropOp31
 70
     1
102
RTVSPost2010Prop32
280
     0
102
RTVSPost2010PropOp32
 70
     1
102
RTVSPost2010Prop33
280
     0
102
RTVSPost2010PropOp33
 70
     1
102
RTVSPost2010Prop34
280
     0
102
RTVSPost2010PropOp34
 70
     1
102
RTVSPost2010Prop35
280
     0
102
RTVSPost2010PropOp35
 70
     1
102
RTVSPost2010Prop36
280
     0
102
RTVSPost2010PropOp36
 70
     1
102
RTVSPost2010Prop37
 90
       50
102
RTVSPost2010PropOp37
 70
     1
102
RTVSPost2010Prop38
140
0.0
102
RTVSPost2010PropOp38
 70
     1
102
RTVSPost2010Prop39
140
1.0
102
RTVSPost2010PropOp39
 70
     1
102
RTVSPost2010Prop40
 90
        0
102
RTVSPost2010PropOp40
 70
     1
102
RTVSPost2010Prop41ColorIndex
 90
       18
102
RTVSPost2010Prop41ColorRGB
 90
        0
102
RTVSPost2010PropOp41
 70
     1
102
RTVSPost2010Prop42
 90
       50
102
RTVSPost2010PropOp42
 70
     1
102
RTVSPost2010Prop43
 90
        3
102
RTVSPost2010PropOp43
 70
     1
102
RTVSPost2010Prop44ColorIndex
 90
        5
102
RTVSPost2010Prop44ColorRGB
 90
      255
102
RTVSPost2010PropOp44
 70
     1
102
RTVSPost2010Prop45
280
     0
102
RTVSPost2010PropOp45
 70
     1
102
RTVSPost2010Prop46
 90
       50
102
RTVSPost2010PropOp46
 70
     1
102
RTVSPost2010Prop47
 90
       50
102
RTVSPost2010PropOp47
 70
     1
102
RTVSPost2010Prop48
 90
       50
102
RTVSPost2010PropOp48
 70
     1
102
RTVSPost2010Prop49
280
     0
102
RTVSPost2010PropOp49
 70
     1
102
RTVSPost2010Prop50
 90
       50
102
RTVSPost2010PropOp50
 70
     1
102
RTVSPost2010Prop51ColorIndex
 90
      256
102
RTVSPost2010Prop51ColorRGB
 90
-16777216
102
RTVSPost2010PropOp51
 70
     0
102
RTVSPost2010Prop52
140
1.0
102
RTVSPost2010PropOp52
 70
     0
102
RTVSPost2010Prop53
 90
        2
102
RTVSPost2010PropOp53
 70
     1
102
RTVSPost2010Prop54
  1
strokes_ogs.tif
102
RTVSPost2010PropOp54
 70
     1
102
RTVSPost2010Prop55
280
     0
102
RTVSPost2010PropOp55
 70
     1
102
RTVSPost2010Prop56
140
1.0
102
RTVSPost2010PropOp56
 70
     1
102
RTVSPost2010Prop57
140
1.0
102
RTVSPost2010PropOp57
 70
     1
102
RTVSPropertyOp0
 70
     1
102
RTVSPropertyOp1
 70
     1
102
RTVSPropertyOp2
 70
     1
102
RTVSPropertyOp3
 70
     1
102
RTVSPropertyOp4
 70
     1
102
RTVSPropertyOp5
 70
     1
102
RTVSPropertyOp6
 70
     1
102
RTVSPropertyOp7
 70
     1
102
RTVSPropertyOp8
 70
     1
102
RTVSPropertyOp9
 70
     1
102
RTVSPropertyOp10
 70
     1
102
RTVSPropertyOp11
 70
     1
102
RTVSPropertyOp12
 70
     1
102
RTVSPropertyOp13
 70
     1
102
RTVSPropertyOp14
 70
     1
102
RTVSPropertyOp15
 70
     1
102
RTVSPropertyOp16
 70
     1
102
RTVSPropertyOp17
 70
     1
102
RTVSPropertyOp18
 70
     1
102
RTVSPropertyOp19
 70
     1
102
RTVSPropertyOp20
 70
     1
102
RTVSPropertyOp21
 70
     1
102
RTVSPropertyOp22
 70
     1
102
RTVSPropertyOp23
 70
     1
102
RTVSPropertyOp24
 70
     1
102
RTVSPropertyOp25
 70
     1
102
RTVSPropertyOp26
 70
     1
102
RTVSPropertyOp27
 70
     1
102
RTVSPropertyOp28
 70
     1
102
RTVSPropertyOp29
 70
     1
102
RTVSPropertyOp30
 70
     1
102
RTVSPropertyOp31
 70
     1
102
RTVSPropertyOp32
 70
     1
102
RTVSPropertyOp33
 70
     1
102
RTVSPropertyOp34
 70
     1
102
RTVSPropertyOp35
 70
     1
102
RTVSPropertyOp36
 70
     1
102
RTVSPropertyOp37
 70
     1
102
RTVSPropertyOp38
 70
     1
102
RTVSPropertyOp39
 70
     1
102
RTVSPropertyOp40
 70
     1
102
RTVSPropertyOp41
 70
     1
102
RTVSPropertyOp42
 70
     1
102
RTVSPropertyOp43
 70
     1
102
RTVSPropertyOp44
 70
     1
102
RTVSPropertyOp45
 70
     1
102
RTVSPropertyOp46
 70
     1
102
RTVSPropertyOp47
 70
     1
102
RTVSPropertyOp48
 70
     1
102
RTVSPropertyOp49
 70
     1
102
RTVSPropertyOp50
 70
     1
102
RTVSPropertyOp51
 70
     0
102
RTVSPropertyOp52
 70
     0
102
RTVSPropertyOp53
 70
     1
102
RTVSPropertyOp54
 70
     1
102
RTVSPropertyOp55
 70
     1
102
RTVSPropertyOp56
 70
     1
102
RTVSPropertyOp57
 70
     1
102
RTVSPropertyOp58
 70
     1
102
RTVSPropertyOp59
 70
     1
102
RTVSPropertyOp60
 70
     1
102
RTVSPropertyOp61
 70
     1
102
RTVSPropertyOp62
 70
     1
  0
XRECORD
  5
853B
102
{ACAD_REACTORS
330
853A
102
}
330
853A
100
AcDbXrecord
280
     1
102
RTVSPost2010Prop28
280
     0
102
RTVSPost2010PropOp28
 70
     1
102
RTVSPost2010Prop29
280
     1
102
RTVSPost2010PropOp29
 70
     1
102
RTVSPost2010Prop30
280
     1
102
RTVSPost2010PropOp30
 70
     1
102
RTVSPost2010Prop31
280
     0
102
RTVSPost2010PropOp31
 70
     1
102
RTVSPost2010Prop32
280
     0
102
RTVSPost2010PropOp32
 70
     1
102
RTVSPost2010Prop33
280
     0
102
RTVSPost2010PropOp33
 70
     1
102
RTVSPost2010Prop34
280
     0
102
RTVSPost2010PropOp34
 70
     1
102
RTVSPost2010Prop35
280
     0
102
RTVSPost2010PropOp35
 70
     1
102
RTVSPost2010Prop36
280
     0
102
RTVSPost2010PropOp36
 70
     1
102
RTVSPost2010Prop37
 90
       50
102
RTVSPost2010PropOp37
 70
     1
102
RTVSPost2010Prop38
140
0.0
102
RTVSPost2010PropOp38
 70
     1
102
RTVSPost2010Prop39
140
1.0
102
RTVSPost2010PropOp39
 70
     1
102
RTVSPost2010Prop40
 90
        0
102
RTVSPost2010PropOp40
 70
     1
102
RTVSPost2010Prop41ColorIndex
 90
       18
102
RTVSPost2010Prop41ColorRGB
 90
        0
102
RTVSPost2010PropOp41
 70
     1
102
RTVSPost2010Prop42
 90
       50
102
RTVSPost2010PropOp42
 70
     1
102
RTVSPost2010Prop43
 90
        3
102
RTVSPost2010PropOp43
 70
     1
102
RTVSPost2010Prop44ColorIndex
 90
        5
102
RTVSPost2010Prop44ColorRGB
 90
      255
102
RTVSPost2010PropOp44
 70
     1
102
RTVSPost2010Prop45
280
     0
102
RTVSPost2010PropOp45
 70
     1
102
RTVSPost2010Prop46
 90
       50
102
RTVSPost2010PropOp46
 70
     1
102
RTVSPost2010Prop47
 90
       50
102
RTVSPost2010PropOp47
 70
     1
102
RTVSPost2010Prop48
 90
       50
102
RTVSPost2010PropOp48
 70
     1
102
RTVSPost2010Prop49
280
     0
102
RTVSPost2010PropOp49
 70
     1
102
RTVSPost2010Prop50
 90
       50
102
RTVSPost2010PropOp50
 70
     1
102
RTVSPost2010Prop51ColorIndex
 90
      256
102
RTVSPost2010Prop51ColorRGB
 90
-16777216
102
RTVSPost2010PropOp51
 70
     0
102
RTVSPost2010Prop52
140
1.0
102
RTVSPost2010PropOp52
 70
     0
102
RTVSPost2010Prop53
 90
        2
102
RTVSPost2010PropOp53
 70
     1
102
RTVSPost2010Prop54
  1
strokes_ogs.tif
102
RTVSPost2010PropOp54
 70
     1
102
RTVSPost2010Prop55
280
     0
102
RTVSPost2010PropOp55
 70
     1
102
RTVSPost2010Prop56
140
1.0
102
RTVSPost2010PropOp56
 70
     1
102
RTVSPost2010Prop57
140
1.0
102
RTVSPost2010PropOp57
 70
     1
102
RTVSPropertyOp0
 70
     1
102
RTVSPropertyOp1
 70
     1
102
RTVSPropertyOp2
 70
     1
102
RTVSPropertyOp3
 70
     1
102
RTVSPropertyOp4
 70
     1
102
RTVSPropertyOp5
 70
     1
102
RTVSPropertyOp6
 70
     1
102
RTVSPropertyOp7
 70
     1
102
RTVSPropertyOp8
 70
     1
102
RTVSPropertyOp9
 70
     1
102
RTVSPropertyOp10
 70
     1
102
RTVSPropertyOp11
 70
     1
102
RTVSPropertyOp12
 70
     1
102
RTVSPropertyOp13
 70
     1
102
RTVSPropertyOp14
 70
     1
102
RTVSPropertyOp15
 70
     1
102
RTVSPropertyOp16
 70
     1
102
RTVSPropertyOp17
 70
     1
102
RTVSPropertyOp18
 70
     1
102
RTVSPropertyOp19
 70
     1
102
RTVSPropertyOp20
 70
     1
102
RTVSPropertyOp21
 70
     1
102
RTVSPropertyOp22
 70
     1
102
RTVSPropertyOp23
 70
     1
102
RTVSPropertyOp24
 70
     1
102
RTVSPropertyOp25
 70
     1
102
RTVSPropertyOp26
 70
     1
102
RTVSPropertyOp27
 70
     1
102
RTVSPropertyOp28
 70
     1
102
RTVSPropertyOp29
 70
     1
102
RTVSPropertyOp30
 70
     1
102
RTVSPropertyOp31
 70
     1
102
RTVSPropertyOp32
 70
     1
102
RTVSPropertyOp33
 70
     1
102
RTVSPropertyOp34
 70
     1
102
RTVSPropertyOp35
 70
     1
102
RTVSPropertyOp36
 70
     1
102
RTVSPropertyOp37
 70
     1
102
RTVSPropertyOp38
 70
     1
102
RTVSPropertyOp39
 70
     1
102
RTVSPropertyOp40
 70
     1
102
RTVSPropertyOp41
 70
     1
102
RTVSPropertyOp42
 70
     1
102
RTVSPropertyOp43
 70
     1
102
RTVSPropertyOp44
 70
     1
102
RTVSPropertyOp45
 70
     1
102
RTVSPropertyOp46
 70
     1
102
RTVSPropertyOp47
 70
     1
102
RTVSPropertyOp48
 70
     1
102
RTVSPropertyOp49
 70
     1
102
RTVSPropertyOp50
 70
     1
102
RTVSPropertyOp51
 70
     0
102
RTVSPropertyOp52
 70
     0
102
RTVSPropertyOp53
 70
     1
102
RTVSPropertyOp54
 70
     1
102
RTVSPropertyOp55
 70
     1
102
RTVSPropertyOp56
 70
     1
102
RTVSPropertyOp57
 70
     1
102
RTVSPropertyOp58
 70
     1
102
RTVSPropertyOp59
 70
     1
102
RTVSPropertyOp60
 70
     1
102
RTVSPropertyOp61
 70
     1
102
RTVSPropertyOp62
 70
     1
  0
XRECORD
  5
8543
102
{ACAD_REACTORS
330
8542
102
}
330
8542
100
AcDbXrecord
280
     1
102
RTVSPost2010Prop28
280
     0
102
RTVSPost2010PropOp28
 70
     1
102
RTVSPost2010Prop29
280
     1
102
RTVSPost2010PropOp29
 70
     1
102
RTVSPost2010Prop30
280
     1
102
RTVSPost2010PropOp30
 70
     1
102
RTVSPost2010Prop31
280
     0
102
RTVSPost2010PropOp31
 70
     1
102
RTVSPost2010Prop32
280
     0
102
RTVSPost2010PropOp32
 70
     1
102
RTVSPost2010Prop33
280
     0
102
RTVSPost2010PropOp33
 70
     1
102
RTVSPost2010Prop34
280
     0
102
RTVSPost2010PropOp34
 70
     1
102
RTVSPost2010Prop35
280
     0
102
RTVSPost2010PropOp35
 70
     1
102
RTVSPost2010Prop36
280
     0
102
RTVSPost2010PropOp36
 70
     1
102
RTVSPost2010Prop37
 90
       50
102
RTVSPost2010PropOp37
 70
     1
102
RTVSPost2010Prop38
140
0.0
102
RTVSPost2010PropOp38
 70
     1
102
RTVSPost2010Prop39
140
1.0
102
RTVSPost2010PropOp39
 70
     1
102
RTVSPost2010Prop40
 90
        0
102
RTVSPost2010PropOp40
 70
     1
102
RTVSPost2010Prop41ColorIndex
 90
       18
102
RTVSPost2010Prop41ColorRGB
 90
        0
102
RTVSPost2010PropOp41
 70
     1
102
RTVSPost2010Prop42
 90
       50
102
RTVSPost2010PropOp42
 70
     1
102
RTVSPost2010Prop43
 90
        3
102
RTVSPost2010PropOp43
 70
     1
102
RTVSPost2010Prop44ColorIndex
 90
        5
102
RTVSPost2010Prop44ColorRGB
 90
      255
102
RTVSPost2010PropOp44
 70
     1
102
RTVSPost2010Prop45
280
     0
102
RTVSPost2010PropOp45
 70
     1
102
RTVSPost2010Prop46
 90
       50
102
RTVSPost2010PropOp46
 70
     1
102
RTVSPost2010Prop47
 90
       50
102
RTVSPost2010PropOp47
 70
     1
102
RTVSPost2010Prop48
 90
       50
102
RTVSPost2010PropOp48
 70
     1
102
RTVSPost2010Prop49
280
     0
102
RTVSPost2010PropOp49
 70
     1
102
RTVSPost2010Prop50
 90
       50
102
RTVSPost2010PropOp50
 70
     1
102
RTVSPost2010Prop51ColorIndex
 90
      256
102
RTVSPost2010Prop51ColorRGB
 90
-16777216
102
RTVSPost2010PropOp51
 70
     0
102
RTVSPost2010Prop52
140
1.0
102
RTVSPost2010PropOp52
 70
     0
102
RTVSPost2010Prop53
 90
        2
102
RTVSPost2010PropOp53
 70
     1
102
RTVSPost2010Prop54
  1
strokes_ogs.tif
102
RTVSPost2010PropOp54
 70
     1
102
RTVSPost2010Prop55
280
     0
102
RTVSPost2010PropOp55
 70
     1
102
RTVSPost2010Prop56
140
1.0
102
RTVSPost2010PropOp56
 70
     1
102
RTVSPost2010Prop57
140
1.0
102
RTVSPost2010PropOp57
 70
     1
102
RTVSPropertyOp0
 70
     1
102
RTVSPropertyOp1
 70
     1
102
RTVSPropertyOp2
 70
     1
102
RTVSPropertyOp3
 70
     1
102
RTVSPropertyOp4
 70
     1
102
RTVSPropertyOp5
 70
     1
102
RTVSPropertyOp6
 70
     1
102
RTVSPropertyOp7
 70
     1
102
RTVSPropertyOp8
 70
     1
102
RTVSPropertyOp9
 70
     1
102
RTVSPropertyOp10
 70
     1
102
RTVSPropertyOp11
 70
     1
102
RTVSPropertyOp12
 70
     1
102
RTVSPropertyOp13
 70
     1
102
RTVSPropertyOp14
 70
     1
102
RTVSPropertyOp15
 70
     1
102
RTVSPropertyOp16
 70
     1
102
RTVSPropertyOp17
 70
     1
102
RTVSPropertyOp18
 70
     1
102
RTVSPropertyOp19
 70
     1
102
RTVSPropertyOp20
 70
     1
102
RTVSPropertyOp21
 70
     1
102
RTVSPropertyOp22
 70
     1
102
RTVSPropertyOp23
 70
     1
102
RTVSPropertyOp24
 70
     1
102
RTVSPropertyOp25
 70
     1
102
RTVSPropertyOp26
 70
     1
102
RTVSPropertyOp27
 70
     1
102
RTVSPropertyOp28
 70
     1
102
RTVSPropertyOp29
 70
     1
102
RTVSPropertyOp30
 70
     1
102
RTVSPropertyOp31
 70
     1
102
RTVSPropertyOp32
 70
     1
102
RTVSPropertyOp33
 70
     1
102
RTVSPropertyOp34
 70
     1
102
RTVSPropertyOp35
 70
     1
102
RTVSPropertyOp36
 70
     1
102
RTVSPropertyOp37
 70
     1
102
RTVSPropertyOp38
 70
     1
102
RTVSPropertyOp39
 70
     1
102
RTVSPropertyOp40
 70
     1
102
RTVSPropertyOp41
 70
     1
102
RTVSPropertyOp42
 70
     1
102
RTVSPropertyOp43
 70
     1
102
RTVSPropertyOp44
 70
     1
102
RTVSPropertyOp45
 70
     1
102
RTVSPropertyOp46
 70
     1
102
RTVSPropertyOp47
 70
     1
102
RTVSPropertyOp48
 70
     1
102
RTVSPropertyOp49
 70
     1
102
RTVSPropertyOp50
 70
     1
102
RTVSPropertyOp51
 70
     0
102
RTVSPropertyOp52
 70
     0
102
RTVSPropertyOp53
 70
     1
102
RTVSPropertyOp54
 70
     1
102
RTVSPropertyOp55
 70
     1
102
RTVSPropertyOp56
 70
     1
102
RTVSPropertyOp57
 70
     1
102
RTVSPropertyOp58
 70
     1
102
RTVSPropertyOp59
 70
     1
102
RTVSPropertyOp60
 70
     1
102
RTVSPropertyOp61
 70
     1
102
RTVSPropertyOp62
 70
     1
  0
XRECORD
  5
8535
102
{ACAD_REACTORS
330
8534
102
}
330
8534
100
AcDbXrecord
280
     1
102
RTVSPost2010Prop28
280
     0
102
RTVSPost2010PropOp28
 70
     1
102
RTVSPost2010Prop29
280
     1
102
RTVSPost2010PropOp29
 70
     1
102
RTVSPost2010Prop30
280
     1
102
RTVSPost2010PropOp30
 70
     1
102
RTVSPost2010Prop31
280
     0
102
RTVSPost2010PropOp31
 70
     1
102
RTVSPost2010Prop32
280
     0
102
RTVSPost2010PropOp32
 70
     1
102
RTVSPost2010Prop33
280
     0
102
RTVSPost2010PropOp33
 70
     1
102
RTVSPost2010Prop34
280
     0
102
RTVSPost2010PropOp34
 70
     1
102
RTVSPost2010Prop35
280
     0
102
RTVSPost2010PropOp35
 70
     1
102
RTVSPost2010Prop36
280
     0
102
RTVSPost2010PropOp36
 70
     1
102
RTVSPost2010Prop37
 90
       50
102
RTVSPost2010PropOp37
 70
     1
102
RTVSPost2010Prop38
140
0.0
102
RTVSPost2010PropOp38
 70
     1
102
RTVSPost2010Prop39
140
1.0
102
RTVSPost2010PropOp39
 70
     1
102
RTVSPost2010Prop40
 90
        0
102
RTVSPost2010PropOp40
 70
     1
102
RTVSPost2010Prop41ColorIndex
 90
       18
102
RTVSPost2010Prop41ColorRGB
 90
        0
102
RTVSPost2010PropOp41
 70
     1
102
RTVSPost2010Prop42
 90
       50
102
RTVSPost2010PropOp42
 70
     1
102
RTVSPost2010Prop43
 90
        3
102
RTVSPost2010PropOp43
 70
     1
102
RTVSPost2010Prop44ColorIndex
 90
        5
102
RTVSPost2010Prop44ColorRGB
 90
      255
102
RTVSPost2010PropOp44
 70
     1
102
RTVSPost2010Prop45
280
     0
102
RTVSPost2010PropOp45
 70
     1
102
RTVSPost2010Prop46
 90
       50
102
RTVSPost2010PropOp46
 70
     1
102
RTVSPost2010Prop47
 90
       50
102
RTVSPost2010PropOp47
 70
     1
102
RTVSPost2010Prop48
 90
       50
102
RTVSPost2010PropOp48
 70
     1
102
RTVSPost2010Prop49
280
     0
102
RTVSPost2010PropOp49
 70
     1
102
RTVSPost2010Prop50
 90
       50
102
RTVSPost2010PropOp50
 70
     1
102
RTVSPost2010Prop51ColorIndex
 90
      256
102
RTVSPost2010Prop51ColorRGB
 90
-16777216
102
RTVSPost2010PropOp51
 70
     0
102
RTVSPost2010Prop52
140
1.0
102
RTVSPost2010PropOp52
 70
     0
102
RTVSPost2010Prop53
 90
        2
102
RTVSPost2010PropOp53
 70
     1
102
RTVSPost2010Prop54
  1
strokes_ogs.tif
102
RTVSPost2010PropOp54
 70
     1
102
RTVSPost2010Prop55
280
     0
102
RTVSPost2010PropOp55
 70
     1
102
RTVSPost2010Prop56
140
1.0
102
RTVSPost2010PropOp56
 70
     1
102
RTVSPost2010Prop57
140
1.0
102
RTVSPost2010PropOp57
 70
     1
102
RTVSPropertyOp0
 70
     1
102
RTVSPropertyOp1
 70
     1
102
RTVSPropertyOp2
 70
     1
102
RTVSPropertyOp3
 70
     1
102
RTVSPropertyOp4
 70
     1
102
RTVSPropertyOp5
 70
     1
102
RTVSPropertyOp6
 70
     1
102
RTVSPropertyOp7
 70
     1
102
RTVSPropertyOp8
 70
     1
102
RTVSPropertyOp9
 70
     1
102
RTVSPropertyOp10
 70
     1
102
RTVSPropertyOp11
 70
     1
102
RTVSPropertyOp12
 70
     1
102
RTVSPropertyOp13
 70
     1
102
RTVSPropertyOp14
 70
     1
102
RTVSPropertyOp15
 70
     1
102
RTVSPropertyOp16
 70
     1
102
RTVSPropertyOp17
 70
     1
102
RTVSPropertyOp18
 70
     1
102
RTVSPropertyOp19
 70
     1
102
RTVSPropertyOp20
 70
     1
102
RTVSPropertyOp21
 70
     1
102
RTVSPropertyOp22
 70
     1
102
RTVSPropertyOp23
 70
     1
102
RTVSPropertyOp24
 70
     1
102
RTVSPropertyOp25
 70
     1
102
RTVSPropertyOp26
 70
     1
102
RTVSPropertyOp27
 70
     1
102
RTVSPropertyOp28
 70
     1
102
RTVSPropertyOp29
 70
     1
102
RTVSPropertyOp30
 70
     1
102
RTVSPropertyOp31
 70
     1
102
RTVSPropertyOp32
 70
     1
102
RTVSPropertyOp33
 70
     1
102
RTVSPropertyOp34
 70
     1
102
RTVSPropertyOp35
 70
     1
102
RTVSPropertyOp36
 70
     1
102
RTVSPropertyOp37
 70
     1
102
RTVSPropertyOp38
 70
     1
102
RTVSPropertyOp39
 70
     1
102
RTVSPropertyOp40
 70
     1
102
RTVSPropertyOp41
 70
     1
102
RTVSPropertyOp42
 70
     1
102
RTVSPropertyOp43
 70
     1
102
RTVSPropertyOp44
 70
     1
102
RTVSPropertyOp45
 70
     1
102
RTVSPropertyOp46
 70
     1
102
RTVSPropertyOp47
 70
     1
102
RTVSPropertyOp48
 70
     1
102
RTVSPropertyOp49
 70
     1
102
RTVSPropertyOp50
 70
     1
102
RTVSPropertyOp51
 70
     0
102
RTVSPropertyOp52
 70
     0
102
RTVSPropertyOp53
 70
     1
102
RTVSPropertyOp54
 70
     1
102
RTVSPropertyOp55
 70
     1
102
RTVSPropertyOp56
 70
     1
102
RTVSPropertyOp57
 70
     1
102
RTVSPropertyOp58
 70
     1
102
RTVSPropertyOp59
 70
     1
102
RTVSPropertyOp60
 70
     1
102
RTVSPropertyOp61
 70
     1
102
RTVSPropertyOp62
 70
     1
  0
XRECORD
  5
8539
102
{ACAD_REACTORS
330
8538
102
}
330
8538
100
AcDbXrecord
280
     1
102
RTVSPost2010Prop28
280
     0
102
RTVSPost2010PropOp28
 70
     1
102
RTVSPost2010Prop29
280
     1
102
RTVSPost2010PropOp29
 70
     1
102
RTVSPost2010Prop30
280
     1
102
RTVSPost2010PropOp30
 70
     1
102
RTVSPost2010Prop31
280
     0
102
RTVSPost2010PropOp31
 70
     1
102
RTVSPost2010Prop32
280
     0
102
RTVSPost2010PropOp32
 70
     1
102
RTVSPost2010Prop33
280
     0
102
RTVSPost2010PropOp33
 70
     1
102
RTVSPost2010Prop34
280
     0
102
RTVSPost2010PropOp34
 70
     1
102
RTVSPost2010Prop35
280
     0
102
RTVSPost2010PropOp35
 70
     1
102
RTVSPost2010Prop36
280
     0
102
RTVSPost2010PropOp36
 70
     1
102
RTVSPost2010Prop37
 90
       50
102
RTVSPost2010PropOp37
 70
     1
102
RTVSPost2010Prop38
140
0.0
102
RTVSPost2010PropOp38
 70
     1
102
RTVSPost2010Prop39
140
1.0
102
RTVSPost2010PropOp39
 70
     1
102
RTVSPost2010Prop40
 90
        0
102
RTVSPost2010PropOp40
 70
     1
102
RTVSPost2010Prop41ColorIndex
 90
       18
102
RTVSPost2010Prop41ColorRGB
 90
        0
102
RTVSPost2010PropOp41
 70
     1
102
RTVSPost2010Prop42
 90
       50
102
RTVSPost2010PropOp42
 70
     1
102
RTVSPost2010Prop43
 90
        3
102
RTVSPost2010PropOp43
 70
     1
102
RTVSPost2010Prop44ColorIndex
 90
        5
102
RTVSPost2010Prop44ColorRGB
 90
      255
102
RTVSPost2010PropOp44
 70
     1
102
RTVSPost2010Prop45
280
     0
102
RTVSPost2010PropOp45
 70
     1
102
RTVSPost2010Prop46
 90
       50
102
RTVSPost2010PropOp46
 70
     1
102
RTVSPost2010Prop47
 90
       50
102
RTVSPost2010PropOp47
 70
     1
102
RTVSPost2010Prop48
 90
       50
102
RTVSPost2010PropOp48
 70
     1
102
RTVSPost2010Prop49
280
     0
102
RTVSPost2010PropOp49
 70
     1
102
RTVSPost2010Prop50
 90
       50
102
RTVSPost2010PropOp50
 70
     1
102
RTVSPost2010Prop51ColorIndex
 90
      256
102
RTVSPost2010Prop51ColorRGB
 90
-16777216
102
RTVSPost2010PropOp51
 70
     0
102
RTVSPost2010Prop52
140
1.0
102
RTVSPost2010PropOp52
 70
     0
102
RTVSPost2010Prop53
 90
        2
102
RTVSPost2010PropOp53
 70
     1
102
RTVSPost2010Prop54
  1
strokes_ogs.tif
102
RTVSPost2010PropOp54
 70
     1
102
RTVSPost2010Prop55
280
     0
102
RTVSPost2010PropOp55
 70
     1
102
RTVSPost2010Prop56
140
1.0
102
RTVSPost2010PropOp56
 70
     1
102
RTVSPost2010Prop57
140
1.0
102
RTVSPost2010PropOp57
 70
     1
102
RTVSPropertyOp0
 70
     1
102
RTVSPropertyOp1
 70
     1
102
RTVSPropertyOp2
 70
     1
102
RTVSPropertyOp3
 70
     1
102
RTVSPropertyOp4
 70
     1
102
RTVSPropertyOp5
 70
     1
102
RTVSPropertyOp6
 70
     1
102
RTVSPropertyOp7
 70
     1
102
RTVSPropertyOp8
 70
     1
102
RTVSPropertyOp9
 70
     1
102
RTVSPropertyOp10
 70
     1
102
RTVSPropertyOp11
 70
     1
102
RTVSPropertyOp12
 70
     1
102
RTVSPropertyOp13
 70
     1
102
RTVSPropertyOp14
 70
     1
102
RTVSPropertyOp15
 70
     1
102
RTVSPropertyOp16
 70
     1
102
RTVSPropertyOp17
 70
     1
102
RTVSPropertyOp18
 70
     1
102
RTVSPropertyOp19
 70
     1
102
RTVSPropertyOp20
 70
     1
102
RTVSPropertyOp21
 70
     1
102
RTVSPropertyOp22
 70
     1
102
RTVSPropertyOp23
 70
     1
102
RTVSPropertyOp24
 70
     1
102
RTVSPropertyOp25
 70
     1
102
RTVSPropertyOp26
 70
     1
102
RTVSPropertyOp27
 70
     1
102
RTVSPropertyOp28
 70
     1
102
RTVSPropertyOp29
 70
     1
102
RTVSPropertyOp30
 70
     1
102
RTVSPropertyOp31
 70
     1
102
RTVSPropertyOp32
 70
     1
102
RTVSPropertyOp33
 70
     1
102
RTVSPropertyOp34
 70
     1
102
RTVSPropertyOp35
 70
     1
102
RTVSPropertyOp36
 70
     1
102
RTVSPropertyOp37
 70
     1
102
RTVSPropertyOp38
 70
     1
102
RTVSPropertyOp39
 70
     1
102
RTVSPropertyOp40
 70
     1
102
RTVSPropertyOp41
 70
     1
102
RTVSPropertyOp42
 70
     1
102
RTVSPropertyOp43
 70
     1
102
RTVSPropertyOp44
 70
     1
102
RTVSPropertyOp45
 70
     1
102
RTVSPropertyOp46
 70
     1
102
RTVSPropertyOp47
 70
     1
102
RTVSPropertyOp48
 70
     1
102
RTVSPropertyOp49
 70
     1
102
RTVSPropertyOp50
 70
     1
102
RTVSPropertyOp51
 70
     0
102
RTVSPropertyOp52
 70
     0
102
RTVSPropertyOp53
 70
     1
102
RTVSPropertyOp54
 70
     1
102
RTVSPropertyOp55
 70
     1
102
RTVSPropertyOp56
 70
     1
102
RTVSPropertyOp57
 70
     1
102
RTVSPropertyOp58
 70
     1
102
RTVSPropertyOp59
 70
     1
102
RTVSPropertyOp60
 70
     1
102
RTVSPropertyOp61
 70
     1
102
RTVSPropertyOp62
 70
     1
  0
XRECORD
  5
8553
102
{ACAD_REACTORS
330
8552
102
}
330
8552
100
AcDbXrecord
280
     1
102
RTVSPost2010Prop28
280
     0
102
RTVSPost2010PropOp28
 70
     1
102
RTVSPost2010Prop29
280
     1
102
RTVSPost2010PropOp29
 70
     1
102
RTVSPost2010Prop30
280
     1
102
RTVSPost2010PropOp30
 70
     1
102
RTVSPost2010Prop31
280
     0
102
RTVSPost2010PropOp31
 70
     1
102
RTVSPost2010Prop32
280
     0
102
RTVSPost2010PropOp32
 70
     1
102
RTVSPost2010Prop33
280
     0
102
RTVSPost2010PropOp33
 70
     1
102
RTVSPost2010Prop34
280
     0
102
RTVSPost2010PropOp34
 70
     1
102
RTVSPost2010Prop35
280
     0
102
RTVSPost2010PropOp35
 70
     1
102
RTVSPost2010Prop36
280
     0
102
RTVSPost2010PropOp36
 70
     1
102
RTVSPost2010Prop37
 90
       50
102
RTVSPost2010PropOp37
 70
     0
102
RTVSPost2010Prop38
140
0.0
102
RTVSPost2010PropOp38
 70
     0
102
RTVSPost2010Prop39
140
1.0
102
RTVSPost2010PropOp39
 70
     0
102
RTVSPost2010Prop40
 90
        0
102
RTVSPost2010PropOp40
 70
     0
102
RTVSPost2010Prop41ColorIndex
 90
       18
102
RTVSPost2010Prop41ColorRGB
 90
        0
102
RTVSPost2010PropOp41
 70
     0
102
RTVSPost2010Prop42
 90
       50
102
RTVSPost2010PropOp42
 70
     0
102
RTVSPost2010Prop43
 90
        3
102
RTVSPost2010PropOp43
 70
     0
102
RTVSPost2010Prop44ColorIndex
 90
        5
102
RTVSPost2010Prop44ColorRGB
 90
      255
102
RTVSPost2010PropOp44
 70
     0
102
RTVSPost2010Prop45
280
     0
102
RTVSPost2010PropOp45
 70
     1
102
RTVSPost2010Prop46
 90
       50
102
RTVSPost2010PropOp46
 70
     0
102
RTVSPost2010Prop47
 90
       50
102
RTVSPost2010PropOp47
 70
     0
102
RTVSPost2010Prop48
 90
       50
102
RTVSPost2010PropOp48
 70
     0
102
RTVSPost2010Prop49
280
     0
102
RTVSPost2010PropOp49
 70
     1
102
RTVSPost2010Prop50
 90
       50
102
RTVSPost2010PropOp50
 70
     0
102
RTVSPost2010Prop51ColorIndex
 90
      256
102
RTVSPost2010Prop51ColorRGB
 90
-16777216
102
RTVSPost2010PropOp51
 70
     0
102
RTVSPost2010Prop52
140
1.0
102
RTVSPost2010PropOp52
 70
     0
102
RTVSPost2010Prop53
 90
        2
102
RTVSPost2010PropOp53
 70
     0
102
RTVSPost2010Prop54
  1
strokes_ogs.tif
102
RTVSPost2010PropOp54
 70
     0
102
RTVSPost2010Prop55
280
     0
102
RTVSPost2010PropOp55
 70
     1
102
RTVSPost2010Prop56
140
1.0
102
RTVSPost2010PropOp56
 70
     0
102
RTVSPost2010Prop57
140
1.0
102
RTVSPost2010PropOp57
 70
     0
102
RTVSPropertyOp0
 70
     0
102
RTVSPropertyOp1
 70
     0
102
RTVSPropertyOp2
 70
     0
102
RTVSPropertyOp3
 70
     0
102
RTVSPropertyOp4
 70
     0
102
RTVSPropertyOp5
 70
     0
102
RTVSPropertyOp6
 70
     0
102
RTVSPropertyOp7
 70
     0
102
RTVSPropertyOp8
 70
     0
102
RTVSPropertyOp9
 70
     0
102
RTVSPropertyOp10
 70
     0
102
RTVSPropertyOp11
 70
     0
102
RTVSPropertyOp12
 70
     0
102
RTVSPropertyOp13
 70
     0
102
RTVSPropertyOp14
 70
     2
102
RTVSPropertyOp15
 70
     0
102
RTVSPropertyOp16
 70
     0
102
RTVSPropertyOp17
 70
     0
102
RTVSPropertyOp18
 70
     0
102
RTVSPropertyOp19
 70
     0
102
RTVSPropertyOp20
 70
     0
102
RTVSPropertyOp21
 70
     0
102
RTVSPropertyOp22
 70
     0
102
RTVSPropertyOp23
 70
     0
102
RTVSPropertyOp24
 70
     0
102
RTVSPropertyOp25
 70
     0
102
RTVSPropertyOp26
 70
     0
102
RTVSPropertyOp27
 70
     0
102
RTVSPropertyOp28
 70
     1
102
RTVSPropertyOp29
 70
     1
102
RTVSPropertyOp30
 70
     1
102
RTVSPropertyOp31
 70
     1
102
RTVSPropertyOp32
 70
     1
102
RTVSPropertyOp33
 70
     1
102
RTVSPropertyOp34
 70
     1
102
RTVSPropertyOp35
 70
     1
102
RTVSPropertyOp36
 70
     1
102
RTVSPropertyOp37
 70
     0
102
RTVSPropertyOp38
 70
     0
102
RTVSPropertyOp39
 70
     0
102
RTVSPropertyOp40
 70
     0
102
RTVSPropertyOp41
 70
     0
102
RTVSPropertyOp42
 70
     0
102
RTVSPropertyOp43
 70
     0
102
RTVSPropertyOp44
 70
     0
102
RTVSPropertyOp45
 70
     1
102
RTVSPropertyOp46
 70
     0
102
RTVSPropertyOp47
 70
     0
102
RTVSPropertyOp48
 70
     0
102
RTVSPropertyOp49
 70
     1
102
RTVSPropertyOp50
 70
     0
102
RTVSPropertyOp51
 70
     0
102
RTVSPropertyOp52
 70
     0
102
RTVSPropertyOp53
 70
     0
102
RTVSPropertyOp54
 70
     0
102
RTVSPropertyOp55
 70
     1
102
RTVSPropertyOp56
 70
     0
102
RTVSPropertyOp57
 70
     0
102
RTVSPropertyOp58
 70
     0
102
RTVSPropertyOp59
 70
     0
102
RTVSPropertyOp60
 70
     0
102
RTVSPropertyOp61
 70
     0
102
RTVSPropertyOp62
 70
     0
  0
XRECORD
  5
8541
102
{ACAD_REACTORS
330
8540
102
}
330
8540
100
AcDbXrecord
280
     1
102
RTVSPost2010Prop28
280
     0
102
RTVSPost2010PropOp28
 70
     1
102
RTVSPost2010Prop29
280
     1
102
RTVSPost2010PropOp29
 70
     1
102
RTVSPost2010Prop30
280
     1
102
RTVSPost2010PropOp30
 70
     1
102
RTVSPost2010Prop31
280
     0
102
RTVSPost2010PropOp31
 70
     1
102
RTVSPost2010Prop32
280
     0
102
RTVSPost2010PropOp32
 70
     1
102
RTVSPost2010Prop33
280
     0
102
RTVSPost2010PropOp33
 70
     1
102
RTVSPost2010Prop34
280
     0
102
RTVSPost2010PropOp34
 70
     1
102
RTVSPost2010Prop35
280
     0
102
RTVSPost2010PropOp35
 70
     1
102
RTVSPost2010Prop36
280
     0
102
RTVSPost2010PropOp36
 70
     1
102
RTVSPost2010Prop37
 90
       50
102
RTVSPost2010PropOp37
 70
     1
102
RTVSPost2010Prop38
140
0.0
102
RTVSPost2010PropOp38
 70
     1
102
RTVSPost2010Prop39
140
1.0
102
RTVSPost2010PropOp39
 70
     1
102
RTVSPost2010Prop40
 90
        0
102
RTVSPost2010PropOp40
 70
     1
102
RTVSPost2010Prop41ColorIndex
 90
       18
102
RTVSPost2010Prop41ColorRGB
 90
        0
102
RTVSPost2010PropOp41
 70
     1
102
RTVSPost2010Prop42
 90
       50
102
RTVSPost2010PropOp42
 70
     1
102
RTVSPost2010Prop43
 90
        3
102
RTVSPost2010PropOp43
 70
     1
102
RTVSPost2010Prop44ColorIndex
 90
        5
102
RTVSPost2010Prop44ColorRGB
 90
      255
102
RTVSPost2010PropOp44
 70
     1
102
RTVSPost2010Prop45
280
     0
102
RTVSPost2010PropOp45
 70
     1
102
RTVSPost2010Prop46
 90
       50
102
RTVSPost2010PropOp46
 70
     1
102
RTVSPost2010Prop47
 90
       50
102
RTVSPost2010PropOp47
 70
     1
102
RTVSPost2010Prop48
 90
       50
102
RTVSPost2010PropOp48
 70
     1
102
RTVSPost2010Prop49
280
     0
102
RTVSPost2010PropOp49
 70
     1
102
RTVSPost2010Prop50
 90
       50
102
RTVSPost2010PropOp50
 70
     1
102
RTVSPost2010Prop51ColorIndex
 90
      256
102
RTVSPost2010Prop51ColorRGB
 90
-16777216
102
RTVSPost2010PropOp51
 70
     0
102
RTVSPost2010Prop52
140
1.0
102
RTVSPost2010PropOp52
 70
     0
102
RTVSPost2010Prop53
 90
        2
102
RTVSPost2010PropOp53
 70
     1
102
RTVSPost2010Prop54
  1
strokes_ogs.tif
102
RTVSPost2010PropOp54
 70
     1
102
RTVSPost2010Prop55
280
     0
102
RTVSPost2010PropOp55
 70
     1
102
RTVSPost2010Prop56
140
1.0
102
RTVSPost2010PropOp56
 70
     1
102
RTVSPost2010Prop57
140
1.0
102
RTVSPost2010PropOp57
 70
     1
102
RTVSPropertyOp0
 70
     1
102
RTVSPropertyOp1
 70
     1
102
RTVSPropertyOp2
 70
     1
102
RTVSPropertyOp3
 70
     1
102
RTVSPropertyOp4
 70
     1
102
RTVSPropertyOp5
 70
     1
102
RTVSPropertyOp6
 70
     1
102
RTVSPropertyOp7
 70
     1
102
RTVSPropertyOp8
 70
     1
102
RTVSPropertyOp9
 70
     1
102
RTVSPropertyOp10
 70
     1
102
RTVSPropertyOp11
 70
     1
102
RTVSPropertyOp12
 70
     1
102
RTVSPropertyOp13
 70
     1
102
RTVSPropertyOp14
 70
     1
102
RTVSPropertyOp15
 70
     1
102
RTVSPropertyOp16
 70
     1
102
RTVSPropertyOp17
 70
     1
102
RTVSPropertyOp18
 70
     1
102
RTVSPropertyOp19
 70
     1
102
RTVSPropertyOp20
 70
     1
102
RTVSPropertyOp21
 70
     1
102
RTVSPropertyOp22
 70
     1
102
RTVSPropertyOp23
 70
     1
102
RTVSPropertyOp24
 70
     1
102
RTVSPropertyOp25
 70
     1
102
RTVSPropertyOp26
 70
     1
102
RTVSPropertyOp27
 70
     1
102
RTVSPropertyOp28
 70
     1
102
RTVSPropertyOp29
 70
     1
102
RTVSPropertyOp30
 70
     1
102
RTVSPropertyOp31
 70
     1
102
RTVSPropertyOp32
 70
     1
102
RTVSPropertyOp33
 70
     1
102
RTVSPropertyOp34
 70
     1
102
RTVSPropertyOp35
 70
     1
102
RTVSPropertyOp36
 70
     1
102
RTVSPropertyOp37
 70
     1
102
RTVSPropertyOp38
 70
     1
102
RTVSPropertyOp39
 70
     1
102
RTVSPropertyOp40
 70
     1
102
RTVSPropertyOp41
 70
     1
102
RTVSPropertyOp42
 70
     1
102
RTVSPropertyOp43
 70
     1
102
RTVSPropertyOp44
 70
     1
102
RTVSPropertyOp45
 70
     1
102
RTVSPropertyOp46
 70
     1
102
RTVSPropertyOp47
 70
     1
102
RTVSPropertyOp48
 70
     1
102
RTVSPropertyOp49
 70
     1
102
RTVSPropertyOp50
 70
     1
102
RTVSPropertyOp51
 70
     0
102
RTVSPropertyOp52
 70
     0
102
RTVSPropertyOp53
 70
     1
102
RTVSPropertyOp54
 70
     1
102
RTVSPropertyOp55
 70
     1
102
RTVSPropertyOp56
 70
     1
102
RTVSPropertyOp57
 70
     1
102
RTVSPropertyOp58
 70
     1
102
RTVSPropertyOp59
 70
     1
102
RTVSPropertyOp60
 70
     1
102
RTVSPropertyOp61
 70
     1
102
RTVSPropertyOp62
 70
     1
  0
XRECORD
  5
8525
102
{ACAD_REACTORS
330
8524
102
}
330
8524
100
AcDbXrecord
280
     1
102
RTVSPost2010Prop28
280
     0
102
RTVSPost2010PropOp28
 70
     1
102
RTVSPost2010Prop29
280
     1
102
RTVSPost2010PropOp29
 70
     1
102
RTVSPost2010Prop30
280
     1
102
RTVSPost2010PropOp30
 70
     1
102
RTVSPost2010Prop31
280
     0
102
RTVSPost2010PropOp31
 70
     1
102
RTVSPost2010Prop32
280
     0
102
RTVSPost2010PropOp32
 70
     1
102
RTVSPost2010Prop33
280
     0
102
RTVSPost2010PropOp33
 70
     1
102
RTVSPost2010Prop34
280
     0
102
RTVSPost2010PropOp34
 70
     1
102
RTVSPost2010Prop35
280
     0
102
RTVSPost2010PropOp35
 70
     1
102
RTVSPost2010Prop36
280
     0
102
RTVSPost2010PropOp36
 70
     1
102
RTVSPost2010Prop37
 90
       50
102
RTVSPost2010PropOp37
 70
     1
102
RTVSPost2010Prop38
140
0.0
102
RTVSPost2010PropOp38
 70
     1
102
RTVSPost2010Prop39
140
1.0
102
RTVSPost2010PropOp39
 70
     1
102
RTVSPost2010Prop40
 90
        0
102
RTVSPost2010PropOp40
 70
     1
102
RTVSPost2010Prop41ColorIndex
 90
       18
102
RTVSPost2010Prop41ColorRGB
 90
        0
102
RTVSPost2010PropOp41
 70
     1
102
RTVSPost2010Prop42
 90
       50
102
RTVSPost2010PropOp42
 70
     1
102
RTVSPost2010Prop43
 90
        3
102
RTVSPost2010PropOp43
 70
     1
102
RTVSPost2010Prop44ColorIndex
 90
        5
102
RTVSPost2010Prop44ColorRGB
 90
      255
102
RTVSPost2010PropOp44
 70
     1
102
RTVSPost2010Prop45
280
     0
102
RTVSPost2010PropOp45
 70
     1
102
RTVSPost2010Prop46
 90
       50
102
RTVSPost2010PropOp46
 70
     1
102
RTVSPost2010Prop47
 90
       50
102
RTVSPost2010PropOp47
 70
     1
102
RTVSPost2010Prop48
 90
       50
102
RTVSPost2010PropOp48
 70
     1
102
RTVSPost2010Prop49
280
     0
102
RTVSPost2010PropOp49
 70
     1
102
RTVSPost2010Prop50
 90
       50
102
RTVSPost2010PropOp50
 70
     1
102
RTVSPost2010Prop51ColorIndex
 90
      256
102
RTVSPost2010Prop51ColorRGB
 90
-16777216
102
RTVSPost2010PropOp51
 70
     0
102
RTVSPost2010Prop52
140
1.0
102
RTVSPost2010PropOp52
 70
     0
102
RTVSPost2010Prop53
 90
        2
102
RTVSPost2010PropOp53
 70
     1
102
RTVSPost2010Prop54
  1
strokes_ogs.tif
102
RTVSPost2010PropOp54
 70
     1
102
RTVSPost2010Prop55
280
     0
102
RTVSPost2010PropOp55
 70
     1
102
RTVSPost2010Prop56
140
1.0
102
RTVSPost2010PropOp56
 70
     1
102
RTVSPost2010Prop57
140
1.0
102
RTVSPost2010PropOp57
 70
     1
102
RTVSPropertyOp0
 70
     1
102
RTVSPropertyOp1
 70
     1
102
RTVSPropertyOp2
 70
     1
102
RTVSPropertyOp3
 70
     1
102
RTVSPropertyOp4
 70
     1
102
RTVSPropertyOp5
 70
     1
102
RTVSPropertyOp6
 70
     1
102
RTVSPropertyOp7
 70
     1
102
RTVSPropertyOp8
 70
     1
102
RTVSPropertyOp9
 70
     1
102
RTVSPropertyOp10
 70
     1
102
RTVSPropertyOp11
 70
     1
102
RTVSPropertyOp12
 70
     1
102
RTVSPropertyOp13
 70
     1
102
RTVSPropertyOp14
 70
     1
102
RTVSPropertyOp15
 70
     1
102
RTVSPropertyOp16
 70
     1
102
RTVSPropertyOp17
 70
     1
102
RTVSPropertyOp18
 70
     1
102
RTVSPropertyOp19
 70
     1
102
RTVSPropertyOp20
 70
     1
102
RTVSPropertyOp21
 70
     1
102
RTVSPropertyOp22
 70
     1
102
RTVSPropertyOp23
 70
     1
102
RTVSPropertyOp24
 70
     1
102
RTVSPropertyOp25
 70
     1
102
RTVSPropertyOp26
 70
     1
102
RTVSPropertyOp27
 70
     1
102
RTVSPropertyOp28
 70
     1
102
RTVSPropertyOp29
 70
     1
102
RTVSPropertyOp30
 70
     1
102
RTVSPropertyOp31
 70
     1
102
RTVSPropertyOp32
 70
     1
102
RTVSPropertyOp33
 70
     1
102
RTVSPropertyOp34
 70
     1
102
RTVSPropertyOp35
 70
     1
102
RTVSPropertyOp36
 70
     1
102
RTVSPropertyOp37
 70
     1
102
RTVSPropertyOp38
 70
     1
102
RTVSPropertyOp39
 70
     1
102
RTVSPropertyOp40
 70
     1
102
RTVSPropertyOp41
 70
     1
102
RTVSPropertyOp42
 70
     1
102
RTVSPropertyOp43
 70
     1
102
RTVSPropertyOp44
 70
     1
102
RTVSPropertyOp45
 70
     1
102
RTVSPropertyOp46
 70
     1
102
RTVSPropertyOp47
 70
     1
102
RTVSPropertyOp48
 70
     1
102
RTVSPropertyOp49
 70
     1
102
RTVSPropertyOp50
 70
     1
102
RTVSPropertyOp51
 70
     0
102
RTVSPropertyOp52
 70
     0
102
RTVSPropertyOp53
 70
     1
102
RTVSPropertyOp54
 70
     1
102
RTVSPropertyOp55
 70
     1
102
RTVSPropertyOp56
 70
     1
102
RTVSPropertyOp57
 70
     1
102
RTVSPropertyOp58
 70
     1
102
RTVSPropertyOp59
 70
     1
102
RTVSPropertyOp60
 70
     1
102
RTVSPropertyOp61
 70
     1
102
RTVSPropertyOp62
 70
     1
  0
XRECORD
  5
8527
102
{ACAD_REACTORS
330
8526
102
}
330
8526
100
AcDbXrecord
280
     1
102
RTVSPost2010Prop28
280
     0
102
RTVSPost2010PropOp28
 70
     1
102
RTVSPost2010Prop29
280
     1
102
RTVSPost2010PropOp29
 70
     1
102
RTVSPost2010Prop30
280
     1
102
RTVSPost2010PropOp30
 70
     1
102
RTVSPost2010Prop31
280
     0
102
RTVSPost2010PropOp31
 70
     1
102
RTVSPost2010Prop32
280
     0
102
RTVSPost2010PropOp32
 70
     1
102
RTVSPost2010Prop33
280
     0
102
RTVSPost2010PropOp33
 70
     1
102
RTVSPost2010Prop34
280
     0
102
RTVSPost2010PropOp34
 70
     1
102
RTVSPost2010Prop35
280
     0
102
RTVSPost2010PropOp35
 70
     1
102
RTVSPost2010Prop36
280
     0
102
RTVSPost2010PropOp36
 70
     1
102
RTVSPost2010Prop37
 90
       50
102
RTVSPost2010PropOp37
 70
     1
102
RTVSPost2010Prop38
140
0.0
102
RTVSPost2010PropOp38
 70
     1
102
RTVSPost2010Prop39
140
1.0
102
RTVSPost2010PropOp39
 70
     1
102
RTVSPost2010Prop40
 90
        0
102
RTVSPost2010PropOp40
 70
     1
102
RTVSPost2010Prop41ColorIndex
 90
       18
102
RTVSPost2010Prop41ColorRGB
 90
        0
102
RTVSPost2010PropOp41
 70
     1
102
RTVSPost2010Prop42
 90
       50
102
RTVSPost2010PropOp42
 70
     1
102
RTVSPost2010Prop43
 90
        3
102
RTVSPost2010PropOp43
 70
     1
102
RTVSPost2010Prop44ColorIndex
 90
        5
102
RTVSPost2010Prop44ColorRGB
 90
      255
102
RTVSPost2010PropOp44
 70
     1
102
RTVSPost2010Prop45
280
     0
102
RTVSPost2010PropOp45
 70
     1
102
RTVSPost2010Prop46
 90
       50
102
RTVSPost2010PropOp46
 70
     1
102
RTVSPost2010Prop47
 90
       50
102
RTVSPost2010PropOp47
 70
     1
102
RTVSPost2010Prop48
 90
       50
102
RTVSPost2010PropOp48
 70
     1
102
RTVSPost2010Prop49
280
     0
102
RTVSPost2010PropOp49
 70
     1
102
RTVSPost2010Prop50
 90
       50
102
RTVSPost2010PropOp50
 70
     1
102
RTVSPost2010Prop51ColorIndex
 90
      256
102
RTVSPost2010Prop51ColorRGB
 90
-16777216
102
RTVSPost2010PropOp51
 70
     0
102
RTVSPost2010Prop52
140
1.0
102
RTVSPost2010PropOp52
 70
     0
102
RTVSPost2010Prop53
 90
        2
102
RTVSPost2010PropOp53
 70
     1
102
RTVSPost2010Prop54
  1
strokes_ogs.tif
102
RTVSPost2010PropOp54
 70
     1
102
RTVSPost2010Prop55
280
     0
102
RTVSPost2010PropOp55
 70
     1
102
RTVSPost2010Prop56
140
1.0
102
RTVSPost2010PropOp56
 70
     1
102
RTVSPost2010Prop57
140
1.0
102
RTVSPost2010PropOp57
 70
     1
102
RTVSPropertyOp0
 70
     1
102
RTVSPropertyOp1
 70
     1
102
RTVSPropertyOp2
 70
     1
102
RTVSPropertyOp3
 70
     1
102
RTVSPropertyOp4
 70
     1
102
RTVSPropertyOp5
 70
     1
102
RTVSPropertyOp6
 70
     1
102
RTVSPropertyOp7
 70
     1
102
RTVSPropertyOp8
 70
     1
102
RTVSPropertyOp9
 70
     1
102
RTVSPropertyOp10
 70
     1
102
RTVSPropertyOp11
 70
     1
102
RTVSPropertyOp12
 70
     1
102
RTVSPropertyOp13
 70
     1
102
RTVSPropertyOp14
 70
     1
102
RTVSPropertyOp15
 70
     1
102
RTVSPropertyOp16
 70
     1
102
RTVSPropertyOp17
 70
     1
102
RTVSPropertyOp18
 70
     1
102
RTVSPropertyOp19
 70
     1
102
RTVSPropertyOp20
 70
     1
102
RTVSPropertyOp21
 70
     1
102
RTVSPropertyOp22
 70
     1
102
RTVSPropertyOp23
 70
     1
102
RTVSPropertyOp24
 70
     1
102
RTVSPropertyOp25
 70
     1
102
RTVSPropertyOp26
 70
     1
102
RTVSPropertyOp27
 70
     1
102
RTVSPropertyOp28
 70
     1
102
RTVSPropertyOp29
 70
     1
102
RTVSPropertyOp30
 70
     1
102
RTVSPropertyOp31
 70
     1
102
RTVSPropertyOp32
 70
     1
102
RTVSPropertyOp33
 70
     1
102
RTVSPropertyOp34
 70
     1
102
RTVSPropertyOp35
 70
     1
102
RTVSPropertyOp36
 70
     1
102
RTVSPropertyOp37
 70
     1
102
RTVSPropertyOp38
 70
     1
102
RTVSPropertyOp39
 70
     1
102
RTVSPropertyOp40
 70
     1
102
RTVSPropertyOp41
 70
     1
102
RTVSPropertyOp42
 70
     1
102
RTVSPropertyOp43
 70
     1
102
RTVSPropertyOp44
 70
     1
102
RTVSPropertyOp45
 70
     1
102
RTVSPropertyOp46
 70
     1
102
RTVSPropertyOp47
 70
     1
102
RTVSPropertyOp48
 70
     1
102
RTVSPropertyOp49
 70
     1
102
RTVSPropertyOp50
 70
     1
102
RTVSPropertyOp51
 70
     0
102
RTVSPropertyOp52
 70
     0
102
RTVSPropertyOp53
 70
     1
102
RTVSPropertyOp54
 70
     1
102
RTVSPropertyOp55
 70
     1
102
RTVSPropertyOp56
 70
     1
102
RTVSPropertyOp57
 70
     1
102
RTVSPropertyOp58
 70
     1
102
RTVSPropertyOp59
 70
     1
102
RTVSPropertyOp60
 70
     1
102
RTVSPropertyOp61
 70
     1
102
RTVSPropertyOp62
 70
     1
  0
XRECORD
  5
8529
102
{ACAD_REACTORS
330
8528
102
}
330
8528
100
AcDbXrecord
280
     1
102
RTVSPost2010Prop28
280
     0
102
RTVSPost2010PropOp28
 70
     1
102
RTVSPost2010Prop29
280
     1
102
RTVSPost2010PropOp29
 70
     1
102
RTVSPost2010Prop30
280
     1
102
RTVSPost2010PropOp30
 70
     1
102
RTVSPost2010Prop31
280
     0
102
RTVSPost2010PropOp31
 70
     1
102
RTVSPost2010Prop32
280
     0
102
RTVSPost2010PropOp32
 70
     1
102
RTVSPost2010Prop33
280
     0
102
RTVSPost2010PropOp33
 70
     1
102
RTVSPost2010Prop34
280
     0
102
RTVSPost2010PropOp34
 70
     1
102
RTVSPost2010Prop35
280
     0
102
RTVSPost2010PropOp35
 70
     1
102
RTVSPost2010Prop36
280
     0
102
RTVSPost2010PropOp36
 70
     1
102
RTVSPost2010Prop37
 90
       50
102
RTVSPost2010PropOp37
 70
     1
102
RTVSPost2010Prop38
140
0.0
102
RTVSPost2010PropOp38
 70
     1
102
RTVSPost2010Prop39
140
1.0
102
RTVSPost2010PropOp39
 70
     1
102
RTVSPost2010Prop40
 90
        0
102
RTVSPost2010PropOp40
 70
     1
102
RTVSPost2010Prop41ColorIndex
 90
       18
102
RTVSPost2010Prop41ColorRGB
 90
        0
102
RTVSPost2010PropOp41
 70
     1
102
RTVSPost2010Prop42
 90
       50
102
RTVSPost2010PropOp42
 70
     1
102
RTVSPost2010Prop43
 90
        3
102
RTVSPost2010PropOp43
 70
     1
102
RTVSPost2010Prop44ColorIndex
 90
        5
102
RTVSPost2010Prop44ColorRGB
 90
      255
102
RTVSPost2010PropOp44
 70
     1
102
RTVSPost2010Prop45
280
     0
102
RTVSPost2010PropOp45
 70
     1
102
RTVSPost2010Prop46
 90
       50
102
RTVSPost2010PropOp46
 70
     1
102
RTVSPost2010Prop47
 90
       50
102
RTVSPost2010PropOp47
 70
     1
102
RTVSPost2010Prop48
 90
       50
102
RTVSPost2010PropOp48
 70
     1
102
RTVSPost2010Prop49
280
     0
102
RTVSPost2010PropOp49
 70
     1
102
RTVSPost2010Prop50
 90
       50
102
RTVSPost2010PropOp50
 70
     1
102
RTVSPost2010Prop51ColorIndex
 90
      256
102
RTVSPost2010Prop51ColorRGB
 90
-16777216
102
RTVSPost2010PropOp51
 70
     0
102
RTVSPost2010Prop52
140
1.0
102
RTVSPost2010PropOp52
 70
     0
102
RTVSPost2010Prop53
 90
        2
102
RTVSPost2010PropOp53
 70
     1
102
RTVSPost2010Prop54
  1
strokes_ogs.tif
102
RTVSPost2010PropOp54
 70
     1
102
RTVSPost2010Prop55
280
     0
102
RTVSPost2010PropOp55
 70
     1
102
RTVSPost2010Prop56
140
1.0
102
RTVSPost2010PropOp56
 70
     1
102
RTVSPost2010Prop57
140
1.0
102
RTVSPost2010PropOp57
 70
     1
102
RTVSPropertyOp0
 70
     1
102
RTVSPropertyOp1
 70
     1
102
RTVSPropertyOp2
 70
     1
102
RTVSPropertyOp3
 70
     1
102
RTVSPropertyOp4
 70
     1
102
RTVSPropertyOp5
 70
     1
102
RTVSPropertyOp6
 70
     1
102
RTVSPropertyOp7
 70
     1
102
RTVSPropertyOp8
 70
     1
102
RTVSPropertyOp9
 70
     1
102
RTVSPropertyOp10
 70
     1
102
RTVSPropertyOp11
 70
     1
102
RTVSPropertyOp12
 70
     1
102
RTVSPropertyOp13
 70
     1
102
RTVSPropertyOp14
 70
     1
102
RTVSPropertyOp15
 70
     1
102
RTVSPropertyOp16
 70
     1
102
RTVSPropertyOp17
 70
     1
102
RTVSPropertyOp18
 70
     1
102
RTVSPropertyOp19
 70
     1
102
RTVSPropertyOp20
 70
     1
102
RTVSPropertyOp21
 70
     1
102
RTVSPropertyOp22
 70
     1
102
RTVSPropertyOp23
 70
     1
102
RTVSPropertyOp24
 70
     1
102
RTVSPropertyOp25
 70
     1
102
RTVSPropertyOp26
 70
     1
102
RTVSPropertyOp27
 70
     1
102
RTVSPropertyOp28
 70
     1
102
RTVSPropertyOp29
 70
     1
102
RTVSPropertyOp30
 70
     1
102
RTVSPropertyOp31
 70
     1
102
RTVSPropertyOp32
 70
     1
102
RTVSPropertyOp33
 70
     1
102
RTVSPropertyOp34
 70
     1
102
RTVSPropertyOp35
 70
     1
102
RTVSPropertyOp36
 70
     1
102
RTVSPropertyOp37
 70
     1
102
RTVSPropertyOp38
 70
     1
102
RTVSPropertyOp39
 70
     1
102
RTVSPropertyOp40
 70
     1
102
RTVSPropertyOp41
 70
     1
102
RTVSPropertyOp42
 70
     1
102
RTVSPropertyOp43
 70
     1
102
RTVSPropertyOp44
 70
     1
102
RTVSPropertyOp45
 70
     1
102
RTVSPropertyOp46
 70
     1
102
RTVSPropertyOp47
 70
     1
102
RTVSPropertyOp48
 70
     1
102
RTVSPropertyOp49
 70
     1
102
RTVSPropertyOp50
 70
     1
102
RTVSPropertyOp51
 70
     0
102
RTVSPropertyOp52
 70
     0
102
RTVSPropertyOp53
 70
     1
102
RTVSPropertyOp54
 70
     1
102
RTVSPropertyOp55
 70
     1
102
RTVSPropertyOp56
 70
     1
102
RTVSPropertyOp57
 70
     1
102
RTVSPropertyOp58
 70
     1
102
RTVSPropertyOp59
 70
     1
102
RTVSPropertyOp60
 70
     1
102
RTVSPropertyOp61
 70
     1
102
RTVSPropertyOp62
 70
     1
  0
XRECORD
  5
852B
102
{ACAD_REACTORS
330
852A
102
}
330
852A
100
AcDbXrecord
280
     1
102
RTVSPost2010Prop28
280
     0
102
RTVSPost2010PropOp28
 70
     1
102
RTVSPost2010Prop29
280
     1
102
RTVSPost2010PropOp29
 70
     1
102
RTVSPost2010Prop30
280
     1
102
RTVSPost2010PropOp30
 70
     1
102
RTVSPost2010Prop31
280
     0
102
RTVSPost2010PropOp31
 70
     1
102
RTVSPost2010Prop32
280
     0
102
RTVSPost2010PropOp32
 70
     1
102
RTVSPost2010Prop33
280
     0
102
RTVSPost2010PropOp33
 70
     1
102
RTVSPost2010Prop34
280
     0
102
RTVSPost2010PropOp34
 70
     1
102
RTVSPost2010Prop35
280
     0
102
RTVSPost2010PropOp35
 70
     1
102
RTVSPost2010Prop36
280
     0
102
RTVSPost2010PropOp36
 70
     1
102
RTVSPost2010Prop37
 90
       50
102
RTVSPost2010PropOp37
 70
     1
102
RTVSPost2010Prop38
140
0.0
102
RTVSPost2010PropOp38
 70
     1
102
RTVSPost2010Prop39
140
1.0
102
RTVSPost2010PropOp39
 70
     1
102
RTVSPost2010Prop40
 90
        0
102
RTVSPost2010PropOp40
 70
     1
102
RTVSPost2010Prop41ColorIndex
 90
       18
102
RTVSPost2010Prop41ColorRGB
 90
        0
102
RTVSPost2010PropOp41
 70
     1
102
RTVSPost2010Prop42
 90
       50
102
RTVSPost2010PropOp42
 70
     1
102
RTVSPost2010Prop43
 90
        3
102
RTVSPost2010PropOp43
 70
     1
102
RTVSPost2010Prop44ColorIndex
 90
        5
102
RTVSPost2010Prop44ColorRGB
 90
      255
102
RTVSPost2010PropOp44
 70
     1
102
RTVSPost2010Prop45
280
     0
102
RTVSPost2010PropOp45
 70
     1
102
RTVSPost2010Prop46
 90
       50
102
RTVSPost2010PropOp46
 70
     1
102
RTVSPost2010Prop47
 90
       50
102
RTVSPost2010PropOp47
 70
     1
102
RTVSPost2010Prop48
 90
       50
102
RTVSPost2010PropOp48
 70
     1
102
RTVSPost2010Prop49
280
     0
102
RTVSPost2010PropOp49
 70
     1
102
RTVSPost2010Prop50
 90
       50
102
RTVSPost2010PropOp50
 70
     1
102
RTVSPost2010Prop51ColorIndex
 90
      256
102
RTVSPost2010Prop51ColorRGB
 90
-16777216
102
RTVSPost2010PropOp51
 70
     0
102
RTVSPost2010Prop52
140
1.0
102
RTVSPost2010PropOp52
 70
     0
102
RTVSPost2010Prop53
 90
        2
102
RTVSPost2010PropOp53
 70
     1
102
RTVSPost2010Prop54
  1
strokes_ogs.tif
102
RTVSPost2010PropOp54
 70
     1
102
RTVSPost2010Prop55
280
     0
102
RTVSPost2010PropOp55
 70
     1
102
RTVSPost2010Prop56
140
1.0
102
RTVSPost2010PropOp56
 70
     1
102
RTVSPost2010Prop57
140
1.0
102
RTVSPost2010PropOp57
 70
     1
102
RTVSPropertyOp0
 70
     1
102
RTVSPropertyOp1
 70
     1
102
RTVSPropertyOp2
 70
     1
102
RTVSPropertyOp3
 70
     1
102
RTVSPropertyOp4
 70
     1
102
RTVSPropertyOp5
 70
     1
102
RTVSPropertyOp6
 70
     1
102
RTVSPropertyOp7
 70
     1
102
RTVSPropertyOp8
 70
     1
102
RTVSPropertyOp9
 70
     1
102
RTVSPropertyOp10
 70
     1
102
RTVSPropertyOp11
 70
     1
102
RTVSPropertyOp12
 70
     1
102
RTVSPropertyOp13
 70
     1
102
RTVSPropertyOp14
 70
     1
102
RTVSPropertyOp15
 70
     1
102
RTVSPropertyOp16
 70
     1
102
RTVSPropertyOp17
 70
     1
102
RTVSPropertyOp18
 70
     1
102
RTVSPropertyOp19
 70
     1
102
RTVSPropertyOp20
 70
     1
102
RTVSPropertyOp21
 70
     1
102
RTVSPropertyOp22
 70
     1
102
RTVSPropertyOp23
 70
     1
102
RTVSPropertyOp24
 70
     1
102
RTVSPropertyOp25
 70
     1
102
RTVSPropertyOp26
 70
     1
102
RTVSPropertyOp27
 70
     1
102
RTVSPropertyOp28
 70
     1
102
RTVSPropertyOp29
 70
     1
102
RTVSPropertyOp30
 70
     1
102
RTVSPropertyOp31
 70
     1
102
RTVSPropertyOp32
 70
     1
102
RTVSPropertyOp33
 70
     1
102
RTVSPropertyOp34
 70
     1
102
RTVSPropertyOp35
 70
     1
102
RTVSPropertyOp36
 70
     1
102
RTVSPropertyOp37
 70
     1
102
RTVSPropertyOp38
 70
     1
102
RTVSPropertyOp39
 70
     1
102
RTVSPropertyOp40
 70
     1
102
RTVSPropertyOp41
 70
     1
102
RTVSPropertyOp42
 70
     1
102
RTVSPropertyOp43
 70
     1
102
RTVSPropertyOp44
 70
     1
102
RTVSPropertyOp45
 70
     1
102
RTVSPropertyOp46
 70
     1
102
RTVSPropertyOp47
 70
     1
102
RTVSPropertyOp48
 70
     1
102
RTVSPropertyOp49
 70
     1
102
RTVSPropertyOp50
 70
     1
102
RTVSPropertyOp51
 70
     0
102
RTVSPropertyOp52
 70
     0
102
RTVSPropertyOp53
 70
     1
102
RTVSPropertyOp54
 70
     1
102
RTVSPropertyOp55
 70
     1
102
RTVSPropertyOp56
 70
     1
102
RTVSPropertyOp57
 70
     1
102
RTVSPropertyOp58
 70
     1
102
RTVSPropertyOp59
 70
     1
102
RTVSPropertyOp60
 70
     1
102
RTVSPropertyOp61
 70
     1
102
RTVSPropertyOp62
 70
     1
  0
XRECORD
  5
8533
102
{ACAD_REACTORS
330
8532
102
}
330
8532
100
AcDbXrecord
280
     1
102
RTVSPost2010Prop28
280
     0
102
RTVSPost2010PropOp28
 70
     1
102
RTVSPost2010Prop29
280
     1
102
RTVSPost2010PropOp29
 70
     1
102
RTVSPost2010Prop30
280
     1
102
RTVSPost2010PropOp30
 70
     1
102
RTVSPost2010Prop31
280
     0
102
RTVSPost2010PropOp31
 70
     1
102
RTVSPost2010Prop32
280
     0
102
RTVSPost2010PropOp32
 70
     1
102
RTVSPost2010Prop33
280
     0
102
RTVSPost2010PropOp33
 70
     1
102
RTVSPost2010Prop34
280
     0
102
RTVSPost2010PropOp34
 70
     1
102
RTVSPost2010Prop35
280
     0
102
RTVSPost2010PropOp35
 70
     1
102
RTVSPost2010Prop36
280
     0
102
RTVSPost2010PropOp36
 70
     1
102
RTVSPost2010Prop37
 90
       50
102
RTVSPost2010PropOp37
 70
     1
102
RTVSPost2010Prop38
140
0.0
102
RTVSPost2010PropOp38
 70
     1
102
RTVSPost2010Prop39
140
1.0
102
RTVSPost2010PropOp39
 70
     1
102
RTVSPost2010Prop40
 90
        0
102
RTVSPost2010PropOp40
 70
     1
102
RTVSPost2010Prop41ColorIndex
 90
       18
102
RTVSPost2010Prop41ColorRGB
 90
        0
102
RTVSPost2010PropOp41
 70
     1
102
RTVSPost2010Prop42
 90
       50
102
RTVSPost2010PropOp42
 70
     1
102
RTVSPost2010Prop43
 90
        3
102
RTVSPost2010PropOp43
 70
     1
102
RTVSPost2010Prop44ColorIndex
 90
        5
102
RTVSPost2010Prop44ColorRGB
 90
      255
102
RTVSPost2010PropOp44
 70
     1
102
RTVSPost2010Prop45
280
     0
102
RTVSPost2010PropOp45
 70
     1
102
RTVSPost2010Prop46
 90
       50
102
RTVSPost2010PropOp46
 70
     1
102
RTVSPost2010Prop47
 90
       50
102
RTVSPost2010PropOp47
 70
     1
102
RTVSPost2010Prop48
 90
       50
102
RTVSPost2010PropOp48
 70
     1
102
RTVSPost2010Prop49
280
     0
102
RTVSPost2010PropOp49
 70
     1
102
RTVSPost2010Prop50
 90
       50
102
RTVSPost2010PropOp50
 70
     1
102
RTVSPost2010Prop51ColorIndex
 90
      256
102
RTVSPost2010Prop51ColorRGB
 90
-16777216
102
RTVSPost2010PropOp51
 70
     0
102
RTVSPost2010Prop52
140
1.0
102
RTVSPost2010PropOp52
 70
     0
102
RTVSPost2010Prop53
 90
        2
102
RTVSPost2010PropOp53
 70
     1
102
RTVSPost2010Prop54
  1
strokes_ogs.tif
102
RTVSPost2010PropOp54
 70
     1
102
RTVSPost2010Prop55
280
     0
102
RTVSPost2010PropOp55
 70
     1
102
RTVSPost2010Prop56
140
1.0
102
RTVSPost2010PropOp56
 70
     1
102
RTVSPost2010Prop57
140
1.0
102
RTVSPost2010PropOp57
 70
     1
102
RTVSPropertyOp0
 70
     1
102
RTVSPropertyOp1
 70
     1
102
RTVSPropertyOp2
 70
     1
102
RTVSPropertyOp3
 70
     1
102
RTVSPropertyOp4
 70
     1
102
RTVSPropertyOp5
 70
     1
102
RTVSPropertyOp6
 70
     1
102
RTVSPropertyOp7
 70
     1
102
RTVSPropertyOp8
 70
     1
102
RTVSPropertyOp9
 70
     1
102
RTVSPropertyOp10
 70
     1
102
RTVSPropertyOp11
 70
     1
102
RTVSPropertyOp12
 70
     1
102
RTVSPropertyOp13
 70
     1
102
RTVSPropertyOp14
 70
     1
102
RTVSPropertyOp15
 70
     1
102
RTVSPropertyOp16
 70
     1
102
RTVSPropertyOp17
 70
     1
102
RTVSPropertyOp18
 70
     1
102
RTVSPropertyOp19
 70
     1
102
RTVSPropertyOp20
 70
     1
102
RTVSPropertyOp21
 70
     1
102
RTVSPropertyOp22
 70
     1
102
RTVSPropertyOp23
 70
     1
102
RTVSPropertyOp24
 70
     1
102
RTVSPropertyOp25
 70
     1
102
RTVSPropertyOp26
 70
     1
102
RTVSPropertyOp27
 70
     1
102
RTVSPropertyOp28
 70
     1
102
RTVSPropertyOp29
 70
     1
102
RTVSPropertyOp30
 70
     1
102
RTVSPropertyOp31
 70
     1
102
RTVSPropertyOp32
 70
     1
102
RTVSPropertyOp33
 70
     1
102
RTVSPropertyOp34
 70
     1
102
RTVSPropertyOp35
 70
     1
102
RTVSPropertyOp36
 70
     1
102
RTVSPropertyOp37
 70
     1
102
RTVSPropertyOp38
 70
     1
102
RTVSPropertyOp39
 70
     1
102
RTVSPropertyOp40
 70
     1
102
RTVSPropertyOp41
 70
     1
102
RTVSPropertyOp42
 70
     1
102
RTVSPropertyOp43
 70
     1
102
RTVSPropertyOp44
 70
     1
102
RTVSPropertyOp45
 70
     1
102
RTVSPropertyOp46
 70
     1
102
RTVSPropertyOp47
 70
     1
102
RTVSPropertyOp48
 70
     1
102
RTVSPropertyOp49
 70
     1
102
RTVSPropertyOp50
 70
     1
102
RTVSPropertyOp51
 70
     0
102
RTVSPropertyOp52
 70
     0
102
RTVSPropertyOp53
 70
     1
102
RTVSPropertyOp54
 70
     1
102
RTVSPropertyOp55
 70
     1
102
RTVSPropertyOp56
 70
     1
102
RTVSPropertyOp57
 70
     1
102
RTVSPropertyOp58
 70
     1
102
RTVSPropertyOp59
 70
     1
102
RTVSPropertyOp60
 70
     1
102
RTVSPropertyOp61
 70
     1
102
RTVSPropertyOp62
 70
     1
  0
XRECORD
  5
854F
102
{ACAD_REACTORS
330
854E
102
}
330
854E
100
AcDbXrecord
280
     1
102
RTVSPost2010Prop28
280
     0
102
RTVSPost2010PropOp28
 70
     1
102
RTVSPost2010Prop29
280
     1
102
RTVSPost2010PropOp29
 70
     1
102
RTVSPost2010Prop30
280
     1
102
RTVSPost2010PropOp30
 70
     1
102
RTVSPost2010Prop31
280
     0
102
RTVSPost2010PropOp31
 70
     1
102
RTVSPost2010Prop32
280
     0
102
RTVSPost2010PropOp32
 70
     1
102
RTVSPost2010Prop33
280
     0
102
RTVSPost2010PropOp33
 70
     1
102
RTVSPost2010Prop34
280
     0
102
RTVSPost2010PropOp34
 70
     1
102
RTVSPost2010Prop35
280
     0
102
RTVSPost2010PropOp35
 70
     1
102
RTVSPost2010Prop36
280
     0
102
RTVSPost2010PropOp36
 70
     1
102
RTVSPost2010Prop37
 90
       50
102
RTVSPost2010PropOp37
 70
     0
102
RTVSPost2010Prop38
140
0.0
102
RTVSPost2010PropOp38
 70
     0
102
RTVSPost2010Prop39
140
1.0
102
RTVSPost2010PropOp39
 70
     0
102
RTVSPost2010Prop40
 90
        0
102
RTVSPost2010PropOp40
 70
     0
102
RTVSPost2010Prop41ColorIndex
 90
       18
102
RTVSPost2010Prop41ColorRGB
 90
        0
102
RTVSPost2010PropOp41
 70
     0
102
RTVSPost2010Prop42
 90
       50
102
RTVSPost2010PropOp42
 70
     0
102
RTVSPost2010Prop43
 90
        3
102
RTVSPost2010PropOp43
 70
     0
102
RTVSPost2010Prop44ColorIndex
 90
        5
102
RTVSPost2010Prop44ColorRGB
 90
      255
102
RTVSPost2010PropOp44
 70
     0
102
RTVSPost2010Prop45
280
     0
102
RTVSPost2010PropOp45
 70
     1
102
RTVSPost2010Prop46
 90
       50
102
RTVSPost2010PropOp46
 70
     0
102
RTVSPost2010Prop47
 90
       50
102
RTVSPost2010PropOp47
 70
     0
102
RTVSPost2010Prop48
 90
       50
102
RTVSPost2010PropOp48
 70
     0
102
RTVSPost2010Prop49
280
     0
102
RTVSPost2010PropOp49
 70
     1
102
RTVSPost2010Prop50
 90
       50
102
RTVSPost2010PropOp50
 70
     0
102
RTVSPost2010Prop51ColorIndex
 90
      256
102
RTVSPost2010Prop51ColorRGB
 90
-16777216
102
RTVSPost2010PropOp51
 70
     0
102
RTVSPost2010Prop52
140
1.0
102
RTVSPost2010PropOp52
 70
     0
102
RTVSPost2010Prop53
 90
        2
102
RTVSPost2010PropOp53
 70
     0
102
RTVSPost2010Prop54
  1
strokes_ogs.tif
102
RTVSPost2010PropOp54
 70
     0
102
RTVSPost2010Prop55
280
     0
102
RTVSPost2010PropOp55
 70
     1
102
RTVSPost2010Prop56
140
1.0
102
RTVSPost2010PropOp56
 70
     0
102
RTVSPost2010Prop57
140
1.0
102
RTVSPost2010PropOp57
 70
     0
102
RTVSPropertyOp0
 70
     0
102
RTVSPropertyOp1
 70
     0
102
RTVSPropertyOp2
 70
     0
102
RTVSPropertyOp3
 70
     0
102
RTVSPropertyOp4
 70
     0
102
RTVSPropertyOp5
 70
     0
102
RTVSPropertyOp6
 70
     0
102
RTVSPropertyOp7
 70
     0
102
RTVSPropertyOp8
 70
     0
102
RTVSPropertyOp9
 70
     0
102
RTVSPropertyOp10
 70
     0
102
RTVSPropertyOp11
 70
     0
102
RTVSPropertyOp12
 70
     0
102
RTVSPropertyOp13
 70
     0
102
RTVSPropertyOp14
 70
     2
102
RTVSPropertyOp15
 70
     0
102
RTVSPropertyOp16
 70
     0
102
RTVSPropertyOp17
 70
     0
102
RTVSPropertyOp18
 70
     0
102
RTVSPropertyOp19
 70
     0
102
RTVSPropertyOp20
 70
     0
102
RTVSPropertyOp21
 70
     0
102
RTVSPropertyOp22
 70
     0
102
RTVSPropertyOp23
 70
     0
102
RTVSPropertyOp24
 70
     0
102
RTVSPropertyOp25
 70
     0
102
RTVSPropertyOp26
 70
     0
102
RTVSPropertyOp27
 70
     0
102
RTVSPropertyOp28
 70
     1
102
RTVSPropertyOp29
 70
     1
102
RTVSPropertyOp30
 70
     1
102
RTVSPropertyOp31
 70
     1
102
RTVSPropertyOp32
 70
     1
102
RTVSPropertyOp33
 70
     1
102
RTVSPropertyOp34
 70
     1
102
RTVSPropertyOp35
 70
     1
102
RTVSPropertyOp36
 70
     1
102
RTVSPropertyOp37
 70
     0
102
RTVSPropertyOp38
 70
     0
102
RTVSPropertyOp39
 70
     0
102
RTVSPropertyOp40
 70
     0
102
RTVSPropertyOp41
 70
     0
102
RTVSPropertyOp42
 70
     0
102
RTVSPropertyOp43
 70
     0
102
RTVSPropertyOp44
 70
     0
102
RTVSPropertyOp45
 70
     1
102
RTVSPropertyOp46
 70
     0
102
RTVSPropertyOp47
 70
     0
102
RTVSPropertyOp48
 70
     0
102
RTVSPropertyOp49
 70
     1
102
RTVSPropertyOp50
 70
     0
102
RTVSPropertyOp51
 70
     0
102
RTVSPropertyOp52
 70
     0
102
RTVSPropertyOp53
 70
     0
102
RTVSPropertyOp54
 70
     0
102
RTVSPropertyOp55
 70
     1
102
RTVSPropertyOp56
 70
     0
102
RTVSPropertyOp57
 70
     0
102
RTVSPropertyOp58
 70
     0
102
RTVSPropertyOp59
 70
     0
102
RTVSPropertyOp60
 70
     0
102
RTVSPropertyOp61
 70
     0
102
RTVSPropertyOp62
 70
     0
  0
XRECORD
  5
853F
102
{ACAD_REACTORS
330
853E
102
}
330
853E
100
AcDbXrecord
280
     1
102
RTVSPost2010Prop28
280
     0
102
RTVSPost2010PropOp28
 70
     1
102
RTVSPost2010Prop29
280
     1
102
RTVSPost2010PropOp29
 70
     1
102
RTVSPost2010Prop30
280
     1
102
RTVSPost2010PropOp30
 70
     1
102
RTVSPost2010Prop31
280
     0
102
RTVSPost2010PropOp31
 70
     1
102
RTVSPost2010Prop32
280
     0
102
RTVSPost2010PropOp32
 70
     1
102
RTVSPost2010Prop33
280
     0
102
RTVSPost2010PropOp33
 70
     1
102
RTVSPost2010Prop34
280
     0
102
RTVSPost2010PropOp34
 70
     1
102
RTVSPost2010Prop35
280
     0
102
RTVSPost2010PropOp35
 70
     1
102
RTVSPost2010Prop36
280
     0
102
RTVSPost2010PropOp36
 70
     1
102
RTVSPost2010Prop37
 90
       50
102
RTVSPost2010PropOp37
 70
     1
102
RTVSPost2010Prop38
140
0.0
102
RTVSPost2010PropOp38
 70
     1
102
RTVSPost2010Prop39
140
1.0
102
RTVSPost2010PropOp39
 70
     1
102
RTVSPost2010Prop40
 90
        0
102
RTVSPost2010PropOp40
 70
     1
102
RTVSPost2010Prop41ColorIndex
 90
       18
102
RTVSPost2010Prop41ColorRGB
 90
        0
102
RTVSPost2010PropOp41
 70
     1
102
RTVSPost2010Prop42
 90
       50
102
RTVSPost2010PropOp42
 70
     1
102
RTVSPost2010Prop43
 90
        3
102
RTVSPost2010PropOp43
 70
     1
102
RTVSPost2010Prop44ColorIndex
 90
        5
102
RTVSPost2010Prop44ColorRGB
 90
      255
102
RTVSPost2010PropOp44
 70
     1
102
RTVSPost2010Prop45
280
     0
102
RTVSPost2010PropOp45
 70
     1
102
RTVSPost2010Prop46
 90
       50
102
RTVSPost2010PropOp46
 70
     1
102
RTVSPost2010Prop47
 90
       50
102
RTVSPost2010PropOp47
 70
     1
102
RTVSPost2010Prop48
 90
       50
102
RTVSPost2010PropOp48
 70
     1
102
RTVSPost2010Prop49
280
     0
102
RTVSPost2010PropOp49
 70
     1
102
RTVSPost2010Prop50
 90
       50
102
RTVSPost2010PropOp50
 70
     1
102
RTVSPost2010Prop51ColorIndex
 90
      256
102
RTVSPost2010Prop51ColorRGB
 90
-16777216
102
RTVSPost2010PropOp51
 70
     0
102
RTVSPost2010Prop52
140
1.0
102
RTVSPost2010PropOp52
 70
     0
102
RTVSPost2010Prop53
 90
        2
102
RTVSPost2010PropOp53
 70
     1
102
RTVSPost2010Prop54
  1
strokes_ogs.tif
102
RTVSPost2010PropOp54
 70
     1
102
RTVSPost2010Prop55
280
     0
102
RTVSPost2010PropOp55
 70
     1
102
RTVSPost2010Prop56
140
1.0
102
RTVSPost2010PropOp56
 70
     1
102
RTVSPost2010Prop57
140
1.0
102
RTVSPost2010PropOp57
 70
     1
102
RTVSPropertyOp0
 70
     1
102
RTVSPropertyOp1
 70
     1
102
RTVSPropertyOp2
 70
     1
102
RTVSPropertyOp3
 70
     1
102
RTVSPropertyOp4
 70
     1
102
RTVSPropertyOp5
 70
     1
102
RTVSPropertyOp6
 70
     1
102
RTVSPropertyOp7
 70
     1
102
RTVSPropertyOp8
 70
     1
102
RTVSPropertyOp9
 70
     1
102
RTVSPropertyOp10
 70
     1
102
RTVSPropertyOp11
 70
     1
102
RTVSPropertyOp12
 70
     1
102
RTVSPropertyOp13
 70
     1
102
RTVSPropertyOp14
 70
     1
102
RTVSPropertyOp15
 70
     1
102
RTVSPropertyOp16
 70
     1
102
RTVSPropertyOp17
 70
     1
102
RTVSPropertyOp18
 70
     1
102
RTVSPropertyOp19
 70
     1
102
RTVSPropertyOp20
 70
     1
102
RTVSPropertyOp21
 70
     1
102
RTVSPropertyOp22
 70
     1
102
RTVSPropertyOp23
 70
     1
102
RTVSPropertyOp24
 70
     1
102
RTVSPropertyOp25
 70
     1
102
RTVSPropertyOp26
 70
     1
102
RTVSPropertyOp27
 70
     1
102
RTVSPropertyOp28
 70
     1
102
RTVSPropertyOp29
 70
     1
102
RTVSPropertyOp30
 70
     1
102
RTVSPropertyOp31
 70
     1
102
RTVSPropertyOp32
 70
     1
102
RTVSPropertyOp33
 70
     1
102
RTVSPropertyOp34
 70
     1
102
RTVSPropertyOp35
 70
     1
102
RTVSPropertyOp36
 70
     1
102
RTVSPropertyOp37
 70
     1
102
RTVSPropertyOp38
 70
     1
102
RTVSPropertyOp39
 70
     1
102
RTVSPropertyOp40
 70
     1
102
RTVSPropertyOp41
 70
     1
102
RTVSPropertyOp42
 70
     1
102
RTVSPropertyOp43
 70
     1
102
RTVSPropertyOp44
 70
     1
102
RTVSPropertyOp45
 70
     1
102
RTVSPropertyOp46
 70
     1
102
RTVSPropertyOp47
 70
     1
102
RTVSPropertyOp48
 70
     1
102
RTVSPropertyOp49
 70
     1
102
RTVSPropertyOp50
 70
     1
102
RTVSPropertyOp51
 70
     0
102
RTVSPropertyOp52
 70
     0
102
RTVSPropertyOp53
 70
     1
102
RTVSPropertyOp54
 70
     1
102
RTVSPropertyOp55
 70
     1
102
RTVSPropertyOp56
 70
     1
102
RTVSPropertyOp57
 70
     1
102
RTVSPropertyOp58
 70
     1
102
RTVSPropertyOp59
 70
     1
102
RTVSPropertyOp60
 70
     1
102
RTVSPropertyOp61
 70
     1
102
RTVSPropertyOp62
 70
     1
  0
XRECORD
  5
8551
102
{ACAD_REACTORS
330
8550
102
}
330
8550
100
AcDbXrecord
280
     1
102
RTVSPost2010Prop28
280
     0
102
RTVSPost2010PropOp28
 70
     1
102
RTVSPost2010Prop29
280
     1
102
RTVSPost2010PropOp29
 70
     1
102
RTVSPost2010Prop30
280
     1
102
RTVSPost2010PropOp30
 70
     1
102
RTVSPost2010Prop31
280
     0
102
RTVSPost2010PropOp31
 70
     1
102
RTVSPost2010Prop32
280
     0
102
RTVSPost2010PropOp32
 70
     1
102
RTVSPost2010Prop33
280
     0
102
RTVSPost2010PropOp33
 70
     1
102
RTVSPost2010Prop34
280
     0
102
RTVSPost2010PropOp34
 70
     1
102
RTVSPost2010Prop35
280
     0
102
RTVSPost2010PropOp35
 70
     1
102
RTVSPost2010Prop36
280
     0
102
RTVSPost2010PropOp36
 70
     1
102
RTVSPost2010Prop37
 90
       50
102
RTVSPost2010PropOp37
 70
     0
102
RTVSPost2010Prop38
140
0.0
102
RTVSPost2010PropOp38
 70
     0
102
RTVSPost2010Prop39
140
1.0
102
RTVSPost2010PropOp39
 70
     0
102
RTVSPost2010Prop40
 90
        0
102
RTVSPost2010PropOp40
 70
     0
102
RTVSPost2010Prop41ColorIndex
 90
       18
102
RTVSPost2010Prop41ColorRGB
 90
        0
102
RTVSPost2010PropOp41
 70
     0
102
RTVSPost2010Prop42
 90
       50
102
RTVSPost2010PropOp42
 70
     0
102
RTVSPost2010Prop43
 90
        3
102
RTVSPost2010PropOp43
 70
     0
102
RTVSPost2010Prop44ColorIndex
 90
        5
102
RTVSPost2010Prop44ColorRGB
 90
      255
102
RTVSPost2010PropOp44
 70
     0
102
RTVSPost2010Prop45
280
     0
102
RTVSPost2010PropOp45
 70
     1
102
RTVSPost2010Prop46
 90
       50
102
RTVSPost2010PropOp46
 70
     0
102
RTVSPost2010Prop47
 90
       50
102
RTVSPost2010PropOp47
 70
     0
102
RTVSPost2010Prop48
 90
       50
102
RTVSPost2010PropOp48
 70
     0
102
RTVSPost2010Prop49
280
     0
102
RTVSPost2010PropOp49
 70
     1
102
RTVSPost2010Prop50
 90
       50
102
RTVSPost2010PropOp50
 70
     0
102
RTVSPost2010Prop51ColorIndex
 90
      256
102
RTVSPost2010Prop51ColorRGB
 90
-16777216
102
RTVSPost2010PropOp51
 70
     0
102
RTVSPost2010Prop52
140
1.0
102
RTVSPost2010PropOp52
 70
     0
102
RTVSPost2010Prop53
 90
        2
102
RTVSPost2010PropOp53
 70
     0
102
RTVSPost2010Prop54
  1
strokes_ogs.tif
102
RTVSPost2010PropOp54
 70
     0
102
RTVSPost2010Prop55
280
     0
102
RTVSPost2010PropOp55
 70
     1
102
RTVSPost2010Prop56
140
1.0
102
RTVSPost2010PropOp56
 70
     0
102
RTVSPost2010Prop57
140
1.0
102
RTVSPost2010PropOp57
 70
     0
102
RTVSPropertyOp0
 70
     0
102
RTVSPropertyOp1
 70
     0
102
RTVSPropertyOp2
 70
     0
102
RTVSPropertyOp3
 70
     0
102
RTVSPropertyOp4
 70
     0
102
RTVSPropertyOp5
 70
     0
102
RTVSPropertyOp6
 70
     0
102
RTVSPropertyOp7
 70
     0
102
RTVSPropertyOp8
 70
     0
102
RTVSPropertyOp9
 70
     0
102
RTVSPropertyOp10
 70
     0
102
RTVSPropertyOp11
 70
     0
102
RTVSPropertyOp12
 70
     0
102
RTVSPropertyOp13
 70
     0
102
RTVSPropertyOp14
 70
     2
102
RTVSPropertyOp15
 70
     0
102
RTVSPropertyOp16
 70
     0
102
RTVSPropertyOp17
 70
     0
102
RTVSPropertyOp18
 70
     0
102
RTVSPropertyOp19
 70
     0
102
RTVSPropertyOp20
 70
     0
102
RTVSPropertyOp21
 70
     0
102
RTVSPropertyOp22
 70
     0
102
RTVSPropertyOp23
 70
     0
102
RTVSPropertyOp24
 70
     0
102
RTVSPropertyOp25
 70
     0
102
RTVSPropertyOp26
 70
     0
102
RTVSPropertyOp27
 70
     0
102
RTVSPropertyOp28
 70
     1
102
RTVSPropertyOp29
 70
     1
102
RTVSPropertyOp30
 70
     1
102
RTVSPropertyOp31
 70
     1
102
RTVSPropertyOp32
 70
     1
102
RTVSPropertyOp33
 70
     1
102
RTVSPropertyOp34
 70
     1
102
RTVSPropertyOp35
 70
     1
102
RTVSPropertyOp36
 70
     1
102
RTVSPropertyOp37
 70
     0
102
RTVSPropertyOp38
 70
     0
102
RTVSPropertyOp39
 70
     0
102
RTVSPropertyOp40
 70
     0
102
RTVSPropertyOp41
 70
     0
102
RTVSPropertyOp42
 70
     0
102
RTVSPropertyOp43
 70
     0
102
RTVSPropertyOp44
 70
     0
102
RTVSPropertyOp45
 70
     1
102
RTVSPropertyOp46
 70
     0
102
RTVSPropertyOp47
 70
     0
102
RTVSPropertyOp48
 70
     0
102
RTVSPropertyOp49
 70
     1
102
RTVSPropertyOp50
 70
     0
102
RTVSPropertyOp51
 70
     0
102
RTVSPropertyOp52
 70
     0
102
RTVSPropertyOp53
 70
     0
102
RTVSPropertyOp54
 70
     0
102
RTVSPropertyOp55
 70
     1
102
RTVSPropertyOp56
 70
     0
102
RTVSPropertyOp57
 70
     0
102
RTVSPropertyOp58
 70
     0
102
RTVSPropertyOp59
 70
     0
102
RTVSPropertyOp60
 70
     0
102
RTVSPropertyOp61
 70
     0
102
RTVSPropertyOp62
 70
     0
  0
XRECORD
  5
8537
102
{ACAD_REACTORS
330
8536
102
}
330
8536
100
AcDbXrecord
280
     1
102
RTVSPost2010Prop28
280
     0
102
RTVSPost2010PropOp28
 70
     1
102
RTVSPost2010Prop29
280
     1
102
RTVSPost2010PropOp29
 70
     1
102
RTVSPost2010Prop30
280
     1
102
RTVSPost2010PropOp30
 70
     1
102
RTVSPost2010Prop31
280
     0
102
RTVSPost2010PropOp31
 70
     1
102
RTVSPost2010Prop32
280
     0
102
RTVSPost2010PropOp32
 70
     1
102
RTVSPost2010Prop33
280
     0
102
RTVSPost2010PropOp33
 70
     1
102
RTVSPost2010Prop34
280
     0
102
RTVSPost2010PropOp34
 70
     1
102
RTVSPost2010Prop35
280
     0
102
RTVSPost2010PropOp35
 70
     1
102
RTVSPost2010Prop36
280
     0
102
RTVSPost2010PropOp36
 70
     1
102
RTVSPost2010Prop37
 90
       50
102
RTVSPost2010PropOp37
 70
     1
102
RTVSPost2010Prop38
140
0.0
102
RTVSPost2010PropOp38
 70
     1
102
RTVSPost2010Prop39
140
1.0
102
RTVSPost2010PropOp39
 70
     1
102
RTVSPost2010Prop40
 90
        0
102
RTVSPost2010PropOp40
 70
     1
102
RTVSPost2010Prop41ColorIndex
 90
       18
102
RTVSPost2010Prop41ColorRGB
 90
        0
102
RTVSPost2010PropOp41
 70
     1
102
RTVSPost2010Prop42
 90
       50
102
RTVSPost2010PropOp42
 70
     1
102
RTVSPost2010Prop43
 90
        3
102
RTVSPost2010PropOp43
 70
     1
102
RTVSPost2010Prop44ColorIndex
 90
        5
102
RTVSPost2010Prop44ColorRGB
 90
      255
102
RTVSPost2010PropOp44
 70
     1
102
RTVSPost2010Prop45
280
     0
102
RTVSPost2010PropOp45
 70
     1
102
RTVSPost2010Prop46
 90
       50
102
RTVSPost2010PropOp46
 70
     1
102
RTVSPost2010Prop47
 90
       50
102
RTVSPost2010PropOp47
 70
     1
102
RTVSPost2010Prop48
 90
       50
102
RTVSPost2010PropOp48
 70
     1
102
RTVSPost2010Prop49
280
     0
102
RTVSPost2010PropOp49
 70
     1
102
RTVSPost2010Prop50
 90
       50
102
RTVSPost2010PropOp50
 70
     1
102
RTVSPost2010Prop51ColorIndex
 90
      256
102
RTVSPost2010Prop51ColorRGB
 90
-16777216
102
RTVSPost2010PropOp51
 70
     0
102
RTVSPost2010Prop52
140
1.0
102
RTVSPost2010PropOp52
 70
     0
102
RTVSPost2010Prop53
 90
        2
102
RTVSPost2010PropOp53
 70
     1
102
RTVSPost2010Prop54
  1
strokes_ogs.tif
102
RTVSPost2010PropOp54
 70
     1
102
RTVSPost2010Prop55
280
     0
102
RTVSPost2010PropOp55
 70
     1
102
RTVSPost2010Prop56
140
1.0
102
RTVSPost2010PropOp56
 70
     1
102
RTVSPost2010Prop57
140
1.0
102
RTVSPost2010PropOp57
 70
     1
102
RTVSPropertyOp0
 70
     1
102
RTVSPropertyOp1
 70
     1
102
RTVSPropertyOp2
 70
     1
102
RTVSPropertyOp3
 70
     1
102
RTVSPropertyOp4
 70
     1
102
RTVSPropertyOp5
 70
     1
102
RTVSPropertyOp6
 70
     1
102
RTVSPropertyOp7
 70
     1
102
RTVSPropertyOp8
 70
     1
102
RTVSPropertyOp9
 70
     1
102
RTVSPropertyOp10
 70
     1
102
RTVSPropertyOp11
 70
     1
102
RTVSPropertyOp12
 70
     1
102
RTVSPropertyOp13
 70
     1
102
RTVSPropertyOp14
 70
     1
102
RTVSPropertyOp15
 70
     1
102
RTVSPropertyOp16
 70
     1
102
RTVSPropertyOp17
 70
     1
102
RTVSPropertyOp18
 70
     1
102
RTVSPropertyOp19
 70
     1
102
RTVSPropertyOp20
 70
     1
102
RTVSPropertyOp21
 70
     1
102
RTVSPropertyOp22
 70
     1
102
RTVSPropertyOp23
 70
     1
102
RTVSPropertyOp24
 70
     1
102
RTVSPropertyOp25
 70
     1
102
RTVSPropertyOp26
 70
     1
102
RTVSPropertyOp27
 70
     1
102
RTVSPropertyOp28
 70
     1
102
RTVSPropertyOp29
 70
     1
102
RTVSPropertyOp30
 70
     1
102
RTVSPropertyOp31
 70
     1
102
RTVSPropertyOp32
 70
     1
102
RTVSPropertyOp33
 70
     1
102
RTVSPropertyOp34
 70
     1
102
RTVSPropertyOp35
 70
     1
102
RTVSPropertyOp36
 70
     1
102
RTVSPropertyOp37
 70
     1
102
RTVSPropertyOp38
 70
     1
102
RTVSPropertyOp39
 70
     1
102
RTVSPropertyOp40
 70
     1
102
RTVSPropertyOp41
 70
     1
102
RTVSPropertyOp42
 70
     1
102
RTVSPropertyOp43
 70
     1
102
RTVSPropertyOp44
 70
     1
102
RTVSPropertyOp45
 70
     1
102
RTVSPropertyOp46
 70
     1
102
RTVSPropertyOp47
 70
     1
102
RTVSPropertyOp48
 70
     1
102
RTVSPropertyOp49
 70
     1
102
RTVSPropertyOp50
 70
     1
102
RTVSPropertyOp51
 70
     0
102
RTVSPropertyOp52
 70
     0
102
RTVSPropertyOp53
 70
     1
102
RTVSPropertyOp54
 70
     1
102
RTVSPropertyOp55
 70
     1
102
RTVSPropertyOp56
 70
     1
102
RTVSPropertyOp57
 70
     1
102
RTVSPropertyOp58
 70
     1
102
RTVSPropertyOp59
 70
     1
102
RTVSPropertyOp60
 70
     1
102
RTVSPropertyOp61
 70
     1
102
RTVSPropertyOp62
 70
     1
  0
XRECORD
  5
854D
102
{ACAD_REACTORS
330
854C
102
}
330
854C
100
AcDbXrecord
280
     1
102
RTVSPost2010Prop28
280
     0
102
RTVSPost2010PropOp28
 70
     1
102
RTVSPost2010Prop29
280
     1
102
RTVSPost2010PropOp29
 70
     1
102
RTVSPost2010Prop30
280
     1
102
RTVSPost2010PropOp30
 70
     1
102
RTVSPost2010Prop31
280
     0
102
RTVSPost2010PropOp31
 70
     1
102
RTVSPost2010Prop32
280
     0
102
RTVSPost2010PropOp32
 70
     1
102
RTVSPost2010Prop33
280
     0
102
RTVSPost2010PropOp33
 70
     1
102
RTVSPost2010Prop34
280
     0
102
RTVSPost2010PropOp34
 70
     1
102
RTVSPost2010Prop35
280
     0
102
RTVSPost2010PropOp35
 70
     1
102
RTVSPost2010Prop36
280
     0
102
RTVSPost2010PropOp36
 70
     1
102
RTVSPost2010Prop37
 90
       50
102
RTVSPost2010PropOp37
 70
     1
102
RTVSPost2010Prop38
140
0.0
102
RTVSPost2010PropOp38
 70
     1
102
RTVSPost2010Prop39
140
1.0
102
RTVSPost2010PropOp39
 70
     1
102
RTVSPost2010Prop40
 90
        0
102
RTVSPost2010PropOp40
 70
     1
102
RTVSPost2010Prop41ColorIndex
 90
       18
102
RTVSPost2010Prop41ColorRGB
 90
        0
102
RTVSPost2010PropOp41
 70
     1
102
RTVSPost2010Prop42
 90
       50
102
RTVSPost2010PropOp42
 70
     1
102
RTVSPost2010Prop43
 90
        3
102
RTVSPost2010PropOp43
 70
     1
102
RTVSPost2010Prop44ColorIndex
 90
        5
102
RTVSPost2010Prop44ColorRGB
 90
      255
102
RTVSPost2010PropOp44
 70
     1
102
RTVSPost2010Prop45
280
     0
102
RTVSPost2010PropOp45
 70
     1
102
RTVSPost2010Prop46
 90
       50
102
RTVSPost2010PropOp46
 70
     1
102
RTVSPost2010Prop47
 90
       50
102
RTVSPost2010PropOp47
 70
     1
102
RTVSPost2010Prop48
 90
       50
102
RTVSPost2010PropOp48
 70
     1
102
RTVSPost2010Prop49
280
     0
102
RTVSPost2010PropOp49
 70
     1
102
RTVSPost2010Prop50
 90
       50
102
RTVSPost2010PropOp50
 70
     1
102
RTVSPost2010Prop51ColorIndex
 90
      256
102
RTVSPost2010Prop51ColorRGB
 90
-16777216
102
RTVSPost2010PropOp51
 70
     0
102
RTVSPost2010Prop52
140
1.0
102
RTVSPost2010PropOp52
 70
     0
102
RTVSPost2010Prop53
 90
        2
102
RTVSPost2010PropOp53
 70
     1
102
RTVSPost2010Prop54
  1
strokes_ogs.tif
102
RTVSPost2010PropOp54
 70
     1
102
RTVSPost2010Prop55
280
     0
102
RTVSPost2010PropOp55
 70
     1
102
RTVSPost2010Prop56
140
1.0
102
RTVSPost2010PropOp56
 70
     1
102
RTVSPost2010Prop57
140
1.0
102
RTVSPost2010PropOp57
 70
     1
102
RTVSPropertyOp0
 70
     1
102
RTVSPropertyOp1
 70
     1
102
RTVSPropertyOp2
 70
     1
102
RTVSPropertyOp3
 70
     1
102
RTVSPropertyOp4
 70
     1
102
RTVSPropertyOp5
 70
     1
102
RTVSPropertyOp6
 70
     1
102
RTVSPropertyOp7
 70
     1
102
RTVSPropertyOp8
 70
     1
102
RTVSPropertyOp9
 70
     1
102
RTVSPropertyOp10
 70
     1
102
RTVSPropertyOp11
 70
     1
102
RTVSPropertyOp12
 70
     1
102
RTVSPropertyOp13
 70
     1
102
RTVSPropertyOp14
 70
     1
102
RTVSPropertyOp15
 70
     1
102
RTVSPropertyOp16
 70
     1
102
RTVSPropertyOp17
 70
     1
102
RTVSPropertyOp18
 70
     1
102
RTVSPropertyOp19
 70
     1
102
RTVSPropertyOp20
 70
     1
102
RTVSPropertyOp21
 70
     1
102
RTVSPropertyOp22
 70
     1
102
RTVSPropertyOp23
 70
     1
102
RTVSPropertyOp24
 70
     1
102
RTVSPropertyOp25
 70
     1
102
RTVSPropertyOp26
 70
     1
102
RTVSPropertyOp27
 70
     1
102
RTVSPropertyOp28
 70
     1
102
RTVSPropertyOp29
 70
     1
102
RTVSPropertyOp30
 70
     1
102
RTVSPropertyOp31
 70
     1
102
RTVSPropertyOp32
 70
     1
102
RTVSPropertyOp33
 70
     1
102
RTVSPropertyOp34
 70
     1
102
RTVSPropertyOp35
 70
     1
102
RTVSPropertyOp36
 70
     1
102
RTVSPropertyOp37
 70
     1
102
RTVSPropertyOp38
 70
     1
102
RTVSPropertyOp39
 70
     1
102
RTVSPropertyOp40
 70
     1
102
RTVSPropertyOp41
 70
     1
102
RTVSPropertyOp42
 70
     1
102
RTVSPropertyOp43
 70
     1
102
RTVSPropertyOp44
 70
     1
102
RTVSPropertyOp45
 70
     1
102
RTVSPropertyOp46
 70
     1
102
RTVSPropertyOp47
 70
     1
102
RTVSPropertyOp48
 70
     1
102
RTVSPropertyOp49
 70
     1
102
RTVSPropertyOp50
 70
     1
102
RTVSPropertyOp51
 70
     0
102
RTVSPropertyOp52
 70
     0
102
RTVSPropertyOp53
 70
     1
102
RTVSPropertyOp54
 70
     1
102
RTVSPropertyOp55
 70
     1
102
RTVSPropertyOp56
 70
     1
102
RTVSPropertyOp57
 70
     1
102
RTVSPropertyOp58
 70
     1
102
RTVSPropertyOp59
 70
     1
102
RTVSPropertyOp60
 70
     1
102
RTVSPropertyOp61
 70
     1
102
RTVSPropertyOp62
 70
     1
  0
XRECORD
  5
854B
102
{ACAD_REACTORS
330
854A
102
}
330
854A
100
AcDbXrecord
280
     1
102
RTVSPost2010Prop28
280
     0
102
RTVSPost2010PropOp28
 70
     1
102
RTVSPost2010Prop29
280
     1
102
RTVSPost2010PropOp29
 70
     1
102
RTVSPost2010Prop30
280
     1
102
RTVSPost2010PropOp30
 70
     1
102
RTVSPost2010Prop31
280
     0
102
RTVSPost2010PropOp31
 70
     1
102
RTVSPost2010Prop32
280
     0
102
RTVSPost2010PropOp32
 70
     1
102
RTVSPost2010Prop33
280
     0
102
RTVSPost2010PropOp33
 70
     1
102
RTVSPost2010Prop34
280
     0
102
RTVSPost2010PropOp34
 70
     1
102
RTVSPost2010Prop35
280
     0
102
RTVSPost2010PropOp35
 70
     1
102
RTVSPost2010Prop36
280
     0
102
RTVSPost2010PropOp36
 70
     1
102
RTVSPost2010Prop37
 90
       50
102
RTVSPost2010PropOp37
 70
     1
102
RTVSPost2010Prop38
140
0.0
102
RTVSPost2010PropOp38
 70
     1
102
RTVSPost2010Prop39
140
1.0
102
RTVSPost2010PropOp39
 70
     1
102
RTVSPost2010Prop40
 90
        0
102
RTVSPost2010PropOp40
 70
     1
102
RTVSPost2010Prop41ColorIndex
 90
       18
102
RTVSPost2010Prop41ColorRGB
 90
        0
102
RTVSPost2010PropOp41
 70
     1
102
RTVSPost2010Prop42
 90
       50
102
RTVSPost2010PropOp42
 70
     1
102
RTVSPost2010Prop43
 90
        3
102
RTVSPost2010PropOp43
 70
     1
102
RTVSPost2010Prop44ColorIndex
 90
        5
102
RTVSPost2010Prop44ColorRGB
 90
      255
102
RTVSPost2010PropOp44
 70
     1
102
RTVSPost2010Prop45
280
     0
102
RTVSPost2010PropOp45
 70
     1
102
RTVSPost2010Prop46
 90
       50
102
RTVSPost2010PropOp46
 70
     1
102
RTVSPost2010Prop47
 90
       50
102
RTVSPost2010PropOp47
 70
     1
102
RTVSPost2010Prop48
 90
       50
102
RTVSPost2010PropOp48
 70
     1
102
RTVSPost2010Prop49
280
     0
102
RTVSPost2010PropOp49
 70
     1
102
RTVSPost2010Prop50
 90
       50
102
RTVSPost2010PropOp50
 70
     1
102
RTVSPost2010Prop51ColorIndex
 90
      256
102
RTVSPost2010Prop51ColorRGB
 90
-16777216
102
RTVSPost2010PropOp51
 70
     0
102
RTVSPost2010Prop52
140
1.0
102
RTVSPost2010PropOp52
 70
     0
102
RTVSPost2010Prop53
 90
        2
102
RTVSPost2010PropOp53
 70
     1
102
RTVSPost2010Prop54
  1
strokes_ogs.tif
102
RTVSPost2010PropOp54
 70
     1
102
RTVSPost2010Prop55
280
     0
102
RTVSPost2010PropOp55
 70
     1
102
RTVSPost2010Prop56
140
1.0
102
RTVSPost2010PropOp56
 70
     1
102
RTVSPost2010Prop57
140
1.0
102
RTVSPost2010PropOp57
 70
     1
102
RTVSPropertyOp0
 70
     1
102
RTVSPropertyOp1
 70
     1
102
RTVSPropertyOp2
 70
     1
102
RTVSPropertyOp3
 70
     1
102
RTVSPropertyOp4
 70
     1
102
RTVSPropertyOp5
 70
     1
102
RTVSPropertyOp6
 70
     1
102
RTVSPropertyOp7
 70
     1
102
RTVSPropertyOp8
 70
     1
102
RTVSPropertyOp9
 70
     1
102
RTVSPropertyOp10
 70
     1
102
RTVSPropertyOp11
 70
     1
102
RTVSPropertyOp12
 70
     1
102
RTVSPropertyOp13
 70
     1
102
RTVSPropertyOp14
 70
     1
102
RTVSPropertyOp15
 70
     1
102
RTVSPropertyOp16
 70
     1
102
RTVSPropertyOp17
 70
     1
102
RTVSPropertyOp18
 70
     1
102
RTVSPropertyOp19
 70
     1
102
RTVSPropertyOp20
 70
     1
102
RTVSPropertyOp21
 70
     1
102
RTVSPropertyOp22
 70
     1
102
RTVSPropertyOp23
 70
     1
102
RTVSPropertyOp24
 70
     1
102
RTVSPropertyOp25
 70
     1
102
RTVSPropertyOp26
 70
     1
102
RTVSPropertyOp27
 70
     1
102
RTVSPropertyOp28
 70
     1
102
RTVSPropertyOp29
 70
     1
102
RTVSPropertyOp30
 70
     1
102
RTVSPropertyOp31
 70
     1
102
RTVSPropertyOp32
 70
     1
102
RTVSPropertyOp33
 70
     1
102
RTVSPropertyOp34
 70
     1
102
RTVSPropertyOp35
 70
     1
102
RTVSPropertyOp36
 70
     1
102
RTVSPropertyOp37
 70
     1
102
RTVSPropertyOp38
 70
     1
102
RTVSPropertyOp39
 70
     1
102
RTVSPropertyOp40
 70
     1
102
RTVSPropertyOp41
 70
     1
102
RTVSPropertyOp42
 70
     1
102
RTVSPropertyOp43
 70
     1
102
RTVSPropertyOp44
 70
     1
102
RTVSPropertyOp45
 70
     1
102
RTVSPropertyOp46
 70
     1
102
RTVSPropertyOp47
 70
     1
102
RTVSPropertyOp48
 70
     1
102
RTVSPropertyOp49
 70
     1
102
RTVSPropertyOp50
 70
     1
102
RTVSPropertyOp51
 70
     0
102
RTVSPropertyOp52
 70
     0
102
RTVSPropertyOp53
 70
     1
102
RTVSPropertyOp54
 70
     1
102
RTVSPropertyOp55
 70
     1
102
RTVSPropertyOp56
 70
     1
102
RTVSPropertyOp57
 70
     1
102
RTVSPropertyOp58
 70
     1
102
RTVSPropertyOp59
 70
     1
102
RTVSPropertyOp60
 70
     1
102
RTVSPropertyOp61
 70
     1
102
RTVSPropertyOp62
 70
     1
  0
XRECORD
  5
8545
102
{ACAD_REACTORS
330
8544
102
}
330
8544
100
AcDbXrecord
280
     1
102
RTVSPost2010Prop28
280
     0
102
RTVSPost2010PropOp28
 70
     1
102
RTVSPost2010Prop29
280
     1
102
RTVSPost2010PropOp29
 70
     1
102
RTVSPost2010Prop30
280
     1
102
RTVSPost2010PropOp30
 70
     1
102
RTVSPost2010Prop31
280
     0
102
RTVSPost2010PropOp31
 70
     1
102
RTVSPost2010Prop32
280
     0
102
RTVSPost2010PropOp32
 70
     1
102
RTVSPost2010Prop33
280
     0
102
RTVSPost2010PropOp33
 70
     1
102
RTVSPost2010Prop34
280
     0
102
RTVSPost2010PropOp34
 70
     1
102
RTVSPost2010Prop35
280
     0
102
RTVSPost2010PropOp35
 70
     1
102
RTVSPost2010Prop36
280
     0
102
RTVSPost2010PropOp36
 70
     1
102
RTVSPost2010Prop37
 90
       50
102
RTVSPost2010PropOp37
 70
     1
102
RTVSPost2010Prop38
140
0.0
102
RTVSPost2010PropOp38
 70
     1
102
RTVSPost2010Prop39
140
1.0
102
RTVSPost2010PropOp39
 70
     1
102
RTVSPost2010Prop40
 90
        0
102
RTVSPost2010PropOp40
 70
     1
102
RTVSPost2010Prop41ColorIndex
 90
       18
102
RTVSPost2010Prop41ColorRGB
 90
        0
102
RTVSPost2010PropOp41
 70
     1
102
RTVSPost2010Prop42
 90
       50
102
RTVSPost2010PropOp42
 70
     1
102
RTVSPost2010Prop43
 90
        3
102
RTVSPost2010PropOp43
 70
     1
102
RTVSPost2010Prop44ColorIndex
 90
        5
102
RTVSPost2010Prop44ColorRGB
 90
      255
102
RTVSPost2010PropOp44
 70
     1
102
RTVSPost2010Prop45
280
     0
102
RTVSPost2010PropOp45
 70
     1
102
RTVSPost2010Prop46
 90
       50
102
RTVSPost2010PropOp46
 70
     1
102
RTVSPost2010Prop47
 90
       50
102
RTVSPost2010PropOp47
 70
     1
102
RTVSPost2010Prop48
 90
       50
102
RTVSPost2010PropOp48
 70
     1
102
RTVSPost2010Prop49
280
     0
102
RTVSPost2010PropOp49
 70
     1
102
RTVSPost2010Prop50
 90
       50
102
RTVSPost2010PropOp50
 70
     1
102
RTVSPost2010Prop51ColorIndex
 90
      256
102
RTVSPost2010Prop51ColorRGB
 90
-16777216
102
RTVSPost2010PropOp51
 70
     0
102
RTVSPost2010Prop52
140
1.0
102
RTVSPost2010PropOp52
 70
     0
102
RTVSPost2010Prop53
 90
        2
102
RTVSPost2010PropOp53
 70
     1
102
RTVSPost2010Prop54
  1
strokes_ogs.tif
102
RTVSPost2010PropOp54
 70
     1
102
RTVSPost2010Prop55
280
     0
102
RTVSPost2010PropOp55
 70
     1
102
RTVSPost2010Prop56
140
1.0
102
RTVSPost2010PropOp56
 70
     1
102
RTVSPost2010Prop57
140
1.0
102
RTVSPost2010PropOp57
 70
     1
102
RTVSPropertyOp0
 70
     1
102
RTVSPropertyOp1
 70
     1
102
RTVSPropertyOp2
 70
     1
102
RTVSPropertyOp3
 70
     1
102
RTVSPropertyOp4
 70
     1
102
RTVSPropertyOp5
 70
     1
102
RTVSPropertyOp6
 70
     1
102
RTVSPropertyOp7
 70
     1
102
RTVSPropertyOp8
 70
     1
102
RTVSPropertyOp9
 70
     1
102
RTVSPropertyOp10
 70
     1
102
RTVSPropertyOp11
 70
     1
102
RTVSPropertyOp12
 70
     1
102
RTVSPropertyOp13
 70
     1
102
RTVSPropertyOp14
 70
     1
102
RTVSPropertyOp15
 70
     1
102
RTVSPropertyOp16
 70
     1
102
RTVSPropertyOp17
 70
     1
102
RTVSPropertyOp18
 70
     1
102
RTVSPropertyOp19
 70
     1
102
RTVSPropertyOp20
 70
     1
102
RTVSPropertyOp21
 70
     1
102
RTVSPropertyOp22
 70
     1
102
RTVSPropertyOp23
 70
     1
102
RTVSPropertyOp24
 70
     1
102
RTVSPropertyOp25
 70
     1
102
RTVSPropertyOp26
 70
     1
102
RTVSPropertyOp27
 70
     1
102
RTVSPropertyOp28
 70
     1
102
RTVSPropertyOp29
 70
     1
102
RTVSPropertyOp30
 70
     1
102
RTVSPropertyOp31
 70
     1
102
RTVSPropertyOp32
 70
     1
102
RTVSPropertyOp33
 70
     1
102
RTVSPropertyOp34
 70
     1
102
RTVSPropertyOp35
 70
     1
102
RTVSPropertyOp36
 70
     1
102
RTVSPropertyOp37
 70
     1
102
RTVSPropertyOp38
 70
     1
102
RTVSPropertyOp39
 70
     1
102
RTVSPropertyOp40
 70
     1
102
RTVSPropertyOp41
 70
     1
102
RTVSPropertyOp42
 70
     1
102
RTVSPropertyOp43
 70
     1
102
RTVSPropertyOp44
 70
     1
102
RTVSPropertyOp45
 70
     1
102
RTVSPropertyOp46
 70
     1
102
RTVSPropertyOp47
 70
     1
102
RTVSPropertyOp48
 70
     1
102
RTVSPropertyOp49
 70
     1
102
RTVSPropertyOp50
 70
     1
102
RTVSPropertyOp51
 70
     0
102
RTVSPropertyOp52
 70
     0
102
RTVSPropertyOp53
 70
     1
102
RTVSPropertyOp54
 70
     1
102
RTVSPropertyOp55
 70
     1
102
RTVSPropertyOp56
 70
     1
102
RTVSPropertyOp57
 70
     1
102
RTVSPropertyOp58
 70
     1
102
RTVSPropertyOp59
 70
     1
102
RTVSPropertyOp60
 70
     1
102
RTVSPropertyOp61
 70
     1
102
RTVSPropertyOp62
 70
     1
  0
XRECORD
  5
8547
102
{ACAD_REACTORS
330
8546
102
}
330
8546
100
AcDbXrecord
280
     1
102
RTVSPost2010Prop28
280
     0
102
RTVSPost2010PropOp28
 70
     1
102
RTVSPost2010Prop29
280
     1
102
RTVSPost2010PropOp29
 70
     1
102
RTVSPost2010Prop30
280
     1
102
RTVSPost2010PropOp30
 70
     1
102
RTVSPost2010Prop31
280
     0
102
RTVSPost2010PropOp31
 70
     1
102
RTVSPost2010Prop32
280
     0
102
RTVSPost2010PropOp32
 70
     1
102
RTVSPost2010Prop33
280
     0
102
RTVSPost2010PropOp33
 70
     1
102
RTVSPost2010Prop34
280
     0
102
RTVSPost2010PropOp34
 70
     1
102
RTVSPost2010Prop35
280
     0
102
RTVSPost2010PropOp35
 70
     1
102
RTVSPost2010Prop36
280
     0
102
RTVSPost2010PropOp36
 70
     1
102
RTVSPost2010Prop37
 90
       50
102
RTVSPost2010PropOp37
 70
     1
102
RTVSPost2010Prop38
140
0.0
102
RTVSPost2010PropOp38
 70
     1
102
RTVSPost2010Prop39
140
1.0
102
RTVSPost2010PropOp39
 70
     1
102
RTVSPost2010Prop40
 90
        0
102
RTVSPost2010PropOp40
 70
     1
102
RTVSPost2010Prop41ColorIndex
 90
       18
102
RTVSPost2010Prop41ColorRGB
 90
        0
102
RTVSPost2010PropOp41
 70
     1
102
RTVSPost2010Prop42
 90
       50
102
RTVSPost2010PropOp42
 70
     1
102
RTVSPost2010Prop43
 90
        3
102
RTVSPost2010PropOp43
 70
     1
102
RTVSPost2010Prop44ColorIndex
 90
        5
102
RTVSPost2010Prop44ColorRGB
 90
      255
102
RTVSPost2010PropOp44
 70
     1
102
RTVSPost2010Prop45
280
     0
102
RTVSPost2010PropOp45
 70
     1
102
RTVSPost2010Prop46
 90
       50
102
RTVSPost2010PropOp46
 70
     1
102
RTVSPost2010Prop47
 90
       50
102
RTVSPost2010PropOp47
 70
     1
102
RTVSPost2010Prop48
 90
       50
102
RTVSPost2010PropOp48
 70
     1
102
RTVSPost2010Prop49
280
     0
102
RTVSPost2010PropOp49
 70
     1
102
RTVSPost2010Prop50
 90
       50
102
RTVSPost2010PropOp50
 70
     1
102
RTVSPost2010Prop51ColorIndex
 90
      256
102
RTVSPost2010Prop51ColorRGB
 90
-16777216
102
RTVSPost2010PropOp51
 70
     0
102
RTVSPost2010Prop52
140
1.0
102
RTVSPost2010PropOp52
 70
     0
102
RTVSPost2010Prop53
 90
        2
102
RTVSPost2010PropOp53
 70
     1
102
RTVSPost2010Prop54
  1
strokes_ogs.tif
102
RTVSPost2010PropOp54
 70
     1
102
RTVSPost2010Prop55
280
     0
102
RTVSPost2010PropOp55
 70
     1
102
RTVSPost2010Prop56
140
1.0
102
RTVSPost2010PropOp56
 70
     1
102
RTVSPost2010Prop57
140
1.0
102
RTVSPost2010PropOp57
 70
     1
102
RTVSPropertyOp0
 70
     1
102
RTVSPropertyOp1
 70
     1
102
RTVSPropertyOp2
 70
     1
102
RTVSPropertyOp3
 70
     1
102
RTVSPropertyOp4
 70
     1
102
RTVSPropertyOp5
 70
     1
102
RTVSPropertyOp6
 70
     1
102
RTVSPropertyOp7
 70
     1
102
RTVSPropertyOp8
 70
     1
102
RTVSPropertyOp9
 70
     1
102
RTVSPropertyOp10
 70
     1
102
RTVSPropertyOp11
 70
     1
102
RTVSPropertyOp12
 70
     1
102
RTVSPropertyOp13
 70
     1
102
RTVSPropertyOp14
 70
     1
102
RTVSPropertyOp15
 70
     1
102
RTVSPropertyOp16
 70
     1
102
RTVSPropertyOp17
 70
     1
102
RTVSPropertyOp18
 70
     1
102
RTVSPropertyOp19
 70
     1
102
RTVSPropertyOp20
 70
     1
102
RTVSPropertyOp21
 70
     1
102
RTVSPropertyOp22
 70
     1
102
RTVSPropertyOp23
 70
     1
102
RTVSPropertyOp24
 70
     1
102
RTVSPropertyOp25
 70
     1
102
RTVSPropertyOp26
 70
     1
102
RTVSPropertyOp27
 70
     1
102
RTVSPropertyOp28
 70
     1
102
RTVSPropertyOp29
 70
     1
102
RTVSPropertyOp30
 70
     1
102
RTVSPropertyOp31
 70
     1
102
RTVSPropertyOp32
 70
     1
102
RTVSPropertyOp33
 70
     1
102
RTVSPropertyOp34
 70
     1
102
RTVSPropertyOp35
 70
     1
102
RTVSPropertyOp36
 70
     1
102
RTVSPropertyOp37
 70
     1
102
RTVSPropertyOp38
 70
     1
102
RTVSPropertyOp39
 70
     1
102
RTVSPropertyOp40
 70
     1
102
RTVSPropertyOp41
 70
     1
102
RTVSPropertyOp42
 70
     1
102
RTVSPropertyOp43
 70
     1
102
RTVSPropertyOp44
 70
     1
102
RTVSPropertyOp45
 70
     1
102
RTVSPropertyOp46
 70
     1
102
RTVSPropertyOp47
 70
     1
102
RTVSPropertyOp48
 70
     1
102
RTVSPropertyOp49
 70
     1
102
RTVSPropertyOp50
 70
     1
102
RTVSPropertyOp51
 70
     0
102
RTVSPropertyOp52
 70
     0
102
RTVSPropertyOp53
 70
     1
102
RTVSPropertyOp54
 70
     1
102
RTVSPropertyOp55
 70
     1
102
RTVSPropertyOp56
 70
     1
102
RTVSPropertyOp57
 70
     1
102
RTVSPropertyOp58
 70
     1
102
RTVSPropertyOp59
 70
     1
102
RTVSPropertyOp60
 70
     1
102
RTVSPropertyOp61
 70
     1
102
RTVSPropertyOp62
 70
     1
  0
XRECORD
  5
853D
102
{ACAD_REACTORS
330
853C
102
}
330
853C
100
AcDbXrecord
280
     1
102
RTVSPost2010Prop28
280
     0
102
RTVSPost2010PropOp28
 70
     1
102
RTVSPost2010Prop29
280
     1
102
RTVSPost2010PropOp29
 70
     1
102
RTVSPost2010Prop30
280
     1
102
RTVSPost2010PropOp30
 70
     1
102
RTVSPost2010Prop31
280
     0
102
RTVSPost2010PropOp31
 70
     1
102
RTVSPost2010Prop32
280
     0
102
RTVSPost2010PropOp32
 70
     1
102
RTVSPost2010Prop33
280
     0
102
RTVSPost2010PropOp33
 70
     1
102
RTVSPost2010Prop34
280
     0
102
RTVSPost2010PropOp34
 70
     1
102
RTVSPost2010Prop35
280
     0
102
RTVSPost2010PropOp35
 70
     1
102
RTVSPost2010Prop36
280
     0
102
RTVSPost2010PropOp36
 70
     1
102
RTVSPost2010Prop37
 90
       50
102
RTVSPost2010PropOp37
 70
     1
102
RTVSPost2010Prop38
140
0.0
102
RTVSPost2010PropOp38
 70
     1
102
RTVSPost2010Prop39
140
1.0
102
RTVSPost2010PropOp39
 70
     1
102
RTVSPost2010Prop40
 90
        0
102
RTVSPost2010PropOp40
 70
     1
102
RTVSPost2010Prop41ColorIndex
 90
       18
102
RTVSPost2010Prop41ColorRGB
 90
        0
102
RTVSPost2010PropOp41
 70
     1
102
RTVSPost2010Prop42
 90
       50
102
RTVSPost2010PropOp42
 70
     1
102
RTVSPost2010Prop43
 90
        3
102
RTVSPost2010PropOp43
 70
     1
102
RTVSPost2010Prop44ColorIndex
 90
        5
102
RTVSPost2010Prop44ColorRGB
 90
      255
102
RTVSPost2010PropOp44
 70
     1
102
RTVSPost2010Prop45
280
     0
102
RTVSPost2010PropOp45
 70
     1
102
RTVSPost2010Prop46
 90
       50
102
RTVSPost2010PropOp46
 70
     1
102
RTVSPost2010Prop47
 90
       50
102
RTVSPost2010PropOp47
 70
     1
102
RTVSPost2010Prop48
 90
       50
102
RTVSPost2010PropOp48
 70
     1
102
RTVSPost2010Prop49
280
     0
102
RTVSPost2010PropOp49
 70
     1
102
RTVSPost2010Prop50
 90
       50
102
RTVSPost2010PropOp50
 70
     1
102
RTVSPost2010Prop51ColorIndex
 90
      256
102
RTVSPost2010Prop51ColorRGB
 90
-16777216
102
RTVSPost2010PropOp51
 70
     0
102
RTVSPost2010Prop52
140
1.0
102
RTVSPost2010PropOp52
 70
     0
102
RTVSPost2010Prop53
 90
        2
102
RTVSPost2010PropOp53
 70
     1
102
RTVSPost2010Prop54
  1
strokes_ogs.tif
102
RTVSPost2010PropOp54
 70
     1
102
RTVSPost2010Prop55
280
     0
102
RTVSPost2010PropOp55
 70
     1
102
RTVSPost2010Prop56
140
1.0
102
RTVSPost2010PropOp56
 70
     1
102
RTVSPost2010Prop57
140
1.0
102
RTVSPost2010PropOp57
 70
     1
102
RTVSPropertyOp0
 70
     1
102
RTVSPropertyOp1
 70
     1
102
RTVSPropertyOp2
 70
     1
102
RTVSPropertyOp3
 70
     1
102
RTVSPropertyOp4
 70
     1
102
RTVSPropertyOp5
 70
     1
102
RTVSPropertyOp6
 70
     1
102
RTVSPropertyOp7
 70
     1
102
RTVSPropertyOp8
 70
     1
102
RTVSPropertyOp9
 70
     1
102
RTVSPropertyOp10
 70
     1
102
RTVSPropertyOp11
 70
     1
102
RTVSPropertyOp12
 70
     1
102
RTVSPropertyOp13
 70
     1
102
RTVSPropertyOp14
 70
     1
102
RTVSPropertyOp15
 70
     1
102
RTVSPropertyOp16
 70
     1
102
RTVSPropertyOp17
 70
     1
102
RTVSPropertyOp18
 70
     1
102
RTVSPropertyOp19
 70
     1
102
RTVSPropertyOp20
 70
     1
102
RTVSPropertyOp21
 70
     1
102
RTVSPropertyOp22
 70
     1
102
RTVSPropertyOp23
 70
     1
102
RTVSPropertyOp24
 70
     1
102
RTVSPropertyOp25
 70
     1
102
RTVSPropertyOp26
 70
     1
102
RTVSPropertyOp27
 70
     1
102
RTVSPropertyOp28
 70
     1
102
RTVSPropertyOp29
 70
     1
102
RTVSPropertyOp30
 70
     1
102
RTVSPropertyOp31
 70
     1
102
RTVSPropertyOp32
 70
     1
102
RTVSPropertyOp33
 70
     1
102
RTVSPropertyOp34
 70
     1
102
RTVSPropertyOp35
 70
     1
102
RTVSPropertyOp36
 70
     1
102
RTVSPropertyOp37
 70
     1
102
RTVSPropertyOp38
 70
     1
102
RTVSPropertyOp39
 70
     1
102
RTVSPropertyOp40
 70
     1
102
RTVSPropertyOp41
 70
     1
102
RTVSPropertyOp42
 70
     1
102
RTVSPropertyOp43
 70
     1
102
RTVSPropertyOp44
 70
     1
102
RTVSPropertyOp45
 70
     1
102
RTVSPropertyOp46
 70
     1
102
RTVSPropertyOp47
 70
     1
102
RTVSPropertyOp48
 70
     1
102
RTVSPropertyOp49
 70
     1
102
RTVSPropertyOp50
 70
     1
102
RTVSPropertyOp51
 70
     0
102
RTVSPropertyOp52
 70
     0
102
RTVSPropertyOp53
 70
     1
102
RTVSPropertyOp54
 70
     1
102
RTVSPropertyOp55
 70
     1
102
RTVSPropertyOp56
 70
     1
102
RTVSPropertyOp57
 70
     1
102
RTVSPropertyOp58
 70
     1
102
RTVSPropertyOp59
 70
     1
102
RTVSPropertyOp60
 70
     1
102
RTVSPropertyOp61
 70
     1
102
RTVSPropertyOp62
 70
     1
  0
XRECORD
  5
8531
102
{ACAD_REACTORS
330
8530
102
}
330
8530
100
AcDbXrecord
280
     1
102
RTVSPost2010Prop28
280
     0
102
RTVSPost2010PropOp28
 70
     1
102
RTVSPost2010Prop29
280
     1
102
RTVSPost2010PropOp29
 70
     1
102
RTVSPost2010Prop30
280
     1
102
RTVSPost2010PropOp30
 70
     1
102
RTVSPost2010Prop31
280
     0
102
RTVSPost2010PropOp31
 70
     1
102
RTVSPost2010Prop32
280
     0
102
RTVSPost2010PropOp32
 70
     1
102
RTVSPost2010Prop33
280
     0
102
RTVSPost2010PropOp33
 70
     1
102
RTVSPost2010Prop34
280
     0
102
RTVSPost2010PropOp34
 70
     1
102
RTVSPost2010Prop35
280
     0
102
RTVSPost2010PropOp35
 70
     1
102
RTVSPost2010Prop36
280
     0
102
RTVSPost2010PropOp36
 70
     1
102
RTVSPost2010Prop37
 90
       50
102
RTVSPost2010PropOp37
 70
     1
102
RTVSPost2010Prop38
140
0.0
102
RTVSPost2010PropOp38
 70
     1
102
RTVSPost2010Prop39
140
1.0
102
RTVSPost2010PropOp39
 70
     1
102
RTVSPost2010Prop40
 90
        0
102
RTVSPost2010PropOp40
 70
     1
102
RTVSPost2010Prop41ColorIndex
 90
       18
102
RTVSPost2010Prop41ColorRGB
 90
        0
102
RTVSPost2010PropOp41
 70
     1
102
RTVSPost2010Prop42
 90
       50
102
RTVSPost2010PropOp42
 70
     1
102
RTVSPost2010Prop43
 90
        3
102
RTVSPost2010PropOp43
 70
     1
102
RTVSPost2010Prop44ColorIndex
 90
        5
102
RTVSPost2010Prop44ColorRGB
 90
      255
102
RTVSPost2010PropOp44
 70
     1
102
RTVSPost2010Prop45
280
     0
102
RTVSPost2010PropOp45
 70
     1
102
RTVSPost2010Prop46
 90
       50
102
RTVSPost2010PropOp46
 70
     1
102
RTVSPost2010Prop47
 90
       50
102
RTVSPost2010PropOp47
 70
     1
102
RTVSPost2010Prop48
 90
       50
102
RTVSPost2010PropOp48
 70
     1
102
RTVSPost2010Prop49
280
     0
102
RTVSPost2010PropOp49
 70
     1
102
RTVSPost2010Prop50
 90
       50
102
RTVSPost2010PropOp50
 70
     1
102
RTVSPost2010Prop51ColorIndex
 90
      256
102
RTVSPost2010Prop51ColorRGB
 90
-16777216
102
RTVSPost2010PropOp51
 70
     0
102
RTVSPost2010Prop52
140
1.0
102
RTVSPost2010PropOp52
 70
     0
102
RTVSPost2010Prop53
 90
        2
102
RTVSPost2010PropOp53
 70
     1
102
RTVSPost2010Prop54
  1
strokes_ogs.tif
102
RTVSPost2010PropOp54
 70
     1
102
RTVSPost2010Prop55
280
     0
102
RTVSPost2010PropOp55
 70
     1
102
RTVSPost2010Prop56
140
1.0
102
RTVSPost2010PropOp56
 70
     1
102
RTVSPost2010Prop57
140
1.0
102
RTVSPost2010PropOp57
 70
     1
102
RTVSPropertyOp0
 70
     1
102
RTVSPropertyOp1
 70
     1
102
RTVSPropertyOp2
 70
     1
102
RTVSPropertyOp3
 70
     1
102
RTVSPropertyOp4
 70
     1
102
RTVSPropertyOp5
 70
     1
102
RTVSPropertyOp6
 70
     1
102
RTVSPropertyOp7
 70
     1
102
RTVSPropertyOp8
 70
     1
102
RTVSPropertyOp9
 70
     1
102
RTVSPropertyOp10
 70
     1
102
RTVSPropertyOp11
 70
     1
102
RTVSPropertyOp12
 70
     1
102
RTVSPropertyOp13
 70
     1
102
RTVSPropertyOp14
 70
     1
102
RTVSPropertyOp15
 70
     1
102
RTVSPropertyOp16
 70
     1
102
RTVSPropertyOp17
 70
     1
102
RTVSPropertyOp18
 70
     1
102
RTVSPropertyOp19
 70
     1
102
RTVSPropertyOp20
 70
     1
102
RTVSPropertyOp21
 70
     1
102
RTVSPropertyOp22
 70
     1
102
RTVSPropertyOp23
 70
     1
102
RTVSPropertyOp24
 70
     1
102
RTVSPropertyOp25
 70
     1
102
RTVSPropertyOp26
 70
     1
102
RTVSPropertyOp27
 70
     1
102
RTVSPropertyOp28
 70
     1
102
RTVSPropertyOp29
 70
     1
102
RTVSPropertyOp30
 70
     1
102
RTVSPropertyOp31
 70
     1
102
RTVSPropertyOp32
 70
     1
102
RTVSPropertyOp33
 70
     1
102
RTVSPropertyOp34
 70
     1
102
RTVSPropertyOp35
 70
     1
102
RTVSPropertyOp36
 70
     1
102
RTVSPropertyOp37
 70
     1
102
RTVSPropertyOp38
 70
     1
102
RTVSPropertyOp39
 70
     1
102
RTVSPropertyOp40
 70
     1
102
RTVSPropertyOp41
 70
     1
102
RTVSPropertyOp42
 70
     1
102
RTVSPropertyOp43
 70
     1
102
RTVSPropertyOp44
 70
     1
102
RTVSPropertyOp45
 70
     1
102
RTVSPropertyOp46
 70
     1
102
RTVSPropertyOp47
 70
     1
102
RTVSPropertyOp48
 70
     1
102
RTVSPropertyOp49
 70
     1
102
RTVSPropertyOp50
 70
     1
102
RTVSPropertyOp51
 70
     0
102
RTVSPropertyOp52
 70
     0
102
RTVSPropertyOp53
 70
     1
102
RTVSPropertyOp54
 70
     1
102
RTVSPropertyOp55
 70
     1
102
RTVSPropertyOp56
 70
     1
102
RTVSPropertyOp57
 70
     1
102
RTVSPropertyOp58
 70
     1
102
RTVSPropertyOp59
 70
     1
102
RTVSPropertyOp60
 70
     1
102
RTVSPropertyOp61
 70
     1
102
RTVSPropertyOp62
 70
     1
  0
XRECORD
  5
8549
102
{ACAD_REACTORS
330
8548
102
}
330
8548
100
AcDbXrecord
280
     1
102
RTVSPost2010Prop28
280
     0
102
RTVSPost2010PropOp28
 70
     1
102
RTVSPost2010Prop29
280
     1
102
RTVSPost2010PropOp29
 70
     1
102
RTVSPost2010Prop30
280
     1
102
RTVSPost2010PropOp30
 70
     1
102
RTVSPost2010Prop31
280
     0
102
RTVSPost2010PropOp31
 70
     1
102
RTVSPost2010Prop32
280
     0
102
RTVSPost2010PropOp32
 70
     1
102
RTVSPost2010Prop33
280
     0
102
RTVSPost2010PropOp33
 70
     1
102
RTVSPost2010Prop34
280
     0
102
RTVSPost2010PropOp34
 70
     1
102
RTVSPost2010Prop35
280
     0
102
RTVSPost2010PropOp35
 70
     1
102
RTVSPost2010Prop36
280
     0
102
RTVSPost2010PropOp36
 70
     1
102
RTVSPost2010Prop37
 90
       50
102
RTVSPost2010PropOp37
 70
     1
102
RTVSPost2010Prop38
140
0.0
102
RTVSPost2010PropOp38
 70
     1
102
RTVSPost2010Prop39
140
1.0
102
RTVSPost2010PropOp39
 70
     1
102
RTVSPost2010Prop40
 90
        0
102
RTVSPost2010PropOp40
 70
     1
102
RTVSPost2010Prop41ColorIndex
 90
       18
102
RTVSPost2010Prop41ColorRGB
 90
        0
102
RTVSPost2010PropOp41
 70
     1
102
RTVSPost2010Prop42
 90
       50
102
RTVSPost2010PropOp42
 70
     1
102
RTVSPost2010Prop43
 90
        3
102
RTVSPost2010PropOp43
 70
     1
102
RTVSPost2010Prop44ColorIndex
 90
        5
102
RTVSPost2010Prop44ColorRGB
 90
      255
102
RTVSPost2010PropOp44
 70
     1
102
RTVSPost2010Prop45
280
     0
102
RTVSPost2010PropOp45
 70
     1
102
RTVSPost2010Prop46
 90
       50
102
RTVSPost2010PropOp46
 70
     1
102
RTVSPost2010Prop47
 90
       50
102
RTVSPost2010PropOp47
 70
     1
102
RTVSPost2010Prop48
 90
       50
102
RTVSPost2010PropOp48
 70
     1
102
RTVSPost2010Prop49
280
     0
102
RTVSPost2010PropOp49
 70
     1
102
RTVSPost2010Prop50
 90
       50
102
RTVSPost2010PropOp50
 70
     1
102
RTVSPost2010Prop51ColorIndex
 90
      256
102
RTVSPost2010Prop51ColorRGB
 90
-16777216
102
RTVSPost2010PropOp51
 70
     0
102
RTVSPost2010Prop52
140
1.0
102
RTVSPost2010PropOp52
 70
     0
102
RTVSPost2010Prop53
 90
        2
102
RTVSPost2010PropOp53
 70
     1
102
RTVSPost2010Prop54
  1
strokes_ogs.tif
102
RTVSPost2010PropOp54
 70
     1
102
RTVSPost2010Prop55
280
     0
102
RTVSPost2010PropOp55
 70
     1
102
RTVSPost2010Prop56
140
1.0
102
RTVSPost2010PropOp56
 70
     1
102
RTVSPost2010Prop57
140
1.0
102
RTVSPost2010PropOp57
 70
     1
102
RTVSPropertyOp0
 70
     1
102
RTVSPropertyOp1
 70
     1
102
RTVSPropertyOp2
 70
     1
102
RTVSPropertyOp3
 70
     1
102
RTVSPropertyOp4
 70
     1
102
RTVSPropertyOp5
 70
     1
102
RTVSPropertyOp6
 70
     1
102
RTVSPropertyOp7
 70
     1
102
RTVSPropertyOp8
 70
     1
102
RTVSPropertyOp9
 70
     1
102
RTVSPropertyOp10
 70
     1
102
RTVSPropertyOp11
 70
     1
102
RTVSPropertyOp12
 70
     1
102
RTVSPropertyOp13
 70
     1
102
RTVSPropertyOp14
 70
     1
102
RTVSPropertyOp15
 70
     1
102
RTVSPropertyOp16
 70
     1
102
RTVSPropertyOp17
 70
     1
102
RTVSPropertyOp18
 70
     1
102
RTVSPropertyOp19
 70
     1
102
RTVSPropertyOp20
 70
     1
102
RTVSPropertyOp21
 70
     1
102
RTVSPropertyOp22
 70
     1
102
RTVSPropertyOp23
 70
     1
102
RTVSPropertyOp24
 70
     1
102
RTVSPropertyOp25
 70
     1
102
RTVSPropertyOp26
 70
     1
102
RTVSPropertyOp27
 70
     1
102
RTVSPropertyOp28
 70
     1
102
RTVSPropertyOp29
 70
     1
102
RTVSPropertyOp30
 70
     1
102
RTVSPropertyOp31
 70
     1
102
RTVSPropertyOp32
 70
     1
102
RTVSPropertyOp33
 70
     1
102
RTVSPropertyOp34
 70
     1
102
RTVSPropertyOp35
 70
     1
102
RTVSPropertyOp36
 70
     1
102
RTVSPropertyOp37
 70
     1
102
RTVSPropertyOp38
 70
     1
102
RTVSPropertyOp39
 70
     1
102
RTVSPropertyOp40
 70
     1
102
RTVSPropertyOp41
 70
     1
102
RTVSPropertyOp42
 70
     1
102
RTVSPropertyOp43
 70
     1
102
RTVSPropertyOp44
 70
     1
102
RTVSPropertyOp45
 70
     1
102
RTVSPropertyOp46
 70
     1
102
RTVSPropertyOp47
 70
     1
102
RTVSPropertyOp48
 70
     1
102
RTVSPropertyOp49
 70
     1
102
RTVSPropertyOp50
 70
     1
102
RTVSPropertyOp51
 70
     0
102
RTVSPropertyOp52
 70
     0
102
RTVSPropertyOp53
 70
     1
102
RTVSPropertyOp54
 70
     1
102
RTVSPropertyOp55
 70
     1
102
RTVSPropertyOp56
 70
     1
102
RTVSPropertyOp57
 70
     1
102
RTVSPropertyOp58
 70
     1
102
RTVSPropertyOp59
 70
     1
102
RTVSPropertyOp60
 70
     1
102
RTVSPropertyOp61
 70
     1
102
RTVSPropertyOp62
 70
     1
  0
ENDSEC
  0
EOF
