  0
SECTION
  2
HEADER
  9
$ACADVER
  1
AC1015
  9
$ACADMAINTVER
 70
    20
  9
$DWGCODEPAGE
  3
ANSI_932
  9
$INSBASE
 10
0.0
 20
0.0
 30
0.0
  9
$EXTMIN
 10
-0.1602050617329951
 20
-0.22504996767384
 30
-0.0015258207003583
  9
$EXTMAX
 10
5250.160229508953
 20
7375.225084310193
 30
0.0000000349246037
  9
$LIMMIN
 10
0.0
 20
0.0
  9
$LIMMAX
 10
297.0
 20
210.0
  9
$ORTHOMODE
 70
     1
  9
$REGENMODE
 70
     1
  9
$FILLMODE
 70
     0
  9
$QTEXTMODE
 70
     0
  9
$MIRRTEXT
 70
     1
  9
$LTSCALE
 40
100.0
  9
$ATTMODE
 70
     1
  9
$TEXTSIZE
 40
180.0
  9
$TRACEWID
 40
0.05
  9
$TEXTSTYLE
  7
STANDARD
  9
$CLAYER
  8
3
  9
$CELTYPE
  6
ByLayer
  9
$CECOLOR
 62
   256
  9
$CELTSCALE
 40
1.0
  9
$DISPSILH
 70
     0
  9
$DIMSCALE
 40
25.0
  9
$DIMASZ
 40
2.0
  9
$DIMEXO
 40
1.0
  9
$DIMDLI
 40
10.0
  9
$DIMRND
 40
0.0
  9
$DIMDLE
 40
0.0
  9
$DIMEXE
 40
1.0
  9
$DIMTP
 40
1.0
  9
$DIMTM
 40
1.0
  9
$DIMTXT
 40
3.0
  9
$DIMCEN
 40
0.0
  9
$DIMTSZ
 40
0.0
  9
$DIMTOL
 70
     0
  9
$DIMLIM
 70
     0
  9
$DIMTIH
 70
     0
  9
$DIMTOH
 70
     0
  9
$DIMSE1
 70
     0
  9
$DIMSE2
 70
     0
  9
$DIMTAD
 70
     1
  9
$DIMZIN
 70
     8
  9
$DIMBLK
  1

  9
$DIMASO
 70
     1
  9
$DIMSHO
 70
     1
  9
$DIMPOST
  1

  9
$DIMAPOST
  1

  9
$DIMALT
 70
     0
  9
$DIMALTD
 70
     2
  9
$DIMALTF
 40
0.039
  9
$DIMLFAC
 40
1.0
  9
$DIMTOFL
 70
     1
  9
$DIMTVP
 40
0.0
  9
$DIMTIX
 70
     0
  9
$DIMSOXD
 70
     0
  9
$DIMSAH
 70
     1
  9
$DIMBLK1
  1
OPEN
  9
$DIMBLK2
  1
OPEN
  9
$DIMSTYLE
  2
IGA
  9
$DIMCLRD
 70
     0
  9
$DIMCLRE
 70
     0
  9
$DIMCLRT
 70
     0
  9
$DIMTFAC
 40
10.0
  9
$DIMGAP
 40
1.0
  9
$DIMJUST
 70
     0
  9
$DIMSD1
 70
     0
  9
$DIMSD2
 70
     0
  9
$DIMTOLJ
 70
     1
  9
$DIMTZIN
 70
     0
  9
$DIMALTZ
 70
     0
  9
$DIMALTTZ
 70
     0
  9
$DIMUPT
 70
     0
  9
$DIMDEC
 70
     4
  9
$DIMTDEC
 70
     4
  9
$DIMALTU
 70
     2
  9
$DIMALTTD
 70
     2
  9
$DIMTXSTY
  7
STANDARD
  9
$DIMAUNIT
 70
     0
  9
$DIMADEC
 70
     0
  9
$DIMALTRND
 40
0.0
  9
$DIMAZIN
 70
     0
  9
$DIMDSEP
 70
    46
  9
$DIMATFIT
 70
     3
  9
$DIMFRAC
 70
     0
  9
$DIMLDRBLK
  1
OPEN
  9
$DIMLUNIT
 70
     2
  9
$DIMLWD
 70
    -2
  9
$DIMLWE
 70
    -2
  9
$DIMTMOVE
 70
     0
  9
$LUNITS
 70
     2
  9
$LUPREC
 70
     3
  9
$SKETCHINC
 40
0.1
  9
$FILLETRAD
 40
50.0
  9
$AUNITS
 70
     0
  9
$AUPREC
 70
     0
  9
$MENU
  1
acad
  9
$ELEVATION
 40
0.0
  9
$PELEVATION
 40
0.0
  9
$THICKNESS
 40
0.0
  9
$LIMCHECK
 70
     0
  9
$CHAMFERA
 40
0.5
  9
$CHAMFERB
 40
0.5
  9
$CHAMFERC
 40
0.0
  9
$CHAMFERD
 40
0.0
  9
$SKPOLY
 70
     0
  9
$TDCREATE
 40
2451389.438053588
  9
$TDUCREATE
 40
2451389.063053588
  9
$TDUPDATE
 40
2460265.724306956
  9
$TDUUPDATE
 40
2460265.349306956
  9
$TDINDWG
 40
0.0191332292
  9
$TDUSRTIMER
 40
0.0191330093
  9
$USRTIMER
 70
     1
  9
$ANGBASE
 50
0.0
  9
$ANGDIR
 70
     0
  9
$PDMODE
 70
     0
  9
$PDSIZE
 40
0.0
  9
$PLINEWID
 40
0.0
  9
$SPLFRAME
 70
     0
  9
$SPLINETYPE
 70
     6
  9
$SPLINESEGS
 70
     8
  9
$HANDSEED
  5
8512
  9
$SURFTAB1
 70
     6
  9
$SURFTAB2
 70
     6
  9
$SURFTYPE
 70
     6
  9
$SURFU
 70
     6
  9
$SURFV
 70
     6
  9
$UCSBASE
  2

  9
$UCSNAME
  2

  9
$UCSORG
 10
0.0
 20
0.0
 30
0.0
  9
$UCSXDIR
 10
1.0
 20
0.0
 30
0.0
  9
$UCSYDIR
 10
0.0
 20
1.0
 30
0.0
  9
$UCSORTHOREF
  2

  9
$UCSORTHOVIEW
 70
     0
  9
$UCSORGTOP
 10
0.0
 20
0.0
 30
0.0
  9
$UCSORGBOTTOM
 10
0.0
 20
0.0
 30
0.0
  9
$UCSORGLEFT
 10
0.0
 20
0.0
 30
0.0
  9
$UCSORGRIGHT
 10
0.0
 20
0.0
 30
0.0
  9
$UCSORGFRONT
 10
0.0
 20
0.0
 30
0.0
  9
$UCSORGBACK
 10
0.0
 20
0.0
 30
0.0
  9
$PUCSBASE
  2

  9
$PUCSNAME
  2

  9
$PUCSORG
 10
0.0
 20
0.0
 30
0.0
  9
$PUCSXDIR
 10
1.0
 20
0.0
 30
0.0
  9
$PUCSYDIR
 10
0.0
 20
1.0
 30
0.0
  9
$PUCSORTHOREF
  2

  9
$PUCSORTHOVIEW
 70
     0
  9
$PUCSORGTOP
 10
0.0
 20
0.0
 30
0.0
  9
$PUCSORGBOTTOM
 10
0.0
 20
0.0
 30
0.0
  9
$PUCSORGLEFT
 10
0.0
 20
0.0
 30
0.0
  9
$PUCSORGRIGHT
 10
0.0
 20
0.0
 30
0.0
  9
$PUCSORGFRONT
 10
0.0
 20
0.0
 30
0.0
  9
$PUCSORGBACK
 10
0.0
 20
0.0
 30
0.0
  9
$USERI1
 70
     0
  9
$USERI2
 70
     0
  9
$USERI3
 70
     0
  9
$USERI4
 70
     0
  9
$USERI5
 70
     0
  9
$USERR1
 40
0.0
  9
$USERR2
 40
0.0
  9
$USERR3
 40
0.0
  9
$USERR4
 40
0.0
  9
$USERR5
 40
0.0
  9
$WORLDVIEW
 70
     1
  9
$SHADEDGE
 70
     3
  9
$SHADEDIF
 70
    70
  9
$TILEMODE
 70
     1
  9
$MAXACTVP
 70
    16
  9
$PINSBASE
 10
0.0
 20
0.0
 30
0.0
  9
$PLIMCHECK
 70
     0
  9
$PEXTMIN
 10
1.000000000000000E+20
 20
1.000000000000000E+20
 30
1.000000000000000E+20
  9
$PEXTMAX
 10
-1.000000000000000E+20
 20
-1.000000000000000E+20
 30
-1.000000000000000E+20
  9
$PLIMMIN
 10
0.0
 20
0.0
  9
$PLIMMAX
 10
12.0
 20
9.0
  9
$UNITMODE
 70
     0
  9
$VISRETAIN
 70
     0
  9
$PLINEGEN
 70
     0
  9
$PSLTSCALE
 70
     1
  9
$TREEDEPTH
 70
  3020
  9
$CMLSTYLE
  2
Standard
  9
$CMLJUST
 70
     0
  9
$CMLSCALE
 40
1.0
  9
$PROXYGRAPHICS
 70
     1
  9
$MEASUREMENT
 70
     0
  9
$CELWEIGHT
370
    -1
  9
$ENDCAPS
280
     0
  9
$JOINSTYLE
280
     0
  9
$LWDISPLAY
290
     0
  9
$INSUNITS
 70
     0
  9
$HYPERLINKBASE
  1

  9
$STYLESHEET
  1

  9
$XEDIT
290
     1
  9
$CEPSNTYPE
380
     0
  9
$PSTYLEMODE
290
     1
  9
$FINGERPRINTGUID
  2
{DCE7C6E5-5B5D-4744-A791-CA73F6934711}
  9
$VERSIONGUID
  2
{FEF9219A-B84E-4944-A34F-62F415E64394}
  9
$EXTNAMES
290
     1
  9
$PSVPSCALE
 40
0.0
  9
$OLESTARTUP
290
     0
  0
ENDSEC
  0
SECTION
  2
CLASSES
  0
CLASS
  1
ACDBDICTIONARYWDFLT
  2
AcDbDictionaryWithDefault
  3
ObjectDBX Classes
 90
        0
280
     0
281
     0
  0
CLASS
  1
MATERIAL
  2
AcDbMaterial
  3
ObjectDBX Classes
 90
     1153
280
     0
281
     0
  0
CLASS
  1
VISUALSTYLE
  2
AcDbVisualStyle
  3
ObjectDBX Classes
 90
     4095
280
     0
281
     0
  0
CLASS
  1
SCALE
  2
AcDbScale
  3
ObjectDBX Classes
 90
     1153
280
     0
281
     0
  0
CLASS
  1
TABLESTYLE
  2
AcDbTableStyle
  3
ObjectDBX Classes
 90
     4095
280
     0
281
     0
  0
CLASS
  1
MLEADERSTYLE
  2
AcDbMLeaderStyle
  3
ACDB_MLEADERSTYLE_CLASS
 90
     4095
280
     0
281
     0
  0
CLASS
  1
ACDBSECTIONVIEWSTYLE
  2
AcDbSectionViewStyle
  3
ObjectDBX Classes
 90
     1025
280
     0
281
     0
  0
CLASS
  1
ACDBDETAILVIEWSTYLE
  2
AcDbDetailViewStyle
  3
ObjectDBX Classes
 90
     1025
280
     0
281
     0
  0
CLASS
  1
DICTIONARYVAR
  2
AcDbDictionaryVar
  3
ObjectDBX Classes
 90
        0
280
     0
281
     0
  0
CLASS
  1
CELLSTYLEMAP
  2
AcDbCellStyleMap
  3
ObjectDBX Classes
 90
     1152
280
     0
281
     0
  0
CLASS
  1
ACDBPLACEHOLDER
  2
AcDbPlaceHolder
  3
ObjectDBX Classes
 90
        0
280
     0
281
     0
  0
CLASS
  1
LAYOUT
  2
AcDbLayout
  3
ObjectDBX Classes
 90
        0
280
     0
281
     0
  0
ENDSEC
  0
SECTION
  2
TABLES
  0
TABLE
  2
VPORT
  5
8096
330
0
100
AcDbSymbolTable
 70
     1
  0
VPORT
  5
8102
330
8096
100
AcDbSymbolTableRecord
100
AcDbViewportTableRecord
  2
*ACTIVE
 70
     0
 10
0.0
 20
0.0
 11
1.0
 21
1.0
 12
2625.00001222361
 22
3687.500017171259
 13
0.0
 23
0.0
 14
10.0
 24
10.0
 15
10.0
 25
10.0
 16
0.0
 26
0.0
 36
1.0
 17
0.0
 27
0.0
 37
0.0
 40
7422.678203440799
 41
2.050213675213675
 42
50.0
 43
0.0
 44
0.0
 50
0.0
 51
0.0
 71
     0
 72
   100
 73
     1
 74
     0
 75
     0
 76
     0
 77
     0
 78
     0
281
     0
 65
     1
110
0.0
120
0.0
130
0.0
111
1.0
121
0.0
131
0.0
112
0.0
122
1.0
132
0.0
 79
     0
146
0.0
1001
ACAD_NAV_VCDISPLAY
1070
     3
  0
ENDTAB
  0
TABLE
  2
LTYPE
  5
8093
330
0
100
AcDbSymbolTable
 70
     3
  0
LTYPE
  5
80E8
330
8093
100
AcDbSymbolTableRecord
100
AcDbLinetypeTableRecord
  2
ByBlock
 70
     0
  3

 72
    65
 73
     0
 40
0.0
  0
LTYPE
  5
80E9
330
8093
100
AcDbSymbolTableRecord
100
AcDbLinetypeTableRecord
  2
ByLayer
 70
     0
  3

 72
    65
 73
     0
 40
0.0
  0
LTYPE
  5
80EA
330
8093
100
AcDbSymbolTableRecord
100
AcDbLinetypeTableRecord
  2
CONTINUOUS
 70
     0
  3
Solid line
 72
    65
 73
     0
 40
0.0
  0
LTYPE
  5
8103
330
8093
100
AcDbSymbolTableRecord
100
AcDbLinetypeTableRecord
  2
CENTER
 70
     0
  3
____ _ ____ _ ____ _ ____ _ ____ _ ____ _ ____ 
 72
    65
 73
     4
 40
2.0
 49
1.25
 74
     0
 49
-0.25
 74
     0
 49
0.25
 74
     0
 49
-0.25
 74
     0
  0
ENDTAB
  0
TABLE
  2
LAYER
  5
8090
102
{ACAD_XDICTIONARY
360
8149
102
}
330
0
100
AcDbSymbolTable
 70
     7
  0
LAYER
  5
80E2
102
{ACAD_XDICTIONARY
360
816F
102
}
330
8090
100
AcDbSymbolTableRecord
100
AcDbLayerTableRecord
  2
0
 70
     0
 62
     7
  6
CONTINUOUS
370
    -3
390
809D
  0
LAYER
  5
8101
102
{ACAD_XDICTIONARY
360
8171
102
}
330
8090
100
AcDbSymbolTableRecord
100
AcDbLayerTableRecord
  2
3
 70
     0
 62
     2
  6
CONTINUOUS
370
    -3
390
809D
  0
LAYER
  5
8104
102
{ACAD_XDICTIONARY
360
8173
102
}
330
8090
100
AcDbSymbolTableRecord
100
AcDbLayerTableRecord
  2
2
 70
     0
 62
     3
  6
CENTER
370
    -3
390
809D
  0
LAYER
  5
8105
102
{ACAD_XDICTIONARY
360
8175
102
}
330
8090
100
AcDbSymbolTableRecord
100
AcDbLayerTableRecord
  2
1
 70
     0
 62
     4
  6
CONTINUOUS
370
    -3
390
809D
  0
LAYER
  5
8106
102
{ACAD_XDICTIONARY
360
8177
102
}
330
8090
100
AcDbSymbolTableRecord
100
AcDbLayerTableRecord
  2
4
 70
     0
 62
     7
  6
CONTINUOUS
370
    -3
390
809D
  0
LAYER
  5
8107
330
8090
100
AcDbSymbolTableRecord
100
AcDbLayerTableRecord
  2
DEFPOINTS
 70
     0
 62
     7
  6
CONTINUOUS
290
     0
370
    -3
390
809D
  0
LAYER
  5
8146
102
{ACAD_XDICTIONARY
360
8147
102
}
330
8090
100
AcDbSymbolTableRecord
100
AcDbLayerTableRecord
  2
FUTO
 70
     0
 62
     4
  6
CONTINUOUS
370
    -3
390
809D
  0
ENDTAB
  0
TABLE
  2
STYLE
  5
8091
330
0
100
AcDbSymbolTable
 70
     2
  0
STYLE
  5
80E3
330
8091
100
AcDbSymbolTableRecord
100
AcDbTextStyleTableRecord
  2
STANDARD
 70
     0
 40
0.0
 41
1.0
 50
0.0
 71
     0
 42
180.0
  3
simplex.shx
  4
extfont.shx
  0
STYLE
  5
80E7
330
8091
100
AcDbSymbolTableRecord
100
AcDbTextStyleTableRecord
  2
Annotative
 70
     0
 40
0.0
 41
1.0
 50
0.0
 71
     0
 42
0.2
  3
txt
  4

1001
AcadAnnotative
1000
AnnotativeData
1002
{
1070
     1
1070
     1
1002
}
  0
ENDTAB
  0
TABLE
  2
VIEW
  5
8094
330
0
100
AcDbSymbolTable
 70
     0
  0
ENDTAB
  0
TABLE
  2
UCS
  5
8095
330
0
100
AcDbSymbolTable
 70
     0
  0
ENDTAB
  0
TABLE
  2
APPID
  5
8097
330
0
100
AcDbSymbolTable
 70
     8
  0
APPID
  5
80E4
330
8097
100
AcDbSymbolTableRecord
100
AcDbRegAppTableRecord
  2
ACAD
 70
     0
  0
APPID
  5
80EB
330
8097
100
AcDbSymbolTableRecord
100
AcDbRegAppTableRecord
  2
AcadAnnotative
 70
     0
  0
APPID
  5
8148
330
8097
100
AcDbSymbolTableRecord
100
AcDbRegAppTableRecord
  2
ACAD_NAV_VCDISPLAY
 70
     0
  0
APPID
  5
81C6
330
8097
100
AcDbSymbolTableRecord
100
AcDbRegAppTableRecord
  2
ACAD_DSTYLE_DIMJAG
 70
     0
  0
APPID
  5
81C7
330
8097
100
AcDbSymbolTableRecord
100
AcDbRegAppTableRecord
  2
ACAD_DSTYLE_DIMTALN
 70
     0
  0
APPID
  5
8206
330
8097
100
AcDbSymbolTableRecord
100
AcDbRegAppTableRecord
  2
AcadAnnoMonitorAlertIconDisabled
 70
     0
  0
APPID
  5
8207
330
8097
100
AcDbSymbolTableRecord
100
AcDbRegAppTableRecord
  2
ACAD_EXEMPT_FROM_CAD_STANDARDS
 70
     0
  0
APPID
  5
8509
330
8097
100
AcDbSymbolTableRecord
100
AcDbRegAppTableRecord
  2
ACAD_MLEADERVER
 70
     0
  0
ENDTAB
  0
TABLE
  2
DIMSTYLE
  5
8098
330
0
100
AcDbSymbolTable
 70
     4
100
AcDbDimStyleTable
 71
     1
340
8108
  0
DIMSTYLE
105
80E5
102
{ACAD_REACTORS
330
7C29
330
7C2A
330
7C71
330
7C96
330
7C97
330
7C98
330
7CA7
330
7CAB
330
7CAC
102
}
330
8098
100
AcDbSymbolTableRecord
100
AcDbDimStyleTableRecord
  2
Standard
 70
     0
340
80E3
  0
DIMSTYLE
105
80E6
330
8098
100
AcDbSymbolTableRecord
100
AcDbDimStyleTableRecord
  2
Annotative
 70
     0
340
80E3
1001
AcadAnnotative
1000
AnnotativeData
1002
{
1070
     1
1070
     1
1002
}
  0
DIMSTYLE
105
8108
102
{ACAD_REACTORS
330
81C8
330
81D5
330
822D
330
823A
330
82A9
330
82B6
330
82C3
330
82D0
330
82ED
330
82FA
330
830C
330
8372
330
847A
102
}
330
8098
100
AcDbSymbolTableRecord
100
AcDbDimStyleTableRecord
  2
IGA
 70
     0
 40
2.0
 41
2.0
 42
0.5
 43
10.0
 44
1.0
 47
1.0
 48
1.0
 73
     0
 74
     0
 77
     1
 78
     8
140
3.0
141
0.0
143
0.03937
146
10.0
147
1.0
173
     1
271
     3
272
     3
279
     2
284
     8
285
     8
286
     8
340
80E3
  0
DIMSTYLE
105
8109
330
8098
100
AcDbSymbolTableRecord
100
AcDbDimStyleTableRecord
  2
MATSU
 70
     0
 41
2.0
 42
1.0
 43
10.0
 44
1.0
 73
     0
 74
     0
 77
     1
 78
     8
140
3.0
141
0.0
143
0.03937
147
0.5
172
     1
173
     1
176
   256
177
   256
178
   256
271
     3
272
     3
279
     2
284
     8
285
     8
286
     8
340
80E3
  0
ENDTAB
  0
TABLE
  2
BLOCK_RECORD
  5
808F
330
0
100
AcDbSymbolTable
 70
    50
  0
BLOCK_RECORD
  5
80FD
330
808F
100
AcDbSymbolTableRecord
100
AcDbBlockTableRecord
  2
*Model_Space
340
8100
  0
BLOCK_RECORD
  5
80F9
330
808F
100
AcDbSymbolTableRecord
100
AcDbBlockTableRecord
  2
*Paper_Space
340
80FC
  0
BLOCK_RECORD
  5
810D
330
808F
100
AcDbSymbolTableRecord
100
AcDbBlockTableRecord
  2
$MODEL_SPACE
340
0
  0
BLOCK_RECORD
  5
810F
330
808F
100
AcDbSymbolTableRecord
100
AcDbBlockTableRecord
  2
$PAPER_SPACE
340
0
  0
BLOCK_RECORD
  5
8111
330
808F
100
AcDbSymbolTableRecord
100
AcDbBlockTableRecord
  2
_OPEN
340
0
102
{BLKREFS
331
82B0
331
82B1
331
82BD
331
82BE
331
82CA
331
82CB
331
82D7
331
82D8
331
8348
331
8349
331
7F8E
331
7F8F
331
8082
331
8083
331
7FA2
331
7FA3
331
7FAF
331
7FB0
331
7FBC
331
7FBD
331
7FC9
331
7FCA
331
7FFD
331
7FFE
331
8227
331
8228
331
8234
331
8235
331
824A
331
824B
331
7DF4
331
7DF5
331
7DFF
331
7E00
331
7E0A
331
7E0B
331
7E2B
331
7E2C
331
7E41
331
7E42
331
7E4C
331
7E4D
331
7E57
331
7E58
331
7E62
331
7E63
331
7E6D
331
7E6E
331
7E78
331
7E79
331
7E83
331
7E84
331
7E8E
331
7E8F
331
8073
331
807A
331
807B
331
8215
331
8216
331
838B
331
838C
331
8420
331
8476
331
848A
331
848B
102
}
  0
BLOCK_RECORD
  5
8113
330
808F
100
AcDbSymbolTableRecord
100
AcDbBlockTableRecord
  2
YA_N
340
0
102
{BLKREFS
331
7C04
331
7C26
331
7C3E
331
7C40
102
}
  0
BLOCK_RECORD
  5
8115
330
808F
100
AcDbSymbolTableRecord
100
AcDbBlockTableRecord
  2
*D4
340
0
  0
BLOCK_RECORD
  5
8117
330
808F
100
AcDbSymbolTableRecord
100
AcDbBlockTableRecord
  2
*D5
340
0
  0
BLOCK_RECORD
  5
8119
330
808F
100
AcDbSymbolTableRecord
100
AcDbBlockTableRecord
  2
*D6
340
0
  0
BLOCK_RECORD
  5
811B
330
808F
100
AcDbSymbolTableRecord
100
AcDbBlockTableRecord
  2
*D7
340
0
  0
BLOCK_RECORD
  5
811D
330
808F
100
AcDbSymbolTableRecord
100
AcDbBlockTableRecord
  2
*D8
340
0
  0
BLOCK_RECORD
  5
811F
330
808F
100
AcDbSymbolTableRecord
100
AcDbBlockTableRecord
  2
*D9
340
0
  0
BLOCK_RECORD
  5
8121
330
808F
100
AcDbSymbolTableRecord
100
AcDbBlockTableRecord
  2
*D10
340
0
  0
BLOCK_RECORD
  5
8123
330
808F
100
AcDbSymbolTableRecord
100
AcDbBlockTableRecord
  2
*D11
340
0
  0
BLOCK_RECORD
  5
8125
330
808F
100
AcDbSymbolTableRecord
100
AcDbBlockTableRecord
  2
*D12
340
0
  0
BLOCK_RECORD
  5
8127
330
808F
100
AcDbSymbolTableRecord
100
AcDbBlockTableRecord
  2
*D13
340
0
  0
BLOCK_RECORD
  5
8129
330
808F
100
AcDbSymbolTableRecord
100
AcDbBlockTableRecord
  2
*D14
340
0
  0
BLOCK_RECORD
  5
812B
330
808F
100
AcDbSymbolTableRecord
100
AcDbBlockTableRecord
  2
*D15
340
0
  0
BLOCK_RECORD
  5
812D
330
808F
100
AcDbSymbolTableRecord
100
AcDbBlockTableRecord
  2
*D16
340
0
  0
BLOCK_RECORD
  5
812F
330
808F
100
AcDbSymbolTableRecord
100
AcDbBlockTableRecord
  2
_DOT
340
0
102
{BLKREFS
331
8072
102
}
  0
BLOCK_RECORD
  5
8130
330
808F
100
AcDbSymbolTableRecord
100
AcDbBlockTableRecord
  2
*D18
340
0
  0
BLOCK_RECORD
  5
8132
330
808F
100
AcDbSymbolTableRecord
100
AcDbBlockTableRecord
  2
*D19
340
0
  0
BLOCK_RECORD
  5
8134
330
808F
100
AcDbSymbolTableRecord
100
AcDbBlockTableRecord
  2
*D20
340
0
  0
BLOCK_RECORD
  5
8137
330
808F
100
AcDbSymbolTableRecord
100
AcDbBlockTableRecord
  2
*D21
340
0
  0
BLOCK_RECORD
  5
8139
330
808F
100
AcDbSymbolTableRecord
100
AcDbBlockTableRecord
  2
*D22
340
0
  0
BLOCK_RECORD
  5
813B
330
808F
100
AcDbSymbolTableRecord
100
AcDbBlockTableRecord
  2
*D23
340
0
  0
BLOCK_RECORD
  5
813D
330
808F
100
AcDbSymbolTableRecord
100
AcDbBlockTableRecord
  2
*D24
340
0
  0
BLOCK_RECORD
  5
813F
330
808F
100
AcDbSymbolTableRecord
100
AcDbBlockTableRecord
  2
_NONE
340
0
  0
BLOCK_RECORD
  5
8141
330
808F
100
AcDbSymbolTableRecord
100
AcDbBlockTableRecord
  2
*D26
340
0
  0
BLOCK_RECORD
  5
8143
330
808F
100
AcDbSymbolTableRecord
100
AcDbBlockTableRecord
  2
*D27
340
0
  0
BLOCK_RECORD
  5
81C9
330
808F
100
AcDbSymbolTableRecord
100
AcDbBlockTableRecord
  2
*D29
340
0
  0
BLOCK_RECORD
  5
81D6
330
808F
100
AcDbSymbolTableRecord
100
AcDbBlockTableRecord
  2
*D30
340
0
  0
BLOCK_RECORD
  5
822E
330
808F
100
AcDbSymbolTableRecord
100
AcDbBlockTableRecord
  2
*D31
340
0
  0
BLOCK_RECORD
  5
823B
330
808F
100
AcDbSymbolTableRecord
100
AcDbBlockTableRecord
  2
*D32
340
0
  0
BLOCK_RECORD
  5
8250
330
808F
100
AcDbSymbolTableRecord
100
AcDbBlockTableRecord
  2
*D33
340
0
  0
BLOCK_RECORD
  5
825D
330
808F
100
AcDbSymbolTableRecord
100
AcDbBlockTableRecord
  2
*D34
340
0
  0
BLOCK_RECORD
  5
826A
330
808F
100
AcDbSymbolTableRecord
100
AcDbBlockTableRecord
  2
*D35
340
0
  0
BLOCK_RECORD
  5
8277
330
808F
100
AcDbSymbolTableRecord
100
AcDbBlockTableRecord
  2
*D36
340
0
  0
BLOCK_RECORD
  5
8284
330
808F
100
AcDbSymbolTableRecord
100
AcDbBlockTableRecord
  2
*D37
340
0
  0
BLOCK_RECORD
  5
828F
330
808F
100
AcDbSymbolTableRecord
100
AcDbBlockTableRecord
  2
*D38
340
0
  0
BLOCK_RECORD
  5
829C
330
808F
100
AcDbSymbolTableRecord
100
AcDbBlockTableRecord
  2
*D39
340
0
  0
BLOCK_RECORD
  5
82AA
330
808F
100
AcDbSymbolTableRecord
100
AcDbBlockTableRecord
  2
*D40
340
0
  0
BLOCK_RECORD
  5
82B7
330
808F
100
AcDbSymbolTableRecord
100
AcDbBlockTableRecord
  2
*D41
340
0
  0
BLOCK_RECORD
  5
82C4
330
808F
100
AcDbSymbolTableRecord
100
AcDbBlockTableRecord
  2
*D42
340
0
  0
BLOCK_RECORD
  5
82D1
330
808F
100
AcDbSymbolTableRecord
100
AcDbBlockTableRecord
  2
*D43
340
0
  0
BLOCK_RECORD
  5
82EE
330
808F
100
AcDbSymbolTableRecord
100
AcDbBlockTableRecord
  2
*D44
340
0
  0
BLOCK_RECORD
  5
82FB
330
808F
100
AcDbSymbolTableRecord
100
AcDbBlockTableRecord
  2
*D45
340
0
  0
BLOCK_RECORD
  5
830D
330
808F
100
AcDbSymbolTableRecord
100
AcDbBlockTableRecord
  2
*D46
340
0
  0
BLOCK_RECORD
  5
8373
330
808F
100
AcDbSymbolTableRecord
100
AcDbBlockTableRecord
  2
*D47
340
0
  0
BLOCK_RECORD
  5
8413
330
808F
100
AcDbSymbolTableRecord
100
AcDbBlockTableRecord
  2
_DotSmall
340
0
102
{BLKREFS
331
8421
331
8475
102
}
  0
BLOCK_RECORD
  5
847B
330
808F
100
AcDbSymbolTableRecord
100
AcDbBlockTableRecord
  2
*D49
340
0
  0
ENDTAB
  0
ENDSEC
  0
SECTION
  2
BLOCKS
  0
BLOCK
  5
80FE
330
80FD
100
AcDbEntity
  8
0
100
AcDbBlockBegin
  2
*Model_Space
 70
     0
 10
0.0
 20
0.0
 30
0.0
  3
*Model_Space
  1

  0
ENDBLK
  5
80FF
330
80FD
100
AcDbEntity
  8
0
100
AcDbBlockEnd
  0
BLOCK
  5
80FA
330
80F9
100
AcDbEntity
 67
     1
  8
0
100
AcDbBlockBegin
  2
*Paper_Space
 70
     0
 10
0.0
 20
0.0
 30
0.0
  3
*Paper_Space
  1

  0
ENDBLK
  5
80FB
330
80F9
100
AcDbEntity
 67
     1
  8
0
100
AcDbBlockEnd
  0
BLOCK
  5
810E
330
810D
100
AcDbEntity
  8
0
100
AcDbBlockBegin
  2
$MODEL_SPACE
 70
     0
 10
0.0
 20
0.0
 30
0.0
  3
$MODEL_SPACE
  1

  0
ENDBLK
  5
1B
330
810D
100
AcDbEntity
  8
0
100
AcDbBlockEnd
  0
BLOCK
  5
8110
330
810F
100
AcDbEntity
  8
0
100
AcDbBlockBegin
  2
$PAPER_SPACE
 70
     0
 10
0.0
 20
0.0
 30
0.0
  3
$PAPER_SPACE
  1

  0
ENDBLK
  5
18
330
810F
100
AcDbEntity
  8
0
100
AcDbBlockEnd
  0
BLOCK
  5
8112
330
8111
100
AcDbEntity
  8
0
100
AcDbBlockBegin
  2
_OPEN
 70
     0
 10
0.0
 20
0.0
 30
0.0
  3
_OPEN
  1

  0
LINE
  5
79FD
330
8111
100
AcDbEntity
  8
0
  6
ByBlock
 62
     0
100
AcDbLine
 10
-1.0
 20
0.1666666666666666
 30
0.0
 11
0.0
 21
0.0
 31
0.0
  0
LINE
  5
79FE
330
8111
100
AcDbEntity
  8
0
  6
ByBlock
 62
     0
100
AcDbLine
 10
0.0
 20
0.0
 30
0.0
 11
-1.0
 21
-0.1666666666666666
 31
0.0
  0
LINE
  5
79FF
330
8111
100
AcDbEntity
  8
0
  6
ByBlock
 62
     0
100
AcDbLine
 10
0.0
 20
0.0
 30
0.0
 11
-1.0
 21
0.0
 31
0.0
  0
ENDBLK
  5
7A01
330
8111
100
AcDbEntity
  8
0
100
AcDbBlockEnd
  0
BLOCK
  5
8114
330
8113
100
AcDbEntity
  8
0
100
AcDbBlockBegin
  2
YA_N
 70
     0
 10
0.0
 20
0.0
 30
0.0
  3
YA_N
  1

  0
ENDBLK
  5
7A0C
330
8113
100
AcDbEntity
  8
0
100
AcDbBlockEnd
  0
BLOCK
  5
8116
330
8115
100
AcDbEntity
  8
0
100
AcDbBlockBegin
  2
*D4
 70
     1
 10
0.0
 20
0.0
 30
0.0
  3
*D4
  1

  0
LINE
  5
7DF1
330
8115
100
AcDbEntity
  8
0
  6
ByBlock
100
AcDbLine
 10
2798.866167799455
 20
2409.887615409481
 30
0.0
 11
2947.211511341518
 21
2409.887615409481
 31
0.0
  0
LINE
  5
7DF2
330
8115
100
AcDbEntity
  8
0
  6
ByBlock
100
AcDbLine
 10
2798.866167799455
 20
1584.887615409481
 30
0.0
 11
2947.211511341518
 21
1584.887615409481
 31
0.0
  0
LINE
  5
7DF3
330
8115
100
AcDbEntity
  8
0
  6
ByBlock
100
AcDbLine
 10
2922.211511341518
 20
2359.887615409481
 30
0.0
 11
2922.211511341518
 21
1634.887615409481
 31
0.0
  0
INSERT
  5
7DF4
330
8115
100
AcDbEntity
  8
0
  6
ByBlock
100
AcDbBlockReference
  2
_OPEN
 10
2922.211511341518
 20
2409.887615409481
 30
0.0
 41
50.0
 42
50.0
 43
50.0
 50
90.0
  0
INSERT
  5
7DF5
330
8115
100
AcDbEntity
  8
0
  6
ByBlock
100
AcDbBlockReference
  2
_OPEN
 10
2922.211511341518
 20
1584.887615409481
 30
0.0
 41
50.0
 42
50.0
 43
50.0
 50
270.0
  0
TEXT
  5
7DF6
330
8115
100
AcDbEntity
  8
3
100
AcDbText
 10
2909.711511341518
 20
1900.959043980909
 30
0.0
 40
75.0
  1
825
 50
90.0
100
AcDbText
  0
POINT
  5
7DF7
330
8115
100
AcDbEntity
  8
DEFPOINTS
  6
ByBlock
 62
     0
100
AcDbPoint
 10
2773.866167799454
 20
2409.887615409481
 30
0.0
  0
POINT
  5
7DF8
330
8115
100
AcDbEntity
  8
DEFPOINTS
  6
ByBlock
 62
     0
100
AcDbPoint
 10
2773.866167799454
 20
1584.887615409481
 30
0.0
  0
POINT
  5
7DF9
330
8115
100
AcDbEntity
  8
DEFPOINTS
  6
ByBlock
 62
     0
100
AcDbPoint
 10
2922.211511341518
 20
1584.887615409481
 30
0.0
  0
ENDBLK
  5
7DFA
330
8115
100
AcDbEntity
  8
0
100
AcDbBlockEnd
  0
BLOCK
  5
8118
330
8117
100
AcDbEntity
  8
0
100
AcDbBlockBegin
  2
*D5
 70
     1
 10
0.0
 20
0.0
 30
0.0
  3
*D5
  1

  0
LINE
  5
7DFC
330
8117
100
AcDbEntity
  8
0
  6
ByBlock
100
AcDbLine
 10
2798.866167799455
 20
2409.887615409481
 30
0.0
 11
3099.494913915321
 21
2409.887615409481
 31
0.0
  0
LINE
  5
7DFD
330
8117
100
AcDbEntity
  8
0
  6
ByBlock
100
AcDbLine
 10
2920.337959649845
 20
1561.887615409481
 30
0.0
 11
3099.494913915321
 21
1561.887615409481
 31
0.0
  0
LINE
  5
7DFE
330
8117
100
AcDbEntity
  8
0
  6
ByBlock
100
AcDbLine
 10
3074.494913915321
 20
2359.887615409481
 30
0.0
 11
3074.494913915321
 21
1611.887615409481
 31
0.0
  0
INSERT
  5
7DFF
330
8117
100
AcDbEntity
  8
0
  6
ByBlock
100
AcDbBlockReference
  2
_OPEN
 10
3074.494913915321
 20
2409.887615409481
 30
0.0
 41
50.0
 42
50.0
 43
50.0
 50
90.0
  0
INSERT
  5
7E00
330
8117
100
AcDbEntity
  8
0
  6
ByBlock
100
AcDbBlockReference
  2
_OPEN
 10
3074.494913915321
 20
1561.887615409481
 30
0.0
 41
50.0
 42
50.0
 43
50.0
 50
270.0
  0
TEXT
  5
7E01
330
8117
100
AcDbEntity
  8
3
100
AcDbText
 10
3061.994913915321
 20
1889.459043980909
 30
0.0
 40
75.0
  1
848
 50
90.0
100
AcDbText
  0
POINT
  5
7E02
330
8117
100
AcDbEntity
  8
DEFPOINTS
  6
ByBlock
 62
     0
100
AcDbPoint
 10
2773.866167799454
 20
2409.887615409481
 30
0.0
  0
POINT
  5
7E03
330
8117
100
AcDbEntity
  8
DEFPOINTS
  6
ByBlock
 62
     0
100
AcDbPoint
 10
2895.337959649845
 20
1561.887615409481
 30
0.0
  0
POINT
  5
7E04
330
8117
100
AcDbEntity
  8
DEFPOINTS
  6
ByBlock
 62
     0
100
AcDbPoint
 10
3074.494913915321
 20
1561.887615409481
 30
0.0
  0
ENDBLK
  5
7E05
330
8117
100
AcDbEntity
  8
0
100
AcDbBlockEnd
  0
BLOCK
  5
811A
330
8119
100
AcDbEntity
  8
0
100
AcDbBlockBegin
  2
*D6
 70
     1
 10
0.0
 20
0.0
 30
0.0
  3
*D6
  1

  0
LINE
  5
7E07
330
8119
100
AcDbEntity
  8
0
  6
ByBlock
100
AcDbLine
 10
2920.337959649845
 20
1561.887615409481
 30
0.0
 11
3100.135824977384
 21
1561.887615409481
 31
0.0
  0
LINE
  5
7E08
330
8119
100
AcDbEntity
  8
0
  6
ByBlock
100
AcDbLine
 10
2753.866167799455
 20
971.8876154094807
 30
0.0
 11
3100.135824977384
 21
971.8876154094807
 31
0.0
  0
LINE
  5
7E09
330
8119
100
AcDbEntity
  8
0
  6
ByBlock
100
AcDbLine
 10
3075.135824977384
 20
1511.887615409481
 30
0.0
 11
3075.135824977384
 21
1021.88761540948
 31
0.0
  0
INSERT
  5
7E0A
330
8119
100
AcDbEntity
  8
0
  6
ByBlock
100
AcDbBlockReference
  2
_OPEN
 10
3075.135824977384
 20
1561.887615409481
 30
0.0
 41
50.0
 42
50.0
 43
50.0
 50
90.0
  0
INSERT
  5
7E0B
330
8119
100
AcDbEntity
  8
0
  6
ByBlock
100
AcDbBlockReference
  2
_OPEN
 10
3075.135824977384
 20
971.8876154094807
 30
0.0
 41
50.0
 42
50.0
 43
50.0
 50
270.0
  0
TEXT
  5
7E0C
330
8119
100
AcDbEntity
  8
3
100
AcDbText
 10
3062.635824977384
 20
1170.459043980909
 30
0.0
 40
75.0
  1
590
 50
90.0
100
AcDbText
  0
POINT
  5
7E0D
330
8119
100
AcDbEntity
  8
DEFPOINTS
  6
ByBlock
 62
     0
100
AcDbPoint
 10
2895.337959649845
 20
1561.887615409481
 30
0.0
  0
POINT
  5
7E0E
330
8119
100
AcDbEntity
  8
DEFPOINTS
  6
ByBlock
 62
     0
100
AcDbPoint
 10
2728.866167799455
 20
971.8876154094807
 30
0.0
  0
POINT
  5
7E0F
330
8119
100
AcDbEntity
  8
DEFPOINTS
  6
ByBlock
 62
     0
100
AcDbPoint
 10
3075.135824977384
 20
971.8876154094807
 30
0.0
  0
ENDBLK
  5
7E10
330
8119
100
AcDbEntity
  8
0
100
AcDbBlockEnd
  0
BLOCK
  5
811C
330
811B
100
AcDbEntity
  8
0
100
AcDbBlockBegin
  2
*D7
 70
     1
 10
0.0
 20
0.0
 30
0.0
  3
*D7
  1

  0
LINE
  5
7E28
330
811B
100
AcDbEntity
  8
0
  6
ByBlock
100
AcDbLine
 10
5441.207505112644
 20
1986.88761540948
 30
0.0
 11
5740.43091600962
 21
1986.88761540948
 31
0.0
  0
LINE
  5
7E29
330
811B
100
AcDbEntity
  8
0
  6
ByBlock
100
AcDbLine
 10
5441.207505112644
 20
1136.887615409481
 30
0.0
 11
5740.43091600962
 21
1136.887615409481
 31
0.0
  0
LINE
  5
7E2A
330
811B
100
AcDbEntity
  8
0
  6
ByBlock
100
AcDbLine
 10
5715.43091600962
 20
1936.88761540948
 30
0.0
 11
5715.43091600962
 21
1186.887615409481
 31
0.0
  0
INSERT
  5
7E2B
330
811B
100
AcDbEntity
  8
0
  6
ByBlock
100
AcDbBlockReference
  2
_OPEN
 10
5715.43091600962
 20
1986.88761540948
 30
0.0
 41
50.0
 42
50.0
 43
50.0
 50
90.0
  0
INSERT
  5
7E2C
330
811B
100
AcDbEntity
  8
0
  6
ByBlock
100
AcDbBlockReference
  2
_OPEN
 10
5715.43091600962
 20
1136.887615409481
 30
0.0
 41
50.0
 42
50.0
 43
50.0
 50
270.0
  0
TEXT
  5
7E2D
330
811B
100
AcDbEntity
  8
3
100
AcDbText
 10
5702.93091600962
 20
1427.959043980909
 30
0.0
 40
75.0
  1
\U+03C6850
 50
90.0
100
AcDbText
  0
POINT
  5
7E2E
330
811B
100
AcDbEntity
  8
DEFPOINTS
  6
ByBlock
 62
     0
100
AcDbPoint
 10
5416.207505112645
 20
1986.88761540948
 30
0.0
  0
POINT
  5
7E2F
330
811B
100
AcDbEntity
  8
DEFPOINTS
  6
ByBlock
 62
     0
100
AcDbPoint
 10
5416.207505112645
 20
1136.887615409481
 30
0.0
  0
POINT
  5
7E30
330
811B
100
AcDbEntity
  8
DEFPOINTS
  6
ByBlock
 62
     0
100
AcDbPoint
 10
5715.43091600962
 20
1136.887615409481
 30
0.0
  0
ENDBLK
  5
7E31
330
811B
100
AcDbEntity
  8
0
100
AcDbBlockEnd
  0
BLOCK
  5
811E
330
811D
100
AcDbEntity
  8
0
100
AcDbBlockBegin
  2
*D8
 70
     1
 10
0.0
 20
0.0
 30
0.0
  3
*D8
  1

  0
LINE
  5
7E3E
330
811D
100
AcDbEntity
  8
0
  6
ByBlock
100
AcDbLine
 10
1728.866167799454
 20
4579.380572240498
 30
0.0
 11
1728.866167799454
 21
4730.503855791452
 31
0.0
  0
LINE
  5
7E3F
330
811D
100
AcDbEntity
  8
0
  6
ByBlock
100
AcDbLine
 10
2728.866167799455
 20
4579.380572240498
 30
0.0
 11
2728.866167799455
 21
4730.503855791452
 31
0.0
  0
LINE
  5
7E40
330
811D
100
AcDbEntity
  8
0
  6
ByBlock
100
AcDbLine
 10
1778.866167799454
 20
4705.503855791452
 30
0.0
 11
2678.866167799455
 21
4705.503855791452
 31
0.0
  0
INSERT
  5
7E41
330
811D
100
AcDbEntity
  8
0
  6
ByBlock
100
AcDbBlockReference
  2
_OPEN
 10
1728.866167799454
 20
4705.503855791452
 30
0.0
 41
50.0
 42
50.0
 43
50.0
 50
180.0
  0
INSERT
  5
7E42
330
811D
100
AcDbEntity
  8
0
  6
ByBlock
100
AcDbBlockReference
  2
_OPEN
 10
2728.866167799455
 20
4705.503855791452
 30
0.0
 41
50.0
 42
50.0
 43
50.0
  0
TEXT
  5
7E43
330
811D
100
AcDbEntity
  8
3
100
AcDbText
 10
2103.866167799455
 20
4718.003855791452
 30
0.0
 40
75.0
  1
1000
100
AcDbText
  0
POINT
  5
7E44
330
811D
100
AcDbEntity
  8
DEFPOINTS
  6
ByBlock
 62
     0
100
AcDbPoint
 10
1728.866167799454
 20
4554.380572240497
 30
0.0
  0
POINT
  5
7E45
330
811D
100
AcDbEntity
  8
DEFPOINTS
  6
ByBlock
 62
     0
100
AcDbPoint
 10
2728.866167799455
 20
4554.380572240497
 30
0.0
  0
POINT
  5
7E46
330
811D
100
AcDbEntity
  8
DEFPOINTS
  6
ByBlock
 62
     0
100
AcDbPoint
 10
2728.866167799455
 20
4705.503855791452
 30
0.0
  0
ENDBLK
  5
7E47
330
811D
100
AcDbEntity
  8
0
100
AcDbBlockEnd
  0
BLOCK
  5
8120
330
811F
100
AcDbEntity
  8
0
100
AcDbBlockBegin
  2
*D9
 70
     1
 10
0.0
 20
0.0
 30
0.0
  3
*D9
  1

  0
LINE
  5
7E49
330
811F
100
AcDbEntity
  8
0
  6
ByBlock
100
AcDbLine
 10
2753.866167799455
 20
4554.380572240497
 30
0.0
 11
2971.802895949344
 21
4554.380572240497
 31
0.0
  0
LINE
  5
7E4A
330
811F
100
AcDbEntity
  8
0
  6
ByBlock
100
AcDbLine
 10
2753.866167799455
 20
3299.3805722405
 30
0.0
 11
2971.802895949344
 21
3299.3805722405
 31
0.0
  0
LINE
  5
7E4B
330
811F
100
AcDbEntity
  8
0
  6
ByBlock
100
AcDbLine
 10
2946.802895949344
 20
4504.380572240497
 30
0.0
 11
2946.802895949344
 21
3349.380572240499
 31
0.0
  0
INSERT
  5
7E4C
330
811F
100
AcDbEntity
  8
0
  6
ByBlock
100
AcDbBlockReference
  2
_OPEN
 10
2946.802895949344
 20
4554.380572240497
 30
0.0
 41
50.0
 42
50.0
 43
50.0
 50
90.0
  0
INSERT
  5
7E4D
330
811F
100
AcDbEntity
  8
0
  6
ByBlock
100
AcDbBlockReference
  2
_OPEN
 10
2946.802895949344
 20
3299.3805722405
 30
0.0
 41
50.0
 42
50.0
 43
50.0
 50
270.0
  0
TEXT
  5
7E4E
330
811F
100
AcDbEntity
  8
3
100
AcDbText
 10
2934.302895949344
 20
3801.8805722405
 30
0.0
 40
75.0
  1
1255
 50
90.0
100
AcDbText
  0
POINT
  5
7E4F
330
811F
100
AcDbEntity
  8
DEFPOINTS
  6
ByBlock
 62
     0
100
AcDbPoint
 10
2728.866167799455
 20
4554.380572240497
 30
0.0
  0
POINT
  5
7E50
330
811F
100
AcDbEntity
  8
DEFPOINTS
  6
ByBlock
 62
     0
100
AcDbPoint
 10
2728.866167799455
 20
3299.3805722405
 30
0.0
  0
POINT
  5
7E51
330
811F
100
AcDbEntity
  8
DEFPOINTS
  6
ByBlock
 62
     0
100
AcDbPoint
 10
2946.802895949344
 20
3299.3805722405
 30
0.0
  0
ENDBLK
  5
7E52
330
811F
100
AcDbEntity
  8
0
100
AcDbBlockEnd
  0
BLOCK
  5
8122
330
8121
100
AcDbEntity
  8
0
100
AcDbBlockBegin
  2
*D10
 70
     1
 10
0.0
 20
0.0
 30
0.0
  3
*D10
  1

  0
LINE
  5
7E54
330
8121
100
AcDbEntity
  8
0
  6
ByBlock
100
AcDbLine
 10
953.8661677994548
 20
4049.380572240499
 30
0.0
 11
801.7133386761415
 21
4049.380572240499
 31
0.0
  0
LINE
  5
7E55
330
8121
100
AcDbEntity
  8
0
  6
ByBlock
100
AcDbLine
 10
953.8661677994548
 20
3299.3805722405
 30
0.0
 11
801.7133386761415
 21
3299.3805722405
 31
0.0
  0
LINE
  5
7E56
330
8121
100
AcDbEntity
  8
0
  6
ByBlock
100
AcDbLine
 10
826.7133386761415
 20
3999.380572240499
 30
0.0
 11
826.7133386761415
 21
3349.3805722405
 31
0.0
  0
INSERT
  5
7E57
330
8121
100
AcDbEntity
  8
0
  6
ByBlock
100
AcDbBlockReference
  2
_OPEN
 10
826.7133386761415
 20
4049.380572240499
 30
0.0
 41
50.0
 42
50.0
 43
50.0
 50
90.0
  0
INSERT
  5
7E58
330
8121
100
AcDbEntity
  8
0
  6
ByBlock
100
AcDbBlockReference
  2
_OPEN
 10
826.7133386761415
 20
3299.3805722405
 30
0.0
 41
50.0
 42
50.0
 43
50.0
 50
270.0
  0
TEXT
  5
7E59
330
8121
100
AcDbEntity
  8
3
100
AcDbText
 10
814.2133386761415
 20
3577.952000811928
 30
0.0
 40
75.0
  1
750
 50
90.0
100
AcDbText
  0
POINT
  5
7E5A
330
8121
100
AcDbEntity
  8
DEFPOINTS
  6
ByBlock
 62
     0
100
AcDbPoint
 10
978.8661677994548
 20
4049.380572240499
 30
0.0
  0
POINT
  5
7E5B
330
8121
100
AcDbEntity
  8
DEFPOINTS
  6
ByBlock
 62
     0
100
AcDbPoint
 10
978.8661677994548
 20
3299.3805722405
 30
0.0
  0
POINT
  5
7E5C
330
8121
100
AcDbEntity
  8
DEFPOINTS
  6
ByBlock
 62
     0
100
AcDbPoint
 10
826.7133386761415
 20
3299.3805722405
 30
0.0
  0
ENDBLK
  5
7E5D
330
8121
100
AcDbEntity
  8
0
100
AcDbBlockEnd
  0
BLOCK
  5
8124
330
8123
100
AcDbEntity
  8
0
100
AcDbBlockBegin
  2
*D11
 70
     1
 10
0.0
 20
0.0
 30
0.0
  3
*D11
  1

  0
LINE
  5
7E5F
330
8123
100
AcDbEntity
  8
0
  6
ByBlock
100
AcDbLine
 10
978.8661677994548
 20
3274.3805722405
 30
0.0
 11
978.8661677994548
 21
3013.7147873961
 31
0.0
  0
LINE
  5
7E60
330
8123
100
AcDbEntity
  8
0
  6
ByBlock
100
AcDbLine
 10
2728.866167799455
 20
3274.380572240499
 30
0.0
 11
2728.866167799455
 21
3013.7147873961
 31
0.0
  0
LINE
  5
7E61
330
8123
100
AcDbEntity
  8
0
  6
ByBlock
100
AcDbLine
 10
1028.866167799455
 20
3038.7147873961
 30
0.0
 11
2678.866167799455
 21
3038.7147873961
 31
0.0
  0
INSERT
  5
7E62
330
8123
100
AcDbEntity
  8
0
  6
ByBlock
100
AcDbBlockReference
  2
_OPEN
 10
978.8661677994548
 20
3038.7147873961
 30
0.0
 41
50.0
 42
50.0
 43
50.0
 50
180.0
  0
INSERT
  5
7E63
330
8123
100
AcDbEntity
  8
0
  6
ByBlock
100
AcDbBlockReference
  2
_OPEN
 10
2728.866167799455
 20
3038.7147873961
 30
0.0
 41
50.0
 42
50.0
 43
50.0
  0
TEXT
  5
7E64
330
8123
100
AcDbEntity
  8
3
100
AcDbText
 10
1728.866167799455
 20
3051.2147873961
 30
0.0
 40
75.0
  1
1750
100
AcDbText
  0
POINT
  5
7E65
330
8123
100
AcDbEntity
  8
DEFPOINTS
  6
ByBlock
 62
     0
100
AcDbPoint
 10
978.8661677994548
 20
3299.3805722405
 30
0.0
  0
POINT
  5
7E66
330
8123
100
AcDbEntity
  8
DEFPOINTS
  6
ByBlock
 62
     0
100
AcDbPoint
 10
2728.866167799455
 20
3299.3805722405
 30
0.0
  0
POINT
  5
7E67
330
8123
100
AcDbEntity
  8
DEFPOINTS
  6
ByBlock
 62
     0
100
AcDbPoint
 10
2728.866167799455
 20
3038.7147873961
 30
0.0
  0
ENDBLK
  5
7E68
330
8123
100
AcDbEntity
  8
0
100
AcDbBlockEnd
  0
BLOCK
  5
8126
330
8125
100
AcDbEntity
  8
0
100
AcDbBlockBegin
  2
*D12
 70
     1
 10
0.0
 20
0.0
 30
0.0
  3
*D12
  1

  0
LINE
  5
7E6A
330
8125
100
AcDbEntity
  8
0
  6
ByBlock
100
AcDbLine
 10
4413.907505112644
 20
2434.887615409481
 30
0.0
 11
4413.907505112644
 21
2587.190522429095
 31
0.0
  0
LINE
  5
7E6B
330
8125
100
AcDbEntity
  8
0
  6
ByBlock
100
AcDbLine
 10
5413.907505112645
 20
2434.887615409481
 30
0.0
 11
5413.907505112645
 21
2587.190522429095
 31
0.0
  0
LINE
  5
7E6C
330
8125
100
AcDbEntity
  8
0
  6
ByBlock
100
AcDbLine
 10
4463.907505112644
 20
2562.190522429094
 30
0.0
 11
5363.907505112646
 21
2562.190522429094
 31
0.0
  0
INSERT
  5
7E6D
330
8125
100
AcDbEntity
  8
0
  6
ByBlock
100
AcDbBlockReference
  2
_OPEN
 10
4413.907505112644
 20
2562.190522429094
 30
0.0
 41
50.0
 42
50.0
 43
50.0
 50
180.0
  0
INSERT
  5
7E6E
330
8125
100
AcDbEntity
  8
0
  6
ByBlock
100
AcDbBlockReference
  2
_OPEN
 10
5413.907505112645
 20
2562.190522429094
 30
0.0
 41
50.0
 42
50.0
 43
50.0
  0
TEXT
  5
7E6F
330
8125
100
AcDbEntity
  8
3
100
AcDbText
 10
4788.907505112644
 20
2574.690522429095
 30
0.0
 40
75.0
  1
1000
100
AcDbText
  0
POINT
  5
7E70
330
8125
100
AcDbEntity
  8
DEFPOINTS
  6
ByBlock
 62
     0
100
AcDbPoint
 10
4413.907505112644
 20
2409.887615409481
 30
0.0
  0
POINT
  5
7E71
330
8125
100
AcDbEntity
  8
DEFPOINTS
  6
ByBlock
 62
     0
100
AcDbPoint
 10
5413.907505112645
 20
2409.887615409481
 30
0.0
  0
POINT
  5
7E72
330
8125
100
AcDbEntity
  8
DEFPOINTS
  6
ByBlock
 62
     0
100
AcDbPoint
 10
5413.907505112645
 20
2562.190522429094
 30
0.0
  0
ENDBLK
  5
7E73
330
8125
100
AcDbEntity
  8
0
100
AcDbBlockEnd
  0
BLOCK
  5
8128
330
8127
100
AcDbEntity
  8
0
100
AcDbBlockBegin
  2
*D13
 70
     1
 10
0.0
 20
0.0
 30
0.0
  3
*D13
  1

  0
LINE
  5
7E75
330
8127
100
AcDbEntity
  8
0
  6
ByBlock
100
AcDbLine
 10
1545.206084046463
 20
1586.887615409481
 30
0.0
 11
1545.206084046463
 21
2589.20679631228
 31
0.0
  0
LINE
  5
7E76
330
8127
100
AcDbEntity
  8
0
  6
ByBlock
100
AcDbLine
 10
2228.866167799455
 20
2445.570948036724
 30
0.0
 11
2228.866167799455
 21
2589.20679631228
 31
0.0
  0
LINE
  5
7E77
330
8127
100
AcDbEntity
  8
0
  6
ByBlock
100
AcDbLine
 10
1595.206084046463
 20
2564.20679631228
 30
0.0
 11
2178.866167799455
 21
2564.20679631228
 31
0.0
  0
INSERT
  5
7E78
330
8127
100
AcDbEntity
  8
0
  6
ByBlock
100
AcDbBlockReference
  2
_OPEN
 10
1545.206084046463
 20
2564.20679631228
 30
0.0
 41
50.0
 42
50.0
 43
50.0
 50
180.0
  0
INSERT
  5
7E79
330
8127
100
AcDbEntity
  8
0
  6
ByBlock
100
AcDbBlockReference
  2
_OPEN
 10
2228.866167799455
 20
2564.20679631228
 30
0.0
 41
50.0
 42
50.0
 43
50.0
  0
TEXT
  5
7E7A
330
8127
100
AcDbEntity
  8
3
100
AcDbText
 10
1792.393268780102
 20
2576.706796312281
 30
0.0
 40
75.0
  1
686
100
AcDbText
  0
POINT
  5
7E7B
330
8127
100
AcDbEntity
  8
DEFPOINTS
  6
ByBlock
 62
     0
100
AcDbPoint
 10
1545.206084046463
 20
1561.887615409481
 30
0.0
  0
POINT
  5
7E7C
330
8127
100
AcDbEntity
  8
DEFPOINTS
  6
ByBlock
 62
     0
100
AcDbPoint
 10
2228.866167799455
 20
2420.570948036724
 30
0.0
  0
POINT
  5
7E7D
330
8127
100
AcDbEntity
  8
DEFPOINTS
  6
ByBlock
 62
     0
100
AcDbPoint
 10
2228.866167799455
 20
2564.20679631228
 30
0.0
  0
ENDBLK
  5
7E7E
330
8127
100
AcDbEntity
  8
0
100
AcDbBlockEnd
  0
BLOCK
  5
812A
330
8129
100
AcDbEntity
  8
0
100
AcDbBlockBegin
  2
*D14
 70
     1
 10
0.0
 20
0.0
 30
0.0
  3
*D14
  1

  0
LINE
  5
7E80
330
8129
100
AcDbEntity
  8
0
  6
ByBlock
100
AcDbLine
 10
2228.866167799455
 20
2445.570948036724
 30
0.0
 11
2228.866167799455
 21
2589.20679631228
 31
0.0
  0
LINE
  5
7E81
330
8129
100
AcDbEntity
  8
0
  6
ByBlock
100
AcDbLine
 10
2773.866167799454
 20
2477.387615409481
 30
0.0
 11
2773.866167799454
 21
2589.20679631228
 31
0.0
  0
LINE
  5
7E82
330
8129
100
AcDbEntity
  8
0
  6
ByBlock
100
AcDbLine
 10
2278.866167799455
 20
2564.20679631228
 30
0.0
 11
2723.866167799455
 21
2564.20679631228
 31
0.0
  0
INSERT
  5
7E83
330
8129
100
AcDbEntity
  8
0
  6
ByBlock
100
AcDbBlockReference
  2
_OPEN
 10
2228.866167799455
 20
2564.20679631228
 30
0.0
 41
50.0
 42
50.0
 43
50.0
 50
180.0
  0
INSERT
  5
7E84
330
8129
100
AcDbEntity
  8
0
  6
ByBlock
100
AcDbBlockReference
  2
_OPEN
 10
2773.866167799454
 20
2564.20679631228
 30
0.0
 41
50.0
 42
50.0
 43
50.0
  0
TEXT
  5
7E85
330
8129
100
AcDbEntity
  8
3
100
AcDbText
 10
2404.937596370883
 20
2576.706796312281
 30
0.0
 40
75.0
  1
545
100
AcDbText
  0
POINT
  5
7E86
330
8129
100
AcDbEntity
  8
DEFPOINTS
  6
ByBlock
 62
     0
100
AcDbPoint
 10
2228.866167799455
 20
2420.570948036724
 30
0.0
  0
POINT
  5
7E87
330
8129
100
AcDbEntity
  8
DEFPOINTS
  6
ByBlock
 62
     0
100
AcDbPoint
 10
2773.866167799454
 20
2452.387615409481
 30
0.0
  0
POINT
  5
7E88
330
8129
100
AcDbEntity
  8
DEFPOINTS
  6
ByBlock
 62
     0
100
AcDbPoint
 10
2773.866167799454
 20
2564.20679631228
 30
0.0
  0
ENDBLK
  5
7E89
330
8129
100
AcDbEntity
  8
0
100
AcDbBlockEnd
  0
BLOCK
  5
812C
330
812B
100
AcDbEntity
  8
0
100
AcDbBlockBegin
  2
*D15
 70
     1
 10
0.0
 20
0.0
 30
0.0
  3
*D15
  1

  0
LINE
  5
7E8B
330
812B
100
AcDbEntity
  8
0
  6
ByBlock
100
AcDbLine
 10
978.8661677994548
 20
1096.887615409481
 30
0.0
 11
978.8661677994548
 21
2736.143709729451
 31
0.0
  0
LINE
  5
7E8C
330
812B
100
AcDbEntity
  8
0
  6
ByBlock
100
AcDbLine
 10
2773.866167799454
 20
2477.387615409481
 30
0.0
 11
2773.866167799454
 21
2736.143709729451
 31
0.0
  0
LINE
  5
7E8D
330
812B
100
AcDbEntity
  8
0
  6
ByBlock
100
AcDbLine
 10
1028.866167799454
 20
2711.143709729451
 30
0.0
 11
2723.866167799455
 21
2711.143709729451
 31
0.0
  0
INSERT
  5
7E8E
330
812B
100
AcDbEntity
  8
0
  6
ByBlock
100
AcDbBlockReference
  2
_OPEN
 10
978.8661677994548
 20
2711.143709729451
 30
0.0
 41
50.0
 42
50.0
 43
50.0
 50
180.0
  0
INSERT
  5
7E8F
330
812B
100
AcDbEntity
  8
0
  6
ByBlock
100
AcDbBlockReference
  2
_OPEN
 10
2773.866167799454
 20
2711.143709729451
 30
0.0
 41
50.0
 42
50.0
 43
50.0
  0
TEXT
  5
7E90
330
812B
100
AcDbEntity
  8
3
100
AcDbText
 10
1751.366167799454
 20
2723.643709729451
 30
0.0
 40
75.0
  1
1795
100
AcDbText
  0
POINT
  5
7E91
330
812B
100
AcDbEntity
  8
DEFPOINTS
  6
ByBlock
 62
     0
100
AcDbPoint
 10
978.8661677994548
 20
1071.88761540948
 30
0.0
  0
POINT
  5
7E92
330
812B
100
AcDbEntity
  8
DEFPOINTS
  6
ByBlock
 62
     0
100
AcDbPoint
 10
2773.866167799454
 20
2452.387615409481
 30
0.0
  0
POINT
  5
7E93
330
812B
100
AcDbEntity
  8
DEFPOINTS
  6
ByBlock
 62
     0
100
AcDbPoint
 10
2773.866167799454
 20
2711.143709729451
 30
0.0
  0
ENDBLK
  5
7E94
330
812B
100
AcDbEntity
  8
0
100
AcDbBlockEnd
  0
BLOCK
  5
812E
330
812D
100
AcDbEntity
  8
0
100
AcDbBlockBegin
  2
*D16
 70
     1
 10
0.0
 20
0.0
 30
0.0
  3
*D16
  1

  0
LINE
  5
806D
330
812D
100
AcDbEntity
  8
3
 62
     0
100
AcDbLine
 10
2371.735556307825
 20
1721.252558363745
 30
0.0
 11
2730.505213485754
 21
1721.252558363745
 31
0.0
  0
LINE
  5
806E
330
812D
100
AcDbEntity
  8
3
 62
     0
100
AcDbLine
 10
2371.735556307825
 20
1621.252558363745
 30
0.0
 11
2730.505213485754
 21
1621.252558363745
 31
0.0
  0
LINE
  5
806F
330
812D
100
AcDbEntity
  8
3
 62
     0
100
AcDbLine
 10
2705.505213485754
 20
1771.252558363745
 30
0.0
 11
2705.505213485754
 21
1821.252558363745
 31
0.0
  0
LINE
  5
8070
330
812D
100
AcDbEntity
  8
3
 62
     0
100
AcDbLine
 10
2705.505213485754
 20
1571.252558363745
 30
0.0
 11
2705.505213485754
 21
1292.681129792316
 31
0.0
  0
LINE
  5
8071
330
812D
100
AcDbEntity
  8
3
 62
     0
100
AcDbLine
 10
2705.505213485754
 20
1721.252558363745
 30
0.0
 11
2705.505213485754
 21
1621.252558363745
 31
0.0
  0
INSERT
  5
8072
330
812D
100
AcDbEntity
  8
3
 62
     0
100
AcDbBlockReference
  2
_DOT
 10
2705.505213485754
 20
1721.252558363745
 30
0.0
 41
50.0
 42
50.0
 43
50.0
 50
270.0
  0
INSERT
  5
8073
330
812D
100
AcDbEntity
  8
3
 62
     0
100
AcDbBlockReference
  2
_OPEN
 10
2705.505213485754
 20
1621.252558363745
 30
0.0
 41
50.0
 42
50.0
 43
50.0
 50
90.0
  0
TEXT
  5
808B
330
812D
100
AcDbEntity
  8
3
 62
     0
100
AcDbText
 10
2493.01
 20
1274.22
 30
0.0
 40
75.0
  1
100
100
AcDbText
  0
POINT
  5
8075
330
812D
100
AcDbEntity
  8
DEFPOINTS
 62
     0
100
AcDbPoint
 10
2359.235556307825
 20
1721.252558363745
 30
0.0
  0
POINT
  5
8076
330
812D
100
AcDbEntity
  8
DEFPOINTS
 62
     0
100
AcDbPoint
 10
2359.235556307825
 20
1621.252558363745
 30
0.0
  0
POINT
  5
8077
330
812D
100
AcDbEntity
  8
DEFPOINTS
 62
     0
100
AcDbPoint
 10
2705.505213485754
 20
1621.252558363745
 30
0.0
  0
ENDBLK
  5
7F70
330
812D
100
AcDbEntity
  8
0
100
AcDbBlockEnd
  0
BLOCK
  5
8136
330
812F
100
AcDbEntity
  8
0
100
AcDbBlockBegin
  2
_DOT
 70
     0
 10
0.0
 20
0.0
 30
0.0
  3
_DOT
  1

  0
LWPOLYLINE
  5
7F73
330
812F
100
AcDbEntity
  8
0
  6
ByBlock
 62
     0
100
AcDbPolyline
 90
        2
 70
     1
 43
0.25
 10
-0.125
 20
0.0
 42
1.0
 10
0.125
 20
0.0
 42
1.0
  0
LINE
  5
7F77
330
812F
100
AcDbEntity
  8
0
  6
ByBlock
 62
     0
100
AcDbLine
 10
-0.25
 20
0.0
 30
0.0
 11
-1.0
 21
0.0
 31
0.0
  0
ENDBLK
  5
7F3C
330
812F
100
AcDbEntity
  8
0
100
AcDbBlockEnd
  0
BLOCK
  5
8131
330
8130
100
AcDbEntity
  8
0
100
AcDbBlockBegin
  2
*D18
 70
     1
 10
0.0
 20
0.0
 30
0.0
  3
*D18
  1

  0
LINE
  5
8078
330
8130
100
AcDbEntity
  8
3
100
AcDbLine
 10
609.2355563078252
 20
4918.745515194763
 30
0.0
 11
609.2355563078252
 21
5574.868798745717
 31
0.0
  0
LINE
  5
8079
330
8130
100
AcDbEntity
  8
3
100
AcDbLine
 10
1309.235556307824
 20
5549.868798745717
 30
0.0
 11
659.2355563078252
 21
5549.868798745717
 31
0.0
  0
INSERT
  5
807A
330
8130
100
AcDbEntity
  8
3
100
AcDbBlockReference
  2
_OPEN
 10
1359.235556307824
 20
5549.868798745717
 30
0.0
 41
50.0
 42
50.0
 43
50.0
  0
INSERT
  5
807B
330
8130
100
AcDbEntity
  8
3
100
AcDbBlockReference
  2
_OPEN
 10
609.2355563078252
 20
5549.868798745717
 30
0.0
 41
50.0
 42
50.0
 43
50.0
 50
180.0
  0
TEXT
  5
808C
330
8130
100
AcDbEntity
  8
3
100
AcDbText
 10
834.2360000000001
 20
5467.12
 30
0.0
 40
75.0
  1
750
100
AcDbText
  0
POINT
  5
807D
330
8130
100
AcDbEntity
  8
DEFPOINTS
 62
     0
100
AcDbPoint
 10
1359.235556307824
 20
5398.745515194764
 30
0.0
  0
POINT
  5
807E
330
8130
100
AcDbEntity
  8
DEFPOINTS
 62
     0
100
AcDbPoint
 10
609.2355563078252
 20
4893.745515194763
 30
0.0
  0
POINT
  5
807F
330
8130
100
AcDbEntity
  8
DEFPOINTS
 62
     0
100
AcDbPoint
 10
609.2355563078252
 20
5549.868798745717
 30
0.0
  0
ENDBLK
  5
7ED9
330
8130
100
AcDbEntity
  8
0
100
AcDbBlockEnd
  0
BLOCK
  5
8133
330
8132
100
AcDbEntity
  8
0
100
AcDbBlockBegin
  2
*D19
 70
     1
 10
0.0
 20
0.0
 30
0.0
  3
*D19
  1

  0
LINE
  5
7F8B
330
8132
100
AcDbEntity
  8
0
  6
ByBlock
100
AcDbLine
 10
4682.238642150313
 20
2391.752558363744
 30
0.0
 11
4682.238642150313
 21
3568.235904942719
 31
0.0
  0
LINE
  5
7F8C
330
8132
100
AcDbEntity
  8
0
  6
ByBlock
100
AcDbLine
 10
4082.238642150311
 20
3501.860932132735
 30
0.0
 11
4082.238642150311
 21
3568.235904942719
 31
0.0
  0
LINE
  5
7F8D
330
8132
100
AcDbEntity
  8
0
  6
ByBlock
100
AcDbLine
 10
4632.238642150313
 20
3543.235904942721
 30
0.0
 11
4132.238642150311
 21
3543.235904942721
 31
0.0
  0
INSERT
  5
7F8E
330
8132
100
AcDbEntity
  8
0
  6
ByBlock
100
AcDbBlockReference
  2
_OPEN
 10
4682.238642150313
 20
3543.235904942721
 30
0.0
 41
50.0
 42
50.0
 43
50.0
  0
INSERT
  5
7F8F
330
8132
100
AcDbEntity
  8
0
  6
ByBlock
100
AcDbBlockReference
  2
_OPEN
 10
4082.238642150311
 20
3543.235904942721
 30
0.0
 41
50.0
 42
50.0
 43
50.0
 50
180.0
  0
TEXT
  5
7F90
330
8132
100
AcDbEntity
  8
3
100
AcDbText
 10
4244.738642150312
 20
3587.878762085576
 30
0.0
 40
75.0
  1
(610)
100
AcDbText
  0
POINT
  5
7F91
330
8132
100
AcDbEntity
  8
DEFPOINTS
  6
ByBlock
 62
     0
100
AcDbPoint
 10
4682.238642150313
 20
2366.752558363744
 30
0.0
  0
POINT
  5
7F92
330
8132
100
AcDbEntity
  8
DEFPOINTS
  6
ByBlock
 62
     0
100
AcDbPoint
 10
4082.238642150311
 20
3476.860932132735
 30
0.0
  0
POINT
  5
7F93
330
8132
100
AcDbEntity
  8
DEFPOINTS
  6
ByBlock
 62
     0
100
AcDbPoint
 10
4082.238642150311
 20
3543.235904942721
 30
0.0
  0
ENDBLK
  5
7F94
330
8132
100
AcDbEntity
  8
0
100
AcDbBlockEnd
  0
BLOCK
  5
8135
330
8134
100
AcDbEntity
  8
0
100
AcDbBlockBegin
  2
*D20
 70
     1
 10
0.0
 20
0.0
 30
0.0
  3
*D20
  1

  0
LINE
  5
8080
330
8134
100
AcDbEntity
  8
3
100
AcDbLine
 10
3272.238642150312
 20
2651.252558363744
 30
0.0
 11
3272.238642150312
 21
3568.235904942719
 31
0.0
  0
LINE
  5
8081
330
8134
100
AcDbEntity
  8
3
100
AcDbLine
 10
4032.238642150312
 20
3543.235904942721
 30
0.0
 11
3322.238642150312
 21
3543.235904942721
 31
0.0
  0
INSERT
  5
8082
330
8134
100
AcDbEntity
  8
3
100
AcDbBlockReference
  2
_OPEN
 10
4082.238642150311
 20
3543.235904942721
 30
0.0
 41
50.0
 42
50.0
 43
50.0
  0
INSERT
  5
8083
330
8134
100
AcDbEntity
  8
3
100
AcDbBlockReference
  2
_OPEN
 10
3272.238642150312
 20
3543.235904942721
 30
0.0
 41
50.0
 42
50.0
 43
50.0
 50
180.0
  0
TEXT
  5
808D
330
8134
100
AcDbEntity
  8
3
100
AcDbText
 10
3527.24
 20
3522.99
 30
0.0
 40
75.0
  1
MAX
100
AcDbText
  0
TEXT
  5
808E
330
8134
100
AcDbEntity
  8
3
100
AcDbText
 10
3527.24
 20
3425.49
 30
0.0
 40
75.0
  1
860
100
AcDbText
  0
POINT
  5
8085
330
8134
100
AcDbEntity
  8
DEFPOINTS
 62
     0
100
AcDbPoint
 10
4082.238642150311
 20
3476.860932132735
 30
0.0
  0
POINT
  5
8086
330
8134
100
AcDbEntity
  8
DEFPOINTS
 62
     0
100
AcDbPoint
 10
3272.238642150312
 20
2626.252558363745
 30
0.0
  0
POINT
  5
8087
330
8134
100
AcDbEntity
  8
DEFPOINTS
 62
     0
100
AcDbPoint
 10
3272.238642150312
 20
3543.235904942721
 30
0.0
  0
ENDBLK
  5
7F89
330
8134
100
AcDbEntity
  8
0
100
AcDbBlockEnd
  0
BLOCK
  5
8138
330
8137
100
AcDbEntity
  8
0
100
AcDbBlockBegin
  2
*D21
 70
     1
 10
0.0
 20
0.0
 30
0.0
  3
*D21
  1

  0
LINE
  5
7F9F
330
8137
100
AcDbEntity
  8
0
  6
ByBlock
 62
     0
100
AcDbLine
 10
609.2355563078252
 20
1664.252558363745
 30
0.0
 11
609.2355563078252
 21
1490.379441479799
 31
0.0
  0
LINE
  5
7FA0
330
8137
100
AcDbEntity
  8
0
  6
ByBlock
 62
     0
100
AcDbLine
 10
1859.235556307824
 20
1664.252558363745
 30
0.0
 11
1859.235556307824
 21
1490.379441479799
 31
0.0
  0
LINE
  5
7FA1
330
8137
100
AcDbEntity
  8
0
  6
ByBlock
 62
     0
100
AcDbLine
 10
659.2355563078252
 20
1515.379441479799
 30
0.0
 11
1809.235556307825
 21
1515.379441479799
 31
0.0
  0
INSERT
  5
7FA2
330
8137
100
AcDbEntity
  8
0
  6
ByBlock
 62
     0
100
AcDbBlockReference
  2
_OPEN
 10
609.2355563078252
 20
1515.379441479799
 30
0.0
 41
50.0
 42
50.0
 43
50.0
 50
180.0
  0
INSERT
  5
7FA3
330
8137
100
AcDbEntity
  8
0
  6
ByBlock
 62
     0
100
AcDbBlockReference
  2
_OPEN
 10
1859.235556307824
 20
1515.379441479799
 30
0.0
 41
50.0
 42
50.0
 43
50.0
  0
TEXT
  5
7FA4
330
8137
100
AcDbEntity
  8
3
 62
     0
100
AcDbText
 10
1109.235556307824
 20
1540.379441479799
 30
0.0
 40
75.0
  1
1250
100
AcDbText
  0
POINT
  5
7FA5
330
8137
100
AcDbEntity
  8
DEFPOINTS
  6
ByBlock
 62
     0
100
AcDbPoint
 10
609.2355563078252
 20
1689.252558363745
 30
0.0
  0
POINT
  5
7FA6
330
8137
100
AcDbEntity
  8
DEFPOINTS
  6
ByBlock
 62
     0
100
AcDbPoint
 10
1859.235556307824
 20
1689.252558363745
 30
0.0
  0
POINT
  5
7FA7
330
8137
100
AcDbEntity
  8
DEFPOINTS
  6
ByBlock
 62
     0
100
AcDbPoint
 10
1859.235556307824
 20
1515.379441479799
 30
0.0
  0
ENDBLK
  5
7FA8
330
8137
100
AcDbEntity
  8
0
100
AcDbBlockEnd
  0
BLOCK
  5
813A
330
8139
100
AcDbEntity
  8
0
100
AcDbBlockBegin
  2
*D22
 70
     1
 10
0.0
 20
0.0
 30
0.0
  3
*D22
  1

  0
LINE
  5
7FAC
330
8139
100
AcDbEntity
  8
0
  6
ByBlock
 62
     0
100
AcDbLine
 10
1859.235556307824
 20
1664.252558363745
 30
0.0
 11
1859.235556307824
 21
1490.379441479799
 31
0.0
  0
LINE
  5
7FAD
330
8139
100
AcDbEntity
  8
0
  6
ByBlock
 62
     0
100
AcDbLine
 10
2359.235556307825
 20
1664.252558363745
 30
0.0
 11
2359.235556307825
 21
1490.379441479799
 31
0.0
  0
LINE
  5
7FAE
330
8139
100
AcDbEntity
  8
0
  6
ByBlock
 62
     0
100
AcDbLine
 10
1909.235556307825
 20
1515.379441479799
 30
0.0
 11
2309.235556307825
 21
1515.379441479799
 31
0.0
  0
INSERT
  5
7FAF
330
8139
100
AcDbEntity
  8
0
  6
ByBlock
 62
     0
100
AcDbBlockReference
  2
_OPEN
 10
1859.235556307824
 20
1515.379441479799
 30
0.0
 41
50.0
 42
50.0
 43
50.0
 50
180.0
  0
INSERT
  5
7FB0
330
8139
100
AcDbEntity
  8
0
  6
ByBlock
 62
     0
100
AcDbBlockReference
  2
_OPEN
 10
2359.235556307825
 20
1515.379441479799
 30
0.0
 41
50.0
 42
50.0
 43
50.0
  0
TEXT
  5
7FB1
330
8139
100
AcDbEntity
  8
3
 62
     0
100
AcDbText
 10
2012.806984879254
 20
1540.379441479799
 30
0.0
 40
75.0
  1
500
100
AcDbText
  0
POINT
  5
7FB2
330
8139
100
AcDbEntity
  8
DEFPOINTS
  6
ByBlock
 62
     0
100
AcDbPoint
 10
1859.235556307824
 20
1689.252558363745
 30
0.0
  0
POINT
  5
7FB3
330
8139
100
AcDbEntity
  8
DEFPOINTS
  6
ByBlock
 62
     0
100
AcDbPoint
 10
2359.235556307825
 20
1689.252558363745
 30
0.0
  0
POINT
  5
7FB4
330
8139
100
AcDbEntity
  8
DEFPOINTS
  6
ByBlock
 62
     0
100
AcDbPoint
 10
2359.235556307825
 20
1515.379441479799
 30
0.0
  0
ENDBLK
  5
7FB5
330
8139
100
AcDbEntity
  8
0
100
AcDbBlockEnd
  0
BLOCK
  5
813C
330
813B
100
AcDbEntity
  8
0
100
AcDbBlockBegin
  2
*D23
 70
     1
 10
0.0
 20
0.0
 30
0.0
  3
*D23
  1

  0
LINE
  5
7FB9
330
813B
100
AcDbEntity
  8
0
  6
ByBlock
 62
     0
100
AcDbLine
 10
3380.238642150312
 20
1664.252558363745
 30
0.0
 11
3380.238642150312
 21
1490.379441479799
 31
0.0
  0
LINE
  5
7FBA
330
813B
100
AcDbEntity
  8
0
  6
ByBlock
 62
     0
100
AcDbLine
 10
4082.238642150313
 20
1664.252558363745
 30
0.0
 11
4082.238642150313
 21
1490.379441479799
 31
0.0
  0
LINE
  5
7FBB
330
813B
100
AcDbEntity
  8
0
  6
ByBlock
 62
     0
100
AcDbLine
 10
3430.238642150313
 20
1515.379441479799
 30
0.0
 11
4032.238642150313
 21
1515.379441479799
 31
0.0
  0
INSERT
  5
7FBC
330
813B
100
AcDbEntity
  8
0
  6
ByBlock
 62
     0
100
AcDbBlockReference
  2
_OPEN
 10
3380.238642150312
 20
1515.379441479799
 30
0.0
 41
50.0
 42
50.0
 43
50.0
 50
180.0
  0
INSERT
  5
7FBD
330
813B
100
AcDbEntity
  8
0
  6
ByBlock
 62
     0
100
AcDbBlockReference
  2
_OPEN
 10
4082.238642150313
 20
1515.379441479799
 30
0.0
 41
50.0
 42
50.0
 43
50.0
  0
TEXT
  5
7FBE
330
813B
100
AcDbEntity
  8
3
 62
     0
100
AcDbText
 10
3634.810070721741
 20
1540.379441479799
 30
0.0
 40
75.0
  1
702
100
AcDbText
  0
POINT
  5
7FBF
330
813B
100
AcDbEntity
  8
DEFPOINTS
  6
ByBlock
 62
     0
100
AcDbPoint
 10
3380.238642150312
 20
1689.252558363745
 30
0.0
  0
POINT
  5
7FC0
330
813B
100
AcDbEntity
  8
DEFPOINTS
  6
ByBlock
 62
     0
100
AcDbPoint
 10
4082.238642150313
 20
1689.252558363745
 30
0.0
  0
POINT
  5
7FC1
330
813B
100
AcDbEntity
  8
DEFPOINTS
  6
ByBlock
 62
     0
100
AcDbPoint
 10
4082.238642150313
 20
1515.379441479799
 30
0.0
  0
ENDBLK
  5
7FC2
330
813B
100
AcDbEntity
  8
0
100
AcDbBlockEnd
  0
BLOCK
  5
813E
330
813D
100
AcDbEntity
  8
0
100
AcDbBlockBegin
  2
*D24
 70
     1
 10
0.0
 20
0.0
 30
0.0
  3
*D24
  1

  0
LINE
  5
7FC6
330
813D
100
AcDbEntity
  8
0
  6
ByBlock
 62
     0
100
AcDbLine
 10
4082.238642150313
 20
1664.252558363745
 30
0.0
 11
4082.238642150313
 21
1490.379441479799
 31
0.0
  0
LINE
  5
7FC7
330
813D
100
AcDbEntity
  8
0
  6
ByBlock
 62
     0
100
AcDbLine
 10
4635.238642150313
 20
1664.252558363745
 30
0.0
 11
4635.238642150313
 21
1490.379441479799
 31
0.0
  0
LINE
  5
7FC8
330
813D
100
AcDbEntity
  8
0
  6
ByBlock
 62
     0
100
AcDbLine
 10
4132.238642150313
 20
1515.379441479799
 30
0.0
 11
4585.238642150313
 21
1515.379441479799
 31
0.0
  0
INSERT
  5
7FC9
330
813D
100
AcDbEntity
  8
0
  6
ByBlock
 62
     0
100
AcDbBlockReference
  2
_OPEN
 10
4082.238642150313
 20
1515.379441479799
 30
0.0
 41
50.0
 42
50.0
 43
50.0
 50
180.0
  0
INSERT
  5
7FCA
330
813D
100
AcDbEntity
  8
0
  6
ByBlock
 62
     0
100
AcDbBlockReference
  2
_OPEN
 10
4635.238642150313
 20
1515.379441479799
 30
0.0
 41
50.0
 42
50.0
 43
50.0
  0
TEXT
  5
7FCB
330
813D
100
AcDbEntity
  8
3
 62
     0
100
AcDbText
 10
4262.310070721741
 20
1540.379441479799
 30
0.0
 40
75.0
  1
553
100
AcDbText
  0
POINT
  5
7FCC
330
813D
100
AcDbEntity
  8
DEFPOINTS
  6
ByBlock
 62
     0
100
AcDbPoint
 10
4082.238642150313
 20
1689.252558363745
 30
0.0
  0
POINT
  5
7FCD
330
813D
100
AcDbEntity
  8
DEFPOINTS
  6
ByBlock
 62
     0
100
AcDbPoint
 10
4635.238642150313
 20
1689.252558363745
 30
0.0
  0
POINT
  5
7FCE
330
813D
100
AcDbEntity
  8
DEFPOINTS
  6
ByBlock
 62
     0
100
AcDbPoint
 10
4635.238642150313
 20
1515.379441479799
 30
0.0
  0
ENDBLK
  5
7FCF
330
813D
100
AcDbEntity
  8
0
100
AcDbBlockEnd
  0
BLOCK
  5
8140
330
813F
100
AcDbEntity
  8
0
100
AcDbBlockBegin
  2
_NONE
 70
     0
 10
0.0
 20
0.0
 30
0.0
  3
_NONE
  1

  0
CIRCLE
  5
7FD3
330
813F
100
AcDbEntity
  8
0
  6
ByBlock
 62
     0
100
AcDbCircle
 10
0.0
 20
0.0
 30
0.0
 40
0.25
  0
ENDBLK
  5
7FD4
330
813F
100
AcDbEntity
  8
0
100
AcDbBlockEnd
  0
BLOCK
  5
8142
330
8141
100
AcDbEntity
  8
0
100
AcDbBlockBegin
  2
*D26
 70
     1
 10
0.0
 20
0.0
 30
0.0
  3
*D26
  1

  0
LINE
  5
7FF1
330
8141
100
AcDbEntity
  8
0
  6
ByBlock
 62
     0
100
AcDbLine
 10
2707.909447768586
 20
1721.252558363745
 30
0.0
 11
2707.909447768586
 21
1816.252558363744
 31
0.0
  0
TEXT
  5
7FF2
330
8141
100
AcDbEntity
  8
3
 62
     0
100
AcDbText
 10
2852.552304911444
 20
1659.823986935173
 30
0.0
 40
75.0
  1
(95)
 50
90.0
100
AcDbText
  0
POINT
  5
7FF3
330
8141
100
AcDbEntity
  8
DEFPOINTS
  6
ByBlock
 62
     0
100
AcDbPoint
 10
2359.235556307825
 20
1721.252558363745
 30
0.0
  0
POINT
  5
7FF4
330
8141
100
AcDbEntity
  8
DEFPOINTS
  6
ByBlock
 62
     0
100
AcDbPoint
 10
2359.235556307825
 20
1816.252558363744
 30
0.0
  0
POINT
  5
7FF5
330
8141
100
AcDbEntity
  8
DEFPOINTS
  6
ByBlock
 62
     0
100
AcDbPoint
 10
2707.909447768586
 20
1816.252558363744
 30
0.0
  0
ENDBLK
  5
7FF6
330
8141
100
AcDbEntity
  8
0
100
AcDbBlockEnd
  0
BLOCK
  5
8144
330
8143
100
AcDbEntity
  8
0
100
AcDbBlockBegin
  2
*D27
 70
     1
 10
0.0
 20
0.0
 30
0.0
  3
*D27
  1

  0
LINE
  5
7FFA
330
8143
100
AcDbEntity
  8
0
  6
ByBlock
 62
     0
100
AcDbLine
 10
2384.235556307825
 20
1621.252558363745
 30
0.0
 11
2940.176281356129
 21
1621.252558363745
 31
0.0
  0
LINE
  5
7FFB
330
8143
100
AcDbEntity
  8
0
  6
ByBlock
 62
     0
100
AcDbLine
 10
2454.235556307825
 20
3254.252558363746
 30
0.0
 11
2940.176281356129
 21
3254.252558363746
 31
0.0
  0
LINE
  5
7FFC
330
8143
100
AcDbEntity
  8
0
  6
ByBlock
 62
     0
100
AcDbLine
 10
2915.176281356129
 20
1671.252558363745
 30
0.0
 11
2915.176281356129
 21
3204.252558363746
 31
0.0
  0
INSERT
  5
7FFD
330
8143
100
AcDbEntity
  8
0
  6
ByBlock
 62
     0
100
AcDbBlockReference
  2
_OPEN
 10
2915.176281356129
 20
1621.252558363745
 30
0.0
 41
50.0
 42
50.0
 43
50.0
 50
270.0
  0
INSERT
  5
7FFE
330
8143
100
AcDbEntity
  8
0
  6
ByBlock
 62
     0
100
AcDbBlockReference
  2
_OPEN
 10
2915.176281356129
 20
3254.252558363746
 30
0.0
 41
50.0
 42
50.0
 43
50.0
 50
90.0
  0
TEXT
  5
7FFF
330
8143
100
AcDbEntity
  8
3
 62
     0
100
AcDbText
 10
2858.033424213271
 20
2264.538272649459
 30
0.0
 40
75.0
  1
(1633)
 50
90.0
100
AcDbText
  0
POINT
  5
8000
330
8143
100
AcDbEntity
  8
DEFPOINTS
  6
ByBlock
 62
     0
100
AcDbPoint
 10
2359.235556307825
 20
1621.252558363745
 30
0.0
  0
POINT
  5
8001
330
8143
100
AcDbEntity
  8
DEFPOINTS
  6
ByBlock
 62
     0
100
AcDbPoint
 10
2429.235556307824
 20
3254.252558363746
 30
0.0
  0
POINT
  5
8002
330
8143
100
AcDbEntity
  8
DEFPOINTS
  6
ByBlock
 62
     0
100
AcDbPoint
 10
2915.176281356129
 20
3254.252558363746
 30
0.0
  0
ENDBLK
  5
8003
330
8143
100
AcDbEntity
  8
0
100
AcDbBlockEnd
  0
BLOCK
  5
81CA
330
81C9
100
AcDbEntity
  8
0
100
AcDbBlockBegin
  2
*D29
 70
     1
 10
0.0
 20
0.0
 30
0.0
  3
*D29
  1

  0
LINE
  5
8212
330
81C9
100
AcDbEntity
  8
3
 62
     0
370
    -2
100
AcDbLine
 10
3182.238642150312
 20
2651.252558363746
 30
0.0
 11
3182.238642150312
 21
3608.16556090054
 31
0.0
  0
LINE
  5
8213
330
81C9
100
AcDbEntity
  8
3
 62
     0
370
    -2
100
AcDbLine
 10
4082.238642150311
 20
3519.055465383359
 30
0.0
 11
4082.238642150311
 21
3608.16556090054
 31
0.0
  0
LINE
  5
8214
330
81C9
100
AcDbEntity
  8
3
 62
     0
370
    -2
100
AcDbLine
 10
3232.238642150312
 20
3583.165560900539
 30
0.0
 11
4032.238642150312
 21
3583.165560900539
 31
0.0
  0
INSERT
  5
8215
330
81C9
100
AcDbEntity
  8
3
 62
     0
370
    -2
100
AcDbBlockReference
  2
_OPEN
 10
3182.238642150312
 20
3583.165560900539
 30
0.0
 41
50.0
 42
50.0
 43
50.0
 50
180.0
  0
INSERT
  5
8216
330
81C9
100
AcDbEntity
  8
3
 62
     0
370
    -2
100
AcDbBlockReference
  2
_OPEN
 10
4082.238642150311
 20
3583.165560900539
 30
0.0
 41
50.0
 42
50.0
 43
50.0
  0
MTEXT
  5
8217
330
81C9
100
AcDbEntity
  8
3
 62
     0
100
AcDbMText
 10
3632.238642150312
 20
3665.308418043397
 30
0.0
 40
75.0
 41
0.0
 71
     5
 72
     1
  1
\A1;(900)
 73
     1
 44
1.0
1001
ACAD
1000
MTEXTBEGIN
1070
    73
1070
     1
1070
    44
1040
1.0
1070
    74
1070
     0
1000
MTEXTEND
  0
POINT
  5
8218
330
81C9
100
AcDbEntity
  8
DEFPOINTS
 62
     0
100
AcDbPoint
 10
3182.238642150312
 20
2626.252558363745
 30
0.0
  0
POINT
  5
8219
330
81C9
100
AcDbEntity
  8
DEFPOINTS
 62
     0
100
AcDbPoint
 10
4082.238642150311
 20
3494.055465383359
 30
0.0
  0
POINT
  5
821A
330
81C9
100
AcDbEntity
  8
DEFPOINTS
 62
     0
100
AcDbPoint
 10
4082.238642150311
 20
3583.165560900539
 30
0.0
  0
ENDBLK
  5
81CB
330
81C9
100
AcDbEntity
  8
0
100
AcDbBlockEnd
  0
BLOCK
  5
81D7
330
81D6
100
AcDbEntity
  8
0
100
AcDbBlockBegin
  2
*D30
 70
     1
 10
0.0
 20
0.0
 30
0.0
  3
*D30
  1

  0
LINE
  5
8224
330
81D6
100
AcDbEntity
  8
3
 62
     0
370
    -2
100
AcDbLine
 10
4082.238642150311
 20
3519.055465383359
 30
0.0
 11
4082.238642150311
 21
3608.16556090054
 31
0.0
  0
LINE
  5
8225
330
81D6
100
AcDbEntity
  8
3
 62
     0
370
    -2
100
AcDbLine
 10
4692.238642150313
 20
2391.752558363744
 30
0.0
 11
4692.238642150313
 21
3608.16556090054
 31
0.0
  0
LINE
  5
8226
330
81D6
100
AcDbEntity
  8
3
 62
     0
370
    -2
100
AcDbLine
 10
4132.238642150312
 20
3583.165560900539
 30
0.0
 11
4642.238642150313
 21
3583.165560900539
 31
0.0
  0
INSERT
  5
8227
330
81D6
100
AcDbEntity
  8
3
 62
     0
370
    -2
100
AcDbBlockReference
  2
_OPEN
 10
4082.238642150311
 20
3583.165560900539
 30
0.0
 41
50.0
 42
50.0
 43
50.0
 50
180.0
  0
INSERT
  5
8228
330
81D6
100
AcDbEntity
  8
3
 62
     0
370
    -2
100
AcDbBlockReference
  2
_OPEN
 10
4692.238642150313
 20
3583.165560900539
 30
0.0
 41
50.0
 42
50.0
 43
50.0
  0
MTEXT
  5
8229
330
81D6
100
AcDbEntity
  8
3
 62
     0
100
AcDbMText
 10
4387.238642150312
 20
3665.308418043397
 30
0.0
 40
75.0
 41
0.0
 71
     5
 72
     1
  1
\A1;(610)
 73
     1
 44
1.0
1001
ACAD
1000
MTEXTBEGIN
1070
    73
1070
     1
1070
    44
1040
1.0
1070
    74
1070
     0
1000
MTEXTEND
  0
POINT
  5
822A
330
81D6
100
AcDbEntity
  8
DEFPOINTS
 62
     0
100
AcDbPoint
 10
4082.238642150311
 20
3494.055465383359
 30
0.0
  0
POINT
  5
822B
330
81D6
100
AcDbEntity
  8
DEFPOINTS
 62
     0
100
AcDbPoint
 10
4692.238642150313
 20
2366.752558363744
 30
0.0
  0
POINT
  5
822C
330
81D6
100
AcDbEntity
  8
DEFPOINTS
 62
     0
100
AcDbPoint
 10
4692.238642150313
 20
3583.165560900539
 30
0.0
  0
ENDBLK
  5
81D8
330
81D6
100
AcDbEntity
  8
0
100
AcDbBlockEnd
  0
BLOCK
  5
822F
330
822E
100
AcDbEntity
  8
0
100
AcDbBlockBegin
  2
*D31
 70
     1
 10
0.0
 20
0.0
 30
0.0
  3
*D31
  1

  0
LINE
  5
8231
330
822E
100
AcDbEntity
  8
3
 62
     0
370
    -2
100
AcDbLine
 10
609.2355563078252
 20
4118.745515194762
 30
0.0
 11
609.2355563078252
 21
3740.76097953989
 31
0.0
  0
LINE
  5
8232
330
822E
100
AcDbEntity
  8
3
 62
     0
370
    -2
100
AcDbLine
 10
2359.235556307825
 20
4118.745515194762
 30
0.0
 11
2359.235556307825
 21
3740.76097953989
 31
0.0
  0
LINE
  5
8233
330
822E
100
AcDbEntity
  8
3
 62
     0
370
    -2
100
AcDbLine
 10
659.2355563078252
 20
3765.76097953989
 30
0.0
 11
2309.235556307825
 21
3765.76097953989
 31
0.0
  0
INSERT
  5
8234
330
822E
100
AcDbEntity
  8
3
 62
     0
370
    -2
100
AcDbBlockReference
  2
_OPEN
 10
609.2355563078252
 20
3765.76097953989
 30
0.0
 41
50.0
 42
50.0
 43
50.0
 50
180.0
  0
INSERT
  5
8235
330
822E
100
AcDbEntity
  8
3
 62
     0
370
    -2
100
AcDbBlockReference
  2
_OPEN
 10
2359.235556307825
 20
3765.76097953989
 30
0.0
 41
50.0
 42
50.0
 43
50.0
  0
MTEXT
  5
8236
330
822E
100
AcDbEntity
  8
3
 62
     0
100
AcDbMText
 10
1484.235556307825
 20
3828.26097953989
 30
0.0
 40
75.0
 41
0.0
 71
     5
 72
     1
  1
\A1;1750
 73
     1
 44
1.0
1001
ACAD
1000
MTEXTBEGIN
1070
    73
1070
     1
1070
    44
1040
1.0
1070
    74
1070
     0
1000
MTEXTEND
  0
POINT
  5
8237
330
822E
100
AcDbEntity
  8
DEFPOINTS
 62
     0
100
AcDbPoint
 10
609.2355563078252
 20
4143.745515194763
 30
0.0
  0
POINT
  5
8238
330
822E
100
AcDbEntity
  8
DEFPOINTS
 62
     0
100
AcDbPoint
 10
2359.235556307825
 20
4143.745515194763
 30
0.0
  0
POINT
  5
8239
330
822E
100
AcDbEntity
  8
DEFPOINTS
 62
     0
100
AcDbPoint
 10
2359.235556307825
 20
3765.76097953989
 30
0.0
  0
ENDBLK
  5
8230
330
822E
100
AcDbEntity
  8
0
100
AcDbBlockEnd
  0
BLOCK
  5
823C
330
823B
100
AcDbEntity
  8
0
100
AcDbBlockBegin
  2
*D32
 70
     1
 10
0.0
 20
0.0
 30
0.0
  3
*D32
  1

  0
LINE
  5
8247
330
823B
100
AcDbEntity
  8
3
 62
     0
370
    -2
100
AcDbLine
 10
609.2355563078252
 20
4918.745515194763
 30
0.0
 11
609.2355563078252
 21
5574.868798745716
 31
0.0
  0
LINE
  5
8248
330
823B
100
AcDbEntity
  8
3
 62
     0
370
    -2
100
AcDbLine
 10
1359.235556307824
 20
5423.745515194763
 30
0.0
 11
1359.235556307824
 21
5574.868798745716
 31
0.0
  0
LINE
  5
8249
330
823B
100
AcDbEntity
  8
3
 62
     0
370
    -2
100
AcDbLine
 10
659.2355563078252
 20
5549.868798745716
 30
0.0
 11
1309.235556307824
 21
5549.868798745716
 31
0.0
  0
INSERT
  5
824A
330
823B
100
AcDbEntity
  8
3
 62
     0
370
    -2
100
AcDbBlockReference
  2
_OPEN
 10
609.2355563078252
 20
5549.868798745716
 30
0.0
 41
50.0
 42
50.0
 43
50.0
 50
180.0
  0
INSERT
  5
824B
330
823B
100
AcDbEntity
  8
3
 62
     0
370
    -2
100
AcDbBlockReference
  2
_OPEN
 10
1359.235556307824
 20
5549.868798745716
 30
0.0
 41
50.0
 42
50.0
 43
50.0
  0
MTEXT
  5
824C
330
823B
100
AcDbEntity
  8
3
 62
     0
100
AcDbMText
 10
984.2355563078246
 20
5612.368798745716
 30
0.0
 40
75.0
 41
0.0
 71
     5
 72
     1
  1
\A1;750
 73
     1
 44
1.0
1001
ACAD
1000
MTEXTBEGIN
1070
    73
1070
     1
1070
    44
1040
1.0
1070
    74
1070
     0
1000
MTEXTEND
  0
POINT
  5
824D
330
823B
100
AcDbEntity
  8
DEFPOINTS
 62
     0
100
AcDbPoint
 10
609.2355563078252
 20
4893.745515194763
 30
0.0
  0
POINT
  5
824E
330
823B
100
AcDbEntity
  8
DEFPOINTS
 62
     0
100
AcDbPoint
 10
1359.235556307824
 20
5398.745515194764
 30
0.0
  0
POINT
  5
824F
330
823B
100
AcDbEntity
  8
DEFPOINTS
 62
     0
100
AcDbPoint
 10
1359.235556307824
 20
5549.868798745716
 30
0.0
  0
ENDBLK
  5
823D
330
823B
100
AcDbEntity
  8
0
100
AcDbBlockEnd
  0
BLOCK
  5
8251
330
8250
100
AcDbEntity
  8
0
100
AcDbBlockBegin
  2
*D33
 70
     1
 10
0.0
 20
0.0
 30
0.0
  3
*D33
  1

  0
LINE
  5
8253
330
8250
100
AcDbEntity
  8
3
 62
     0
370
    -2
100
AcDbLine
 10
609.2355563078252
 20
1611.252558363745
 30
0.0
 11
609.2355563078252
 21
1457.879441479799
 31
0.0
  0
LINE
  5
8254
330
8250
100
AcDbEntity
  8
3
 62
     0
370
    -2
100
AcDbLine
 10
1859.235556307824
 20
1611.252558363745
 30
0.0
 11
1859.235556307824
 21
1457.879441479799
 31
0.0
  0
LINE
  5
8255
330
8250
100
AcDbEntity
  8
3
 62
     0
370
    -2
100
AcDbLine
 10
613.7355563078252
 20
1462.379441479799
 30
0.0
 11
1224.485556307825
 21
1462.379441479799
 31
0.0
  0
LINE
  5
8256
330
8250
100
AcDbEntity
  8
3
 62
     0
370
    -2
100
AcDbLine
 10
1854.735556307825
 20
1462.379441479799
 30
0.0
 11
1243.985556307825
 21
1462.379441479799
 31
0.0
  0
SOLID
  5
8257
330
8250
100
AcDbEntity
  8
3
 62
     0
100
AcDbTrace
 10
613.7355563078252
 20
1463.129441479799
 30
0.0
 11
613.7355563078252
 21
1461.629441479799
 31
0.0
 12
609.2355563078252
 22
1462.379441479799
 32
0.0
 13
609.2355563078252
 23
1462.379441479799
 33
0.0
  0
SOLID
  5
8258
330
8250
100
AcDbEntity
  8
3
 62
     0
100
AcDbTrace
 10
1854.735556307825
 20
1463.129441479799
 30
0.0
 11
1854.735556307825
 21
1461.629441479799
 31
0.0
 12
1859.235556307824
 22
1462.379441479799
 32
0.0
 13
1859.235556307824
 23
1462.379441479799
 33
0.0
  0
MTEXT
  5
8259
330
8250
100
AcDbEntity
  8
3
 62
     0
100
AcDbMText
 10
1234.235556307825
 20
1462.379441479799
 30
0.0
 40
4.5
 41
0.0
 71
     5
 72
     1
  1
\A1;1250
 73
     1
 44
1.0
1001
ACAD
1000
MTEXTBEGIN
1070
    73
1070
     1
1070
    44
1040
1.0
1070
    74
1070
     0
1000
MTEXTEND
  0
POINT
  5
825A
330
8250
100
AcDbEntity
  8
DEFPOINTS
 62
     0
100
AcDbPoint
 10
609.2355563078252
 20
1636.252558363745
 30
0.0
  0
POINT
  5
825B
330
8250
100
AcDbEntity
  8
DEFPOINTS
 62
     0
100
AcDbPoint
 10
1859.235556307824
 20
1636.252558363745
 30
0.0
  0
POINT
  5
825C
330
8250
100
AcDbEntity
  8
DEFPOINTS
 62
     0
100
AcDbPoint
 10
1859.235556307824
 20
1462.379441479799
 30
0.0
  0
ENDBLK
  5
8252
330
8250
100
AcDbEntity
  8
0
100
AcDbBlockEnd
  0
BLOCK
  5
825E
330
825D
100
AcDbEntity
  8
0
100
AcDbBlockBegin
  2
*D34
 70
     1
 10
0.0
 20
0.0
 30
0.0
  3
*D34
  1

  0
LINE
  5
8260
330
825D
100
AcDbEntity
  8
3
 62
     0
370
    -2
100
AcDbLine
 10
1859.235556307824
 20
1611.252558363745
 30
0.0
 11
1859.235556307824
 21
1457.879441479799
 31
0.0
  0
LINE
  5
8261
330
825D
100
AcDbEntity
  8
3
 62
     0
370
    -2
100
AcDbLine
 10
2359.235556307825
 20
1611.252558363745
 30
0.0
 11
2359.235556307825
 21
1457.879441479799
 31
0.0
  0
LINE
  5
8262
330
825D
100
AcDbEntity
  8
3
 62
     0
370
    -2
100
AcDbLine
 10
1863.735556307825
 20
1462.379441479799
 30
0.0
 11
2101.199842022111
 21
1462.379441479799
 31
0.0
  0
LINE
  5
8263
330
825D
100
AcDbEntity
  8
3
 62
     0
370
    -2
100
AcDbLine
 10
2354.735556307825
 20
1462.379441479799
 30
0.0
 11
2117.271270593539
 21
1462.379441479799
 31
0.0
  0
SOLID
  5
8264
330
825D
100
AcDbEntity
  8
3
 62
     0
100
AcDbTrace
 10
1863.735556307825
 20
1463.129441479799
 30
0.0
 11
1863.735556307825
 21
1461.629441479799
 31
0.0
 12
1859.235556307824
 22
1462.379441479799
 32
0.0
 13
1859.235556307824
 23
1462.379441479799
 33
0.0
  0
SOLID
  5
8265
330
825D
100
AcDbEntity
  8
3
 62
     0
100
AcDbTrace
 10
2354.735556307825
 20
1463.129441479799
 30
0.0
 11
2354.735556307825
 21
1461.629441479799
 31
0.0
 12
2359.235556307825
 22
1462.379441479799
 32
0.0
 13
2359.235556307825
 23
1462.379441479799
 33
0.0
  0
MTEXT
  5
8266
330
825D
100
AcDbEntity
  8
3
 62
     0
100
AcDbMText
 10
2109.235556307825
 20
1462.379441479799
 30
0.0
 40
4.5
 41
0.0
 71
     5
 72
     1
  1
\A1;500
 73
     1
 44
1.0
1001
ACAD
1000
MTEXTBEGIN
1070
    73
1070
     1
1070
    44
1040
1.0
1070
    74
1070
     0
1000
MTEXTEND
  0
POINT
  5
8267
330
825D
100
AcDbEntity
  8
DEFPOINTS
 62
     0
100
AcDbPoint
 10
1859.235556307824
 20
1636.252558363745
 30
0.0
  0
POINT
  5
8268
330
825D
100
AcDbEntity
  8
DEFPOINTS
 62
     0
100
AcDbPoint
 10
2359.235556307825
 20
1636.252558363745
 30
0.0
  0
POINT
  5
8269
330
825D
100
AcDbEntity
  8
DEFPOINTS
 62
     0
100
AcDbPoint
 10
2359.235556307825
 20
1462.379441479799
 30
0.0
  0
ENDBLK
  5
825F
330
825D
100
AcDbEntity
  8
0
100
AcDbBlockEnd
  0
BLOCK
  5
826B
330
826A
100
AcDbEntity
  8
0
100
AcDbBlockBegin
  2
*D35
 70
     1
 10
0.0
 20
0.0
 30
0.0
  3
*D35
  1

  0
LINE
  5
826D
330
826A
100
AcDbEntity
  8
3
 62
     0
370
    -2
100
AcDbLine
 10
3380.238642150312
 20
1611.252558363745
 30
0.0
 11
3380.238642150312
 21
1457.879441479799
 31
0.0
  0
LINE
  5
826E
330
826A
100
AcDbEntity
  8
3
 62
     0
370
    -2
100
AcDbLine
 10
4082.238642150313
 20
1611.252558363745
 30
0.0
 11
4082.238642150313
 21
1457.879441479799
 31
0.0
  0
LINE
  5
826F
330
826A
100
AcDbEntity
  8
3
 62
     0
370
    -2
100
AcDbLine
 10
3384.738642150312
 20
1462.379441479799
 30
0.0
 11
3723.202927864598
 21
1462.379441479799
 31
0.0
  0
LINE
  5
8270
330
826A
100
AcDbEntity
  8
3
 62
     0
370
    -2
100
AcDbLine
 10
4077.738642150313
 20
1462.379441479799
 30
0.0
 11
3739.274356436027
 21
1462.379441479799
 31
0.0
  0
SOLID
  5
8271
330
826A
100
AcDbEntity
  8
3
 62
     0
100
AcDbTrace
 10
3384.738642150312
 20
1463.129441479799
 30
0.0
 11
3384.738642150312
 21
1461.629441479799
 31
0.0
 12
3380.238642150312
 22
1462.379441479799
 32
0.0
 13
3380.238642150312
 23
1462.379441479799
 33
0.0
  0
SOLID
  5
8272
330
826A
100
AcDbEntity
  8
3
 62
     0
100
AcDbTrace
 10
4077.738642150313
 20
1463.129441479799
 30
0.0
 11
4077.738642150313
 21
1461.629441479799
 31
0.0
 12
4082.238642150313
 22
1462.379441479799
 32
0.0
 13
4082.238642150313
 23
1462.379441479799
 33
0.0
  0
MTEXT
  5
8273
330
826A
100
AcDbEntity
  8
3
 62
     0
100
AcDbMText
 10
3731.238642150313
 20
1462.379441479799
 30
0.0
 40
4.5
 41
0.0
 71
     5
 72
     1
  1
\A1;702
 73
     1
 44
1.0
1001
ACAD
1000
MTEXTBEGIN
1070
    73
1070
     1
1070
    44
1040
1.0
1070
    74
1070
     0
1000
MTEXTEND
  0
POINT
  5
8274
330
826A
100
AcDbEntity
  8
DEFPOINTS
 62
     0
100
AcDbPoint
 10
3380.238642150312
 20
1636.252558363745
 30
0.0
  0
POINT
  5
8275
330
826A
100
AcDbEntity
  8
DEFPOINTS
 62
     0
100
AcDbPoint
 10
4082.238642150313
 20
1636.252558363745
 30
0.0
  0
POINT
  5
8276
330
826A
100
AcDbEntity
  8
DEFPOINTS
 62
     0
100
AcDbPoint
 10
4082.238642150313
 20
1462.379441479799
 30
0.0
  0
ENDBLK
  5
826C
330
826A
100
AcDbEntity
  8
0
100
AcDbBlockEnd
  0
BLOCK
  5
8278
330
8277
100
AcDbEntity
  8
0
100
AcDbBlockBegin
  2
*D36
 70
     1
 10
0.0
 20
0.0
 30
0.0
  3
*D36
  1

  0
LINE
  5
827A
330
8277
100
AcDbEntity
  8
3
 62
     0
370
    -2
100
AcDbLine
 10
4082.238642150313
 20
1611.252558363745
 30
0.0
 11
4082.238642150313
 21
1457.879441479799
 31
0.0
  0
LINE
  5
827B
330
8277
100
AcDbEntity
  8
3
 62
     0
370
    -2
100
AcDbLine
 10
4635.238642150313
 20
1611.252558363745
 30
0.0
 11
4635.238642150313
 21
1457.879441479799
 31
0.0
  0
LINE
  5
827C
330
8277
100
AcDbEntity
  8
3
 62
     0
370
    -2
100
AcDbLine
 10
4086.738642150312
 20
1462.379441479799
 30
0.0
 11
4350.702927864598
 21
1462.379441479799
 31
0.0
  0
LINE
  5
827D
330
8277
100
AcDbEntity
  8
3
 62
     0
370
    -2
100
AcDbLine
 10
4630.738642150313
 20
1462.379441479799
 30
0.0
 11
4366.774356436027
 21
1462.379441479799
 31
0.0
  0
SOLID
  5
827E
330
8277
100
AcDbEntity
  8
3
 62
     0
100
AcDbTrace
 10
4086.738642150312
 20
1463.129441479799
 30
0.0
 11
4086.738642150312
 21
1461.629441479799
 31
0.0
 12
4082.238642150313
 22
1462.379441479799
 32
0.0
 13
4082.238642150313
 23
1462.379441479799
 33
0.0
  0
SOLID
  5
827F
330
8277
100
AcDbEntity
  8
3
 62
     0
100
AcDbTrace
 10
4630.738642150313
 20
1463.129441479799
 30
0.0
 11
4630.738642150313
 21
1461.629441479799
 31
0.0
 12
4635.238642150313
 22
1462.379441479799
 32
0.0
 13
4635.238642150313
 23
1462.379441479799
 33
0.0
  0
MTEXT
  5
8280
330
8277
100
AcDbEntity
  8
3
 62
     0
100
AcDbMText
 10
4358.738642150313
 20
1462.379441479799
 30
0.0
 40
4.5
 41
0.0
 71
     5
 72
     1
  1
\A1;553
 73
     1
 44
1.0
1001
ACAD
1000
MTEXTBEGIN
1070
    73
1070
     1
1070
    44
1040
1.0
1070
    74
1070
     0
1000
MTEXTEND
  0
POINT
  5
8281
330
8277
100
AcDbEntity
  8
DEFPOINTS
 62
     0
100
AcDbPoint
 10
4082.238642150313
 20
1636.252558363745
 30
0.0
  0
POINT
  5
8282
330
8277
100
AcDbEntity
  8
DEFPOINTS
 62
     0
100
AcDbPoint
 10
4635.238642150313
 20
1636.252558363745
 30
0.0
  0
POINT
  5
8283
330
8277
100
AcDbEntity
  8
DEFPOINTS
 62
     0
100
AcDbPoint
 10
4635.238642150313
 20
1462.379441479799
 30
0.0
  0
ENDBLK
  5
8279
330
8277
100
AcDbEntity
  8
0
100
AcDbBlockEnd
  0
BLOCK
  5
8285
330
8284
100
AcDbEntity
  8
0
100
AcDbBlockBegin
  2
*D37
 70
     1
 10
0.0
 20
0.0
 30
0.0
  3
*D37
  1

  0
LINE
  5
8287
330
8284
100
AcDbEntity
  8
3
 62
     0
370
    -2
100
AcDbLine
 10
2707.909447768586
 20
1740.752558363745
 30
0.0
 11
2707.909447768586
 21
1770.573986935173
 31
0.0
  0
LINE
  5
8288
330
8284
100
AcDbEntity
  8
3
 62
     0
370
    -2
100
AcDbLine
 10
2707.909447768586
 20
1811.752558363744
 30
0.0
 11
2707.909447768586
 21
1781.931129792315
 31
0.0
  0
SOLID
  5
8289
330
8284
100
AcDbEntity
  8
3
 62
     0
100
AcDbTrace
 10
2707.159447768586
 20
1740.752558363745
 30
0.0
 11
2708.659447768586
 21
1740.752558363745
 31
0.0
 12
2707.909447768586
 22
1736.252558363745
 32
0.0
 13
2707.909447768586
 23
1736.252558363745
 33
0.0
  0
SOLID
  5
828A
330
8284
100
AcDbEntity
  8
3
 62
     0
100
AcDbTrace
 10
2707.159447768586
 20
1811.752558363744
 30
0.0
 11
2708.659447768586
 21
1811.752558363744
 31
0.0
 12
2707.909447768586
 22
1816.252558363743
 32
0.0
 13
2707.909447768586
 23
1816.252558363743
 33
0.0
  0
MTEXT
  5
828B
330
8284
100
AcDbEntity
  8
3
 62
     0
100
AcDbMText
 10
2707.909447768585
 20
1776.252558363745
 30
0.0
 40
4.5
 41
0.0
 71
     5
 72
     1
  1
\A1;(80)
 73
     1
 44
1.0
1001
ACAD
1000
MTEXTBEGIN
1070
    73
1070
     1
1070
    44
1040
1.0
1070
    74
1070
     0
1000
MTEXTEND
  0
POINT
  5
828C
330
8284
100
AcDbEntity
  8
DEFPOINTS
 62
     0
100
AcDbPoint
 10
2359.235556307825
 20
1736.252558363745
 30
0.0
  0
POINT
  5
828D
330
8284
100
AcDbEntity
  8
DEFPOINTS
 62
     0
100
AcDbPoint
 10
2359.235556307825
 20
1816.252558363744
 30
0.0
  0
POINT
  5
828E
330
8284
100
AcDbEntity
  8
DEFPOINTS
 62
     0
100
AcDbPoint
 10
2707.909447768586
 20
1816.252558363743
 30
0.0
  0
ENDBLK
  5
8286
330
8284
100
AcDbEntity
  8
0
100
AcDbBlockEnd
  0
BLOCK
  5
8290
330
828F
100
AcDbEntity
  8
0
100
AcDbBlockBegin
  2
*D38
 70
     1
 10
0.0
 20
0.0
 30
0.0
  3
*D38
  1

  0
LINE
  5
8292
330
828F
100
AcDbEntity
  8
3
 62
     0
370
    -2
100
AcDbLine
 10
2384.235556307825
 20
1636.252558363745
 30
0.0
 11
2919.676281356128
 21
1636.252558363745
 31
0.0
  0
LINE
  5
8293
330
828F
100
AcDbEntity
  8
3
 62
     0
370
    -2
100
AcDbLine
 10
2454.235556307824
 20
3254.252558363746
 30
0.0
 11
2919.676281356129
 21
3254.252558363746
 31
0.0
  0
LINE
  5
8294
330
828F
100
AcDbEntity
  8
3
 62
     0
370
    -2
100
AcDbLine
 10
2915.176281356129
 20
1640.752558363745
 30
0.0
 11
2915.176281356129
 21
2439.573986935174
 31
0.0
  0
LINE
  5
8295
330
828F
100
AcDbEntity
  8
3
 62
     0
370
    -2
100
AcDbLine
 10
2915.176281356129
 20
3249.752558363745
 30
0.0
 11
2915.176281356129
 21
2450.931129792317
 31
0.0
  0
SOLID
  5
8296
330
828F
100
AcDbEntity
  8
3
 62
     0
100
AcDbTrace
 10
2914.426281356129
 20
1640.752558363745
 30
0.0
 11
2915.926281356129
 21
1640.752558363745
 31
0.0
 12
2915.176281356129
 22
1636.252558363745
 32
0.0
 13
2915.176281356129
 23
1636.252558363745
 33
0.0
  0
SOLID
  5
8297
330
828F
100
AcDbEntity
  8
3
 62
     0
100
AcDbTrace
 10
2914.426281356129
 20
3249.752558363745
 30
0.0
 11
2915.926281356129
 21
3249.752558363745
 31
0.0
 12
2915.176281356129
 22
3254.252558363746
 32
0.0
 13
2915.176281356129
 23
3254.252558363746
 33
0.0
  0
MTEXT
  5
8298
330
828F
100
AcDbEntity
  8
3
 62
     0
100
AcDbMText
 10
2915.176281356128
 20
2445.252558363746
 30
0.0
 40
4.5
 41
0.0
 71
     5
 72
     1
  1
\A1;(1618)
 73
     1
 44
1.0
1001
ACAD
1000
MTEXTBEGIN
1070
    73
1070
     1
1070
    44
1040
1.0
1070
    74
1070
     0
1000
MTEXTEND
  0
POINT
  5
8299
330
828F
100
AcDbEntity
  8
DEFPOINTS
 62
     0
100
AcDbPoint
 10
2359.235556307825
 20
1636.252558363745
 30
0.0
  0
POINT
  5
829A
330
828F
100
AcDbEntity
  8
DEFPOINTS
 62
     0
100
AcDbPoint
 10
2429.235556307824
 20
3254.252558363746
 30
0.0
  0
POINT
  5
829B
330
828F
100
AcDbEntity
  8
DEFPOINTS
 62
     0
100
AcDbPoint
 10
2915.176281356129
 20
3254.252558363746
 30
0.0
  0
ENDBLK
  5
8291
330
828F
100
AcDbEntity
  8
0
100
AcDbBlockEnd
  0
BLOCK
  5
829D
330
829C
100
AcDbEntity
  8
0
100
AcDbBlockBegin
  2
*D39
 70
     1
 10
0.0
 20
0.0
 30
0.0
  3
*D39
  1

  0
LINE
  5
829F
330
829C
100
AcDbEntity
  8
3
 62
     0
370
    -2
100
AcDbLine
 10
2360.798056307825
 20
1736.252558363745
 30
0.0
 11
2710.005213485754
 21
1736.252558363745
 31
0.0
  0
LINE
  5
82A0
330
829C
100
AcDbEntity
  8
3
 62
     0
370
    -2
100
AcDbLine
 10
2360.798056307825
 20
1636.252558363745
 30
0.0
 11
2710.005213485754
 21
1636.252558363745
 31
0.0
  0
LINE
  5
82A1
330
829C
100
AcDbEntity
  8
3
 62
     0
370
    -2
100
AcDbLine
 10
2705.505213485754
 20
1731.752558363744
 30
0.0
 11
2705.505213485754
 21
1690.752558363745
 31
0.0
  0
LINE
  5
82A2
330
829C
100
AcDbEntity
  8
3
 62
     0
370
    -2
100
AcDbLine
 10
2705.505213485754
 20
1640.752558363745
 30
0.0
 11
2705.505213485754
 21
1681.752558363745
 31
0.0
  0
SOLID
  5
82A3
330
829C
100
AcDbEntity
  8
3
 62
     0
100
AcDbTrace
 10
2704.755213485754
 20
1731.752558363744
 30
0.0
 11
2706.255213485754
 21
1731.752558363744
 31
0.0
 12
2705.505213485754
 22
1736.252558363745
 32
0.0
 13
2705.505213485754
 23
1736.252558363745
 33
0.0
  0
SOLID
  5
82A4
330
829C
100
AcDbEntity
  8
3
 62
     0
100
AcDbTrace
 10
2704.755213485754
 20
1640.752558363745
 30
0.0
 11
2706.255213485754
 21
1640.752558363745
 31
0.0
 12
2705.505213485754
 22
1636.252558363745
 32
0.0
 13
2705.505213485754
 23
1636.252558363745
 33
0.0
  0
MTEXT
  5
82A5
330
829C
100
AcDbEntity
  8
3
 62
     0
100
AcDbMText
 10
2705.505213485754
 20
1686.252558363745
 30
0.0
 40
4.5
 41
0.0
 71
     5
 72
     1
  1
\A1;100
 73
     1
 44
1.0
1001
ACAD
1000
MTEXTBEGIN
1070
    73
1070
     1
1070
    44
1040
1.0
1070
    74
1070
     0
1000
MTEXTEND
  0
POINT
  5
82A6
330
829C
100
AcDbEntity
  8
DEFPOINTS
 62
     0
100
AcDbPoint
 10
2359.235556307825
 20
1736.252558363745
 30
0.0
  0
POINT
  5
82A7
330
829C
100
AcDbEntity
  8
DEFPOINTS
 62
     0
100
AcDbPoint
 10
2359.235556307825
 20
1636.252558363745
 30
0.0
  0
POINT
  5
82A8
330
829C
100
AcDbEntity
  8
DEFPOINTS
 62
     0
100
AcDbPoint
 10
2705.505213485754
 20
1636.252558363745
 30
0.0
  0
ENDBLK
  5
829E
330
829C
100
AcDbEntity
  8
0
100
AcDbBlockEnd
  0
BLOCK
  5
82AB
330
82AA
100
AcDbEntity
  8
0
100
AcDbBlockBegin
  2
*D40
 70
     1
 10
0.0
 20
0.0
 30
0.0
  3
*D40
  1

  0
LINE
  5
82AD
330
82AA
100
AcDbEntity
  8
3
 62
     0
370
    -2
100
AcDbLine
 10
3380.238642150312
 20
1611.252558363745
 30
0.0
 11
3380.238642150312
 21
1452.475159675283
 31
0.0
  0
LINE
  5
82AE
330
82AA
100
AcDbEntity
  8
3
 62
     0
370
    -2
100
AcDbLine
 10
4082.238642150313
 20
1611.252558363745
 30
0.0
 11
4082.238642150313
 21
1452.475159675283
 31
0.0
  0
LINE
  5
82AF
330
82AA
100
AcDbEntity
  8
3
 62
     0
370
    -2
100
AcDbLine
 10
3430.238642150313
 20
1477.475159675283
 30
0.0
 11
4032.238642150313
 21
1477.475159675283
 31
0.0
  0
INSERT
  5
82B0
330
82AA
100
AcDbEntity
  8
3
 62
     0
370
    -2
100
AcDbBlockReference
  2
_OPEN
 10
3380.238642150312
 20
1477.475159675283
 30
0.0
 41
50.0
 42
50.0
 43
50.0
 50
180.0
  0
INSERT
  5
82B1
330
82AA
100
AcDbEntity
  8
3
 62
     0
370
    -2
100
AcDbBlockReference
  2
_OPEN
 10
4082.238642150313
 20
1477.475159675283
 30
0.0
 41
50.0
 42
50.0
 43
50.0
  0
MTEXT
  5
82B2
330
82AA
100
AcDbEntity
  8
3
 62
     0
100
AcDbMText
 10
3731.238642150313
 20
1539.975159675283
 30
0.0
 40
75.0
 41
0.0
 71
     5
 72
     1
  1
\A1;702
 73
     1
 44
1.0
1001
ACAD
1000
MTEXTBEGIN
1070
    73
1070
     1
1070
    44
1040
1.0
1070
    74
1070
     0
1000
MTEXTEND
  0
POINT
  5
82B3
330
82AA
100
AcDbEntity
  8
DEFPOINTS
 62
     0
100
AcDbPoint
 10
3380.238642150312
 20
1636.252558363745
 30
0.0
  0
POINT
  5
82B4
330
82AA
100
AcDbEntity
  8
DEFPOINTS
 62
     0
100
AcDbPoint
 10
4082.238642150313
 20
1636.252558363745
 30
0.0
  0
POINT
  5
82B5
330
82AA
100
AcDbEntity
  8
DEFPOINTS
 62
     0
100
AcDbPoint
 10
4082.238642150313
 20
1477.475159675283
 30
0.0
  0
ENDBLK
  5
82AC
330
82AA
100
AcDbEntity
  8
0
100
AcDbBlockEnd
  0
BLOCK
  5
82B8
330
82B7
100
AcDbEntity
  8
0
100
AcDbBlockBegin
  2
*D41
 70
     1
 10
0.0
 20
0.0
 30
0.0
  3
*D41
  1

  0
LINE
  5
82BA
330
82B7
100
AcDbEntity
  8
3
 62
     0
370
    -2
100
AcDbLine
 10
4082.238642150313
 20
1611.252558363745
 30
0.0
 11
4082.238642150313
 21
1452.475159675283
 31
0.0
  0
LINE
  5
82BB
330
82B7
100
AcDbEntity
  8
3
 62
     0
370
    -2
100
AcDbLine
 10
4635.238642150311
 20
1611.252558363745
 30
0.0
 11
4635.238642150311
 21
1452.475159675283
 31
0.0
  0
LINE
  5
82BC
330
82B7
100
AcDbEntity
  8
3
 62
     0
370
    -2
100
AcDbLine
 10
4132.238642150312
 20
1477.475159675283
 30
0.0
 11
4585.238642150311
 21
1477.475159675283
 31
0.0
  0
INSERT
  5
82BD
330
82B7
100
AcDbEntity
  8
3
 62
     0
370
    -2
100
AcDbBlockReference
  2
_OPEN
 10
4082.238642150313
 20
1477.475159675283
 30
0.0
 41
50.0
 42
50.0
 43
50.0
 50
180.0
  0
INSERT
  5
82BE
330
82B7
100
AcDbEntity
  8
3
 62
     0
370
    -2
100
AcDbBlockReference
  2
_OPEN
 10
4635.238642150311
 20
1477.475159675283
 30
0.0
 41
50.0
 42
50.0
 43
50.0
  0
MTEXT
  5
82BF
330
82B7
100
AcDbEntity
  8
3
 62
     0
100
AcDbMText
 10
4358.738642150313
 20
1539.975159675283
 30
0.0
 40
75.0
 41
0.0
 71
     5
 72
     1
  1
\A1;553
 73
     1
 44
1.0
1001
ACAD
1000
MTEXTBEGIN
1070
    73
1070
     1
1070
    44
1040
1.0
1070
    74
1070
     0
1000
MTEXTEND
  0
POINT
  5
82C0
330
82B7
100
AcDbEntity
  8
DEFPOINTS
 62
     0
100
AcDbPoint
 10
4082.238642150313
 20
1636.252558363745
 30
0.0
  0
POINT
  5
82C1
330
82B7
100
AcDbEntity
  8
DEFPOINTS
 62
     0
100
AcDbPoint
 10
4635.238642150311
 20
1636.252558363745
 30
0.0
  0
POINT
  5
82C2
330
82B7
100
AcDbEntity
  8
DEFPOINTS
 62
     0
100
AcDbPoint
 10
4635.238642150311
 20
1477.475159675283
 30
0.0
  0
ENDBLK
  5
82B9
330
82B7
100
AcDbEntity
  8
0
100
AcDbBlockEnd
  0
BLOCK
  5
82C5
330
82C4
100
AcDbEntity
  8
0
100
AcDbBlockBegin
  2
*D42
 70
     1
 10
0.0
 20
0.0
 30
0.0
  3
*D42
  1

  0
LINE
  5
82C7
330
82C4
100
AcDbEntity
  8
3
 62
     0
370
    -2
100
AcDbLine
 10
609.2355563078252
 20
1611.252558363745
 30
0.0
 11
609.2355563078252
 21
1449.377766821908
 31
0.0
  0
LINE
  5
82C8
330
82C4
100
AcDbEntity
  8
3
 62
     0
370
    -2
100
AcDbLine
 10
1859.235556307824
 20
1611.252558363745
 30
0.0
 11
1859.235556307824
 21
1449.377766821908
 31
0.0
  0
LINE
  5
82C9
330
82C4
100
AcDbEntity
  8
3
 62
     0
370
    -2
100
AcDbLine
 10
659.2355563078252
 20
1474.377766821908
 30
0.0
 11
1809.235556307825
 21
1474.377766821908
 31
0.0
  0
INSERT
  5
82CA
330
82C4
100
AcDbEntity
  8
3
 62
     0
370
    -2
100
AcDbBlockReference
  2
_OPEN
 10
609.2355563078252
 20
1474.377766821908
 30
0.0
 41
50.0
 42
50.0
 43
50.0
 50
180.0
  0
INSERT
  5
82CB
330
82C4
100
AcDbEntity
  8
3
 62
     0
370
    -2
100
AcDbBlockReference
  2
_OPEN
 10
1859.235556307824
 20
1474.377766821908
 30
0.0
 41
50.0
 42
50.0
 43
50.0
  0
MTEXT
  5
82CC
330
82C4
100
AcDbEntity
  8
3
 62
     0
100
AcDbMText
 10
1234.235556307825
 20
1536.877766821908
 30
0.0
 40
75.0
 41
0.0
 71
     5
 72
     1
  1
\A1;1250
 73
     1
 44
1.0
1001
ACAD
1000
MTEXTBEGIN
1070
    73
1070
     1
1070
    44
1040
1.0
1070
    74
1070
     0
1000
MTEXTEND
  0
POINT
  5
82CD
330
82C4
100
AcDbEntity
  8
DEFPOINTS
 62
     0
100
AcDbPoint
 10
609.2355563078252
 20
1636.252558363745
 30
0.0
  0
POINT
  5
82CE
330
82C4
100
AcDbEntity
  8
DEFPOINTS
 62
     0
100
AcDbPoint
 10
1859.235556307824
 20
1636.252558363745
 30
0.0
  0
POINT
  5
82CF
330
82C4
100
AcDbEntity
  8
DEFPOINTS
 62
     0
100
AcDbPoint
 10
1859.235556307824
 20
1474.377766821908
 30
0.0
  0
ENDBLK
  5
82C6
330
82C4
100
AcDbEntity
  8
0
100
AcDbBlockEnd
  0
BLOCK
  5
82D2
330
82D1
100
AcDbEntity
  8
0
100
AcDbBlockBegin
  2
*D43
 70
     1
 10
0.0
 20
0.0
 30
0.0
  3
*D43
  1

  0
LINE
  5
82D4
330
82D1
100
AcDbEntity
  8
3
 62
     0
370
    -2
100
AcDbLine
 10
1859.235556307824
 20
1611.252558363745
 30
0.0
 11
1859.235556307824
 21
1449.377766821908
 31
0.0
  0
LINE
  5
82D5
330
82D1
100
AcDbEntity
  8
3
 62
     0
370
    -2
100
AcDbLine
 10
2359.235556307825
 20
1611.252558363745
 30
0.0
 11
2359.235556307825
 21
1449.377766821908
 31
0.0
  0
LINE
  5
82D6
330
82D1
100
AcDbEntity
  8
3
 62
     0
370
    -2
100
AcDbLine
 10
1909.235556307825
 20
1474.377766821908
 30
0.0
 11
2309.235556307825
 21
1474.377766821908
 31
0.0
  0
INSERT
  5
82D7
330
82D1
100
AcDbEntity
  8
3
 62
     0
370
    -2
100
AcDbBlockReference
  2
_OPEN
 10
1859.235556307824
 20
1474.377766821908
 30
0.0
 41
50.0
 42
50.0
 43
50.0
 50
180.0
  0
INSERT
  5
82D8
330
82D1
100
AcDbEntity
  8
3
 62
     0
370
    -2
100
AcDbBlockReference
  2
_OPEN
 10
2359.235556307825
 20
1474.377766821908
 30
0.0
 41
50.0
 42
50.0
 43
50.0
  0
MTEXT
  5
82D9
330
82D1
100
AcDbEntity
  8
3
 62
     0
100
AcDbMText
 10
2109.235556307825
 20
1536.877766821908
 30
0.0
 40
75.0
 41
0.0
 71
     5
 72
     1
  1
\A1;500
 73
     1
 44
1.0
1001
ACAD
1000
MTEXTBEGIN
1070
    73
1070
     1
1070
    44
1040
1.0
1070
    74
1070
     0
1000
MTEXTEND
  0
POINT
  5
82DA
330
82D1
100
AcDbEntity
  8
DEFPOINTS
 62
     0
100
AcDbPoint
 10
1859.235556307824
 20
1636.252558363745
 30
0.0
  0
POINT
  5
82DB
330
82D1
100
AcDbEntity
  8
DEFPOINTS
 62
     0
100
AcDbPoint
 10
2359.235556307825
 20
1636.252558363745
 30
0.0
  0
POINT
  5
82DC
330
82D1
100
AcDbEntity
  8
DEFPOINTS
 62
     0
100
AcDbPoint
 10
2359.235556307825
 20
1474.377766821908
 30
0.0
  0
ENDBLK
  5
82D3
330
82D1
100
AcDbEntity
  8
0
100
AcDbBlockEnd
  0
BLOCK
  5
82EF
330
82EE
100
AcDbEntity
  8
0
100
AcDbBlockBegin
  2
*D44
 70
     1
 10
0.0
 20
0.0
 30
0.0
  3
*D44
  1

  0
LINE
  5
8345
330
82EE
100
AcDbEntity
  8
3
 62
     0
370
    -2
100
AcDbLine
 10
2550.707348158215
 20
2406.252558363744
 30
0.0
 11
2729.864302423691
 21
2406.252558363744
 31
0.0
  0
LINE
  5
8346
330
82EE
100
AcDbEntity
  8
3
 62
     0
370
    -2
100
AcDbLine
 10
2384.235556307825
 20
1816.252558363744
 30
0.0
 11
2729.864302423691
 21
1816.252558363743
 31
0.0
  0
LINE
  5
8347
330
82EE
100
AcDbEntity
  8
3
 62
     0
370
    -2
100
AcDbLine
 10
2704.864302423692
 20
2356.252558363744
 30
0.0
 11
2704.864302423692
 21
1866.252558363743
 31
0.0
  0
INSERT
  5
8348
330
82EE
100
AcDbEntity
  8
3
 62
     0
370
    -2
100
AcDbBlockReference
  2
_OPEN
 10
2704.864302423692
 20
2406.252558363744
 30
0.0
 41
50.0
 42
50.0
 43
50.0
 50
90.0
  0
INSERT
  5
8349
330
82EE
100
AcDbEntity
  8
3
 62
     0
370
    -2
100
AcDbBlockReference
  2
_OPEN
 10
2704.864302423692
 20
1816.252558363743
 30
0.0
 41
50.0
 42
50.0
 43
50.0
 50
270.0
  0
MTEXT
  5
834A
330
82EE
100
AcDbEntity
  8
3
 62
     0
100
AcDbMText
 10
2642.364302423691
 20
2111.252558363744
 30
0.0
 40
75.0
 41
0.0
 71
     5
 72
     1
  1
\A1;590
 11
0.0000000000000001
 21
1.0
 31
0.0
 73
     1
 44
1.0
1001
ACAD
1000
MTEXTBEGIN
1070
    73
1070
     1
1070
    44
1040
1.0
1070
    74
1070
     0
1000
MTEXTEND
  0
POINT
  5
834B
330
82EE
100
AcDbEntity
  8
DEFPOINTS
 62
     0
100
AcDbPoint
 10
2525.707348158215
 20
2406.252558363744
 30
0.0
  0
POINT
  5
834C
330
82EE
100
AcDbEntity
  8
DEFPOINTS
 62
     0
100
AcDbPoint
 10
2359.235556307825
 20
1816.252558363744
 30
0.0
  0
POINT
  5
834D
330
82EE
100
AcDbEntity
  8
DEFPOINTS
 62
     0
100
AcDbPoint
 10
2704.864302423692
 20
1816.252558363743
 30
0.0
  0
ENDBLK
  5
82F0
330
82EE
100
AcDbEntity
  8
0
100
AcDbBlockEnd
  0
BLOCK
  5
82FC
330
82FB
100
AcDbEntity
  8
0
100
AcDbBlockBegin
  2
*D45
 70
     1
 10
0.0
 20
0.0
 30
0.0
  3
*D45
  1

  0
LINE
  5
8417
330
82FB
100
AcDbEntity
  8
3
 62
     0
370
    -2
100
AcDbLine
 10
2384.235556307825
 20
1816.252558363744
 30
0.0
 11
2729.864302423691
 21
1816.252558363743
 31
0.0
  0
LINE
  5
8418
330
82FB
100
AcDbEntity
  8
3
 62
     0
370
    -2
100
AcDbLine
 10
2384.235556307825
 20
1736.252558363745
 30
0.0
 11
2729.864302423691
 21
1736.252558363745
 31
0.0
  0
LINE
  5
8419
330
82FB
100
AcDbEntity
  8
3
 62
     0
370
    -2
100
AcDbLine
 10
2704.864302423692
 20
1866.252558363743
 30
0.0
 11
2704.864302423692
 21
1916.252558363743
 31
0.0
  0
LINE
  5
841A
330
82FB
100
AcDbEntity
  8
3
 62
     0
370
    -2
100
AcDbLine
 10
2704.864302423692
 20
1736.252558363745
 30
0.0
 11
2704.864302423692
 21
1686.252558363745
 31
0.0
  0
LINE
  5
841B
330
82FB
100
AcDbEntity
  8
3
 62
     0
370
    -2
100
AcDbLine
 10
2704.864302423692
 20
1776.252558363744
 30
0.0
 11
2938.792873852263
 21
1846.431129792316
 31
0.0
  0
LINE
  5
841C
330
82FB
100
AcDbEntity
  8
3
 62
     0
370
    -2
100
AcDbLine
 10
2938.792873852263
 20
1846.431129792316
 30
0.0
 11
2938.792873852263
 21
2114.288272649459
 31
0.0
  0
MTEXT
  5
841D
330
82FB
100
AcDbEntity
  8
3
 62
     0
100
AcDbMText
 10
2856.650016709405
 20
1980.359701220887
 30
0.0
 40
75.0
 41
0.0
 71
     5
 72
     1
  1
\A1;(80)
 11
0.0000000000000001
 21
1.0
 31
0.0
 73
     1
 44
1.0
1001
ACAD
1000
MTEXTBEGIN
1070
    73
1070
     1
1070
    44
1040
1.0
1070
    74
1070
     0
1000
MTEXTEND
  0
LINE
  5
841E
330
82FB
100
AcDbEntity
  8
3
 62
     0
370
    -2
100
AcDbLine
 10
2704.864302423692
 20
1816.252558363743
 30
0.0
 11
2704.864302423692
 21
1736.252558363745
 31
0.0
  0
LINE
  5
841F
330
82FB
100
AcDbEntity
  8
3
 62
     0
370
    -2
100
AcDbLine
 10
2704.864302423692
 20
1816.252558363743
 30
0.0
 11
2704.864302423692
 21
1736.252558363745
 31
0.0
  0
INSERT
  5
8420
330
82FB
100
AcDbEntity
  8
3
 62
     0
370
    -2
100
AcDbBlockReference
  2
_OPEN
 10
2704.864302423692
 20
1816.252558363743
 30
0.0
 41
50.0
 42
50.0
 43
50.0
 50
270.0
  0
INSERT
  5
8421
330
82FB
100
AcDbEntity
  8
3
 62
     0
370
    -2
100
AcDbBlockReference
  2
_DotSmall
 10
2704.864302423692
 20
1736.252558363745
 30
0.0
 41
50.0
 42
50.0
 43
50.0
 50
90.0
  0
POINT
  5
8422
330
82FB
100
AcDbEntity
  8
DEFPOINTS
 62
     0
100
AcDbPoint
 10
2359.235556307825
 20
1816.252558363744
 30
0.0
  0
POINT
  5
8423
330
82FB
100
AcDbEntity
  8
DEFPOINTS
 62
     0
100
AcDbPoint
 10
2359.235556307825
 20
1736.252558363745
 30
0.0
  0
POINT
  5
8424
330
82FB
100
AcDbEntity
  8
DEFPOINTS
 62
     0
100
AcDbPoint
 10
2704.864302423692
 20
1736.252558363745
 30
0.0
  0
ENDBLK
  5
82FD
330
82FB
100
AcDbEntity
  8
0
100
AcDbBlockEnd
  0
BLOCK
  5
830E
330
830D
100
AcDbEntity
  8
0
100
AcDbBlockBegin
  2
*D46
 70
     1
 10
0.0
 20
0.0
 30
0.0
  3
*D46
  1

  0
LINE
  5
8471
330
830D
100
AcDbEntity
  8
3
 62
     0
370
    -2
100
AcDbLine
 10
2384.235556307825
 20
1736.252558363745
 30
0.0
 11
2729.864302423691
 21
1736.252558363745
 31
0.0
  0
LINE
  5
8472
330
830D
100
AcDbEntity
  8
3
 62
     0
370
    -2
100
AcDbLine
 10
2384.235556307825
 20
1636.252558363745
 30
0.0
 11
2729.864302423691
 21
1636.252558363745
 31
0.0
  0
LINE
  5
8473
330
830D
100
AcDbEntity
  8
3
 62
     0
370
    -2
100
AcDbLine
 10
2704.864302423692
 20
1736.252558363745
 30
0.0
 11
2704.864302423692
 21
1686.252558363745
 31
0.0
  0
MTEXT
  5
8474
330
830D
100
AcDbEntity
  8
3
 62
     0
100
AcDbMText
 10
2643.954325904546
 20
1513.389050521371
 30
0.0
 40
75.0
 41
0.0
 71
     5
 72
     1
  1
\A1;100
 11
0.0000000000000001
 21
1.0
 31
0.0
 73
     1
 44
1.0
1001
ACAD
1000
MTEXTBEGIN
1070
    73
1070
     1
1070
    44
1040
1.0
1070
    74
1070
     0
1000
MTEXTEND
  0
INSERT
  5
8475
330
830D
100
AcDbEntity
  8
3
 62
     0
370
    -2
100
AcDbBlockReference
  2
_DotSmall
 10
2704.864302423692
 20
1736.252558363745
 30
0.0
 41
50.0
 42
50.0
 43
50.0
 50
90.0
  0
INSERT
  5
8476
330
830D
100
AcDbEntity
  8
3
 62
     0
370
    -2
100
AcDbBlockReference
  2
_OPEN
 10
2704.864302423692
 20
1636.252558363745
 30
0.0
 41
50.0
 42
50.0
 43
50.0
 50
270.0
  0
POINT
  5
8477
330
830D
100
AcDbEntity
  8
DEFPOINTS
 62
     0
100
AcDbPoint
 10
2359.235556307825
 20
1736.252558363745
 30
0.0
  0
POINT
  5
8478
330
830D
100
AcDbEntity
  8
DEFPOINTS
 62
     0
100
AcDbPoint
 10
2359.235556307825
 20
1636.252558363745
 30
0.0
  0
POINT
  5
8479
330
830D
100
AcDbEntity
  8
DEFPOINTS
 62
     0
100
AcDbPoint
 10
2704.864302423692
 20
1636.252558363745
 30
0.0
  0
ENDBLK
  5
830F
330
830D
100
AcDbEntity
  8
0
100
AcDbBlockEnd
  0
BLOCK
  5
8374
330
8373
100
AcDbEntity
  8
0
100
AcDbBlockBegin
  2
*D47
 70
     1
 10
0.0
 20
0.0
 30
0.0
  3
*D47
  1

  0
LINE
  5
8388
330
8373
100
AcDbEntity
  8
3
 62
     0
370
    -2
100
AcDbLine
 10
2384.235556307825
 20
1636.252558363745
 30
0.0
 11
3008.022525924455
 21
1636.252558363745
 31
0.0
  0
LINE
  5
8389
330
8373
100
AcDbEntity
  8
3
 62
     0
370
    -2
100
AcDbLine
 10
2429.235556307825
 20
3254.252558363744
 30
0.0
 11
3008.022525924455
 21
3254.252558363744
 31
0.0
  0
LINE
  5
838A
330
8373
100
AcDbEntity
  8
3
 62
     0
370
    -2
100
AcDbLine
 10
2983.022525924454
 20
1686.252558363745
 30
0.0
 11
2983.022525924455
 21
3204.252558363744
 31
0.0
  0
INSERT
  5
838B
330
8373
100
AcDbEntity
  8
3
 62
     0
370
    -2
100
AcDbBlockReference
  2
_OPEN
 10
2983.022525924454
 20
1636.252558363745
 30
0.0
 41
50.0
 42
50.0
 43
50.0
 50
270.0
  0
INSERT
  5
838C
330
8373
100
AcDbEntity
  8
3
 62
     0
370
    -2
100
AcDbBlockReference
  2
_OPEN
 10
2983.022525924455
 20
3254.252558363744
 30
0.0
 41
50.0
 42
50.0
 43
50.0
 50
90.0
  0
MTEXT
  5
838D
330
8373
100
AcDbEntity
  8
3
 62
     0
100
AcDbMText
 10
2900.879668781597
 20
2445.252558363745
 30
0.0
 40
75.0
 41
0.0
 71
     5
 72
     1
  1
\A1;(1618)
 11
0.0000000000000001
 21
1.0
 31
0.0
 73
     1
 44
1.0
1001
ACAD
1000
MTEXTBEGIN
1070
    73
1070
     1
1070
    44
1040
1.0
1070
    74
1070
     0
1000
MTEXTEND
  0
POINT
  5
838E
330
8373
100
AcDbEntity
  8
DEFPOINTS
 62
     0
100
AcDbPoint
 10
2359.235556307825
 20
1636.252558363745
 30
0.0
  0
POINT
  5
838F
330
8373
100
AcDbEntity
  8
DEFPOINTS
 62
     0
100
AcDbPoint
 10
2404.235556307825
 20
3254.252558363744
 30
0.0
  0
POINT
  5
8390
330
8373
100
AcDbEntity
  8
DEFPOINTS
 62
     0
100
AcDbPoint
 10
2983.022525924455
 20
3254.252558363744
 30
0.0
  0
ENDBLK
  5
8375
330
8373
100
AcDbEntity
  8
0
100
AcDbBlockEnd
  0
BLOCK
  5
8415
330
8413
100
AcDbEntity
  8
0
100
AcDbBlockBegin
  2
_DotSmall
 70
     0
 10
0.0
 20
0.0
 30
0.0
  3
_DotSmall
  1

  0
LWPOLYLINE
  5
8414
330
8413
100
AcDbEntity
  8
0
  6
ByBlock
 62
     0
100
AcDbPolyline
 90
        2
 70
     1
 43
0.5
 10
-0.0625
 20
0.0
 42
1.0
 10
0.0625
 20
0.0
 42
1.0
  0
ENDBLK
  5
8416
330
8413
100
AcDbEntity
  8
0
100
AcDbBlockEnd
  0
BLOCK
  5
847C
330
847B
100
AcDbEntity
  8
0
100
AcDbBlockBegin
  2
*D49
 70
     1
 10
0.0
 20
0.0
 30
0.0
  3
*D49
  1

  0
LINE
  5
8487
330
847B
100
AcDbEntity
  8
3
 62
     0
370
    -2
100
AcDbLine
 10
1859.235556307824
 20
3289.935890990989
 30
0.0
 11
1859.235556307824
 21
3433.571739266544
 31
0.0
  0
LINE
  5
8488
330
847B
100
AcDbEntity
  8
3
 62
     0
370
    -2
100
AcDbLine
 10
1183.235556307824
 20
2490.252558363744
 30
0.0
 11
1183.235556307824
 21
3433.571739266544
 31
0.0
  0
LINE
  5
8489
330
847B
100
AcDbEntity
  8
3
 62
     0
370
    -2
100
AcDbLine
 10
1809.235556307825
 20
3408.571739266544
 30
0.0
 11
1233.235556307824
 21
3408.571739266544
 31
0.0
  0
INSERT
  5
848A
330
847B
100
AcDbEntity
  8
3
 62
     0
370
    -2
100
AcDbBlockReference
  2
_OPEN
 10
1859.235556307824
 20
3408.571739266544
 30
0.0
 41
50.0
 42
50.0
 43
50.0
  0
INSERT
  5
848B
330
847B
100
AcDbEntity
  8
3
 62
     0
370
    -2
100
AcDbBlockReference
  2
_OPEN
 10
1183.235556307824
 20
3408.571739266544
 30
0.0
 41
50.0
 42
50.0
 43
50.0
 50
180.0
  0
MTEXT
  5
848C
330
847B
100
AcDbEntity
  8
3
 62
     0
100
AcDbMText
 10
1521.235556307824
 20
3471.071739266544
 30
0.0
 40
75.0
 41
0.0
 71
     5
 72
     1
  1
\A1;676
 73
     1
 44
1.0
1001
ACAD
1000
MTEXTBEGIN
1070
    73
1070
     1
1070
    44
1040
1.0
1070
    74
1070
     0
1000
MTEXTEND
  0
POINT
  5
848D
330
847B
100
AcDbEntity
  8
DEFPOINTS
 62
     0
100
AcDbPoint
 10
1859.235556307824
 20
3264.935890990989
 30
0.0
  0
POINT
  5
848E
330
847B
100
AcDbEntity
  8
DEFPOINTS
 62
     0
100
AcDbPoint
 10
1183.235556307824
 20
2465.252558363744
 30
0.0
  0
POINT
  5
848F
330
847B
100
AcDbEntity
  8
DEFPOINTS
 62
     0
100
AcDbPoint
 10
1183.235556307824
 20
3408.571739266544
 30
0.0
  0
ENDBLK
  5
847D
330
847B
100
AcDbEntity
  8
0
100
AcDbBlockEnd
  0
ENDSEC
  0
SECTION
  2
ENTITIES
  0
INSERT
  5
7C04
330
80FD
100
AcDbEntity
  8
0
100
AcDbBlockReference
  2
YA_N
 10
6.0
 20
5.0
 30
0.0
  0
LINE
  5
7C06
330
80FD
100
AcDbEntity
  8
2
100
AcDbLine
 10
1859.235556307824
 20
3264.935890990989
 30
0.0
 11
1859.235556307824
 21
1636.252558363745
 31
0.0
  0
LINE
  5
7C07
330
80FD
100
AcDbEntity
  8
2
100
AcDbLine
 10
2525.707348158216
 20
2406.252558363744
 30
0.0
 11
1101.331979117788
 21
2406.252558363744
 31
0.0
  0
LINE
  5
7C12
330
80FD
100
AcDbEntity
  8
1
100
AcDbLine
 10
609.2355563078252
 20
1636.252558363745
 30
0.0
 11
2359.235556307825
 21
1636.252558363745
 31
0.0
  0
LINE
  5
7C13
330
80FD
100
AcDbEntity
  8
1
100
AcDbLine
 10
2359.235556307825
 20
1736.252558363745
 30
0.0
 11
2359.235556307825
 21
1636.252558363745
 31
0.0
  0
LINE
  5
7C14
330
80FD
100
AcDbEntity
  8
1
100
AcDbLine
 10
609.2355563078252
 20
1736.252558363745
 30
0.0
 11
609.2355563078252
 21
1636.252558363745
 31
0.0
  0
LINE
  5
7C15
330
80FD
100
AcDbEntity
  8
1
100
AcDbLine
 10
1059.235556307824
 20
1956.252558363743
 30
0.0
 11
1059.235556307824
 21
1916.252558363744
 31
0.0
  0
LINE
  5
7C16
330
80FD
100
AcDbEntity
  8
1
100
AcDbLine
 10
4582.238642150313
 20
3254.252558363746
 30
0.0
 11
4582.238642150311
 21
2429.252558363745
 31
0.0
  0
LINE
  5
7C17
330
80FD
100
AcDbEntity
  8
1
100
AcDbLine
 10
3380.238642150312
 20
1636.252558363745
 30
0.0
 11
4585.238642150313
 21
1636.252558363745
 31
0.0
  0
LINE
  5
7C18
330
80FD
100
AcDbEntity
  8
1
100
AcDbLine
 10
3380.238642150312
 20
1736.252558363745
 30
0.0
 11
3380.238642150312
 21
1636.252558363745
 31
0.0
  0
LINE
  5
7C19
330
80FD
100
AcDbEntity
  8
2
100
AcDbLine
 10
3192.92071159702
 20
2406.252558363744
 30
0.0
 11
4733.288488729509
 21
2406.252558363744
 31
0.0
  0
LINE
  5
7C1A
330
80FD
100
AcDbEntity
  8
2
100
AcDbLine
 10
3192.92071159702
 20
2166.252558363745
 30
0.0
 11
3582.238642150312
 21
2166.252558363744
 31
0.0
  0
LINE
  5
7C1B
330
80FD
100
AcDbEntity
  8
1
100
AcDbLine
 10
3314.238642150312
 20
2533.252558363745
 30
0.0
 11
3314.238642150312
 21
2279.252558363745
 31
0.0
  0
LINE
  5
7C1C
330
80FD
100
AcDbEntity
  8
1
100
AcDbLine
 10
3182.238642150312
 20
2626.252558363745
 30
0.0
 11
3182.238642150312
 21
1946.252558363744
 31
0.0
  0
LINE
  5
7C1D
330
80FD
100
AcDbEntity
  8
1
100
AcDbLine
 10
3182.238642150312
 20
2626.252558363745
 30
0.0
 11
3432.238642150312
 21
2626.252558363745
 31
0.0
  0
LINE
  5
7C1E
330
80FD
100
AcDbEntity
  8
1
100
AcDbLine
 10
3432.238642150312
 20
2626.252558363745
 30
0.0
 11
3432.238642150312
 21
2576.252558363744
 31
0.0
  0
LINE
  5
7C1F
330
80FD
100
AcDbEntity
  8
1
100
AcDbLine
 10
3432.238642150313
 20
1988.748335755082
 30
0.0
 11
3432.238642150313
 21
1946.252558363744
 31
0.0
  0
LINE
  5
7C20
330
80FD
100
AcDbEntity
  8
2
100
AcDbLine
 10
4082.238642150311
 20
3390.025930532419
 30
0.0
 11
4082.238642150313
 21
1636.252558363745
 31
0.0
  0
POINT
  5
7C21
330
80FD
100
AcDbEntity
  8
1
100
AcDbPoint
 10
2359.235556307825
 20
1816.252558363744
 30
0.0
  0
POINT
  5
7C22
330
80FD
100
AcDbEntity
  8
1
100
AcDbPoint
 10
2359.235556307825
 20
1816.252558363744
 30
0.0
  0
POINT
  5
7C23
330
80FD
100
AcDbEntity
  8
1
100
AcDbPoint
 10
2359.235556307825
 20
1816.252558363744
 30
0.0
  0
INSERT
  5
7C26
330
80FD
100
AcDbEntity
  8
0
100
AcDbBlockReference
  2
YA_N
 10
-733.6448571667497
 20
-271.0302667023643
 30
0.0
 41
20.0
 42
20.0
 43
20.0
  0
DIMENSION
  5
7C29
330
80FD
100
AcDbEntity
  8
3
100
AcDbDimension
  2
*D4
 10
2552.580899849889
 20
2429.252558363745
 30
0.0
 11
2502.580899849888
 21
2841.752558363745
 31
0.0
 12
-369.6306114916296
 22
844.364942954264
 32
0.0
 71
     5
 42
-1.0
  3
Standard
100
AcDbAlignedDimension
 13
2404.235556307825
 23
3254.252558363746
 33
0.0
 14
2404.235556307825
 24
2429.252558363745
 34
0.0
 50
270.0
100
AcDbRotatedDimension
1001
ACAD
1000
DSTYLE
1002
{
1070
    40
1040
25.0
1002
}
  0
DIMENSION
  5
7C2A
330
80FD
100
AcDbEntity
  8
3
100
AcDbDimension
  2
*D5
 10
2704.864302423692
 20
2406.252558363744
 30
0.0
 11
2654.864302423691
 21
2830.252558363746
 31
0.0
 12
-369.6306114916296
 22
844.364942954264
 32
0.0
 71
     5
 42
-1.0
  3
Standard
100
AcDbAlignedDimension
 13
2404.235556307825
 23
3254.252558363746
 33
0.0
 14
2525.707348158216
 24
2406.252558363744
 34
0.0
 50
270.0
100
AcDbRotatedDimension
1001
ACAD
1000
DSTYLE
1002
{
1070
    40
1040
25.0
1002
}
  0
LINE
  5
7C2B
330
80FD
100
AcDbEntity
  8
1
100
AcDbLine
 10
724.7766563078258
 20
2075.940558363745
 30
0.0
 11
705.2355563078252
 21
2022.252558363744
 31
0.0
  0
LINE
  5
7C2C
330
80FD
100
AcDbEntity
  8
1
100
AcDbLine
 10
993.6823563078252
 20
2075.973558363744
 30
0.0
 11
1013.235556307825
 21
2022.252558363744
 31
0.0
  0
ARC
  5
7C2D
330
80FD
100
AcDbEntity
  8
1
100
AcDbCircle
 10
859.2355563078253
 20
2166.252558363745
 30
0.0
 40
162.0
100
AcDbArc
 50
180.0
 51
213.894877047198
  0
ARC
  5
7C2E
330
80FD
100
AcDbEntity
  8
1
100
AcDbCircle
 10
859.2355563078253
 20
2166.252558363745
 30
0.0
 40
162.0
100
AcDbArc
 50
326.1050864604068
 51
180.0
  0
LINE
  5
7C2F
330
80FD
100
AcDbEntity
  8
2
100
AcDbLine
 10
859.2355563078253
 20
2344.702326450931
 30
0.0
 11
859.2355563078234
 21
1636.252558363745
 31
0.0
  0
LINE
  5
7C30
330
80FD
100
AcDbEntity
  8
1
100
AcDbLine
 10
1013.235556307825
 20
2006.252558363744
 30
0.0
 11
1013.235556307825
 21
2022.252558363744
 31
0.0
  0
LINE
  5
7C31
330
80FD
100
AcDbEntity
  8
1
100
AcDbLine
 10
705.2355563078252
 20
2006.252558363744
 30
0.0
 11
705.2355563078252
 21
2022.252558363744
 31
0.0
  0
LINE
  5
7C32
330
80FD
100
AcDbEntity
  8
2
100
AcDbLine
 10
1047.346000370496
 20
2166.252558363745
 30
0.0
 11
672.2671953404677
 21
2166.252558363744
 31
0.0
  0
LINE
  5
7C33
330
80FD
100
AcDbEntity
  8
1
100
AcDbLine
 10
670.720913041785
 20
2006.252558363744
 30
0.0
 11
1047.990423922636
 21
2006.252558363743
 31
0.0
  0
LINE
  5
7C34
330
80FD
100
AcDbEntity
  8
1
100
AcDbLine
 10
1061.235556307822
 20
1956.252558363743
 30
0.0
 11
1047.990423922636
 21
2006.252558363744
 31
0.0
  0
LINE
  5
7C35
330
80FD
100
AcDbEntity
  8
1
100
AcDbLine
 10
657.2355563078234
 20
1956.252558363743
 30
0.0
 11
670.720913041785
 21
2006.252558363744
 31
0.0
  0
CIRCLE
  5
7C36
330
80FD
100
AcDbEntity
  8
1
100
AcDbCircle
 10
859.2355563078253
 20
2166.252558363745
 30
0.0
 40
110.0
  0
CIRCLE
  5
7C37
330
80FD
100
AcDbEntity
  8
1
100
AcDbCircle
 10
1859.235556307824
 20
2406.252558363744
 30
0.0
 40
127.0
  0
LINE
  5
7C38
330
80FD
100
AcDbEntity
  8
1
100
AcDbLine
 10
3314.238642150312
 20
2533.252558363745
 30
0.0
 11
3399.238642150312
 21
2533.252558363745
 31
0.0
  0
LINE
  5
7C39
330
80FD
100
AcDbEntity
  8
1
100
AcDbLine
 10
3314.238642150312
 20
2279.252558363745
 30
0.0
 11
3399.238642150313
 21
2279.252558363745
 31
0.0
  0
LINE
  5
7C3A
330
80FD
100
AcDbEntity
  8
1
100
AcDbLine
 10
3314.238642150313
 20
2276.252558363744
 30
0.0
 11
3399.238642150312
 21
2276.252558363744
 31
0.0
  0
LINE
  5
7C3B
330
80FD
100
AcDbEntity
  8
1
100
AcDbLine
 10
3314.238642150312
 20
2056.252558363744
 30
0.0
 11
3399.238642150312
 21
2056.252558363744
 31
0.0
  0
LINE
  5
7C3C
330
80FD
100
AcDbEntity
  8
1
100
AcDbLine
 10
3182.238642150312
 20
1946.252558363744
 30
0.0
 11
3432.238642150312
 21
1946.252558363744
 31
0.0
  0
LINE
  5
7C3D
330
80FD
100
AcDbEntity
  8
1
100
AcDbLine
 10
3399.238642150312
 20
2533.252558363745
 30
0.0
 11
3399.238642150312
 21
2279.252558363745
 31
0.0
  0
INSERT
  5
7C3E
330
80FD
100
AcDbEntity
  8
0
100
AcDbBlockReference
  2
YA_N
 10
-36.73462870802178
 20
301.6536876033205
 30
0.0
 41
20.0
 42
20.0
 43
20.0
  0
INSERT
  5
7C40
330
80FD
100
AcDbEntity
  8
0
100
AcDbBlockReference
  2
YA_N
 10
77.48489664613955
 20
225.3119777640749
 30
0.0
 41
20.0
 42
20.0
 43
20.0
  0
LINE
  5
7C42
330
80FD
100
AcDbEntity
  8
1
100
AcDbLine
 10
3380.238642150311
 20
1736.252558363744
 30
0.0
 11
4635.238642150311
 21
1736.252558363745
 31
0.0
1001
ACAD
1000
ASC_BOUNDS
1002
{
1070
    19
1002
}
  0
LINE
  5
7C43
330
80FD
100
AcDbEntity
  8
1
100
AcDbLine
 10
2359.235556307825
 20
1736.252558363745
 30
0.0
 11
609.2355563078252
 21
1736.252558363744
 31
0.0
1001
ACAD
1000
ASC_BOUNDS
1002
{
1070
    19
1005
0
1005
0
1002
}
  0
POINT
  5
7C44
330
80FD
100
AcDbEntity
  8
1
100
AcDbPoint
 10
2359.235556307825
 20
1736.252558363745
 30
0.0
  0
POINT
  5
7C45
330
80FD
100
AcDbEntity
  8
1
100
AcDbPoint
 10
2359.235556307825
 20
1636.252558363745
 30
0.0
  0
POINT
  5
7C46
330
80FD
100
AcDbEntity
  8
1
100
AcDbPoint
 10
2359.235556307825
 20
1736.252558363745
 30
0.0
  0
POINT
  5
7C47
330
80FD
100
AcDbEntity
  8
1
100
AcDbPoint
 10
2359.235556307825
 20
1816.252558363744
 30
0.0
  0
LINE
  5
7C48
330
80FD
100
AcDbEntity
  8
1
100
AcDbLine
 10
4635.238642150311
 20
1736.252558363745
 30
0.0
 11
4635.238642150311
 21
1636.252558363745
 31
0.0
  0
LINE
  5
7C49
330
80FD
100
AcDbEntity
  8
1
100
AcDbLine
 10
4585.238642150311
 20
1636.252558363745
 30
0.0
 11
4635.238642150313
 21
1636.252558363745
 31
0.0
  0
POINT
  5
7C4B
330
80FD
100
AcDbEntity
  8
1
100
AcDbPoint
 10
2359.235556307825
 20
1736.252558363745
 30
0.0
  0
POINT
  5
7C4C
330
80FD
100
AcDbEntity
  8
1
100
AcDbPoint
 10
2359.235556307825
 20
1636.252558363745
 30
0.0
  0
POINT
  5
7C4D
330
80FD
100
AcDbEntity
  8
1
100
AcDbPoint
 10
2359.235556307825
 20
1736.252558363745
 30
0.0
  0
POINT
  5
7C4E
330
80FD
100
AcDbEntity
  8
1
100
AcDbPoint
 10
2359.235556307825
 20
1816.252558363744
 30
0.0
  0
LINE
  5
7C4F
330
80FD
100
AcDbEntity
  8
1
100
AcDbLine
 10
4082.238642150311
 20
3254.252558363746
 30
0.0
 11
4582.238642150311
 21
3254.252558363746
 31
0.0
  0
LINE
  5
7C50
330
80FD
100
AcDbEntity
  8
1
100
AcDbLine
 10
4082.238642150313
 20
2429.252558363745
 30
0.0
 11
4582.238642150311
 21
2429.252558363745
 31
0.0
  0
LINE
  5
7C51
330
80FD
100
AcDbEntity
  8
1
100
AcDbLine
 10
4582.238642150311
 20
2429.252558363745
 30
0.0
 11
4582.238642150311
 21
1916.252558363744
 31
0.0
  0
LINE
  5
7C52
330
80FD
100
AcDbEntity
  8
1
100
AcDbLine
 10
4082.23864215031
 20
2429.252558363745
 30
0.0
 11
3582.238642150314
 21
2429.252558363745
 31
0.0
  0
LINE
  5
7C53
330
80FD
100
AcDbEntity
  8
1
100
AcDbLine
 10
3582.238642150312
 20
2429.252558363745
 30
0.0
 11
3582.238642150312
 21
1916.252558363744
 31
0.0
  0
LINE
  5
7C54
330
80FD
100
AcDbEntity
  8
1
100
AcDbLine
 10
3582.238642150312
 20
3254.252558363746
 30
0.0
 11
3582.238642150314
 21
2429.252558363745
 31
0.0
  0
LINE
  5
7C55
330
80FD
100
AcDbEntity
  8
1
100
AcDbLine
 10
4082.238642150311
 20
3254.252558363746
 30
0.0
 11
3582.238642150312
 21
3254.252558363746
 31
0.0
  0
LINE
  5
7C56
330
80FD
100
AcDbEntity
  8
1
100
AcDbLine
 10
3444.238642150312
 20
2370.452558363744
 30
0.0
 11
3444.238642150312
 21
2240.452558363745
 31
0.0
  0
LINE
  5
7C57
330
80FD
100
AcDbEntity
  8
1
100
AcDbLine
 10
3454.238642150312
 20
2380.452558363745
 30
0.0
 11
3582.238642150312
 21
2380.452558363744
 31
0.0
  0
LINE
  5
7C58
330
80FD
100
AcDbEntity
  8
1
100
AcDbLine
 10
3454.238642150312
 20
2230.452558363745
 30
0.0
 11
3582.238642150312
 21
2230.452558363744
 31
0.0
  0
ARC
  5
7C59
330
80FD
100
AcDbEntity
  8
1
100
AcDbCircle
 10
3454.238642150312
 20
2370.452558363744
 30
0.0
 40
10.0
100
AcDbArc
 50
90.0
 51
180.0
  0
ARC
  5
7C5A
330
80FD
100
AcDbEntity
  8
1
100
AcDbCircle
 10
3454.238642150312
 20
2240.452558363745
 30
0.0
 40
10.0
100
AcDbArc
 50
180.0
 51
270.0
  0
LINE
  5
7C5B
330
80FD
100
AcDbEntity
  8
1
100
AcDbLine
 10
4692.238642150313
 20
2366.752558363744
 30
0.0
 11
4692.238642150313
 21
2266.752558363744
 31
0.0
  0
ARC
  5
7C5C
330
80FD
100
AcDbEntity
  8
1
100
AcDbCircle
 10
4682.238642150313
 20
2266.752558363744
 30
0.0
 40
10.0
100
AcDbArc
 50
270.0
 51
0.0
  0
ARC
  5
7C5D
330
80FD
100
AcDbEntity
  8
1
100
AcDbCircle
 10
4682.238642150313
 20
2366.752558363744
 30
0.0
 40
10.0
100
AcDbArc
 50
0.0
 51
90.0
  0
LINE
  5
7C5E
330
80FD
100
AcDbEntity
  8
1
100
AcDbLine
 10
4582.238642150311
 20
2256.752558363744
 30
0.0
 11
4682.238642150313
 21
2256.752558363744
 31
0.0
  0
LINE
  5
7C5F
330
80FD
100
AcDbEntity
  8
1
100
AcDbLine
 10
4582.238642150311
 20
2376.752558363747
 30
0.0
 11
4682.238642150313
 21
2376.752558363744
 31
0.0
  0
LINE
  5
7C60
330
80FD
100
AcDbEntity
  8
1
100
AcDbLine
 10
659.2355563078236
 20
1956.252558363743
 30
0.0
 11
659.2355563078236
 21
1916.252558363744
 31
0.0
  0
POINT
  5
7C61
330
80FD
100
AcDbEntity
  8
1
100
AcDbPoint
 10
4692.238642150313
 20
2366.752558363744
 30
0.0
  0
LINE
  5
7C62
330
80FD
100
AcDbEntity
  8
1
100
AcDbLine
 10
609.2355563078252
 20
4143.745515194763
 30
0.0
 11
2359.235556307825
 21
4143.745515194763
 31
0.0
  0
LINE
  5
7C63
330
80FD
100
AcDbEntity
  8
1
100
AcDbLine
 10
1359.235556307824
 20
5398.745515194764
 30
0.0
 11
2359.235556307825
 21
5398.745515194764
 31
0.0
  0
LINE
  5
7C64
330
80FD
100
AcDbEntity
  8
1
100
AcDbLine
 10
2359.235556307825
 20
5398.745515194764
 30
0.0
 11
2359.235556307825
 21
5345.74551519476
 31
0.0
  0
LINE
  5
7C65
330
80FD
100
AcDbEntity
  8
1
100
AcDbLine
 10
609.2355563078252
 20
4893.745515194763
 30
0.0
 11
609.2355563078252
 21
4143.745515194763
 31
0.0
  0
LINE
  5
7C66
330
80FD
100
AcDbEntity
  8
1
100
AcDbLine
 10
1359.235556307824
 20
5398.745515194764
 30
0.0
 11
1359.235556307824
 21
5345.745515194764
 31
0.0
  0
LINE
  5
7C67
330
80FD
100
AcDbEntity
  8
1
100
AcDbLine
 10
609.2355563078252
 20
4893.745515194763
 30
0.0
 11
1175.575472554834
 21
4893.745515194763
 31
0.0
  0
LINE
  5
7C68
330
80FD
100
AcDbEntity
  8
2
100
AcDbLine
 10
1125.509671165549
 20
4845.745515194764
 30
0.0
 11
2439.627924716257
 21
4845.745515194764
 31
0.0
  0
LINE
  5
7C69
330
80FD
100
AcDbEntity
  8
2
100
AcDbLine
 10
1859.235556307823
 20
5431.72943073169
 30
0.0
 11
1859.235556307824
 21
3908.881864044626
 31
0.0
  0
LINE
  5
7C6A
330
80FD
100
AcDbEntity
  8
2
100
AcDbLine
 10
859.2355563078253
 20
4760.235504678708
 30
0.0
 11
859.2355563078253
 21
3908.881864044626
 31
0.0
  0
LINE
  5
7C6D
330
80FD
100
AcDbEntity
  8
1
100
AcDbLine
 10
4635.238642150311
 20
1916.252558363744
 30
0.0
 11
4635.238642150311
 21
1816.252558363744
 31
0.0
  0
LINE
  5
7C6E
330
80FD
100
AcDbEntity
  8
1
100
AcDbLine
 10
3380.238642150311
 20
1916.252558363744
 30
0.0
 11
4635.238642150311
 21
1916.252558363745
 31
0.0
1001
ACAD
1000
ASC_BOUNDS
1002
{
1070
    19
1002
}
  0
LINE
  5
7C6F
330
80FD
100
AcDbEntity
  8
1
100
AcDbLine
 10
3380.238642150312
 20
1816.252558363744
 30
0.0
 11
4635.238642150311
 21
1816.252558363744
 31
0.0
  0
LINE
  5
7C70
330
80FD
100
AcDbEntity
  8
1
100
AcDbLine
 10
3380.238642150312
 20
1916.252558363744
 30
0.0
 11
3380.238642150312
 21
1816.252558363744
 31
0.0
  0
DIMENSION
  5
7C71
330
80FD
100
AcDbEntity
  8
3
100
AcDbDimension
  2
*D7
 10
4883.762053047289
 20
1981.252558363745
 30
0.0
 11
4833.762053047289
 21
2406.252558363744
 31
0.0
 12
-831.6688629623312
 22
844.364942954264
 32
0.0
 71
     5
 42
-1.0
  3
Standard
100
AcDbAlignedDimension
 13
4584.538642150311
 23
2831.252558363744
 33
0.0
 14
4584.538642150311
 24
1981.252558363745
 34
0.0
 50
90.0
100
AcDbRotatedDimension
1001
ACAD
1000
DSTYLE
1002
{
1070
    40
1040
25.0
1070
     3
1000
\U+03C6<>
1002
}
  0
LINE
  5
7C72
330
80FD
100
AcDbEntity
  8
1
100
AcDbLine
 10
3399.238642150312
 20
2436.252558363745
 30
0.0
 11
3582.238642150314
 21
2436.252558363745
 31
0.0
  0
LINE
  5
7C73
330
80FD
100
AcDbEntity
  8
1
100
AcDbLine
 10
3399.238642150312
 20
2376.252558363745
 30
0.0
 11
3446.092477408547
 21
2376.252558363745
 31
0.0
  0
ARC
  5
7C75
330
80FD
100
AcDbEntity
  8
1
100
AcDbCircle
 10
1859.235556307824
 20
2406.252558363744
 30
0.0
 40
220.0
100
AcDbArc
 50
283.4957332807956
 51
103.4957332807957
  0
ARC
  5
7C76
330
80FD
100
AcDbEntity
  8
1
100
AcDbCircle
 10
859.2355563078253
 20
2166.252558363745
 30
0.0
 40
220.0
100
AcDbArc
 50
103.4957332807958
 51
283.4957332807956
  0
LINE
  5
7C77
330
80FD
100
AcDbEntity
  8
1
100
AcDbLine
 10
1807.893506763253
 20
2620.177764799458
 30
0.0
 11
807.8935067632537
 21
2380.177764799458
 31
0.0
  0
LINE
  5
7C78
330
80FD
100
AcDbEntity
  8
1
100
AcDbLine
 10
1827.559826589633
 20
2529.238932189547
 30
0.0
 11
831.7998848983661
 21
2272.776189236487
 31
0.0
  0
LINE
  5
7C79
330
80FD
100
AcDbEntity
  8
1
100
AcDbLine
 10
1886.828456979119
 20
2282.286305566687
 30
0.0
 11
883.1349190939855
 21
2058.880213421411
 31
0.0
  0
LINE
  5
7C7A
330
80FD
100
AcDbEntity
  8
1
100
AcDbLine
 10
1910.577605852395
 20
2192.327351928031
 30
0.0
 11
910.5776058523954
 21
1952.327351928031
 31
0.0
  0
LINE
  5
7C7B
330
80FD
100
AcDbEntity
  8
1
100
AcDbLine
 10
609.2355563078252
 20
1816.252558363744
 30
0.0
 11
2359.235556307825
 21
1816.252558363744
 31
0.0
  0
LINE
  5
7C7C
330
80FD
100
AcDbEntity
  8
1
100
AcDbLine
 10
2359.235556307825
 20
1916.252558363744
 30
0.0
 11
609.2355563078252
 21
1916.252558363744
 31
0.0
1001
ACAD
1000
ASC_BOUNDS
1002
{
1070
    19
1005
0
1005
0
1002
}
  0
LINE
  5
7C7D
330
80FD
100
AcDbEntity
  8
1
100
AcDbLine
 10
609.2355563078252
 20
1916.252558363744
 30
0.0
 11
609.2355563078252
 21
1816.252558363744
 31
0.0
  0
LINE
  5
7C7E
330
80FD
100
AcDbEntity
  8
1
100
AcDbLine
 10
2359.235556307825
 20
1916.252558363744
 30
0.0
 11
2359.235556307825
 21
1816.252558363744
 31
0.0
  0
CIRCLE
  5
7C80
330
80FD
100
AcDbEntity
  8
1
100
AcDbCircle
 10
1859.235556307824
 20
2406.252558363744
 30
0.0
 40
425.0
  0
CIRCLE
  5
7C81
330
80FD
100
AcDbEntity
  8
1
100
AcDbCircle
 10
1859.235556307824
 20
2406.252558363744
 30
0.0
 40
465.0
  0
LINE
  5
7C83
330
80FD
100
AcDbEntity
  8
1
100
AcDbLine
 10
657.2355563078234
 20
1956.252558363743
 30
0.0
 11
1061.235556307822
 21
1956.252558363743
 31
0.0
  0
LINE
  5
7C84
330
80FD
100
AcDbEntity
  8
1
100
AcDbLine
 10
4582.238642150311
 20
3254.252558363746
 30
0.0
 11
3582.238642150314
 21
2429.252558363745
 31
0.0
  0
LINE
  5
7C85
330
80FD
100
AcDbEntity
  8
1
100
AcDbLine
 10
3582.238642150312
 20
3254.252558363746
 30
0.0
 11
4582.238642150311
 21
2429.252558363745
 31
0.0
  0
POINT
  5
7C86
330
80FD
100
AcDbEntity
  8
1
100
AcDbPoint
 10
2359.235556307825
 20
1736.252558363745
 30
0.0
  0
POINT
  5
7C87
330
80FD
100
AcDbEntity
  8
1
100
AcDbPoint
 10
2359.235556307825
 20
1816.252558363744
 30
0.0
  0
LINE
  5
7C88
330
80FD
100
AcDbEntity
  8
1
100
AcDbLine
 10
1175.575472554834
 20
5345.745515194764
 30
0.0
 11
2404.235556307823
 21
5345.745515194764
 31
0.0
  0
LINE
  5
7C89
330
80FD
100
AcDbEntity
  8
1
100
AcDbLine
 10
1175.575472554834
 20
4345.745515194763
 30
0.0
 11
2404.235556307825
 21
4345.74551519476
 31
0.0
  0
LINE
  5
7C8A
330
80FD
100
AcDbEntity
  8
1
100
AcDbLine
 10
2404.235556307823
 20
5388.745515194763
 30
0.0
 11
2404.235556307825
 21
4302.745515194764
 31
0.0
  0
LINE
  5
7C8B
330
80FD
100
AcDbEntity
  8
1
100
AcDbLine
 10
1175.575472554834
 20
4345.745515194763
 30
0.0
 11
1175.575472554834
 21
5345.745515194764
 31
0.0
  0
LINE
  5
7C8C
330
80FD
100
AcDbEntity
  8
1
100
AcDbLine
 10
2401.235556307824
 20
5388.745515194763
 30
0.0
 11
2404.235556307823
 21
5388.745515194763
 31
0.0
  0
LINE
  5
7C8D
330
80FD
100
AcDbEntity
  8
1
100
AcDbLine
 10
2401.235556307825
 20
4302.745515194764
 30
0.0
 11
2404.235556307825
 21
4302.745515194764
 31
0.0
  0
LINE
  5
7C8E
330
80FD
100
AcDbEntity
  8
1
100
AcDbLine
 10
2364.235556307823
 20
5345.745515194764
 30
0.0
 11
2364.235556307825
 21
4345.74551519476
 31
0.0
  0
LINE
  5
7C8F
330
80FD
100
AcDbEntity
  8
1
100
AcDbLine
 10
2401.235556307824
 20
5388.745515194763
 30
0.0
 11
2401.235556307825
 21
4302.745515194764
 31
0.0
  0
LINE
  5
7C90
330
80FD
100
AcDbEntity
  8
1
100
AcDbLine
 10
2359.235556307825
 20
4345.74551519476
 30
0.0
 11
2359.235556307825
 21
4143.745515194763
 31
0.0
  0
DIMENSION
  5
7C96
330
80FD
100
AcDbEntity
  8
3
100
AcDbDimension
  2
*D8
 10
2359.235556307825
 20
5549.868798745717
 30
0.0
 11
1859.235556307824
 21
5599.868798745717
 31
0.0
 12
-369.6306114916296
 22
844.364942954264
 32
0.0
 71
     5
 42
-1.0
  3
Standard
100
AcDbAlignedDimension
 13
1359.235556307824
 23
5398.745515194764
 33
0.0
 14
2359.235556307825
 24
5398.745515194764
 34
0.0
100
AcDbRotatedDimension
1001
ACAD
1000
DSTYLE
1002
{
1070
    40
1040
25.0
1002
}
  0
DIMENSION
  5
7C97
330
80FD
100
AcDbEntity
  8
3
100
AcDbDimension
  2
*D9
 10
2577.172284457713
 20
4143.745515194763
 30
0.0
 11
2577.172284457713
 21
4771.245515194763
 31
0.0
 12
-369.6306114916296
 22
844.364942954264
 32
0.0
 70
   128
 71
     5
 42
-1.0
  3
Standard
100
AcDbAlignedDimension
 13
2359.235556307825
 23
5398.745515194764
 33
0.0
 14
2359.235556307825
 24
4143.745515194763
 34
0.0
 50
90.0
100
AcDbRotatedDimension
1001
ACAD
1000
DSTYLE
1002
{
1070
    40
1040
25.0
1002
}
  0
DIMENSION
  5
7C98
330
80FD
100
AcDbEntity
  8
3
100
AcDbDimension
  2
*D10
 10
457.0827271845119
 20
4143.745515194763
 30
0.0
 11
407.0827271845119
 21
4518.745515194763
 31
0.0
 12
-369.6306114916296
 22
844.364942954264
 32
0.0
 71
     5
 42
-1.0
  3
Standard
100
AcDbAlignedDimension
 13
609.2355563078252
 23
4893.745515194763
 33
0.0
 14
609.2355563078252
 24
4143.745515194763
 34
0.0
 50
90.0
100
AcDbRotatedDimension
1001
ACAD
1000
DSTYLE
1002
{
1070
    40
1040
25.0
1002
}
  0
LINE
  5
7C99
330
80FD
100
AcDbEntity
  8
1
100
AcDbLine
 10
749.2355563078255
 20
4077.745515194766
 30
0.0
 11
969.2355563078253
 21
4077.745515194764
 31
0.0
  0
LINE
  5
7C9A
330
80FD
100
AcDbEntity
  8
1
100
AcDbLine
 10
749.2355563078255
 20
4162.745515194765
 30
0.0
 11
969.2355563078233
 21
4162.745515194765
 31
0.0
  0
LINE
  5
7C9B
330
80FD
100
AcDbEntity
  8
1
100
AcDbLine
 10
1986.235556307824
 20
4162.745515194763
 30
0.0
 11
1986.235556307824
 21
4077.745515194762
 31
0.0
  0
LINE
  5
7C9C
330
80FD
100
AcDbEntity
  8
1
100
AcDbLine
 10
1732.235556307825
 20
4162.745515194765
 30
0.0
 11
1732.235556307825
 21
4077.745515194764
 31
0.0
  0
LINE
  5
7C9D
330
80FD
100
AcDbEntity
  8
1
100
AcDbLine
 10
969.2355563078253
 20
4162.745515194765
 30
0.0
 11
969.2355563078253
 21
4077.745515194766
 31
0.0
  0
LINE
  5
7C9E
330
80FD
100
AcDbEntity
  8
1
100
AcDbLine
 10
749.2355563078255
 20
4162.745515194766
 30
0.0
 11
749.2355563078255
 21
4077.745515194766
 31
0.0
  0
LINE
  5
7C9F
330
80FD
100
AcDbEntity
  8
1
100
AcDbLine
 10
1732.235556307825
 20
4077.745515194762
 30
0.0
 11
1986.235556307824
 21
4077.745515194762
 31
0.0
  0
LINE
  5
7CA0
330
80FD
100
AcDbEntity
  8
1
100
AcDbLine
 10
1732.235556307825
 20
4162.745515194763
 30
0.0
 11
1986.235556307824
 21
4162.745515194763
 31
0.0
  0
LINE
  5
7CA1
330
80FD
100
AcDbEntity
  8
1
100
AcDbLine
 10
639.2355563078254
 20
3945.745515194765
 30
0.0
 11
2079.235556307825
 21
3945.745515194763
 31
0.0
  0
LINE
  5
7CA2
330
80FD
100
AcDbEntity
  8
1
100
AcDbLine
 10
2079.235556307825
 20
4192.745515194763
 30
0.0
 11
2079.235556307825
 21
3945.745515194763
 31
0.0
  0
LINE
  5
7CA3
330
80FD
100
AcDbEntity
  8
1
100
AcDbLine
 10
639.2355563078254
 20
4192.745515194765
 30
0.0
 11
639.2355563078254
 21
3945.745515194765
 31
0.0
  0
LINE
  5
7CA4
330
80FD
100
AcDbEntity
  8
1
100
AcDbLine
 10
639.2355563078254
 20
4192.745515194765
 30
0.0
 11
2079.235556307826
 21
4192.745515194763
 31
0.0
  0
POINT
  5
7CA6
330
80FD
100
AcDbEntity
  8
1
100
AcDbPoint
 10
4692.238642150313
 20
2366.752558363744
 30
0.0
  0
DIMENSION
  5
7CA7
330
80FD
100
AcDbEntity
  8
3
100
AcDbDimension
  2
*D12
 10
4582.238642150313
 20
3406.555465383358
 30
0.0
 11
4082.238642150311
 21
3456.555465383357
 31
0.0
 12
-831.6688629623312
 22
844.364942954264
 32
0.0
 71
     5
 42
-1.0
  3
Standard
100
AcDbAlignedDimension
 13
3582.238642150312
 23
3254.252558363746
 33
0.0
 14
4582.238642150313
 24
3254.252558363746
 34
0.0
100
AcDbRotatedDimension
1001
ACAD
1000
DSTYLE
1002
{
1070
    40
1040
25.0
1002
}
  0
POINT
  5
7CA8
330
80FD
100
AcDbEntity
  8
1
100
AcDbPoint
 10
4692.238642150313
 20
2366.752558363744
 30
0.0
  0
POINT
  5
7CA9
330
80FD
100
AcDbEntity
  8
1
100
AcDbPoint
 10
3182.238642150312
 20
2626.252558363745
 30
0.0
  0
DIMENSION
  5
7CAB
330
80FD
100
AcDbEntity
  8
3
100
AcDbDimension
  2
*D14
 10
2404.235556307825
 20
3408.571739266545
 30
0.0
 11
2131.735556307825
 21
3458.571739266545
 31
0.0
 12
-369.6306114916296
 22
844.364942954264
 32
0.0
 71
     5
 42
-1.0
  3
Standard
100
AcDbAlignedDimension
 13
1859.235556307824
 23
3264.935890990989
 33
0.0
 14
2404.235556307825
 24
3296.752558363746
 34
0.0
100
AcDbRotatedDimension
1001
ACAD
1000
DSTYLE
1002
{
1070
    40
1040
25.0
1002
}
  0
DIMENSION
  5
7CAC
330
80FD
100
AcDbEntity
  8
3
100
AcDbDimension
  2
*D15
 10
2404.235556307825
 20
3555.508652683715
 30
0.0
 11
1506.735556307825
 21
3605.508652683715
 31
0.0
 12
-369.6306114916296
 22
844.364942954264
 32
0.0
 71
     5
 42
-1.0
  3
Standard
100
AcDbAlignedDimension
 13
609.2355563078252
 23
1916.252558363744
 33
0.0
 14
2404.235556307825
 24
3296.752558363746
 34
0.0
100
AcDbRotatedDimension
1001
ACAD
1000
DSTYLE
1002
{
1070
    40
1040
25.0
1002
}
  0
LINE
  5
7CAD
330
80FD
100
AcDbEntity
  8
1
100
AcDbLine
 10
697.2355563078252
 20
4732.245515194766
 30
0.0
 11
1021.235556307825
 21
4732.245515194763
 31
0.0
  0
LINE
  5
7CAE
330
80FD
100
AcDbEntity
  8
1
100
AcDbLine
 10
697.2355563078252
 20
4203.245515194764
 30
0.0
 11
1021.235556307825
 21
4203.245515194764
 31
0.0
  0
LINE
  5
7CAF
330
80FD
100
AcDbEntity
  8
1
100
AcDbLine
 10
880.2355563078254
 20
4203.245515194764
 30
0.0
 11
880.2355563078254
 21
4162.745515194765
 31
0.0
  0
LINE
  5
7CB0
330
80FD
100
AcDbEntity
  8
1
100
AcDbLine
 10
838.2355563078254
 20
4203.245515194764
 30
0.0
 11
838.2355563078254
 21
4162.745515194765
 31
0.0
  0
LINE
  5
7CB1
330
80FD
100
AcDbEntity
  8
1
100
AcDbLine
 10
697.2355563078252
 20
4732.245515194767
 30
0.0
 11
697.2355563078252
 21
4203.245515194764
 31
0.0
  0
LINE
  5
7CB2
330
80FD
100
AcDbEntity
  8
1
100
AcDbLine
 10
1021.235556307825
 20
4732.245515194763
 30
0.0
 11
1021.235556307825
 21
4203.245515194764
 31
0.0
  0
LINE
  5
7CB4
330
80FD
100
AcDbEntity
  8
1
100
AcDbLine
 10
3582.238642150312
 20
2004.252558363745
 30
0.0
 11
3439.738642150312
 21
2004.252558363745
 31
0.0
  0
LINE
  5
7CB5
330
80FD
100
AcDbEntity
  8
1
100
AcDbLine
 10
3444.238642150311
 20
2328.252558363745
 30
0.0
 11
3439.738642150313
 21
2328.252558363745
 31
0.0
  0
LINE
  5
7CB6
330
80FD
100
AcDbEntity
  8
1
100
AcDbLine
 10
3439.738642150313
 20
2328.252558363745
 30
0.0
 11
3439.738642150311
 21
2004.252558363745
 31
0.0
  0
LINE
  5
7CB7
330
80FD
100
AcDbEntity
  8
1
100
AcDbLine
 10
3439.738642150313
 20
2187.252558363744
 30
0.0
 11
3399.238642150313
 21
2187.252558363744
 31
0.0
  0
LINE
  5
7CB8
330
80FD
100
AcDbEntity
  8
1
100
AcDbLine
 10
3439.738642150313
 20
2145.252558363745
 30
0.0
 11
3399.238642150313
 21
2145.252558363745
 31
0.0
  0
LINE
  5
7CB9
330
80FD
100
AcDbEntity
  8
1
100
AcDbLine
 10
3399.238642150312
 20
2276.252558363744
 30
0.0
 11
3399.238642150312
 21
2056.252558363744
 31
0.0
  0
LINE
  5
7CBA
330
80FD
100
AcDbEntity
  8
1
100
AcDbLine
 10
3314.238642150312
 20
2276.252558363744
 30
0.0
 11
3314.238642150312
 21
2056.252558363744
 31
0.0
  0
LINE
  5
7EEF
330
80FD
100
AcDbEntity
  8
4
100
AcDbLine
 10
4625.0
 20
1250.0
 30
0.0
 11
4625.0
 21
750.0
 31
0.0
  0
LINE
  5
7EF0
330
80FD
100
AcDbEntity
  8
4
100
AcDbLine
 10
2875.0
 20
1250.0
 30
0.0
 11
2875.0
 21
750.0
 31
0.0
  0
LINE
  5
7EF1
330
80FD
100
AcDbEntity
  8
4
100
AcDbLine
 10
1625.0
 20
1250.0
 30
0.0
 11
1625.0
 21
750.0
 31
0.0
  0
LINE
  5
7EF4
330
80FD
100
AcDbEntity
  8
4
100
AcDbLine
 10
1625.0
 20
750.0
 30
0.0
 11
4625.0
 21
750.0
 31
0.0
  0
LINE
  5
7EF5
330
80FD
100
AcDbEntity
  8
4
100
AcDbLine
 10
1625.0
 20
1000.0
 30
0.0
 11
4625.0
 21
1000.0
 31
0.0
  0
TEXT
  5
7EF6
330
80FD
100
AcDbEntity
  8
4
100
AcDbText
 10
1721.255202117253
 20
1078.857564666532
 30
0.0
 40
125.0
  1
機器名称
100
AcDbText
  0
TEXT
  5
7EF7
330
80FD
100
AcDbEntity
  8
4
100
AcDbText
 10
1715.645265061993
 20
804.1128918300273
 30
0.0
 40
125.0
  1
機器型番
100
AcDbText
  0
TEXT
  5
7EF8
330
80FD
100
AcDbEntity
  8
4
100
AcDbText
 10
2944.196863719162
 20
1056.429422393921
 30
0.0
 40
125.0
  1
ミツヤ多翼送風機
100
AcDbText
  0
TEXT
  5
7EF9
330
80FD
100
AcDbEntity
  8
4
100
AcDbText
 10
2966.636238963701
 20
792.8989606998584
 30
0.0
 40
125.0
  1
MF#5-5
100
AcDbText
  0
TEXT
  5
7EFB
330
80FD
100
AcDbEntity
  8
4
100
AcDbText
 10
1931.937102237789
 20
5958.572103331289
 30
0.0
 40
135.0
  1
床置防振ベット
100
AcDbText
  0
TEXT
  5
7EFC
330
80FD
100
AcDbEntity
  8
4
100
AcDbText
 10
790.4189833236158
 20
6334.702440498245
 30
0.0
 40
180.0
  1
遠心式両吸込両持多翼ファン
100
AcDbText
  0
LINE
  5
7EFD
330
80FD
100
AcDbEntity
  8
4
100
AcDbLine
 10
625.0
 20
6173.521885662012
 30
0.0
 11
4625.0
 21
6173.521885662012
 31
0.0
  0
LINE
  5
7EFE
330
80FD
100
AcDbEntity
  8
4
100
AcDbLine
 10
625.0
 20
6673.521885662011
 30
0.0
 11
4625.0
 21
6673.521885662011
 31
0.0
  0
LINE
  5
7EFF
330
80FD
100
AcDbEntity
  8
4
100
AcDbLine
 10
1625.0
 20
1250.0
 30
0.0
 11
4625.0
 21
1250.0
 31
0.0
  0
LINE
  5
7F00
330
80FD
100
AcDbEntity
  8
4
100
AcDbLine
 10
625.0
 20
6673.521885662011
 30
0.0
 11
625.0
 21
6173.521885662012
 31
0.0
  0
TEXT
  5
7F01
330
80FD
100
AcDbEntity
  8
4
100
AcDbText
 10
842.2900216310335
 20
5955.798693865858
 30
0.0
 40
135.0
  1
右回転右横向
100
AcDbText
  0
TEXT
  5
7F02
330
80FD
100
AcDbEntity
  8
4
100
AcDbText
 10
3672.423898123224
 20
6765.15270373827
 30
0.0
 40
140.0
  1
No.
100
AcDbText
  0
TEXT
  5
7F03
330
80FD
100
AcDbEntity
  8
4
100
AcDbText
 10
3278.240156500032
 20
5958.572103331289
 30
0.0
 40
135.0
  1
縮尺：1/25
100
AcDbText
  0
LINE
  5
7F04
330
80FD
100
AcDbEntity
  8
4
100
AcDbLine
 10
4625.0
 20
6673.521885662011
 30
0.0
 11
4625.0
 21
6173.521885662012
 31
0.0
  0
LINE
  5
7F05
330
80FD
100
AcDbEntity
  8
4
100
AcDbLine
 10
5250.0
 20
7375.0
 30
0.0
 11
5250.0
 21
7375.0
 31
0.0
  0
LINE
  5
7F06
330
80FD
100
AcDbEntity
  8
4
100
AcDbLine
 10
3601.543555899662
 20
6703.158957813504
 30
0.0
 11
3601.543555899662
 21
6966.630653874381
 31
0.0
  0
LINE
  5
7F07
330
80FD
100
AcDbEntity
  8
4
100
AcDbLine
 10
3601.543555899662
 20
6966.630653874381
 30
0.0
 11
4625.0
 21
6966.630653874381
 31
0.0
  0
LINE
  5
7F08
330
80FD
100
AcDbEntity
  8
4
100
AcDbLine
 10
4625.0
 20
6966.630653874381
 30
0.0
 11
4625.0
 21
6703.158957813504
 31
0.0
  0
LINE
  5
7F09
330
80FD
100
AcDbEntity
  8
4
100
AcDbLine
 10
4625.0
 20
6703.158957813504
 30
0.0
 11
3601.543555899662
 21
6703.158957813504
 31
0.0
  0
LINE
  5
7F0A
330
80FD
100
AcDbEntity
  8
4
100
AcDbLine
 10
0.0
 20
0.0
 30
0.0
 11
0.0
 21
7375.0
 31
0.0
  0
LINE
  5
7F0B
330
80FD
100
AcDbEntity
  8
4
100
AcDbLine
 10
0.0
 20
7375.0
 30
0.0
 11
5250.0
 21
7375.0
 31
0.0
  0
LINE
  5
7F0C
330
80FD
100
AcDbEntity
  8
4
100
AcDbLine
 10
5250.0
 20
7375.0
 30
0.0
 11
5250.0
 21
0.0
 31
0.0
  0
LINE
  5
7F0D
330
80FD
100
AcDbEntity
  8
4
100
AcDbLine
 10
5250.0
 20
0.0
 30
0.0
 11
0.0
 21
0.0
 31
0.0
  0
DIMENSION
  5
81C8
330
80FD
100
AcDbEntity
  8
3
100
AcDbDimension
  2
*D29
 10
4082.238642150311
 20
3583.165560900539
 30
0.0
 11
3632.238642150312
 21
3665.308418043397
 31
0.0
 70
    32
  1
(<>)
 71
     5
 42
900.0
  3
IGA
100
AcDbAlignedDimension
 13
3182.238642150312
 23
2626.252558363745
 33
0.0
 14
4082.238642150311
 24
3494.055465383359
 34
0.0
100
AcDbRotatedDimension
1001
ACAD
1000
DSTYLE
1002
{
1070
    40
1040
25.0
1070
    42
1040
1.0
1070
   143
1040
0.039
1070
   172
1070
     1
1070
   271
1070
     4
1070
   272
1070
     4
1070
   279
1070
     0
1070
   284
1070
     0
1070
   285
1070
     0
1070
   286
1070
     0
1070
   341
1005
8111
1070
   343
1005
8111
1070
   344
1005
8111
1002
}
  0
DIMENSION
  5
81D5
330
80FD
100
AcDbEntity
  8
3
100
AcDbDimension
  2
*D30
 10
4692.238642150313
 20
3583.165560900539
 30
0.0
 11
4387.238642150312
 21
3665.308418043397
 31
0.0
 70
    32
  1
(<>)
 71
     5
 42
610.0000000000013
  3
IGA
100
AcDbAlignedDimension
 13
4082.238642150311
 23
3494.055465383359
 33
0.0
 14
4692.238642150313
 24
2366.752558363744
 34
0.0
100
AcDbRotatedDimension
1001
ACAD
1000
DSTYLE
1002
{
1070
    40
1040
25.0
1070
    42
1040
1.0
1070
   143
1040
0.039
1070
   172
1070
     1
1070
   271
1070
     4
1070
   272
1070
     4
1070
   279
1070
     1
1070
   284
1070
     0
1070
   285
1070
     0
1070
   286
1070
     0
1070
   341
1005
8111
1070
   343
1005
8111
1070
   344
1005
8111
1002
}
  0
DIMENSION
  5
822D
330
80FD
100
AcDbEntity
  8
3
100
AcDbDimension
  2
*D31
 10
2359.235556307825
 20
3765.76097953989
 30
0.0
 11
1484.235556307825
 21
3828.26097953989
 31
0.0
 70
    32
 71
     5
 42
1750.0
  3
IGA
100
AcDbAlignedDimension
 13
609.2355563078252
 23
4143.745515194763
 33
0.0
 14
2359.235556307825
 24
4143.745515194763
 34
0.0
100
AcDbRotatedDimension
1001
ACAD
1000
DSTYLE
1002
{
1070
    40
1040
25.0
1070
    42
1040
1.0
1070
   143
1040
0.039
1070
   172
1070
     1
1070
   271
1070
     4
1070
   272
1070
     4
1070
   279
1070
     0
1070
   284
1070
     0
1070
   285
1070
     0
1070
   286
1070
     0
1070
   341
1005
8111
1070
   343
1005
8111
1070
   344
1005
8111
1002
}
  0
DIMENSION
  5
823A
330
80FD
100
AcDbEntity
  8
3
100
AcDbDimension
  2
*D32
 10
1359.235556307824
 20
5549.868798745716
 30
0.0
 11
984.2355563078246
 21
5612.368798745716
 31
0.0
 70
    32
 71
     5
 42
749.9999999999987
  3
IGA
100
AcDbAlignedDimension
 13
609.2355563078252
 23
4893.745515194763
 33
0.0
 14
1359.235556307824
 24
5398.745515194764
 34
0.0
100
AcDbRotatedDimension
1001
ACAD
1000
DSTYLE
1002
{
1070
    40
1040
25.0
1070
    42
1040
1.0
1070
   143
1040
0.039
1070
   172
1070
     1
1070
   271
1070
     4
1070
   272
1070
     4
1070
   279
1070
     0
1070
   284
1070
     0
1070
   285
1070
     0
1070
   286
1070
     0
1070
   341
1005
8111
1070
   343
1005
8111
1070
   344
1005
8111
1002
}
  0
DIMENSION
  5
82A9
330
80FD
100
AcDbEntity
  8
3
100
AcDbDimension
  2
*D40
 10
4082.238642150313
 20
1477.475159675283
 30
0.0
 11
3731.238642150313
 21
1539.975159675283
 31
0.0
 70
    32
 71
     5
 42
702.0000000000009
  3
IGA
100
AcDbAlignedDimension
 13
3380.238642150312
 23
1636.252558363745
 33
0.0
 14
4082.238642150313
 24
1636.252558363745
 34
0.0
100
AcDbRotatedDimension
1001
ACAD
1000
DSTYLE
1002
{
1070
    40
1040
25.0
1070
    42
1040
1.0
1070
   143
1040
0.039
1070
   172
1070
     1
1070
   271
1070
     4
1070
   272
1070
     4
1070
   279
1070
     0
1070
   284
1070
     0
1070
   285
1070
     0
1070
   286
1070
     0
1070
   341
1005
8111
1070
   343
1005
8111
1070
   344
1005
8111
1002
}
  0
DIMENSION
  5
82B6
330
80FD
100
AcDbEntity
  8
3
100
AcDbDimension
  2
*D41
 10
4635.238642150311
 20
1477.475159675283
 30
0.0
 11
4358.738642150313
 21
1539.975159675283
 31
0.0
 70
    32
 71
     5
 42
552.9999999999986
  3
IGA
100
AcDbAlignedDimension
 13
4082.238642150313
 23
1636.252558363745
 33
0.0
 14
4635.238642150311
 24
1636.252558363745
 34
0.0
100
AcDbRotatedDimension
1001
ACAD
1000
DSTYLE
1002
{
1070
    40
1040
25.0
1070
    42
1040
1.0
1070
   143
1040
0.039
1070
   172
1070
     1
1070
   271
1070
     4
1070
   272
1070
     4
1070
   279
1070
     1
1070
   284
1070
     0
1070
   285
1070
     0
1070
   286
1070
     0
1070
   341
1005
8111
1070
   343
1005
8111
1070
   344
1005
8111
1002
}
  0
DIMENSION
  5
82C3
330
80FD
100
AcDbEntity
  8
3
100
AcDbDimension
  2
*D42
 10
1859.235556307824
 20
1474.377766821908
 30
0.0
 11
1234.235556307825
 21
1536.877766821908
 31
0.0
 70
    32
 71
     5
 42
1250.0
  3
IGA
100
AcDbAlignedDimension
 13
609.2355563078252
 23
1636.252558363745
 33
0.0
 14
1859.235556307824
 24
1636.252558363745
 34
0.0
100
AcDbRotatedDimension
1001
ACAD
1000
DSTYLE
1002
{
1070
    40
1040
25.0
1070
    42
1040
1.0
1070
   143
1040
0.039
1070
   172
1070
     1
1070
   271
1070
     4
1070
   272
1070
     4
1070
   279
1070
     0
1070
   284
1070
     0
1070
   285
1070
     0
1070
   286
1070
     0
1070
   341
1005
8111
1070
   343
1005
8111
1070
   344
1005
8111
1002
}
  0
DIMENSION
  5
82D0
330
80FD
100
AcDbEntity
  8
3
100
AcDbDimension
  2
*D43
 10
2359.235556307825
 20
1474.377766821908
 30
0.0
 11
2109.235556307825
 21
1536.877766821908
 31
0.0
 70
    32
 71
     5
 42
500.0000000000002
  3
IGA
100
AcDbAlignedDimension
 13
1859.235556307824
 23
1636.252558363745
 33
0.0
 14
2359.235556307825
 24
1636.252558363745
 34
0.0
100
AcDbRotatedDimension
1001
ACAD
1000
DSTYLE
1002
{
1070
    40
1040
25.0
1070
    42
1040
1.0
1070
   143
1040
0.039
1070
   172
1070
     1
1070
   271
1070
     4
1070
   272
1070
     4
1070
   279
1070
     1
1070
   284
1070
     0
1070
   285
1070
     0
1070
   286
1070
     0
1070
   341
1005
8111
1070
   343
1005
8111
1070
   344
1005
8111
1002
}
  0
ARC
  5
82DF
330
80FD
100
AcDbEntity
  8
FUTO
100
AcDbCircle
 10
1811.735556307824
 20
2358.752558363744
 30
0.0
 40
510.5
100
AcDbArc
 50
299.911433471293
 51
0.0
  0
LINE
  5
82E0
330
80FD
100
AcDbEntity
  8
FUTO
100
AcDbLine
 10
2404.235556307825
 20
3254.252558363744
 30
0.0
 11
1859.235556307824
 21
3197.880704151224
 31
0.0
  0
ARC
  5
82E1
330
80FD
100
AcDbEntity
  8
FUTO
100
AcDbCircle
 10
1800.235556307825
 20
2465.252558363744
 30
0.0
 40
617.0
100
AcDbArc
 50
180.0
 51
242.8467827380087
  0
ARC
  5
82E2
330
80FD
100
AcDbEntity
  8
FUTO
100
AcDbCircle
 10
1918.235556307825
 20
2465.252558363744
 30
0.0
 40
735.0
100
AcDbArc
 50
94.60420672650149
 51
180.0
  0
ARC
  5
82E3
330
80FD
100
AcDbEntity
  8
FUTO
100
AcDbCircle
 10
1889.735556307824
 20
2375.752558363744
 30
0.0
 40
432.5
100
AcDbArc
 50
0.0
 51
7.105655247303199
  0
LINE
  5
82E4
330
80FD
100
AcDbEntity
  8
FUTO
100
AcDbLine
 10
2318.913840940214
 20
2429.252558363744
 30
0.0
 11
2404.235556307825
 21
2429.252558363744
 31
0.0
  0
LINE
  5
82E5
330
80FD
100
AcDbEntity
  8
FUTO
100
AcDbLine
 10
2322.235556307825
 20
2358.752558363744
 30
0.0
 11
2322.235556307825
 21
2375.752558363744
 31
0.0
  0
LINE
  5
82E6
330
80FD
100
AcDbEntity
  8
1
100
AcDbLine
 10
2404.235556307825
 20
3296.752558363744
 30
0.0
 11
2404.235556307823
 21
2386.752558363744
 31
0.0
  0
LINE
  5
82E7
330
80FD
100
AcDbEntity
  8
1
100
AcDbLine
 10
2404.235556307825
 20
3296.752558363744
 30
0.0
 11
2401.235556307824
 21
3296.752558363744
 31
0.0
  0
LINE
  5
82E8
330
80FD
100
AcDbEntity
  8
1
100
AcDbLine
 10
2404.235556307823
 20
2386.752558363744
 30
0.0
 11
2401.235556307823
 21
2386.752558363744
 31
0.0
  0
LINE
  5
82E9
330
80FD
100
AcDbEntity
  8
1
100
AcDbLine
 10
2364.235556307825
 20
3250.851463593321
 30
0.0
 11
2364.235556307823
 21
2429.252558363744
 31
0.0
  0
LINE
  5
82EA
330
80FD
100
AcDbEntity
  8
1
100
AcDbLine
 10
2401.235556307824
 20
3296.752558363744
 30
0.0
 11
2401.235556307823
 21
2386.752558363744
 31
0.0
  0
POINT
  5
82EB
330
80FD
100
AcDbEntity
  8
1
100
AcDbPoint
 10
2424.453466976846
 20
2406.252558363744
 30
0.0
 50
180.0
  0
POINT
  5
82EC
330
80FD
100
AcDbEntity
  8
1
100
AcDbPoint
 10
2424.453466976846
 20
2406.252558363744
 30
0.0
 50
180.0
  0
DIMENSION
  5
82ED
330
80FD
100
AcDbEntity
  8
3
100
AcDbDimension
  2
*D44
 10
2704.864302423692
 20
1816.252558363743
 30
0.0
 11
2642.364302423691
 21
2111.252558363744
 31
0.0
 70
    32
 71
     5
 42
590.0
  3
IGA
100
AcDbAlignedDimension
 13
2525.707348158215
 23
2406.252558363744
 33
0.0
 14
2359.235556307825
 24
1816.252558363744
 34
0.0
 50
90.0
100
AcDbRotatedDimension
1001
ACAD
1000
DSTYLE
1002
{
1070
    40
1040
25.0
1070
    42
1040
1.0
1070
   143
1040
0.039
1070
   172
1070
     1
1070
   271
1070
     4
1070
   272
1070
     4
1070
   279
1070
     0
1070
   284
1070
     0
1070
   285
1070
     0
1070
   286
1070
     0
1070
   341
1005
8111
1070
   343
1005
8111
1070
   344
1005
8111
1002
}
  0
DIMENSION
  5
82FA
330
80FD
100
AcDbEntity
  8
3
100
AcDbDimension
  2
*D45
 10
2704.864302423692
 20
1736.252558363745
 30
0.0
 11
2856.650016709405
 21
1871.431129792316
 31
0.0
 70
    32
  1
(<>)
 71
     5
 42
79.99999999999886
  3
IGA
100
AcDbAlignedDimension
 13
2359.235556307825
 23
1816.252558363744
 33
0.0
 14
2359.235556307825
 24
1736.252558363745
 34
0.0
 50
90.0
100
AcDbRotatedDimension
1001
ACAD
1000
DSTYLE
1002
{
1070
    40
1040
25.0
1070
    42
1040
1.0
1070
   143
1040
0.039
1070
   172
1070
     1
1070
   271
1070
     4
1070
   272
1070
     4
1070
   279
1070
     1
1070
   284
1070
     0
1070
   285
1070
     0
1070
   286
1070
     0
1070
   341
1005
8111
1070
   343
1005
8111
1070
   344
1005
8413
1002
}
  0
DIMENSION
  5
830C
330
80FD
100
AcDbEntity
  8
3
100
AcDbDimension
  2
*D46
 10
2704.864302423692
 20
1636.252558363745
 30
0.0
 11
2706.454325904546
 21
1513.389050521371
 31
0.0
 70
   160
 71
     5
 42
100.0
  3
IGA
100
AcDbAlignedDimension
 13
2359.235556307825
 23
1736.252558363745
 33
0.0
 14
2359.235556307825
 24
1636.252558363745
 34
0.0
 50
90.0
100
AcDbRotatedDimension
1001
ACAD
1000
DSTYLE
1002
{
1070
    40
1040
25.0
1070
    42
1040
1.0
1070
   143
1040
0.039
1070
   172
1070
     1
1070
   271
1070
     4
1070
   272
1070
     4
1070
   279
1070
     1
1070
   284
1070
     0
1070
   285
1070
     0
1070
   286
1070
     0
1070
   341
1005
8111
1070
   343
1005
8413
1070
   344
1005
8111
1002
}
  0
DIMENSION
  5
8372
330
80FD
100
AcDbEntity
  8
3
100
AcDbDimension
  2
*D47
 10
2983.022525924455
 20
3254.252558363744
 30
0.0
 11
2900.879668781597
 21
2445.252558363745
 31
0.0
 70
    32
  1
(<>)
 71
     5
 42
1617.999999999999
  3
IGA
100
AcDbAlignedDimension
 13
2359.235556307825
 23
1636.252558363745
 33
0.0
 14
2404.235556307825
 24
3254.252558363744
 34
0.0
 50
90.0
100
AcDbRotatedDimension
1001
ACAD
1000
DSTYLE
1002
{
1070
    40
1040
25.0
1070
    42
1040
1.0
1070
   143
1040
0.039
1070
   172
1070
     1
1070
   271
1070
     4
1070
   272
1070
     4
1070
   279
1070
     0
1070
   284
1070
     0
1070
   285
1070
     0
1070
   286
1070
     0
1070
   341
1005
8111
1070
   343
1005
8111
1070
   344
1005
8111
1002
}
  0
DIMENSION
  5
847A
330
80FD
100
AcDbEntity
  8
3
100
AcDbDimension
  2
*D49
 10
1183.235556307824
 20
3408.571739266544
 30
0.0
 11
1521.235556307824
 21
3471.071739266544
 31
0.0
 70
    32
 71
     5
 42
676.0000000000002
  3
IGA
100
AcDbAlignedDimension
 13
1859.235556307824
 23
3264.935890990989
 33
0.0
 14
1183.235556307824
 24
2465.252558363744
 34
0.0
100
AcDbRotatedDimension
1001
ACAD
1000
DSTYLE
1002
{
1070
    40
1040
25.0
1070
    42
1040
1.0
1070
   143
1040
0.039
1070
   172
1070
     1
1070
   271
1070
     4
1070
   272
1070
     4
1070
   279
1070
     0
1070
   284
1070
     0
1070
   285
1070
     0
1070
   286
1070
     0
1070
   341
1005
8111
1070
   343
1005
8111
1070
   344
1005
8111
1002
}
  0
ENDSEC
  0
SECTION
  2
OBJECTS
  0
DICTIONARY
  5
809A
330
0
100
AcDbDictionary
281
     1
  3
ACAD_CIP_PREVIOUS_PRODUCT_INFO
350
8145
  3
ACAD_COLOR
350
80F0
  3
ACAD_DETAILVIEWSTYLE
350
80F7
  3
ACAD_GROUP
350
809B
  3
ACAD_LAYOUT
350
80EF
  3
ACAD_MATERIAL
350
809E
  3
ACAD_MLEADERSTYLE
350
80F3
  3
ACAD_MLINESTYLE
350
80EC
  3
ACAD_PLOTSETTINGS
350
80EE
  3
ACAD_PLOTSTYLENAME
350
809C
  3
ACAD_SCALELIST
350
80D0
  3
ACAD_SECTIONVIEWSTYLE
350
80F5
  3
ACAD_TABLESTYLE
350
80F1
  3
ACAD_VISUALSTYLE
350
80B7
  3
ACDB_RECOMPOSE_DATA
350
84D3
  3
AcDbVariableDictionary
350
817A
  3
DWGPROPS
350
84D4
  0
DICTIONARY
  5
8149
330
8090
100
AcDbDictionary
280
     1
281
     1
  3
ACAD_LAYERSTATES
360
814A
  0
DICTIONARY
  5
816F
330
80E2
100
AcDbDictionary
280
     1
281
     1
  3
ADSK_XREC_LAYER_RECONCILED
360
8170
  0
DICTIONARY
  5
8171
330
8101
100
AcDbDictionary
280
     1
281
     1
  3
ADSK_XREC_LAYER_RECONCILED
360
8172
  0
DICTIONARY
  5
8173
330
8104
100
AcDbDictionary
280
     1
281
     1
  3
ADSK_XREC_LAYER_RECONCILED
360
8174
  0
DICTIONARY
  5
8175
330
8105
100
AcDbDictionary
280
     1
281
     1
  3
ADSK_XREC_LAYER_RECONCILED
360
8176
  0
DICTIONARY
  5
8177
330
8106
100
AcDbDictionary
280
     1
281
     1
  3
ADSK_XREC_LAYER_RECONCILED
360
8178
  0
DICTIONARY
  5
8147
330
8146
100
AcDbDictionary
280
     1
281
     1
  3
ADSK_XREC_LAYER_RECONCILED
360
8179
  0
XRECORD
  5
8145
102
{ACAD_REACTORS
330
809A
102
}
330
809A
100
AcDbXrecord
280
     1
300
ACDLT
300
2015
300
INVLTS_F_S
  0
DICTIONARY
  5
80F0
102
{ACAD_REACTORS
330
809A
102
}
330
809A
100
AcDbDictionary
281
     1
  0
DICTIONARY
  5
80F7
102
{ACAD_REACTORS
330
809A
102
}
330
809A
100
AcDbDictionary
281
     1
  3
Imperial24
350
80F8
  0
DICTIONARY
  5
809B
102
{ACAD_REACTORS
330
809A
102
}
330
809A
100
AcDbDictionary
281
     1
  0
DICTIONARY
  5
80EF
102
{ACAD_REACTORS
330
809A
102
}
330
809A
100
AcDbDictionary
281
     1
  3
Model
350
8100
  3
レイアウト1
350
80FC
  0
DICTIONARY
  5
809E
102
{ACAD_REACTORS
330
809A
102
}
330
809A
100
AcDbDictionary
281
     1
  3
ByBlock
350
80A7
  3
ByLayer
350
809F
  3
Global
350
80AF
  0
DICTIONARY
  5
80F3
102
{ACAD_REACTORS
330
809A
102
}
330
809A
100
AcDbDictionary
281
     1
  3
Standard
350
80F4
  0
DICTIONARY
  5
80EC
102
{ACAD_REACTORS
330
809A
102
}
330
809A
100
AcDbDictionary
281
     1
  3
Standard
350
80ED
  0
DICTIONARY
  5
80EE
102
{ACAD_REACTORS
330
809A
102
}
330
809A
100
AcDbDictionary
281
     1
  0
ACDBDICTIONARYWDFLT
  5
809C
102
{ACAD_REACTORS
330
809A
102
}
330
809A
100
AcDbDictionary
281
     1
  3
Normal
350
809D
100
AcDbDictionaryWithDefault
340
809D
  0
DICTIONARY
  5
80D0
102
{ACAD_REACTORS
330
809A
102
}
330
809A
100
AcDbDictionary
281
     1
  3
A0
350
80D1
  3
A1
350
80D2
  3
A2
350
80D3
  3
A3
350
80D4
  3
A4
350
80D5
  3
A5
350
80D6
  3
A6
350
80D7
  3
A7
350
80D8
  3
A8
350
80D9
  3
A9
350
80DA
  3
B0
350
80DB
  3
B1
350
80DC
  3
B2
350
80DD
  3
B3
350
80DE
  3
B4
350
80DF
  3
B5
350
80E0
  3
B6
350
80E1
  0
DICTIONARY
  5
80F5
102
{ACAD_REACTORS
330
809A
102
}
330
809A
100
AcDbDictionary
281
     1
  3
Imperial24
350
80F6
  0
DICTIONARY
  5
80F1
102
{ACAD_REACTORS
330
809A
102
}
330
809A
100
AcDbDictionary
281
     1
  3
Standard
350
80F2
  0
DICTIONARY
  5
80B7
102
{ACAD_REACTORS
330
809A
102
}
330
809A
100
AcDbDictionary
281
     1
  3
2dWireframe
350
80BD
  3
Basic
350
80BC
  3
Brighten
350
80C3
  3
ColorChange
350
80C7
  3
Conceptual
350
80C0
  3
Dim
350
80C2
  3
EdgeColorOff
350
80CF
  3
Facepattern
350
80C6
  3
Flat
350
80B8
  3
FlatWithEdges
350
80B9
  3
Gouraud
350
80BA
  3
GouraudWithEdges
350
80BB
  3
Hidden
350
80BF
  3
JitterOff
350
80CD
  3
Linepattern
350
80C5
  3
OverhangOff
350
80CE
  3
Realistic
350
80C1
  3
Shaded
350
80CC
  3
Shaded with edges
350
80CB
  3
Shades of Gray
350
80C8
  3
Sketchy
350
80C9
  3
Thicken
350
80C4
  3
Wireframe
350
80BE
  3
X-Ray
350
80CA
  0
XRECORD
  5
84D3
102
{ACAD_REACTORS
330
809A
102
}
330
809A
100
AcDbXrecord
280
     1
 90
        1
330
80F2
  0
DICTIONARY
  5
817A
102
{ACAD_REACTORS
330
809A
102
}
330
809A
100
AcDbDictionary
281
     1
  3
CANNOSCALE
350
817F
  3
CMLEADERSTYLE
350
817C
  3
CTABLESTYLE
350
817B
  3
CVIEWDETAILSTYLE
350
817D
  3
CVIEWSECTIONSTYLE
350
817E
  3
DIMASSOC
350
8182
  3
INDEXCTL
350
8181
  3
SORTENTS
350
8180
  3
XCLIPFRAME
350
8183
  0
XRECORD
  5
84D4
102
{ACAD_REACTORS
330
809A
102
}
330
809A
100
AcDbXrecord
280
     1
  1
DWGPROPS COOKIE
  2

  3

  4

  6

  7

  8
yasukiyo.ogawa
  9

300
=
301
=
302
=
303
=
304
=
305
=
306
=
307
=
308
=
309
=
 40
0.0191323148148148
 41
2451389.438053588
 42
2460265.724306956
  1

 90
        0
  0
DICTIONARY
  5
814A
102
{ACAD_REACTORS
330
8149
102
}
330
8149
100
AcDbDictionary
281
     1
  0
XRECORD
  5
8170
102
{ACAD_REACTORS
330
816F
102
}
330
816F
100
AcDbXrecord
280
     1
290
     1
  0
XRECORD
  5
8172
102
{ACAD_REACTORS
330
8171
102
}
330
8171
100
AcDbXrecord
280
     1
290
     1
  0
XRECORD
  5
8174
102
{ACAD_REACTORS
330
8173
102
}
330
8173
100
AcDbXrecord
280
     1
290
     1
  0
XRECORD
  5
8176
102
{ACAD_REACTORS
330
8175
102
}
330
8175
100
AcDbXrecord
280
     1
290
     1
  0
XRECORD
  5
8178
102
{ACAD_REACTORS
330
8177
102
}
330
8177
100
AcDbXrecord
280
     1
290
     1
  0
XRECORD
  5
8179
102
{ACAD_REACTORS
330
8147
102
}
330
8147
100
AcDbXrecord
280
     1
290
     1
  0
ACDBDETAILVIEWSTYLE
  5
80F8
102
{ACAD_XDICTIONARY
360
850C
102
}
102
{ACAD_REACTORS
330
80F7
102
}
330
80F7
100
AcDbModelDocViewStyle
 70
     0
  3
Imperial24
290
     0
100
AcDbDetailViewStyle
 70
     0
 71
     0
 90
        3
 71
     1
340
80E3
 40
0.24
340
0
 40
0.24
300

 40
0.36
280
     3
 71
     2
340
80EA
 90
       25
 71
     3
340
80E3
 40
0.24
 90
        1
 40
0.75
 90
        1
300
%<\AcVar ViewType \f "%tc1">% %<\AcVar ViewDetailId>%\PSCALE %<\AcVar ViewScale \f "%sn">%
 71
     4
340
80EA
 90
       25
340
80EA
 90
       25
280
     0
  0
LAYOUT
  5
8100
102
{ACAD_XDICTIONARY
360
8510
102
}
102
{ACAD_REACTORS
330
80EF
102
}
330
80EF
100
AcDbPlotSettings
  1

  2
RICOH imagio MP W3600 RPCS
  4

  6

 40
0.0
 41
0.0
 42
0.0
 43
0.0
 44
0.0
 45
0.0
 46
0.0
 47
0.0
 48
0.0
 49
0.0
140
0.0
141
0.0
142
1.0
143
1.0
 70
  1712
 72
     0
 73
     0
 74
     0
  7

 75
     0
147
1.0
148
0.0
149
0.0
100
AcDbLayout
  1
Model
 70
     1
 71
     0
 10
0.0
 20
0.0
 11
12.0
 21
9.0
 12
0.0
 22
0.0
 32
0.0
 14
0.0
 24
0.0
 34
0.0
 15
0.0
 25
0.0
 35
0.0
146
0.0
 13
0.0
 23
0.0
 33
0.0
 16
1.0
 26
0.0
 36
0.0
 17
0.0
 27
1.0
 37
0.0
 76
     0
330
80FD
331
8102
  0
LAYOUT
  5
80FC
102
{ACAD_XDICTIONARY
360
850E
102
}
102
{ACAD_REACTORS
330
80EF
102
}
330
80EF
100
AcDbPlotSettings
  1

  2
RICOH imagio MP W3600 RPCS
  4

  6

 40
0.0
 41
0.0
 42
0.0
 43
0.0
 44
0.0
 45
0.0
 46
0.0
 47
0.0
 48
0.0
 49
0.0
140
0.0
141
0.0
142
1.0
143
1.0
 70
   688
 72
     0
 73
     0
 74
     5
  7

 75
    16
147
1.0
148
0.0
149
0.0
100
AcDbLayout
  1
レイアウト1
 70
     1
 71
     1
 10
0.0
 20
0.0
 11
12.0
 21
9.0
 12
0.0
 22
0.0
 32
0.0
 14
1.000000000000000E+20
 24
1.000000000000000E+20
 34
1.000000000000000E+20
 15
-1.000000000000000E+20
 25
-1.000000000000000E+20
 35
-1.000000000000000E+20
146
0.0
 13
0.0
 23
0.0
 33
0.0
 16
1.0
 26
0.0
 36
0.0
 17
0.0
 27
1.0
 37
0.0
 76
     0
330
80F9
  0
MATERIAL
  5
80A7
102
{ACAD_XDICTIONARY
360
80A8
102
}
102
{ACAD_REACTORS
330
809E
102
}
330
809E
100
AcDbMaterial
  1
ByBlock
 72
     0
 43
0.0208333333333333
 43
0.0
 43
0.0
 43
0.0
 43
0.0
 43
0.0208333333333333
 43
0.0
 43
0.0
 43
0.0
 43
0.0
 43
1.0
 43
0.0
 43
0.0
 43
0.0
 43
0.0
 43
1.0
 77
     0
 47
0.0208333333333333
 47
0.0
 47
0.0
 47
0.0
 47
0.0
 47
0.0208333333333333
 47
0.0
 47
0.0
 47
0.0
 47
0.0
 47
1.0
 47
0.0
 47
0.0
 47
0.0
 47
0.0
 47
1.0
171
     0
 49
0.0208333333333333
 49
0.0
 49
0.0
 49
0.0
 49
0.0
 49
0.0208333333333333
 49
0.0
 49
0.0
 49
0.0
 49
0.0
 49
1.0
 49
0.0
 49
0.0
 49
0.0
 49
0.0
 49
1.0
175
     0
142
0.0208333333333333
142
0.0
142
0.0
142
0.0
142
0.0
142
0.0208333333333333
142
0.0
142
0.0
142
0.0
142
0.0
142
1.0
142
0.0
142
0.0
142
0.0
142
0.0
142
1.0
179
     0
144
0.0208333333333333
144
0.0
144
0.0
144
0.0
144
0.0
144
0.0208333333333333
144
0.0
144
0.0
144
0.0
144
0.0
144
1.0
144
0.0
144
0.0
144
0.0
144
0.0
144
1.0
147
0.0208333333333333
147
0.0
147
0.0
147
0.0
147
0.0
147
0.0208333333333333
147
0.0
147
0.0
147
0.0
147
0.0
147
1.0
147
0.0
147
0.0
147
0.0
147
0.0
147
1.0
  0
MATERIAL
  5
809F
102
{ACAD_XDICTIONARY
360
80A0
102
}
102
{ACAD_REACTORS
330
809E
102
}
330
809E
100
AcDbMaterial
  1
ByLayer
 72
     0
 43
0.0208333333333333
 43
0.0
 43
0.0
 43
0.0
 43
0.0
 43
0.0208333333333333
 43
0.0
 43
0.0
 43
0.0
 43
0.0
 43
1.0
 43
0.0
 43
0.0
 43
0.0
 43
0.0
 43
1.0
 77
     0
 47
0.0208333333333333
 47
0.0
 47
0.0
 47
0.0
 47
0.0
 47
0.0208333333333333
 47
0.0
 47
0.0
 47
0.0
 47
0.0
 47
1.0
 47
0.0
 47
0.0
 47
0.0
 47
0.0
 47
1.0
171
     0
 49
0.0208333333333333
 49
0.0
 49
0.0
 49
0.0
 49
0.0
 49
0.0208333333333333
 49
0.0
 49
0.0
 49
0.0
 49
0.0
 49
1.0
 49
0.0
 49
0.0
 49
0.0
 49
0.0
 49
1.0
175
     0
142
0.0208333333333333
142
0.0
142
0.0
142
0.0
142
0.0
142
0.0208333333333333
142
0.0
142
0.0
142
0.0
142
0.0
142
1.0
142
0.0
142
0.0
142
0.0
142
0.0
142
1.0
179
     0
144
0.0208333333333333
144
0.0
144
0.0
144
0.0
144
0.0
144
0.0208333333333333
144
0.0
144
0.0
144
0.0
144
0.0
144
1.0
144
0.0
144
0.0
144
0.0
144
0.0
144
1.0
147
0.0208333333333333
147
0.0
147
0.0
147
0.0
147
0.0
147
0.0208333333333333
147
0.0
147
0.0
147
0.0
147
0.0
147
1.0
147
0.0
147
0.0
147
0.0
147
0.0
147
1.0
  0
MATERIAL
  5
80AF
102
{ACAD_XDICTIONARY
360
80B0
102
}
102
{ACAD_REACTORS
330
809E
102
}
330
809E
100
AcDbMaterial
  1
Global
 72
     0
 43
0.0208333333333333
 43
0.0
 43
0.0
 43
0.0
 43
0.0
 43
0.0208333333333333
 43
0.0
 43
0.0
 43
0.0
 43
0.0
 43
1.0
 43
0.0
 43
0.0
 43
0.0
 43
0.0
 43
1.0
 77
     0
 47
0.0208333333333333
 47
0.0
 47
0.0
 47
0.0
 47
0.0
 47
0.0208333333333333
 47
0.0
 47
0.0
 47
0.0
 47
0.0
 47
1.0
 47
0.0
 47
0.0
 47
0.0
 47
0.0
 47
1.0
171
     0
 49
0.0208333333333333
 49
0.0
 49
0.0
 49
0.0
 49
0.0
 49
0.0208333333333333
 49
0.0
 49
0.0
 49
0.0
 49
0.0
 49
1.0
 49
0.0
 49
0.0
 49
0.0
 49
0.0
 49
1.0
175
     0
142
0.0208333333333333
142
0.0
142
0.0
142
0.0
142
0.0
142
0.0208333333333333
142
0.0
142
0.0
142
0.0
142
0.0
142
1.0
142
0.0
142
0.0
142
0.0
142
0.0
142
1.0
179
     0
144
0.0208333333333333
144
0.0
144
0.0
144
0.0
144
0.0
144
0.0208333333333333
144
0.0
144
0.0
144
0.0
144
0.0
144
1.0
144
0.0
144
0.0
144
0.0
144
0.0
144
1.0
147
0.0208333333333333
147
0.0
147
0.0
147
0.0
147
0.0
147
0.0208333333333333
147
0.0
147
0.0
147
0.0
147
0.0
147
1.0
147
0.0
147
0.0
147
0.0
147
0.0
147
1.0
  0
MLEADERSTYLE
  5
80F4
102
{ACAD_REACTORS
330
80F3
102
}
330
80F3
100
AcDbMLeaderStyle
170
     2
171
     1
172
     0
 90
        2
 40
0.0
 41
0.0
173
     1
 91
-1056964608
340
80E8
 92
       -2
290
     1
 42
0.09
291
     1
 43
0.36
  3
Standard
 44
0.18
300

342
80E3
174
     1
178
     6
175
     1
176
     0
 93
-1056964608
 45
0.18
292
     0
297
     0
 46
0.18
 94
-1056964608
 47
1.0
 49
1.0
140
1.0
293
     1
141
0.0
294
     1
177
     0
142
1.0
295
     0
296
     0
143
0.125
1001
ACAD_MLEADERVER
1070
     2
  0
MLINESTYLE
  5
80ED
102
{ACAD_REACTORS
330
80EC
102
}
330
80EC
100
AcDbMlineStyle
  2
STANDARD
 70
     0
  3

 62
   256
 51
90.0
 52
90.0
 71
     2
 49
0.5
 62
   256
  6
BYLAYER
 49
-0.5
 62
   256
  6
BYLAYER
  0
ACDBPLACEHOLDER
  5
809D
102
{ACAD_REACTORS
330
809C
102
}
330
809C
  0
SCALE
  5
80D1
102
{ACAD_REACTORS
330
80D0
102
}
330
80D0
100
AcDbScale
 70
     0
300
1:1
140
1.0
141
1.0
290
     1
  0
SCALE
  5
80D2
102
{ACAD_REACTORS
330
80D0
102
}
330
80D0
100
AcDbScale
 70
     0
300
1/128" = 1'-0"
140
0.0078125
141
12.0
290
     0
  0
SCALE
  5
80D3
102
{ACAD_REACTORS
330
80D0
102
}
330
80D0
100
AcDbScale
 70
     0
300
1/64" = 1'-0"
140
0.015625
141
12.0
290
     0
  0
SCALE
  5
80D4
102
{ACAD_REACTORS
330
80D0
102
}
330
80D0
100
AcDbScale
 70
     0
300
1/32" = 1'-0"
140
0.03125
141
12.0
290
     0
  0
SCALE
  5
80D5
102
{ACAD_REACTORS
330
80D0
102
}
330
80D0
100
AcDbScale
 70
     0
300
1/16" = 1'-0"
140
0.0625
141
12.0
290
     0
  0
SCALE
  5
80D6
102
{ACAD_REACTORS
330
80D0
102
}
330
80D0
100
AcDbScale
 70
     0
300
3/32" = 1'-0"
140
0.09375
141
12.0
290
     0
  0
SCALE
  5
80D7
102
{ACAD_REACTORS
330
80D0
102
}
330
80D0
100
AcDbScale
 70
     0
300
1/8" = 1'-0"
140
0.125
141
12.0
290
     0
  0
SCALE
  5
80D8
102
{ACAD_REACTORS
330
80D0
102
}
330
80D0
100
AcDbScale
 70
     0
300
3/16" = 1'-0"
140
0.1875
141
12.0
290
     0
  0
SCALE
  5
80D9
102
{ACAD_REACTORS
330
80D0
102
}
330
80D0
100
AcDbScale
 70
     0
300
1/4" = 1'-0"
140
0.25
141
12.0
290
     0
  0
SCALE
  5
80DA
102
{ACAD_REACTORS
330
80D0
102
}
330
80D0
100
AcDbScale
 70
     0
300
3/8" = 1'-0"
140
0.375
141
12.0
290
     0
  0
SCALE
  5
80DB
102
{ACAD_REACTORS
330
80D0
102
}
330
80D0
100
AcDbScale
 70
     0
300
1/2" = 1'-0"
140
0.5
141
12.0
290
     0
  0
SCALE
  5
80DC
102
{ACAD_REACTORS
330
80D0
102
}
330
80D0
100
AcDbScale
 70
     0
300
3/4" = 1'-0"
140
0.75
141
12.0
290
     0
  0
SCALE
  5
80DD
102
{ACAD_REACTORS
330
80D0
102
}
330
80D0
100
AcDbScale
 70
     0
300
1" = 1'-0"
140
1.0
141
12.0
290
     0
  0
SCALE
  5
80DE
102
{ACAD_REACTORS
330
80D0
102
}
330
80D0
100
AcDbScale
 70
     0
300
1-1/2" = 1'-0"
140
1.5
141
12.0
290
     0
  0
SCALE
  5
80DF
102
{ACAD_REACTORS
330
80D0
102
}
330
80D0
100
AcDbScale
 70
     0
300
3" = 1'-0"
140
3.0
141
12.0
290
     0
  0
SCALE
  5
80E0
102
{ACAD_REACTORS
330
80D0
102
}
330
80D0
100
AcDbScale
 70
     0
300
6" = 1'-0"
140
6.0
141
12.0
290
     0
  0
SCALE
  5
80E1
102
{ACAD_REACTORS
330
80D0
102
}
330
80D0
100
AcDbScale
 70
     0
300
1'-0" = 1'-0"
140
12.0
141
12.0
290
     0
  0
ACDBSECTIONVIEWSTYLE
  5
80F6
102
{ACAD_XDICTIONARY
360
850A
102
}
102
{ACAD_REACTORS
330
80F5
102
}
330
80F5
100
AcDbModelDocViewStyle
 70
     0
  3
Imperial24
290
     0
100
AcDbSectionViewStyle
 70
     0
 71
     0
 90
       78
 71
     1
340
80E3
 40
0.24
340
0
340
0
 40
0.24
300
I, O, Q, S, X, Z
 40
0.48
 90
        3
 40
0.18
 90
        1
 71
     2
340
80EA
 90
       25
340
80EA
 90
       50
 40
0.24
 40
0.0
 40
0.24
 71
     3
340
80E3
 40
0.24
 90
        1
 40
0.75
 90
        1
300
%<\AcVar ViewType \f "%tc1">% %<\AcVar ViewSectionStartId>%-%<\AcVar ViewSectionEndId>%\PSCALE %<\AcVar ViewScale \f "%sn">%
 71
     4
300
ANSI31
 40
1.0
 90
        0
290
     0
290
     0
 90
        6
 40
0.0
 40
1.570796326794896
 40
0.2617993877991494
 40
1.308996938995747
 40
-0.2617993877991494
 40
1.832595714594046
  0
TABLESTYLE
  5
80F2
102
{ACAD_XDICTIONARY
360
84D1
102
}
102
{ACAD_REACTORS
330
80F1
102
}
330
80F1
100
AcDbTableStyle
  3
Standard
 70
     0
 71
     0
 40
0.06
 41
0.06
280
     0
281
     0
  7
STANDARD
140
0.18
170
     2
 62
     0
 63
     7
283
     0
274
    -2
284
     1
 64
     0
275
    -2
285
     1
 65
     0
276
    -2
286
     1
 66
     0
277
    -2
287
     1
 67
     0
278
    -2
288
     1
 68
     0
279
    -2
289
     1
 69
     0
  7
STANDARD
140
0.25
170
     5
 62
     0
 63
     7
283
     0
274
    -2
284
     1
 64
     0
275
    -2
285
     1
 65
     0
276
    -2
286
     1
 66
     0
277
    -2
287
     1
 67
     0
278
    -2
288
     1
 68
     0
279
    -2
289
     1
 69
     0
  7
STANDARD
140
0.18
170
     5
 62
     0
 63
     7
283
     0
274
    -2
284
     1
 64
     0
275
    -2
285
     1
 65
     0
276
    -2
286
     1
 66
     0
277
    -2
287
     1
 67
     0
278
    -2
288
     1
 68
     0
279
    -2
289
     1
 69
     0
  0
VISUALSTYLE
  5
80BD
102
{ACAD_XDICTIONARY
360
84E2
102
}
102
{ACAD_REACTORS
330
80B7
102
}
330
80B7
100
AcDbVisualStyle
  2
2dWireframe
 70
     4
 71
     0
 72
     2
 73
     0
 90
        0
 40
-0.6
 41
-30.0
 62
     5
 63
     7
 74
     1
 91
        4
 64
     7
 65
   257
 75
     1
175
     1
 42
1.0
 92
        0
 66
   257
 43
1.0
 76
     1
 77
     6
 78
     2
 67
     7
 79
     5
170
     0
171
     0
290
     0
174
     0
 93
        1
 44
0.0
173
     0
291
     0
 45
0.0
1001
ACAD
1000
AcDbSavedByObjectVersion
1070
     0
  0
VISUALSTYLE
  5
80BC
102
{ACAD_XDICTIONARY
360
84E0
102
}
102
{ACAD_REACTORS
330
80B7
102
}
330
80B7
100
AcDbVisualStyle
  2
Basic
 70
     7
 71
     1
 72
     0
 73
     1
 90
        0
 40
-0.6
 41
-30.0
 62
     5
 63
     7
 74
     0
 91
        4
 64
     7
 65
   257
 75
     1
175
     1
 42
1.0
 92
        8
 66
     7
 43
1.0
 76
     1
 77
     6
 78
     2
 67
     7
 79
     5
170
     0
171
     0
290
     0
174
     0
 93
        1
 44
0.0
173
     0
291
     1
 45
0.0
1001
ACAD
1000
AcDbSavedByObjectVersion
1070
     0
  0
VISUALSTYLE
  5
80C3
102
{ACAD_XDICTIONARY
360
84EE
102
}
102
{ACAD_REACTORS
330
80B7
102
}
330
80B7
100
AcDbVisualStyle
  2
Brighten
 70
    12
 71
     2
 72
     2
 73
     0
 90
        0
 40
-0.6
 41
-30.0
 62
     5
 63
     7
 74
     1
 91
        4
 64
     7
 65
   257
 75
     1
175
     1
 42
1.0
 92
        8
 66
     7
 43
1.0
 76
     1
 77
     6
 78
     2
 67
     7
 79
     5
170
     0
171
     0
290
     0
174
     0
 93
        1
 44
50.0
173
     0
291
     1
 45
0.0
1001
ACAD
1000
AcDbSavedByObjectVersion
1070
     0
  0
VISUALSTYLE
  5
80C7
102
{ACAD_XDICTIONARY
360
84F6
102
}
102
{ACAD_REACTORS
330
80B7
102
}
330
80B7
100
AcDbVisualStyle
  2
ColorChange
 70
    16
 71
     2
 72
     2
 73
     3
 90
        0
 40
-0.6
 41
-30.0
 62
     5
 63
     8
 74
     1
 91
        4
 64
     7
 65
   257
 75
     1
175
     1
 42
1.0
 92
        8
 66
     8
 43
1.0
 76
     1
 77
     6
 78
     2
 67
     7
 79
     5
170
     0
171
     0
290
     0
174
     0
 93
        1
 44
0.0
173
     0
291
     1
 45
0.0
1001
ACAD
1000
AcDbSavedByObjectVersion
1070
     0
  0
VISUALSTYLE
  5
80C0
102
{ACAD_XDICTIONARY
360
84E8
102
}
102
{ACAD_REACTORS
330
80B7
102
}
330
80B7
100
AcDbVisualStyle
  2
Conceptual
 70
     9
 71
     3
 72
     2
 73
     0
 90
        0
 40
-0.6
 41
-30.0
 62
     5
 63
     7
 74
     2
 91
        2
 64
     7
 65
   257
 75
     1
175
     1
 42
179.0
 92
        8
 66
     7
 43
1.0
 76
     1
 77
     6
 78
     2
 67
     7
 79
     3
170
     0
171
     0
290
     0
174
     0
 93
        1
 44
0.0
173
     0
291
     0
 45
0.0
1001
ACAD
1000
AcDbSavedByObjectVersion
1070
     0
  0
VISUALSTYLE
  5
80C2
102
{ACAD_XDICTIONARY
360
84EC
102
}
102
{ACAD_REACTORS
330
80B7
102
}
330
80B7
100
AcDbVisualStyle
  2
Dim
 70
    11
 71
     2
 72
     2
 73
     0
 90
        0
 40
-0.6
 41
-30.0
 62
     5
 63
     7
 74
     1
 91
        4
 64
     7
 65
   257
 75
     1
175
     1
 42
1.0
 92
        8
 66
     7
 43
1.0
 76
     1
 77
     6
 78
     2
 67
     7
 79
     5
170
     0
171
     0
290
     0
174
     0
 93
        1
 44
-50.0
173
     0
291
     1
 45
0.0
1001
ACAD
1000
AcDbSavedByObjectVersion
1070
     0
  0
VISUALSTYLE
  5
80CF
102
{ACAD_XDICTIONARY
360
8506
102
}
102
{ACAD_REACTORS
330
80B7
102
}
330
80B7
100
AcDbVisualStyle
  2
EdgeColorOff
 70
    22
 71
     2
 72
     2
 73
     0
 90
        0
 40
-0.6
 41
-30.0
 62
     5
 63
     7
 74
     1
 91
        4
 64
     7
 65
   257
 75
     1
175
     1
 42
1.0
 92
        8
 66
     7
 43
1.0
 76
     1
 77
     6
 78
     2
 67
     7
 79
     5
170
     0
171
     0
290
     0
174
     0
 93
        1
 44
0.0
173
     0
291
     1
 45
0.0
1001
ACAD
1000
AcDbSavedByObjectVersion
1070
     0
  0
VISUALSTYLE
  5
80C6
102
{ACAD_XDICTIONARY
360
84F4
102
}
102
{ACAD_REACTORS
330
80B7
102
}
330
80B7
100
AcDbVisualStyle
  2
Facepattern
 70
    15
 71
     2
 72
     2
 73
     0
 90
        0
 40
-0.6
 41
-30.0
 62
     5
 63
     7
 74
     1
 91
        4
 64
     7
 65
   257
 75
     1
175
     1
 42
1.0
 92
        8
 66
     7
 43
1.0
 76
     1
 77
     6
 78
     2
 67
     7
 79
     5
170
     0
171
     0
290
     0
174
     0
 93
        1
 44
0.0
173
     0
291
     1
 45
0.0
1001
ACAD
1000
AcDbSavedByObjectVersion
1070
     0
  0
VISUALSTYLE
  5
80B8
102
{ACAD_XDICTIONARY
360
84D8
102
}
102
{ACAD_REACTORS
330
80B7
102
}
330
80B7
100
AcDbVisualStyle
  2
Flat
 70
     0
 71
     2
 72
     1
 73
     1
 90
        2
 40
-0.6
 41
30.0
 62
     5
 63
     7
 74
     0
 91
        0
 64
     7
 65
   257
 75
     1
175
     1
 42
1.0
 92
        8
 66
     7
 43
1.0
 76
     1
 77
     6
 78
     2
 67
     7
 79
     5
170
     0
171
     0
290
     0
174
     0
 93
       13
 44
0.0
173
     0
291
     1
 45
0.0
1001
ACAD
1000
AcDbSavedByObjectVersion
1070
     0
  0
VISUALSTYLE
  5
80B9
102
{ACAD_XDICTIONARY
360
84DA
102
}
102
{ACAD_REACTORS
330
80B7
102
}
330
80B7
100
AcDbVisualStyle
  2
FlatWithEdges
 70
     1
 71
     2
 72
     1
 73
     1
 90
        2
 40
-0.6
 41
30.0
 62
     5
 63
     7
 74
     1
 91
        0
 64
     7
 65
   257
 75
     1
175
     1
 42
1.0
 92
        0
 66
   257
 43
1.0
 76
     1
 77
     6
 78
     2
 67
     7
 79
     5
170
     0
171
     0
290
     0
174
     0
 93
       13
 44
0.0
173
     0
291
     1
 45
0.0
1001
ACAD
1000
AcDbSavedByObjectVersion
1070
     0
  0
VISUALSTYLE
  5
80BA
102
{ACAD_XDICTIONARY
360
84DC
102
}
102
{ACAD_REACTORS
330
80B7
102
}
330
80B7
100
AcDbVisualStyle
  2
Gouraud
 70
     2
 71
     2
 72
     2
 73
     1
 90
        2
 40
-0.6
 41
30.0
 62
     5
 63
     7
 74
     0
 91
        0
 64
     7
 65
   257
 75
     1
175
     1
 42
1.0
 92
        0
 66
     7
 43
1.0
 76
     1
 77
     6
 78
     2
 67
     7
 79
     5
170
     0
171
     0
290
     0
174
     0
 93
       13
 44
0.0
173
     0
291
     1
 45
0.0
1001
ACAD
1000
AcDbSavedByObjectVersion
1070
     0
  0
VISUALSTYLE
  5
80BB
102
{ACAD_XDICTIONARY
360
84DE
102
}
102
{ACAD_REACTORS
330
80B7
102
}
330
80B7
100
AcDbVisualStyle
  2
GouraudWithEdges
 70
     3
 71
     2
 72
     2
 73
     1
 90
        2
 40
-0.6
 41
30.0
 62
     5
 63
     7
 74
     1
 91
        0
 64
     7
 65
   257
 75
     1
175
     1
 42
1.0
 92
        0
 66
   257
 43
1.0
 76
     1
 77
     6
 78
     2
 67
     7
 79
     5
170
     0
171
     0
290
     0
174
     0
 93
       13
 44
0.0
173
     0
291
     1
 45
0.0
1001
ACAD
1000
AcDbSavedByObjectVersion
1070
     0
  0
VISUALSTYLE
  5
80BF
102
{ACAD_XDICTIONARY
360
84E6
102
}
102
{ACAD_REACTORS
330
80B7
102
}
330
80B7
100
AcDbVisualStyle
  2
Hidden
 70
     6
 71
     1
 72
     2
 73
     2
 90
        0
 40
-0.6
 41
-30.0
 62
     5
 63
     7
 74
     2
 91
        2
 64
     7
 65
   257
 75
     2
175
     1
 42
40.0
 92
        0
 66
   257
 43
1.0
 76
     1
 77
     6
 78
     2
 67
     7
 79
     3
170
     0
171
     0
290
     0
174
     0
 93
        1
 44
0.0
173
     0
291
     0
 45
0.0
1001
ACAD
1000
AcDbSavedByObjectVersion
1070
     0
  0
VISUALSTYLE
  5
80CD
102
{ACAD_XDICTIONARY
360
8502
102
}
102
{ACAD_REACTORS
330
80B7
102
}
330
80B7
100
AcDbVisualStyle
  2
JitterOff
 70
    20
 71
     2
 72
     2
 73
     0
 90
        0
 40
-0.6
 41
-30.0
 62
     5
 63
     7
 74
     1
 91
        4
 64
     7
 65
   257
 75
     1
175
     1
 42
1.0
 92
       10
 66
     7
 43
1.0
 76
     1
 77
     6
 78
     2
 67
     7
 79
     5
170
     0
171
     0
290
     0
174
     0
 93
        1
 44
0.0
173
     0
291
     1
 45
0.0
1001
ACAD
1000
AcDbSavedByObjectVersion
1070
     0
  0
VISUALSTYLE
  5
80C5
102
{ACAD_XDICTIONARY
360
84F2
102
}
102
{ACAD_REACTORS
330
80B7
102
}
330
80B7
100
AcDbVisualStyle
  2
Linepattern
 70
    14
 71
     2
 72
     2
 73
     0
 90
        0
 40
-0.6
 41
-30.0
 62
     5
 63
     7
 74
     1
 91
        4
 64
     7
 65
   257
 75
     7
175
     7
 42
1.0
 92
        8
 66
     7
 43
1.0
 76
     1
 77
     6
 78
     2
 67
     7
 79
     5
170
     0
171
     0
290
     0
174
     0
 93
        1
 44
0.0
173
     0
291
     1
 45
0.0
1001
ACAD
1000
AcDbSavedByObjectVersion
1070
     0
  0
VISUALSTYLE
  5
80CE
102
{ACAD_XDICTIONARY
360
8504
102
}
102
{ACAD_REACTORS
330
80B7
102
}
330
80B7
100
AcDbVisualStyle
  2
OverhangOff
 70
    21
 71
     2
 72
     2
 73
     0
 90
        0
 40
-0.6
 41
-30.0
 62
     5
 63
     7
 74
     1
 91
        4
 64
     7
 65
   257
 75
     1
175
     1
 42
1.0
 92
        9
 66
     7
 43
1.0
 76
     1
 77
     6
 78
     2
 67
     7
 79
     5
170
     0
171
     0
290
     0
174
     0
 93
        1
 44
0.0
173
     0
291
     1
 45
0.0
1001
ACAD
1000
AcDbSavedByObjectVersion
1070
     0
  0
VISUALSTYLE
  5
80C1
102
{ACAD_XDICTIONARY
360
84EA
102
}
102
{ACAD_REACTORS
330
80B7
102
}
330
80B7
100
AcDbVisualStyle
  2
Realistic
 70
     8
 71
     2
 72
     3
 73
     0
 90
        2
 40
-0.6
 41
30.0
 62
     5
 63
     7
 74
     0
 91
        0
 64
     7
 65
   257
 75
     1
175
     1
 42
1.0
 92
        8
 66
   257
 43
1.0
 76
     1
 77
     6
 78
     2
 67
     7
 79
     3
170
     0
171
     0
290
     0
174
     0
 93
       13
 44
0.0
173
     0
291
     0
 45
0.0
1001
ACAD
1000
AcDbSavedByObjectVersion
1070
     0
  0
VISUALSTYLE
  5
80CC
102
{ACAD_XDICTIONARY
360
8500
102
}
102
{ACAD_REACTORS
330
80B7
102
}
330
80B7
100
AcDbVisualStyle
  2
Shaded
 70
    27
 71
     2
 72
     2
 73
     1
 90
        2
 40
-0.6
 41
30.0
 62
     5
 63
     7
 74
     0
 91
        4
 64
     7
 65
   257
 75
     1
175
     1
 42
1.0
 92
        8
 66
   257
 43
1.0
 76
     1
 77
     6
 78
     2
 67
     8
 79
     3
170
     0
171
     0
290
     0
174
     0
 93
        5
 44
0.0
173
     0
291
     0
 45
0.0
1001
ACAD
1000
AcDbSavedByObjectVersion
1070
     0
  0
VISUALSTYLE
  5
80CB
102
{ACAD_XDICTIONARY
360
84FE
102
}
102
{ACAD_REACTORS
330
80B7
102
}
330
80B7
100
AcDbVisualStyle
  2
Shaded with edges
 70
    26
 71
     2
 72
     2
 73
     1
 90
        2
 40
-0.6
 41
30.0
 62
     5
 63
     7
 74
     1
 91
       10
 64
     7
 65
   257
 75
     2
175
     1
 42
1.0
 92
        8
 66
   257
 43
1.0
 76
     1
 77
     6
 78
     2
 67
     7
 79
     3
170
     0
171
     0
290
     0
174
     0
 93
        5
 44
0.0
173
     0
291
     0
 45
0.0
1001
ACAD
1000
AcDbSavedByObjectVersion
1070
     0
  0
VISUALSTYLE
  5
80C8
102
{ACAD_XDICTIONARY
360
84F8
102
}
102
{ACAD_REACTORS
330
80B7
102
}
330
80B7
100
AcDbVisualStyle
  2
Shades of Gray
 70
    23
 71
     2
 72
     2
 73
     3
 90
        0
 40
-0.6
 41
-30.0
 62
     5
 63
     7
 74
     2
 91
        2
 64
     7
 65
     7
 75
     1
175
     1
 42
40.0
 92
        8
 66
     7
 43
1.0
 76
     1
 77
     6
 78
     2
 67
     7
 79
     3
170
     0
171
     0
290
     0
174
     0
 93
        1
 44
0.0
173
     0
291
     0
 45
0.0
1001
ACAD
1000
AcDbSavedByObjectVersion
1070
     0
  0
VISUALSTYLE
  5
80C9
102
{ACAD_XDICTIONARY
360
84FA
102
}
102
{ACAD_REACTORS
330
80B7
102
}
330
80B7
100
AcDbVisualStyle
  2
Sketchy
 70
    24
 71
     1
 72
     2
 73
     2
 90
        0
 40
-0.6
 41
-30.0
 62
     5
 63
     7
 74
     2
 91
        2
 64
     7
 65
     7
 75
     1
175
     1
 42
40.0
 92
       11
 66
     7
 43
1.0
 76
     1
 77
     6
 78
     2
 67
     7
 79
     6
170
     0
171
     0
290
     0
174
     0
 93
        1
 44
0.0
173
     0
291
     0
 45
0.0
1001
ACAD
1000
AcDbSavedByObjectVersion
1070
     0
  0
VISUALSTYLE
  5
80C4
102
{ACAD_XDICTIONARY
360
84F0
102
}
102
{ACAD_REACTORS
330
80B7
102
}
330
80B7
100
AcDbVisualStyle
  2
Thicken
 70
    13
 71
     2
 72
     2
 73
     0
 90
        0
 40
-0.6
 41
-30.0
 62
     5
 63
     7
 74
     1
 91
        4
 64
     7
 65
   257
 75
     1
175
     1
 42
1.0
 92
       12
 66
     7
 43
1.0
 76
     1
 77
     6
 78
     2
 67
     7
 79
     5
170
     0
171
     0
290
     0
174
     0
 93
        1
 44
0.0
173
     0
291
     1
 45
0.0
1001
ACAD
1000
AcDbSavedByObjectVersion
1070
     0
  0
VISUALSTYLE
  5
80BE
102
{ACAD_XDICTIONARY
360
84E4
102
}
102
{ACAD_REACTORS
330
80B7
102
}
330
80B7
100
AcDbVisualStyle
  2
Wireframe
 70
     5
 71
     0
 72
     2
 73
     0
 90
        0
 40
-0.6
 41
-30.0
 62
     5
 63
     7
 74
     1
 91
        4
 64
     7
 65
   257
 75
     1
175
     1
 42
1.0
 92
        0
 66
   257
 43
1.0
 76
     1
 77
     6
 78
     2
 67
     7
 79
     3
170
     0
171
     0
290
     0
174
     0
 93
        1
 44
0.0
173
     0
291
     0
 45
0.0
1001
ACAD
1000
AcDbSavedByObjectVersion
1070
     0
  0
VISUALSTYLE
  5
80CA
102
{ACAD_XDICTIONARY
360
84FC
102
}
102
{ACAD_REACTORS
330
80B7
102
}
330
80B7
100
AcDbVisualStyle
  2
X-Ray
 70
    25
 71
     2
 72
     2
 73
     1
 90
        1
 40
0.5
 41
-30.0
 62
     5
 63
     7
 74
     1
 91
        0
 64
     7
 65
   257
 75
     1
175
     1
 42
1.0
 92
        8
 66
     7
 43
1.0
 76
     1
 77
     6
 78
     2
 67
     7
 79
     3
170
     0
171
     0
290
     0
174
     0
 93
       13
 44
0.0
173
     0
291
     0
 45
0.0
1001
ACAD
1000
AcDbSavedByObjectVersion
1070
     0
  0
DICTIONARYVAR
  5
817F
102
{ACAD_REACTORS
330
817A
102
}
330
817A
100
DictionaryVariables
280
     0
  1
1:1
  0
DICTIONARYVAR
  5
817C
102
{ACAD_REACTORS
330
817A
102
}
330
817A
100
DictionaryVariables
280
     0
  1
STANDARD
  0
DICTIONARYVAR
  5
817B
102
{ACAD_REACTORS
330
817A
102
}
330
817A
100
DictionaryVariables
280
     0
  1
STANDARD
  0
DICTIONARYVAR
  5
817D
102
{ACAD_REACTORS
330
817A
102
}
330
817A
100
DictionaryVariables
280
     0
  1
Imperial24
  0
DICTIONARYVAR
  5
817E
102
{ACAD_REACTORS
330
817A
102
}
330
817A
100
DictionaryVariables
280
     0
  1
Imperial24
  0
DICTIONARYVAR
  5
8182
102
{ACAD_REACTORS
330
817A
102
}
330
817A
100
DictionaryVariables
280
     0
  1
1
  0
DICTIONARYVAR
  5
8181
102
{ACAD_REACTORS
330
817A
102
}
330
817A
100
DictionaryVariables
280
     0
  1
0
  0
DICTIONARYVAR
  5
8180
102
{ACAD_REACTORS
330
817A
102
}
330
817A
100
DictionaryVariables
280
     0
  1
127
  0
DICTIONARYVAR
  5
8183
102
{ACAD_REACTORS
330
817A
102
}
330
817A
100
DictionaryVariables
280
     0
  1
2
  0
DICTIONARY
  5
850C
330
80F8
100
AcDbDictionary
280
     1
281
     1
  3
ACAD_XREC_ROUNDTRIP
360
850D
  0
DICTIONARY
  5
8510
330
8100
100
AcDbDictionary
280
     1
281
     1
  3
ACAD_XREC_ROUNDTRIP
360
8511
  0
DICTIONARY
  5
850E
330
80FC
100
AcDbDictionary
280
     1
281
     1
  3
ACAD_XREC_ROUNDTRIP
360
850F
  0
DICTIONARY
  5
80A8
330
80A7
100
AcDbDictionary
280
     1
281
     1
  3
ACAD_XREC_ROUNDTRIP
360
84D6
  3
BUMPTILE
360
80AA
  3
DIFFUSETILE
360
80A9
  3
OPACITYTILE
360
80AD
  3
REFLECTIONTILE
360
80AC
  3
REFRACTIONTILE
360
80AE
  3
SPECULARTILE
360
80AB
  0
DICTIONARY
  5
80A0
330
809F
100
AcDbDictionary
280
     1
281
     1
  3
ACAD_XREC_ROUNDTRIP
360
84D5
  3
BUMPTILE
360
80A2
  3
DIFFUSETILE
360
80A1
  3
OPACITYTILE
360
80A5
  3
REFLECTIONTILE
360
80A4
  3
REFRACTIONTILE
360
80A6
  3
SPECULARTILE
360
80A3
  0
DICTIONARY
  5
80B0
330
80AF
100
AcDbDictionary
280
     1
281
     1
  3
ACAD_XREC_ROUNDTRIP
360
84D7
  3
BUMPTILE
360
80B2
  3
DIFFUSETILE
360
80B1
  3
FBXASSET
360
81C5
  3
OPACITYTILE
360
80B5
  3
REFLECTIONTILE
360
80B4
  3
REFRACTIONTILE
360
80B6
  3
SPECULARTILE
360
80B3
  0
DICTIONARY
  5
850A
330
80F6
100
AcDbDictionary
280
     1
281
     1
  3
ACAD_XREC_ROUNDTRIP
360
850B
  0
DICTIONARY
  5
84D1
330
80F2
100
AcDbDictionary
280
     1
281
     1
  3
ACAD_ROUNDTRIP_2008_TABLESTYLE_CELLSTYLEMAP
360
84D2
  3
ACAD_XREC_ROUNDTRIP
360
8508
  0
DICTIONARY
  5
84E2
330
80BD
100
AcDbDictionary
280
     1
281
     1
  3
ACAD_XREC_ROUNDTRIP
360
84E3
  0
DICTIONARY
  5
84E0
330
80BC
100
AcDbDictionary
280
     1
281
     1
  3
ACAD_XREC_ROUNDTRIP
360
84E1
  0
DICTIONARY
  5
84EE
330
80C3
100
AcDbDictionary
280
     1
281
     1
  3
ACAD_XREC_ROUNDTRIP
360
84EF
  0
DICTIONARY
  5
84F6
330
80C7
100
AcDbDictionary
280
     1
281
     1
  3
ACAD_XREC_ROUNDTRIP
360
84F7
  0
DICTIONARY
  5
84E8
330
80C0
100
AcDbDictionary
280
     1
281
     1
  3
ACAD_XREC_ROUNDTRIP
360
84E9
  0
DICTIONARY
  5
84EC
330
80C2
100
AcDbDictionary
280
     1
281
     1
  3
ACAD_XREC_ROUNDTRIP
360
84ED
  0
DICTIONARY
  5
8506
330
80CF
100
AcDbDictionary
280
     1
281
     1
  3
ACAD_XREC_ROUNDTRIP
360
8507
  0
DICTIONARY
  5
84F4
330
80C6
100
AcDbDictionary
280
     1
281
     1
  3
ACAD_XREC_ROUNDTRIP
360
84F5
  0
DICTIONARY
  5
84D8
330
80B8
100
AcDbDictionary
280
     1
281
     1
  3
ACAD_XREC_ROUNDTRIP
360
84D9
  0
DICTIONARY
  5
84DA
330
80B9
100
AcDbDictionary
280
     1
281
     1
  3
ACAD_XREC_ROUNDTRIP
360
84DB
  0
DICTIONARY
  5
84DC
330
80BA
100
AcDbDictionary
280
     1
281
     1
  3
ACAD_XREC_ROUNDTRIP
360
84DD
  0
DICTIONARY
  5
84DE
330
80BB
100
AcDbDictionary
280
     1
281
     1
  3
ACAD_XREC_ROUNDTRIP
360
84DF
  0
DICTIONARY
  5
84E6
330
80BF
100
AcDbDictionary
280
     1
281
     1
  3
ACAD_XREC_ROUNDTRIP
360
84E7
  0
DICTIONARY
  5
8502
330
80CD
100
AcDbDictionary
280
     1
281
     1
  3
ACAD_XREC_ROUNDTRIP
360
8503
  0
DICTIONARY
  5
84F2
330
80C5
100
AcDbDictionary
280
     1
281
     1
  3
ACAD_XREC_ROUNDTRIP
360
84F3
  0
DICTIONARY
  5
8504
330
80CE
100
AcDbDictionary
280
     1
281
     1
  3
ACAD_XREC_ROUNDTRIP
360
8505
  0
DICTIONARY
  5
84EA
330
80C1
100
AcDbDictionary
280
     1
281
     1
  3
ACAD_XREC_ROUNDTRIP
360
84EB
  0
DICTIONARY
  5
8500
330
80CC
100
AcDbDictionary
280
     1
281
     1
  3
ACAD_XREC_ROUNDTRIP
360
8501
  0
DICTIONARY
  5
84FE
330
80CB
100
AcDbDictionary
280
     1
281
     1
  3
ACAD_XREC_ROUNDTRIP
360
84FF
  0
DICTIONARY
  5
84F8
330
80C8
100
AcDbDictionary
280
     1
281
     1
  3
ACAD_XREC_ROUNDTRIP
360
84F9
  0
DICTIONARY
  5
84FA
330
80C9
100
AcDbDictionary
280
     1
281
     1
  3
ACAD_XREC_ROUNDTRIP
360
84FB
  0
DICTIONARY
  5
84F0
330
80C4
100
AcDbDictionary
280
     1
281
     1
  3
ACAD_XREC_ROUNDTRIP
360
84F1
  0
DICTIONARY
  5
84E4
330
80BE
100
AcDbDictionary
280
     1
281
     1
  3
ACAD_XREC_ROUNDTRIP
360
84E5
  0
DICTIONARY
  5
84FC
330
80CA
100
AcDbDictionary
280
     1
281
     1
  3
ACAD_XREC_ROUNDTRIP
360
84FD
  0
XRECORD
  5
850D
102
{ACAD_REACTORS
330
850C
102
}
330
850C
100
AcDbXrecord
280
     1
102
DISPLAYNAME
  1
Imperial24
102
FLAGS
 90
        0
  0
XRECORD
  5
8511
102
{ACAD_REACTORS
330
8510
102
}
330
8510
100
AcDbXrecord
280
     1
102
SHADEPLOT
 70
     0
102
SHADEPLOTRESLEVEL
 70
     2
102
SHADEPLOTCUSTOMDPI
 70
   300
  0
XRECORD
  5
850F
102
{ACAD_REACTORS
330
850E
102
}
330
850E
100
AcDbXrecord
280
     1
102
SHADEPLOT
 70
     0
102
SHADEPLOTRESLEVEL
 70
     2
102
SHADEPLOTCUSTOMDPI
 70
   300
  0
XRECORD
  5
84D6
102
{ACAD_REACTORS
330
80A8
102
}
330
80A8
100
AcDbXrecord
280
     1
102
MATERIAL
148
0.0
149
0.0
149
0.0
 93
        0
 94
      127
282
     0
 72
     0
 77
     0
171
     0
175
     0
179
     0
273
     0
  0
XRECORD
  5
80AA
102
{ACAD_REACTORS
330
80A8
102
}
330
80A8
100
AcDbXrecord
280
     1
270
     1
271
     1
  0
XRECORD
  5
80A9
102
{ACAD_REACTORS
330
80A8
102
}
330
80A8
100
AcDbXrecord
280
     1
270
     1
271
     1
  0
XRECORD
  5
80AD
102
{ACAD_REACTORS
330
80A8
102
}
330
80A8
100
AcDbXrecord
280
     1
270
     1
271
     1
  0
XRECORD
  5
80AC
102
{ACAD_REACTORS
330
80A8
102
}
330
80A8
100
AcDbXrecord
280
     1
270
     1
271
     1
  0
XRECORD
  5
80AE
102
{ACAD_REACTORS
330
80A8
102
}
330
80A8
100
AcDbXrecord
280
     1
270
     1
271
     1
  0
XRECORD
  5
80AB
102
{ACAD_REACTORS
330
80A8
102
}
330
80A8
100
AcDbXrecord
280
     1
270
     1
271
     1
  0
XRECORD
  5
84D5
102
{ACAD_REACTORS
330
80A0
102
}
330
80A0
100
AcDbXrecord
280
     1
102
MATERIAL
148
0.0
149
0.0
149
0.0
 93
        0
 94
      127
282
     0
 72
     0
 77
     0
171
     0
175
     0
179
     0
273
     0
  0
XRECORD
  5
80A2
102
{ACAD_REACTORS
330
80A0
102
}
330
80A0
100
AcDbXrecord
280
     1
270
     1
271
     1
  0
XRECORD
  5
80A1
102
{ACAD_REACTORS
330
80A0
102
}
330
80A0
100
AcDbXrecord
280
     1
270
     1
271
     1
  0
XRECORD
  5
80A5
102
{ACAD_REACTORS
330
80A0
102
}
330
80A0
100
AcDbXrecord
280
     1
270
     1
271
     1
  0
XRECORD
  5
80A4
102
{ACAD_REACTORS
330
80A0
102
}
330
80A0
100
AcDbXrecord
280
     1
270
     1
271
     1
  0
XRECORD
  5
80A6
102
{ACAD_REACTORS
330
80A0
102
}
330
80A0
100
AcDbXrecord
280
     1
270
     1
271
     1
  0
XRECORD
  5
80A3
102
{ACAD_REACTORS
330
80A0
102
}
330
80A0
100
AcDbXrecord
280
     1
270
     1
271
     1
  0
XRECORD
  5
84D7
102
{ACAD_REACTORS
330
80B0
102
}
330
80B0
100
AcDbXrecord
280
     1
102
MATERIAL
148
0.0
149
0.0
149
0.0
 93
        0
 94
      127
282
     0
 72
     0
 77
     0
171
     0
175
     0
179
     0
273
     0
  0
XRECORD
  5
80B2
102
{ACAD_REACTORS
330
80B0
102
}
330
80B0
100
AcDbXrecord
280
     1
270
     1
271
     1
  0
XRECORD
  5
80B1
102
{ACAD_REACTORS
330
80B0
102
}
330
80B0
100
AcDbXrecord
280
     1
270
     1
271
     1
  0
XRECORD
  5
81C5
102
{ACAD_REACTORS
330
80B0
102
}
330
80B0
100
AcDbXrecord
280
     1
 70
     1
 90
1959938040
 71
     1
  1
F49A3AC8-67E4-4BB2-AC63-6E9A0F12330B
311
504B03041400060808001B8A705743CD4676D7000000200100004F00000044383644323844462D463346422D343137422D393737372D4138313338343945453237332F4173736574446174612F446566696E6974696F6E4974657261746F7250726F706572746965732E62696EEB606060F80F0540260323103700495E20ED
311
9E9A975A94991C9C9C919A9BC8C00612C9C94F4ACC6147C831019920AE4B6A5A62694E0948976F6671726A4E4E625E6A7E69B12042A9426E6209D0B8C41C3D90264E20860914834C48875806B2DF0F88414E02D189290556F689C5C5A925B6FA694915FAC68E266E4E4646E6BA6606E696BA2686AE2EBA160666E6BA26966E
311
E606C6CE2EA626C6C6FA45A9C5F9A545C9A9C5FA46FA06F15093E30BF2D283221DEB0C19188280D6B330BCDF77326CA76B41F804353DA0452EE9CD313B0D666E023291C03E00504B03041400060808001B8A705738D0516803010000300200004500000044383644323844462D463346422D343137422D393737372D413831
311
3338343945453237332F4173736574446174612F496E7374616E636550726F706572746965732E62696EEB606060F80F0540260323103700495E20ED9E9A975A94991C9C9C919A9BA802147033B174347674B6D035337735D135717232D275743633D63573B5743470333432363670624768046931363471713532B5D43535
311
3131D635313332D475727372D13534373670367376B67474B5042A03DBCBA019D37FE8ABC6157B20CD04146B0062181F4C03F940F0C11EA29A8141C08141002C0426541C106CAC2CA046088033B02A030AC2157C6006F21A8018AAF50194E6010A610250382264E08660284CD9E98021862280A91564B406929A0FF62C401E
311
28B6F88038B83CB1243943D7A928312F25350524C3C0A0DD70F56A83369809E6AC0A85B251645054A1A983A947A601504B03041400060808001B8A705728BB58AF800100009E0500003D00000044383644323844462D463346422D343137422D393737372D4138313338343945453237332F536368656D61732F436F6D6D6F
311
6E536368656D612E786D6CBD544D4FC23018BEFB2B96DE15493C78601010A34B880709DEDFB52FD0D8B54BD70DF6EFED3AC0B12E6442E2716BFB3CEFF3D18E26FB440405EA8C2B1992E1C323095052C5B8DC842437EBFB673219DF8DA659866649B798C078B48AE6410122242F2A4994AC7F93815DF85C049C8564CA0A9014
311
99DD886B2EB9B1E02448F358701A9235880C49A0119892A20C89D1B9FD768815CAD268CB5E0355B40B1E47F3E37A2020464BED06AA57CE8FCC20C3C3446D46761A2632A8C1283D07031EFF2AE7CCB1BFEEE916E406DFAC8E36FFD99A9D60A6944090EEDC3B670C7DC13DE86B6B2C5C240D6E503BB85ACD579D513F1B9F9A69
311
DC9CC22AFA80C426D40AF0B21EA168559156B6276F0F726A6BFF04DCD513A87A62CAD41FB24FCB2858B3952E3D852084DA25B9303C15687973CC8E8AAE11DF2836C38C6A9E765E8C1BA1BFB1DC29CDFE518C8B5A7655A4ED7E77291ABEB80DBD82EC866ADE1B8D05AF9E35CF09D7A061F38A986D9EC412B8F0F65E5D81534D
311
9B231D1E5A8FE577A241F3A5FD01504B03041400060808001B8A70572CCEBD668A040000E01200003E00000044383644323844462D463346422D343137422D393737372D4138313338343945453237332F536368656D61732F47656E65726963536368656D612E786D6CD5586D6FDB380CFE7EBF42F0F7A649B70E1B907448
311
56B4970F450FCD7A5F05459613EDE4174872DADCAF3F522F8ED3B88D2F1D06AC4050DBA2493EE4438AF2F8EB73AEC8466823CB62928C06C384888297A92C5693A4B6D9D9E7E4EBD51FE3A931C22EF85AE4EC6AFC38BF261BA626C9AD288496DC3F4FCEAFC63366845F7A10452AF41DB320C0D44EC26EAB2091873556558269
311
5670811A6A49643A49A6E9069FA4604A64B29016DC4B48552F95E4932463CA888468C1D2B250DB4962750DF7CE273069CE8363F1FF4EDB00E0A21999574AE4A2B00C353B93F3BD4777B8A61ED8F604ABFEDD79CE56A2B7BDFBDBC50996E0ADDE16FED26223C5D30956C29BDF4A55EA686E5E58B112DA45CE67F76F4FA27EFA
311
3FB672FD7372FC388FAECDCA5209E693CAD167BADCD272F943701B3812F8A3D852008B1D2E32DB927B2F833C6EA95879925356D254582695095A3CE982924720BE5774A3CB9CDCDB350427D2DF20DA1B5532EBE2D5D6288D75D4F7E4FD9890A0EF8E3D93EBB8F8BA4758158EF6FB90A6F9520281C93DE7AAC6D24607DA296B
311
B96018123F821A7D6A5C5884050C475DA4865442732C8B95684A50165CBB3A32F25F783A4A480ED59AD7F924B968AEA50131F46303223E6A397B0E52976030DC1DCA81D7E7C1EDEEA42C19FF27635C505E2BD5198A599020DF50A2330FCB3AAF28CB0124108429553EF1B228802E2265D8F7CC2401042B155BCC7070F1E5C5
311
5F13B4A9577362CCCE46C32174E010C3C378C44841A4BDA00FE3A12006CE11EE6AEC59894D3526DDE1CD59D503ECC324017F8061B7F162162FA62EDD81AE3308617770796DCBDAD2B2625C5AE8A63DE20B2C8AA5E95E76E5730823955956E33E705425A2187C185D36489A1B44D3DCEC2172F6BA2105C3546287A7194B2331
311
768EBBE64F6E70A9930ABE0ADEA89E9E2C38523B810287AD67A54A039C1606EAFE68F8304610BB9093DBDDABC0B2AE4E290DCDA15376D7E39F72B556F0B32EAB5D3D498B4C41ABADEC3A1434C422D87E8025A84BDCB2B1417ED750FAE4DA8976863974C577C7F902D3F156AD354DEA3540DE6BEAE2BEA52F7A2EB4CA43802E
311
CE5BF2CE2EDC9347179FFB023CE412E60BE16DA0BE29B374988A553F561DC04615DD35F7D2C8979F60E5955CE93DF29DED8AFA1EE6642D53418086C03C47C377910F75F7E8F5EF665F70B60FFB22AEDF897D119E8423C773E819A3C1E55E550599EE6EDCA34D0C86FD72057DF2CD46F16A470682471C164E4346D5306BF12D
311
7D12D82CFF673D41636C347443FEB51B50D72EA171A8E4A58623A4A16E0FA2B8B10A0D23268D87C33896EE8FB73305A74BF224EDBADFA0BD674AB354D63DB7BD5D83426761C077DE767728235446A552754EB93B755891C3C4CC6CADE37CF0E912A7BB38DBA010F9DE1282EDF470CA69A9CDA482E334C4A6EA4107987980B1
311
7E72F31730EBF88BBD39E7C629F56797A3C0009C2C5AE7951D9A05A02773440F02EEB4DE396A3B6A570C72CCFBCD823B0B8ED3F1D5CEDDFED772FA70236C83FB7D86C385D570B87107535572A60A96035F8F7C6A7192F13007246BBE0521855E6AC46F3E27689CEE7D186A6FD679D98CDCAD13333E04EBE7ED6F55FF01504B
311
03041400060808001B8A70576180134D5F0100006B0300004500000044383644323844462D463346422D343137422D393737372D4138313338343945453237332F536368656D61732F52656E6465724D6174657269616C536368656D612E786D6CA5934D6FC2300C86EFFB1551EEE343DBA41D1A103009551ADAD40EAE28A4
311
A68D9426284961FCFBE5A340113B2071746D3F765EBF4DC6BFB5407BD0862B49F0B037C0082453059725C18DDD3EBFE3F1E829991803366715D474942CD30FB4A782E00C64017A412D684E454CE3FE28995203B162A6EA5AC94B66997D225E109CD63B0135484BAD1B3C07E9080CA35DB3119C11BCA5C200461A68A1A43812
311
6C75E3E230D40FF81FB3F03C91D1E3A3A0AF79FE28E25BC39EC3E17E4C2A2D94A0833A51AF55BCCA7D88572FCBAC529C4140B020FC3AAFA886621DCED7EAD7664CC86024E806DC297DA1BB393E4156543457A4537DB8817349A70F8ACBF09B3EEE2CB2F33E91B65D60786E4E3B39B77E3FEEEF5650424525DA657FB8B46BE6
311
BF064646F0A0F7327C0BC1BC1B4CBBC1C419FA3CCB23500007872A2580CAAE5461865565294E4EDB4617B62FF579DF9A5B2F54E834076A597573A020912FED777F9B3F504B03041400060808001B8A70574530244551000000570000004700000044383644323844462D463346422D343137422D393737372D413831333834
311
3945453237332F4173736574446174612F41737365745461626C654F66436F6E74656E74732E62696E536160607033B174347674B6D035337735D135717232D275743633D63573B57434703334323636701202AACB4D2C492DCA4CCC492C28484D2C4ACC4B4E050A82012F90744FCD03CA26072767A4E6260200504B030414
311
00060808001B8A7057F865834058000000680000004500000044383644323844462D463346422D343137422D393737372D4138313338343945453237332F4173736574446174612F53747265616D56657273696F6E5461626C652E696E66558CBD0A80300C06F73E4B117FB66E451741D041DC5BF98480A492E4FDD18EAEC7
311
DD4555D89EF28DF51A0B1BD8340C4DE7DD848B988C0ACF0649566493F2408C508DDEBB99D5129FF8F1AF8CF5B9503E20FAE5A16B5AF702504B03041400060808001B8A70577B9EE8D3340100009A0400003600000044383644323844462D463346422D343137422D393737372D4138313338343945453237332F4173736574
311
446174612F636E782E786D6CCD94414F03211085FFCA86FB42A95A4DC3D218BDF4A4898D076F5376B692B2B08159A3FF5E68F7A0A9F1D443AFC39BE1F185376AF5D9BBEA0363B2C1374CF219ABD09BD05ABF6BD8485D7DC7AA95563104FA216395871E1B56CA4CAB5D0CE330955AEC6074A5EAACDF4FC5FB949036B075F8D4
311
3D044FE829B1CA3848A961C9BC630F1C460A2DA63D6F81804B1E3185311ACC93C8F6384D321181B0657A3E9B5FD552D672B191B74BB958DE5CBF2951945A6D437093DEE6CB62182A73BC95E99912E558AB31DA4953DEC2F45F1EF9D67A25B252AB443133993AE86BC81D300CCE1AA08C4E044348751621F44A1CC55A89C2E0
311
178947ECACB7A5659D8D0185F89CED61248B1747E43FAFE727B3F689C01BBC5C1EA70ECF4FE1E5F0835E8F813C24E6D27272EA905BDF9D2125E2B0467268CA56D1DF504B03041400060808001B8A7057E2BED694080100004F0300003400000044383644323844462D463346422D343137422D393737372D41383133383439
311
45453237332F536368656D61732F636E782E786D6CCD933F4F432114C5BF0A612F3CAA56D3F0E8E0E0E4A24E6E08B79514B82FFC31FAED85E71BDAC44D876E70F8859C73B8C8DD67F0E403527618472AD840094483D6C5C3486BD9AFEE28D9299910CB094649D40146DA65AAE421619D16C9C25E57DF55EFE27111EF31048C
311
CFE61D82A6C4789DF348F3BC65BA16B4908FCCEAA299600932D664A0DD505C80E506934017B054AD87F5D54A8895D8BC88DBADD86C6FAE5F25EFA4926F887EE15D2C90702206DB22363B83E4FD58C99ADCC2F40C549D7A63AD0DC91BA1642EA975B090E56B6AA49E26EF8C2EAD2A3E833F8C92BC473D0BFC001192339799F8
311
CCDCBF457E8268213DB6574A4EFBCB4CFE9BC7BF15C0E7D96F23D0BF82FA06504B03041400060808001B8A7057410A3D5871000000A40000002C00000044383644323844462D463346422D343137422D393737372D4138313338343945453237332F636E782E786D6C55CC4D0E82301086E1AB34B31774E7A22D31F1069E60
311
020334B633A63FC6E34B0909B07DDE2F9FEE7EC1AB2FC5E4840DDC9A2B28E25E06C7938192C7CB1D54677514C9871928C640062A83D55394F2D968A0118BAFEA1DBF377CA444F98919176EAB9FEAAB9F2960DA5BBB1E2ED3FA6FFF504B03041400060808001B8A7057665515B67E000000A300000007000000636E782E786D
311
6C4D8CD10AC22018465F45FE7B2BE74807EA6838DF63343724A761337AFC3476D1D50787EF1CD17F368FDE36BD5C0C12C8E902C8867B9C5D5825E47DC11C50AF448A71FFBB010AD36625540C4AAC29E6E78166BB4CD957EA5D781C50F3AB6EB836D85033E096B001778C317CE384F2B61BC786D1629CAB52E6D72B5BF3EA0B
311
504B03041400060808001B8A705716E99B5DA600000035010000130000005B436F6E74656E745F54797065735D2E786D6C9590410E82301045AFD2740F4517C6180A0BF5065E60AC53688469D30E066F6F91AD9AB89CF9FFFD3F99BA9DC7413C3026E749CB4D59498164FCCD51A7E5C4B6D84BD136F5E5193089ECA5A465CF
311
1C0E4A25D3E308A9F401292BD6C711388FB15301CC1D3A54DBAADA29E38991B8E0254336F5092D4C038BF39CD76B6FC6A538AEBEA54A4B08617006389FA516557DE4AE8E7E70DE30729138228C5F021CD93F02D4FB0DCD0B504B03041400060808001B8A70573DEE336E64000000790000001B0000006175746F6465736B2D
311
64657369676E2D7061636B6167652E786D6C35CBC10E83200C00D05F21DCA56CA76D41FC96062B120735B69A7DBE268BB7777961F8D5AF396893C2ADB70FE7ADA196782C2DF776D7A97B5933C430F15651E5469C55D70F80A4992A3ADC954792C525AE70A1E4D6AD9816CC044FEFDF01FE3FDE907802504B03041400060808
311
001B8A705706E80A76F9000000960100003700000044383644323844462D463346422D343137422D393737372D4138313338343945453237332F4173736574446174612F636F72652E786D6C8550CB6E833010FC15B47703E61922E30841F3053DF5661987580936F2A3EAE7D70E546A4F3DED6A76667677C8E56B7D269FC2
311
58A9550F38CD21118AEB59AAA507EF6EE804C98512A3B5FB458344B155F41061A06431DA6F07C4B572424554E9591C20B3563848F833343D587E172B4B997781611FE9C6F8832D22C5E9CEA3C47B391F523907377993C200CDCBB6791BCA2B1A4F4D89AA7CEC50577723BAE65D3B75D370AA704DB228A6C4C9F5673B378239
311
31032DF2A2441823DCBCE3F68C9B735D7D902C3229B1CE849F8FA5F13BA043BC7A628E916C9FFE71F5DBFCBFAB97CA95C5E1BA2B2C501C8E7C0D28C9624AA1BC220C35264ABF01504B03041400060808001B8A70576CBF2F46F7000000940100003500000044383644323844462D463346422D343137422D393737372D4138
311
313338343945453237332F536368656D61732F636F72652E786D6C8550CB6E833010FC15B47703E64D641C45A4F981F6D49B651C6A25D8C88FAA9F5F1BA8D49E7ADAD5ECCCECEE90F3D7F24C3E85B152AB01709A432214D79354F300DEDD5107C99912A3B5FB458344B1450C1061A06436DAAF07C4B572424554E9491C20B3
311
563848F833340358FE21169632EF02C33ED295F1079B458AD39D4789F7723AA4720A6EF22E85019A976DF372296F68EC9A1255F9D8A3BEEE4774CBFBF6DA5F2F5D856B924531254E2E3FDBB911CC890968911725C218E1E60DB727DC9CEAEA9D649149897526FC7C2C8DDF017DDDEEB424DB677F3CFD3AFDEFE9A572657178
311
EE0A0B148713B7012559CC28942DC050639EF41B504B03041400060808001B8A7057312730B502010000D70100002D00000044383644323844462D463346422D343137422D393737372D4138313338343945453237332F636F72652E786D6C9591C172832010865FC5D93B1AD488C92099668C4FD0536F143686490447B0D3
311
C72F563B6D6FED09E6E7FB77F977F9E97D78246F3879E36C0334DD418256396D6CDFC01CAEA486E424F8E45CF8814162E5800D2C3208DE4F6E1E3749391BD02EAA751A37517A8F0112F5889706BCBAE12053398748F87B3A4A75973DA6345D39C18319BEAC6A42195083C87779412825B47AA6EC48ABE3BE7CE1D9420A3E1B
311
1B8A7C6B86C32BEAC48D214602B1E7D9FA1AA9D9E88D313AFED15C0D4E20DABA6AF3BAED485774675252762607C61879AA69519787CB2567452C12CD82FB30C5C96C459619FCD5BE1A7F259B47FDCF64ABC383A0DFA1B265CC82679F3B88E7B212F101504B03041400060808001B8A70575DC973E407010000B20100000800
311
0000636F72652E786D6C8D504B6EC32014BC0A628F6DFC8D234C1439CD09BAEA8E1AE2A2D860F189DADB17622AB5BBAE1E9A99F7661872FA5C17F010C64AAD0688B30202A126CDA59A07E8DD0D1D20385162B476BF641028B68A01461852321BEDB7044D5A39A122AA34170964D60A07C1B484C700EDF421569631EF82C2DE
311
B38D4D77368B0C67BB8E1227D79FD5C908E60487B42CCA0A618C70FB8ABB236E8F4DFD46F2A8A4C47BC99395E4C15DDEA430901655D7BE9CAB2B1A0F6D85EA62EC51DFF423BA167D77E92FE7438D1B92C7654AAC33E1CFE948C8E980658FE84BF29DA2E45DEB250942280EB45ABE8209C923F127B4DFF83F424BE5AA321DDC
311
372CA438047A12C1383618C6B3DE3063DBF41B504B010214001400060808001B8A705743CD4676D7000000200100004F000000000000000000000000000000000044383644323844462D463346422D343137422D393737372D4138313338343945453237332F4173736574446174612F446566696E6974696F6E4974657261
311
746F7250726F706572746965732E62696E504B010214001400060808001B8A705738D05168030100003002000045000000000000000000000000004401000044383644323844462D463346422D343137422D393737372D4138313338343945453237332F4173736574446174612F496E7374616E636550726F706572746965
311
732E62696E504B010214001400060808001B8A705728BB58AF800100009E0500003D00000000000000000000000000AA02000044383644323844462D463346422D343137422D393737372D4138313338343945453237332F536368656D61732F436F6D6D6F6E536368656D612E786D6C504B010214001400060808001B8A70
311
572CCEBD668A040000E01200003E000000000000000000000000008504000044383644323844462D463346422D343137422D393737372D4138313338343945453237332F536368656D61732F47656E65726963536368656D612E786D6C504B010214001400060808001B8A70576180134D5F0100006B030000450000000000
311
00000000000000006B09000044383644323844462D463346422D343137422D393737372D4138313338343945453237332F536368656D61732F52656E6465724D6174657269616C536368656D612E786D6C504B010214001400060808001B8A705745302445510000005700000047000000000000000000000000002D0B0000
311
44383644323844462D463346422D343137422D393737372D4138313338343945453237332F4173736574446174612F41737365745461626C654F66436F6E74656E74732E62696E504B010214001400060808001B8A7057F865834058000000680000004500000000000000000000000000E30B000044383644323844462D46
311
3346422D343137422D393737372D4138313338343945453237332F4173736574446174612F53747265616D56657273696F6E5461626C652E696E66504B010214001400060808001B8A70577B9EE8D3340100009A04000036000000000000000000000000009E0C000044383644323844462D463346422D343137422D393737
311
372D4138313338343945453237332F4173736574446174612F636E782E786D6C504B010214001400060808001B8A7057E2BED694080100004F0300003400000000000000000000000000260E000044383644323844462D463346422D343137422D393737372D4138313338343945453237332F536368656D61732F636E782E
311
786D6C504B010214001400060808001B8A7057410A3D5871000000A40000002C00000000000000000000000000800F000044383644323844462D463346422D343137422D393737372D4138313338343945453237332F636E782E786D6C504B010214001400060808001B8A7057665515B67E000000A3000000070000000000
311
00000000000000003B100000636E782E786D6C504B010214001400060808001B8A705716E99B5DA6000000350100001300000000000000000000000000DE1000005B436F6E74656E745F54797065735D2E786D6C504B010214001400060808001B8A70573DEE336E64000000790000001B00000000000000000000000000B5
311
1100006175746F6465736B2D64657369676E2D7061636B6167652E786D6C504B010214001400060808001B8A705706E80A76F90000009601000037000000000000000000000000005212000044383644323844462D463346422D343137422D393737372D4138313338343945453237332F4173736574446174612F636F7265
311
2E786D6C504B010214001400060808001B8A70576CBF2F46F7000000940100003500000000000000000000000000A013000044383644323844462D463346422D343137422D393737372D4138313338343945453237332F536368656D61732F636F72652E786D6C504B010214001400060808001B8A7057312730B502010000
311
D70100002D00000000000000000000000000EA14000044383644323844462D463346422D343137422D393737372D4138313338343945453237332F636F72652E786D6C504B010214001400060808001B8A70575DC973E407010000B2010000080000000000000000000000000037160000636F72652E786D6C504B05060000
311
0000110011005A060000641700000000
310
504B03041400060808001B8A7057000000000000000000000000370000006662782F35463443323644422D413338332D343934362D383937372D3944423538304539334643432F617474726962757465732E62696E504B03041400060808001B8A7057000000000000000000000000350000006662782F3546344332364442
310
2D413338332D343934362D383937372D3944423538304539334643432F76657274696365732E62696E504B03041400060808001B8A7057F270F1330600000004000000360000006662782F35463443323644422D413338332D343934362D383937372D3944423538304539334643432F747269616E676C65732E62696E6366
310
60600000504B03041400060808001B8A705751464CB48900000043010000360000006662782F35463443323644422D413338332D343934362D383937372D3944423538304539334643432F6469726563746F72792E786D6C9D8F310EC2300C45AF127987122606C71DD918B841D4B851A43646695A717C52A85029031293A5
310
A76FBF6FACEF7DA7264E43906840EF0FA03836E242F406C6DCEE4EA06AC22492573150D1F66C60C640E8938CB705396EEDD86DE9B5042FE27813D640EA63BB001C722AF6E55CB61E4863F58284D5D3F53DD715CE1C3985E63FD7F1B7EBDD617E9F1E504B03041400060808001B8A7057A3CF4D5239070000201C0000340000
310
006662782F35463443323644422D413338332D343934362D383937372D3944423538304539334643432F6F626A656374732E786D6CDD59DB6EDB3810FD1542FBB2FBA09B653B71E1B8F0252E8C226D51A38B7D13689976B8D10DA49438FBF53BA4485992655BE9B640B10990380C359C39337366381ABF3F44217A268CD324
310
BE335CCB31108983644BE3FD9D91673BF3D640EF2768CC9224ABEC33508C23726788656332DEB3244FD5D296EC701E365797B3BF100F484C0C148498F33B83078F24C216CEB3644BF893B5C519B6F6BB83E55AC5C6BAD83DC3E963E3A814331267A02AACC7204569E0D6FF0493ECC9D8161B6ADB7ADDB67917B6D9D2F0BAA2
310
34E6198E8313AD1A727ADDB4F2DCFEE2BE371899837EDF33FBC39E6BCE96B385E9DE78CE7C389F8FA6F723034DC69B24094B07A424DE82175F8D893BB6C57F4AF3150A6D7A07491C9340A1D9B6614B945C4A7813931AB0AE34ADE290C2D6CA82D7D1F833DB3A815253A986B6364EFFAE466FB2F91B40E05DA2947122A29C67
310
0C7CADB02FF2C119DBC56ACD2F94A3086784511CA2906E1866E020D85A38A82646648B10850466D28B5A5E555708ECEBB9D4A6E52E0F4391BFC644669A0FF948322E35A3FF1076D4BE7A1AE804D6E634CE6E95B1D96B0A2246635B2E16FFF37AEA9F05906817E23D440B98293679BD065E73C105AB8531F9B8DC1CD6821FDA
310
0F4F5992129689C893C9ACF24E7BB0125A107C1D402970ADFBEE88CA5780FE13205FEA82C6E039460FFD435FDBCE70CC77098BC03BC841A6033F1C243E9E7C1ADBE5C313846A5C790E5348DB1F8469CD8CDAD9154827E36708FA8479CAB875804388E9071A8B3C87404161024BC0F7BBCDC198AC804C61119EC221580FDF63
310
5B7C44F0AB90037CD3F0501BFD7670944E98669E1D7DF5016286D1A07455CDC673F80E7E08BED3C5FAE33A673B1C900795D80BB2A331CDA098B62B5403BD96F2DF569F64469ED853DB15C039FB4410478B5FD6CA2F483A06541175B8708D5C79A090EE61886392E45CADB71155908409F337AF7E91C3AD67FDA983A0380CF2
310
5B44402B9941750F184D0528C644995732A175C449F0A00AC07DE1547F83832701AF1F00637D8F1E10B5983585E651EAE328C96341DFA7E1DD34CDF21CF9E5BAA39E33EADD8E86DA582EC5EBECD1D4502A2FCE89707AE69079CD5B8A35B4E4228FFAC0966D1604D033E5999FA438A0597B2C348C50190A605F54794B77BB9C
310
03A9B7C2D2D0D8F2DC01722A3FCB432E6BAF0EF16984F7C4DF6151E15ACFAB01540AD716B422B30F13CE694CB8EC504E98AB818A6301111471ABA5B60421E57E4432FC3DF1274B5E23FC18D9853EF45299E866AF479F565055CF731245E796C4BEB4FFD5E7384AC3A24BBB8681DB6B9CD08AAB505A1CF10CF1E6E3CC77B644
310
36DDD7A497BCA0F1ED247DF4DDE2CFC0C3F04F87471F41A1F5861A79DDB3AE357047E2EB1648653870BD1BED886B58E9A332D1838439744DC1ABFF42E8FEB11BA1753A879370E7D330CC23BFA8071989A005C359CE3AE5EB70E09C385FF14223212A27ED68080D7267D294BD87EE3EC02AD97C9C23CDCA3160148DE18ED6C9
310
90132B5A4358FA42DE47C5B5EBBAF7DF2EF53FF365F59EF2445E5F12B66DD5B4DE46E80E4C370C822E55852BE3484A9E8CABC917C98BCB751CFA5A88E2B7E296A0228491672A0613F206D47A7FE02F380B8048D7F2B739838CD892EDB1A7A88953630E6302876A69BA4FADDE7480EC44F9A8355E2B41A8114C1BB0E0D907F1
310
21FC8AC1D5D0F9715B753576B1BE1285CD82C1CA518F0BB23E7F5837A4C04AE7A7BF088CC84B43825A9D8B46EE82A86FAB63BFDA90A02CFAB6BAF078F698479B185351194558E06DFAEEBDBC4BDED97051B0BD697F39EBF56ECCA1733332FBEEFDC2BC758637667FB4BC71BCF962D0F73C9B119EE42C20DCEED98EAF7BA734
310
DEEBC028A0EB72A380A9C2F5AB9F8EE7A683FFC7378A30D9E073B1F8AB5E28CA764F34648D5CEC7AA16825EACDDBBA7FF784A8DB8BD89B3AE76256A003FC72D90232D2F5BE7B6BA145EB4EA25DE74A457C63E13D7B5BF9E935A646E8ADF5A1B6A38DF2EB5C0CB3A7962AA56FB792D796FDD1D49BCE6FCDE1CD7DDFECCF663D
310
733A1F7AE6F07E3475966ECFF39C5989B8AA855DEBCA2FC1A15AD9CA180DA6C13C09290CE5C916ED49023720983A74E05716112E6F36D000A832AEDF087478FAB998A9667813EAA783470C83E95055E43C80A128DC3AEE0CB58E7E8331A89844CAE194F504854745BB817246EF0C08818C427DB13630CE92C34329BD31AE04
310
B7E1782FEE4CC553E5DFC7C7043A102B47BBCA3D5D705196D5A2138603A97C4F006CA71B92EF375DAB8370061F3779561A735C385AA340D02F040AE360EAF7A4E03D00F15CB6CBB5E49E1A249D26F317E3A0906A6698EDE578BD82F774F1C51693F1D5679486F95EB8F352BDAF4932459F11E6C5106A0C81A1CC4CB1B887CF
310
DFD95F5802AF9822B4A41004E8F7C3EDF00F7B9E445112174BF654BDA842EB4778EDB4B5F5C80F1A17C71DD8B2EF51637D985B7162E12D7F8205702DA362365A405C0B80929E2A01A03D227C018FD5F6AF164815814A0B5B6D5D053C72A68F2091C4BB1C9136D50D950124E4026855CC69CB0F7A616C3318824FFE05504B03
310
041400060808001B8A7057709B62623E01000046050000300000006662782F35463443323644422D413338332D343934362D383937372D3944423538304539334643432F636E782E786D6CCD94C14EC3300C865FA5CABDED3260A029CD240E3C0107C42D4DBD1296C655E220F6F624A31B2034C461D2768B9CDFD2FFD9BF2C
310
56EF832DDEC00783AE61BC9AB1029CC6CEB8BE6191D6E51D2B56527844FA2663855303342C979914BDC7384EA50ED62ADA5CB5C66DA6A222F2A68D048115DAAA101A16F40B0CAA5291B083B0A93A45AAE2958780D16B48FD640698FAB50745D031399FCDAF4ACE4BBE78E4B74BBE58DE5C3F8B3A2BA56811EDA4378EC0E358
310
684C0F97CCCC449DBFA588DE4C9A4CC0E497B3AA354ED4E95F8A90DCBA7ED2D176CCBA71B4462B4A63AA5113509944A006517F8AA5A833EF0FEA87FBA7BD83A2331E34A1DF9E6900FCD8000EC6AA9484FFF1EF847F6363FB9A70CFB5EDA3B093AD93A1EED31A525C7FEF3FA548B9DE5E5EE80FC64E9FF9744AC8E8CB43DEFB
310
3A1171BD3B7969E9F902CA0F504B03041400060808001B8A7057E5FDB6FA7F000000A30000000B0000006662782F636E782E786D6C4D8CD10E822018465F85FDF794052A6C804BCCF77089CE89D0485A8F1F342FBAFAB6B3EF1CD17C368BDE26BC16EF245C4E0520E31E7E5CDC2C21EE1366801A2582F7FBDF0D901B362321
310
6350620E3E3E0F349A69883653BBB8F580654FF5B5EA5A7C238C60CA698519AF6BCCBBB664C59D935EEB649CB392E6D74B9BF3EA0B504B03041400060808001B8A7057A6D797065F0000008200000007000000636E782E786D6C4DCB3B0E80201045D1AD90E9FD7516806B51190811670C8A61F982B1B0BAC9C97B72CA7B10
310
37C6D3332918DA1E04D2CAC69353902EDB8C20262D23F3F59B81A079470595414B17391D1F19B4730A5583A7ED43BBE4025D9592775E5ADFFA01504B03041400060808001B8A70574FEB6A7CA0000000F4000000130000005B436F6E74656E745F54797065735D2E786D6C7D8F4B0EC2300C44AF1279DFA6B0400835ED02B8
310
011730C16D239A8F121795DB93D02D6269CFBC19BBED573B8B17C564BC53B0AB1B10E4B47F18372A5878A88E20FAAEBDBD032591BD2E299898C349CAA427B2986A1FC86565F0D122E7318E32A07EE24872DF3407A9BD63725C71C980AEBDD080CBCCE2BAE6F5D69B7110E7CD57AA146008B3D1C8F92C5954F993BB1BF787F3
310
9A89ABC491D09600F9FDA2FB00504B03041400060808001B8A70573DEE336E64000000790000001B0000006175746F6465736B2D64657369676E2D7061636B6167652E786D6C35CBC10E83200C00D05F21DCA56CA76D41FC96062B120735B69A7DBE268BB7777961F8D5AF396893C2ADB70FE7ADA196782C2DF776D7A97B59
310
33C430F15651E5469C55D70F80A4992A3ADC954792C525AE70A1E4D6AD9816CC044FEFDF01FE3FDE907802504B03041400060808001B8A705702DBD6FDFA000000960100003B0000006662782F35463443323644422D413338332D343934362D383937372D3944423538304539334643432F7265736F75726365732F636F72
310
652E786D6C8550CB6EC32010FC156BEFD8C6E4D14498A849EA2FE8A937041B0725868847D5CF2FC4AED49E7ADAD5ECCCECEEF0C3D774AF3ED107E36C0FB46EA142AB9C3676EC21C50B7981EA20B8772EFEA24165E5843D1418041FBD4B8F0552CE46B405B54EE302CA103042A5EEB9E921A82B4EB296296646B8D50FA96E72
310
C49AD6334FF0948C5EA44667377331E8416C86E3B91BDA3561BBE38AAC76EC445EBBED40DAB7819DCF8CB253BBE54D110B1ECDF4B35D7994113588AEED18A194D0CD3BDDEEE966BF5E7DF0A630050FD1E79F97A5E53B101E834B5E61E0CD3CFDE39A1EFA7FD7646C64DDE23A2B02089A8F7C0E046F4A4AB93C23CCB5242ABE
310
01504B03041400060808001B8A7057102D5EB9F3000000B1010000310000006662782F35463443323644422D413338332D343934362D383937372D3944423538304539334643432F636F72652E786D6C8D50CB6EC32010FC156BEFD8C66F4798A8719A2FE8A9378489831283C5A3EAE71762576A6F392D9A9D6166871CBF97
310
47F2258C955A0D80D31C12A1B89EA49A07F0EE8A3A488E9418ADDD1F1A248A2D6280080325B3D17EDD21AE95132AA24A4F620799B5C241C21FE13180E537B1B094791718F69EAE8CDFD92C529C6E3C4A9C5C7EA5DC08E6C404B4C88B12618C70F381DB036E0E75F549B2C8A4C47B39ED56720AEEF22A85015A5FAAB168CE27
310
F4567625AAFAAA415DDFB6A83F9FEA2E7FEFCBCB38922C8A29B1CE849BF74FE275AFCA37E1BFCC7E9D5EC82C952B8BDD705358A038E4792E28C96281613CDB0D33964D7F00504B03041400060808001B8A70578771E60255010000DD0200000C0000006662782F636F72652E786D6C8D525D6F832014FD2B867754D4B66B83
310
346B3B7FC19EF646915A52058360FAF3077EC4F9B06E314172EEBDE7DC73023E3E9B3AE8B9EE84923940610C022E992A85AC7260CD0DBE81E048B056CAFC680381A40DCF818701C19556B69D20A6A4E1D2A352957C0269D771030256BB4B0E3A76E70D0DA935AEA37B842D650F5AF11085631FC1D68A721A15A5631337C135
310
20DBE274498A7803D3FD2983D93E3DC3F76457C0F8A3482F9714A5E77887233F4CB011CDACCE34A7869780247192428420DA7EA2DD016D0F9BEC0B47BE93E0CE68E77912F5EE00B95D9F381AF1159F6DCBBFF9AC90264D26BE71A20304B9F58602C191CFC7FD86F0D6193A61979FA1D77AB6F07050CF99513A739552D9A5D4
310
D3DA72471D07C387A3B1EA980782DF7892173CAF395C5054566E356ADCF56A8D575FEFD4720D7BF30CA4D20DAD97E5C6159773115A599AC799AA95FECFF46C750E33F20F937C03504B03041400060808001B8A70578EB7CDEB08010000B201000008000000636F72652E786D6C8D50C172832014FC15E6DD5111A34D06C934
310
B17E414FBD5121968982039869FFBE90D899F6D6D36376F7BD5D961D3FE709DD94F3DA9A164856005266B0529BB185355CF013A02367CEDAF04B06C88859B59060E06C74765D3668B02628935063A5DA40E1BD0A8086293E5AF0C3879A4526D61015FE9A2D62B88A5165247BE8380B7AFE591D9C124149E06551524C0826F5
310
2B690EA43EECAA3796272567EBAAE566A56574D717AD1CF0BA3F75655FEC30DD9F2A5CEDE9193F974D8F8B979E761D25F45C342C4FCB9CF9E0E29FB7233167405EDC922FCB1F1467EFD64E9B208692C89AE90B78C1F244FC09BD2EF21FA1B509B4DC0E3E363C701203DD89689C1A8CE35E6F9CA96DFE0D504B010214001400
310
060808001B8A70570000000000000000000000003700000000000000000000000000000000006662782F35463443323644422D413338332D343934362D383937372D3944423538304539334643432F617474726962757465732E62696E504B010214001400060808001B8A7057000000000000000000000000350000000000
310
0000000000000000550000006662782F35463443323644422D413338332D343934362D383937372D3944423538304539334643432F76657274696365732E62696E504B010214001400060808001B8A7057F270F13306000000040000003600000000000000000000000000A80000006662782F35463443323644422D413338
310
332D343934362D383937372D3944423538304539334643432F747269616E676C65732E62696E504B010214001400060808001B8A705751464CB489000000430100003600000000000000000000000000020100006662782F35463443323644422D413338332D343934362D383937372D3944423538304539334643432F6469
310
726563746F72792E786D6C504B010214001400060808001B8A7057A3CF4D5239070000201C00003400000000000000000000000000DF0100006662782F35463443323644422D413338332D343934362D383937372D3944423538304539334643432F6F626A656374732E786D6C504B010214001400060808001B8A7057709B
310
62623E0100004605000030000000000000000000000000006A0900006662782F35463443323644422D413338332D343934362D383937372D3944423538304539334643432F636E782E786D6C504B010214001400060808001B8A7057E5FDB6FA7F000000A30000000B00000000000000000000000000F60A00006662782F63
310
6E782E786D6C504B010214001400060808001B8A7057A6D797065F0000008200000007000000000000000000000000009E0B0000636E782E786D6C504B010214001400060808001B8A70574FEB6A7CA0000000F40000001300000000000000000000000000220C00005B436F6E74656E745F54797065735D2E786D6C504B01
310
0214001400060808001B8A70573DEE336E64000000790000001B00000000000000000000000000F30C00006175746F6465736B2D64657369676E2D7061636B6167652E786D6C504B010214001400060808001B8A705702DBD6FDFA000000960100003B00000000000000000000000000900D00006662782F35463443323644
310
422D413338332D343934362D383937372D3944423538304539334643432F7265736F75726365732F636F72652E786D6C504B010214001400060808001B8A7057102D5EB9F3000000B10100003100000000000000000000000000E30E00006662782F35463443323644422D413338332D343934362D383937372D3944423538
310
304539334643432F636F72652E786D6C504B010214001400060808001B8A70578771E60255010000DD0200000C00000000000000000000000000251000006662782F636F72652E786D6C504B010214001400060808001B8A70578EB7CDEB08010000B20100000800000000000000000000000000A4110000636F72652E786D
310
6C504B0506000000000E000E0080040000D21200000000
  0
XRECORD
  5
80B5
102
{ACAD_REACTORS
330
80B0
102
}
330
80B0
100
AcDbXrecord
280
     1
270
     1
271
     1
  0
XRECORD
  5
80B4
102
{ACAD_REACTORS
330
80B0
102
}
330
80B0
100
AcDbXrecord
280
     1
270
     1
271
     1
  0
XRECORD
  5
80B6
102
{ACAD_REACTORS
330
80B0
102
}
330
80B0
100
AcDbXrecord
280
     1
270
     1
271
     1
  0
XRECORD
  5
80B3
102
{ACAD_REACTORS
330
80B0
102
}
330
80B0
100
AcDbXrecord
280
     1
270
     1
271
     1
  0
XRECORD
  5
850B
102
{ACAD_REACTORS
330
850A
102
}
330
850A
100
AcDbXrecord
280
     1
102
DISPLAYNAME
  1
Imperial24
102
FLAGS
 90
        0
  0
CELLSTYLEMAP
  5
84D2
102
{ACAD_REACTORS
330
84D1
102
}
330
84D1
100
AcDbCellStyleMap
 90
        3
300
CELLSTYLE
  1
TABLEFORMAT_BEGIN
 90
        5
170
     1
 91
        0
 92
    32768
 62
   257
 93
        1
300
CONTENTFORMAT
  1
CONTENTFORMAT_BEGIN
 90
        0
 91
        0
 92
      512
 93
        0
300

 40
0.0
140
1.0
 94
        5
 62
     0
340
80E3
144
0.25
309
CONTENTFORMAT_END
171
     0
 94
        0
309
TABLEFORMAT_END
  1
CELLSTYLE_BEGIN
 90
        1
 91
        1
300
_TITLE
309
CELLSTYLE_END
300
CELLSTYLE
  1
TABLEFORMAT_BEGIN
 90
        5
170
     1
 91
        0
 92
        0
 62
   257
 93
        1
300
CONTENTFORMAT
  1
CONTENTFORMAT_BEGIN
 90
        0
 91
        0
 92
      512
 93
        0
300

 40
0.0
140
1.0
 94
        5
 62
     0
340
80E3
144
0.18
309
CONTENTFORMAT_END
171
     0
 94
        0
309
TABLEFORMAT_END
  1
CELLSTYLE_BEGIN
 90
        2
 91
        1
300
_HEADER
309
CELLSTYLE_END
300
CELLSTYLE
  1
TABLEFORMAT_BEGIN
 90
        5
170
     1
 91
        0
 92
        0
 62
   257
 93
        1
300
CONTENTFORMAT
  1
CONTENTFORMAT_BEGIN
 90
        0
 91
        0
 92
      512
 93
        0
300

 40
0.0
140
1.0
 94
        2
 62
     0
340
80E3
144
0.18
309
CONTENTFORMAT_END
171
     0
 94
        0
309
TABLEFORMAT_END
  1
CELLSTYLE_BEGIN
 90
        3
 91
        2
300
_DATA
309
CELLSTYLE_END
  0
XRECORD
  5
8508
102
{ACAD_REACTORS
330
84D1
102
}
330
84D1
100
AcDbXrecord
280
     1
102
ACAD_ROUNDTRIP_PRE2007_TABLESTYLE
 90
      512
 91
        0
  1

 92
      512
 93
        0
  2

 94
      512
 95
        0
  3

  0
XRECORD
  5
84E3
102
{ACAD_REACTORS
330
84E2
102
}
330
84E2
100
AcDbXrecord
280
     1
102
RTVSPost2010Prop28
280
     1
102
RTVSPost2010PropOp28
 70
     1
102
RTVSPost2010Prop29
280
     1
102
RTVSPost2010PropOp29
 70
     1
102
RTVSPost2010Prop30
280
     0
102
RTVSPost2010PropOp30
 70
     1
102
RTVSPost2010Prop31
280
     0
102
RTVSPost2010PropOp31
 70
     1
102
RTVSPost2010Prop32
280
     0
102
RTVSPost2010PropOp32
 70
     1
102
RTVSPost2010Prop33
280
     0
102
RTVSPost2010PropOp33
 70
     1
102
RTVSPost2010Prop34
280
     0
102
RTVSPost2010PropOp34
 70
     1
102
RTVSPost2010Prop35
280
     0
102
RTVSPost2010PropOp35
 70
     1
102
RTVSPost2010Prop36
280
     0
102
RTVSPost2010PropOp36
 70
     1
102
RTVSPost2010Prop37
 90
       50
102
RTVSPost2010PropOp37
 70
     1
102
RTVSPost2010Prop38
140
0.0
102
RTVSPost2010PropOp38
 70
     1
102
RTVSPost2010Prop39
140
1.0
102
RTVSPost2010PropOp39
 70
     1
102
RTVSPost2010Prop40
 90
        0
102
RTVSPost2010PropOp40
 70
     1
102
RTVSPost2010Prop41ColorIndex
 90
       18
102
RTVSPost2010Prop41ColorRGB
 90
        0
102
RTVSPost2010PropOp41
 70
     1
102
RTVSPost2010Prop42
 90
       50
102
RTVSPost2010PropOp42
 70
     1
102
RTVSPost2010Prop43
 90
        3
102
RTVSPost2010PropOp43
 70
     1
102
RTVSPost2010Prop44ColorIndex
 90
        5
102
RTVSPost2010Prop44ColorRGB
 90
      255
102
RTVSPost2010PropOp44
 70
     1
102
RTVSPost2010Prop45
280
     0
102
RTVSPost2010PropOp45
 70
     1
102
RTVSPost2010Prop46
 90
       50
102
RTVSPost2010PropOp46
 70
     1
102
RTVSPost2010Prop47
 90
       50
102
RTVSPost2010PropOp47
 70
     1
102
RTVSPost2010Prop48
 90
       50
102
RTVSPost2010PropOp48
 70
     1
102
RTVSPost2010Prop49
280
     0
102
RTVSPost2010PropOp49
 70
     1
102
RTVSPost2010Prop50
 90
       50
102
RTVSPost2010PropOp50
 70
     1
102
RTVSPost2010Prop51ColorIndex
 90
      256
102
RTVSPost2010Prop51ColorRGB
 90
-16777216
102
RTVSPost2010PropOp51
 70
     0
102
RTVSPost2010Prop52
140
1.0
102
RTVSPost2010PropOp52
 70
     0
102
RTVSPost2010Prop53
 90
        2
102
RTVSPost2010PropOp53
 70
     1
102
RTVSPost2010Prop54
  1
strokes_ogs.tif
102
RTVSPost2010PropOp54
 70
     1
102
RTVSPost2010Prop55
280
     0
102
RTVSPost2010PropOp55
 70
     1
102
RTVSPost2010Prop56
140
1.0
102
RTVSPost2010PropOp56
 70
     1
102
RTVSPost2010Prop57
140
1.0
102
RTVSPost2010PropOp57
 70
     1
102
RTVSPropertyOp0
 70
     1
102
RTVSPropertyOp1
 70
     1
102
RTVSPropertyOp2
 70
     1
102
RTVSPropertyOp3
 70
     1
102
RTVSPropertyOp4
 70
     1
102
RTVSPropertyOp5
 70
     1
102
RTVSPropertyOp6
 70
     1
102
RTVSPropertyOp7
 70
     1
102
RTVSPropertyOp8
 70
     1
102
RTVSPropertyOp9
 70
     1
102
RTVSPropertyOp10
 70
     1
102
RTVSPropertyOp11
 70
     1
102
RTVSPropertyOp12
 70
     1
102
RTVSPropertyOp13
 70
     1
102
RTVSPropertyOp14
 70
     1
102
RTVSPropertyOp15
 70
     1
102
RTVSPropertyOp16
 70
     1
102
RTVSPropertyOp17
 70
     1
102
RTVSPropertyOp18
 70
     1
102
RTVSPropertyOp19
 70
     1
102
RTVSPropertyOp20
 70
     1
102
RTVSPropertyOp21
 70
     1
102
RTVSPropertyOp22
 70
     1
102
RTVSPropertyOp23
 70
     1
102
RTVSPropertyOp24
 70
     1
102
RTVSPropertyOp25
 70
     1
102
RTVSPropertyOp26
 70
     1
102
RTVSPropertyOp27
 70
     1
102
RTVSPropertyOp28
 70
     1
102
RTVSPropertyOp29
 70
     1
102
RTVSPropertyOp30
 70
     1
102
RTVSPropertyOp31
 70
     1
102
RTVSPropertyOp32
 70
     1
102
RTVSPropertyOp33
 70
     1
102
RTVSPropertyOp34
 70
     1
102
RTVSPropertyOp35
 70
     1
102
RTVSPropertyOp36
 70
     1
102
RTVSPropertyOp37
 70
     1
102
RTVSPropertyOp38
 70
     1
102
RTVSPropertyOp39
 70
     1
102
RTVSPropertyOp40
 70
     1
102
RTVSPropertyOp41
 70
     1
102
RTVSPropertyOp42
 70
     1
102
RTVSPropertyOp43
 70
     1
102
RTVSPropertyOp44
 70
     1
102
RTVSPropertyOp45
 70
     1
102
RTVSPropertyOp46
 70
     1
102
RTVSPropertyOp47
 70
     1
102
RTVSPropertyOp48
 70
     1
102
RTVSPropertyOp49
 70
     1
102
RTVSPropertyOp50
 70
     1
102
RTVSPropertyOp51
 70
     0
102
RTVSPropertyOp52
 70
     0
102
RTVSPropertyOp53
 70
     1
102
RTVSPropertyOp54
 70
     1
102
RTVSPropertyOp55
 70
     1
102
RTVSPropertyOp56
 70
     1
102
RTVSPropertyOp57
 70
     1
102
RTVSPropertyOp58
 70
     1
102
RTVSPropertyOp59
 70
     1
102
RTVSPropertyOp60
 70
     1
102
RTVSPropertyOp61
 70
     1
102
RTVSPropertyOp62
 70
     1
  0
XRECORD
  5
84E1
102
{ACAD_REACTORS
330
84E0
102
}
330
84E0
100
AcDbXrecord
280
     1
102
RTVSPost2010Prop28
280
     0
102
RTVSPost2010PropOp28
 70
     1
102
RTVSPost2010Prop29
280
     1
102
RTVSPost2010PropOp29
 70
     1
102
RTVSPost2010Prop30
280
     1
102
RTVSPost2010PropOp30
 70
     1
102
RTVSPost2010Prop31
280
     0
102
RTVSPost2010PropOp31
 70
     1
102
RTVSPost2010Prop32
280
     0
102
RTVSPost2010PropOp32
 70
     1
102
RTVSPost2010Prop33
280
     0
102
RTVSPost2010PropOp33
 70
     1
102
RTVSPost2010Prop34
280
     0
102
RTVSPost2010PropOp34
 70
     1
102
RTVSPost2010Prop35
280
     0
102
RTVSPost2010PropOp35
 70
     1
102
RTVSPost2010Prop36
280
     0
102
RTVSPost2010PropOp36
 70
     1
102
RTVSPost2010Prop37
 90
       50
102
RTVSPost2010PropOp37
 70
     1
102
RTVSPost2010Prop38
140
0.0
102
RTVSPost2010PropOp38
 70
     1
102
RTVSPost2010Prop39
140
1.0
102
RTVSPost2010PropOp39
 70
     1
102
RTVSPost2010Prop40
 90
        0
102
RTVSPost2010PropOp40
 70
     1
102
RTVSPost2010Prop41ColorIndex
 90
       18
102
RTVSPost2010Prop41ColorRGB
 90
        0
102
RTVSPost2010PropOp41
 70
     1
102
RTVSPost2010Prop42
 90
       50
102
RTVSPost2010PropOp42
 70
     1
102
RTVSPost2010Prop43
 90
        3
102
RTVSPost2010PropOp43
 70
     1
102
RTVSPost2010Prop44ColorIndex
 90
        5
102
RTVSPost2010Prop44ColorRGB
 90
      255
102
RTVSPost2010PropOp44
 70
     1
102
RTVSPost2010Prop45
280
     0
102
RTVSPost2010PropOp45
 70
     1
102
RTVSPost2010Prop46
 90
       50
102
RTVSPost2010PropOp46
 70
     1
102
RTVSPost2010Prop47
 90
       50
102
RTVSPost2010PropOp47
 70
     1
102
RTVSPost2010Prop48
 90
       50
102
RTVSPost2010PropOp48
 70
     1
102
RTVSPost2010Prop49
280
     0
102
RTVSPost2010PropOp49
 70
     1
102
RTVSPost2010Prop50
 90
       50
102
RTVSPost2010PropOp50
 70
     1
102
RTVSPost2010Prop51ColorIndex
 90
      256
102
RTVSPost2010Prop51ColorRGB
 90
-16777216
102
RTVSPost2010PropOp51
 70
     0
102
RTVSPost2010Prop52
140
1.0
102
RTVSPost2010PropOp52
 70
     0
102
RTVSPost2010Prop53
 90
        2
102
RTVSPost2010PropOp53
 70
     1
102
RTVSPost2010Prop54
  1
strokes_ogs.tif
102
RTVSPost2010PropOp54
 70
     1
102
RTVSPost2010Prop55
280
     0
102
RTVSPost2010PropOp55
 70
     1
102
RTVSPost2010Prop56
140
1.0
102
RTVSPost2010PropOp56
 70
     1
102
RTVSPost2010Prop57
140
1.0
102
RTVSPost2010PropOp57
 70
     1
102
RTVSPropertyOp0
 70
     1
102
RTVSPropertyOp1
 70
     1
102
RTVSPropertyOp2
 70
     1
102
RTVSPropertyOp3
 70
     1
102
RTVSPropertyOp4
 70
     1
102
RTVSPropertyOp5
 70
     1
102
RTVSPropertyOp6
 70
     1
102
RTVSPropertyOp7
 70
     1
102
RTVSPropertyOp8
 70
     1
102
RTVSPropertyOp9
 70
     1
102
RTVSPropertyOp10
 70
     1
102
RTVSPropertyOp11
 70
     1
102
RTVSPropertyOp12
 70
     1
102
RTVSPropertyOp13
 70
     1
102
RTVSPropertyOp14
 70
     1
102
RTVSPropertyOp15
 70
     1
102
RTVSPropertyOp16
 70
     1
102
RTVSPropertyOp17
 70
     1
102
RTVSPropertyOp18
 70
     1
102
RTVSPropertyOp19
 70
     1
102
RTVSPropertyOp20
 70
     1
102
RTVSPropertyOp21
 70
     1
102
RTVSPropertyOp22
 70
     1
102
RTVSPropertyOp23
 70
     1
102
RTVSPropertyOp24
 70
     1
102
RTVSPropertyOp25
 70
     1
102
RTVSPropertyOp26
 70
     1
102
RTVSPropertyOp27
 70
     1
102
RTVSPropertyOp28
 70
     1
102
RTVSPropertyOp29
 70
     1
102
RTVSPropertyOp30
 70
     1
102
RTVSPropertyOp31
 70
     1
102
RTVSPropertyOp32
 70
     1
102
RTVSPropertyOp33
 70
     1
102
RTVSPropertyOp34
 70
     1
102
RTVSPropertyOp35
 70
     1
102
RTVSPropertyOp36
 70
     1
102
RTVSPropertyOp37
 70
     1
102
RTVSPropertyOp38
 70
     1
102
RTVSPropertyOp39
 70
     1
102
RTVSPropertyOp40
 70
     1
102
RTVSPropertyOp41
 70
     1
102
RTVSPropertyOp42
 70
     1
102
RTVSPropertyOp43
 70
     1
102
RTVSPropertyOp44
 70
     1
102
RTVSPropertyOp45
 70
     1
102
RTVSPropertyOp46
 70
     1
102
RTVSPropertyOp47
 70
     1
102
RTVSPropertyOp48
 70
     1
102
RTVSPropertyOp49
 70
     1
102
RTVSPropertyOp50
 70
     1
102
RTVSPropertyOp51
 70
     0
102
RTVSPropertyOp52
 70
     0
102
RTVSPropertyOp53
 70
     1
102
RTVSPropertyOp54
 70
     1
102
RTVSPropertyOp55
 70
     1
102
RTVSPropertyOp56
 70
     1
102
RTVSPropertyOp57
 70
     1
102
RTVSPropertyOp58
 70
     1
102
RTVSPropertyOp59
 70
     1
102
RTVSPropertyOp60
 70
     1
102
RTVSPropertyOp61
 70
     1
102
RTVSPropertyOp62
 70
     1
  0
XRECORD
  5
84EF
102
{ACAD_REACTORS
330
84EE
102
}
330
84EE
100
AcDbXrecord
280
     1
102
RTVSPost2010Prop28
280
     0
102
RTVSPost2010PropOp28
 70
     1
102
RTVSPost2010Prop29
280
     1
102
RTVSPost2010PropOp29
 70
     1
102
RTVSPost2010Prop30
280
     1
102
RTVSPost2010PropOp30
 70
     1
102
RTVSPost2010Prop31
280
     0
102
RTVSPost2010PropOp31
 70
     1
102
RTVSPost2010Prop32
280
     0
102
RTVSPost2010PropOp32
 70
     1
102
RTVSPost2010Prop33
280
     0
102
RTVSPost2010PropOp33
 70
     1
102
RTVSPost2010Prop34
280
     0
102
RTVSPost2010PropOp34
 70
     1
102
RTVSPost2010Prop35
280
     0
102
RTVSPost2010PropOp35
 70
     1
102
RTVSPost2010Prop36
280
     0
102
RTVSPost2010PropOp36
 70
     1
102
RTVSPost2010Prop37
 90
       50
102
RTVSPost2010PropOp37
 70
     1
102
RTVSPost2010Prop38
140
0.0
102
RTVSPost2010PropOp38
 70
     1
102
RTVSPost2010Prop39
140
1.0
102
RTVSPost2010PropOp39
 70
     1
102
RTVSPost2010Prop40
 90
        0
102
RTVSPost2010PropOp40
 70
     1
102
RTVSPost2010Prop41ColorIndex
 90
       18
102
RTVSPost2010Prop41ColorRGB
 90
        0
102
RTVSPost2010PropOp41
 70
     1
102
RTVSPost2010Prop42
 90
       50
102
RTVSPost2010PropOp42
 70
     1
102
RTVSPost2010Prop43
 90
        3
102
RTVSPost2010PropOp43
 70
     1
102
RTVSPost2010Prop44ColorIndex
 90
        5
102
RTVSPost2010Prop44ColorRGB
 90
      255
102
RTVSPost2010PropOp44
 70
     1
102
RTVSPost2010Prop45
280
     0
102
RTVSPost2010PropOp45
 70
     1
102
RTVSPost2010Prop46
 90
       50
102
RTVSPost2010PropOp46
 70
     1
102
RTVSPost2010Prop47
 90
       50
102
RTVSPost2010PropOp47
 70
     1
102
RTVSPost2010Prop48
 90
       50
102
RTVSPost2010PropOp48
 70
     1
102
RTVSPost2010Prop49
280
     0
102
RTVSPost2010PropOp49
 70
     1
102
RTVSPost2010Prop50
 90
       50
102
RTVSPost2010PropOp50
 70
     1
102
RTVSPost2010Prop51ColorIndex
 90
      256
102
RTVSPost2010Prop51ColorRGB
 90
-16777216
102
RTVSPost2010PropOp51
 70
     0
102
RTVSPost2010Prop52
140
1.0
102
RTVSPost2010PropOp52
 70
     0
102
RTVSPost2010Prop53
 90
        2
102
RTVSPost2010PropOp53
 70
     1
102
RTVSPost2010Prop54
  1
strokes_ogs.tif
102
RTVSPost2010PropOp54
 70
     1
102
RTVSPost2010Prop55
280
     0
102
RTVSPost2010PropOp55
 70
     1
102
RTVSPost2010Prop56
140
1.0
102
RTVSPost2010PropOp56
 70
     1
102
RTVSPost2010Prop57
140
1.0
102
RTVSPost2010PropOp57
 70
     1
102
RTVSPropertyOp0
 70
     1
102
RTVSPropertyOp1
 70
     1
102
RTVSPropertyOp2
 70
     1
102
RTVSPropertyOp3
 70
     1
102
RTVSPropertyOp4
 70
     1
102
RTVSPropertyOp5
 70
     1
102
RTVSPropertyOp6
 70
     1
102
RTVSPropertyOp7
 70
     1
102
RTVSPropertyOp8
 70
     1
102
RTVSPropertyOp9
 70
     1
102
RTVSPropertyOp10
 70
     1
102
RTVSPropertyOp11
 70
     1
102
RTVSPropertyOp12
 70
     1
102
RTVSPropertyOp13
 70
     1
102
RTVSPropertyOp14
 70
     1
102
RTVSPropertyOp15
 70
     1
102
RTVSPropertyOp16
 70
     1
102
RTVSPropertyOp17
 70
     1
102
RTVSPropertyOp18
 70
     1
102
RTVSPropertyOp19
 70
     1
102
RTVSPropertyOp20
 70
     1
102
RTVSPropertyOp21
 70
     1
102
RTVSPropertyOp22
 70
     1
102
RTVSPropertyOp23
 70
     1
102
RTVSPropertyOp24
 70
     1
102
RTVSPropertyOp25
 70
     1
102
RTVSPropertyOp26
 70
     1
102
RTVSPropertyOp27
 70
     1
102
RTVSPropertyOp28
 70
     1
102
RTVSPropertyOp29
 70
     1
102
RTVSPropertyOp30
 70
     1
102
RTVSPropertyOp31
 70
     1
102
RTVSPropertyOp32
 70
     1
102
RTVSPropertyOp33
 70
     1
102
RTVSPropertyOp34
 70
     1
102
RTVSPropertyOp35
 70
     1
102
RTVSPropertyOp36
 70
     1
102
RTVSPropertyOp37
 70
     1
102
RTVSPropertyOp38
 70
     1
102
RTVSPropertyOp39
 70
     1
102
RTVSPropertyOp40
 70
     1
102
RTVSPropertyOp41
 70
     1
102
RTVSPropertyOp42
 70
     1
102
RTVSPropertyOp43
 70
     1
102
RTVSPropertyOp44
 70
     1
102
RTVSPropertyOp45
 70
     1
102
RTVSPropertyOp46
 70
     1
102
RTVSPropertyOp47
 70
     1
102
RTVSPropertyOp48
 70
     1
102
RTVSPropertyOp49
 70
     1
102
RTVSPropertyOp50
 70
     1
102
RTVSPropertyOp51
 70
     0
102
RTVSPropertyOp52
 70
     0
102
RTVSPropertyOp53
 70
     1
102
RTVSPropertyOp54
 70
     1
102
RTVSPropertyOp55
 70
     1
102
RTVSPropertyOp56
 70
     1
102
RTVSPropertyOp57
 70
     1
102
RTVSPropertyOp58
 70
     1
102
RTVSPropertyOp59
 70
     1
102
RTVSPropertyOp60
 70
     1
102
RTVSPropertyOp61
 70
     1
102
RTVSPropertyOp62
 70
     1
  0
XRECORD
  5
84F7
102
{ACAD_REACTORS
330
84F6
102
}
330
84F6
100
AcDbXrecord
280
     1
102
RTVSPost2010Prop28
280
     0
102
RTVSPost2010PropOp28
 70
     1
102
RTVSPost2010Prop29
280
     1
102
RTVSPost2010PropOp29
 70
     1
102
RTVSPost2010Prop30
280
     1
102
RTVSPost2010PropOp30
 70
     1
102
RTVSPost2010Prop31
280
     0
102
RTVSPost2010PropOp31
 70
     1
102
RTVSPost2010Prop32
280
     0
102
RTVSPost2010PropOp32
 70
     1
102
RTVSPost2010Prop33
280
     0
102
RTVSPost2010PropOp33
 70
     1
102
RTVSPost2010Prop34
280
     0
102
RTVSPost2010PropOp34
 70
     1
102
RTVSPost2010Prop35
280
     0
102
RTVSPost2010PropOp35
 70
     1
102
RTVSPost2010Prop36
280
     0
102
RTVSPost2010PropOp36
 70
     1
102
RTVSPost2010Prop37
 90
       50
102
RTVSPost2010PropOp37
 70
     1
102
RTVSPost2010Prop38
140
0.0
102
RTVSPost2010PropOp38
 70
     1
102
RTVSPost2010Prop39
140
1.0
102
RTVSPost2010PropOp39
 70
     1
102
RTVSPost2010Prop40
 90
        0
102
RTVSPost2010PropOp40
 70
     1
102
RTVSPost2010Prop41ColorIndex
 90
       18
102
RTVSPost2010Prop41ColorRGB
 90
        0
102
RTVSPost2010PropOp41
 70
     1
102
RTVSPost2010Prop42
 90
       50
102
RTVSPost2010PropOp42
 70
     1
102
RTVSPost2010Prop43
 90
        3
102
RTVSPost2010PropOp43
 70
     1
102
RTVSPost2010Prop44ColorIndex
 90
        5
102
RTVSPost2010Prop44ColorRGB
 90
      255
102
RTVSPost2010PropOp44
 70
     1
102
RTVSPost2010Prop45
280
     0
102
RTVSPost2010PropOp45
 70
     1
102
RTVSPost2010Prop46
 90
       50
102
RTVSPost2010PropOp46
 70
     1
102
RTVSPost2010Prop47
 90
       50
102
RTVSPost2010PropOp47
 70
     1
102
RTVSPost2010Prop48
 90
       50
102
RTVSPost2010PropOp48
 70
     1
102
RTVSPost2010Prop49
280
     0
102
RTVSPost2010PropOp49
 70
     1
102
RTVSPost2010Prop50
 90
       50
102
RTVSPost2010PropOp50
 70
     1
102
RTVSPost2010Prop51ColorIndex
 90
      256
102
RTVSPost2010Prop51ColorRGB
 90
-16777216
102
RTVSPost2010PropOp51
 70
     0
102
RTVSPost2010Prop52
140
1.0
102
RTVSPost2010PropOp52
 70
     0
102
RTVSPost2010Prop53
 90
        2
102
RTVSPost2010PropOp53
 70
     1
102
RTVSPost2010Prop54
  1
strokes_ogs.tif
102
RTVSPost2010PropOp54
 70
     1
102
RTVSPost2010Prop55
280
     0
102
RTVSPost2010PropOp55
 70
     1
102
RTVSPost2010Prop56
140
1.0
102
RTVSPost2010PropOp56
 70
     1
102
RTVSPost2010Prop57
140
1.0
102
RTVSPost2010PropOp57
 70
     1
102
RTVSPropertyOp0
 70
     1
102
RTVSPropertyOp1
 70
     1
102
RTVSPropertyOp2
 70
     1
102
RTVSPropertyOp3
 70
     1
102
RTVSPropertyOp4
 70
     1
102
RTVSPropertyOp5
 70
     1
102
RTVSPropertyOp6
 70
     1
102
RTVSPropertyOp7
 70
     1
102
RTVSPropertyOp8
 70
     1
102
RTVSPropertyOp9
 70
     1
102
RTVSPropertyOp10
 70
     1
102
RTVSPropertyOp11
 70
     1
102
RTVSPropertyOp12
 70
     1
102
RTVSPropertyOp13
 70
     1
102
RTVSPropertyOp14
 70
     1
102
RTVSPropertyOp15
 70
     1
102
RTVSPropertyOp16
 70
     1
102
RTVSPropertyOp17
 70
     1
102
RTVSPropertyOp18
 70
     1
102
RTVSPropertyOp19
 70
     1
102
RTVSPropertyOp20
 70
     1
102
RTVSPropertyOp21
 70
     1
102
RTVSPropertyOp22
 70
     1
102
RTVSPropertyOp23
 70
     1
102
RTVSPropertyOp24
 70
     1
102
RTVSPropertyOp25
 70
     1
102
RTVSPropertyOp26
 70
     1
102
RTVSPropertyOp27
 70
     1
102
RTVSPropertyOp28
 70
     1
102
RTVSPropertyOp29
 70
     1
102
RTVSPropertyOp30
 70
     1
102
RTVSPropertyOp31
 70
     1
102
RTVSPropertyOp32
 70
     1
102
RTVSPropertyOp33
 70
     1
102
RTVSPropertyOp34
 70
     1
102
RTVSPropertyOp35
 70
     1
102
RTVSPropertyOp36
 70
     1
102
RTVSPropertyOp37
 70
     1
102
RTVSPropertyOp38
 70
     1
102
RTVSPropertyOp39
 70
     1
102
RTVSPropertyOp40
 70
     1
102
RTVSPropertyOp41
 70
     1
102
RTVSPropertyOp42
 70
     1
102
RTVSPropertyOp43
 70
     1
102
RTVSPropertyOp44
 70
     1
102
RTVSPropertyOp45
 70
     1
102
RTVSPropertyOp46
 70
     1
102
RTVSPropertyOp47
 70
     1
102
RTVSPropertyOp48
 70
     1
102
RTVSPropertyOp49
 70
     1
102
RTVSPropertyOp50
 70
     1
102
RTVSPropertyOp51
 70
     0
102
RTVSPropertyOp52
 70
     0
102
RTVSPropertyOp53
 70
     1
102
RTVSPropertyOp54
 70
     1
102
RTVSPropertyOp55
 70
     1
102
RTVSPropertyOp56
 70
     1
102
RTVSPropertyOp57
 70
     1
102
RTVSPropertyOp58
 70
     1
102
RTVSPropertyOp59
 70
     1
102
RTVSPropertyOp60
 70
     1
102
RTVSPropertyOp61
 70
     1
102
RTVSPropertyOp62
 70
     1
  0
XRECORD
  5
84E9
102
{ACAD_REACTORS
330
84E8
102
}
330
84E8
100
AcDbXrecord
280
     1
102
RTVSPost2010Prop28
280
     0
102
RTVSPost2010PropOp28
 70
     1
102
RTVSPost2010Prop29
280
     1
102
RTVSPost2010PropOp29
 70
     1
102
RTVSPost2010Prop30
280
     1
102
RTVSPost2010PropOp30
 70
     1
102
RTVSPost2010Prop31
280
     0
102
RTVSPost2010PropOp31
 70
     1
102
RTVSPost2010Prop32
280
     0
102
RTVSPost2010PropOp32
 70
     1
102
RTVSPost2010Prop33
280
     0
102
RTVSPost2010PropOp33
 70
     1
102
RTVSPost2010Prop34
280
     0
102
RTVSPost2010PropOp34
 70
     1
102
RTVSPost2010Prop35
280
     0
102
RTVSPost2010PropOp35
 70
     1
102
RTVSPost2010Prop36
280
     0
102
RTVSPost2010PropOp36
 70
     1
102
RTVSPost2010Prop37
 90
       50
102
RTVSPost2010PropOp37
 70
     1
102
RTVSPost2010Prop38
140
0.0
102
RTVSPost2010PropOp38
 70
     1
102
RTVSPost2010Prop39
140
1.0
102
RTVSPost2010PropOp39
 70
     1
102
RTVSPost2010Prop40
 90
        0
102
RTVSPost2010PropOp40
 70
     1
102
RTVSPost2010Prop41ColorIndex
 90
       18
102
RTVSPost2010Prop41ColorRGB
 90
        0
102
RTVSPost2010PropOp41
 70
     1
102
RTVSPost2010Prop42
 90
       50
102
RTVSPost2010PropOp42
 70
     1
102
RTVSPost2010Prop43
 90
        3
102
RTVSPost2010PropOp43
 70
     1
102
RTVSPost2010Prop44ColorIndex
 90
        5
102
RTVSPost2010Prop44ColorRGB
 90
      255
102
RTVSPost2010PropOp44
 70
     1
102
RTVSPost2010Prop45
280
     0
102
RTVSPost2010PropOp45
 70
     1
102
RTVSPost2010Prop46
 90
       50
102
RTVSPost2010PropOp46
 70
     1
102
RTVSPost2010Prop47
 90
       50
102
RTVSPost2010PropOp47
 70
     1
102
RTVSPost2010Prop48
 90
       50
102
RTVSPost2010PropOp48
 70
     1
102
RTVSPost2010Prop49
280
     0
102
RTVSPost2010PropOp49
 70
     1
102
RTVSPost2010Prop50
 90
       50
102
RTVSPost2010PropOp50
 70
     1
102
RTVSPost2010Prop51ColorIndex
 90
      256
102
RTVSPost2010Prop51ColorRGB
 90
-16777216
102
RTVSPost2010PropOp51
 70
     0
102
RTVSPost2010Prop52
140
1.0
102
RTVSPost2010PropOp52
 70
     0
102
RTVSPost2010Prop53
 90
        2
102
RTVSPost2010PropOp53
 70
     1
102
RTVSPost2010Prop54
  1
strokes_ogs.tif
102
RTVSPost2010PropOp54
 70
     1
102
RTVSPost2010Prop55
280
     0
102
RTVSPost2010PropOp55
 70
     1
102
RTVSPost2010Prop56
140
1.0
102
RTVSPost2010PropOp56
 70
     1
102
RTVSPost2010Prop57
140
1.0
102
RTVSPost2010PropOp57
 70
     1
102
RTVSPropertyOp0
 70
     1
102
RTVSPropertyOp1
 70
     1
102
RTVSPropertyOp2
 70
     1
102
RTVSPropertyOp3
 70
     1
102
RTVSPropertyOp4
 70
     1
102
RTVSPropertyOp5
 70
     1
102
RTVSPropertyOp6
 70
     1
102
RTVSPropertyOp7
 70
     1
102
RTVSPropertyOp8
 70
     1
102
RTVSPropertyOp9
 70
     1
102
RTVSPropertyOp10
 70
     1
102
RTVSPropertyOp11
 70
     1
102
RTVSPropertyOp12
 70
     1
102
RTVSPropertyOp13
 70
     1
102
RTVSPropertyOp14
 70
     1
102
RTVSPropertyOp15
 70
     1
102
RTVSPropertyOp16
 70
     1
102
RTVSPropertyOp17
 70
     1
102
RTVSPropertyOp18
 70
     1
102
RTVSPropertyOp19
 70
     1
102
RTVSPropertyOp20
 70
     1
102
RTVSPropertyOp21
 70
     1
102
RTVSPropertyOp22
 70
     1
102
RTVSPropertyOp23
 70
     1
102
RTVSPropertyOp24
 70
     1
102
RTVSPropertyOp25
 70
     1
102
RTVSPropertyOp26
 70
     1
102
RTVSPropertyOp27
 70
     1
102
RTVSPropertyOp28
 70
     1
102
RTVSPropertyOp29
 70
     1
102
RTVSPropertyOp30
 70
     1
102
RTVSPropertyOp31
 70
     1
102
RTVSPropertyOp32
 70
     1
102
RTVSPropertyOp33
 70
     1
102
RTVSPropertyOp34
 70
     1
102
RTVSPropertyOp35
 70
     1
102
RTVSPropertyOp36
 70
     1
102
RTVSPropertyOp37
 70
     1
102
RTVSPropertyOp38
 70
     1
102
RTVSPropertyOp39
 70
     1
102
RTVSPropertyOp40
 70
     1
102
RTVSPropertyOp41
 70
     1
102
RTVSPropertyOp42
 70
     1
102
RTVSPropertyOp43
 70
     1
102
RTVSPropertyOp44
 70
     1
102
RTVSPropertyOp45
 70
     1
102
RTVSPropertyOp46
 70
     1
102
RTVSPropertyOp47
 70
     1
102
RTVSPropertyOp48
 70
     1
102
RTVSPropertyOp49
 70
     1
102
RTVSPropertyOp50
 70
     1
102
RTVSPropertyOp51
 70
     0
102
RTVSPropertyOp52
 70
     0
102
RTVSPropertyOp53
 70
     1
102
RTVSPropertyOp54
 70
     1
102
RTVSPropertyOp55
 70
     1
102
RTVSPropertyOp56
 70
     1
102
RTVSPropertyOp57
 70
     1
102
RTVSPropertyOp58
 70
     1
102
RTVSPropertyOp59
 70
     1
102
RTVSPropertyOp60
 70
     1
102
RTVSPropertyOp61
 70
     1
102
RTVSPropertyOp62
 70
     1
  0
XRECORD
  5
84ED
102
{ACAD_REACTORS
330
84EC
102
}
330
84EC
100
AcDbXrecord
280
     1
102
RTVSPost2010Prop28
280
     0
102
RTVSPost2010PropOp28
 70
     1
102
RTVSPost2010Prop29
280
     1
102
RTVSPost2010PropOp29
 70
     1
102
RTVSPost2010Prop30
280
     1
102
RTVSPost2010PropOp30
 70
     1
102
RTVSPost2010Prop31
280
     0
102
RTVSPost2010PropOp31
 70
     1
102
RTVSPost2010Prop32
280
     0
102
RTVSPost2010PropOp32
 70
     1
102
RTVSPost2010Prop33
280
     0
102
RTVSPost2010PropOp33
 70
     1
102
RTVSPost2010Prop34
280
     0
102
RTVSPost2010PropOp34
 70
     1
102
RTVSPost2010Prop35
280
     0
102
RTVSPost2010PropOp35
 70
     1
102
RTVSPost2010Prop36
280
     0
102
RTVSPost2010PropOp36
 70
     1
102
RTVSPost2010Prop37
 90
       50
102
RTVSPost2010PropOp37
 70
     1
102
RTVSPost2010Prop38
140
0.0
102
RTVSPost2010PropOp38
 70
     1
102
RTVSPost2010Prop39
140
1.0
102
RTVSPost2010PropOp39
 70
     1
102
RTVSPost2010Prop40
 90
        0
102
RTVSPost2010PropOp40
 70
     1
102
RTVSPost2010Prop41ColorIndex
 90
       18
102
RTVSPost2010Prop41ColorRGB
 90
        0
102
RTVSPost2010PropOp41
 70
     1
102
RTVSPost2010Prop42
 90
       50
102
RTVSPost2010PropOp42
 70
     1
102
RTVSPost2010Prop43
 90
        3
102
RTVSPost2010PropOp43
 70
     1
102
RTVSPost2010Prop44ColorIndex
 90
        5
102
RTVSPost2010Prop44ColorRGB
 90
      255
102
RTVSPost2010PropOp44
 70
     1
102
RTVSPost2010Prop45
280
     0
102
RTVSPost2010PropOp45
 70
     1
102
RTVSPost2010Prop46
 90
       50
102
RTVSPost2010PropOp46
 70
     1
102
RTVSPost2010Prop47
 90
       50
102
RTVSPost2010PropOp47
 70
     1
102
RTVSPost2010Prop48
 90
       50
102
RTVSPost2010PropOp48
 70
     1
102
RTVSPost2010Prop49
280
     0
102
RTVSPost2010PropOp49
 70
     1
102
RTVSPost2010Prop50
 90
       50
102
RTVSPost2010PropOp50
 70
     1
102
RTVSPost2010Prop51ColorIndex
 90
      256
102
RTVSPost2010Prop51ColorRGB
 90
-16777216
102
RTVSPost2010PropOp51
 70
     0
102
RTVSPost2010Prop52
140
1.0
102
RTVSPost2010PropOp52
 70
     0
102
RTVSPost2010Prop53
 90
        2
102
RTVSPost2010PropOp53
 70
     1
102
RTVSPost2010Prop54
  1
strokes_ogs.tif
102
RTVSPost2010PropOp54
 70
     1
102
RTVSPost2010Prop55
280
     0
102
RTVSPost2010PropOp55
 70
     1
102
RTVSPost2010Prop56
140
1.0
102
RTVSPost2010PropOp56
 70
     1
102
RTVSPost2010Prop57
140
1.0
102
RTVSPost2010PropOp57
 70
     1
102
RTVSPropertyOp0
 70
     1
102
RTVSPropertyOp1
 70
     1
102
RTVSPropertyOp2
 70
     1
102
RTVSPropertyOp3
 70
     1
102
RTVSPropertyOp4
 70
     1
102
RTVSPropertyOp5
 70
     1
102
RTVSPropertyOp6
 70
     1
102
RTVSPropertyOp7
 70
     1
102
RTVSPropertyOp8
 70
     1
102
RTVSPropertyOp9
 70
     1
102
RTVSPropertyOp10
 70
     1
102
RTVSPropertyOp11
 70
     1
102
RTVSPropertyOp12
 70
     1
102
RTVSPropertyOp13
 70
     1
102
RTVSPropertyOp14
 70
     1
102
RTVSPropertyOp15
 70
     1
102
RTVSPropertyOp16
 70
     1
102
RTVSPropertyOp17
 70
     1
102
RTVSPropertyOp18
 70
     1
102
RTVSPropertyOp19
 70
     1
102
RTVSPropertyOp20
 70
     1
102
RTVSPropertyOp21
 70
     1
102
RTVSPropertyOp22
 70
     1
102
RTVSPropertyOp23
 70
     1
102
RTVSPropertyOp24
 70
     1
102
RTVSPropertyOp25
 70
     1
102
RTVSPropertyOp26
 70
     1
102
RTVSPropertyOp27
 70
     1
102
RTVSPropertyOp28
 70
     1
102
RTVSPropertyOp29
 70
     1
102
RTVSPropertyOp30
 70
     1
102
RTVSPropertyOp31
 70
     1
102
RTVSPropertyOp32
 70
     1
102
RTVSPropertyOp33
 70
     1
102
RTVSPropertyOp34
 70
     1
102
RTVSPropertyOp35
 70
     1
102
RTVSPropertyOp36
 70
     1
102
RTVSPropertyOp37
 70
     1
102
RTVSPropertyOp38
 70
     1
102
RTVSPropertyOp39
 70
     1
102
RTVSPropertyOp40
 70
     1
102
RTVSPropertyOp41
 70
     1
102
RTVSPropertyOp42
 70
     1
102
RTVSPropertyOp43
 70
     1
102
RTVSPropertyOp44
 70
     1
102
RTVSPropertyOp45
 70
     1
102
RTVSPropertyOp46
 70
     1
102
RTVSPropertyOp47
 70
     1
102
RTVSPropertyOp48
 70
     1
102
RTVSPropertyOp49
 70
     1
102
RTVSPropertyOp50
 70
     1
102
RTVSPropertyOp51
 70
     0
102
RTVSPropertyOp52
 70
     0
102
RTVSPropertyOp53
 70
     1
102
RTVSPropertyOp54
 70
     1
102
RTVSPropertyOp55
 70
     1
102
RTVSPropertyOp56
 70
     1
102
RTVSPropertyOp57
 70
     1
102
RTVSPropertyOp58
 70
     1
102
RTVSPropertyOp59
 70
     1
102
RTVSPropertyOp60
 70
     1
102
RTVSPropertyOp61
 70
     1
102
RTVSPropertyOp62
 70
     1
  0
XRECORD
  5
8507
102
{ACAD_REACTORS
330
8506
102
}
330
8506
100
AcDbXrecord
280
     1
102
RTVSPost2010Prop28
280
     0
102
RTVSPost2010PropOp28
 70
     1
102
RTVSPost2010Prop29
280
     1
102
RTVSPost2010PropOp29
 70
     1
102
RTVSPost2010Prop30
280
     1
102
RTVSPost2010PropOp30
 70
     1
102
RTVSPost2010Prop31
280
     0
102
RTVSPost2010PropOp31
 70
     1
102
RTVSPost2010Prop32
280
     0
102
RTVSPost2010PropOp32
 70
     1
102
RTVSPost2010Prop33
280
     0
102
RTVSPost2010PropOp33
 70
     1
102
RTVSPost2010Prop34
280
     0
102
RTVSPost2010PropOp34
 70
     1
102
RTVSPost2010Prop35
280
     0
102
RTVSPost2010PropOp35
 70
     1
102
RTVSPost2010Prop36
280
     0
102
RTVSPost2010PropOp36
 70
     1
102
RTVSPost2010Prop37
 90
       50
102
RTVSPost2010PropOp37
 70
     0
102
RTVSPost2010Prop38
140
0.0
102
RTVSPost2010PropOp38
 70
     0
102
RTVSPost2010Prop39
140
1.0
102
RTVSPost2010PropOp39
 70
     0
102
RTVSPost2010Prop40
 90
        0
102
RTVSPost2010PropOp40
 70
     0
102
RTVSPost2010Prop41ColorIndex
 90
       18
102
RTVSPost2010Prop41ColorRGB
 90
        0
102
RTVSPost2010PropOp41
 70
     0
102
RTVSPost2010Prop42
 90
       50
102
RTVSPost2010PropOp42
 70
     0
102
RTVSPost2010Prop43
 90
        3
102
RTVSPost2010PropOp43
 70
     0
102
RTVSPost2010Prop44ColorIndex
 90
        5
102
RTVSPost2010Prop44ColorRGB
 90
      255
102
RTVSPost2010PropOp44
 70
     0
102
RTVSPost2010Prop45
280
     0
102
RTVSPost2010PropOp45
 70
     1
102
RTVSPost2010Prop46
 90
       50
102
RTVSPost2010PropOp46
 70
     0
102
RTVSPost2010Prop47
 90
       50
102
RTVSPost2010PropOp47
 70
     0
102
RTVSPost2010Prop48
 90
       50
102
RTVSPost2010PropOp48
 70
     0
102
RTVSPost2010Prop49
280
     0
102
RTVSPost2010PropOp49
 70
     1
102
RTVSPost2010Prop50
 90
       50
102
RTVSPost2010PropOp50
 70
     0
102
RTVSPost2010Prop51ColorIndex
 90
      256
102
RTVSPost2010Prop51ColorRGB
 90
-16777216
102
RTVSPost2010PropOp51
 70
     0
102
RTVSPost2010Prop52
140
1.0
102
RTVSPost2010PropOp52
 70
     0
102
RTVSPost2010Prop53
 90
        2
102
RTVSPost2010PropOp53
 70
     0
102
RTVSPost2010Prop54
  1
strokes_ogs.tif
102
RTVSPost2010PropOp54
 70
     0
102
RTVSPost2010Prop55
280
     0
102
RTVSPost2010PropOp55
 70
     1
102
RTVSPost2010Prop56
140
1.0
102
RTVSPost2010PropOp56
 70
     0
102
RTVSPost2010Prop57
140
1.0
102
RTVSPost2010PropOp57
 70
     0
102
RTVSPropertyOp0
 70
     0
102
RTVSPropertyOp1
 70
     0
102
RTVSPropertyOp2
 70
     0
102
RTVSPropertyOp3
 70
     0
102
RTVSPropertyOp4
 70
     0
102
RTVSPropertyOp5
 70
     0
102
RTVSPropertyOp6
 70
     0
102
RTVSPropertyOp7
 70
     0
102
RTVSPropertyOp8
 70
     0
102
RTVSPropertyOp9
 70
     0
102
RTVSPropertyOp10
 70
     0
102
RTVSPropertyOp11
 70
     0
102
RTVSPropertyOp12
 70
     0
102
RTVSPropertyOp13
 70
     0
102
RTVSPropertyOp14
 70
     2
102
RTVSPropertyOp15
 70
     0
102
RTVSPropertyOp16
 70
     0
102
RTVSPropertyOp17
 70
     0
102
RTVSPropertyOp18
 70
     0
102
RTVSPropertyOp19
 70
     0
102
RTVSPropertyOp20
 70
     0
102
RTVSPropertyOp21
 70
     0
102
RTVSPropertyOp22
 70
     0
102
RTVSPropertyOp23
 70
     0
102
RTVSPropertyOp24
 70
     0
102
RTVSPropertyOp25
 70
     0
102
RTVSPropertyOp26
 70
     0
102
RTVSPropertyOp27
 70
     0
102
RTVSPropertyOp28
 70
     1
102
RTVSPropertyOp29
 70
     1
102
RTVSPropertyOp30
 70
     1
102
RTVSPropertyOp31
 70
     1
102
RTVSPropertyOp32
 70
     1
102
RTVSPropertyOp33
 70
     1
102
RTVSPropertyOp34
 70
     1
102
RTVSPropertyOp35
 70
     1
102
RTVSPropertyOp36
 70
     1
102
RTVSPropertyOp37
 70
     0
102
RTVSPropertyOp38
 70
     0
102
RTVSPropertyOp39
 70
     0
102
RTVSPropertyOp40
 70
     0
102
RTVSPropertyOp41
 70
     0
102
RTVSPropertyOp42
 70
     0
102
RTVSPropertyOp43
 70
     0
102
RTVSPropertyOp44
 70
     0
102
RTVSPropertyOp45
 70
     1
102
RTVSPropertyOp46
 70
     0
102
RTVSPropertyOp47
 70
     0
102
RTVSPropertyOp48
 70
     0
102
RTVSPropertyOp49
 70
     1
102
RTVSPropertyOp50
 70
     0
102
RTVSPropertyOp51
 70
     0
102
RTVSPropertyOp52
 70
     0
102
RTVSPropertyOp53
 70
     0
102
RTVSPropertyOp54
 70
     0
102
RTVSPropertyOp55
 70
     1
102
RTVSPropertyOp56
 70
     0
102
RTVSPropertyOp57
 70
     0
102
RTVSPropertyOp58
 70
     0
102
RTVSPropertyOp59
 70
     0
102
RTVSPropertyOp60
 70
     0
102
RTVSPropertyOp61
 70
     0
102
RTVSPropertyOp62
 70
     0
  0
XRECORD
  5
84F5
102
{ACAD_REACTORS
330
84F4
102
}
330
84F4
100
AcDbXrecord
280
     1
102
RTVSPost2010Prop28
280
     0
102
RTVSPost2010PropOp28
 70
     1
102
RTVSPost2010Prop29
280
     1
102
RTVSPost2010PropOp29
 70
     1
102
RTVSPost2010Prop30
280
     1
102
RTVSPost2010PropOp30
 70
     1
102
RTVSPost2010Prop31
280
     0
102
RTVSPost2010PropOp31
 70
     1
102
RTVSPost2010Prop32
280
     0
102
RTVSPost2010PropOp32
 70
     1
102
RTVSPost2010Prop33
280
     0
102
RTVSPost2010PropOp33
 70
     1
102
RTVSPost2010Prop34
280
     0
102
RTVSPost2010PropOp34
 70
     1
102
RTVSPost2010Prop35
280
     0
102
RTVSPost2010PropOp35
 70
     1
102
RTVSPost2010Prop36
280
     0
102
RTVSPost2010PropOp36
 70
     1
102
RTVSPost2010Prop37
 90
       50
102
RTVSPost2010PropOp37
 70
     1
102
RTVSPost2010Prop38
140
0.0
102
RTVSPost2010PropOp38
 70
     1
102
RTVSPost2010Prop39
140
1.0
102
RTVSPost2010PropOp39
 70
     1
102
RTVSPost2010Prop40
 90
        0
102
RTVSPost2010PropOp40
 70
     1
102
RTVSPost2010Prop41ColorIndex
 90
       18
102
RTVSPost2010Prop41ColorRGB
 90
        0
102
RTVSPost2010PropOp41
 70
     1
102
RTVSPost2010Prop42
 90
       50
102
RTVSPost2010PropOp42
 70
     1
102
RTVSPost2010Prop43
 90
        3
102
RTVSPost2010PropOp43
 70
     1
102
RTVSPost2010Prop44ColorIndex
 90
        5
102
RTVSPost2010Prop44ColorRGB
 90
      255
102
RTVSPost2010PropOp44
 70
     1
102
RTVSPost2010Prop45
280
     0
102
RTVSPost2010PropOp45
 70
     1
102
RTVSPost2010Prop46
 90
       50
102
RTVSPost2010PropOp46
 70
     1
102
RTVSPost2010Prop47
 90
       50
102
RTVSPost2010PropOp47
 70
     1
102
RTVSPost2010Prop48
 90
       50
102
RTVSPost2010PropOp48
 70
     1
102
RTVSPost2010Prop49
280
     0
102
RTVSPost2010PropOp49
 70
     1
102
RTVSPost2010Prop50
 90
       50
102
RTVSPost2010PropOp50
 70
     1
102
RTVSPost2010Prop51ColorIndex
 90
      256
102
RTVSPost2010Prop51ColorRGB
 90
-16777216
102
RTVSPost2010PropOp51
 70
     0
102
RTVSPost2010Prop52
140
1.0
102
RTVSPost2010PropOp52
 70
     0
102
RTVSPost2010Prop53
 90
        2
102
RTVSPost2010PropOp53
 70
     1
102
RTVSPost2010Prop54
  1
strokes_ogs.tif
102
RTVSPost2010PropOp54
 70
     1
102
RTVSPost2010Prop55
280
     0
102
RTVSPost2010PropOp55
 70
     1
102
RTVSPost2010Prop56
140
1.0
102
RTVSPost2010PropOp56
 70
     1
102
RTVSPost2010Prop57
140
1.0
102
RTVSPost2010PropOp57
 70
     1
102
RTVSPropertyOp0
 70
     1
102
RTVSPropertyOp1
 70
     1
102
RTVSPropertyOp2
 70
     1
102
RTVSPropertyOp3
 70
     1
102
RTVSPropertyOp4
 70
     1
102
RTVSPropertyOp5
 70
     1
102
RTVSPropertyOp6
 70
     1
102
RTVSPropertyOp7
 70
     1
102
RTVSPropertyOp8
 70
     1
102
RTVSPropertyOp9
 70
     1
102
RTVSPropertyOp10
 70
     1
102
RTVSPropertyOp11
 70
     1
102
RTVSPropertyOp12
 70
     1
102
RTVSPropertyOp13
 70
     1
102
RTVSPropertyOp14
 70
     1
102
RTVSPropertyOp15
 70
     1
102
RTVSPropertyOp16
 70
     1
102
RTVSPropertyOp17
 70
     1
102
RTVSPropertyOp18
 70
     1
102
RTVSPropertyOp19
 70
     1
102
RTVSPropertyOp20
 70
     1
102
RTVSPropertyOp21
 70
     1
102
RTVSPropertyOp22
 70
     1
102
RTVSPropertyOp23
 70
     1
102
RTVSPropertyOp24
 70
     1
102
RTVSPropertyOp25
 70
     1
102
RTVSPropertyOp26
 70
     1
102
RTVSPropertyOp27
 70
     1
102
RTVSPropertyOp28
 70
     1
102
RTVSPropertyOp29
 70
     1
102
RTVSPropertyOp30
 70
     1
102
RTVSPropertyOp31
 70
     1
102
RTVSPropertyOp32
 70
     1
102
RTVSPropertyOp33
 70
     1
102
RTVSPropertyOp34
 70
     1
102
RTVSPropertyOp35
 70
     1
102
RTVSPropertyOp36
 70
     1
102
RTVSPropertyOp37
 70
     1
102
RTVSPropertyOp38
 70
     1
102
RTVSPropertyOp39
 70
     1
102
RTVSPropertyOp40
 70
     1
102
RTVSPropertyOp41
 70
     1
102
RTVSPropertyOp42
 70
     1
102
RTVSPropertyOp43
 70
     1
102
RTVSPropertyOp44
 70
     1
102
RTVSPropertyOp45
 70
     1
102
RTVSPropertyOp46
 70
     1
102
RTVSPropertyOp47
 70
     1
102
RTVSPropertyOp48
 70
     1
102
RTVSPropertyOp49
 70
     1
102
RTVSPropertyOp50
 70
     1
102
RTVSPropertyOp51
 70
     0
102
RTVSPropertyOp52
 70
     0
102
RTVSPropertyOp53
 70
     1
102
RTVSPropertyOp54
 70
     1
102
RTVSPropertyOp55
 70
     1
102
RTVSPropertyOp56
 70
     1
102
RTVSPropertyOp57
 70
     1
102
RTVSPropertyOp58
 70
     1
102
RTVSPropertyOp59
 70
     1
102
RTVSPropertyOp60
 70
     1
102
RTVSPropertyOp61
 70
     1
102
RTVSPropertyOp62
 70
     1
  0
XRECORD
  5
84D9
102
{ACAD_REACTORS
330
84D8
102
}
330
84D8
100
AcDbXrecord
280
     1
102
RTVSPost2010Prop28
280
     0
102
RTVSPost2010PropOp28
 70
     1
102
RTVSPost2010Prop29
280
     1
102
RTVSPost2010PropOp29
 70
     1
102
RTVSPost2010Prop30
280
     1
102
RTVSPost2010PropOp30
 70
     1
102
RTVSPost2010Prop31
280
     0
102
RTVSPost2010PropOp31
 70
     1
102
RTVSPost2010Prop32
280
     0
102
RTVSPost2010PropOp32
 70
     1
102
RTVSPost2010Prop33
280
     0
102
RTVSPost2010PropOp33
 70
     1
102
RTVSPost2010Prop34
280
     0
102
RTVSPost2010PropOp34
 70
     1
102
RTVSPost2010Prop35
280
     0
102
RTVSPost2010PropOp35
 70
     1
102
RTVSPost2010Prop36
280
     0
102
RTVSPost2010PropOp36
 70
     1
102
RTVSPost2010Prop37
 90
       50
102
RTVSPost2010PropOp37
 70
     1
102
RTVSPost2010Prop38
140
0.0
102
RTVSPost2010PropOp38
 70
     1
102
RTVSPost2010Prop39
140
1.0
102
RTVSPost2010PropOp39
 70
     1
102
RTVSPost2010Prop40
 90
        0
102
RTVSPost2010PropOp40
 70
     1
102
RTVSPost2010Prop41ColorIndex
 90
       18
102
RTVSPost2010Prop41ColorRGB
 90
        0
102
RTVSPost2010PropOp41
 70
     1
102
RTVSPost2010Prop42
 90
       50
102
RTVSPost2010PropOp42
 70
     1
102
RTVSPost2010Prop43
 90
        3
102
RTVSPost2010PropOp43
 70
     1
102
RTVSPost2010Prop44ColorIndex
 90
        5
102
RTVSPost2010Prop44ColorRGB
 90
      255
102
RTVSPost2010PropOp44
 70
     1
102
RTVSPost2010Prop45
280
     0
102
RTVSPost2010PropOp45
 70
     1
102
RTVSPost2010Prop46
 90
       50
102
RTVSPost2010PropOp46
 70
     1
102
RTVSPost2010Prop47
 90
       50
102
RTVSPost2010PropOp47
 70
     1
102
RTVSPost2010Prop48
 90
       50
102
RTVSPost2010PropOp48
 70
     1
102
RTVSPost2010Prop49
280
     0
102
RTVSPost2010PropOp49
 70
     1
102
RTVSPost2010Prop50
 90
       50
102
RTVSPost2010PropOp50
 70
     1
102
RTVSPost2010Prop51ColorIndex
 90
      256
102
RTVSPost2010Prop51ColorRGB
 90
-16777216
102
RTVSPost2010PropOp51
 70
     0
102
RTVSPost2010Prop52
140
1.0
102
RTVSPost2010PropOp52
 70
     0
102
RTVSPost2010Prop53
 90
        2
102
RTVSPost2010PropOp53
 70
     1
102
RTVSPost2010Prop54
  1
strokes_ogs.tif
102
RTVSPost2010PropOp54
 70
     1
102
RTVSPost2010Prop55
280
     0
102
RTVSPost2010PropOp55
 70
     1
102
RTVSPost2010Prop56
140
1.0
102
RTVSPost2010PropOp56
 70
     1
102
RTVSPost2010Prop57
140
1.0
102
RTVSPost2010PropOp57
 70
     1
102
RTVSPropertyOp0
 70
     1
102
RTVSPropertyOp1
 70
     1
102
RTVSPropertyOp2
 70
     1
102
RTVSPropertyOp3
 70
     1
102
RTVSPropertyOp4
 70
     1
102
RTVSPropertyOp5
 70
     1
102
RTVSPropertyOp6
 70
     1
102
RTVSPropertyOp7
 70
     1
102
RTVSPropertyOp8
 70
     1
102
RTVSPropertyOp9
 70
     1
102
RTVSPropertyOp10
 70
     1
102
RTVSPropertyOp11
 70
     1
102
RTVSPropertyOp12
 70
     1
102
RTVSPropertyOp13
 70
     1
102
RTVSPropertyOp14
 70
     1
102
RTVSPropertyOp15
 70
     1
102
RTVSPropertyOp16
 70
     1
102
RTVSPropertyOp17
 70
     1
102
RTVSPropertyOp18
 70
     1
102
RTVSPropertyOp19
 70
     1
102
RTVSPropertyOp20
 70
     1
102
RTVSPropertyOp21
 70
     1
102
RTVSPropertyOp22
 70
     1
102
RTVSPropertyOp23
 70
     1
102
RTVSPropertyOp24
 70
     1
102
RTVSPropertyOp25
 70
     1
102
RTVSPropertyOp26
 70
     1
102
RTVSPropertyOp27
 70
     1
102
RTVSPropertyOp28
 70
     1
102
RTVSPropertyOp29
 70
     1
102
RTVSPropertyOp30
 70
     1
102
RTVSPropertyOp31
 70
     1
102
RTVSPropertyOp32
 70
     1
102
RTVSPropertyOp33
 70
     1
102
RTVSPropertyOp34
 70
     1
102
RTVSPropertyOp35
 70
     1
102
RTVSPropertyOp36
 70
     1
102
RTVSPropertyOp37
 70
     1
102
RTVSPropertyOp38
 70
     1
102
RTVSPropertyOp39
 70
     1
102
RTVSPropertyOp40
 70
     1
102
RTVSPropertyOp41
 70
     1
102
RTVSPropertyOp42
 70
     1
102
RTVSPropertyOp43
 70
     1
102
RTVSPropertyOp44
 70
     1
102
RTVSPropertyOp45
 70
     1
102
RTVSPropertyOp46
 70
     1
102
RTVSPropertyOp47
 70
     1
102
RTVSPropertyOp48
 70
     1
102
RTVSPropertyOp49
 70
     1
102
RTVSPropertyOp50
 70
     1
102
RTVSPropertyOp51
 70
     0
102
RTVSPropertyOp52
 70
     0
102
RTVSPropertyOp53
 70
     1
102
RTVSPropertyOp54
 70
     1
102
RTVSPropertyOp55
 70
     1
102
RTVSPropertyOp56
 70
     1
102
RTVSPropertyOp57
 70
     1
102
RTVSPropertyOp58
 70
     1
102
RTVSPropertyOp59
 70
     1
102
RTVSPropertyOp60
 70
     1
102
RTVSPropertyOp61
 70
     1
102
RTVSPropertyOp62
 70
     1
  0
XRECORD
  5
84DB
102
{ACAD_REACTORS
330
84DA
102
}
330
84DA
100
AcDbXrecord
280
     1
102
RTVSPost2010Prop28
280
     0
102
RTVSPost2010PropOp28
 70
     1
102
RTVSPost2010Prop29
280
     1
102
RTVSPost2010PropOp29
 70
     1
102
RTVSPost2010Prop30
280
     1
102
RTVSPost2010PropOp30
 70
     1
102
RTVSPost2010Prop31
280
     0
102
RTVSPost2010PropOp31
 70
     1
102
RTVSPost2010Prop32
280
     0
102
RTVSPost2010PropOp32
 70
     1
102
RTVSPost2010Prop33
280
     0
102
RTVSPost2010PropOp33
 70
     1
102
RTVSPost2010Prop34
280
     0
102
RTVSPost2010PropOp34
 70
     1
102
RTVSPost2010Prop35
280
     0
102
RTVSPost2010PropOp35
 70
     1
102
RTVSPost2010Prop36
280
     0
102
RTVSPost2010PropOp36
 70
     1
102
RTVSPost2010Prop37
 90
       50
102
RTVSPost2010PropOp37
 70
     1
102
RTVSPost2010Prop38
140
0.0
102
RTVSPost2010PropOp38
 70
     1
102
RTVSPost2010Prop39
140
1.0
102
RTVSPost2010PropOp39
 70
     1
102
RTVSPost2010Prop40
 90
        0
102
RTVSPost2010PropOp40
 70
     1
102
RTVSPost2010Prop41ColorIndex
 90
       18
102
RTVSPost2010Prop41ColorRGB
 90
        0
102
RTVSPost2010PropOp41
 70
     1
102
RTVSPost2010Prop42
 90
       50
102
RTVSPost2010PropOp42
 70
     1
102
RTVSPost2010Prop43
 90
        3
102
RTVSPost2010PropOp43
 70
     1
102
RTVSPost2010Prop44ColorIndex
 90
        5
102
RTVSPost2010Prop44ColorRGB
 90
      255
102
RTVSPost2010PropOp44
 70
     1
102
RTVSPost2010Prop45
280
     0
102
RTVSPost2010PropOp45
 70
     1
102
RTVSPost2010Prop46
 90
       50
102
RTVSPost2010PropOp46
 70
     1
102
RTVSPost2010Prop47
 90
       50
102
RTVSPost2010PropOp47
 70
     1
102
RTVSPost2010Prop48
 90
       50
102
RTVSPost2010PropOp48
 70
     1
102
RTVSPost2010Prop49
280
     0
102
RTVSPost2010PropOp49
 70
     1
102
RTVSPost2010Prop50
 90
       50
102
RTVSPost2010PropOp50
 70
     1
102
RTVSPost2010Prop51ColorIndex
 90
      256
102
RTVSPost2010Prop51ColorRGB
 90
-16777216
102
RTVSPost2010PropOp51
 70
     0
102
RTVSPost2010Prop52
140
1.0
102
RTVSPost2010PropOp52
 70
     0
102
RTVSPost2010Prop53
 90
        2
102
RTVSPost2010PropOp53
 70
     1
102
RTVSPost2010Prop54
  1
strokes_ogs.tif
102
RTVSPost2010PropOp54
 70
     1
102
RTVSPost2010Prop55
280
     0
102
RTVSPost2010PropOp55
 70
     1
102
RTVSPost2010Prop56
140
1.0
102
RTVSPost2010PropOp56
 70
     1
102
RTVSPost2010Prop57
140
1.0
102
RTVSPost2010PropOp57
 70
     1
102
RTVSPropertyOp0
 70
     1
102
RTVSPropertyOp1
 70
     1
102
RTVSPropertyOp2
 70
     1
102
RTVSPropertyOp3
 70
     1
102
RTVSPropertyOp4
 70
     1
102
RTVSPropertyOp5
 70
     1
102
RTVSPropertyOp6
 70
     1
102
RTVSPropertyOp7
 70
     1
102
RTVSPropertyOp8
 70
     1
102
RTVSPropertyOp9
 70
     1
102
RTVSPropertyOp10
 70
     1
102
RTVSPropertyOp11
 70
     1
102
RTVSPropertyOp12
 70
     1
102
RTVSPropertyOp13
 70
     1
102
RTVSPropertyOp14
 70
     1
102
RTVSPropertyOp15
 70
     1
102
RTVSPropertyOp16
 70
     1
102
RTVSPropertyOp17
 70
     1
102
RTVSPropertyOp18
 70
     1
102
RTVSPropertyOp19
 70
     1
102
RTVSPropertyOp20
 70
     1
102
RTVSPropertyOp21
 70
     1
102
RTVSPropertyOp22
 70
     1
102
RTVSPropertyOp23
 70
     1
102
RTVSPropertyOp24
 70
     1
102
RTVSPropertyOp25
 70
     1
102
RTVSPropertyOp26
 70
     1
102
RTVSPropertyOp27
 70
     1
102
RTVSPropertyOp28
 70
     1
102
RTVSPropertyOp29
 70
     1
102
RTVSPropertyOp30
 70
     1
102
RTVSPropertyOp31
 70
     1
102
RTVSPropertyOp32
 70
     1
102
RTVSPropertyOp33
 70
     1
102
RTVSPropertyOp34
 70
     1
102
RTVSPropertyOp35
 70
     1
102
RTVSPropertyOp36
 70
     1
102
RTVSPropertyOp37
 70
     1
102
RTVSPropertyOp38
 70
     1
102
RTVSPropertyOp39
 70
     1
102
RTVSPropertyOp40
 70
     1
102
RTVSPropertyOp41
 70
     1
102
RTVSPropertyOp42
 70
     1
102
RTVSPropertyOp43
 70
     1
102
RTVSPropertyOp44
 70
     1
102
RTVSPropertyOp45
 70
     1
102
RTVSPropertyOp46
 70
     1
102
RTVSPropertyOp47
 70
     1
102
RTVSPropertyOp48
 70
     1
102
RTVSPropertyOp49
 70
     1
102
RTVSPropertyOp50
 70
     1
102
RTVSPropertyOp51
 70
     0
102
RTVSPropertyOp52
 70
     0
102
RTVSPropertyOp53
 70
     1
102
RTVSPropertyOp54
 70
     1
102
RTVSPropertyOp55
 70
     1
102
RTVSPropertyOp56
 70
     1
102
RTVSPropertyOp57
 70
     1
102
RTVSPropertyOp58
 70
     1
102
RTVSPropertyOp59
 70
     1
102
RTVSPropertyOp60
 70
     1
102
RTVSPropertyOp61
 70
     1
102
RTVSPropertyOp62
 70
     1
  0
XRECORD
  5
84DD
102
{ACAD_REACTORS
330
84DC
102
}
330
84DC
100
AcDbXrecord
280
     1
102
RTVSPost2010Prop28
280
     0
102
RTVSPost2010PropOp28
 70
     1
102
RTVSPost2010Prop29
280
     1
102
RTVSPost2010PropOp29
 70
     1
102
RTVSPost2010Prop30
280
     1
102
RTVSPost2010PropOp30
 70
     1
102
RTVSPost2010Prop31
280
     0
102
RTVSPost2010PropOp31
 70
     1
102
RTVSPost2010Prop32
280
     0
102
RTVSPost2010PropOp32
 70
     1
102
RTVSPost2010Prop33
280
     0
102
RTVSPost2010PropOp33
 70
     1
102
RTVSPost2010Prop34
280
     0
102
RTVSPost2010PropOp34
 70
     1
102
RTVSPost2010Prop35
280
     0
102
RTVSPost2010PropOp35
 70
     1
102
RTVSPost2010Prop36
280
     0
102
RTVSPost2010PropOp36
 70
     1
102
RTVSPost2010Prop37
 90
       50
102
RTVSPost2010PropOp37
 70
     1
102
RTVSPost2010Prop38
140
0.0
102
RTVSPost2010PropOp38
 70
     1
102
RTVSPost2010Prop39
140
1.0
102
RTVSPost2010PropOp39
 70
     1
102
RTVSPost2010Prop40
 90
        0
102
RTVSPost2010PropOp40
 70
     1
102
RTVSPost2010Prop41ColorIndex
 90
       18
102
RTVSPost2010Prop41ColorRGB
 90
        0
102
RTVSPost2010PropOp41
 70
     1
102
RTVSPost2010Prop42
 90
       50
102
RTVSPost2010PropOp42
 70
     1
102
RTVSPost2010Prop43
 90
        3
102
RTVSPost2010PropOp43
 70
     1
102
RTVSPost2010Prop44ColorIndex
 90
        5
102
RTVSPost2010Prop44ColorRGB
 90
      255
102
RTVSPost2010PropOp44
 70
     1
102
RTVSPost2010Prop45
280
     0
102
RTVSPost2010PropOp45
 70
     1
102
RTVSPost2010Prop46
 90
       50
102
RTVSPost2010PropOp46
 70
     1
102
RTVSPost2010Prop47
 90
       50
102
RTVSPost2010PropOp47
 70
     1
102
RTVSPost2010Prop48
 90
       50
102
RTVSPost2010PropOp48
 70
     1
102
RTVSPost2010Prop49
280
     0
102
RTVSPost2010PropOp49
 70
     1
102
RTVSPost2010Prop50
 90
       50
102
RTVSPost2010PropOp50
 70
     1
102
RTVSPost2010Prop51ColorIndex
 90
      256
102
RTVSPost2010Prop51ColorRGB
 90
-16777216
102
RTVSPost2010PropOp51
 70
     0
102
RTVSPost2010Prop52
140
1.0
102
RTVSPost2010PropOp52
 70
     0
102
RTVSPost2010Prop53
 90
        2
102
RTVSPost2010PropOp53
 70
     1
102
RTVSPost2010Prop54
  1
strokes_ogs.tif
102
RTVSPost2010PropOp54
 70
     1
102
RTVSPost2010Prop55
280
     0
102
RTVSPost2010PropOp55
 70
     1
102
RTVSPost2010Prop56
140
1.0
102
RTVSPost2010PropOp56
 70
     1
102
RTVSPost2010Prop57
140
1.0
102
RTVSPost2010PropOp57
 70
     1
102
RTVSPropertyOp0
 70
     1
102
RTVSPropertyOp1
 70
     1
102
RTVSPropertyOp2
 70
     1
102
RTVSPropertyOp3
 70
     1
102
RTVSPropertyOp4
 70
     1
102
RTVSPropertyOp5
 70
     1
102
RTVSPropertyOp6
 70
     1
102
RTVSPropertyOp7
 70
     1
102
RTVSPropertyOp8
 70
     1
102
RTVSPropertyOp9
 70
     1
102
RTVSPropertyOp10
 70
     1
102
RTVSPropertyOp11
 70
     1
102
RTVSPropertyOp12
 70
     1
102
RTVSPropertyOp13
 70
     1
102
RTVSPropertyOp14
 70
     1
102
RTVSPropertyOp15
 70
     1
102
RTVSPropertyOp16
 70
     1
102
RTVSPropertyOp17
 70
     1
102
RTVSPropertyOp18
 70
     1
102
RTVSPropertyOp19
 70
     1
102
RTVSPropertyOp20
 70
     1
102
RTVSPropertyOp21
 70
     1
102
RTVSPropertyOp22
 70
     1
102
RTVSPropertyOp23
 70
     1
102
RTVSPropertyOp24
 70
     1
102
RTVSPropertyOp25
 70
     1
102
RTVSPropertyOp26
 70
     1
102
RTVSPropertyOp27
 70
     1
102
RTVSPropertyOp28
 70
     1
102
RTVSPropertyOp29
 70
     1
102
RTVSPropertyOp30
 70
     1
102
RTVSPropertyOp31
 70
     1
102
RTVSPropertyOp32
 70
     1
102
RTVSPropertyOp33
 70
     1
102
RTVSPropertyOp34
 70
     1
102
RTVSPropertyOp35
 70
     1
102
RTVSPropertyOp36
 70
     1
102
RTVSPropertyOp37
 70
     1
102
RTVSPropertyOp38
 70
     1
102
RTVSPropertyOp39
 70
     1
102
RTVSPropertyOp40
 70
     1
102
RTVSPropertyOp41
 70
     1
102
RTVSPropertyOp42
 70
     1
102
RTVSPropertyOp43
 70
     1
102
RTVSPropertyOp44
 70
     1
102
RTVSPropertyOp45
 70
     1
102
RTVSPropertyOp46
 70
     1
102
RTVSPropertyOp47
 70
     1
102
RTVSPropertyOp48
 70
     1
102
RTVSPropertyOp49
 70
     1
102
RTVSPropertyOp50
 70
     1
102
RTVSPropertyOp51
 70
     0
102
RTVSPropertyOp52
 70
     0
102
RTVSPropertyOp53
 70
     1
102
RTVSPropertyOp54
 70
     1
102
RTVSPropertyOp55
 70
     1
102
RTVSPropertyOp56
 70
     1
102
RTVSPropertyOp57
 70
     1
102
RTVSPropertyOp58
 70
     1
102
RTVSPropertyOp59
 70
     1
102
RTVSPropertyOp60
 70
     1
102
RTVSPropertyOp61
 70
     1
102
RTVSPropertyOp62
 70
     1
  0
XRECORD
  5
84DF
102
{ACAD_REACTORS
330
84DE
102
}
330
84DE
100
AcDbXrecord
280
     1
102
RTVSPost2010Prop28
280
     0
102
RTVSPost2010PropOp28
 70
     1
102
RTVSPost2010Prop29
280
     1
102
RTVSPost2010PropOp29
 70
     1
102
RTVSPost2010Prop30
280
     1
102
RTVSPost2010PropOp30
 70
     1
102
RTVSPost2010Prop31
280
     0
102
RTVSPost2010PropOp31
 70
     1
102
RTVSPost2010Prop32
280
     0
102
RTVSPost2010PropOp32
 70
     1
102
RTVSPost2010Prop33
280
     0
102
RTVSPost2010PropOp33
 70
     1
102
RTVSPost2010Prop34
280
     0
102
RTVSPost2010PropOp34
 70
     1
102
RTVSPost2010Prop35
280
     0
102
RTVSPost2010PropOp35
 70
     1
102
RTVSPost2010Prop36
280
     0
102
RTVSPost2010PropOp36
 70
     1
102
RTVSPost2010Prop37
 90
       50
102
RTVSPost2010PropOp37
 70
     1
102
RTVSPost2010Prop38
140
0.0
102
RTVSPost2010PropOp38
 70
     1
102
RTVSPost2010Prop39
140
1.0
102
RTVSPost2010PropOp39
 70
     1
102
RTVSPost2010Prop40
 90
        0
102
RTVSPost2010PropOp40
 70
     1
102
RTVSPost2010Prop41ColorIndex
 90
       18
102
RTVSPost2010Prop41ColorRGB
 90
        0
102
RTVSPost2010PropOp41
 70
     1
102
RTVSPost2010Prop42
 90
       50
102
RTVSPost2010PropOp42
 70
     1
102
RTVSPost2010Prop43
 90
        3
102
RTVSPost2010PropOp43
 70
     1
102
RTVSPost2010Prop44ColorIndex
 90
        5
102
RTVSPost2010Prop44ColorRGB
 90
      255
102
RTVSPost2010PropOp44
 70
     1
102
RTVSPost2010Prop45
280
     0
102
RTVSPost2010PropOp45
 70
     1
102
RTVSPost2010Prop46
 90
       50
102
RTVSPost2010PropOp46
 70
     1
102
RTVSPost2010Prop47
 90
       50
102
RTVSPost2010PropOp47
 70
     1
102
RTVSPost2010Prop48
 90
       50
102
RTVSPost2010PropOp48
 70
     1
102
RTVSPost2010Prop49
280
     0
102
RTVSPost2010PropOp49
 70
     1
102
RTVSPost2010Prop50
 90
       50
102
RTVSPost2010PropOp50
 70
     1
102
RTVSPost2010Prop51ColorIndex
 90
      256
102
RTVSPost2010Prop51ColorRGB
 90
-16777216
102
RTVSPost2010PropOp51
 70
     0
102
RTVSPost2010Prop52
140
1.0
102
RTVSPost2010PropOp52
 70
     0
102
RTVSPost2010Prop53
 90
        2
102
RTVSPost2010PropOp53
 70
     1
102
RTVSPost2010Prop54
  1
strokes_ogs.tif
102
RTVSPost2010PropOp54
 70
     1
102
RTVSPost2010Prop55
280
     0
102
RTVSPost2010PropOp55
 70
     1
102
RTVSPost2010Prop56
140
1.0
102
RTVSPost2010PropOp56
 70
     1
102
RTVSPost2010Prop57
140
1.0
102
RTVSPost2010PropOp57
 70
     1
102
RTVSPropertyOp0
 70
     1
102
RTVSPropertyOp1
 70
     1
102
RTVSPropertyOp2
 70
     1
102
RTVSPropertyOp3
 70
     1
102
RTVSPropertyOp4
 70
     1
102
RTVSPropertyOp5
 70
     1
102
RTVSPropertyOp6
 70
     1
102
RTVSPropertyOp7
 70
     1
102
RTVSPropertyOp8
 70
     1
102
RTVSPropertyOp9
 70
     1
102
RTVSPropertyOp10
 70
     1
102
RTVSPropertyOp11
 70
     1
102
RTVSPropertyOp12
 70
     1
102
RTVSPropertyOp13
 70
     1
102
RTVSPropertyOp14
 70
     1
102
RTVSPropertyOp15
 70
     1
102
RTVSPropertyOp16
 70
     1
102
RTVSPropertyOp17
 70
     1
102
RTVSPropertyOp18
 70
     1
102
RTVSPropertyOp19
 70
     1
102
RTVSPropertyOp20
 70
     1
102
RTVSPropertyOp21
 70
     1
102
RTVSPropertyOp22
 70
     1
102
RTVSPropertyOp23
 70
     1
102
RTVSPropertyOp24
 70
     1
102
RTVSPropertyOp25
 70
     1
102
RTVSPropertyOp26
 70
     1
102
RTVSPropertyOp27
 70
     1
102
RTVSPropertyOp28
 70
     1
102
RTVSPropertyOp29
 70
     1
102
RTVSPropertyOp30
 70
     1
102
RTVSPropertyOp31
 70
     1
102
RTVSPropertyOp32
 70
     1
102
RTVSPropertyOp33
 70
     1
102
RTVSPropertyOp34
 70
     1
102
RTVSPropertyOp35
 70
     1
102
RTVSPropertyOp36
 70
     1
102
RTVSPropertyOp37
 70
     1
102
RTVSPropertyOp38
 70
     1
102
RTVSPropertyOp39
 70
     1
102
RTVSPropertyOp40
 70
     1
102
RTVSPropertyOp41
 70
     1
102
RTVSPropertyOp42
 70
     1
102
RTVSPropertyOp43
 70
     1
102
RTVSPropertyOp44
 70
     1
102
RTVSPropertyOp45
 70
     1
102
RTVSPropertyOp46
 70
     1
102
RTVSPropertyOp47
 70
     1
102
RTVSPropertyOp48
 70
     1
102
RTVSPropertyOp49
 70
     1
102
RTVSPropertyOp50
 70
     1
102
RTVSPropertyOp51
 70
     0
102
RTVSPropertyOp52
 70
     0
102
RTVSPropertyOp53
 70
     1
102
RTVSPropertyOp54
 70
     1
102
RTVSPropertyOp55
 70
     1
102
RTVSPropertyOp56
 70
     1
102
RTVSPropertyOp57
 70
     1
102
RTVSPropertyOp58
 70
     1
102
RTVSPropertyOp59
 70
     1
102
RTVSPropertyOp60
 70
     1
102
RTVSPropertyOp61
 70
     1
102
RTVSPropertyOp62
 70
     1
  0
XRECORD
  5
84E7
102
{ACAD_REACTORS
330
84E6
102
}
330
84E6
100
AcDbXrecord
280
     1
102
RTVSPost2010Prop28
280
     0
102
RTVSPost2010PropOp28
 70
     1
102
RTVSPost2010Prop29
280
     1
102
RTVSPost2010PropOp29
 70
     1
102
RTVSPost2010Prop30
280
     1
102
RTVSPost2010PropOp30
 70
     1
102
RTVSPost2010Prop31
280
     0
102
RTVSPost2010PropOp31
 70
     1
102
RTVSPost2010Prop32
280
     0
102
RTVSPost2010PropOp32
 70
     1
102
RTVSPost2010Prop33
280
     0
102
RTVSPost2010PropOp33
 70
     1
102
RTVSPost2010Prop34
280
     0
102
RTVSPost2010PropOp34
 70
     1
102
RTVSPost2010Prop35
280
     0
102
RTVSPost2010PropOp35
 70
     1
102
RTVSPost2010Prop36
280
     0
102
RTVSPost2010PropOp36
 70
     1
102
RTVSPost2010Prop37
 90
       50
102
RTVSPost2010PropOp37
 70
     1
102
RTVSPost2010Prop38
140
0.0
102
RTVSPost2010PropOp38
 70
     1
102
RTVSPost2010Prop39
140
1.0
102
RTVSPost2010PropOp39
 70
     1
102
RTVSPost2010Prop40
 90
        0
102
RTVSPost2010PropOp40
 70
     1
102
RTVSPost2010Prop41ColorIndex
 90
       18
102
RTVSPost2010Prop41ColorRGB
 90
        0
102
RTVSPost2010PropOp41
 70
     1
102
RTVSPost2010Prop42
 90
       50
102
RTVSPost2010PropOp42
 70
     1
102
RTVSPost2010Prop43
 90
        3
102
RTVSPost2010PropOp43
 70
     1
102
RTVSPost2010Prop44ColorIndex
 90
        5
102
RTVSPost2010Prop44ColorRGB
 90
      255
102
RTVSPost2010PropOp44
 70
     1
102
RTVSPost2010Prop45
280
     0
102
RTVSPost2010PropOp45
 70
     1
102
RTVSPost2010Prop46
 90
       50
102
RTVSPost2010PropOp46
 70
     1
102
RTVSPost2010Prop47
 90
       50
102
RTVSPost2010PropOp47
 70
     1
102
RTVSPost2010Prop48
 90
       50
102
RTVSPost2010PropOp48
 70
     1
102
RTVSPost2010Prop49
280
     0
102
RTVSPost2010PropOp49
 70
     1
102
RTVSPost2010Prop50
 90
       50
102
RTVSPost2010PropOp50
 70
     1
102
RTVSPost2010Prop51ColorIndex
 90
      256
102
RTVSPost2010Prop51ColorRGB
 90
-16777216
102
RTVSPost2010PropOp51
 70
     0
102
RTVSPost2010Prop52
140
1.0
102
RTVSPost2010PropOp52
 70
     0
102
RTVSPost2010Prop53
 90
        2
102
RTVSPost2010PropOp53
 70
     1
102
RTVSPost2010Prop54
  1
strokes_ogs.tif
102
RTVSPost2010PropOp54
 70
     1
102
RTVSPost2010Prop55
280
     0
102
RTVSPost2010PropOp55
 70
     1
102
RTVSPost2010Prop56
140
1.0
102
RTVSPost2010PropOp56
 70
     1
102
RTVSPost2010Prop57
140
1.0
102
RTVSPost2010PropOp57
 70
     1
102
RTVSPropertyOp0
 70
     1
102
RTVSPropertyOp1
 70
     1
102
RTVSPropertyOp2
 70
     1
102
RTVSPropertyOp3
 70
     1
102
RTVSPropertyOp4
 70
     1
102
RTVSPropertyOp5
 70
     1
102
RTVSPropertyOp6
 70
     1
102
RTVSPropertyOp7
 70
     1
102
RTVSPropertyOp8
 70
     1
102
RTVSPropertyOp9
 70
     1
102
RTVSPropertyOp10
 70
     1
102
RTVSPropertyOp11
 70
     1
102
RTVSPropertyOp12
 70
     1
102
RTVSPropertyOp13
 70
     1
102
RTVSPropertyOp14
 70
     1
102
RTVSPropertyOp15
 70
     1
102
RTVSPropertyOp16
 70
     1
102
RTVSPropertyOp17
 70
     1
102
RTVSPropertyOp18
 70
     1
102
RTVSPropertyOp19
 70
     1
102
RTVSPropertyOp20
 70
     1
102
RTVSPropertyOp21
 70
     1
102
RTVSPropertyOp22
 70
     1
102
RTVSPropertyOp23
 70
     1
102
RTVSPropertyOp24
 70
     1
102
RTVSPropertyOp25
 70
     1
102
RTVSPropertyOp26
 70
     1
102
RTVSPropertyOp27
 70
     1
102
RTVSPropertyOp28
 70
     1
102
RTVSPropertyOp29
 70
     1
102
RTVSPropertyOp30
 70
     1
102
RTVSPropertyOp31
 70
     1
102
RTVSPropertyOp32
 70
     1
102
RTVSPropertyOp33
 70
     1
102
RTVSPropertyOp34
 70
     1
102
RTVSPropertyOp35
 70
     1
102
RTVSPropertyOp36
 70
     1
102
RTVSPropertyOp37
 70
     1
102
RTVSPropertyOp38
 70
     1
102
RTVSPropertyOp39
 70
     1
102
RTVSPropertyOp40
 70
     1
102
RTVSPropertyOp41
 70
     1
102
RTVSPropertyOp42
 70
     1
102
RTVSPropertyOp43
 70
     1
102
RTVSPropertyOp44
 70
     1
102
RTVSPropertyOp45
 70
     1
102
RTVSPropertyOp46
 70
     1
102
RTVSPropertyOp47
 70
     1
102
RTVSPropertyOp48
 70
     1
102
RTVSPropertyOp49
 70
     1
102
RTVSPropertyOp50
 70
     1
102
RTVSPropertyOp51
 70
     0
102
RTVSPropertyOp52
 70
     0
102
RTVSPropertyOp53
 70
     1
102
RTVSPropertyOp54
 70
     1
102
RTVSPropertyOp55
 70
     1
102
RTVSPropertyOp56
 70
     1
102
RTVSPropertyOp57
 70
     1
102
RTVSPropertyOp58
 70
     1
102
RTVSPropertyOp59
 70
     1
102
RTVSPropertyOp60
 70
     1
102
RTVSPropertyOp61
 70
     1
102
RTVSPropertyOp62
 70
     1
  0
XRECORD
  5
8503
102
{ACAD_REACTORS
330
8502
102
}
330
8502
100
AcDbXrecord
280
     1
102
RTVSPost2010Prop28
280
     0
102
RTVSPost2010PropOp28
 70
     1
102
RTVSPost2010Prop29
280
     1
102
RTVSPost2010PropOp29
 70
     1
102
RTVSPost2010Prop30
280
     1
102
RTVSPost2010PropOp30
 70
     1
102
RTVSPost2010Prop31
280
     0
102
RTVSPost2010PropOp31
 70
     1
102
RTVSPost2010Prop32
280
     0
102
RTVSPost2010PropOp32
 70
     1
102
RTVSPost2010Prop33
280
     0
102
RTVSPost2010PropOp33
 70
     1
102
RTVSPost2010Prop34
280
     0
102
RTVSPost2010PropOp34
 70
     1
102
RTVSPost2010Prop35
280
     0
102
RTVSPost2010PropOp35
 70
     1
102
RTVSPost2010Prop36
280
     0
102
RTVSPost2010PropOp36
 70
     1
102
RTVSPost2010Prop37
 90
       50
102
RTVSPost2010PropOp37
 70
     0
102
RTVSPost2010Prop38
140
0.0
102
RTVSPost2010PropOp38
 70
     0
102
RTVSPost2010Prop39
140
1.0
102
RTVSPost2010PropOp39
 70
     0
102
RTVSPost2010Prop40
 90
        0
102
RTVSPost2010PropOp40
 70
     0
102
RTVSPost2010Prop41ColorIndex
 90
       18
102
RTVSPost2010Prop41ColorRGB
 90
        0
102
RTVSPost2010PropOp41
 70
     0
102
RTVSPost2010Prop42
 90
       50
102
RTVSPost2010PropOp42
 70
     0
102
RTVSPost2010Prop43
 90
        3
102
RTVSPost2010PropOp43
 70
     0
102
RTVSPost2010Prop44ColorIndex
 90
        5
102
RTVSPost2010Prop44ColorRGB
 90
      255
102
RTVSPost2010PropOp44
 70
     0
102
RTVSPost2010Prop45
280
     0
102
RTVSPost2010PropOp45
 70
     1
102
RTVSPost2010Prop46
 90
       50
102
RTVSPost2010PropOp46
 70
     0
102
RTVSPost2010Prop47
 90
       50
102
RTVSPost2010PropOp47
 70
     0
102
RTVSPost2010Prop48
 90
       50
102
RTVSPost2010PropOp48
 70
     0
102
RTVSPost2010Prop49
280
     0
102
RTVSPost2010PropOp49
 70
     1
102
RTVSPost2010Prop50
 90
       50
102
RTVSPost2010PropOp50
 70
     0
102
RTVSPost2010Prop51ColorIndex
 90
      256
102
RTVSPost2010Prop51ColorRGB
 90
-16777216
102
RTVSPost2010PropOp51
 70
     0
102
RTVSPost2010Prop52
140
1.0
102
RTVSPost2010PropOp52
 70
     0
102
RTVSPost2010Prop53
 90
        2
102
RTVSPost2010PropOp53
 70
     0
102
RTVSPost2010Prop54
  1
strokes_ogs.tif
102
RTVSPost2010PropOp54
 70
     0
102
RTVSPost2010Prop55
280
     0
102
RTVSPost2010PropOp55
 70
     1
102
RTVSPost2010Prop56
140
1.0
102
RTVSPost2010PropOp56
 70
     0
102
RTVSPost2010Prop57
140
1.0
102
RTVSPost2010PropOp57
 70
     0
102
RTVSPropertyOp0
 70
     0
102
RTVSPropertyOp1
 70
     0
102
RTVSPropertyOp2
 70
     0
102
RTVSPropertyOp3
 70
     0
102
RTVSPropertyOp4
 70
     0
102
RTVSPropertyOp5
 70
     0
102
RTVSPropertyOp6
 70
     0
102
RTVSPropertyOp7
 70
     0
102
RTVSPropertyOp8
 70
     0
102
RTVSPropertyOp9
 70
     0
102
RTVSPropertyOp10
 70
     0
102
RTVSPropertyOp11
 70
     0
102
RTVSPropertyOp12
 70
     0
102
RTVSPropertyOp13
 70
     0
102
RTVSPropertyOp14
 70
     2
102
RTVSPropertyOp15
 70
     0
102
RTVSPropertyOp16
 70
     0
102
RTVSPropertyOp17
 70
     0
102
RTVSPropertyOp18
 70
     0
102
RTVSPropertyOp19
 70
     0
102
RTVSPropertyOp20
 70
     0
102
RTVSPropertyOp21
 70
     0
102
RTVSPropertyOp22
 70
     0
102
RTVSPropertyOp23
 70
     0
102
RTVSPropertyOp24
 70
     0
102
RTVSPropertyOp25
 70
     0
102
RTVSPropertyOp26
 70
     0
102
RTVSPropertyOp27
 70
     0
102
RTVSPropertyOp28
 70
     1
102
RTVSPropertyOp29
 70
     1
102
RTVSPropertyOp30
 70
     1
102
RTVSPropertyOp31
 70
     1
102
RTVSPropertyOp32
 70
     1
102
RTVSPropertyOp33
 70
     1
102
RTVSPropertyOp34
 70
     1
102
RTVSPropertyOp35
 70
     1
102
RTVSPropertyOp36
 70
     1
102
RTVSPropertyOp37
 70
     0
102
RTVSPropertyOp38
 70
     0
102
RTVSPropertyOp39
 70
     0
102
RTVSPropertyOp40
 70
     0
102
RTVSPropertyOp41
 70
     0
102
RTVSPropertyOp42
 70
     0
102
RTVSPropertyOp43
 70
     0
102
RTVSPropertyOp44
 70
     0
102
RTVSPropertyOp45
 70
     1
102
RTVSPropertyOp46
 70
     0
102
RTVSPropertyOp47
 70
     0
102
RTVSPropertyOp48
 70
     0
102
RTVSPropertyOp49
 70
     1
102
RTVSPropertyOp50
 70
     0
102
RTVSPropertyOp51
 70
     0
102
RTVSPropertyOp52
 70
     0
102
RTVSPropertyOp53
 70
     0
102
RTVSPropertyOp54
 70
     0
102
RTVSPropertyOp55
 70
     1
102
RTVSPropertyOp56
 70
     0
102
RTVSPropertyOp57
 70
     0
102
RTVSPropertyOp58
 70
     0
102
RTVSPropertyOp59
 70
     0
102
RTVSPropertyOp60
 70
     0
102
RTVSPropertyOp61
 70
     0
102
RTVSPropertyOp62
 70
     0
  0
XRECORD
  5
84F3
102
{ACAD_REACTORS
330
84F2
102
}
330
84F2
100
AcDbXrecord
280
     1
102
RTVSPost2010Prop28
280
     0
102
RTVSPost2010PropOp28
 70
     1
102
RTVSPost2010Prop29
280
     1
102
RTVSPost2010PropOp29
 70
     1
102
RTVSPost2010Prop30
280
     1
102
RTVSPost2010PropOp30
 70
     1
102
RTVSPost2010Prop31
280
     0
102
RTVSPost2010PropOp31
 70
     1
102
RTVSPost2010Prop32
280
     0
102
RTVSPost2010PropOp32
 70
     1
102
RTVSPost2010Prop33
280
     0
102
RTVSPost2010PropOp33
 70
     1
102
RTVSPost2010Prop34
280
     0
102
RTVSPost2010PropOp34
 70
     1
102
RTVSPost2010Prop35
280
     0
102
RTVSPost2010PropOp35
 70
     1
102
RTVSPost2010Prop36
280
     0
102
RTVSPost2010PropOp36
 70
     1
102
RTVSPost2010Prop37
 90
       50
102
RTVSPost2010PropOp37
 70
     1
102
RTVSPost2010Prop38
140
0.0
102
RTVSPost2010PropOp38
 70
     1
102
RTVSPost2010Prop39
140
1.0
102
RTVSPost2010PropOp39
 70
     1
102
RTVSPost2010Prop40
 90
        0
102
RTVSPost2010PropOp40
 70
     1
102
RTVSPost2010Prop41ColorIndex
 90
       18
102
RTVSPost2010Prop41ColorRGB
 90
        0
102
RTVSPost2010PropOp41
 70
     1
102
RTVSPost2010Prop42
 90
       50
102
RTVSPost2010PropOp42
 70
     1
102
RTVSPost2010Prop43
 90
        3
102
RTVSPost2010PropOp43
 70
     1
102
RTVSPost2010Prop44ColorIndex
 90
        5
102
RTVSPost2010Prop44ColorRGB
 90
      255
102
RTVSPost2010PropOp44
 70
     1
102
RTVSPost2010Prop45
280
     0
102
RTVSPost2010PropOp45
 70
     1
102
RTVSPost2010Prop46
 90
       50
102
RTVSPost2010PropOp46
 70
     1
102
RTVSPost2010Prop47
 90
       50
102
RTVSPost2010PropOp47
 70
     1
102
RTVSPost2010Prop48
 90
       50
102
RTVSPost2010PropOp48
 70
     1
102
RTVSPost2010Prop49
280
     0
102
RTVSPost2010PropOp49
 70
     1
102
RTVSPost2010Prop50
 90
       50
102
RTVSPost2010PropOp50
 70
     1
102
RTVSPost2010Prop51ColorIndex
 90
      256
102
RTVSPost2010Prop51ColorRGB
 90
-16777216
102
RTVSPost2010PropOp51
 70
     0
102
RTVSPost2010Prop52
140
1.0
102
RTVSPost2010PropOp52
 70
     0
102
RTVSPost2010Prop53
 90
        2
102
RTVSPost2010PropOp53
 70
     1
102
RTVSPost2010Prop54
  1
strokes_ogs.tif
102
RTVSPost2010PropOp54
 70
     1
102
RTVSPost2010Prop55
280
     0
102
RTVSPost2010PropOp55
 70
     1
102
RTVSPost2010Prop56
140
1.0
102
RTVSPost2010PropOp56
 70
     1
102
RTVSPost2010Prop57
140
1.0
102
RTVSPost2010PropOp57
 70
     1
102
RTVSPropertyOp0
 70
     1
102
RTVSPropertyOp1
 70
     1
102
RTVSPropertyOp2
 70
     1
102
RTVSPropertyOp3
 70
     1
102
RTVSPropertyOp4
 70
     1
102
RTVSPropertyOp5
 70
     1
102
RTVSPropertyOp6
 70
     1
102
RTVSPropertyOp7
 70
     1
102
RTVSPropertyOp8
 70
     1
102
RTVSPropertyOp9
 70
     1
102
RTVSPropertyOp10
 70
     1
102
RTVSPropertyOp11
 70
     1
102
RTVSPropertyOp12
 70
     1
102
RTVSPropertyOp13
 70
     1
102
RTVSPropertyOp14
 70
     1
102
RTVSPropertyOp15
 70
     1
102
RTVSPropertyOp16
 70
     1
102
RTVSPropertyOp17
 70
     1
102
RTVSPropertyOp18
 70
     1
102
RTVSPropertyOp19
 70
     1
102
RTVSPropertyOp20
 70
     1
102
RTVSPropertyOp21
 70
     1
102
RTVSPropertyOp22
 70
     1
102
RTVSPropertyOp23
 70
     1
102
RTVSPropertyOp24
 70
     1
102
RTVSPropertyOp25
 70
     1
102
RTVSPropertyOp26
 70
     1
102
RTVSPropertyOp27
 70
     1
102
RTVSPropertyOp28
 70
     1
102
RTVSPropertyOp29
 70
     1
102
RTVSPropertyOp30
 70
     1
102
RTVSPropertyOp31
 70
     1
102
RTVSPropertyOp32
 70
     1
102
RTVSPropertyOp33
 70
     1
102
RTVSPropertyOp34
 70
     1
102
RTVSPropertyOp35
 70
     1
102
RTVSPropertyOp36
 70
     1
102
RTVSPropertyOp37
 70
     1
102
RTVSPropertyOp38
 70
     1
102
RTVSPropertyOp39
 70
     1
102
RTVSPropertyOp40
 70
     1
102
RTVSPropertyOp41
 70
     1
102
RTVSPropertyOp42
 70
     1
102
RTVSPropertyOp43
 70
     1
102
RTVSPropertyOp44
 70
     1
102
RTVSPropertyOp45
 70
     1
102
RTVSPropertyOp46
 70
     1
102
RTVSPropertyOp47
 70
     1
102
RTVSPropertyOp48
 70
     1
102
RTVSPropertyOp49
 70
     1
102
RTVSPropertyOp50
 70
     1
102
RTVSPropertyOp51
 70
     0
102
RTVSPropertyOp52
 70
     0
102
RTVSPropertyOp53
 70
     1
102
RTVSPropertyOp54
 70
     1
102
RTVSPropertyOp55
 70
     1
102
RTVSPropertyOp56
 70
     1
102
RTVSPropertyOp57
 70
     1
102
RTVSPropertyOp58
 70
     1
102
RTVSPropertyOp59
 70
     1
102
RTVSPropertyOp60
 70
     1
102
RTVSPropertyOp61
 70
     1
102
RTVSPropertyOp62
 70
     1
  0
XRECORD
  5
8505
102
{ACAD_REACTORS
330
8504
102
}
330
8504
100
AcDbXrecord
280
     1
102
RTVSPost2010Prop28
280
     0
102
RTVSPost2010PropOp28
 70
     1
102
RTVSPost2010Prop29
280
     1
102
RTVSPost2010PropOp29
 70
     1
102
RTVSPost2010Prop30
280
     1
102
RTVSPost2010PropOp30
 70
     1
102
RTVSPost2010Prop31
280
     0
102
RTVSPost2010PropOp31
 70
     1
102
RTVSPost2010Prop32
280
     0
102
RTVSPost2010PropOp32
 70
     1
102
RTVSPost2010Prop33
280
     0
102
RTVSPost2010PropOp33
 70
     1
102
RTVSPost2010Prop34
280
     0
102
RTVSPost2010PropOp34
 70
     1
102
RTVSPost2010Prop35
280
     0
102
RTVSPost2010PropOp35
 70
     1
102
RTVSPost2010Prop36
280
     0
102
RTVSPost2010PropOp36
 70
     1
102
RTVSPost2010Prop37
 90
       50
102
RTVSPost2010PropOp37
 70
     0
102
RTVSPost2010Prop38
140
0.0
102
RTVSPost2010PropOp38
 70
     0
102
RTVSPost2010Prop39
140
1.0
102
RTVSPost2010PropOp39
 70
     0
102
RTVSPost2010Prop40
 90
        0
102
RTVSPost2010PropOp40
 70
     0
102
RTVSPost2010Prop41ColorIndex
 90
       18
102
RTVSPost2010Prop41ColorRGB
 90
        0
102
RTVSPost2010PropOp41
 70
     0
102
RTVSPost2010Prop42
 90
       50
102
RTVSPost2010PropOp42
 70
     0
102
RTVSPost2010Prop43
 90
        3
102
RTVSPost2010PropOp43
 70
     0
102
RTVSPost2010Prop44ColorIndex
 90
        5
102
RTVSPost2010Prop44ColorRGB
 90
      255
102
RTVSPost2010PropOp44
 70
     0
102
RTVSPost2010Prop45
280
     0
102
RTVSPost2010PropOp45
 70
     1
102
RTVSPost2010Prop46
 90
       50
102
RTVSPost2010PropOp46
 70
     0
102
RTVSPost2010Prop47
 90
       50
102
RTVSPost2010PropOp47
 70
     0
102
RTVSPost2010Prop48
 90
       50
102
RTVSPost2010PropOp48
 70
     0
102
RTVSPost2010Prop49
280
     0
102
RTVSPost2010PropOp49
 70
     1
102
RTVSPost2010Prop50
 90
       50
102
RTVSPost2010PropOp50
 70
     0
102
RTVSPost2010Prop51ColorIndex
 90
      256
102
RTVSPost2010Prop51ColorRGB
 90
-16777216
102
RTVSPost2010PropOp51
 70
     0
102
RTVSPost2010Prop52
140
1.0
102
RTVSPost2010PropOp52
 70
     0
102
RTVSPost2010Prop53
 90
        2
102
RTVSPost2010PropOp53
 70
     0
102
RTVSPost2010Prop54
  1
strokes_ogs.tif
102
RTVSPost2010PropOp54
 70
     0
102
RTVSPost2010Prop55
280
     0
102
RTVSPost2010PropOp55
 70
     1
102
RTVSPost2010Prop56
140
1.0
102
RTVSPost2010PropOp56
 70
     0
102
RTVSPost2010Prop57
140
1.0
102
RTVSPost2010PropOp57
 70
     0
102
RTVSPropertyOp0
 70
     0
102
RTVSPropertyOp1
 70
     0
102
RTVSPropertyOp2
 70
     0
102
RTVSPropertyOp3
 70
     0
102
RTVSPropertyOp4
 70
     0
102
RTVSPropertyOp5
 70
     0
102
RTVSPropertyOp6
 70
     0
102
RTVSPropertyOp7
 70
     0
102
RTVSPropertyOp8
 70
     0
102
RTVSPropertyOp9
 70
     0
102
RTVSPropertyOp10
 70
     0
102
RTVSPropertyOp11
 70
     0
102
RTVSPropertyOp12
 70
     0
102
RTVSPropertyOp13
 70
     0
102
RTVSPropertyOp14
 70
     2
102
RTVSPropertyOp15
 70
     0
102
RTVSPropertyOp16
 70
     0
102
RTVSPropertyOp17
 70
     0
102
RTVSPropertyOp18
 70
     0
102
RTVSPropertyOp19
 70
     0
102
RTVSPropertyOp20
 70
     0
102
RTVSPropertyOp21
 70
     0
102
RTVSPropertyOp22
 70
     0
102
RTVSPropertyOp23
 70
     0
102
RTVSPropertyOp24
 70
     0
102
RTVSPropertyOp25
 70
     0
102
RTVSPropertyOp26
 70
     0
102
RTVSPropertyOp27
 70
     0
102
RTVSPropertyOp28
 70
     1
102
RTVSPropertyOp29
 70
     1
102
RTVSPropertyOp30
 70
     1
102
RTVSPropertyOp31
 70
     1
102
RTVSPropertyOp32
 70
     1
102
RTVSPropertyOp33
 70
     1
102
RTVSPropertyOp34
 70
     1
102
RTVSPropertyOp35
 70
     1
102
RTVSPropertyOp36
 70
     1
102
RTVSPropertyOp37
 70
     0
102
RTVSPropertyOp38
 70
     0
102
RTVSPropertyOp39
 70
     0
102
RTVSPropertyOp40
 70
     0
102
RTVSPropertyOp41
 70
     0
102
RTVSPropertyOp42
 70
     0
102
RTVSPropertyOp43
 70
     0
102
RTVSPropertyOp44
 70
     0
102
RTVSPropertyOp45
 70
     1
102
RTVSPropertyOp46
 70
     0
102
RTVSPropertyOp47
 70
     0
102
RTVSPropertyOp48
 70
     0
102
RTVSPropertyOp49
 70
     1
102
RTVSPropertyOp50
 70
     0
102
RTVSPropertyOp51
 70
     0
102
RTVSPropertyOp52
 70
     0
102
RTVSPropertyOp53
 70
     0
102
RTVSPropertyOp54
 70
     0
102
RTVSPropertyOp55
 70
     1
102
RTVSPropertyOp56
 70
     0
102
RTVSPropertyOp57
 70
     0
102
RTVSPropertyOp58
 70
     0
102
RTVSPropertyOp59
 70
     0
102
RTVSPropertyOp60
 70
     0
102
RTVSPropertyOp61
 70
     0
102
RTVSPropertyOp62
 70
     0
  0
XRECORD
  5
84EB
102
{ACAD_REACTORS
330
84EA
102
}
330
84EA
100
AcDbXrecord
280
     1
102
RTVSPost2010Prop28
280
     0
102
RTVSPost2010PropOp28
 70
     1
102
RTVSPost2010Prop29
280
     1
102
RTVSPost2010PropOp29
 70
     1
102
RTVSPost2010Prop30
280
     1
102
RTVSPost2010PropOp30
 70
     1
102
RTVSPost2010Prop31
280
     0
102
RTVSPost2010PropOp31
 70
     1
102
RTVSPost2010Prop32
280
     0
102
RTVSPost2010PropOp32
 70
     1
102
RTVSPost2010Prop33
280
     0
102
RTVSPost2010PropOp33
 70
     1
102
RTVSPost2010Prop34
280
     0
102
RTVSPost2010PropOp34
 70
     1
102
RTVSPost2010Prop35
280
     0
102
RTVSPost2010PropOp35
 70
     1
102
RTVSPost2010Prop36
280
     0
102
RTVSPost2010PropOp36
 70
     1
102
RTVSPost2010Prop37
 90
       50
102
RTVSPost2010PropOp37
 70
     1
102
RTVSPost2010Prop38
140
0.0
102
RTVSPost2010PropOp38
 70
     1
102
RTVSPost2010Prop39
140
1.0
102
RTVSPost2010PropOp39
 70
     1
102
RTVSPost2010Prop40
 90
        0
102
RTVSPost2010PropOp40
 70
     1
102
RTVSPost2010Prop41ColorIndex
 90
       18
102
RTVSPost2010Prop41ColorRGB
 90
        0
102
RTVSPost2010PropOp41
 70
     1
102
RTVSPost2010Prop42
 90
       50
102
RTVSPost2010PropOp42
 70
     1
102
RTVSPost2010Prop43
 90
        3
102
RTVSPost2010PropOp43
 70
     1
102
RTVSPost2010Prop44ColorIndex
 90
        5
102
RTVSPost2010Prop44ColorRGB
 90
      255
102
RTVSPost2010PropOp44
 70
     1
102
RTVSPost2010Prop45
280
     0
102
RTVSPost2010PropOp45
 70
     1
102
RTVSPost2010Prop46
 90
       50
102
RTVSPost2010PropOp46
 70
     1
102
RTVSPost2010Prop47
 90
       50
102
RTVSPost2010PropOp47
 70
     1
102
RTVSPost2010Prop48
 90
       50
102
RTVSPost2010PropOp48
 70
     1
102
RTVSPost2010Prop49
280
     0
102
RTVSPost2010PropOp49
 70
     1
102
RTVSPost2010Prop50
 90
       50
102
RTVSPost2010PropOp50
 70
     1
102
RTVSPost2010Prop51ColorIndex
 90
      256
102
RTVSPost2010Prop51ColorRGB
 90
-16777216
102
RTVSPost2010PropOp51
 70
     0
102
RTVSPost2010Prop52
140
1.0
102
RTVSPost2010PropOp52
 70
     0
102
RTVSPost2010Prop53
 90
        2
102
RTVSPost2010PropOp53
 70
     1
102
RTVSPost2010Prop54
  1
strokes_ogs.tif
102
RTVSPost2010PropOp54
 70
     1
102
RTVSPost2010Prop55
280
     0
102
RTVSPost2010PropOp55
 70
     1
102
RTVSPost2010Prop56
140
1.0
102
RTVSPost2010PropOp56
 70
     1
102
RTVSPost2010Prop57
140
1.0
102
RTVSPost2010PropOp57
 70
     1
102
RTVSPropertyOp0
 70
     1
102
RTVSPropertyOp1
 70
     1
102
RTVSPropertyOp2
 70
     1
102
RTVSPropertyOp3
 70
     1
102
RTVSPropertyOp4
 70
     1
102
RTVSPropertyOp5
 70
     1
102
RTVSPropertyOp6
 70
     1
102
RTVSPropertyOp7
 70
     1
102
RTVSPropertyOp8
 70
     1
102
RTVSPropertyOp9
 70
     1
102
RTVSPropertyOp10
 70
     1
102
RTVSPropertyOp11
 70
     1
102
RTVSPropertyOp12
 70
     1
102
RTVSPropertyOp13
 70
     1
102
RTVSPropertyOp14
 70
     1
102
RTVSPropertyOp15
 70
     1
102
RTVSPropertyOp16
 70
     1
102
RTVSPropertyOp17
 70
     1
102
RTVSPropertyOp18
 70
     1
102
RTVSPropertyOp19
 70
     1
102
RTVSPropertyOp20
 70
     1
102
RTVSPropertyOp21
 70
     1
102
RTVSPropertyOp22
 70
     1
102
RTVSPropertyOp23
 70
     1
102
RTVSPropertyOp24
 70
     1
102
RTVSPropertyOp25
 70
     1
102
RTVSPropertyOp26
 70
     1
102
RTVSPropertyOp27
 70
     1
102
RTVSPropertyOp28
 70
     1
102
RTVSPropertyOp29
 70
     1
102
RTVSPropertyOp30
 70
     1
102
RTVSPropertyOp31
 70
     1
102
RTVSPropertyOp32
 70
     1
102
RTVSPropertyOp33
 70
     1
102
RTVSPropertyOp34
 70
     1
102
RTVSPropertyOp35
 70
     1
102
RTVSPropertyOp36
 70
     1
102
RTVSPropertyOp37
 70
     1
102
RTVSPropertyOp38
 70
     1
102
RTVSPropertyOp39
 70
     1
102
RTVSPropertyOp40
 70
     1
102
RTVSPropertyOp41
 70
     1
102
RTVSPropertyOp42
 70
     1
102
RTVSPropertyOp43
 70
     1
102
RTVSPropertyOp44
 70
     1
102
RTVSPropertyOp45
 70
     1
102
RTVSPropertyOp46
 70
     1
102
RTVSPropertyOp47
 70
     1
102
RTVSPropertyOp48
 70
     1
102
RTVSPropertyOp49
 70
     1
102
RTVSPropertyOp50
 70
     1
102
RTVSPropertyOp51
 70
     0
102
RTVSPropertyOp52
 70
     0
102
RTVSPropertyOp53
 70
     1
102
RTVSPropertyOp54
 70
     1
102
RTVSPropertyOp55
 70
     1
102
RTVSPropertyOp56
 70
     1
102
RTVSPropertyOp57
 70
     1
102
RTVSPropertyOp58
 70
     1
102
RTVSPropertyOp59
 70
     1
102
RTVSPropertyOp60
 70
     1
102
RTVSPropertyOp61
 70
     1
102
RTVSPropertyOp62
 70
     1
  0
XRECORD
  5
8501
102
{ACAD_REACTORS
330
8500
102
}
330
8500
100
AcDbXrecord
280
     1
102
RTVSPost2010Prop28
280
     0
102
RTVSPost2010PropOp28
 70
     1
102
RTVSPost2010Prop29
280
     1
102
RTVSPost2010PropOp29
 70
     1
102
RTVSPost2010Prop30
280
     1
102
RTVSPost2010PropOp30
 70
     1
102
RTVSPost2010Prop31
280
     0
102
RTVSPost2010PropOp31
 70
     1
102
RTVSPost2010Prop32
280
     0
102
RTVSPost2010PropOp32
 70
     1
102
RTVSPost2010Prop33
280
     0
102
RTVSPost2010PropOp33
 70
     1
102
RTVSPost2010Prop34
280
     0
102
RTVSPost2010PropOp34
 70
     1
102
RTVSPost2010Prop35
280
     0
102
RTVSPost2010PropOp35
 70
     1
102
RTVSPost2010Prop36
280
     0
102
RTVSPost2010PropOp36
 70
     1
102
RTVSPost2010Prop37
 90
       50
102
RTVSPost2010PropOp37
 70
     1
102
RTVSPost2010Prop38
140
0.0
102
RTVSPost2010PropOp38
 70
     1
102
RTVSPost2010Prop39
140
1.0
102
RTVSPost2010PropOp39
 70
     1
102
RTVSPost2010Prop40
 90
        0
102
RTVSPost2010PropOp40
 70
     1
102
RTVSPost2010Prop41ColorIndex
 90
       18
102
RTVSPost2010Prop41ColorRGB
 90
        0
102
RTVSPost2010PropOp41
 70
     1
102
RTVSPost2010Prop42
 90
       50
102
RTVSPost2010PropOp42
 70
     1
102
RTVSPost2010Prop43
 90
        3
102
RTVSPost2010PropOp43
 70
     1
102
RTVSPost2010Prop44ColorIndex
 90
        5
102
RTVSPost2010Prop44ColorRGB
 90
      255
102
RTVSPost2010PropOp44
 70
     1
102
RTVSPost2010Prop45
280
     0
102
RTVSPost2010PropOp45
 70
     1
102
RTVSPost2010Prop46
 90
       50
102
RTVSPost2010PropOp46
 70
     1
102
RTVSPost2010Prop47
 90
       50
102
RTVSPost2010PropOp47
 70
     1
102
RTVSPost2010Prop48
 90
       50
102
RTVSPost2010PropOp48
 70
     1
102
RTVSPost2010Prop49
280
     0
102
RTVSPost2010PropOp49
 70
     1
102
RTVSPost2010Prop50
 90
       50
102
RTVSPost2010PropOp50
 70
     1
102
RTVSPost2010Prop51ColorIndex
 90
      256
102
RTVSPost2010Prop51ColorRGB
 90
-16777216
102
RTVSPost2010PropOp51
 70
     0
102
RTVSPost2010Prop52
140
1.0
102
RTVSPost2010PropOp52
 70
     0
102
RTVSPost2010Prop53
 90
        2
102
RTVSPost2010PropOp53
 70
     1
102
RTVSPost2010Prop54
  1
strokes_ogs.tif
102
RTVSPost2010PropOp54
 70
     1
102
RTVSPost2010Prop55
280
     0
102
RTVSPost2010PropOp55
 70
     1
102
RTVSPost2010Prop56
140
1.0
102
RTVSPost2010PropOp56
 70
     1
102
RTVSPost2010Prop57
140
1.0
102
RTVSPost2010PropOp57
 70
     1
102
RTVSPropertyOp0
 70
     1
102
RTVSPropertyOp1
 70
     1
102
RTVSPropertyOp2
 70
     1
102
RTVSPropertyOp3
 70
     1
102
RTVSPropertyOp4
 70
     1
102
RTVSPropertyOp5
 70
     1
102
RTVSPropertyOp6
 70
     1
102
RTVSPropertyOp7
 70
     1
102
RTVSPropertyOp8
 70
     1
102
RTVSPropertyOp9
 70
     1
102
RTVSPropertyOp10
 70
     1
102
RTVSPropertyOp11
 70
     1
102
RTVSPropertyOp12
 70
     1
102
RTVSPropertyOp13
 70
     1
102
RTVSPropertyOp14
 70
     1
102
RTVSPropertyOp15
 70
     1
102
RTVSPropertyOp16
 70
     1
102
RTVSPropertyOp17
 70
     1
102
RTVSPropertyOp18
 70
     1
102
RTVSPropertyOp19
 70
     1
102
RTVSPropertyOp20
 70
     1
102
RTVSPropertyOp21
 70
     1
102
RTVSPropertyOp22
 70
     1
102
RTVSPropertyOp23
 70
     1
102
RTVSPropertyOp24
 70
     1
102
RTVSPropertyOp25
 70
     1
102
RTVSPropertyOp26
 70
     1
102
RTVSPropertyOp27
 70
     1
102
RTVSPropertyOp28
 70
     1
102
RTVSPropertyOp29
 70
     1
102
RTVSPropertyOp30
 70
     1
102
RTVSPropertyOp31
 70
     1
102
RTVSPropertyOp32
 70
     1
102
RTVSPropertyOp33
 70
     1
102
RTVSPropertyOp34
 70
     1
102
RTVSPropertyOp35
 70
     1
102
RTVSPropertyOp36
 70
     1
102
RTVSPropertyOp37
 70
     1
102
RTVSPropertyOp38
 70
     1
102
RTVSPropertyOp39
 70
     1
102
RTVSPropertyOp40
 70
     1
102
RTVSPropertyOp41
 70
     1
102
RTVSPropertyOp42
 70
     1
102
RTVSPropertyOp43
 70
     1
102
RTVSPropertyOp44
 70
     1
102
RTVSPropertyOp45
 70
     1
102
RTVSPropertyOp46
 70
     1
102
RTVSPropertyOp47
 70
     1
102
RTVSPropertyOp48
 70
     1
102
RTVSPropertyOp49
 70
     1
102
RTVSPropertyOp50
 70
     1
102
RTVSPropertyOp51
 70
     0
102
RTVSPropertyOp52
 70
     0
102
RTVSPropertyOp53
 70
     1
102
RTVSPropertyOp54
 70
     1
102
RTVSPropertyOp55
 70
     1
102
RTVSPropertyOp56
 70
     1
102
RTVSPropertyOp57
 70
     1
102
RTVSPropertyOp58
 70
     1
102
RTVSPropertyOp59
 70
     1
102
RTVSPropertyOp60
 70
     1
102
RTVSPropertyOp61
 70
     1
102
RTVSPropertyOp62
 70
     1
  0
XRECORD
  5
84FF
102
{ACAD_REACTORS
330
84FE
102
}
330
84FE
100
AcDbXrecord
280
     1
102
RTVSPost2010Prop28
280
     0
102
RTVSPost2010PropOp28
 70
     1
102
RTVSPost2010Prop29
280
     1
102
RTVSPost2010PropOp29
 70
     1
102
RTVSPost2010Prop30
280
     1
102
RTVSPost2010PropOp30
 70
     1
102
RTVSPost2010Prop31
280
     0
102
RTVSPost2010PropOp31
 70
     1
102
RTVSPost2010Prop32
280
     0
102
RTVSPost2010PropOp32
 70
     1
102
RTVSPost2010Prop33
280
     0
102
RTVSPost2010PropOp33
 70
     1
102
RTVSPost2010Prop34
280
     0
102
RTVSPost2010PropOp34
 70
     1
102
RTVSPost2010Prop35
280
     0
102
RTVSPost2010PropOp35
 70
     1
102
RTVSPost2010Prop36
280
     0
102
RTVSPost2010PropOp36
 70
     1
102
RTVSPost2010Prop37
 90
       50
102
RTVSPost2010PropOp37
 70
     1
102
RTVSPost2010Prop38
140
0.0
102
RTVSPost2010PropOp38
 70
     1
102
RTVSPost2010Prop39
140
1.0
102
RTVSPost2010PropOp39
 70
     1
102
RTVSPost2010Prop40
 90
        0
102
RTVSPost2010PropOp40
 70
     1
102
RTVSPost2010Prop41ColorIndex
 90
       18
102
RTVSPost2010Prop41ColorRGB
 90
        0
102
RTVSPost2010PropOp41
 70
     1
102
RTVSPost2010Prop42
 90
       50
102
RTVSPost2010PropOp42
 70
     1
102
RTVSPost2010Prop43
 90
        3
102
RTVSPost2010PropOp43
 70
     1
102
RTVSPost2010Prop44ColorIndex
 90
        5
102
RTVSPost2010Prop44ColorRGB
 90
      255
102
RTVSPost2010PropOp44
 70
     1
102
RTVSPost2010Prop45
280
     0
102
RTVSPost2010PropOp45
 70
     1
102
RTVSPost2010Prop46
 90
       50
102
RTVSPost2010PropOp46
 70
     1
102
RTVSPost2010Prop47
 90
       50
102
RTVSPost2010PropOp47
 70
     1
102
RTVSPost2010Prop48
 90
       50
102
RTVSPost2010PropOp48
 70
     1
102
RTVSPost2010Prop49
280
     0
102
RTVSPost2010PropOp49
 70
     1
102
RTVSPost2010Prop50
 90
       50
102
RTVSPost2010PropOp50
 70
     1
102
RTVSPost2010Prop51ColorIndex
 90
      256
102
RTVSPost2010Prop51ColorRGB
 90
-16777216
102
RTVSPost2010PropOp51
 70
     0
102
RTVSPost2010Prop52
140
1.0
102
RTVSPost2010PropOp52
 70
     0
102
RTVSPost2010Prop53
 90
        2
102
RTVSPost2010PropOp53
 70
     1
102
RTVSPost2010Prop54
  1
strokes_ogs.tif
102
RTVSPost2010PropOp54
 70
     1
102
RTVSPost2010Prop55
280
     0
102
RTVSPost2010PropOp55
 70
     1
102
RTVSPost2010Prop56
140
1.0
102
RTVSPost2010PropOp56
 70
     1
102
RTVSPost2010Prop57
140
1.0
102
RTVSPost2010PropOp57
 70
     1
102
RTVSPropertyOp0
 70
     1
102
RTVSPropertyOp1
 70
     1
102
RTVSPropertyOp2
 70
     1
102
RTVSPropertyOp3
 70
     1
102
RTVSPropertyOp4
 70
     1
102
RTVSPropertyOp5
 70
     1
102
RTVSPropertyOp6
 70
     1
102
RTVSPropertyOp7
 70
     1
102
RTVSPropertyOp8
 70
     1
102
RTVSPropertyOp9
 70
     1
102
RTVSPropertyOp10
 70
     1
102
RTVSPropertyOp11
 70
     1
102
RTVSPropertyOp12
 70
     1
102
RTVSPropertyOp13
 70
     1
102
RTVSPropertyOp14
 70
     1
102
RTVSPropertyOp15
 70
     1
102
RTVSPropertyOp16
 70
     1
102
RTVSPropertyOp17
 70
     1
102
RTVSPropertyOp18
 70
     1
102
RTVSPropertyOp19
 70
     1
102
RTVSPropertyOp20
 70
     1
102
RTVSPropertyOp21
 70
     1
102
RTVSPropertyOp22
 70
     1
102
RTVSPropertyOp23
 70
     1
102
RTVSPropertyOp24
 70
     1
102
RTVSPropertyOp25
 70
     1
102
RTVSPropertyOp26
 70
     1
102
RTVSPropertyOp27
 70
     1
102
RTVSPropertyOp28
 70
     1
102
RTVSPropertyOp29
 70
     1
102
RTVSPropertyOp30
 70
     1
102
RTVSPropertyOp31
 70
     1
102
RTVSPropertyOp32
 70
     1
102
RTVSPropertyOp33
 70
     1
102
RTVSPropertyOp34
 70
     1
102
RTVSPropertyOp35
 70
     1
102
RTVSPropertyOp36
 70
     1
102
RTVSPropertyOp37
 70
     1
102
RTVSPropertyOp38
 70
     1
102
RTVSPropertyOp39
 70
     1
102
RTVSPropertyOp40
 70
     1
102
RTVSPropertyOp41
 70
     1
102
RTVSPropertyOp42
 70
     1
102
RTVSPropertyOp43
 70
     1
102
RTVSPropertyOp44
 70
     1
102
RTVSPropertyOp45
 70
     1
102
RTVSPropertyOp46
 70
     1
102
RTVSPropertyOp47
 70
     1
102
RTVSPropertyOp48
 70
     1
102
RTVSPropertyOp49
 70
     1
102
RTVSPropertyOp50
 70
     1
102
RTVSPropertyOp51
 70
     0
102
RTVSPropertyOp52
 70
     0
102
RTVSPropertyOp53
 70
     1
102
RTVSPropertyOp54
 70
     1
102
RTVSPropertyOp55
 70
     1
102
RTVSPropertyOp56
 70
     1
102
RTVSPropertyOp57
 70
     1
102
RTVSPropertyOp58
 70
     1
102
RTVSPropertyOp59
 70
     1
102
RTVSPropertyOp60
 70
     1
102
RTVSPropertyOp61
 70
     1
102
RTVSPropertyOp62
 70
     1
  0
XRECORD
  5
84F9
102
{ACAD_REACTORS
330
84F8
102
}
330
84F8
100
AcDbXrecord
280
     1
102
RTVSPost2010Prop28
280
     0
102
RTVSPost2010PropOp28
 70
     1
102
RTVSPost2010Prop29
280
     1
102
RTVSPost2010PropOp29
 70
     1
102
RTVSPost2010Prop30
280
     1
102
RTVSPost2010PropOp30
 70
     1
102
RTVSPost2010Prop31
280
     0
102
RTVSPost2010PropOp31
 70
     1
102
RTVSPost2010Prop32
280
     0
102
RTVSPost2010PropOp32
 70
     1
102
RTVSPost2010Prop33
280
     0
102
RTVSPost2010PropOp33
 70
     1
102
RTVSPost2010Prop34
280
     0
102
RTVSPost2010PropOp34
 70
     1
102
RTVSPost2010Prop35
280
     0
102
RTVSPost2010PropOp35
 70
     1
102
RTVSPost2010Prop36
280
     0
102
RTVSPost2010PropOp36
 70
     1
102
RTVSPost2010Prop37
 90
       50
102
RTVSPost2010PropOp37
 70
     1
102
RTVSPost2010Prop38
140
0.0
102
RTVSPost2010PropOp38
 70
     1
102
RTVSPost2010Prop39
140
1.0
102
RTVSPost2010PropOp39
 70
     1
102
RTVSPost2010Prop40
 90
        0
102
RTVSPost2010PropOp40
 70
     1
102
RTVSPost2010Prop41ColorIndex
 90
       18
102
RTVSPost2010Prop41ColorRGB
 90
        0
102
RTVSPost2010PropOp41
 70
     1
102
RTVSPost2010Prop42
 90
       50
102
RTVSPost2010PropOp42
 70
     1
102
RTVSPost2010Prop43
 90
        3
102
RTVSPost2010PropOp43
 70
     1
102
RTVSPost2010Prop44ColorIndex
 90
        5
102
RTVSPost2010Prop44ColorRGB
 90
      255
102
RTVSPost2010PropOp44
 70
     1
102
RTVSPost2010Prop45
280
     0
102
RTVSPost2010PropOp45
 70
     1
102
RTVSPost2010Prop46
 90
       50
102
RTVSPost2010PropOp46
 70
     1
102
RTVSPost2010Prop47
 90
       50
102
RTVSPost2010PropOp47
 70
     1
102
RTVSPost2010Prop48
 90
       50
102
RTVSPost2010PropOp48
 70
     1
102
RTVSPost2010Prop49
280
     0
102
RTVSPost2010PropOp49
 70
     1
102
RTVSPost2010Prop50
 90
       50
102
RTVSPost2010PropOp50
 70
     1
102
RTVSPost2010Prop51ColorIndex
 90
      256
102
RTVSPost2010Prop51ColorRGB
 90
-16777216
102
RTVSPost2010PropOp51
 70
     0
102
RTVSPost2010Prop52
140
1.0
102
RTVSPost2010PropOp52
 70
     0
102
RTVSPost2010Prop53
 90
        2
102
RTVSPost2010PropOp53
 70
     1
102
RTVSPost2010Prop54
  1
strokes_ogs.tif
102
RTVSPost2010PropOp54
 70
     1
102
RTVSPost2010Prop55
280
     0
102
RTVSPost2010PropOp55
 70
     1
102
RTVSPost2010Prop56
140
1.0
102
RTVSPost2010PropOp56
 70
     1
102
RTVSPost2010Prop57
140
1.0
102
RTVSPost2010PropOp57
 70
     1
102
RTVSPropertyOp0
 70
     1
102
RTVSPropertyOp1
 70
     1
102
RTVSPropertyOp2
 70
     1
102
RTVSPropertyOp3
 70
     1
102
RTVSPropertyOp4
 70
     1
102
RTVSPropertyOp5
 70
     1
102
RTVSPropertyOp6
 70
     1
102
RTVSPropertyOp7
 70
     1
102
RTVSPropertyOp8
 70
     1
102
RTVSPropertyOp9
 70
     1
102
RTVSPropertyOp10
 70
     1
102
RTVSPropertyOp11
 70
     1
102
RTVSPropertyOp12
 70
     1
102
RTVSPropertyOp13
 70
     1
102
RTVSPropertyOp14
 70
     1
102
RTVSPropertyOp15
 70
     1
102
RTVSPropertyOp16
 70
     1
102
RTVSPropertyOp17
 70
     1
102
RTVSPropertyOp18
 70
     1
102
RTVSPropertyOp19
 70
     1
102
RTVSPropertyOp20
 70
     1
102
RTVSPropertyOp21
 70
     1
102
RTVSPropertyOp22
 70
     1
102
RTVSPropertyOp23
 70
     1
102
RTVSPropertyOp24
 70
     1
102
RTVSPropertyOp25
 70
     1
102
RTVSPropertyOp26
 70
     1
102
RTVSPropertyOp27
 70
     1
102
RTVSPropertyOp28
 70
     1
102
RTVSPropertyOp29
 70
     1
102
RTVSPropertyOp30
 70
     1
102
RTVSPropertyOp31
 70
     1
102
RTVSPropertyOp32
 70
     1
102
RTVSPropertyOp33
 70
     1
102
RTVSPropertyOp34
 70
     1
102
RTVSPropertyOp35
 70
     1
102
RTVSPropertyOp36
 70
     1
102
RTVSPropertyOp37
 70
     1
102
RTVSPropertyOp38
 70
     1
102
RTVSPropertyOp39
 70
     1
102
RTVSPropertyOp40
 70
     1
102
RTVSPropertyOp41
 70
     1
102
RTVSPropertyOp42
 70
     1
102
RTVSPropertyOp43
 70
     1
102
RTVSPropertyOp44
 70
     1
102
RTVSPropertyOp45
 70
     1
102
RTVSPropertyOp46
 70
     1
102
RTVSPropertyOp47
 70
     1
102
RTVSPropertyOp48
 70
     1
102
RTVSPropertyOp49
 70
     1
102
RTVSPropertyOp50
 70
     1
102
RTVSPropertyOp51
 70
     0
102
RTVSPropertyOp52
 70
     0
102
RTVSPropertyOp53
 70
     1
102
RTVSPropertyOp54
 70
     1
102
RTVSPropertyOp55
 70
     1
102
RTVSPropertyOp56
 70
     1
102
RTVSPropertyOp57
 70
     1
102
RTVSPropertyOp58
 70
     1
102
RTVSPropertyOp59
 70
     1
102
RTVSPropertyOp60
 70
     1
102
RTVSPropertyOp61
 70
     1
102
RTVSPropertyOp62
 70
     1
  0
XRECORD
  5
84FB
102
{ACAD_REACTORS
330
84FA
102
}
330
84FA
100
AcDbXrecord
280
     1
102
RTVSPost2010Prop28
280
     0
102
RTVSPost2010PropOp28
 70
     1
102
RTVSPost2010Prop29
280
     1
102
RTVSPost2010PropOp29
 70
     1
102
RTVSPost2010Prop30
280
     1
102
RTVSPost2010PropOp30
 70
     1
102
RTVSPost2010Prop31
280
     0
102
RTVSPost2010PropOp31
 70
     1
102
RTVSPost2010Prop32
280
     0
102
RTVSPost2010PropOp32
 70
     1
102
RTVSPost2010Prop33
280
     0
102
RTVSPost2010PropOp33
 70
     1
102
RTVSPost2010Prop34
280
     0
102
RTVSPost2010PropOp34
 70
     1
102
RTVSPost2010Prop35
280
     0
102
RTVSPost2010PropOp35
 70
     1
102
RTVSPost2010Prop36
280
     0
102
RTVSPost2010PropOp36
 70
     1
102
RTVSPost2010Prop37
 90
       50
102
RTVSPost2010PropOp37
 70
     1
102
RTVSPost2010Prop38
140
0.0
102
RTVSPost2010PropOp38
 70
     1
102
RTVSPost2010Prop39
140
1.0
102
RTVSPost2010PropOp39
 70
     1
102
RTVSPost2010Prop40
 90
        0
102
RTVSPost2010PropOp40
 70
     1
102
RTVSPost2010Prop41ColorIndex
 90
       18
102
RTVSPost2010Prop41ColorRGB
 90
        0
102
RTVSPost2010PropOp41
 70
     1
102
RTVSPost2010Prop42
 90
       50
102
RTVSPost2010PropOp42
 70
     1
102
RTVSPost2010Prop43
 90
        3
102
RTVSPost2010PropOp43
 70
     1
102
RTVSPost2010Prop44ColorIndex
 90
        5
102
RTVSPost2010Prop44ColorRGB
 90
      255
102
RTVSPost2010PropOp44
 70
     1
102
RTVSPost2010Prop45
280
     0
102
RTVSPost2010PropOp45
 70
     1
102
RTVSPost2010Prop46
 90
       50
102
RTVSPost2010PropOp46
 70
     1
102
RTVSPost2010Prop47
 90
       50
102
RTVSPost2010PropOp47
 70
     1
102
RTVSPost2010Prop48
 90
       50
102
RTVSPost2010PropOp48
 70
     1
102
RTVSPost2010Prop49
280
     0
102
RTVSPost2010PropOp49
 70
     1
102
RTVSPost2010Prop50
 90
       50
102
RTVSPost2010PropOp50
 70
     1
102
RTVSPost2010Prop51ColorIndex
 90
      256
102
RTVSPost2010Prop51ColorRGB
 90
-16777216
102
RTVSPost2010PropOp51
 70
     0
102
RTVSPost2010Prop52
140
1.0
102
RTVSPost2010PropOp52
 70
     0
102
RTVSPost2010Prop53
 90
        2
102
RTVSPost2010PropOp53
 70
     1
102
RTVSPost2010Prop54
  1
strokes_ogs.tif
102
RTVSPost2010PropOp54
 70
     1
102
RTVSPost2010Prop55
280
     0
102
RTVSPost2010PropOp55
 70
     1
102
RTVSPost2010Prop56
140
1.0
102
RTVSPost2010PropOp56
 70
     1
102
RTVSPost2010Prop57
140
1.0
102
RTVSPost2010PropOp57
 70
     1
102
RTVSPropertyOp0
 70
     1
102
RTVSPropertyOp1
 70
     1
102
RTVSPropertyOp2
 70
     1
102
RTVSPropertyOp3
 70
     1
102
RTVSPropertyOp4
 70
     1
102
RTVSPropertyOp5
 70
     1
102
RTVSPropertyOp6
 70
     1
102
RTVSPropertyOp7
 70
     1
102
RTVSPropertyOp8
 70
     1
102
RTVSPropertyOp9
 70
     1
102
RTVSPropertyOp10
 70
     1
102
RTVSPropertyOp11
 70
     1
102
RTVSPropertyOp12
 70
     1
102
RTVSPropertyOp13
 70
     1
102
RTVSPropertyOp14
 70
     1
102
RTVSPropertyOp15
 70
     1
102
RTVSPropertyOp16
 70
     1
102
RTVSPropertyOp17
 70
     1
102
RTVSPropertyOp18
 70
     1
102
RTVSPropertyOp19
 70
     1
102
RTVSPropertyOp20
 70
     1
102
RTVSPropertyOp21
 70
     1
102
RTVSPropertyOp22
 70
     1
102
RTVSPropertyOp23
 70
     1
102
RTVSPropertyOp24
 70
     1
102
RTVSPropertyOp25
 70
     1
102
RTVSPropertyOp26
 70
     1
102
RTVSPropertyOp27
 70
     1
102
RTVSPropertyOp28
 70
     1
102
RTVSPropertyOp29
 70
     1
102
RTVSPropertyOp30
 70
     1
102
RTVSPropertyOp31
 70
     1
102
RTVSPropertyOp32
 70
     1
102
RTVSPropertyOp33
 70
     1
102
RTVSPropertyOp34
 70
     1
102
RTVSPropertyOp35
 70
     1
102
RTVSPropertyOp36
 70
     1
102
RTVSPropertyOp37
 70
     1
102
RTVSPropertyOp38
 70
     1
102
RTVSPropertyOp39
 70
     1
102
RTVSPropertyOp40
 70
     1
102
RTVSPropertyOp41
 70
     1
102
RTVSPropertyOp42
 70
     1
102
RTVSPropertyOp43
 70
     1
102
RTVSPropertyOp44
 70
     1
102
RTVSPropertyOp45
 70
     1
102
RTVSPropertyOp46
 70
     1
102
RTVSPropertyOp47
 70
     1
102
RTVSPropertyOp48
 70
     1
102
RTVSPropertyOp49
 70
     1
102
RTVSPropertyOp50
 70
     1
102
RTVSPropertyOp51
 70
     0
102
RTVSPropertyOp52
 70
     0
102
RTVSPropertyOp53
 70
     1
102
RTVSPropertyOp54
 70
     1
102
RTVSPropertyOp55
 70
     1
102
RTVSPropertyOp56
 70
     1
102
RTVSPropertyOp57
 70
     1
102
RTVSPropertyOp58
 70
     1
102
RTVSPropertyOp59
 70
     1
102
RTVSPropertyOp60
 70
     1
102
RTVSPropertyOp61
 70
     1
102
RTVSPropertyOp62
 70
     1
  0
XRECORD
  5
84F1
102
{ACAD_REACTORS
330
84F0
102
}
330
84F0
100
AcDbXrecord
280
     1
102
RTVSPost2010Prop28
280
     0
102
RTVSPost2010PropOp28
 70
     1
102
RTVSPost2010Prop29
280
     1
102
RTVSPost2010PropOp29
 70
     1
102
RTVSPost2010Prop30
280
     1
102
RTVSPost2010PropOp30
 70
     1
102
RTVSPost2010Prop31
280
     0
102
RTVSPost2010PropOp31
 70
     1
102
RTVSPost2010Prop32
280
     0
102
RTVSPost2010PropOp32
 70
     1
102
RTVSPost2010Prop33
280
     0
102
RTVSPost2010PropOp33
 70
     1
102
RTVSPost2010Prop34
280
     0
102
RTVSPost2010PropOp34
 70
     1
102
RTVSPost2010Prop35
280
     0
102
RTVSPost2010PropOp35
 70
     1
102
RTVSPost2010Prop36
280
     0
102
RTVSPost2010PropOp36
 70
     1
102
RTVSPost2010Prop37
 90
       50
102
RTVSPost2010PropOp37
 70
     1
102
RTVSPost2010Prop38
140
0.0
102
RTVSPost2010PropOp38
 70
     1
102
RTVSPost2010Prop39
140
1.0
102
RTVSPost2010PropOp39
 70
     1
102
RTVSPost2010Prop40
 90
        0
102
RTVSPost2010PropOp40
 70
     1
102
RTVSPost2010Prop41ColorIndex
 90
       18
102
RTVSPost2010Prop41ColorRGB
 90
        0
102
RTVSPost2010PropOp41
 70
     1
102
RTVSPost2010Prop42
 90
       50
102
RTVSPost2010PropOp42
 70
     1
102
RTVSPost2010Prop43
 90
        3
102
RTVSPost2010PropOp43
 70
     1
102
RTVSPost2010Prop44ColorIndex
 90
        5
102
RTVSPost2010Prop44ColorRGB
 90
      255
102
RTVSPost2010PropOp44
 70
     1
102
RTVSPost2010Prop45
280
     0
102
RTVSPost2010PropOp45
 70
     1
102
RTVSPost2010Prop46
 90
       50
102
RTVSPost2010PropOp46
 70
     1
102
RTVSPost2010Prop47
 90
       50
102
RTVSPost2010PropOp47
 70
     1
102
RTVSPost2010Prop48
 90
       50
102
RTVSPost2010PropOp48
 70
     1
102
RTVSPost2010Prop49
280
     0
102
RTVSPost2010PropOp49
 70
     1
102
RTVSPost2010Prop50
 90
       50
102
RTVSPost2010PropOp50
 70
     1
102
RTVSPost2010Prop51ColorIndex
 90
      256
102
RTVSPost2010Prop51ColorRGB
 90
-16777216
102
RTVSPost2010PropOp51
 70
     0
102
RTVSPost2010Prop52
140
1.0
102
RTVSPost2010PropOp52
 70
     0
102
RTVSPost2010Prop53
 90
        2
102
RTVSPost2010PropOp53
 70
     1
102
RTVSPost2010Prop54
  1
strokes_ogs.tif
102
RTVSPost2010PropOp54
 70
     1
102
RTVSPost2010Prop55
280
     0
102
RTVSPost2010PropOp55
 70
     1
102
RTVSPost2010Prop56
140
1.0
102
RTVSPost2010PropOp56
 70
     1
102
RTVSPost2010Prop57
140
1.0
102
RTVSPost2010PropOp57
 70
     1
102
RTVSPropertyOp0
 70
     1
102
RTVSPropertyOp1
 70
     1
102
RTVSPropertyOp2
 70
     1
102
RTVSPropertyOp3
 70
     1
102
RTVSPropertyOp4
 70
     1
102
RTVSPropertyOp5
 70
     1
102
RTVSPropertyOp6
 70
     1
102
RTVSPropertyOp7
 70
     1
102
RTVSPropertyOp8
 70
     1
102
RTVSPropertyOp9
 70
     1
102
RTVSPropertyOp10
 70
     1
102
RTVSPropertyOp11
 70
     1
102
RTVSPropertyOp12
 70
     1
102
RTVSPropertyOp13
 70
     1
102
RTVSPropertyOp14
 70
     1
102
RTVSPropertyOp15
 70
     1
102
RTVSPropertyOp16
 70
     1
102
RTVSPropertyOp17
 70
     1
102
RTVSPropertyOp18
 70
     1
102
RTVSPropertyOp19
 70
     1
102
RTVSPropertyOp20
 70
     1
102
RTVSPropertyOp21
 70
     1
102
RTVSPropertyOp22
 70
     1
102
RTVSPropertyOp23
 70
     1
102
RTVSPropertyOp24
 70
     1
102
RTVSPropertyOp25
 70
     1
102
RTVSPropertyOp26
 70
     1
102
RTVSPropertyOp27
 70
     1
102
RTVSPropertyOp28
 70
     1
102
RTVSPropertyOp29
 70
     1
102
RTVSPropertyOp30
 70
     1
102
RTVSPropertyOp31
 70
     1
102
RTVSPropertyOp32
 70
     1
102
RTVSPropertyOp33
 70
     1
102
RTVSPropertyOp34
 70
     1
102
RTVSPropertyOp35
 70
     1
102
RTVSPropertyOp36
 70
     1
102
RTVSPropertyOp37
 70
     1
102
RTVSPropertyOp38
 70
     1
102
RTVSPropertyOp39
 70
     1
102
RTVSPropertyOp40
 70
     1
102
RTVSPropertyOp41
 70
     1
102
RTVSPropertyOp42
 70
     1
102
RTVSPropertyOp43
 70
     1
102
RTVSPropertyOp44
 70
     1
102
RTVSPropertyOp45
 70
     1
102
RTVSPropertyOp46
 70
     1
102
RTVSPropertyOp47
 70
     1
102
RTVSPropertyOp48
 70
     1
102
RTVSPropertyOp49
 70
     1
102
RTVSPropertyOp50
 70
     1
102
RTVSPropertyOp51
 70
     0
102
RTVSPropertyOp52
 70
     0
102
RTVSPropertyOp53
 70
     1
102
RTVSPropertyOp54
 70
     1
102
RTVSPropertyOp55
 70
     1
102
RTVSPropertyOp56
 70
     1
102
RTVSPropertyOp57
 70
     1
102
RTVSPropertyOp58
 70
     1
102
RTVSPropertyOp59
 70
     1
102
RTVSPropertyOp60
 70
     1
102
RTVSPropertyOp61
 70
     1
102
RTVSPropertyOp62
 70
     1
  0
XRECORD
  5
84E5
102
{ACAD_REACTORS
330
84E4
102
}
330
84E4
100
AcDbXrecord
280
     1
102
RTVSPost2010Prop28
280
     0
102
RTVSPost2010PropOp28
 70
     1
102
RTVSPost2010Prop29
280
     1
102
RTVSPost2010PropOp29
 70
     1
102
RTVSPost2010Prop30
280
     1
102
RTVSPost2010PropOp30
 70
     1
102
RTVSPost2010Prop31
280
     0
102
RTVSPost2010PropOp31
 70
     1
102
RTVSPost2010Prop32
280
     0
102
RTVSPost2010PropOp32
 70
     1
102
RTVSPost2010Prop33
280
     0
102
RTVSPost2010PropOp33
 70
     1
102
RTVSPost2010Prop34
280
     0
102
RTVSPost2010PropOp34
 70
     1
102
RTVSPost2010Prop35
280
     0
102
RTVSPost2010PropOp35
 70
     1
102
RTVSPost2010Prop36
280
     0
102
RTVSPost2010PropOp36
 70
     1
102
RTVSPost2010Prop37
 90
       50
102
RTVSPost2010PropOp37
 70
     1
102
RTVSPost2010Prop38
140
0.0
102
RTVSPost2010PropOp38
 70
     1
102
RTVSPost2010Prop39
140
1.0
102
RTVSPost2010PropOp39
 70
     1
102
RTVSPost2010Prop40
 90
        0
102
RTVSPost2010PropOp40
 70
     1
102
RTVSPost2010Prop41ColorIndex
 90
       18
102
RTVSPost2010Prop41ColorRGB
 90
        0
102
RTVSPost2010PropOp41
 70
     1
102
RTVSPost2010Prop42
 90
       50
102
RTVSPost2010PropOp42
 70
     1
102
RTVSPost2010Prop43
 90
        3
102
RTVSPost2010PropOp43
 70
     1
102
RTVSPost2010Prop44ColorIndex
 90
        5
102
RTVSPost2010Prop44ColorRGB
 90
      255
102
RTVSPost2010PropOp44
 70
     1
102
RTVSPost2010Prop45
280
     0
102
RTVSPost2010PropOp45
 70
     1
102
RTVSPost2010Prop46
 90
       50
102
RTVSPost2010PropOp46
 70
     1
102
RTVSPost2010Prop47
 90
       50
102
RTVSPost2010PropOp47
 70
     1
102
RTVSPost2010Prop48
 90
       50
102
RTVSPost2010PropOp48
 70
     1
102
RTVSPost2010Prop49
280
     0
102
RTVSPost2010PropOp49
 70
     1
102
RTVSPost2010Prop50
 90
       50
102
RTVSPost2010PropOp50
 70
     1
102
RTVSPost2010Prop51ColorIndex
 90
      256
102
RTVSPost2010Prop51ColorRGB
 90
-16777216
102
RTVSPost2010PropOp51
 70
     0
102
RTVSPost2010Prop52
140
1.0
102
RTVSPost2010PropOp52
 70
     0
102
RTVSPost2010Prop53
 90
        2
102
RTVSPost2010PropOp53
 70
     1
102
RTVSPost2010Prop54
  1
strokes_ogs.tif
102
RTVSPost2010PropOp54
 70
     1
102
RTVSPost2010Prop55
280
     0
102
RTVSPost2010PropOp55
 70
     1
102
RTVSPost2010Prop56
140
1.0
102
RTVSPost2010PropOp56
 70
     1
102
RTVSPost2010Prop57
140
1.0
102
RTVSPost2010PropOp57
 70
     1
102
RTVSPropertyOp0
 70
     1
102
RTVSPropertyOp1
 70
     1
102
RTVSPropertyOp2
 70
     1
102
RTVSPropertyOp3
 70
     1
102
RTVSPropertyOp4
 70
     1
102
RTVSPropertyOp5
 70
     1
102
RTVSPropertyOp6
 70
     1
102
RTVSPropertyOp7
 70
     1
102
RTVSPropertyOp8
 70
     1
102
RTVSPropertyOp9
 70
     1
102
RTVSPropertyOp10
 70
     1
102
RTVSPropertyOp11
 70
     1
102
RTVSPropertyOp12
 70
     1
102
RTVSPropertyOp13
 70
     1
102
RTVSPropertyOp14
 70
     1
102
RTVSPropertyOp15
 70
     1
102
RTVSPropertyOp16
 70
     1
102
RTVSPropertyOp17
 70
     1
102
RTVSPropertyOp18
 70
     1
102
RTVSPropertyOp19
 70
     1
102
RTVSPropertyOp20
 70
     1
102
RTVSPropertyOp21
 70
     1
102
RTVSPropertyOp22
 70
     1
102
RTVSPropertyOp23
 70
     1
102
RTVSPropertyOp24
 70
     1
102
RTVSPropertyOp25
 70
     1
102
RTVSPropertyOp26
 70
     1
102
RTVSPropertyOp27
 70
     1
102
RTVSPropertyOp28
 70
     1
102
RTVSPropertyOp29
 70
     1
102
RTVSPropertyOp30
 70
     1
102
RTVSPropertyOp31
 70
     1
102
RTVSPropertyOp32
 70
     1
102
RTVSPropertyOp33
 70
     1
102
RTVSPropertyOp34
 70
     1
102
RTVSPropertyOp35
 70
     1
102
RTVSPropertyOp36
 70
     1
102
RTVSPropertyOp37
 70
     1
102
RTVSPropertyOp38
 70
     1
102
RTVSPropertyOp39
 70
     1
102
RTVSPropertyOp40
 70
     1
102
RTVSPropertyOp41
 70
     1
102
RTVSPropertyOp42
 70
     1
102
RTVSPropertyOp43
 70
     1
102
RTVSPropertyOp44
 70
     1
102
RTVSPropertyOp45
 70
     1
102
RTVSPropertyOp46
 70
     1
102
RTVSPropertyOp47
 70
     1
102
RTVSPropertyOp48
 70
     1
102
RTVSPropertyOp49
 70
     1
102
RTVSPropertyOp50
 70
     1
102
RTVSPropertyOp51
 70
     0
102
RTVSPropertyOp52
 70
     0
102
RTVSPropertyOp53
 70
     1
102
RTVSPropertyOp54
 70
     1
102
RTVSPropertyOp55
 70
     1
102
RTVSPropertyOp56
 70
     1
102
RTVSPropertyOp57
 70
     1
102
RTVSPropertyOp58
 70
     1
102
RTVSPropertyOp59
 70
     1
102
RTVSPropertyOp60
 70
     1
102
RTVSPropertyOp61
 70
     1
102
RTVSPropertyOp62
 70
     1
  0
XRECORD
  5
84FD
102
{ACAD_REACTORS
330
84FC
102
}
330
84FC
100
AcDbXrecord
280
     1
102
RTVSPost2010Prop28
280
     0
102
RTVSPost2010PropOp28
 70
     1
102
RTVSPost2010Prop29
280
     1
102
RTVSPost2010PropOp29
 70
     1
102
RTVSPost2010Prop30
280
     1
102
RTVSPost2010PropOp30
 70
     1
102
RTVSPost2010Prop31
280
     0
102
RTVSPost2010PropOp31
 70
     1
102
RTVSPost2010Prop32
280
     0
102
RTVSPost2010PropOp32
 70
     1
102
RTVSPost2010Prop33
280
     0
102
RTVSPost2010PropOp33
 70
     1
102
RTVSPost2010Prop34
280
     0
102
RTVSPost2010PropOp34
 70
     1
102
RTVSPost2010Prop35
280
     0
102
RTVSPost2010PropOp35
 70
     1
102
RTVSPost2010Prop36
280
     0
102
RTVSPost2010PropOp36
 70
     1
102
RTVSPost2010Prop37
 90
       50
102
RTVSPost2010PropOp37
 70
     1
102
RTVSPost2010Prop38
140
0.0
102
RTVSPost2010PropOp38
 70
     1
102
RTVSPost2010Prop39
140
1.0
102
RTVSPost2010PropOp39
 70
     1
102
RTVSPost2010Prop40
 90
        0
102
RTVSPost2010PropOp40
 70
     1
102
RTVSPost2010Prop41ColorIndex
 90
       18
102
RTVSPost2010Prop41ColorRGB
 90
        0
102
RTVSPost2010PropOp41
 70
     1
102
RTVSPost2010Prop42
 90
       50
102
RTVSPost2010PropOp42
 70
     1
102
RTVSPost2010Prop43
 90
        3
102
RTVSPost2010PropOp43
 70
     1
102
RTVSPost2010Prop44ColorIndex
 90
        5
102
RTVSPost2010Prop44ColorRGB
 90
      255
102
RTVSPost2010PropOp44
 70
     1
102
RTVSPost2010Prop45
280
     0
102
RTVSPost2010PropOp45
 70
     1
102
RTVSPost2010Prop46
 90
       50
102
RTVSPost2010PropOp46
 70
     1
102
RTVSPost2010Prop47
 90
       50
102
RTVSPost2010PropOp47
 70
     1
102
RTVSPost2010Prop48
 90
       50
102
RTVSPost2010PropOp48
 70
     1
102
RTVSPost2010Prop49
280
     0
102
RTVSPost2010PropOp49
 70
     1
102
RTVSPost2010Prop50
 90
       50
102
RTVSPost2010PropOp50
 70
     1
102
RTVSPost2010Prop51ColorIndex
 90
      256
102
RTVSPost2010Prop51ColorRGB
 90
-16777216
102
RTVSPost2010PropOp51
 70
     0
102
RTVSPost2010Prop52
140
1.0
102
RTVSPost2010PropOp52
 70
     0
102
RTVSPost2010Prop53
 90
        2
102
RTVSPost2010PropOp53
 70
     1
102
RTVSPost2010Prop54
  1
strokes_ogs.tif
102
RTVSPost2010PropOp54
 70
     1
102
RTVSPost2010Prop55
280
     0
102
RTVSPost2010PropOp55
 70
     1
102
RTVSPost2010Prop56
140
1.0
102
RTVSPost2010PropOp56
 70
     1
102
RTVSPost2010Prop57
140
1.0
102
RTVSPost2010PropOp57
 70
     1
102
RTVSPropertyOp0
 70
     1
102
RTVSPropertyOp1
 70
     1
102
RTVSPropertyOp2
 70
     1
102
RTVSPropertyOp3
 70
     1
102
RTVSPropertyOp4
 70
     1
102
RTVSPropertyOp5
 70
     1
102
RTVSPropertyOp6
 70
     1
102
RTVSPropertyOp7
 70
     1
102
RTVSPropertyOp8
 70
     1
102
RTVSPropertyOp9
 70
     1
102
RTVSPropertyOp10
 70
     1
102
RTVSPropertyOp11
 70
     1
102
RTVSPropertyOp12
 70
     1
102
RTVSPropertyOp13
 70
     1
102
RTVSPropertyOp14
 70
     1
102
RTVSPropertyOp15
 70
     1
102
RTVSPropertyOp16
 70
     1
102
RTVSPropertyOp17
 70
     1
102
RTVSPropertyOp18
 70
     1
102
RTVSPropertyOp19
 70
     1
102
RTVSPropertyOp20
 70
     1
102
RTVSPropertyOp21
 70
     1
102
RTVSPropertyOp22
 70
     1
102
RTVSPropertyOp23
 70
     1
102
RTVSPropertyOp24
 70
     1
102
RTVSPropertyOp25
 70
     1
102
RTVSPropertyOp26
 70
     1
102
RTVSPropertyOp27
 70
     1
102
RTVSPropertyOp28
 70
     1
102
RTVSPropertyOp29
 70
     1
102
RTVSPropertyOp30
 70
     1
102
RTVSPropertyOp31
 70
     1
102
RTVSPropertyOp32
 70
     1
102
RTVSPropertyOp33
 70
     1
102
RTVSPropertyOp34
 70
     1
102
RTVSPropertyOp35
 70
     1
102
RTVSPropertyOp36
 70
     1
102
RTVSPropertyOp37
 70
     1
102
RTVSPropertyOp38
 70
     1
102
RTVSPropertyOp39
 70
     1
102
RTVSPropertyOp40
 70
     1
102
RTVSPropertyOp41
 70
     1
102
RTVSPropertyOp42
 70
     1
102
RTVSPropertyOp43
 70
     1
102
RTVSPropertyOp44
 70
     1
102
RTVSPropertyOp45
 70
     1
102
RTVSPropertyOp46
 70
     1
102
RTVSPropertyOp47
 70
     1
102
RTVSPropertyOp48
 70
     1
102
RTVSPropertyOp49
 70
     1
102
RTVSPropertyOp50
 70
     1
102
RTVSPropertyOp51
 70
     0
102
RTVSPropertyOp52
 70
     0
102
RTVSPropertyOp53
 70
     1
102
RTVSPropertyOp54
 70
     1
102
RTVSPropertyOp55
 70
     1
102
RTVSPropertyOp56
 70
     1
102
RTVSPropertyOp57
 70
     1
102
RTVSPropertyOp58
 70
     1
102
RTVSPropertyOp59
 70
     1
102
RTVSPropertyOp60
 70
     1
102
RTVSPropertyOp61
 70
     1
102
RTVSPropertyOp62
 70
     1
  0
ENDSEC
  0
EOF
