  0
SECTION
  2
HEADER
  9
$ACADVER
  1
AC1015
  9
$ACADMAINTVER
 70
    20
  9
$DWGCODEPAGE
  3
ANSI_932
  9
$INSBASE
 10
0.0
 20
0.0
 30
0.0
  9
$EXTMIN
 10
-0.1602050617329951
 20
-0.22504996767384
 30
-0.0015258207003583
  9
$EXTMAX
 10
5250.160229508953
 20
7375.225084310193
 30
0.0000000349246037
  9
$LIMMIN
 10
0.0
 20
0.0
  9
$LIMMAX
 10
297.0
 20
210.0
  9
$ORTHOMODE
 70
     1
  9
$REGENMODE
 70
     1
  9
$FILLMODE
 70
     0
  9
$QTEXTMODE
 70
     0
  9
$MIRRTEXT
 70
     1
  9
$LTSCALE
 40
100.0
  9
$ATTMODE
 70
     1
  9
$TEXTSIZE
 40
180.0
  9
$TRACEWID
 40
0.05
  9
$TEXTSTYLE
  7
STANDARD
  9
$CLAYER
  8
3
  9
$CELTYPE
  6
ByLayer
  9
$CECOLOR
 62
   256
  9
$CELTSCALE
 40
1.0
  9
$DISPSILH
 70
     0
  9
$DIMSCALE
 40
25.0
  9
$DIMASZ
 40
2.0
  9
$DIMEXO
 40
1.0
  9
$DIMDLI
 40
10.0
  9
$DIMRND
 40
0.0
  9
$DIMDLE
 40
0.0
  9
$DIMEXE
 40
1.0
  9
$DIMTP
 40
1.0
  9
$DIMTM
 40
1.0
  9
$DIMTXT
 40
3.0
  9
$DIMCEN
 40
0.0
  9
$DIMTSZ
 40
0.0
  9
$DIMTOL
 70
     0
  9
$DIMLIM
 70
     0
  9
$DIMTIH
 70
     0
  9
$DIMTOH
 70
     0
  9
$DIMSE1
 70
     0
  9
$DIMSE2
 70
     0
  9
$DIMTAD
 70
     1
  9
$DIMZIN
 70
     8
  9
$DIMBLK
  1

  9
$DIMASO
 70
     1
  9
$DIMSHO
 70
     1
  9
$DIMPOST
  1

  9
$DIMAPOST
  1

  9
$DIMALT
 70
     0
  9
$DIMALTD
 70
     2
  9
$DIMALTF
 40
0.039
  9
$DIMLFAC
 40
1.0
  9
$DIMTOFL
 70
     1
  9
$DIMTVP
 40
0.0
  9
$DIMTIX
 70
     0
  9
$DIMSOXD
 70
     0
  9
$DIMSAH
 70
     1
  9
$DIMBLK1
  1
OPEN
  9
$DIMBLK2
  1
OPEN
  9
$DIMSTYLE
  2
IGA
  9
$DIMCLRD
 70
     0
  9
$DIMCLRE
 70
     0
  9
$DIMCLRT
 70
     0
  9
$DIMTFAC
 40
10.0
  9
$DIMGAP
 40
1.0
  9
$DIMJUST
 70
     0
  9
$DIMSD1
 70
     0
  9
$DIMSD2
 70
     0
  9
$DIMTOLJ
 70
     1
  9
$DIMTZIN
 70
     0
  9
$DIMALTZ
 70
     0
  9
$DIMALTTZ
 70
     0
  9
$DIMUPT
 70
     0
  9
$DIMDEC
 70
     4
  9
$DIMTDEC
 70
     4
  9
$DIMALTU
 70
     2
  9
$DIMALTTD
 70
     2
  9
$DIMTXSTY
  7
STANDARD
  9
$DIMAUNIT
 70
     0
  9
$DIMADEC
 70
     0
  9
$DIMALTRND
 40
0.0
  9
$DIMAZIN
 70
     0
  9
$DIMDSEP
 70
    46
  9
$DIMATFIT
 70
     3
  9
$DIMFRAC
 70
     0
  9
$DIMLDRBLK
  1
OPEN
  9
$DIMLUNIT
 70
     2
  9
$DIMLWD
 70
    -2
  9
$DIMLWE
 70
    -2
  9
$DIMTMOVE
 70
     0
  9
$LUNITS
 70
     2
  9
$LUPREC
 70
     3
  9
$SKETCHINC
 40
0.1
  9
$FILLETRAD
 40
50.0
  9
$AUNITS
 70
     0
  9
$AUPREC
 70
     0
  9
$MENU
  1
acad
  9
$ELEVATION
 40
0.0
  9
$PELEVATION
 40
0.0
  9
$THICKNESS
 40
0.0
  9
$LIMCHECK
 70
     0
  9
$CHAMFERA
 40
0.5
  9
$CHAMFERB
 40
0.5
  9
$CHAMFERC
 40
0.0
  9
$CHAMFERD
 40
0.0
  9
$SKPOLY
 70
     0
  9
$TDCREATE
 40
2451389.467185070
  9
$TDUCREATE
 40
2451389.092185070
  9
$TDUPDATE
 40
2460265.718764213
  9
$TDUUPDATE
 40
2460265.343764213
  9
$TDINDWG
 40
0.0175851736
  9
$TDUSRTIMER
 40
0.0175849421
  9
$USRTIMER
 70
     1
  9
$ANGBASE
 50
0.0
  9
$ANGDIR
 70
     0
  9
$PDMODE
 70
     0
  9
$PDSIZE
 40
0.0
  9
$PLINEWID
 40
0.0
  9
$SPLFRAME
 70
     0
  9
$SPLINETYPE
 70
     6
  9
$SPLINESEGS
 70
     8
  9
$HANDSEED
  5
84EC
  9
$SURFTAB1
 70
     6
  9
$SURFTAB2
 70
     6
  9
$SURFTYPE
 70
     6
  9
$SURFU
 70
     6
  9
$SURFV
 70
     6
  9
$UCSBASE
  2

  9
$UCSNAME
  2

  9
$UCSORG
 10
0.0
 20
0.0
 30
0.0
  9
$UCSXDIR
 10
1.0
 20
0.0
 30
0.0
  9
$UCSYDIR
 10
0.0
 20
1.0
 30
0.0
  9
$UCSORTHOREF
  2

  9
$UCSORTHOVIEW
 70
     0
  9
$UCSORGTOP
 10
0.0
 20
0.0
 30
0.0
  9
$UCSORGBOTTOM
 10
0.0
 20
0.0
 30
0.0
  9
$UCSORGLEFT
 10
0.0
 20
0.0
 30
0.0
  9
$UCSORGRIGHT
 10
0.0
 20
0.0
 30
0.0
  9
$UCSORGFRONT
 10
0.0
 20
0.0
 30
0.0
  9
$UCSORGBACK
 10
0.0
 20
0.0
 30
0.0
  9
$PUCSBASE
  2

  9
$PUCSNAME
  2

  9
$PUCSORG
 10
0.0
 20
0.0
 30
0.0
  9
$PUCSXDIR
 10
1.0
 20
0.0
 30
0.0
  9
$PUCSYDIR
 10
0.0
 20
1.0
 30
0.0
  9
$PUCSORTHOREF
  2

  9
$PUCSORTHOVIEW
 70
     0
  9
$PUCSORGTOP
 10
0.0
 20
0.0
 30
0.0
  9
$PUCSORGBOTTOM
 10
0.0
 20
0.0
 30
0.0
  9
$PUCSORGLEFT
 10
0.0
 20
0.0
 30
0.0
  9
$PUCSORGRIGHT
 10
0.0
 20
0.0
 30
0.0
  9
$PUCSORGFRONT
 10
0.0
 20
0.0
 30
0.0
  9
$PUCSORGBACK
 10
0.0
 20
0.0
 30
0.0
  9
$USERI1
 70
     0
  9
$USERI2
 70
     0
  9
$USERI3
 70
     0
  9
$USERI4
 70
     0
  9
$USERI5
 70
     0
  9
$USERR1
 40
0.0
  9
$USERR2
 40
0.0
  9
$USERR3
 40
0.0
  9
$USERR4
 40
0.0
  9
$USERR5
 40
0.0
  9
$WORLDVIEW
 70
     1
  9
$SHADEDGE
 70
     3
  9
$SHADEDIF
 70
    70
  9
$TILEMODE
 70
     1
  9
$MAXACTVP
 70
    16
  9
$PINSBASE
 10
0.0
 20
0.0
 30
0.0
  9
$PLIMCHECK
 70
     0
  9
$PEXTMIN
 10
1.000000000000000E+20
 20
1.000000000000000E+20
 30
1.000000000000000E+20
  9
$PEXTMAX
 10
-1.000000000000000E+20
 20
-1.000000000000000E+20
 30
-1.000000000000000E+20
  9
$PLIMMIN
 10
0.0
 20
0.0
  9
$PLIMMAX
 10
12.0
 20
9.0
  9
$UNITMODE
 70
     0
  9
$VISRETAIN
 70
     0
  9
$PLINEGEN
 70
     0
  9
$PSLTSCALE
 70
     1
  9
$TREEDEPTH
 70
  3020
  9
$CMLSTYLE
  2
Standard
  9
$CMLJUST
 70
     0
  9
$CMLSCALE
 40
1.0
  9
$PROXYGRAPHICS
 70
     1
  9
$MEASUREMENT
 70
     0
  9
$CELWEIGHT
370
    -1
  9
$ENDCAPS
280
     0
  9
$JOINSTYLE
280
     0
  9
$LWDISPLAY
290
     0
  9
$INSUNITS
 70
     0
  9
$HYPERLINKBASE
  1

  9
$STYLESHEET
  1

  9
$XEDIT
290
     1
  9
$CEPSNTYPE
380
     0
  9
$PSTYLEMODE
290
     1
  9
$FINGERPRINTGUID
  2
{6073C66D-0869-4ACE-B448-21585405D5C5}
  9
$VERSIONGUID
  2
{1056D134-5BB4-44CE-A577-E09C1EDC1FE6}
  9
$EXTNAMES
290
     1
  9
$PSVPSCALE
 40
0.0
  9
$OLESTARTUP
290
     0
  0
ENDSEC
  0
SECTION
  2
CLASSES
  0
CLASS
  1
ACDBDICTIONARYWDFLT
  2
AcDbDictionaryWithDefault
  3
ObjectDBX Classes
 90
        0
280
     0
281
     0
  0
CLASS
  1
MATERIAL
  2
AcDbMaterial
  3
ObjectDBX Classes
 90
     1153
280
     0
281
     0
  0
CLASS
  1
VISUALSTYLE
  2
AcDbVisualStyle
  3
ObjectDBX Classes
 90
     4095
280
     0
281
     0
  0
CLASS
  1
SCALE
  2
AcDbScale
  3
ObjectDBX Classes
 90
     1153
280
     0
281
     0
  0
CLASS
  1
TABLESTYLE
  2
AcDbTableStyle
  3
ObjectDBX Classes
 90
     4095
280
     0
281
     0
  0
CLASS
  1
MLEADERSTYLE
  2
AcDbMLeaderStyle
  3
ACDB_MLEADERSTYLE_CLASS
 90
     4095
280
     0
281
     0
  0
CLASS
  1
ACDBSECTIONVIEWSTYLE
  2
AcDbSectionViewStyle
  3
ObjectDBX Classes
 90
     1025
280
     0
281
     0
  0
CLASS
  1
ACDBDETAILVIEWSTYLE
  2
AcDbDetailViewStyle
  3
ObjectDBX Classes
 90
     1025
280
     0
281
     0
  0
CLASS
  1
DICTIONARYVAR
  2
AcDbDictionaryVar
  3
ObjectDBX Classes
 90
        0
280
     0
281
     0
  0
CLASS
  1
CELLSTYLEMAP
  2
AcDbCellStyleMap
  3
ObjectDBX Classes
 90
     1152
280
     0
281
     0
  0
CLASS
  1
ACDBPLACEHOLDER
  2
AcDbPlaceHolder
  3
ObjectDBX Classes
 90
        0
280
     0
281
     0
  0
CLASS
  1
LAYOUT
  2
AcDbLayout
  3
ObjectDBX Classes
 90
        0
280
     0
281
     0
  0
ENDSEC
  0
SECTION
  2
TABLES
  0
TABLE
  2
VPORT
  5
8093
330
0
100
AcDbSymbolTable
 70
     1
  0
VPORT
  5
80FF
330
8093
100
AcDbSymbolTableRecord
100
AcDbViewportTableRecord
  2
*ACTIVE
 70
     0
 10
0.0
 20
0.0
 11
1.0
 21
1.0
 12
2617.069785536966
 22
3703.360423724673
 13
0.0
 23
0.0
 14
10.0
 24
10.0
 15
10.0
 25
10.0
 16
0.0
 26
0.0
 36
1.0
 17
0.0
 27
0.0
 37
0.0
 40
7422.678199727598
 41
2.050213675213675
 42
50.0
 43
0.0
 44
0.0
 50
0.0
 51
0.0
 71
     0
 72
   100
 73
     1
 74
     0
 75
     0
 76
     0
 77
     0
 78
     0
281
     0
 65
     1
110
0.0
120
0.0
130
0.0
111
1.0
121
0.0
131
0.0
112
0.0
122
1.0
132
0.0
 79
     0
146
0.0
1001
ACAD_NAV_VCDISPLAY
1070
     3
  0
ENDTAB
  0
TABLE
  2
LTYPE
  5
8090
330
0
100
AcDbSymbolTable
 70
     3
  0
LTYPE
  5
80E5
330
8090
100
AcDbSymbolTableRecord
100
AcDbLinetypeTableRecord
  2
ByBlock
 70
     0
  3

 72
    65
 73
     0
 40
0.0
  0
LTYPE
  5
80E6
330
8090
100
AcDbSymbolTableRecord
100
AcDbLinetypeTableRecord
  2
ByLayer
 70
     0
  3

 72
    65
 73
     0
 40
0.0
  0
LTYPE
  5
80E7
330
8090
100
AcDbSymbolTableRecord
100
AcDbLinetypeTableRecord
  2
CONTINUOUS
 70
     0
  3
Solid line
 72
    65
 73
     0
 40
0.0
  0
LTYPE
  5
8100
330
8090
100
AcDbSymbolTableRecord
100
AcDbLinetypeTableRecord
  2
CENTER
 70
     0
  3
____ _ ____ _ ____ _ ____ _ ____ _ ____ _ ____ 
 72
    65
 73
     4
 40
2.0
 49
1.25
 74
     0
 49
-0.25
 74
     0
 49
0.25
 74
     0
 49
-0.25
 74
     0
  0
ENDTAB
  0
TABLE
  2
LAYER
  5
808D
102
{ACAD_XDICTIONARY
360
8148
102
}
330
0
100
AcDbSymbolTable
 70
     7
  0
LAYER
  5
80DF
102
{ACAD_XDICTIONARY
360
816E
102
}
330
808D
100
AcDbSymbolTableRecord
100
AcDbLayerTableRecord
  2
0
 70
     0
 62
     7
  6
CONTINUOUS
370
    -3
390
809A
  0
LAYER
  5
80FE
102
{ACAD_XDICTIONARY
360
8170
102
}
330
808D
100
AcDbSymbolTableRecord
100
AcDbLayerTableRecord
  2
3
 70
     0
 62
     2
  6
CONTINUOUS
370
    -3
390
809A
  0
LAYER
  5
8101
102
{ACAD_XDICTIONARY
360
8172
102
}
330
808D
100
AcDbSymbolTableRecord
100
AcDbLayerTableRecord
  2
2
 70
     0
 62
     3
  6
CENTER
370
    -3
390
809A
  0
LAYER
  5
8102
102
{ACAD_XDICTIONARY
360
8174
102
}
330
808D
100
AcDbSymbolTableRecord
100
AcDbLayerTableRecord
  2
1
 70
     0
 62
     4
  6
CONTINUOUS
370
    -3
390
809A
  0
LAYER
  5
8103
102
{ACAD_XDICTIONARY
360
8176
102
}
330
808D
100
AcDbSymbolTableRecord
100
AcDbLayerTableRecord
  2
4
 70
     0
 62
     7
  6
CONTINUOUS
370
    -3
390
809A
  0
LAYER
  5
8104
330
808D
100
AcDbSymbolTableRecord
100
AcDbLayerTableRecord
  2
DEFPOINTS
 70
     0
 62
     7
  6
CONTINUOUS
290
     0
370
    -3
390
809A
  0
LAYER
  5
8145
102
{ACAD_XDICTIONARY
360
8146
102
}
330
808D
100
AcDbSymbolTableRecord
100
AcDbLayerTableRecord
  2
FUTO
 70
     0
 62
     4
  6
CONTINUOUS
370
    -3
390
809A
  0
ENDTAB
  0
TABLE
  2
STYLE
  5
808E
330
0
100
AcDbSymbolTable
 70
     2
  0
STYLE
  5
80E0
330
808E
100
AcDbSymbolTableRecord
100
AcDbTextStyleTableRecord
  2
STANDARD
 70
     0
 40
0.0
 41
1.0
 50
0.0
 71
     0
 42
180.0
  3
simplex.shx
  4
extfont.shx
  0
STYLE
  5
80E4
330
808E
100
AcDbSymbolTableRecord
100
AcDbTextStyleTableRecord
  2
Annotative
 70
     0
 40
0.0
 41
1.0
 50
0.0
 71
     0
 42
0.2
  3
txt
  4

1001
AcadAnnotative
1000
AnnotativeData
1002
{
1070
     1
1070
     1
1002
}
  0
ENDTAB
  0
TABLE
  2
VIEW
  5
8091
330
0
100
AcDbSymbolTable
 70
     0
  0
ENDTAB
  0
TABLE
  2
UCS
  5
8092
330
0
100
AcDbSymbolTable
 70
     0
  0
ENDTAB
  0
TABLE
  2
APPID
  5
8094
330
0
100
AcDbSymbolTable
 70
     8
  0
APPID
  5
80E1
330
8094
100
AcDbSymbolTableRecord
100
AcDbRegAppTableRecord
  2
ACAD
 70
     0
  0
APPID
  5
80E8
330
8094
100
AcDbSymbolTableRecord
100
AcDbRegAppTableRecord
  2
AcadAnnotative
 70
     0
  0
APPID
  5
8147
330
8094
100
AcDbSymbolTableRecord
100
AcDbRegAppTableRecord
  2
ACAD_NAV_VCDISPLAY
 70
     0
  0
APPID
  5
81C5
330
8094
100
AcDbSymbolTableRecord
100
AcDbRegAppTableRecord
  2
ACAD_DSTYLE_DIMJAG
 70
     0
  0
APPID
  5
81C6
330
8094
100
AcDbSymbolTableRecord
100
AcDbRegAppTableRecord
  2
ACAD_DSTYLE_DIMTALN
 70
     0
  0
APPID
  5
81E1
330
8094
100
AcDbSymbolTableRecord
100
AcDbRegAppTableRecord
  2
AcadAnnoMonitorAlertIconDisabled
 70
     0
  0
APPID
  5
81E2
330
8094
100
AcDbSymbolTableRecord
100
AcDbRegAppTableRecord
  2
ACAD_EXEMPT_FROM_CAD_STANDARDS
 70
     0
  0
APPID
  5
84E3
330
8094
100
AcDbSymbolTableRecord
100
AcDbRegAppTableRecord
  2
ACAD_MLEADERVER
 70
     0
  0
ENDTAB
  0
TABLE
  2
DIMSTYLE
  5
8095
330
0
100
AcDbSymbolTable
 70
     4
100
AcDbDimStyleTable
 71
     1
340
8105
  0
DIMSTYLE
105
80E2
102
{ACAD_REACTORS
330
7C2D
330
7C2E
330
7C72
330
7C95
330
7C96
330
7C97
330
7CA6
330
7CBC
330
7CC7
102
}
330
8095
100
AcDbSymbolTableRecord
100
AcDbDimStyleTableRecord
  2
Standard
 70
     0
340
80E0
  0
DIMSTYLE
105
80E3
330
8095
100
AcDbSymbolTableRecord
100
AcDbDimStyleTableRecord
  2
Annotative
 70
     0
340
80E0
1001
AcadAnnotative
1000
AnnotativeData
1002
{
1070
     1
1070
     1
1002
}
  0
DIMSTYLE
105
8105
102
{ACAD_REACTORS
330
81C7
330
81D4
330
8235
330
8242
330
82B1
330
82BE
330
82CB
330
82D8
330
82E5
330
82F2
330
8304
330
8398
330
83AE
330
83CD
102
}
330
8095
100
AcDbSymbolTableRecord
100
AcDbDimStyleTableRecord
  2
IGA
 70
     0
 40
2.0
 41
2.0
 42
0.5
 43
10.0
 44
1.0
 47
1.0
 48
1.0
 73
     0
 74
     0
 77
     1
 78
     8
140
3.0
141
0.0
143
0.03937
146
10.0
147
1.0
173
     1
271
     3
272
     3
279
     2
284
     8
285
     8
286
     8
340
80E0
  0
DIMSTYLE
105
8106
330
8095
100
AcDbSymbolTableRecord
100
AcDbDimStyleTableRecord
  2
MATSU
 70
     0
 41
2.0
 42
1.0
 43
10.0
 44
1.0
 73
     0
 74
     0
 77
     1
 78
     8
140
3.0
141
0.0
143
0.03937
147
0.5
172
     1
173
     1
176
   256
177
   256
178
   256
271
     3
272
     3
279
     2
284
     8
285
     8
286
     8
340
80E0
  0
ENDTAB
  0
TABLE
  2
BLOCK_RECORD
  5
808C
330
0
100
AcDbSymbolTable
 70
    52
  0
BLOCK_RECORD
  5
80FA
330
808C
100
AcDbSymbolTableRecord
100
AcDbBlockTableRecord
  2
*Model_Space
340
80FD
  0
BLOCK_RECORD
  5
80F6
330
808C
100
AcDbSymbolTableRecord
100
AcDbBlockTableRecord
  2
*Paper_Space
340
80F9
  0
BLOCK_RECORD
  5
810A
330
808C
100
AcDbSymbolTableRecord
100
AcDbBlockTableRecord
  2
$MODEL_SPACE
340
0
  0
BLOCK_RECORD
  5
810C
330
808C
100
AcDbSymbolTableRecord
100
AcDbBlockTableRecord
  2
$PAPER_SPACE
340
0
  0
BLOCK_RECORD
  5
810E
330
808C
100
AcDbSymbolTableRecord
100
AcDbBlockTableRecord
  2
_OPEN
340
0
102
{BLKREFS
331
83A8
331
83A9
331
83C7
331
83C8
331
83DD
331
83DE
331
8451
331
84A7
331
82B8
331
82B9
331
82C5
331
82C6
331
82D2
331
82D3
331
82DF
331
82E0
331
8340
331
8341
331
7EB0
331
7EB1
331
807E
331
807F
331
7EC5
331
7EC6
331
7EE9
331
7EFE
331
7EFF
331
7F95
331
7F96
331
7FA2
331
7FA3
331
7FAF
331
7FB0
331
7FBC
331
7FBD
331
7FF0
331
7FF1
331
8226
331
8227
331
822F
331
8230
331
823C
331
823D
331
8252
331
8253
331
7E02
331
7E03
331
7E0D
331
7E0E
331
7E2E
331
7E2F
331
7E44
331
7E45
331
7E4F
331
7E50
331
7E5A
331
7E5B
331
7E65
331
7E66
331
7F3F
331
7F40
331
8066
331
8067
331
806E
331
806F
331
7F81
331
7F82
331
8076
331
8077
102
}
  0
BLOCK_RECORD
  5
8110
330
808C
100
AcDbSymbolTableRecord
100
AcDbBlockTableRecord
  2
YA_N
340
0
102
{BLKREFS
331
7C08
331
7C2A
331
7C42
331
7C44
102
}
  0
BLOCK_RECORD
  5
8112
330
808C
100
AcDbSymbolTableRecord
100
AcDbBlockTableRecord
  2
_DOT
340
0
102
{BLKREFS
331
7EE8
102
}
  0
BLOCK_RECORD
  5
8114
330
808C
100
AcDbSymbolTableRecord
100
AcDbBlockTableRecord
  2
*D5
340
0
  0
BLOCK_RECORD
  5
8116
330
808C
100
AcDbSymbolTableRecord
100
AcDbBlockTableRecord
  2
*D6
340
0
  0
BLOCK_RECORD
  5
8118
330
808C
100
AcDbSymbolTableRecord
100
AcDbBlockTableRecord
  2
*D7
340
0
  0
BLOCK_RECORD
  5
811A
330
808C
100
AcDbSymbolTableRecord
100
AcDbBlockTableRecord
  2
*D8
340
0
  0
BLOCK_RECORD
  5
811C
330
808C
100
AcDbSymbolTableRecord
100
AcDbBlockTableRecord
  2
*D9
340
0
  0
BLOCK_RECORD
  5
811E
330
808C
100
AcDbSymbolTableRecord
100
AcDbBlockTableRecord
  2
*D10
340
0
  0
BLOCK_RECORD
  5
8120
330
808C
100
AcDbSymbolTableRecord
100
AcDbBlockTableRecord
  2
*D11
340
0
  0
BLOCK_RECORD
  5
8122
330
808C
100
AcDbSymbolTableRecord
100
AcDbBlockTableRecord
  2
*D12
340
0
  0
BLOCK_RECORD
  5
8124
330
808C
100
AcDbSymbolTableRecord
100
AcDbBlockTableRecord
  2
*D13
340
0
  0
BLOCK_RECORD
  5
8126
330
808C
100
AcDbSymbolTableRecord
100
AcDbBlockTableRecord
  2
*D14
340
0
  0
BLOCK_RECORD
  5
8128
330
808C
100
AcDbSymbolTableRecord
100
AcDbBlockTableRecord
  2
*D15
340
0
  0
BLOCK_RECORD
  5
812A
330
808C
100
AcDbSymbolTableRecord
100
AcDbBlockTableRecord
  2
*D16
340
0
  0
BLOCK_RECORD
  5
812C
330
808C
100
AcDbSymbolTableRecord
100
AcDbBlockTableRecord
  2
*D17
340
0
  0
BLOCK_RECORD
  5
812E
330
808C
100
AcDbSymbolTableRecord
100
AcDbBlockTableRecord
  2
*D18
340
0
  0
BLOCK_RECORD
  5
8130
330
808C
100
AcDbSymbolTableRecord
100
AcDbBlockTableRecord
  2
*D19
340
0
  0
BLOCK_RECORD
  5
8132
330
808C
100
AcDbSymbolTableRecord
100
AcDbBlockTableRecord
  2
*D20
340
0
  0
BLOCK_RECORD
  5
8134
330
808C
100
AcDbSymbolTableRecord
100
AcDbBlockTableRecord
  2
*D21
340
0
  0
BLOCK_RECORD
  5
8136
330
808C
100
AcDbSymbolTableRecord
100
AcDbBlockTableRecord
  2
*D22
340
0
  0
BLOCK_RECORD
  5
8138
330
808C
100
AcDbSymbolTableRecord
100
AcDbBlockTableRecord
  2
*D23
340
0
  0
BLOCK_RECORD
  5
813A
330
808C
100
AcDbSymbolTableRecord
100
AcDbBlockTableRecord
  2
*D24
340
0
  0
BLOCK_RECORD
  5
813C
330
808C
100
AcDbSymbolTableRecord
100
AcDbBlockTableRecord
  2
*D25
340
0
  0
BLOCK_RECORD
  5
813E
330
808C
100
AcDbSymbolTableRecord
100
AcDbBlockTableRecord
  2
_NONE
340
0
  0
BLOCK_RECORD
  5
8140
330
808C
100
AcDbSymbolTableRecord
100
AcDbBlockTableRecord
  2
*D27
340
0
  0
BLOCK_RECORD
  5
8142
330
808C
100
AcDbSymbolTableRecord
100
AcDbBlockTableRecord
  2
*D28
340
0
  0
BLOCK_RECORD
  5
81C8
330
808C
100
AcDbSymbolTableRecord
100
AcDbBlockTableRecord
  2
*D30
340
0
  0
BLOCK_RECORD
  5
81D5
330
808C
100
AcDbSymbolTableRecord
100
AcDbBlockTableRecord
  2
*D31
340
0
  0
BLOCK_RECORD
  5
8236
330
808C
100
AcDbSymbolTableRecord
100
AcDbBlockTableRecord
  2
*D32
340
0
  0
BLOCK_RECORD
  5
8243
330
808C
100
AcDbSymbolTableRecord
100
AcDbBlockTableRecord
  2
*D33
340
0
  0
BLOCK_RECORD
  5
8258
330
808C
100
AcDbSymbolTableRecord
100
AcDbBlockTableRecord
  2
*D34
340
0
  0
BLOCK_RECORD
  5
8265
330
808C
100
AcDbSymbolTableRecord
100
AcDbBlockTableRecord
  2
*D35
340
0
  0
BLOCK_RECORD
  5
8272
330
808C
100
AcDbSymbolTableRecord
100
AcDbBlockTableRecord
  2
*D36
340
0
  0
BLOCK_RECORD
  5
827F
330
808C
100
AcDbSymbolTableRecord
100
AcDbBlockTableRecord
  2
*D37
340
0
  0
BLOCK_RECORD
  5
828C
330
808C
100
AcDbSymbolTableRecord
100
AcDbBlockTableRecord
  2
*D38
340
0
  0
BLOCK_RECORD
  5
8299
330
808C
100
AcDbSymbolTableRecord
100
AcDbBlockTableRecord
  2
*D39
340
0
  0
BLOCK_RECORD
  5
82A4
330
808C
100
AcDbSymbolTableRecord
100
AcDbBlockTableRecord
  2
*D40
340
0
  0
BLOCK_RECORD
  5
82B2
330
808C
100
AcDbSymbolTableRecord
100
AcDbBlockTableRecord
  2
*D41
340
0
  0
BLOCK_RECORD
  5
82BF
330
808C
100
AcDbSymbolTableRecord
100
AcDbBlockTableRecord
  2
*D42
340
0
  0
BLOCK_RECORD
  5
82CC
330
808C
100
AcDbSymbolTableRecord
100
AcDbBlockTableRecord
  2
*D43
340
0
  0
BLOCK_RECORD
  5
82D9
330
808C
100
AcDbSymbolTableRecord
100
AcDbBlockTableRecord
  2
*D44
340
0
  0
BLOCK_RECORD
  5
82E6
330
808C
100
AcDbSymbolTableRecord
100
AcDbBlockTableRecord
  2
*D45
340
0
  0
BLOCK_RECORD
  5
82F3
330
808C
100
AcDbSymbolTableRecord
100
AcDbBlockTableRecord
  2
*D46
340
0
  0
BLOCK_RECORD
  5
8305
330
808C
100
AcDbSymbolTableRecord
100
AcDbBlockTableRecord
  2
*D47
340
0
  0
BLOCK_RECORD
  5
8399
330
808C
100
AcDbSymbolTableRecord
100
AcDbBlockTableRecord
  2
*D48
340
0
  0
BLOCK_RECORD
  5
83AF
330
808C
100
AcDbSymbolTableRecord
100
AcDbBlockTableRecord
  2
*D49
340
0
  0
BLOCK_RECORD
  5
83CE
330
808C
100
AcDbSymbolTableRecord
100
AcDbBlockTableRecord
  2
*D50
340
0
  0
BLOCK_RECORD
  5
8444
330
808C
100
AcDbSymbolTableRecord
100
AcDbBlockTableRecord
  2
_DotSmall
340
0
102
{BLKREFS
331
8452
331
84A6
102
}
  0
ENDTAB
  0
ENDSEC
  0
SECTION
  2
BLOCKS
  0
BLOCK
  5
80FB
330
80FA
100
AcDbEntity
  8
0
100
AcDbBlockBegin
  2
*Model_Space
 70
     0
 10
0.0
 20
0.0
 30
0.0
  3
*Model_Space
  1

  0
ENDBLK
  5
80FC
330
80FA
100
AcDbEntity
  8
0
100
AcDbBlockEnd
  0
BLOCK
  5
80F7
330
80F6
100
AcDbEntity
 67
     1
  8
0
100
AcDbBlockBegin
  2
*Paper_Space
 70
     0
 10
0.0
 20
0.0
 30
0.0
  3
*Paper_Space
  1

  0
ENDBLK
  5
80F8
330
80F6
100
AcDbEntity
 67
     1
  8
0
100
AcDbBlockEnd
  0
BLOCK
  5
810B
330
810A
100
AcDbEntity
  8
0
100
AcDbBlockBegin
  2
$MODEL_SPACE
 70
     0
 10
0.0
 20
0.0
 30
0.0
  3
$MODEL_SPACE
  1

  0
ENDBLK
  5
1B
330
810A
100
AcDbEntity
  8
0
100
AcDbBlockEnd
  0
BLOCK
  5
810D
330
810C
100
AcDbEntity
  8
0
100
AcDbBlockBegin
  2
$PAPER_SPACE
 70
     0
 10
0.0
 20
0.0
 30
0.0
  3
$PAPER_SPACE
  1

  0
ENDBLK
  5
18
330
810C
100
AcDbEntity
  8
0
100
AcDbBlockEnd
  0
BLOCK
  5
810F
330
810E
100
AcDbEntity
  8
0
100
AcDbBlockBegin
  2
_OPEN
 70
     0
 10
0.0
 20
0.0
 30
0.0
  3
_OPEN
  1

  0
LINE
  5
79FD
330
810E
100
AcDbEntity
  8
0
  6
ByBlock
 62
     0
100
AcDbLine
 10
-1.0
 20
0.1666666666666666
 30
0.0
 11
0.0
 21
0.0
 31
0.0
  0
LINE
  5
79FE
330
810E
100
AcDbEntity
  8
0
  6
ByBlock
 62
     0
100
AcDbLine
 10
0.0
 20
0.0
 30
0.0
 11
-1.0
 21
-0.1666666666666666
 31
0.0
  0
LINE
  5
79FF
330
810E
100
AcDbEntity
  8
0
  6
ByBlock
 62
     0
100
AcDbLine
 10
0.0
 20
0.0
 30
0.0
 11
-1.0
 21
0.0
 31
0.0
  0
ENDBLK
  5
7A01
330
810E
100
AcDbEntity
  8
0
100
AcDbBlockEnd
  0
BLOCK
  5
8111
330
8110
100
AcDbEntity
  8
0
100
AcDbBlockBegin
  2
YA_N
 70
     0
 10
0.0
 20
0.0
 30
0.0
  3
YA_N
  1

  0
ENDBLK
  5
7A04
330
8110
100
AcDbEntity
  8
0
100
AcDbBlockEnd
  0
BLOCK
  5
8113
330
8112
100
AcDbEntity
  8
0
100
AcDbBlockBegin
  2
_DOT
 70
     0
 10
0.0
 20
0.0
 30
0.0
  3
_DOT
  1

  0
LWPOLYLINE
  5
7F26
330
8112
100
AcDbEntity
  8
0
  6
ByBlock
 62
     0
100
AcDbPolyline
 90
        2
 70
     1
 43
0.25
 10
-0.125
 20
0.0
 42
1.0
 10
0.125
 20
0.0
 42
1.0
  0
LINE
  5
7F2A
330
8112
100
AcDbEntity
  8
0
  6
ByBlock
 62
     0
100
AcDbLine
 10
-0.25
 20
0.0
 30
0.0
 11
-1.0
 21
0.0
 31
0.0
  0
ENDBLK
  5
7B23
330
8112
100
AcDbEntity
  8
0
100
AcDbBlockEnd
  0
BLOCK
  5
8115
330
8114
100
AcDbEntity
  8
0
100
AcDbBlockBegin
  2
*D5
 70
     1
 10
0.0
 20
0.0
 30
0.0
  3
*D5
  1

  0
LINE
  5
7DFF
330
8114
100
AcDbEntity
  8
0
  6
ByBlock
100
AcDbLine
 10
2798.866167799455
 20
713.8876154094804
 30
0.0
 11
2947.211511341518
 21
713.8876154094804
 31
0.0
  0
LINE
  5
7E00
330
8114
100
AcDbEntity
  8
0
  6
ByBlock
100
AcDbLine
 10
2798.866167799455
 20
1538.88761540948
 30
0.0
 11
2947.211511341518
 21
1538.88761540948
 31
0.0
  0
LINE
  5
7E01
330
8114
100
AcDbEntity
  8
0
  6
ByBlock
100
AcDbLine
 10
2922.211511341518
 20
763.8876154094804
 30
0.0
 11
2922.211511341518
 21
1488.88761540948
 31
0.0
  0
INSERT
  5
7E02
330
8114
100
AcDbEntity
  8
0
  6
ByBlock
100
AcDbBlockReference
  2
_OPEN
 10
2922.211511341518
 20
713.8876154094804
 30
0.0
 41
50.0
 42
50.0
 43
50.0
 50
270.0
  0
INSERT
  5
7E03
330
8114
100
AcDbEntity
  8
0
  6
ByBlock
100
AcDbBlockReference
  2
_OPEN
 10
2922.211511341518
 20
1538.88761540948
 30
0.0
 41
50.0
 42
50.0
 43
50.0
 50
90.0
  0
TEXT
  5
7E04
330
8114
100
AcDbEntity
  8
3
100
AcDbText
 10
2909.711511341518
 20
1029.959043980909
 30
0.0
 40
75.0
  1
825
 50
90.0
100
AcDbText
  0
POINT
  5
7E05
330
8114
100
AcDbEntity
  8
DEFPOINTS
  6
ByBlock
 62
     0
100
AcDbPoint
 10
2773.866167799454
 20
713.8876154094804
 30
0.0
  0
POINT
  5
7E06
330
8114
100
AcDbEntity
  8
DEFPOINTS
  6
ByBlock
 62
     0
100
AcDbPoint
 10
2773.866167799454
 20
1538.88761540948
 30
0.0
  0
POINT
  5
7E07
330
8114
100
AcDbEntity
  8
DEFPOINTS
  6
ByBlock
 62
     0
100
AcDbPoint
 10
2922.211511341518
 20
1538.88761540948
 30
0.0
  0
ENDBLK
  5
7E08
330
8114
100
AcDbEntity
  8
0
100
AcDbBlockEnd
  0
BLOCK
  5
8117
330
8116
100
AcDbEntity
  8
0
100
AcDbBlockBegin
  2
*D6
 70
     1
 10
0.0
 20
0.0
 30
0.0
  3
*D6
  1

  0
LINE
  5
7E0A
330
8116
100
AcDbEntity
  8
0
  6
ByBlock
100
AcDbLine
 10
2798.866167799455
 20
713.8876154094804
 30
0.0
 11
3099.494913915321
 21
713.8876154094804
 31
0.0
  0
LINE
  5
7E0B
330
8116
100
AcDbEntity
  8
0
  6
ByBlock
100
AcDbLine
 10
2920.337959649845
 20
1561.887615409481
 30
0.0
 11
3099.494913915321
 21
1561.887615409481
 31
0.0
  0
LINE
  5
7E0C
330
8116
100
AcDbEntity
  8
0
  6
ByBlock
100
AcDbLine
 10
3074.494913915321
 20
763.8876154094804
 30
0.0
 11
3074.494913915321
 21
1511.887615409481
 31
0.0
  0
INSERT
  5
7E0D
330
8116
100
AcDbEntity
  8
0
  6
ByBlock
100
AcDbBlockReference
  2
_OPEN
 10
3074.494913915321
 20
713.8876154094804
 30
0.0
 41
50.0
 42
50.0
 43
50.0
 50
270.0
  0
INSERT
  5
7E0E
330
8116
100
AcDbEntity
  8
0
  6
ByBlock
100
AcDbBlockReference
  2
_OPEN
 10
3074.494913915321
 20
1561.887615409481
 30
0.0
 41
50.0
 42
50.0
 43
50.0
 50
90.0
  0
TEXT
  5
7E0F
330
8116
100
AcDbEntity
  8
3
100
AcDbText
 10
3061.994913915321
 20
1041.459043980909
 30
0.0
 40
75.0
  1
848
 50
90.0
100
AcDbText
  0
POINT
  5
7E10
330
8116
100
AcDbEntity
  8
DEFPOINTS
  6
ByBlock
 62
     0
100
AcDbPoint
 10
2773.866167799454
 20
713.8876154094804
 30
0.0
  0
POINT
  5
7E11
330
8116
100
AcDbEntity
  8
DEFPOINTS
  6
ByBlock
 62
     0
100
AcDbPoint
 10
2895.337959649845
 20
1561.887615409481
 30
0.0
  0
POINT
  5
7E12
330
8116
100
AcDbEntity
  8
DEFPOINTS
  6
ByBlock
 62
     0
100
AcDbPoint
 10
3074.494913915321
 20
1561.887615409481
 30
0.0
  0
ENDBLK
  5
7E13
330
8116
100
AcDbEntity
  8
0
100
AcDbBlockEnd
  0
BLOCK
  5
8119
330
8118
100
AcDbEntity
  8
0
100
AcDbBlockBegin
  2
*D7
 70
     1
 10
0.0
 20
0.0
 30
0.0
  3
*D7
  1

  0
LINE
  5
7E2B
330
8118
100
AcDbEntity
  8
0
  6
ByBlock
100
AcDbLine
 10
5441.207505112644
 20
1986.88761540948
 30
0.0
 11
5740.43091600962
 21
1986.88761540948
 31
0.0
  0
LINE
  5
7E2C
330
8118
100
AcDbEntity
  8
0
  6
ByBlock
100
AcDbLine
 10
5441.207505112644
 20
1136.887615409481
 30
0.0
 11
5740.43091600962
 21
1136.887615409481
 31
0.0
  0
LINE
  5
7E2D
330
8118
100
AcDbEntity
  8
0
  6
ByBlock
100
AcDbLine
 10
5715.43091600962
 20
1936.88761540948
 30
0.0
 11
5715.43091600962
 21
1186.887615409481
 31
0.0
  0
INSERT
  5
7E2E
330
8118
100
AcDbEntity
  8
0
  6
ByBlock
100
AcDbBlockReference
  2
_OPEN
 10
5715.43091600962
 20
1986.88761540948
 30
0.0
 41
50.0
 42
50.0
 43
50.0
 50
90.0
  0
INSERT
  5
7E2F
330
8118
100
AcDbEntity
  8
0
  6
ByBlock
100
AcDbBlockReference
  2
_OPEN
 10
5715.43091600962
 20
1136.887615409481
 30
0.0
 41
50.0
 42
50.0
 43
50.0
 50
270.0
  0
TEXT
  5
7E30
330
8118
100
AcDbEntity
  8
3
100
AcDbText
 10
5702.93091600962
 20
1427.959043980909
 30
0.0
 40
75.0
  1
\U+03C6850
 50
90.0
100
AcDbText
  0
POINT
  5
7E31
330
8118
100
AcDbEntity
  8
DEFPOINTS
  6
ByBlock
 62
     0
100
AcDbPoint
 10
5416.207505112645
 20
1986.88761540948
 30
0.0
  0
POINT
  5
7E32
330
8118
100
AcDbEntity
  8
DEFPOINTS
  6
ByBlock
 62
     0
100
AcDbPoint
 10
5416.207505112645
 20
1136.887615409481
 30
0.0
  0
POINT
  5
7E33
330
8118
100
AcDbEntity
  8
DEFPOINTS
  6
ByBlock
 62
     0
100
AcDbPoint
 10
5715.43091600962
 20
1136.887615409481
 30
0.0
  0
ENDBLK
  5
7E34
330
8118
100
AcDbEntity
  8
0
100
AcDbBlockEnd
  0
BLOCK
  5
811B
330
811A
100
AcDbEntity
  8
0
100
AcDbBlockBegin
  2
*D8
 70
     1
 10
0.0
 20
0.0
 30
0.0
  3
*D8
  1

  0
LINE
  5
7E41
330
811A
100
AcDbEntity
  8
0
  6
ByBlock
100
AcDbLine
 10
1728.866167799454
 20
4579.380572240498
 30
0.0
 11
1728.866167799454
 21
4730.503855791452
 31
0.0
  0
LINE
  5
7E42
330
811A
100
AcDbEntity
  8
0
  6
ByBlock
100
AcDbLine
 10
2728.866167799455
 20
4579.380572240498
 30
0.0
 11
2728.866167799455
 21
4730.503855791452
 31
0.0
  0
LINE
  5
7E43
330
811A
100
AcDbEntity
  8
0
  6
ByBlock
100
AcDbLine
 10
1778.866167799454
 20
4705.503855791452
 30
0.0
 11
2678.866167799455
 21
4705.503855791452
 31
0.0
  0
INSERT
  5
7E44
330
811A
100
AcDbEntity
  8
0
  6
ByBlock
100
AcDbBlockReference
  2
_OPEN
 10
1728.866167799454
 20
4705.503855791452
 30
0.0
 41
50.0
 42
50.0
 43
50.0
 50
180.0
  0
INSERT
  5
7E45
330
811A
100
AcDbEntity
  8
0
  6
ByBlock
100
AcDbBlockReference
  2
_OPEN
 10
2728.866167799455
 20
4705.503855791452
 30
0.0
 41
50.0
 42
50.0
 43
50.0
  0
TEXT
  5
7E46
330
811A
100
AcDbEntity
  8
3
100
AcDbText
 10
2103.866167799455
 20
4718.003855791452
 30
0.0
 40
75.0
  1
1000
100
AcDbText
  0
POINT
  5
7E47
330
811A
100
AcDbEntity
  8
DEFPOINTS
  6
ByBlock
 62
     0
100
AcDbPoint
 10
1728.866167799454
 20
4554.380572240497
 30
0.0
  0
POINT
  5
7E48
330
811A
100
AcDbEntity
  8
DEFPOINTS
  6
ByBlock
 62
     0
100
AcDbPoint
 10
2728.866167799455
 20
4554.380572240497
 30
0.0
  0
POINT
  5
7E49
330
811A
100
AcDbEntity
  8
DEFPOINTS
  6
ByBlock
 62
     0
100
AcDbPoint
 10
2728.866167799455
 20
4705.503855791452
 30
0.0
  0
ENDBLK
  5
7E4A
330
811A
100
AcDbEntity
  8
0
100
AcDbBlockEnd
  0
BLOCK
  5
811D
330
811C
100
AcDbEntity
  8
0
100
AcDbBlockBegin
  2
*D9
 70
     1
 10
0.0
 20
0.0
 30
0.0
  3
*D9
  1

  0
LINE
  5
7E4C
330
811C
100
AcDbEntity
  8
0
  6
ByBlock
100
AcDbLine
 10
2753.866167799455
 20
4554.380572240497
 30
0.0
 11
2971.802895949344
 21
4554.380572240497
 31
0.0
  0
LINE
  5
7E4D
330
811C
100
AcDbEntity
  8
0
  6
ByBlock
100
AcDbLine
 10
2753.866167799455
 20
3299.3805722405
 30
0.0
 11
2971.802895949344
 21
3299.3805722405
 31
0.0
  0
LINE
  5
7E4E
330
811C
100
AcDbEntity
  8
0
  6
ByBlock
100
AcDbLine
 10
2946.802895949344
 20
4504.380572240497
 30
0.0
 11
2946.802895949344
 21
3349.380572240499
 31
0.0
  0
INSERT
  5
7E4F
330
811C
100
AcDbEntity
  8
0
  6
ByBlock
100
AcDbBlockReference
  2
_OPEN
 10
2946.802895949344
 20
4554.380572240497
 30
0.0
 41
50.0
 42
50.0
 43
50.0
 50
90.0
  0
INSERT
  5
7E50
330
811C
100
AcDbEntity
  8
0
  6
ByBlock
100
AcDbBlockReference
  2
_OPEN
 10
2946.802895949344
 20
3299.3805722405
 30
0.0
 41
50.0
 42
50.0
 43
50.0
 50
270.0
  0
TEXT
  5
7E51
330
811C
100
AcDbEntity
  8
3
100
AcDbText
 10
2934.302895949344
 20
3801.8805722405
 30
0.0
 40
75.0
  1
1255
 50
90.0
100
AcDbText
  0
POINT
  5
7E52
330
811C
100
AcDbEntity
  8
DEFPOINTS
  6
ByBlock
 62
     0
100
AcDbPoint
 10
2728.866167799455
 20
4554.380572240497
 30
0.0
  0
POINT
  5
7E53
330
811C
100
AcDbEntity
  8
DEFPOINTS
  6
ByBlock
 62
     0
100
AcDbPoint
 10
2728.866167799455
 20
3299.3805722405
 30
0.0
  0
POINT
  5
7E54
330
811C
100
AcDbEntity
  8
DEFPOINTS
  6
ByBlock
 62
     0
100
AcDbPoint
 10
2946.802895949344
 20
3299.3805722405
 30
0.0
  0
ENDBLK
  5
7E55
330
811C
100
AcDbEntity
  8
0
100
AcDbBlockEnd
  0
BLOCK
  5
811F
330
811E
100
AcDbEntity
  8
0
100
AcDbBlockBegin
  2
*D10
 70
     1
 10
0.0
 20
0.0
 30
0.0
  3
*D10
  1

  0
LINE
  5
7E57
330
811E
100
AcDbEntity
  8
0
  6
ByBlock
100
AcDbLine
 10
953.8661677994548
 20
4049.380572240499
 30
0.0
 11
801.7133386761415
 21
4049.380572240499
 31
0.0
  0
LINE
  5
7E58
330
811E
100
AcDbEntity
  8
0
  6
ByBlock
100
AcDbLine
 10
953.8661677994548
 20
3299.3805722405
 30
0.0
 11
801.7133386761415
 21
3299.3805722405
 31
0.0
  0
LINE
  5
7E59
330
811E
100
AcDbEntity
  8
0
  6
ByBlock
100
AcDbLine
 10
826.7133386761415
 20
3999.380572240499
 30
0.0
 11
826.7133386761415
 21
3349.3805722405
 31
0.0
  0
INSERT
  5
7E5A
330
811E
100
AcDbEntity
  8
0
  6
ByBlock
100
AcDbBlockReference
  2
_OPEN
 10
826.7133386761415
 20
4049.380572240499
 30
0.0
 41
50.0
 42
50.0
 43
50.0
 50
90.0
  0
INSERT
  5
7E5B
330
811E
100
AcDbEntity
  8
0
  6
ByBlock
100
AcDbBlockReference
  2
_OPEN
 10
826.7133386761415
 20
3299.3805722405
 30
0.0
 41
50.0
 42
50.0
 43
50.0
 50
270.0
  0
TEXT
  5
7E5C
330
811E
100
AcDbEntity
  8
3
100
AcDbText
 10
814.2133386761415
 20
3577.952000811928
 30
0.0
 40
75.0
  1
750
 50
90.0
100
AcDbText
  0
POINT
  5
7E5D
330
811E
100
AcDbEntity
  8
DEFPOINTS
  6
ByBlock
 62
     0
100
AcDbPoint
 10
978.8661677994548
 20
4049.380572240499
 30
0.0
  0
POINT
  5
7E5E
330
811E
100
AcDbEntity
  8
DEFPOINTS
  6
ByBlock
 62
     0
100
AcDbPoint
 10
978.8661677994548
 20
3299.3805722405
 30
0.0
  0
POINT
  5
7E5F
330
811E
100
AcDbEntity
  8
DEFPOINTS
  6
ByBlock
 62
     0
100
AcDbPoint
 10
826.7133386761415
 20
3299.3805722405
 30
0.0
  0
ENDBLK
  5
7E60
330
811E
100
AcDbEntity
  8
0
100
AcDbBlockEnd
  0
BLOCK
  5
8121
330
8120
100
AcDbEntity
  8
0
100
AcDbBlockBegin
  2
*D11
 70
     1
 10
0.0
 20
0.0
 30
0.0
  3
*D11
  1

  0
LINE
  5
7E62
330
8120
100
AcDbEntity
  8
0
  6
ByBlock
100
AcDbLine
 10
978.8661677994548
 20
3274.3805722405
 30
0.0
 11
978.8661677994548
 21
3013.7147873961
 31
0.0
  0
LINE
  5
7E63
330
8120
100
AcDbEntity
  8
0
  6
ByBlock
100
AcDbLine
 10
2728.866167799455
 20
3274.380572240499
 30
0.0
 11
2728.866167799455
 21
3013.7147873961
 31
0.0
  0
LINE
  5
7E64
330
8120
100
AcDbEntity
  8
0
  6
ByBlock
100
AcDbLine
 10
1028.866167799455
 20
3038.7147873961
 30
0.0
 11
2678.866167799455
 21
3038.7147873961
 31
0.0
  0
INSERT
  5
7E65
330
8120
100
AcDbEntity
  8
0
  6
ByBlock
100
AcDbBlockReference
  2
_OPEN
 10
978.8661677994548
 20
3038.7147873961
 30
0.0
 41
50.0
 42
50.0
 43
50.0
 50
180.0
  0
INSERT
  5
7E66
330
8120
100
AcDbEntity
  8
0
  6
ByBlock
100
AcDbBlockReference
  2
_OPEN
 10
2728.866167799455
 20
3038.7147873961
 30
0.0
 41
50.0
 42
50.0
 43
50.0
  0
TEXT
  5
7E67
330
8120
100
AcDbEntity
  8
3
100
AcDbText
 10
1728.866167799455
 20
3051.2147873961
 30
0.0
 40
75.0
  1
1750
100
AcDbText
  0
POINT
  5
7E68
330
8120
100
AcDbEntity
  8
DEFPOINTS
  6
ByBlock
 62
     0
100
AcDbPoint
 10
978.8661677994548
 20
3299.3805722405
 30
0.0
  0
POINT
  5
7E69
330
8120
100
AcDbEntity
  8
DEFPOINTS
  6
ByBlock
 62
     0
100
AcDbPoint
 10
2728.866167799455
 20
3299.3805722405
 30
0.0
  0
POINT
  5
7E6A
330
8120
100
AcDbEntity
  8
DEFPOINTS
  6
ByBlock
 62
     0
100
AcDbPoint
 10
2728.866167799455
 20
3038.7147873961
 30
0.0
  0
ENDBLK
  5
7E6B
330
8120
100
AcDbEntity
  8
0
100
AcDbBlockEnd
  0
BLOCK
  5
8123
330
8122
100
AcDbEntity
  8
0
100
AcDbBlockBegin
  2
*D12
 70
     1
 10
0.0
 20
0.0
 30
0.0
  3
*D12
  1

  0
LINE
  5
7F3C
330
8122
100
AcDbEntity
  8
0
  6
ByBlock
100
AcDbLine
 10
3555.836459299147
 20
3368.662218759831
 30
0.0
 11
3555.836459299147
 21
3497.725405145039
 31
0.0
  0
LINE
  5
7F3D
330
8122
100
AcDbEntity
  8
0
  6
ByBlock
100
AcDbLine
 10
4555.83645929915
 20
3368.662218759831
 30
0.0
 11
4555.83645929915
 21
3497.725405145039
 31
0.0
  0
LINE
  5
7F3E
330
8122
100
AcDbEntity
  8
0
  6
ByBlock
100
AcDbLine
 10
3605.836459299147
 20
3472.725405145039
 30
0.0
 11
4505.836459299149
 21
3472.725405145039
 31
0.0
  0
INSERT
  5
7F3F
330
8122
100
AcDbEntity
  8
0
  6
ByBlock
100
AcDbBlockReference
  2
_OPEN
 10
3555.836459299147
 20
3472.725405145039
 30
0.0
 41
50.0
 42
50.0
 43
50.0
 50
180.0
  0
INSERT
  5
7F40
330
8122
100
AcDbEntity
  8
0
  6
ByBlock
100
AcDbBlockReference
  2
_OPEN
 10
4555.83645929915
 20
3472.725405145039
 30
0.0
 41
50.0
 42
50.0
 43
50.0
  0
TEXT
  5
7F41
330
8122
100
AcDbEntity
  8
3
100
AcDbText
 10
3930.836459299148
 20
3485.225405145039
 30
0.0
 40
75.0
  1
1000
100
AcDbText
  0
POINT
  5
7F42
330
8122
100
AcDbEntity
  8
DEFPOINTS
  6
ByBlock
 62
     0
100
AcDbPoint
 10
3555.836459299147
 20
3343.662218759831
 30
0.0
  0
POINT
  5
7F43
330
8122
100
AcDbEntity
  8
DEFPOINTS
  6
ByBlock
 62
     0
100
AcDbPoint
 10
4555.83645929915
 20
3343.662218759831
 30
0.0
  0
POINT
  5
7F44
330
8122
100
AcDbEntity
  8
DEFPOINTS
  6
ByBlock
 62
     0
100
AcDbPoint
 10
4555.83645929915
 20
3472.725405145039
 30
0.0
  0
ENDBLK
  5
7F45
330
8122
100
AcDbEntity
  8
0
100
AcDbBlockEnd
  0
BLOCK
  5
8125
330
8124
100
AcDbEntity
  8
0
100
AcDbBlockBegin
  2
*D13
 70
     1
 10
0.0
 20
0.0
 30
0.0
  3
*D13
  1

  0
LINE
  5
8064
330
8124
100
AcDbEntity
  8
3
100
AcDbLine
 10
635.637764946654
 20
4892.359109654242
 30
0.0
 11
635.637764946654
 21
5548.482393205195
 31
0.0
  0
LINE
  5
8065
330
8124
100
AcDbEntity
  8
3
100
AcDbLine
 10
1335.637764946653
 20
5523.482393205195
 30
0.0
 11
685.637764946654
 21
5523.482393205195
 31
0.0
  0
INSERT
  5
8066
330
8124
100
AcDbEntity
  8
3
100
AcDbBlockReference
  2
_OPEN
 10
1385.637764946653
 20
5523.482393205195
 30
0.0
 41
50.0
 42
50.0
 43
50.0
  0
INSERT
  5
8067
330
8124
100
AcDbEntity
  8
3
100
AcDbBlockReference
  2
_OPEN
 10
635.637764946654
 20
5523.482393205195
 30
0.0
 41
50.0
 42
50.0
 43
50.0
 50
180.0
  0
TEXT
  5
8087
330
8124
100
AcDbEntity
  8
3
100
AcDbText
 10
860.6379999999999
 20
5440.73
 30
0.0
 40
75.0
  1
750
100
AcDbText
  0
POINT
  5
8069
330
8124
100
AcDbEntity
  8
DEFPOINTS
 62
     0
100
AcDbPoint
 10
1385.637764946653
 20
5372.359109654242
 30
0.0
  0
POINT
  5
806A
330
8124
100
AcDbEntity
  8
DEFPOINTS
 62
     0
100
AcDbPoint
 10
635.637764946654
 20
4867.359109654242
 30
0.0
  0
POINT
  5
806B
330
8124
100
AcDbEntity
  8
DEFPOINTS
 62
     0
100
AcDbPoint
 10
635.637764946654
 20
5523.482393205195
 30
0.0
  0
ENDBLK
  5
7E96
330
8124
100
AcDbEntity
  8
0
100
AcDbBlockEnd
  0
BLOCK
  5
8127
330
8126
100
AcDbEntity
  8
0
100
AcDbBlockBegin
  2
*D14
 70
     1
 10
0.0
 20
0.0
 30
0.0
  3
*D14
  1

  0
LINE
  5
7F7E
330
8126
100
AcDbEntity
  8
0
  6
ByBlock
100
AcDbLine
 10
4655.836459299149
 20
2761.16221875983
 30
0.0
 11
4655.836459299149
 21
3657.645565338805
 31
0.0
  0
LINE
  5
7F7F
330
8126
100
AcDbEntity
  8
0
  6
ByBlock
100
AcDbLine
 10
4055.836459299146
 20
3591.27059252882
 30
0.0
 11
4055.836459299146
 21
3657.645565338805
 31
0.0
  0
LINE
  5
7F80
330
8126
100
AcDbEntity
  8
0
  6
ByBlock
100
AcDbLine
 10
4605.836459299149
 20
3632.645565338805
 30
0.0
 11
4105.836459299147
 21
3632.645565338805
 31
0.0
  0
INSERT
  5
7F81
330
8126
100
AcDbEntity
  8
0
  6
ByBlock
100
AcDbBlockReference
  2
_OPEN
 10
4655.836459299149
 20
3632.645565338805
 30
0.0
 41
50.0
 42
50.0
 43
50.0
  0
INSERT
  5
7F82
330
8126
100
AcDbEntity
  8
0
  6
ByBlock
100
AcDbBlockReference
  2
_OPEN
 10
4055.836459299146
 20
3632.645565338805
 30
0.0
 41
50.0
 42
50.0
 43
50.0
 50
180.0
  0
TEXT
  5
7F83
330
8126
100
AcDbEntity
  8
3
100
AcDbText
 10
4218.336459299147
 20
3677.288422481663
 30
0.0
 40
75.0
  1
(610)
100
AcDbText
  0
POINT
  5
7F84
330
8126
100
AcDbEntity
  8
DEFPOINTS
  6
ByBlock
 62
     0
100
AcDbPoint
 10
4655.836459299149
 20
2736.16221875983
 30
0.0
  0
POINT
  5
7F85
330
8126
100
AcDbEntity
  8
DEFPOINTS
  6
ByBlock
 62
     0
100
AcDbPoint
 10
4055.836459299146
 20
3566.27059252882
 30
0.0
  0
POINT
  5
7F86
330
8126
100
AcDbEntity
  8
DEFPOINTS
  6
ByBlock
 62
     0
100
AcDbPoint
 10
4055.836459299146
 20
3632.645565338805
 30
0.0
  0
ENDBLK
  5
7F87
330
8126
100
AcDbEntity
  8
0
100
AcDbBlockEnd
  0
BLOCK
  5
8129
330
8128
100
AcDbEntity
  8
0
100
AcDbBlockBegin
  2
*D15
 70
     1
 10
0.0
 20
0.0
 30
0.0
  3
*D15
  1

  0
LINE
  5
806C
330
8128
100
AcDbEntity
  8
3
100
AcDbLine
 10
3245.836459299147
 20
3020.662218759831
 30
0.0
 11
3245.836459299147
 21
3657.645565338805
 31
0.0
  0
LINE
  5
806D
330
8128
100
AcDbEntity
  8
3
100
AcDbLine
 10
4005.836459299146
 20
3632.645565338805
 30
0.0
 11
3295.836459299147
 21
3632.645565338805
 31
0.0
  0
INSERT
  5
806E
330
8128
100
AcDbEntity
  8
3
100
AcDbBlockReference
  2
_OPEN
 10
4055.836459299146
 20
3632.645565338805
 30
0.0
 41
50.0
 42
50.0
 43
50.0
  0
INSERT
  5
806F
330
8128
100
AcDbEntity
  8
3
100
AcDbBlockReference
  2
_OPEN
 10
3245.836459299147
 20
3632.645565338805
 30
0.0
 41
50.0
 42
50.0
 43
50.0
 50
180.0
  0
TEXT
  5
8088
330
8128
100
AcDbEntity
  8
3
100
AcDbText
 10
3500.84
 20
3612.4
 30
0.0
 40
75.0
  1
MAX
100
AcDbText
  0
TEXT
  5
8089
330
8128
100
AcDbEntity
  8
3
100
AcDbText
 10
3500.84
 20
3514.9
 30
0.0
 40
75.0
  1
860
100
AcDbText
  0
POINT
  5
8071
330
8128
100
AcDbEntity
  8
DEFPOINTS
 62
     0
100
AcDbPoint
 10
4055.836459299146
 20
3566.27059252882
 30
0.0
  0
POINT
  5
8072
330
8128
100
AcDbEntity
  8
DEFPOINTS
 62
     0
100
AcDbPoint
 10
3245.836459299147
 20
2995.662218759831
 30
0.0
  0
POINT
  5
8073
330
8128
100
AcDbEntity
  8
DEFPOINTS
 62
     0
100
AcDbPoint
 10
3245.836459299147
 20
3632.645565338805
 30
0.0
  0
ENDBLK
  5
7F7C
330
8128
100
AcDbEntity
  8
0
100
AcDbBlockEnd
  0
BLOCK
  5
812B
330
812A
100
AcDbEntity
  8
0
100
AcDbBlockBegin
  2
*D16
 70
     1
 10
0.0
 20
0.0
 30
0.0
  3
*D16
  1

  0
LINE
  5
7EAD
330
812A
100
AcDbEntity
  8
0
  6
ByBlock
100
AcDbLine
 10
2773.866167799454
 20
1606.38761540948
 30
0.0
 11
2773.866167799454
 21
2284.4493873368
 31
0.0
  0
LINE
  5
7EAE
330
812A
100
AcDbEntity
  8
0
  6
ByBlock
100
AcDbLine
 10
2228.866167799455
 20
2243.905936120953
 30
0.0
 11
2228.866167799455
 21
2284.4493873368
 31
0.0
  0
LINE
  5
7EAF
330
812A
100
AcDbEntity
  8
0
  6
ByBlock
100
AcDbLine
 10
2723.866167799455
 20
2259.4493873368
 30
0.0
 11
2278.866167799455
 21
2259.4493873368
 31
0.0
  0
INSERT
  5
7EB0
330
812A
100
AcDbEntity
  8
0
  6
ByBlock
100
AcDbBlockReference
  2
_OPEN
 10
2773.866167799454
 20
2259.4493873368
 30
0.0
 41
50.0
 42
50.0
 43
50.0
  0
INSERT
  5
7EB1
330
812A
100
AcDbEntity
  8
0
  6
ByBlock
100
AcDbBlockReference
  2
_OPEN
 10
2228.866167799455
 20
2259.4493873368
 30
0.0
 41
50.0
 42
50.0
 43
50.0
 50
180.0
  0
TEXT
  5
7EB2
330
812A
100
AcDbEntity
  8
3
100
AcDbText
 10
2404.937596370882
 20
2271.949387336801
 30
0.0
 40
75.0
  1
545
100
AcDbText
  0
POINT
  5
7EB3
330
812A
100
AcDbEntity
  8
DEFPOINTS
  6
ByBlock
 62
     0
100
AcDbPoint
 10
2773.866167799454
 20
1581.38761540948
 30
0.0
  0
POINT
  5
7EB4
330
812A
100
AcDbEntity
  8
DEFPOINTS
  6
ByBlock
 62
     0
100
AcDbPoint
 10
2228.866167799455
 20
2218.905936120953
 30
0.0
  0
POINT
  5
7EB5
330
812A
100
AcDbEntity
  8
DEFPOINTS
  6
ByBlock
 62
     0
100
AcDbPoint
 10
2228.866167799455
 20
2259.4493873368
 30
0.0
  0
ENDBLK
  5
7EB6
330
812A
100
AcDbEntity
  8
0
100
AcDbBlockEnd
  0
BLOCK
  5
812D
330
812C
100
AcDbEntity
  8
0
100
AcDbBlockBegin
  2
*D17
 70
     1
 10
0.0
 20
0.0
 30
0.0
  3
*D17
  1

  0
LINE
  5
8074
330
812C
100
AcDbEntity
  8
3
100
AcDbLine
 10
1199.637764946654
 20
2741.66221875983
 30
0.0
 11
1199.637764946654
 21
3498.223990687151
 31
0.0
  0
LINE
  5
8075
330
812C
100
AcDbEntity
  8
3
100
AcDbLine
 10
1835.637764946654
 20
3473.223990687151
 30
0.0
 11
1249.637764946654
 21
3473.223990687151
 31
0.0
  0
INSERT
  5
8076
330
812C
100
AcDbEntity
  8
3
100
AcDbBlockReference
  2
_OPEN
 10
1885.637764946654
 20
3473.223990687151
 30
0.0
 41
50.0
 42
50.0
 43
50.0
  0
INSERT
  5
8077
330
812C
100
AcDbEntity
  8
3
100
AcDbBlockReference
  2
_OPEN
 10
1199.637764946654
 20
3473.223990687151
 30
0.0
 41
50.0
 42
50.0
 43
50.0
 50
180.0
  0
TEXT
  5
808A
330
812C
100
AcDbEntity
  8
3
100
AcDbText
 10
1392.64
 20
3390.47
 30
0.0
 40
75.0
  1
686
100
AcDbText
  0
POINT
  5
8079
330
812C
100
AcDbEntity
  8
DEFPOINTS
 62
     0
100
AcDbPoint
 10
1885.637764946654
 20
3432.680539471301
 30
0.0
  0
POINT
  5
807A
330
812C
100
AcDbEntity
  8
DEFPOINTS
 62
     0
100
AcDbPoint
 10
1199.637764946654
 20
2716.662218759831
 30
0.0
  0
POINT
  5
807B
330
812C
100
AcDbEntity
  8
DEFPOINTS
 62
     0
100
AcDbPoint
 10
1199.637764946654
 20
3473.223990687151
 30
0.0
  0
ENDBLK
  5
7EC0
330
812C
100
AcDbEntity
  8
0
100
AcDbBlockEnd
  0
BLOCK
  5
812F
330
812E
100
AcDbEntity
  8
0
100
AcDbBlockBegin
  2
*D18
 70
     1
 10
0.0
 20
0.0
 30
0.0
  3
*D18
  1

  0
LINE
  5
7EC2
330
812E
100
AcDbEntity
  8
0
  6
ByBlock
100
AcDbLine
 10
2194.866167799455
 20
2129.88761540948
 30
0.0
 11
3254.786692529358
 21
2129.88761540948
 31
0.0
  0
LINE
  5
7EC3
330
812E
100
AcDbEntity
  8
0
  6
ByBlock
100
AcDbLine
 10
2945.337959649845
 20
1561.887615409481
 30
0.0
 11
3254.786692529358
 21
1561.887615409481
 31
0.0
  0
LINE
  5
7EC4
330
812E
100
AcDbEntity
  8
0
  6
ByBlock
100
AcDbLine
 10
3229.786692529358
 20
2079.88761540948
 30
0.0
 11
3229.786692529358
 21
1611.887615409481
 31
0.0
  0
INSERT
  5
7EC5
330
812E
100
AcDbEntity
  8
0
  6
ByBlock
100
AcDbBlockReference
  2
_OPEN
 10
3229.786692529358
 20
2129.88761540948
 30
0.0
 41
50.0
 42
50.0
 43
50.0
 50
90.0
  0
INSERT
  5
7EC6
330
812E
100
AcDbEntity
  8
0
  6
ByBlock
100
AcDbBlockReference
  2
_OPEN
 10
3229.786692529358
 20
1561.887615409481
 30
0.0
 41
50.0
 42
50.0
 43
50.0
 50
270.0
  0
TEXT
  5
7EC7
330
812E
100
AcDbEntity
  8
3
100
AcDbText
 10
3217.286692529358
 20
1749.459043980909
 30
0.0
 40
75.0
  1
568
 50
90.0
100
AcDbText
  0
POINT
  5
7EC8
330
812E
100
AcDbEntity
  8
DEFPOINTS
  6
ByBlock
 62
     0
100
AcDbPoint
 10
2169.866167799455
 20
2129.88761540948
 30
0.0
  0
POINT
  5
7EC9
330
812E
100
AcDbEntity
  8
DEFPOINTS
  6
ByBlock
 62
     0
100
AcDbPoint
 10
2920.337959649845
 20
1561.887615409481
 30
0.0
  0
POINT
  5
7ECA
330
812E
100
AcDbEntity
  8
DEFPOINTS
  6
ByBlock
 62
     0
100
AcDbPoint
 10
3229.786692529358
 20
1561.887615409481
 30
0.0
  0
ENDBLK
  5
7ECB
330
812E
100
AcDbEntity
  8
0
100
AcDbBlockEnd
  0
BLOCK
  5
8131
330
8130
100
AcDbEntity
  8
0
100
AcDbBlockBegin
  2
*D19
 70
     1
 10
0.0
 20
0.0
 30
0.0
  3
*D19
  1

  0
LINE
  5
807C
330
8130
100
AcDbEntity
  8
3
100
AcDbLine
 10
2410.637764946654
 20
1815.662218759831
 30
0.0
 11
2911.558289676555
 21
1815.662218759831
 31
0.0
  0
LINE
  5
807D
330
8130
100
AcDbEntity
  8
3
100
AcDbLine
 10
2886.558289676555
 20
2725.662218759831
 30
0.0
 11
2886.558289676555
 21
1865.662218759831
 31
0.0
  0
INSERT
  5
807E
330
8130
100
AcDbEntity
  8
3
100
AcDbBlockReference
  2
_OPEN
 10
2886.558289676555
 20
2775.662218759831
 30
0.0
 41
50.0
 42
50.0
 43
50.0
 50
90.0
  0
INSERT
  5
807F
330
8130
100
AcDbEntity
  8
3
100
AcDbBlockReference
  2
_OPEN
 10
2886.558289676555
 20
1815.662218759831
 30
0.0
 41
50.0
 42
50.0
 43
50.0
 50
270.0
  0
TEXT
  5
808B
330
8130
100
AcDbEntity
  8
3
100
AcDbText
 10
2686.56
 20
2162.91
 30
0.0
 40
75.0
  1
960
100
AcDbText
  0
POINT
  5
8081
330
8130
100
AcDbEntity
  8
DEFPOINTS
 62
     0
100
AcDbPoint
 10
2577.109556797044
 20
2775.662218759831
 30
0.0
  0
POINT
  5
8082
330
8130
100
AcDbEntity
  8
DEFPOINTS
 62
     0
100
AcDbPoint
 10
2385.637764946654
 20
1815.662218759831
 30
0.0
  0
POINT
  5
8083
330
8130
100
AcDbEntity
  8
DEFPOINTS
 62
     0
100
AcDbPoint
 10
2886.558289676555
 20
1815.662218759831
 30
0.0
  0
ENDBLK
  5
7ED5
330
8130
100
AcDbEntity
  8
0
100
AcDbBlockEnd
  0
BLOCK
  5
8133
330
8132
100
AcDbEntity
  8
0
100
AcDbBlockBegin
  2
*D20
 70
     1
 10
0.0
 20
0.0
 30
0.0
  3
*D20
  1

  0
LINE
  5
7EE3
330
8132
100
AcDbEntity
  8
0
  6
ByBlock
100
AcDbLine
 10
2753.866167799455
 20
556.8876154094814
 30
0.0
 11
3254.786692529358
 21
556.8876154094814
 31
0.0
  0
LINE
  5
7EE4
330
8132
100
AcDbEntity
  8
0
  6
ByBlock
100
AcDbLine
 10
2753.866167799455
 20
456.8876154094813
 30
0.0
 11
3254.786692529358
 21
456.8876154094813
 31
0.0
  0
LINE
  5
7EE5
330
8132
100
AcDbEntity
  8
0
  6
ByBlock
100
AcDbLine
 10
3229.786692529358
 20
606.8876154094815
 30
0.0
 11
3229.786692529358
 21
656.8876154094815
 31
0.0
  0
LINE
  5
7EE6
330
8132
100
AcDbEntity
  8
0
  6
ByBlock
100
AcDbLine
 10
3229.786692529358
 20
406.8876154094813
 30
0.0
 11
3229.786692529358
 21
153.3161868380529
 31
0.0
  0
LINE
  5
7EE7
330
8132
100
AcDbEntity
  8
0
  6
ByBlock
100
AcDbLine
 10
3229.786692529358
 20
556.8876154094814
 30
0.0
 11
3229.786692529358
 21
456.8876154094813
 31
0.0
  0
INSERT
  5
7EE8
330
8132
100
AcDbEntity
  8
0
  6
ByBlock
100
AcDbBlockReference
  2
_DOT
 10
3229.786692529358
 20
556.8876154094814
 30
0.0
 41
50.0
 42
50.0
 43
50.0
 50
270.0
  0
INSERT
  5
7EE9
330
8132
100
AcDbEntity
  8
0
  6
ByBlock
100
AcDbBlockReference
  2
_OPEN
 10
3229.786692529358
 20
456.8876154094813
 30
0.0
 41
50.0
 42
50.0
 43
50.0
 50
90.0
  0
TEXT
  5
7EEA
330
8132
100
AcDbEntity
  8
3
100
AcDbText
 10
3217.286692529358
 20
165.8161868380528
 30
0.0
 40
75.0
  1
100
 50
90.0
100
AcDbText
  0
POINT
  5
7EEB
330
8132
100
AcDbEntity
  8
DEFPOINTS
  6
ByBlock
 62
     0
100
AcDbPoint
 10
2728.866167799455
 20
556.8876154094814
 30
0.0
  0
POINT
  5
7EEC
330
8132
100
AcDbEntity
  8
DEFPOINTS
  6
ByBlock
 62
     0
100
AcDbPoint
 10
2728.866167799455
 20
456.8876154094813
 30
0.0
  0
POINT
  5
7EED
330
8132
100
AcDbEntity
  8
DEFPOINTS
  6
ByBlock
 62
     0
100
AcDbPoint
 10
3229.786692529358
 20
456.8876154094813
 30
0.0
  0
ENDBLK
  5
7EEE
330
8132
100
AcDbEntity
  8
0
100
AcDbBlockEnd
  0
BLOCK
  5
8135
330
8134
100
AcDbEntity
  8
0
100
AcDbBlockBegin
  2
*D21
 70
     1
 10
0.0
 20
0.0
 30
0.0
  3
*D21
  1

  0
LINE
  5
7EFB
330
8134
100
AcDbEntity
  8
0
  6
ByBlock
100
AcDbLine
 10
2773.866167799454
 20
1606.38761540948
 30
0.0
 11
2773.866167799454
 21
2429.427103778762
 31
0.0
  0
LINE
  5
7EFC
330
8134
100
AcDbEntity
  8
0
  6
ByBlock
100
AcDbLine
 10
978.8661677994548
 20
726.8876154094804
 30
0.0
 11
978.8661677994548
 21
2429.427103778762
 31
0.0
  0
LINE
  5
7EFD
330
8134
100
AcDbEntity
  8
0
  6
ByBlock
100
AcDbLine
 10
2723.866167799455
 20
2404.427103778762
 30
0.0
 11
1028.866167799454
 21
2404.427103778762
 31
0.0
  0
INSERT
  5
7EFE
330
8134
100
AcDbEntity
  8
0
  6
ByBlock
100
AcDbBlockReference
  2
_OPEN
 10
2773.866167799454
 20
2404.427103778762
 30
0.0
 41
50.0
 42
50.0
 43
50.0
  0
INSERT
  5
7EFF
330
8134
100
AcDbEntity
  8
0
  6
ByBlock
100
AcDbBlockReference
  2
_OPEN
 10
978.8661677994548
 20
2404.427103778762
 30
0.0
 41
50.0
 42
50.0
 43
50.0
 50
180.0
  0
TEXT
  5
7F00
330
8134
100
AcDbEntity
  8
3
100
AcDbText
 10
1751.366167799454
 20
2416.927103778762
 30
0.0
 40
75.0
  1
1795
100
AcDbText
  0
POINT
  5
7F01
330
8134
100
AcDbEntity
  8
DEFPOINTS
  6
ByBlock
 62
     0
100
AcDbPoint
 10
2773.866167799454
 20
1581.38761540948
 30
0.0
  0
POINT
  5
7F02
330
8134
100
AcDbEntity
  8
DEFPOINTS
  6
ByBlock
 62
     0
100
AcDbPoint
 10
978.8661677994548
 20
701.8876154094804
 30
0.0
  0
POINT
  5
7F03
330
8134
100
AcDbEntity
  8
DEFPOINTS
  6
ByBlock
 62
     0
100
AcDbPoint
 10
978.8661677994548
 20
2404.427103778762
 30
0.0
  0
ENDBLK
  5
7F04
330
8134
100
AcDbEntity
  8
0
100
AcDbBlockEnd
  0
BLOCK
  5
8137
330
8136
100
AcDbEntity
  8
0
100
AcDbBlockBegin
  2
*D22
 70
     1
 10
0.0
 20
0.0
 30
0.0
  3
*D22
  1

  0
LINE
  5
7F92
330
8136
100
AcDbEntity
  8
0
  6
ByBlock
 62
     0
100
AcDbLine
 10
635.637764946654
 20
1663.66221875983
 30
0.0
 11
635.637764946654
 21
1500.249000924164
 31
0.0
  0
LINE
  5
7F93
330
8136
100
AcDbEntity
  8
0
  6
ByBlock
 62
     0
100
AcDbLine
 10
1885.637764946654
 20
1663.66221875983
 30
0.0
 11
1885.637764946654
 21
1500.249000924164
 31
0.0
  0
LINE
  5
7F94
330
8136
100
AcDbEntity
  8
0
  6
ByBlock
 62
     0
100
AcDbLine
 10
685.637764946654
 20
1525.249000924164
 30
0.0
 11
1835.637764946654
 21
1525.249000924164
 31
0.0
  0
INSERT
  5
7F95
330
8136
100
AcDbEntity
  8
0
  6
ByBlock
 62
     0
100
AcDbBlockReference
  2
_OPEN
 10
635.637764946654
 20
1525.249000924164
 30
0.0
 41
50.0
 42
50.0
 43
50.0
 50
180.0
  0
INSERT
  5
7F96
330
8136
100
AcDbEntity
  8
0
  6
ByBlock
 62
     0
100
AcDbBlockReference
  2
_OPEN
 10
1885.637764946654
 20
1525.249000924164
 30
0.0
 41
50.0
 42
50.0
 43
50.0
  0
TEXT
  5
7F97
330
8136
100
AcDbEntity
  8
3
 62
     0
100
AcDbText
 10
1135.637764946654
 20
1550.249000924164
 30
0.0
 40
75.0
  1
1250
100
AcDbText
  0
POINT
  5
7F98
330
8136
100
AcDbEntity
  8
DEFPOINTS
  6
ByBlock
 62
     0
100
AcDbPoint
 10
635.637764946654
 20
1688.66221875983
 30
0.0
  0
POINT
  5
7F99
330
8136
100
AcDbEntity
  8
DEFPOINTS
  6
ByBlock
 62
     0
100
AcDbPoint
 10
1885.637764946654
 20
1688.66221875983
 30
0.0
  0
POINT
  5
7F9A
330
8136
100
AcDbEntity
  8
DEFPOINTS
  6
ByBlock
 62
     0
100
AcDbPoint
 10
1885.637764946654
 20
1525.249000924164
 30
0.0
  0
ENDBLK
  5
7F9B
330
8136
100
AcDbEntity
  8
0
100
AcDbBlockEnd
  0
BLOCK
  5
8139
330
8138
100
AcDbEntity
  8
0
100
AcDbBlockBegin
  2
*D23
 70
     1
 10
0.0
 20
0.0
 30
0.0
  3
*D23
  1

  0
LINE
  5
7F9F
330
8138
100
AcDbEntity
  8
0
  6
ByBlock
 62
     0
100
AcDbLine
 10
1885.637764946654
 20
1663.66221875983
 30
0.0
 11
1885.637764946654
 21
1500.249000924164
 31
0.0
  0
LINE
  5
7FA0
330
8138
100
AcDbEntity
  8
0
  6
ByBlock
 62
     0
100
AcDbLine
 10
2385.637764946654
 20
1663.66221875983
 30
0.0
 11
2385.637764946654
 21
1500.249000924164
 31
0.0
  0
LINE
  5
7FA1
330
8138
100
AcDbEntity
  8
0
  6
ByBlock
 62
     0
100
AcDbLine
 10
1935.637764946654
 20
1525.249000924164
 30
0.0
 11
2335.637764946654
 21
1525.249000924164
 31
0.0
  0
INSERT
  5
7FA2
330
8138
100
AcDbEntity
  8
0
  6
ByBlock
 62
     0
100
AcDbBlockReference
  2
_OPEN
 10
1885.637764946654
 20
1525.249000924164
 30
0.0
 41
50.0
 42
50.0
 43
50.0
 50
180.0
  0
INSERT
  5
7FA3
330
8138
100
AcDbEntity
  8
0
  6
ByBlock
 62
     0
100
AcDbBlockReference
  2
_OPEN
 10
2385.637764946654
 20
1525.249000924164
 30
0.0
 41
50.0
 42
50.0
 43
50.0
  0
TEXT
  5
7FA4
330
8138
100
AcDbEntity
  8
3
 62
     0
100
AcDbText
 10
2039.209193518082
 20
1550.249000924164
 30
0.0
 40
75.0
  1
500
100
AcDbText
  0
POINT
  5
7FA5
330
8138
100
AcDbEntity
  8
DEFPOINTS
  6
ByBlock
 62
     0
100
AcDbPoint
 10
1885.637764946654
 20
1688.66221875983
 30
0.0
  0
POINT
  5
7FA6
330
8138
100
AcDbEntity
  8
DEFPOINTS
  6
ByBlock
 62
     0
100
AcDbPoint
 10
2385.637764946654
 20
1688.66221875983
 30
0.0
  0
POINT
  5
7FA7
330
8138
100
AcDbEntity
  8
DEFPOINTS
  6
ByBlock
 62
     0
100
AcDbPoint
 10
2385.637764946654
 20
1525.249000924164
 30
0.0
  0
ENDBLK
  5
7FA8
330
8138
100
AcDbEntity
  8
0
100
AcDbBlockEnd
  0
BLOCK
  5
813B
330
813A
100
AcDbEntity
  8
0
100
AcDbBlockBegin
  2
*D24
 70
     1
 10
0.0
 20
0.0
 30
0.0
  3
*D24
  1

  0
LINE
  5
7FAC
330
813A
100
AcDbEntity
  8
0
  6
ByBlock
 62
     0
100
AcDbLine
 10
3353.836459299146
 20
1663.66221875983
 30
0.0
 11
3353.836459299146
 21
1500.249000924164
 31
0.0
  0
LINE
  5
7FAD
330
813A
100
AcDbEntity
  8
0
  6
ByBlock
 62
     0
100
AcDbLine
 10
4055.836459299148
 20
1663.66221875983
 30
0.0
 11
4055.836459299148
 21
1500.249000924164
 31
0.0
  0
LINE
  5
7FAE
330
813A
100
AcDbEntity
  8
0
  6
ByBlock
 62
     0
100
AcDbLine
 10
3403.836459299148
 20
1525.249000924164
 30
0.0
 11
4005.836459299148
 21
1525.249000924164
 31
0.0
  0
INSERT
  5
7FAF
330
813A
100
AcDbEntity
  8
0
  6
ByBlock
 62
     0
100
AcDbBlockReference
  2
_OPEN
 10
3353.836459299146
 20
1525.249000924164
 30
0.0
 41
50.0
 42
50.0
 43
50.0
 50
180.0
  0
INSERT
  5
7FB0
330
813A
100
AcDbEntity
  8
0
  6
ByBlock
 62
     0
100
AcDbBlockReference
  2
_OPEN
 10
4055.836459299148
 20
1525.249000924164
 30
0.0
 41
50.0
 42
50.0
 43
50.0
  0
TEXT
  5
7FB1
330
813A
100
AcDbEntity
  8
3
 62
     0
100
AcDbText
 10
3608.407887870577
 20
1550.249000924164
 30
0.0
 40
75.0
  1
702
100
AcDbText
  0
POINT
  5
7FB2
330
813A
100
AcDbEntity
  8
DEFPOINTS
  6
ByBlock
 62
     0
100
AcDbPoint
 10
3353.836459299146
 20
1688.66221875983
 30
0.0
  0
POINT
  5
7FB3
330
813A
100
AcDbEntity
  8
DEFPOINTS
  6
ByBlock
 62
     0
100
AcDbPoint
 10
4055.836459299148
 20
1688.66221875983
 30
0.0
  0
POINT
  5
7FB4
330
813A
100
AcDbEntity
  8
DEFPOINTS
  6
ByBlock
 62
     0
100
AcDbPoint
 10
4055.836459299148
 20
1525.249000924164
 30
0.0
  0
ENDBLK
  5
7FB5
330
813A
100
AcDbEntity
  8
0
100
AcDbBlockEnd
  0
BLOCK
  5
813D
330
813C
100
AcDbEntity
  8
0
100
AcDbBlockBegin
  2
*D25
 70
     1
 10
0.0
 20
0.0
 30
0.0
  3
*D25
  1

  0
LINE
  5
7FB9
330
813C
100
AcDbEntity
  8
0
  6
ByBlock
 62
     0
100
AcDbLine
 10
4055.836459299148
 20
1663.66221875983
 30
0.0
 11
4055.836459299148
 21
1500.249000924164
 31
0.0
  0
LINE
  5
7FBA
330
813C
100
AcDbEntity
  8
0
  6
ByBlock
 62
     0
100
AcDbLine
 10
4608.836459299149
 20
1663.66221875983
 30
0.0
 11
4608.836459299149
 21
1500.249000924164
 31
0.0
  0
LINE
  5
7FBB
330
813C
100
AcDbEntity
  8
0
  6
ByBlock
 62
     0
100
AcDbLine
 10
4105.836459299147
 20
1525.249000924164
 30
0.0
 11
4558.83645929915
 21
1525.249000924164
 31
0.0
  0
INSERT
  5
7FBC
330
813C
100
AcDbEntity
  8
0
  6
ByBlock
 62
     0
100
AcDbBlockReference
  2
_OPEN
 10
4055.836459299148
 20
1525.249000924164
 30
0.0
 41
50.0
 42
50.0
 43
50.0
 50
180.0
  0
INSERT
  5
7FBD
330
813C
100
AcDbEntity
  8
0
  6
ByBlock
 62
     0
100
AcDbBlockReference
  2
_OPEN
 10
4608.836459299149
 20
1525.249000924164
 30
0.0
 41
50.0
 42
50.0
 43
50.0
  0
TEXT
  5
7FBE
330
813C
100
AcDbEntity
  8
3
 62
     0
100
AcDbText
 10
4235.907887870577
 20
1550.249000924164
 30
0.0
 40
75.0
  1
553
100
AcDbText
  0
POINT
  5
7FBF
330
813C
100
AcDbEntity
  8
DEFPOINTS
  6
ByBlock
 62
     0
100
AcDbPoint
 10
4055.836459299148
 20
1688.66221875983
 30
0.0
  0
POINT
  5
7FC0
330
813C
100
AcDbEntity
  8
DEFPOINTS
  6
ByBlock
 62
     0
100
AcDbPoint
 10
4608.836459299149
 20
1688.66221875983
 30
0.0
  0
POINT
  5
7FC1
330
813C
100
AcDbEntity
  8
DEFPOINTS
  6
ByBlock
 62
     0
100
AcDbPoint
 10
4608.836459299149
 20
1525.249000924164
 30
0.0
  0
ENDBLK
  5
7FC2
330
813C
100
AcDbEntity
  8
0
100
AcDbBlockEnd
  0
BLOCK
  5
813F
330
813E
100
AcDbEntity
  8
0
100
AcDbBlockBegin
  2
_NONE
 70
     0
 10
0.0
 20
0.0
 30
0.0
  3
_NONE
  1

  0
CIRCLE
  5
7FC6
330
813E
100
AcDbEntity
  8
0
  6
ByBlock
 62
     0
100
AcDbCircle
 10
0.0
 20
0.0
 30
0.0
 40
0.25
  0
ENDBLK
  5
7FC7
330
813E
100
AcDbEntity
  8
0
100
AcDbBlockEnd
  0
BLOCK
  5
8141
330
8140
100
AcDbEntity
  8
0
100
AcDbBlockBegin
  2
*D27
 70
     1
 10
0.0
 20
0.0
 30
0.0
  3
*D27
  1

  0
LINE
  5
7FE4
330
8140
100
AcDbEntity
  8
0
  6
ByBlock
 62
     0
100
AcDbLine
 10
2884.623329182304
 20
1720.66221875983
 30
0.0
 11
2884.623329182304
 21
1815.662218759831
 31
0.0
  0
TEXT
  5
7FE5
330
8140
100
AcDbEntity
  8
3
 62
     0
100
AcDbText
 10
3029.266186325162
 20
1659.23364733126
 30
0.0
 40
75.0
  1
(95)
 50
90.0
100
AcDbText
  0
POINT
  5
7FE6
330
8140
100
AcDbEntity
  8
DEFPOINTS
  6
ByBlock
 62
     0
100
AcDbPoint
 10
2385.637764946654
 20
1720.66221875983
 30
0.0
  0
POINT
  5
7FE7
330
8140
100
AcDbEntity
  8
DEFPOINTS
  6
ByBlock
 62
     0
100
AcDbPoint
 10
2385.637764946654
 20
1815.662218759831
 30
0.0
  0
POINT
  5
7FE8
330
8140
100
AcDbEntity
  8
DEFPOINTS
  6
ByBlock
 62
     0
100
AcDbPoint
 10
2884.623329182304
 20
1815.662218759831
 30
0.0
  0
ENDBLK
  5
7FE9
330
8140
100
AcDbEntity
  8
0
100
AcDbBlockEnd
  0
BLOCK
  5
8143
330
8142
100
AcDbEntity
  8
0
100
AcDbBlockBegin
  2
*D28
 70
     1
 10
0.0
 20
0.0
 30
0.0
  3
*D28
  1

  0
LINE
  5
7FED
330
8142
100
AcDbEntity
  8
0
  6
ByBlock
 62
     0
100
AcDbLine
 10
2410.637764946654
 20
1620.66221875983
 30
0.0
 11
3099.51746335228
 21
1620.66221875983
 31
0.0
  0
LINE
  5
7FEE
330
8142
100
AcDbEntity
  8
0
  6
ByBlock
 62
     0
100
AcDbLine
 10
1876.637764946653
 20
3343.66221875983
 30
0.0
 11
3099.51746335228
 21
3343.66221875983
 31
0.0
  0
LINE
  5
7FEF
330
8142
100
AcDbEntity
  8
0
  6
ByBlock
 62
     0
100
AcDbLine
 10
3074.51746335228
 20
1670.66221875983
 30
0.0
 11
3074.51746335228
 21
3293.662218759831
 31
0.0
  0
INSERT
  5
7FF0
330
8142
100
AcDbEntity
  8
0
  6
ByBlock
 62
     0
100
AcDbBlockReference
  2
_OPEN
 10
3074.51746335228
 20
1620.66221875983
 30
0.0
 41
50.0
 42
50.0
 43
50.0
 50
270.0
  0
INSERT
  5
7FF1
330
8142
100
AcDbEntity
  8
0
  6
ByBlock
 62
     0
100
AcDbBlockReference
  2
_OPEN
 10
3074.51746335228
 20
3343.66221875983
 30
0.0
 41
50.0
 42
50.0
 43
50.0
 50
90.0
  0
TEXT
  5
7FF2
330
8142
100
AcDbEntity
  8
3
 62
     0
100
AcDbText
 10
3017.374606209421
 20
2308.947933045545
 30
0.0
 40
75.0
  1
(1723)
 50
90.0
100
AcDbText
  0
POINT
  5
7FF3
330
8142
100
AcDbEntity
  8
DEFPOINTS
  6
ByBlock
 62
     0
100
AcDbPoint
 10
2385.637764946654
 20
1620.66221875983
 30
0.0
  0
POINT
  5
7FF4
330
8142
100
AcDbEntity
  8
DEFPOINTS
  6
ByBlock
 62
     0
100
AcDbPoint
 10
1851.637764946653
 20
3343.66221875983
 30
0.0
  0
POINT
  5
7FF5
330
8142
100
AcDbEntity
  8
DEFPOINTS
  6
ByBlock
 62
     0
100
AcDbPoint
 10
3074.51746335228
 20
3343.66221875983
 30
0.0
  0
ENDBLK
  5
7FF6
330
8142
100
AcDbEntity
  8
0
100
AcDbBlockEnd
  0
BLOCK
  5
81C9
330
81C8
100
AcDbEntity
  8
0
100
AcDbBlockBegin
  2
*D30
 70
     1
 10
0.0
 20
0.0
 30
0.0
  3
*D30
  1

  0
LINE
  5
8223
330
81C8
100
AcDbEntity
  8
3
 62
     0
370
    -2
100
AcDbLine
 10
3155.836459299147
 20
3020.662218759831
 30
0.0
 11
3155.836459299147
 21
3674.387282061103
 31
0.0
  0
LINE
  5
8224
330
81C8
100
AcDbEntity
  8
3
 62
     0
370
    -2
100
AcDbLine
 10
4055.836459299146
 20
3585.225405145039
 30
0.0
 11
4055.836459299146
 21
3674.387282061103
 31
0.0
  0
LINE
  5
8225
330
81C8
100
AcDbEntity
  8
3
 62
     0
370
    -2
100
AcDbLine
 10
3205.836459299147
 20
3649.387282061103
 30
0.0
 11
4005.836459299146
 21
3649.387282061103
 31
0.0
  0
INSERT
  5
8226
330
81C8
100
AcDbEntity
  8
3
 62
     0
370
    -2
100
AcDbBlockReference
  2
_OPEN
 10
3155.836459299147
 20
3649.387282061103
 30
0.0
 41
50.0
 42
50.0
 43
50.0
 50
180.0
  0
INSERT
  5
8227
330
81C8
100
AcDbEntity
  8
3
 62
     0
370
    -2
100
AcDbBlockReference
  2
_OPEN
 10
4055.836459299146
 20
3649.387282061103
 30
0.0
 41
50.0
 42
50.0
 43
50.0
  0
MTEXT
  5
8228
330
81C8
100
AcDbEntity
  8
3
 62
     0
100
AcDbMText
 10
3605.836459299147
 20
3731.530139203961
 30
0.0
 40
75.0
 41
0.0
 71
     5
 72
     1
  1
\A1;(900)
 73
     1
 44
1.0
1001
ACAD
1000
MTEXTBEGIN
1070
    73
1070
     1
1070
    44
1040
1.0
1070
    74
1070
     0
1000
MTEXTEND
  0
POINT
  5
8229
330
81C8
100
AcDbEntity
  8
DEFPOINTS
 62
     0
100
AcDbPoint
 10
3155.836459299147
 20
2995.662218759831
 30
0.0
  0
POINT
  5
822A
330
81C8
100
AcDbEntity
  8
DEFPOINTS
 62
     0
100
AcDbPoint
 10
4055.836459299146
 20
3560.225405145039
 30
0.0
  0
POINT
  5
822B
330
81C8
100
AcDbEntity
  8
DEFPOINTS
 62
     0
100
AcDbPoint
 10
4055.836459299146
 20
3649.387282061103
 30
0.0
  0
ENDBLK
  5
81CA
330
81C8
100
AcDbEntity
  8
0
100
AcDbBlockEnd
  0
BLOCK
  5
81D6
330
81D5
100
AcDbEntity
  8
0
100
AcDbBlockBegin
  2
*D31
 70
     1
 10
0.0
 20
0.0
 30
0.0
  3
*D31
  1

  0
LINE
  5
822C
330
81D5
100
AcDbEntity
  8
3
 62
     0
370
    -2
100
AcDbLine
 10
4055.836459299146
 20
3585.225405145039
 30
0.0
 11
4055.836459299146
 21
3674.387282061103
 31
0.0
  0
LINE
  5
822D
330
81D5
100
AcDbEntity
  8
3
 62
     0
370
    -2
100
AcDbLine
 10
4665.836459299149
 20
2761.16221875983
 30
0.0
 11
4665.836459299149
 21
3674.387282061103
 31
0.0
  0
LINE
  5
822E
330
81D5
100
AcDbEntity
  8
3
 62
     0
370
    -2
100
AcDbLine
 10
4105.836459299147
 20
3649.387282061103
 30
0.0
 11
4615.836459299149
 21
3649.387282061103
 31
0.0
  0
INSERT
  5
822F
330
81D5
100
AcDbEntity
  8
3
 62
     0
370
    -2
100
AcDbBlockReference
  2
_OPEN
 10
4055.836459299146
 20
3649.387282061103
 30
0.0
 41
50.0
 42
50.0
 43
50.0
 50
180.0
  0
INSERT
  5
8230
330
81D5
100
AcDbEntity
  8
3
 62
     0
370
    -2
100
AcDbBlockReference
  2
_OPEN
 10
4665.836459299149
 20
3649.387282061103
 30
0.0
 41
50.0
 42
50.0
 43
50.0
  0
MTEXT
  5
8231
330
81D5
100
AcDbEntity
  8
3
 62
     0
100
AcDbMText
 10
4360.836459299147
 20
3731.530139203961
 30
0.0
 40
75.0
 41
0.0
 71
     5
 72
     1
  1
\A1;(610)
 73
     1
 44
1.0
1001
ACAD
1000
MTEXTBEGIN
1070
    73
1070
     1
1070
    44
1040
1.0
1070
    74
1070
     0
1000
MTEXTEND
  0
POINT
  5
8232
330
81D5
100
AcDbEntity
  8
DEFPOINTS
 62
     0
100
AcDbPoint
 10
4055.836459299146
 20
3560.225405145039
 30
0.0
  0
POINT
  5
8233
330
81D5
100
AcDbEntity
  8
DEFPOINTS
 62
     0
100
AcDbPoint
 10
4665.836459299149
 20
2736.16221875983
 30
0.0
  0
POINT
  5
8234
330
81D5
100
AcDbEntity
  8
DEFPOINTS
 62
     0
100
AcDbPoint
 10
4665.836459299149
 20
3649.387282061103
 30
0.0
  0
ENDBLK
  5
81D7
330
81D5
100
AcDbEntity
  8
0
100
AcDbBlockEnd
  0
BLOCK
  5
8237
330
8236
100
AcDbEntity
  8
0
100
AcDbBlockBegin
  2
*D32
 70
     1
 10
0.0
 20
0.0
 30
0.0
  3
*D32
  1

  0
LINE
  5
8239
330
8236
100
AcDbEntity
  8
3
 62
     0
370
    -2
100
AcDbLine
 10
635.637764946654
 20
4092.359109654242
 30
0.0
 11
635.637764946654
 21
3748.333700134244
 31
0.0
  0
LINE
  5
823A
330
8236
100
AcDbEntity
  8
3
 62
     0
370
    -2
100
AcDbLine
 10
2385.637764946654
 20
4092.359109654242
 30
0.0
 11
2385.637764946654
 21
3748.333700134244
 31
0.0
  0
LINE
  5
823B
330
8236
100
AcDbEntity
  8
3
 62
     0
370
    -2
100
AcDbLine
 10
685.637764946654
 20
3773.333700134244
 30
0.0
 11
2335.637764946654
 21
3773.333700134244
 31
0.0
  0
INSERT
  5
823C
330
8236
100
AcDbEntity
  8
3
 62
     0
370
    -2
100
AcDbBlockReference
  2
_OPEN
 10
635.637764946654
 20
3773.333700134244
 30
0.0
 41
50.0
 42
50.0
 43
50.0
 50
180.0
  0
INSERT
  5
823D
330
8236
100
AcDbEntity
  8
3
 62
     0
370
    -2
100
AcDbBlockReference
  2
_OPEN
 10
2385.637764946654
 20
3773.333700134244
 30
0.0
 41
50.0
 42
50.0
 43
50.0
  0
MTEXT
  5
823E
330
8236
100
AcDbEntity
  8
3
 62
     0
100
AcDbMText
 10
1510.637764946654
 20
3835.833700134244
 30
0.0
 40
75.0
 41
0.0
 71
     5
 72
     1
  1
\A1;1750
 73
     1
 44
1.0
1001
ACAD
1000
MTEXTBEGIN
1070
    73
1070
     1
1070
    44
1040
1.0
1070
    74
1070
     0
1000
MTEXTEND
  0
POINT
  5
823F
330
8236
100
AcDbEntity
  8
DEFPOINTS
 62
     0
100
AcDbPoint
 10
635.637764946654
 20
4117.359109654241
 30
0.0
  0
POINT
  5
8240
330
8236
100
AcDbEntity
  8
DEFPOINTS
 62
     0
100
AcDbPoint
 10
2385.637764946654
 20
4117.359109654241
 30
0.0
  0
POINT
  5
8241
330
8236
100
AcDbEntity
  8
DEFPOINTS
 62
     0
100
AcDbPoint
 10
2385.637764946654
 20
3773.333700134244
 30
0.0
  0
ENDBLK
  5
8238
330
8236
100
AcDbEntity
  8
0
100
AcDbBlockEnd
  0
BLOCK
  5
8244
330
8243
100
AcDbEntity
  8
0
100
AcDbBlockBegin
  2
*D33
 70
     1
 10
0.0
 20
0.0
 30
0.0
  3
*D33
  1

  0
LINE
  5
824F
330
8243
100
AcDbEntity
  8
3
 62
     0
370
    -2
100
AcDbLine
 10
635.637764946654
 20
4892.359109654242
 30
0.0
 11
635.637764946654
 21
5548.482393205195
 31
0.0
  0
LINE
  5
8250
330
8243
100
AcDbEntity
  8
3
 62
     0
370
    -2
100
AcDbLine
 10
1385.637764946654
 20
5397.359109654242
 30
0.0
 11
1385.637764946654
 21
5548.482393205195
 31
0.0
  0
LINE
  5
8251
330
8243
100
AcDbEntity
  8
3
 62
     0
370
    -2
100
AcDbLine
 10
685.637764946654
 20
5523.482393205195
 30
0.0
 11
1335.637764946654
 21
5523.482393205195
 31
0.0
  0
INSERT
  5
8252
330
8243
100
AcDbEntity
  8
3
 62
     0
370
    -2
100
AcDbBlockReference
  2
_OPEN
 10
635.637764946654
 20
5523.482393205195
 30
0.0
 41
50.0
 42
50.0
 43
50.0
 50
180.0
  0
INSERT
  5
8253
330
8243
100
AcDbEntity
  8
3
 62
     0
370
    -2
100
AcDbBlockReference
  2
_OPEN
 10
1385.637764946654
 20
5523.482393205195
 30
0.0
 41
50.0
 42
50.0
 43
50.0
  0
MTEXT
  5
8254
330
8243
100
AcDbEntity
  8
3
 62
     0
100
AcDbMText
 10
1010.637764946654
 20
5585.982393205195
 30
0.0
 40
75.0
 41
0.0
 71
     5
 72
     1
  1
\A1;750
 73
     1
 44
1.0
1001
ACAD
1000
MTEXTBEGIN
1070
    73
1070
     1
1070
    44
1040
1.0
1070
    74
1070
     0
1000
MTEXTEND
  0
POINT
  5
8255
330
8243
100
AcDbEntity
  8
DEFPOINTS
 62
     0
100
AcDbPoint
 10
635.637764946654
 20
4867.359109654242
 30
0.0
  0
POINT
  5
8256
330
8243
100
AcDbEntity
  8
DEFPOINTS
 62
     0
100
AcDbPoint
 10
1385.637764946654
 20
5372.359109654242
 30
0.0
  0
POINT
  5
8257
330
8243
100
AcDbEntity
  8
DEFPOINTS
 62
     0
100
AcDbPoint
 10
1385.637764946654
 20
5523.482393205195
 30
0.0
  0
ENDBLK
  5
8245
330
8243
100
AcDbEntity
  8
0
100
AcDbBlockEnd
  0
BLOCK
  5
8259
330
8258
100
AcDbEntity
  8
0
100
AcDbBlockBegin
  2
*D34
 70
     1
 10
0.0
 20
0.0
 30
0.0
  3
*D34
  1

  0
LINE
  5
825B
330
8258
100
AcDbEntity
  8
3
 62
     0
370
    -2
100
AcDbLine
 10
2387.200264946654
 20
1735.662218759831
 30
0.0
 11
2891.058289676555
 21
1735.66221875983
 31
0.0
  0
LINE
  5
825C
330
8258
100
AcDbEntity
  8
3
 62
     0
370
    -2
100
AcDbLine
 10
2387.200264946654
 20
1635.662218759831
 30
0.0
 11
2891.058289676555
 21
1635.66221875983
 31
0.0
  0
LINE
  5
825D
330
8258
100
AcDbEntity
  8
3
 62
     0
370
    -2
100
AcDbLine
 10
2886.558289676555
 20
1731.162218759831
 30
0.0
 11
2886.558289676555
 21
1690.16221875983
 31
0.0
  0
LINE
  5
825E
330
8258
100
AcDbEntity
  8
3
 62
     0
370
    -2
100
AcDbLine
 10
2886.558289676555
 20
1640.16221875983
 30
0.0
 11
2886.558289676555
 21
1681.162218759831
 31
0.0
  0
SOLID
  5
825F
330
8258
100
AcDbEntity
  8
3
 62
     0
100
AcDbTrace
 10
2885.808289676555
 20
1731.162218759831
 30
0.0
 11
2887.308289676555
 21
1731.162218759831
 31
0.0
 12
2886.558289676555
 22
1735.66221875983
 32
0.0
 13
2886.558289676555
 23
1735.66221875983
 33
0.0
  0
SOLID
  5
8260
330
8258
100
AcDbEntity
  8
3
 62
     0
100
AcDbTrace
 10
2885.808289676555
 20
1640.16221875983
 30
0.0
 11
2887.308289676555
 21
1640.16221875983
 31
0.0
 12
2886.558289676555
 22
1635.66221875983
 32
0.0
 13
2886.558289676555
 23
1635.66221875983
 33
0.0
  0
MTEXT
  5
8261
330
8258
100
AcDbEntity
  8
3
 62
     0
100
AcDbMText
 10
2886.558289676555
 20
1685.662218759831
 30
0.0
 40
4.5
 41
0.0
 71
     5
 72
     1
  1
\A1;100.0000
 73
     1
 44
1.0
1001
ACAD
1000
MTEXTBEGIN
1070
    73
1070
     1
1070
    44
1040
1.0
1070
    74
1070
     0
1000
MTEXTEND
  0
POINT
  5
8262
330
8258
100
AcDbEntity
  8
DEFPOINTS
 62
     0
100
AcDbPoint
 10
2385.637764946654
 20
1735.662218759831
 30
0.0
  0
POINT
  5
8263
330
8258
100
AcDbEntity
  8
DEFPOINTS
 62
     0
100
AcDbPoint
 10
2385.637764946654
 20
1635.662218759831
 30
0.0
  0
POINT
  5
8264
330
8258
100
AcDbEntity
  8
DEFPOINTS
 62
     0
100
AcDbPoint
 10
2886.558289676555
 20
1635.66221875983
 30
0.0
  0
ENDBLK
  5
825A
330
8258
100
AcDbEntity
  8
0
100
AcDbBlockEnd
  0
BLOCK
  5
8266
330
8265
100
AcDbEntity
  8
0
100
AcDbBlockBegin
  2
*D35
 70
     1
 10
0.0
 20
0.0
 30
0.0
  3
*D35
  1

  0
LINE
  5
8268
330
8265
100
AcDbEntity
  8
3
 62
     0
370
    -2
100
AcDbLine
 10
635.637764946654
 20
1610.662218759831
 30
0.0
 11
635.637764946654
 21
1467.749000924164
 31
0.0
  0
LINE
  5
8269
330
8265
100
AcDbEntity
  8
3
 62
     0
370
    -2
100
AcDbLine
 10
1885.637764946654
 20
1610.662218759831
 30
0.0
 11
1885.637764946654
 21
1467.749000924164
 31
0.0
  0
LINE
  5
826A
330
8265
100
AcDbEntity
  8
3
 62
     0
370
    -2
100
AcDbLine
 10
640.137764946654
 20
1472.249000924164
 30
0.0
 11
1250.887764946654
 21
1472.249000924164
 31
0.0
  0
LINE
  5
826B
330
8265
100
AcDbEntity
  8
3
 62
     0
370
    -2
100
AcDbLine
 10
1881.137764946654
 20
1472.249000924164
 30
0.0
 11
1270.387764946654
 21
1472.249000924164
 31
0.0
  0
SOLID
  5
826C
330
8265
100
AcDbEntity
  8
3
 62
     0
100
AcDbTrace
 10
640.137764946654
 20
1472.999000924164
 30
0.0
 11
640.137764946654
 21
1471.499000924164
 31
0.0
 12
635.637764946654
 22
1472.249000924164
 32
0.0
 13
635.637764946654
 23
1472.249000924164
 33
0.0
  0
SOLID
  5
826D
330
8265
100
AcDbEntity
  8
3
 62
     0
100
AcDbTrace
 10
1881.137764946654
 20
1472.999000924164
 30
0.0
 11
1881.137764946654
 21
1471.499000924164
 31
0.0
 12
1885.637764946654
 22
1472.249000924164
 32
0.0
 13
1885.637764946654
 23
1472.249000924164
 33
0.0
  0
MTEXT
  5
826E
330
8265
100
AcDbEntity
  8
3
 62
     0
100
AcDbMText
 10
1260.637764946654
 20
1472.249000924164
 30
0.0
 40
4.5
 41
0.0
 71
     5
 72
     1
  1
\A1;1250
 73
     1
 44
1.0
1001
ACAD
1000
MTEXTBEGIN
1070
    73
1070
     1
1070
    44
1040
1.0
1070
    74
1070
     0
1000
MTEXTEND
  0
POINT
  5
826F
330
8265
100
AcDbEntity
  8
DEFPOINTS
 62
     0
100
AcDbPoint
 10
635.637764946654
 20
1635.662218759831
 30
0.0
  0
POINT
  5
8270
330
8265
100
AcDbEntity
  8
DEFPOINTS
 62
     0
100
AcDbPoint
 10
1885.637764946654
 20
1635.662218759831
 30
0.0
  0
POINT
  5
8271
330
8265
100
AcDbEntity
  8
DEFPOINTS
 62
     0
100
AcDbPoint
 10
1885.637764946654
 20
1472.249000924164
 30
0.0
  0
ENDBLK
  5
8267
330
8265
100
AcDbEntity
  8
0
100
AcDbBlockEnd
  0
BLOCK
  5
8273
330
8272
100
AcDbEntity
  8
0
100
AcDbBlockBegin
  2
*D36
 70
     1
 10
0.0
 20
0.0
 30
0.0
  3
*D36
  1

  0
LINE
  5
8275
330
8272
100
AcDbEntity
  8
3
 62
     0
370
    -2
100
AcDbLine
 10
1885.637764946654
 20
1610.662218759831
 30
0.0
 11
1885.637764946654
 21
1467.749000924164
 31
0.0
  0
LINE
  5
8276
330
8272
100
AcDbEntity
  8
3
 62
     0
370
    -2
100
AcDbLine
 10
2385.637764946654
 20
1610.662218759831
 30
0.0
 11
2385.637764946654
 21
1467.749000924164
 31
0.0
  0
LINE
  5
8277
330
8272
100
AcDbEntity
  8
3
 62
     0
370
    -2
100
AcDbLine
 10
1890.137764946654
 20
1472.249000924164
 30
0.0
 11
2127.60205066094
 21
1472.249000924164
 31
0.0
  0
LINE
  5
8278
330
8272
100
AcDbEntity
  8
3
 62
     0
370
    -2
100
AcDbLine
 10
2381.137764946654
 20
1472.249000924164
 30
0.0
 11
2143.673479232369
 21
1472.249000924164
 31
0.0
  0
SOLID
  5
8279
330
8272
100
AcDbEntity
  8
3
 62
     0
100
AcDbTrace
 10
1890.137764946654
 20
1472.999000924164
 30
0.0
 11
1890.137764946654
 21
1471.499000924164
 31
0.0
 12
1885.637764946654
 22
1472.249000924164
 32
0.0
 13
1885.637764946654
 23
1472.249000924164
 33
0.0
  0
SOLID
  5
827A
330
8272
100
AcDbEntity
  8
3
 62
     0
100
AcDbTrace
 10
2381.137764946654
 20
1472.999000924164
 30
0.0
 11
2381.137764946654
 21
1471.499000924164
 31
0.0
 12
2385.637764946654
 22
1472.249000924164
 32
0.0
 13
2385.637764946654
 23
1472.249000924164
 33
0.0
  0
MTEXT
  5
827B
330
8272
100
AcDbEntity
  8
3
 62
     0
100
AcDbMText
 10
2135.637764946654
 20
1472.249000924164
 30
0.0
 40
4.5
 41
0.0
 71
     5
 72
     1
  1
\A1;500
 73
     1
 44
1.0
1001
ACAD
1000
MTEXTBEGIN
1070
    73
1070
     1
1070
    44
1040
1.0
1070
    74
1070
     0
1000
MTEXTEND
  0
POINT
  5
827C
330
8272
100
AcDbEntity
  8
DEFPOINTS
 62
     0
100
AcDbPoint
 10
1885.637764946654
 20
1635.662218759831
 30
0.0
  0
POINT
  5
827D
330
8272
100
AcDbEntity
  8
DEFPOINTS
 62
     0
100
AcDbPoint
 10
2385.637764946654
 20
1635.662218759831
 30
0.0
  0
POINT
  5
827E
330
8272
100
AcDbEntity
  8
DEFPOINTS
 62
     0
100
AcDbPoint
 10
2385.637764946654
 20
1472.249000924164
 30
0.0
  0
ENDBLK
  5
8274
330
8272
100
AcDbEntity
  8
0
100
AcDbBlockEnd
  0
BLOCK
  5
8280
330
827F
100
AcDbEntity
  8
0
100
AcDbBlockBegin
  2
*D37
 70
     1
 10
0.0
 20
0.0
 30
0.0
  3
*D37
  1

  0
LINE
  5
8282
330
827F
100
AcDbEntity
  8
3
 62
     0
370
    -2
100
AcDbLine
 10
3353.836459299146
 20
1610.662218759831
 30
0.0
 11
3353.836459299146
 21
1467.749000924164
 31
0.0
  0
LINE
  5
8283
330
827F
100
AcDbEntity
  8
3
 62
     0
370
    -2
100
AcDbLine
 10
4055.836459299148
 20
1610.662218759831
 30
0.0
 11
4055.836459299148
 21
1467.749000924164
 31
0.0
  0
LINE
  5
8284
330
827F
100
AcDbEntity
  8
3
 62
     0
370
    -2
100
AcDbLine
 10
3358.336459299147
 20
1472.249000924164
 30
0.0
 11
3696.800745013433
 21
1472.249000924164
 31
0.0
  0
LINE
  5
8285
330
827F
100
AcDbEntity
  8
3
 62
     0
370
    -2
100
AcDbLine
 10
4051.336459299148
 20
1472.249000924164
 30
0.0
 11
3712.872173584861
 21
1472.249000924164
 31
0.0
  0
SOLID
  5
8286
330
827F
100
AcDbEntity
  8
3
 62
     0
100
AcDbTrace
 10
3358.336459299147
 20
1472.999000924164
 30
0.0
 11
3358.336459299147
 21
1471.499000924164
 31
0.0
 12
3353.836459299146
 22
1472.249000924164
 32
0.0
 13
3353.836459299146
 23
1472.249000924164
 33
0.0
  0
SOLID
  5
8287
330
827F
100
AcDbEntity
  8
3
 62
     0
100
AcDbTrace
 10
4051.336459299148
 20
1472.999000924164
 30
0.0
 11
4051.336459299148
 21
1471.499000924164
 31
0.0
 12
4055.836459299148
 22
1472.249000924164
 32
0.0
 13
4055.836459299148
 23
1472.249000924164
 33
0.0
  0
MTEXT
  5
8288
330
827F
100
AcDbEntity
  8
3
 62
     0
100
AcDbMText
 10
3704.836459299148
 20
1472.249000924164
 30
0.0
 40
4.5
 41
0.0
 71
     5
 72
     1
  1
\A1;702
 73
     1
 44
1.0
1001
ACAD
1000
MTEXTBEGIN
1070
    73
1070
     1
1070
    44
1040
1.0
1070
    74
1070
     0
1000
MTEXTEND
  0
POINT
  5
8289
330
827F
100
AcDbEntity
  8
DEFPOINTS
 62
     0
100
AcDbPoint
 10
3353.836459299146
 20
1635.662218759831
 30
0.0
  0
POINT
  5
828A
330
827F
100
AcDbEntity
  8
DEFPOINTS
 62
     0
100
AcDbPoint
 10
4055.836459299148
 20
1635.662218759831
 30
0.0
  0
POINT
  5
828B
330
827F
100
AcDbEntity
  8
DEFPOINTS
 62
     0
100
AcDbPoint
 10
4055.836459299148
 20
1472.249000924164
 30
0.0
  0
ENDBLK
  5
8281
330
827F
100
AcDbEntity
  8
0
100
AcDbBlockEnd
  0
BLOCK
  5
828D
330
828C
100
AcDbEntity
  8
0
100
AcDbBlockBegin
  2
*D38
 70
     1
 10
0.0
 20
0.0
 30
0.0
  3
*D38
  1

  0
LINE
  5
828F
330
828C
100
AcDbEntity
  8
3
 62
     0
370
    -2
100
AcDbLine
 10
4055.836459299148
 20
1610.662218759831
 30
0.0
 11
4055.836459299148
 21
1467.749000924164
 31
0.0
  0
LINE
  5
8290
330
828C
100
AcDbEntity
  8
3
 62
     0
370
    -2
100
AcDbLine
 10
4608.836459299149
 20
1610.662218759831
 30
0.0
 11
4608.836459299149
 21
1467.749000924164
 31
0.0
  0
LINE
  5
8291
330
828C
100
AcDbEntity
  8
3
 62
     0
370
    -2
100
AcDbLine
 10
4060.336459299148
 20
1472.249000924164
 30
0.0
 11
4324.300745013434
 21
1472.249000924164
 31
0.0
  0
LINE
  5
8292
330
828C
100
AcDbEntity
  8
3
 62
     0
370
    -2
100
AcDbLine
 10
4604.336459299149
 20
1472.249000924164
 30
0.0
 11
4340.372173584863
 21
1472.249000924164
 31
0.0
  0
SOLID
  5
8293
330
828C
100
AcDbEntity
  8
3
 62
     0
100
AcDbTrace
 10
4060.336459299148
 20
1472.999000924164
 30
0.0
 11
4060.336459299148
 21
1471.499000924164
 31
0.0
 12
4055.836459299148
 22
1472.249000924164
 32
0.0
 13
4055.836459299148
 23
1472.249000924164
 33
0.0
  0
SOLID
  5
8294
330
828C
100
AcDbEntity
  8
3
 62
     0
100
AcDbTrace
 10
4604.336459299149
 20
1472.999000924164
 30
0.0
 11
4604.336459299149
 21
1471.499000924164
 31
0.0
 12
4608.836459299149
 22
1472.249000924164
 32
0.0
 13
4608.836459299149
 23
1472.249000924164
 33
0.0
  0
MTEXT
  5
8295
330
828C
100
AcDbEntity
  8
3
 62
     0
100
AcDbMText
 10
4332.336459299148
 20
1472.249000924164
 30
0.0
 40
4.5
 41
0.0
 71
     5
 72
     1
  1
\A1;553
 73
     1
 44
1.0
1001
ACAD
1000
MTEXTBEGIN
1070
    73
1070
     1
1070
    44
1040
1.0
1070
    74
1070
     0
1000
MTEXTEND
  0
POINT
  5
8296
330
828C
100
AcDbEntity
  8
DEFPOINTS
 62
     0
100
AcDbPoint
 10
4055.836459299148
 20
1635.662218759831
 30
0.0
  0
POINT
  5
8297
330
828C
100
AcDbEntity
  8
DEFPOINTS
 62
     0
100
AcDbPoint
 10
4608.836459299149
 20
1635.662218759831
 30
0.0
  0
POINT
  5
8298
330
828C
100
AcDbEntity
  8
DEFPOINTS
 62
     0
100
AcDbPoint
 10
4608.836459299149
 20
1472.249000924164
 30
0.0
  0
ENDBLK
  5
828E
330
828C
100
AcDbEntity
  8
0
100
AcDbBlockEnd
  0
BLOCK
  5
829A
330
8299
100
AcDbEntity
  8
0
100
AcDbBlockBegin
  2
*D39
 70
     1
 10
0.0
 20
0.0
 30
0.0
  3
*D39
  1

  0
LINE
  5
829C
330
8299
100
AcDbEntity
  8
3
 62
     0
370
    -2
100
AcDbLine
 10
2884.623329182304
 20
1740.16221875983
 30
0.0
 11
2884.623329182304
 21
1769.983647331259
 31
0.0
  0
LINE
  5
829D
330
8299
100
AcDbEntity
  8
3
 62
     0
370
    -2
100
AcDbLine
 10
2884.623329182304
 20
1811.16221875983
 30
0.0
 11
2884.623329182304
 21
1781.340790188402
 31
0.0
  0
SOLID
  5
829E
330
8299
100
AcDbEntity
  8
3
 62
     0
100
AcDbTrace
 10
2883.873329182304
 20
1740.16221875983
 30
0.0
 11
2885.373329182304
 21
1740.16221875983
 31
0.0
 12
2884.623329182304
 22
1735.66221875983
 32
0.0
 13
2884.623329182304
 23
1735.66221875983
 33
0.0
  0
SOLID
  5
829F
330
8299
100
AcDbEntity
  8
3
 62
     0
100
AcDbTrace
 10
2883.873329182304
 20
1811.16221875983
 30
0.0
 11
2885.373329182304
 21
1811.16221875983
 31
0.0
 12
2884.623329182304
 22
1815.66221875983
 32
0.0
 13
2884.623329182304
 23
1815.66221875983
 33
0.0
  0
MTEXT
  5
82A0
330
8299
100
AcDbEntity
  8
3
 62
     0
100
AcDbMText
 10
2884.623329182304
 20
1775.662218759831
 30
0.0
 40
4.5
 41
0.0
 71
     5
 72
     1
  1
\A1;(80)
 73
     1
 44
1.0
1001
ACAD
1000
MTEXTBEGIN
1070
    73
1070
     1
1070
    44
1040
1.0
1070
    74
1070
     0
1000
MTEXTEND
  0
POINT
  5
82A1
330
8299
100
AcDbEntity
  8
DEFPOINTS
 62
     0
100
AcDbPoint
 10
2385.637764946654
 20
1735.662218759831
 30
0.0
  0
POINT
  5
82A2
330
8299
100
AcDbEntity
  8
DEFPOINTS
 62
     0
100
AcDbPoint
 10
2385.637764946654
 20
1815.662218759831
 30
0.0
  0
POINT
  5
82A3
330
8299
100
AcDbEntity
  8
DEFPOINTS
 62
     0
100
AcDbPoint
 10
2884.623329182304
 20
1815.66221875983
 30
0.0
  0
ENDBLK
  5
829B
330
8299
100
AcDbEntity
  8
0
100
AcDbBlockEnd
  0
BLOCK
  5
82A5
330
82A4
100
AcDbEntity
  8
0
100
AcDbBlockBegin
  2
*D40
 70
     1
 10
0.0
 20
0.0
 30
0.0
  3
*D40
  1

  0
LINE
  5
82A7
330
82A4
100
AcDbEntity
  8
3
 62
     0
370
    -2
100
AcDbLine
 10
2410.637764946654
 20
1635.662218759831
 30
0.0
 11
3079.01746335228
 21
1635.66221875983
 31
0.0
  0
LINE
  5
82A8
330
82A4
100
AcDbEntity
  8
3
 62
     0
370
    -2
100
AcDbLine
 10
1876.637764946653
 20
3343.66221875983
 30
0.0
 11
3079.01746335228
 21
3343.66221875983
 31
0.0
  0
LINE
  5
82A9
330
82A4
100
AcDbEntity
  8
3
 62
     0
370
    -2
100
AcDbLine
 10
3074.51746335228
 20
1640.16221875983
 30
0.0
 11
3074.51746335228
 21
2483.983647331259
 31
0.0
  0
LINE
  5
82AA
330
82A4
100
AcDbEntity
  8
3
 62
     0
370
    -2
100
AcDbLine
 10
3074.51746335228
 20
3339.16221875983
 30
0.0
 11
3074.51746335228
 21
2495.340790188402
 31
0.0
  0
SOLID
  5
82AB
330
82A4
100
AcDbEntity
  8
3
 62
     0
100
AcDbTrace
 10
3073.76746335228
 20
1640.16221875983
 30
0.0
 11
3075.26746335228
 21
1640.16221875983
 31
0.0
 12
3074.51746335228
 22
1635.66221875983
 32
0.0
 13
3074.51746335228
 23
1635.66221875983
 33
0.0
  0
SOLID
  5
82AC
330
82A4
100
AcDbEntity
  8
3
 62
     0
100
AcDbTrace
 10
3073.767463352281
 20
3339.16221875983
 30
0.0
 11
3075.26746335228
 21
3339.16221875983
 31
0.0
 12
3074.51746335228
 22
3343.66221875983
 32
0.0
 13
3074.51746335228
 23
3343.66221875983
 33
0.0
  0
MTEXT
  5
82AD
330
82A4
100
AcDbEntity
  8
3
 62
     0
100
AcDbMText
 10
3074.517463352279
 20
2489.662218759831
 30
0.0
 40
4.5
 41
0.0
 71
     5
 72
     1
  1
\A1;(1708)
 73
     1
 44
1.0
1001
ACAD
1000
MTEXTBEGIN
1070
    73
1070
     1
1070
    44
1040
1.0
1070
    74
1070
     0
1000
MTEXTEND
  0
POINT
  5
82AE
330
82A4
100
AcDbEntity
  8
DEFPOINTS
 62
     0
100
AcDbPoint
 10
2385.637764946654
 20
1635.662218759831
 30
0.0
  0
POINT
  5
82AF
330
82A4
100
AcDbEntity
  8
DEFPOINTS
 62
     0
100
AcDbPoint
 10
1851.637764946653
 20
3343.66221875983
 30
0.0
  0
POINT
  5
82B0
330
82A4
100
AcDbEntity
  8
DEFPOINTS
 62
     0
100
AcDbPoint
 10
3074.51746335228
 20
3343.66221875983
 30
0.0
  0
ENDBLK
  5
82A6
330
82A4
100
AcDbEntity
  8
0
100
AcDbBlockEnd
  0
BLOCK
  5
82B3
330
82B2
100
AcDbEntity
  8
0
100
AcDbBlockBegin
  2
*D41
 70
     1
 10
0.0
 20
0.0
 30
0.0
  3
*D41
  1

  0
LINE
  5
82B5
330
82B2
100
AcDbEntity
  8
3
 62
     0
370
    -2
100
AcDbLine
 10
3353.836459299146
 20
1610.662218759831
 30
0.0
 11
3353.836459299146
 21
1460.777177742468
 31
0.0
  0
LINE
  5
82B6
330
82B2
100
AcDbEntity
  8
3
 62
     0
370
    -2
100
AcDbLine
 10
4055.83645929915
 20
1610.662218759831
 30
0.0
 11
4055.83645929915
 21
1460.777177742468
 31
0.0
  0
LINE
  5
82B7
330
82B2
100
AcDbEntity
  8
3
 62
     0
370
    -2
100
AcDbLine
 10
3403.836459299146
 20
1485.777177742467
 30
0.0
 11
4005.836459299149
 21
1485.777177742467
 31
0.0
  0
INSERT
  5
82B8
330
82B2
100
AcDbEntity
  8
3
 62
     0
370
    -2
100
AcDbBlockReference
  2
_OPEN
 10
3353.836459299146
 20
1485.777177742467
 30
0.0
 41
50.0
 42
50.0
 43
50.0
 50
180.0
  0
INSERT
  5
82B9
330
82B2
100
AcDbEntity
  8
3
 62
     0
370
    -2
100
AcDbBlockReference
  2
_OPEN
 10
4055.83645929915
 20
1485.777177742467
 30
0.0
 41
50.0
 42
50.0
 43
50.0
  0
MTEXT
  5
82BA
330
82B2
100
AcDbEntity
  8
3
 62
     0
100
AcDbMText
 10
3704.836459299148
 20
1548.277177742467
 30
0.0
 40
75.0
 41
0.0
 71
     5
 72
     1
  1
\A1;702
 73
     1
 44
1.0
1001
ACAD
1000
MTEXTBEGIN
1070
    73
1070
     1
1070
    44
1040
1.0
1070
    74
1070
     0
1000
MTEXTEND
  0
POINT
  5
82BB
330
82B2
100
AcDbEntity
  8
DEFPOINTS
 62
     0
100
AcDbPoint
 10
3353.836459299146
 20
1635.662218759831
 30
0.0
  0
POINT
  5
82BC
330
82B2
100
AcDbEntity
  8
DEFPOINTS
 62
     0
100
AcDbPoint
 10
4055.83645929915
 20
1635.662218759831
 30
0.0
  0
POINT
  5
82BD
330
82B2
100
AcDbEntity
  8
DEFPOINTS
 62
     0
100
AcDbPoint
 10
4055.83645929915
 20
1485.777177742467
 30
0.0
  0
ENDBLK
  5
82B4
330
82B2
100
AcDbEntity
  8
0
100
AcDbBlockEnd
  0
BLOCK
  5
82C0
330
82BF
100
AcDbEntity
  8
0
100
AcDbBlockBegin
  2
*D42
 70
     1
 10
0.0
 20
0.0
 30
0.0
  3
*D42
  1

  0
LINE
  5
82C2
330
82BF
100
AcDbEntity
  8
3
 62
     0
370
    -2
100
AcDbLine
 10
4055.83645929915
 20
1610.662218759831
 30
0.0
 11
4055.83645929915
 21
1460.777177742468
 31
0.0
  0
LINE
  5
82C3
330
82BF
100
AcDbEntity
  8
3
 62
     0
370
    -2
100
AcDbLine
 10
4608.836459299149
 20
1610.662218759831
 30
0.0
 11
4608.836459299149
 21
1460.777177742468
 31
0.0
  0
LINE
  5
82C4
330
82BF
100
AcDbEntity
  8
3
 62
     0
370
    -2
100
AcDbLine
 10
4105.836459299149
 20
1485.777177742467
 30
0.0
 11
4558.83645929915
 21
1485.777177742467
 31
0.0
  0
INSERT
  5
82C5
330
82BF
100
AcDbEntity
  8
3
 62
     0
370
    -2
100
AcDbBlockReference
  2
_OPEN
 10
4055.83645929915
 20
1485.777177742467
 30
0.0
 41
50.0
 42
50.0
 43
50.0
 50
180.0
  0
INSERT
  5
82C6
330
82BF
100
AcDbEntity
  8
3
 62
     0
370
    -2
100
AcDbBlockReference
  2
_OPEN
 10
4608.836459299149
 20
1485.777177742467
 30
0.0
 41
50.0
 42
50.0
 43
50.0
  0
MTEXT
  5
82C7
330
82BF
100
AcDbEntity
  8
3
 62
     0
100
AcDbMText
 10
4332.336459299149
 20
1548.277177742467
 30
0.0
 40
75.0
 41
0.0
 71
     5
 72
     1
  1
\A1;553
 73
     1
 44
1.0
1001
ACAD
1000
MTEXTBEGIN
1070
    73
1070
     1
1070
    44
1040
1.0
1070
    74
1070
     0
1000
MTEXTEND
  0
POINT
  5
82C8
330
82BF
100
AcDbEntity
  8
DEFPOINTS
 62
     0
100
AcDbPoint
 10
4055.83645929915
 20
1635.662218759831
 30
0.0
  0
POINT
  5
82C9
330
82BF
100
AcDbEntity
  8
DEFPOINTS
 62
     0
100
AcDbPoint
 10
4608.836459299149
 20
1635.662218759831
 30
0.0
  0
POINT
  5
82CA
330
82BF
100
AcDbEntity
  8
DEFPOINTS
 62
     0
100
AcDbPoint
 10
4608.836459299149
 20
1485.777177742467
 30
0.0
  0
ENDBLK
  5
82C1
330
82BF
100
AcDbEntity
  8
0
100
AcDbBlockEnd
  0
BLOCK
  5
82CD
330
82CC
100
AcDbEntity
  8
0
100
AcDbBlockBegin
  2
*D43
 70
     1
 10
0.0
 20
0.0
 30
0.0
  3
*D43
  1

  0
LINE
  5
82CF
330
82CC
100
AcDbEntity
  8
3
 62
     0
370
    -2
100
AcDbLine
 10
635.637764946654
 20
1610.662218759831
 30
0.0
 11
635.637764946654
 21
1451.416274947918
 31
0.0
  0
LINE
  5
82D0
330
82CC
100
AcDbEntity
  8
3
 62
     0
370
    -2
100
AcDbLine
 10
1885.637764946654
 20
1610.662218759831
 30
0.0
 11
1885.637764946654
 21
1451.416274947918
 31
0.0
  0
LINE
  5
82D1
330
82CC
100
AcDbEntity
  8
3
 62
     0
370
    -2
100
AcDbLine
 10
685.637764946654
 20
1476.416274947918
 30
0.0
 11
1835.637764946654
 21
1476.416274947918
 31
0.0
  0
INSERT
  5
82D2
330
82CC
100
AcDbEntity
  8
3
 62
     0
370
    -2
100
AcDbBlockReference
  2
_OPEN
 10
635.637764946654
 20
1476.416274947918
 30
0.0
 41
50.0
 42
50.0
 43
50.0
 50
180.0
  0
INSERT
  5
82D3
330
82CC
100
AcDbEntity
  8
3
 62
     0
370
    -2
100
AcDbBlockReference
  2
_OPEN
 10
1885.637764946654
 20
1476.416274947918
 30
0.0
 41
50.0
 42
50.0
 43
50.0
  0
MTEXT
  5
82D4
330
82CC
100
AcDbEntity
  8
3
 62
     0
100
AcDbMText
 10
1260.637764946654
 20
1538.916274947918
 30
0.0
 40
75.0
 41
0.0
 71
     5
 72
     1
  1
\A1;1250
 73
     1
 44
1.0
1001
ACAD
1000
MTEXTBEGIN
1070
    73
1070
     1
1070
    44
1040
1.0
1070
    74
1070
     0
1000
MTEXTEND
  0
POINT
  5
82D5
330
82CC
100
AcDbEntity
  8
DEFPOINTS
 62
     0
100
AcDbPoint
 10
635.637764946654
 20
1635.662218759831
 30
0.0
  0
POINT
  5
82D6
330
82CC
100
AcDbEntity
  8
DEFPOINTS
 62
     0
100
AcDbPoint
 10
1885.637764946654
 20
1635.662218759831
 30
0.0
  0
POINT
  5
82D7
330
82CC
100
AcDbEntity
  8
DEFPOINTS
 62
     0
100
AcDbPoint
 10
1885.637764946654
 20
1476.416274947918
 30
0.0
  0
ENDBLK
  5
82CE
330
82CC
100
AcDbEntity
  8
0
100
AcDbBlockEnd
  0
BLOCK
  5
82DA
330
82D9
100
AcDbEntity
  8
0
100
AcDbBlockBegin
  2
*D44
 70
     1
 10
0.0
 20
0.0
 30
0.0
  3
*D44
  1

  0
LINE
  5
82DC
330
82D9
100
AcDbEntity
  8
3
 62
     0
370
    -2
100
AcDbLine
 10
1885.637764946654
 20
1610.662218759831
 30
0.0
 11
1885.637764946654
 21
1451.416274947918
 31
0.0
  0
LINE
  5
82DD
330
82D9
100
AcDbEntity
  8
3
 62
     0
370
    -2
100
AcDbLine
 10
2385.637764946654
 20
1610.662218759831
 30
0.0
 11
2385.637764946654
 21
1451.416274947918
 31
0.0
  0
LINE
  5
82DE
330
82D9
100
AcDbEntity
  8
3
 62
     0
370
    -2
100
AcDbLine
 10
1935.637764946654
 20
1476.416274947918
 30
0.0
 11
2335.637764946654
 21
1476.416274947918
 31
0.0
  0
INSERT
  5
82DF
330
82D9
100
AcDbEntity
  8
3
 62
     0
370
    -2
100
AcDbBlockReference
  2
_OPEN
 10
1885.637764946654
 20
1476.416274947918
 30
0.0
 41
50.0
 42
50.0
 43
50.0
 50
180.0
  0
INSERT
  5
82E0
330
82D9
100
AcDbEntity
  8
3
 62
     0
370
    -2
100
AcDbBlockReference
  2
_OPEN
 10
2385.637764946654
 20
1476.416274947918
 30
0.0
 41
50.0
 42
50.0
 43
50.0
  0
MTEXT
  5
82E1
330
82D9
100
AcDbEntity
  8
3
 62
     0
100
AcDbMText
 10
2135.637764946654
 20
1538.916274947918
 30
0.0
 40
75.0
 41
0.0
 71
     5
 72
     1
  1
\A1;500
 73
     1
 44
1.0
1001
ACAD
1000
MTEXTBEGIN
1070
    73
1070
     1
1070
    44
1040
1.0
1070
    74
1070
     0
1000
MTEXTEND
  0
POINT
  5
82E2
330
82D9
100
AcDbEntity
  8
DEFPOINTS
 62
     0
100
AcDbPoint
 10
1885.637764946654
 20
1635.662218759831
 30
0.0
  0
POINT
  5
82E3
330
82D9
100
AcDbEntity
  8
DEFPOINTS
 62
     0
100
AcDbPoint
 10
2385.637764946654
 20
1635.662218759831
 30
0.0
  0
POINT
  5
82E4
330
82D9
100
AcDbEntity
  8
DEFPOINTS
 62
     0
100
AcDbPoint
 10
2385.637764946654
 20
1476.416274947918
 30
0.0
  0
ENDBLK
  5
82DB
330
82D9
100
AcDbEntity
  8
0
100
AcDbBlockEnd
  0
BLOCK
  5
82E7
330
82E6
100
AcDbEntity
  8
0
100
AcDbBlockBegin
  2
*D45
 70
     1
 10
0.0
 20
0.0
 30
0.0
  3
*D45
  1

  0
LINE
  5
833D
330
82E6
100
AcDbEntity
  8
3
 62
     0
370
    -2
100
AcDbLine
 10
2577.109556797044
 20
2775.662218759831
 30
0.0
 11
2911.558289676556
 21
2775.662218759831
 31
0.0
  0
LINE
  5
833E
330
82E6
100
AcDbEntity
  8
3
 62
     0
370
    -2
100
AcDbLine
 10
2410.637764946654
 20
1815.662218759831
 30
0.0
 11
2911.558289676556
 21
1815.66221875983
 31
0.0
  0
LINE
  5
833F
330
82E6
100
AcDbEntity
  8
3
 62
     0
370
    -2
100
AcDbLine
 10
2886.558289676557
 20
2725.662218759831
 30
0.0
 11
2886.558289676557
 21
1865.66221875983
 31
0.0
  0
INSERT
  5
8340
330
82E6
100
AcDbEntity
  8
3
 62
     0
370
    -2
100
AcDbBlockReference
  2
_OPEN
 10
2886.558289676557
 20
2775.662218759831
 30
0.0
 41
50.0
 42
50.0
 43
50.0
 50
90.0
  0
INSERT
  5
8341
330
82E6
100
AcDbEntity
  8
3
 62
     0
370
    -2
100
AcDbBlockReference
  2
_OPEN
 10
2886.558289676557
 20
1815.66221875983
 30
0.0
 41
50.0
 42
50.0
 43
50.0
 50
270.0
  0
MTEXT
  5
8342
330
82E6
100
AcDbEntity
  8
3
 62
     0
100
AcDbMText
 10
2824.058289676556
 20
2295.662218759831
 30
0.0
 40
75.0
 41
0.0
 71
     5
 72
     1
  1
\A1;960
 11
0.0000000000000001
 21
1.0
 31
0.0
 73
     1
 44
1.0
1001
ACAD
1000
MTEXTBEGIN
1070
    73
1070
     1
1070
    44
1040
1.0
1070
    74
1070
     0
1000
MTEXTEND
  0
POINT
  5
8343
330
82E6
100
AcDbEntity
  8
DEFPOINTS
 62
     0
100
AcDbPoint
 10
2552.109556797044
 20
2775.662218759831
 30
0.0
  0
POINT
  5
8344
330
82E6
100
AcDbEntity
  8
DEFPOINTS
 62
     0
100
AcDbPoint
 10
2385.637764946654
 20
1815.662218759831
 30
0.0
  0
POINT
  5
8345
330
82E6
100
AcDbEntity
  8
DEFPOINTS
 62
     0
100
AcDbPoint
 10
2886.558289676557
 20
1815.66221875983
 30
0.0
  0
ENDBLK
  5
82E8
330
82E6
100
AcDbEntity
  8
0
100
AcDbBlockEnd
  0
BLOCK
  5
82F4
330
82F3
100
AcDbEntity
  8
0
100
AcDbBlockBegin
  2
*D46
 70
     1
 10
0.0
 20
0.0
 30
0.0
  3
*D46
  1

  0
LINE
  5
8448
330
82F3
100
AcDbEntity
  8
3
 62
     0
370
    -2
100
AcDbLine
 10
2410.637764946654
 20
1815.662218759831
 30
0.0
 11
2911.558289676556
 21
1815.66221875983
 31
0.0
  0
LINE
  5
8449
330
82F3
100
AcDbEntity
  8
3
 62
     0
370
    -2
100
AcDbLine
 10
2410.637764946654
 20
1735.662218759831
 30
0.0
 11
2911.558289676556
 21
1735.66221875983
 31
0.0
  0
LINE
  5
844A
330
82F3
100
AcDbEntity
  8
3
 62
     0
370
    -2
100
AcDbLine
 10
2886.558289676557
 20
1865.66221875983
 30
0.0
 11
2886.558289676557
 21
1915.66221875983
 31
0.0
  0
LINE
  5
844B
330
82F3
100
AcDbEntity
  8
3
 62
     0
370
    -2
100
AcDbLine
 10
2886.558289676557
 20
1735.66221875983
 30
0.0
 11
2886.558289676557
 21
1685.66221875983
 31
0.0
  0
LINE
  5
844C
330
82F3
100
AcDbEntity
  8
3
 62
     0
370
    -2
100
AcDbLine
 10
2886.558289676557
 20
1775.662218759831
 30
0.0
 11
3054.531391326943
 21
1845.840790188402
 31
0.0
  0
LINE
  5
844D
330
82F3
100
AcDbEntity
  8
3
 62
     0
370
    -2
100
AcDbLine
 10
3054.531391326943
 20
1845.840790188402
 30
0.0
 11
3054.531391326943
 21
2113.697933045544
 31
0.0
  0
MTEXT
  5
844E
330
82F3
100
AcDbEntity
  8
3
 62
     0
100
AcDbMText
 10
2972.388534184085
 20
1979.769361616973
 30
0.0
 40
75.0
 41
0.0
 71
     5
 72
     1
  1
\A1;(80)
 11
0.0000000000000001
 21
1.0
 31
0.0
 73
     1
 44
1.0
1001
ACAD
1000
MTEXTBEGIN
1070
    73
1070
     1
1070
    44
1040
1.0
1070
    74
1070
     0
1000
MTEXTEND
  0
LINE
  5
844F
330
82F3
100
AcDbEntity
  8
3
 62
     0
370
    -2
100
AcDbLine
 10
2886.558289676557
 20
1815.66221875983
 30
0.0
 11
2886.558289676557
 21
1735.66221875983
 31
0.0
  0
LINE
  5
8450
330
82F3
100
AcDbEntity
  8
3
 62
     0
370
    -2
100
AcDbLine
 10
2886.558289676557
 20
1815.66221875983
 30
0.0
 11
2886.558289676557
 21
1735.66221875983
 31
0.0
  0
INSERT
  5
8451
330
82F3
100
AcDbEntity
  8
3
 62
     0
370
    -2
100
AcDbBlockReference
  2
_OPEN
 10
2886.558289676557
 20
1815.66221875983
 30
0.0
 41
50.0
 42
50.0
 43
50.0
 50
270.0
  0
INSERT
  5
8452
330
82F3
100
AcDbEntity
  8
3
 62
     0
370
    -2
100
AcDbBlockReference
  2
_DotSmall
 10
2886.558289676557
 20
1735.66221875983
 30
0.0
 41
50.0
 42
50.0
 43
50.0
 50
90.0
  0
POINT
  5
8453
330
82F3
100
AcDbEntity
  8
DEFPOINTS
 62
     0
100
AcDbPoint
 10
2385.637764946654
 20
1815.662218759831
 30
0.0
  0
POINT
  5
8454
330
82F3
100
AcDbEntity
  8
DEFPOINTS
 62
     0
100
AcDbPoint
 10
2385.637764946654
 20
1735.662218759831
 30
0.0
  0
POINT
  5
8455
330
82F3
100
AcDbEntity
  8
DEFPOINTS
 62
     0
100
AcDbPoint
 10
2886.558289676557
 20
1735.66221875983
 30
0.0
  0
ENDBLK
  5
82F5
330
82F3
100
AcDbEntity
  8
0
100
AcDbBlockEnd
  0
BLOCK
  5
8306
330
8305
100
AcDbEntity
  8
0
100
AcDbBlockBegin
  2
*D47
 70
     1
 10
0.0
 20
0.0
 30
0.0
  3
*D47
  1

  0
LINE
  5
84A2
330
8305
100
AcDbEntity
  8
3
 62
     0
370
    -2
100
AcDbLine
 10
2410.637764946654
 20
1735.662218759831
 30
0.0
 11
2911.558289676556
 21
1735.66221875983
 31
0.0
  0
LINE
  5
84A3
330
8305
100
AcDbEntity
  8
3
 62
     0
370
    -2
100
AcDbLine
 10
2410.637764946654
 20
1635.662218759831
 30
0.0
 11
2911.558289676556
 21
1635.66221875983
 31
0.0
  0
LINE
  5
84A4
330
8305
100
AcDbEntity
  8
3
 62
     0
370
    -2
100
AcDbLine
 10
2886.558289676557
 20
1735.66221875983
 30
0.0
 11
2886.558289676557
 21
1685.66221875983
 31
0.0
  0
MTEXT
  5
84A5
330
8305
100
AcDbEntity
  8
3
 62
     0
100
AcDbMText
 10
2815.570517493143
 20
1484.822241916503
 30
0.0
 40
75.0
 41
0.0
 71
     5
 72
     1
  1
\A1;100
 11
0.0000000000000001
 21
1.0
 31
0.0
 73
     1
 44
1.0
1001
ACAD
1000
MTEXTBEGIN
1070
    73
1070
     1
1070
    44
1040
1.0
1070
    74
1070
     0
1000
MTEXTEND
  0
INSERT
  5
84A6
330
8305
100
AcDbEntity
  8
3
 62
     0
370
    -2
100
AcDbBlockReference
  2
_DotSmall
 10
2886.558289676557
 20
1735.66221875983
 30
0.0
 41
50.0
 42
50.0
 43
50.0
 50
90.0
  0
INSERT
  5
84A7
330
8305
100
AcDbEntity
  8
3
 62
     0
370
    -2
100
AcDbBlockReference
  2
_OPEN
 10
2886.558289676557
 20
1635.66221875983
 30
0.0
 41
50.0
 42
50.0
 43
50.0
 50
270.0
  0
POINT
  5
84A8
330
8305
100
AcDbEntity
  8
DEFPOINTS
 62
     0
100
AcDbPoint
 10
2385.637764946654
 20
1735.662218759831
 30
0.0
  0
POINT
  5
84A9
330
8305
100
AcDbEntity
  8
DEFPOINTS
 62
     0
100
AcDbPoint
 10
2385.637764946654
 20
1635.662218759831
 30
0.0
  0
POINT
  5
84AA
330
8305
100
AcDbEntity
  8
DEFPOINTS
 62
     0
100
AcDbPoint
 10
2886.558289676557
 20
1635.66221875983
 30
0.0
  0
ENDBLK
  5
8307
330
8305
100
AcDbEntity
  8
0
100
AcDbBlockEnd
  0
BLOCK
  5
839A
330
8399
100
AcDbEntity
  8
0
100
AcDbBlockBegin
  2
*D48
 70
     1
 10
0.0
 20
0.0
 30
0.0
  3
*D48
  1

  0
LINE
  5
83A5
330
8399
100
AcDbEntity
  8
3
 62
     0
370
    -2
100
AcDbLine
 10
1851.637764946654
 20
3333.662218759831
 30
0.0
 11
2911.558289676557
 21
3333.662218759831
 31
0.0
  0
LINE
  5
83A6
330
8399
100
AcDbEntity
  8
3
 62
     0
370
    -2
100
AcDbLine
 10
2577.109556797044
 20
2775.662218759831
 30
0.0
 11
2911.558289676556
 21
2775.662218759831
 31
0.0
  0
LINE
  5
83A7
330
8399
100
AcDbEntity
  8
3
 62
     0
370
    -2
100
AcDbLine
 10
2886.558289676557
 20
3283.662218759831
 30
0.0
 11
2886.558289676557
 21
2825.662218759831
 31
0.0
  0
INSERT
  5
83A8
330
8399
100
AcDbEntity
  8
3
 62
     0
370
    -2
100
AcDbBlockReference
  2
_OPEN
 10
2886.558289676557
 20
3333.662218759831
 30
0.0
 41
50.0
 42
50.0
 43
50.0
 50
90.0
  0
INSERT
  5
83A9
330
8399
100
AcDbEntity
  8
3
 62
     0
370
    -2
100
AcDbBlockReference
  2
_OPEN
 10
2886.558289676557
 20
2775.662218759831
 30
0.0
 41
50.0
 42
50.0
 43
50.0
 50
270.0
  0
MTEXT
  5
83AA
330
8399
100
AcDbEntity
  8
3
 62
     0
100
AcDbMText
 10
2824.058289676556
 20
3054.662218759832
 30
0.0
 40
75.0
 41
0.0
 71
     5
 72
     1
  1
\A1;558
 11
0.0000000000000001
 21
1.0
 31
0.0
 73
     1
 44
1.0
1001
ACAD
1000
MTEXTBEGIN
1070
    73
1070
     1
1070
    44
1040
1.0
1070
    74
1070
     0
1000
MTEXTEND
  0
POINT
  5
83AB
330
8399
100
AcDbEntity
  8
DEFPOINTS
 62
     0
100
AcDbPoint
 10
1826.637764946654
 20
3333.662218759831
 30
0.0
  0
POINT
  5
83AC
330
8399
100
AcDbEntity
  8
DEFPOINTS
 62
     0
100
AcDbPoint
 10
2552.109556797044
 20
2775.662218759831
 30
0.0
  0
POINT
  5
83AD
330
8399
100
AcDbEntity
  8
DEFPOINTS
 62
     0
100
AcDbPoint
 10
2886.558289676557
 20
2775.662218759831
 30
0.0
  0
ENDBLK
  5
839B
330
8399
100
AcDbEntity
  8
0
100
AcDbBlockEnd
  0
BLOCK
  5
83B0
330
83AF
100
AcDbEntity
  8
0
100
AcDbBlockBegin
  2
*D49
 70
     1
 10
0.0
 20
0.0
 30
0.0
  3
*D49
  1

  0
LINE
  5
83C4
330
83AF
100
AcDbEntity
  8
3
 62
     0
370
    -2
100
AcDbLine
 10
2410.637764946654
 20
1635.662218759831
 30
0.0
 11
3098.687539458355
 21
1635.66221875983
 31
0.0
  0
LINE
  5
83C5
330
83AF
100
AcDbEntity
  8
3
 62
     0
370
    -2
100
AcDbLine
 10
1851.637764946654
 20
3333.662218759831
 30
0.0
 11
3098.687539458355
 21
3333.662218759831
 31
0.0
  0
LINE
  5
83C6
330
83AF
100
AcDbEntity
  8
3
 62
     0
370
    -2
100
AcDbLine
 10
3073.687539458355
 20
1685.66221875983
 30
0.0
 11
3073.687539458355
 21
3283.662218759831
 31
0.0
  0
INSERT
  5
83C7
330
83AF
100
AcDbEntity
  8
3
 62
     0
370
    -2
100
AcDbBlockReference
  2
_OPEN
 10
3073.687539458355
 20
1635.66221875983
 30
0.0
 41
50.0
 42
50.0
 43
50.0
 50
270.0
  0
INSERT
  5
83C8
330
83AF
100
AcDbEntity
  8
3
 62
     0
370
    -2
100
AcDbBlockReference
  2
_OPEN
 10
3073.687539458355
 20
3333.662218759831
 30
0.0
 41
50.0
 42
50.0
 43
50.0
 50
90.0
  0
MTEXT
  5
83C9
330
83AF
100
AcDbEntity
  8
3
 62
     0
100
AcDbMText
 10
2991.544682315497
 20
2484.662218759832
 30
0.0
 40
75.0
 41
0.0
 71
     5
 72
     1
  1
\A1;(1698)
 11
0.0000000000000001
 21
1.0
 31
0.0
 73
     1
 44
1.0
1001
ACAD
1000
MTEXTBEGIN
1070
    73
1070
     1
1070
    44
1040
1.0
1070
    74
1070
     0
1000
MTEXTEND
  0
POINT
  5
83CA
330
83AF
100
AcDbEntity
  8
DEFPOINTS
 62
     0
100
AcDbPoint
 10
2385.637764946654
 20
1635.662218759831
 30
0.0
  0
POINT
  5
83CB
330
83AF
100
AcDbEntity
  8
DEFPOINTS
 62
     0
100
AcDbPoint
 10
1826.637764946654
 20
3333.662218759831
 30
0.0
  0
POINT
  5
83CC
330
83AF
100
AcDbEntity
  8
DEFPOINTS
 62
     0
100
AcDbPoint
 10
3073.687539458355
 20
3333.662218759831
 30
0.0
  0
ENDBLK
  5
83B1
330
83AF
100
AcDbEntity
  8
0
100
AcDbBlockEnd
  0
BLOCK
  5
83CF
330
83CE
100
AcDbEntity
  8
0
100
AcDbBlockBegin
  2
*D50
 70
     1
 10
0.0
 20
0.0
 30
0.0
  3
*D50
  1

  0
LINE
  5
83DA
330
83CE
100
AcDbEntity
  8
3
 62
     0
370
    -2
100
AcDbLine
 10
1885.637764946654
 20
3457.680539471301
 30
0.0
 11
1885.637764946654
 21
3498.22399068715
 31
0.0
  0
LINE
  5
83DB
330
83CE
100
AcDbEntity
  8
3
 62
     0
370
    -2
100
AcDbLine
 10
1209.637764946654
 20
2741.662218759831
 30
0.0
 11
1209.637764946654
 21
3498.22399068715
 31
0.0
  0
LINE
  5
83DC
330
83CE
100
AcDbEntity
  8
3
 62
     0
370
    -2
100
AcDbLine
 10
1835.637764946654
 20
3473.22399068715
 30
0.0
 11
1259.637764946654
 21
3473.22399068715
 31
0.0
  0
INSERT
  5
83DD
330
83CE
100
AcDbEntity
  8
3
 62
     0
370
    -2
100
AcDbBlockReference
  2
_OPEN
 10
1885.637764946654
 20
3473.22399068715
 30
0.0
 41
50.0
 42
50.0
 43
50.0
  0
INSERT
  5
83DE
330
83CE
100
AcDbEntity
  8
3
 62
     0
370
    -2
100
AcDbBlockReference
  2
_OPEN
 10
1209.637764946654
 20
3473.22399068715
 30
0.0
 41
50.0
 42
50.0
 43
50.0
 50
180.0
  0
MTEXT
  5
83DF
330
83CE
100
AcDbEntity
  8
3
 62
     0
100
AcDbMText
 10
1547.637764946654
 20
3535.72399068715
 30
0.0
 40
75.0
 41
0.0
 71
     5
 72
     1
  1
\A1;676
 73
     1
 44
1.0
1001
ACAD
1000
MTEXTBEGIN
1070
    73
1070
     1
1070
    44
1040
1.0
1070
    74
1070
     0
1000
MTEXTEND
  0
POINT
  5
83E0
330
83CE
100
AcDbEntity
  8
DEFPOINTS
 62
     0
100
AcDbPoint
 10
1885.637764946654
 20
3432.680539471301
 30
0.0
  0
POINT
  5
83E1
330
83CE
100
AcDbEntity
  8
DEFPOINTS
 62
     0
100
AcDbPoint
 10
1209.637764946654
 20
2716.662218759831
 30
0.0
  0
POINT
  5
83E2
330
83CE
100
AcDbEntity
  8
DEFPOINTS
 62
     0
100
AcDbPoint
 10
1209.637764946654
 20
3473.22399068715
 30
0.0
  0
ENDBLK
  5
83D0
330
83CE
100
AcDbEntity
  8
0
100
AcDbBlockEnd
  0
BLOCK
  5
8446
330
8444
100
AcDbEntity
  8
0
100
AcDbBlockBegin
  2
_DotSmall
 70
     0
 10
0.0
 20
0.0
 30
0.0
  3
_DotSmall
  1

  0
LWPOLYLINE
  5
8445
330
8444
100
AcDbEntity
  8
0
  6
ByBlock
 62
     0
100
AcDbPolyline
 90
        2
 70
     1
 43
0.5
 10
-0.0625
 20
0.0
 42
1.0
 10
0.0625
 20
0.0
 42
1.0
  0
ENDBLK
  5
8447
330
8444
100
AcDbEntity
  8
0
100
AcDbBlockEnd
  0
ENDSEC
  0
SECTION
  2
ENTITIES
  0
INSERT
  5
7C08
330
80FA
100
AcDbEntity
  8
0
100
AcDbBlockReference
  2
YA_N
 10
6.0
 20
5.0
 30
0.0
  0
LINE
  5
7C0A
330
80FA
100
AcDbEntity
  8
2
100
AcDbLine
 10
1885.637764946654
 20
3432.680539471301
 30
0.0
 11
1885.637764946654
 21
1635.662218759831
 31
0.0
  0
LINE
  5
7C0B
330
80FA
100
AcDbEntity
  8
2
100
AcDbLine
 10
2552.109556797044
 20
2775.662218759831
 30
0.0
 11
1127.734187756617
 21
2775.662218759831
 31
0.0
  0
LINE
  5
7C16
330
80FA
100
AcDbEntity
  8
1
100
AcDbLine
 10
635.637764946654
 20
1635.662218759831
 30
0.0
 11
2385.637764946654
 21
1635.662218759831
 31
0.0
  0
LINE
  5
7C17
330
80FA
100
AcDbEntity
  8
1
100
AcDbLine
 10
2385.637764946654
 20
1735.662218759831
 30
0.0
 11
2385.637764946654
 21
1635.662218759831
 31
0.0
  0
LINE
  5
7C18
330
80FA
100
AcDbEntity
  8
1
100
AcDbLine
 10
635.637764946654
 20
1735.662218759831
 30
0.0
 11
635.637764946654
 21
1635.662218759831
 31
0.0
  0
LINE
  5
7C19
330
80FA
100
AcDbEntity
  8
1
100
AcDbLine
 10
1085.637764946653
 20
1955.66221875983
 30
0.0
 11
1085.637764946653
 21
1915.66221875983
 31
0.0
  0
LINE
  5
7C1A
330
80FA
100
AcDbEntity
  8
1
100
AcDbLine
 10
4555.83645929915
 20
3343.662218759831
 30
0.0
 11
4555.836459299146
 21
2798.662218759831
 31
0.0
  0
LINE
  5
7C1B
330
80FA
100
AcDbEntity
  8
1
100
AcDbLine
 10
3353.836459299146
 20
1635.662218759831
 30
0.0
 11
4558.83645929915
 21
1635.662218759831
 31
0.0
  0
LINE
  5
7C1C
330
80FA
100
AcDbEntity
  8
1
100
AcDbLine
 10
3353.836459299146
 20
1735.662218759831
 30
0.0
 11
3353.836459299146
 21
1635.662218759831
 31
0.0
  0
LINE
  5
7C1D
330
80FA
100
AcDbEntity
  8
2
100
AcDbLine
 10
3166.518528745855
 20
2775.662218759831
 30
0.0
 11
4706.886305878344
 21
2775.662218759831
 31
0.0
  0
LINE
  5
7C1E
330
80FA
100
AcDbEntity
  8
2
100
AcDbLine
 10
3166.518528745855
 20
2165.66221875983
 30
0.0
 11
3555.836459299147
 21
2165.66221875983
 31
0.0
  0
LINE
  5
7C1F
330
80FA
100
AcDbEntity
  8
1
100
AcDbLine
 10
3287.836459299147
 20
2902.662218759831
 30
0.0
 11
3287.836459299147
 21
2648.662218759831
 31
0.0
  0
LINE
  5
7C20
330
80FA
100
AcDbEntity
  8
1
100
AcDbLine
 10
3155.836459299147
 20
2995.662218759831
 30
0.0
 11
3155.836459299147
 21
1945.66221875983
 31
0.0
  0
LINE
  5
7C21
330
80FA
100
AcDbEntity
  8
1
100
AcDbLine
 10
3155.836459299147
 20
2995.662218759831
 30
0.0
 11
3405.836459299147
 21
2995.662218759831
 31
0.0
  0
LINE
  5
7C22
330
80FA
100
AcDbEntity
  8
1
100
AcDbLine
 10
3405.836459299147
 20
2995.662218759831
 30
0.0
 11
3405.836459299147
 21
2945.662218759831
 31
0.0
  0
LINE
  5
7C23
330
80FA
100
AcDbEntity
  8
1
100
AcDbLine
 10
3405.836459299148
 20
1988.157996151169
 30
0.0
 11
3405.836459299148
 21
1945.66221875983
 31
0.0
  0
LINE
  5
7C24
330
80FA
100
AcDbEntity
  8
2
100
AcDbLine
 10
4055.836459299146
 20
3456.195870294098
 30
0.0
 11
4055.83645929915
 21
1635.662218759831
 31
0.0
  0
POINT
  5
7C25
330
80FA
100
AcDbEntity
  8
1
100
AcDbPoint
 10
2385.637764946654
 20
1815.662218759831
 30
0.0
  0
POINT
  5
7C26
330
80FA
100
AcDbEntity
  8
1
100
AcDbPoint
 10
2385.637764946654
 20
1815.662218759831
 30
0.0
  0
POINT
  5
7C27
330
80FA
100
AcDbEntity
  8
1
100
AcDbPoint
 10
2385.637764946654
 20
1815.662218759831
 30
0.0
  0
INSERT
  5
7C2A
330
80FA
100
AcDbEntity
  8
0
100
AcDbBlockReference
  2
YA_N
 10
-733.6448571667497
 20
-271.0302667023643
 30
0.0
 41
20.0
 42
20.0
 43
20.0
  0
DIMENSION
  5
7C2D
330
80FA
100
AcDbEntity
  8
3
100
AcDbDimension
  2
*D5
 10
2578.983108488717
 20
2752.662218759831
 30
0.0
 11
2528.983108488717
 21
2340.16221875983
 31
0.0
 12
-343.2284028528011
 22
1213.77460335035
 32
0.0
 71
     5
 42
-1.0
  3
Standard
100
AcDbAlignedDimension
 13
2430.637764946654
 23
1927.66221875983
 33
0.0
 14
2430.637764946654
 24
2752.662218759831
 34
0.0
 50
270.0
100
AcDbRotatedDimension
1001
ACAD
1000
DSTYLE
1002
{
1070
    40
1040
25.0
1002
}
  0
DIMENSION
  5
7C2E
330
80FA
100
AcDbEntity
  8
3
100
AcDbDimension
  2
*D6
 10
2731.26651106252
 20
2775.662218759831
 30
0.0
 11
2681.266511062521
 21
2351.66221875983
 31
0.0
 12
-343.2284028528011
 22
1213.77460335035
 32
0.0
 71
     5
 42
-1.0
  3
Standard
100
AcDbAlignedDimension
 13
2430.637764946654
 23
1927.66221875983
 33
0.0
 14
2552.109556797044
 24
2775.662218759831
 34
0.0
 50
270.0
100
AcDbRotatedDimension
1001
ACAD
1000
DSTYLE
1002
{
1070
    40
1040
25.0
1002
}
  0
LINE
  5
7C2F
330
80FA
100
AcDbEntity
  8
1
100
AcDbLine
 10
751.1788649466534
 20
2075.35021875983
 30
0.0
 11
731.6377649466541
 21
2021.66221875983
 31
0.0
  0
LINE
  5
7C30
330
80FA
100
AcDbEntity
  8
1
100
AcDbLine
 10
1020.084564946653
 20
2075.38321875983
 30
0.0
 11
1039.637764946654
 21
2021.66221875983
 31
0.0
  0
ARC
  5
7C31
330
80FA
100
AcDbEntity
  8
1
100
AcDbCircle
 10
885.6377649466537
 20
2165.66221875983
 30
0.0
 40
162.0
100
AcDbArc
 50
180.0
 51
213.894877047198
  0
ARC
  5
7C32
330
80FA
100
AcDbEntity
  8
1
100
AcDbCircle
 10
885.6377649466537
 20
2165.66221875983
 30
0.0
 40
162.0
100
AcDbArc
 50
326.1050864604068
 51
180.0
  0
LINE
  5
7C33
330
80FA
100
AcDbEntity
  8
2
100
AcDbLine
 10
885.6377649466537
 20
2344.111986847017
 30
0.0
 11
885.637764946653
 21
1635.662218759831
 31
0.0
  0
LINE
  5
7C34
330
80FA
100
AcDbEntity
  8
1
100
AcDbLine
 10
1039.637764946654
 20
2005.66221875983
 30
0.0
 11
1039.637764946654
 21
2021.66221875983
 31
0.0
  0
LINE
  5
7C35
330
80FA
100
AcDbEntity
  8
1
100
AcDbLine
 10
731.6377649466541
 20
2005.66221875983
 30
0.0
 11
731.6377649466541
 21
2021.66221875983
 31
0.0
  0
LINE
  5
7C36
330
80FA
100
AcDbEntity
  8
2
100
AcDbLine
 10
1073.748209009325
 20
2165.66221875983
 30
0.0
 11
698.6694039792966
 21
2165.66221875983
 31
0.0
  0
LINE
  5
7C37
330
80FA
100
AcDbEntity
  8
1
100
AcDbLine
 10
697.1231216806135
 20
2005.66221875983
 30
0.0
 11
1074.392632561464
 21
2005.662218759828
 31
0.0
  0
LINE
  5
7C38
330
80FA
100
AcDbEntity
  8
1
100
AcDbLine
 10
1087.637764946653
 20
1955.66221875983
 30
0.0
 11
1074.392632561464
 21
2005.66221875983
 31
0.0
  0
LINE
  5
7C39
330
80FA
100
AcDbEntity
  8
1
100
AcDbLine
 10
683.637764946653
 20
1955.66221875983
 30
0.0
 11
697.1231216806144
 21
2005.66221875983
 31
0.0
  0
CIRCLE
  5
7C3A
330
80FA
100
AcDbEntity
  8
1
100
AcDbCircle
 10
885.6377649466537
 20
2165.66221875983
 30
0.0
 40
110.0
  0
CIRCLE
  5
7C3B
330
80FA
100
AcDbEntity
  8
1
100
AcDbCircle
 10
1885.637764946654
 20
2775.662218759831
 30
0.0
 40
127.0
  0
LINE
  5
7C3C
330
80FA
100
AcDbEntity
  8
1
100
AcDbLine
 10
3287.836459299147
 20
2902.662218759831
 30
0.0
 11
3372.836459299147
 21
2902.662218759831
 31
0.0
  0
LINE
  5
7C3D
330
80FA
100
AcDbEntity
  8
1
100
AcDbLine
 10
3287.836459299147
 20
2648.662218759831
 30
0.0
 11
3372.836459299148
 21
2648.662218759831
 31
0.0
  0
LINE
  5
7C3E
330
80FA
100
AcDbEntity
  8
1
100
AcDbLine
 10
3287.836459299148
 20
2275.662218759831
 30
0.0
 11
3372.836459299147
 21
2275.662218759831
 31
0.0
  0
LINE
  5
7C3F
330
80FA
100
AcDbEntity
  8
1
100
AcDbLine
 10
3287.836459299147
 20
2055.66221875983
 30
0.0
 11
3372.836459299147
 21
2055.66221875983
 31
0.0
  0
LINE
  5
7C40
330
80FA
100
AcDbEntity
  8
1
100
AcDbLine
 10
3155.836459299147
 20
1945.66221875983
 30
0.0
 11
3405.836459299147
 21
1945.66221875983
 31
0.0
  0
LINE
  5
7C41
330
80FA
100
AcDbEntity
  8
1
100
AcDbLine
 10
3372.836459299147
 20
2902.662218759831
 30
0.0
 11
3372.836459299147
 21
2648.662218759831
 31
0.0
  0
INSERT
  5
7C42
330
80FA
100
AcDbEntity
  8
0
100
AcDbBlockReference
  2
YA_N
 10
-36.73462870802178
 20
301.6536876033205
 30
0.0
 41
20.0
 42
20.0
 43
20.0
  0
INSERT
  5
7C44
330
80FA
100
AcDbEntity
  8
0
100
AcDbBlockReference
  2
YA_N
 10
77.48489664613955
 20
225.3119777640749
 30
0.0
 41
20.0
 42
20.0
 43
20.0
  0
LINE
  5
7C46
330
80FA
100
AcDbEntity
  8
1
100
AcDbLine
 10
3353.836459299146
 20
1735.662218759831
 30
0.0
 11
4608.836459299147
 21
1735.662218759831
 31
0.0
1001
ACAD
1000
ASC_BOUNDS
1002
{
1070
    19
1002
}
  0
LINE
  5
7C47
330
80FA
100
AcDbEntity
  8
1
100
AcDbLine
 10
2385.637764946654
 20
1735.662218759831
 30
0.0
 11
635.637764946654
 21
1735.662218759831
 31
0.0
1001
ACAD
1000
ASC_BOUNDS
1002
{
1070
    19
1005
0
1005
0
1002
}
  0
POINT
  5
7C48
330
80FA
100
AcDbEntity
  8
1
100
AcDbPoint
 10
2385.637764946654
 20
1735.662218759831
 30
0.0
  0
POINT
  5
7C49
330
80FA
100
AcDbEntity
  8
1
100
AcDbPoint
 10
2385.637764946654
 20
1635.662218759831
 30
0.0
  0
POINT
  5
7C4A
330
80FA
100
AcDbEntity
  8
1
100
AcDbPoint
 10
2385.637764946654
 20
1735.662218759831
 30
0.0
  0
POINT
  5
7C4B
330
80FA
100
AcDbEntity
  8
1
100
AcDbPoint
 10
2385.637764946654
 20
1815.662218759831
 30
0.0
  0
LINE
  5
7C4C
330
80FA
100
AcDbEntity
  8
1
100
AcDbLine
 10
4608.836459299147
 20
1735.662218759831
 30
0.0
 11
4608.836459299147
 21
1635.662218759831
 31
0.0
  0
LINE
  5
7C4D
330
80FA
100
AcDbEntity
  8
1
100
AcDbLine
 10
4558.836459299146
 20
1635.662218759832
 30
0.0
 11
4608.836459299149
 21
1635.662218759831
 31
0.0
  0
POINT
  5
7C4E
330
80FA
100
AcDbEntity
  8
1
100
AcDbPoint
 10
2385.637764946654
 20
1735.662218759831
 30
0.0
  0
POINT
  5
7C4F
330
80FA
100
AcDbEntity
  8
1
100
AcDbPoint
 10
2385.637764946654
 20
1635.662218759831
 30
0.0
  0
POINT
  5
7C50
330
80FA
100
AcDbEntity
  8
1
100
AcDbPoint
 10
2385.637764946654
 20
1735.662218759831
 30
0.0
  0
POINT
  5
7C51
330
80FA
100
AcDbEntity
  8
1
100
AcDbPoint
 10
2385.637764946654
 20
1815.662218759831
 30
0.0
  0
LINE
  5
7C52
330
80FA
100
AcDbEntity
  8
1
100
AcDbLine
 10
4055.836459299146
 20
3343.662218759831
 30
0.0
 11
4555.836459299146
 21
3343.662218759831
 31
0.0
  0
LINE
  5
7C53
330
80FA
100
AcDbEntity
  8
1
100
AcDbLine
 10
4555.836459299146
 20
2798.662218759831
 30
0.0
 11
4555.836459299146
 21
1927.66221875983
 31
0.0
  0
LINE
  5
7C54
330
80FA
100
AcDbEntity
  8
1
100
AcDbLine
 10
3555.836459299147
 20
2798.662218759831
 30
0.0
 11
3555.836459299147
 21
1927.66221875983
 31
0.0
  0
LINE
  5
7C55
330
80FA
100
AcDbEntity
  8
1
100
AcDbLine
 10
3555.836459299147
 20
3343.662218759831
 30
0.0
 11
3555.83645929915
 21
2798.662218759831
 31
0.0
  0
LINE
  5
7C56
330
80FA
100
AcDbEntity
  8
1
100
AcDbLine
 10
4055.836459299146
 20
3343.662218759831
 30
0.0
 11
3555.836459299147
 21
3343.662218759831
 31
0.0
  0
LINE
  5
7C57
330
80FA
100
AcDbEntity
  8
1
100
AcDbLine
 10
3417.836459299147
 20
2739.86221875983
 30
0.0
 11
3417.836459299147
 21
2609.862218759831
 31
0.0
  0
LINE
  5
7C58
330
80FA
100
AcDbEntity
  8
1
100
AcDbLine
 10
3427.836459299147
 20
2749.862218759831
 30
0.0
 11
3555.836459299147
 21
2749.86221875983
 31
0.0
  0
LINE
  5
7C59
330
80FA
100
AcDbEntity
  8
1
100
AcDbLine
 10
3427.836459299147
 20
2599.862218759831
 30
0.0
 11
3555.836459299147
 21
2599.862218759831
 31
0.0
  0
ARC
  5
7C5A
330
80FA
100
AcDbEntity
  8
1
100
AcDbCircle
 10
3427.836459299147
 20
2739.86221875983
 30
0.0
 40
10.0
100
AcDbArc
 50
90.0
 51
180.0
  0
ARC
  5
7C5B
330
80FA
100
AcDbEntity
  8
1
100
AcDbCircle
 10
3427.836459299147
 20
2609.862218759831
 30
0.0
 40
10.0
100
AcDbArc
 50
180.0
 51
270.0
  0
LINE
  5
7C5C
330
80FA
100
AcDbEntity
  8
1
100
AcDbLine
 10
4665.836459299149
 20
2736.16221875983
 30
0.0
 11
4665.836459299149
 21
2636.16221875983
 31
0.0
  0
ARC
  5
7C5D
330
80FA
100
AcDbEntity
  8
1
100
AcDbCircle
 10
4655.836459299149
 20
2636.16221875983
 30
0.0
 40
10.0
100
AcDbArc
 50
270.0
 51
0.0
  0
ARC
  5
7C5E
330
80FA
100
AcDbEntity
  8
1
100
AcDbCircle
 10
4655.836459299149
 20
2736.16221875983
 30
0.0
 40
10.0
100
AcDbArc
 50
0.0
 51
90.0
  0
LINE
  5
7C5F
330
80FA
100
AcDbEntity
  8
1
100
AcDbLine
 10
4555.836459299146
 20
2626.162218759831
 30
0.0
 11
4655.836459299149
 21
2626.162218759831
 31
0.0
  0
LINE
  5
7C60
330
80FA
100
AcDbEntity
  8
1
100
AcDbLine
 10
4555.836459299146
 20
2746.162218759832
 30
0.0
 11
4655.836459299149
 21
2746.16221875983
 31
0.0
  0
LINE
  5
7C61
330
80FA
100
AcDbEntity
  8
1
100
AcDbLine
 10
685.6377649466529
 20
1955.66221875983
 30
0.0
 11
685.6377649466529
 21
1915.66221875983
 31
0.0
  0
POINT
  5
7C62
330
80FA
100
AcDbEntity
  8
1
100
AcDbPoint
 10
4665.836459299149
 20
2736.16221875983
 30
0.0
  0
LINE
  5
7C63
330
80FA
100
AcDbEntity
  8
1
100
AcDbLine
 10
635.637764946654
 20
4117.359109654241
 30
0.0
 11
2385.637764946654
 21
4117.359109654241
 31
0.0
  0
LINE
  5
7C64
330
80FA
100
AcDbEntity
  8
1
100
AcDbLine
 10
1385.637764946654
 20
5372.359109654242
 30
0.0
 11
2385.637764946654
 21
5372.359109654242
 31
0.0
  0
LINE
  5
7C65
330
80FA
100
AcDbEntity
  8
1
100
AcDbLine
 10
2385.637764946654
 20
5372.359109654242
 30
0.0
 11
2385.637764946654
 21
5319.35910965424
 31
0.0
  0
LINE
  5
7C66
330
80FA
100
AcDbEntity
  8
1
100
AcDbLine
 10
635.637764946654
 20
4867.359109654242
 30
0.0
 11
635.637764946654
 21
4117.359109654241
 31
0.0
  0
LINE
  5
7C67
330
80FA
100
AcDbEntity
  8
1
100
AcDbLine
 10
1385.637764946653
 20
5372.359109654242
 30
0.0
 11
1385.637764946653
 21
5319.359109654243
 31
0.0
  0
LINE
  5
7C68
330
80FA
100
AcDbEntity
  8
1
100
AcDbLine
 10
635.637764946654
 20
4867.359109654242
 30
0.0
 11
1201.977681193662
 21
4867.359109654242
 31
0.0
  0
LINE
  5
7C69
330
80FA
100
AcDbEntity
  8
2
100
AcDbLine
 10
1151.911879804378
 20
4819.359109654243
 30
0.0
 11
2466.030133355085
 21
4819.359109654243
 31
0.0
  0
LINE
  5
7C6A
330
80FA
100
AcDbEntity
  8
2
100
AcDbLine
 10
1885.637764946652
 20
5405.343025191171
 30
0.0
 11
1885.637764946654
 21
3882.495458504105
 31
0.0
  0
LINE
  5
7C6B
330
80FA
100
AcDbEntity
  8
2
100
AcDbLine
 10
885.6377649466537
 20
4733.849099138185
 30
0.0
 11
885.6377649466537
 21
3882.495458504105
 31
0.0
  0
LINE
  5
7C6E
330
80FA
100
AcDbEntity
  8
1
100
AcDbLine
 10
4608.836459299147
 20
1915.66221875983
 30
0.0
 11
4608.836459299147
 21
1815.662218759831
 31
0.0
  0
LINE
  5
7C6F
330
80FA
100
AcDbEntity
  8
1
100
AcDbLine
 10
3353.836459299146
 20
1915.66221875983
 30
0.0
 11
4608.836459299147
 21
1915.662218759831
 31
0.0
1001
ACAD
1000
ASC_BOUNDS
1002
{
1070
    19
1002
}
  0
LINE
  5
7C70
330
80FA
100
AcDbEntity
  8
1
100
AcDbLine
 10
3353.836459299146
 20
1815.662218759831
 30
0.0
 11
4608.836459299147
 21
1815.662218759831
 31
0.0
  0
LINE
  5
7C71
330
80FA
100
AcDbEntity
  8
1
100
AcDbLine
 10
3353.836459299146
 20
1915.66221875983
 30
0.0
 11
3353.836459299146
 21
1815.662218759831
 31
0.0
  0
DIMENSION
  5
7C72
330
80FA
100
AcDbEntity
  8
3
100
AcDbDimension
  2
*D7
 10
4857.359870196122
 20
2350.662218759831
 30
0.0
 11
4807.359870196122
 21
2775.662218759831
 31
0.0
 12
-858.0710458134962
 22
1213.77460335035
 32
0.0
 71
     5
 42
-1.0
  3
Standard
100
AcDbAlignedDimension
 13
4558.136459299148
 23
3200.662218759831
 33
0.0
 14
4558.136459299148
 24
2350.662218759831
 34
0.0
 50
90.0
100
AcDbRotatedDimension
1001
ACAD
1000
DSTYLE
1002
{
1070
    40
1040
25.0
1070
     3
1000
\U+03C6<>
1002
}
  0
LINE
  5
7C73
330
80FA
100
AcDbEntity
  8
1
100
AcDbLine
 10
3372.836459299147
 20
2805.662218759831
 30
0.0
 11
3555.83645929915
 21
2805.662218759831
 31
0.0
  0
LINE
  5
7C74
330
80FA
100
AcDbEntity
  8
1
100
AcDbLine
 10
3372.836459299147
 20
2745.662218759832
 30
0.0
 11
3419.690294557381
 21
2745.66221875983
 31
0.0
  0
ARC
  5
7C76
330
80FA
100
AcDbEntity
  8
1
100
AcDbCircle
 10
1885.637764946654
 20
2775.662218759831
 30
0.0
 40
220.0
100
AcDbArc
 50
283.4957332807956
 51
103.4957332807957
  0
ARC
  5
7C77
330
80FA
100
AcDbEntity
  8
1
100
AcDbCircle
 10
885.6377649466537
 20
2165.66221875983
 30
0.0
 40
220.0
100
AcDbArc
 50
103.4957332807958
 51
283.4957332807956
  0
LINE
  5
7C78
330
80FA
100
AcDbEntity
  8
1
100
AcDbLine
 10
1834.295715402081
 20
2989.587425195544
 30
0.0
 11
834.2957154020822
 21
2379.587425195544
 31
0.0
  0
LINE
  5
7C79
330
80FA
100
AcDbEntity
  8
1
100
AcDbLine
 10
1853.962035228462
 20
2898.648592585633
 30
0.0
 11
858.2020935371954
 21
2272.185849632573
 31
0.0
  0
LINE
  5
7C7A
330
80FA
100
AcDbEntity
  8
1
100
AcDbLine
 10
1913.230665617948
 20
2651.695965962773
 30
0.0
 11
909.537127732814
 21
2058.289873817497
 31
0.0
  0
LINE
  5
7C7B
330
80FA
100
AcDbEntity
  8
1
100
AcDbLine
 10
1936.979814491224
 20
2561.737012324118
 30
0.0
 11
936.9798144912246
 21
1951.737012324116
 31
0.0
  0
LINE
  5
7C7C
330
80FA
100
AcDbEntity
  8
1
100
AcDbLine
 10
635.637764946654
 20
1815.662218759831
 30
0.0
 11
2385.637764946654
 21
1815.662218759831
 31
0.0
  0
LINE
  5
7C7D
330
80FA
100
AcDbEntity
  8
1
100
AcDbLine
 10
2385.637764946654
 20
1915.66221875983
 30
0.0
 11
635.637764946654
 21
1915.66221875983
 31
0.0
1001
ACAD
1000
ASC_BOUNDS
1002
{
1070
    19
1005
0
1005
0
1002
}
  0
LINE
  5
7C7E
330
80FA
100
AcDbEntity
  8
1
100
AcDbLine
 10
635.637764946654
 20
1915.66221875983
 30
0.0
 11
635.637764946654
 21
1815.662218759831
 31
0.0
  0
LINE
  5
7C7F
330
80FA
100
AcDbEntity
  8
1
100
AcDbLine
 10
2385.637764946654
 20
1915.66221875983
 30
0.0
 11
2385.637764946654
 21
1815.662218759831
 31
0.0
  0
CIRCLE
  5
7C81
330
80FA
100
AcDbEntity
  8
1
100
AcDbCircle
 10
1885.637764946654
 20
2775.662218759831
 30
0.0
 40
425.0
  0
CIRCLE
  5
7C82
330
80FA
100
AcDbEntity
  8
1
100
AcDbCircle
 10
1885.637764946654
 20
2775.662218759831
 30
0.0
 40
465.0
  0
LINE
  5
7C84
330
80FA
100
AcDbEntity
  8
1
100
AcDbLine
 10
683.637764946653
 20
1955.66221875983
 30
0.0
 11
1087.637764946653
 21
1955.66221875983
 31
0.0
  0
POINT
  5
7C85
330
80FA
100
AcDbEntity
  8
1
100
AcDbPoint
 10
2385.637764946654
 20
1735.662218759831
 30
0.0
  0
POINT
  5
7C86
330
80FA
100
AcDbEntity
  8
1
100
AcDbPoint
 10
2385.637764946654
 20
1815.662218759831
 30
0.0
  0
LINE
  5
7C87
330
80FA
100
AcDbEntity
  8
1
100
AcDbLine
 10
1201.977681193662
 20
5319.359109654243
 30
0.0
 11
2430.637764946652
 21
5319.359109654243
 31
0.0
  0
LINE
  5
7C88
330
80FA
100
AcDbEntity
  8
1
100
AcDbLine
 10
1201.977681193662
 20
4319.359109654241
 30
0.0
 11
2430.637764946653
 21
4319.35910965424
 31
0.0
  0
LINE
  5
7C89
330
80FA
100
AcDbEntity
  8
1
100
AcDbLine
 10
2430.637764946652
 20
5362.359109654243
 30
0.0
 11
2430.637764946654
 21
4276.359109654241
 31
0.0
  0
LINE
  5
7C8A
330
80FA
100
AcDbEntity
  8
1
100
AcDbLine
 10
1201.977681193662
 20
4319.359109654241
 30
0.0
 11
1201.977681193662
 21
5319.359109654243
 31
0.0
  0
LINE
  5
7C8B
330
80FA
100
AcDbEntity
  8
1
100
AcDbLine
 10
2427.637764946652
 20
5362.359109654242
 30
0.0
 11
2430.637764946652
 21
5362.359109654242
 31
0.0
  0
LINE
  5
7C8C
330
80FA
100
AcDbEntity
  8
1
100
AcDbLine
 10
2427.637764946654
 20
4276.359109654241
 30
0.0
 11
2430.637764946653
 21
4276.359109654241
 31
0.0
  0
LINE
  5
7C8D
330
80FA
100
AcDbEntity
  8
1
100
AcDbLine
 10
2390.637764946652
 20
5319.359109654243
 30
0.0
 11
2390.637764946654
 21
4319.35910965424
 31
0.0
  0
LINE
  5
7C8E
330
80FA
100
AcDbEntity
  8
1
100
AcDbLine
 10
2427.637764946652
 20
5362.359109654243
 30
0.0
 11
2427.637764946654
 21
4276.359109654241
 31
0.0
  0
LINE
  5
7C8F
330
80FA
100
AcDbEntity
  8
1
100
AcDbLine
 10
2385.637764946654
 20
4319.35910965424
 30
0.0
 11
2385.637764946654
 21
4117.359109654241
 31
0.0
  0
DIMENSION
  5
7C95
330
80FA
100
AcDbEntity
  8
3
100
AcDbDimension
  2
*D8
 10
2385.637764946654
 20
5523.482393205195
 30
0.0
 11
1885.637764946653
 21
5573.482393205195
 31
0.0
 12
-343.2284028528011
 22
817.9785374137425
 32
0.0
 71
     5
 42
-1.0
  3
Standard
100
AcDbAlignedDimension
 13
1385.637764946653
 23
5372.359109654242
 33
0.0
 14
2385.637764946654
 24
5372.359109654242
 34
0.0
100
AcDbRotatedDimension
1001
ACAD
1000
DSTYLE
1002
{
1070
    40
1040
25.0
1002
}
  0
DIMENSION
  5
7C96
330
80FA
100
AcDbEntity
  8
3
100
AcDbDimension
  2
*D9
 10
2603.574493096543
 20
4117.359109654241
 30
0.0
 11
2603.574493096543
 21
4744.859109654242
 31
0.0
 12
-343.2284028528011
 22
817.9785374137425
 32
0.0
 70
   128
 71
     5
 42
-1.0
  3
Standard
100
AcDbAlignedDimension
 13
2385.637764946654
 23
5372.359109654242
 33
0.0
 14
2385.637764946654
 24
4117.359109654241
 34
0.0
 50
90.0
100
AcDbRotatedDimension
1001
ACAD
1000
DSTYLE
1002
{
1070
    40
1040
25.0
1002
}
  0
DIMENSION
  5
7C97
330
80FA
100
AcDbEntity
  8
3
100
AcDbDimension
  2
*D10
 10
483.4849358233404
 20
4117.359109654241
 30
0.0
 11
433.4849358233404
 21
4492.359109654241
 31
0.0
 12
-343.2284028528011
 22
817.9785374137425
 32
0.0
 71
     5
 42
-1.0
  3
Standard
100
AcDbAlignedDimension
 13
635.637764946654
 23
4867.359109654242
 33
0.0
 14
635.637764946654
 24
4117.359109654241
 34
0.0
 50
90.0
100
AcDbRotatedDimension
1001
ACAD
1000
DSTYLE
1002
{
1070
    40
1040
25.0
1002
}
  0
LINE
  5
7C98
330
80FA
100
AcDbEntity
  8
1
100
AcDbLine
 10
775.6377649466537
 20
4051.359109654243
 30
0.0
 11
995.6377649466542
 21
4051.359109654243
 31
0.0
  0
LINE
  5
7C99
330
80FA
100
AcDbEntity
  8
1
100
AcDbLine
 10
775.6377649466537
 20
4136.359109654244
 30
0.0
 11
995.6377649466526
 21
4136.359109654244
 31
0.0
  0
LINE
  5
7C9A
330
80FA
100
AcDbEntity
  8
1
100
AcDbLine
 10
2012.637764946654
 20
4136.359109654241
 30
0.0
 11
2012.637764946654
 21
4051.359109654241
 31
0.0
  0
LINE
  5
7C9B
330
80FA
100
AcDbEntity
  8
1
100
AcDbLine
 10
1758.637764946654
 20
4136.359109654244
 30
0.0
 11
1758.637764946654
 21
4051.359109654243
 31
0.0
  0
LINE
  5
7C9C
330
80FA
100
AcDbEntity
  8
1
100
AcDbLine
 10
995.6377649466542
 20
4136.359109654244
 30
0.0
 11
995.6377649466542
 21
4051.359109654243
 31
0.0
  0
LINE
  5
7C9D
330
80FA
100
AcDbEntity
  8
1
100
AcDbLine
 10
775.6377649466537
 20
4136.359109654245
 30
0.0
 11
775.6377649466537
 21
4051.359109654243
 31
0.0
  0
LINE
  5
7C9E
330
80FA
100
AcDbEntity
  8
1
100
AcDbLine
 10
1758.637764946654
 20
4051.359109654241
 30
0.0
 11
2012.637764946654
 21
4051.359109654241
 31
0.0
  0
LINE
  5
7C9F
330
80FA
100
AcDbEntity
  8
1
100
AcDbLine
 10
1758.637764946654
 20
4136.359109654243
 30
0.0
 11
2012.637764946654
 21
4136.359109654241
 31
0.0
  0
LINE
  5
7CA0
330
80FA
100
AcDbEntity
  8
1
100
AcDbLine
 10
665.637764946654
 20
3919.359109654243
 30
0.0
 11
2105.637764946654
 21
3919.359109654241
 31
0.0
  0
LINE
  5
7CA1
330
80FA
100
AcDbEntity
  8
1
100
AcDbLine
 10
2105.637764946654
 20
4166.359109654241
 30
0.0
 11
2105.637764946654
 21
3919.359109654241
 31
0.0
  0
LINE
  5
7CA2
330
80FA
100
AcDbEntity
  8
1
100
AcDbLine
 10
665.637764946654
 20
4166.359109654243
 30
0.0
 11
665.637764946654
 21
3919.359109654243
 31
0.0
  0
LINE
  5
7CA3
330
80FA
100
AcDbEntity
  8
1
100
AcDbLine
 10
665.637764946654
 20
4166.359109654243
 30
0.0
 11
2105.637764946655
 21
4166.359109654241
 31
0.0
  0
POINT
  5
7CA5
330
80FA
100
AcDbEntity
  8
1
100
AcDbPoint
 10
4665.836459299149
 20
2736.16221875983
 30
0.0
  0
DIMENSION
  5
7CA6
330
80FA
100
AcDbEntity
  8
3
100
AcDbDimension
  2
*D12
 10
4555.83645929915
 20
3472.725405145039
 30
0.0
 11
4055.836459299148
 21
3522.725405145039
 31
0.0
 71
     5
 42
-1.0
  3
Standard
100
AcDbAlignedDimension
 13
3555.836459299147
 23
3343.662218759831
 33
0.0
 14
4555.83645929915
 24
3343.662218759831
 34
0.0
100
AcDbRotatedDimension
1001
ACAD
1000
DSTYLE
1002
{
1070
    40
1040
25.0
1002
}
  0
POINT
  5
7CA7
330
80FA
100
AcDbEntity
  8
1
100
AcDbPoint
 10
4665.836459299149
 20
2736.16221875983
 30
0.0
  0
POINT
  5
7CA8
330
80FA
100
AcDbEntity
  8
1
100
AcDbPoint
 10
3155.836459299147
 20
2995.662218759831
 30
0.0
  0
LINE
  5
7CA9
330
80FA
100
AcDbEntity
  8
1
100
AcDbLine
 10
723.6377649466541
 20
4705.859109654245
 30
0.0
 11
1047.637764946654
 21
4705.859109654242
 31
0.0
  0
LINE
  5
7CAA
330
80FA
100
AcDbEntity
  8
1
100
AcDbLine
 10
723.6377649466541
 20
4176.859109654244
 30
0.0
 11
1047.637764946654
 21
4176.859109654241
 31
0.0
  0
LINE
  5
7CAB
330
80FA
100
AcDbEntity
  8
1
100
AcDbLine
 10
906.6377649466542
 20
4176.859109654244
 30
0.0
 11
906.6377649466542
 21
4136.359109654244
 31
0.0
  0
LINE
  5
7CAC
330
80FA
100
AcDbEntity
  8
1
100
AcDbLine
 10
864.6377649466542
 20
4176.859109654244
 30
0.0
 11
864.6377649466542
 21
4136.359109654244
 31
0.0
  0
LINE
  5
7CAD
330
80FA
100
AcDbEntity
  8
1
100
AcDbLine
 10
723.6377649466541
 20
4705.859109654245
 30
0.0
 11
723.6377649466541
 21
4176.859109654244
 31
0.0
  0
LINE
  5
7CAE
330
80FA
100
AcDbEntity
  8
1
100
AcDbLine
 10
1047.637764946654
 20
4705.859109654244
 30
0.0
 11
1047.637764946654
 21
4176.859109654241
 31
0.0
  0
LINE
  5
7CAF
330
80FA
100
AcDbEntity
  8
1
100
AcDbLine
 10
3555.836459299147
 20
2003.66221875983
 30
0.0
 11
3413.336459299147
 21
2003.66221875983
 31
0.0
  0
LINE
  5
7CB0
330
80FA
100
AcDbEntity
  8
1
100
AcDbLine
 10
3555.836459299147
 20
2327.662218759831
 30
0.0
 11
3413.336459299149
 21
2327.662218759831
 31
0.0
  0
LINE
  5
7CB1
330
80FA
100
AcDbEntity
  8
1
100
AcDbLine
 10
3413.336459299148
 20
2327.662218759831
 30
0.0
 11
3413.336459299145
 21
2003.66221875983
 31
0.0
  0
LINE
  5
7CB2
330
80FA
100
AcDbEntity
  8
1
100
AcDbLine
 10
3413.336459299147
 20
2186.662218759831
 30
0.0
 11
3372.836459299148
 21
2186.662218759831
 31
0.0
  0
LINE
  5
7CB3
330
80FA
100
AcDbEntity
  8
1
100
AcDbLine
 10
3413.336459299147
 20
2144.66221875983
 30
0.0
 11
3372.836459299148
 21
2144.66221875983
 31
0.0
  0
LINE
  5
7CB4
330
80FA
100
AcDbEntity
  8
1
100
AcDbLine
 10
3372.836459299147
 20
2275.662218759831
 30
0.0
 11
3372.836459299147
 21
2055.66221875983
 31
0.0
  0
LINE
  5
7CB5
330
80FA
100
AcDbEntity
  8
1
100
AcDbLine
 10
3287.836459299147
 20
2275.662218759831
 30
0.0
 11
3287.836459299147
 21
2055.66221875983
 31
0.0
  0
DIMENSION
  5
7CBC
330
80FA
100
AcDbEntity
  8
3
100
AcDbDimension
  2
*D16
 10
1885.637764946654
 20
3473.223990687151
 30
0.0
 11
2158.137764946653
 21
3523.223990687152
 31
0.0
 12
-343.2284028528011
 22
1213.77460335035
 32
0.0
 71
     5
 42
-1.0
  3
Standard
100
AcDbAlignedDimension
 13
2430.637764946653
 23
2795.162218759831
 33
0.0
 14
1885.637764946654
 24
3432.680539471301
 34
0.0
100
AcDbRotatedDimension
1001
ACAD
1000
DSTYLE
1002
{
1070
    40
1040
25.0
1002
}
  0
LINE
  5
7CBE
330
80FA
100
AcDbEntity
  8
1
100
AcDbLine
 10
3555.836459299147
 20
1927.66221875983
 30
0.0
 11
4555.836459299146
 21
1927.66221875983
 31
0.0
  0
LINE
  5
7CBF
330
80FA
100
AcDbEntity
  8
1
100
AcDbLine
 10
3555.836459299147
 20
2752.662218759831
 30
0.0
 11
4555.836459299146
 21
2752.662218759831
 31
0.0
  0
LINE
  5
7CC0
330
80FA
100
AcDbEntity
  8
1
100
AcDbLine
 10
4555.836459299146
 20
2752.662218759831
 30
0.0
 11
3555.836459299147
 21
1927.66221875983
 31
0.0
  0
LINE
  5
7CC1
330
80FA
100
AcDbEntity
  8
1
100
AcDbLine
 10
3555.836459299147
 20
2749.86221875983
 30
0.0
 11
4555.836459299146
 21
1927.66221875983
 31
0.0
  0
DIMENSION
  5
7CC7
330
80FA
100
AcDbEntity
  8
3
100
AcDbDimension
  2
*D21
 10
635.637764946654
 20
3618.201707129112
 30
0.0
 11
1533.137764946653
 21
3668.201707129112
 31
0.0
 12
-343.2284028528011
 22
1213.77460335035
 32
0.0
 71
     5
 42
-1.0
  3
Standard
100
AcDbAlignedDimension
 13
2430.637764946653
 23
2795.162218759831
 33
0.0
 14
635.637764946654
 24
1915.66221875983
 34
0.0
100
AcDbRotatedDimension
1001
ACAD
1000
DSTYLE
1002
{
1070
    40
1040
25.0
1002
}
  0
LINE
  5
7F05
330
80FA
100
AcDbEntity
  8
4
100
AcDbLine
 10
4625.0
 20
1250.0
 30
0.0
 11
4625.0
 21
750.0
 31
0.0
  0
LINE
  5
7F06
330
80FA
100
AcDbEntity
  8
4
100
AcDbLine
 10
2875.0
 20
1250.0
 30
0.0
 11
2875.0
 21
750.0
 31
0.0
  0
LINE
  5
7F07
330
80FA
100
AcDbEntity
  8
4
100
AcDbLine
 10
1625.0
 20
1250.0
 30
0.0
 11
1625.0
 21
750.0
 31
0.0
  0
LINE
  5
7F0A
330
80FA
100
AcDbEntity
  8
4
100
AcDbLine
 10
1625.0
 20
750.0
 30
0.0
 11
4625.0
 21
750.0
 31
0.0
  0
LINE
  5
7F0B
330
80FA
100
AcDbEntity
  8
4
100
AcDbLine
 10
1625.0
 20
1000.0
 30
0.0
 11
4625.0
 21
1000.0
 31
0.0
  0
TEXT
  5
7F0C
330
80FA
100
AcDbEntity
  8
4
100
AcDbText
 10
1721.255202117253
 20
1078.857564666532
 30
0.0
 40
125.0
  1
機器名称
100
AcDbText
  0
TEXT
  5
7F0D
330
80FA
100
AcDbEntity
  8
4
100
AcDbText
 10
1715.645265061993
 20
804.1128918300273
 30
0.0
 40
125.0
  1
機器型番
100
AcDbText
  0
TEXT
  5
7F0E
330
80FA
100
AcDbEntity
  8
4
100
AcDbText
 10
2944.196863719162
 20
1056.429422393921
 30
0.0
 40
125.0
  1
ミツヤ多翼送風機
100
AcDbText
  0
TEXT
  5
7F0F
330
80FA
100
AcDbEntity
  8
4
100
AcDbText
 10
2966.636238963701
 20
792.8989606998584
 30
0.0
 40
125.0
  1
MF#5-5
100
AcDbText
  0
TEXT
  5
7F11
330
80FA
100
AcDbEntity
  8
4
100
AcDbText
 10
1997.942559365703
 20
5958.572103331289
 30
0.0
 40
135.0
  1
床置防振ベット
100
AcDbText
  0
TEXT
  5
7F12
330
80FA
100
AcDbEntity
  8
4
100
AcDbText
 10
790.4189833236158
 20
6334.702440498245
 30
0.0
 40
180.0
  1
遠心式両吸込両持多翼ファン
100
AcDbText
  0
LINE
  5
7F13
330
80FA
100
AcDbEntity
  8
4
100
AcDbLine
 10
625.0
 20
6173.521885662012
 30
0.0
 11
4625.0
 21
6173.521885662012
 31
0.0
  0
LINE
  5
7F14
330
80FA
100
AcDbEntity
  8
4
100
AcDbLine
 10
625.0
 20
6673.521885662011
 30
0.0
 11
4625.0
 21
6673.521885662011
 31
0.0
  0
LINE
  5
7F15
330
80FA
100
AcDbEntity
  8
4
100
AcDbLine
 10
1625.0
 20
1250.0
 30
0.0
 11
4625.0
 21
1250.0
 31
0.0
  0
LINE
  5
7F16
330
80FA
100
AcDbEntity
  8
4
100
AcDbLine
 10
625.0
 20
6673.521885662011
 30
0.0
 11
625.0
 21
6173.521885662012
 31
0.0
  0
TEXT
  5
7F17
330
80FA
100
AcDbEntity
  8
4
100
AcDbText
 10
908.2954787589473
 20
5955.798693865858
 30
0.0
 40
135.0
  1
左回転右横向
100
AcDbText
  0
TEXT
  5
7F18
330
80FA
100
AcDbEntity
  8
4
100
AcDbText
 10
3672.423898123224
 20
6765.15270373827
 30
0.0
 40
140.0
  1
No.
100
AcDbText
  0
TEXT
  5
7F19
330
80FA
100
AcDbEntity
  8
4
100
AcDbText
 10
3278.240156500032
 20
5958.572103331289
 30
0.0
 40
135.0
  1
縮尺：1/25
100
AcDbText
  0
LINE
  5
7F1A
330
80FA
100
AcDbEntity
  8
4
100
AcDbLine
 10
4625.0
 20
6673.521885662011
 30
0.0
 11
4625.0
 21
6173.521885662012
 31
0.0
  0
LINE
  5
7F1B
330
80FA
100
AcDbEntity
  8
4
100
AcDbLine
 10
5250.0
 20
7375.0
 30
0.0
 11
5250.0
 21
7375.0
 31
0.0
  0
LINE
  5
7F1C
330
80FA
100
AcDbEntity
  8
4
100
AcDbLine
 10
3601.543555899662
 20
6703.158957813504
 30
0.0
 11
3601.543555899662
 21
6966.630653874381
 31
0.0
  0
LINE
  5
7F1D
330
80FA
100
AcDbEntity
  8
4
100
AcDbLine
 10
3601.543555899662
 20
6966.630653874381
 30
0.0
 11
4625.0
 21
6966.630653874381
 31
0.0
  0
LINE
  5
7F1E
330
80FA
100
AcDbEntity
  8
4
100
AcDbLine
 10
4625.0
 20
6966.630653874381
 30
0.0
 11
4625.0
 21
6703.158957813504
 31
0.0
  0
LINE
  5
7F1F
330
80FA
100
AcDbEntity
  8
4
100
AcDbLine
 10
4625.0
 20
6703.158957813504
 30
0.0
 11
3601.543555899662
 21
6703.158957813504
 31
0.0
  0
LINE
  5
7F20
330
80FA
100
AcDbEntity
  8
4
100
AcDbLine
 10
0.0
 20
0.0
 30
0.0
 11
0.0
 21
7375.0
 31
0.0
  0
LINE
  5
7F21
330
80FA
100
AcDbEntity
  8
4
100
AcDbLine
 10
0.0
 20
7375.0
 30
0.0
 11
5250.0
 21
7375.0
 31
0.0
  0
LINE
  5
7F22
330
80FA
100
AcDbEntity
  8
4
100
AcDbLine
 10
5250.0
 20
7375.0
 30
0.0
 11
5250.0
 21
0.0
 31
0.0
  0
LINE
  5
7F23
330
80FA
100
AcDbEntity
  8
4
100
AcDbLine
 10
5250.0
 20
0.0
 30
0.0
 11
0.0
 21
0.0
 31
0.0
  0
DIMENSION
  5
81C7
330
80FA
100
AcDbEntity
  8
3
100
AcDbDimension
  2
*D30
 10
4055.836459299146
 20
3649.387282061103
 30
0.0
 11
3605.836459299147
 21
3731.530139203961
 31
0.0
 70
    32
  1
(<>)
 71
     5
 42
900.0
  3
IGA
100
AcDbAlignedDimension
 13
3155.836459299147
 23
2995.662218759831
 33
0.0
 14
4055.836459299146
 24
3560.225405145039
 34
0.0
100
AcDbRotatedDimension
1001
ACAD
1000
DSTYLE
1002
{
1070
    40
1040
25.0
1070
    42
1040
1.0
1070
   143
1040
0.039
1070
   172
1070
     1
1070
   271
1070
     4
1070
   272
1070
     4
1070
   279
1070
     0
1070
   284
1070
     0
1070
   285
1070
     0
1070
   286
1070
     0
1070
   341
1005
810E
1070
   343
1005
810E
1070
   344
1005
810E
1002
}
  0
DIMENSION
  5
81D4
330
80FA
100
AcDbEntity
  8
3
100
AcDbDimension
  2
*D31
 10
4665.836459299149
 20
3649.387282061103
 30
0.0
 11
4360.836459299147
 21
3731.530139203961
 31
0.0
 70
    32
  1
(<>)
 71
     5
 42
610.0000000000027
  3
IGA
100
AcDbAlignedDimension
 13
4055.836459299146
 23
3560.225405145039
 33
0.0
 14
4665.836459299149
 24
2736.16221875983
 34
0.0
100
AcDbRotatedDimension
1001
ACAD
1000
DSTYLE
1002
{
1070
    40
1040
25.0
1070
    42
1040
1.0
1070
   143
1040
0.039
1070
   172
1070
     1
1070
   271
1070
     4
1070
   272
1070
     4
1070
   279
1070
     1
1070
   284
1070
     0
1070
   285
1070
     0
1070
   286
1070
     0
1070
   341
1005
810E
1070
   343
1005
810E
1070
   344
1005
810E
1002
}
  0
DIMENSION
  5
8235
330
80FA
100
AcDbEntity
  8
3
100
AcDbDimension
  2
*D32
 10
2385.637764946654
 20
3773.333700134244
 30
0.0
 11
1510.637764946654
 21
3835.833700134244
 31
0.0
 70
    32
 71
     5
 42
1750.0
  3
IGA
100
AcDbAlignedDimension
 13
635.637764946654
 23
4117.359109654241
 33
0.0
 14
2385.637764946654
 24
4117.359109654241
 34
0.0
100
AcDbRotatedDimension
1001
ACAD
1000
DSTYLE
1002
{
1070
    40
1040
25.0
1070
    42
1040
1.0
1070
   143
1040
0.039
1070
   172
1070
     1
1070
   271
1070
     4
1070
   272
1070
     4
1070
   279
1070
     0
1070
   284
1070
     0
1070
   285
1070
     0
1070
   286
1070
     0
1070
   341
1005
810E
1070
   343
1005
810E
1070
   344
1005
810E
1002
}
  0
DIMENSION
  5
8242
330
80FA
100
AcDbEntity
  8
3
100
AcDbDimension
  2
*D33
 10
1385.637764946654
 20
5523.482393205195
 30
0.0
 11
1010.637764946654
 21
5585.982393205195
 31
0.0
 70
    32
 71
     5
 42
750.0
  3
IGA
100
AcDbAlignedDimension
 13
635.637764946654
 23
4867.359109654242
 33
0.0
 14
1385.637764946654
 24
5372.359109654242
 34
0.0
100
AcDbRotatedDimension
1001
ACAD
1000
DSTYLE
1002
{
1070
    40
1040
25.0
1070
    42
1040
1.0
1070
   143
1040
0.039
1070
   172
1070
     1
1070
   271
1070
     4
1070
   272
1070
     4
1070
   279
1070
     0
1070
   284
1070
     0
1070
   285
1070
     0
1070
   286
1070
     0
1070
   341
1005
810E
1070
   343
1005
810E
1070
   344
1005
810E
1002
}
  0
DIMENSION
  5
82B1
330
80FA
100
AcDbEntity
  8
3
100
AcDbDimension
  2
*D41
 10
4055.83645929915
 20
1485.777177742467
 30
0.0
 11
3704.836459299148
 21
1548.277177742467
 31
0.0
 70
    32
 71
     5
 42
702.0000000000027
  3
IGA
100
AcDbAlignedDimension
 13
3353.836459299146
 23
1635.662218759831
 33
0.0
 14
4055.83645929915
 24
1635.662218759831
 34
0.0
100
AcDbRotatedDimension
1001
ACAD
1000
DSTYLE
1002
{
1070
    40
1040
25.0
1070
    42
1040
1.0
1070
   143
1040
0.039
1070
   172
1070
     1
1070
   271
1070
     4
1070
   272
1070
     4
1070
   279
1070
     0
1070
   284
1070
     0
1070
   285
1070
     0
1070
   286
1070
     0
1070
   341
1005
810E
1070
   343
1005
810E
1070
   344
1005
810E
1002
}
  0
DIMENSION
  5
82BE
330
80FA
100
AcDbEntity
  8
3
100
AcDbDimension
  2
*D42
 10
4608.836459299149
 20
1485.777177742467
 30
0.0
 11
4332.336459299149
 21
1548.277177742467
 31
0.0
 70
    32
 71
     5
 42
553.0
  3
IGA
100
AcDbAlignedDimension
 13
4055.83645929915
 23
1635.662218759831
 33
0.0
 14
4608.836459299149
 24
1635.662218759831
 34
0.0
100
AcDbRotatedDimension
1001
ACAD
1000
DSTYLE
1002
{
1070
    40
1040
25.0
1070
    42
1040
1.0
1070
   143
1040
0.039
1070
   172
1070
     1
1070
   271
1070
     4
1070
   272
1070
     4
1070
   279
1070
     1
1070
   284
1070
     0
1070
   285
1070
     0
1070
   286
1070
     0
1070
   341
1005
810E
1070
   343
1005
810E
1070
   344
1005
810E
1002
}
  0
DIMENSION
  5
82CB
330
80FA
100
AcDbEntity
  8
3
100
AcDbDimension
  2
*D43
 10
1885.637764946654
 20
1476.416274947918
 30
0.0
 11
1260.637764946654
 21
1538.916274947918
 31
0.0
 70
    32
 71
     5
 42
1250.0
  3
IGA
100
AcDbAlignedDimension
 13
635.637764946654
 23
1635.662218759831
 33
0.0
 14
1885.637764946654
 24
1635.662218759831
 34
0.0
100
AcDbRotatedDimension
1001
ACAD
1000
DSTYLE
1002
{
1070
    40
1040
25.0
1070
    42
1040
1.0
1070
   143
1040
0.039
1070
   172
1070
     1
1070
   271
1070
     4
1070
   272
1070
     4
1070
   279
1070
     0
1070
   284
1070
     0
1070
   285
1070
     0
1070
   286
1070
     0
1070
   341
1005
810E
1070
   343
1005
810E
1070
   344
1005
810E
1002
}
  0
DIMENSION
  5
82D8
330
80FA
100
AcDbEntity
  8
3
100
AcDbDimension
  2
*D44
 10
2385.637764946654
 20
1476.416274947918
 30
0.0
 11
2135.637764946654
 21
1538.916274947918
 31
0.0
 70
    32
 71
     5
 42
500.0
  3
IGA
100
AcDbAlignedDimension
 13
1885.637764946654
 23
1635.662218759831
 33
0.0
 14
2385.637764946654
 24
1635.662218759831
 34
0.0
100
AcDbRotatedDimension
1001
ACAD
1000
DSTYLE
1002
{
1070
    40
1040
25.0
1070
    42
1040
1.0
1070
   143
1040
0.039
1070
   172
1070
     1
1070
   271
1070
     4
1070
   272
1070
     4
1070
   279
1070
     1
1070
   284
1070
     0
1070
   285
1070
     0
1070
   286
1070
     0
1070
   341
1005
810E
1070
   343
1005
810E
1070
   344
1005
810E
1002
}
  0
DIMENSION
  5
82E5
330
80FA
100
AcDbEntity
  8
3
100
AcDbDimension
  2
*D45
 10
2886.558289676557
 20
1815.66221875983
 30
0.0
 11
2824.058289676556
 21
2295.662218759831
 31
0.0
 70
    32
 71
     5
 42
960.0000000000003
  3
IGA
100
AcDbAlignedDimension
 13
2552.109556797044
 23
2775.662218759831
 33
0.0
 14
2385.637764946654
 24
1815.662218759831
 34
0.0
 50
90.0
100
AcDbRotatedDimension
1001
ACAD
1000
DSTYLE
1002
{
1070
    40
1040
25.0
1070
    42
1040
1.0
1070
   143
1040
0.039
1070
   172
1070
     1
1070
   271
1070
     4
1070
   272
1070
     4
1070
   279
1070
     0
1070
   284
1070
     0
1070
   285
1070
     0
1070
   286
1070
     0
1070
   341
1005
810E
1070
   343
1005
810E
1070
   344
1005
810E
1002
}
  0
DIMENSION
  5
82F2
330
80FA
100
AcDbEntity
  8
3
100
AcDbDimension
  2
*D46
 10
2886.558289676557
 20
1735.66221875983
 30
0.0
 11
3054.531391326942
 21
1870.840790188402
 31
0.0
 70
   160
  1
(<>)
 71
     5
 42
80.0
  3
IGA
100
AcDbAlignedDimension
 13
2385.637764946654
 23
1815.662218759831
 33
0.0
 14
2385.637764946654
 24
1735.662218759831
 34
0.0
 50
90.0
100
AcDbRotatedDimension
1001
ACAD
1000
DSTYLE
1002
{
1070
    40
1040
25.0
1070
    42
1040
1.0
1070
   143
1040
0.039
1070
   172
1070
     1
1070
   271
1070
     4
1070
   272
1070
     4
1070
   279
1070
     1
1070
   284
1070
     0
1070
   285
1070
     0
1070
   286
1070
     0
1070
   341
1005
810E
1070
   343
1005
810E
1070
   344
1005
8444
1002
}
  0
DIMENSION
  5
8304
330
80FA
100
AcDbEntity
  8
3
100
AcDbDimension
  2
*D47
 10
2886.558289676557
 20
1635.66221875983
 30
0.0
 11
2878.070517493143
 21
1484.822241916503
 31
0.0
 70
   160
 71
     5
 42
100.0
  3
IGA
100
AcDbAlignedDimension
 13
2385.637764946654
 23
1735.662218759831
 33
0.0
 14
2385.637764946654
 24
1635.662218759831
 34
0.0
 50
90.0
100
AcDbRotatedDimension
1001
ACAD
1000
DSTYLE
1002
{
1070
    40
1040
25.0
1070
    42
1040
1.0
1070
   143
1040
0.039
1070
   172
1070
     1
1070
   271
1070
     4
1070
   272
1070
     4
1070
   279
1070
     1
1070
   284
1070
     0
1070
   285
1070
     0
1070
   286
1070
     0
1070
   341
1005
810E
1070
   343
1005
8444
1070
   344
1005
810E
1002
}
  0
ARC
  5
838A
330
80FA
100
AcDbEntity
  8
FUTO
100
AcDbCircle
 10
1838.137764946654
 20
2823.162218759831
 30
0.0
 40
510.5
100
AcDbArc
 50
0.0
 51
84.66113241186233
  0
LINE
  5
838B
330
80FA
100
AcDbEntity
  8
FUTO
100
AcDbLine
 10
2430.637764946654
 20
1927.662218759831
 30
0.0
 11
1885.637764946654
 21
1984.034072972352
 31
0.0
  0
ARC
  5
838C
330
80FA
100
AcDbEntity
  8
FUTO
100
AcDbCircle
 10
1826.637764946654
 20
2716.662218759831
 30
0.0
 40
617.0
100
AcDbArc
 50
84.51276485710016
 51
180.0
  0
ARC
  5
838D
330
80FA
100
AcDbEntity
  8
FUTO
100
AcDbCircle
 10
1944.637764946654
 20
2716.662218759831
 30
0.0
 40
735.0
100
AcDbArc
 50
180.0
 51
265.3957932734988
  0
ARC
  5
838E
330
80FA
100
AcDbEntity
  8
FUTO
100
AcDbCircle
 10
1916.137764946654
 20
2806.162218759831
 30
0.0
 40
432.5
100
AcDbArc
 50
352.8943447527001
 51
0.0
  0
LINE
  5
838F
330
80FA
100
AcDbEntity
  8
FUTO
100
AcDbLine
 10
2345.316049579043
 20
2752.662218759831
 30
0.0
 11
2430.637764946654
 21
2752.662218759831
 31
0.0
  0
LINE
  5
8390
330
80FA
100
AcDbEntity
  8
FUTO
100
AcDbLine
 10
2348.637764946654
 20
2823.162218759831
 30
0.0
 11
2348.637764946654
 21
2806.162218759831
 31
0.0
  0
LINE
  5
8391
330
80FA
100
AcDbEntity
  8
1
100
AcDbLine
 10
2430.637764946654
 20
1885.162218759831
 30
0.0
 11
2430.637764946653
 21
2795.162218759831
 31
0.0
  0
LINE
  5
8392
330
80FA
100
AcDbEntity
  8
1
100
AcDbLine
 10
2430.637764946654
 20
1885.162218759831
 30
0.0
 11
2427.637764946654
 21
1885.162218759831
 31
0.0
  0
LINE
  5
8393
330
80FA
100
AcDbEntity
  8
1
100
AcDbLine
 10
2430.637764946653
 20
2795.162218759831
 30
0.0
 11
2427.637764946652
 21
2795.162218759831
 31
0.0
  0
LINE
  5
8394
330
80FA
100
AcDbEntity
  8
1
100
AcDbLine
 10
2390.637764946654
 20
1931.063313530254
 30
0.0
 11
2390.637764946652
 21
2752.662218759831
 31
0.0
  0
LINE
  5
8395
330
80FA
100
AcDbEntity
  8
1
100
AcDbLine
 10
2427.637764946654
 20
1885.162218759831
 30
0.0
 11
2427.637764946652
 21
2795.162218759831
 31
0.0
  0
POINT
  5
8396
330
80FA
100
AcDbEntity
  8
1
100
AcDbPoint
 10
2450.855675615676
 20
2775.662218759831
 30
0.0
 50
180.0
  0
POINT
  5
8397
330
80FA
100
AcDbEntity
  8
1
100
AcDbPoint
 10
2450.855675615676
 20
2775.662218759831
 30
0.0
 50
180.0
  0
DIMENSION
  5
8398
330
80FA
100
AcDbEntity
  8
3
100
AcDbDimension
  2
*D48
 10
2886.558289676557
 20
2775.662218759831
 30
0.0
 11
2824.058289676556
 21
3054.662218759832
 31
0.0
 70
    32
 71
     5
 42
558.0
  3
IGA
100
AcDbAlignedDimension
 13
1826.637764946654
 23
3333.662218759831
 33
0.0
 14
2552.109556797044
 24
2775.662218759831
 34
0.0
 50
90.0
100
AcDbRotatedDimension
1001
ACAD
1000
DSTYLE
1002
{
1070
    40
1040
25.0
1070
    42
1040
1.0
1070
   143
1040
0.039
1070
   172
1070
     1
1070
   271
1070
     4
1070
   272
1070
     4
1070
   279
1070
     0
1070
   284
1070
     0
1070
   285
1070
     0
1070
   286
1070
     0
1070
   341
1005
810E
1070
   343
1005
810E
1070
   344
1005
810E
1002
}
  0
DIMENSION
  5
83AE
330
80FA
100
AcDbEntity
  8
3
100
AcDbDimension
  2
*D49
 10
3073.687539458355
 20
3333.662218759831
 30
0.0
 11
2991.544682315497
 21
2484.662218759832
 31
0.0
 70
    32
  1
(<>)
 71
     5
 42
1698.0
  3
IGA
100
AcDbAlignedDimension
 13
2385.637764946654
 23
1635.662218759831
 33
0.0
 14
1826.637764946654
 24
3333.662218759831
 34
0.0
 50
90.0
100
AcDbRotatedDimension
1001
ACAD
1000
DSTYLE
1002
{
1070
    40
1040
25.0
1070
    42
1040
1.0
1070
   143
1040
0.039
1070
   172
1070
     1
1070
   271
1070
     4
1070
   272
1070
     4
1070
   279
1070
     0
1070
   284
1070
     0
1070
   285
1070
     0
1070
   286
1070
     0
1070
   341
1005
810E
1070
   343
1005
810E
1070
   344
1005
810E
1002
}
  0
DIMENSION
  5
83CD
330
80FA
100
AcDbEntity
  8
3
100
AcDbDimension
  2
*D50
 10
1209.637764946654
 20
3473.22399068715
 30
0.0
 11
1547.637764946654
 21
3535.72399068715
 31
0.0
 70
    32
 71
     5
 42
676.0
  3
IGA
100
AcDbAlignedDimension
 13
1885.637764946654
 23
3432.680539471301
 33
0.0
 14
1209.637764946654
 24
2716.662218759831
 34
0.0
100
AcDbRotatedDimension
1001
ACAD
1000
DSTYLE
1002
{
1070
    40
1040
25.0
1070
    42
1040
1.0
1070
   143
1040
0.039
1070
   172
1070
     1
1070
   271
1070
     4
1070
   272
1070
     4
1070
   279
1070
     0
1070
   284
1070
     0
1070
   285
1070
     0
1070
   286
1070
     0
1070
   341
1005
810E
1070
   343
1005
810E
1070
   344
1005
810E
1002
}
  0
ENDSEC
  0
SECTION
  2
OBJECTS
  0
DICTIONARY
  5
8097
330
0
100
AcDbDictionary
281
     1
  3
ACAD_CIP_PREVIOUS_PRODUCT_INFO
350
8144
  3
ACAD_COLOR
350
80ED
  3
ACAD_DETAILVIEWSTYLE
350
80F4
  3
ACAD_GROUP
350
8098
  3
ACAD_LAYOUT
350
80EC
  3
ACAD_MATERIAL
350
809B
  3
ACAD_MLEADERSTYLE
350
80F0
  3
ACAD_MLINESTYLE
350
80E9
  3
ACAD_PLOTSETTINGS
350
80EB
  3
ACAD_PLOTSTYLENAME
350
8099
  3
ACAD_SCALELIST
350
80CD
  3
ACAD_SECTIONVIEWSTYLE
350
80F2
  3
ACAD_TABLESTYLE
350
80EE
  3
ACAD_VISUALSTYLE
350
80B4
  3
ACDB_RECOMPOSE_DATA
350
84AD
  3
AcDbVariableDictionary
350
8179
  3
DWGPROPS
350
84AE
  0
DICTIONARY
  5
8148
330
808D
100
AcDbDictionary
280
     1
281
     1
  3
ACAD_LAYERSTATES
360
8149
  0
DICTIONARY
  5
816E
330
80DF
100
AcDbDictionary
280
     1
281
     1
  3
ADSK_XREC_LAYER_RECONCILED
360
816F
  0
DICTIONARY
  5
8170
330
80FE
100
AcDbDictionary
280
     1
281
     1
  3
ADSK_XREC_LAYER_RECONCILED
360
8171
  0
DICTIONARY
  5
8172
330
8101
100
AcDbDictionary
280
     1
281
     1
  3
ADSK_XREC_LAYER_RECONCILED
360
8173
  0
DICTIONARY
  5
8174
330
8102
100
AcDbDictionary
280
     1
281
     1
  3
ADSK_XREC_LAYER_RECONCILED
360
8175
  0
DICTIONARY
  5
8176
330
8103
100
AcDbDictionary
280
     1
281
     1
  3
ADSK_XREC_LAYER_RECONCILED
360
8177
  0
DICTIONARY
  5
8146
330
8145
100
AcDbDictionary
280
     1
281
     1
  3
ADSK_XREC_LAYER_RECONCILED
360
8178
  0
XRECORD
  5
8144
102
{ACAD_REACTORS
330
8097
102
}
330
8097
100
AcDbXrecord
280
     1
300
ACDLT
300
2015
300
INVLTS_F_S
  0
DICTIONARY
  5
80ED
102
{ACAD_REACTORS
330
8097
102
}
330
8097
100
AcDbDictionary
281
     1
  0
DICTIONARY
  5
80F4
102
{ACAD_REACTORS
330
8097
102
}
330
8097
100
AcDbDictionary
281
     1
  3
Imperial24
350
80F5
  0
DICTIONARY
  5
8098
102
{ACAD_REACTORS
330
8097
102
}
330
8097
100
AcDbDictionary
281
     1
  0
DICTIONARY
  5
80EC
102
{ACAD_REACTORS
330
8097
102
}
330
8097
100
AcDbDictionary
281
     1
  3
Model
350
80FD
  3
レイアウト1
350
80F9
  0
DICTIONARY
  5
809B
102
{ACAD_REACTORS
330
8097
102
}
330
8097
100
AcDbDictionary
281
     1
  3
ByBlock
350
80A4
  3
ByLayer
350
809C
  3
Global
350
80AC
  0
DICTIONARY
  5
80F0
102
{ACAD_REACTORS
330
8097
102
}
330
8097
100
AcDbDictionary
281
     1
  3
Standard
350
80F1
  0
DICTIONARY
  5
80E9
102
{ACAD_REACTORS
330
8097
102
}
330
8097
100
AcDbDictionary
281
     1
  3
Standard
350
80EA
  0
DICTIONARY
  5
80EB
102
{ACAD_REACTORS
330
8097
102
}
330
8097
100
AcDbDictionary
281
     1
  0
ACDBDICTIONARYWDFLT
  5
8099
102
{ACAD_REACTORS
330
8097
102
}
330
8097
100
AcDbDictionary
281
     1
  3
Normal
350
809A
100
AcDbDictionaryWithDefault
340
809A
  0
DICTIONARY
  5
80CD
102
{ACAD_REACTORS
330
8097
102
}
330
8097
100
AcDbDictionary
281
     1
  3
A0
350
80CE
  3
A1
350
80CF
  3
A2
350
80D0
  3
A3
350
80D1
  3
A4
350
80D2
  3
A5
350
80D3
  3
A6
350
80D4
  3
A7
350
80D5
  3
A8
350
80D6
  3
A9
350
80D7
  3
B0
350
80D8
  3
B1
350
80D9
  3
B2
350
80DA
  3
B3
350
80DB
  3
B4
350
80DC
  3
B5
350
80DD
  3
B6
350
80DE
  0
DICTIONARY
  5
80F2
102
{ACAD_REACTORS
330
8097
102
}
330
8097
100
AcDbDictionary
281
     1
  3
Imperial24
350
80F3
  0
DICTIONARY
  5
80EE
102
{ACAD_REACTORS
330
8097
102
}
330
8097
100
AcDbDictionary
281
     1
  3
Standard
350
80EF
  0
DICTIONARY
  5
80B4
102
{ACAD_REACTORS
330
8097
102
}
330
8097
100
AcDbDictionary
281
     1
  3
2dWireframe
350
80BA
  3
Basic
350
80B9
  3
Brighten
350
80C0
  3
ColorChange
350
80C4
  3
Conceptual
350
80BD
  3
Dim
350
80BF
  3
EdgeColorOff
350
80CC
  3
Facepattern
350
80C3
  3
Flat
350
80B5
  3
FlatWithEdges
350
80B6
  3
Gouraud
350
80B7
  3
GouraudWithEdges
350
80B8
  3
Hidden
350
80BC
  3
JitterOff
350
80CA
  3
Linepattern
350
80C2
  3
OverhangOff
350
80CB
  3
Realistic
350
80BE
  3
Shaded
350
80C9
  3
Shaded with edges
350
80C8
  3
Shades of Gray
350
80C5
  3
Sketchy
350
80C6
  3
Thicken
350
80C1
  3
Wireframe
350
80BB
  3
X-Ray
350
80C7
  0
XRECORD
  5
84AD
102
{ACAD_REACTORS
330
8097
102
}
330
8097
100
AcDbXrecord
280
     1
 90
        1
330
80EF
  0
DICTIONARY
  5
8179
102
{ACAD_REACTORS
330
8097
102
}
330
8097
100
AcDbDictionary
281
     1
  3
CANNOSCALE
350
817E
  3
CMLEADERSTYLE
350
817B
  3
CTABLESTYLE
350
817A
  3
CVIEWDETAILSTYLE
350
817C
  3
CVIEWSECTIONSTYLE
350
817D
  3
DIMASSOC
350
8181
  3
INDEXCTL
350
8180
  3
SORTENTS
350
817F
  3
XCLIPFRAME
350
8182
  0
XRECORD
  5
84AE
102
{ACAD_REACTORS
330
8097
102
}
330
8097
100
AcDbXrecord
280
     1
  1
DWGPROPS COOKIE
  2

  3

  4

  6

  7

  8
yasukiyo.ogawa
  9

300
=
301
=
302
=
303
=
304
=
305
=
306
=
307
=
308
=
309
=
 40
0.0175842592592593
 41
2451389.46718507
 42
2460265.718764213
  1

 90
        0
  0
DICTIONARY
  5
8149
102
{ACAD_REACTORS
330
8148
102
}
330
8148
100
AcDbDictionary
281
     1
  0
XRECORD
  5
816F
102
{ACAD_REACTORS
330
816E
102
}
330
816E
100
AcDbXrecord
280
     1
290
     1
  0
XRECORD
  5
8171
102
{ACAD_REACTORS
330
8170
102
}
330
8170
100
AcDbXrecord
280
     1
290
     1
  0
XRECORD
  5
8173
102
{ACAD_REACTORS
330
8172
102
}
330
8172
100
AcDbXrecord
280
     1
290
     1
  0
XRECORD
  5
8175
102
{ACAD_REACTORS
330
8174
102
}
330
8174
100
AcDbXrecord
280
     1
290
     1
  0
XRECORD
  5
8177
102
{ACAD_REACTORS
330
8176
102
}
330
8176
100
AcDbXrecord
280
     1
290
     1
  0
XRECORD
  5
8178
102
{ACAD_REACTORS
330
8146
102
}
330
8146
100
AcDbXrecord
280
     1
290
     1
  0
ACDBDETAILVIEWSTYLE
  5
80F5
102
{ACAD_XDICTIONARY
360
84E6
102
}
102
{ACAD_REACTORS
330
80F4
102
}
330
80F4
100
AcDbModelDocViewStyle
 70
     0
  3
Imperial24
290
     0
100
AcDbDetailViewStyle
 70
     0
 71
     0
 90
        3
 71
     1
340
80E0
 40
0.24
340
0
 40
0.24
300

 40
0.36
280
     3
 71
     2
340
80E7
 90
       25
 71
     3
340
80E0
 40
0.24
 90
        1
 40
0.75
 90
        1
300
%<\AcVar ViewType \f "%tc1">% %<\AcVar ViewDetailId>%\PSCALE %<\AcVar ViewScale \f "%sn">%
 71
     4
340
80E7
 90
       25
340
80E7
 90
       25
280
     0
  0
LAYOUT
  5
80FD
102
{ACAD_XDICTIONARY
360
84EA
102
}
102
{ACAD_REACTORS
330
80EC
102
}
330
80EC
100
AcDbPlotSettings
  1

  2
RICOH imagio MP W3600 RPCS
  4

  6

 40
0.0
 41
0.0
 42
0.0
 43
0.0
 44
0.0
 45
0.0
 46
0.0
 47
0.0
 48
0.0
 49
0.0
140
0.0
141
0.0
142
1.0
143
1.0
 70
  1712
 72
     0
 73
     0
 74
     0
  7

 75
     0
147
1.0
148
0.0
149
0.0
100
AcDbLayout
  1
Model
 70
     1
 71
     0
 10
0.0
 20
0.0
 11
12.0
 21
9.0
 12
0.0
 22
0.0
 32
0.0
 14
0.0
 24
0.0
 34
0.0
 15
0.0
 25
0.0
 35
0.0
146
0.0
 13
0.0
 23
0.0
 33
0.0
 16
1.0
 26
0.0
 36
0.0
 17
0.0
 27
1.0
 37
0.0
 76
     0
330
80FA
331
80FF
  0
LAYOUT
  5
80F9
102
{ACAD_XDICTIONARY
360
84E8
102
}
102
{ACAD_REACTORS
330
80EC
102
}
330
80EC
100
AcDbPlotSettings
  1

  2
RICOH imagio MP W3600 RPCS
  4

  6

 40
0.0
 41
0.0
 42
0.0
 43
0.0
 44
0.0
 45
0.0
 46
0.0
 47
0.0
 48
0.0
 49
0.0
140
0.0
141
0.0
142
1.0
143
1.0
 70
   688
 72
     0
 73
     0
 74
     5
  7

 75
    16
147
1.0
148
0.0
149
0.0
100
AcDbLayout
  1
レイアウト1
 70
     1
 71
     1
 10
0.0
 20
0.0
 11
12.0
 21
9.0
 12
0.0
 22
0.0
 32
0.0
 14
1.000000000000000E+20
 24
1.000000000000000E+20
 34
1.000000000000000E+20
 15
-1.000000000000000E+20
 25
-1.000000000000000E+20
 35
-1.000000000000000E+20
146
0.0
 13
0.0
 23
0.0
 33
0.0
 16
1.0
 26
0.0
 36
0.0
 17
0.0
 27
1.0
 37
0.0
 76
     0
330
80F6
  0
MATERIAL
  5
80A4
102
{ACAD_XDICTIONARY
360
80A5
102
}
102
{ACAD_REACTORS
330
809B
102
}
330
809B
100
AcDbMaterial
  1
ByBlock
 72
     0
 43
0.0208333333333333
 43
0.0
 43
0.0
 43
0.0
 43
0.0
 43
0.0208333333333333
 43
0.0
 43
0.0
 43
0.0
 43
0.0
 43
1.0
 43
0.0
 43
0.0
 43
0.0
 43
0.0
 43
1.0
 77
     0
 47
0.0208333333333333
 47
0.0
 47
0.0
 47
0.0
 47
0.0
 47
0.0208333333333333
 47
0.0
 47
0.0
 47
0.0
 47
0.0
 47
1.0
 47
0.0
 47
0.0
 47
0.0
 47
0.0
 47
1.0
171
     0
 49
0.0208333333333333
 49
0.0
 49
0.0
 49
0.0
 49
0.0
 49
0.0208333333333333
 49
0.0
 49
0.0
 49
0.0
 49
0.0
 49
1.0
 49
0.0
 49
0.0
 49
0.0
 49
0.0
 49
1.0
175
     0
142
0.0208333333333333
142
0.0
142
0.0
142
0.0
142
0.0
142
0.0208333333333333
142
0.0
142
0.0
142
0.0
142
0.0
142
1.0
142
0.0
142
0.0
142
0.0
142
0.0
142
1.0
179
     0
144
0.0208333333333333
144
0.0
144
0.0
144
0.0
144
0.0
144
0.0208333333333333
144
0.0
144
0.0
144
0.0
144
0.0
144
1.0
144
0.0
144
0.0
144
0.0
144
0.0
144
1.0
147
0.0208333333333333
147
0.0
147
0.0
147
0.0
147
0.0
147
0.0208333333333333
147
0.0
147
0.0
147
0.0
147
0.0
147
1.0
147
0.0
147
0.0
147
0.0
147
0.0
147
1.0
  0
MATERIAL
  5
809C
102
{ACAD_XDICTIONARY
360
809D
102
}
102
{ACAD_REACTORS
330
809B
102
}
330
809B
100
AcDbMaterial
  1
ByLayer
 72
     0
 43
0.0208333333333333
 43
0.0
 43
0.0
 43
0.0
 43
0.0
 43
0.0208333333333333
 43
0.0
 43
0.0
 43
0.0
 43
0.0
 43
1.0
 43
0.0
 43
0.0
 43
0.0
 43
0.0
 43
1.0
 77
     0
 47
0.0208333333333333
 47
0.0
 47
0.0
 47
0.0
 47
0.0
 47
0.0208333333333333
 47
0.0
 47
0.0
 47
0.0
 47
0.0
 47
1.0
 47
0.0
 47
0.0
 47
0.0
 47
0.0
 47
1.0
171
     0
 49
0.0208333333333333
 49
0.0
 49
0.0
 49
0.0
 49
0.0
 49
0.0208333333333333
 49
0.0
 49
0.0
 49
0.0
 49
0.0
 49
1.0
 49
0.0
 49
0.0
 49
0.0
 49
0.0
 49
1.0
175
     0
142
0.0208333333333333
142
0.0
142
0.0
142
0.0
142
0.0
142
0.0208333333333333
142
0.0
142
0.0
142
0.0
142
0.0
142
1.0
142
0.0
142
0.0
142
0.0
142
0.0
142
1.0
179
     0
144
0.0208333333333333
144
0.0
144
0.0
144
0.0
144
0.0
144
0.0208333333333333
144
0.0
144
0.0
144
0.0
144
0.0
144
1.0
144
0.0
144
0.0
144
0.0
144
0.0
144
1.0
147
0.0208333333333333
147
0.0
147
0.0
147
0.0
147
0.0
147
0.0208333333333333
147
0.0
147
0.0
147
0.0
147
0.0
147
1.0
147
0.0
147
0.0
147
0.0
147
0.0
147
1.0
  0
MATERIAL
  5
80AC
102
{ACAD_XDICTIONARY
360
80AD
102
}
102
{ACAD_REACTORS
330
809B
102
}
330
809B
100
AcDbMaterial
  1
Global
 72
     0
 43
0.0208333333333333
 43
0.0
 43
0.0
 43
0.0
 43
0.0
 43
0.0208333333333333
 43
0.0
 43
0.0
 43
0.0
 43
0.0
 43
1.0
 43
0.0
 43
0.0
 43
0.0
 43
0.0
 43
1.0
 77
     0
 47
0.0208333333333333
 47
0.0
 47
0.0
 47
0.0
 47
0.0
 47
0.0208333333333333
 47
0.0
 47
0.0
 47
0.0
 47
0.0
 47
1.0
 47
0.0
 47
0.0
 47
0.0
 47
0.0
 47
1.0
171
     0
 49
0.0208333333333333
 49
0.0
 49
0.0
 49
0.0
 49
0.0
 49
0.0208333333333333
 49
0.0
 49
0.0
 49
0.0
 49
0.0
 49
1.0
 49
0.0
 49
0.0
 49
0.0
 49
0.0
 49
1.0
175
     0
142
0.0208333333333333
142
0.0
142
0.0
142
0.0
142
0.0
142
0.0208333333333333
142
0.0
142
0.0
142
0.0
142
0.0
142
1.0
142
0.0
142
0.0
142
0.0
142
0.0
142
1.0
179
     0
144
0.0208333333333333
144
0.0
144
0.0
144
0.0
144
0.0
144
0.0208333333333333
144
0.0
144
0.0
144
0.0
144
0.0
144
1.0
144
0.0
144
0.0
144
0.0
144
0.0
144
1.0
147
0.0208333333333333
147
0.0
147
0.0
147
0.0
147
0.0
147
0.0208333333333333
147
0.0
147
0.0
147
0.0
147
0.0
147
1.0
147
0.0
147
0.0
147
0.0
147
0.0
147
1.0
  0
MLEADERSTYLE
  5
80F1
102
{ACAD_REACTORS
330
80F0
102
}
330
80F0
100
AcDbMLeaderStyle
170
     2
171
     1
172
     0
 90
        2
 40
0.0
 41
0.0
173
     1
 91
-1056964608
340
80E5
 92
       -2
290
     1
 42
0.09
291
     1
 43
0.36
  3
Standard
 44
0.18
300

342
80E0
174
     1
178
     6
175
     1
176
     0
 93
-1056964608
 45
0.18
292
     0
297
     0
 46
0.18
 94
-1056964608
 47
1.0
 49
1.0
140
1.0
293
     1
141
0.0
294
     1
177
     0
142
1.0
295
     0
296
     0
143
0.125
1001
ACAD_MLEADERVER
1070
     2
  0
MLINESTYLE
  5
80EA
102
{ACAD_REACTORS
330
80E9
102
}
330
80E9
100
AcDbMlineStyle
  2
STANDARD
 70
     0
  3

 62
   256
 51
90.0
 52
90.0
 71
     2
 49
0.5
 62
   256
  6
BYLAYER
 49
-0.5
 62
   256
  6
BYLAYER
  0
ACDBPLACEHOLDER
  5
809A
102
{ACAD_REACTORS
330
8099
102
}
330
8099
  0
SCALE
  5
80CE
102
{ACAD_REACTORS
330
80CD
102
}
330
80CD
100
AcDbScale
 70
     0
300
1:1
140
1.0
141
1.0
290
     1
  0
SCALE
  5
80CF
102
{ACAD_REACTORS
330
80CD
102
}
330
80CD
100
AcDbScale
 70
     0
300
1/128" = 1'-0"
140
0.0078125
141
12.0
290
     0
  0
SCALE
  5
80D0
102
{ACAD_REACTORS
330
80CD
102
}
330
80CD
100
AcDbScale
 70
     0
300
1/64" = 1'-0"
140
0.015625
141
12.0
290
     0
  0
SCALE
  5
80D1
102
{ACAD_REACTORS
330
80CD
102
}
330
80CD
100
AcDbScale
 70
     0
300
1/32" = 1'-0"
140
0.03125
141
12.0
290
     0
  0
SCALE
  5
80D2
102
{ACAD_REACTORS
330
80CD
102
}
330
80CD
100
AcDbScale
 70
     0
300
1/16" = 1'-0"
140
0.0625
141
12.0
290
     0
  0
SCALE
  5
80D3
102
{ACAD_REACTORS
330
80CD
102
}
330
80CD
100
AcDbScale
 70
     0
300
3/32" = 1'-0"
140
0.09375
141
12.0
290
     0
  0
SCALE
  5
80D4
102
{ACAD_REACTORS
330
80CD
102
}
330
80CD
100
AcDbScale
 70
     0
300
1/8" = 1'-0"
140
0.125
141
12.0
290
     0
  0
SCALE
  5
80D5
102
{ACAD_REACTORS
330
80CD
102
}
330
80CD
100
AcDbScale
 70
     0
300
3/16" = 1'-0"
140
0.1875
141
12.0
290
     0
  0
SCALE
  5
80D6
102
{ACAD_REACTORS
330
80CD
102
}
330
80CD
100
AcDbScale
 70
     0
300
1/4" = 1'-0"
140
0.25
141
12.0
290
     0
  0
SCALE
  5
80D7
102
{ACAD_REACTORS
330
80CD
102
}
330
80CD
100
AcDbScale
 70
     0
300
3/8" = 1'-0"
140
0.375
141
12.0
290
     0
  0
SCALE
  5
80D8
102
{ACAD_REACTORS
330
80CD
102
}
330
80CD
100
AcDbScale
 70
     0
300
1/2" = 1'-0"
140
0.5
141
12.0
290
     0
  0
SCALE
  5
80D9
102
{ACAD_REACTORS
330
80CD
102
}
330
80CD
100
AcDbScale
 70
     0
300
3/4" = 1'-0"
140
0.75
141
12.0
290
     0
  0
SCALE
  5
80DA
102
{ACAD_REACTORS
330
80CD
102
}
330
80CD
100
AcDbScale
 70
     0
300
1" = 1'-0"
140
1.0
141
12.0
290
     0
  0
SCALE
  5
80DB
102
{ACAD_REACTORS
330
80CD
102
}
330
80CD
100
AcDbScale
 70
     0
300
1-1/2" = 1'-0"
140
1.5
141
12.0
290
     0
  0
SCALE
  5
80DC
102
{ACAD_REACTORS
330
80CD
102
}
330
80CD
100
AcDbScale
 70
     0
300
3" = 1'-0"
140
3.0
141
12.0
290
     0
  0
SCALE
  5
80DD
102
{ACAD_REACTORS
330
80CD
102
}
330
80CD
100
AcDbScale
 70
     0
300
6" = 1'-0"
140
6.0
141
12.0
290
     0
  0
SCALE
  5
80DE
102
{ACAD_REACTORS
330
80CD
102
}
330
80CD
100
AcDbScale
 70
     0
300
1'-0" = 1'-0"
140
12.0
141
12.0
290
     0
  0
ACDBSECTIONVIEWSTYLE
  5
80F3
102
{ACAD_XDICTIONARY
360
84E4
102
}
102
{ACAD_REACTORS
330
80F2
102
}
330
80F2
100
AcDbModelDocViewStyle
 70
     0
  3
Imperial24
290
     0
100
AcDbSectionViewStyle
 70
     0
 71
     0
 90
       78
 71
     1
340
80E0
 40
0.24
340
0
340
0
 40
0.24
300
I, O, Q, S, X, Z
 40
0.48
 90
        3
 40
0.18
 90
        1
 71
     2
340
80E7
 90
       25
340
80E7
 90
       50
 40
0.24
 40
0.0
 40
0.24
 71
     3
340
80E0
 40
0.24
 90
        1
 40
0.75
 90
        1
300
%<\AcVar ViewType \f "%tc1">% %<\AcVar ViewSectionStartId>%-%<\AcVar ViewSectionEndId>%\PSCALE %<\AcVar ViewScale \f "%sn">%
 71
     4
300
ANSI31
 40
1.0
 90
        0
290
     0
290
     0
 90
        6
 40
0.0
 40
1.570796326794896
 40
0.2617993877991494
 40
1.308996938995747
 40
-0.2617993877991494
 40
1.832595714594046
  0
TABLESTYLE
  5
80EF
102
{ACAD_XDICTIONARY
360
84AB
102
}
102
{ACAD_REACTORS
330
80EE
102
}
330
80EE
100
AcDbTableStyle
  3
Standard
 70
     0
 71
     0
 40
0.06
 41
0.06
280
     0
281
     0
  7
STANDARD
140
0.18
170
     2
 62
     0
 63
     7
283
     0
274
    -2
284
     1
 64
     0
275
    -2
285
     1
 65
     0
276
    -2
286
     1
 66
     0
277
    -2
287
     1
 67
     0
278
    -2
288
     1
 68
     0
279
    -2
289
     1
 69
     0
  7
STANDARD
140
0.25
170
     5
 62
     0
 63
     7
283
     0
274
    -2
284
     1
 64
     0
275
    -2
285
     1
 65
     0
276
    -2
286
     1
 66
     0
277
    -2
287
     1
 67
     0
278
    -2
288
     1
 68
     0
279
    -2
289
     1
 69
     0
  7
STANDARD
140
0.18
170
     5
 62
     0
 63
     7
283
     0
274
    -2
284
     1
 64
     0
275
    -2
285
     1
 65
     0
276
    -2
286
     1
 66
     0
277
    -2
287
     1
 67
     0
278
    -2
288
     1
 68
     0
279
    -2
289
     1
 69
     0
  0
VISUALSTYLE
  5
80BA
102
{ACAD_XDICTIONARY
360
84BC
102
}
102
{ACAD_REACTORS
330
80B4
102
}
330
80B4
100
AcDbVisualStyle
  2
2dWireframe
 70
     4
 71
     0
 72
     2
 73
     0
 90
        0
 40
-0.6
 41
-30.0
 62
     5
 63
     7
 74
     1
 91
        4
 64
     7
 65
   257
 75
     1
175
     1
 42
1.0
 92
        0
 66
   257
 43
1.0
 76
     1
 77
     6
 78
     2
 67
     7
 79
     5
170
     0
171
     0
290
     0
174
     0
 93
        1
 44
0.0
173
     0
291
     0
 45
0.0
1001
ACAD
1000
AcDbSavedByObjectVersion
1070
     0
  0
VISUALSTYLE
  5
80B9
102
{ACAD_XDICTIONARY
360
84BA
102
}
102
{ACAD_REACTORS
330
80B4
102
}
330
80B4
100
AcDbVisualStyle
  2
Basic
 70
     7
 71
     1
 72
     0
 73
     1
 90
        0
 40
-0.6
 41
-30.0
 62
     5
 63
     7
 74
     0
 91
        4
 64
     7
 65
   257
 75
     1
175
     1
 42
1.0
 92
        8
 66
     7
 43
1.0
 76
     1
 77
     6
 78
     2
 67
     7
 79
     5
170
     0
171
     0
290
     0
174
     0
 93
        1
 44
0.0
173
     0
291
     1
 45
0.0
1001
ACAD
1000
AcDbSavedByObjectVersion
1070
     0
  0
VISUALSTYLE
  5
80C0
102
{ACAD_XDICTIONARY
360
84C8
102
}
102
{ACAD_REACTORS
330
80B4
102
}
330
80B4
100
AcDbVisualStyle
  2
Brighten
 70
    12
 71
     2
 72
     2
 73
     0
 90
        0
 40
-0.6
 41
-30.0
 62
     5
 63
     7
 74
     1
 91
        4
 64
     7
 65
   257
 75
     1
175
     1
 42
1.0
 92
        8
 66
     7
 43
1.0
 76
     1
 77
     6
 78
     2
 67
     7
 79
     5
170
     0
171
     0
290
     0
174
     0
 93
        1
 44
50.0
173
     0
291
     1
 45
0.0
1001
ACAD
1000
AcDbSavedByObjectVersion
1070
     0
  0
VISUALSTYLE
  5
80C4
102
{ACAD_XDICTIONARY
360
84D0
102
}
102
{ACAD_REACTORS
330
80B4
102
}
330
80B4
100
AcDbVisualStyle
  2
ColorChange
 70
    16
 71
     2
 72
     2
 73
     3
 90
        0
 40
-0.6
 41
-30.0
 62
     5
 63
     8
 74
     1
 91
        4
 64
     7
 65
   257
 75
     1
175
     1
 42
1.0
 92
        8
 66
     8
 43
1.0
 76
     1
 77
     6
 78
     2
 67
     7
 79
     5
170
     0
171
     0
290
     0
174
     0
 93
        1
 44
0.0
173
     0
291
     1
 45
0.0
1001
ACAD
1000
AcDbSavedByObjectVersion
1070
     0
  0
VISUALSTYLE
  5
80BD
102
{ACAD_XDICTIONARY
360
84C2
102
}
102
{ACAD_REACTORS
330
80B4
102
}
330
80B4
100
AcDbVisualStyle
  2
Conceptual
 70
     9
 71
     3
 72
     2
 73
     0
 90
        0
 40
-0.6
 41
-30.0
 62
     5
 63
     7
 74
     2
 91
        2
 64
     7
 65
   257
 75
     1
175
     1
 42
179.0
 92
        8
 66
     7
 43
1.0
 76
     1
 77
     6
 78
     2
 67
     7
 79
     3
170
     0
171
     0
290
     0
174
     0
 93
        1
 44
0.0
173
     0
291
     0
 45
0.0
1001
ACAD
1000
AcDbSavedByObjectVersion
1070
     0
  0
VISUALSTYLE
  5
80BF
102
{ACAD_XDICTIONARY
360
84C6
102
}
102
{ACAD_REACTORS
330
80B4
102
}
330
80B4
100
AcDbVisualStyle
  2
Dim
 70
    11
 71
     2
 72
     2
 73
     0
 90
        0
 40
-0.6
 41
-30.0
 62
     5
 63
     7
 74
     1
 91
        4
 64
     7
 65
   257
 75
     1
175
     1
 42
1.0
 92
        8
 66
     7
 43
1.0
 76
     1
 77
     6
 78
     2
 67
     7
 79
     5
170
     0
171
     0
290
     0
174
     0
 93
        1
 44
-50.0
173
     0
291
     1
 45
0.0
1001
ACAD
1000
AcDbSavedByObjectVersion
1070
     0
  0
VISUALSTYLE
  5
80CC
102
{ACAD_XDICTIONARY
360
84E0
102
}
102
{ACAD_REACTORS
330
80B4
102
}
330
80B4
100
AcDbVisualStyle
  2
EdgeColorOff
 70
    22
 71
     2
 72
     2
 73
     0
 90
        0
 40
-0.6
 41
-30.0
 62
     5
 63
     7
 74
     1
 91
        4
 64
     7
 65
   257
 75
     1
175
     1
 42
1.0
 92
        8
 66
     7
 43
1.0
 76
     1
 77
     6
 78
     2
 67
     7
 79
     5
170
     0
171
     0
290
     0
174
     0
 93
        1
 44
0.0
173
     0
291
     1
 45
0.0
1001
ACAD
1000
AcDbSavedByObjectVersion
1070
     0
  0
VISUALSTYLE
  5
80C3
102
{ACAD_XDICTIONARY
360
84CE
102
}
102
{ACAD_REACTORS
330
80B4
102
}
330
80B4
100
AcDbVisualStyle
  2
Facepattern
 70
    15
 71
     2
 72
     2
 73
     0
 90
        0
 40
-0.6
 41
-30.0
 62
     5
 63
     7
 74
     1
 91
        4
 64
     7
 65
   257
 75
     1
175
     1
 42
1.0
 92
        8
 66
     7
 43
1.0
 76
     1
 77
     6
 78
     2
 67
     7
 79
     5
170
     0
171
     0
290
     0
174
     0
 93
        1
 44
0.0
173
     0
291
     1
 45
0.0
1001
ACAD
1000
AcDbSavedByObjectVersion
1070
     0
  0
VISUALSTYLE
  5
80B5
102
{ACAD_XDICTIONARY
360
84B2
102
}
102
{ACAD_REACTORS
330
80B4
102
}
330
80B4
100
AcDbVisualStyle
  2
Flat
 70
     0
 71
     2
 72
     1
 73
     1
 90
        2
 40
-0.6
 41
30.0
 62
     5
 63
     7
 74
     0
 91
        0
 64
     7
 65
   257
 75
     1
175
     1
 42
1.0
 92
        8
 66
     7
 43
1.0
 76
     1
 77
     6
 78
     2
 67
     7
 79
     5
170
     0
171
     0
290
     0
174
     0
 93
       13
 44
0.0
173
     0
291
     1
 45
0.0
1001
ACAD
1000
AcDbSavedByObjectVersion
1070
     0
  0
VISUALSTYLE
  5
80B6
102
{ACAD_XDICTIONARY
360
84B4
102
}
102
{ACAD_REACTORS
330
80B4
102
}
330
80B4
100
AcDbVisualStyle
  2
FlatWithEdges
 70
     1
 71
     2
 72
     1
 73
     1
 90
        2
 40
-0.6
 41
30.0
 62
     5
 63
     7
 74
     1
 91
        0
 64
     7
 65
   257
 75
     1
175
     1
 42
1.0
 92
        0
 66
   257
 43
1.0
 76
     1
 77
     6
 78
     2
 67
     7
 79
     5
170
     0
171
     0
290
     0
174
     0
 93
       13
 44
0.0
173
     0
291
     1
 45
0.0
1001
ACAD
1000
AcDbSavedByObjectVersion
1070
     0
  0
VISUALSTYLE
  5
80B7
102
{ACAD_XDICTIONARY
360
84B6
102
}
102
{ACAD_REACTORS
330
80B4
102
}
330
80B4
100
AcDbVisualStyle
  2
Gouraud
 70
     2
 71
     2
 72
     2
 73
     1
 90
        2
 40
-0.6
 41
30.0
 62
     5
 63
     7
 74
     0
 91
        0
 64
     7
 65
   257
 75
     1
175
     1
 42
1.0
 92
        0
 66
     7
 43
1.0
 76
     1
 77
     6
 78
     2
 67
     7
 79
     5
170
     0
171
     0
290
     0
174
     0
 93
       13
 44
0.0
173
     0
291
     1
 45
0.0
1001
ACAD
1000
AcDbSavedByObjectVersion
1070
     0
  0
VISUALSTYLE
  5
80B8
102
{ACAD_XDICTIONARY
360
84B8
102
}
102
{ACAD_REACTORS
330
80B4
102
}
330
80B4
100
AcDbVisualStyle
  2
GouraudWithEdges
 70
     3
 71
     2
 72
     2
 73
     1
 90
        2
 40
-0.6
 41
30.0
 62
     5
 63
     7
 74
     1
 91
        0
 64
     7
 65
   257
 75
     1
175
     1
 42
1.0
 92
        0
 66
   257
 43
1.0
 76
     1
 77
     6
 78
     2
 67
     7
 79
     5
170
     0
171
     0
290
     0
174
     0
 93
       13
 44
0.0
173
     0
291
     1
 45
0.0
1001
ACAD
1000
AcDbSavedByObjectVersion
1070
     0
  0
VISUALSTYLE
  5
80BC
102
{ACAD_XDICTIONARY
360
84C0
102
}
102
{ACAD_REACTORS
330
80B4
102
}
330
80B4
100
AcDbVisualStyle
  2
Hidden
 70
     6
 71
     1
 72
     2
 73
     2
 90
        0
 40
-0.6
 41
-30.0
 62
     5
 63
     7
 74
     2
 91
        2
 64
     7
 65
   257
 75
     2
175
     1
 42
40.0
 92
        0
 66
   257
 43
1.0
 76
     1
 77
     6
 78
     2
 67
     7
 79
     3
170
     0
171
     0
290
     0
174
     0
 93
        1
 44
0.0
173
     0
291
     0
 45
0.0
1001
ACAD
1000
AcDbSavedByObjectVersion
1070
     0
  0
VISUALSTYLE
  5
80CA
102
{ACAD_XDICTIONARY
360
84DC
102
}
102
{ACAD_REACTORS
330
80B4
102
}
330
80B4
100
AcDbVisualStyle
  2
JitterOff
 70
    20
 71
     2
 72
     2
 73
     0
 90
        0
 40
-0.6
 41
-30.0
 62
     5
 63
     7
 74
     1
 91
        4
 64
     7
 65
   257
 75
     1
175
     1
 42
1.0
 92
       10
 66
     7
 43
1.0
 76
     1
 77
     6
 78
     2
 67
     7
 79
     5
170
     0
171
     0
290
     0
174
     0
 93
        1
 44
0.0
173
     0
291
     1
 45
0.0
1001
ACAD
1000
AcDbSavedByObjectVersion
1070
     0
  0
VISUALSTYLE
  5
80C2
102
{ACAD_XDICTIONARY
360
84CC
102
}
102
{ACAD_REACTORS
330
80B4
102
}
330
80B4
100
AcDbVisualStyle
  2
Linepattern
 70
    14
 71
     2
 72
     2
 73
     0
 90
        0
 40
-0.6
 41
-30.0
 62
     5
 63
     7
 74
     1
 91
        4
 64
     7
 65
   257
 75
     7
175
     7
 42
1.0
 92
        8
 66
     7
 43
1.0
 76
     1
 77
     6
 78
     2
 67
     7
 79
     5
170
     0
171
     0
290
     0
174
     0
 93
        1
 44
0.0
173
     0
291
     1
 45
0.0
1001
ACAD
1000
AcDbSavedByObjectVersion
1070
     0
  0
VISUALSTYLE
  5
80CB
102
{ACAD_XDICTIONARY
360
84DE
102
}
102
{ACAD_REACTORS
330
80B4
102
}
330
80B4
100
AcDbVisualStyle
  2
OverhangOff
 70
    21
 71
     2
 72
     2
 73
     0
 90
        0
 40
-0.6
 41
-30.0
 62
     5
 63
     7
 74
     1
 91
        4
 64
     7
 65
   257
 75
     1
175
     1
 42
1.0
 92
        9
 66
     7
 43
1.0
 76
     1
 77
     6
 78
     2
 67
     7
 79
     5
170
     0
171
     0
290
     0
174
     0
 93
        1
 44
0.0
173
     0
291
     1
 45
0.0
1001
ACAD
1000
AcDbSavedByObjectVersion
1070
     0
  0
VISUALSTYLE
  5
80BE
102
{ACAD_XDICTIONARY
360
84C4
102
}
102
{ACAD_REACTORS
330
80B4
102
}
330
80B4
100
AcDbVisualStyle
  2
Realistic
 70
     8
 71
     2
 72
     3
 73
     0
 90
        2
 40
-0.6
 41
30.0
 62
     5
 63
     7
 74
     0
 91
        0
 64
     7
 65
   257
 75
     1
175
     1
 42
1.0
 92
        8
 66
   257
 43
1.0
 76
     1
 77
     6
 78
     2
 67
     7
 79
     3
170
     0
171
     0
290
     0
174
     0
 93
       13
 44
0.0
173
     0
291
     0
 45
0.0
1001
ACAD
1000
AcDbSavedByObjectVersion
1070
     0
  0
VISUALSTYLE
  5
80C9
102
{ACAD_XDICTIONARY
360
84DA
102
}
102
{ACAD_REACTORS
330
80B4
102
}
330
80B4
100
AcDbVisualStyle
  2
Shaded
 70
    27
 71
     2
 72
     2
 73
     1
 90
        2
 40
-0.6
 41
30.0
 62
     5
 63
     7
 74
     0
 91
        4
 64
     7
 65
   257
 75
     1
175
     1
 42
1.0
 92
        8
 66
   257
 43
1.0
 76
     1
 77
     6
 78
     2
 67
     8
 79
     3
170
     0
171
     0
290
     0
174
     0
 93
        5
 44
0.0
173
     0
291
     0
 45
0.0
1001
ACAD
1000
AcDbSavedByObjectVersion
1070
     0
  0
VISUALSTYLE
  5
80C8
102
{ACAD_XDICTIONARY
360
84D8
102
}
102
{ACAD_REACTORS
330
80B4
102
}
330
80B4
100
AcDbVisualStyle
  2
Shaded with edges
 70
    26
 71
     2
 72
     2
 73
     1
 90
        2
 40
-0.6
 41
30.0
 62
     5
 63
     7
 74
     1
 91
       10
 64
     7
 65
   257
 75
     2
175
     1
 42
1.0
 92
        8
 66
   257
 43
1.0
 76
     1
 77
     6
 78
     2
 67
     7
 79
     3
170
     0
171
     0
290
     0
174
     0
 93
        5
 44
0.0
173
     0
291
     0
 45
0.0
1001
ACAD
1000
AcDbSavedByObjectVersion
1070
     0
  0
VISUALSTYLE
  5
80C5
102
{ACAD_XDICTIONARY
360
84D2
102
}
102
{ACAD_REACTORS
330
80B4
102
}
330
80B4
100
AcDbVisualStyle
  2
Shades of Gray
 70
    23
 71
     2
 72
     2
 73
     3
 90
        0
 40
-0.6
 41
-30.0
 62
     5
 63
     7
 74
     2
 91
        2
 64
     7
 65
     7
 75
     1
175
     1
 42
40.0
 92
        8
 66
     7
 43
1.0
 76
     1
 77
     6
 78
     2
 67
     7
 79
     3
170
     0
171
     0
290
     0
174
     0
 93
        1
 44
0.0
173
     0
291
     0
 45
0.0
1001
ACAD
1000
AcDbSavedByObjectVersion
1070
     0
  0
VISUALSTYLE
  5
80C6
102
{ACAD_XDICTIONARY
360
84D4
102
}
102
{ACAD_REACTORS
330
80B4
102
}
330
80B4
100
AcDbVisualStyle
  2
Sketchy
 70
    24
 71
     1
 72
     2
 73
     2
 90
        0
 40
-0.6
 41
-30.0
 62
     5
 63
     7
 74
     2
 91
        2
 64
     7
 65
     7
 75
     1
175
     1
 42
40.0
 92
       11
 66
     7
 43
1.0
 76
     1
 77
     6
 78
     2
 67
     7
 79
     6
170
     0
171
     0
290
     0
174
     0
 93
        1
 44
0.0
173
     0
291
     0
 45
0.0
1001
ACAD
1000
AcDbSavedByObjectVersion
1070
     0
  0
VISUALSTYLE
  5
80C1
102
{ACAD_XDICTIONARY
360
84CA
102
}
102
{ACAD_REACTORS
330
80B4
102
}
330
80B4
100
AcDbVisualStyle
  2
Thicken
 70
    13
 71
     2
 72
     2
 73
     0
 90
        0
 40
-0.6
 41
-30.0
 62
     5
 63
     7
 74
     1
 91
        4
 64
     7
 65
   257
 75
     1
175
     1
 42
1.0
 92
       12
 66
     7
 43
1.0
 76
     1
 77
     6
 78
     2
 67
     7
 79
     5
170
     0
171
     0
290
     0
174
     0
 93
        1
 44
0.0
173
     0
291
     1
 45
0.0
1001
ACAD
1000
AcDbSavedByObjectVersion
1070
     0
  0
VISUALSTYLE
  5
80BB
102
{ACAD_XDICTIONARY
360
84BE
102
}
102
{ACAD_REACTORS
330
80B4
102
}
330
80B4
100
AcDbVisualStyle
  2
Wireframe
 70
     5
 71
     0
 72
     2
 73
     0
 90
        0
 40
-0.6
 41
-30.0
 62
     5
 63
     7
 74
     1
 91
        4
 64
     7
 65
   257
 75
     1
175
     1
 42
1.0
 92
        0
 66
   257
 43
1.0
 76
     1
 77
     6
 78
     2
 67
     7
 79
     3
170
     0
171
     0
290
     0
174
     0
 93
        1
 44
0.0
173
     0
291
     0
 45
0.0
1001
ACAD
1000
AcDbSavedByObjectVersion
1070
     0
  0
VISUALSTYLE
  5
80C7
102
{ACAD_XDICTIONARY
360
84D6
102
}
102
{ACAD_REACTORS
330
80B4
102
}
330
80B4
100
AcDbVisualStyle
  2
X-Ray
 70
    25
 71
     2
 72
     2
 73
     1
 90
        1
 40
0.5
 41
-30.0
 62
     5
 63
     7
 74
     1
 91
        0
 64
     7
 65
   257
 75
     1
175
     1
 42
1.0
 92
        8
 66
     7
 43
1.0
 76
     1
 77
     6
 78
     2
 67
     7
 79
     3
170
     0
171
     0
290
     0
174
     0
 93
       13
 44
0.0
173
     0
291
     0
 45
0.0
1001
ACAD
1000
AcDbSavedByObjectVersion
1070
     0
  0
DICTIONARYVAR
  5
817E
102
{ACAD_REACTORS
330
8179
102
}
330
8179
100
DictionaryVariables
280
     0
  1
1:1
  0
DICTIONARYVAR
  5
817B
102
{ACAD_REACTORS
330
8179
102
}
330
8179
100
DictionaryVariables
280
     0
  1
STANDARD
  0
DICTIONARYVAR
  5
817A
102
{ACAD_REACTORS
330
8179
102
}
330
8179
100
DictionaryVariables
280
     0
  1
STANDARD
  0
DICTIONARYVAR
  5
817C
102
{ACAD_REACTORS
330
8179
102
}
330
8179
100
DictionaryVariables
280
     0
  1
Imperial24
  0
DICTIONARYVAR
  5
817D
102
{ACAD_REACTORS
330
8179
102
}
330
8179
100
DictionaryVariables
280
     0
  1
Imperial24
  0
DICTIONARYVAR
  5
8181
102
{ACAD_REACTORS
330
8179
102
}
330
8179
100
DictionaryVariables
280
     0
  1
1
  0
DICTIONARYVAR
  5
8180
102
{ACAD_REACTORS
330
8179
102
}
330
8179
100
DictionaryVariables
280
     0
  1
0
  0
DICTIONARYVAR
  5
817F
102
{ACAD_REACTORS
330
8179
102
}
330
8179
100
DictionaryVariables
280
     0
  1
127
  0
DICTIONARYVAR
  5
8182
102
{ACAD_REACTORS
330
8179
102
}
330
8179
100
DictionaryVariables
280
     0
  1
2
  0
DICTIONARY
  5
84E6
330
80F5
100
AcDbDictionary
280
     1
281
     1
  3
ACAD_XREC_ROUNDTRIP
360
84E7
  0
DICTIONARY
  5
84EA
330
80FD
100
AcDbDictionary
280
     1
281
     1
  3
ACAD_XREC_ROUNDTRIP
360
84EB
  0
DICTIONARY
  5
84E8
330
80F9
100
AcDbDictionary
280
     1
281
     1
  3
ACAD_XREC_ROUNDTRIP
360
84E9
  0
DICTIONARY
  5
80A5
330
80A4
100
AcDbDictionary
280
     1
281
     1
  3
ACAD_XREC_ROUNDTRIP
360
84B0
  3
BUMPTILE
360
80A7
  3
DIFFUSETILE
360
80A6
  3
OPACITYTILE
360
80AA
  3
REFLECTIONTILE
360
80A9
  3
REFRACTIONTILE
360
80AB
  3
SPECULARTILE
360
80A8
  0
DICTIONARY
  5
809D
330
809C
100
AcDbDictionary
280
     1
281
     1
  3
ACAD_XREC_ROUNDTRIP
360
84AF
  3
BUMPTILE
360
809F
  3
DIFFUSETILE
360
809E
  3
OPACITYTILE
360
80A2
  3
REFLECTIONTILE
360
80A1
  3
REFRACTIONTILE
360
80A3
  3
SPECULARTILE
360
80A0
  0
DICTIONARY
  5
80AD
330
80AC
100
AcDbDictionary
280
     1
281
     1
  3
ACAD_XREC_ROUNDTRIP
360
84B1
  3
BUMPTILE
360
80AF
  3
DIFFUSETILE
360
80AE
  3
FBXASSET
360
81C4
  3
OPACITYTILE
360
80B2
  3
REFLECTIONTILE
360
80B1
  3
REFRACTIONTILE
360
80B3
  3
SPECULARTILE
360
80B0
  0
DICTIONARY
  5
84E4
330
80F3
100
AcDbDictionary
280
     1
281
     1
  3
ACAD_XREC_ROUNDTRIP
360
84E5
  0
DICTIONARY
  5
84AB
330
80EF
100
AcDbDictionary
280
     1
281
     1
  3
ACAD_ROUNDTRIP_2008_TABLESTYLE_CELLSTYLEMAP
360
84AC
  3
ACAD_XREC_ROUNDTRIP
360
84E2
  0
DICTIONARY
  5
84BC
330
80BA
100
AcDbDictionary
280
     1
281
     1
  3
ACAD_XREC_ROUNDTRIP
360
84BD
  0
DICTIONARY
  5
84BA
330
80B9
100
AcDbDictionary
280
     1
281
     1
  3
ACAD_XREC_ROUNDTRIP
360
84BB
  0
DICTIONARY
  5
84C8
330
80C0
100
AcDbDictionary
280
     1
281
     1
  3
ACAD_XREC_ROUNDTRIP
360
84C9
  0
DICTIONARY
  5
84D0
330
80C4
100
AcDbDictionary
280
     1
281
     1
  3
ACAD_XREC_ROUNDTRIP
360
84D1
  0
DICTIONARY
  5
84C2
330
80BD
100
AcDbDictionary
280
     1
281
     1
  3
ACAD_XREC_ROUNDTRIP
360
84C3
  0
DICTIONARY
  5
84C6
330
80BF
100
AcDbDictionary
280
     1
281
     1
  3
ACAD_XREC_ROUNDTRIP
360
84C7
  0
DICTIONARY
  5
84E0
330
80CC
100
AcDbDictionary
280
     1
281
     1
  3
ACAD_XREC_ROUNDTRIP
360
84E1
  0
DICTIONARY
  5
84CE
330
80C3
100
AcDbDictionary
280
     1
281
     1
  3
ACAD_XREC_ROUNDTRIP
360
84CF
  0
DICTIONARY
  5
84B2
330
80B5
100
AcDbDictionary
280
     1
281
     1
  3
ACAD_XREC_ROUNDTRIP
360
84B3
  0
DICTIONARY
  5
84B4
330
80B6
100
AcDbDictionary
280
     1
281
     1
  3
ACAD_XREC_ROUNDTRIP
360
84B5
  0
DICTIONARY
  5
84B6
330
80B7
100
AcDbDictionary
280
     1
281
     1
  3
ACAD_XREC_ROUNDTRIP
360
84B7
  0
DICTIONARY
  5
84B8
330
80B8
100
AcDbDictionary
280
     1
281
     1
  3
ACAD_XREC_ROUNDTRIP
360
84B9
  0
DICTIONARY
  5
84C0
330
80BC
100
AcDbDictionary
280
     1
281
     1
  3
ACAD_XREC_ROUNDTRIP
360
84C1
  0
DICTIONARY
  5
84DC
330
80CA
100
AcDbDictionary
280
     1
281
     1
  3
ACAD_XREC_ROUNDTRIP
360
84DD
  0
DICTIONARY
  5
84CC
330
80C2
100
AcDbDictionary
280
     1
281
     1
  3
ACAD_XREC_ROUNDTRIP
360
84CD
  0
DICTIONARY
  5
84DE
330
80CB
100
AcDbDictionary
280
     1
281
     1
  3
ACAD_XREC_ROUNDTRIP
360
84DF
  0
DICTIONARY
  5
84C4
330
80BE
100
AcDbDictionary
280
     1
281
     1
  3
ACAD_XREC_ROUNDTRIP
360
84C5
  0
DICTIONARY
  5
84DA
330
80C9
100
AcDbDictionary
280
     1
281
     1
  3
ACAD_XREC_ROUNDTRIP
360
84DB
  0
DICTIONARY
  5
84D8
330
80C8
100
AcDbDictionary
280
     1
281
     1
  3
ACAD_XREC_ROUNDTRIP
360
84D9
  0
DICTIONARY
  5
84D2
330
80C5
100
AcDbDictionary
280
     1
281
     1
  3
ACAD_XREC_ROUNDTRIP
360
84D3
  0
DICTIONARY
  5
84D4
330
80C6
100
AcDbDictionary
280
     1
281
     1
  3
ACAD_XREC_ROUNDTRIP
360
84D5
  0
DICTIONARY
  5
84CA
330
80C1
100
AcDbDictionary
280
     1
281
     1
  3
ACAD_XREC_ROUNDTRIP
360
84CB
  0
DICTIONARY
  5
84BE
330
80BB
100
AcDbDictionary
280
     1
281
     1
  3
ACAD_XREC_ROUNDTRIP
360
84BF
  0
DICTIONARY
  5
84D6
330
80C7
100
AcDbDictionary
280
     1
281
     1
  3
ACAD_XREC_ROUNDTRIP
360
84D7
  0
XRECORD
  5
84E7
102
{ACAD_REACTORS
330
84E6
102
}
330
84E6
100
AcDbXrecord
280
     1
102
DISPLAYNAME
  1
Imperial24
102
FLAGS
 90
        0
  0
XRECORD
  5
84EB
102
{ACAD_REACTORS
330
84EA
102
}
330
84EA
100
AcDbXrecord
280
     1
102
SHADEPLOT
 70
     0
102
SHADEPLOTRESLEVEL
 70
     2
102
SHADEPLOTCUSTOMDPI
 70
   300
  0
XRECORD
  5
84E9
102
{ACAD_REACTORS
330
84E8
102
}
330
84E8
100
AcDbXrecord
280
     1
102
SHADEPLOT
 70
     0
102
SHADEPLOTRESLEVEL
 70
     2
102
SHADEPLOTCUSTOMDPI
 70
   300
  0
XRECORD
  5
84B0
102
{ACAD_REACTORS
330
80A5
102
}
330
80A5
100
AcDbXrecord
280
     1
102
MATERIAL
148
0.0
149
0.0
149
0.0
 93
        0
 94
      127
282
     0
 72
     0
 77
     0
171
     0
175
     0
179
     0
273
     0
  0
XRECORD
  5
80A7
102
{ACAD_REACTORS
330
80A5
102
}
330
80A5
100
AcDbXrecord
280
     1
270
     1
271
     1
  0
XRECORD
  5
80A6
102
{ACAD_REACTORS
330
80A5
102
}
330
80A5
100
AcDbXrecord
280
     1
270
     1
271
     1
  0
XRECORD
  5
80AA
102
{ACAD_REACTORS
330
80A5
102
}
330
80A5
100
AcDbXrecord
280
     1
270
     1
271
     1
  0
XRECORD
  5
80A9
102
{ACAD_REACTORS
330
80A5
102
}
330
80A5
100
AcDbXrecord
280
     1
270
     1
271
     1
  0
XRECORD
  5
80AB
102
{ACAD_REACTORS
330
80A5
102
}
330
80A5
100
AcDbXrecord
280
     1
270
     1
271
     1
  0
XRECORD
  5
80A8
102
{ACAD_REACTORS
330
80A5
102
}
330
80A5
100
AcDbXrecord
280
     1
270
     1
271
     1
  0
XRECORD
  5
84AF
102
{ACAD_REACTORS
330
809D
102
}
330
809D
100
AcDbXrecord
280
     1
102
MATERIAL
148
0.0
149
0.0
149
0.0
 93
        0
 94
      127
282
     0
 72
     0
 77
     0
171
     0
175
     0
179
     0
273
     0
  0
XRECORD
  5
809F
102
{ACAD_REACTORS
330
809D
102
}
330
809D
100
AcDbXrecord
280
     1
270
     1
271
     1
  0
XRECORD
  5
809E
102
{ACAD_REACTORS
330
809D
102
}
330
809D
100
AcDbXrecord
280
     1
270
     1
271
     1
  0
XRECORD
  5
80A2
102
{ACAD_REACTORS
330
809D
102
}
330
809D
100
AcDbXrecord
280
     1
270
     1
271
     1
  0
XRECORD
  5
80A1
102
{ACAD_REACTORS
330
809D
102
}
330
809D
100
AcDbXrecord
280
     1
270
     1
271
     1
  0
XRECORD
  5
80A3
102
{ACAD_REACTORS
330
809D
102
}
330
809D
100
AcDbXrecord
280
     1
270
     1
271
     1
  0
XRECORD
  5
80A0
102
{ACAD_REACTORS
330
809D
102
}
330
809D
100
AcDbXrecord
280
     1
270
     1
271
     1
  0
XRECORD
  5
84B1
102
{ACAD_REACTORS
330
80AD
102
}
330
80AD
100
AcDbXrecord
280
     1
102
MATERIAL
148
0.0
149
0.0
149
0.0
 93
        0
 94
      127
282
     0
 72
     0
 77
     0
171
     0
175
     0
179
     0
273
     0
  0
XRECORD
  5
80AF
102
{ACAD_REACTORS
330
80AD
102
}
330
80AD
100
AcDbXrecord
280
     1
270
     1
271
     1
  0
XRECORD
  5
80AE
102
{ACAD_REACTORS
330
80AD
102
}
330
80AD
100
AcDbXrecord
280
     1
270
     1
271
     1
  0
XRECORD
  5
81C4
102
{ACAD_REACTORS
330
80AD
102
}
330
80AD
100
AcDbXrecord
280
     1
 70
     1
 90
1959938040
 71
     1
  1
67B5692D-ADCC-44AC-B61E-166637B5025C
311
504B030414000608080025897057E5BE6EBBBF000000200100004F00000042363933453537442D464539312D344333382D413642392D3032324237373636313446342F4173736574446174612F446566696E6974696F6E4974657261746F7250726F706572746965732E62696EEB606060F80F0540260323103700495E20ED
311
9E9A975A94991C9C9C919A9BC8C00612C9C94F4ACC6147C831019920AE4B6A5A62694E0948976F6671726A4E4E625E6A7E69B12042A9426E6209D0B8C41C3D90264E20860914834C48875806B2DF0F88414E02D189290556F689C5C5A925B6FA694915FAC68E266E4E4646E6BA6606E696BA2686AE2EBA160666E6BA26966E
311
E606C6CE2EA626C6C6FA45A9C5F9A545C9A9C5FA46FA06F15093E30BF2D219185E3888CE790DB404E40610260400504B030414000608080025897057716D47D8EE000000300200004500000042363933453537442D464539312D344333382D413642392D3032324237373636313446342F4173736574446174612F496E7374
311
616E636550726F706572746965732E62696EEB606060F80F0540260323103700495E20ED9E9A975A94991C9C9C919A9BA802143033773235B33472D175747176D635317174D675323374D5353433333306CA1918993AB3233482B4181B9AB8B81A995AEA9A9A9818EB9A981919EA3AB939B9E81A9A1B1B389B393B5B3ABA5A
311
029581ED65D08CE93FF455E38A3D9066028A3500318C0FA6817C20F8600F51CDC020E0C020001602132A0E08365616502304C01958950105E10A3E3003790D400CD5FA004AF300853001281C113270433014A6EC74C0104311C0D40A325A0349CD077B16200F145B7C401C5C9E58929CA1EB54949897929A0292A10648C062
311
0800504B03041400060808002589705728BB58AF800100009E0500003D00000042363933453537442D464539312D344333382D413642392D3032324237373636313446342F536368656D61732F436F6D6D6F6E536368656D612E786D6CBD544D4FC23018BEFB2B96DE15493C78601010A34B880709DEDFB52FD0D8B54BD70D
311
F6EFED3AC0B12E6442E2716BFB3CEFF3D18E26FB440405EA8C2B1992E1C323095052C5B8DC842437EBFB673219DF8DA659866649B798C078B48AE6410122242F2A4994AC7F93815DF85C049C8564CA0A901499DD886B2EB9B1E02448F358701A9235880C49A0119892A20C89D1B9FD768815CAD268CB5E0355B40B1E47F3E3
311
7A2020464BED06AA57CE8FCC20C3C3446D46761A2632A8C1283D07031EFF2AE7CCB1BFEEE916E406DFAC8E36FFD99A9D60A6944090EEDC3B670C7DC13DE86B6B2C5C240D6E503BB85ACD579D513F1B9F9A69DC9CC22AFA80C426D40AF0B21EA168559156B6276F0F726A6BFF04DCD513A87A62CAD41FB24FCB2858B3952E3D
311
852084DA25B9303C15687973CC8E8AAE11DF2836C38C6A9E765E8C1BA1BFB1DC29CDFE518C8B5A7655A4ED7E77291ABEB80DBD82EC866ADE1B8D05AF9E35CF09D7A061F38A986D9EC412B8F0F65E5D81534D9B231D1E5A8FE577A241F3A5FD01504B0304140006080800258970572CCEBD668A040000E01200003E00000042
311
363933453537442D464539312D344333382D413642392D3032324237373636313446342F536368656D61732F47656E65726963536368656D612E786D6CD5586D6FDB380CFE7EBF42F0F7A649B70E1B90744856B4970F450FCD7A5F05459613EDE4174872DADCAF3F522F8ED3B88D2F1D06AC4050DBA2493EE4438AF2F8EB73
311
AEC8466823CB62928C06C384888297A92C5693A4B6D9D9E7E4EBD51FE3A931C22EF85AE4EC6AFC38BF261BA626C9AD288496DC3F4FCEAFC63366845F7A10452AF41DB320C0D44EC26EAB20918735565582695670811A6A49643A49A6E9069FA4604A64B29016DC4B48552F95E4932463CA888468C1D2B250DB4962750DF7CE
311
273069CE8363F1FF4EDB00E0A21999574AE4A2B00C353B93F3BD4777B8A61ED8F604ABFEDD79CE56A2B7BDFBDBC50996E0ADDE16FED26223C5D30956C29BDF4A55EA686E5E58B112DA45CE67F76F4FA27EFA3FB672FD7372FC388FAECDCA5209E693CAD167BADCD272F943701B3812F8A3D852008B1D2E32DB927B2F833C6E
311
A95879925356D254582695095A3CE982924720BE5774A3CB9CDCDB350427D2DF20DA1B5532EBE2D5D6288D75D4F7E4FD9890A0EF8E3D93EBB8F8BA4758158EF6FB90A6F9520281C93DE7AAC6D24607DA296BB96018123F821A7D6A5C5884050C475DA4865442732C8B95684A50165CBB3A32F25F783A4A480ED59AD7F924B9
311
68AEA50131F46303223E6A397B0E52976030DC1DCA81D7E7C1EDEEA42C19FF27635C505E2BD5198A599020DF50A2330FCB3AAF28CB0124108429553EF1B228802E2265D8F7CC2401042B155BCC7070F1E5C55F13B4A9577362CCCE46C32174E010C3C378C44841A4BDA00FE3A12006CE11EE6AEC59894D3526DDE1CD59D503
311
ECC324017F8061B7F162162FA62EDD81AE3308617770796DCBDAD2B2625C5AE8A63DE20B2C8AA5E95E76E5730823955956E33E705425A2187C185D36489A1B44D3DCEC2172F6BA2105C3546287A7194B2331768EBBE64F6E70A9930ABE0ADEA89E9E2C38523B810287AD67A54A039C1606EAFE68F8304610BB9093DBDDABC0
311
B2AE4E290DCDA15376D7E39F72B556F0B32EAB5D3D498B4C41ABADEC3A1434C422D87E8025A84BDCB2B1417ED750FAE4DA8976863974C577C7F902D3F156AD354DEA3540DE6BEAE2BEA52F7A2EB4CA43802ECE5BF2CE2EDC9347179FFB023CE412E60BE16DA0BE29B374988A553F561DC04615DD35F7D2C8979F60E5955CE9
311
3DF29DED8AFA1EE6642D53418086C03C47C377910F75F7E8F5EF665F70B60FFB22AEDF897D119E8423C773E819A3C1E55E550599EE6EDCA34D0C86FD72057DF2CD46F16A470682471C164E4346D5306BF12D7D12D82CFF673D41636C347443FEB51B50D72EA171A8E4A58623A4A16E0FA2B8B10A0D23268D87C33896EE8FB7
311
3305A74BF224EDBADFA0BD674AB354D63DB7BD5D83426761C077DE767728235446A552754EB93B755891C3C4CC6CADE37CF0E912A7BB38DBA010F9DE1282EDF470CA69A9CDA482E334C4A6EA4107987980B17E72F31730EBF88BBD39E7C629F56797A3C0009C2C5AE7951D9A05A02773440F02EEB4DE396A3B6A570C72CCFB
311
CD823B0B8ED3F1D5CEDDFED772FA70236C83FB7D86C385D570B87107535572A60A96035F8F7C6A7192F13007246BBE0521855E6AC46F3E27689CEE7D186A6FD679D98CDCAD13333E04EBE7ED6F55FF01504B0304140006080800258970576180134D5F0100006B0300004500000042363933453537442D464539312D344333
311
382D413642392D3032324237373636313446342F536368656D61732F52656E6465724D6174657269616C536368656D612E786D6CA5934D6FC2300C86EFFB1551EEE343DBA41D1A103009551ADAD40EAE28A4A68D9426284961FCFBE5A340113B2071746D3F765EBF4DC6BFB5407BD0862B49F0B037C0082453059725C18DDD
311
3EBFE3F1E829991803366715D474942CD30FB4A782E00C64017A412D684E454CE3FE28995203B162A6EA5AC94B66997D225E109CD63B0135484BAD1B3C07E9080CA35DB3119C11BCA5C200461A68A1A438126C75E3E230D40FF81FB3F03C91D1E3A3A0AF79FE28E25BC39EC3E17E4C2A2D94A0833A51AF55BCCA7D88572FCB
311
AC529C4140B020FC3AAFA886621DCED7EAD7664CC86024E806DC297DA1BB393E4156543457A4537DB8817349A70F8ACBF09B3EEE2CB2F33E91B65D60786E4E3B39B77E3FEEEF5650424525DA657FB8B46BE6BF064646F0A0F7327C0BC1BC1B4CBBC1C419FA3CCB23500007872A2580CAAE5461865565294E4EDB4617B62FF5
311
79DF9A5B2F54E834076A597573A020912FED777F9B3F504B03041400060808002589705777B7FF8B4F000000570000004700000042363933453537442D464539312D344333382D413642392D3032324237373636313446342F4173736574446174612F41737365745461626C654F66436F6E74656E74732E62696E53616060
311
3033773235B33472D175747176D635317174D675323374D5353433333306CA1918993A0B01D5E52696A4166526E6241614A4261625E625A70205C1801748BAA7E601659383933352731301504B030414000608080025897057F865834058000000680000004500000042363933453537442D464539312D344333382D413642
311
392D3032324237373636313446342F4173736574446174612F53747265616D56657273696F6E5461626C652E696E66558CBD0A80300C06F73E4B117FB66E451741D041DC5BF98480A492E4FDD18EAEC7DD4555D89EF28DF51A0B1BD8340C4DE7DD848B988C0ACF0649566493F2408C508DDEBB99D5129FF8F1AF8CF5B9503E
311
20FAE5A16B5AF702504B030414000608080025897057C9A388DD340100009A0400003600000042363933453537442D464539312D344333382D413642392D3032324237373636313446342F4173736574446174612F636E782E786D6CCD943F4FC33010C5BF4AE43D765C24FE548E2B044B2790A818D8AECEA55875ECC8BE20
311
F8F6D86D0650115387AEE777E7E79FFC4EAD3E07577D604C36F89649DEB00ABD099DF5BB964DD4D7B7AC5A691543A01F32567918B065A5CCB4DAC5308D73A9C31E2657AACEFAFD5CBC4F0969035B874FFD43F0849E12AB8C83945A96CC3B0EC061A2D061DAF30E08B8E4115398A2C13C89EC80F3241311083BA617CDE2AA96
311
B296D71B79B36CEE96B27953A228B5DA86E066BDCD97C53056E6782BD38D12E558AB29DA5953DEC2F45F1EF9D67A25B252AB443133993BE86BCC1D308ECE1AA08C4E0443487516210C4A1CC55A89C2E0178947ECADB7A5659D8D0185F89CED61248B1747E43FAFE727B3F689C01BBC5C1EA70ECF4FE1E5F0835E8F813C24E6
311
D27272EA905BDF9F2125E2B0467268CA56D1DF504B0304140006080800258970570F09851D080100004F0300003400000042363933453537442D464539312D344333382D413642392D3032324237373636313446342F536368656D61732F636E782E786D6CCD933B4F04211485FFCA847E6058131F1B862D2CAC6CD4CA0EE1
311
EE4A16B8131E46FFBD3052EC26765A6C07872FE49CC345EC3EBD1B3E20268B61269C4E6480A0D1D8709849C9FBF1960C3B2922623EC1C810948799349948718858962E19D8ABE29AEA6C3876F11EBDC7F0ACDFC12B3268A7529A495AB754958C06D2911A9515E53442C21235D41BB2F5D06FD011540643E466DA5C8D9C8FFC
311
FA85DF6CA7BB2D9F5E056BA4146F88AEF3366488B80C1AEB22543B9360ED588A126D675A06224FBDD1DA8660959022E5583BE864FE5A2AA996C559AD72AD8AADE00F23056B51CF023F408068F565263E33F76F919F2018888FF595A255EE3293FFE6F16F05B075F6EB08B4AF20BF01504B030414000608080025897057410A
311
3D5871000000A40000002C00000042363933453537442D464539312D344333382D413642392D3032324237373636313446342F636E782E786D6C55CC4D0E82301086E1AB34B31774E7A22D31F1069E60020334B633A63FC6E34B0909B07DDE2F9FEE7EC1AB2FC5E4840DDC9A2B28E25E06C7938192C7CB1D54677514C98719
311
28C640062A83D55394F2D968A0118BAFEA1DBF377CA444F98919176EAB9FEAAB9F2960DA5BBB1E2ED3FA6FFF504B030414000608080025897057C8CD814480000000A300000007000000636E782E786D6C4D8CDF0E82201C465F85FDEE29FF10E806B8287D0F97E898088DA4F5F841F3A2AB6F3BFBCEE1DD67B3E8ADC3CB78
311
27A03C1580B47BF8C9B84540DC67DC00EA240FDEEF7F37406EDCB4808C41F225F8F83CD0A4E731DA4CAD71EB01156DEBFEC2EE78E8DB12935BDDE02B552D2EAA4A3146694906928C7356D2FC7A69735E7E01504B03041400060808002589705716E99B5DA600000035010000130000005B436F6E74656E745F54797065735D
311
2E786D6C9590410E82301045AFD2740F4517C6180A0BF5065E60AC53688469D30E066F6F91AD9AB89CF9FFFD3F99BA9DC7413C3026E749CB4D59498164FCCD51A7E5C4B6D84BD136F5E5193089ECA5A465CF1C0E4A25D3E308A9F401292BD6C711388FB15301CC1D3A54DBAADA29E38991B8E0254336F5092D4C038BF39CD7
311
6B6FC6A538AEBEA54A4B08617006389FA516557DE4AE8E7E70DE30729138228C5F021CD93F02D4FB0DCD0B504B0304140006080800258970573DEE336E64000000790000001B0000006175746F6465736B2D64657369676E2D7061636B6167652E786D6C35CBC10E83200C00D05F21DCA56CA76D41FC96062B120735B69A7D
311
BE268BB7777961F8D5AF396893C2ADB70FE7ADA196782C2DF776D7A97B5933C430F15651E5469C55D70F80A4992A3ADC954792C525AE70A1E4D6AD9816CC044FEFDF01FE3FDE907802504B030414000608080025897057D6EAEF36F8000000960100003700000042363933453537442D464539312D344333382D413642392D
311
3032324237373636313446342F4173736574446174612F636F72652E786D6C8550CB6E833010FC15B47703060425328E78245FD0536F9671889560233FAA7E7EED40A5F6D4D3AE66676677879CBFD667F2298C955A7580D31C12A1B89EA55A3AF0EE86DE20395362B476BF689028B68A0E220C942C46FBED80B8564EA8882A
311
3D8B0364D60A07097F86A603CBEF626529F32E30EC23DD187FB045A438DD7994782FE7432AE7E0266F5218A0ED305E87BA9D5055F70DAAFAEB80FA721CD098F7535316EDA5BA60924531254EAE3FDBB911CC891968911725C218E1FA1D37A7BC3DE1FC83649149897526FC7C2C8DDF01EDE3D513738C64FBF48FABDFE6FF5D
311
BD54AE2C0ED75D6181C6235F034AB2985228AF08438D89D26F504B03041400060808002589705704C12E88F7000000940100003500000042363933453537442D464539312D344333382D413642392D3032324237373636313446342F536368656D61732F636F72652E786D6C8550CB6E833010FC15B47703060425328E8024
311
3FD09E7AB38C43AD041BF951F5F36B0395DA534FBB9A9D99DD1D72FE5A9EC9A730566AD5014E734884E27A926AEEC0BB3B7A81E44C89D1DAFDA241A2D8223A883050321BEDD703E25A39A122AAF4240E90592B1C24FC199A0E2CFF100B4B997781611FE9CAF883CD22C5E9CEA3C47B391D523905377997C2006D87F136D4ED
311
055575DFA0AABF0DA82FC7018D797F69CAA2BD56574CB228A6C4C9E5673B37823931012DF2A24418235CBFE1E694B7279CBF932C3229B1CE849F8FA5F13BA0AFDB9D9664FBEC8FA75FA7FF3DBD54AE2C0ECF5D6181C613B7012559CC28942DC050639EF41B504B030414000608080025897057EBFE2B8E02010000D7010000
311
2D00000042363933453537442D464539312D344333382D413642392D3032324237373636313446342F636F72652E786D6C9591C172832010865F85D93B2A6A3466904C6D9327E8A9372A1BC3248223D8E9E317AA9DB6B7F604F3F3FDBBFCBBFCF83EDEC91BCE4E5BD3024B3220687AABB4195A58FC85EE811C059FADF53F30
311
20468ED8429441F061B6CBB449BD351E4D548D55B889D239F440FA7BB8B4E0FA2B8E32918B0F84BB2593EC6F72C084252B27B8D7E397B59F517A5420F22C2F28639455CFAC3E64CD81652F3C8DA4E08B36BEC8B76638BEA22276F22112881D4FD7D7402D5A6D8C56E18FFAA27106D1554D71DAD54FF47C6A182D1F8B3D7DA8
311
BA866679DED57555B1F25C8622C12CB8F37398CC5624CEE0AFF6D5F82BD932A97F265B1D0E04FB0E95C6310B9E7EEE209C7125E203504B030414000608080025897057CDEABCD107010000B201000008000000636F72652E786D6C8D50C16E842014FC15F2EEA8A8D1BA4136EAEE7E414FBD51612D590503B869FFBEB06B93
311
F6D6D32333F3DE0C438F9FCB8CEED23A65740B24C900493D1AA1F4D4C2E6AFF805D091516B8CFF2503A4F9225B8830303A59B3AD3B341AEDA58EA83642EE20774E7A40E31C1E2DB8F1432E3CE19B0F0A774B563EDEF82413923C758C7AB5FCAC8E56722F05B03CCB0B4C0826D52BA90F597320D91B4DA392D16D5362B75222
311
B8ABAB921658D30F97BE6A4EB8ACBA1A97DDA5C75D31F478C8BA535DE4CDB93C139AC665469DB7E1CFFB9190D323C7EFD197A64F8AD17763E65D10420964F4FC052CA36924FE84DE56F18FD04AFB22DF0F3E371CB018E84104E3D860188F7AC38C6DB36F504B0102140014000608080025897057E5BE6EBBBF000000200100
311
004F000000000000000000000000000000000042363933453537442D464539312D344333382D413642392D3032324237373636313446342F4173736574446174612F446566696E6974696F6E4974657261746F7250726F706572746965732E62696E504B0102140014000608080025897057716D47D8EE0000003002000045
311
000000000000000000000000002C01000042363933453537442D464539312D344333382D413642392D3032324237373636313446342F4173736574446174612F496E7374616E636550726F706572746965732E62696E504B010214001400060808002589705728BB58AF800100009E0500003D000000000000000000000000
311
007D02000042363933453537442D464539312D344333382D413642392D3032324237373636313446342F536368656D61732F436F6D6D6F6E536368656D612E786D6C504B01021400140006080800258970572CCEBD668A040000E01200003E000000000000000000000000005804000042363933453537442D464539312D34
311
4333382D413642392D3032324237373636313446342F536368656D61732F47656E65726963536368656D612E786D6C504B01021400140006080800258970576180134D5F0100006B03000045000000000000000000000000003E09000042363933453537442D464539312D344333382D413642392D30323242373736363134
311
46342F536368656D61732F52656E6465724D6174657269616C536368656D612E786D6C504B010214001400060808002589705777B7FF8B4F000000570000004700000000000000000000000000000B000042363933453537442D464539312D344333382D413642392D3032324237373636313446342F417373657444617461
311
2F41737365745461626C654F66436F6E74656E74732E62696E504B0102140014000608080025897057F865834058000000680000004500000000000000000000000000B40B000042363933453537442D464539312D344333382D413642392D3032324237373636313446342F4173736574446174612F53747265616D566572
311
73696F6E5461626C652E696E66504B0102140014000608080025897057C9A388DD340100009A04000036000000000000000000000000006F0C000042363933453537442D464539312D344333382D413642392D3032324237373636313446342F4173736574446174612F636E782E786D6C504B010214001400060808002589
311
70570F09851D080100004F0300003400000000000000000000000000F70D000042363933453537442D464539312D344333382D413642392D3032324237373636313446342F536368656D61732F636E782E786D6C504B0102140014000608080025897057410A3D5871000000A40000002C0000000000000000000000000051
311
0F000042363933453537442D464539312D344333382D413642392D3032324237373636313446342F636E782E786D6C504B0102140014000608080025897057C8CD814480000000A300000007000000000000000000000000000C100000636E782E786D6C504B010214001400060808002589705716E99B5DA6000000350100
311
001300000000000000000000000000B11000005B436F6E74656E745F54797065735D2E786D6C504B01021400140006080800258970573DEE336E64000000790000001B00000000000000000000000000881100006175746F6465736B2D64657369676E2D7061636B6167652E786D6C504B0102140014000608080025897057
311
D6EAEF36F80000009601000037000000000000000000000000002512000042363933453537442D464539312D344333382D413642392D3032324237373636313446342F4173736574446174612F636F72652E786D6C504B010214001400060808002589705704C12E88F7000000940100003500000000000000000000000000
311
7213000042363933453537442D464539312D344333382D413642392D3032324237373636313446342F536368656D61732F636F72652E786D6C504B0102140014000608080025897057EBFE2B8E02010000D70100002D00000000000000000000000000BC14000042363933453537442D464539312D344333382D413642392D
311
3032324237373636313446342F636F72652E786D6C504B0102140014000608080025897057CDEABCD107010000B2010000080000000000000000000000000009160000636F72652E786D6C504B050600000000110011005A060000361700000000
310
504B030414000608080025897057000000000000000000000000370000006662782F43433545303439352D463737352D344233312D413836352D3445444543393143463438462F617474726962757465732E62696E504B030414000608080025897057000000000000000000000000350000006662782F4343354530343935
310
2D463737352D344233312D413836352D3445444543393143463438462F76657274696365732E62696E504B030414000608080025897057F270F1330600000004000000360000006662782F43433545303439352D463737352D344233312D413836352D3445444543393143463438462F747269616E676C65732E62696E6366
310
60600000504B03041400060808002589705751464CB48900000043010000360000006662782F43433545303439352D463737352D344233312D413836352D3445444543393143463438462F6469726563746F72792E786D6C9D8F310EC2300C45AF127987122606C71DD918B841D4B851A43646695A717C52A85029031293A5
310
A76FBF6FACEF7DA7264E43906840EF0FA03836E242F406C6DCEE4EA06AC22492573150D1F66C60C640E8938CB705396EEDD86DE9B5042FE27813D640EA63BB001C722AF6E55CB61E4863F58284D5D3F53DD715CE1C3985E63FD7F1B7EBDD617E9F1E504B0304140006080800258970575C6947CE41070000201C0000340000
310
006662782F43433545303439352D463737352D344233312D413836352D3445444543393143463438462F6F626A656374732E786D6CDD595B6FE23814FE2B56F665F7213702B48C28A316DA111A7566346856FB169960A8B7CE454ED2D2FDF57BECD8214E03A47391564B25481DE7F89CEFDC4FA6EFF731434F84E7344DAE2C
310
DFF12C449228DDD064776595C5D6BEB4D0FB199AF2342D1AFB2C94E0985C5962D99A4D773C2D33B5B4215B5CB2F6EADDCD5F288F48422C14319CE757561E3D90183BB82CD20DC91F9D0D2EB0B3DBEE1DDFA9369A64771C670FADA332CC495200ABB09E0015C5816FFE0B22B9B3A92B3618DB827EDB0627B6B9527093519AE4
310
054EA2575CB58E1B1CE1AA755CE00F17B783D1C41E0D87813D1C0F7CFBE6EE6661FB1781371FCFE793EBDB898566D3759AB25A01194936A0C5176BE64F5D71A7165FA1D0C57794260989149A5D1B3644D1A5246F636200EB4BD11A0AA9646D2C043D853FB2AD1728064B06DA5A38FDDBB4DE74FD378090F7B1529E1361E579
310
C141D70AFBCA1FBCA95BAD1A7AA1398A714138C50C31BAE6988382606BA520838CF016410A09CCA41635BD26AF60D8E77DA98BCB6DC998F05F6B263D2D047F24452E39A3FF107EE0BE791AF004D29634292E95B0C54B06242653572E56F78281BA590189B60CEFC05A404CB12918B4F09A8B58B05C58B38F77EBFD4AC487EE
310
C3339E668417C2F2A4332BBFD31A6C9816185F0F502A5C4DDD1D50F90AD07F02E46B5ED01434C7E97EB81F6AD9394EF26DCA63D00EF290EDC19787C4E5ABABA95B3F3C43C88895C73005B7FD49981A62186737209D4D9FC0E8531E28E156116660D3F734117E0E8682580A4B10EFB7EBBD355B42308545780A33901EFEA6AE
310
B844F053D18178D3D25057F8EDA128ED306D3F3BE8EA03D80CA751AD2A43C663F88E7E0ABED78BD5C755C9B73822F7CAB117644B135A4032ED66C800DD70F96FCB4FD2233FB0748DD9E169635304C7EC5211373AD4B2526A41522FC08948C39566E4CA3D056F670C27242D73B5DE15A7A294A53C5CBF84950B779EF5A7B681
310
EA3065009DB10C927BC4692630B1664A5B7520741A82828561AE2C705769355C977116E2382D13116A5F9B629B0F8833C21281AAA4A60D5B7BAD26BBA1DB6D9943F0EA2439378054FEAC0957163E8438D6C52F275B8E2189A64948210783B3749E601C5083779AE79CB06D48192BE3704B19E49130C6D911FA3D256866AE47
310
F2F29CF24D2741D3B2B44F6A1B12802B6035483A5B55315FE99493272ACA4C99CF74363076A83AD49A0D8FA40B91293A00D5C628CD7C7C71331A4F060BFB7A319FDBC3E1F5DCBE19FBB7B63F1E8F03B8E70D46008FB21289C0215A35F31DA852943986FF150F65BC4E3065704350C09BECDD7B993DAF5C088D6E703DBCBB19
310
0C2EECB17731B187FEEDC2BEF4C617F6707277E105F3C56818042E27795AF288E4EEC0F5426D9259B23BC6551D4B45D602F9E15B410A65CDF964A7F5D516E67F1C43DB39C150E27F3588D6B1ABA320EC1B44C5A3ED108AA34791A2C208AABE4EF76905D1361F5D71EE8D71D973024F7E7C7F32F02683CBC9B836F693815A9E
310
F3C371AE4B8208FACEB208D30C47B4E84EA82D5C7AC6E937E51627F04708D0A9BFEB434EE71975484863BC23E1168B2EA123309E93A03387ED589AE73421B9ECF25E557F2D9A9E03C59499733B8C90E6614C0AFC3DF627DB86964D436C6621F4A38598089CAD0A6A83561DC8318AA2FB85C42DE57F09731C67ACEA74CF61E0
310
0F3404BAC7E9B238C1B438E209EC2DC445E86D881C5C9CA35EB3AFEB834EADB5A94FBE9BFC1178745DF30BE1D147F42F9D9C913F119F4B082AE3911F5C68459CC34A1F55883E8E95D079462FE133A1BB875E85663F9D344AB6AAA82E480C6D2C2E4ADECB5FC723EFD5412A2EB41CA271D21B8B43D9BFE90E0ED0930DDCB1F2
310
B6710CD4A1348139572F415E49D169C2521772A62746576FF0EB93CA6E52FDE178F9CB2BE6A6F3C550E8F5C101AAE52A00ABE863D4D49D55B7510FE5CFB8882090AEE4AF7D031EB1219B43636690EB2AD1757D7AAE7A5E8A801AC3C4168B387B2F2ED8570CAA86EE39773F54459B5BAD2F45627360387DE0C360DAA4F5F9C3
310
AA4505567A3FFD4560449E5B14D4EA5C74C327487D5B1E7AFE160525D1B7E589C7FF131D855660A3B38069709E320A4379B2413B9242F686B1438F6E83C7249759F9D0A5E837023D9E7EAA66AA055E33DDE3440F1806D34CF56265044351C89857965A47BFC118544C22E570CA7984364CC5300B959C5E5960B105856ECB59
310
C3384B0E0F25F5D6B8121C1B273B91EFABA7EAFF0F8FBDEABEEA3D7D70519219CE04856D26DF1340D557DD984DBF5F74CD0EC2055CAECBA216E6B070904681A05F0854C2C1D4EF51C1BB8782E2B45CBE23F7180D69AFC9FC493BA8A8DA05E63B395E6FD8E4F5E28B2B26E3CBCF2863E54EA8F354F76B50B245D7CDCA6A0A35
310
05C350626658D490F377EE179EC22BA618DD513002F4FBFE72FC873B4FE3384DAA25F75ABDA842AB0778EDB471F5C80FDA78CF1FB9720AA0C6FAE11AE7C4C19BFC111640B59C8AD96805B1610075346D1880D688D0053C66EC5F2E90AA8D1A139266D815F0C8993E024712EF7284DB3437340690E00BC095BC79B8D00B5397
310
C3107CF62F504B030414000608080025897057E49A032F3E01000046050000300000006662782F43433545303439352D463737352D344233312D413836352D3445444543393143463438462F636E782E786D6CCD944D4EC3301085AF12791F272E123F95E34A2C38010BC4CE71A6C1D4F144F604D1DB6397B48050118B4AED
310
CE1ABF91DE37F33472F53EB8E20D42B4E81B2678CD0AF0063BEBFB864DB42E6F59B1523220D237192BBC1EA061B9CC94EC034EE35CEA60AD2797ABCEFACD5CD444C1B613416485713AC68645F30283E67A22EC206E78A74973C103449C8281D44F7680B9DF04D0041D538B7A71550A518AEB4771B3ACEF96A27E9655562AD9
310
22BA596F3D41C0B130981E3E99A96595BF959C829D359980A92F67BCB55E56E95FC998DCFA7ED6D176CCBA7174D6684A63AAD010509944A007597D8A95AC32EF0FEA87FBA7BD83A2B3010C61D89E6900E2D8000EC6784AC2FFF877C2BFB1B17D4DB8E7DAF651D8D9D6C950F7698D29AEBFF79F52A47DEF2E2FF40763A7CF7C
310
3A2564CDE521EF7D9D88B8DA9DBCB4F47C01D507504B0304140006080800258970575D7227217E000000A30000000B0000006662782F636E782E786D6C4D8C410EC2201444AF42FE1E2D112C4D288D22DCA3B1B4215230588CC7174C17AEDEE46566C4F0593D7ADBF47231F4400E0D201BEE717261E9216F33E6800629528C
310
DB5F0D501857DB43D520C592627EEE6AB2F3987DB5DE85C72E9562BAA11DC3A66D19A6D713C1177E2E49DFB4EA8832949BB238D649C1EFAFB0DECB2F504B030414000608080025897057A6D797065F0000008200000007000000636E782E786D6C4DCB3B0E80201045D1AD90E9FD7516806B51190811670C8A61F982B1B0BA
310
C9C97B72CA7B1037C6D3332918DA1E04D2CAC69353902EDB8C20262D23F3F59B81A079470595414B17391D1F19B4730A5583A7ED43BBE4025D9592775E5ADFFA01504B0304140006080800258970574FEB6A7CA0000000F4000000130000005B436F6E74656E745F54797065735D2E786D6C7D8F4B0EC2300C44AF1279DFA6
310
B0400835ED02B8011730C16D239A8F121795DB93D02D6269CFBC19BBED573B8B17C564BC53B0AB1B10E4B47F18372A5878A88E20FAAEBDBD032591BD2E299898C349CAA427B2986A1FC86565F0D122E7318E32A07EE24872DF3407A9BD63725C71C980AEBDD080CBCCE2BAE6F5D69B7110E7CD57AA146008B3D1C8F92C5954
310
F993BB1BF787F39A89ABC491D09600F9FDA2FB00504B0304140006080800258970573DEE336E64000000790000001B0000006175746F6465736B2D64657369676E2D7061636B6167652E786D6C35CBC10E83200C00D05F21DCA56CA76D41FC96062B120735B69A7DBE268BB7777961F8D5AF396893C2ADB70FE7ADA196782C
310
2DF776D7A97B5933C430F15651E5469C55D70F80A4992A3ADC954792C525AE70A1E4D6AD9816CC044FEFDF01FE3FDE907802504B0304140006080800258970571FB9E1ACFA000000960100003B0000006662782F43433545303439352D463737352D344233312D413836352D3445444543393143463438462F7265736F7572
310
6365732F636F72652E786D6C8550CB6EC23010FC9568EF4EEC401E458E5128E50B7AEACD729660416CE447D5CFAF0DA9D49E7ADAD5ECCCECEEF0FDD7722B3ED1796DCD00ACA450A05176D2661E208633E9A1D80BEEAC0DBF685018B9E0001906C16767E37D859435014D468D9D7005A5F718A050B7D40CE0D5051759CA1812
310
C35FCBBB54573963C9CA274FF018F5B44AF594DCF459A303418F7DBB1D9B1369BBAE26DBD7A621236D7B420F87B17DEBFBBE3B1D7995C58207BDFC6C570E65C009444DEB0D618CB0F69D753BFAB263F483579929B80F2EFDBC2ECDDF8170E86D740A3DAF9ED33FAEF13EFDEF1AB5099B7A757D2A3C08968E7C0C04AF724AA9
310
3C224C35272ABE01504B0304140006080800258970579A0661DFF2000000B1010000310000006662782F43433545303439352D463737352D344233312D413836352D3445444543393143463438462F636F72652E786D6C8D50CB6E833010FC15B47703E61120328E5A0A5FD0536F9671A89560233FAA7E7EED40A5F696D3AE
310
C6339ED92197EFF59E7C0963A5563DE034874428AE67A9961EBCBBA216920B25466BF787068962ABE821C240C962B4DF0E886BE5848AA8D2B3384066AD7090F07B587AB0FC53AC2C65DE0586BDA51BE337B68814A73B8F1227D75F2937823931032DF2A24418237C7AC7CD39EFCE38FF20596452E2BD9C0F2B3907777995C2
310
001D867ACCABAE4653D3D4A87A2D317A694F611BDFC6A1C3C354B513C9A29812EB4CB8F9F8245EF7AC7C17FECBECB7F989CC52B9B2380C7785058A439EC70325592C308C47BB61C6B2E90F504B0304140006080800258970578901A1E255010000DD0200000C0000006662782F636F72652E786D6C8D52DB8E832014FC15C3
310
3B0AB655B7419A76BBFD827DDA378AD425553008A69FBFE0256E1FF612132473CE993933811C1E6D130DC2F452AB12E018814828AE2BA9EA12387B8305880E9418ADEDB7361029D68A12041850521BEDBA19E25A59A102AA74256690F5BDB020E28DBF94A0E79FA2653173D677F4F7B863FCCE6A11E378EAA3C43959CDA3B2
310
F26CF2268501149D8B6C7BDC5D6096E729DCBEEE76F088B202A2D3E998BD1545915FCE2409C39458D92EEADC08664505688AD20DC418E2EC1DE77BF4B2C7E88324A19392DE1AEF79160DEE00BD5D1F2499F0273ED7557FF339A9EC269DF9A6891E50ECD71B0B9424211FFF1BC37BCED00BFBFC2CBB368B85BB8706C1AD365B
310
5FA9B45B4B036B9CF0D4281A3F924C55CF3C12FCC493FEC2F33B870F8AA9DAAFC6ACBF5E9D0DEACF3B75C2C0C13E22A54DCB9A75B969C5F55C859E2C2DE35C37DAFC677AB1BA8499848749BF00504B030414000608080025897057744FC27F07010000B201000008000000636F72652E786D6C8D50416EC32010FC0AE28E0D
310
4E6CD30813394DF3829E7AA3405C141B2CC051FBFB42EC4AEDADA74533B33BC3B0E3E73482BBF6C138DB41526008B4954E193B7470895744213872E69D8BBF64105831E90E6618723678B7CC1B249D8DDA66D43AA5375084A02304724C8F0E06F9A1275188252645B815B3903731E88214AB8EB368A69F55E9B5885A415EE1
310
6A870841A47925ED013F1D087E63655672B62C466D564625777335DA438ECFB4D9F7F505356D5BA1FD735DA31E3714E1D3A96F5E28A5EDE5CCCABCCC59883EFD793B92724610C43DFBB272A5387B776EDC04299402CE8E5FC9849599F8137A99D53F421B1B77D57670DD08909314E84124E3DC601A8F7AD3CC6DF36F504B01
310
021400140006080800258970570000000000000000000000003700000000000000000000000000000000006662782F43433545303439352D463737352D344233312D413836352D3445444543393143463438462F617474726962757465732E62696E504B010214001400060808002589705700000000000000000000000035
310
00000000000000000000000000550000006662782F43433545303439352D463737352D344233312D413836352D3445444543393143463438462F76657274696365732E62696E504B0102140014000608080025897057F270F13306000000040000003600000000000000000000000000A80000006662782F43433545303439
310
352D463737352D344233312D413836352D3445444543393143463438462F747269616E676C65732E62696E504B010214001400060808002589705751464CB489000000430100003600000000000000000000000000020100006662782F43433545303439352D463737352D344233312D413836352D34454445433931434634
310
38462F6469726563746F72792E786D6C504B01021400140006080800258970575C6947CE41070000201C00003400000000000000000000000000DF0100006662782F43433545303439352D463737352D344233312D413836352D3445444543393143463438462F6F626A656374732E786D6C504B0102140014000608080025
310
897057E49A032F3E010000460500003000000000000000000000000000720900006662782F43433545303439352D463737352D344233312D413836352D3445444543393143463438462F636E782E786D6C504B01021400140006080800258970575D7227217E000000A30000000B00000000000000000000000000FE0A0000
310
6662782F636E782E786D6C504B0102140014000608080025897057A6D797065F000000820000000700000000000000000000000000A50B0000636E782E786D6C504B01021400140006080800258970574FEB6A7CA0000000F40000001300000000000000000000000000290C00005B436F6E74656E745F54797065735D2E78
310
6D6C504B01021400140006080800258970573DEE336E64000000790000001B00000000000000000000000000FA0C00006175746F6465736B2D64657369676E2D7061636B6167652E786D6C504B01021400140006080800258970571FB9E1ACFA000000960100003B00000000000000000000000000970D00006662782F4343
310
3545303439352D463737352D344233312D413836352D3445444543393143463438462F7265736F75726365732F636F72652E786D6C504B01021400140006080800258970579A0661DFF2000000B10100003100000000000000000000000000EA0E00006662782F43433545303439352D463737352D344233312D413836352D
310
3445444543393143463438462F636F72652E786D6C504B01021400140006080800258970578901A1E255010000DD0200000C000000000000000000000000002B1000006662782F636F72652E786D6C504B0102140014000608080025897057744FC27F07010000B20100000800000000000000000000000000AA110000636F
310
72652E786D6C504B0506000000000E000E0080040000D71200000000
  0
XRECORD
  5
80B2
102
{ACAD_REACTORS
330
80AD
102
}
330
80AD
100
AcDbXrecord
280
     1
270
     1
271
     1
  0
XRECORD
  5
80B1
102
{ACAD_REACTORS
330
80AD
102
}
330
80AD
100
AcDbXrecord
280
     1
270
     1
271
     1
  0
XRECORD
  5
80B3
102
{ACAD_REACTORS
330
80AD
102
}
330
80AD
100
AcDbXrecord
280
     1
270
     1
271
     1
  0
XRECORD
  5
80B0
102
{ACAD_REACTORS
330
80AD
102
}
330
80AD
100
AcDbXrecord
280
     1
270
     1
271
     1
  0
XRECORD
  5
84E5
102
{ACAD_REACTORS
330
84E4
102
}
330
84E4
100
AcDbXrecord
280
     1
102
DISPLAYNAME
  1
Imperial24
102
FLAGS
 90
        0
  0
CELLSTYLEMAP
  5
84AC
102
{ACAD_REACTORS
330
84AB
102
}
330
84AB
100
AcDbCellStyleMap
 90
        3
300
CELLSTYLE
  1
TABLEFORMAT_BEGIN
 90
        5
170
     1
 91
        0
 92
    32768
 62
   257
 93
        1
300
CONTENTFORMAT
  1
CONTENTFORMAT_BEGIN
 90
        0
 91
        0
 92
      512
 93
        0
300

 40
0.0
140
1.0
 94
        5
 62
     0
340
80E0
144
0.25
309
CONTENTFORMAT_END
171
     0
 94
        0
309
TABLEFORMAT_END
  1
CELLSTYLE_BEGIN
 90
        1
 91
        1
300
_TITLE
309
CELLSTYLE_END
300
CELLSTYLE
  1
TABLEFORMAT_BEGIN
 90
        5
170
     1
 91
        0
 92
        0
 62
   257
 93
        1
300
CONTENTFORMAT
  1
CONTENTFORMAT_BEGIN
 90
        0
 91
        0
 92
      512
 93
        0
300

 40
0.0
140
1.0
 94
        5
 62
     0
340
80E0
144
0.18
309
CONTENTFORMAT_END
171
     0
 94
        0
309
TABLEFORMAT_END
  1
CELLSTYLE_BEGIN
 90
        2
 91
        1
300
_HEADER
309
CELLSTYLE_END
300
CELLSTYLE
  1
TABLEFORMAT_BEGIN
 90
        5
170
     1
 91
        0
 92
        0
 62
   257
 93
        1
300
CONTENTFORMAT
  1
CONTENTFORMAT_BEGIN
 90
        0
 91
        0
 92
      512
 93
        0
300

 40
0.0
140
1.0
 94
        2
 62
     0
340
80E0
144
0.18
309
CONTENTFORMAT_END
171
     0
 94
        0
309
TABLEFORMAT_END
  1
CELLSTYLE_BEGIN
 90
        3
 91
        2
300
_DATA
309
CELLSTYLE_END
  0
XRECORD
  5
84E2
102
{ACAD_REACTORS
330
84AB
102
}
330
84AB
100
AcDbXrecord
280
     1
102
ACAD_ROUNDTRIP_PRE2007_TABLESTYLE
 90
      512
 91
        0
  1

 92
      512
 93
        0
  2

 94
      512
 95
        0
  3

  0
XRECORD
  5
84BD
102
{ACAD_REACTORS
330
84BC
102
}
330
84BC
100
AcDbXrecord
280
     1
102
RTVSPost2010Prop28
280
     1
102
RTVSPost2010PropOp28
 70
     1
102
RTVSPost2010Prop29
280
     1
102
RTVSPost2010PropOp29
 70
     1
102
RTVSPost2010Prop30
280
     0
102
RTVSPost2010PropOp30
 70
     1
102
RTVSPost2010Prop31
280
     0
102
RTVSPost2010PropOp31
 70
     1
102
RTVSPost2010Prop32
280
     0
102
RTVSPost2010PropOp32
 70
     1
102
RTVSPost2010Prop33
280
     0
102
RTVSPost2010PropOp33
 70
     1
102
RTVSPost2010Prop34
280
     0
102
RTVSPost2010PropOp34
 70
     1
102
RTVSPost2010Prop35
280
     0
102
RTVSPost2010PropOp35
 70
     1
102
RTVSPost2010Prop36
280
     0
102
RTVSPost2010PropOp36
 70
     1
102
RTVSPost2010Prop37
 90
       50
102
RTVSPost2010PropOp37
 70
     1
102
RTVSPost2010Prop38
140
0.0
102
RTVSPost2010PropOp38
 70
     1
102
RTVSPost2010Prop39
140
1.0
102
RTVSPost2010PropOp39
 70
     1
102
RTVSPost2010Prop40
 90
        0
102
RTVSPost2010PropOp40
 70
     1
102
RTVSPost2010Prop41ColorIndex
 90
       18
102
RTVSPost2010Prop41ColorRGB
 90
        0
102
RTVSPost2010PropOp41
 70
     1
102
RTVSPost2010Prop42
 90
       50
102
RTVSPost2010PropOp42
 70
     1
102
RTVSPost2010Prop43
 90
        3
102
RTVSPost2010PropOp43
 70
     1
102
RTVSPost2010Prop44ColorIndex
 90
        5
102
RTVSPost2010Prop44ColorRGB
 90
      255
102
RTVSPost2010PropOp44
 70
     1
102
RTVSPost2010Prop45
280
     0
102
RTVSPost2010PropOp45
 70
     1
102
RTVSPost2010Prop46
 90
       50
102
RTVSPost2010PropOp46
 70
     1
102
RTVSPost2010Prop47
 90
       50
102
RTVSPost2010PropOp47
 70
     1
102
RTVSPost2010Prop48
 90
       50
102
RTVSPost2010PropOp48
 70
     1
102
RTVSPost2010Prop49
280
     0
102
RTVSPost2010PropOp49
 70
     1
102
RTVSPost2010Prop50
 90
       50
102
RTVSPost2010PropOp50
 70
     1
102
RTVSPost2010Prop51ColorIndex
 90
      256
102
RTVSPost2010Prop51ColorRGB
 90
-16777216
102
RTVSPost2010PropOp51
 70
     0
102
RTVSPost2010Prop52
140
1.0
102
RTVSPost2010PropOp52
 70
     0
102
RTVSPost2010Prop53
 90
        2
102
RTVSPost2010PropOp53
 70
     1
102
RTVSPost2010Prop54
  1
strokes_ogs.tif
102
RTVSPost2010PropOp54
 70
     1
102
RTVSPost2010Prop55
280
     0
102
RTVSPost2010PropOp55
 70
     1
102
RTVSPost2010Prop56
140
1.0
102
RTVSPost2010PropOp56
 70
     1
102
RTVSPost2010Prop57
140
1.0
102
RTVSPost2010PropOp57
 70
     1
102
RTVSPropertyOp0
 70
     1
102
RTVSPropertyOp1
 70
     1
102
RTVSPropertyOp2
 70
     1
102
RTVSPropertyOp3
 70
     1
102
RTVSPropertyOp4
 70
     1
102
RTVSPropertyOp5
 70
     1
102
RTVSPropertyOp6
 70
     1
102
RTVSPropertyOp7
 70
     1
102
RTVSPropertyOp8
 70
     1
102
RTVSPropertyOp9
 70
     1
102
RTVSPropertyOp10
 70
     1
102
RTVSPropertyOp11
 70
     1
102
RTVSPropertyOp12
 70
     1
102
RTVSPropertyOp13
 70
     1
102
RTVSPropertyOp14
 70
     1
102
RTVSPropertyOp15
 70
     1
102
RTVSPropertyOp16
 70
     1
102
RTVSPropertyOp17
 70
     1
102
RTVSPropertyOp18
 70
     1
102
RTVSPropertyOp19
 70
     1
102
RTVSPropertyOp20
 70
     1
102
RTVSPropertyOp21
 70
     1
102
RTVSPropertyOp22
 70
     1
102
RTVSPropertyOp23
 70
     1
102
RTVSPropertyOp24
 70
     1
102
RTVSPropertyOp25
 70
     1
102
RTVSPropertyOp26
 70
     1
102
RTVSPropertyOp27
 70
     1
102
RTVSPropertyOp28
 70
     1
102
RTVSPropertyOp29
 70
     1
102
RTVSPropertyOp30
 70
     1
102
RTVSPropertyOp31
 70
     1
102
RTVSPropertyOp32
 70
     1
102
RTVSPropertyOp33
 70
     1
102
RTVSPropertyOp34
 70
     1
102
RTVSPropertyOp35
 70
     1
102
RTVSPropertyOp36
 70
     1
102
RTVSPropertyOp37
 70
     1
102
RTVSPropertyOp38
 70
     1
102
RTVSPropertyOp39
 70
     1
102
RTVSPropertyOp40
 70
     1
102
RTVSPropertyOp41
 70
     1
102
RTVSPropertyOp42
 70
     1
102
RTVSPropertyOp43
 70
     1
102
RTVSPropertyOp44
 70
     1
102
RTVSPropertyOp45
 70
     1
102
RTVSPropertyOp46
 70
     1
102
RTVSPropertyOp47
 70
     1
102
RTVSPropertyOp48
 70
     1
102
RTVSPropertyOp49
 70
     1
102
RTVSPropertyOp50
 70
     1
102
RTVSPropertyOp51
 70
     0
102
RTVSPropertyOp52
 70
     0
102
RTVSPropertyOp53
 70
     1
102
RTVSPropertyOp54
 70
     1
102
RTVSPropertyOp55
 70
     1
102
RTVSPropertyOp56
 70
     1
102
RTVSPropertyOp57
 70
     1
102
RTVSPropertyOp58
 70
     1
102
RTVSPropertyOp59
 70
     1
102
RTVSPropertyOp60
 70
     1
102
RTVSPropertyOp61
 70
     1
102
RTVSPropertyOp62
 70
     1
  0
XRECORD
  5
84BB
102
{ACAD_REACTORS
330
84BA
102
}
330
84BA
100
AcDbXrecord
280
     1
102
RTVSPost2010Prop28
280
     0
102
RTVSPost2010PropOp28
 70
     1
102
RTVSPost2010Prop29
280
     1
102
RTVSPost2010PropOp29
 70
     1
102
RTVSPost2010Prop30
280
     1
102
RTVSPost2010PropOp30
 70
     1
102
RTVSPost2010Prop31
280
     0
102
RTVSPost2010PropOp31
 70
     1
102
RTVSPost2010Prop32
280
     0
102
RTVSPost2010PropOp32
 70
     1
102
RTVSPost2010Prop33
280
     0
102
RTVSPost2010PropOp33
 70
     1
102
RTVSPost2010Prop34
280
     0
102
RTVSPost2010PropOp34
 70
     1
102
RTVSPost2010Prop35
280
     0
102
RTVSPost2010PropOp35
 70
     1
102
RTVSPost2010Prop36
280
     0
102
RTVSPost2010PropOp36
 70
     1
102
RTVSPost2010Prop37
 90
       50
102
RTVSPost2010PropOp37
 70
     1
102
RTVSPost2010Prop38
140
0.0
102
RTVSPost2010PropOp38
 70
     1
102
RTVSPost2010Prop39
140
1.0
102
RTVSPost2010PropOp39
 70
     1
102
RTVSPost2010Prop40
 90
        0
102
RTVSPost2010PropOp40
 70
     1
102
RTVSPost2010Prop41ColorIndex
 90
       18
102
RTVSPost2010Prop41ColorRGB
 90
        0
102
RTVSPost2010PropOp41
 70
     1
102
RTVSPost2010Prop42
 90
       50
102
RTVSPost2010PropOp42
 70
     1
102
RTVSPost2010Prop43
 90
        3
102
RTVSPost2010PropOp43
 70
     1
102
RTVSPost2010Prop44ColorIndex
 90
        5
102
RTVSPost2010Prop44ColorRGB
 90
      255
102
RTVSPost2010PropOp44
 70
     1
102
RTVSPost2010Prop45
280
     0
102
RTVSPost2010PropOp45
 70
     1
102
RTVSPost2010Prop46
 90
       50
102
RTVSPost2010PropOp46
 70
     1
102
RTVSPost2010Prop47
 90
       50
102
RTVSPost2010PropOp47
 70
     1
102
RTVSPost2010Prop48
 90
       50
102
RTVSPost2010PropOp48
 70
     1
102
RTVSPost2010Prop49
280
     0
102
RTVSPost2010PropOp49
 70
     1
102
RTVSPost2010Prop50
 90
       50
102
RTVSPost2010PropOp50
 70
     1
102
RTVSPost2010Prop51ColorIndex
 90
      256
102
RTVSPost2010Prop51ColorRGB
 90
-16777216
102
RTVSPost2010PropOp51
 70
     0
102
RTVSPost2010Prop52
140
1.0
102
RTVSPost2010PropOp52
 70
     0
102
RTVSPost2010Prop53
 90
        2
102
RTVSPost2010PropOp53
 70
     1
102
RTVSPost2010Prop54
  1
strokes_ogs.tif
102
RTVSPost2010PropOp54
 70
     1
102
RTVSPost2010Prop55
280
     0
102
RTVSPost2010PropOp55
 70
     1
102
RTVSPost2010Prop56
140
1.0
102
RTVSPost2010PropOp56
 70
     1
102
RTVSPost2010Prop57
140
1.0
102
RTVSPost2010PropOp57
 70
     1
102
RTVSPropertyOp0
 70
     1
102
RTVSPropertyOp1
 70
     1
102
RTVSPropertyOp2
 70
     1
102
RTVSPropertyOp3
 70
     1
102
RTVSPropertyOp4
 70
     1
102
RTVSPropertyOp5
 70
     1
102
RTVSPropertyOp6
 70
     1
102
RTVSPropertyOp7
 70
     1
102
RTVSPropertyOp8
 70
     1
102
RTVSPropertyOp9
 70
     1
102
RTVSPropertyOp10
 70
     1
102
RTVSPropertyOp11
 70
     1
102
RTVSPropertyOp12
 70
     1
102
RTVSPropertyOp13
 70
     1
102
RTVSPropertyOp14
 70
     1
102
RTVSPropertyOp15
 70
     1
102
RTVSPropertyOp16
 70
     1
102
RTVSPropertyOp17
 70
     1
102
RTVSPropertyOp18
 70
     1
102
RTVSPropertyOp19
 70
     1
102
RTVSPropertyOp20
 70
     1
102
RTVSPropertyOp21
 70
     1
102
RTVSPropertyOp22
 70
     1
102
RTVSPropertyOp23
 70
     1
102
RTVSPropertyOp24
 70
     1
102
RTVSPropertyOp25
 70
     1
102
RTVSPropertyOp26
 70
     1
102
RTVSPropertyOp27
 70
     1
102
RTVSPropertyOp28
 70
     1
102
RTVSPropertyOp29
 70
     1
102
RTVSPropertyOp30
 70
     1
102
RTVSPropertyOp31
 70
     1
102
RTVSPropertyOp32
 70
     1
102
RTVSPropertyOp33
 70
     1
102
RTVSPropertyOp34
 70
     1
102
RTVSPropertyOp35
 70
     1
102
RTVSPropertyOp36
 70
     1
102
RTVSPropertyOp37
 70
     1
102
RTVSPropertyOp38
 70
     1
102
RTVSPropertyOp39
 70
     1
102
RTVSPropertyOp40
 70
     1
102
RTVSPropertyOp41
 70
     1
102
RTVSPropertyOp42
 70
     1
102
RTVSPropertyOp43
 70
     1
102
RTVSPropertyOp44
 70
     1
102
RTVSPropertyOp45
 70
     1
102
RTVSPropertyOp46
 70
     1
102
RTVSPropertyOp47
 70
     1
102
RTVSPropertyOp48
 70
     1
102
RTVSPropertyOp49
 70
     1
102
RTVSPropertyOp50
 70
     1
102
RTVSPropertyOp51
 70
     0
102
RTVSPropertyOp52
 70
     0
102
RTVSPropertyOp53
 70
     1
102
RTVSPropertyOp54
 70
     1
102
RTVSPropertyOp55
 70
     1
102
RTVSPropertyOp56
 70
     1
102
RTVSPropertyOp57
 70
     1
102
RTVSPropertyOp58
 70
     1
102
RTVSPropertyOp59
 70
     1
102
RTVSPropertyOp60
 70
     1
102
RTVSPropertyOp61
 70
     1
102
RTVSPropertyOp62
 70
     1
  0
XRECORD
  5
84C9
102
{ACAD_REACTORS
330
84C8
102
}
330
84C8
100
AcDbXrecord
280
     1
102
RTVSPost2010Prop28
280
     0
102
RTVSPost2010PropOp28
 70
     1
102
RTVSPost2010Prop29
280
     1
102
RTVSPost2010PropOp29
 70
     1
102
RTVSPost2010Prop30
280
     1
102
RTVSPost2010PropOp30
 70
     1
102
RTVSPost2010Prop31
280
     0
102
RTVSPost2010PropOp31
 70
     1
102
RTVSPost2010Prop32
280
     0
102
RTVSPost2010PropOp32
 70
     1
102
RTVSPost2010Prop33
280
     0
102
RTVSPost2010PropOp33
 70
     1
102
RTVSPost2010Prop34
280
     0
102
RTVSPost2010PropOp34
 70
     1
102
RTVSPost2010Prop35
280
     0
102
RTVSPost2010PropOp35
 70
     1
102
RTVSPost2010Prop36
280
     0
102
RTVSPost2010PropOp36
 70
     1
102
RTVSPost2010Prop37
 90
       50
102
RTVSPost2010PropOp37
 70
     1
102
RTVSPost2010Prop38
140
0.0
102
RTVSPost2010PropOp38
 70
     1
102
RTVSPost2010Prop39
140
1.0
102
RTVSPost2010PropOp39
 70
     1
102
RTVSPost2010Prop40
 90
        0
102
RTVSPost2010PropOp40
 70
     1
102
RTVSPost2010Prop41ColorIndex
 90
       18
102
RTVSPost2010Prop41ColorRGB
 90
        0
102
RTVSPost2010PropOp41
 70
     1
102
RTVSPost2010Prop42
 90
       50
102
RTVSPost2010PropOp42
 70
     1
102
RTVSPost2010Prop43
 90
        3
102
RTVSPost2010PropOp43
 70
     1
102
RTVSPost2010Prop44ColorIndex
 90
        5
102
RTVSPost2010Prop44ColorRGB
 90
      255
102
RTVSPost2010PropOp44
 70
     1
102
RTVSPost2010Prop45
280
     0
102
RTVSPost2010PropOp45
 70
     1
102
RTVSPost2010Prop46
 90
       50
102
RTVSPost2010PropOp46
 70
     1
102
RTVSPost2010Prop47
 90
       50
102
RTVSPost2010PropOp47
 70
     1
102
RTVSPost2010Prop48
 90
       50
102
RTVSPost2010PropOp48
 70
     1
102
RTVSPost2010Prop49
280
     0
102
RTVSPost2010PropOp49
 70
     1
102
RTVSPost2010Prop50
 90
       50
102
RTVSPost2010PropOp50
 70
     1
102
RTVSPost2010Prop51ColorIndex
 90
      256
102
RTVSPost2010Prop51ColorRGB
 90
-16777216
102
RTVSPost2010PropOp51
 70
     0
102
RTVSPost2010Prop52
140
1.0
102
RTVSPost2010PropOp52
 70
     0
102
RTVSPost2010Prop53
 90
        2
102
RTVSPost2010PropOp53
 70
     1
102
RTVSPost2010Prop54
  1
strokes_ogs.tif
102
RTVSPost2010PropOp54
 70
     1
102
RTVSPost2010Prop55
280
     0
102
RTVSPost2010PropOp55
 70
     1
102
RTVSPost2010Prop56
140
1.0
102
RTVSPost2010PropOp56
 70
     1
102
RTVSPost2010Prop57
140
1.0
102
RTVSPost2010PropOp57
 70
     1
102
RTVSPropertyOp0
 70
     1
102
RTVSPropertyOp1
 70
     1
102
RTVSPropertyOp2
 70
     1
102
RTVSPropertyOp3
 70
     1
102
RTVSPropertyOp4
 70
     1
102
RTVSPropertyOp5
 70
     1
102
RTVSPropertyOp6
 70
     1
102
RTVSPropertyOp7
 70
     1
102
RTVSPropertyOp8
 70
     1
102
RTVSPropertyOp9
 70
     1
102
RTVSPropertyOp10
 70
     1
102
RTVSPropertyOp11
 70
     1
102
RTVSPropertyOp12
 70
     1
102
RTVSPropertyOp13
 70
     1
102
RTVSPropertyOp14
 70
     1
102
RTVSPropertyOp15
 70
     1
102
RTVSPropertyOp16
 70
     1
102
RTVSPropertyOp17
 70
     1
102
RTVSPropertyOp18
 70
     1
102
RTVSPropertyOp19
 70
     1
102
RTVSPropertyOp20
 70
     1
102
RTVSPropertyOp21
 70
     1
102
RTVSPropertyOp22
 70
     1
102
RTVSPropertyOp23
 70
     1
102
RTVSPropertyOp24
 70
     1
102
RTVSPropertyOp25
 70
     1
102
RTVSPropertyOp26
 70
     1
102
RTVSPropertyOp27
 70
     1
102
RTVSPropertyOp28
 70
     1
102
RTVSPropertyOp29
 70
     1
102
RTVSPropertyOp30
 70
     1
102
RTVSPropertyOp31
 70
     1
102
RTVSPropertyOp32
 70
     1
102
RTVSPropertyOp33
 70
     1
102
RTVSPropertyOp34
 70
     1
102
RTVSPropertyOp35
 70
     1
102
RTVSPropertyOp36
 70
     1
102
RTVSPropertyOp37
 70
     1
102
RTVSPropertyOp38
 70
     1
102
RTVSPropertyOp39
 70
     1
102
RTVSPropertyOp40
 70
     1
102
RTVSPropertyOp41
 70
     1
102
RTVSPropertyOp42
 70
     1
102
RTVSPropertyOp43
 70
     1
102
RTVSPropertyOp44
 70
     1
102
RTVSPropertyOp45
 70
     1
102
RTVSPropertyOp46
 70
     1
102
RTVSPropertyOp47
 70
     1
102
RTVSPropertyOp48
 70
     1
102
RTVSPropertyOp49
 70
     1
102
RTVSPropertyOp50
 70
     1
102
RTVSPropertyOp51
 70
     0
102
RTVSPropertyOp52
 70
     0
102
RTVSPropertyOp53
 70
     1
102
RTVSPropertyOp54
 70
     1
102
RTVSPropertyOp55
 70
     1
102
RTVSPropertyOp56
 70
     1
102
RTVSPropertyOp57
 70
     1
102
RTVSPropertyOp58
 70
     1
102
RTVSPropertyOp59
 70
     1
102
RTVSPropertyOp60
 70
     1
102
RTVSPropertyOp61
 70
     1
102
RTVSPropertyOp62
 70
     1
  0
XRECORD
  5
84D1
102
{ACAD_REACTORS
330
84D0
102
}
330
84D0
100
AcDbXrecord
280
     1
102
RTVSPost2010Prop28
280
     0
102
RTVSPost2010PropOp28
 70
     1
102
RTVSPost2010Prop29
280
     1
102
RTVSPost2010PropOp29
 70
     1
102
RTVSPost2010Prop30
280
     1
102
RTVSPost2010PropOp30
 70
     1
102
RTVSPost2010Prop31
280
     0
102
RTVSPost2010PropOp31
 70
     1
102
RTVSPost2010Prop32
280
     0
102
RTVSPost2010PropOp32
 70
     1
102
RTVSPost2010Prop33
280
     0
102
RTVSPost2010PropOp33
 70
     1
102
RTVSPost2010Prop34
280
     0
102
RTVSPost2010PropOp34
 70
     1
102
RTVSPost2010Prop35
280
     0
102
RTVSPost2010PropOp35
 70
     1
102
RTVSPost2010Prop36
280
     0
102
RTVSPost2010PropOp36
 70
     1
102
RTVSPost2010Prop37
 90
       50
102
RTVSPost2010PropOp37
 70
     1
102
RTVSPost2010Prop38
140
0.0
102
RTVSPost2010PropOp38
 70
     1
102
RTVSPost2010Prop39
140
1.0
102
RTVSPost2010PropOp39
 70
     1
102
RTVSPost2010Prop40
 90
        0
102
RTVSPost2010PropOp40
 70
     1
102
RTVSPost2010Prop41ColorIndex
 90
       18
102
RTVSPost2010Prop41ColorRGB
 90
        0
102
RTVSPost2010PropOp41
 70
     1
102
RTVSPost2010Prop42
 90
       50
102
RTVSPost2010PropOp42
 70
     1
102
RTVSPost2010Prop43
 90
        3
102
RTVSPost2010PropOp43
 70
     1
102
RTVSPost2010Prop44ColorIndex
 90
        5
102
RTVSPost2010Prop44ColorRGB
 90
      255
102
RTVSPost2010PropOp44
 70
     1
102
RTVSPost2010Prop45
280
     0
102
RTVSPost2010PropOp45
 70
     1
102
RTVSPost2010Prop46
 90
       50
102
RTVSPost2010PropOp46
 70
     1
102
RTVSPost2010Prop47
 90
       50
102
RTVSPost2010PropOp47
 70
     1
102
RTVSPost2010Prop48
 90
       50
102
RTVSPost2010PropOp48
 70
     1
102
RTVSPost2010Prop49
280
     0
102
RTVSPost2010PropOp49
 70
     1
102
RTVSPost2010Prop50
 90
       50
102
RTVSPost2010PropOp50
 70
     1
102
RTVSPost2010Prop51ColorIndex
 90
      256
102
RTVSPost2010Prop51ColorRGB
 90
-16777216
102
RTVSPost2010PropOp51
 70
     0
102
RTVSPost2010Prop52
140
1.0
102
RTVSPost2010PropOp52
 70
     0
102
RTVSPost2010Prop53
 90
        2
102
RTVSPost2010PropOp53
 70
     1
102
RTVSPost2010Prop54
  1
strokes_ogs.tif
102
RTVSPost2010PropOp54
 70
     1
102
RTVSPost2010Prop55
280
     0
102
RTVSPost2010PropOp55
 70
     1
102
RTVSPost2010Prop56
140
1.0
102
RTVSPost2010PropOp56
 70
     1
102
RTVSPost2010Prop57
140
1.0
102
RTVSPost2010PropOp57
 70
     1
102
RTVSPropertyOp0
 70
     1
102
RTVSPropertyOp1
 70
     1
102
RTVSPropertyOp2
 70
     1
102
RTVSPropertyOp3
 70
     1
102
RTVSPropertyOp4
 70
     1
102
RTVSPropertyOp5
 70
     1
102
RTVSPropertyOp6
 70
     1
102
RTVSPropertyOp7
 70
     1
102
RTVSPropertyOp8
 70
     1
102
RTVSPropertyOp9
 70
     1
102
RTVSPropertyOp10
 70
     1
102
RTVSPropertyOp11
 70
     1
102
RTVSPropertyOp12
 70
     1
102
RTVSPropertyOp13
 70
     1
102
RTVSPropertyOp14
 70
     1
102
RTVSPropertyOp15
 70
     1
102
RTVSPropertyOp16
 70
     1
102
RTVSPropertyOp17
 70
     1
102
RTVSPropertyOp18
 70
     1
102
RTVSPropertyOp19
 70
     1
102
RTVSPropertyOp20
 70
     1
102
RTVSPropertyOp21
 70
     1
102
RTVSPropertyOp22
 70
     1
102
RTVSPropertyOp23
 70
     1
102
RTVSPropertyOp24
 70
     1
102
RTVSPropertyOp25
 70
     1
102
RTVSPropertyOp26
 70
     1
102
RTVSPropertyOp27
 70
     1
102
RTVSPropertyOp28
 70
     1
102
RTVSPropertyOp29
 70
     1
102
RTVSPropertyOp30
 70
     1
102
RTVSPropertyOp31
 70
     1
102
RTVSPropertyOp32
 70
     1
102
RTVSPropertyOp33
 70
     1
102
RTVSPropertyOp34
 70
     1
102
RTVSPropertyOp35
 70
     1
102
RTVSPropertyOp36
 70
     1
102
RTVSPropertyOp37
 70
     1
102
RTVSPropertyOp38
 70
     1
102
RTVSPropertyOp39
 70
     1
102
RTVSPropertyOp40
 70
     1
102
RTVSPropertyOp41
 70
     1
102
RTVSPropertyOp42
 70
     1
102
RTVSPropertyOp43
 70
     1
102
RTVSPropertyOp44
 70
     1
102
RTVSPropertyOp45
 70
     1
102
RTVSPropertyOp46
 70
     1
102
RTVSPropertyOp47
 70
     1
102
RTVSPropertyOp48
 70
     1
102
RTVSPropertyOp49
 70
     1
102
RTVSPropertyOp50
 70
     1
102
RTVSPropertyOp51
 70
     0
102
RTVSPropertyOp52
 70
     0
102
RTVSPropertyOp53
 70
     1
102
RTVSPropertyOp54
 70
     1
102
RTVSPropertyOp55
 70
     1
102
RTVSPropertyOp56
 70
     1
102
RTVSPropertyOp57
 70
     1
102
RTVSPropertyOp58
 70
     1
102
RTVSPropertyOp59
 70
     1
102
RTVSPropertyOp60
 70
     1
102
RTVSPropertyOp61
 70
     1
102
RTVSPropertyOp62
 70
     1
  0
XRECORD
  5
84C3
102
{ACAD_REACTORS
330
84C2
102
}
330
84C2
100
AcDbXrecord
280
     1
102
RTVSPost2010Prop28
280
     0
102
RTVSPost2010PropOp28
 70
     1
102
RTVSPost2010Prop29
280
     1
102
RTVSPost2010PropOp29
 70
     1
102
RTVSPost2010Prop30
280
     1
102
RTVSPost2010PropOp30
 70
     1
102
RTVSPost2010Prop31
280
     0
102
RTVSPost2010PropOp31
 70
     1
102
RTVSPost2010Prop32
280
     0
102
RTVSPost2010PropOp32
 70
     1
102
RTVSPost2010Prop33
280
     0
102
RTVSPost2010PropOp33
 70
     1
102
RTVSPost2010Prop34
280
     0
102
RTVSPost2010PropOp34
 70
     1
102
RTVSPost2010Prop35
280
     0
102
RTVSPost2010PropOp35
 70
     1
102
RTVSPost2010Prop36
280
     0
102
RTVSPost2010PropOp36
 70
     1
102
RTVSPost2010Prop37
 90
       50
102
RTVSPost2010PropOp37
 70
     1
102
RTVSPost2010Prop38
140
0.0
102
RTVSPost2010PropOp38
 70
     1
102
RTVSPost2010Prop39
140
1.0
102
RTVSPost2010PropOp39
 70
     1
102
RTVSPost2010Prop40
 90
        0
102
RTVSPost2010PropOp40
 70
     1
102
RTVSPost2010Prop41ColorIndex
 90
       18
102
RTVSPost2010Prop41ColorRGB
 90
        0
102
RTVSPost2010PropOp41
 70
     1
102
RTVSPost2010Prop42
 90
       50
102
RTVSPost2010PropOp42
 70
     1
102
RTVSPost2010Prop43
 90
        3
102
RTVSPost2010PropOp43
 70
     1
102
RTVSPost2010Prop44ColorIndex
 90
        5
102
RTVSPost2010Prop44ColorRGB
 90
      255
102
RTVSPost2010PropOp44
 70
     1
102
RTVSPost2010Prop45
280
     0
102
RTVSPost2010PropOp45
 70
     1
102
RTVSPost2010Prop46
 90
       50
102
RTVSPost2010PropOp46
 70
     1
102
RTVSPost2010Prop47
 90
       50
102
RTVSPost2010PropOp47
 70
     1
102
RTVSPost2010Prop48
 90
       50
102
RTVSPost2010PropOp48
 70
     1
102
RTVSPost2010Prop49
280
     0
102
RTVSPost2010PropOp49
 70
     1
102
RTVSPost2010Prop50
 90
       50
102
RTVSPost2010PropOp50
 70
     1
102
RTVSPost2010Prop51ColorIndex
 90
      256
102
RTVSPost2010Prop51ColorRGB
 90
-16777216
102
RTVSPost2010PropOp51
 70
     0
102
RTVSPost2010Prop52
140
1.0
102
RTVSPost2010PropOp52
 70
     0
102
RTVSPost2010Prop53
 90
        2
102
RTVSPost2010PropOp53
 70
     1
102
RTVSPost2010Prop54
  1
strokes_ogs.tif
102
RTVSPost2010PropOp54
 70
     1
102
RTVSPost2010Prop55
280
     0
102
RTVSPost2010PropOp55
 70
     1
102
RTVSPost2010Prop56
140
1.0
102
RTVSPost2010PropOp56
 70
     1
102
RTVSPost2010Prop57
140
1.0
102
RTVSPost2010PropOp57
 70
     1
102
RTVSPropertyOp0
 70
     1
102
RTVSPropertyOp1
 70
     1
102
RTVSPropertyOp2
 70
     1
102
RTVSPropertyOp3
 70
     1
102
RTVSPropertyOp4
 70
     1
102
RTVSPropertyOp5
 70
     1
102
RTVSPropertyOp6
 70
     1
102
RTVSPropertyOp7
 70
     1
102
RTVSPropertyOp8
 70
     1
102
RTVSPropertyOp9
 70
     1
102
RTVSPropertyOp10
 70
     1
102
RTVSPropertyOp11
 70
     1
102
RTVSPropertyOp12
 70
     1
102
RTVSPropertyOp13
 70
     1
102
RTVSPropertyOp14
 70
     1
102
RTVSPropertyOp15
 70
     1
102
RTVSPropertyOp16
 70
     1
102
RTVSPropertyOp17
 70
     1
102
RTVSPropertyOp18
 70
     1
102
RTVSPropertyOp19
 70
     1
102
RTVSPropertyOp20
 70
     1
102
RTVSPropertyOp21
 70
     1
102
RTVSPropertyOp22
 70
     1
102
RTVSPropertyOp23
 70
     1
102
RTVSPropertyOp24
 70
     1
102
RTVSPropertyOp25
 70
     1
102
RTVSPropertyOp26
 70
     1
102
RTVSPropertyOp27
 70
     1
102
RTVSPropertyOp28
 70
     1
102
RTVSPropertyOp29
 70
     1
102
RTVSPropertyOp30
 70
     1
102
RTVSPropertyOp31
 70
     1
102
RTVSPropertyOp32
 70
     1
102
RTVSPropertyOp33
 70
     1
102
RTVSPropertyOp34
 70
     1
102
RTVSPropertyOp35
 70
     1
102
RTVSPropertyOp36
 70
     1
102
RTVSPropertyOp37
 70
     1
102
RTVSPropertyOp38
 70
     1
102
RTVSPropertyOp39
 70
     1
102
RTVSPropertyOp40
 70
     1
102
RTVSPropertyOp41
 70
     1
102
RTVSPropertyOp42
 70
     1
102
RTVSPropertyOp43
 70
     1
102
RTVSPropertyOp44
 70
     1
102
RTVSPropertyOp45
 70
     1
102
RTVSPropertyOp46
 70
     1
102
RTVSPropertyOp47
 70
     1
102
RTVSPropertyOp48
 70
     1
102
RTVSPropertyOp49
 70
     1
102
RTVSPropertyOp50
 70
     1
102
RTVSPropertyOp51
 70
     0
102
RTVSPropertyOp52
 70
     0
102
RTVSPropertyOp53
 70
     1
102
RTVSPropertyOp54
 70
     1
102
RTVSPropertyOp55
 70
     1
102
RTVSPropertyOp56
 70
     1
102
RTVSPropertyOp57
 70
     1
102
RTVSPropertyOp58
 70
     1
102
RTVSPropertyOp59
 70
     1
102
RTVSPropertyOp60
 70
     1
102
RTVSPropertyOp61
 70
     1
102
RTVSPropertyOp62
 70
     1
  0
XRECORD
  5
84C7
102
{ACAD_REACTORS
330
84C6
102
}
330
84C6
100
AcDbXrecord
280
     1
102
RTVSPost2010Prop28
280
     0
102
RTVSPost2010PropOp28
 70
     1
102
RTVSPost2010Prop29
280
     1
102
RTVSPost2010PropOp29
 70
     1
102
RTVSPost2010Prop30
280
     1
102
RTVSPost2010PropOp30
 70
     1
102
RTVSPost2010Prop31
280
     0
102
RTVSPost2010PropOp31
 70
     1
102
RTVSPost2010Prop32
280
     0
102
RTVSPost2010PropOp32
 70
     1
102
RTVSPost2010Prop33
280
     0
102
RTVSPost2010PropOp33
 70
     1
102
RTVSPost2010Prop34
280
     0
102
RTVSPost2010PropOp34
 70
     1
102
RTVSPost2010Prop35
280
     0
102
RTVSPost2010PropOp35
 70
     1
102
RTVSPost2010Prop36
280
     0
102
RTVSPost2010PropOp36
 70
     1
102
RTVSPost2010Prop37
 90
       50
102
RTVSPost2010PropOp37
 70
     1
102
RTVSPost2010Prop38
140
0.0
102
RTVSPost2010PropOp38
 70
     1
102
RTVSPost2010Prop39
140
1.0
102
RTVSPost2010PropOp39
 70
     1
102
RTVSPost2010Prop40
 90
        0
102
RTVSPost2010PropOp40
 70
     1
102
RTVSPost2010Prop41ColorIndex
 90
       18
102
RTVSPost2010Prop41ColorRGB
 90
        0
102
RTVSPost2010PropOp41
 70
     1
102
RTVSPost2010Prop42
 90
       50
102
RTVSPost2010PropOp42
 70
     1
102
RTVSPost2010Prop43
 90
        3
102
RTVSPost2010PropOp43
 70
     1
102
RTVSPost2010Prop44ColorIndex
 90
        5
102
RTVSPost2010Prop44ColorRGB
 90
      255
102
RTVSPost2010PropOp44
 70
     1
102
RTVSPost2010Prop45
280
     0
102
RTVSPost2010PropOp45
 70
     1
102
RTVSPost2010Prop46
 90
       50
102
RTVSPost2010PropOp46
 70
     1
102
RTVSPost2010Prop47
 90
       50
102
RTVSPost2010PropOp47
 70
     1
102
RTVSPost2010Prop48
 90
       50
102
RTVSPost2010PropOp48
 70
     1
102
RTVSPost2010Prop49
280
     0
102
RTVSPost2010PropOp49
 70
     1
102
RTVSPost2010Prop50
 90
       50
102
RTVSPost2010PropOp50
 70
     1
102
RTVSPost2010Prop51ColorIndex
 90
      256
102
RTVSPost2010Prop51ColorRGB
 90
-16777216
102
RTVSPost2010PropOp51
 70
     0
102
RTVSPost2010Prop52
140
1.0
102
RTVSPost2010PropOp52
 70
     0
102
RTVSPost2010Prop53
 90
        2
102
RTVSPost2010PropOp53
 70
     1
102
RTVSPost2010Prop54
  1
strokes_ogs.tif
102
RTVSPost2010PropOp54
 70
     1
102
RTVSPost2010Prop55
280
     0
102
RTVSPost2010PropOp55
 70
     1
102
RTVSPost2010Prop56
140
1.0
102
RTVSPost2010PropOp56
 70
     1
102
RTVSPost2010Prop57
140
1.0
102
RTVSPost2010PropOp57
 70
     1
102
RTVSPropertyOp0
 70
     1
102
RTVSPropertyOp1
 70
     1
102
RTVSPropertyOp2
 70
     1
102
RTVSPropertyOp3
 70
     1
102
RTVSPropertyOp4
 70
     1
102
RTVSPropertyOp5
 70
     1
102
RTVSPropertyOp6
 70
     1
102
RTVSPropertyOp7
 70
     1
102
RTVSPropertyOp8
 70
     1
102
RTVSPropertyOp9
 70
     1
102
RTVSPropertyOp10
 70
     1
102
RTVSPropertyOp11
 70
     1
102
RTVSPropertyOp12
 70
     1
102
RTVSPropertyOp13
 70
     1
102
RTVSPropertyOp14
 70
     1
102
RTVSPropertyOp15
 70
     1
102
RTVSPropertyOp16
 70
     1
102
RTVSPropertyOp17
 70
     1
102
RTVSPropertyOp18
 70
     1
102
RTVSPropertyOp19
 70
     1
102
RTVSPropertyOp20
 70
     1
102
RTVSPropertyOp21
 70
     1
102
RTVSPropertyOp22
 70
     1
102
RTVSPropertyOp23
 70
     1
102
RTVSPropertyOp24
 70
     1
102
RTVSPropertyOp25
 70
     1
102
RTVSPropertyOp26
 70
     1
102
RTVSPropertyOp27
 70
     1
102
RTVSPropertyOp28
 70
     1
102
RTVSPropertyOp29
 70
     1
102
RTVSPropertyOp30
 70
     1
102
RTVSPropertyOp31
 70
     1
102
RTVSPropertyOp32
 70
     1
102
RTVSPropertyOp33
 70
     1
102
RTVSPropertyOp34
 70
     1
102
RTVSPropertyOp35
 70
     1
102
RTVSPropertyOp36
 70
     1
102
RTVSPropertyOp37
 70
     1
102
RTVSPropertyOp38
 70
     1
102
RTVSPropertyOp39
 70
     1
102
RTVSPropertyOp40
 70
     1
102
RTVSPropertyOp41
 70
     1
102
RTVSPropertyOp42
 70
     1
102
RTVSPropertyOp43
 70
     1
102
RTVSPropertyOp44
 70
     1
102
RTVSPropertyOp45
 70
     1
102
RTVSPropertyOp46
 70
     1
102
RTVSPropertyOp47
 70
     1
102
RTVSPropertyOp48
 70
     1
102
RTVSPropertyOp49
 70
     1
102
RTVSPropertyOp50
 70
     1
102
RTVSPropertyOp51
 70
     0
102
RTVSPropertyOp52
 70
     0
102
RTVSPropertyOp53
 70
     1
102
RTVSPropertyOp54
 70
     1
102
RTVSPropertyOp55
 70
     1
102
RTVSPropertyOp56
 70
     1
102
RTVSPropertyOp57
 70
     1
102
RTVSPropertyOp58
 70
     1
102
RTVSPropertyOp59
 70
     1
102
RTVSPropertyOp60
 70
     1
102
RTVSPropertyOp61
 70
     1
102
RTVSPropertyOp62
 70
     1
  0
XRECORD
  5
84E1
102
{ACAD_REACTORS
330
84E0
102
}
330
84E0
100
AcDbXrecord
280
     1
102
RTVSPost2010Prop28
280
     0
102
RTVSPost2010PropOp28
 70
     1
102
RTVSPost2010Prop29
280
     1
102
RTVSPost2010PropOp29
 70
     1
102
RTVSPost2010Prop30
280
     1
102
RTVSPost2010PropOp30
 70
     1
102
RTVSPost2010Prop31
280
     0
102
RTVSPost2010PropOp31
 70
     1
102
RTVSPost2010Prop32
280
     0
102
RTVSPost2010PropOp32
 70
     1
102
RTVSPost2010Prop33
280
     0
102
RTVSPost2010PropOp33
 70
     1
102
RTVSPost2010Prop34
280
     0
102
RTVSPost2010PropOp34
 70
     1
102
RTVSPost2010Prop35
280
     0
102
RTVSPost2010PropOp35
 70
     1
102
RTVSPost2010Prop36
280
     0
102
RTVSPost2010PropOp36
 70
     1
102
RTVSPost2010Prop37
 90
       50
102
RTVSPost2010PropOp37
 70
     0
102
RTVSPost2010Prop38
140
0.0
102
RTVSPost2010PropOp38
 70
     0
102
RTVSPost2010Prop39
140
1.0
102
RTVSPost2010PropOp39
 70
     0
102
RTVSPost2010Prop40
 90
        0
102
RTVSPost2010PropOp40
 70
     0
102
RTVSPost2010Prop41ColorIndex
 90
       18
102
RTVSPost2010Prop41ColorRGB
 90
        0
102
RTVSPost2010PropOp41
 70
     0
102
RTVSPost2010Prop42
 90
       50
102
RTVSPost2010PropOp42
 70
     0
102
RTVSPost2010Prop43
 90
        3
102
RTVSPost2010PropOp43
 70
     0
102
RTVSPost2010Prop44ColorIndex
 90
        5
102
RTVSPost2010Prop44ColorRGB
 90
      255
102
RTVSPost2010PropOp44
 70
     0
102
RTVSPost2010Prop45
280
     0
102
RTVSPost2010PropOp45
 70
     1
102
RTVSPost2010Prop46
 90
       50
102
RTVSPost2010PropOp46
 70
     0
102
RTVSPost2010Prop47
 90
       50
102
RTVSPost2010PropOp47
 70
     0
102
RTVSPost2010Prop48
 90
       50
102
RTVSPost2010PropOp48
 70
     0
102
RTVSPost2010Prop49
280
     0
102
RTVSPost2010PropOp49
 70
     1
102
RTVSPost2010Prop50
 90
       50
102
RTVSPost2010PropOp50
 70
     0
102
RTVSPost2010Prop51ColorIndex
 90
      256
102
RTVSPost2010Prop51ColorRGB
 90
-16777216
102
RTVSPost2010PropOp51
 70
     0
102
RTVSPost2010Prop52
140
1.0
102
RTVSPost2010PropOp52
 70
     0
102
RTVSPost2010Prop53
 90
        2
102
RTVSPost2010PropOp53
 70
     0
102
RTVSPost2010Prop54
  1
strokes_ogs.tif
102
RTVSPost2010PropOp54
 70
     0
102
RTVSPost2010Prop55
280
     0
102
RTVSPost2010PropOp55
 70
     1
102
RTVSPost2010Prop56
140
1.0
102
RTVSPost2010PropOp56
 70
     0
102
RTVSPost2010Prop57
140
1.0
102
RTVSPost2010PropOp57
 70
     0
102
RTVSPropertyOp0
 70
     0
102
RTVSPropertyOp1
 70
     0
102
RTVSPropertyOp2
 70
     0
102
RTVSPropertyOp3
 70
     0
102
RTVSPropertyOp4
 70
     0
102
RTVSPropertyOp5
 70
     0
102
RTVSPropertyOp6
 70
     0
102
RTVSPropertyOp7
 70
     0
102
RTVSPropertyOp8
 70
     0
102
RTVSPropertyOp9
 70
     0
102
RTVSPropertyOp10
 70
     0
102
RTVSPropertyOp11
 70
     0
102
RTVSPropertyOp12
 70
     0
102
RTVSPropertyOp13
 70
     0
102
RTVSPropertyOp14
 70
     2
102
RTVSPropertyOp15
 70
     0
102
RTVSPropertyOp16
 70
     0
102
RTVSPropertyOp17
 70
     0
102
RTVSPropertyOp18
 70
     0
102
RTVSPropertyOp19
 70
     0
102
RTVSPropertyOp20
 70
     0
102
RTVSPropertyOp21
 70
     0
102
RTVSPropertyOp22
 70
     0
102
RTVSPropertyOp23
 70
     0
102
RTVSPropertyOp24
 70
     0
102
RTVSPropertyOp25
 70
     0
102
RTVSPropertyOp26
 70
     0
102
RTVSPropertyOp27
 70
     0
102
RTVSPropertyOp28
 70
     1
102
RTVSPropertyOp29
 70
     1
102
RTVSPropertyOp30
 70
     1
102
RTVSPropertyOp31
 70
     1
102
RTVSPropertyOp32
 70
     1
102
RTVSPropertyOp33
 70
     1
102
RTVSPropertyOp34
 70
     1
102
RTVSPropertyOp35
 70
     1
102
RTVSPropertyOp36
 70
     1
102
RTVSPropertyOp37
 70
     0
102
RTVSPropertyOp38
 70
     0
102
RTVSPropertyOp39
 70
     0
102
RTVSPropertyOp40
 70
     0
102
RTVSPropertyOp41
 70
     0
102
RTVSPropertyOp42
 70
     0
102
RTVSPropertyOp43
 70
     0
102
RTVSPropertyOp44
 70
     0
102
RTVSPropertyOp45
 70
     1
102
RTVSPropertyOp46
 70
     0
102
RTVSPropertyOp47
 70
     0
102
RTVSPropertyOp48
 70
     0
102
RTVSPropertyOp49
 70
     1
102
RTVSPropertyOp50
 70
     0
102
RTVSPropertyOp51
 70
     0
102
RTVSPropertyOp52
 70
     0
102
RTVSPropertyOp53
 70
     0
102
RTVSPropertyOp54
 70
     0
102
RTVSPropertyOp55
 70
     1
102
RTVSPropertyOp56
 70
     0
102
RTVSPropertyOp57
 70
     0
102
RTVSPropertyOp58
 70
     0
102
RTVSPropertyOp59
 70
     0
102
RTVSPropertyOp60
 70
     0
102
RTVSPropertyOp61
 70
     0
102
RTVSPropertyOp62
 70
     0
  0
XRECORD
  5
84CF
102
{ACAD_REACTORS
330
84CE
102
}
330
84CE
100
AcDbXrecord
280
     1
102
RTVSPost2010Prop28
280
     0
102
RTVSPost2010PropOp28
 70
     1
102
RTVSPost2010Prop29
280
     1
102
RTVSPost2010PropOp29
 70
     1
102
RTVSPost2010Prop30
280
     1
102
RTVSPost2010PropOp30
 70
     1
102
RTVSPost2010Prop31
280
     0
102
RTVSPost2010PropOp31
 70
     1
102
RTVSPost2010Prop32
280
     0
102
RTVSPost2010PropOp32
 70
     1
102
RTVSPost2010Prop33
280
     0
102
RTVSPost2010PropOp33
 70
     1
102
RTVSPost2010Prop34
280
     0
102
RTVSPost2010PropOp34
 70
     1
102
RTVSPost2010Prop35
280
     0
102
RTVSPost2010PropOp35
 70
     1
102
RTVSPost2010Prop36
280
     0
102
RTVSPost2010PropOp36
 70
     1
102
RTVSPost2010Prop37
 90
       50
102
RTVSPost2010PropOp37
 70
     1
102
RTVSPost2010Prop38
140
0.0
102
RTVSPost2010PropOp38
 70
     1
102
RTVSPost2010Prop39
140
1.0
102
RTVSPost2010PropOp39
 70
     1
102
RTVSPost2010Prop40
 90
        0
102
RTVSPost2010PropOp40
 70
     1
102
RTVSPost2010Prop41ColorIndex
 90
       18
102
RTVSPost2010Prop41ColorRGB
 90
        0
102
RTVSPost2010PropOp41
 70
     1
102
RTVSPost2010Prop42
 90
       50
102
RTVSPost2010PropOp42
 70
     1
102
RTVSPost2010Prop43
 90
        3
102
RTVSPost2010PropOp43
 70
     1
102
RTVSPost2010Prop44ColorIndex
 90
        5
102
RTVSPost2010Prop44ColorRGB
 90
      255
102
RTVSPost2010PropOp44
 70
     1
102
RTVSPost2010Prop45
280
     0
102
RTVSPost2010PropOp45
 70
     1
102
RTVSPost2010Prop46
 90
       50
102
RTVSPost2010PropOp46
 70
     1
102
RTVSPost2010Prop47
 90
       50
102
RTVSPost2010PropOp47
 70
     1
102
RTVSPost2010Prop48
 90
       50
102
RTVSPost2010PropOp48
 70
     1
102
RTVSPost2010Prop49
280
     0
102
RTVSPost2010PropOp49
 70
     1
102
RTVSPost2010Prop50
 90
       50
102
RTVSPost2010PropOp50
 70
     1
102
RTVSPost2010Prop51ColorIndex
 90
      256
102
RTVSPost2010Prop51ColorRGB
 90
-16777216
102
RTVSPost2010PropOp51
 70
     0
102
RTVSPost2010Prop52
140
1.0
102
RTVSPost2010PropOp52
 70
     0
102
RTVSPost2010Prop53
 90
        2
102
RTVSPost2010PropOp53
 70
     1
102
RTVSPost2010Prop54
  1
strokes_ogs.tif
102
RTVSPost2010PropOp54
 70
     1
102
RTVSPost2010Prop55
280
     0
102
RTVSPost2010PropOp55
 70
     1
102
RTVSPost2010Prop56
140
1.0
102
RTVSPost2010PropOp56
 70
     1
102
RTVSPost2010Prop57
140
1.0
102
RTVSPost2010PropOp57
 70
     1
102
RTVSPropertyOp0
 70
     1
102
RTVSPropertyOp1
 70
     1
102
RTVSPropertyOp2
 70
     1
102
RTVSPropertyOp3
 70
     1
102
RTVSPropertyOp4
 70
     1
102
RTVSPropertyOp5
 70
     1
102
RTVSPropertyOp6
 70
     1
102
RTVSPropertyOp7
 70
     1
102
RTVSPropertyOp8
 70
     1
102
RTVSPropertyOp9
 70
     1
102
RTVSPropertyOp10
 70
     1
102
RTVSPropertyOp11
 70
     1
102
RTVSPropertyOp12
 70
     1
102
RTVSPropertyOp13
 70
     1
102
RTVSPropertyOp14
 70
     1
102
RTVSPropertyOp15
 70
     1
102
RTVSPropertyOp16
 70
     1
102
RTVSPropertyOp17
 70
     1
102
RTVSPropertyOp18
 70
     1
102
RTVSPropertyOp19
 70
     1
102
RTVSPropertyOp20
 70
     1
102
RTVSPropertyOp21
 70
     1
102
RTVSPropertyOp22
 70
     1
102
RTVSPropertyOp23
 70
     1
102
RTVSPropertyOp24
 70
     1
102
RTVSPropertyOp25
 70
     1
102
RTVSPropertyOp26
 70
     1
102
RTVSPropertyOp27
 70
     1
102
RTVSPropertyOp28
 70
     1
102
RTVSPropertyOp29
 70
     1
102
RTVSPropertyOp30
 70
     1
102
RTVSPropertyOp31
 70
     1
102
RTVSPropertyOp32
 70
     1
102
RTVSPropertyOp33
 70
     1
102
RTVSPropertyOp34
 70
     1
102
RTVSPropertyOp35
 70
     1
102
RTVSPropertyOp36
 70
     1
102
RTVSPropertyOp37
 70
     1
102
RTVSPropertyOp38
 70
     1
102
RTVSPropertyOp39
 70
     1
102
RTVSPropertyOp40
 70
     1
102
RTVSPropertyOp41
 70
     1
102
RTVSPropertyOp42
 70
     1
102
RTVSPropertyOp43
 70
     1
102
RTVSPropertyOp44
 70
     1
102
RTVSPropertyOp45
 70
     1
102
RTVSPropertyOp46
 70
     1
102
RTVSPropertyOp47
 70
     1
102
RTVSPropertyOp48
 70
     1
102
RTVSPropertyOp49
 70
     1
102
RTVSPropertyOp50
 70
     1
102
RTVSPropertyOp51
 70
     0
102
RTVSPropertyOp52
 70
     0
102
RTVSPropertyOp53
 70
     1
102
RTVSPropertyOp54
 70
     1
102
RTVSPropertyOp55
 70
     1
102
RTVSPropertyOp56
 70
     1
102
RTVSPropertyOp57
 70
     1
102
RTVSPropertyOp58
 70
     1
102
RTVSPropertyOp59
 70
     1
102
RTVSPropertyOp60
 70
     1
102
RTVSPropertyOp61
 70
     1
102
RTVSPropertyOp62
 70
     1
  0
XRECORD
  5
84B3
102
{ACAD_REACTORS
330
84B2
102
}
330
84B2
100
AcDbXrecord
280
     1
102
RTVSPost2010Prop28
280
     0
102
RTVSPost2010PropOp28
 70
     1
102
RTVSPost2010Prop29
280
     1
102
RTVSPost2010PropOp29
 70
     1
102
RTVSPost2010Prop30
280
     1
102
RTVSPost2010PropOp30
 70
     1
102
RTVSPost2010Prop31
280
     0
102
RTVSPost2010PropOp31
 70
     1
102
RTVSPost2010Prop32
280
     0
102
RTVSPost2010PropOp32
 70
     1
102
RTVSPost2010Prop33
280
     0
102
RTVSPost2010PropOp33
 70
     1
102
RTVSPost2010Prop34
280
     0
102
RTVSPost2010PropOp34
 70
     1
102
RTVSPost2010Prop35
280
     0
102
RTVSPost2010PropOp35
 70
     1
102
RTVSPost2010Prop36
280
     0
102
RTVSPost2010PropOp36
 70
     1
102
RTVSPost2010Prop37
 90
       50
102
RTVSPost2010PropOp37
 70
     1
102
RTVSPost2010Prop38
140
0.0
102
RTVSPost2010PropOp38
 70
     1
102
RTVSPost2010Prop39
140
1.0
102
RTVSPost2010PropOp39
 70
     1
102
RTVSPost2010Prop40
 90
        0
102
RTVSPost2010PropOp40
 70
     1
102
RTVSPost2010Prop41ColorIndex
 90
       18
102
RTVSPost2010Prop41ColorRGB
 90
        0
102
RTVSPost2010PropOp41
 70
     1
102
RTVSPost2010Prop42
 90
       50
102
RTVSPost2010PropOp42
 70
     1
102
RTVSPost2010Prop43
 90
        3
102
RTVSPost2010PropOp43
 70
     1
102
RTVSPost2010Prop44ColorIndex
 90
        5
102
RTVSPost2010Prop44ColorRGB
 90
      255
102
RTVSPost2010PropOp44
 70
     1
102
RTVSPost2010Prop45
280
     0
102
RTVSPost2010PropOp45
 70
     1
102
RTVSPost2010Prop46
 90
       50
102
RTVSPost2010PropOp46
 70
     1
102
RTVSPost2010Prop47
 90
       50
102
RTVSPost2010PropOp47
 70
     1
102
RTVSPost2010Prop48
 90
       50
102
RTVSPost2010PropOp48
 70
     1
102
RTVSPost2010Prop49
280
     0
102
RTVSPost2010PropOp49
 70
     1
102
RTVSPost2010Prop50
 90
       50
102
RTVSPost2010PropOp50
 70
     1
102
RTVSPost2010Prop51ColorIndex
 90
      256
102
RTVSPost2010Prop51ColorRGB
 90
-16777216
102
RTVSPost2010PropOp51
 70
     0
102
RTVSPost2010Prop52
140
1.0
102
RTVSPost2010PropOp52
 70
     0
102
RTVSPost2010Prop53
 90
        2
102
RTVSPost2010PropOp53
 70
     1
102
RTVSPost2010Prop54
  1
strokes_ogs.tif
102
RTVSPost2010PropOp54
 70
     1
102
RTVSPost2010Prop55
280
     0
102
RTVSPost2010PropOp55
 70
     1
102
RTVSPost2010Prop56
140
1.0
102
RTVSPost2010PropOp56
 70
     1
102
RTVSPost2010Prop57
140
1.0
102
RTVSPost2010PropOp57
 70
     1
102
RTVSPropertyOp0
 70
     1
102
RTVSPropertyOp1
 70
     1
102
RTVSPropertyOp2
 70
     1
102
RTVSPropertyOp3
 70
     1
102
RTVSPropertyOp4
 70
     1
102
RTVSPropertyOp5
 70
     1
102
RTVSPropertyOp6
 70
     1
102
RTVSPropertyOp7
 70
     1
102
RTVSPropertyOp8
 70
     1
102
RTVSPropertyOp9
 70
     1
102
RTVSPropertyOp10
 70
     1
102
RTVSPropertyOp11
 70
     1
102
RTVSPropertyOp12
 70
     1
102
RTVSPropertyOp13
 70
     1
102
RTVSPropertyOp14
 70
     1
102
RTVSPropertyOp15
 70
     1
102
RTVSPropertyOp16
 70
     1
102
RTVSPropertyOp17
 70
     1
102
RTVSPropertyOp18
 70
     1
102
RTVSPropertyOp19
 70
     1
102
RTVSPropertyOp20
 70
     1
102
RTVSPropertyOp21
 70
     1
102
RTVSPropertyOp22
 70
     1
102
RTVSPropertyOp23
 70
     1
102
RTVSPropertyOp24
 70
     1
102
RTVSPropertyOp25
 70
     1
102
RTVSPropertyOp26
 70
     1
102
RTVSPropertyOp27
 70
     1
102
RTVSPropertyOp28
 70
     1
102
RTVSPropertyOp29
 70
     1
102
RTVSPropertyOp30
 70
     1
102
RTVSPropertyOp31
 70
     1
102
RTVSPropertyOp32
 70
     1
102
RTVSPropertyOp33
 70
     1
102
RTVSPropertyOp34
 70
     1
102
RTVSPropertyOp35
 70
     1
102
RTVSPropertyOp36
 70
     1
102
RTVSPropertyOp37
 70
     1
102
RTVSPropertyOp38
 70
     1
102
RTVSPropertyOp39
 70
     1
102
RTVSPropertyOp40
 70
     1
102
RTVSPropertyOp41
 70
     1
102
RTVSPropertyOp42
 70
     1
102
RTVSPropertyOp43
 70
     1
102
RTVSPropertyOp44
 70
     1
102
RTVSPropertyOp45
 70
     1
102
RTVSPropertyOp46
 70
     1
102
RTVSPropertyOp47
 70
     1
102
RTVSPropertyOp48
 70
     1
102
RTVSPropertyOp49
 70
     1
102
RTVSPropertyOp50
 70
     1
102
RTVSPropertyOp51
 70
     0
102
RTVSPropertyOp52
 70
     0
102
RTVSPropertyOp53
 70
     1
102
RTVSPropertyOp54
 70
     1
102
RTVSPropertyOp55
 70
     1
102
RTVSPropertyOp56
 70
     1
102
RTVSPropertyOp57
 70
     1
102
RTVSPropertyOp58
 70
     1
102
RTVSPropertyOp59
 70
     1
102
RTVSPropertyOp60
 70
     1
102
RTVSPropertyOp61
 70
     1
102
RTVSPropertyOp62
 70
     1
  0
XRECORD
  5
84B5
102
{ACAD_REACTORS
330
84B4
102
}
330
84B4
100
AcDbXrecord
280
     1
102
RTVSPost2010Prop28
280
     0
102
RTVSPost2010PropOp28
 70
     1
102
RTVSPost2010Prop29
280
     1
102
RTVSPost2010PropOp29
 70
     1
102
RTVSPost2010Prop30
280
     1
102
RTVSPost2010PropOp30
 70
     1
102
RTVSPost2010Prop31
280
     0
102
RTVSPost2010PropOp31
 70
     1
102
RTVSPost2010Prop32
280
     0
102
RTVSPost2010PropOp32
 70
     1
102
RTVSPost2010Prop33
280
     0
102
RTVSPost2010PropOp33
 70
     1
102
RTVSPost2010Prop34
280
     0
102
RTVSPost2010PropOp34
 70
     1
102
RTVSPost2010Prop35
280
     0
102
RTVSPost2010PropOp35
 70
     1
102
RTVSPost2010Prop36
280
     0
102
RTVSPost2010PropOp36
 70
     1
102
RTVSPost2010Prop37
 90
       50
102
RTVSPost2010PropOp37
 70
     1
102
RTVSPost2010Prop38
140
0.0
102
RTVSPost2010PropOp38
 70
     1
102
RTVSPost2010Prop39
140
1.0
102
RTVSPost2010PropOp39
 70
     1
102
RTVSPost2010Prop40
 90
        0
102
RTVSPost2010PropOp40
 70
     1
102
RTVSPost2010Prop41ColorIndex
 90
       18
102
RTVSPost2010Prop41ColorRGB
 90
        0
102
RTVSPost2010PropOp41
 70
     1
102
RTVSPost2010Prop42
 90
       50
102
RTVSPost2010PropOp42
 70
     1
102
RTVSPost2010Prop43
 90
        3
102
RTVSPost2010PropOp43
 70
     1
102
RTVSPost2010Prop44ColorIndex
 90
        5
102
RTVSPost2010Prop44ColorRGB
 90
      255
102
RTVSPost2010PropOp44
 70
     1
102
RTVSPost2010Prop45
280
     0
102
RTVSPost2010PropOp45
 70
     1
102
RTVSPost2010Prop46
 90
       50
102
RTVSPost2010PropOp46
 70
     1
102
RTVSPost2010Prop47
 90
       50
102
RTVSPost2010PropOp47
 70
     1
102
RTVSPost2010Prop48
 90
       50
102
RTVSPost2010PropOp48
 70
     1
102
RTVSPost2010Prop49
280
     0
102
RTVSPost2010PropOp49
 70
     1
102
RTVSPost2010Prop50
 90
       50
102
RTVSPost2010PropOp50
 70
     1
102
RTVSPost2010Prop51ColorIndex
 90
      256
102
RTVSPost2010Prop51ColorRGB
 90
-16777216
102
RTVSPost2010PropOp51
 70
     0
102
RTVSPost2010Prop52
140
1.0
102
RTVSPost2010PropOp52
 70
     0
102
RTVSPost2010Prop53
 90
        2
102
RTVSPost2010PropOp53
 70
     1
102
RTVSPost2010Prop54
  1
strokes_ogs.tif
102
RTVSPost2010PropOp54
 70
     1
102
RTVSPost2010Prop55
280
     0
102
RTVSPost2010PropOp55
 70
     1
102
RTVSPost2010Prop56
140
1.0
102
RTVSPost2010PropOp56
 70
     1
102
RTVSPost2010Prop57
140
1.0
102
RTVSPost2010PropOp57
 70
     1
102
RTVSPropertyOp0
 70
     1
102
RTVSPropertyOp1
 70
     1
102
RTVSPropertyOp2
 70
     1
102
RTVSPropertyOp3
 70
     1
102
RTVSPropertyOp4
 70
     1
102
RTVSPropertyOp5
 70
     1
102
RTVSPropertyOp6
 70
     1
102
RTVSPropertyOp7
 70
     1
102
RTVSPropertyOp8
 70
     1
102
RTVSPropertyOp9
 70
     1
102
RTVSPropertyOp10
 70
     1
102
RTVSPropertyOp11
 70
     1
102
RTVSPropertyOp12
 70
     1
102
RTVSPropertyOp13
 70
     1
102
RTVSPropertyOp14
 70
     1
102
RTVSPropertyOp15
 70
     1
102
RTVSPropertyOp16
 70
     1
102
RTVSPropertyOp17
 70
     1
102
RTVSPropertyOp18
 70
     1
102
RTVSPropertyOp19
 70
     1
102
RTVSPropertyOp20
 70
     1
102
RTVSPropertyOp21
 70
     1
102
RTVSPropertyOp22
 70
     1
102
RTVSPropertyOp23
 70
     1
102
RTVSPropertyOp24
 70
     1
102
RTVSPropertyOp25
 70
     1
102
RTVSPropertyOp26
 70
     1
102
RTVSPropertyOp27
 70
     1
102
RTVSPropertyOp28
 70
     1
102
RTVSPropertyOp29
 70
     1
102
RTVSPropertyOp30
 70
     1
102
RTVSPropertyOp31
 70
     1
102
RTVSPropertyOp32
 70
     1
102
RTVSPropertyOp33
 70
     1
102
RTVSPropertyOp34
 70
     1
102
RTVSPropertyOp35
 70
     1
102
RTVSPropertyOp36
 70
     1
102
RTVSPropertyOp37
 70
     1
102
RTVSPropertyOp38
 70
     1
102
RTVSPropertyOp39
 70
     1
102
RTVSPropertyOp40
 70
     1
102
RTVSPropertyOp41
 70
     1
102
RTVSPropertyOp42
 70
     1
102
RTVSPropertyOp43
 70
     1
102
RTVSPropertyOp44
 70
     1
102
RTVSPropertyOp45
 70
     1
102
RTVSPropertyOp46
 70
     1
102
RTVSPropertyOp47
 70
     1
102
RTVSPropertyOp48
 70
     1
102
RTVSPropertyOp49
 70
     1
102
RTVSPropertyOp50
 70
     1
102
RTVSPropertyOp51
 70
     0
102
RTVSPropertyOp52
 70
     0
102
RTVSPropertyOp53
 70
     1
102
RTVSPropertyOp54
 70
     1
102
RTVSPropertyOp55
 70
     1
102
RTVSPropertyOp56
 70
     1
102
RTVSPropertyOp57
 70
     1
102
RTVSPropertyOp58
 70
     1
102
RTVSPropertyOp59
 70
     1
102
RTVSPropertyOp60
 70
     1
102
RTVSPropertyOp61
 70
     1
102
RTVSPropertyOp62
 70
     1
  0
XRECORD
  5
84B7
102
{ACAD_REACTORS
330
84B6
102
}
330
84B6
100
AcDbXrecord
280
     1
102
RTVSPost2010Prop28
280
     0
102
RTVSPost2010PropOp28
 70
     1
102
RTVSPost2010Prop29
280
     1
102
RTVSPost2010PropOp29
 70
     1
102
RTVSPost2010Prop30
280
     1
102
RTVSPost2010PropOp30
 70
     1
102
RTVSPost2010Prop31
280
     0
102
RTVSPost2010PropOp31
 70
     1
102
RTVSPost2010Prop32
280
     0
102
RTVSPost2010PropOp32
 70
     1
102
RTVSPost2010Prop33
280
     0
102
RTVSPost2010PropOp33
 70
     1
102
RTVSPost2010Prop34
280
     0
102
RTVSPost2010PropOp34
 70
     1
102
RTVSPost2010Prop35
280
     0
102
RTVSPost2010PropOp35
 70
     1
102
RTVSPost2010Prop36
280
     0
102
RTVSPost2010PropOp36
 70
     1
102
RTVSPost2010Prop37
 90
       50
102
RTVSPost2010PropOp37
 70
     1
102
RTVSPost2010Prop38
140
0.0
102
RTVSPost2010PropOp38
 70
     1
102
RTVSPost2010Prop39
140
1.0
102
RTVSPost2010PropOp39
 70
     1
102
RTVSPost2010Prop40
 90
        0
102
RTVSPost2010PropOp40
 70
     1
102
RTVSPost2010Prop41ColorIndex
 90
       18
102
RTVSPost2010Prop41ColorRGB
 90
        0
102
RTVSPost2010PropOp41
 70
     1
102
RTVSPost2010Prop42
 90
       50
102
RTVSPost2010PropOp42
 70
     1
102
RTVSPost2010Prop43
 90
        3
102
RTVSPost2010PropOp43
 70
     1
102
RTVSPost2010Prop44ColorIndex
 90
        5
102
RTVSPost2010Prop44ColorRGB
 90
      255
102
RTVSPost2010PropOp44
 70
     1
102
RTVSPost2010Prop45
280
     0
102
RTVSPost2010PropOp45
 70
     1
102
RTVSPost2010Prop46
 90
       50
102
RTVSPost2010PropOp46
 70
     1
102
RTVSPost2010Prop47
 90
       50
102
RTVSPost2010PropOp47
 70
     1
102
RTVSPost2010Prop48
 90
       50
102
RTVSPost2010PropOp48
 70
     1
102
RTVSPost2010Prop49
280
     0
102
RTVSPost2010PropOp49
 70
     1
102
RTVSPost2010Prop50
 90
       50
102
RTVSPost2010PropOp50
 70
     1
102
RTVSPost2010Prop51ColorIndex
 90
      256
102
RTVSPost2010Prop51ColorRGB
 90
-16777216
102
RTVSPost2010PropOp51
 70
     0
102
RTVSPost2010Prop52
140
1.0
102
RTVSPost2010PropOp52
 70
     0
102
RTVSPost2010Prop53
 90
        2
102
RTVSPost2010PropOp53
 70
     1
102
RTVSPost2010Prop54
  1
strokes_ogs.tif
102
RTVSPost2010PropOp54
 70
     1
102
RTVSPost2010Prop55
280
     0
102
RTVSPost2010PropOp55
 70
     1
102
RTVSPost2010Prop56
140
1.0
102
RTVSPost2010PropOp56
 70
     1
102
RTVSPost2010Prop57
140
1.0
102
RTVSPost2010PropOp57
 70
     1
102
RTVSPropertyOp0
 70
     1
102
RTVSPropertyOp1
 70
     1
102
RTVSPropertyOp2
 70
     1
102
RTVSPropertyOp3
 70
     1
102
RTVSPropertyOp4
 70
     1
102
RTVSPropertyOp5
 70
     1
102
RTVSPropertyOp6
 70
     1
102
RTVSPropertyOp7
 70
     1
102
RTVSPropertyOp8
 70
     1
102
RTVSPropertyOp9
 70
     1
102
RTVSPropertyOp10
 70
     1
102
RTVSPropertyOp11
 70
     1
102
RTVSPropertyOp12
 70
     1
102
RTVSPropertyOp13
 70
     1
102
RTVSPropertyOp14
 70
     1
102
RTVSPropertyOp15
 70
     1
102
RTVSPropertyOp16
 70
     1
102
RTVSPropertyOp17
 70
     1
102
RTVSPropertyOp18
 70
     1
102
RTVSPropertyOp19
 70
     1
102
RTVSPropertyOp20
 70
     1
102
RTVSPropertyOp21
 70
     1
102
RTVSPropertyOp22
 70
     1
102
RTVSPropertyOp23
 70
     1
102
RTVSPropertyOp24
 70
     1
102
RTVSPropertyOp25
 70
     1
102
RTVSPropertyOp26
 70
     1
102
RTVSPropertyOp27
 70
     1
102
RTVSPropertyOp28
 70
     1
102
RTVSPropertyOp29
 70
     1
102
RTVSPropertyOp30
 70
     1
102
RTVSPropertyOp31
 70
     1
102
RTVSPropertyOp32
 70
     1
102
RTVSPropertyOp33
 70
     1
102
RTVSPropertyOp34
 70
     1
102
RTVSPropertyOp35
 70
     1
102
RTVSPropertyOp36
 70
     1
102
RTVSPropertyOp37
 70
     1
102
RTVSPropertyOp38
 70
     1
102
RTVSPropertyOp39
 70
     1
102
RTVSPropertyOp40
 70
     1
102
RTVSPropertyOp41
 70
     1
102
RTVSPropertyOp42
 70
     1
102
RTVSPropertyOp43
 70
     1
102
RTVSPropertyOp44
 70
     1
102
RTVSPropertyOp45
 70
     1
102
RTVSPropertyOp46
 70
     1
102
RTVSPropertyOp47
 70
     1
102
RTVSPropertyOp48
 70
     1
102
RTVSPropertyOp49
 70
     1
102
RTVSPropertyOp50
 70
     1
102
RTVSPropertyOp51
 70
     0
102
RTVSPropertyOp52
 70
     0
102
RTVSPropertyOp53
 70
     1
102
RTVSPropertyOp54
 70
     1
102
RTVSPropertyOp55
 70
     1
102
RTVSPropertyOp56
 70
     1
102
RTVSPropertyOp57
 70
     1
102
RTVSPropertyOp58
 70
     1
102
RTVSPropertyOp59
 70
     1
102
RTVSPropertyOp60
 70
     1
102
RTVSPropertyOp61
 70
     1
102
RTVSPropertyOp62
 70
     1
  0
XRECORD
  5
84B9
102
{ACAD_REACTORS
330
84B8
102
}
330
84B8
100
AcDbXrecord
280
     1
102
RTVSPost2010Prop28
280
     0
102
RTVSPost2010PropOp28
 70
     1
102
RTVSPost2010Prop29
280
     1
102
RTVSPost2010PropOp29
 70
     1
102
RTVSPost2010Prop30
280
     1
102
RTVSPost2010PropOp30
 70
     1
102
RTVSPost2010Prop31
280
     0
102
RTVSPost2010PropOp31
 70
     1
102
RTVSPost2010Prop32
280
     0
102
RTVSPost2010PropOp32
 70
     1
102
RTVSPost2010Prop33
280
     0
102
RTVSPost2010PropOp33
 70
     1
102
RTVSPost2010Prop34
280
     0
102
RTVSPost2010PropOp34
 70
     1
102
RTVSPost2010Prop35
280
     0
102
RTVSPost2010PropOp35
 70
     1
102
RTVSPost2010Prop36
280
     0
102
RTVSPost2010PropOp36
 70
     1
102
RTVSPost2010Prop37
 90
       50
102
RTVSPost2010PropOp37
 70
     1
102
RTVSPost2010Prop38
140
0.0
102
RTVSPost2010PropOp38
 70
     1
102
RTVSPost2010Prop39
140
1.0
102
RTVSPost2010PropOp39
 70
     1
102
RTVSPost2010Prop40
 90
        0
102
RTVSPost2010PropOp40
 70
     1
102
RTVSPost2010Prop41ColorIndex
 90
       18
102
RTVSPost2010Prop41ColorRGB
 90
        0
102
RTVSPost2010PropOp41
 70
     1
102
RTVSPost2010Prop42
 90
       50
102
RTVSPost2010PropOp42
 70
     1
102
RTVSPost2010Prop43
 90
        3
102
RTVSPost2010PropOp43
 70
     1
102
RTVSPost2010Prop44ColorIndex
 90
        5
102
RTVSPost2010Prop44ColorRGB
 90
      255
102
RTVSPost2010PropOp44
 70
     1
102
RTVSPost2010Prop45
280
     0
102
RTVSPost2010PropOp45
 70
     1
102
RTVSPost2010Prop46
 90
       50
102
RTVSPost2010PropOp46
 70
     1
102
RTVSPost2010Prop47
 90
       50
102
RTVSPost2010PropOp47
 70
     1
102
RTVSPost2010Prop48
 90
       50
102
RTVSPost2010PropOp48
 70
     1
102
RTVSPost2010Prop49
280
     0
102
RTVSPost2010PropOp49
 70
     1
102
RTVSPost2010Prop50
 90
       50
102
RTVSPost2010PropOp50
 70
     1
102
RTVSPost2010Prop51ColorIndex
 90
      256
102
RTVSPost2010Prop51ColorRGB
 90
-16777216
102
RTVSPost2010PropOp51
 70
     0
102
RTVSPost2010Prop52
140
1.0
102
RTVSPost2010PropOp52
 70
     0
102
RTVSPost2010Prop53
 90
        2
102
RTVSPost2010PropOp53
 70
     1
102
RTVSPost2010Prop54
  1
strokes_ogs.tif
102
RTVSPost2010PropOp54
 70
     1
102
RTVSPost2010Prop55
280
     0
102
RTVSPost2010PropOp55
 70
     1
102
RTVSPost2010Prop56
140
1.0
102
RTVSPost2010PropOp56
 70
     1
102
RTVSPost2010Prop57
140
1.0
102
RTVSPost2010PropOp57
 70
     1
102
RTVSPropertyOp0
 70
     1
102
RTVSPropertyOp1
 70
     1
102
RTVSPropertyOp2
 70
     1
102
RTVSPropertyOp3
 70
     1
102
RTVSPropertyOp4
 70
     1
102
RTVSPropertyOp5
 70
     1
102
RTVSPropertyOp6
 70
     1
102
RTVSPropertyOp7
 70
     1
102
RTVSPropertyOp8
 70
     1
102
RTVSPropertyOp9
 70
     1
102
RTVSPropertyOp10
 70
     1
102
RTVSPropertyOp11
 70
     1
102
RTVSPropertyOp12
 70
     1
102
RTVSPropertyOp13
 70
     1
102
RTVSPropertyOp14
 70
     1
102
RTVSPropertyOp15
 70
     1
102
RTVSPropertyOp16
 70
     1
102
RTVSPropertyOp17
 70
     1
102
RTVSPropertyOp18
 70
     1
102
RTVSPropertyOp19
 70
     1
102
RTVSPropertyOp20
 70
     1
102
RTVSPropertyOp21
 70
     1
102
RTVSPropertyOp22
 70
     1
102
RTVSPropertyOp23
 70
     1
102
RTVSPropertyOp24
 70
     1
102
RTVSPropertyOp25
 70
     1
102
RTVSPropertyOp26
 70
     1
102
RTVSPropertyOp27
 70
     1
102
RTVSPropertyOp28
 70
     1
102
RTVSPropertyOp29
 70
     1
102
RTVSPropertyOp30
 70
     1
102
RTVSPropertyOp31
 70
     1
102
RTVSPropertyOp32
 70
     1
102
RTVSPropertyOp33
 70
     1
102
RTVSPropertyOp34
 70
     1
102
RTVSPropertyOp35
 70
     1
102
RTVSPropertyOp36
 70
     1
102
RTVSPropertyOp37
 70
     1
102
RTVSPropertyOp38
 70
     1
102
RTVSPropertyOp39
 70
     1
102
RTVSPropertyOp40
 70
     1
102
RTVSPropertyOp41
 70
     1
102
RTVSPropertyOp42
 70
     1
102
RTVSPropertyOp43
 70
     1
102
RTVSPropertyOp44
 70
     1
102
RTVSPropertyOp45
 70
     1
102
RTVSPropertyOp46
 70
     1
102
RTVSPropertyOp47
 70
     1
102
RTVSPropertyOp48
 70
     1
102
RTVSPropertyOp49
 70
     1
102
RTVSPropertyOp50
 70
     1
102
RTVSPropertyOp51
 70
     0
102
RTVSPropertyOp52
 70
     0
102
RTVSPropertyOp53
 70
     1
102
RTVSPropertyOp54
 70
     1
102
RTVSPropertyOp55
 70
     1
102
RTVSPropertyOp56
 70
     1
102
RTVSPropertyOp57
 70
     1
102
RTVSPropertyOp58
 70
     1
102
RTVSPropertyOp59
 70
     1
102
RTVSPropertyOp60
 70
     1
102
RTVSPropertyOp61
 70
     1
102
RTVSPropertyOp62
 70
     1
  0
XRECORD
  5
84C1
102
{ACAD_REACTORS
330
84C0
102
}
330
84C0
100
AcDbXrecord
280
     1
102
RTVSPost2010Prop28
280
     0
102
RTVSPost2010PropOp28
 70
     1
102
RTVSPost2010Prop29
280
     1
102
RTVSPost2010PropOp29
 70
     1
102
RTVSPost2010Prop30
280
     1
102
RTVSPost2010PropOp30
 70
     1
102
RTVSPost2010Prop31
280
     0
102
RTVSPost2010PropOp31
 70
     1
102
RTVSPost2010Prop32
280
     0
102
RTVSPost2010PropOp32
 70
     1
102
RTVSPost2010Prop33
280
     0
102
RTVSPost2010PropOp33
 70
     1
102
RTVSPost2010Prop34
280
     0
102
RTVSPost2010PropOp34
 70
     1
102
RTVSPost2010Prop35
280
     0
102
RTVSPost2010PropOp35
 70
     1
102
RTVSPost2010Prop36
280
     0
102
RTVSPost2010PropOp36
 70
     1
102
RTVSPost2010Prop37
 90
       50
102
RTVSPost2010PropOp37
 70
     1
102
RTVSPost2010Prop38
140
0.0
102
RTVSPost2010PropOp38
 70
     1
102
RTVSPost2010Prop39
140
1.0
102
RTVSPost2010PropOp39
 70
     1
102
RTVSPost2010Prop40
 90
        0
102
RTVSPost2010PropOp40
 70
     1
102
RTVSPost2010Prop41ColorIndex
 90
       18
102
RTVSPost2010Prop41ColorRGB
 90
        0
102
RTVSPost2010PropOp41
 70
     1
102
RTVSPost2010Prop42
 90
       50
102
RTVSPost2010PropOp42
 70
     1
102
RTVSPost2010Prop43
 90
        3
102
RTVSPost2010PropOp43
 70
     1
102
RTVSPost2010Prop44ColorIndex
 90
        5
102
RTVSPost2010Prop44ColorRGB
 90
      255
102
RTVSPost2010PropOp44
 70
     1
102
RTVSPost2010Prop45
280
     0
102
RTVSPost2010PropOp45
 70
     1
102
RTVSPost2010Prop46
 90
       50
102
RTVSPost2010PropOp46
 70
     1
102
RTVSPost2010Prop47
 90
       50
102
RTVSPost2010PropOp47
 70
     1
102
RTVSPost2010Prop48
 90
       50
102
RTVSPost2010PropOp48
 70
     1
102
RTVSPost2010Prop49
280
     0
102
RTVSPost2010PropOp49
 70
     1
102
RTVSPost2010Prop50
 90
       50
102
RTVSPost2010PropOp50
 70
     1
102
RTVSPost2010Prop51ColorIndex
 90
      256
102
RTVSPost2010Prop51ColorRGB
 90
-16777216
102
RTVSPost2010PropOp51
 70
     0
102
RTVSPost2010Prop52
140
1.0
102
RTVSPost2010PropOp52
 70
     0
102
RTVSPost2010Prop53
 90
        2
102
RTVSPost2010PropOp53
 70
     1
102
RTVSPost2010Prop54
  1
strokes_ogs.tif
102
RTVSPost2010PropOp54
 70
     1
102
RTVSPost2010Prop55
280
     0
102
RTVSPost2010PropOp55
 70
     1
102
RTVSPost2010Prop56
140
1.0
102
RTVSPost2010PropOp56
 70
     1
102
RTVSPost2010Prop57
140
1.0
102
RTVSPost2010PropOp57
 70
     1
102
RTVSPropertyOp0
 70
     1
102
RTVSPropertyOp1
 70
     1
102
RTVSPropertyOp2
 70
     1
102
RTVSPropertyOp3
 70
     1
102
RTVSPropertyOp4
 70
     1
102
RTVSPropertyOp5
 70
     1
102
RTVSPropertyOp6
 70
     1
102
RTVSPropertyOp7
 70
     1
102
RTVSPropertyOp8
 70
     1
102
RTVSPropertyOp9
 70
     1
102
RTVSPropertyOp10
 70
     1
102
RTVSPropertyOp11
 70
     1
102
RTVSPropertyOp12
 70
     1
102
RTVSPropertyOp13
 70
     1
102
RTVSPropertyOp14
 70
     1
102
RTVSPropertyOp15
 70
     1
102
RTVSPropertyOp16
 70
     1
102
RTVSPropertyOp17
 70
     1
102
RTVSPropertyOp18
 70
     1
102
RTVSPropertyOp19
 70
     1
102
RTVSPropertyOp20
 70
     1
102
RTVSPropertyOp21
 70
     1
102
RTVSPropertyOp22
 70
     1
102
RTVSPropertyOp23
 70
     1
102
RTVSPropertyOp24
 70
     1
102
RTVSPropertyOp25
 70
     1
102
RTVSPropertyOp26
 70
     1
102
RTVSPropertyOp27
 70
     1
102
RTVSPropertyOp28
 70
     1
102
RTVSPropertyOp29
 70
     1
102
RTVSPropertyOp30
 70
     1
102
RTVSPropertyOp31
 70
     1
102
RTVSPropertyOp32
 70
     1
102
RTVSPropertyOp33
 70
     1
102
RTVSPropertyOp34
 70
     1
102
RTVSPropertyOp35
 70
     1
102
RTVSPropertyOp36
 70
     1
102
RTVSPropertyOp37
 70
     1
102
RTVSPropertyOp38
 70
     1
102
RTVSPropertyOp39
 70
     1
102
RTVSPropertyOp40
 70
     1
102
RTVSPropertyOp41
 70
     1
102
RTVSPropertyOp42
 70
     1
102
RTVSPropertyOp43
 70
     1
102
RTVSPropertyOp44
 70
     1
102
RTVSPropertyOp45
 70
     1
102
RTVSPropertyOp46
 70
     1
102
RTVSPropertyOp47
 70
     1
102
RTVSPropertyOp48
 70
     1
102
RTVSPropertyOp49
 70
     1
102
RTVSPropertyOp50
 70
     1
102
RTVSPropertyOp51
 70
     0
102
RTVSPropertyOp52
 70
     0
102
RTVSPropertyOp53
 70
     1
102
RTVSPropertyOp54
 70
     1
102
RTVSPropertyOp55
 70
     1
102
RTVSPropertyOp56
 70
     1
102
RTVSPropertyOp57
 70
     1
102
RTVSPropertyOp58
 70
     1
102
RTVSPropertyOp59
 70
     1
102
RTVSPropertyOp60
 70
     1
102
RTVSPropertyOp61
 70
     1
102
RTVSPropertyOp62
 70
     1
  0
XRECORD
  5
84DD
102
{ACAD_REACTORS
330
84DC
102
}
330
84DC
100
AcDbXrecord
280
     1
102
RTVSPost2010Prop28
280
     0
102
RTVSPost2010PropOp28
 70
     1
102
RTVSPost2010Prop29
280
     1
102
RTVSPost2010PropOp29
 70
     1
102
RTVSPost2010Prop30
280
     1
102
RTVSPost2010PropOp30
 70
     1
102
RTVSPost2010Prop31
280
     0
102
RTVSPost2010PropOp31
 70
     1
102
RTVSPost2010Prop32
280
     0
102
RTVSPost2010PropOp32
 70
     1
102
RTVSPost2010Prop33
280
     0
102
RTVSPost2010PropOp33
 70
     1
102
RTVSPost2010Prop34
280
     0
102
RTVSPost2010PropOp34
 70
     1
102
RTVSPost2010Prop35
280
     0
102
RTVSPost2010PropOp35
 70
     1
102
RTVSPost2010Prop36
280
     0
102
RTVSPost2010PropOp36
 70
     1
102
RTVSPost2010Prop37
 90
       50
102
RTVSPost2010PropOp37
 70
     0
102
RTVSPost2010Prop38
140
0.0
102
RTVSPost2010PropOp38
 70
     0
102
RTVSPost2010Prop39
140
1.0
102
RTVSPost2010PropOp39
 70
     0
102
RTVSPost2010Prop40
 90
        0
102
RTVSPost2010PropOp40
 70
     0
102
RTVSPost2010Prop41ColorIndex
 90
       18
102
RTVSPost2010Prop41ColorRGB
 90
        0
102
RTVSPost2010PropOp41
 70
     0
102
RTVSPost2010Prop42
 90
       50
102
RTVSPost2010PropOp42
 70
     0
102
RTVSPost2010Prop43
 90
        3
102
RTVSPost2010PropOp43
 70
     0
102
RTVSPost2010Prop44ColorIndex
 90
        5
102
RTVSPost2010Prop44ColorRGB
 90
      255
102
RTVSPost2010PropOp44
 70
     0
102
RTVSPost2010Prop45
280
     0
102
RTVSPost2010PropOp45
 70
     1
102
RTVSPost2010Prop46
 90
       50
102
RTVSPost2010PropOp46
 70
     0
102
RTVSPost2010Prop47
 90
       50
102
RTVSPost2010PropOp47
 70
     0
102
RTVSPost2010Prop48
 90
       50
102
RTVSPost2010PropOp48
 70
     0
102
RTVSPost2010Prop49
280
     0
102
RTVSPost2010PropOp49
 70
     1
102
RTVSPost2010Prop50
 90
       50
102
RTVSPost2010PropOp50
 70
     0
102
RTVSPost2010Prop51ColorIndex
 90
      256
102
RTVSPost2010Prop51ColorRGB
 90
-16777216
102
RTVSPost2010PropOp51
 70
     0
102
RTVSPost2010Prop52
140
1.0
102
RTVSPost2010PropOp52
 70
     0
102
RTVSPost2010Prop53
 90
        2
102
RTVSPost2010PropOp53
 70
     0
102
RTVSPost2010Prop54
  1
strokes_ogs.tif
102
RTVSPost2010PropOp54
 70
     0
102
RTVSPost2010Prop55
280
     0
102
RTVSPost2010PropOp55
 70
     1
102
RTVSPost2010Prop56
140
1.0
102
RTVSPost2010PropOp56
 70
     0
102
RTVSPost2010Prop57
140
1.0
102
RTVSPost2010PropOp57
 70
     0
102
RTVSPropertyOp0
 70
     0
102
RTVSPropertyOp1
 70
     0
102
RTVSPropertyOp2
 70
     0
102
RTVSPropertyOp3
 70
     0
102
RTVSPropertyOp4
 70
     0
102
RTVSPropertyOp5
 70
     0
102
RTVSPropertyOp6
 70
     0
102
RTVSPropertyOp7
 70
     0
102
RTVSPropertyOp8
 70
     0
102
RTVSPropertyOp9
 70
     0
102
RTVSPropertyOp10
 70
     0
102
RTVSPropertyOp11
 70
     0
102
RTVSPropertyOp12
 70
     0
102
RTVSPropertyOp13
 70
     0
102
RTVSPropertyOp14
 70
     2
102
RTVSPropertyOp15
 70
     0
102
RTVSPropertyOp16
 70
     0
102
RTVSPropertyOp17
 70
     0
102
RTVSPropertyOp18
 70
     0
102
RTVSPropertyOp19
 70
     0
102
RTVSPropertyOp20
 70
     0
102
RTVSPropertyOp21
 70
     0
102
RTVSPropertyOp22
 70
     0
102
RTVSPropertyOp23
 70
     0
102
RTVSPropertyOp24
 70
     0
102
RTVSPropertyOp25
 70
     0
102
RTVSPropertyOp26
 70
     0
102
RTVSPropertyOp27
 70
     0
102
RTVSPropertyOp28
 70
     1
102
RTVSPropertyOp29
 70
     1
102
RTVSPropertyOp30
 70
     1
102
RTVSPropertyOp31
 70
     1
102
RTVSPropertyOp32
 70
     1
102
RTVSPropertyOp33
 70
     1
102
RTVSPropertyOp34
 70
     1
102
RTVSPropertyOp35
 70
     1
102
RTVSPropertyOp36
 70
     1
102
RTVSPropertyOp37
 70
     0
102
RTVSPropertyOp38
 70
     0
102
RTVSPropertyOp39
 70
     0
102
RTVSPropertyOp40
 70
     0
102
RTVSPropertyOp41
 70
     0
102
RTVSPropertyOp42
 70
     0
102
RTVSPropertyOp43
 70
     0
102
RTVSPropertyOp44
 70
     0
102
RTVSPropertyOp45
 70
     1
102
RTVSPropertyOp46
 70
     0
102
RTVSPropertyOp47
 70
     0
102
RTVSPropertyOp48
 70
     0
102
RTVSPropertyOp49
 70
     1
102
RTVSPropertyOp50
 70
     0
102
RTVSPropertyOp51
 70
     0
102
RTVSPropertyOp52
 70
     0
102
RTVSPropertyOp53
 70
     0
102
RTVSPropertyOp54
 70
     0
102
RTVSPropertyOp55
 70
     1
102
RTVSPropertyOp56
 70
     0
102
RTVSPropertyOp57
 70
     0
102
RTVSPropertyOp58
 70
     0
102
RTVSPropertyOp59
 70
     0
102
RTVSPropertyOp60
 70
     0
102
RTVSPropertyOp61
 70
     0
102
RTVSPropertyOp62
 70
     0
  0
XRECORD
  5
84CD
102
{ACAD_REACTORS
330
84CC
102
}
330
84CC
100
AcDbXrecord
280
     1
102
RTVSPost2010Prop28
280
     0
102
RTVSPost2010PropOp28
 70
     1
102
RTVSPost2010Prop29
280
     1
102
RTVSPost2010PropOp29
 70
     1
102
RTVSPost2010Prop30
280
     1
102
RTVSPost2010PropOp30
 70
     1
102
RTVSPost2010Prop31
280
     0
102
RTVSPost2010PropOp31
 70
     1
102
RTVSPost2010Prop32
280
     0
102
RTVSPost2010PropOp32
 70
     1
102
RTVSPost2010Prop33
280
     0
102
RTVSPost2010PropOp33
 70
     1
102
RTVSPost2010Prop34
280
     0
102
RTVSPost2010PropOp34
 70
     1
102
RTVSPost2010Prop35
280
     0
102
RTVSPost2010PropOp35
 70
     1
102
RTVSPost2010Prop36
280
     0
102
RTVSPost2010PropOp36
 70
     1
102
RTVSPost2010Prop37
 90
       50
102
RTVSPost2010PropOp37
 70
     1
102
RTVSPost2010Prop38
140
0.0
102
RTVSPost2010PropOp38
 70
     1
102
RTVSPost2010Prop39
140
1.0
102
RTVSPost2010PropOp39
 70
     1
102
RTVSPost2010Prop40
 90
        0
102
RTVSPost2010PropOp40
 70
     1
102
RTVSPost2010Prop41ColorIndex
 90
       18
102
RTVSPost2010Prop41ColorRGB
 90
        0
102
RTVSPost2010PropOp41
 70
     1
102
RTVSPost2010Prop42
 90
       50
102
RTVSPost2010PropOp42
 70
     1
102
RTVSPost2010Prop43
 90
        3
102
RTVSPost2010PropOp43
 70
     1
102
RTVSPost2010Prop44ColorIndex
 90
        5
102
RTVSPost2010Prop44ColorRGB
 90
      255
102
RTVSPost2010PropOp44
 70
     1
102
RTVSPost2010Prop45
280
     0
102
RTVSPost2010PropOp45
 70
     1
102
RTVSPost2010Prop46
 90
       50
102
RTVSPost2010PropOp46
 70
     1
102
RTVSPost2010Prop47
 90
       50
102
RTVSPost2010PropOp47
 70
     1
102
RTVSPost2010Prop48
 90
       50
102
RTVSPost2010PropOp48
 70
     1
102
RTVSPost2010Prop49
280
     0
102
RTVSPost2010PropOp49
 70
     1
102
RTVSPost2010Prop50
 90
       50
102
RTVSPost2010PropOp50
 70
     1
102
RTVSPost2010Prop51ColorIndex
 90
      256
102
RTVSPost2010Prop51ColorRGB
 90
-16777216
102
RTVSPost2010PropOp51
 70
     0
102
RTVSPost2010Prop52
140
1.0
102
RTVSPost2010PropOp52
 70
     0
102
RTVSPost2010Prop53
 90
        2
102
RTVSPost2010PropOp53
 70
     1
102
RTVSPost2010Prop54
  1
strokes_ogs.tif
102
RTVSPost2010PropOp54
 70
     1
102
RTVSPost2010Prop55
280
     0
102
RTVSPost2010PropOp55
 70
     1
102
RTVSPost2010Prop56
140
1.0
102
RTVSPost2010PropOp56
 70
     1
102
RTVSPost2010Prop57
140
1.0
102
RTVSPost2010PropOp57
 70
     1
102
RTVSPropertyOp0
 70
     1
102
RTVSPropertyOp1
 70
     1
102
RTVSPropertyOp2
 70
     1
102
RTVSPropertyOp3
 70
     1
102
RTVSPropertyOp4
 70
     1
102
RTVSPropertyOp5
 70
     1
102
RTVSPropertyOp6
 70
     1
102
RTVSPropertyOp7
 70
     1
102
RTVSPropertyOp8
 70
     1
102
RTVSPropertyOp9
 70
     1
102
RTVSPropertyOp10
 70
     1
102
RTVSPropertyOp11
 70
     1
102
RTVSPropertyOp12
 70
     1
102
RTVSPropertyOp13
 70
     1
102
RTVSPropertyOp14
 70
     1
102
RTVSPropertyOp15
 70
     1
102
RTVSPropertyOp16
 70
     1
102
RTVSPropertyOp17
 70
     1
102
RTVSPropertyOp18
 70
     1
102
RTVSPropertyOp19
 70
     1
102
RTVSPropertyOp20
 70
     1
102
RTVSPropertyOp21
 70
     1
102
RTVSPropertyOp22
 70
     1
102
RTVSPropertyOp23
 70
     1
102
RTVSPropertyOp24
 70
     1
102
RTVSPropertyOp25
 70
     1
102
RTVSPropertyOp26
 70
     1
102
RTVSPropertyOp27
 70
     1
102
RTVSPropertyOp28
 70
     1
102
RTVSPropertyOp29
 70
     1
102
RTVSPropertyOp30
 70
     1
102
RTVSPropertyOp31
 70
     1
102
RTVSPropertyOp32
 70
     1
102
RTVSPropertyOp33
 70
     1
102
RTVSPropertyOp34
 70
     1
102
RTVSPropertyOp35
 70
     1
102
RTVSPropertyOp36
 70
     1
102
RTVSPropertyOp37
 70
     1
102
RTVSPropertyOp38
 70
     1
102
RTVSPropertyOp39
 70
     1
102
RTVSPropertyOp40
 70
     1
102
RTVSPropertyOp41
 70
     1
102
RTVSPropertyOp42
 70
     1
102
RTVSPropertyOp43
 70
     1
102
RTVSPropertyOp44
 70
     1
102
RTVSPropertyOp45
 70
     1
102
RTVSPropertyOp46
 70
     1
102
RTVSPropertyOp47
 70
     1
102
RTVSPropertyOp48
 70
     1
102
RTVSPropertyOp49
 70
     1
102
RTVSPropertyOp50
 70
     1
102
RTVSPropertyOp51
 70
     0
102
RTVSPropertyOp52
 70
     0
102
RTVSPropertyOp53
 70
     1
102
RTVSPropertyOp54
 70
     1
102
RTVSPropertyOp55
 70
     1
102
RTVSPropertyOp56
 70
     1
102
RTVSPropertyOp57
 70
     1
102
RTVSPropertyOp58
 70
     1
102
RTVSPropertyOp59
 70
     1
102
RTVSPropertyOp60
 70
     1
102
RTVSPropertyOp61
 70
     1
102
RTVSPropertyOp62
 70
     1
  0
XRECORD
  5
84DF
102
{ACAD_REACTORS
330
84DE
102
}
330
84DE
100
AcDbXrecord
280
     1
102
RTVSPost2010Prop28
280
     0
102
RTVSPost2010PropOp28
 70
     1
102
RTVSPost2010Prop29
280
     1
102
RTVSPost2010PropOp29
 70
     1
102
RTVSPost2010Prop30
280
     1
102
RTVSPost2010PropOp30
 70
     1
102
RTVSPost2010Prop31
280
     0
102
RTVSPost2010PropOp31
 70
     1
102
RTVSPost2010Prop32
280
     0
102
RTVSPost2010PropOp32
 70
     1
102
RTVSPost2010Prop33
280
     0
102
RTVSPost2010PropOp33
 70
     1
102
RTVSPost2010Prop34
280
     0
102
RTVSPost2010PropOp34
 70
     1
102
RTVSPost2010Prop35
280
     0
102
RTVSPost2010PropOp35
 70
     1
102
RTVSPost2010Prop36
280
     0
102
RTVSPost2010PropOp36
 70
     1
102
RTVSPost2010Prop37
 90
       50
102
RTVSPost2010PropOp37
 70
     0
102
RTVSPost2010Prop38
140
0.0
102
RTVSPost2010PropOp38
 70
     0
102
RTVSPost2010Prop39
140
1.0
102
RTVSPost2010PropOp39
 70
     0
102
RTVSPost2010Prop40
 90
        0
102
RTVSPost2010PropOp40
 70
     0
102
RTVSPost2010Prop41ColorIndex
 90
       18
102
RTVSPost2010Prop41ColorRGB
 90
        0
102
RTVSPost2010PropOp41
 70
     0
102
RTVSPost2010Prop42
 90
       50
102
RTVSPost2010PropOp42
 70
     0
102
RTVSPost2010Prop43
 90
        3
102
RTVSPost2010PropOp43
 70
     0
102
RTVSPost2010Prop44ColorIndex
 90
        5
102
RTVSPost2010Prop44ColorRGB
 90
      255
102
RTVSPost2010PropOp44
 70
     0
102
RTVSPost2010Prop45
280
     0
102
RTVSPost2010PropOp45
 70
     1
102
RTVSPost2010Prop46
 90
       50
102
RTVSPost2010PropOp46
 70
     0
102
RTVSPost2010Prop47
 90
       50
102
RTVSPost2010PropOp47
 70
     0
102
RTVSPost2010Prop48
 90
       50
102
RTVSPost2010PropOp48
 70
     0
102
RTVSPost2010Prop49
280
     0
102
RTVSPost2010PropOp49
 70
     1
102
RTVSPost2010Prop50
 90
       50
102
RTVSPost2010PropOp50
 70
     0
102
RTVSPost2010Prop51ColorIndex
 90
      256
102
RTVSPost2010Prop51ColorRGB
 90
-16777216
102
RTVSPost2010PropOp51
 70
     0
102
RTVSPost2010Prop52
140
1.0
102
RTVSPost2010PropOp52
 70
     0
102
RTVSPost2010Prop53
 90
        2
102
RTVSPost2010PropOp53
 70
     0
102
RTVSPost2010Prop54
  1
strokes_ogs.tif
102
RTVSPost2010PropOp54
 70
     0
102
RTVSPost2010Prop55
280
     0
102
RTVSPost2010PropOp55
 70
     1
102
RTVSPost2010Prop56
140
1.0
102
RTVSPost2010PropOp56
 70
     0
102
RTVSPost2010Prop57
140
1.0
102
RTVSPost2010PropOp57
 70
     0
102
RTVSPropertyOp0
 70
     0
102
RTVSPropertyOp1
 70
     0
102
RTVSPropertyOp2
 70
     0
102
RTVSPropertyOp3
 70
     0
102
RTVSPropertyOp4
 70
     0
102
RTVSPropertyOp5
 70
     0
102
RTVSPropertyOp6
 70
     0
102
RTVSPropertyOp7
 70
     0
102
RTVSPropertyOp8
 70
     0
102
RTVSPropertyOp9
 70
     0
102
RTVSPropertyOp10
 70
     0
102
RTVSPropertyOp11
 70
     0
102
RTVSPropertyOp12
 70
     0
102
RTVSPropertyOp13
 70
     0
102
RTVSPropertyOp14
 70
     2
102
RTVSPropertyOp15
 70
     0
102
RTVSPropertyOp16
 70
     0
102
RTVSPropertyOp17
 70
     0
102
RTVSPropertyOp18
 70
     0
102
RTVSPropertyOp19
 70
     0
102
RTVSPropertyOp20
 70
     0
102
RTVSPropertyOp21
 70
     0
102
RTVSPropertyOp22
 70
     0
102
RTVSPropertyOp23
 70
     0
102
RTVSPropertyOp24
 70
     0
102
RTVSPropertyOp25
 70
     0
102
RTVSPropertyOp26
 70
     0
102
RTVSPropertyOp27
 70
     0
102
RTVSPropertyOp28
 70
     1
102
RTVSPropertyOp29
 70
     1
102
RTVSPropertyOp30
 70
     1
102
RTVSPropertyOp31
 70
     1
102
RTVSPropertyOp32
 70
     1
102
RTVSPropertyOp33
 70
     1
102
RTVSPropertyOp34
 70
     1
102
RTVSPropertyOp35
 70
     1
102
RTVSPropertyOp36
 70
     1
102
RTVSPropertyOp37
 70
     0
102
RTVSPropertyOp38
 70
     0
102
RTVSPropertyOp39
 70
     0
102
RTVSPropertyOp40
 70
     0
102
RTVSPropertyOp41
 70
     0
102
RTVSPropertyOp42
 70
     0
102
RTVSPropertyOp43
 70
     0
102
RTVSPropertyOp44
 70
     0
102
RTVSPropertyOp45
 70
     1
102
RTVSPropertyOp46
 70
     0
102
RTVSPropertyOp47
 70
     0
102
RTVSPropertyOp48
 70
     0
102
RTVSPropertyOp49
 70
     1
102
RTVSPropertyOp50
 70
     0
102
RTVSPropertyOp51
 70
     0
102
RTVSPropertyOp52
 70
     0
102
RTVSPropertyOp53
 70
     0
102
RTVSPropertyOp54
 70
     0
102
RTVSPropertyOp55
 70
     1
102
RTVSPropertyOp56
 70
     0
102
RTVSPropertyOp57
 70
     0
102
RTVSPropertyOp58
 70
     0
102
RTVSPropertyOp59
 70
     0
102
RTVSPropertyOp60
 70
     0
102
RTVSPropertyOp61
 70
     0
102
RTVSPropertyOp62
 70
     0
  0
XRECORD
  5
84C5
102
{ACAD_REACTORS
330
84C4
102
}
330
84C4
100
AcDbXrecord
280
     1
102
RTVSPost2010Prop28
280
     0
102
RTVSPost2010PropOp28
 70
     1
102
RTVSPost2010Prop29
280
     1
102
RTVSPost2010PropOp29
 70
     1
102
RTVSPost2010Prop30
280
     1
102
RTVSPost2010PropOp30
 70
     1
102
RTVSPost2010Prop31
280
     0
102
RTVSPost2010PropOp31
 70
     1
102
RTVSPost2010Prop32
280
     0
102
RTVSPost2010PropOp32
 70
     1
102
RTVSPost2010Prop33
280
     0
102
RTVSPost2010PropOp33
 70
     1
102
RTVSPost2010Prop34
280
     0
102
RTVSPost2010PropOp34
 70
     1
102
RTVSPost2010Prop35
280
     0
102
RTVSPost2010PropOp35
 70
     1
102
RTVSPost2010Prop36
280
     0
102
RTVSPost2010PropOp36
 70
     1
102
RTVSPost2010Prop37
 90
       50
102
RTVSPost2010PropOp37
 70
     1
102
RTVSPost2010Prop38
140
0.0
102
RTVSPost2010PropOp38
 70
     1
102
RTVSPost2010Prop39
140
1.0
102
RTVSPost2010PropOp39
 70
     1
102
RTVSPost2010Prop40
 90
        0
102
RTVSPost2010PropOp40
 70
     1
102
RTVSPost2010Prop41ColorIndex
 90
       18
102
RTVSPost2010Prop41ColorRGB
 90
        0
102
RTVSPost2010PropOp41
 70
     1
102
RTVSPost2010Prop42
 90
       50
102
RTVSPost2010PropOp42
 70
     1
102
RTVSPost2010Prop43
 90
        3
102
RTVSPost2010PropOp43
 70
     1
102
RTVSPost2010Prop44ColorIndex
 90
        5
102
RTVSPost2010Prop44ColorRGB
 90
      255
102
RTVSPost2010PropOp44
 70
     1
102
RTVSPost2010Prop45
280
     0
102
RTVSPost2010PropOp45
 70
     1
102
RTVSPost2010Prop46
 90
       50
102
RTVSPost2010PropOp46
 70
     1
102
RTVSPost2010Prop47
 90
       50
102
RTVSPost2010PropOp47
 70
     1
102
RTVSPost2010Prop48
 90
       50
102
RTVSPost2010PropOp48
 70
     1
102
RTVSPost2010Prop49
280
     0
102
RTVSPost2010PropOp49
 70
     1
102
RTVSPost2010Prop50
 90
       50
102
RTVSPost2010PropOp50
 70
     1
102
RTVSPost2010Prop51ColorIndex
 90
      256
102
RTVSPost2010Prop51ColorRGB
 90
-16777216
102
RTVSPost2010PropOp51
 70
     0
102
RTVSPost2010Prop52
140
1.0
102
RTVSPost2010PropOp52
 70
     0
102
RTVSPost2010Prop53
 90
        2
102
RTVSPost2010PropOp53
 70
     1
102
RTVSPost2010Prop54
  1
strokes_ogs.tif
102
RTVSPost2010PropOp54
 70
     1
102
RTVSPost2010Prop55
280
     0
102
RTVSPost2010PropOp55
 70
     1
102
RTVSPost2010Prop56
140
1.0
102
RTVSPost2010PropOp56
 70
     1
102
RTVSPost2010Prop57
140
1.0
102
RTVSPost2010PropOp57
 70
     1
102
RTVSPropertyOp0
 70
     1
102
RTVSPropertyOp1
 70
     1
102
RTVSPropertyOp2
 70
     1
102
RTVSPropertyOp3
 70
     1
102
RTVSPropertyOp4
 70
     1
102
RTVSPropertyOp5
 70
     1
102
RTVSPropertyOp6
 70
     1
102
RTVSPropertyOp7
 70
     1
102
RTVSPropertyOp8
 70
     1
102
RTVSPropertyOp9
 70
     1
102
RTVSPropertyOp10
 70
     1
102
RTVSPropertyOp11
 70
     1
102
RTVSPropertyOp12
 70
     1
102
RTVSPropertyOp13
 70
     1
102
RTVSPropertyOp14
 70
     1
102
RTVSPropertyOp15
 70
     1
102
RTVSPropertyOp16
 70
     1
102
RTVSPropertyOp17
 70
     1
102
RTVSPropertyOp18
 70
     1
102
RTVSPropertyOp19
 70
     1
102
RTVSPropertyOp20
 70
     1
102
RTVSPropertyOp21
 70
     1
102
RTVSPropertyOp22
 70
     1
102
RTVSPropertyOp23
 70
     1
102
RTVSPropertyOp24
 70
     1
102
RTVSPropertyOp25
 70
     1
102
RTVSPropertyOp26
 70
     1
102
RTVSPropertyOp27
 70
     1
102
RTVSPropertyOp28
 70
     1
102
RTVSPropertyOp29
 70
     1
102
RTVSPropertyOp30
 70
     1
102
RTVSPropertyOp31
 70
     1
102
RTVSPropertyOp32
 70
     1
102
RTVSPropertyOp33
 70
     1
102
RTVSPropertyOp34
 70
     1
102
RTVSPropertyOp35
 70
     1
102
RTVSPropertyOp36
 70
     1
102
RTVSPropertyOp37
 70
     1
102
RTVSPropertyOp38
 70
     1
102
RTVSPropertyOp39
 70
     1
102
RTVSPropertyOp40
 70
     1
102
RTVSPropertyOp41
 70
     1
102
RTVSPropertyOp42
 70
     1
102
RTVSPropertyOp43
 70
     1
102
RTVSPropertyOp44
 70
     1
102
RTVSPropertyOp45
 70
     1
102
RTVSPropertyOp46
 70
     1
102
RTVSPropertyOp47
 70
     1
102
RTVSPropertyOp48
 70
     1
102
RTVSPropertyOp49
 70
     1
102
RTVSPropertyOp50
 70
     1
102
RTVSPropertyOp51
 70
     0
102
RTVSPropertyOp52
 70
     0
102
RTVSPropertyOp53
 70
     1
102
RTVSPropertyOp54
 70
     1
102
RTVSPropertyOp55
 70
     1
102
RTVSPropertyOp56
 70
     1
102
RTVSPropertyOp57
 70
     1
102
RTVSPropertyOp58
 70
     1
102
RTVSPropertyOp59
 70
     1
102
RTVSPropertyOp60
 70
     1
102
RTVSPropertyOp61
 70
     1
102
RTVSPropertyOp62
 70
     1
  0
XRECORD
  5
84DB
102
{ACAD_REACTORS
330
84DA
102
}
330
84DA
100
AcDbXrecord
280
     1
102
RTVSPost2010Prop28
280
     0
102
RTVSPost2010PropOp28
 70
     1
102
RTVSPost2010Prop29
280
     1
102
RTVSPost2010PropOp29
 70
     1
102
RTVSPost2010Prop30
280
     1
102
RTVSPost2010PropOp30
 70
     1
102
RTVSPost2010Prop31
280
     0
102
RTVSPost2010PropOp31
 70
     1
102
RTVSPost2010Prop32
280
     0
102
RTVSPost2010PropOp32
 70
     1
102
RTVSPost2010Prop33
280
     0
102
RTVSPost2010PropOp33
 70
     1
102
RTVSPost2010Prop34
280
     0
102
RTVSPost2010PropOp34
 70
     1
102
RTVSPost2010Prop35
280
     0
102
RTVSPost2010PropOp35
 70
     1
102
RTVSPost2010Prop36
280
     0
102
RTVSPost2010PropOp36
 70
     1
102
RTVSPost2010Prop37
 90
       50
102
RTVSPost2010PropOp37
 70
     1
102
RTVSPost2010Prop38
140
0.0
102
RTVSPost2010PropOp38
 70
     1
102
RTVSPost2010Prop39
140
1.0
102
RTVSPost2010PropOp39
 70
     1
102
RTVSPost2010Prop40
 90
        0
102
RTVSPost2010PropOp40
 70
     1
102
RTVSPost2010Prop41ColorIndex
 90
       18
102
RTVSPost2010Prop41ColorRGB
 90
        0
102
RTVSPost2010PropOp41
 70
     1
102
RTVSPost2010Prop42
 90
       50
102
RTVSPost2010PropOp42
 70
     1
102
RTVSPost2010Prop43
 90
        3
102
RTVSPost2010PropOp43
 70
     1
102
RTVSPost2010Prop44ColorIndex
 90
        5
102
RTVSPost2010Prop44ColorRGB
 90
      255
102
RTVSPost2010PropOp44
 70
     1
102
RTVSPost2010Prop45
280
     0
102
RTVSPost2010PropOp45
 70
     1
102
RTVSPost2010Prop46
 90
       50
102
RTVSPost2010PropOp46
 70
     1
102
RTVSPost2010Prop47
 90
       50
102
RTVSPost2010PropOp47
 70
     1
102
RTVSPost2010Prop48
 90
       50
102
RTVSPost2010PropOp48
 70
     1
102
RTVSPost2010Prop49
280
     0
102
RTVSPost2010PropOp49
 70
     1
102
RTVSPost2010Prop50
 90
       50
102
RTVSPost2010PropOp50
 70
     1
102
RTVSPost2010Prop51ColorIndex
 90
      256
102
RTVSPost2010Prop51ColorRGB
 90
-16777216
102
RTVSPost2010PropOp51
 70
     0
102
RTVSPost2010Prop52
140
1.0
102
RTVSPost2010PropOp52
 70
     0
102
RTVSPost2010Prop53
 90
        2
102
RTVSPost2010PropOp53
 70
     1
102
RTVSPost2010Prop54
  1
strokes_ogs.tif
102
RTVSPost2010PropOp54
 70
     1
102
RTVSPost2010Prop55
280
     0
102
RTVSPost2010PropOp55
 70
     1
102
RTVSPost2010Prop56
140
1.0
102
RTVSPost2010PropOp56
 70
     1
102
RTVSPost2010Prop57
140
1.0
102
RTVSPost2010PropOp57
 70
     1
102
RTVSPropertyOp0
 70
     1
102
RTVSPropertyOp1
 70
     1
102
RTVSPropertyOp2
 70
     1
102
RTVSPropertyOp3
 70
     1
102
RTVSPropertyOp4
 70
     1
102
RTVSPropertyOp5
 70
     1
102
RTVSPropertyOp6
 70
     1
102
RTVSPropertyOp7
 70
     1
102
RTVSPropertyOp8
 70
     1
102
RTVSPropertyOp9
 70
     1
102
RTVSPropertyOp10
 70
     1
102
RTVSPropertyOp11
 70
     1
102
RTVSPropertyOp12
 70
     1
102
RTVSPropertyOp13
 70
     1
102
RTVSPropertyOp14
 70
     1
102
RTVSPropertyOp15
 70
     1
102
RTVSPropertyOp16
 70
     1
102
RTVSPropertyOp17
 70
     1
102
RTVSPropertyOp18
 70
     1
102
RTVSPropertyOp19
 70
     1
102
RTVSPropertyOp20
 70
     1
102
RTVSPropertyOp21
 70
     1
102
RTVSPropertyOp22
 70
     1
102
RTVSPropertyOp23
 70
     1
102
RTVSPropertyOp24
 70
     1
102
RTVSPropertyOp25
 70
     1
102
RTVSPropertyOp26
 70
     1
102
RTVSPropertyOp27
 70
     1
102
RTVSPropertyOp28
 70
     1
102
RTVSPropertyOp29
 70
     1
102
RTVSPropertyOp30
 70
     1
102
RTVSPropertyOp31
 70
     1
102
RTVSPropertyOp32
 70
     1
102
RTVSPropertyOp33
 70
     1
102
RTVSPropertyOp34
 70
     1
102
RTVSPropertyOp35
 70
     1
102
RTVSPropertyOp36
 70
     1
102
RTVSPropertyOp37
 70
     1
102
RTVSPropertyOp38
 70
     1
102
RTVSPropertyOp39
 70
     1
102
RTVSPropertyOp40
 70
     1
102
RTVSPropertyOp41
 70
     1
102
RTVSPropertyOp42
 70
     1
102
RTVSPropertyOp43
 70
     1
102
RTVSPropertyOp44
 70
     1
102
RTVSPropertyOp45
 70
     1
102
RTVSPropertyOp46
 70
     1
102
RTVSPropertyOp47
 70
     1
102
RTVSPropertyOp48
 70
     1
102
RTVSPropertyOp49
 70
     1
102
RTVSPropertyOp50
 70
     1
102
RTVSPropertyOp51
 70
     0
102
RTVSPropertyOp52
 70
     0
102
RTVSPropertyOp53
 70
     1
102
RTVSPropertyOp54
 70
     1
102
RTVSPropertyOp55
 70
     1
102
RTVSPropertyOp56
 70
     1
102
RTVSPropertyOp57
 70
     1
102
RTVSPropertyOp58
 70
     1
102
RTVSPropertyOp59
 70
     1
102
RTVSPropertyOp60
 70
     1
102
RTVSPropertyOp61
 70
     1
102
RTVSPropertyOp62
 70
     1
  0
XRECORD
  5
84D9
102
{ACAD_REACTORS
330
84D8
102
}
330
84D8
100
AcDbXrecord
280
     1
102
RTVSPost2010Prop28
280
     0
102
RTVSPost2010PropOp28
 70
     1
102
RTVSPost2010Prop29
280
     1
102
RTVSPost2010PropOp29
 70
     1
102
RTVSPost2010Prop30
280
     1
102
RTVSPost2010PropOp30
 70
     1
102
RTVSPost2010Prop31
280
     0
102
RTVSPost2010PropOp31
 70
     1
102
RTVSPost2010Prop32
280
     0
102
RTVSPost2010PropOp32
 70
     1
102
RTVSPost2010Prop33
280
     0
102
RTVSPost2010PropOp33
 70
     1
102
RTVSPost2010Prop34
280
     0
102
RTVSPost2010PropOp34
 70
     1
102
RTVSPost2010Prop35
280
     0
102
RTVSPost2010PropOp35
 70
     1
102
RTVSPost2010Prop36
280
     0
102
RTVSPost2010PropOp36
 70
     1
102
RTVSPost2010Prop37
 90
       50
102
RTVSPost2010PropOp37
 70
     1
102
RTVSPost2010Prop38
140
0.0
102
RTVSPost2010PropOp38
 70
     1
102
RTVSPost2010Prop39
140
1.0
102
RTVSPost2010PropOp39
 70
     1
102
RTVSPost2010Prop40
 90
        0
102
RTVSPost2010PropOp40
 70
     1
102
RTVSPost2010Prop41ColorIndex
 90
       18
102
RTVSPost2010Prop41ColorRGB
 90
        0
102
RTVSPost2010PropOp41
 70
     1
102
RTVSPost2010Prop42
 90
       50
102
RTVSPost2010PropOp42
 70
     1
102
RTVSPost2010Prop43
 90
        3
102
RTVSPost2010PropOp43
 70
     1
102
RTVSPost2010Prop44ColorIndex
 90
        5
102
RTVSPost2010Prop44ColorRGB
 90
      255
102
RTVSPost2010PropOp44
 70
     1
102
RTVSPost2010Prop45
280
     0
102
RTVSPost2010PropOp45
 70
     1
102
RTVSPost2010Prop46
 90
       50
102
RTVSPost2010PropOp46
 70
     1
102
RTVSPost2010Prop47
 90
       50
102
RTVSPost2010PropOp47
 70
     1
102
RTVSPost2010Prop48
 90
       50
102
RTVSPost2010PropOp48
 70
     1
102
RTVSPost2010Prop49
280
     0
102
RTVSPost2010PropOp49
 70
     1
102
RTVSPost2010Prop50
 90
       50
102
RTVSPost2010PropOp50
 70
     1
102
RTVSPost2010Prop51ColorIndex
 90
      256
102
RTVSPost2010Prop51ColorRGB
 90
-16777216
102
RTVSPost2010PropOp51
 70
     0
102
RTVSPost2010Prop52
140
1.0
102
RTVSPost2010PropOp52
 70
     0
102
RTVSPost2010Prop53
 90
        2
102
RTVSPost2010PropOp53
 70
     1
102
RTVSPost2010Prop54
  1
strokes_ogs.tif
102
RTVSPost2010PropOp54
 70
     1
102
RTVSPost2010Prop55
280
     0
102
RTVSPost2010PropOp55
 70
     1
102
RTVSPost2010Prop56
140
1.0
102
RTVSPost2010PropOp56
 70
     1
102
RTVSPost2010Prop57
140
1.0
102
RTVSPost2010PropOp57
 70
     1
102
RTVSPropertyOp0
 70
     1
102
RTVSPropertyOp1
 70
     1
102
RTVSPropertyOp2
 70
     1
102
RTVSPropertyOp3
 70
     1
102
RTVSPropertyOp4
 70
     1
102
RTVSPropertyOp5
 70
     1
102
RTVSPropertyOp6
 70
     1
102
RTVSPropertyOp7
 70
     1
102
RTVSPropertyOp8
 70
     1
102
RTVSPropertyOp9
 70
     1
102
RTVSPropertyOp10
 70
     1
102
RTVSPropertyOp11
 70
     1
102
RTVSPropertyOp12
 70
     1
102
RTVSPropertyOp13
 70
     1
102
RTVSPropertyOp14
 70
     1
102
RTVSPropertyOp15
 70
     1
102
RTVSPropertyOp16
 70
     1
102
RTVSPropertyOp17
 70
     1
102
RTVSPropertyOp18
 70
     1
102
RTVSPropertyOp19
 70
     1
102
RTVSPropertyOp20
 70
     1
102
RTVSPropertyOp21
 70
     1
102
RTVSPropertyOp22
 70
     1
102
RTVSPropertyOp23
 70
     1
102
RTVSPropertyOp24
 70
     1
102
RTVSPropertyOp25
 70
     1
102
RTVSPropertyOp26
 70
     1
102
RTVSPropertyOp27
 70
     1
102
RTVSPropertyOp28
 70
     1
102
RTVSPropertyOp29
 70
     1
102
RTVSPropertyOp30
 70
     1
102
RTVSPropertyOp31
 70
     1
102
RTVSPropertyOp32
 70
     1
102
RTVSPropertyOp33
 70
     1
102
RTVSPropertyOp34
 70
     1
102
RTVSPropertyOp35
 70
     1
102
RTVSPropertyOp36
 70
     1
102
RTVSPropertyOp37
 70
     1
102
RTVSPropertyOp38
 70
     1
102
RTVSPropertyOp39
 70
     1
102
RTVSPropertyOp40
 70
     1
102
RTVSPropertyOp41
 70
     1
102
RTVSPropertyOp42
 70
     1
102
RTVSPropertyOp43
 70
     1
102
RTVSPropertyOp44
 70
     1
102
RTVSPropertyOp45
 70
     1
102
RTVSPropertyOp46
 70
     1
102
RTVSPropertyOp47
 70
     1
102
RTVSPropertyOp48
 70
     1
102
RTVSPropertyOp49
 70
     1
102
RTVSPropertyOp50
 70
     1
102
RTVSPropertyOp51
 70
     0
102
RTVSPropertyOp52
 70
     0
102
RTVSPropertyOp53
 70
     1
102
RTVSPropertyOp54
 70
     1
102
RTVSPropertyOp55
 70
     1
102
RTVSPropertyOp56
 70
     1
102
RTVSPropertyOp57
 70
     1
102
RTVSPropertyOp58
 70
     1
102
RTVSPropertyOp59
 70
     1
102
RTVSPropertyOp60
 70
     1
102
RTVSPropertyOp61
 70
     1
102
RTVSPropertyOp62
 70
     1
  0
XRECORD
  5
84D3
102
{ACAD_REACTORS
330
84D2
102
}
330
84D2
100
AcDbXrecord
280
     1
102
RTVSPost2010Prop28
280
     0
102
RTVSPost2010PropOp28
 70
     1
102
RTVSPost2010Prop29
280
     1
102
RTVSPost2010PropOp29
 70
     1
102
RTVSPost2010Prop30
280
     1
102
RTVSPost2010PropOp30
 70
     1
102
RTVSPost2010Prop31
280
     0
102
RTVSPost2010PropOp31
 70
     1
102
RTVSPost2010Prop32
280
     0
102
RTVSPost2010PropOp32
 70
     1
102
RTVSPost2010Prop33
280
     0
102
RTVSPost2010PropOp33
 70
     1
102
RTVSPost2010Prop34
280
     0
102
RTVSPost2010PropOp34
 70
     1
102
RTVSPost2010Prop35
280
     0
102
RTVSPost2010PropOp35
 70
     1
102
RTVSPost2010Prop36
280
     0
102
RTVSPost2010PropOp36
 70
     1
102
RTVSPost2010Prop37
 90
       50
102
RTVSPost2010PropOp37
 70
     1
102
RTVSPost2010Prop38
140
0.0
102
RTVSPost2010PropOp38
 70
     1
102
RTVSPost2010Prop39
140
1.0
102
RTVSPost2010PropOp39
 70
     1
102
RTVSPost2010Prop40
 90
        0
102
RTVSPost2010PropOp40
 70
     1
102
RTVSPost2010Prop41ColorIndex
 90
       18
102
RTVSPost2010Prop41ColorRGB
 90
        0
102
RTVSPost2010PropOp41
 70
     1
102
RTVSPost2010Prop42
 90
       50
102
RTVSPost2010PropOp42
 70
     1
102
RTVSPost2010Prop43
 90
        3
102
RTVSPost2010PropOp43
 70
     1
102
RTVSPost2010Prop44ColorIndex
 90
        5
102
RTVSPost2010Prop44ColorRGB
 90
      255
102
RTVSPost2010PropOp44
 70
     1
102
RTVSPost2010Prop45
280
     0
102
RTVSPost2010PropOp45
 70
     1
102
RTVSPost2010Prop46
 90
       50
102
RTVSPost2010PropOp46
 70
     1
102
RTVSPost2010Prop47
 90
       50
102
RTVSPost2010PropOp47
 70
     1
102
RTVSPost2010Prop48
 90
       50
102
RTVSPost2010PropOp48
 70
     1
102
RTVSPost2010Prop49
280
     0
102
RTVSPost2010PropOp49
 70
     1
102
RTVSPost2010Prop50
 90
       50
102
RTVSPost2010PropOp50
 70
     1
102
RTVSPost2010Prop51ColorIndex
 90
      256
102
RTVSPost2010Prop51ColorRGB
 90
-16777216
102
RTVSPost2010PropOp51
 70
     0
102
RTVSPost2010Prop52
140
1.0
102
RTVSPost2010PropOp52
 70
     0
102
RTVSPost2010Prop53
 90
        2
102
RTVSPost2010PropOp53
 70
     1
102
RTVSPost2010Prop54
  1
strokes_ogs.tif
102
RTVSPost2010PropOp54
 70
     1
102
RTVSPost2010Prop55
280
     0
102
RTVSPost2010PropOp55
 70
     1
102
RTVSPost2010Prop56
140
1.0
102
RTVSPost2010PropOp56
 70
     1
102
RTVSPost2010Prop57
140
1.0
102
RTVSPost2010PropOp57
 70
     1
102
RTVSPropertyOp0
 70
     1
102
RTVSPropertyOp1
 70
     1
102
RTVSPropertyOp2
 70
     1
102
RTVSPropertyOp3
 70
     1
102
RTVSPropertyOp4
 70
     1
102
RTVSPropertyOp5
 70
     1
102
RTVSPropertyOp6
 70
     1
102
RTVSPropertyOp7
 70
     1
102
RTVSPropertyOp8
 70
     1
102
RTVSPropertyOp9
 70
     1
102
RTVSPropertyOp10
 70
     1
102
RTVSPropertyOp11
 70
     1
102
RTVSPropertyOp12
 70
     1
102
RTVSPropertyOp13
 70
     1
102
RTVSPropertyOp14
 70
     1
102
RTVSPropertyOp15
 70
     1
102
RTVSPropertyOp16
 70
     1
102
RTVSPropertyOp17
 70
     1
102
RTVSPropertyOp18
 70
     1
102
RTVSPropertyOp19
 70
     1
102
RTVSPropertyOp20
 70
     1
102
RTVSPropertyOp21
 70
     1
102
RTVSPropertyOp22
 70
     1
102
RTVSPropertyOp23
 70
     1
102
RTVSPropertyOp24
 70
     1
102
RTVSPropertyOp25
 70
     1
102
RTVSPropertyOp26
 70
     1
102
RTVSPropertyOp27
 70
     1
102
RTVSPropertyOp28
 70
     1
102
RTVSPropertyOp29
 70
     1
102
RTVSPropertyOp30
 70
     1
102
RTVSPropertyOp31
 70
     1
102
RTVSPropertyOp32
 70
     1
102
RTVSPropertyOp33
 70
     1
102
RTVSPropertyOp34
 70
     1
102
RTVSPropertyOp35
 70
     1
102
RTVSPropertyOp36
 70
     1
102
RTVSPropertyOp37
 70
     1
102
RTVSPropertyOp38
 70
     1
102
RTVSPropertyOp39
 70
     1
102
RTVSPropertyOp40
 70
     1
102
RTVSPropertyOp41
 70
     1
102
RTVSPropertyOp42
 70
     1
102
RTVSPropertyOp43
 70
     1
102
RTVSPropertyOp44
 70
     1
102
RTVSPropertyOp45
 70
     1
102
RTVSPropertyOp46
 70
     1
102
RTVSPropertyOp47
 70
     1
102
RTVSPropertyOp48
 70
     1
102
RTVSPropertyOp49
 70
     1
102
RTVSPropertyOp50
 70
     1
102
RTVSPropertyOp51
 70
     0
102
RTVSPropertyOp52
 70
     0
102
RTVSPropertyOp53
 70
     1
102
RTVSPropertyOp54
 70
     1
102
RTVSPropertyOp55
 70
     1
102
RTVSPropertyOp56
 70
     1
102
RTVSPropertyOp57
 70
     1
102
RTVSPropertyOp58
 70
     1
102
RTVSPropertyOp59
 70
     1
102
RTVSPropertyOp60
 70
     1
102
RTVSPropertyOp61
 70
     1
102
RTVSPropertyOp62
 70
     1
  0
XRECORD
  5
84D5
102
{ACAD_REACTORS
330
84D4
102
}
330
84D4
100
AcDbXrecord
280
     1
102
RTVSPost2010Prop28
280
     0
102
RTVSPost2010PropOp28
 70
     1
102
RTVSPost2010Prop29
280
     1
102
RTVSPost2010PropOp29
 70
     1
102
RTVSPost2010Prop30
280
     1
102
RTVSPost2010PropOp30
 70
     1
102
RTVSPost2010Prop31
280
     0
102
RTVSPost2010PropOp31
 70
     1
102
RTVSPost2010Prop32
280
     0
102
RTVSPost2010PropOp32
 70
     1
102
RTVSPost2010Prop33
280
     0
102
RTVSPost2010PropOp33
 70
     1
102
RTVSPost2010Prop34
280
     0
102
RTVSPost2010PropOp34
 70
     1
102
RTVSPost2010Prop35
280
     0
102
RTVSPost2010PropOp35
 70
     1
102
RTVSPost2010Prop36
280
     0
102
RTVSPost2010PropOp36
 70
     1
102
RTVSPost2010Prop37
 90
       50
102
RTVSPost2010PropOp37
 70
     1
102
RTVSPost2010Prop38
140
0.0
102
RTVSPost2010PropOp38
 70
     1
102
RTVSPost2010Prop39
140
1.0
102
RTVSPost2010PropOp39
 70
     1
102
RTVSPost2010Prop40
 90
        0
102
RTVSPost2010PropOp40
 70
     1
102
RTVSPost2010Prop41ColorIndex
 90
       18
102
RTVSPost2010Prop41ColorRGB
 90
        0
102
RTVSPost2010PropOp41
 70
     1
102
RTVSPost2010Prop42
 90
       50
102
RTVSPost2010PropOp42
 70
     1
102
RTVSPost2010Prop43
 90
        3
102
RTVSPost2010PropOp43
 70
     1
102
RTVSPost2010Prop44ColorIndex
 90
        5
102
RTVSPost2010Prop44ColorRGB
 90
      255
102
RTVSPost2010PropOp44
 70
     1
102
RTVSPost2010Prop45
280
     0
102
RTVSPost2010PropOp45
 70
     1
102
RTVSPost2010Prop46
 90
       50
102
RTVSPost2010PropOp46
 70
     1
102
RTVSPost2010Prop47
 90
       50
102
RTVSPost2010PropOp47
 70
     1
102
RTVSPost2010Prop48
 90
       50
102
RTVSPost2010PropOp48
 70
     1
102
RTVSPost2010Prop49
280
     0
102
RTVSPost2010PropOp49
 70
     1
102
RTVSPost2010Prop50
 90
       50
102
RTVSPost2010PropOp50
 70
     1
102
RTVSPost2010Prop51ColorIndex
 90
      256
102
RTVSPost2010Prop51ColorRGB
 90
-16777216
102
RTVSPost2010PropOp51
 70
     0
102
RTVSPost2010Prop52
140
1.0
102
RTVSPost2010PropOp52
 70
     0
102
RTVSPost2010Prop53
 90
        2
102
RTVSPost2010PropOp53
 70
     1
102
RTVSPost2010Prop54
  1
strokes_ogs.tif
102
RTVSPost2010PropOp54
 70
     1
102
RTVSPost2010Prop55
280
     0
102
RTVSPost2010PropOp55
 70
     1
102
RTVSPost2010Prop56
140
1.0
102
RTVSPost2010PropOp56
 70
     1
102
RTVSPost2010Prop57
140
1.0
102
RTVSPost2010PropOp57
 70
     1
102
RTVSPropertyOp0
 70
     1
102
RTVSPropertyOp1
 70
     1
102
RTVSPropertyOp2
 70
     1
102
RTVSPropertyOp3
 70
     1
102
RTVSPropertyOp4
 70
     1
102
RTVSPropertyOp5
 70
     1
102
RTVSPropertyOp6
 70
     1
102
RTVSPropertyOp7
 70
     1
102
RTVSPropertyOp8
 70
     1
102
RTVSPropertyOp9
 70
     1
102
RTVSPropertyOp10
 70
     1
102
RTVSPropertyOp11
 70
     1
102
RTVSPropertyOp12
 70
     1
102
RTVSPropertyOp13
 70
     1
102
RTVSPropertyOp14
 70
     1
102
RTVSPropertyOp15
 70
     1
102
RTVSPropertyOp16
 70
     1
102
RTVSPropertyOp17
 70
     1
102
RTVSPropertyOp18
 70
     1
102
RTVSPropertyOp19
 70
     1
102
RTVSPropertyOp20
 70
     1
102
RTVSPropertyOp21
 70
     1
102
RTVSPropertyOp22
 70
     1
102
RTVSPropertyOp23
 70
     1
102
RTVSPropertyOp24
 70
     1
102
RTVSPropertyOp25
 70
     1
102
RTVSPropertyOp26
 70
     1
102
RTVSPropertyOp27
 70
     1
102
RTVSPropertyOp28
 70
     1
102
RTVSPropertyOp29
 70
     1
102
RTVSPropertyOp30
 70
     1
102
RTVSPropertyOp31
 70
     1
102
RTVSPropertyOp32
 70
     1
102
RTVSPropertyOp33
 70
     1
102
RTVSPropertyOp34
 70
     1
102
RTVSPropertyOp35
 70
     1
102
RTVSPropertyOp36
 70
     1
102
RTVSPropertyOp37
 70
     1
102
RTVSPropertyOp38
 70
     1
102
RTVSPropertyOp39
 70
     1
102
RTVSPropertyOp40
 70
     1
102
RTVSPropertyOp41
 70
     1
102
RTVSPropertyOp42
 70
     1
102
RTVSPropertyOp43
 70
     1
102
RTVSPropertyOp44
 70
     1
102
RTVSPropertyOp45
 70
     1
102
RTVSPropertyOp46
 70
     1
102
RTVSPropertyOp47
 70
     1
102
RTVSPropertyOp48
 70
     1
102
RTVSPropertyOp49
 70
     1
102
RTVSPropertyOp50
 70
     1
102
RTVSPropertyOp51
 70
     0
102
RTVSPropertyOp52
 70
     0
102
RTVSPropertyOp53
 70
     1
102
RTVSPropertyOp54
 70
     1
102
RTVSPropertyOp55
 70
     1
102
RTVSPropertyOp56
 70
     1
102
RTVSPropertyOp57
 70
     1
102
RTVSPropertyOp58
 70
     1
102
RTVSPropertyOp59
 70
     1
102
RTVSPropertyOp60
 70
     1
102
RTVSPropertyOp61
 70
     1
102
RTVSPropertyOp62
 70
     1
  0
XRECORD
  5
84CB
102
{ACAD_REACTORS
330
84CA
102
}
330
84CA
100
AcDbXrecord
280
     1
102
RTVSPost2010Prop28
280
     0
102
RTVSPost2010PropOp28
 70
     1
102
RTVSPost2010Prop29
280
     1
102
RTVSPost2010PropOp29
 70
     1
102
RTVSPost2010Prop30
280
     1
102
RTVSPost2010PropOp30
 70
     1
102
RTVSPost2010Prop31
280
     0
102
RTVSPost2010PropOp31
 70
     1
102
RTVSPost2010Prop32
280
     0
102
RTVSPost2010PropOp32
 70
     1
102
RTVSPost2010Prop33
280
     0
102
RTVSPost2010PropOp33
 70
     1
102
RTVSPost2010Prop34
280
     0
102
RTVSPost2010PropOp34
 70
     1
102
RTVSPost2010Prop35
280
     0
102
RTVSPost2010PropOp35
 70
     1
102
RTVSPost2010Prop36
280
     0
102
RTVSPost2010PropOp36
 70
     1
102
RTVSPost2010Prop37
 90
       50
102
RTVSPost2010PropOp37
 70
     1
102
RTVSPost2010Prop38
140
0.0
102
RTVSPost2010PropOp38
 70
     1
102
RTVSPost2010Prop39
140
1.0
102
RTVSPost2010PropOp39
 70
     1
102
RTVSPost2010Prop40
 90
        0
102
RTVSPost2010PropOp40
 70
     1
102
RTVSPost2010Prop41ColorIndex
 90
       18
102
RTVSPost2010Prop41ColorRGB
 90
        0
102
RTVSPost2010PropOp41
 70
     1
102
RTVSPost2010Prop42
 90
       50
102
RTVSPost2010PropOp42
 70
     1
102
RTVSPost2010Prop43
 90
        3
102
RTVSPost2010PropOp43
 70
     1
102
RTVSPost2010Prop44ColorIndex
 90
        5
102
RTVSPost2010Prop44ColorRGB
 90
      255
102
RTVSPost2010PropOp44
 70
     1
102
RTVSPost2010Prop45
280
     0
102
RTVSPost2010PropOp45
 70
     1
102
RTVSPost2010Prop46
 90
       50
102
RTVSPost2010PropOp46
 70
     1
102
RTVSPost2010Prop47
 90
       50
102
RTVSPost2010PropOp47
 70
     1
102
RTVSPost2010Prop48
 90
       50
102
RTVSPost2010PropOp48
 70
     1
102
RTVSPost2010Prop49
280
     0
102
RTVSPost2010PropOp49
 70
     1
102
RTVSPost2010Prop50
 90
       50
102
RTVSPost2010PropOp50
 70
     1
102
RTVSPost2010Prop51ColorIndex
 90
      256
102
RTVSPost2010Prop51ColorRGB
 90
-16777216
102
RTVSPost2010PropOp51
 70
     0
102
RTVSPost2010Prop52
140
1.0
102
RTVSPost2010PropOp52
 70
     0
102
RTVSPost2010Prop53
 90
        2
102
RTVSPost2010PropOp53
 70
     1
102
RTVSPost2010Prop54
  1
strokes_ogs.tif
102
RTVSPost2010PropOp54
 70
     1
102
RTVSPost2010Prop55
280
     0
102
RTVSPost2010PropOp55
 70
     1
102
RTVSPost2010Prop56
140
1.0
102
RTVSPost2010PropOp56
 70
     1
102
RTVSPost2010Prop57
140
1.0
102
RTVSPost2010PropOp57
 70
     1
102
RTVSPropertyOp0
 70
     1
102
RTVSPropertyOp1
 70
     1
102
RTVSPropertyOp2
 70
     1
102
RTVSPropertyOp3
 70
     1
102
RTVSPropertyOp4
 70
     1
102
RTVSPropertyOp5
 70
     1
102
RTVSPropertyOp6
 70
     1
102
RTVSPropertyOp7
 70
     1
102
RTVSPropertyOp8
 70
     1
102
RTVSPropertyOp9
 70
     1
102
RTVSPropertyOp10
 70
     1
102
RTVSPropertyOp11
 70
     1
102
RTVSPropertyOp12
 70
     1
102
RTVSPropertyOp13
 70
     1
102
RTVSPropertyOp14
 70
     1
102
RTVSPropertyOp15
 70
     1
102
RTVSPropertyOp16
 70
     1
102
RTVSPropertyOp17
 70
     1
102
RTVSPropertyOp18
 70
     1
102
RTVSPropertyOp19
 70
     1
102
RTVSPropertyOp20
 70
     1
102
RTVSPropertyOp21
 70
     1
102
RTVSPropertyOp22
 70
     1
102
RTVSPropertyOp23
 70
     1
102
RTVSPropertyOp24
 70
     1
102
RTVSPropertyOp25
 70
     1
102
RTVSPropertyOp26
 70
     1
102
RTVSPropertyOp27
 70
     1
102
RTVSPropertyOp28
 70
     1
102
RTVSPropertyOp29
 70
     1
102
RTVSPropertyOp30
 70
     1
102
RTVSPropertyOp31
 70
     1
102
RTVSPropertyOp32
 70
     1
102
RTVSPropertyOp33
 70
     1
102
RTVSPropertyOp34
 70
     1
102
RTVSPropertyOp35
 70
     1
102
RTVSPropertyOp36
 70
     1
102
RTVSPropertyOp37
 70
     1
102
RTVSPropertyOp38
 70
     1
102
RTVSPropertyOp39
 70
     1
102
RTVSPropertyOp40
 70
     1
102
RTVSPropertyOp41
 70
     1
102
RTVSPropertyOp42
 70
     1
102
RTVSPropertyOp43
 70
     1
102
RTVSPropertyOp44
 70
     1
102
RTVSPropertyOp45
 70
     1
102
RTVSPropertyOp46
 70
     1
102
RTVSPropertyOp47
 70
     1
102
RTVSPropertyOp48
 70
     1
102
RTVSPropertyOp49
 70
     1
102
RTVSPropertyOp50
 70
     1
102
RTVSPropertyOp51
 70
     0
102
RTVSPropertyOp52
 70
     0
102
RTVSPropertyOp53
 70
     1
102
RTVSPropertyOp54
 70
     1
102
RTVSPropertyOp55
 70
     1
102
RTVSPropertyOp56
 70
     1
102
RTVSPropertyOp57
 70
     1
102
RTVSPropertyOp58
 70
     1
102
RTVSPropertyOp59
 70
     1
102
RTVSPropertyOp60
 70
     1
102
RTVSPropertyOp61
 70
     1
102
RTVSPropertyOp62
 70
     1
  0
XRECORD
  5
84BF
102
{ACAD_REACTORS
330
84BE
102
}
330
84BE
100
AcDbXrecord
280
     1
102
RTVSPost2010Prop28
280
     0
102
RTVSPost2010PropOp28
 70
     1
102
RTVSPost2010Prop29
280
     1
102
RTVSPost2010PropOp29
 70
     1
102
RTVSPost2010Prop30
280
     1
102
RTVSPost2010PropOp30
 70
     1
102
RTVSPost2010Prop31
280
     0
102
RTVSPost2010PropOp31
 70
     1
102
RTVSPost2010Prop32
280
     0
102
RTVSPost2010PropOp32
 70
     1
102
RTVSPost2010Prop33
280
     0
102
RTVSPost2010PropOp33
 70
     1
102
RTVSPost2010Prop34
280
     0
102
RTVSPost2010PropOp34
 70
     1
102
RTVSPost2010Prop35
280
     0
102
RTVSPost2010PropOp35
 70
     1
102
RTVSPost2010Prop36
280
     0
102
RTVSPost2010PropOp36
 70
     1
102
RTVSPost2010Prop37
 90
       50
102
RTVSPost2010PropOp37
 70
     1
102
RTVSPost2010Prop38
140
0.0
102
RTVSPost2010PropOp38
 70
     1
102
RTVSPost2010Prop39
140
1.0
102
RTVSPost2010PropOp39
 70
     1
102
RTVSPost2010Prop40
 90
        0
102
RTVSPost2010PropOp40
 70
     1
102
RTVSPost2010Prop41ColorIndex
 90
       18
102
RTVSPost2010Prop41ColorRGB
 90
        0
102
RTVSPost2010PropOp41
 70
     1
102
RTVSPost2010Prop42
 90
       50
102
RTVSPost2010PropOp42
 70
     1
102
RTVSPost2010Prop43
 90
        3
102
RTVSPost2010PropOp43
 70
     1
102
RTVSPost2010Prop44ColorIndex
 90
        5
102
RTVSPost2010Prop44ColorRGB
 90
      255
102
RTVSPost2010PropOp44
 70
     1
102
RTVSPost2010Prop45
280
     0
102
RTVSPost2010PropOp45
 70
     1
102
RTVSPost2010Prop46
 90
       50
102
RTVSPost2010PropOp46
 70
     1
102
RTVSPost2010Prop47
 90
       50
102
RTVSPost2010PropOp47
 70
     1
102
RTVSPost2010Prop48
 90
       50
102
RTVSPost2010PropOp48
 70
     1
102
RTVSPost2010Prop49
280
     0
102
RTVSPost2010PropOp49
 70
     1
102
RTVSPost2010Prop50
 90
       50
102
RTVSPost2010PropOp50
 70
     1
102
RTVSPost2010Prop51ColorIndex
 90
      256
102
RTVSPost2010Prop51ColorRGB
 90
-16777216
102
RTVSPost2010PropOp51
 70
     0
102
RTVSPost2010Prop52
140
1.0
102
RTVSPost2010PropOp52
 70
     0
102
RTVSPost2010Prop53
 90
        2
102
RTVSPost2010PropOp53
 70
     1
102
RTVSPost2010Prop54
  1
strokes_ogs.tif
102
RTVSPost2010PropOp54
 70
     1
102
RTVSPost2010Prop55
280
     0
102
RTVSPost2010PropOp55
 70
     1
102
RTVSPost2010Prop56
140
1.0
102
RTVSPost2010PropOp56
 70
     1
102
RTVSPost2010Prop57
140
1.0
102
RTVSPost2010PropOp57
 70
     1
102
RTVSPropertyOp0
 70
     1
102
RTVSPropertyOp1
 70
     1
102
RTVSPropertyOp2
 70
     1
102
RTVSPropertyOp3
 70
     1
102
RTVSPropertyOp4
 70
     1
102
RTVSPropertyOp5
 70
     1
102
RTVSPropertyOp6
 70
     1
102
RTVSPropertyOp7
 70
     1
102
RTVSPropertyOp8
 70
     1
102
RTVSPropertyOp9
 70
     1
102
RTVSPropertyOp10
 70
     1
102
RTVSPropertyOp11
 70
     1
102
RTVSPropertyOp12
 70
     1
102
RTVSPropertyOp13
 70
     1
102
RTVSPropertyOp14
 70
     1
102
RTVSPropertyOp15
 70
     1
102
RTVSPropertyOp16
 70
     1
102
RTVSPropertyOp17
 70
     1
102
RTVSPropertyOp18
 70
     1
102
RTVSPropertyOp19
 70
     1
102
RTVSPropertyOp20
 70
     1
102
RTVSPropertyOp21
 70
     1
102
RTVSPropertyOp22
 70
     1
102
RTVSPropertyOp23
 70
     1
102
RTVSPropertyOp24
 70
     1
102
RTVSPropertyOp25
 70
     1
102
RTVSPropertyOp26
 70
     1
102
RTVSPropertyOp27
 70
     1
102
RTVSPropertyOp28
 70
     1
102
RTVSPropertyOp29
 70
     1
102
RTVSPropertyOp30
 70
     1
102
RTVSPropertyOp31
 70
     1
102
RTVSPropertyOp32
 70
     1
102
RTVSPropertyOp33
 70
     1
102
RTVSPropertyOp34
 70
     1
102
RTVSPropertyOp35
 70
     1
102
RTVSPropertyOp36
 70
     1
102
RTVSPropertyOp37
 70
     1
102
RTVSPropertyOp38
 70
     1
102
RTVSPropertyOp39
 70
     1
102
RTVSPropertyOp40
 70
     1
102
RTVSPropertyOp41
 70
     1
102
RTVSPropertyOp42
 70
     1
102
RTVSPropertyOp43
 70
     1
102
RTVSPropertyOp44
 70
     1
102
RTVSPropertyOp45
 70
     1
102
RTVSPropertyOp46
 70
     1
102
RTVSPropertyOp47
 70
     1
102
RTVSPropertyOp48
 70
     1
102
RTVSPropertyOp49
 70
     1
102
RTVSPropertyOp50
 70
     1
102
RTVSPropertyOp51
 70
     0
102
RTVSPropertyOp52
 70
     0
102
RTVSPropertyOp53
 70
     1
102
RTVSPropertyOp54
 70
     1
102
RTVSPropertyOp55
 70
     1
102
RTVSPropertyOp56
 70
     1
102
RTVSPropertyOp57
 70
     1
102
RTVSPropertyOp58
 70
     1
102
RTVSPropertyOp59
 70
     1
102
RTVSPropertyOp60
 70
     1
102
RTVSPropertyOp61
 70
     1
102
RTVSPropertyOp62
 70
     1
  0
XRECORD
  5
84D7
102
{ACAD_REACTORS
330
84D6
102
}
330
84D6
100
AcDbXrecord
280
     1
102
RTVSPost2010Prop28
280
     0
102
RTVSPost2010PropOp28
 70
     1
102
RTVSPost2010Prop29
280
     1
102
RTVSPost2010PropOp29
 70
     1
102
RTVSPost2010Prop30
280
     1
102
RTVSPost2010PropOp30
 70
     1
102
RTVSPost2010Prop31
280
     0
102
RTVSPost2010PropOp31
 70
     1
102
RTVSPost2010Prop32
280
     0
102
RTVSPost2010PropOp32
 70
     1
102
RTVSPost2010Prop33
280
     0
102
RTVSPost2010PropOp33
 70
     1
102
RTVSPost2010Prop34
280
     0
102
RTVSPost2010PropOp34
 70
     1
102
RTVSPost2010Prop35
280
     0
102
RTVSPost2010PropOp35
 70
     1
102
RTVSPost2010Prop36
280
     0
102
RTVSPost2010PropOp36
 70
     1
102
RTVSPost2010Prop37
 90
       50
102
RTVSPost2010PropOp37
 70
     1
102
RTVSPost2010Prop38
140
0.0
102
RTVSPost2010PropOp38
 70
     1
102
RTVSPost2010Prop39
140
1.0
102
RTVSPost2010PropOp39
 70
     1
102
RTVSPost2010Prop40
 90
        0
102
RTVSPost2010PropOp40
 70
     1
102
RTVSPost2010Prop41ColorIndex
 90
       18
102
RTVSPost2010Prop41ColorRGB
 90
        0
102
RTVSPost2010PropOp41
 70
     1
102
RTVSPost2010Prop42
 90
       50
102
RTVSPost2010PropOp42
 70
     1
102
RTVSPost2010Prop43
 90
        3
102
RTVSPost2010PropOp43
 70
     1
102
RTVSPost2010Prop44ColorIndex
 90
        5
102
RTVSPost2010Prop44ColorRGB
 90
      255
102
RTVSPost2010PropOp44
 70
     1
102
RTVSPost2010Prop45
280
     0
102
RTVSPost2010PropOp45
 70
     1
102
RTVSPost2010Prop46
 90
       50
102
RTVSPost2010PropOp46
 70
     1
102
RTVSPost2010Prop47
 90
       50
102
RTVSPost2010PropOp47
 70
     1
102
RTVSPost2010Prop48
 90
       50
102
RTVSPost2010PropOp48
 70
     1
102
RTVSPost2010Prop49
280
     0
102
RTVSPost2010PropOp49
 70
     1
102
RTVSPost2010Prop50
 90
       50
102
RTVSPost2010PropOp50
 70
     1
102
RTVSPost2010Prop51ColorIndex
 90
      256
102
RTVSPost2010Prop51ColorRGB
 90
-16777216
102
RTVSPost2010PropOp51
 70
     0
102
RTVSPost2010Prop52
140
1.0
102
RTVSPost2010PropOp52
 70
     0
102
RTVSPost2010Prop53
 90
        2
102
RTVSPost2010PropOp53
 70
     1
102
RTVSPost2010Prop54
  1
strokes_ogs.tif
102
RTVSPost2010PropOp54
 70
     1
102
RTVSPost2010Prop55
280
     0
102
RTVSPost2010PropOp55
 70
     1
102
RTVSPost2010Prop56
140
1.0
102
RTVSPost2010PropOp56
 70
     1
102
RTVSPost2010Prop57
140
1.0
102
RTVSPost2010PropOp57
 70
     1
102
RTVSPropertyOp0
 70
     1
102
RTVSPropertyOp1
 70
     1
102
RTVSPropertyOp2
 70
     1
102
RTVSPropertyOp3
 70
     1
102
RTVSPropertyOp4
 70
     1
102
RTVSPropertyOp5
 70
     1
102
RTVSPropertyOp6
 70
     1
102
RTVSPropertyOp7
 70
     1
102
RTVSPropertyOp8
 70
     1
102
RTVSPropertyOp9
 70
     1
102
RTVSPropertyOp10
 70
     1
102
RTVSPropertyOp11
 70
     1
102
RTVSPropertyOp12
 70
     1
102
RTVSPropertyOp13
 70
     1
102
RTVSPropertyOp14
 70
     1
102
RTVSPropertyOp15
 70
     1
102
RTVSPropertyOp16
 70
     1
102
RTVSPropertyOp17
 70
     1
102
RTVSPropertyOp18
 70
     1
102
RTVSPropertyOp19
 70
     1
102
RTVSPropertyOp20
 70
     1
102
RTVSPropertyOp21
 70
     1
102
RTVSPropertyOp22
 70
     1
102
RTVSPropertyOp23
 70
     1
102
RTVSPropertyOp24
 70
     1
102
RTVSPropertyOp25
 70
     1
102
RTVSPropertyOp26
 70
     1
102
RTVSPropertyOp27
 70
     1
102
RTVSPropertyOp28
 70
     1
102
RTVSPropertyOp29
 70
     1
102
RTVSPropertyOp30
 70
     1
102
RTVSPropertyOp31
 70
     1
102
RTVSPropertyOp32
 70
     1
102
RTVSPropertyOp33
 70
     1
102
RTVSPropertyOp34
 70
     1
102
RTVSPropertyOp35
 70
     1
102
RTVSPropertyOp36
 70
     1
102
RTVSPropertyOp37
 70
     1
102
RTVSPropertyOp38
 70
     1
102
RTVSPropertyOp39
 70
     1
102
RTVSPropertyOp40
 70
     1
102
RTVSPropertyOp41
 70
     1
102
RTVSPropertyOp42
 70
     1
102
RTVSPropertyOp43
 70
     1
102
RTVSPropertyOp44
 70
     1
102
RTVSPropertyOp45
 70
     1
102
RTVSPropertyOp46
 70
     1
102
RTVSPropertyOp47
 70
     1
102
RTVSPropertyOp48
 70
     1
102
RTVSPropertyOp49
 70
     1
102
RTVSPropertyOp50
 70
     1
102
RTVSPropertyOp51
 70
     0
102
RTVSPropertyOp52
 70
     0
102
RTVSPropertyOp53
 70
     1
102
RTVSPropertyOp54
 70
     1
102
RTVSPropertyOp55
 70
     1
102
RTVSPropertyOp56
 70
     1
102
RTVSPropertyOp57
 70
     1
102
RTVSPropertyOp58
 70
     1
102
RTVSPropertyOp59
 70
     1
102
RTVSPropertyOp60
 70
     1
102
RTVSPropertyOp61
 70
     1
102
RTVSPropertyOp62
 70
     1
  0
ENDSEC
  0
EOF
