  0
SECTION
  2
HEADER
  9
$ACADVER
  1
AC1015
  9
$ACADMAINTVER
 70
    20
  9
$DWGCODEPAGE
  3
ANSI_932
  9
$INSBASE
 10
0.0
 20
0.0
 30
0.0
  9
$EXTMIN
 10
-0.1602050617329951
 20
-0.22504996767384
 30
-0.0015258207003583
  9
$EXTMAX
 10
5250.160229508953
 20
7375.225084310193
 30
0.0000000349246037
  9
$LIMMIN
 10
0.0
 20
0.0
  9
$LIMMAX
 10
297.0
 20
210.0
  9
$ORTHOMODE
 70
     1
  9
$REGENMODE
 70
     1
  9
$FILLMODE
 70
     0
  9
$QTEXTMODE
 70
     0
  9
$MIRRTEXT
 70
     1
  9
$LTSCALE
 40
100.0
  9
$ATTMODE
 70
     1
  9
$TEXTSIZE
 40
180.0
  9
$TRACEWID
 40
0.05
  9
$TEXTSTYLE
  7
STANDARD
  9
$CLAYER
  8
3
  9
$CELTYPE
  6
ByLayer
  9
$CECOLOR
 62
   256
  9
$CELTSCALE
 40
1.0
  9
$DISPSILH
 70
     0
  9
$DIMSCALE
 40
25.0
  9
$DIMASZ
 40
2.0
  9
$DIMEXO
 40
1.0
  9
$DIMDLI
 40
10.0
  9
$DIMRND
 40
0.0
  9
$DIMDLE
 40
0.0
  9
$DIMEXE
 40
1.0
  9
$DIMTP
 40
1.0
  9
$DIMTM
 40
1.0
  9
$DIMTXT
 40
3.0
  9
$DIMCEN
 40
0.0
  9
$DIMTSZ
 40
0.0
  9
$DIMTOL
 70
     0
  9
$DIMLIM
 70
     0
  9
$DIMTIH
 70
     0
  9
$DIMTOH
 70
     0
  9
$DIMSE1
 70
     0
  9
$DIMSE2
 70
     0
  9
$DIMTAD
 70
     1
  9
$DIMZIN
 70
     8
  9
$DIMBLK
  1

  9
$DIMASO
 70
     1
  9
$DIMSHO
 70
     1
  9
$DIMPOST
  1

  9
$DIMAPOST
  1

  9
$DIMALT
 70
     0
  9
$DIMALTD
 70
     2
  9
$DIMALTF
 40
0.039
  9
$DIMLFAC
 40
1.0
  9
$DIMTOFL
 70
     1
  9
$DIMTVP
 40
0.0
  9
$DIMTIX
 70
     0
  9
$DIMSOXD
 70
     0
  9
$DIMSAH
 70
     1
  9
$DIMBLK1
  1
OPEN
  9
$DIMBLK2
  1
OPEN
  9
$DIMSTYLE
  2
IGA
  9
$DIMCLRD
 70
     0
  9
$DIMCLRE
 70
     0
  9
$DIMCLRT
 70
     0
  9
$DIMTFAC
 40
10.0
  9
$DIMGAP
 40
1.0
  9
$DIMJUST
 70
     0
  9
$DIMSD1
 70
     0
  9
$DIMSD2
 70
     0
  9
$DIMTOLJ
 70
     1
  9
$DIMTZIN
 70
     0
  9
$DIMALTZ
 70
     0
  9
$DIMALTTZ
 70
     0
  9
$DIMUPT
 70
     0
  9
$DIMDEC
 70
     4
  9
$DIMTDEC
 70
     4
  9
$DIMALTU
 70
     2
  9
$DIMALTTD
 70
     2
  9
$DIMTXSTY
  7
STANDARD
  9
$DIMAUNIT
 70
     0
  9
$DIMADEC
 70
     0
  9
$DIMALTRND
 40
0.0
  9
$DIMAZIN
 70
     0
  9
$DIMDSEP
 70
    46
  9
$DIMATFIT
 70
     3
  9
$DIMFRAC
 70
     0
  9
$DIMLDRBLK
  1
OPEN
  9
$DIMLUNIT
 70
     2
  9
$DIMLWD
 70
    -2
  9
$DIMLWE
 70
    -2
  9
$DIMTMOVE
 70
     0
  9
$LUNITS
 70
     2
  9
$LUPREC
 70
     3
  9
$SKETCHINC
 40
0.1
  9
$FILLETRAD
 40
50.0
  9
$AUNITS
 70
     0
  9
$AUPREC
 70
     0
  9
$MENU
  1
acad
  9
$ELEVATION
 40
0.0
  9
$PELEVATION
 40
0.0
  9
$THICKNESS
 40
0.0
  9
$LIMCHECK
 70
     0
  9
$CHAMFERA
 40
0.5
  9
$CHAMFERB
 40
0.5
  9
$CHAMFERC
 40
0.0
  9
$CHAMFERD
 40
0.0
  9
$SKPOLY
 70
     0
  9
$TDCREATE
 40
2451389.462286342
  9
$TDUCREATE
 40
2451389.087286342
  9
$TDUPDATE
 40
2460265.713393658
  9
$TDUUPDATE
 40
2460265.338393658
  9
$TDINDWG
 40
0.0200423380
  9
$TDUSRTIMER
 40
0.0200420949
  9
$USRTIMER
 70
     1
  9
$ANGBASE
 50
0.0
  9
$ANGDIR
 70
     0
  9
$PDMODE
 70
     0
  9
$PDSIZE
 40
0.0
  9
$PLINEWID
 40
0.0
  9
$SPLFRAME
 70
     0
  9
$SPLINETYPE
 70
     6
  9
$SPLINESEGS
 70
     8
  9
$HANDSEED
  5
8587
  9
$SURFTAB1
 70
     6
  9
$SURFTAB2
 70
     6
  9
$SURFTYPE
 70
     6
  9
$SURFU
 70
     6
  9
$SURFV
 70
     6
  9
$UCSBASE
  2

  9
$UCSNAME
  2

  9
$UCSORG
 10
0.0
 20
0.0
 30
0.0
  9
$UCSXDIR
 10
1.0
 20
0.0
 30
0.0
  9
$UCSYDIR
 10
0.0
 20
1.0
 30
0.0
  9
$UCSORTHOREF
  2

  9
$UCSORTHOVIEW
 70
     0
  9
$UCSORGTOP
 10
0.0
 20
0.0
 30
0.0
  9
$UCSORGBOTTOM
 10
0.0
 20
0.0
 30
0.0
  9
$UCSORGLEFT
 10
0.0
 20
0.0
 30
0.0
  9
$UCSORGRIGHT
 10
0.0
 20
0.0
 30
0.0
  9
$UCSORGFRONT
 10
0.0
 20
0.0
 30
0.0
  9
$UCSORGBACK
 10
0.0
 20
0.0
 30
0.0
  9
$PUCSBASE
  2

  9
$PUCSNAME
  2

  9
$PUCSORG
 10
0.0
 20
0.0
 30
0.0
  9
$PUCSXDIR
 10
1.0
 20
0.0
 30
0.0
  9
$PUCSYDIR
 10
0.0
 20
1.0
 30
0.0
  9
$PUCSORTHOREF
  2

  9
$PUCSORTHOVIEW
 70
     0
  9
$PUCSORGTOP
 10
0.0
 20
0.0
 30
0.0
  9
$PUCSORGBOTTOM
 10
0.0
 20
0.0
 30
0.0
  9
$PUCSORGLEFT
 10
0.0
 20
0.0
 30
0.0
  9
$PUCSORGRIGHT
 10
0.0
 20
0.0
 30
0.0
  9
$PUCSORGFRONT
 10
0.0
 20
0.0
 30
0.0
  9
$PUCSORGBACK
 10
0.0
 20
0.0
 30
0.0
  9
$USERI1
 70
     0
  9
$USERI2
 70
     0
  9
$USERI3
 70
     0
  9
$USERI4
 70
     0
  9
$USERI5
 70
     0
  9
$USERR1
 40
0.0
  9
$USERR2
 40
0.0
  9
$USERR3
 40
0.0
  9
$USERR4
 40
0.0
  9
$USERR5
 40
0.0
  9
$WORLDVIEW
 70
     1
  9
$SHADEDGE
 70
     3
  9
$SHADEDIF
 70
    70
  9
$TILEMODE
 70
     1
  9
$MAXACTVP
 70
    16
  9
$PINSBASE
 10
0.0
 20
0.0
 30
0.0
  9
$PLIMCHECK
 70
     0
  9
$PEXTMIN
 10
1.000000000000000E+20
 20
1.000000000000000E+20
 30
1.000000000000000E+20
  9
$PEXTMAX
 10
-1.000000000000000E+20
 20
-1.000000000000000E+20
 30
-1.000000000000000E+20
  9
$PLIMMIN
 10
0.0
 20
0.0
  9
$PLIMMAX
 10
12.0
 20
9.0
  9
$UNITMODE
 70
     0
  9
$VISRETAIN
 70
     0
  9
$PLINEGEN
 70
     0
  9
$PSLTSCALE
 70
     1
  9
$TREEDEPTH
 70
  3020
  9
$CMLSTYLE
  2
Standard
  9
$CMLJUST
 70
     0
  9
$CMLSCALE
 40
1.0
  9
$PROXYGRAPHICS
 70
     1
  9
$MEASUREMENT
 70
     0
  9
$CELWEIGHT
370
    -1
  9
$ENDCAPS
280
     0
  9
$JOINSTYLE
280
     0
  9
$LWDISPLAY
290
     0
  9
$INSUNITS
 70
     0
  9
$HYPERLINKBASE
  1

  9
$STYLESHEET
  1

  9
$XEDIT
290
     1
  9
$CEPSNTYPE
380
     0
  9
$PSTYLEMODE
290
     1
  9
$FINGERPRINTGUID
  2
{B92E3EC7-45EF-4792-AB89-04CAB6E1D010}
  9
$VERSIONGUID
  2
{FC3F806E-CA72-4394-857A-C48ECFC5BCEA}
  9
$EXTNAMES
290
     1
  9
$PSVPSCALE
 40
0.0
  9
$OLESTARTUP
290
     0
  0
ENDSEC
  0
SECTION
  2
CLASSES
  0
CLASS
  1
ACDBDICTIONARYWDFLT
  2
AcDbDictionaryWithDefault
  3
ObjectDBX Classes
 90
        0
280
     0
281
     0
  0
CLASS
  1
MATERIAL
  2
AcDbMaterial
  3
ObjectDBX Classes
 90
     1153
280
     0
281
     0
  0
CLASS
  1
VISUALSTYLE
  2
AcDbVisualStyle
  3
ObjectDBX Classes
 90
     4095
280
     0
281
     0
  0
CLASS
  1
SCALE
  2
AcDbScale
  3
ObjectDBX Classes
 90
     1153
280
     0
281
     0
  0
CLASS
  1
TABLESTYLE
  2
AcDbTableStyle
  3
ObjectDBX Classes
 90
     4095
280
     0
281
     0
  0
CLASS
  1
MLEADERSTYLE
  2
AcDbMLeaderStyle
  3
ACDB_MLEADERSTYLE_CLASS
 90
     4095
280
     0
281
     0
  0
CLASS
  1
ACDBSECTIONVIEWSTYLE
  2
AcDbSectionViewStyle
  3
ObjectDBX Classes
 90
     1025
280
     0
281
     0
  0
CLASS
  1
ACDBDETAILVIEWSTYLE
  2
AcDbDetailViewStyle
  3
ObjectDBX Classes
 90
     1025
280
     0
281
     0
  0
CLASS
  1
DICTIONARYVAR
  2
AcDbDictionaryVar
  3
ObjectDBX Classes
 90
        0
280
     0
281
     0
  0
CLASS
  1
CELLSTYLEMAP
  2
AcDbCellStyleMap
  3
ObjectDBX Classes
 90
     1152
280
     0
281
     0
  0
CLASS
  1
ACDBPLACEHOLDER
  2
AcDbPlaceHolder
  3
ObjectDBX Classes
 90
        0
280
     0
281
     0
  0
CLASS
  1
LAYOUT
  2
AcDbLayout
  3
ObjectDBX Classes
 90
        0
280
     0
281
     0
  0
ENDSEC
  0
SECTION
  2
TABLES
  0
TABLE
  2
VPORT
  5
8162
330
0
100
AcDbSymbolTable
 70
     1
  0
VPORT
  5
81CE
330
8162
100
AcDbSymbolTableRecord
100
AcDbViewportTableRecord
  2
*ACTIVE
 70
     0
 10
0.0
 20
0.0
 11
1.0
 21
1.0
 12
2625.00001222361
 22
3687.500017171259
 13
0.0
 23
0.0
 14
10.0
 24
10.0
 15
10.0
 25
10.0
 16
0.0
 26
0.0
 36
1.0
 17
0.0
 27
0.0
 37
0.0
 40
7422.678203440799
 41
2.050213675213675
 42
50.0
 43
0.0
 44
0.0
 50
0.0
 51
0.0
 71
     0
 72
   100
 73
     1
 74
     0
 75
     0
 76
     0
 77
     0
 78
     0
281
     0
 65
     1
110
0.0
120
0.0
130
0.0
111
1.0
121
0.0
131
0.0
112
0.0
122
1.0
132
0.0
 79
     0
146
0.0
1001
ACAD_NAV_VCDISPLAY
1070
     3
  0
ENDTAB
  0
TABLE
  2
LTYPE
  5
815F
330
0
100
AcDbSymbolTable
 70
     4
  0
LTYPE
  5
81B4
330
815F
100
AcDbSymbolTableRecord
100
AcDbLinetypeTableRecord
  2
ByBlock
 70
     0
  3

 72
    65
 73
     0
 40
0.0
  0
LTYPE
  5
81B5
330
815F
100
AcDbSymbolTableRecord
100
AcDbLinetypeTableRecord
  2
ByLayer
 70
     0
  3

 72
    65
 73
     0
 40
0.0
  0
LTYPE
  5
81B6
330
815F
100
AcDbSymbolTableRecord
100
AcDbLinetypeTableRecord
  2
CONTINUOUS
 70
     0
  3
Solid line
 72
    65
 73
     0
 40
0.0
  0
LTYPE
  5
81CF
330
815F
100
AcDbSymbolTableRecord
100
AcDbLinetypeTableRecord
  2
CENTER
 70
     0
  3
____ _ ____ _ ____ _ ____ _ ____ _ ____ _ ____ 
 72
    65
 73
     4
 40
2.0
 49
1.25
 74
     0
 49
-0.25
 74
     0
 49
0.25
 74
     0
 49
-0.25
 74
     0
  0
ENDTAB
  0
TABLE
  2
LAYER
  5
815C
102
{ACAD_XDICTIONARY
360
826A
102
}
330
0
100
AcDbSymbolTable
 70
     7
  0
LAYER
  5
81AE
102
{ACAD_XDICTIONARY
360
8212
102
}
330
815C
100
AcDbSymbolTableRecord
100
AcDbLayerTableRecord
  2
0
 70
     0
 62
     7
  6
CONTINUOUS
370
    -3
390
8169
  0
LAYER
  5
81CD
102
{ACAD_XDICTIONARY
360
8214
102
}
330
815C
100
AcDbSymbolTableRecord
100
AcDbLayerTableRecord
  2
3
 70
     0
 62
     2
  6
CONTINUOUS
370
    -3
390
8169
  0
LAYER
  5
81D0
102
{ACAD_XDICTIONARY
360
8216
102
}
330
815C
100
AcDbSymbolTableRecord
100
AcDbLayerTableRecord
  2
2
 70
     0
 62
     3
  6
CENTER
370
    -3
390
8169
  0
LAYER
  5
81D1
102
{ACAD_XDICTIONARY
360
8218
102
}
330
815C
100
AcDbSymbolTableRecord
100
AcDbLayerTableRecord
  2
1
 70
     0
 62
     4
  6
CONTINUOUS
370
    -3
390
8169
  0
LAYER
  5
81D2
102
{ACAD_XDICTIONARY
360
821A
102
}
330
815C
100
AcDbSymbolTableRecord
100
AcDbLayerTableRecord
  2
4
 70
     0
 62
     7
  6
CONTINUOUS
370
    -3
390
8169
  0
LAYER
  5
81D3
330
815C
100
AcDbSymbolTableRecord
100
AcDbLayerTableRecord
  2
DEFPOINTS
 70
     0
 62
     7
  6
CONTINUOUS
290
     0
370
    -3
390
8169
  0
LAYER
  5
8268
102
{ACAD_XDICTIONARY
360
8269
102
}
330
815C
100
AcDbSymbolTableRecord
100
AcDbLayerTableRecord
  2
FUTO
 70
     0
 62
     4
  6
CONTINUOUS
370
    -3
390
8169
  0
ENDTAB
  0
TABLE
  2
STYLE
  5
815D
330
0
100
AcDbSymbolTable
 70
     2
  0
STYLE
  5
81AF
330
815D
100
AcDbSymbolTableRecord
100
AcDbTextStyleTableRecord
  2
STANDARD
 70
     0
 40
0.0
 41
1.0
 50
0.0
 71
     0
 42
180.0
  3
simplex.shx
  4
extfont.shx
  0
STYLE
  5
81B3
330
815D
100
AcDbSymbolTableRecord
100
AcDbTextStyleTableRecord
  2
Annotative
 70
     0
 40
0.0
 41
1.0
 50
0.0
 71
     0
 42
0.2
  3
txt
  4

1001
AcadAnnotative
1000
AnnotativeData
1002
{
1070
     1
1070
     1
1002
}
  0
ENDTAB
  0
TABLE
  2
VIEW
  5
8160
330
0
100
AcDbSymbolTable
 70
     0
  0
ENDTAB
  0
TABLE
  2
UCS
  5
8161
330
0
100
AcDbSymbolTable
 70
     0
  0
ENDTAB
  0
TABLE
  2
APPID
  5
8163
330
0
100
AcDbSymbolTable
 70
     8
  0
APPID
  5
81B0
330
8163
100
AcDbSymbolTableRecord
100
AcDbRegAppTableRecord
  2
ACAD
 70
     0
  0
APPID
  5
81B7
330
8163
100
AcDbSymbolTableRecord
100
AcDbRegAppTableRecord
  2
AcadAnnotative
 70
     0
  0
APPID
  5
8226
330
8163
100
AcDbSymbolTableRecord
100
AcDbRegAppTableRecord
  2
ACAD_NAV_VCDISPLAY
 70
     0
  0
APPID
  5
8291
330
8163
100
AcDbSymbolTableRecord
100
AcDbRegAppTableRecord
  2
ACAD_DSTYLE_DIMJAG
 70
     0
  0
APPID
  5
8292
330
8163
100
AcDbSymbolTableRecord
100
AcDbRegAppTableRecord
  2
ACAD_DSTYLE_DIMTALN
 70
     0
  0
APPID
  5
82AD
330
8163
100
AcDbSymbolTableRecord
100
AcDbRegAppTableRecord
  2
AcadAnnoMonitorAlertIconDisabled
 70
     0
  0
APPID
  5
82AE
330
8163
100
AcDbSymbolTableRecord
100
AcDbRegAppTableRecord
  2
ACAD_EXEMPT_FROM_CAD_STANDARDS
 70
     0
  0
APPID
  5
857E
330
8163
100
AcDbSymbolTableRecord
100
AcDbRegAppTableRecord
  2
ACAD_MLEADERVER
 70
     0
  0
ENDTAB
  0
TABLE
  2
DIMSTYLE
  5
8164
330
0
100
AcDbSymbolTable
 70
     5
100
AcDbDimStyleTable
 71
     1
340
81D4
  0
DIMSTYLE
105
81B1
102
{ACAD_REACTORS
330
7C25
330
7C26
330
7C6C
330
7C89
330
7C8A
330
7C8B
330
7C9A
330
7CB1
102
}
330
8164
100
AcDbSymbolTableRecord
100
AcDbDimStyleTableRecord
  2
Standard
 70
     0
340
81AF
  0
DIMSTYLE
105
81B2
330
8164
100
AcDbSymbolTableRecord
100
AcDbDimStyleTableRecord
  2
Annotative
 70
     0
340
81AF
1001
AcadAnnotative
1000
AnnotativeData
1002
{
1070
     1
1070
     1
1002
}
  0
DIMSTYLE
105
81D4
102
{ACAD_REACTORS
330
8293
330
82A0
330
82F8
330
8305
330
8374
330
8381
330
838E
330
839B
330
83A8
330
83B5
330
83C7
330
8400
330
851A
330
8539
102
}
330
8164
100
AcDbSymbolTableRecord
100
AcDbDimStyleTableRecord
  2
IGA
 70
     0
 40
2.0
 41
2.0
 42
0.5
 43
10.0
 44
1.0
 47
1.0
 48
1.0
 73
     0
 74
     0
 77
     1
 78
     8
140
3.0
141
0.0
143
0.03937
146
10.0
147
1.0
173
     1
271
     3
272
     3
279
     2
284
     8
285
     8
286
     8
340
81AF
  0
DIMSTYLE
105
81D5
330
8164
100
AcDbSymbolTableRecord
100
AcDbDimStyleTableRecord
  2
MATSU
 70
     0
 41
2.0
 42
1.0
 43
10.0
 44
1.0
 73
     0
 74
     0
 77
     1
 78
     8
140
3.0
141
0.0
143
0.03937
147
0.5
172
     1
173
     1
176
   256
177
   256
178
   256
271
     3
272
     3
279
     2
284
     8
285
     8
286
     8
340
81AF
  0
ENDTAB
  0
TABLE
  2
BLOCK_RECORD
  5
815B
330
0
100
AcDbSymbolTable
 70
    52
  0
BLOCK_RECORD
  5
81C9
330
815B
100
AcDbSymbolTableRecord
100
AcDbBlockTableRecord
  2
*Model_Space
340
81CC
  0
BLOCK_RECORD
  5
81C5
330
815B
100
AcDbSymbolTableRecord
100
AcDbBlockTableRecord
  2
*Paper_Space
340
81C8
  0
BLOCK_RECORD
  5
81D9
330
815B
100
AcDbSymbolTableRecord
100
AcDbBlockTableRecord
  2
$MODEL_SPACE
340
0
  0
BLOCK_RECORD
  5
81DB
330
815B
100
AcDbSymbolTableRecord
100
AcDbBlockTableRecord
  2
$PAPER_SPACE
340
0
  0
BLOCK_RECORD
  5
81DD
330
815B
100
AcDbSymbolTableRecord
100
AcDbBlockTableRecord
  2
_OPEN
340
0
102
{BLKREFS
331
8419
331
841A
331
8422
331
8423
331
84BA
331
8510
331
8533
331
8534
331
8540
331
8541
331
82E9
331
82EA
331
82F2
331
82F3
331
82FF
331
8300
331
8315
331
8316
331
7DF2
331
7DF3
331
7DFD
331
7DFE
331
7E1E
331
7E1F
331
7E34
331
7E35
331
7E3F
331
7E40
331
7E4A
331
7E4B
331
7E55
331
7E56
331
7FB1
331
7FB2
331
8129
331
812A
331
7F7A
331
7F7B
331
8131
331
8132
331
8139
331
813A
331
837B
331
837C
331
8388
331
8389
331
8395
331
8396
331
83A2
331
83A3
331
7EAA
331
7EAB
331
8141
331
8142
331
814D
331
7EE3
331
7EE4
331
8059
331
805A
331
8066
331
8067
331
8073
331
8074
331
8080
331
8081
331
80A8
331
80A9
102
}
  0
BLOCK_RECORD
  5
81DF
330
815B
100
AcDbSymbolTableRecord
100
AcDbBlockTableRecord
  2
YA_N
340
0
102
{BLKREFS
331
7C00
331
7C22
331
7C3A
331
7C3C
102
}
  0
BLOCK_RECORD
  5
81E1
330
815B
100
AcDbSymbolTableRecord
100
AcDbBlockTableRecord
  2
*D4
340
0
  0
BLOCK_RECORD
  5
81E3
330
815B
100
AcDbSymbolTableRecord
100
AcDbBlockTableRecord
  2
*D5
340
0
  0
BLOCK_RECORD
  5
81E5
330
815B
100
AcDbSymbolTableRecord
100
AcDbBlockTableRecord
  2
*D6
340
0
  0
BLOCK_RECORD
  5
81E7
330
815B
100
AcDbSymbolTableRecord
100
AcDbBlockTableRecord
  2
*D7
340
0
  0
BLOCK_RECORD
  5
81E9
330
815B
100
AcDbSymbolTableRecord
100
AcDbBlockTableRecord
  2
*D8
340
0
  0
BLOCK_RECORD
  5
81EB
330
815B
100
AcDbSymbolTableRecord
100
AcDbBlockTableRecord
  2
*D9
340
0
  0
BLOCK_RECORD
  5
81ED
330
815B
100
AcDbSymbolTableRecord
100
AcDbBlockTableRecord
  2
*D10
340
0
  0
BLOCK_RECORD
  5
81EF
330
815B
100
AcDbSymbolTableRecord
100
AcDbBlockTableRecord
  2
*D11
340
0
  0
BLOCK_RECORD
  5
81F1
330
815B
100
AcDbSymbolTableRecord
100
AcDbBlockTableRecord
  2
*D12
340
0
  0
BLOCK_RECORD
  5
81F3
330
815B
100
AcDbSymbolTableRecord
100
AcDbBlockTableRecord
  2
*D13
340
0
  0
BLOCK_RECORD
  5
81F5
330
815B
100
AcDbSymbolTableRecord
100
AcDbBlockTableRecord
  2
*D14
340
0
  0
BLOCK_RECORD
  5
81F7
330
815B
100
AcDbSymbolTableRecord
100
AcDbBlockTableRecord
  2
*D15
340
0
  0
BLOCK_RECORD
  5
81F9
330
815B
100
AcDbSymbolTableRecord
100
AcDbBlockTableRecord
  2
*D16
340
0
  0
BLOCK_RECORD
  5
81FB
330
815B
100
AcDbSymbolTableRecord
100
AcDbBlockTableRecord
  2
*D17
340
0
  0
BLOCK_RECORD
  5
81FD
330
815B
100
AcDbSymbolTableRecord
100
AcDbBlockTableRecord
  2
*D18
340
0
  0
BLOCK_RECORD
  5
81FF
330
815B
100
AcDbSymbolTableRecord
100
AcDbBlockTableRecord
  2
_DOT
340
0
102
{BLKREFS
331
814C
102
}
  0
BLOCK_RECORD
  5
8200
330
815B
100
AcDbSymbolTableRecord
100
AcDbBlockTableRecord
  2
*D20
340
0
  0
BLOCK_RECORD
  5
8203
330
815B
100
AcDbSymbolTableRecord
100
AcDbBlockTableRecord
  2
*D21
340
0
  0
BLOCK_RECORD
  5
8205
330
815B
100
AcDbSymbolTableRecord
100
AcDbBlockTableRecord
  2
*D22
340
0
  0
BLOCK_RECORD
  5
8207
330
815B
100
AcDbSymbolTableRecord
100
AcDbBlockTableRecord
  2
*D23
340
0
  0
BLOCK_RECORD
  5
8209
330
815B
100
AcDbSymbolTableRecord
100
AcDbBlockTableRecord
  2
*D24
340
0
  0
BLOCK_RECORD
  5
820B
330
815B
100
AcDbSymbolTableRecord
100
AcDbBlockTableRecord
  2
_NONE
340
0
  0
BLOCK_RECORD
  5
820D
330
815B
100
AcDbSymbolTableRecord
100
AcDbBlockTableRecord
  2
*D26
340
0
  0
BLOCK_RECORD
  5
820F
330
815B
100
AcDbSymbolTableRecord
100
AcDbBlockTableRecord
  2
*D27
340
0
  0
BLOCK_RECORD
  5
8294
330
815B
100
AcDbSymbolTableRecord
100
AcDbBlockTableRecord
  2
*D29
340
0
  0
BLOCK_RECORD
  5
82A1
330
815B
100
AcDbSymbolTableRecord
100
AcDbBlockTableRecord
  2
*D30
340
0
  0
BLOCK_RECORD
  5
82F9
330
815B
100
AcDbSymbolTableRecord
100
AcDbBlockTableRecord
  2
*D31
340
0
  0
BLOCK_RECORD
  5
8306
330
815B
100
AcDbSymbolTableRecord
100
AcDbBlockTableRecord
  2
*D32
340
0
  0
BLOCK_RECORD
  5
831B
330
815B
100
AcDbSymbolTableRecord
100
AcDbBlockTableRecord
  2
*D33
340
0
  0
BLOCK_RECORD
  5
8328
330
815B
100
AcDbSymbolTableRecord
100
AcDbBlockTableRecord
  2
*D34
340
0
  0
BLOCK_RECORD
  5
8335
330
815B
100
AcDbSymbolTableRecord
100
AcDbBlockTableRecord
  2
*D35
340
0
  0
BLOCK_RECORD
  5
8342
330
815B
100
AcDbSymbolTableRecord
100
AcDbBlockTableRecord
  2
*D36
340
0
  0
BLOCK_RECORD
  5
834F
330
815B
100
AcDbSymbolTableRecord
100
AcDbBlockTableRecord
  2
*D37
340
0
  0
BLOCK_RECORD
  5
835C
330
815B
100
AcDbSymbolTableRecord
100
AcDbBlockTableRecord
  2
*D38
340
0
  0
BLOCK_RECORD
  5
8367
330
815B
100
AcDbSymbolTableRecord
100
AcDbBlockTableRecord
  2
*D39
340
0
  0
BLOCK_RECORD
  5
8375
330
815B
100
AcDbSymbolTableRecord
100
AcDbBlockTableRecord
  2
*D40
340
0
  0
BLOCK_RECORD
  5
8382
330
815B
100
AcDbSymbolTableRecord
100
AcDbBlockTableRecord
  2
*D41
340
0
  0
BLOCK_RECORD
  5
838F
330
815B
100
AcDbSymbolTableRecord
100
AcDbBlockTableRecord
  2
*D42
340
0
  0
BLOCK_RECORD
  5
839C
330
815B
100
AcDbSymbolTableRecord
100
AcDbBlockTableRecord
  2
*D43
340
0
  0
BLOCK_RECORD
  5
83A9
330
815B
100
AcDbSymbolTableRecord
100
AcDbBlockTableRecord
  2
*D44
340
0
  0
BLOCK_RECORD
  5
83B6
330
815B
100
AcDbSymbolTableRecord
100
AcDbBlockTableRecord
  2
*D45
340
0
  0
BLOCK_RECORD
  5
83C8
330
815B
100
AcDbSymbolTableRecord
100
AcDbBlockTableRecord
  2
*D46
340
0
  0
BLOCK_RECORD
  5
8401
330
815B
100
AcDbSymbolTableRecord
100
AcDbBlockTableRecord
  2
*D47
340
0
  0
BLOCK_RECORD
  5
84AD
330
815B
100
AcDbSymbolTableRecord
100
AcDbBlockTableRecord
  2
_DotSmall
340
0
102
{BLKREFS
331
84BB
331
850F
102
}
  0
BLOCK_RECORD
  5
851B
330
815B
100
AcDbSymbolTableRecord
100
AcDbBlockTableRecord
  2
*D50
340
0
  0
BLOCK_RECORD
  5
853A
330
815B
100
AcDbSymbolTableRecord
100
AcDbBlockTableRecord
  2
*D51
340
0
  0
ENDTAB
  0
ENDSEC
  0
SECTION
  2
BLOCKS
  0
BLOCK
  5
81CA
330
81C9
100
AcDbEntity
  8
0
100
AcDbBlockBegin
  2
*Model_Space
 70
     0
 10
0.0
 20
0.0
 30
0.0
  3
*Model_Space
  1

  0
ENDBLK
  5
81CB
330
81C9
100
AcDbEntity
  8
0
100
AcDbBlockEnd
  0
BLOCK
  5
81C6
330
81C5
100
AcDbEntity
 67
     1
  8
0
100
AcDbBlockBegin
  2
*Paper_Space
 70
     0
 10
0.0
 20
0.0
 30
0.0
  3
*Paper_Space
  1

  0
ENDBLK
  5
81C7
330
81C5
100
AcDbEntity
 67
     1
  8
0
100
AcDbBlockEnd
  0
BLOCK
  5
81DA
330
81D9
100
AcDbEntity
  8
0
100
AcDbBlockBegin
  2
$MODEL_SPACE
 70
     0
 10
0.0
 20
0.0
 30
0.0
  3
$MODEL_SPACE
  1

  0
ENDBLK
  5
1B
330
81D9
100
AcDbEntity
  8
0
100
AcDbBlockEnd
  0
BLOCK
  5
81DC
330
81DB
100
AcDbEntity
  8
0
100
AcDbBlockBegin
  2
$PAPER_SPACE
 70
     0
 10
0.0
 20
0.0
 30
0.0
  3
$PAPER_SPACE
  1

  0
ENDBLK
  5
18
330
81DB
100
AcDbEntity
  8
0
100
AcDbBlockEnd
  0
BLOCK
  5
81DE
330
81DD
100
AcDbEntity
  8
0
100
AcDbBlockBegin
  2
_OPEN
 70
     0
 10
0.0
 20
0.0
 30
0.0
  3
_OPEN
  1

  0
LINE
  5
79FD
330
81DD
100
AcDbEntity
  8
0
  6
ByBlock
 62
     0
100
AcDbLine
 10
-1.0
 20
0.1666666666666666
 30
0.0
 11
0.0
 21
0.0
 31
0.0
  0
LINE
  5
79FE
330
81DD
100
AcDbEntity
  8
0
  6
ByBlock
 62
     0
100
AcDbLine
 10
0.0
 20
0.0
 30
0.0
 11
-1.0
 21
-0.1666666666666666
 31
0.0
  0
LINE
  5
79FF
330
81DD
100
AcDbEntity
  8
0
  6
ByBlock
 62
     0
100
AcDbLine
 10
0.0
 20
0.0
 30
0.0
 11
-1.0
 21
0.0
 31
0.0
  0
ENDBLK
  5
7A01
330
81DD
100
AcDbEntity
  8
0
100
AcDbBlockEnd
  0
BLOCK
  5
81E0
330
81DF
100
AcDbEntity
  8
0
100
AcDbBlockBegin
  2
YA_N
 70
     0
 10
0.0
 20
0.0
 30
0.0
  3
YA_N
  1

  0
ENDBLK
  5
7A0C
330
81DF
100
AcDbEntity
  8
0
100
AcDbBlockEnd
  0
BLOCK
  5
81E2
330
81E1
100
AcDbEntity
  8
0
100
AcDbBlockBegin
  2
*D4
 70
     1
 10
0.0
 20
0.0
 30
0.0
  3
*D4
  1

  0
LINE
  5
7DEF
330
81E1
100
AcDbEntity
  8
0
  6
ByBlock
100
AcDbLine
 10
2975.439030888301
 20
2131.887615409481
 30
0.0
 11
2975.439030888301
 21
2280.232958951545
 31
0.0
  0
LINE
  5
7DF0
330
81E1
100
AcDbEntity
  8
0
  6
ByBlock
100
AcDbLine
 10
2150.4390308883
 20
2131.887615409481
 30
0.0
 11
2150.4390308883
 21
2280.232958951545
 31
0.0
  0
LINE
  5
7DF1
330
81E1
100
AcDbEntity
  8
0
  6
ByBlock
100
AcDbLine
 10
2925.439030888301
 20
2255.232958951544
 30
0.0
 11
2200.4390308883
 21
2255.232958951544
 31
0.0
  0
INSERT
  5
7DF2
330
81E1
100
AcDbEntity
  8
0
  6
ByBlock
100
AcDbBlockReference
  2
_OPEN
 10
2975.439030888301
 20
2255.232958951544
 30
0.0
 41
50.0
 42
50.0
 43
50.0
  0
INSERT
  5
7DF3
330
81E1
100
AcDbEntity
  8
0
  6
ByBlock
100
AcDbBlockReference
  2
_OPEN
 10
2150.4390308883
 20
2255.232958951544
 30
0.0
 41
50.0
 42
50.0
 43
50.0
 50
180.0
  0
TEXT
  5
7DF4
330
81E1
100
AcDbEntity
  8
3
100
AcDbText
 10
2466.510459459728
 20
2267.732958951544
 30
0.0
 40
75.0
  1
825
100
AcDbText
  0
POINT
  5
7DF5
330
81E1
100
AcDbEntity
  8
DEFPOINTS
  6
ByBlock
 62
     0
100
AcDbPoint
 10
2975.439030888301
 20
2106.887615409481
 30
0.0
  0
POINT
  5
7DF6
330
81E1
100
AcDbEntity
  8
DEFPOINTS
  6
ByBlock
 62
     0
100
AcDbPoint
 10
2150.4390308883
 20
2106.887615409481
 30
0.0
  0
POINT
  5
7DF7
330
81E1
100
AcDbEntity
  8
DEFPOINTS
  6
ByBlock
 62
     0
100
AcDbPoint
 10
2150.4390308883
 20
2255.232958951544
 30
0.0
  0
ENDBLK
  5
7DF8
330
81E1
100
AcDbEntity
  8
0
100
AcDbBlockEnd
  0
BLOCK
  5
81E4
330
81E3
100
AcDbEntity
  8
0
100
AcDbBlockBegin
  2
*D5
 70
     1
 10
0.0
 20
0.0
 30
0.0
  3
*D5
  1

  0
LINE
  5
7DFA
330
81E3
100
AcDbEntity
  8
0
  6
ByBlock
100
AcDbLine
 10
2975.439030888301
 20
2131.887615409481
 30
0.0
 11
2975.439030888301
 21
2432.516361525348
 31
0.0
  0
LINE
  5
7DFB
330
81E3
100
AcDbEntity
  8
0
  6
ByBlock
100
AcDbLine
 10
2127.4390308883
 20
2253.359407259871
 30
0.0
 11
2127.4390308883
 21
2432.516361525348
 31
0.0
  0
LINE
  5
7DFC
330
81E3
100
AcDbEntity
  8
0
  6
ByBlock
100
AcDbLine
 10
2925.439030888301
 20
2407.516361525347
 30
0.0
 11
2177.4390308883
 21
2407.516361525347
 31
0.0
  0
INSERT
  5
7DFD
330
81E3
100
AcDbEntity
  8
0
  6
ByBlock
100
AcDbBlockReference
  2
_OPEN
 10
2975.439030888301
 20
2407.516361525347
 30
0.0
 41
50.0
 42
50.0
 43
50.0
  0
INSERT
  5
7DFE
330
81E3
100
AcDbEntity
  8
0
  6
ByBlock
100
AcDbBlockReference
  2
_OPEN
 10
2127.4390308883
 20
2407.516361525347
 30
0.0
 41
50.0
 42
50.0
 43
50.0
 50
180.0
  0
TEXT
  5
7DFF
330
81E3
100
AcDbEntity
  8
3
100
AcDbText
 10
2455.010459459729
 20
2420.016361525347
 30
0.0
 40
75.0
  1
848
100
AcDbText
  0
POINT
  5
7E00
330
81E3
100
AcDbEntity
  8
DEFPOINTS
  6
ByBlock
 62
     0
100
AcDbPoint
 10
2975.439030888301
 20
2106.887615409481
 30
0.0
  0
POINT
  5
7E01
330
81E3
100
AcDbEntity
  8
DEFPOINTS
  6
ByBlock
 62
     0
100
AcDbPoint
 10
2127.4390308883
 20
2228.359407259871
 30
0.0
  0
POINT
  5
7E02
330
81E3
100
AcDbEntity
  8
DEFPOINTS
  6
ByBlock
 62
     0
100
AcDbPoint
 10
2127.4390308883
 20
2407.516361525347
 30
0.0
  0
ENDBLK
  5
7E03
330
81E3
100
AcDbEntity
  8
0
100
AcDbBlockEnd
  0
BLOCK
  5
81E6
330
81E5
100
AcDbEntity
  8
0
100
AcDbBlockBegin
  2
*D6
 70
     1
 10
0.0
 20
0.0
 30
0.0
  3
*D6
  1

  0
LINE
  5
7E1B
330
81E5
100
AcDbEntity
  8
0
  6
ByBlock
100
AcDbLine
 10
5441.207505112644
 20
1986.88761540948
 30
0.0
 11
5740.43091600962
 21
1986.88761540948
 31
0.0
  0
LINE
  5
7E1C
330
81E5
100
AcDbEntity
  8
0
  6
ByBlock
100
AcDbLine
 10
5441.207505112644
 20
1136.887615409481
 30
0.0
 11
5740.43091600962
 21
1136.887615409481
 31
0.0
  0
LINE
  5
7E1D
330
81E5
100
AcDbEntity
  8
0
  6
ByBlock
100
AcDbLine
 10
5715.43091600962
 20
1936.88761540948
 30
0.0
 11
5715.43091600962
 21
1186.887615409481
 31
0.0
  0
INSERT
  5
7E1E
330
81E5
100
AcDbEntity
  8
0
  6
ByBlock
100
AcDbBlockReference
  2
_OPEN
 10
5715.43091600962
 20
1986.88761540948
 30
0.0
 41
50.0
 42
50.0
 43
50.0
 50
90.0
  0
INSERT
  5
7E1F
330
81E5
100
AcDbEntity
  8
0
  6
ByBlock
100
AcDbBlockReference
  2
_OPEN
 10
5715.43091600962
 20
1136.887615409481
 30
0.0
 41
50.0
 42
50.0
 43
50.0
 50
270.0
  0
TEXT
  5
7E20
330
81E5
100
AcDbEntity
  8
3
100
AcDbText
 10
5702.93091600962
 20
1427.959043980909
 30
0.0
 40
75.0
  1
\U+03C6850
 50
90.0
100
AcDbText
  0
POINT
  5
7E21
330
81E5
100
AcDbEntity
  8
DEFPOINTS
  6
ByBlock
 62
     0
100
AcDbPoint
 10
5416.207505112645
 20
1986.88761540948
 30
0.0
  0
POINT
  5
7E22
330
81E5
100
AcDbEntity
  8
DEFPOINTS
  6
ByBlock
 62
     0
100
AcDbPoint
 10
5416.207505112645
 20
1136.887615409481
 30
0.0
  0
POINT
  5
7E23
330
81E5
100
AcDbEntity
  8
DEFPOINTS
  6
ByBlock
 62
     0
100
AcDbPoint
 10
5715.43091600962
 20
1136.887615409481
 30
0.0
  0
ENDBLK
  5
7E24
330
81E5
100
AcDbEntity
  8
0
100
AcDbBlockEnd
  0
BLOCK
  5
81E8
330
81E7
100
AcDbEntity
  8
0
100
AcDbBlockBegin
  2
*D7
 70
     1
 10
0.0
 20
0.0
 30
0.0
  3
*D7
  1

  0
LINE
  5
7E31
330
81E7
100
AcDbEntity
  8
0
  6
ByBlock
100
AcDbLine
 10
2627.4390308883
 20
4579.380572240498
 30
0.0
 11
2627.4390308883
 21
4730.503855791452
 31
0.0
  0
LINE
  5
7E32
330
81E7
100
AcDbEntity
  8
0
  6
ByBlock
100
AcDbLine
 10
1627.439030888299
 20
4579.380572240498
 30
0.0
 11
1627.439030888299
 21
4730.503855791452
 31
0.0
  0
LINE
  5
7E33
330
81E7
100
AcDbEntity
  8
0
  6
ByBlock
100
AcDbLine
 10
2577.4390308883
 20
4705.503855791452
 30
0.0
 11
1677.4390308883
 21
4705.503855791452
 31
0.0
  0
INSERT
  5
7E34
330
81E7
100
AcDbEntity
  8
0
  6
ByBlock
100
AcDbBlockReference
  2
_OPEN
 10
2627.4390308883
 20
4705.503855791452
 30
0.0
 41
50.0
 42
50.0
 43
50.0
  0
INSERT
  5
7E35
330
81E7
100
AcDbEntity
  8
0
  6
ByBlock
100
AcDbBlockReference
  2
_OPEN
 10
1627.439030888299
 20
4705.503855791452
 30
0.0
 41
50.0
 42
50.0
 43
50.0
 50
180.0
  0
TEXT
  5
7E36
330
81E7
100
AcDbEntity
  8
3
100
AcDbText
 10
2002.4390308883
 20
4718.003855791452
 30
0.0
 40
75.0
  1
1000
100
AcDbText
  0
POINT
  5
7E37
330
81E7
100
AcDbEntity
  8
DEFPOINTS
  6
ByBlock
 62
     0
100
AcDbPoint
 10
2627.4390308883
 20
4554.380572240497
 30
0.0
  0
POINT
  5
7E38
330
81E7
100
AcDbEntity
  8
DEFPOINTS
  6
ByBlock
 62
     0
100
AcDbPoint
 10
1627.439030888299
 20
4554.380572240497
 30
0.0
  0
POINT
  5
7E39
330
81E7
100
AcDbEntity
  8
DEFPOINTS
  6
ByBlock
 62
     0
100
AcDbPoint
 10
1627.439030888299
 20
4705.503855791452
 30
0.0
  0
ENDBLK
  5
7E3A
330
81E7
100
AcDbEntity
  8
0
100
AcDbBlockEnd
  0
BLOCK
  5
81EA
330
81E9
100
AcDbEntity
  8
0
100
AcDbBlockBegin
  2
*D8
 70
     1
 10
0.0
 20
0.0
 30
0.0
  3
*D8
  1

  0
LINE
  5
7E3C
330
81E9
100
AcDbEntity
  8
0
  6
ByBlock
100
AcDbLine
 10
1602.4390308883
 20
4554.380572240497
 30
0.0
 11
1384.50230273841
 21
4554.380572240497
 31
0.0
  0
LINE
  5
7E3D
330
81E9
100
AcDbEntity
  8
0
  6
ByBlock
100
AcDbLine
 10
1602.4390308883
 20
3299.3805722405
 30
0.0
 11
1384.50230273841
 21
3299.3805722405
 31
0.0
  0
LINE
  5
7E3E
330
81E9
100
AcDbEntity
  8
0
  6
ByBlock
100
AcDbLine
 10
1409.50230273841
 20
4504.380572240497
 30
0.0
 11
1409.50230273841
 21
3349.380572240499
 31
0.0
  0
INSERT
  5
7E3F
330
81E9
100
AcDbEntity
  8
0
  6
ByBlock
100
AcDbBlockReference
  2
_OPEN
 10
1409.50230273841
 20
4554.380572240497
 30
0.0
 41
50.0
 42
50.0
 43
50.0
 50
90.0
  0
INSERT
  5
7E40
330
81E9
100
AcDbEntity
  8
0
  6
ByBlock
100
AcDbBlockReference
  2
_OPEN
 10
1409.50230273841
 20
3299.3805722405
 30
0.0
 41
50.0
 42
50.0
 43
50.0
 50
270.0
  0
TEXT
  5
7E41
330
81E9
100
AcDbEntity
  8
3
100
AcDbText
 10
1397.00230273841
 20
3801.8805722405
 30
0.0
 40
75.0
  1
1255
 50
90.0
100
AcDbText
  0
POINT
  5
7E42
330
81E9
100
AcDbEntity
  8
DEFPOINTS
  6
ByBlock
 62
     0
100
AcDbPoint
 10
1627.439030888299
 20
4554.380572240497
 30
0.0
  0
POINT
  5
7E43
330
81E9
100
AcDbEntity
  8
DEFPOINTS
  6
ByBlock
 62
     0
100
AcDbPoint
 10
1627.439030888299
 20
3299.3805722405
 30
0.0
  0
POINT
  5
7E44
330
81E9
100
AcDbEntity
  8
DEFPOINTS
  6
ByBlock
 62
     0
100
AcDbPoint
 10
1409.50230273841
 20
3299.3805722405
 30
0.0
  0
ENDBLK
  5
7E45
330
81E9
100
AcDbEntity
  8
0
100
AcDbBlockEnd
  0
BLOCK
  5
81EC
330
81EB
100
AcDbEntity
  8
0
100
AcDbBlockBegin
  2
*D9
 70
     1
 10
0.0
 20
0.0
 30
0.0
  3
*D9
  1

  0
LINE
  5
7E47
330
81EB
100
AcDbEntity
  8
0
  6
ByBlock
100
AcDbLine
 10
3402.439030888299
 20
4049.380572240499
 30
0.0
 11
3554.591860011613
 21
4049.380572240499
 31
0.0
  0
LINE
  5
7E48
330
81EB
100
AcDbEntity
  8
0
  6
ByBlock
100
AcDbLine
 10
3402.439030888299
 20
3299.3805722405
 30
0.0
 11
3554.591860011613
 21
3299.3805722405
 31
0.0
  0
LINE
  5
7E49
330
81EB
100
AcDbEntity
  8
0
  6
ByBlock
100
AcDbLine
 10
3529.591860011613
 20
3999.380572240499
 30
0.0
 11
3529.591860011613
 21
3349.3805722405
 31
0.0
  0
INSERT
  5
7E4A
330
81EB
100
AcDbEntity
  8
0
  6
ByBlock
100
AcDbBlockReference
  2
_OPEN
 10
3529.591860011613
 20
4049.380572240499
 30
0.0
 41
50.0
 42
50.0
 43
50.0
 50
90.0
  0
INSERT
  5
7E4B
330
81EB
100
AcDbEntity
  8
0
  6
ByBlock
100
AcDbBlockReference
  2
_OPEN
 10
3529.591860011613
 20
3299.3805722405
 30
0.0
 41
50.0
 42
50.0
 43
50.0
 50
270.0
  0
TEXT
  5
7E4C
330
81EB
100
AcDbEntity
  8
3
100
AcDbText
 10
3517.091860011613
 20
3577.952000811928
 30
0.0
 40
75.0
  1
750
 50
90.0
100
AcDbText
  0
POINT
  5
7E4D
330
81EB
100
AcDbEntity
  8
DEFPOINTS
  6
ByBlock
 62
     0
100
AcDbPoint
 10
3377.439030888299
 20
4049.380572240499
 30
0.0
  0
POINT
  5
7E4E
330
81EB
100
AcDbEntity
  8
DEFPOINTS
  6
ByBlock
 62
     0
100
AcDbPoint
 10
3377.439030888299
 20
3299.3805722405
 30
0.0
  0
POINT
  5
7E4F
330
81EB
100
AcDbEntity
  8
DEFPOINTS
  6
ByBlock
 62
     0
100
AcDbPoint
 10
3529.591860011613
 20
3299.3805722405
 30
0.0
  0
ENDBLK
  5
7E50
330
81EB
100
AcDbEntity
  8
0
100
AcDbBlockEnd
  0
BLOCK
  5
81EE
330
81ED
100
AcDbEntity
  8
0
100
AcDbBlockBegin
  2
*D10
 70
     1
 10
0.0
 20
0.0
 30
0.0
  3
*D10
  1

  0
LINE
  5
7E52
330
81ED
100
AcDbEntity
  8
0
  6
ByBlock
100
AcDbLine
 10
3377.439030888299
 20
3274.3805722405
 30
0.0
 11
3377.439030888299
 21
3013.7147873961
 31
0.0
  0
LINE
  5
7E53
330
81ED
100
AcDbEntity
  8
0
  6
ByBlock
100
AcDbLine
 10
1627.439030888299
 20
3274.380572240499
 30
0.0
 11
1627.439030888299
 21
3013.7147873961
 31
0.0
  0
LINE
  5
7E54
330
81ED
100
AcDbEntity
  8
0
  6
ByBlock
100
AcDbLine
 10
3327.439030888299
 20
3038.7147873961
 30
0.0
 11
1677.4390308883
 21
3038.7147873961
 31
0.0
  0
INSERT
  5
7E55
330
81ED
100
AcDbEntity
  8
0
  6
ByBlock
100
AcDbBlockReference
  2
_OPEN
 10
3377.439030888299
 20
3038.7147873961
 30
0.0
 41
50.0
 42
50.0
 43
50.0
  0
INSERT
  5
7E56
330
81ED
100
AcDbEntity
  8
0
  6
ByBlock
100
AcDbBlockReference
  2
_OPEN
 10
1627.439030888299
 20
3038.7147873961
 30
0.0
 41
50.0
 42
50.0
 43
50.0
 50
180.0
  0
TEXT
  5
7E57
330
81ED
100
AcDbEntity
  8
3
100
AcDbText
 10
2377.439030888299
 20
3051.2147873961
 30
0.0
 40
75.0
  1
1750
100
AcDbText
  0
POINT
  5
7E58
330
81ED
100
AcDbEntity
  8
DEFPOINTS
  6
ByBlock
 62
     0
100
AcDbPoint
 10
3377.439030888299
 20
3299.3805722405
 30
0.0
  0
POINT
  5
7E59
330
81ED
100
AcDbEntity
  8
DEFPOINTS
  6
ByBlock
 62
     0
100
AcDbPoint
 10
1627.439030888299
 20
3299.3805722405
 30
0.0
  0
POINT
  5
7E5A
330
81ED
100
AcDbEntity
  8
DEFPOINTS
  6
ByBlock
 62
     0
100
AcDbPoint
 10
1627.439030888299
 20
3038.7147873961
 30
0.0
  0
ENDBLK
  5
7E5B
330
81ED
100
AcDbEntity
  8
0
100
AcDbBlockEnd
  0
BLOCK
  5
81F0
330
81EF
100
AcDbEntity
  8
0
100
AcDbBlockBegin
  2
*D11
 70
     1
 10
0.0
 20
0.0
 30
0.0
  3
*D11
  1

  0
LINE
  5
7FAE
330
81EF
100
AcDbEntity
  8
0
  6
ByBlock
100
AcDbLine
 10
3569.037576512395
 20
3108.184586066368
 30
0.0
 11
3569.037576512395
 21
3209.073169067424
 31
0.0
  0
LINE
  5
7FAF
330
81EF
100
AcDbEntity
  8
0
  6
ByBlock
100
AcDbLine
 10
4569.037576512396
 20
3108.184586066368
 30
0.0
 11
4569.037576512396
 21
3209.073169067424
 31
0.0
  0
LINE
  5
7FB0
330
81EF
100
AcDbEntity
  8
0
  6
ByBlock
100
AcDbLine
 10
3619.037576512395
 20
3184.073169067424
 30
0.0
 11
4519.037576512396
 21
3184.073169067424
 31
0.0
  0
INSERT
  5
7FB1
330
81EF
100
AcDbEntity
  8
0
  6
ByBlock
100
AcDbBlockReference
  2
_OPEN
 10
3569.037576512395
 20
3184.073169067424
 30
0.0
 41
50.0
 42
50.0
 43
50.0
 50
180.0
  0
INSERT
  5
7FB2
330
81EF
100
AcDbEntity
  8
0
  6
ByBlock
100
AcDbBlockReference
  2
_OPEN
 10
4569.037576512396
 20
3184.073169067424
 30
0.0
 41
50.0
 42
50.0
 43
50.0
  0
TEXT
  5
7FB3
330
81EF
100
AcDbEntity
  8
3
100
AcDbText
 10
3944.037576512397
 20
3196.573169067423
 30
0.0
 40
75.0
  1
1000
100
AcDbText
  0
POINT
  5
7FB4
330
81EF
100
AcDbEntity
  8
DEFPOINTS
  6
ByBlock
 62
     0
100
AcDbPoint
 10
3569.037576512395
 20
3083.184586066368
 30
0.0
  0
POINT
  5
7FB5
330
81EF
100
AcDbEntity
  8
DEFPOINTS
  6
ByBlock
 62
     0
100
AcDbPoint
 10
4569.037576512396
 20
3083.184586066368
 30
0.0
  0
POINT
  5
7FB6
330
81EF
100
AcDbEntity
  8
DEFPOINTS
  6
ByBlock
 62
     0
100
AcDbPoint
 10
4569.037576512396
 20
3184.073169067424
 30
0.0
  0
ENDBLK
  5
7FB7
330
81EF
100
AcDbEntity
  8
0
100
AcDbBlockEnd
  0
BLOCK
  5
81F2
330
81F1
100
AcDbEntity
  8
0
100
AcDbBlockBegin
  2
*D12
 70
     1
 10
0.0
 20
0.0
 30
0.0
  3
*D12
  1

  0
LINE
  5
8127
330
81F1
100
AcDbEntity
  8
3
100
AcDbLine
 10
2822.993139438522
 20
5050.677542897386
 30
0.0
 11
2822.993139438522
 21
5706.80082644834
 31
0.0
  0
LINE
  5
8128
330
81F1
100
AcDbEntity
  8
3
100
AcDbLine
 10
2122.993139438523
 20
5681.800826448338
 30
0.0
 11
2772.993139438522
 21
5681.800826448338
 31
0.0
  0
INSERT
  5
8129
330
81F1
100
AcDbEntity
  8
3
100
AcDbBlockReference
  2
_OPEN
 10
2072.993139438522
 20
5681.800826448338
 30
0.0
 41
50.0
 42
50.0
 43
50.0
 50
180.0
  0
INSERT
  5
812A
330
81F1
100
AcDbEntity
  8
3
100
AcDbBlockReference
  2
_OPEN
 10
2822.993139438522
 20
5681.800826448338
 30
0.0
 41
50.0
 42
50.0
 43
50.0
  0
TEXT
  5
8155
330
81F1
100
AcDbEntity
  8
3
100
AcDbText
 10
2297.99
 20
5599.05
 30
0.0
 40
75.0
  1
750
100
AcDbText
  0
POINT
  5
812C
330
81F1
100
AcDbEntity
  8
DEFPOINTS
 62
     0
100
AcDbPoint
 10
2072.993139438522
 20
5530.677542897386
 30
0.0
  0
POINT
  5
812D
330
81F1
100
AcDbEntity
  8
DEFPOINTS
 62
     0
100
AcDbPoint
 10
2822.993139438522
 20
5025.677542897387
 30
0.0
  0
POINT
  5
812E
330
81F1
100
AcDbEntity
  8
DEFPOINTS
 62
     0
100
AcDbPoint
 10
2822.993139438522
 20
5681.800826448338
 30
0.0
  0
ENDBLK
  5
7E86
330
81F1
100
AcDbEntity
  8
0
100
AcDbBlockEnd
  0
BLOCK
  5
81F4
330
81F3
100
AcDbEntity
  8
0
100
AcDbBlockBegin
  2
*D13
 70
     1
 10
0.0
 20
0.0
 30
0.0
  3
*D13
  1

  0
LINE
  5
7F77
330
81F3
100
AcDbEntity
  8
0
  6
ByBlock
100
AcDbLine
 10
4669.037576512397
 20
2523.684586066368
 30
0.0
 11
4669.037576512397
 21
3397.167932645344
 31
0.0
  0
LINE
  5
7F78
330
81F3
100
AcDbEntity
  8
0
  6
ByBlock
100
AcDbLine
 10
4069.037576512394
 20
3330.792959835359
 30
0.0
 11
4069.037576512394
 21
3397.167932645344
 31
0.0
  0
LINE
  5
7F79
330
81F3
100
AcDbEntity
  8
0
  6
ByBlock
100
AcDbLine
 10
4619.037576512396
 20
3372.167932645343
 30
0.0
 11
4119.037576512395
 21
3372.167932645343
 31
0.0
  0
INSERT
  5
7F7A
330
81F3
100
AcDbEntity
  8
0
  6
ByBlock
100
AcDbBlockReference
  2
_OPEN
 10
4669.037576512397
 20
3372.167932645343
 30
0.0
 41
50.0
 42
50.0
 43
50.0
  0
INSERT
  5
7F7B
330
81F3
100
AcDbEntity
  8
0
  6
ByBlock
100
AcDbBlockReference
  2
_OPEN
 10
4069.037576512394
 20
3372.167932645343
 30
0.0
 41
50.0
 42
50.0
 43
50.0
 50
180.0
  0
TEXT
  5
7F7C
330
81F3
100
AcDbEntity
  8
3
100
AcDbText
 10
4231.537576512395
 20
3416.8107897882
 30
0.0
 40
75.0
  1
(610)
100
AcDbText
  0
POINT
  5
7F7D
330
81F3
100
AcDbEntity
  8
DEFPOINTS
  6
ByBlock
 62
     0
100
AcDbPoint
 10
4669.037576512397
 20
2498.684586066368
 30
0.0
  0
POINT
  5
7F7E
330
81F3
100
AcDbEntity
  8
DEFPOINTS
  6
ByBlock
 62
     0
100
AcDbPoint
 10
4069.037576512394
 20
3305.792959835359
 30
0.0
  0
POINT
  5
7F7F
330
81F3
100
AcDbEntity
  8
DEFPOINTS
  6
ByBlock
 62
     0
100
AcDbPoint
 10
4069.037576512394
 20
3372.167932645343
 30
0.0
  0
ENDBLK
  5
7F80
330
81F3
100
AcDbEntity
  8
0
100
AcDbBlockEnd
  0
BLOCK
  5
81F6
330
81F5
100
AcDbEntity
  8
0
100
AcDbBlockBegin
  2
*D14
 70
     1
 10
0.0
 20
0.0
 30
0.0
  3
*D14
  1

  0
LINE
  5
812F
330
81F5
100
AcDbEntity
  8
3
100
AcDbLine
 10
3259.037576512395
 20
2783.184586066368
 30
0.0
 11
3259.037576512395
 21
3397.167932645344
 31
0.0
  0
LINE
  5
8130
330
81F5
100
AcDbEntity
  8
3
100
AcDbLine
 10
4019.037576512395
 20
3372.167932645343
 30
0.0
 11
3309.037576512395
 21
3372.167932645343
 31
0.0
  0
INSERT
  5
8131
330
81F5
100
AcDbEntity
  8
3
100
AcDbBlockReference
  2
_OPEN
 10
4069.037576512394
 20
3372.167932645343
 30
0.0
 41
50.0
 42
50.0
 43
50.0
  0
INSERT
  5
8132
330
81F5
100
AcDbEntity
  8
3
100
AcDbBlockReference
  2
_OPEN
 10
3259.037576512395
 20
3372.167932645343
 30
0.0
 41
50.0
 42
50.0
 43
50.0
 50
180.0
  0
TEXT
  5
8156
330
81F5
100
AcDbEntity
  8
3
100
AcDbText
 10
3514.04
 20
3351.92
 30
0.0
 40
75.0
  1
MAX
100
AcDbText
  0
TEXT
  5
8157
330
81F5
100
AcDbEntity
  8
3
100
AcDbText
 10
3514.04
 20
3254.42
 30
0.0
 40
75.0
  1
860
100
AcDbText
  0
POINT
  5
8134
330
81F5
100
AcDbEntity
  8
DEFPOINTS
 62
     0
100
AcDbPoint
 10
4069.037576512394
 20
3305.792959835359
 30
0.0
  0
POINT
  5
8135
330
81F5
100
AcDbEntity
  8
DEFPOINTS
 62
     0
100
AcDbPoint
 10
3259.037576512395
 20
2758.184586066368
 30
0.0
  0
POINT
  5
8136
330
81F5
100
AcDbEntity
  8
DEFPOINTS
 62
     0
100
AcDbPoint
 10
3259.037576512395
 20
3372.167932645343
 30
0.0
  0
ENDBLK
  5
7F75
330
81F5
100
AcDbEntity
  8
0
100
AcDbBlockEnd
  0
BLOCK
  5
81F8
330
81F7
100
AcDbEntity
  8
0
100
AcDbBlockBegin
  2
*D15
 70
     1
 10
0.0
 20
0.0
 30
0.0
  3
*D15
  1

  0
LINE
  5
8137
330
81F7
100
AcDbEntity
  8
3
100
AcDbLine
 10
1004.993139438523
 20
2504.184586066369
 30
0.0
 11
1004.993139438523
 21
3408.813332182236
 31
0.0
  0
LINE
  5
8138
330
81F7
100
AcDbEntity
  8
3
100
AcDbLine
 10
1522.993139438522
 20
3383.813332182235
 30
0.0
 11
1054.993139438523
 21
3383.813332182235
 31
0.0
  0
INSERT
  5
8139
330
81F7
100
AcDbEntity
  8
3
100
AcDbBlockReference
  2
_OPEN
 10
1572.993139438522
 20
3383.813332182235
 30
0.0
 41
50.0
 42
50.0
 43
50.0
  0
INSERT
  5
813A
330
81F7
100
AcDbEntity
  8
3
100
AcDbBlockReference
  2
_OPEN
 10
1004.993139438523
 20
3383.813332182235
 30
0.0
 41
50.0
 42
50.0
 43
50.0
 50
180.0
  0
TEXT
  5
8158
330
81F7
100
AcDbEntity
  8
3
100
AcDbText
 10
1138.99
 20
3301.06
 30
0.0
 40
75.0
  1
568
100
AcDbText
  0
POINT
  5
813C
330
81F7
100
AcDbEntity
  8
DEFPOINTS
 62
     0
100
AcDbPoint
 10
1572.993139438522
 20
3204.656377916759
 30
0.0
  0
POINT
  5
813D
330
81F7
100
AcDbEntity
  8
DEFPOINTS
 62
     0
100
AcDbPoint
 10
1004.993139438523
 20
2479.184586066368
 30
0.0
  0
POINT
  5
813E
330
81F7
100
AcDbEntity
  8
DEFPOINTS
 62
     0
100
AcDbPoint
 10
1004.993139438523
 20
3383.813332182235
 30
0.0
  0
ENDBLK
  5
7EA5
330
81F7
100
AcDbEntity
  8
0
100
AcDbBlockEnd
  0
BLOCK
  5
81FA
330
81F9
100
AcDbEntity
  8
0
100
AcDbBlockBegin
  2
*D16
 70
     1
 10
0.0
 20
0.0
 30
0.0
  3
*D16
  1

  0
LINE
  5
7EA7
330
81F9
100
AcDbEntity
  8
0
  6
ByBlock
100
AcDbLine
 10
2082.9390308883
 20
2106.88761540948
 30
0.0
 11
1300.965888986877
 21
2106.88761540948
 31
0.0
  0
LINE
  5
7EA8
330
81F9
100
AcDbEntity
  8
0
  6
ByBlock
100
AcDbLine
 10
1435.967239037909
 20
1561.887615409481
 30
0.0
 11
1300.965888986877
 21
1561.887615409481
 31
0.0
  0
LINE
  5
7EA9
330
81F9
100
AcDbEntity
  8
0
  6
ByBlock
100
AcDbLine
 10
1325.965888986877
 20
2056.88761540948
 30
0.0
 11
1325.965888986877
 21
1611.887615409481
 31
0.0
  0
INSERT
  5
7EAA
330
81F9
100
AcDbEntity
  8
0
  6
ByBlock
100
AcDbBlockReference
  2
_OPEN
 10
1325.965888986877
 20
2106.88761540948
 30
0.0
 41
50.0
 42
50.0
 43
50.0
 50
90.0
  0
INSERT
  5
7EAB
330
81F9
100
AcDbEntity
  8
0
  6
ByBlock
100
AcDbBlockReference
  2
_OPEN
 10
1325.965888986877
 20
1561.887615409481
 30
0.0
 41
50.0
 42
50.0
 43
50.0
 50
270.0
  0
TEXT
  5
7EAC
330
81F9
100
AcDbEntity
  8
3
100
AcDbText
 10
1313.465888986877
 20
1737.959043980909
 30
0.0
 40
75.0
  1
545
 50
90.0
100
AcDbText
  0
POINT
  5
7EAD
330
81F9
100
AcDbEntity
  8
DEFPOINTS
  6
ByBlock
 62
     0
100
AcDbPoint
 10
2107.9390308883
 20
2106.88761540948
 30
0.0
  0
POINT
  5
7EAE
330
81F9
100
AcDbEntity
  8
DEFPOINTS
  6
ByBlock
 62
     0
100
AcDbPoint
 10
1460.967239037908
 20
1561.887615409481
 30
0.0
  0
POINT
  5
7EAF
330
81F9
100
AcDbEntity
  8
DEFPOINTS
  6
ByBlock
 62
     0
100
AcDbPoint
 10
1325.965888986877
 20
1561.887615409481
 30
0.0
  0
ENDBLK
  5
7EB0
330
81F9
100
AcDbEntity
  8
0
100
AcDbBlockEnd
  0
BLOCK
  5
81FC
330
81FB
100
AcDbEntity
  8
0
100
AcDbBlockBegin
  2
*D17
 70
     1
 10
0.0
 20
0.0
 30
0.0
  3
*D17
  1

  0
LINE
  5
813F
330
81FB
100
AcDbEntity
  8
3
100
AcDbLine
 10
1047.993139438522
 20
1838.184586066368
 30
0.0
 11
746.5199975370998
 21
1838.184586066368
 31
0.0
  0
LINE
  5
8140
330
81FB
100
AcDbEntity
  8
3
100
AcDbLine
 10
771.5199975370999
 20
2488.184586066369
 30
0.0
 11
771.5199975370998
 21
1888.184586066368
 31
0.0
  0
INSERT
  5
8141
330
81FB
100
AcDbEntity
  8
3
100
AcDbBlockReference
  2
_OPEN
 10
771.5199975370999
 20
2538.184586066368
 30
0.0
 41
50.0
 42
50.0
 43
50.0
 50
90.0
  0
INSERT
  5
8142
330
81FB
100
AcDbEntity
  8
3
100
AcDbBlockReference
  2
_OPEN
 10
771.5199975370998
 20
1838.184586066368
 30
0.0
 41
50.0
 42
50.0
 43
50.0
 50
270.0
  0
TEXT
  5
8159
330
81FB
100
AcDbEntity
  8
3
100
AcDbText
 10
571.52
 20
2055.43
 30
0.0
 40
75.0
  1
700
100
AcDbText
  0
POINT
  5
8144
330
81FB
100
AcDbEntity
  8
DEFPOINTS
 62
     0
100
AcDbPoint
 10
906.521347588132
 20
2538.184586066368
 30
0.0
  0
POINT
  5
8145
330
81FB
100
AcDbEntity
  8
DEFPOINTS
 62
     0
100
AcDbPoint
 10
1072.993139438522
 20
1838.184586066368
 30
0.0
  0
POINT
  5
8146
330
81FB
100
AcDbEntity
  8
DEFPOINTS
 62
     0
100
AcDbPoint
 10
771.5199975370998
 20
1838.184586066368
 30
0.0
  0
ENDBLK
  5
7EBA
330
81FB
100
AcDbEntity
  8
0
100
AcDbBlockEnd
  0
BLOCK
  5
81FE
330
81FD
100
AcDbEntity
  8
0
100
AcDbBlockBegin
  2
*D18
 70
     1
 10
0.0
 20
0.0
 30
0.0
  3
*D18
  1

  0
LINE
  5
8147
330
81FD
100
AcDbEntity
  8
3
 62
     0
100
AcDbLine
 10
1060.493139438522
 20
1743.184586066369
 30
0.0
 11
746.5199975370998
 21
1743.184586066369
 31
0.0
  0
LINE
  5
8148
330
81FD
100
AcDbEntity
  8
3
 62
     0
100
AcDbLine
 10
1060.493139438522
 20
1643.184586066368
 30
0.0
 11
746.5199975370998
 21
1643.184586066368
 31
0.0
  0
LINE
  5
8149
330
81FD
100
AcDbEntity
  8
3
 62
     0
100
AcDbLine
 10
771.5199975370999
 20
1793.184586066368
 30
0.0
 11
771.5199975370999
 21
1843.184586066368
 31
0.0
  0
LINE
  5
814A
330
81FD
100
AcDbEntity
  8
3
 62
     0
100
AcDbLine
 10
771.5199975370998
 20
1593.184586066368
 30
0.0
 11
771.5199975370998
 21
1314.61315749494
 31
0.0
  0
LINE
  5
814B
330
81FD
100
AcDbEntity
  8
3
 62
     0
100
AcDbLine
 10
771.5199975370998
 20
1743.184586066369
 30
0.0
 11
771.5199975370998
 21
1643.184586066368
 31
0.0
  0
INSERT
  5
814C
330
81FD
100
AcDbEntity
  8
3
 62
     0
100
AcDbBlockReference
  2
_DOT
 10
771.5199975370998
 20
1743.184586066369
 30
0.0
 41
50.0
 42
50.0
 43
50.0
 50
270.0
  0
INSERT
  5
814D
330
81FD
100
AcDbEntity
  8
3
 62
     0
100
AcDbBlockReference
  2
_OPEN
 10
771.5199975370998
 20
1643.184586066368
 30
0.0
 41
50.0
 42
50.0
 43
50.0
 50
90.0
  0
TEXT
  5
815A
330
81FD
100
AcDbEntity
  8
3
 62
     0
100
AcDbText
 10
559.02
 20
1296.15
 30
0.0
 40
75.0
  1
100
100
AcDbText
  0
POINT
  5
814F
330
81FD
100
AcDbEntity
  8
DEFPOINTS
 62
     0
100
AcDbPoint
 10
1072.993139438522
 20
1743.184586066369
 30
0.0
  0
POINT
  5
8150
330
81FD
100
AcDbEntity
  8
DEFPOINTS
 62
     0
100
AcDbPoint
 10
1072.993139438522
 20
1643.184586066368
 30
0.0
  0
POINT
  5
8151
330
81FD
100
AcDbEntity
  8
DEFPOINTS
 62
     0
100
AcDbPoint
 10
771.5199975370998
 20
1643.184586066368
 30
0.0
  0
ENDBLK
  5
7F5E
330
81FD
100
AcDbEntity
  8
0
100
AcDbBlockEnd
  0
BLOCK
  5
8202
330
81FF
100
AcDbEntity
  8
0
100
AcDbBlockBegin
  2
_DOT
 70
     0
 10
0.0
 20
0.0
 30
0.0
  3
_DOT
  1

  0
LWPOLYLINE
  5
7F61
330
81FF
100
AcDbEntity
  8
0
  6
ByBlock
 62
     0
100
AcDbPolyline
 90
        2
 70
     1
 43
0.25
 10
-0.125
 20
0.0
 42
1.0
 10
0.125
 20
0.0
 42
1.0
  0
LINE
  5
7F65
330
81FF
100
AcDbEntity
  8
0
  6
ByBlock
 62
     0
100
AcDbLine
 10
-0.25
 20
0.0
 30
0.0
 11
-1.0
 21
0.0
 31
0.0
  0
ENDBLK
  5
7F37
330
81FF
100
AcDbEntity
  8
0
100
AcDbBlockEnd
  0
BLOCK
  5
8201
330
8200
100
AcDbEntity
  8
0
100
AcDbBlockBegin
  2
*D20
 70
     1
 10
0.0
 20
0.0
 30
0.0
  3
*D20
  1

  0
LINE
  5
7EE0
330
8200
100
AcDbEntity
  8
0
  6
ByBlock
100
AcDbLine
 10
1559.4390308883
 20
1527.887615409481
 30
0.0
 11
1559.4390308883
 21
2580.097017149203
 31
0.0
  0
LINE
  5
7EE1
330
8200
100
AcDbEntity
  8
0
  6
ByBlock
100
AcDbLine
 10
3377.439030888301
 20
986.8876154094804
 30
0.0
 11
3377.439030888301
 21
2580.097017149203
 31
0.0
  0
LINE
  5
7EE2
330
8200
100
AcDbEntity
  8
0
  6
ByBlock
100
AcDbLine
 10
1609.4390308883
 20
2555.097017149203
 30
0.0
 11
3327.439030888299
 21
2555.097017149203
 31
0.0
  0
INSERT
  5
7EE3
330
8200
100
AcDbEntity
  8
0
  6
ByBlock
100
AcDbBlockReference
  2
_OPEN
 10
1559.4390308883
 20
2555.097017149203
 30
0.0
 41
50.0
 42
50.0
 43
50.0
 50
180.0
  0
INSERT
  5
7EE4
330
8200
100
AcDbEntity
  8
0
  6
ByBlock
100
AcDbBlockReference
  2
_OPEN
 10
3377.439030888301
 20
2555.097017149203
 30
0.0
 41
50.0
 42
50.0
 43
50.0
  0
TEXT
  5
7EE5
330
8200
100
AcDbEntity
  8
3
100
AcDbText
 10
2350.581888031157
 20
2567.597017149203
 30
0.0
 40
75.0
  1
1818
100
AcDbText
  0
POINT
  5
7EE6
330
8200
100
AcDbEntity
  8
DEFPOINTS
  6
ByBlock
 62
     0
100
AcDbPoint
 10
1559.4390308883
 20
1502.887615409481
 30
0.0
  0
POINT
  5
7EE7
330
8200
100
AcDbEntity
  8
DEFPOINTS
  6
ByBlock
 62
     0
100
AcDbPoint
 10
3377.439030888301
 20
961.8876154094804
 30
0.0
  0
POINT
  5
7EE8
330
8200
100
AcDbEntity
  8
DEFPOINTS
  6
ByBlock
 62
     0
100
AcDbPoint
 10
3377.439030888301
 20
2555.097017149203
 30
0.0
  0
ENDBLK
  5
7EE9
330
8200
100
AcDbEntity
  8
0
100
AcDbBlockEnd
  0
BLOCK
  5
8204
330
8203
100
AcDbEntity
  8
0
100
AcDbBlockBegin
  2
*D21
 70
     1
 10
0.0
 20
0.0
 30
0.0
  3
*D21
  1

  0
LINE
  5
8056
330
8203
100
AcDbEntity
  8
0
  6
ByBlock
 62
     0
100
AcDbLine
 10
1072.993139438522
 20
1686.184586066368
 30
0.0
 11
1072.993139438522
 21
1512.564655594709
 31
0.0
  0
LINE
  5
8057
330
8203
100
AcDbEntity
  8
0
  6
ByBlock
 62
     0
100
AcDbLine
 10
1572.993139438522
 20
1686.184586066368
 30
0.0
 11
1572.993139438522
 21
1512.564655594709
 31
0.0
  0
LINE
  5
8058
330
8203
100
AcDbEntity
  8
0
  6
ByBlock
 62
     0
100
AcDbLine
 10
1122.993139438522
 20
1537.564655594709
 30
0.0
 11
1522.993139438522
 21
1537.564655594709
 31
0.0
  0
INSERT
  5
8059
330
8203
100
AcDbEntity
  8
0
  6
ByBlock
 62
     0
100
AcDbBlockReference
  2
_OPEN
 10
1072.993139438522
 20
1537.564655594709
 30
0.0
 41
50.0
 42
50.0
 43
50.0
 50
180.0
  0
INSERT
  5
805A
330
8203
100
AcDbEntity
  8
0
  6
ByBlock
 62
     0
100
AcDbBlockReference
  2
_OPEN
 10
1572.993139438522
 20
1537.564655594709
 30
0.0
 41
50.0
 42
50.0
 43
50.0
  0
TEXT
  5
805B
330
8203
100
AcDbEntity
  8
3
 62
     0
100
AcDbText
 10
1226.564568009951
 20
1562.564655594709
 30
0.0
 40
75.0
  1
500
100
AcDbText
  0
POINT
  5
805C
330
8203
100
AcDbEntity
  8
DEFPOINTS
  6
ByBlock
 62
     0
100
AcDbPoint
 10
1072.993139438522
 20
1711.184586066369
 30
0.0
  0
POINT
  5
805D
330
8203
100
AcDbEntity
  8
DEFPOINTS
  6
ByBlock
 62
     0
100
AcDbPoint
 10
1572.993139438522
 20
1711.184586066369
 30
0.0
  0
POINT
  5
805E
330
8203
100
AcDbEntity
  8
DEFPOINTS
  6
ByBlock
 62
     0
100
AcDbPoint
 10
1572.993139438522
 20
1537.564655594709
 30
0.0
  0
ENDBLK
  5
805F
330
8203
100
AcDbEntity
  8
0
100
AcDbBlockEnd
  0
BLOCK
  5
8206
330
8205
100
AcDbEntity
  8
0
100
AcDbBlockBegin
  2
*D22
 70
     1
 10
0.0
 20
0.0
 30
0.0
  3
*D22
  1

  0
LINE
  5
8063
330
8205
100
AcDbEntity
  8
0
  6
ByBlock
 62
     0
100
AcDbLine
 10
1572.993139438522
 20
1686.184586066368
 30
0.0
 11
1572.993139438522
 21
1512.564655594709
 31
0.0
  0
LINE
  5
8064
330
8205
100
AcDbEntity
  8
0
  6
ByBlock
 62
     0
100
AcDbLine
 10
2822.993139438522
 20
1686.184586066368
 30
0.0
 11
2822.993139438522
 21
1512.564655594709
 31
0.0
  0
LINE
  5
8065
330
8205
100
AcDbEntity
  8
0
  6
ByBlock
 62
     0
100
AcDbLine
 10
1622.993139438522
 20
1537.564655594709
 30
0.0
 11
2772.993139438522
 21
1537.564655594709
 31
0.0
  0
INSERT
  5
8066
330
8205
100
AcDbEntity
  8
0
  6
ByBlock
 62
     0
100
AcDbBlockReference
  2
_OPEN
 10
1572.993139438522
 20
1537.564655594709
 30
0.0
 41
50.0
 42
50.0
 43
50.0
 50
180.0
  0
INSERT
  5
8067
330
8205
100
AcDbEntity
  8
0
  6
ByBlock
 62
     0
100
AcDbBlockReference
  2
_OPEN
 10
2822.993139438522
 20
1537.564655594709
 30
0.0
 41
50.0
 42
50.0
 43
50.0
  0
TEXT
  5
8068
330
8205
100
AcDbEntity
  8
3
 62
     0
100
AcDbText
 10
2072.993139438522
 20
1562.564655594709
 30
0.0
 40
75.0
  1
1250
100
AcDbText
  0
POINT
  5
8069
330
8205
100
AcDbEntity
  8
DEFPOINTS
  6
ByBlock
 62
     0
100
AcDbPoint
 10
1572.993139438522
 20
1711.184586066369
 30
0.0
  0
POINT
  5
806A
330
8205
100
AcDbEntity
  8
DEFPOINTS
  6
ByBlock
 62
     0
100
AcDbPoint
 10
2822.993139438522
 20
1711.184586066369
 30
0.0
  0
POINT
  5
806B
330
8205
100
AcDbEntity
  8
DEFPOINTS
  6
ByBlock
 62
     0
100
AcDbPoint
 10
2822.993139438522
 20
1537.564655594709
 30
0.0
  0
ENDBLK
  5
806C
330
8205
100
AcDbEntity
  8
0
100
AcDbBlockEnd
  0
BLOCK
  5
8208
330
8207
100
AcDbEntity
  8
0
100
AcDbBlockBegin
  2
*D23
 70
     1
 10
0.0
 20
0.0
 30
0.0
  3
*D23
  1

  0
LINE
  5
8070
330
8207
100
AcDbEntity
  8
0
  6
ByBlock
 62
     0
100
AcDbLine
 10
3367.037576512395
 20
1686.184586066368
 30
0.0
 11
3367.037576512395
 21
1512.564655594709
 31
0.0
  0
LINE
  5
8071
330
8207
100
AcDbEntity
  8
0
  6
ByBlock
 62
     0
100
AcDbLine
 10
4069.037576512396
 20
1686.184586066368
 30
0.0
 11
4069.037576512396
 21
1512.564655594709
 31
0.0
  0
LINE
  5
8072
330
8207
100
AcDbEntity
  8
0
  6
ByBlock
 62
     0
100
AcDbLine
 10
3417.037576512395
 20
1537.564655594709
 30
0.0
 11
4019.037576512396
 21
1537.564655594709
 31
0.0
  0
INSERT
  5
8073
330
8207
100
AcDbEntity
  8
0
  6
ByBlock
 62
     0
100
AcDbBlockReference
  2
_OPEN
 10
3367.037576512395
 20
1537.564655594709
 30
0.0
 41
50.0
 42
50.0
 43
50.0
 50
180.0
  0
INSERT
  5
8074
330
8207
100
AcDbEntity
  8
0
  6
ByBlock
 62
     0
100
AcDbBlockReference
  2
_OPEN
 10
4069.037576512396
 20
1537.564655594709
 30
0.0
 41
50.0
 42
50.0
 43
50.0
  0
TEXT
  5
8075
330
8207
100
AcDbEntity
  8
3
 62
     0
100
AcDbText
 10
3621.609005083824
 20
1562.564655594709
 30
0.0
 40
75.0
  1
702
100
AcDbText
  0
POINT
  5
8076
330
8207
100
AcDbEntity
  8
DEFPOINTS
  6
ByBlock
 62
     0
100
AcDbPoint
 10
3367.037576512395
 20
1711.184586066369
 30
0.0
  0
POINT
  5
8077
330
8207
100
AcDbEntity
  8
DEFPOINTS
  6
ByBlock
 62
     0
100
AcDbPoint
 10
4069.037576512396
 20
1711.184586066369
 30
0.0
  0
POINT
  5
8078
330
8207
100
AcDbEntity
  8
DEFPOINTS
  6
ByBlock
 62
     0
100
AcDbPoint
 10
4069.037576512396
 20
1537.564655594709
 30
0.0
  0
ENDBLK
  5
8079
330
8207
100
AcDbEntity
  8
0
100
AcDbBlockEnd
  0
BLOCK
  5
820A
330
8209
100
AcDbEntity
  8
0
100
AcDbBlockBegin
  2
*D24
 70
     1
 10
0.0
 20
0.0
 30
0.0
  3
*D24
  1

  0
LINE
  5
807D
330
8209
100
AcDbEntity
  8
0
  6
ByBlock
 62
     0
100
AcDbLine
 10
4069.037576512396
 20
1686.184586066368
 30
0.0
 11
4069.037576512396
 21
1512.564655594709
 31
0.0
  0
LINE
  5
807E
330
8209
100
AcDbEntity
  8
0
  6
ByBlock
 62
     0
100
AcDbLine
 10
4622.037576512396
 20
1686.184586066368
 30
0.0
 11
4622.037576512396
 21
1512.564655594709
 31
0.0
  0
LINE
  5
807F
330
8209
100
AcDbEntity
  8
0
  6
ByBlock
 62
     0
100
AcDbLine
 10
4119.037576512396
 20
1537.564655594709
 30
0.0
 11
4572.037576512395
 21
1537.564655594709
 31
0.0
  0
INSERT
  5
8080
330
8209
100
AcDbEntity
  8
0
  6
ByBlock
 62
     0
100
AcDbBlockReference
  2
_OPEN
 10
4069.037576512396
 20
1537.564655594709
 30
0.0
 41
50.0
 42
50.0
 43
50.0
 50
180.0
  0
INSERT
  5
8081
330
8209
100
AcDbEntity
  8
0
  6
ByBlock
 62
     0
100
AcDbBlockReference
  2
_OPEN
 10
4622.037576512396
 20
1537.564655594709
 30
0.0
 41
50.0
 42
50.0
 43
50.0
  0
TEXT
  5
8082
330
8209
100
AcDbEntity
  8
3
 62
     0
100
AcDbText
 10
4249.109005083823
 20
1562.564655594709
 30
0.0
 40
75.0
  1
553
100
AcDbText
  0
POINT
  5
8083
330
8209
100
AcDbEntity
  8
DEFPOINTS
  6
ByBlock
 62
     0
100
AcDbPoint
 10
4069.037576512396
 20
1711.184586066369
 30
0.0
  0
POINT
  5
8084
330
8209
100
AcDbEntity
  8
DEFPOINTS
  6
ByBlock
 62
     0
100
AcDbPoint
 10
4622.037576512396
 20
1711.184586066369
 30
0.0
  0
POINT
  5
8085
330
8209
100
AcDbEntity
  8
DEFPOINTS
  6
ByBlock
 62
     0
100
AcDbPoint
 10
4622.037576512396
 20
1537.564655594709
 30
0.0
  0
ENDBLK
  5
8086
330
8209
100
AcDbEntity
  8
0
100
AcDbBlockEnd
  0
BLOCK
  5
820C
330
820B
100
AcDbEntity
  8
0
100
AcDbBlockBegin
  2
_NONE
 70
     0
 10
0.0
 20
0.0
 30
0.0
  3
_NONE
  1

  0
CIRCLE
  5
8098
330
820B
100
AcDbEntity
  8
0
  6
ByBlock
 62
     0
100
AcDbCircle
 10
0.0
 20
0.0
 30
0.0
 40
0.25
  0
ENDBLK
  5
8099
330
820B
100
AcDbEntity
  8
0
100
AcDbBlockEnd
  0
BLOCK
  5
820E
330
820D
100
AcDbEntity
  8
0
100
AcDbBlockBegin
  2
*D26
 70
     1
 10
0.0
 20
0.0
 30
0.0
  3
*D26
  1

  0
LINE
  5
809C
330
820D
100
AcDbEntity
  8
0
  6
ByBlock
 62
     0
100
AcDbLine
 10
769.3041040317839
 20
1743.184586066369
 30
0.0
 11
769.3041040317839
 21
1838.184586066368
 31
0.0
  0
TEXT
  5
809D
330
820D
100
AcDbEntity
  8
3
 62
     0
100
AcDbText
 10
674.6612468889268
 20
1681.756014637797
 30
0.0
 40
75.0
  1
(95)
 50
90.0
100
AcDbText
  0
POINT
  5
809E
330
820D
100
AcDbEntity
  8
DEFPOINTS
  6
ByBlock
 62
     0
100
AcDbPoint
 10
1072.993139438522
 20
1743.184586066369
 30
0.0
  0
POINT
  5
809F
330
820D
100
AcDbEntity
  8
DEFPOINTS
  6
ByBlock
 62
     0
100
AcDbPoint
 10
1072.993139438522
 20
1838.184586066368
 30
0.0
  0
POINT
  5
80A0
330
820D
100
AcDbEntity
  8
DEFPOINTS
  6
ByBlock
 62
     0
100
AcDbPoint
 10
769.3041040317839
 20
1838.184586066368
 30
0.0
  0
ENDBLK
  5
80A1
330
820D
100
AcDbEntity
  8
0
100
AcDbBlockEnd
  0
BLOCK
  5
8210
330
820F
100
AcDbEntity
  8
0
100
AcDbBlockBegin
  2
*D27
 70
     1
 10
0.0
 20
0.0
 30
0.0
  3
*D27
  1

  0
LINE
  5
80A5
330
820F
100
AcDbEntity
  8
0
  6
ByBlock
 62
     0
100
AcDbLine
 10
1047.993139438522
 20
1643.184586066368
 30
0.0
 11
519.7741538974078
 21
1643.184586066368
 31
0.0
  0
LINE
  5
80A6
330
820F
100
AcDbEntity
  8
0
  6
ByBlock
 62
     0
100
AcDbLine
 10
1528.493139438523
 20
3083.184586066368
 30
0.0
 11
519.7741538974078
 21
3083.184586066368
 31
0.0
  0
LINE
  5
80A7
330
820F
100
AcDbEntity
  8
0
  6
ByBlock
 62
     0
100
AcDbLine
 10
544.7741538974078
 20
1693.184586066369
 30
0.0
 11
544.7741538974078
 21
3033.184586066368
 31
0.0
  0
INSERT
  5
80A8
330
820F
100
AcDbEntity
  8
0
  6
ByBlock
 62
     0
100
AcDbBlockReference
  2
_OPEN
 10
544.7741538974078
 20
1643.184586066368
 30
0.0
 41
50.0
 42
50.0
 43
50.0
 50
270.0
  0
INSERT
  5
80A9
330
820F
100
AcDbEntity
  8
0
  6
ByBlock
 62
     0
100
AcDbBlockReference
  2
_OPEN
 10
544.7741538974078
 20
3083.184586066368
 30
0.0
 41
50.0
 42
50.0
 43
50.0
 50
90.0
  0
TEXT
  5
80AA
330
820F
100
AcDbEntity
  8
3
 62
     0
100
AcDbText
 10
487.6312967545507
 20
2189.970300352083
 30
0.0
 40
75.0
  1
(1440)
 50
90.0
100
AcDbText
  0
POINT
  5
80AB
330
820F
100
AcDbEntity
  8
DEFPOINTS
  6
ByBlock
 62
     0
100
AcDbPoint
 10
1072.993139438522
 20
1643.184586066368
 30
0.0
  0
POINT
  5
80AC
330
820F
100
AcDbEntity
  8
DEFPOINTS
  6
ByBlock
 62
     0
100
AcDbPoint
 10
1553.493139438523
 20
3083.184586066368
 30
0.0
  0
POINT
  5
80AD
330
820F
100
AcDbEntity
  8
DEFPOINTS
  6
ByBlock
 62
     0
100
AcDbPoint
 10
544.7741538974078
 20
3083.184586066368
 30
0.0
  0
ENDBLK
  5
80AE
330
820F
100
AcDbEntity
  8
0
100
AcDbBlockEnd
  0
BLOCK
  5
8295
330
8294
100
AcDbEntity
  8
0
100
AcDbBlockBegin
  2
*D29
 70
     1
 10
0.0
 20
0.0
 30
0.0
  3
*D29
  1

  0
LINE
  5
82E6
330
8294
100
AcDbEntity
  8
3
 62
     0
370
    -2
100
AcDbLine
 10
3169.037576512395
 20
2783.184586066368
 30
0.0
 11
3169.037576512395
 21
3525.88090204704
 31
0.0
  0
LINE
  5
82E7
330
8294
100
AcDbEntity
  8
3
 62
     0
370
    -2
100
AcDbLine
 10
4069.037576512394
 20
3296.573169067424
 30
0.0
 11
4069.037576512394
 21
3525.88090204704
 31
0.0
  0
LINE
  5
82E8
330
8294
100
AcDbEntity
  8
3
 62
     0
370
    -2
100
AcDbLine
 10
3219.037576512395
 20
3500.88090204704
 30
0.0
 11
4019.037576512395
 21
3500.88090204704
 31
0.0
  0
INSERT
  5
82E9
330
8294
100
AcDbEntity
  8
3
 62
     0
370
    -2
100
AcDbBlockReference
  2
_OPEN
 10
3169.037576512395
 20
3500.88090204704
 30
0.0
 41
50.0
 42
50.0
 43
50.0
 50
180.0
  0
INSERT
  5
82EA
330
8294
100
AcDbEntity
  8
3
 62
     0
370
    -2
100
AcDbBlockReference
  2
_OPEN
 10
4069.037576512394
 20
3500.88090204704
 30
0.0
 41
50.0
 42
50.0
 43
50.0
  0
MTEXT
  5
82EB
330
8294
100
AcDbEntity
  8
3
 62
     0
100
AcDbMText
 10
3619.037576512395
 20
3583.023759189897
 30
0.0
 40
75.0
 41
0.0
 71
     5
 72
     1
  1
\A1;(900)
 73
     1
 44
1.0
1001
ACAD
1000
MTEXTBEGIN
1070
    73
1070
     1
1070
    44
1040
1.0
1070
    74
1070
     0
1000
MTEXTEND
  0
POINT
  5
82EC
330
8294
100
AcDbEntity
  8
DEFPOINTS
 62
     0
100
AcDbPoint
 10
3169.037576512395
 20
2758.184586066368
 30
0.0
  0
POINT
  5
82ED
330
8294
100
AcDbEntity
  8
DEFPOINTS
 62
     0
100
AcDbPoint
 10
4069.037576512394
 20
3271.573169067423
 30
0.0
  0
POINT
  5
82EE
330
8294
100
AcDbEntity
  8
DEFPOINTS
 62
     0
100
AcDbPoint
 10
4069.037576512394
 20
3500.88090204704
 30
0.0
  0
ENDBLK
  5
8296
330
8294
100
AcDbEntity
  8
0
100
AcDbBlockEnd
  0
BLOCK
  5
82A2
330
82A1
100
AcDbEntity
  8
0
100
AcDbBlockBegin
  2
*D30
 70
     1
 10
0.0
 20
0.0
 30
0.0
  3
*D30
  1

  0
LINE
  5
82EF
330
82A1
100
AcDbEntity
  8
3
 62
     0
370
    -2
100
AcDbLine
 10
4069.037576512394
 20
3296.573169067424
 30
0.0
 11
4069.037576512394
 21
3525.88090204704
 31
0.0
  0
LINE
  5
82F0
330
82A1
100
AcDbEntity
  8
3
 62
     0
370
    -2
100
AcDbLine
 10
4679.037576512397
 20
2523.684586066368
 30
0.0
 11
4679.037576512397
 21
3525.88090204704
 31
0.0
  0
LINE
  5
82F1
330
82A1
100
AcDbEntity
  8
3
 62
     0
370
    -2
100
AcDbLine
 10
4119.037576512394
 20
3500.88090204704
 30
0.0
 11
4629.037576512398
 21
3500.88090204704
 31
0.0
  0
INSERT
  5
82F2
330
82A1
100
AcDbEntity
  8
3
 62
     0
370
    -2
100
AcDbBlockReference
  2
_OPEN
 10
4069.037576512394
 20
3500.88090204704
 30
0.0
 41
50.0
 42
50.0
 43
50.0
 50
180.0
  0
INSERT
  5
82F3
330
82A1
100
AcDbEntity
  8
3
 62
     0
370
    -2
100
AcDbBlockReference
  2
_OPEN
 10
4679.037576512397
 20
3500.88090204704
 30
0.0
 41
50.0
 42
50.0
 43
50.0
  0
MTEXT
  5
82F4
330
82A1
100
AcDbEntity
  8
3
 62
     0
100
AcDbMText
 10
4374.037576512395
 20
3583.023759189897
 30
0.0
 40
75.0
 41
0.0
 71
     5
 72
     1
  1
\A1;(610)
 73
     1
 44
1.0
1001
ACAD
1000
MTEXTBEGIN
1070
    73
1070
     1
1070
    44
1040
1.0
1070
    74
1070
     0
1000
MTEXTEND
  0
POINT
  5
82F5
330
82A1
100
AcDbEntity
  8
DEFPOINTS
 62
     0
100
AcDbPoint
 10
4069.037576512394
 20
3271.573169067423
 30
0.0
  0
POINT
  5
82F6
330
82A1
100
AcDbEntity
  8
DEFPOINTS
 62
     0
100
AcDbPoint
 10
4679.037576512397
 20
2498.684586066368
 30
0.0
  0
POINT
  5
82F7
330
82A1
100
AcDbEntity
  8
DEFPOINTS
 62
     0
100
AcDbPoint
 10
4679.037576512397
 20
3500.88090204704
 30
0.0
  0
ENDBLK
  5
82A3
330
82A1
100
AcDbEntity
  8
0
100
AcDbBlockEnd
  0
BLOCK
  5
82FA
330
82F9
100
AcDbEntity
  8
0
100
AcDbBlockBegin
  2
*D31
 70
     1
 10
0.0
 20
0.0
 30
0.0
  3
*D31
  1

  0
LINE
  5
82FC
330
82F9
100
AcDbEntity
  8
3
 62
     0
370
    -2
100
AcDbLine
 10
1072.993139438522
 20
4250.677542897386
 30
0.0
 11
1072.993139438522
 21
3850.55225679019
 31
0.0
  0
LINE
  5
82FD
330
82F9
100
AcDbEntity
  8
3
 62
     0
370
    -2
100
AcDbLine
 10
2822.993139438522
 20
4250.677542897386
 30
0.0
 11
2822.993139438522
 21
3850.55225679019
 31
0.0
  0
LINE
  5
82FE
330
82F9
100
AcDbEntity
  8
3
 62
     0
370
    -2
100
AcDbLine
 10
1122.993139438522
 20
3875.55225679019
 30
0.0
 11
2772.993139438522
 21
3875.55225679019
 31
0.0
  0
INSERT
  5
82FF
330
82F9
100
AcDbEntity
  8
3
 62
     0
370
    -2
100
AcDbBlockReference
  2
_OPEN
 10
1072.993139438522
 20
3875.55225679019
 30
0.0
 41
50.0
 42
50.0
 43
50.0
 50
180.0
  0
INSERT
  5
8300
330
82F9
100
AcDbEntity
  8
3
 62
     0
370
    -2
100
AcDbBlockReference
  2
_OPEN
 10
2822.993139438522
 20
3875.55225679019
 30
0.0
 41
50.0
 42
50.0
 43
50.0
  0
MTEXT
  5
8301
330
82F9
100
AcDbEntity
  8
3
 62
     0
100
AcDbMText
 10
1947.993139438522
 20
3938.05225679019
 30
0.0
 40
75.0
 41
0.0
 71
     5
 72
     1
  1
\A1;1750
 73
     1
 44
1.0
1001
ACAD
1000
MTEXTBEGIN
1070
    73
1070
     1
1070
    44
1040
1.0
1070
    74
1070
     0
1000
MTEXTEND
  0
POINT
  5
8302
330
82F9
100
AcDbEntity
  8
DEFPOINTS
 62
     0
100
AcDbPoint
 10
1072.993139438522
 20
4275.677542897386
 30
0.0
  0
POINT
  5
8303
330
82F9
100
AcDbEntity
  8
DEFPOINTS
 62
     0
100
AcDbPoint
 10
2822.993139438522
 20
4275.677542897386
 30
0.0
  0
POINT
  5
8304
330
82F9
100
AcDbEntity
  8
DEFPOINTS
 62
     0
100
AcDbPoint
 10
2822.993139438522
 20
3875.55225679019
 30
0.0
  0
ENDBLK
  5
82FB
330
82F9
100
AcDbEntity
  8
0
100
AcDbBlockEnd
  0
BLOCK
  5
8307
330
8306
100
AcDbEntity
  8
0
100
AcDbBlockBegin
  2
*D32
 70
     1
 10
0.0
 20
0.0
 30
0.0
  3
*D32
  1

  0
LINE
  5
8312
330
8306
100
AcDbEntity
  8
3
 62
     0
370
    -2
100
AcDbLine
 10
2072.993139438522
 20
5555.677542897386
 30
0.0
 11
2072.993139438522
 21
5706.80082644834
 31
0.0
  0
LINE
  5
8313
330
8306
100
AcDbEntity
  8
3
 62
     0
370
    -2
100
AcDbLine
 10
2822.993139438522
 20
5050.677542897386
 30
0.0
 11
2822.993139438522
 21
5706.80082644834
 31
0.0
  0
LINE
  5
8314
330
8306
100
AcDbEntity
  8
3
 62
     0
370
    -2
100
AcDbLine
 10
2122.993139438522
 20
5681.800826448339
 30
0.0
 11
2772.993139438522
 21
5681.800826448339
 31
0.0
  0
INSERT
  5
8315
330
8306
100
AcDbEntity
  8
3
 62
     0
370
    -2
100
AcDbBlockReference
  2
_OPEN
 10
2072.993139438522
 20
5681.800826448339
 30
0.0
 41
50.0
 42
50.0
 43
50.0
 50
180.0
  0
INSERT
  5
8316
330
8306
100
AcDbEntity
  8
3
 62
     0
370
    -2
100
AcDbBlockReference
  2
_OPEN
 10
2822.993139438522
 20
5681.800826448339
 30
0.0
 41
50.0
 42
50.0
 43
50.0
  0
MTEXT
  5
8317
330
8306
100
AcDbEntity
  8
3
 62
     0
100
AcDbMText
 10
2447.993139438522
 20
5744.300826448339
 30
0.0
 40
75.0
 41
0.0
 71
     5
 72
     1
  1
\A1;750
 73
     1
 44
1.0
1001
ACAD
1000
MTEXTBEGIN
1070
    73
1070
     1
1070
    44
1040
1.0
1070
    74
1070
     0
1000
MTEXTEND
  0
POINT
  5
8318
330
8306
100
AcDbEntity
  8
DEFPOINTS
 62
     0
100
AcDbPoint
 10
2072.993139438522
 20
5530.677542897386
 30
0.0
  0
POINT
  5
8319
330
8306
100
AcDbEntity
  8
DEFPOINTS
 62
     0
100
AcDbPoint
 10
2822.993139438522
 20
5025.677542897387
 30
0.0
  0
POINT
  5
831A
330
8306
100
AcDbEntity
  8
DEFPOINTS
 62
     0
100
AcDbPoint
 10
2822.993139438522
 20
5681.800826448339
 30
0.0
  0
ENDBLK
  5
8308
330
8306
100
AcDbEntity
  8
0
100
AcDbBlockEnd
  0
BLOCK
  5
831C
330
831B
100
AcDbEntity
  8
0
100
AcDbBlockBegin
  2
*D33
 70
     1
 10
0.0
 20
0.0
 30
0.0
  3
*D33
  1

  0
LINE
  5
831E
330
831B
100
AcDbEntity
  8
3
 62
     0
370
    -2
100
AcDbLine
 10
1071.430639438522
 20
1758.184586066369
 30
0.0
 11
767.0199975370998
 21
1758.184586066369
 31
0.0
  0
LINE
  5
831F
330
831B
100
AcDbEntity
  8
3
 62
     0
370
    -2
100
AcDbLine
 10
1071.430639438522
 20
1658.184586066368
 30
0.0
 11
767.0199975370998
 21
1658.184586066368
 31
0.0
  0
LINE
  5
8320
330
831B
100
AcDbEntity
  8
3
 62
     0
370
    -2
100
AcDbLine
 10
771.5199975370998
 20
1753.684586066369
 30
0.0
 11
771.5199975370998
 21
1712.684586066368
 31
0.0
  0
LINE
  5
8321
330
831B
100
AcDbEntity
  8
3
 62
     0
370
    -2
100
AcDbLine
 10
771.5199975370998
 20
1662.684586066368
 30
0.0
 11
771.5199975370998
 21
1703.684586066368
 31
0.0
  0
SOLID
  5
8322
330
831B
100
AcDbEntity
  8
3
 62
     0
100
AcDbTrace
 10
770.7699975370998
 20
1753.684586066369
 30
0.0
 11
772.2699975370998
 21
1753.684586066369
 31
0.0
 12
771.5199975370998
 22
1758.184586066369
 32
0.0
 13
771.5199975370998
 23
1758.184586066369
 33
0.0
  0
SOLID
  5
8323
330
831B
100
AcDbEntity
  8
3
 62
     0
100
AcDbTrace
 10
770.7699975370998
 20
1662.684586066368
 30
0.0
 11
772.2699975370998
 21
1662.684586066368
 31
0.0
 12
771.5199975370998
 22
1658.184586066368
 32
0.0
 13
771.5199975370998
 23
1658.184586066368
 33
0.0
  0
MTEXT
  5
8324
330
831B
100
AcDbEntity
  8
3
 62
     0
100
AcDbMText
 10
771.5199975370995
 20
1708.184586066369
 30
0.0
 40
4.5
 41
0.0
 71
     5
 72
     1
  1
\A1;100
 73
     1
 44
1.0
1001
ACAD
1000
MTEXTBEGIN
1070
    73
1070
     1
1070
    44
1040
1.0
1070
    74
1070
     0
1000
MTEXTEND
  0
POINT
  5
8325
330
831B
100
AcDbEntity
  8
DEFPOINTS
 62
     0
100
AcDbPoint
 10
1072.993139438522
 20
1758.184586066369
 30
0.0
  0
POINT
  5
8326
330
831B
100
AcDbEntity
  8
DEFPOINTS
 62
     0
100
AcDbPoint
 10
1072.993139438522
 20
1658.184586066368
 30
0.0
  0
POINT
  5
8327
330
831B
100
AcDbEntity
  8
DEFPOINTS
 62
     0
100
AcDbPoint
 10
771.5199975370998
 20
1658.184586066368
 30
0.0
  0
ENDBLK
  5
831D
330
831B
100
AcDbEntity
  8
0
100
AcDbBlockEnd
  0
BLOCK
  5
8329
330
8328
100
AcDbEntity
  8
0
100
AcDbBlockBegin
  2
*D34
 70
     1
 10
0.0
 20
0.0
 30
0.0
  3
*D34
  1

  0
LINE
  5
832B
330
8328
100
AcDbEntity
  8
3
 62
     0
370
    -2
100
AcDbLine
 10
1072.993139438522
 20
1633.184586066368
 30
0.0
 11
1072.993139438522
 21
1480.064655594709
 31
0.0
  0
LINE
  5
832C
330
8328
100
AcDbEntity
  8
3
 62
     0
370
    -2
100
AcDbLine
 10
1572.993139438522
 20
1633.184586066368
 30
0.0
 11
1572.993139438522
 21
1480.064655594709
 31
0.0
  0
LINE
  5
832D
330
8328
100
AcDbEntity
  8
3
 62
     0
370
    -2
100
AcDbLine
 10
1077.493139438522
 20
1484.564655594709
 30
0.0
 11
1314.957425152808
 21
1484.564655594709
 31
0.0
  0
LINE
  5
832E
330
8328
100
AcDbEntity
  8
3
 62
     0
370
    -2
100
AcDbLine
 10
1568.493139438522
 20
1484.564655594709
 30
0.0
 11
1331.028853724236
 21
1484.564655594709
 31
0.0
  0
SOLID
  5
832F
330
8328
100
AcDbEntity
  8
3
 62
     0
100
AcDbTrace
 10
1077.493139438522
 20
1485.314655594709
 30
0.0
 11
1077.493139438522
 21
1483.814655594709
 31
0.0
 12
1072.993139438522
 22
1484.564655594709
 32
0.0
 13
1072.993139438522
 23
1484.564655594709
 33
0.0
  0
SOLID
  5
8330
330
8328
100
AcDbEntity
  8
3
 62
     0
100
AcDbTrace
 10
1568.493139438522
 20
1485.314655594709
 30
0.0
 11
1568.493139438522
 21
1483.814655594709
 31
0.0
 12
1572.993139438522
 22
1484.564655594709
 32
0.0
 13
1572.993139438522
 23
1484.564655594709
 33
0.0
  0
MTEXT
  5
8331
330
8328
100
AcDbEntity
  8
3
 62
     0
100
AcDbMText
 10
1322.993139438522
 20
1484.564655594709
 30
0.0
 40
4.5
 41
0.0
 71
     5
 72
     1
  1
\A1;500
 73
     1
 44
1.0
1001
ACAD
1000
MTEXTBEGIN
1070
    73
1070
     1
1070
    44
1040
1.0
1070
    74
1070
     0
1000
MTEXTEND
  0
POINT
  5
8332
330
8328
100
AcDbEntity
  8
DEFPOINTS
 62
     0
100
AcDbPoint
 10
1072.993139438522
 20
1658.184586066368
 30
0.0
  0
POINT
  5
8333
330
8328
100
AcDbEntity
  8
DEFPOINTS
 62
     0
100
AcDbPoint
 10
1572.993139438522
 20
1658.184586066368
 30
0.0
  0
POINT
  5
8334
330
8328
100
AcDbEntity
  8
DEFPOINTS
 62
     0
100
AcDbPoint
 10
1572.993139438522
 20
1484.564655594709
 30
0.0
  0
ENDBLK
  5
832A
330
8328
100
AcDbEntity
  8
0
100
AcDbBlockEnd
  0
BLOCK
  5
8336
330
8335
100
AcDbEntity
  8
0
100
AcDbBlockBegin
  2
*D35
 70
     1
 10
0.0
 20
0.0
 30
0.0
  3
*D35
  1

  0
LINE
  5
8338
330
8335
100
AcDbEntity
  8
3
 62
     0
370
    -2
100
AcDbLine
 10
1572.993139438522
 20
1633.184586066368
 30
0.0
 11
1572.993139438522
 21
1480.064655594709
 31
0.0
  0
LINE
  5
8339
330
8335
100
AcDbEntity
  8
3
 62
     0
370
    -2
100
AcDbLine
 10
2822.993139438522
 20
1633.184586066368
 30
0.0
 11
2822.993139438522
 21
1480.064655594709
 31
0.0
  0
LINE
  5
833A
330
8335
100
AcDbEntity
  8
3
 62
     0
370
    -2
100
AcDbLine
 10
1577.493139438522
 20
1484.564655594709
 30
0.0
 11
2188.243139438522
 21
1484.564655594709
 31
0.0
  0
LINE
  5
833B
330
8335
100
AcDbEntity
  8
3
 62
     0
370
    -2
100
AcDbLine
 10
2818.493139438522
 20
1484.564655594709
 30
0.0
 11
2207.743139438522
 21
1484.564655594709
 31
0.0
  0
SOLID
  5
833C
330
8335
100
AcDbEntity
  8
3
 62
     0
100
AcDbTrace
 10
1577.493139438522
 20
1485.314655594709
 30
0.0
 11
1577.493139438522
 21
1483.814655594709
 31
0.0
 12
1572.993139438522
 22
1484.564655594709
 32
0.0
 13
1572.993139438522
 23
1484.564655594709
 33
0.0
  0
SOLID
  5
833D
330
8335
100
AcDbEntity
  8
3
 62
     0
100
AcDbTrace
 10
2818.493139438522
 20
1485.314655594709
 30
0.0
 11
2818.493139438522
 21
1483.814655594709
 31
0.0
 12
2822.993139438522
 22
1484.564655594709
 32
0.0
 13
2822.993139438522
 23
1484.564655594709
 33
0.0
  0
MTEXT
  5
833E
330
8335
100
AcDbEntity
  8
3
 62
     0
100
AcDbMText
 10
2197.993139438522
 20
1484.564655594709
 30
0.0
 40
4.5
 41
0.0
 71
     5
 72
     1
  1
\A1;1250
 73
     1
 44
1.0
1001
ACAD
1000
MTEXTBEGIN
1070
    73
1070
     1
1070
    44
1040
1.0
1070
    74
1070
     0
1000
MTEXTEND
  0
POINT
  5
833F
330
8335
100
AcDbEntity
  8
DEFPOINTS
 62
     0
100
AcDbPoint
 10
1572.993139438522
 20
1658.184586066368
 30
0.0
  0
POINT
  5
8340
330
8335
100
AcDbEntity
  8
DEFPOINTS
 62
     0
100
AcDbPoint
 10
2822.993139438522
 20
1658.184586066368
 30
0.0
  0
POINT
  5
8341
330
8335
100
AcDbEntity
  8
DEFPOINTS
 62
     0
100
AcDbPoint
 10
2822.993139438522
 20
1484.564655594709
 30
0.0
  0
ENDBLK
  5
8337
330
8335
100
AcDbEntity
  8
0
100
AcDbBlockEnd
  0
BLOCK
  5
8343
330
8342
100
AcDbEntity
  8
0
100
AcDbBlockBegin
  2
*D36
 70
     1
 10
0.0
 20
0.0
 30
0.0
  3
*D36
  1

  0
LINE
  5
8345
330
8342
100
AcDbEntity
  8
3
 62
     0
370
    -2
100
AcDbLine
 10
3367.037576512395
 20
1633.184586066368
 30
0.0
 11
3367.037576512395
 21
1480.064655594709
 31
0.0
  0
LINE
  5
8346
330
8342
100
AcDbEntity
  8
3
 62
     0
370
    -2
100
AcDbLine
 10
4069.037576512396
 20
1633.184586066368
 30
0.0
 11
4069.037576512396
 21
1480.064655594709
 31
0.0
  0
LINE
  5
8347
330
8342
100
AcDbEntity
  8
3
 62
     0
370
    -2
100
AcDbLine
 10
3371.537576512395
 20
1484.564655594709
 30
0.0
 11
3710.001862226681
 21
1484.564655594709
 31
0.0
  0
LINE
  5
8348
330
8342
100
AcDbEntity
  8
3
 62
     0
370
    -2
100
AcDbLine
 10
4064.537576512396
 20
1484.564655594709
 30
0.0
 11
3726.07329079811
 21
1484.564655594709
 31
0.0
  0
SOLID
  5
8349
330
8342
100
AcDbEntity
  8
3
 62
     0
100
AcDbTrace
 10
3371.537576512395
 20
1485.314655594709
 30
0.0
 11
3371.537576512395
 21
1483.814655594709
 31
0.0
 12
3367.037576512395
 22
1484.564655594709
 32
0.0
 13
3367.037576512395
 23
1484.564655594709
 33
0.0
  0
SOLID
  5
834A
330
8342
100
AcDbEntity
  8
3
 62
     0
100
AcDbTrace
 10
4064.537576512396
 20
1485.314655594709
 30
0.0
 11
4064.537576512396
 21
1483.814655594709
 31
0.0
 12
4069.037576512396
 22
1484.564655594709
 32
0.0
 13
4069.037576512396
 23
1484.564655594709
 33
0.0
  0
MTEXT
  5
834B
330
8342
100
AcDbEntity
  8
3
 62
     0
100
AcDbMText
 10
3718.037576512396
 20
1484.564655594709
 30
0.0
 40
4.5
 41
0.0
 71
     5
 72
     1
  1
\A1;702
 73
     1
 44
1.0
1001
ACAD
1000
MTEXTBEGIN
1070
    73
1070
     1
1070
    44
1040
1.0
1070
    74
1070
     0
1000
MTEXTEND
  0
POINT
  5
834C
330
8342
100
AcDbEntity
  8
DEFPOINTS
 62
     0
100
AcDbPoint
 10
3367.037576512395
 20
1658.184586066368
 30
0.0
  0
POINT
  5
834D
330
8342
100
AcDbEntity
  8
DEFPOINTS
 62
     0
100
AcDbPoint
 10
4069.037576512396
 20
1658.184586066368
 30
0.0
  0
POINT
  5
834E
330
8342
100
AcDbEntity
  8
DEFPOINTS
 62
     0
100
AcDbPoint
 10
4069.037576512396
 20
1484.564655594709
 30
0.0
  0
ENDBLK
  5
8344
330
8342
100
AcDbEntity
  8
0
100
AcDbBlockEnd
  0
BLOCK
  5
8350
330
834F
100
AcDbEntity
  8
0
100
AcDbBlockBegin
  2
*D37
 70
     1
 10
0.0
 20
0.0
 30
0.0
  3
*D37
  1

  0
LINE
  5
8352
330
834F
100
AcDbEntity
  8
3
 62
     0
370
    -2
100
AcDbLine
 10
4069.037576512396
 20
1633.184586066368
 30
0.0
 11
4069.037576512396
 21
1480.064655594709
 31
0.0
  0
LINE
  5
8353
330
834F
100
AcDbEntity
  8
3
 62
     0
370
    -2
100
AcDbLine
 10
4622.037576512396
 20
1633.184586066368
 30
0.0
 11
4622.037576512396
 21
1480.064655594709
 31
0.0
  0
LINE
  5
8354
330
834F
100
AcDbEntity
  8
3
 62
     0
370
    -2
100
AcDbLine
 10
4073.537576512396
 20
1484.564655594709
 30
0.0
 11
4337.501862226681
 21
1484.564655594709
 31
0.0
  0
LINE
  5
8355
330
834F
100
AcDbEntity
  8
3
 62
     0
370
    -2
100
AcDbLine
 10
4617.537576512396
 20
1484.564655594709
 30
0.0
 11
4353.573290798111
 21
1484.564655594709
 31
0.0
  0
SOLID
  5
8356
330
834F
100
AcDbEntity
  8
3
 62
     0
100
AcDbTrace
 10
4073.537576512396
 20
1485.314655594709
 30
0.0
 11
4073.537576512396
 21
1483.814655594709
 31
0.0
 12
4069.037576512396
 22
1484.564655594709
 32
0.0
 13
4069.037576512396
 23
1484.564655594709
 33
0.0
  0
SOLID
  5
8357
330
834F
100
AcDbEntity
  8
3
 62
     0
100
AcDbTrace
 10
4617.537576512396
 20
1485.314655594709
 30
0.0
 11
4617.537576512396
 21
1483.814655594709
 31
0.0
 12
4622.037576512396
 22
1484.564655594709
 32
0.0
 13
4622.037576512396
 23
1484.564655594709
 33
0.0
  0
MTEXT
  5
8358
330
834F
100
AcDbEntity
  8
3
 62
     0
100
AcDbMText
 10
4345.537576512396
 20
1484.564655594709
 30
0.0
 40
4.5
 41
0.0
 71
     5
 72
     1
  1
\A1;553
 73
     1
 44
1.0
1001
ACAD
1000
MTEXTBEGIN
1070
    73
1070
     1
1070
    44
1040
1.0
1070
    74
1070
     0
1000
MTEXTEND
  0
POINT
  5
8359
330
834F
100
AcDbEntity
  8
DEFPOINTS
 62
     0
100
AcDbPoint
 10
4069.037576512396
 20
1658.184586066368
 30
0.0
  0
POINT
  5
835A
330
834F
100
AcDbEntity
  8
DEFPOINTS
 62
     0
100
AcDbPoint
 10
4622.037576512396
 20
1658.184586066368
 30
0.0
  0
POINT
  5
835B
330
834F
100
AcDbEntity
  8
DEFPOINTS
 62
     0
100
AcDbPoint
 10
4622.037576512396
 20
1484.564655594709
 30
0.0
  0
ENDBLK
  5
8351
330
834F
100
AcDbEntity
  8
0
100
AcDbBlockEnd
  0
BLOCK
  5
835D
330
835C
100
AcDbEntity
  8
0
100
AcDbBlockBegin
  2
*D38
 70
     1
 10
0.0
 20
0.0
 30
0.0
  3
*D38
  1

  0
LINE
  5
835F
330
835C
100
AcDbEntity
  8
3
 62
     0
370
    -2
100
AcDbLine
 10
769.3041040317837
 20
1762.684586066369
 30
0.0
 11
769.3041040317839
 21
1792.506014637797
 31
0.0
  0
LINE
  5
8360
330
835C
100
AcDbEntity
  8
3
 62
     0
370
    -2
100
AcDbLine
 10
769.3041040317839
 20
1833.684586066368
 30
0.0
 11
769.3041040317839
 21
1803.86315749494
 31
0.0
  0
SOLID
  5
8361
330
835C
100
AcDbEntity
  8
3
 62
     0
100
AcDbTrace
 10
768.5541040317838
 20
1762.684586066369
 30
0.0
 11
770.0541040317838
 21
1762.684586066369
 31
0.0
 12
769.3041040317837
 22
1758.184586066369
 32
0.0
 13
769.3041040317837
 23
1758.184586066369
 33
0.0
  0
SOLID
  5
8362
330
835C
100
AcDbEntity
  8
3
 62
     0
100
AcDbTrace
 10
768.5541040317839
 20
1833.684586066368
 30
0.0
 11
770.0541040317839
 21
1833.684586066368
 31
0.0
 12
769.3041040317839
 22
1838.184586066368
 32
0.0
 13
769.3041040317839
 23
1838.184586066368
 33
0.0
  0
MTEXT
  5
8363
330
835C
100
AcDbEntity
  8
3
 62
     0
100
AcDbMText
 10
769.3041040317836
 20
1798.184586066369
 30
0.0
 40
4.5
 41
0.0
 71
     5
 72
     1
  1
\A1;(80)
 73
     1
 44
1.0
1001
ACAD
1000
MTEXTBEGIN
1070
    73
1070
     1
1070
    44
1040
1.0
1070
    74
1070
     0
1000
MTEXTEND
  0
POINT
  5
8364
330
835C
100
AcDbEntity
  8
DEFPOINTS
 62
     0
100
AcDbPoint
 10
1072.993139438522
 20
1758.184586066369
 30
0.0
  0
POINT
  5
8365
330
835C
100
AcDbEntity
  8
DEFPOINTS
 62
     0
100
AcDbPoint
 10
1072.993139438522
 20
1838.184586066368
 30
0.0
  0
POINT
  5
8366
330
835C
100
AcDbEntity
  8
DEFPOINTS
 62
     0
100
AcDbPoint
 10
769.3041040317839
 20
1838.184586066368
 30
0.0
  0
ENDBLK
  5
835E
330
835C
100
AcDbEntity
  8
0
100
AcDbBlockEnd
  0
BLOCK
  5
8368
330
8367
100
AcDbEntity
  8
0
100
AcDbBlockBegin
  2
*D39
 70
     1
 10
0.0
 20
0.0
 30
0.0
  3
*D39
  1

  0
LINE
  5
836A
330
8367
100
AcDbEntity
  8
3
 62
     0
370
    -2
100
AcDbLine
 10
1047.993139438522
 20
1658.184586066368
 30
0.0
 11
540.2741538974074
 21
1658.184586066368
 31
0.0
  0
LINE
  5
836B
330
8367
100
AcDbEntity
  8
3
 62
     0
370
    -2
100
AcDbLine
 10
1528.493139438523
 20
3083.184586066368
 30
0.0
 11
540.2741538974078
 21
3083.184586066368
 31
0.0
  0
LINE
  5
836C
330
8367
100
AcDbEntity
  8
3
 62
     0
370
    -2
100
AcDbLine
 10
544.7741538974074
 20
1662.684586066368
 30
0.0
 11
544.7741538974077
 21
2365.006014637797
 31
0.0
  0
LINE
  5
836D
330
8367
100
AcDbEntity
  8
3
 62
     0
370
    -2
100
AcDbLine
 10
544.7741538974078
 20
3078.684586066369
 30
0.0
 11
544.7741538974077
 21
2376.36315749494
 31
0.0
  0
SOLID
  5
836E
330
8367
100
AcDbEntity
  8
3
 62
     0
100
AcDbTrace
 10
544.0241538974074
 20
1662.684586066368
 30
0.0
 11
545.5241538974075
 21
1662.684586066368
 31
0.0
 12
544.7741538974074
 22
1658.184586066368
 32
0.0
 13
544.7741538974074
 23
1658.184586066368
 33
0.0
  0
SOLID
  5
836F
330
8367
100
AcDbEntity
  8
3
 62
     0
100
AcDbTrace
 10
544.0241538974078
 20
3078.684586066369
 30
0.0
 11
545.5241538974077
 21
3078.684586066369
 31
0.0
 12
544.7741538974078
 22
3083.184586066368
 32
0.0
 13
544.7741538974078
 23
3083.184586066368
 33
0.0
  0
MTEXT
  5
8370
330
8367
100
AcDbEntity
  8
3
 62
     0
100
AcDbMText
 10
544.7741538974072
 20
2370.684586066369
 30
0.0
 40
4.5
 41
0.0
 71
     5
 72
     1
  1
\A1;(1425)
 73
     1
 44
1.0
1001
ACAD
1000
MTEXTBEGIN
1070
    73
1070
     1
1070
    44
1040
1.0
1070
    74
1070
     0
1000
MTEXTEND
  0
POINT
  5
8371
330
8367
100
AcDbEntity
  8
DEFPOINTS
 62
     0
100
AcDbPoint
 10
1072.993139438522
 20
1658.184586066368
 30
0.0
  0
POINT
  5
8372
330
8367
100
AcDbEntity
  8
DEFPOINTS
 62
     0
100
AcDbPoint
 10
1553.493139438523
 20
3083.184586066368
 30
0.0
  0
POINT
  5
8373
330
8367
100
AcDbEntity
  8
DEFPOINTS
 62
     0
100
AcDbPoint
 10
544.7741538974078
 20
3083.184586066368
 30
0.0
  0
ENDBLK
  5
8369
330
8367
100
AcDbEntity
  8
0
100
AcDbBlockEnd
  0
BLOCK
  5
8376
330
8375
100
AcDbEntity
  8
0
100
AcDbBlockBegin
  2
*D40
 70
     1
 10
0.0
 20
0.0
 30
0.0
  3
*D40
  1

  0
LINE
  5
8378
330
8375
100
AcDbEntity
  8
3
 62
     0
370
    -2
100
AcDbLine
 10
3367.037576512395
 20
1633.184586066368
 30
0.0
 11
3367.037576512395
 21
1462.667653681019
 31
0.0
  0
LINE
  5
8379
330
8375
100
AcDbEntity
  8
3
 62
     0
370
    -2
100
AcDbLine
 10
4069.037576512396
 20
1633.184586066368
 30
0.0
 11
4069.037576512396
 21
1462.667653681019
 31
0.0
  0
LINE
  5
837A
330
8375
100
AcDbEntity
  8
3
 62
     0
370
    -2
100
AcDbLine
 10
3417.037576512395
 20
1487.667653681019
 30
0.0
 11
4019.037576512396
 21
1487.667653681019
 31
0.0
  0
INSERT
  5
837B
330
8375
100
AcDbEntity
  8
3
 62
     0
370
    -2
100
AcDbBlockReference
  2
_OPEN
 10
3367.037576512395
 20
1487.667653681019
 30
0.0
 41
50.0
 42
50.0
 43
50.0
 50
180.0
  0
INSERT
  5
837C
330
8375
100
AcDbEntity
  8
3
 62
     0
370
    -2
100
AcDbBlockReference
  2
_OPEN
 10
4069.037576512396
 20
1487.667653681019
 30
0.0
 41
50.0
 42
50.0
 43
50.0
  0
MTEXT
  5
837D
330
8375
100
AcDbEntity
  8
3
 62
     0
100
AcDbMText
 10
3718.037576512396
 20
1550.167653681019
 30
0.0
 40
75.0
 41
0.0
 71
     5
 72
     1
  1
\A1;702
 73
     1
 44
1.0
1001
ACAD
1000
MTEXTBEGIN
1070
    73
1070
     1
1070
    44
1040
1.0
1070
    74
1070
     0
1000
MTEXTEND
  0
POINT
  5
837E
330
8375
100
AcDbEntity
  8
DEFPOINTS
 62
     0
100
AcDbPoint
 10
3367.037576512395
 20
1658.184586066368
 30
0.0
  0
POINT
  5
837F
330
8375
100
AcDbEntity
  8
DEFPOINTS
 62
     0
100
AcDbPoint
 10
4069.037576512396
 20
1658.184586066368
 30
0.0
  0
POINT
  5
8380
330
8375
100
AcDbEntity
  8
DEFPOINTS
 62
     0
100
AcDbPoint
 10
4069.037576512396
 20
1487.667653681019
 30
0.0
  0
ENDBLK
  5
8377
330
8375
100
AcDbEntity
  8
0
100
AcDbBlockEnd
  0
BLOCK
  5
8383
330
8382
100
AcDbEntity
  8
0
100
AcDbBlockBegin
  2
*D41
 70
     1
 10
0.0
 20
0.0
 30
0.0
  3
*D41
  1

  0
LINE
  5
8385
330
8382
100
AcDbEntity
  8
3
 62
     0
370
    -2
100
AcDbLine
 10
4069.037576512396
 20
1633.184586066368
 30
0.0
 11
4069.037576512396
 21
1462.667653681019
 31
0.0
  0
LINE
  5
8386
330
8382
100
AcDbEntity
  8
3
 62
     0
370
    -2
100
AcDbLine
 10
4622.037576512395
 20
1633.184586066368
 30
0.0
 11
4622.037576512395
 21
1462.667653681019
 31
0.0
  0
LINE
  5
8387
330
8382
100
AcDbEntity
  8
3
 62
     0
370
    -2
100
AcDbLine
 10
4119.037576512396
 20
1487.667653681019
 30
0.0
 11
4572.037576512395
 21
1487.667653681019
 31
0.0
  0
INSERT
  5
8388
330
8382
100
AcDbEntity
  8
3
 62
     0
370
    -2
100
AcDbBlockReference
  2
_OPEN
 10
4069.037576512396
 20
1487.667653681019
 30
0.0
 41
50.0
 42
50.0
 43
50.0
 50
180.0
  0
INSERT
  5
8389
330
8382
100
AcDbEntity
  8
3
 62
     0
370
    -2
100
AcDbBlockReference
  2
_OPEN
 10
4622.037576512395
 20
1487.667653681019
 30
0.0
 41
50.0
 42
50.0
 43
50.0
  0
MTEXT
  5
838A
330
8382
100
AcDbEntity
  8
3
 62
     0
100
AcDbMText
 10
4345.537576512395
 20
1550.167653681019
 30
0.0
 40
75.0
 41
0.0
 71
     5
 72
     1
  1
\A1;553
 73
     1
 44
1.0
1001
ACAD
1000
MTEXTBEGIN
1070
    73
1070
     1
1070
    44
1040
1.0
1070
    74
1070
     0
1000
MTEXTEND
  0
POINT
  5
838B
330
8382
100
AcDbEntity
  8
DEFPOINTS
 62
     0
100
AcDbPoint
 10
4069.037576512396
 20
1658.184586066368
 30
0.0
  0
POINT
  5
838C
330
8382
100
AcDbEntity
  8
DEFPOINTS
 62
     0
100
AcDbPoint
 10
4622.037576512395
 20
1658.184586066368
 30
0.0
  0
POINT
  5
838D
330
8382
100
AcDbEntity
  8
DEFPOINTS
 62
     0
100
AcDbPoint
 10
4622.037576512395
 20
1487.667653681019
 30
0.0
  0
ENDBLK
  5
8384
330
8382
100
AcDbEntity
  8
0
100
AcDbBlockEnd
  0
BLOCK
  5
8390
330
838F
100
AcDbEntity
  8
0
100
AcDbBlockBegin
  2
*D42
 70
     1
 10
0.0
 20
0.0
 30
0.0
  3
*D42
  1

  0
LINE
  5
8392
330
838F
100
AcDbEntity
  8
3
 62
     0
370
    -2
100
AcDbLine
 10
1072.993139438522
 20
1633.184586066368
 30
0.0
 11
1072.993139438522
 21
1470.355349826324
 31
0.0
  0
LINE
  5
8393
330
838F
100
AcDbEntity
  8
3
 62
     0
370
    -2
100
AcDbLine
 10
1572.993139438522
 20
1633.184586066368
 30
0.0
 11
1572.993139438522
 21
1470.355349826324
 31
0.0
  0
LINE
  5
8394
330
838F
100
AcDbEntity
  8
3
 62
     0
370
    -2
100
AcDbLine
 10
1122.993139438522
 20
1495.355349826324
 30
0.0
 11
1522.993139438522
 21
1495.355349826324
 31
0.0
  0
INSERT
  5
8395
330
838F
100
AcDbEntity
  8
3
 62
     0
370
    -2
100
AcDbBlockReference
  2
_OPEN
 10
1072.993139438522
 20
1495.355349826324
 30
0.0
 41
50.0
 42
50.0
 43
50.0
 50
180.0
  0
INSERT
  5
8396
330
838F
100
AcDbEntity
  8
3
 62
     0
370
    -2
100
AcDbBlockReference
  2
_OPEN
 10
1572.993139438522
 20
1495.355349826324
 30
0.0
 41
50.0
 42
50.0
 43
50.0
  0
MTEXT
  5
8397
330
838F
100
AcDbEntity
  8
3
 62
     0
100
AcDbMText
 10
1322.993139438522
 20
1557.855349826324
 30
0.0
 40
75.0
 41
0.0
 71
     5
 72
     1
  1
\A1;500
 73
     1
 44
1.0
1001
ACAD
1000
MTEXTBEGIN
1070
    73
1070
     1
1070
    44
1040
1.0
1070
    74
1070
     0
1000
MTEXTEND
  0
POINT
  5
8398
330
838F
100
AcDbEntity
  8
DEFPOINTS
 62
     0
100
AcDbPoint
 10
1072.993139438522
 20
1658.184586066368
 30
0.0
  0
POINT
  5
8399
330
838F
100
AcDbEntity
  8
DEFPOINTS
 62
     0
100
AcDbPoint
 10
1572.993139438522
 20
1658.184586066368
 30
0.0
  0
POINT
  5
839A
330
838F
100
AcDbEntity
  8
DEFPOINTS
 62
     0
100
AcDbPoint
 10
1572.993139438522
 20
1495.355349826324
 30
0.0
  0
ENDBLK
  5
8391
330
838F
100
AcDbEntity
  8
0
100
AcDbBlockEnd
  0
BLOCK
  5
839D
330
839C
100
AcDbEntity
  8
0
100
AcDbBlockBegin
  2
*D43
 70
     1
 10
0.0
 20
0.0
 30
0.0
  3
*D43
  1

  0
LINE
  5
839F
330
839C
100
AcDbEntity
  8
3
 62
     0
370
    -2
100
AcDbLine
 10
1572.993139438522
 20
1633.184586066368
 30
0.0
 11
1572.993139438522
 21
1470.355349826324
 31
0.0
  0
LINE
  5
83A0
330
839C
100
AcDbEntity
  8
3
 62
     0
370
    -2
100
AcDbLine
 10
2822.993139438522
 20
1633.184586066368
 30
0.0
 11
2822.993139438522
 21
1470.355349826324
 31
0.0
  0
LINE
  5
83A1
330
839C
100
AcDbEntity
  8
3
 62
     0
370
    -2
100
AcDbLine
 10
1622.993139438522
 20
1495.355349826324
 30
0.0
 11
2772.993139438522
 21
1495.355349826324
 31
0.0
  0
INSERT
  5
83A2
330
839C
100
AcDbEntity
  8
3
 62
     0
370
    -2
100
AcDbBlockReference
  2
_OPEN
 10
1572.993139438522
 20
1495.355349826324
 30
0.0
 41
50.0
 42
50.0
 43
50.0
 50
180.0
  0
INSERT
  5
83A3
330
839C
100
AcDbEntity
  8
3
 62
     0
370
    -2
100
AcDbBlockReference
  2
_OPEN
 10
2822.993139438522
 20
1495.355349826324
 30
0.0
 41
50.0
 42
50.0
 43
50.0
  0
MTEXT
  5
83A4
330
839C
100
AcDbEntity
  8
3
 62
     0
100
AcDbMText
 10
2197.993139438522
 20
1557.855349826324
 30
0.0
 40
75.0
 41
0.0
 71
     5
 72
     1
  1
\A1;1250
 73
     1
 44
1.0
1001
ACAD
1000
MTEXTBEGIN
1070
    73
1070
     1
1070
    44
1040
1.0
1070
    74
1070
     0
1000
MTEXTEND
  0
POINT
  5
83A5
330
839C
100
AcDbEntity
  8
DEFPOINTS
 62
     0
100
AcDbPoint
 10
1572.993139438522
 20
1658.184586066368
 30
0.0
  0
POINT
  5
83A6
330
839C
100
AcDbEntity
  8
DEFPOINTS
 62
     0
100
AcDbPoint
 10
2822.993139438522
 20
1658.184586066368
 30
0.0
  0
POINT
  5
83A7
330
839C
100
AcDbEntity
  8
DEFPOINTS
 62
     0
100
AcDbPoint
 10
2822.993139438522
 20
1495.355349826324
 30
0.0
  0
ENDBLK
  5
839E
330
839C
100
AcDbEntity
  8
0
100
AcDbBlockEnd
  0
BLOCK
  5
83AA
330
83A9
100
AcDbEntity
  8
0
100
AcDbBlockBegin
  2
*D44
 70
     1
 10
0.0
 20
0.0
 30
0.0
  3
*D44
  1

  0
LINE
  5
841F
330
83A9
100
AcDbEntity
  8
3
 62
     0
370
    -2
100
AcDbLine
 10
881.521347588132
 20
2538.184586066368
 30
0.0
 11
746.5199975370999
 21
2538.184586066368
 31
0.0
  0
LINE
  5
8420
330
83A9
100
AcDbEntity
  8
3
 62
     0
370
    -2
100
AcDbLine
 10
1047.993139438522
 20
1838.184586066368
 30
0.0
 11
746.5199975370998
 21
1838.184586066368
 31
0.0
  0
LINE
  5
8421
330
83A9
100
AcDbEntity
  8
3
 62
     0
370
    -2
100
AcDbLine
 10
771.5199975370999
 20
2488.184586066368
 30
0.0
 11
771.5199975370998
 21
1888.184586066368
 31
0.0
  0
INSERT
  5
8422
330
83A9
100
AcDbEntity
  8
3
 62
     0
370
    -2
100
AcDbBlockReference
  2
_OPEN
 10
771.5199975370999
 20
2538.184586066368
 30
0.0
 41
50.0
 42
50.0
 43
50.0
 50
90.0
  0
INSERT
  5
8423
330
83A9
100
AcDbEntity
  8
3
 62
     0
370
    -2
100
AcDbBlockReference
  2
_OPEN
 10
771.5199975370998
 20
1838.184586066368
 30
0.0
 41
50.0
 42
50.0
 43
50.0
 50
270.0
  0
MTEXT
  5
8424
330
83A9
100
AcDbEntity
  8
3
 62
     0
100
AcDbMText
 10
709.0199975370994
 20
2188.184586066368
 30
0.0
 40
75.0
 41
0.0
 71
     5
 72
     1
  1
\A1;700
 11
0.0000000000000001
 21
1.0
 31
0.0
 73
     1
 44
1.0
1001
ACAD
1000
MTEXTBEGIN
1070
    73
1070
     1
1070
    44
1040
1.0
1070
    74
1070
     0
1000
MTEXTEND
  0
POINT
  5
8425
330
83A9
100
AcDbEntity
  8
DEFPOINTS
 62
     0
100
AcDbPoint
 10
906.521347588132
 20
2538.184586066368
 30
0.0
  0
POINT
  5
8426
330
83A9
100
AcDbEntity
  8
DEFPOINTS
 62
     0
100
AcDbPoint
 10
1072.993139438522
 20
1838.184586066368
 30
0.0
  0
POINT
  5
8427
330
83A9
100
AcDbEntity
  8
DEFPOINTS
 62
     0
100
AcDbPoint
 10
771.5199975370998
 20
1838.184586066368
 30
0.0
  0
ENDBLK
  5
83AB
330
83A9
100
AcDbEntity
  8
0
100
AcDbBlockEnd
  0
BLOCK
  5
83B7
330
83B6
100
AcDbEntity
  8
0
100
AcDbBlockBegin
  2
*D45
 70
     1
 10
0.0
 20
0.0
 30
0.0
  3
*D45
  1

  0
LINE
  5
84B1
330
83B6
100
AcDbEntity
  8
3
 62
     0
370
    -2
100
AcDbLine
 10
1047.993139438522
 20
1838.184586066368
 30
0.0
 11
746.5199975370999
 21
1838.184586066368
 31
0.0
  0
LINE
  5
84B2
330
83B6
100
AcDbEntity
  8
3
 62
     0
370
    -2
100
AcDbLine
 10
1047.993139438522
 20
1758.184586066369
 30
0.0
 11
746.5199975370998
 21
1758.184586066369
 31
0.0
  0
LINE
  5
84B3
330
83B6
100
AcDbEntity
  8
3
 62
     0
370
    -2
100
AcDbLine
 10
771.5199975370999
 20
1888.184586066368
 30
0.0
 11
771.5199975370999
 21
1938.184586066368
 31
0.0
  0
LINE
  5
84B4
330
83B6
100
AcDbEntity
  8
3
 62
     0
370
    -2
100
AcDbLine
 10
771.5199975370998
 20
1758.184586066369
 30
0.0
 11
771.5199975370998
 21
1708.184586066369
 31
0.0
  0
LINE
  5
84B5
330
83B6
100
AcDbEntity
  8
3
 62
     0
370
    -2
100
AcDbLine
 10
771.5199975370999
 20
1798.184586066368
 30
0.0
 11
651.8771403942428
 21
1834.077443209226
 31
0.0
  0
LINE
  5
84B6
330
83B6
100
AcDbEntity
  8
3
 62
     0
370
    -2
100
AcDbLine
 10
651.8771403942428
 20
1834.077443209226
 30
0.0
 11
651.8771403942428
 21
2101.934586066369
 31
0.0
  0
MTEXT
  5
84B7
330
83B6
100
AcDbEntity
  8
3
 62
     0
100
AcDbMText
 10
569.7342832513853
 20
1968.006014637797
 30
0.0
 40
75.0
 41
0.0
 71
     5
 72
     1
  1
\A1;(80)
 11
0.0000000000000001
 21
1.0
 31
0.0
 73
     1
 44
1.0
1001
ACAD
1000
MTEXTBEGIN
1070
    73
1070
     1
1070
    44
1040
1.0
1070
    74
1070
     0
1000
MTEXTEND
  0
LINE
  5
84B8
330
83B6
100
AcDbEntity
  8
3
 62
     0
370
    -2
100
AcDbLine
 10
771.5199975370999
 20
1838.184586066368
 30
0.0
 11
771.5199975370998
 21
1758.184586066369
 31
0.0
  0
LINE
  5
84B9
330
83B6
100
AcDbEntity
  8
3
 62
     0
370
    -2
100
AcDbLine
 10
771.5199975370999
 20
1838.184586066368
 30
0.0
 11
771.5199975370998
 21
1758.184586066369
 31
0.0
  0
INSERT
  5
84BA
330
83B6
100
AcDbEntity
  8
3
 62
     0
370
    -2
100
AcDbBlockReference
  2
_OPEN
 10
771.5199975370999
 20
1838.184586066368
 30
0.0
 41
50.0
 42
50.0
 43
50.0
 50
270.0
  0
INSERT
  5
84BB
330
83B6
100
AcDbEntity
  8
3
 62
     0
370
    -2
100
AcDbBlockReference
  2
_DotSmall
 10
771.5199975370998
 20
1758.184586066369
 30
0.0
 41
50.0
 42
50.0
 43
50.0
 50
90.0
  0
POINT
  5
84BC
330
83B6
100
AcDbEntity
  8
DEFPOINTS
 62
     0
100
AcDbPoint
 10
1072.993139438522
 20
1838.184586066368
 30
0.0
  0
POINT
  5
84BD
330
83B6
100
AcDbEntity
  8
DEFPOINTS
 62
     0
100
AcDbPoint
 10
1072.993139438522
 20
1758.184586066369
 30
0.0
  0
POINT
  5
84BE
330
83B6
100
AcDbEntity
  8
DEFPOINTS
 62
     0
100
AcDbPoint
 10
771.5199975370998
 20
1758.184586066369
 30
0.0
  0
ENDBLK
  5
83B8
330
83B6
100
AcDbEntity
  8
0
100
AcDbBlockEnd
  0
BLOCK
  5
83C9
330
83C8
100
AcDbEntity
  8
0
100
AcDbBlockBegin
  2
*D46
 70
     1
 10
0.0
 20
0.0
 30
0.0
  3
*D46
  1

  0
LINE
  5
850B
330
83C8
100
AcDbEntity
  8
3
 62
     0
370
    -2
100
AcDbLine
 10
1047.993139438522
 20
1758.184586066369
 30
0.0
 11
746.5199975370998
 21
1758.184586066369
 31
0.0
  0
LINE
  5
850C
330
83C8
100
AcDbEntity
  8
3
 62
     0
370
    -2
100
AcDbLine
 10
1047.993139438522
 20
1658.184586066368
 30
0.0
 11
746.5199975370998
 21
1658.184586066368
 31
0.0
  0
LINE
  5
850D
330
83C8
100
AcDbEntity
  8
3
 62
     0
370
    -2
100
AcDbLine
 10
771.5199975370998
 20
1758.184586066369
 30
0.0
 11
771.5199975370998
 21
1708.184586066368
 31
0.0
  0
MTEXT
  5
850E
330
83C8
100
AcDbEntity
  8
3
 62
     0
100
AcDbMText
 10
708.8326456550348
 20
1534.26412997803
 30
0.0
 40
75.0
 41
0.0
 71
     5
 72
     1
  1
\A1;100
 11
0.0000000000000001
 21
1.0
 31
0.0
 73
     1
 44
1.0
1001
ACAD
1000
MTEXTBEGIN
1070
    73
1070
     1
1070
    44
1040
1.0
1070
    74
1070
     0
1000
MTEXTEND
  0
INSERT
  5
850F
330
83C8
100
AcDbEntity
  8
3
 62
     0
370
    -2
100
AcDbBlockReference
  2
_DotSmall
 10
771.5199975370998
 20
1758.184586066369
 30
0.0
 41
50.0
 42
50.0
 43
50.0
 50
90.0
  0
INSERT
  5
8510
330
83C8
100
AcDbEntity
  8
3
 62
     0
370
    -2
100
AcDbBlockReference
  2
_OPEN
 10
771.5199975370998
 20
1658.184586066368
 30
0.0
 41
50.0
 42
50.0
 43
50.0
 50
270.0
  0
POINT
  5
8511
330
83C8
100
AcDbEntity
  8
DEFPOINTS
 62
     0
100
AcDbPoint
 10
1072.993139438522
 20
1758.184586066369
 30
0.0
  0
POINT
  5
8512
330
83C8
100
AcDbEntity
  8
DEFPOINTS
 62
     0
100
AcDbPoint
 10
1072.993139438522
 20
1658.184586066368
 30
0.0
  0
POINT
  5
8513
330
83C8
100
AcDbEntity
  8
DEFPOINTS
 62
     0
100
AcDbPoint
 10
771.5199975370998
 20
1658.184586066368
 30
0.0
  0
ENDBLK
  5
83CA
330
83C8
100
AcDbEntity
  8
0
100
AcDbBlockEnd
  0
BLOCK
  5
8402
330
8401
100
AcDbEntity
  8
0
100
AcDbBlockBegin
  2
*D47
 70
     1
 10
0.0
 20
0.0
 30
0.0
  3
*D47
  1

  0
LINE
  5
8416
330
8401
100
AcDbEntity
  8
3
 62
     0
370
    -2
100
AcDbLine
 10
1047.993139438522
 20
1658.184586066368
 30
0.0
 11
419.2565637097648
 21
1658.184586066368
 31
0.0
  0
LINE
  5
8417
330
8401
100
AcDbEntity
  8
3
 62
     0
370
    -2
100
AcDbLine
 10
1528.493139438523
 20
3083.184586066368
 30
0.0
 11
419.256563709765
 21
3083.184586066368
 31
0.0
  0
LINE
  5
8418
330
8401
100
AcDbEntity
  8
3
 62
     0
370
    -2
100
AcDbLine
 10
444.2565637097648
 20
1708.184586066368
 30
0.0
 11
444.2565637097651
 21
3033.184586066369
 31
0.0
  0
INSERT
  5
8419
330
8401
100
AcDbEntity
  8
3
 62
     0
370
    -2
100
AcDbBlockReference
  2
_OPEN
 10
444.2565637097648
 20
1658.184586066368
 30
0.0
 41
50.0
 42
50.0
 43
50.0
 50
270.0
  0
INSERT
  5
841A
330
8401
100
AcDbEntity
  8
3
 62
     0
370
    -2
100
AcDbBlockReference
  2
_OPEN
 10
444.2565637097651
 20
3083.184586066368
 30
0.0
 41
50.0
 42
50.0
 43
50.0
 50
90.0
  0
MTEXT
  5
841B
330
8401
100
AcDbEntity
  8
3
 62
     0
100
AcDbMText
 10
362.1137065669075
 20
2370.684586066369
 30
0.0
 40
75.0
 41
0.0
 71
     5
 72
     1
  1
\A1;(1425)
 11
0.0000000000000001
 21
1.0
 31
0.0
 73
     1
 44
1.0
1001
ACAD
1000
MTEXTBEGIN
1070
    73
1070
     1
1070
    44
1040
1.0
1070
    74
1070
     0
1000
MTEXTEND
  0
POINT
  5
841C
330
8401
100
AcDbEntity
  8
DEFPOINTS
 62
     0
100
AcDbPoint
 10
1072.993139438522
 20
1658.184586066368
 30
0.0
  0
POINT
  5
841D
330
8401
100
AcDbEntity
  8
DEFPOINTS
 62
     0
100
AcDbPoint
 10
1553.493139438523
 20
3083.184586066368
 30
0.0
  0
POINT
  5
841E
330
8401
100
AcDbEntity
  8
DEFPOINTS
 62
     0
100
AcDbPoint
 10
444.2565637097651
 20
3083.184586066368
 30
0.0
  0
ENDBLK
  5
8403
330
8401
100
AcDbEntity
  8
0
100
AcDbBlockEnd
  0
BLOCK
  5
84AF
330
84AD
100
AcDbEntity
  8
0
100
AcDbBlockBegin
  2
_DotSmall
 70
     0
 10
0.0
 20
0.0
 30
0.0
  3
_DotSmall
  1

  0
LWPOLYLINE
  5
84AE
330
84AD
100
AcDbEntity
  8
0
  6
ByBlock
 62
     0
100
AcDbPolyline
 90
        2
 70
     1
 43
0.5
 10
-0.0625
 20
0.0
 42
1.0
 10
0.0625
 20
0.0
 42
1.0
  0
ENDBLK
  5
84B0
330
84AD
100
AcDbEntity
  8
0
100
AcDbBlockEnd
  0
BLOCK
  5
851C
330
851B
100
AcDbEntity
  8
0
100
AcDbBlockBegin
  2
*D50
 70
     1
 10
0.0
 20
0.0
 30
0.0
  3
*D50
  1

  0
LINE
  5
8530
330
851B
100
AcDbEntity
  8
3
 62
     0
370
    -2
100
AcDbLine
 10
1572.993139438522
 20
3225.003802561565
 30
0.0
 11
1572.993139438522
 21
3408.813332182234
 31
0.0
  0
LINE
  5
8531
330
851B
100
AcDbEntity
  8
3
 62
     0
370
    -2
100
AcDbLine
 10
1014.993139438522
 20
2504.184586066368
 30
0.0
 11
1014.993139438522
 21
3408.813332182234
 31
0.0
  0
LINE
  5
8532
330
851B
100
AcDbEntity
  8
3
 62
     0
370
    -2
100
AcDbLine
 10
1522.993139438522
 20
3383.813332182234
 30
0.0
 11
1064.993139438522
 21
3383.813332182234
 31
0.0
  0
INSERT
  5
8533
330
851B
100
AcDbEntity
  8
3
 62
     0
370
    -2
100
AcDbBlockReference
  2
_OPEN
 10
1572.993139438522
 20
3383.813332182234
 30
0.0
 41
50.0
 42
50.0
 43
50.0
  0
INSERT
  5
8534
330
851B
100
AcDbEntity
  8
3
 62
     0
370
    -2
100
AcDbBlockReference
  2
_OPEN
 10
1014.993139438522
 20
3383.813332182234
 30
0.0
 41
50.0
 42
50.0
 43
50.0
 50
180.0
  0
MTEXT
  5
8535
330
851B
100
AcDbEntity
  8
3
 62
     0
100
AcDbMText
 10
1293.993139438522
 20
3446.313332182234
 30
0.0
 40
75.0
 41
0.0
 71
     5
 72
     1
  1
\A1;558
 73
     1
 44
1.0
1001
ACAD
1000
MTEXTBEGIN
1070
    73
1070
     1
1070
    44
1040
1.0
1070
    74
1070
     0
1000
MTEXTEND
  0
POINT
  5
8536
330
851B
100
AcDbEntity
  8
DEFPOINTS
 62
     0
100
AcDbPoint
 10
1572.993139438522
 20
3200.003802561565
 30
0.0
  0
POINT
  5
8537
330
851B
100
AcDbEntity
  8
DEFPOINTS
 62
     0
100
AcDbPoint
 10
1014.993139438522
 20
2479.184586066368
 30
0.0
  0
POINT
  5
8538
330
851B
100
AcDbEntity
  8
DEFPOINTS
 62
     0
100
AcDbPoint
 10
1014.993139438522
 20
3383.813332182234
 30
0.0
  0
ENDBLK
  5
851D
330
851B
100
AcDbEntity
  8
0
100
AcDbBlockEnd
  0
BLOCK
  5
853B
330
853A
100
AcDbEntity
  8
0
100
AcDbBlockBegin
  2
*D51
 70
     1
 10
0.0
 20
0.0
 30
0.0
  3
*D51
  1

  0
LINE
  5
853D
330
853A
100
AcDbEntity
  8
3
 62
     0
370
    -2
100
AcDbLine
 10
2822.993139438522
 20
1963.184586066368
 30
0.0
 11
2822.993139438522
 21
3602.050269644067
 31
0.0
  0
LINE
  5
853E
330
853A
100
AcDbEntity
  8
3
 62
     0
370
    -2
100
AcDbLine
 10
1014.993139438522
 20
2504.184586066368
 30
0.0
 11
1014.993139438522
 21
3602.050269644067
 31
0.0
  0
LINE
  5
853F
330
853A
100
AcDbEntity
  8
3
 62
     0
370
    -2
100
AcDbLine
 10
2772.993139438522
 20
3577.050269644067
 30
0.0
 11
1064.993139438522
 21
3577.050269644067
 31
0.0
  0
INSERT
  5
8540
330
853A
100
AcDbEntity
  8
3
 62
     0
370
    -2
100
AcDbBlockReference
  2
_OPEN
 10
2822.993139438522
 20
3577.050269644067
 30
0.0
 41
50.0
 42
50.0
 43
50.0
  0
INSERT
  5
8541
330
853A
100
AcDbEntity
  8
3
 62
     0
370
    -2
100
AcDbBlockReference
  2
_OPEN
 10
1014.993139438522
 20
3577.050269644067
 30
0.0
 41
50.0
 42
50.0
 43
50.0
 50
180.0
  0
MTEXT
  5
8542
330
853A
100
AcDbEntity
  8
3
 62
     0
100
AcDbMText
 10
1918.993139438522
 20
3639.550269644067
 30
0.0
 40
75.0
 41
0.0
 71
     5
 72
     1
  1
\A1;1808
 73
     1
 44
1.0
1001
ACAD
1000
MTEXTBEGIN
1070
    73
1070
     1
1070
    44
1040
1.0
1070
    74
1070
     0
1000
MTEXTEND
  0
POINT
  5
8543
330
853A
100
AcDbEntity
  8
DEFPOINTS
 62
     0
100
AcDbPoint
 10
2822.993139438522
 20
1938.184586066368
 30
0.0
  0
POINT
  5
8544
330
853A
100
AcDbEntity
  8
DEFPOINTS
 62
     0
100
AcDbPoint
 10
1014.993139438522
 20
2479.184586066368
 30
0.0
  0
POINT
  5
8545
330
853A
100
AcDbEntity
  8
DEFPOINTS
 62
     0
100
AcDbPoint
 10
1014.993139438522
 20
3577.050269644067
 30
0.0
  0
ENDBLK
  5
853C
330
853A
100
AcDbEntity
  8
0
100
AcDbBlockEnd
  0
ENDSEC
  0
SECTION
  2
ENTITIES
  0
INSERT
  5
7C00
330
81C9
100
AcDbEntity
  8
0
100
AcDbBlockReference
  2
YA_N
 10
6.0
 20
5.0
 30
0.0
  0
LINE
  5
7C02
330
81C9
100
AcDbEntity
  8
2
100
AcDbLine
 10
1572.993139438522
 20
3200.003802561565
 30
0.0
 11
1572.993139438522
 21
1658.184586066368
 31
0.0
  0
LINE
  5
7C03
330
81C9
100
AcDbEntity
  8
2
100
AcDbLine
 10
906.521347588132
 20
2538.184586066368
 30
0.0
 11
2437.37468309255
 21
2538.184586066368
 31
0.0
  0
LINE
  5
7C0E
330
81C9
100
AcDbEntity
  8
1
100
AcDbLine
 10
2822.993139438522
 20
1658.184586066368
 30
0.0
 11
1072.993139438522
 21
1658.184586066368
 31
0.0
  0
LINE
  5
7C0F
330
81C9
100
AcDbEntity
  8
1
100
AcDbLine
 10
1072.993139438522
 20
1758.184586066369
 30
0.0
 11
1072.993139438522
 21
1658.184586066368
 31
0.0
  0
LINE
  5
7C10
330
81C9
100
AcDbEntity
  8
1
100
AcDbLine
 10
2822.993139438522
 20
1758.184586066369
 30
0.0
 11
2822.993139438522
 21
1658.184586066368
 31
0.0
  0
LINE
  5
7C11
330
81C9
100
AcDbEntity
  8
1
100
AcDbLine
 10
2372.993139438522
 20
1978.184586066367
 30
0.0
 11
2372.993139438522
 21
1938.184586066368
 31
0.0
  0
LINE
  5
7C12
330
81C9
100
AcDbEntity
  8
1
100
AcDbLine
 10
4569.037576512396
 20
3083.184586066368
 30
0.0
 11
4569.037576512394
 21
2561.184586066369
 31
0.0
  0
LINE
  5
7C13
330
81C9
100
AcDbEntity
  8
1
100
AcDbLine
 10
3367.037576512395
 20
1658.184586066368
 30
0.0
 11
4572.037576512395
 21
1658.184586066368
 31
0.0
  0
LINE
  5
7C14
330
81C9
100
AcDbEntity
  8
1
100
AcDbLine
 10
3367.037576512395
 20
1758.184586066369
 30
0.0
 11
3367.037576512395
 21
1658.184586066368
 31
0.0
  0
LINE
  5
7C15
330
81C9
100
AcDbEntity
  8
2
100
AcDbLine
 10
3179.719645959103
 20
2538.184586066368
 30
0.0
 11
4720.087423091591
 21
2538.184586066368
 31
0.0
  0
LINE
  5
7C16
330
81C9
100
AcDbEntity
  8
2
100
AcDbLine
 10
3179.719645959103
 20
2188.184586066368
 30
0.0
 11
4019.605865391677
 21
2188.184586066368
 31
0.0
  0
LINE
  5
7C17
330
81C9
100
AcDbEntity
  8
1
100
AcDbLine
 10
3301.037576512396
 20
2665.184586066368
 30
0.0
 11
3301.037576512396
 21
2411.184586066368
 31
0.0
  0
LINE
  5
7C18
330
81C9
100
AcDbEntity
  8
1
100
AcDbLine
 10
3169.037576512395
 20
2758.184586066368
 30
0.0
 11
3169.037576512395
 21
1968.184586066368
 31
0.0
  0
LINE
  5
7C19
330
81C9
100
AcDbEntity
  8
1
100
AcDbLine
 10
3169.037576512395
 20
2758.184586066368
 30
0.0
 11
3419.037576512395
 21
2758.184586066368
 31
0.0
  0
LINE
  5
7C1A
330
81C9
100
AcDbEntity
  8
1
100
AcDbLine
 10
3419.037576512395
 20
2758.184586066368
 30
0.0
 11
3419.037576512395
 21
2708.184586066368
 31
0.0
  0
LINE
  5
7C1B
330
81C9
100
AcDbEntity
  8
1
100
AcDbLine
 10
3419.037576512395
 20
2010.680363457705
 30
0.0
 11
3419.037576512395
 21
1968.184586066368
 31
0.0
  0
LINE
  5
7C1C
330
81C9
100
AcDbEntity
  8
2
100
AcDbLine
 10
4069.037576512394
 20
3167.543634216483
 30
0.0
 11
4069.037576512396
 21
1658.184586066368
 31
0.0
  0
POINT
  5
7C1D
330
81C9
100
AcDbEntity
  8
1
100
AcDbPoint
 10
1072.993139438522
 20
1838.184586066368
 30
0.0
  0
POINT
  5
7C1E
330
81C9
100
AcDbEntity
  8
1
100
AcDbPoint
 10
1072.993139438522
 20
1838.184586066368
 30
0.0
  0
POINT
  5
7C1F
330
81C9
100
AcDbEntity
  8
1
100
AcDbPoint
 10
1072.993139438522
 20
1838.184586066368
 30
0.0
  0
INSERT
  5
7C22
330
81C9
100
AcDbEntity
  8
0
100
AcDbBlockReference
  2
YA_N
 10
-733.6448571667497
 20
-271.0302667023643
 30
0.0
 41
20.0
 42
20.0
 43
20.0
  0
DIMENSION
  5
7C25
330
81C9
100
AcDbEntity
  8
3
100
AcDbDimension
  2
*D4
 10
1595.993139438523
 20
3231.529929608432
 30
0.0
 11
2008.493139438523
 21
3281.529929608431
 31
0.0
 12
-554.4458914497773
 22
976.2969706568872
 32
0.0
 71
     5
 42
-1.0
  3
Standard
100
AcDbAlignedDimension
 13
2420.993139438523
 23
3083.184586066368
 33
0.0
 14
1595.993139438523
 24
3083.184586066368
 34
0.0
100
AcDbRotatedDimension
1001
ACAD
1000
DSTYLE
1002
{
1070
    40
1040
25.0
1002
}
  0
DIMENSION
  5
7C26
330
81C9
100
AcDbEntity
  8
3
100
AcDbDimension
  2
*D5
 10
1572.993139438522
 20
3383.813332182235
 30
0.0
 11
1996.993139438523
 21
3433.813332182236
 31
0.0
 12
-554.4458914497773
 22
976.2969706568872
 32
0.0
 71
     5
 42
-1.0
  3
Standard
100
AcDbAlignedDimension
 13
2420.993139438523
 23
3083.184586066368
 33
0.0
 14
1572.993139438522
 24
3204.656377916759
 34
0.0
100
AcDbRotatedDimension
1001
ACAD
1000
DSTYLE
1002
{
1070
    40
1040
25.0
1002
}
  0
LINE
  5
7C27
330
81C9
100
AcDbEntity
  8
1
100
AcDbLine
 10
2707.452039438523
 20
2097.872586066368
 30
0.0
 11
2726.993139438522
 21
2044.184586066367
 31
0.0
  0
LINE
  5
7C28
330
81C9
100
AcDbEntity
  8
1
100
AcDbLine
 10
2438.546339438522
 20
2097.905586066368
 30
0.0
 11
2418.993139438522
 21
2044.184586066367
 31
0.0
  0
ARC
  5
7C29
330
81C9
100
AcDbEntity
  8
1
100
AcDbCircle
 10
2572.993139438522
 20
2188.184586066368
 30
0.0
 40
162.0
100
AcDbArc
 50
326.1051229528019
 51
0.0
  0
ARC
  5
7C2A
330
81C9
100
AcDbEntity
  8
1
100
AcDbCircle
 10
2572.993139438522
 20
2188.184586066368
 30
0.0
 40
162.0
100
AcDbArc
 50
0.0
 51
213.8949135395933
  0
LINE
  5
7C2B
330
81C9
100
AcDbEntity
  8
2
100
AcDbLine
 10
2572.993139438522
 20
2366.634354153555
 30
0.0
 11
2572.993139438522
 21
1658.184586066368
 31
0.0
  0
LINE
  5
7C2C
330
81C9
100
AcDbEntity
  8
1
100
AcDbLine
 10
2418.993139438522
 20
2028.184586066367
 30
0.0
 11
2418.993139438522
 21
2044.184586066367
 31
0.0
  0
LINE
  5
7C2D
330
81C9
100
AcDbEntity
  8
1
100
AcDbLine
 10
2726.993139438522
 20
2028.184586066367
 30
0.0
 11
2726.993139438522
 21
2044.184586066367
 31
0.0
  0
LINE
  5
7C2E
330
81C9
100
AcDbEntity
  8
2
100
AcDbLine
 10
2384.88269537585
 20
2188.184586066368
 30
0.0
 11
2759.961500405879
 21
2188.184586066367
 31
0.0
  0
LINE
  5
7C2F
330
81C9
100
AcDbEntity
  8
1
100
AcDbLine
 10
2761.507782704563
 20
2028.184586066367
 30
0.0
 11
2384.238271823711
 21
2028.184586066367
 31
0.0
  0
LINE
  5
7C30
330
81C9
100
AcDbEntity
  8
1
100
AcDbLine
 10
2370.993139438522
 20
1978.184586066367
 30
0.0
 11
2384.238271823711
 21
2028.184586066367
 31
0.0
  0
LINE
  5
7C31
330
81C9
100
AcDbEntity
  8
1
100
AcDbLine
 10
2774.993139438523
 20
1978.184586066367
 30
0.0
 11
2761.507782704562
 21
2028.184586066367
 31
0.0
  0
CIRCLE
  5
7C32
330
81C9
100
AcDbEntity
  8
1
100
AcDbCircle
 10
2572.993139438522
 20
2188.184586066368
 30
0.0
 40
110.0
  0
CIRCLE
  5
7C33
330
81C9
100
AcDbEntity
  8
1
100
AcDbCircle
 10
1572.993139438522
 20
2538.184586066368
 30
0.0
 40
127.0
  0
LINE
  5
7C34
330
81C9
100
AcDbEntity
  8
1
100
AcDbLine
 10
3301.037576512396
 20
2665.184586066368
 30
0.0
 11
3386.037576512395
 21
2665.184586066368
 31
0.0
  0
LINE
  5
7C35
330
81C9
100
AcDbEntity
  8
1
100
AcDbLine
 10
3301.037576512396
 20
2411.184586066368
 30
0.0
 11
3386.037576512396
 21
2411.184586066368
 31
0.0
  0
LINE
  5
7C36
330
81C9
100
AcDbEntity
  8
1
100
AcDbLine
 10
3301.037576512396
 20
2298.184586066368
 30
0.0
 11
3386.037576512395
 21
2298.184586066368
 31
0.0
  0
LINE
  5
7C37
330
81C9
100
AcDbEntity
  8
1
100
AcDbLine
 10
3301.037576512396
 20
2078.184586066368
 30
0.0
 11
3386.037576512395
 21
2078.184586066368
 31
0.0
  0
LINE
  5
7C38
330
81C9
100
AcDbEntity
  8
1
100
AcDbLine
 10
3169.037576512395
 20
1968.184586066368
 30
0.0
 11
3419.037576512395
 21
1968.184586066368
 31
0.0
  0
LINE
  5
7C39
330
81C9
100
AcDbEntity
  8
1
100
AcDbLine
 10
3386.037576512395
 20
2665.184586066368
 30
0.0
 11
3386.037576512395
 21
2411.184586066368
 31
0.0
  0
INSERT
  5
7C3A
330
81C9
100
AcDbEntity
  8
0
100
AcDbBlockReference
  2
YA_N
 10
-36.73462870802178
 20
301.6536876033205
 30
0.0
 41
20.0
 42
20.0
 43
20.0
  0
INSERT
  5
7C3C
330
81C9
100
AcDbEntity
  8
0
100
AcDbBlockReference
  2
YA_N
 10
77.48489664613955
 20
225.3119777640749
 30
0.0
 41
20.0
 42
20.0
 43
20.0
  0
LINE
  5
7C3E
330
81C9
100
AcDbEntity
  8
1
100
AcDbLine
 10
3367.037576512394
 20
1758.184586066368
 30
0.0
 11
4622.037576512395
 21
1758.184586066369
 31
0.0
1001
ACAD
1000
ASC_BOUNDS
1002
{
1070
    19
1002
}
  0
LINE
  5
7C3F
330
81C9
100
AcDbEntity
  8
1
100
AcDbLine
 10
1072.993139438522
 20
1758.184586066369
 30
0.0
 11
2822.993139438522
 21
1758.184586066369
 31
0.0
1001
ACAD
1000
ASC_BOUNDS
1002
{
1070
    19
1005
0
1005
0
1002
}
  0
POINT
  5
7C40
330
81C9
100
AcDbEntity
  8
1
100
AcDbPoint
 10
1072.993139438522
 20
1758.184586066369
 30
0.0
  0
POINT
  5
7C41
330
81C9
100
AcDbEntity
  8
1
100
AcDbPoint
 10
1072.993139438522
 20
1658.184586066368
 30
0.0
  0
POINT
  5
7C42
330
81C9
100
AcDbEntity
  8
1
100
AcDbPoint
 10
1072.993139438522
 20
1758.184586066369
 30
0.0
  0
POINT
  5
7C43
330
81C9
100
AcDbEntity
  8
1
100
AcDbPoint
 10
1072.993139438522
 20
1838.184586066368
 30
0.0
  0
LINE
  5
7C44
330
81C9
100
AcDbEntity
  8
1
100
AcDbLine
 10
4622.037576512395
 20
1758.184586066369
 30
0.0
 11
4622.037576512395
 21
1658.184586066368
 31
0.0
  0
LINE
  5
7C45
330
81C9
100
AcDbEntity
  8
1
100
AcDbLine
 10
4572.037576512395
 20
1658.184586066369
 30
0.0
 11
4622.037576512396
 21
1658.184586066368
 31
0.0
  0
POINT
  5
7C46
330
81C9
100
AcDbEntity
  8
1
100
AcDbPoint
 10
1072.993139438522
 20
1758.184586066369
 30
0.0
  0
POINT
  5
7C47
330
81C9
100
AcDbEntity
  8
1
100
AcDbPoint
 10
1072.993139438522
 20
1658.184586066368
 30
0.0
  0
POINT
  5
7C48
330
81C9
100
AcDbEntity
  8
1
100
AcDbPoint
 10
1072.993139438522
 20
1758.184586066369
 30
0.0
  0
POINT
  5
7C49
330
81C9
100
AcDbEntity
  8
1
100
AcDbPoint
 10
1072.993139438522
 20
1838.184586066368
 30
0.0
  0
LINE
  5
7C4A
330
81C9
100
AcDbEntity
  8
1
100
AcDbLine
 10
4069.037576512394
 20
3083.184586066368
 30
0.0
 11
4609.037576512396
 21
3083.184586066368
 31
0.0
  0
LINE
  5
7C4C
330
81C9
100
AcDbEntity
  8
1
100
AcDbLine
 10
4569.037576512395
 20
2561.184586066369
 30
0.0
 11
4569.037576512395
 21
1938.184586066368
 31
0.0
  0
LINE
  5
7C4E
330
81C9
100
AcDbEntity
  8
1
100
AcDbLine
 10
3569.037576512395
 20
2561.184586066369
 30
0.0
 11
3569.037576512395
 21
2350.184586066368
 31
0.0
  0
LINE
  5
7C4F
330
81C9
100
AcDbEntity
  8
1
100
AcDbLine
 10
3569.037576512395
 20
3083.184586066368
 30
0.0
 11
3569.037576512397
 21
2561.184586066369
 31
0.0
  0
LINE
  5
7C50
330
81C9
100
AcDbEntity
  8
1
100
AcDbLine
 10
4069.037576512394
 20
3083.184586066368
 30
0.0
 11
3529.037576512396
 21
3083.184586066368
 31
0.0
  0
LINE
  5
7C51
330
81C9
100
AcDbEntity
  8
1
100
AcDbLine
 10
3431.037576512395
 20
2502.384586066368
 30
0.0
 11
3431.037576512395
 21
2372.384586066369
 31
0.0
  0
LINE
  5
7C52
330
81C9
100
AcDbEntity
  8
1
100
AcDbLine
 10
3441.037576512395
 20
2512.38458606637
 30
0.0
 11
3569.037576512395
 21
2512.384586066367
 31
0.0
  0
LINE
  5
7C53
330
81C9
100
AcDbEntity
  8
1
100
AcDbLine
 10
3441.037576512395
 20
2362.384586066368
 30
0.0
 11
3569.037576512395
 21
2362.384586066368
 31
0.0
  0
ARC
  5
7C54
330
81C9
100
AcDbEntity
  8
1
100
AcDbCircle
 10
3441.037576512395
 20
2502.384586066368
 30
0.0
 40
10.0
100
AcDbArc
 50
90.0
 51
180.0
  0
ARC
  5
7C55
330
81C9
100
AcDbEntity
  8
1
100
AcDbCircle
 10
3441.037576512395
 20
2372.384586066369
 30
0.0
 40
10.0
100
AcDbArc
 50
180.0
 51
270.0
  0
LINE
  5
7C56
330
81C9
100
AcDbEntity
  8
1
100
AcDbLine
 10
4679.037576512397
 20
2498.684586066368
 30
0.0
 11
4679.037576512397
 21
2398.684586066368
 31
0.0
  0
ARC
  5
7C57
330
81C9
100
AcDbEntity
  8
1
100
AcDbCircle
 10
4669.037576512397
 20
2398.684586066368
 30
0.0
 40
10.0
100
AcDbArc
 50
270.0
 51
0.0
  0
ARC
  5
7C58
330
81C9
100
AcDbEntity
  8
1
100
AcDbCircle
 10
4669.037576512397
 20
2498.684586066368
 30
0.0
 40
10.0
100
AcDbArc
 50
0.0
 51
90.0
  0
LINE
  5
7C59
330
81C9
100
AcDbEntity
  8
1
100
AcDbLine
 10
4569.037576512395
 20
2388.684586066368
 30
0.0
 11
4669.037576512397
 21
2388.684586066367
 31
0.0
  0
LINE
  5
7C5A
330
81C9
100
AcDbEntity
  8
1
100
AcDbLine
 10
4569.037576512395
 20
2508.684586066369
 30
0.0
 11
4669.037576512397
 21
2508.684586066368
 31
0.0
  0
LINE
  5
7C5B
330
81C9
100
AcDbEntity
  8
1
100
AcDbLine
 10
2772.993139438523
 20
1978.184586066367
 30
0.0
 11
2772.993139438523
 21
1938.184586066368
 31
0.0
  0
POINT
  5
7C5C
330
81C9
100
AcDbEntity
  8
1
100
AcDbPoint
 10
4679.037576512397
 20
2498.684586066368
 30
0.0
  0
LINE
  5
7C5D
330
81C9
100
AcDbEntity
  8
1
100
AcDbLine
 10
2822.993139438522
 20
4275.677542897386
 30
0.0
 11
1072.993139438522
 21
4275.677542897386
 31
0.0
  0
LINE
  5
7C5E
330
81C9
100
AcDbEntity
  8
1
100
AcDbLine
 10
2072.993139438522
 20
5530.677542897386
 30
0.0
 11
1072.993139438522
 21
5530.677542897386
 31
0.0
  0
LINE
  5
7C5F
330
81C9
100
AcDbEntity
  8
1
100
AcDbLine
 10
1072.993139438522
 20
5530.677542897386
 30
0.0
 11
1072.993139438522
 21
5477.677542897385
 31
0.0
  0
LINE
  5
7C60
330
81C9
100
AcDbEntity
  8
1
100
AcDbLine
 10
2822.993139438522
 20
5025.677542897387
 30
0.0
 11
2822.993139438522
 21
4275.677542897386
 31
0.0
  0
LINE
  5
7C61
330
81C9
100
AcDbEntity
  8
1
100
AcDbLine
 10
2072.993139438522
 20
5530.677542897386
 30
0.0
 11
2072.993139438522
 21
5477.677542897388
 31
0.0
  0
LINE
  5
7C62
330
81C9
100
AcDbEntity
  8
1
100
AcDbLine
 10
2822.993139438522
 20
5025.677542897387
 30
0.0
 11
2420.993139438523
 21
5025.677542897387
 31
0.0
  0
LINE
  5
7C63
330
81C9
100
AcDbEntity
  8
2
100
AcDbLine
 10
2306.719024580798
 20
4977.677542897388
 30
0.0
 11
992.6007710300915
 21
4977.677542897386
 31
0.0
  0
LINE
  5
7C64
330
81C9
100
AcDbEntity
  8
2
100
AcDbLine
 10
1572.993139438523
 20
5563.661458434314
 30
0.0
 11
1572.993139438522
 21
4040.813891747249
 31
0.0
  0
LINE
  5
7C65
330
81C9
100
AcDbEntity
  8
2
100
AcDbLine
 10
2572.993139438522
 20
4892.167532381333
 30
0.0
 11
2572.993139438522
 21
4040.813891747249
 31
0.0
  0
LINE
  5
7C68
330
81C9
100
AcDbEntity
  8
1
100
AcDbLine
 10
4622.037576512395
 20
1938.184586066368
 30
0.0
 11
4622.037576512395
 21
1838.184586066368
 31
0.0
  0
LINE
  5
7C69
330
81C9
100
AcDbEntity
  8
1
100
AcDbLine
 10
3367.037576512394
 20
1938.184586066368
 30
0.0
 11
4622.037576512393
 21
1938.184586066368
 31
0.0
1001
ACAD
1000
ASC_BOUNDS
1002
{
1070
    19
1002
}
  0
LINE
  5
7C6A
330
81C9
100
AcDbEntity
  8
1
100
AcDbLine
 10
3367.037576512395
 20
1838.184586066368
 30
0.0
 11
4622.037576512395
 21
1838.184586066368
 31
0.0
  0
LINE
  5
7C6B
330
81C9
100
AcDbEntity
  8
1
100
AcDbLine
 10
3367.037576512395
 20
1938.184586066368
 30
0.0
 11
3367.037576512395
 21
1838.184586066368
 31
0.0
  0
DIMENSION
  5
7C6C
330
81C9
100
AcDbEntity
  8
3
100
AcDbDimension
  2
*D6
 10
4870.560987409372
 20
2113.184586066368
 30
0.0
 11
4820.560987409372
 21
2538.184586066368
 31
0.0
 12
-844.8699286002481
 22
976.2969706568872
 32
0.0
 71
     5
 42
-1.0
  3
Standard
100
AcDbAlignedDimension
 13
4571.337576512394
 23
2963.184586066368
 33
0.0
 14
4571.337576512394
 24
2113.184586066368
 34
0.0
 50
90.0
100
AcDbRotatedDimension
1001
ACAD
1000
DSTYLE
1002
{
1070
    40
1040
25.0
1070
     3
1000
\U+03C6<>
1002
}
  0
LINE
  5
7C6D
330
81C9
100
AcDbEntity
  8
1
100
AcDbLine
 10
3386.037576512395
 20
2568.184586066368
 30
0.0
 11
3569.037576512397
 21
2568.184586066368
 31
0.0
  0
LINE
  5
7C6E
330
81C9
100
AcDbEntity
  8
1
100
AcDbLine
 10
3386.037576512395
 20
2508.184586066369
 30
0.0
 11
3432.89141177063
 21
2508.184586066368
 31
0.0
  0
ARC
  5
7C70
330
81C9
100
AcDbEntity
  8
1
100
AcDbCircle
 10
1572.993139438522
 20
2538.184586066368
 30
0.0
 40
220.0
100
AcDbArc
 50
76.50426671920421
 51
256.5042667192043
  0
ARC
  5
7C71
330
81C9
100
AcDbEntity
  8
1
100
AcDbCircle
 10
2572.993139438523
 20
2188.184586066368
 30
0.0
 40
220.0
100
AcDbArc
 50
256.5042667192043
 51
76.50426671920415
  0
LINE
  5
7C72
330
81C9
100
AcDbEntity
  8
1
100
AcDbLine
 10
1624.335188983093
 20
2752.109792502082
 30
0.0
 11
2624.335188983093
 21
2402.109792502083
 31
0.0
  0
LINE
  5
7C73
330
81C9
100
AcDbEntity
  8
1
100
AcDbLine
 10
1604.668869156714
 20
2661.17095989217
 30
0.0
 11
2600.42881084798
 21
2294.70821693911
 31
0.0
  0
LINE
  5
7C74
330
81C9
100
AcDbEntity
  8
1
100
AcDbLine
 10
1545.400238767228
 20
2414.218333269309
 30
0.0
 11
2549.093776652362
 21
2080.812241124033
 31
0.0
  0
LINE
  5
7C75
330
81C9
100
AcDbEntity
  8
1
100
AcDbLine
 10
1521.651089893951
 20
2324.259379630655
 30
0.0
 11
2521.651089893951
 21
1974.259379630653
 31
0.0
  0
LINE
  5
7C76
330
81C9
100
AcDbEntity
  8
1
100
AcDbLine
 10
2822.993139438522
 20
1838.184586066368
 30
0.0
 11
1072.993139438522
 21
1838.184586066368
 31
0.0
  0
LINE
  5
7C77
330
81C9
100
AcDbEntity
  8
1
100
AcDbLine
 10
1072.993139438522
 20
1938.184586066368
 30
0.0
 11
2822.993139438522
 21
1938.184586066368
 31
0.0
1001
ACAD
1000
ASC_BOUNDS
1002
{
1070
    19
1005
0
1005
0
1002
}
  0
LINE
  5
7C78
330
81C9
100
AcDbEntity
  8
1
100
AcDbLine
 10
2822.993139438522
 20
1938.184586066368
 30
0.0
 11
2822.993139438522
 21
1838.184586066368
 31
0.0
  0
LINE
  5
7C79
330
81C9
100
AcDbEntity
  8
1
100
AcDbLine
 10
1072.993139438522
 20
1938.184586066368
 30
0.0
 11
1072.993139438522
 21
1838.184586066368
 31
0.0
  0
CIRCLE
  5
7C7B
330
81C9
100
AcDbEntity
  8
1
100
AcDbCircle
 10
1572.993139438522
 20
2538.184586066368
 30
0.0
 40
425.0
  0
CIRCLE
  5
7C7C
330
81C9
100
AcDbEntity
  8
1
100
AcDbCircle
 10
1572.993139438522
 20
2538.184586066368
 30
0.0
 40
465.0
  0
LINE
  5
7C7D
330
81C9
100
AcDbEntity
  8
1
100
AcDbLine
 10
2370.993139438522
 20
1978.184586066367
 30
0.0
 11
2774.993139438523
 21
1978.184586066367
 31
0.0
  0
POINT
  5
7C7F
330
81C9
100
AcDbEntity
  8
1
100
AcDbPoint
 10
1072.993139438522
 20
1758.184586066369
 30
0.0
  0
POINT
  5
7C80
330
81C9
100
AcDbEntity
  8
1
100
AcDbPoint
 10
1072.993139438522
 20
1838.184586066368
 30
0.0
  0
LINE
  5
7C81
330
81C9
100
AcDbEntity
  8
1
100
AcDbLine
 10
2420.993139438523
 20
5477.677542897389
 30
0.0
 11
1004.993139438523
 21
5477.677542897386
 31
0.0
  0
LINE
  5
7C82
330
81C9
100
AcDbEntity
  8
1
100
AcDbLine
 10
2420.993139438522
 20
4477.677542897387
 30
0.0
 11
1004.993139438522
 21
4477.677542897384
 31
0.0
  0
LINE
  5
7C83
330
81C9
100
AcDbEntity
  8
1
100
AcDbLine
 10
1072.993139438522
 20
4477.677542897384
 30
0.0
 11
1072.993139438522
 21
4275.677542897386
 31
0.0
  0
DIMENSION
  5
7C89
330
81C9
100
AcDbEntity
  8
3
100
AcDbDimension
  2
*D7
 10
1072.993139438522
 20
5681.800826448338
 30
0.0
 11
1572.993139438523
 21
5731.800826448338
 31
0.0
 12
-554.4458914497773
 22
976.2969706568872
 32
0.0
 71
     5
 42
-1.0
  3
Standard
100
AcDbAlignedDimension
 13
2072.993139438522
 23
5530.677542897386
 33
0.0
 14
1072.993139438522
 24
5530.677542897386
 34
0.0
100
AcDbRotatedDimension
1001
ACAD
1000
DSTYLE
1002
{
1070
    40
1040
25.0
1002
}
  0
DIMENSION
  5
7C8A
330
81C9
100
AcDbEntity
  8
3
100
AcDbDimension
  2
*D8
 10
855.0564112886332
 20
4275.677542897386
 30
0.0
 11
855.0564112886332
 21
4903.177542897387
 31
0.0
 12
-554.4458914497773
 22
976.2969706568872
 32
0.0
 70
   128
 71
     5
 42
-1.0
  3
Standard
100
AcDbAlignedDimension
 13
1072.993139438522
 23
5530.677542897386
 33
0.0
 14
1072.993139438522
 24
4275.677542897386
 34
0.0
 50
270.0
100
AcDbRotatedDimension
1001
ACAD
1000
DSTYLE
1002
{
1070
    40
1040
25.0
1002
}
  0
DIMENSION
  5
7C8B
330
81C9
100
AcDbEntity
  8
3
100
AcDbDimension
  2
*D9
 10
2975.145968561836
 20
4275.677542897386
 30
0.0
 11
2925.145968561835
 21
4650.677542897386
 31
0.0
 12
-554.4458914497773
 22
976.2969706568872
 32
0.0
 71
     5
 42
-1.0
  3
Standard
100
AcDbAlignedDimension
 13
2822.993139438522
 23
5025.677542897387
 33
0.0
 14
2822.993139438522
 24
4275.677542897386
 34
0.0
 50
270.0
100
AcDbRotatedDimension
1001
ACAD
1000
DSTYLE
1002
{
1070
    40
1040
25.0
1002
}
  0
LINE
  5
7C8C
330
81C9
100
AcDbEntity
  8
1
100
AcDbLine
 10
2682.993139438523
 20
4209.677542897389
 30
0.0
 11
2462.993139438522
 21
4209.677542897387
 31
0.0
  0
LINE
  5
7C8D
330
81C9
100
AcDbEntity
  8
1
100
AcDbLine
 10
2682.993139438523
 20
4294.677542897388
 30
0.0
 11
2462.993139438523
 21
4294.677542897388
 31
0.0
  0
LINE
  5
7C8E
330
81C9
100
AcDbEntity
  8
1
100
AcDbLine
 10
1445.993139438522
 20
4294.677542897387
 30
0.0
 11
1445.993139438522
 21
4209.677542897387
 31
0.0
  0
LINE
  5
7C8F
330
81C9
100
AcDbEntity
  8
1
100
AcDbLine
 10
1699.993139438522
 20
4294.677542897388
 30
0.0
 11
1699.993139438522
 21
4209.677542897387
 31
0.0
  0
LINE
  5
7C90
330
81C9
100
AcDbEntity
  8
1
100
AcDbLine
 10
2462.993139438522
 20
4294.677542897388
 30
0.0
 11
2462.993139438522
 21
4209.677542897389
 31
0.0
  0
LINE
  5
7C91
330
81C9
100
AcDbEntity
  8
1
100
AcDbLine
 10
2682.993139438523
 20
4294.67754289739
 30
0.0
 11
2682.993139438523
 21
4209.677542897389
 31
0.0
  0
LINE
  5
7C92
330
81C9
100
AcDbEntity
  8
1
100
AcDbLine
 10
1699.993139438522
 20
4209.677542897387
 30
0.0
 11
1445.993139438522
 21
4209.677542897387
 31
0.0
  0
LINE
  5
7C93
330
81C9
100
AcDbEntity
  8
1
100
AcDbLine
 10
1699.993139438522
 20
4294.677542897388
 30
0.0
 11
1445.993139438522
 21
4294.677542897387
 31
0.0
  0
LINE
  5
7C94
330
81C9
100
AcDbEntity
  8
1
100
AcDbLine
 10
2792.993139438522
 20
4077.677542897389
 30
0.0
 11
1352.993139438521
 21
4077.677542897386
 31
0.0
  0
LINE
  5
7C95
330
81C9
100
AcDbEntity
  8
1
100
AcDbLine
 10
1352.993139438522
 20
4324.677542897386
 30
0.0
 11
1352.993139438522
 21
4077.677542897386
 31
0.0
  0
LINE
  5
7C96
330
81C9
100
AcDbEntity
  8
1
100
AcDbLine
 10
2792.993139438522
 20
4324.677542897389
 30
0.0
 11
2792.993139438522
 21
4077.677542897389
 31
0.0
  0
LINE
  5
7C97
330
81C9
100
AcDbEntity
  8
1
100
AcDbLine
 10
2792.993139438522
 20
4324.677542897389
 30
0.0
 11
1352.993139438521
 21
4324.677542897386
 31
0.0
  0
POINT
  5
7C99
330
81C9
100
AcDbEntity
  8
1
100
AcDbPoint
 10
4679.037576512397
 20
2498.684586066368
 30
0.0
  0
DIMENSION
  5
7C9A
330
81C9
100
AcDbEntity
  8
3
100
AcDbDimension
  2
*D11
 10
4569.037576512396
 20
3184.073169067424
 30
0.0
 11
4069.037576512394
 21
3234.073169067424
 31
0.0
 71
     5
 42
-1.0
  3
Standard
100
AcDbAlignedDimension
 13
3569.037576512395
 23
3083.184586066368
 33
0.0
 14
4569.037576512396
 24
3083.184586066368
 34
0.0
100
AcDbRotatedDimension
1001
ACAD
1000
DSTYLE
1002
{
1070
    40
1040
25.0
1002
}
  0
POINT
  5
7C9B
330
81C9
100
AcDbEntity
  8
1
100
AcDbPoint
 10
4679.037576512397
 20
2498.684586066368
 30
0.0
  0
POINT
  5
7C9C
330
81C9
100
AcDbEntity
  8
1
100
AcDbPoint
 10
3169.037576512395
 20
2758.184586066368
 30
0.0
  0
LINE
  5
7C9D
330
81C9
100
AcDbEntity
  8
1
100
AcDbLine
 10
2734.993139438522
 20
4864.17754289739
 30
0.0
 11
2420.993139438523
 21
4864.177542897387
 31
0.0
  0
LINE
  5
7C9E
330
81C9
100
AcDbEntity
  8
1
100
AcDbLine
 10
2734.993139438522
 20
4335.177542897389
 30
0.0
 11
2410.993139438522
 21
4335.177542897387
 31
0.0
  0
LINE
  5
7C9F
330
81C9
100
AcDbEntity
  8
1
100
AcDbLine
 10
2551.993139438522
 20
4335.177542897389
 30
0.0
 11
2551.993139438522
 21
4294.677542897388
 31
0.0
  0
LINE
  5
7CA0
330
81C9
100
AcDbEntity
  8
1
100
AcDbLine
 10
2593.993139438522
 20
4335.177542897389
 30
0.0
 11
2593.993139438522
 21
4294.677542897388
 31
0.0
  0
LINE
  5
7CA1
330
81C9
100
AcDbEntity
  8
1
100
AcDbLine
 10
2734.993139438522
 20
4864.17754289739
 30
0.0
 11
2734.993139438522
 21
4335.177542897389
 31
0.0
  0
LINE
  5
7CA2
330
81C9
100
AcDbEntity
  8
1
100
AcDbLine
 10
2410.993139438522
 20
4477.677542897387
 30
0.0
 11
2410.993139438522
 21
4335.177542897387
 31
0.0
  0
LINE
  5
7CA3
330
81C9
100
AcDbEntity
  8
1
100
AcDbLine
 10
3955.537576512394
 20
2026.184586066368
 30
0.0
 11
3426.537576512394
 21
2026.184586066368
 31
0.0
  0
LINE
  5
7CA4
330
81C9
100
AcDbEntity
  8
1
100
AcDbLine
 10
3955.537576512396
 20
2350.184586066368
 30
0.0
 11
3426.537576512397
 21
2350.184586066368
 31
0.0
  0
LINE
  5
7CA5
330
81C9
100
AcDbEntity
  8
1
100
AcDbLine
 10
3426.537576512397
 20
2350.184586066368
 30
0.0
 11
3426.537576512393
 21
2026.184586066368
 31
0.0
  0
LINE
  5
7CA6
330
81C9
100
AcDbEntity
  8
1
100
AcDbLine
 10
3426.537576512395
 20
2209.184586066368
 30
0.0
 11
3386.037576512396
 21
2209.184586066368
 31
0.0
  0
LINE
  5
7CA7
330
81C9
100
AcDbEntity
  8
1
100
AcDbLine
 10
3426.537576512395
 20
2167.184586066368
 30
0.0
 11
3386.037576512396
 21
2167.184586066368
 31
0.0
  0
LINE
  5
7CA8
330
81C9
100
AcDbEntity
  8
1
100
AcDbLine
 10
3386.037576512395
 20
2298.184586066368
 30
0.0
 11
3386.037576512395
 21
2078.184586066368
 31
0.0
  0
LINE
  5
7CA9
330
81C9
100
AcDbEntity
  8
1
100
AcDbLine
 10
3301.037576512396
 20
2298.184586066368
 30
0.0
 11
3301.037576512396
 21
2078.184586066368
 31
0.0
  0
DIMENSION
  5
7CB1
330
81C9
100
AcDbEntity
  8
3
100
AcDbDimension
  2
*D16
 10
771.5199975370998
 20
2538.184586066368
 30
0.0
 11
721.5199975370998
 21
2810.684586066368
 31
0.0
 12
-554.4458914497773
 22
976.2969706568872
 32
0.0
 71
     5
 42
-1.0
  3
Standard
100
AcDbAlignedDimension
 13
1553.493139438523
 23
3083.184586066368
 33
0.0
 14
906.521347588132
 24
2538.184586066368
 34
0.0
 50
270.0
100
AcDbRotatedDimension
1001
ACAD
1000
DSTYLE
1002
{
1070
    40
1040
25.0
1002
}
  0
LINE
  5
7CB7
330
81C9
100
AcDbEntity
  8
1
100
AcDbLine
 10
4069.037576512394
 20
3080.184586066368
 30
0.0
 11
3529.037576512396
 21
3080.184586066367
 31
0.0
  0
LINE
  5
7CB8
330
81C9
100
AcDbEntity
  8
1
100
AcDbLine
 10
4069.037576512394
 20
3080.184586066368
 30
0.0
 11
4609.037576512396
 21
3080.184586066367
 31
0.0
  0
LINE
  5
7CB9
330
81C9
100
AcDbEntity
  8
1
100
AcDbLine
 10
3529.037576512395
 20
3083.184586066368
 30
0.0
 11
3529.037576512396
 21
3080.184586066367
 31
0.0
  0
LINE
  5
7CBA
330
81C9
100
AcDbEntity
  8
1
100
AcDbLine
 10
4609.037576512396
 20
3083.184586066368
 30
0.0
 11
4609.037576512397
 21
3080.184586066367
 31
0.0
  0
LINE
  5
7CBB
330
81C9
100
AcDbEntity
  8
1
100
AcDbLine
 10
2420.993139438524
 20
5477.677542897389
 30
0.0
 11
2420.993139438522
 21
4477.677542897387
 31
0.0
  0
LINE
  5
7CBC
330
81C9
100
AcDbEntity
  8
1
100
AcDbLine
 10
1004.993139438523
 20
5477.677542897386
 30
0.0
 11
1004.993139438522
 21
4477.677542897384
 31
0.0
  0
LINE
  5
7CBD
330
81C9
100
AcDbEntity
  8
1
100
AcDbLine
 10
1595.993139438523
 20
5477.67754289739
 30
0.0
 11
1595.993139438522
 21
4477.677542897389
 31
0.0
  0
LINE
  5
7CBE
330
81C9
100
AcDbEntity
  8
1
100
AcDbLine
 10
1595.993139438523
 20
5477.677542897387
 30
0.0
 11
2420.993139438522
 21
4477.677542897387
 31
0.0
  0
LINE
  5
7CBF
330
81C9
100
AcDbEntity
  8
1
100
AcDbLine
 10
2420.993139438524
 20
5477.677542897389
 30
0.0
 11
1595.993139438522
 21
4477.677542897386
 31
0.0
  0
LINE
  5
7CC0
330
81C9
100
AcDbEntity
  8
1
100
AcDbLine
 10
3955.537576512396
 20
2350.184586066363
 30
0.0
 11
3955.537576512393
 21
2026.184586066363
 31
0.0
  0
LINE
  5
7CC1
330
81C9
100
AcDbEntity
  8
1
100
AcDbLine
 10
3860.89370406778
 20
2026.184586066368
 30
0.0
 11
3860.89370406778
 21
1938.184586066368
 31
0.0
  0
LINE
  5
7CC2
330
81C9
100
AcDbEntity
  8
1
100
AcDbLine
 10
3508.05388812473
 20
2026.184586066368
 30
0.0
 11
3508.05388812473
 21
1938.184586066368
 31
0.0
  0
LINE
  5
7CC3
330
81C9
100
AcDbEntity
  8
1
100
AcDbLine
 10
3508.05388812473
 20
1978.184586066367
 30
0.0
 11
3860.89370406778
 21
1978.184586066367
 31
0.0
  0
LINE
  5
7EEA
330
81C9
100
AcDbEntity
  8
4
100
AcDbLine
 10
4625.0
 20
1250.0
 30
0.0
 11
4625.0
 21
750.0
 31
0.0
  0
LINE
  5
7EEB
330
81C9
100
AcDbEntity
  8
4
100
AcDbLine
 10
2875.0
 20
1250.0
 30
0.0
 11
2875.0
 21
750.0
 31
0.0
  0
LINE
  5
7EEC
330
81C9
100
AcDbEntity
  8
4
100
AcDbLine
 10
1625.0
 20
1250.0
 30
0.0
 11
1625.0
 21
750.0
 31
0.0
  0
LINE
  5
7EEF
330
81C9
100
AcDbEntity
  8
4
100
AcDbLine
 10
1625.0
 20
750.0
 30
0.0
 11
4625.0
 21
750.0
 31
0.0
  0
LINE
  5
7EF0
330
81C9
100
AcDbEntity
  8
4
100
AcDbLine
 10
1625.0
 20
1000.0
 30
0.0
 11
4625.0
 21
1000.0
 31
0.0
  0
TEXT
  5
7EF1
330
81C9
100
AcDbEntity
  8
4
100
AcDbText
 10
1721.255202117253
 20
1078.857564666532
 30
0.0
 40
125.0
  1
機器名称
100
AcDbText
  0
TEXT
  5
7EF2
330
81C9
100
AcDbEntity
  8
4
100
AcDbText
 10
1715.645265061993
 20
804.1128918300273
 30
0.0
 40
125.0
  1
機器型番
100
AcDbText
  0
TEXT
  5
7EF3
330
81C9
100
AcDbEntity
  8
4
100
AcDbText
 10
2944.196863719162
 20
1056.429422393921
 30
0.0
 40
125.0
  1
ミツヤ多翼送風機
100
AcDbText
  0
TEXT
  5
7EF4
330
81C9
100
AcDbEntity
  8
4
100
AcDbText
 10
2966.636238963701
 20
792.8989606998584
 30
0.0
 40
125.0
  1
MF#5-5
100
AcDbText
  0
TEXT
  5
7EF6
330
81C9
100
AcDbEntity
  8
4
100
AcDbText
 10
1945.138167875713
 20
5958.572103331289
 30
0.0
 40
135.0
  1
床置防振ベット
100
AcDbText
  0
TEXT
  5
7EF7
330
81C9
100
AcDbEntity
  8
4
100
AcDbText
 10
790.4189833236158
 20
6334.702440498245
 30
0.0
 40
180.0
  1
遠心式両吸込両持多翼ファン
100
AcDbText
  0
LINE
  5
7EF8
330
81C9
100
AcDbEntity
  8
4
100
AcDbLine
 10
625.0
 20
6173.521885662012
 30
0.0
 11
4625.0
 21
6173.521885662012
 31
0.0
  0
LINE
  5
7EF9
330
81C9
100
AcDbEntity
  8
4
100
AcDbLine
 10
625.0
 20
6673.521885662011
 30
0.0
 11
4625.0
 21
6673.521885662011
 31
0.0
  0
LINE
  5
7EFA
330
81C9
100
AcDbEntity
  8
4
100
AcDbLine
 10
1625.0
 20
1250.0
 30
0.0
 11
4625.0
 21
1250.0
 31
0.0
  0
LINE
  5
7EFB
330
81C9
100
AcDbEntity
  8
4
100
AcDbLine
 10
625.0
 20
6673.521885662011
 30
0.0
 11
625.0
 21
6173.521885662012
 31
0.0
  0
TEXT
  5
7EFC
330
81C9
100
AcDbEntity
  8
4
100
AcDbText
 10
855.4910872689578
 20
5955.798693865858
 30
0.0
 40
135.0
  1
左回転上向
100
AcDbText
  0
TEXT
  5
7EFD
330
81C9
100
AcDbEntity
  8
4
100
AcDbText
 10
3672.423898123224
 20
6765.15270373827
 30
0.0
 40
140.0
  1
No.
100
AcDbText
  0
TEXT
  5
7EFE
330
81C9
100
AcDbEntity
  8
4
100
AcDbText
 10
3278.240156500032
 20
5958.572103331289
 30
0.0
 40
135.0
  1
縮尺：1/25
100
AcDbText
  0
LINE
  5
7EFF
330
81C9
100
AcDbEntity
  8
4
100
AcDbLine
 10
4625.0
 20
6673.521885662011
 30
0.0
 11
4625.0
 21
6173.521885662012
 31
0.0
  0
LINE
  5
7F00
330
81C9
100
AcDbEntity
  8
4
100
AcDbLine
 10
5250.0
 20
7375.0
 30
0.0
 11
5250.0
 21
7375.0
 31
0.0
  0
LINE
  5
7F01
330
81C9
100
AcDbEntity
  8
4
100
AcDbLine
 10
3601.543555899662
 20
6703.158957813504
 30
0.0
 11
3601.543555899662
 21
6966.630653874381
 31
0.0
  0
LINE
  5
7F02
330
81C9
100
AcDbEntity
  8
4
100
AcDbLine
 10
3601.543555899662
 20
6966.630653874381
 30
0.0
 11
4625.0
 21
6966.630653874381
 31
0.0
  0
LINE
  5
7F03
330
81C9
100
AcDbEntity
  8
4
100
AcDbLine
 10
4625.0
 20
6966.630653874381
 30
0.0
 11
4625.0
 21
6703.158957813504
 31
0.0
  0
LINE
  5
7F04
330
81C9
100
AcDbEntity
  8
4
100
AcDbLine
 10
4625.0
 20
6703.158957813504
 30
0.0
 11
3601.543555899662
 21
6703.158957813504
 31
0.0
  0
LINE
  5
7F05
330
81C9
100
AcDbEntity
  8
4
100
AcDbLine
 10
0.0
 20
0.0
 30
0.0
 11
0.0
 21
7375.0
 31
0.0
  0
LINE
  5
7F06
330
81C9
100
AcDbEntity
  8
4
100
AcDbLine
 10
0.0
 20
7375.0
 30
0.0
 11
5250.0
 21
7375.0
 31
0.0
  0
LINE
  5
7F07
330
81C9
100
AcDbEntity
  8
4
100
AcDbLine
 10
5250.0
 20
7375.0
 30
0.0
 11
5250.0
 21
0.0
 31
0.0
  0
LINE
  5
7F08
330
81C9
100
AcDbEntity
  8
4
100
AcDbLine
 10
5250.0
 20
0.0
 30
0.0
 11
0.0
 21
0.0
 31
0.0
  0
ARC
  5
8282
330
81C9
100
AcDbEntity
  8
FUTO
100
AcDbCircle
 10
1525.493139438522
 20
2490.684586066368
 30
0.0
 40
510.5
100
AcDbArc
 50
90.0
 51
174.6611324118623
  0
LINE
  5
8283
330
81C9
100
AcDbEntity
  8
FUTO
100
AcDbLine
 10
2420.993139438522
 20
3083.184586066368
 30
0.0
 11
2364.621285226002
 21
2538.184586066368
 31
0.0
  0
ARC
  5
8284
330
81C9
100
AcDbEntity
  8
FUTO
100
AcDbCircle
 10
1631.993139438522
 20
2479.184586066368
 30
0.0
 40
617.0
100
AcDbArc
 50
174.5127648571014
 51
241.2615071564635
  0
ARC
  5
8285
330
81C9
100
AcDbEntity
  8
FUTO
100
AcDbCircle
 10
1631.993139438522
 20
2597.184586066368
 30
0.0
 40
735.0
100
AcDbArc
 50
296.2854859568602
 51
355.3957932734988
  0
ARC
  5
8286
330
81C9
100
AcDbEntity
  8
FUTO
100
AcDbCircle
 10
1542.493139438522
 20
2568.684586066368
 30
0.0
 40
432.5
100
AcDbArc
 50
82.89434475270326
 51
90.0
  0
LINE
  5
8287
330
81C9
100
AcDbEntity
  8
FUTO
100
AcDbLine
 10
1595.993139438522
 20
2997.862870698758
 30
0.0
 11
1595.993139438522
 21
3083.184586066368
 31
0.0
  0
LINE
  5
8288
330
81C9
100
AcDbEntity
  8
FUTO
100
AcDbLine
 10
1525.493139438522
 20
3001.184586066368
 30
0.0
 11
1542.493139438522
 21
3001.184586066368
 31
0.0
  0
LINE
  5
8289
330
81C9
100
AcDbEntity
  8
1
100
AcDbLine
 10
2463.493139438523
 20
3083.184586066368
 30
0.0
 11
1553.493139438522
 21
3083.184586066366
 31
0.0
  0
LINE
  5
828A
330
81C9
100
AcDbEntity
  8
1
100
AcDbLine
 10
2463.493139438523
 20
3083.184586066368
 30
0.0
 11
2463.493139438523
 21
3080.184586066368
 31
0.0
  0
LINE
  5
828B
330
81C9
100
AcDbEntity
  8
1
100
AcDbLine
 10
1553.493139438522
 20
3083.184586066366
 30
0.0
 11
1553.493139438522
 21
3080.184586066366
 31
0.0
  0
LINE
  5
828C
330
81C9
100
AcDbEntity
  8
1
100
AcDbLine
 10
2417.592044668099
 20
3043.184586066368
 30
0.0
 11
1595.993139438522
 21
3043.184586066366
 31
0.0
  0
LINE
  5
828D
330
81C9
100
AcDbEntity
  8
1
100
AcDbLine
 10
2463.493139438523
 20
3080.184586066368
 30
0.0
 11
1553.493139438522
 21
3080.184586066366
 31
0.0
  0
POINT
  5
828E
330
81C9
100
AcDbEntity
  8
1
100
AcDbPoint
 10
1572.993139438522
 20
3103.40249673539
 30
0.0
 50
270.0
  0
POINT
  5
828F
330
81C9
100
AcDbEntity
  8
1
100
AcDbPoint
 10
1572.993139438522
 20
3103.40249673539
 30
0.0
 50
270.0
  0
DIMENSION
  5
8293
330
81C9
100
AcDbEntity
  8
3
100
AcDbDimension
  2
*D29
 10
4069.037576512394
 20
3500.88090204704
 30
0.0
 11
3619.037576512395
 21
3583.023759189897
 31
0.0
 70
    32
  1
(<>)
 71
     5
 42
899.9999999999996
  3
IGA
100
AcDbAlignedDimension
 13
3169.037576512395
 23
2758.184586066368
 33
0.0
 14
4069.037576512394
 24
3271.573169067423
 34
0.0
100
AcDbRotatedDimension
1001
ACAD
1000
DSTYLE
1002
{
1070
    40
1040
25.0
1070
    42
1040
1.0
1070
   143
1040
0.039
1070
   172
1070
     1
1070
   271
1070
     4
1070
   272
1070
     4
1070
   279
1070
     0
1070
   284
1070
     0
1070
   285
1070
     0
1070
   286
1070
     0
1070
   341
1005
81DD
1070
   343
1005
81DD
1070
   344
1005
81DD
1002
}
  0
DIMENSION
  5
82A0
330
81C9
100
AcDbEntity
  8
3
100
AcDbDimension
  2
*D30
 10
4679.037576512397
 20
3500.88090204704
 30
0.0
 11
4374.037576512395
 21
3583.023759189897
 31
0.0
 70
    32
  1
(<>)
 71
     5
 42
610.0000000000027
  3
IGA
100
AcDbAlignedDimension
 13
4069.037576512394
 23
3271.573169067423
 33
0.0
 14
4679.037576512397
 24
2498.684586066368
 34
0.0
100
AcDbRotatedDimension
1001
ACAD
1000
DSTYLE
1002
{
1070
    40
1040
25.0
1070
    42
1040
1.0
1070
   143
1040
0.039
1070
   172
1070
     1
1070
   271
1070
     4
1070
   272
1070
     4
1070
   279
1070
     1
1070
   284
1070
     0
1070
   285
1070
     0
1070
   286
1070
     0
1070
   341
1005
81DD
1070
   343
1005
81DD
1070
   344
1005
81DD
1002
}
  0
DIMENSION
  5
82F8
330
81C9
100
AcDbEntity
  8
3
100
AcDbDimension
  2
*D31
 10
2822.993139438522
 20
3875.55225679019
 30
0.0
 11
1947.993139438522
 21
3938.05225679019
 31
0.0
 70
    32
 71
     5
 42
1750.0
  3
IGA
100
AcDbAlignedDimension
 13
1072.993139438522
 23
4275.677542897386
 33
0.0
 14
2822.993139438522
 24
4275.677542897386
 34
0.0
100
AcDbRotatedDimension
1001
ACAD
1000
DSTYLE
1002
{
1070
    40
1040
25.0
1070
    42
1040
1.0
1070
   143
1040
0.039
1070
   172
1070
     1
1070
   271
1070
     4
1070
   272
1070
     4
1070
   279
1070
     0
1070
   284
1070
     0
1070
   285
1070
     0
1070
   286
1070
     0
1070
   341
1005
81DD
1070
   343
1005
81DD
1070
   344
1005
81DD
1002
}
  0
DIMENSION
  5
8305
330
81C9
100
AcDbEntity
  8
3
100
AcDbDimension
  2
*D32
 10
2822.993139438522
 20
5681.800826448339
 30
0.0
 11
2447.993139438522
 21
5744.300826448339
 31
0.0
 70
    32
 71
     5
 42
749.9999999999995
  3
IGA
100
AcDbAlignedDimension
 13
2072.993139438522
 23
5530.677542897386
 33
0.0
 14
2822.993139438522
 24
5025.677542897387
 34
0.0
100
AcDbRotatedDimension
1001
ACAD
1000
DSTYLE
1002
{
1070
    40
1040
25.0
1070
    42
1040
1.0
1070
   143
1040
0.039
1070
   172
1070
     1
1070
   271
1070
     4
1070
   272
1070
     4
1070
   279
1070
     0
1070
   284
1070
     0
1070
   285
1070
     0
1070
   286
1070
     0
1070
   341
1005
81DD
1070
   343
1005
81DD
1070
   344
1005
81DD
1002
}
  0
DIMENSION
  5
8374
330
81C9
100
AcDbEntity
  8
3
100
AcDbDimension
  2
*D40
 10
4069.037576512396
 20
1487.667653681019
 30
0.0
 11
3718.037576512396
 21
1550.167653681019
 31
0.0
 70
    32
 71
     5
 42
702.0000000000013
  3
IGA
100
AcDbAlignedDimension
 13
3367.037576512395
 23
1658.184586066368
 33
0.0
 14
4069.037576512396
 24
1658.184586066368
 34
0.0
100
AcDbRotatedDimension
1001
ACAD
1000
DSTYLE
1002
{
1070
    40
1040
25.0
1070
    42
1040
1.0
1070
   143
1040
0.039
1070
   172
1070
     1
1070
   271
1070
     4
1070
   272
1070
     4
1070
   279
1070
     0
1070
   284
1070
     0
1070
   285
1070
     0
1070
   286
1070
     0
1070
   341
1005
81DD
1070
   343
1005
81DD
1070
   344
1005
81DD
1002
}
  0
DIMENSION
  5
8381
330
81C9
100
AcDbEntity
  8
3
100
AcDbDimension
  2
*D41
 10
4622.037576512395
 20
1487.667653681019
 30
0.0
 11
4345.537576512395
 21
1550.167653681019
 31
0.0
 70
    32
 71
     5
 42
552.9999999999991
  3
IGA
100
AcDbAlignedDimension
 13
4069.037576512396
 23
1658.184586066368
 33
0.0
 14
4622.037576512395
 24
1658.184586066368
 34
0.0
100
AcDbRotatedDimension
1001
ACAD
1000
DSTYLE
1002
{
1070
    40
1040
25.0
1070
    42
1040
1.0
1070
   143
1040
0.039
1070
   172
1070
     1
1070
   271
1070
     4
1070
   272
1070
     4
1070
   279
1070
     1
1070
   284
1070
     0
1070
   285
1070
     0
1070
   286
1070
     0
1070
   341
1005
81DD
1070
   343
1005
81DD
1070
   344
1005
81DD
1002
}
  0
DIMENSION
  5
838E
330
81C9
100
AcDbEntity
  8
3
100
AcDbDimension
  2
*D42
 10
1572.993139438522
 20
1495.355349826324
 30
0.0
 11
1322.993139438522
 21
1557.855349826324
 31
0.0
 70
    32
 71
     5
 42
500.0
  3
IGA
100
AcDbAlignedDimension
 13
1072.993139438522
 23
1658.184586066368
 33
0.0
 14
1572.993139438522
 24
1658.184586066368
 34
0.0
100
AcDbRotatedDimension
1001
ACAD
1000
DSTYLE
1002
{
1070
    40
1040
25.0
1070
    42
1040
1.0
1070
   143
1040
0.039
1070
   172
1070
     1
1070
   271
1070
     4
1070
   272
1070
     4
1070
   279
1070
     0
1070
   284
1070
     0
1070
   285
1070
     0
1070
   286
1070
     0
1070
   341
1005
81DD
1070
   343
1005
81DD
1070
   344
1005
81DD
1002
}
  0
DIMENSION
  5
839B
330
81C9
100
AcDbEntity
  8
3
100
AcDbDimension
  2
*D43
 10
2822.993139438522
 20
1495.355349826324
 30
0.0
 11
2197.993139438522
 21
1557.855349826324
 31
0.0
 70
    32
 71
     5
 42
1250.0
  3
IGA
100
AcDbAlignedDimension
 13
1572.993139438522
 23
1658.184586066368
 33
0.0
 14
2822.993139438522
 24
1658.184586066368
 34
0.0
100
AcDbRotatedDimension
1001
ACAD
1000
DSTYLE
1002
{
1070
    40
1040
25.0
1070
    42
1040
1.0
1070
   143
1040
0.039
1070
   172
1070
     1
1070
   271
1070
     4
1070
   272
1070
     4
1070
   279
1070
     1
1070
   284
1070
     0
1070
   285
1070
     0
1070
   286
1070
     0
1070
   341
1005
81DD
1070
   343
1005
81DD
1070
   344
1005
81DD
1002
}
  0
DIMENSION
  5
83A8
330
81C9
100
AcDbEntity
  8
3
100
AcDbDimension
  2
*D44
 10
771.5199975370998
 20
1838.184586066368
 30
0.0
 11
709.0199975370994
 21
2188.184586066368
 31
0.0
 70
    32
 71
     5
 42
699.9999999999995
  3
IGA
100
AcDbAlignedDimension
 13
906.521347588132
 23
2538.184586066368
 33
0.0
 14
1072.993139438522
 24
1838.184586066368
 34
0.0
 50
90.0
100
AcDbRotatedDimension
1001
ACAD
1000
DSTYLE
1002
{
1070
    40
1040
25.0
1070
    42
1040
1.0
1070
   143
1040
0.039
1070
   172
1070
     1
1070
   271
1070
     4
1070
   272
1070
     4
1070
   279
1070
     0
1070
   284
1070
     0
1070
   285
1070
     0
1070
   286
1070
     0
1070
   341
1005
81DD
1070
   343
1005
81DD
1070
   344
1005
81DD
1002
}
  0
DIMENSION
  5
83B5
330
81C9
100
AcDbEntity
  8
3
100
AcDbDimension
  2
*D45
 10
771.5199975370998
 20
1758.184586066369
 30
0.0
 11
569.7342832513853
 21
1859.077443209226
 31
0.0
 70
    32
  1
(<>)
 71
     5
 42
79.99999999999886
  3
IGA
100
AcDbAlignedDimension
 13
1072.993139438522
 23
1838.184586066368
 33
0.0
 14
1072.993139438522
 24
1758.184586066369
 34
0.0
 50
90.0
100
AcDbRotatedDimension
1001
ACAD
1000
DSTYLE
1002
{
1070
    40
1040
25.0
1070
    42
1040
1.0
1070
   143
1040
0.039
1070
   172
1070
     1
1070
   271
1070
     4
1070
   272
1070
     4
1070
   279
1070
     1
1070
   284
1070
     0
1070
   285
1070
     0
1070
   286
1070
     0
1070
   341
1005
81DD
1070
   343
1005
81DD
1070
   344
1005
84AD
1002
}
  0
DIMENSION
  5
83C7
330
81C9
100
AcDbEntity
  8
3
100
AcDbDimension
  2
*D46
 10
771.5199975370998
 20
1658.184586066368
 30
0.0
 11
771.3326456550348
 21
1534.26412997803
 31
0.0
 70
   160
 71
     5
 42
100.0000000000011
  3
IGA
100
AcDbAlignedDimension
 13
1072.993139438522
 23
1758.184586066369
 33
0.0
 14
1072.993139438522
 24
1658.184586066368
 34
0.0
 50
90.0
100
AcDbRotatedDimension
1001
ACAD
1000
DSTYLE
1002
{
1070
    40
1040
25.0
1070
    42
1040
1.0
1070
   143
1040
0.039
1070
   172
1070
     1
1070
   271
1070
     4
1070
   272
1070
     4
1070
   279
1070
     1
1070
   284
1070
     0
1070
   285
1070
     0
1070
   286
1070
     0
1070
   341
1005
81DD
1070
   343
1005
84AD
1070
   344
1005
81DD
1002
}
  0
DIMENSION
  5
8400
330
81C9
100
AcDbEntity
  8
3
100
AcDbDimension
  2
*D47
 10
444.2565637097651
 20
3083.184586066368
 30
0.0
 11
362.1137065669075
 21
2370.684586066369
 31
0.0
 70
    32
  1
(<>)
 71
     5
 42
1425.0
  3
IGA
100
AcDbAlignedDimension
 13
1072.993139438522
 23
1658.184586066368
 33
0.0
 14
1553.493139438523
 24
3083.184586066368
 34
0.0
 50
90.0
100
AcDbRotatedDimension
1001
ACAD
1000
DSTYLE
1002
{
1070
    40
1040
25.0
1070
    42
1040
1.0
1070
   143
1040
0.039
1070
   172
1070
     1
1070
   271
1070
     4
1070
   272
1070
     4
1070
   279
1070
     0
1070
   284
1070
     0
1070
   285
1070
     0
1070
   286
1070
     0
1070
   341
1005
81DD
1070
   343
1005
81DD
1070
   344
1005
81DD
1002
}
  0
DIMENSION
  5
851A
330
81C9
100
AcDbEntity
  8
3
100
AcDbDimension
  2
*D50
 10
1014.993139438522
 20
3383.813332182234
 30
0.0
 11
1293.993139438522
 21
3446.313332182234
 31
0.0
 70
    32
 71
     5
 42
557.9999999999995
  3
IGA
100
AcDbAlignedDimension
 13
1572.993139438522
 23
3200.003802561565
 33
0.0
 14
1014.993139438522
 24
2479.184586066368
 34
0.0
100
AcDbRotatedDimension
1001
ACAD
1000
DSTYLE
1002
{
1070
    40
1040
25.0
1070
    42
1040
1.0
1070
   143
1040
0.039
1070
   172
1070
     1
1070
   271
1070
     4
1070
   272
1070
     4
1070
   279
1070
     0
1070
   284
1070
     0
1070
   285
1070
     0
1070
   286
1070
     0
1070
   341
1005
81DD
1070
   343
1005
81DD
1070
   344
1005
81DD
1002
}
  0
DIMENSION
  5
8539
330
81C9
100
AcDbEntity
  8
3
100
AcDbDimension
  2
*D51
 10
1014.993139438522
 20
3577.050269644067
 30
0.0
 11
1918.993139438522
 21
3639.550269644067
 31
0.0
 70
    32
 71
     5
 42
1807.999999999999
  3
IGA
100
AcDbAlignedDimension
 13
2822.993139438522
 23
1938.184586066368
 33
0.0
 14
1014.993139438522
 24
2479.184586066368
 34
0.0
100
AcDbRotatedDimension
1001
ACAD
1000
DSTYLE
1002
{
1070
    40
1040
25.0
1070
    42
1040
1.0
1070
   143
1040
0.039
1070
   172
1070
     1
1070
   271
1070
     4
1070
   272
1070
     4
1070
   279
1070
     0
1070
   284
1070
     0
1070
   285
1070
     0
1070
   286
1070
     0
1070
   341
1005
81DD
1070
   343
1005
81DD
1070
   344
1005
81DD
1002
}
  0
ENDSEC
  0
SECTION
  2
OBJECTS
  0
DICTIONARY
  5
8166
330
0
100
AcDbDictionary
281
     1
  3
ACAD_CIP_PREVIOUS_PRODUCT_INFO
350
8211
  3
ACAD_COLOR
350
81BC
  3
ACAD_DETAILVIEWSTYLE
350
81C3
  3
ACAD_GROUP
350
8167
  3
ACAD_LAYOUT
350
81BB
  3
ACAD_MATERIAL
350
816A
  3
ACAD_MLEADERSTYLE
350
81BF
  3
ACAD_MLINESTYLE
350
81B8
  3
ACAD_PLOTSETTINGS
350
81BA
  3
ACAD_PLOTSTYLENAME
350
8168
  3
ACAD_SCALELIST
350
819C
  3
ACAD_SECTIONVIEWSTYLE
350
81C1
  3
ACAD_TABLESTYLE
350
81BD
  3
ACAD_VISUALSTYLE
350
8183
  3
ACDB_RECOMPOSE_DATA
350
8548
  3
AcDbVariableDictionary
350
821C
  3
DWGPROPS
350
8549
  0
DICTIONARY
  5
826A
330
815C
100
AcDbDictionary
280
     1
281
     1
  3
ACAD_LAYERSTATES
360
826B
  0
DICTIONARY
  5
8212
330
81AE
100
AcDbDictionary
280
     1
281
     1
  3
ADSK_XREC_LAYER_RECONCILED
360
8213
  0
DICTIONARY
  5
8214
330
81CD
100
AcDbDictionary
280
     1
281
     1
  3
ADSK_XREC_LAYER_RECONCILED
360
8215
  0
DICTIONARY
  5
8216
330
81D0
100
AcDbDictionary
280
     1
281
     1
  3
ADSK_XREC_LAYER_RECONCILED
360
8217
  0
DICTIONARY
  5
8218
330
81D1
100
AcDbDictionary
280
     1
281
     1
  3
ADSK_XREC_LAYER_RECONCILED
360
8219
  0
DICTIONARY
  5
821A
330
81D2
100
AcDbDictionary
280
     1
281
     1
  3
ADSK_XREC_LAYER_RECONCILED
360
821B
  0
DICTIONARY
  5
8269
330
8268
100
AcDbDictionary
280
     1
281
     1
  0
XRECORD
  5
8211
102
{ACAD_REACTORS
330
8166
102
}
330
8166
100
AcDbXrecord
280
     1
300
ACDLT
300
2015
300
INVLTS_F_S
  0
DICTIONARY
  5
81BC
102
{ACAD_REACTORS
330
8166
102
}
330
8166
100
AcDbDictionary
281
     1
  0
DICTIONARY
  5
81C3
102
{ACAD_REACTORS
330
8166
102
}
330
8166
100
AcDbDictionary
281
     1
  3
Imperial24
350
81C4
  0
DICTIONARY
  5
8167
102
{ACAD_REACTORS
330
8166
102
}
330
8166
100
AcDbDictionary
281
     1
  0
DICTIONARY
  5
81BB
102
{ACAD_REACTORS
330
8166
102
}
330
8166
100
AcDbDictionary
281
     1
  3
Model
350
81CC
  3
レイアウト1
350
81C8
  0
DICTIONARY
  5
816A
102
{ACAD_REACTORS
330
8166
102
}
330
8166
100
AcDbDictionary
281
     1
  3
ByBlock
350
8173
  3
ByLayer
350
816B
  3
Global
350
817B
  0
DICTIONARY
  5
81BF
102
{ACAD_REACTORS
330
8166
102
}
330
8166
100
AcDbDictionary
281
     1
  3
Standard
350
81C0
  0
DICTIONARY
  5
81B8
102
{ACAD_REACTORS
330
8166
102
}
330
8166
100
AcDbDictionary
281
     1
  3
Standard
350
81B9
  0
DICTIONARY
  5
81BA
102
{ACAD_REACTORS
330
8166
102
}
330
8166
100
AcDbDictionary
281
     1
  0
ACDBDICTIONARYWDFLT
  5
8168
102
{ACAD_REACTORS
330
8166
102
}
330
8166
100
AcDbDictionary
281
     1
  3
Normal
350
8169
100
AcDbDictionaryWithDefault
340
8169
  0
DICTIONARY
  5
819C
102
{ACAD_REACTORS
330
8166
102
}
330
8166
100
AcDbDictionary
281
     1
  3
A0
350
819D
  3
A1
350
819E
  3
A2
350
819F
  3
A3
350
81A0
  3
A4
350
81A1
  3
A5
350
81A2
  3
A6
350
81A3
  3
A7
350
81A4
  3
A8
350
81A5
  3
A9
350
81A6
  3
B0
350
81A7
  3
B1
350
81A8
  3
B2
350
81A9
  3
B3
350
81AA
  3
B4
350
81AB
  3
B5
350
81AC
  3
B6
350
81AD
  0
DICTIONARY
  5
81C1
102
{ACAD_REACTORS
330
8166
102
}
330
8166
100
AcDbDictionary
281
     1
  3
Imperial24
350
81C2
  0
DICTIONARY
  5
81BD
102
{ACAD_REACTORS
330
8166
102
}
330
8166
100
AcDbDictionary
281
     1
  3
Standard
350
81BE
  0
DICTIONARY
  5
8183
102
{ACAD_REACTORS
330
8166
102
}
330
8166
100
AcDbDictionary
281
     1
  3
2dWireframe
350
8189
  3
Basic
350
8188
  3
Brighten
350
818F
  3
ColorChange
350
8193
  3
Conceptual
350
818C
  3
Dim
350
818E
  3
EdgeColorOff
350
819B
  3
Facepattern
350
8192
  3
Flat
350
8184
  3
FlatWithEdges
350
8185
  3
Gouraud
350
8186
  3
GouraudWithEdges
350
8187
  3
Hidden
350
818B
  3
JitterOff
350
8199
  3
Linepattern
350
8191
  3
OverhangOff
350
819A
  3
Realistic
350
818D
  3
Shaded
350
8198
  3
Shaded with edges
350
8197
  3
Shades of Gray
350
8194
  3
Sketchy
350
8195
  3
Thicken
350
8190
  3
Wireframe
350
818A
  3
X-Ray
350
8196
  0
XRECORD
  5
8548
102
{ACAD_REACTORS
330
8166
102
}
330
8166
100
AcDbXrecord
280
     1
 90
        1
330
81BE
  0
DICTIONARY
  5
821C
102
{ACAD_REACTORS
330
8166
102
}
330
8166
100
AcDbDictionary
281
     1
  3
CANNOSCALE
350
8221
  3
CMLEADERSTYLE
350
821E
  3
CTABLESTYLE
350
821D
  3
CVIEWDETAILSTYLE
350
821F
  3
CVIEWSECTIONSTYLE
350
8220
  3
DIMASSOC
350
8224
  3
INDEXCTL
350
8223
  3
SORTENTS
350
8222
  3
XCLIPFRAME
350
8225
  0
XRECORD
  5
8549
102
{ACAD_REACTORS
330
8166
102
}
330
8166
100
AcDbXrecord
280
     1
  1
DWGPROPS COOKIE
  2

  3

  4

  6

  7

  8
yasukiyo.ogawa
  9

300
=
301
=
302
=
303
=
304
=
305
=
306
=
307
=
308
=
309
=
 40
0.0200414236111111
 41
2451389.462286342
 42
2460265.713393658
  1

 90
        0
  0
DICTIONARY
  5
826B
102
{ACAD_REACTORS
330
826A
102
}
330
826A
100
AcDbDictionary
281
     1
  0
XRECORD
  5
8213
102
{ACAD_REACTORS
330
8212
102
}
330
8212
100
AcDbXrecord
280
     1
290
     1
  0
XRECORD
  5
8215
102
{ACAD_REACTORS
330
8214
102
}
330
8214
100
AcDbXrecord
280
     1
290
     1
  0
XRECORD
  5
8217
102
{ACAD_REACTORS
330
8216
102
}
330
8216
100
AcDbXrecord
280
     1
290
     1
  0
XRECORD
  5
8219
102
{ACAD_REACTORS
330
8218
102
}
330
8218
100
AcDbXrecord
280
     1
290
     1
  0
XRECORD
  5
821B
102
{ACAD_REACTORS
330
821A
102
}
330
821A
100
AcDbXrecord
280
     1
290
     1
  0
ACDBDETAILVIEWSTYLE
  5
81C4
102
{ACAD_XDICTIONARY
360
8581
102
}
102
{ACAD_REACTORS
330
81C3
102
}
330
81C3
100
AcDbModelDocViewStyle
 70
     0
  3
Imperial24
290
     0
100
AcDbDetailViewStyle
 70
     0
 71
     0
 90
        3
 71
     1
340
81AF
 40
0.24
340
0
 40
0.24
300

 40
0.36
280
     3
 71
     2
340
81B6
 90
       25
 71
     3
340
81AF
 40
0.24
 90
        1
 40
0.75
 90
        1
300
%<\AcVar ViewType \f "%tc1">% %<\AcVar ViewDetailId>%\PSCALE %<\AcVar ViewScale \f "%sn">%
 71
     4
340
81B6
 90
       25
340
81B6
 90
       25
280
     0
  0
LAYOUT
  5
81CC
102
{ACAD_XDICTIONARY
360
8585
102
}
102
{ACAD_REACTORS
330
81BB
102
}
330
81BB
100
AcDbPlotSettings
  1

  2
RICOH imagio MP W3600 RPCS
  4

  6

 40
0.0
 41
0.0
 42
0.0
 43
0.0
 44
0.0
 45
0.0
 46
0.0
 47
0.0
 48
0.0
 49
0.0
140
0.0
141
0.0
142
1.0
143
1.0
 70
  1712
 72
     0
 73
     0
 74
     0
  7

 75
     0
147
1.0
148
0.0
149
0.0
100
AcDbLayout
  1
Model
 70
     1
 71
     0
 10
0.0
 20
0.0
 11
12.0
 21
9.0
 12
0.0
 22
0.0
 32
0.0
 14
0.0
 24
0.0
 34
0.0
 15
0.0
 25
0.0
 35
0.0
146
0.0
 13
0.0
 23
0.0
 33
0.0
 16
1.0
 26
0.0
 36
0.0
 17
0.0
 27
1.0
 37
0.0
 76
     0
330
81C9
331
81CE
  0
LAYOUT
  5
81C8
102
{ACAD_XDICTIONARY
360
8583
102
}
102
{ACAD_REACTORS
330
81BB
102
}
330
81BB
100
AcDbPlotSettings
  1

  2
RICOH imagio MP W3600 RPCS
  4

  6

 40
0.0
 41
0.0
 42
0.0
 43
0.0
 44
0.0
 45
0.0
 46
0.0
 47
0.0
 48
0.0
 49
0.0
140
0.0
141
0.0
142
1.0
143
1.0
 70
   688
 72
     0
 73
     0
 74
     5
  7

 75
    16
147
1.0
148
0.0
149
0.0
100
AcDbLayout
  1
レイアウト1
 70
     1
 71
     1
 10
0.0
 20
0.0
 11
12.0
 21
9.0
 12
0.0
 22
0.0
 32
0.0
 14
1.000000000000000E+20
 24
1.000000000000000E+20
 34
1.000000000000000E+20
 15
-1.000000000000000E+20
 25
-1.000000000000000E+20
 35
-1.000000000000000E+20
146
0.0
 13
0.0
 23
0.0
 33
0.0
 16
1.0
 26
0.0
 36
0.0
 17
0.0
 27
1.0
 37
0.0
 76
     0
330
81C5
  0
MATERIAL
  5
8173
102
{ACAD_XDICTIONARY
360
8174
102
}
102
{ACAD_REACTORS
330
816A
102
}
330
816A
100
AcDbMaterial
  1
ByBlock
 72
     0
 43
0.0208333333333333
 43
0.0
 43
0.0
 43
0.0
 43
0.0
 43
0.0208333333333333
 43
0.0
 43
0.0
 43
0.0
 43
0.0
 43
1.0
 43
0.0
 43
0.0
 43
0.0
 43
0.0
 43
1.0
 77
     0
 47
0.0208333333333333
 47
0.0
 47
0.0
 47
0.0
 47
0.0
 47
0.0208333333333333
 47
0.0
 47
0.0
 47
0.0
 47
0.0
 47
1.0
 47
0.0
 47
0.0
 47
0.0
 47
0.0
 47
1.0
171
     0
 49
0.0208333333333333
 49
0.0
 49
0.0
 49
0.0
 49
0.0
 49
0.0208333333333333
 49
0.0
 49
0.0
 49
0.0
 49
0.0
 49
1.0
 49
0.0
 49
0.0
 49
0.0
 49
0.0
 49
1.0
175
     0
142
0.0208333333333333
142
0.0
142
0.0
142
0.0
142
0.0
142
0.0208333333333333
142
0.0
142
0.0
142
0.0
142
0.0
142
1.0
142
0.0
142
0.0
142
0.0
142
0.0
142
1.0
179
     0
144
0.0208333333333333
144
0.0
144
0.0
144
0.0
144
0.0
144
0.0208333333333333
144
0.0
144
0.0
144
0.0
144
0.0
144
1.0
144
0.0
144
0.0
144
0.0
144
0.0
144
1.0
147
0.0208333333333333
147
0.0
147
0.0
147
0.0
147
0.0
147
0.0208333333333333
147
0.0
147
0.0
147
0.0
147
0.0
147
1.0
147
0.0
147
0.0
147
0.0
147
0.0
147
1.0
  0
MATERIAL
  5
816B
102
{ACAD_XDICTIONARY
360
816C
102
}
102
{ACAD_REACTORS
330
816A
102
}
330
816A
100
AcDbMaterial
  1
ByLayer
 72
     0
 43
0.0208333333333333
 43
0.0
 43
0.0
 43
0.0
 43
0.0
 43
0.0208333333333333
 43
0.0
 43
0.0
 43
0.0
 43
0.0
 43
1.0
 43
0.0
 43
0.0
 43
0.0
 43
0.0
 43
1.0
 77
     0
 47
0.0208333333333333
 47
0.0
 47
0.0
 47
0.0
 47
0.0
 47
0.0208333333333333
 47
0.0
 47
0.0
 47
0.0
 47
0.0
 47
1.0
 47
0.0
 47
0.0
 47
0.0
 47
0.0
 47
1.0
171
     0
 49
0.0208333333333333
 49
0.0
 49
0.0
 49
0.0
 49
0.0
 49
0.0208333333333333
 49
0.0
 49
0.0
 49
0.0
 49
0.0
 49
1.0
 49
0.0
 49
0.0
 49
0.0
 49
0.0
 49
1.0
175
     0
142
0.0208333333333333
142
0.0
142
0.0
142
0.0
142
0.0
142
0.0208333333333333
142
0.0
142
0.0
142
0.0
142
0.0
142
1.0
142
0.0
142
0.0
142
0.0
142
0.0
142
1.0
179
     0
144
0.0208333333333333
144
0.0
144
0.0
144
0.0
144
0.0
144
0.0208333333333333
144
0.0
144
0.0
144
0.0
144
0.0
144
1.0
144
0.0
144
0.0
144
0.0
144
0.0
144
1.0
147
0.0208333333333333
147
0.0
147
0.0
147
0.0
147
0.0
147
0.0208333333333333
147
0.0
147
0.0
147
0.0
147
0.0
147
1.0
147
0.0
147
0.0
147
0.0
147
0.0
147
1.0
  0
MATERIAL
  5
817B
102
{ACAD_XDICTIONARY
360
817C
102
}
102
{ACAD_REACTORS
330
816A
102
}
330
816A
100
AcDbMaterial
  1
Global
 72
     0
 43
0.0208333333333333
 43
0.0
 43
0.0
 43
0.0
 43
0.0
 43
0.0208333333333333
 43
0.0
 43
0.0
 43
0.0
 43
0.0
 43
1.0
 43
0.0
 43
0.0
 43
0.0
 43
0.0
 43
1.0
 77
     0
 47
0.0208333333333333
 47
0.0
 47
0.0
 47
0.0
 47
0.0
 47
0.0208333333333333
 47
0.0
 47
0.0
 47
0.0
 47
0.0
 47
1.0
 47
0.0
 47
0.0
 47
0.0
 47
0.0
 47
1.0
171
     0
 49
0.0208333333333333
 49
0.0
 49
0.0
 49
0.0
 49
0.0
 49
0.0208333333333333
 49
0.0
 49
0.0
 49
0.0
 49
0.0
 49
1.0
 49
0.0
 49
0.0
 49
0.0
 49
0.0
 49
1.0
175
     0
142
0.0208333333333333
142
0.0
142
0.0
142
0.0
142
0.0
142
0.0208333333333333
142
0.0
142
0.0
142
0.0
142
0.0
142
1.0
142
0.0
142
0.0
142
0.0
142
0.0
142
1.0
179
     0
144
0.0208333333333333
144
0.0
144
0.0
144
0.0
144
0.0
144
0.0208333333333333
144
0.0
144
0.0
144
0.0
144
0.0
144
1.0
144
0.0
144
0.0
144
0.0
144
0.0
144
1.0
147
0.0208333333333333
147
0.0
147
0.0
147
0.0
147
0.0
147
0.0208333333333333
147
0.0
147
0.0
147
0.0
147
0.0
147
1.0
147
0.0
147
0.0
147
0.0
147
0.0
147
1.0
  0
MLEADERSTYLE
  5
81C0
102
{ACAD_REACTORS
330
81BF
102
}
330
81BF
100
AcDbMLeaderStyle
170
     2
171
     1
172
     0
 90
        2
 40
0.0
 41
0.0
173
     1
 91
-1056964608
340
81B4
 92
       -2
290
     1
 42
0.09
291
     1
 43
0.36
  3
Standard
 44
0.18
300

342
81AF
174
     1
178
     6
175
     1
176
     0
 93
-1056964608
 45
0.18
292
     0
297
     0
 46
0.18
 94
-1056964608
 47
1.0
 49
1.0
140
1.0
293
     1
141
0.0
294
     1
177
     0
142
1.0
295
     0
296
     0
143
0.125
1001
ACAD_MLEADERVER
1070
     2
  0
MLINESTYLE
  5
81B9
102
{ACAD_REACTORS
330
81B8
102
}
330
81B8
100
AcDbMlineStyle
  2
STANDARD
 70
     0
  3

 62
   256
 51
90.0
 52
90.0
 71
     2
 49
0.5
 62
   256
  6
BYLAYER
 49
-0.5
 62
   256
  6
BYLAYER
  0
ACDBPLACEHOLDER
  5
8169
102
{ACAD_REACTORS
330
8168
102
}
330
8168
  0
SCALE
  5
819D
102
{ACAD_REACTORS
330
819C
102
}
330
819C
100
AcDbScale
 70
     0
300
1:1
140
1.0
141
1.0
290
     1
  0
SCALE
  5
819E
102
{ACAD_REACTORS
330
819C
102
}
330
819C
100
AcDbScale
 70
     0
300
1/128" = 1'-0"
140
0.0078125
141
12.0
290
     0
  0
SCALE
  5
819F
102
{ACAD_REACTORS
330
819C
102
}
330
819C
100
AcDbScale
 70
     0
300
1/64" = 1'-0"
140
0.015625
141
12.0
290
     0
  0
SCALE
  5
81A0
102
{ACAD_REACTORS
330
819C
102
}
330
819C
100
AcDbScale
 70
     0
300
1/32" = 1'-0"
140
0.03125
141
12.0
290
     0
  0
SCALE
  5
81A1
102
{ACAD_REACTORS
330
819C
102
}
330
819C
100
AcDbScale
 70
     0
300
1/16" = 1'-0"
140
0.0625
141
12.0
290
     0
  0
SCALE
  5
81A2
102
{ACAD_REACTORS
330
819C
102
}
330
819C
100
AcDbScale
 70
     0
300
3/32" = 1'-0"
140
0.09375
141
12.0
290
     0
  0
SCALE
  5
81A3
102
{ACAD_REACTORS
330
819C
102
}
330
819C
100
AcDbScale
 70
     0
300
1/8" = 1'-0"
140
0.125
141
12.0
290
     0
  0
SCALE
  5
81A4
102
{ACAD_REACTORS
330
819C
102
}
330
819C
100
AcDbScale
 70
     0
300
3/16" = 1'-0"
140
0.1875
141
12.0
290
     0
  0
SCALE
  5
81A5
102
{ACAD_REACTORS
330
819C
102
}
330
819C
100
AcDbScale
 70
     0
300
1/4" = 1'-0"
140
0.25
141
12.0
290
     0
  0
SCALE
  5
81A6
102
{ACAD_REACTORS
330
819C
102
}
330
819C
100
AcDbScale
 70
     0
300
3/8" = 1'-0"
140
0.375
141
12.0
290
     0
  0
SCALE
  5
81A7
102
{ACAD_REACTORS
330
819C
102
}
330
819C
100
AcDbScale
 70
     0
300
1/2" = 1'-0"
140
0.5
141
12.0
290
     0
  0
SCALE
  5
81A8
102
{ACAD_REACTORS
330
819C
102
}
330
819C
100
AcDbScale
 70
     0
300
3/4" = 1'-0"
140
0.75
141
12.0
290
     0
  0
SCALE
  5
81A9
102
{ACAD_REACTORS
330
819C
102
}
330
819C
100
AcDbScale
 70
     0
300
1" = 1'-0"
140
1.0
141
12.0
290
     0
  0
SCALE
  5
81AA
102
{ACAD_REACTORS
330
819C
102
}
330
819C
100
AcDbScale
 70
     0
300
1-1/2" = 1'-0"
140
1.5
141
12.0
290
     0
  0
SCALE
  5
81AB
102
{ACAD_REACTORS
330
819C
102
}
330
819C
100
AcDbScale
 70
     0
300
3" = 1'-0"
140
3.0
141
12.0
290
     0
  0
SCALE
  5
81AC
102
{ACAD_REACTORS
330
819C
102
}
330
819C
100
AcDbScale
 70
     0
300
6" = 1'-0"
140
6.0
141
12.0
290
     0
  0
SCALE
  5
81AD
102
{ACAD_REACTORS
330
819C
102
}
330
819C
100
AcDbScale
 70
     0
300
1'-0" = 1'-0"
140
12.0
141
12.0
290
     0
  0
ACDBSECTIONVIEWSTYLE
  5
81C2
102
{ACAD_XDICTIONARY
360
857F
102
}
102
{ACAD_REACTORS
330
81C1
102
}
330
81C1
100
AcDbModelDocViewStyle
 70
     0
  3
Imperial24
290
     0
100
AcDbSectionViewStyle
 70
     0
 71
     0
 90
       78
 71
     1
340
81AF
 40
0.24
340
0
340
0
 40
0.24
300
I, O, Q, S, X, Z
 40
0.48
 90
        3
 40
0.18
 90
        1
 71
     2
340
81B6
 90
       25
340
81B6
 90
       50
 40
0.24
 40
0.0
 40
0.24
 71
     3
340
81AF
 40
0.24
 90
        1
 40
0.75
 90
        1
300
%<\AcVar ViewType \f "%tc1">% %<\AcVar ViewSectionStartId>%-%<\AcVar ViewSectionEndId>%\PSCALE %<\AcVar ViewScale \f "%sn">%
 71
     4
300
ANSI31
 40
1.0
 90
        0
290
     0
290
     0
 90
        6
 40
0.0
 40
1.570796326794896
 40
0.2617993877991494
 40
1.308996938995747
 40
-0.2617993877991494
 40
1.832595714594046
  0
TABLESTYLE
  5
81BE
102
{ACAD_XDICTIONARY
360
8546
102
}
102
{ACAD_REACTORS
330
81BD
102
}
330
81BD
100
AcDbTableStyle
  3
Standard
 70
     0
 71
     0
 40
0.06
 41
0.06
280
     0
281
     0
  7
STANDARD
140
0.18
170
     2
 62
     0
 63
     7
283
     0
274
    -2
284
     1
 64
     0
275
    -2
285
     1
 65
     0
276
    -2
286
     1
 66
     0
277
    -2
287
     1
 67
     0
278
    -2
288
     1
 68
     0
279
    -2
289
     1
 69
     0
  7
STANDARD
140
0.25
170
     5
 62
     0
 63
     7
283
     0
274
    -2
284
     1
 64
     0
275
    -2
285
     1
 65
     0
276
    -2
286
     1
 66
     0
277
    -2
287
     1
 67
     0
278
    -2
288
     1
 68
     0
279
    -2
289
     1
 69
     0
  7
STANDARD
140
0.18
170
     5
 62
     0
 63
     7
283
     0
274
    -2
284
     1
 64
     0
275
    -2
285
     1
 65
     0
276
    -2
286
     1
 66
     0
277
    -2
287
     1
 67
     0
278
    -2
288
     1
 68
     0
279
    -2
289
     1
 69
     0
  0
VISUALSTYLE
  5
8189
102
{ACAD_XDICTIONARY
360
8557
102
}
102
{ACAD_REACTORS
330
8183
102
}
330
8183
100
AcDbVisualStyle
  2
2dWireframe
 70
     4
 71
     0
 72
     2
 73
     0
 90
        0
 40
-0.6
 41
-30.0
 62
     5
 63
     7
 74
     1
 91
        4
 64
     7
 65
   257
 75
     1
175
     1
 42
1.0
 92
        0
 66
   257
 43
1.0
 76
     1
 77
     6
 78
     2
 67
     7
 79
     5
170
     0
171
     0
290
     0
174
     0
 93
        1
 44
0.0
173
     0
291
     0
 45
0.0
1001
ACAD
1000
AcDbSavedByObjectVersion
1070
     0
  0
VISUALSTYLE
  5
8188
102
{ACAD_XDICTIONARY
360
8555
102
}
102
{ACAD_REACTORS
330
8183
102
}
330
8183
100
AcDbVisualStyle
  2
Basic
 70
     7
 71
     1
 72
     0
 73
     1
 90
        0
 40
-0.6
 41
-30.0
 62
     5
 63
     7
 74
     0
 91
        4
 64
     7
 65
   257
 75
     1
175
     1
 42
1.0
 92
        8
 66
     7
 43
1.0
 76
     1
 77
     6
 78
     2
 67
     7
 79
     5
170
     0
171
     0
290
     0
174
     0
 93
        1
 44
0.0
173
     0
291
     1
 45
0.0
1001
ACAD
1000
AcDbSavedByObjectVersion
1070
     0
  0
VISUALSTYLE
  5
818F
102
{ACAD_XDICTIONARY
360
8563
102
}
102
{ACAD_REACTORS
330
8183
102
}
330
8183
100
AcDbVisualStyle
  2
Brighten
 70
    12
 71
     2
 72
     2
 73
     0
 90
        0
 40
-0.6
 41
-30.0
 62
     5
 63
     7
 74
     1
 91
        4
 64
     7
 65
   257
 75
     1
175
     1
 42
1.0
 92
        8
 66
     7
 43
1.0
 76
     1
 77
     6
 78
     2
 67
     7
 79
     5
170
     0
171
     0
290
     0
174
     0
 93
        1
 44
50.0
173
     0
291
     1
 45
0.0
1001
ACAD
1000
AcDbSavedByObjectVersion
1070
     0
  0
VISUALSTYLE
  5
8193
102
{ACAD_XDICTIONARY
360
856B
102
}
102
{ACAD_REACTORS
330
8183
102
}
330
8183
100
AcDbVisualStyle
  2
ColorChange
 70
    16
 71
     2
 72
     2
 73
     3
 90
        0
 40
-0.6
 41
-30.0
 62
     5
 63
     8
 74
     1
 91
        4
 64
     7
 65
   257
 75
     1
175
     1
 42
1.0
 92
        8
 66
     8
 43
1.0
 76
     1
 77
     6
 78
     2
 67
     7
 79
     5
170
     0
171
     0
290
     0
174
     0
 93
        1
 44
0.0
173
     0
291
     1
 45
0.0
1001
ACAD
1000
AcDbSavedByObjectVersion
1070
     0
  0
VISUALSTYLE
  5
818C
102
{ACAD_XDICTIONARY
360
855D
102
}
102
{ACAD_REACTORS
330
8183
102
}
330
8183
100
AcDbVisualStyle
  2
Conceptual
 70
     9
 71
     3
 72
     2
 73
     0
 90
        0
 40
-0.6
 41
-30.0
 62
     5
 63
     7
 74
     2
 91
        2
 64
     7
 65
   257
 75
     1
175
     1
 42
179.0
 92
        8
 66
     7
 43
1.0
 76
     1
 77
     6
 78
     2
 67
     7
 79
     3
170
     0
171
     0
290
     0
174
     0
 93
        1
 44
0.0
173
     0
291
     0
 45
0.0
1001
ACAD
1000
AcDbSavedByObjectVersion
1070
     0
  0
VISUALSTYLE
  5
818E
102
{ACAD_XDICTIONARY
360
8561
102
}
102
{ACAD_REACTORS
330
8183
102
}
330
8183
100
AcDbVisualStyle
  2
Dim
 70
    11
 71
     2
 72
     2
 73
     0
 90
        0
 40
-0.6
 41
-30.0
 62
     5
 63
     7
 74
     1
 91
        4
 64
     7
 65
   257
 75
     1
175
     1
 42
1.0
 92
        8
 66
     7
 43
1.0
 76
     1
 77
     6
 78
     2
 67
     7
 79
     5
170
     0
171
     0
290
     0
174
     0
 93
        1
 44
-50.0
173
     0
291
     1
 45
0.0
1001
ACAD
1000
AcDbSavedByObjectVersion
1070
     0
  0
VISUALSTYLE
  5
819B
102
{ACAD_XDICTIONARY
360
857B
102
}
102
{ACAD_REACTORS
330
8183
102
}
330
8183
100
AcDbVisualStyle
  2
EdgeColorOff
 70
    22
 71
     2
 72
     2
 73
     0
 90
        0
 40
-0.6
 41
-30.0
 62
     5
 63
     7
 74
     1
 91
        4
 64
     7
 65
   257
 75
     1
175
     1
 42
1.0
 92
        8
 66
     7
 43
1.0
 76
     1
 77
     6
 78
     2
 67
     7
 79
     5
170
     0
171
     0
290
     0
174
     0
 93
        1
 44
0.0
173
     0
291
     1
 45
0.0
1001
ACAD
1000
AcDbSavedByObjectVersion
1070
     0
  0
VISUALSTYLE
  5
8192
102
{ACAD_XDICTIONARY
360
8569
102
}
102
{ACAD_REACTORS
330
8183
102
}
330
8183
100
AcDbVisualStyle
  2
Facepattern
 70
    15
 71
     2
 72
     2
 73
     0
 90
        0
 40
-0.6
 41
-30.0
 62
     5
 63
     7
 74
     1
 91
        4
 64
     7
 65
   257
 75
     1
175
     1
 42
1.0
 92
        8
 66
     7
 43
1.0
 76
     1
 77
     6
 78
     2
 67
     7
 79
     5
170
     0
171
     0
290
     0
174
     0
 93
        1
 44
0.0
173
     0
291
     1
 45
0.0
1001
ACAD
1000
AcDbSavedByObjectVersion
1070
     0
  0
VISUALSTYLE
  5
8184
102
{ACAD_XDICTIONARY
360
854D
102
}
102
{ACAD_REACTORS
330
8183
102
}
330
8183
100
AcDbVisualStyle
  2
Flat
 70
     0
 71
     2
 72
     1
 73
     1
 90
        2
 40
-0.6
 41
30.0
 62
     5
 63
     7
 74
     0
 91
        0
 64
     7
 65
   257
 75
     1
175
     1
 42
1.0
 92
        8
 66
     7
 43
1.0
 76
     1
 77
     6
 78
     2
 67
     7
 79
     5
170
     0
171
     0
290
     0
174
     0
 93
       13
 44
0.0
173
     0
291
     1
 45
0.0
1001
ACAD
1000
AcDbSavedByObjectVersion
1070
     0
  0
VISUALSTYLE
  5
8185
102
{ACAD_XDICTIONARY
360
854F
102
}
102
{ACAD_REACTORS
330
8183
102
}
330
8183
100
AcDbVisualStyle
  2
FlatWithEdges
 70
     1
 71
     2
 72
     1
 73
     1
 90
        2
 40
-0.6
 41
30.0
 62
     5
 63
     7
 74
     1
 91
        0
 64
     7
 65
   257
 75
     1
175
     1
 42
1.0
 92
        0
 66
   257
 43
1.0
 76
     1
 77
     6
 78
     2
 67
     7
 79
     5
170
     0
171
     0
290
     0
174
     0
 93
       13
 44
0.0
173
     0
291
     1
 45
0.0
1001
ACAD
1000
AcDbSavedByObjectVersion
1070
     0
  0
VISUALSTYLE
  5
8186
102
{ACAD_XDICTIONARY
360
8551
102
}
102
{ACAD_REACTORS
330
8183
102
}
330
8183
100
AcDbVisualStyle
  2
Gouraud
 70
     2
 71
     2
 72
     2
 73
     1
 90
        2
 40
-0.6
 41
30.0
 62
     5
 63
     7
 74
     0
 91
        0
 64
     7
 65
   257
 75
     1
175
     1
 42
1.0
 92
        0
 66
     7
 43
1.0
 76
     1
 77
     6
 78
     2
 67
     7
 79
     5
170
     0
171
     0
290
     0
174
     0
 93
       13
 44
0.0
173
     0
291
     1
 45
0.0
1001
ACAD
1000
AcDbSavedByObjectVersion
1070
     0
  0
VISUALSTYLE
  5
8187
102
{ACAD_XDICTIONARY
360
8553
102
}
102
{ACAD_REACTORS
330
8183
102
}
330
8183
100
AcDbVisualStyle
  2
GouraudWithEdges
 70
     3
 71
     2
 72
     2
 73
     1
 90
        2
 40
-0.6
 41
30.0
 62
     5
 63
     7
 74
     1
 91
        0
 64
     7
 65
   257
 75
     1
175
     1
 42
1.0
 92
        0
 66
   257
 43
1.0
 76
     1
 77
     6
 78
     2
 67
     7
 79
     5
170
     0
171
     0
290
     0
174
     0
 93
       13
 44
0.0
173
     0
291
     1
 45
0.0
1001
ACAD
1000
AcDbSavedByObjectVersion
1070
     0
  0
VISUALSTYLE
  5
818B
102
{ACAD_XDICTIONARY
360
855B
102
}
102
{ACAD_REACTORS
330
8183
102
}
330
8183
100
AcDbVisualStyle
  2
Hidden
 70
     6
 71
     1
 72
     2
 73
     2
 90
        0
 40
-0.6
 41
-30.0
 62
     5
 63
     7
 74
     2
 91
        2
 64
     7
 65
   257
 75
     2
175
     1
 42
40.0
 92
        0
 66
   257
 43
1.0
 76
     1
 77
     6
 78
     2
 67
     7
 79
     3
170
     0
171
     0
290
     0
174
     0
 93
        1
 44
0.0
173
     0
291
     0
 45
0.0
1001
ACAD
1000
AcDbSavedByObjectVersion
1070
     0
  0
VISUALSTYLE
  5
8199
102
{ACAD_XDICTIONARY
360
8577
102
}
102
{ACAD_REACTORS
330
8183
102
}
330
8183
100
AcDbVisualStyle
  2
JitterOff
 70
    20
 71
     2
 72
     2
 73
     0
 90
        0
 40
-0.6
 41
-30.0
 62
     5
 63
     7
 74
     1
 91
        4
 64
     7
 65
   257
 75
     1
175
     1
 42
1.0
 92
       10
 66
     7
 43
1.0
 76
     1
 77
     6
 78
     2
 67
     7
 79
     5
170
     0
171
     0
290
     0
174
     0
 93
        1
 44
0.0
173
     0
291
     1
 45
0.0
1001
ACAD
1000
AcDbSavedByObjectVersion
1070
     0
  0
VISUALSTYLE
  5
8191
102
{ACAD_XDICTIONARY
360
8567
102
}
102
{ACAD_REACTORS
330
8183
102
}
330
8183
100
AcDbVisualStyle
  2
Linepattern
 70
    14
 71
     2
 72
     2
 73
     0
 90
        0
 40
-0.6
 41
-30.0
 62
     5
 63
     7
 74
     1
 91
        4
 64
     7
 65
   257
 75
     7
175
     7
 42
1.0
 92
        8
 66
     7
 43
1.0
 76
     1
 77
     6
 78
     2
 67
     7
 79
     5
170
     0
171
     0
290
     0
174
     0
 93
        1
 44
0.0
173
     0
291
     1
 45
0.0
1001
ACAD
1000
AcDbSavedByObjectVersion
1070
     0
  0
VISUALSTYLE
  5
819A
102
{ACAD_XDICTIONARY
360
8579
102
}
102
{ACAD_REACTORS
330
8183
102
}
330
8183
100
AcDbVisualStyle
  2
OverhangOff
 70
    21
 71
     2
 72
     2
 73
     0
 90
        0
 40
-0.6
 41
-30.0
 62
     5
 63
     7
 74
     1
 91
        4
 64
     7
 65
   257
 75
     1
175
     1
 42
1.0
 92
        9
 66
     7
 43
1.0
 76
     1
 77
     6
 78
     2
 67
     7
 79
     5
170
     0
171
     0
290
     0
174
     0
 93
        1
 44
0.0
173
     0
291
     1
 45
0.0
1001
ACAD
1000
AcDbSavedByObjectVersion
1070
     0
  0
VISUALSTYLE
  5
818D
102
{ACAD_XDICTIONARY
360
855F
102
}
102
{ACAD_REACTORS
330
8183
102
}
330
8183
100
AcDbVisualStyle
  2
Realistic
 70
     8
 71
     2
 72
     3
 73
     0
 90
        2
 40
-0.6
 41
30.0
 62
     5
 63
     7
 74
     0
 91
        0
 64
     7
 65
   257
 75
     1
175
     1
 42
1.0
 92
        8
 66
   257
 43
1.0
 76
     1
 77
     6
 78
     2
 67
     7
 79
     3
170
     0
171
     0
290
     0
174
     0
 93
       13
 44
0.0
173
     0
291
     0
 45
0.0
1001
ACAD
1000
AcDbSavedByObjectVersion
1070
     0
  0
VISUALSTYLE
  5
8198
102
{ACAD_XDICTIONARY
360
8575
102
}
102
{ACAD_REACTORS
330
8183
102
}
330
8183
100
AcDbVisualStyle
  2
Shaded
 70
    27
 71
     2
 72
     2
 73
     1
 90
        2
 40
-0.6
 41
30.0
 62
     5
 63
     7
 74
     0
 91
        4
 64
     7
 65
   257
 75
     1
175
     1
 42
1.0
 92
        8
 66
   257
 43
1.0
 76
     1
 77
     6
 78
     2
 67
     8
 79
     3
170
     0
171
     0
290
     0
174
     0
 93
        5
 44
0.0
173
     0
291
     0
 45
0.0
1001
ACAD
1000
AcDbSavedByObjectVersion
1070
     0
  0
VISUALSTYLE
  5
8197
102
{ACAD_XDICTIONARY
360
8573
102
}
102
{ACAD_REACTORS
330
8183
102
}
330
8183
100
AcDbVisualStyle
  2
Shaded with edges
 70
    26
 71
     2
 72
     2
 73
     1
 90
        2
 40
-0.6
 41
30.0
 62
     5
 63
     7
 74
     1
 91
       10
 64
     7
 65
   257
 75
     2
175
     1
 42
1.0
 92
        8
 66
   257
 43
1.0
 76
     1
 77
     6
 78
     2
 67
     7
 79
     3
170
     0
171
     0
290
     0
174
     0
 93
        5
 44
0.0
173
     0
291
     0
 45
0.0
1001
ACAD
1000
AcDbSavedByObjectVersion
1070
     0
  0
VISUALSTYLE
  5
8194
102
{ACAD_XDICTIONARY
360
856D
102
}
102
{ACAD_REACTORS
330
8183
102
}
330
8183
100
AcDbVisualStyle
  2
Shades of Gray
 70
    23
 71
     2
 72
     2
 73
     3
 90
        0
 40
-0.6
 41
-30.0
 62
     5
 63
     7
 74
     2
 91
        2
 64
     7
 65
     7
 75
     1
175
     1
 42
40.0
 92
        8
 66
     7
 43
1.0
 76
     1
 77
     6
 78
     2
 67
     7
 79
     3
170
     0
171
     0
290
     0
174
     0
 93
        1
 44
0.0
173
     0
291
     0
 45
0.0
1001
ACAD
1000
AcDbSavedByObjectVersion
1070
     0
  0
VISUALSTYLE
  5
8195
102
{ACAD_XDICTIONARY
360
856F
102
}
102
{ACAD_REACTORS
330
8183
102
}
330
8183
100
AcDbVisualStyle
  2
Sketchy
 70
    24
 71
     1
 72
     2
 73
     2
 90
        0
 40
-0.6
 41
-30.0
 62
     5
 63
     7
 74
     2
 91
        2
 64
     7
 65
     7
 75
     1
175
     1
 42
40.0
 92
       11
 66
     7
 43
1.0
 76
     1
 77
     6
 78
     2
 67
     7
 79
     6
170
     0
171
     0
290
     0
174
     0
 93
        1
 44
0.0
173
     0
291
     0
 45
0.0
1001
ACAD
1000
AcDbSavedByObjectVersion
1070
     0
  0
VISUALSTYLE
  5
8190
102
{ACAD_XDICTIONARY
360
8565
102
}
102
{ACAD_REACTORS
330
8183
102
}
330
8183
100
AcDbVisualStyle
  2
Thicken
 70
    13
 71
     2
 72
     2
 73
     0
 90
        0
 40
-0.6
 41
-30.0
 62
     5
 63
     7
 74
     1
 91
        4
 64
     7
 65
   257
 75
     1
175
     1
 42
1.0
 92
       12
 66
     7
 43
1.0
 76
     1
 77
     6
 78
     2
 67
     7
 79
     5
170
     0
171
     0
290
     0
174
     0
 93
        1
 44
0.0
173
     0
291
     1
 45
0.0
1001
ACAD
1000
AcDbSavedByObjectVersion
1070
     0
  0
VISUALSTYLE
  5
818A
102
{ACAD_XDICTIONARY
360
8559
102
}
102
{ACAD_REACTORS
330
8183
102
}
330
8183
100
AcDbVisualStyle
  2
Wireframe
 70
     5
 71
     0
 72
     2
 73
     0
 90
        0
 40
-0.6
 41
-30.0
 62
     5
 63
     7
 74
     1
 91
        4
 64
     7
 65
   257
 75
     1
175
     1
 42
1.0
 92
        0
 66
   257
 43
1.0
 76
     1
 77
     6
 78
     2
 67
     7
 79
     3
170
     0
171
     0
290
     0
174
     0
 93
        1
 44
0.0
173
     0
291
     0
 45
0.0
1001
ACAD
1000
AcDbSavedByObjectVersion
1070
     0
  0
VISUALSTYLE
  5
8196
102
{ACAD_XDICTIONARY
360
8571
102
}
102
{ACAD_REACTORS
330
8183
102
}
330
8183
100
AcDbVisualStyle
  2
X-Ray
 70
    25
 71
     2
 72
     2
 73
     1
 90
        1
 40
0.5
 41
-30.0
 62
     5
 63
     7
 74
     1
 91
        0
 64
     7
 65
   257
 75
     1
175
     1
 42
1.0
 92
        8
 66
     7
 43
1.0
 76
     1
 77
     6
 78
     2
 67
     7
 79
     3
170
     0
171
     0
290
     0
174
     0
 93
       13
 44
0.0
173
     0
291
     0
 45
0.0
1001
ACAD
1000
AcDbSavedByObjectVersion
1070
     0
  0
DICTIONARYVAR
  5
8221
102
{ACAD_REACTORS
330
821C
102
}
330
821C
100
DictionaryVariables
280
     0
  1
1:1
  0
DICTIONARYVAR
  5
821E
102
{ACAD_REACTORS
330
821C
102
}
330
821C
100
DictionaryVariables
280
     0
  1
STANDARD
  0
DICTIONARYVAR
  5
821D
102
{ACAD_REACTORS
330
821C
102
}
330
821C
100
DictionaryVariables
280
     0
  1
STANDARD
  0
DICTIONARYVAR
  5
821F
102
{ACAD_REACTORS
330
821C
102
}
330
821C
100
DictionaryVariables
280
     0
  1
Imperial24
  0
DICTIONARYVAR
  5
8220
102
{ACAD_REACTORS
330
821C
102
}
330
821C
100
DictionaryVariables
280
     0
  1
Imperial24
  0
DICTIONARYVAR
  5
8224
102
{ACAD_REACTORS
330
821C
102
}
330
821C
100
DictionaryVariables
280
     0
  1
1
  0
DICTIONARYVAR
  5
8223
102
{ACAD_REACTORS
330
821C
102
}
330
821C
100
DictionaryVariables
280
     0
  1
0
  0
DICTIONARYVAR
  5
8222
102
{ACAD_REACTORS
330
821C
102
}
330
821C
100
DictionaryVariables
280
     0
  1
127
  0
DICTIONARYVAR
  5
8225
102
{ACAD_REACTORS
330
821C
102
}
330
821C
100
DictionaryVariables
280
     0
  1
2
  0
DICTIONARY
  5
8581
330
81C4
100
AcDbDictionary
280
     1
281
     1
  3
ACAD_XREC_ROUNDTRIP
360
8582
  0
DICTIONARY
  5
8585
330
81CC
100
AcDbDictionary
280
     1
281
     1
  3
ACAD_XREC_ROUNDTRIP
360
8586
  0
DICTIONARY
  5
8583
330
81C8
100
AcDbDictionary
280
     1
281
     1
  3
ACAD_XREC_ROUNDTRIP
360
8584
  0
DICTIONARY
  5
8174
330
8173
100
AcDbDictionary
280
     1
281
     1
  3
ACAD_XREC_ROUNDTRIP
360
854B
  3
BUMPTILE
360
8176
  3
DIFFUSETILE
360
8175
  3
OPACITYTILE
360
8179
  3
REFLECTIONTILE
360
8178
  3
REFRACTIONTILE
360
817A
  3
SPECULARTILE
360
8177
  0
DICTIONARY
  5
816C
330
816B
100
AcDbDictionary
280
     1
281
     1
  3
ACAD_XREC_ROUNDTRIP
360
854A
  3
BUMPTILE
360
816E
  3
DIFFUSETILE
360
816D
  3
OPACITYTILE
360
8171
  3
REFLECTIONTILE
360
8170
  3
REFRACTIONTILE
360
8172
  3
SPECULARTILE
360
816F
  0
DICTIONARY
  5
817C
330
817B
100
AcDbDictionary
280
     1
281
     1
  3
ACAD_XREC_ROUNDTRIP
360
854C
  3
BUMPTILE
360
817E
  3
DIFFUSETILE
360
817D
  3
FBXASSET
360
8290
  3
OPACITYTILE
360
8181
  3
REFLECTIONTILE
360
8180
  3
REFRACTIONTILE
360
8182
  3
SPECULARTILE
360
817F
  0
DICTIONARY
  5
857F
330
81C2
100
AcDbDictionary
280
     1
281
     1
  3
ACAD_XREC_ROUNDTRIP
360
8580
  0
DICTIONARY
  5
8546
330
81BE
100
AcDbDictionary
280
     1
281
     1
  3
ACAD_ROUNDTRIP_2008_TABLESTYLE_CELLSTYLEMAP
360
8547
  3
ACAD_XREC_ROUNDTRIP
360
857D
  0
DICTIONARY
  5
8557
330
8189
100
AcDbDictionary
280
     1
281
     1
  3
ACAD_XREC_ROUNDTRIP
360
8558
  0
DICTIONARY
  5
8555
330
8188
100
AcDbDictionary
280
     1
281
     1
  3
ACAD_XREC_ROUNDTRIP
360
8556
  0
DICTIONARY
  5
8563
330
818F
100
AcDbDictionary
280
     1
281
     1
  3
ACAD_XREC_ROUNDTRIP
360
8564
  0
DICTIONARY
  5
856B
330
8193
100
AcDbDictionary
280
     1
281
     1
  3
ACAD_XREC_ROUNDTRIP
360
856C
  0
DICTIONARY
  5
855D
330
818C
100
AcDbDictionary
280
     1
281
     1
  3
ACAD_XREC_ROUNDTRIP
360
855E
  0
DICTIONARY
  5
8561
330
818E
100
AcDbDictionary
280
     1
281
     1
  3
ACAD_XREC_ROUNDTRIP
360
8562
  0
DICTIONARY
  5
857B
330
819B
100
AcDbDictionary
280
     1
281
     1
  3
ACAD_XREC_ROUNDTRIP
360
857C
  0
DICTIONARY
  5
8569
330
8192
100
AcDbDictionary
280
     1
281
     1
  3
ACAD_XREC_ROUNDTRIP
360
856A
  0
DICTIONARY
  5
854D
330
8184
100
AcDbDictionary
280
     1
281
     1
  3
ACAD_XREC_ROUNDTRIP
360
854E
  0
DICTIONARY
  5
854F
330
8185
100
AcDbDictionary
280
     1
281
     1
  3
ACAD_XREC_ROUNDTRIP
360
8550
  0
DICTIONARY
  5
8551
330
8186
100
AcDbDictionary
280
     1
281
     1
  3
ACAD_XREC_ROUNDTRIP
360
8552
  0
DICTIONARY
  5
8553
330
8187
100
AcDbDictionary
280
     1
281
     1
  3
ACAD_XREC_ROUNDTRIP
360
8554
  0
DICTIONARY
  5
855B
330
818B
100
AcDbDictionary
280
     1
281
     1
  3
ACAD_XREC_ROUNDTRIP
360
855C
  0
DICTIONARY
  5
8577
330
8199
100
AcDbDictionary
280
     1
281
     1
  3
ACAD_XREC_ROUNDTRIP
360
8578
  0
DICTIONARY
  5
8567
330
8191
100
AcDbDictionary
280
     1
281
     1
  3
ACAD_XREC_ROUNDTRIP
360
8568
  0
DICTIONARY
  5
8579
330
819A
100
AcDbDictionary
280
     1
281
     1
  3
ACAD_XREC_ROUNDTRIP
360
857A
  0
DICTIONARY
  5
855F
330
818D
100
AcDbDictionary
280
     1
281
     1
  3
ACAD_XREC_ROUNDTRIP
360
8560
  0
DICTIONARY
  5
8575
330
8198
100
AcDbDictionary
280
     1
281
     1
  3
ACAD_XREC_ROUNDTRIP
360
8576
  0
DICTIONARY
  5
8573
330
8197
100
AcDbDictionary
280
     1
281
     1
  3
ACAD_XREC_ROUNDTRIP
360
8574
  0
DICTIONARY
  5
856D
330
8194
100
AcDbDictionary
280
     1
281
     1
  3
ACAD_XREC_ROUNDTRIP
360
856E
  0
DICTIONARY
  5
856F
330
8195
100
AcDbDictionary
280
     1
281
     1
  3
ACAD_XREC_ROUNDTRIP
360
8570
  0
DICTIONARY
  5
8565
330
8190
100
AcDbDictionary
280
     1
281
     1
  3
ACAD_XREC_ROUNDTRIP
360
8566
  0
DICTIONARY
  5
8559
330
818A
100
AcDbDictionary
280
     1
281
     1
  3
ACAD_XREC_ROUNDTRIP
360
855A
  0
DICTIONARY
  5
8571
330
8196
100
AcDbDictionary
280
     1
281
     1
  3
ACAD_XREC_ROUNDTRIP
360
8572
  0
XRECORD
  5
8582
102
{ACAD_REACTORS
330
8581
102
}
330
8581
100
AcDbXrecord
280
     1
102
DISPLAYNAME
  1
Imperial24
102
FLAGS
 90
        0
  0
XRECORD
  5
8586
102
{ACAD_REACTORS
330
8585
102
}
330
8585
100
AcDbXrecord
280
     1
102
SHADEPLOT
 70
     0
102
SHADEPLOTRESLEVEL
 70
     2
102
SHADEPLOTCUSTOMDPI
 70
   300
  0
XRECORD
  5
8584
102
{ACAD_REACTORS
330
8583
102
}
330
8583
100
AcDbXrecord
280
     1
102
SHADEPLOT
 70
     0
102
SHADEPLOTRESLEVEL
 70
     2
102
SHADEPLOTCUSTOMDPI
 70
   300
  0
XRECORD
  5
854B
102
{ACAD_REACTORS
330
8174
102
}
330
8174
100
AcDbXrecord
280
     1
102
MATERIAL
148
0.0
149
0.0
149
0.0
 93
        0
 94
      127
282
     0
 72
     0
 77
     0
171
     0
175
     0
179
     0
273
     0
  0
XRECORD
  5
8176
102
{ACAD_REACTORS
330
8174
102
}
330
8174
100
AcDbXrecord
280
     1
270
     1
271
     1
  0
XRECORD
  5
8175
102
{ACAD_REACTORS
330
8174
102
}
330
8174
100
AcDbXrecord
280
     1
270
     1
271
     1
  0
XRECORD
  5
8179
102
{ACAD_REACTORS
330
8174
102
}
330
8174
100
AcDbXrecord
280
     1
270
     1
271
     1
  0
XRECORD
  5
8178
102
{ACAD_REACTORS
330
8174
102
}
330
8174
100
AcDbXrecord
280
     1
270
     1
271
     1
  0
XRECORD
  5
817A
102
{ACAD_REACTORS
330
8174
102
}
330
8174
100
AcDbXrecord
280
     1
270
     1
271
     1
  0
XRECORD
  5
8177
102
{ACAD_REACTORS
330
8174
102
}
330
8174
100
AcDbXrecord
280
     1
270
     1
271
     1
  0
XRECORD
  5
854A
102
{ACAD_REACTORS
330
816C
102
}
330
816C
100
AcDbXrecord
280
     1
102
MATERIAL
148
0.0
149
0.0
149
0.0
 93
        0
 94
      127
282
     0
 72
     0
 77
     0
171
     0
175
     0
179
     0
273
     0
  0
XRECORD
  5
816E
102
{ACAD_REACTORS
330
816C
102
}
330
816C
100
AcDbXrecord
280
     1
270
     1
271
     1
  0
XRECORD
  5
816D
102
{ACAD_REACTORS
330
816C
102
}
330
816C
100
AcDbXrecord
280
     1
270
     1
271
     1
  0
XRECORD
  5
8171
102
{ACAD_REACTORS
330
816C
102
}
330
816C
100
AcDbXrecord
280
     1
270
     1
271
     1
  0
XRECORD
  5
8170
102
{ACAD_REACTORS
330
816C
102
}
330
816C
100
AcDbXrecord
280
     1
270
     1
271
     1
  0
XRECORD
  5
8172
102
{ACAD_REACTORS
330
816C
102
}
330
816C
100
AcDbXrecord
280
     1
270
     1
271
     1
  0
XRECORD
  5
816F
102
{ACAD_REACTORS
330
816C
102
}
330
816C
100
AcDbXrecord
280
     1
270
     1
271
     1
  0
XRECORD
  5
854C
102
{ACAD_REACTORS
330
817C
102
}
330
817C
100
AcDbXrecord
280
     1
102
MATERIAL
148
0.0
149
0.0
149
0.0
 93
        0
 94
      127
282
     0
 72
     0
 77
     0
171
     0
175
     0
179
     0
273
     0
  0
XRECORD
  5
817E
102
{ACAD_REACTORS
330
817C
102
}
330
817C
100
AcDbXrecord
280
     1
270
     1
271
     1
  0
XRECORD
  5
817D
102
{ACAD_REACTORS
330
817C
102
}
330
817C
100
AcDbXrecord
280
     1
270
     1
271
     1
  0
XRECORD
  5
8290
102
{ACAD_REACTORS
330
817C
102
}
330
817C
100
AcDbXrecord
280
     1
 70
     1
 90
1959938040
 71
     1
  1
A8450BBB-9968-4A1F-A779-4FCA33900376
311
504B0304140006080800508870577AC39A33D7000000200100004F00000035313234334541332D314436432D343945312D384435372D3537433931393841373633432F4173736574446174612F446566696E6974696F6E4974657261746F7250726F706572746965732E62696EEB606060F80F0540260323103700495E20ED
311
9E9A975A94991C9C9C919A9BC8C00612C9C94F4ACC6147C831019920AE4B6A5A62694E0948976F6671726A4E4E625E6A7E69B12042A9426E6209D0B8C41C3D90264E20860914834C48875806B2DF0F88414E02D189290556F689C5C5A925B6FA694915FAC68E266E4E4646E6BA6606E696BA2686AE2EBA160666E6BA26966E
311
E606C6CE2EA626C6C6FA45A9C5F9A545C9A9C5FA46FA06F15093E30BF2D283221DEB0C19188280D6B330BCDF9715AE1550103E414D0F68914B7A73CC4E83999B804C24B00F00504B0304140006080800508870578ACC4C0712010000300200004500000035313234334541332D314436432D343945312D384435372D353743
311
3931393841373633432F4173736574446174612F496E7374616E636550726F706572746965732E62696EEB606060F80F0540260323103700495E20ED9E9A975A94991C9C9C919A9BA8021470B4303135707272D2B5B434B3D035713474D3753437B7D4357173763436B63430303637634768046931363471713532B5D43535
311
3131D635313332D475727372D13534373670367376B67474B5042A03DBCBA019D37FE8ABC6157B20CD04146B0062181F4C03F940F0C11EA29A8141C08141002C0426541C106CAC2CA046088033B02A030AC2157C6006F21A8018AAF50194E6010A610250382264E08660284CD9E98021862280A91564B406929A0FF62C401E
311
28B6F88038B83CB1243943D7A928312F2535052473609515DB1B90B454F79D39DA0D0E1CE5BFB8FED603F968608684C4933F40F11350DA014AA329837301504B03041400060808005088705728BB58AF800100009E0500003D00000035313234334541332D314436432D343945312D384435372D3537433931393841373633
311
432F536368656D61732F436F6D6D6F6E536368656D612E786D6CBD544D4FC23018BEFB2B96DE15493C78601010A34B880709DEDFB52FD0D8B54BD70DF6EFED3AC0B12E6442E2716BFB3CEFF3D18E26FB440405EA8C2B1992E1C323095052C5B8DC842437EBFB673219DF8DA659866649B798C078B48AE6410122242F2A4994
311
AC7F93815DF85C049C8564CA0A901499DD886B2EB9B1E02448F358701A9235880C49A0119892A20C89D1B9FD768815CAD268CB5E0355B40B1E47F3E37A2020464BED06AA57CE8FCC20C3C3446D46761A2632A8C1283D07031EFF2AE7CCB1BFEEE916E406DFAC8E36FFD99A9D60A6944090EEDC3B670C7DC13DE86B6B2C5C24
311
0D6E503BB85ACD579D513F1B9F9A69DC9CC22AFA80C426D40AF0B21EA168559156B6276F0F726A6BFF04DCD513A87A62CAD41FB24FCB2858B3952E3D852084DA25B9303C15687973CC8E8AAE11DF2836C38C6A9E765E8C1BA1BFB1DC29CDFE518C8B5A7655A4ED7E77291ABEB80DBD82EC866ADE1B8D05AF9E35CF09D7A061
311
F38A986D9EC412B8F0F65E5D81534D9B231D1E5A8FE577A241F3A5FD01504B0304140006080800508870572CCEBD668A040000E01200003E00000035313234334541332D314436432D343945312D384435372D3537433931393841373633432F536368656D61732F47656E65726963536368656D612E786D6CD5586D6FDB38
311
0CFE7EBF42F0F7A649B70E1B90744856B4970F450FCD7A5F05459613EDE4174872DADCAF3F522F8ED3B88D2F1D06AC4050DBA2493EE4438AF2F8EB73AEC8466823CB62928C06C384888297A92C5693A4B6D9D9E7E4EBD51FE3A931C22EF85AE4EC6AFC38BF261BA626C9AD288496DC3F4FCEAFC63366845F7A10452AF41DB3
311
20C0D44EC26EAB20918735565582695670811A6A49643A49A6E9069FA4604A64B29016DC4B48552F95E4932463CA888468C1D2B250DB4962750DF7CE273069CE8363F1FF4EDB00E0A21999574AE4A2B00C353B93F3BD4777B8A61ED8F604ABFEDD79CE56A2B7BDFBDBC50996E0ADDE16FED26223C5D30956C29BDF4A55EA68
311
6E5E58B112DA45CE67F76F4FA27EFA3FB672FD7372FC388FAECDCA5209E693CAD167BADCD272F943701B3812F8A3D852008B1D2E32DB927B2F833C6EA95879925356D254582695095A3CE982924720BE5774A3CB9CDCDB350427D2DF20DA1B5532EBE2D5D6288D75D4F7E4FD9890A0EF8E3D93EBB8F8BA4758158EF6FB90A6
311
F9520281C93DE7AAC6D24607DA296BB96018123F821A7D6A5C5884050C475DA4865442732C8B95684A50165CBB3A32F25F783A4A480ED59AD7F924B968AEA50131F46303223E6A397B0E52976030DC1DCA81D7E7C1EDEEA42C19FF27635C505E2BD5198A599020DF50A2330FCB3AAF28CB0124108429553EF1B228802E2265
311
D8F7CC2401042B155BCC7070F1E5C55F13B4A9577362CCCE46C32174E010C3C378C44841A4BDA00FE3A12006CE11EE6AEC59894D3526DDE1CD59D503ECC324017F8061B7F162162FA62EDD81AE3308617770796DCBDAD2B2625C5AE8A63DE20B2C8AA5E95E76E5730823955956E33E705425A2187C185D36489A1B44D3DCEC
311
2172F6BA2105C3546287A7194B2331768EBBE64F6E70A9930ABE0ADEA89E9E2C38523B810287AD67A54A039C1606EAFE68F8304610BB9093DBDDABC0B2AE4E290DCDA15376D7E39F72B556F0B32EAB5D3D498B4C41ABADEC3A1434C422D87E8025A84BDCB2B1417ED750FAE4DA8976863974C577C7F902D3F156AD354DEA35
311
40DE6BEAE2BEA52F7A2EB4CA43802ECE5BF2CE2EDC9347179FFB023CE412E60BE16DA0BE29B374988A553F561DC04615DD35F7D2C8979F60E5955CE93DF29DED8AFA1EE6642D53418086C03C47C377910F75F7E8F5EF665F70B60FFB22AEDF897D119E8423C773E819A3C1E55E550599EE6EDCA34D0C86FD72057DF2CD46F1
311
6A470682471C164E4346D5306BF12D7D12D82CFF673D41636C347443FEB51B50D72EA171A8E4A58623A4A16E0FA2B8B10A0D23268D87C33896EE8FB73305A74BF224EDBADFA0BD674AB354D63DB7BD5D83426761C077DE767728235446A552754EB93B755891C3C4CC6CADE37CF0E912A7BB38DBA010F9DE1282EDF470CA69
311
A9CDA482E334C4A6EA4107987980B17E72F31730EBF88BBD39E7C629F56797A3C0009C2C5AE7951D9A05A02773440F02EEB4DE396A3B6A570C72CCFBCD823B0B8ED3F1D5CEDDFED772FA70236C83FB7D86C385D570B87107535572A60A96035F8F7C6A7192F13007246BBE0521855E6AC46F3E27689CEE7D186A6FD679D98C
311
DCAD13333E04EBE7ED6F55FF01504B0304140006080800508870576180134D5F0100006B0300004500000035313234334541332D314436432D343945312D384435372D3537433931393841373633432F536368656D61732F52656E6465724D6174657269616C536368656D612E786D6CA5934D6FC2300C86EFFB1551EEE343
311
DBA41D1A103009551ADAD40EAE28A4A68D9426284961FCFBE5A340113B2071746D3F765EBF4DC6BFB5407BD0862B49F0B037C0082453059725C18DDD3EBFE3F1E829991803366715D474942CD30FB4A782E00C64017A412D684E454CE3FE28995203B162A6EA5AC94B66997D225E109CD63B0135484BAD1B3C07E9080CA35D
311
B3119C11BCA5C200461A68A1A438126C75E3E230D40FF81FB3F03C91D1E3A3A0AF79FE28E25BC39EC3E17E4C2A2D94A0833A51AF55BCCA7D88572FCBAC529C4140B020FC3AAFA886621DCED7EAD7664CC86024E806DC297DA1BB393E4156543457A4537DB8817349A70F8ACBF09B3EEE2CB2F33E91B65D60786E4E3B39B77E
311
3FEEEF5650424525DA657FB8B46BE6BF064646F0A0F7327C0BC1BC1B4CBBC1C419FA3CCB23500007872A2580CAAE5461865565294E4EDB4617B62FF579DF9A5B2F54E834076A597573A020912FED777F9B3F504B03041400060808005088705717D78B8C51000000570000004700000035313234334541332D314436432D34
311
3945312D384435372D3537433931393841373633432F4173736574446174612F41737365745461626C654F66436F6E74656E74732E62696E5361606070B4303135707272D2B5B434B3D035713474D3753437B7D4357173763436B634303036371302AACB4D2C492DCA4CCC492C28484D2C4ACC4B4E050A82012F90744FCD03
311
CA26072767A4E6260200504B030414000608080050887057F865834058000000680000004500000035313234334541332D314436432D343945312D384435372D3537433931393841373633432F4173736574446174612F53747265616D56657273696F6E5461626C652E696E66558CBD0A80300C06F73E4B117FB66E451741
311
D041DC5BF98480A492E4FDD18EAEC7DD4555D89EF28DF51A0B1BD8340C4DE7DD848B988C0ACF0649566493F2408C508DDEBB99D5129FF8F1AF8CF5B9503E20FAE5A16B5AF702504B030414000608080050887057E33190D3340100009A0400003600000035313234334541332D314436432D343945312D384435372D353743
311
3931393841373633432F4173736574446174612F636E782E786D6CCD94314FC3301085FF4AE43D76924A802AC71582A51348540C6C57E752AC3A76645F10FC7BEC3403A888A943D7F3BBF3F327BF939BCFC1161F18A2F1AE6535AF58814EFBCEB843CB26EACB3B566C940CDED30F192B1C0CD8B25C664A1E829FC6A5D4610F
311
93CD556BDC7129DEC788B483BDC5A7FEC13B42479115DA428C2D8BFA1D07E03091EF301E790704BCE601A39F82C63489CC80CB241D10083BA69AAA5995755DD637BBFA765D35EB55F32645562AB9F7DE2E7A932E0B7E2CF4E956A62A29F2B19253308B26BF85A9BF3CF2BD715224A592914262B274D0D7983A601CADD14009
311
9DF09A90CA244218A43889951499C12F128FD81B6772CB361903F2E139D9C34006AF8EC87F5E2F4F66EB2281D378BD3CCE1D5E9EC2CBFC835E4F819C13736D393977C88DEB2F901231AF91149ABC55D437504B03041400060808005088705764BDBC14080100004F0300003400000035313234334541332D314436432D3439
311
45312D384435372D3537433931393841373633432F536368656D61732F636E782E786D6CCD93BD4E042114855F85D02F0CB3899A0DC3161656366A6587707725CB7027FC187D7B61A4D84DECB4D80E0E5FC839878BDC7FCE9E7C404C0EC344051B288160D0BA709C68C987CD1D257B2523623EC328097A868936992A798C58
311
962E5938E8E29BEA5D3875F11EE719C3B37987595362BC4E69A269DD325D325A48276675D64CB008094B34506FC86E867E8389A03358AAC661DC6E84D8889B1771BB1BC6DD767C95BC914ABE21FACEBB9021E2420CD645A87606C9DBB19225BACEB40C549D7B63B50DC92BA164CAB176D0C9FCB554522F8B7746E75A155FC1
311
1F4649DEA25E047E8000D199EB4C7C61EEDF223F41B0101FEB2B45A7FD7526FFCDE3DF0AE0EBECD711685F417D03504B030414000608080050887057410A3D5871000000A40000002C00000035313234334541332D314436432D343945312D384435372D3537433931393841373633432F636E782E786D6C55CC4D0E823010
311
86E1AB34B31774E7A22D31F1069E60020334B633A63FC6E34B0909B07DDE2F9FEE7EC1AB2FC5E4840DDC9A2B28E25E06C7938192C7CB1D54677514C9871928C640062A83D55394F2D968A0118BAFEA1DBF377CA444F98919176EAB9FEAAB9F2960DA5BBB1E2ED3FA6FFF504B030414000608080050887057E05514BA7E0000
311
00A300000007000000636E782E786D6C4D8CD10A832018465F45FE7BB79999066A84F520B12C62A6C3E5D8E34F4717BBFAE0F09D23BBCFEED0DBC6D716BC0272B901B2FE1EE6CDAF0AD2B16001A8D3328670FCDD00F969B70A0A062DD718D2F344B35DA6E40A759B7F9C9091AAA6634F31191A83EB7624580C8C63C64D4B5A
311
D1F3869A6C5C8B92E7D7CB5BF2FA0B504B03041400060808005088705716E99B5DA600000035010000130000005B436F6E74656E745F54797065735D2E786D6C9590410E82301045AFD2740F4517C6180A0BF5065E60AC53688469D30E066F6F91AD9AB89CF9FFFD3F99BA9DC7413C3026E749CB4D59498164FCCD51A7E5C4
311
B6D84BD136F5E5193089ECA5A465CF1C0E4A25D3E308A9F401292BD6C711388FB15301CC1D3A54DBAADA29E38991B8E0254336F5092D4C038BF39CD76B6FC6A538AEBEA54A4B08617006389FA516557DE4AE8E7E70DE30729138228C5F021CD93F02D4FB0DCD0B504B0304140006080800508870573DEE336E640000007900
311
00001B0000006175746F6465736B2D64657369676E2D7061636B6167652E786D6C35CBC10E83200C00D05F21DCA56CA76D41FC96062B120735B69A7DBE268BB7777961F8D5AF396893C2ADB70FE7ADA196782C2DF776D7A97B5933C430F15651E5469C55D70F80A4992A3ADC954792C525AE70A1E4D6AD9816CC044FEFDF01
311
FE3FDE907802504B030414000608080050887057B3F117ADF8000000960100003700000035313234334541332D314436432D343945312D384435372D3537433931393841373633432F4173736574446174612F636F72652E786D6C8550CB6EC32010FC156BEFD860C7AD1B6122276EBFA0A7DE10100725068B4794CF2FC4AE
311
D49E7A5A989D99DD1D7A78CCB7E2AE9CD7D6F4404A0C8532C24A6DA61E6238A30E8A03A3CEDAF08B0685E1B3EA21C3C0E8E46C5C3648581394C9A8B1526D20F75E0528C42D3D7AF0E2A2665EF21812C35FCB858B2B9F5449CA95C7688C5A6E522D939B3E6BE580BDB70DEE86E188C61113B4EBDA111D49DBA2D3DB30A45FBB
311
FBC0275A6531A341CF3FD385533C2809ACC675830841E4E593BCEE71BD6FEA2F5A6526A33EB874F336345F076CC85B8F3C705AADDD3FAE7191FFBB466D42536FAEABC2032369C96783D12AA794CA33C25473A2EC1B504B0304140006080800508870570D2BC22AF7000000940100003500000035313234334541332D314436
311
432D343945312D384435372D3537433931393841373633432F536368656D61732F636F72652E786D6C8550CB6EC32010FC156BEFD860C7AD1B6122276E7FA03DF58680B82831583CAA7E7EC176A5F6D4D3C2ECCCECEED0D3D77C2F3E95F3DA9A1E4889A1504658A9CDD4430C57D4417162D4591B7ED1A0307C563D6418189D
311
9C8DCB0E096B8232193556AA1DE4DEAB0085B8A7470F5E7CA899973C86C4F0B772E1E2C627559272E3311AA396BB54CBE4A6AF5A3960CF6D83BB6138A371C4041DBA764467D2B6E8F2340CE9D71E5EF0855659CC68D0F3CF74E1140F4A02AB71DD2042107978238F475C1F9BFA9D5699C9A80F2EDDBC0FCDD7017B5DF7F4B4
311
DA7A7F3CE322FFF78CDA84A6DE3D37850746D28A6B83D12A6794CA1A60AA394FF60D504B0304140006080800508870577A2AA2B000010000D70100002D00000035313234334541332D314436432D343945312D384435372D3537433931393841373633432F636F72652E786D6C95914D6EC3201085AF82D8631B3BFE8B3051
311
E4E4065D754761E2A2C46019A87AFC42EDAAEDAE5D811EDF9BE1CDB0D3FBFC406FB03A6DCD8069566004465AA5CD34E0E06FA4C3E8C4D96AADFF816164C40C034E32E66C5A6D5876495AE3C124D55805BB289C038F917CC4CB809D7C85596422F848B87BB6087917136434DB38CEBC9EBFAC7205E141615E1665452825B479
311
A2EDB1288F55F9CCF2447216B4F155B93783F90514B28B8F9130AF59BEBD462A68B5335AC53FEA9B863512B43C54D7732C7E694672E8AF947497BA25753BF6B4EFCE6D538DB1483473E6FC1A27B3174933F8AB7D33FE4A1616F5CF649BC3614EBF43E569CC9CE59F3B88675A09FF00504B03041400060808005088705710C9
311
9AB708010000B201000008000000636F72652E786D6C8D50CB6EC32010FC15B4776CB0E3368D309113B75FD0536FD41017C5068B47D4FE7D2176A5F6D6D3C2CCECCEECB2E3E73CA19B725E5BD3022D082065062BB5195B88E182F7808E9C396BC32F19202366D5428681B3D1D9B86CD0604D5026A3C64AB581C27B15000D53
311
7AB4E0870F358B42C49014FE5A2C62B88A5115B458759C053DFFB40E4E89A024F08A5435A614D38757FA7820D5A1AEDE5899959CC5A8E566A56572D717AD1CF0E7A626FBAE3BE1BE2714EFF64D8F4FB469F0F9A9EBD2AFD9BD90332B7333673EB8B4F33624E50CC88B5BF665E54A71F66EEDB409522889AC99BE80135666E2
311
4FE8B8C87F84D626D4D53670EDF0C0690A74279271BE602AF7F3A69AAFCDBF01504B01021400140006080800508870577AC39A33D7000000200100004F000000000000000000000000000000000035313234334541332D314436432D343945312D384435372D3537433931393841373633432F4173736574446174612F4465
311
66696E6974696F6E4974657261746F7250726F706572746965732E62696E504B01021400140006080800508870578ACC4C07120100003002000045000000000000000000000000004401000035313234334541332D314436432D343945312D384435372D3537433931393841373633432F4173736574446174612F496E7374
311
616E636550726F706572746965732E62696E504B010214001400060808005088705728BB58AF800100009E0500003D00000000000000000000000000B902000035313234334541332D314436432D343945312D384435372D3537433931393841373633432F536368656D61732F436F6D6D6F6E536368656D612E786D6C504B
311
01021400140006080800508870572CCEBD668A040000E01200003E000000000000000000000000009404000035313234334541332D314436432D343945312D384435372D3537433931393841373633432F536368656D61732F47656E65726963536368656D612E786D6C504B01021400140006080800508870576180134D5F
311
0100006B03000045000000000000000000000000007A09000035313234334541332D314436432D343945312D384435372D3537433931393841373633432F536368656D61732F52656E6465724D6174657269616C536368656D612E786D6C504B010214001400060808005088705717D78B8C51000000570000004700000000
311
0000000000000000003C0B000035313234334541332D314436432D343945312D384435372D3537433931393841373633432F4173736574446174612F41737365745461626C654F66436F6E74656E74732E62696E504B0102140014000608080050887057F865834058000000680000004500000000000000000000000000F2
311
0B000035313234334541332D314436432D343945312D384435372D3537433931393841373633432F4173736574446174612F53747265616D56657273696F6E5461626C652E696E66504B0102140014000608080050887057E33190D3340100009A0400003600000000000000000000000000AD0C000035313234334541332D
311
314436432D343945312D384435372D3537433931393841373633432F4173736574446174612F636E782E786D6C504B010214001400060808005088705764BDBC14080100004F0300003400000000000000000000000000350E000035313234334541332D314436432D343945312D384435372D353743393139384137363343
311
2F536368656D61732F636E782E786D6C504B0102140014000608080050887057410A3D5871000000A40000002C000000000000000000000000008F0F000035313234334541332D314436432D343945312D384435372D3537433931393841373633432F636E782E786D6C504B0102140014000608080050887057E05514BA7E
311
000000A300000007000000000000000000000000004A100000636E782E786D6C504B010214001400060808005088705716E99B5DA6000000350100001300000000000000000000000000ED1000005B436F6E74656E745F54797065735D2E786D6C504B01021400140006080800508870573DEE336E64000000790000001B00
311
000000000000000000000000C41100006175746F6465736B2D64657369676E2D7061636B6167652E786D6C504B0102140014000608080050887057B3F117ADF80000009601000037000000000000000000000000006112000035313234334541332D314436432D343945312D384435372D3537433931393841373633432F41
311
73736574446174612F636F72652E786D6C504B01021400140006080800508870570D2BC22AF7000000940100003500000000000000000000000000AE13000035313234334541332D314436432D343945312D384435372D3537433931393841373633432F536368656D61732F636F72652E786D6C504B010214001400060808
311
00508870577A2AA2B000010000D70100002D00000000000000000000000000F814000035313234334541332D314436432D343945312D384435372D3537433931393841373633432F636F72652E786D6C504B010214001400060808005088705710C99AB708010000B201000008000000000000000000000000004316000063
311
6F72652E786D6C504B050600000000110011005A060000711700000000
310
504B030414000608080050887057000000000000000000000000370000006662782F30454344333946382D363142322D343937452D394639342D4341414330363936454331322F617474726962757465732E62696E504B030414000608080050887057000000000000000000000000350000006662782F3045434433394638
310
2D363142322D343937452D394639342D4341414330363936454331322F76657274696365732E62696E504B030414000608080050887057F270F1330600000004000000360000006662782F30454344333946382D363142322D343937452D394639342D4341414330363936454331322F747269616E676C65732E62696E6366
310
60600000504B03041400060808005088705751464CB48900000043010000360000006662782F30454344333946382D363142322D343937452D394639342D4341414330363936454331322F6469726563746F72792E786D6C9D8F310EC2300C45AF127987122606C71DD918B841D4B851A43646695A717C52A85029031293A5
310
A76FBF6FACEF7DA7264E43906840EF0FA03836E242F406C6DCEE4EA06AC22492573150D1F66C60C640E8938CB705396EEDD86DE9B5042FE27813D640EA63BB001C722AF6E55CB61E4863F58284D5D3F53DD715CE1C3985E63FD7F1B7EBDD617E9F1E504B0304140006080800508870573811E58C3B070000201C0000340000
310
006662782F30454344333946382D363142322D343937452D394639342D4341414330363936454331322F6F626A656374732E786D6CDD59596FDB3810FE2B84F665F74197E5B3705CF86802A3485BD4E862DF045AA61D6E74819212677FFD0E29521615D9567A008B4D80D8A1C8E1CC37F768FAFE1885E889B08C26F18DE15A
310
8E81481C243B1A1F6E8C22DF9B6303BD9FA1294B92BCB6CF40318EC88DC1978DD9F4C09222954B3BB2C745D85CBD5DFC85B280C4C4404188B3ECC6C8820712610B1779B223D9A3B5C339B60EFBA3E55AE5469DEC81E1F4A171558A1989736015D663A0223970F57F41247B36B5F9066D9BD76D5BEFC2365B08AE334AE32CC7
310
71F08AABC675BD335C35AEF3DCFEEA436F303107FDBE67F6873DD75CDC2E56A63BF29CE570B99CCC3F4C0C349B6E9324AC14909278075A7C3166EED4E64F2AF1250A6D7C07491C9340A2D9B66147245D4AB226261AB0AE10ADA69052D6DA82D751F833DB3A81A2B1A4A1AD84539F75EB4DB67F030859172B6519E1569EE50C
310
742DB12FFDC199DAE5AAA6179AA108E784511CA2906E1966A020D85A2A4823C3BD8593421C33A14545AFCE2B18F6755F6AE3725F8421F75F63263CCD077F24792638A3FF1076E2BE7E1BF004D21634CEC752D8FC25051293A92D16CB675E4F3E2C8144FB101FC05A404CBEC9EB35F05AF258B05E19B38FB7DBE386C787F6CB
310
5396A484E5DCF284334BBF531AAC9916185F07504A5C75DD9D50F90AD07F02E42B5ED01434C7E8B17FEC2BD9198EB37DC222D00E7290E9C01F07F1AFAFBE4DEDEAF00C212D569EC314DCF62761AA89A1DD5D8374367D02A34F982785DB0438049BBEA731F77330141426B004F17EBF3D1AB33504535884533804E9E1776AF3
310
AF083E4A3A106F1A1A6A0BBF1D14A51CA6E967275DDD81CD301A54AAD2643C87EFE0A7E03B5F6D3E6E0AB6C701B9978EBD227B1AD31C92693B431AE89ACB7F5B7F121E7917265B1C9E4E6B9B02B8E690F0B8D1A2968D540B127A014E781A2E352356EE29787B18E298244526D7DBE254908409F3B72F7EE9C2AD77FDA96CA0
310
BC4C1A406B2C83E41E309A724C8C99D4561508AD9AA0606198490B3C945AF5B74594FA384A8A9887DAD7A6D8E403E20CB744A02AA829C3565EABC8EEE87E5F6410BC5A492E3520A53F2BC2A585F7218EB5F1CBC89E6148A249EC53C8C1E02CAD37681754E05DE63923E1DEA7615844FE9E869047FC08A767E87794A09EB91E
310
C9CB73C276AD0475CB523EA96C88032E815520A96C55C67CA953469E282F33453E53D940DB21EB5063D63F932E78A668015419A330F3F9B83F70168B8539990CC7667FEEDE9AF3D16862F66F9773CF9B388E371A36F954D1AA9EEF4095BCCCD1FC2F7F28A26D8C69080FB8D87897BE7B2FB2E78D0DA1D1F6E6FDDB45AF3732
310
870EBFD1FDB032C7CE7064F627B723C75BAE067DCFB319C992820524B37BB6E32B934CE3C339AE1477AF63289435D7939DD2575398FF710C6DE6044D89FFD5205AC5AE9682B06B10E5479B2114078F3C45F901547DADEED308A24D3EDAE2DC1BE3B263798EF871DD49CF99F4C693930B5E0CD4E29E1F8E736D1204D07716B9
310
9FA438A0797B426DE0D2314EBF29B7589E3B40804EF5B7BAE4729E9197F834C207E2EF31EF125A02E335095A73D8214CB28CC624135DDEABEAAF41D3B1A098D2736E8B11D2CC8F488EBFC7FE44DBD0B06988CDA10FFD68CE270257AB82CAA06507728E22EF7E21710BF95FFC0C47695876BAD730707B0A02D5E3B4591C679A
310
5FF104F6E6E3DC7776440C2EAE51AFD857F541ABD69AD427DF4DFE0C3CAAAEF985F0A82BBA974ED6C09DF09F310495E1C0F5464A11D7B05257E5BC8F0B0BE83C8317FF99D0C343A742B39B4E6A255B5954E724823616E705EBE4AFC381F3EA2219171A0E51BBE98DC5A1E8DF540707E88906EE5C795BBB06EA501AC39CAB93
310
20AFA4683561A10B31D3E3A3AB37F8F54565D7A9FE70BCFCE51573DDF92231FCB98E0354CB650096D147ABA95BAB6EAD1ECA9E711E4020DD884F73011EB123BB5363A6916B2BD1557D7AAD7A5EF3801AC1C416F3387BCFBF845F31A81ABAE7CCBE2B8B36BB5C5FF3C466C170FAC487C6B44EEBF3DDA64105563A9FFEC23122
310
CF0D0A7275C9BBE10BA4BEAD4F3D7F838294E8DBFAC2F1FF4447A114581BA3C134384B420A4379B243079240F686B143876E8345241359198C570629F546A0C3E9A772A69AE36DA84E070F1806D3A1ECC58A0086A290316F0CB98E7E8331289F448AE194F5086D988C61062A18BD31C062730ADD96B5857196181E0AEA8D71
310
2538368E0F3CDF97A7AAFF4FC7383A10954E72557BBAE02225D39C090ADB54BC2780AAAF7C309B7EBFE88A1D8473F8BA2DF24A98D3C2491A09827A21500A0753BF4709EF110A8ACB72B996D8A341D269327FD10E4AAA668ED9418CD76B78CF575F6C3E195F7F4669581CB83A2F75BF1A259377DD61514EA1A6601852CC14F3
310
1A72F9CEFEC21278C514A15B0A46807E3F8E877FD8CB248A92B85CB2E7F24515DA3CC06BA79DAD467ED0C63BEEC016530039D6F7B7382316DE658FB000AA6594CF464B883503A8A269CD009446B82EE098B67FBD42B236AA4D48EA6197C32366FA081C89BFCBE16E53DF501B40822F0057E2E1E98B5A98DA0C86E0B37F0150
310
4B030414000608080050887057279A845C3E01000046050000300000006662782F30454344333946382D363142322D343937452D394639342D4341414330363936454331322F636E782E786D6CCD944D4EC3301085AF12791FE7A712A0CA7125169C800562E738D360EA78227B82E8EDB14B5240A88845A576678DDF48EF9B
310
791AB1791F6CF6063E18740DAB78C932701A3BE3FA864DB4CDEF58B691C223D23719CB9C1AA061A9CCA4E83D4EE35CEA60AB269BAAD6B8DD5C5444DEB413416099B62A848605FD0283E26A22EC20EC78A748F18A7B0838790DB19FCC0073BFF6A0083A26EBB25EE5559557378FD5EDBAACD7ABFA59144929458B6867BD7104
310
1EC74C637CB868A61445FA9662F266D6240226BF9CF1D63851C47F294274EBFA5947FB31E9C6D11AAD288EA9404D407914811A44F12996A248BC3FA81FEE9F160759673C6842BFBFD000AA5303381AE33109FFE33F08FFC6C6F635E25E6ADB2761675B67435DD21A625C7FEF3FA648B9DE5E5FE88FC6CE9FF9784AC8E8EB43
310
5E7C9D89B8389CBCB8F47401E507504B030414000608080050887057AC937A4A7F000000A30000000B0000006662782F636E782E786D6C4D8CD10E822018465F85FDF7149823D9106784EFE1121D13A191B41E3F685E74F56D67DF39A2FB6C0EBD4D7CD9E05BA02702C8F84798AC5F5A48FB8C1B409D143184FDEF06C88F9B
310
69A160906289213D0F3499794CAE5067FD7A40A2D5FDC28706337AAB70CDAF1AF381D758F5BD228C33AD68958D7351F2FC7A794B5E7E01504B030414000608080050887057A6D797065F0000008200000007000000636E782E786D6C4DCB3B0E80201045D1AD90E9FD7516806B51190811670C8A61F982B1B0BAC9C97B72CA
310
7B1037C6D3332918DA1E04D2CAC69353902EDB8C20262D23F3F59B81A079470595414B17391D1F19B4730A5583A7ED43BBE4025D9592775E5ADFFA01504B0304140006080800508870574FEB6A7CA0000000F4000000130000005B436F6E74656E745F54797065735D2E786D6C7D8F4B0EC2300C44AF1279DFA6B0400835ED
310
02B8011730C16D239A8F121795DB93D02D6269CFBC19BBED573B8B17C564BC53B0AB1B10E4B47F18372A5878A88E20FAAEBDBD032591BD2E299898C349CAA427B2986A1FC86565F0D122E7318E32A07EE24872DF3407A9BD63725C71C980AEBDD080CBCCE2BAE6F5D69B7110E7CD57AA146008B3D1C8F92C5954F993BB1BF7
310
87F39A89ABC491D09600F9FDA2FB00504B0304140006080800508870573DEE336E64000000790000001B0000006175746F6465736B2D64657369676E2D7061636B6167652E786D6C35CBC10E83200C00D05F21DCA56CA76D41FC96062B120735B69A7DBE268BB7777961F8D5AF396893C2ADB70FE7ADA196782C2DF776D7A9
310
7B5933C430F15651E5469C55D70F80A4992A3ADC954792C525AE70A1E4D6AD9816CC044FEFDF01FE3FDE907802504B0304140006080800508870572BB71E55F8000000960100003B0000006662782F30454344333946382D363142322D343937452D394639342D4341414330363936454331322F7265736F75726365732F63
310
6F72652E786D6C8550CB6EC32010FC156BEFD88138368E3051A27C424FBD21BC495162B07854FDFC42EC4AEDA9A75DCDCECCEE8E387DCDCFEA137D30CE8E40EB1D5468B59B8CBD8F90E28D70A84E5278E7E22F1A5456CD384281418ABB7769D920ED6C445B50EB26DC40150246A8F433372304FD81B3AA558A99111EF5A2F4
310
43DDB1A6F5CA932225336D523365377333E8410EEDA1EF38BB10C6FB8EB4E7F3950CDDC009E7D7C37968E9A5A55C34452C4534F3CF76ED51459C40B21DDB134A09EDDE687FDCB1E39EBD8BA630A508D1E79FB7A5E53B901E834B5E6310CD3AFDE39A96E97FD7646CDCB3CD75550490341FF91A48D19494727945986B49547E
310
03504B0304140006080800508870577F6E9856F2000000B1010000310000006662782F30454344333946382D363142322D343937452D394639342D4341414330363936454331322F636F72652E786D6C8D50CB6EC32010FC156BEFD806474E1C61A2D475BEA0A7DE10100725068B47D5CF2FC4AED4DE725A343BC3CC0E3D7D
310
CF8FE24B39AFADE901973514CA082BB5997A88E18A0E509C1875D6863F34280C9F550F1906462767E3B241C29AA04C468D956A03B9F72A40211EE9D183173735F392C79018FE5E2E5CDCF9A44A5CAE3C46839E7FA5C2291E9404466AD2208C116E3FF0FE589363433E6995998CC6A8E566A56572D757AD1CB07A1CDE9BEE72
310
402D7E2368D7ED47D45DBA1D1ACEE7A16EBB761C30A1551633EA834B376F9FE4EB5E95AFC27F99E3225FC8AC4D68C866B82A3C309CF23C178C56B9C0349EEDA699CB663F504B030414000608080050887057826EC83752010000DD0200000C0000006662782F636F72652E786D6C8D52DB8E832014FC15C33B2AD45ADB204D
310
9B7EC23EED1B45EA922A1804D3CF5FF012D787ED6E4C90CC3967E6CC04727EB54D3408D34BAD4A80E2144442715D495597C0D9072C4074A6C4686D7FB48148B1569420C08092DA68D7CD10D7CA0A1550A52B3183ACEF8505116FFCA5043DFF122D8B99B3BEA37FC61DE34F568B18C5531F25CEC96A1E959567930F290CA0C7
310
6C7FC80B7C85B838E430BB5C6EF0981F0B5814B7FDE598A16B860A9284614AAC6C17756E04B3A20214A77807118228FF4087538A4F3BFC4992D049496F8DF73C8B0677803EEE2F924CF886CF75D5DF7C4E2ABBC333DF34D1038AFC7A63819224E4E37F6378DB0CBDB0CFCFB27BB358787A6810DC6A93F94AA5DD5A1A58E384
310
A74EA3F123C954F5CC23C16F3CF80DCF7B0E1F1453B55F8D597FBD3B1BD4B73B75C2C0C1BE22A54DCB9A75B969C5F55C8536969671AE1B6DFE33BD585DC24CC2C3A4DF504B030414000608080050887057E64707CC06010000B201000008000000636F72652E786D6C8D50C18E832014FC15F2EEA8A0B5D8208D4D3F614F7B
310
63855A520523D8ECFEFD427593DDDB9E1E9999F766187EFE9C46F4D48B37CEB640B20290B6BD53C60E2DACE18619A0B3E08B73E1970C9095936E21C120F8B0B875DEA1DED9A06D42AD537A07A5F73A00EAC7F868C1F7773DC94CAE212AFC239B65FF9083CE48B6E9040F66FA59ED172D83562068414B4C0826F51B399E0A7A
310
2AE93BCF9352F075356AB7322ABA9B9BD10B88A63A1C6B462F98B2638DABAEBBE2A66E1866EC7AE89A8A5C2AC2789E9605F761897FDE8FC49C0179F94CBE3CDF28C13F9C1B77410CA590B3E3178882E789F8137A9DD53F421B1B4ABA1FDC363C081203BD88689C1A8CE3556F9CA96DF10D504B010214001400060808005088
310
70570000000000000000000000003700000000000000000000000000000000006662782F30454344333946382D363142322D343937452D394639342D4341414330363936454331322F617474726962757465732E62696E504B0102140014000608080050887057000000000000000000000000350000000000000000000000
310
0000550000006662782F30454344333946382D363142322D343937452D394639342D4341414330363936454331322F76657274696365732E62696E504B0102140014000608080050887057F270F13306000000040000003600000000000000000000000000A80000006662782F30454344333946382D363142322D34393745
310
2D394639342D4341414330363936454331322F747269616E676C65732E62696E504B010214001400060808005088705751464CB489000000430100003600000000000000000000000000020100006662782F30454344333946382D363142322D343937452D394639342D4341414330363936454331322F6469726563746F72
310
792E786D6C504B01021400140006080800508870573811E58C3B070000201C00003400000000000000000000000000DF0100006662782F30454344333946382D363142322D343937452D394639342D4341414330363936454331322F6F626A656374732E786D6C504B0102140014000608080050887057279A845C3E010000
310
4605000030000000000000000000000000006C0900006662782F30454344333946382D363142322D343937452D394639342D4341414330363936454331322F636E782E786D6C504B0102140014000608080050887057AC937A4A7F000000A30000000B00000000000000000000000000F80A00006662782F636E782E786D6C
310
504B0102140014000608080050887057A6D797065F000000820000000700000000000000000000000000A00B0000636E782E786D6C504B01021400140006080800508870574FEB6A7CA0000000F40000001300000000000000000000000000240C00005B436F6E74656E745F54797065735D2E786D6C504B01021400140006
310
080800508870573DEE336E64000000790000001B00000000000000000000000000F50C00006175746F6465736B2D64657369676E2D7061636B6167652E786D6C504B01021400140006080800508870572BB71E55F8000000960100003B00000000000000000000000000920D00006662782F30454344333946382D36314232
310
2D343937452D394639342D4341414330363936454331322F7265736F75726365732F636F72652E786D6C504B01021400140006080800508870577F6E9856F2000000B10100003100000000000000000000000000E30E00006662782F30454344333946382D363142322D343937452D394639342D4341414330363936454331
310
322F636F72652E786D6C504B0102140014000608080050887057826EC83752010000DD0200000C00000000000000000000000000241000006662782F636F72652E786D6C504B0102140014000608080050887057E64707CC06010000B20100000800000000000000000000000000A0110000636F72652E786D6C504B050600
310
0000000E000E0080040000CC1200000000
  0
XRECORD
  5
8181
102
{ACAD_REACTORS
330
817C
102
}
330
817C
100
AcDbXrecord
280
     1
270
     1
271
     1
  0
XRECORD
  5
8180
102
{ACAD_REACTORS
330
817C
102
}
330
817C
100
AcDbXrecord
280
     1
270
     1
271
     1
  0
XRECORD
  5
8182
102
{ACAD_REACTORS
330
817C
102
}
330
817C
100
AcDbXrecord
280
     1
270
     1
271
     1
  0
XRECORD
  5
817F
102
{ACAD_REACTORS
330
817C
102
}
330
817C
100
AcDbXrecord
280
     1
270
     1
271
     1
  0
XRECORD
  5
8580
102
{ACAD_REACTORS
330
857F
102
}
330
857F
100
AcDbXrecord
280
     1
102
DISPLAYNAME
  1
Imperial24
102
FLAGS
 90
        0
  0
CELLSTYLEMAP
  5
8547
102
{ACAD_REACTORS
330
8546
102
}
330
8546
100
AcDbCellStyleMap
 90
        3
300
CELLSTYLE
  1
TABLEFORMAT_BEGIN
 90
        5
170
     1
 91
        0
 92
    32768
 62
   257
 93
        1
300
CONTENTFORMAT
  1
CONTENTFORMAT_BEGIN
 90
        0
 91
        0
 92
      512
 93
        0
300

 40
0.0
140
1.0
 94
        5
 62
     0
340
81AF
144
0.25
309
CONTENTFORMAT_END
171
     0
 94
        0
309
TABLEFORMAT_END
  1
CELLSTYLE_BEGIN
 90
        1
 91
        1
300
_TITLE
309
CELLSTYLE_END
300
CELLSTYLE
  1
TABLEFORMAT_BEGIN
 90
        5
170
     1
 91
        0
 92
        0
 62
   257
 93
        1
300
CONTENTFORMAT
  1
CONTENTFORMAT_BEGIN
 90
        0
 91
        0
 92
      512
 93
        0
300

 40
0.0
140
1.0
 94
        5
 62
     0
340
81AF
144
0.18
309
CONTENTFORMAT_END
171
     0
 94
        0
309
TABLEFORMAT_END
  1
CELLSTYLE_BEGIN
 90
        2
 91
        1
300
_HEADER
309
CELLSTYLE_END
300
CELLSTYLE
  1
TABLEFORMAT_BEGIN
 90
        5
170
     1
 91
        0
 92
        0
 62
   257
 93
        1
300
CONTENTFORMAT
  1
CONTENTFORMAT_BEGIN
 90
        0
 91
        0
 92
      512
 93
        0
300

 40
0.0
140
1.0
 94
        2
 62
     0
340
81AF
144
0.18
309
CONTENTFORMAT_END
171
     0
 94
        0
309
TABLEFORMAT_END
  1
CELLSTYLE_BEGIN
 90
        3
 91
        2
300
_DATA
309
CELLSTYLE_END
  0
XRECORD
  5
857D
102
{ACAD_REACTORS
330
8546
102
}
330
8546
100
AcDbXrecord
280
     1
102
ACAD_ROUNDTRIP_PRE2007_TABLESTYLE
 90
      512
 91
        0
  1

 92
      512
 93
        0
  2

 94
      512
 95
        0
  3

  0
XRECORD
  5
8558
102
{ACAD_REACTORS
330
8557
102
}
330
8557
100
AcDbXrecord
280
     1
102
RTVSPost2010Prop28
280
     1
102
RTVSPost2010PropOp28
 70
     1
102
RTVSPost2010Prop29
280
     1
102
RTVSPost2010PropOp29
 70
     1
102
RTVSPost2010Prop30
280
     0
102
RTVSPost2010PropOp30
 70
     1
102
RTVSPost2010Prop31
280
     0
102
RTVSPost2010PropOp31
 70
     1
102
RTVSPost2010Prop32
280
     0
102
RTVSPost2010PropOp32
 70
     1
102
RTVSPost2010Prop33
280
     0
102
RTVSPost2010PropOp33
 70
     1
102
RTVSPost2010Prop34
280
     0
102
RTVSPost2010PropOp34
 70
     1
102
RTVSPost2010Prop35
280
     0
102
RTVSPost2010PropOp35
 70
     1
102
RTVSPost2010Prop36
280
     0
102
RTVSPost2010PropOp36
 70
     1
102
RTVSPost2010Prop37
 90
       50
102
RTVSPost2010PropOp37
 70
     1
102
RTVSPost2010Prop38
140
0.0
102
RTVSPost2010PropOp38
 70
     1
102
RTVSPost2010Prop39
140
1.0
102
RTVSPost2010PropOp39
 70
     1
102
RTVSPost2010Prop40
 90
        0
102
RTVSPost2010PropOp40
 70
     1
102
RTVSPost2010Prop41ColorIndex
 90
       18
102
RTVSPost2010Prop41ColorRGB
 90
        0
102
RTVSPost2010PropOp41
 70
     1
102
RTVSPost2010Prop42
 90
       50
102
RTVSPost2010PropOp42
 70
     1
102
RTVSPost2010Prop43
 90
        3
102
RTVSPost2010PropOp43
 70
     1
102
RTVSPost2010Prop44ColorIndex
 90
        5
102
RTVSPost2010Prop44ColorRGB
 90
      255
102
RTVSPost2010PropOp44
 70
     1
102
RTVSPost2010Prop45
280
     0
102
RTVSPost2010PropOp45
 70
     1
102
RTVSPost2010Prop46
 90
       50
102
RTVSPost2010PropOp46
 70
     1
102
RTVSPost2010Prop47
 90
       50
102
RTVSPost2010PropOp47
 70
     1
102
RTVSPost2010Prop48
 90
       50
102
RTVSPost2010PropOp48
 70
     1
102
RTVSPost2010Prop49
280
     0
102
RTVSPost2010PropOp49
 70
     1
102
RTVSPost2010Prop50
 90
       50
102
RTVSPost2010PropOp50
 70
     1
102
RTVSPost2010Prop51ColorIndex
 90
      256
102
RTVSPost2010Prop51ColorRGB
 90
-16777216
102
RTVSPost2010PropOp51
 70
     0
102
RTVSPost2010Prop52
140
1.0
102
RTVSPost2010PropOp52
 70
     0
102
RTVSPost2010Prop53
 90
        2
102
RTVSPost2010PropOp53
 70
     1
102
RTVSPost2010Prop54
  1
strokes_ogs.tif
102
RTVSPost2010PropOp54
 70
     1
102
RTVSPost2010Prop55
280
     0
102
RTVSPost2010PropOp55
 70
     1
102
RTVSPost2010Prop56
140
1.0
102
RTVSPost2010PropOp56
 70
     1
102
RTVSPost2010Prop57
140
1.0
102
RTVSPost2010PropOp57
 70
     1
102
RTVSPropertyOp0
 70
     1
102
RTVSPropertyOp1
 70
     1
102
RTVSPropertyOp2
 70
     1
102
RTVSPropertyOp3
 70
     1
102
RTVSPropertyOp4
 70
     1
102
RTVSPropertyOp5
 70
     1
102
RTVSPropertyOp6
 70
     1
102
RTVSPropertyOp7
 70
     1
102
RTVSPropertyOp8
 70
     1
102
RTVSPropertyOp9
 70
     1
102
RTVSPropertyOp10
 70
     1
102
RTVSPropertyOp11
 70
     1
102
RTVSPropertyOp12
 70
     1
102
RTVSPropertyOp13
 70
     1
102
RTVSPropertyOp14
 70
     1
102
RTVSPropertyOp15
 70
     1
102
RTVSPropertyOp16
 70
     1
102
RTVSPropertyOp17
 70
     1
102
RTVSPropertyOp18
 70
     1
102
RTVSPropertyOp19
 70
     1
102
RTVSPropertyOp20
 70
     1
102
RTVSPropertyOp21
 70
     1
102
RTVSPropertyOp22
 70
     1
102
RTVSPropertyOp23
 70
     1
102
RTVSPropertyOp24
 70
     1
102
RTVSPropertyOp25
 70
     1
102
RTVSPropertyOp26
 70
     1
102
RTVSPropertyOp27
 70
     1
102
RTVSPropertyOp28
 70
     1
102
RTVSPropertyOp29
 70
     1
102
RTVSPropertyOp30
 70
     1
102
RTVSPropertyOp31
 70
     1
102
RTVSPropertyOp32
 70
     1
102
RTVSPropertyOp33
 70
     1
102
RTVSPropertyOp34
 70
     1
102
RTVSPropertyOp35
 70
     1
102
RTVSPropertyOp36
 70
     1
102
RTVSPropertyOp37
 70
     1
102
RTVSPropertyOp38
 70
     1
102
RTVSPropertyOp39
 70
     1
102
RTVSPropertyOp40
 70
     1
102
RTVSPropertyOp41
 70
     1
102
RTVSPropertyOp42
 70
     1
102
RTVSPropertyOp43
 70
     1
102
RTVSPropertyOp44
 70
     1
102
RTVSPropertyOp45
 70
     1
102
RTVSPropertyOp46
 70
     1
102
RTVSPropertyOp47
 70
     1
102
RTVSPropertyOp48
 70
     1
102
RTVSPropertyOp49
 70
     1
102
RTVSPropertyOp50
 70
     1
102
RTVSPropertyOp51
 70
     0
102
RTVSPropertyOp52
 70
     0
102
RTVSPropertyOp53
 70
     1
102
RTVSPropertyOp54
 70
     1
102
RTVSPropertyOp55
 70
     1
102
RTVSPropertyOp56
 70
     1
102
RTVSPropertyOp57
 70
     1
102
RTVSPropertyOp58
 70
     1
102
RTVSPropertyOp59
 70
     1
102
RTVSPropertyOp60
 70
     1
102
RTVSPropertyOp61
 70
     1
102
RTVSPropertyOp62
 70
     1
  0
XRECORD
  5
8556
102
{ACAD_REACTORS
330
8555
102
}
330
8555
100
AcDbXrecord
280
     1
102
RTVSPost2010Prop28
280
     0
102
RTVSPost2010PropOp28
 70
     1
102
RTVSPost2010Prop29
280
     1
102
RTVSPost2010PropOp29
 70
     1
102
RTVSPost2010Prop30
280
     1
102
RTVSPost2010PropOp30
 70
     1
102
RTVSPost2010Prop31
280
     0
102
RTVSPost2010PropOp31
 70
     1
102
RTVSPost2010Prop32
280
     0
102
RTVSPost2010PropOp32
 70
     1
102
RTVSPost2010Prop33
280
     0
102
RTVSPost2010PropOp33
 70
     1
102
RTVSPost2010Prop34
280
     0
102
RTVSPost2010PropOp34
 70
     1
102
RTVSPost2010Prop35
280
     0
102
RTVSPost2010PropOp35
 70
     1
102
RTVSPost2010Prop36
280
     0
102
RTVSPost2010PropOp36
 70
     1
102
RTVSPost2010Prop37
 90
       50
102
RTVSPost2010PropOp37
 70
     1
102
RTVSPost2010Prop38
140
0.0
102
RTVSPost2010PropOp38
 70
     1
102
RTVSPost2010Prop39
140
1.0
102
RTVSPost2010PropOp39
 70
     1
102
RTVSPost2010Prop40
 90
        0
102
RTVSPost2010PropOp40
 70
     1
102
RTVSPost2010Prop41ColorIndex
 90
       18
102
RTVSPost2010Prop41ColorRGB
 90
        0
102
RTVSPost2010PropOp41
 70
     1
102
RTVSPost2010Prop42
 90
       50
102
RTVSPost2010PropOp42
 70
     1
102
RTVSPost2010Prop43
 90
        3
102
RTVSPost2010PropOp43
 70
     1
102
RTVSPost2010Prop44ColorIndex
 90
        5
102
RTVSPost2010Prop44ColorRGB
 90
      255
102
RTVSPost2010PropOp44
 70
     1
102
RTVSPost2010Prop45
280
     0
102
RTVSPost2010PropOp45
 70
     1
102
RTVSPost2010Prop46
 90
       50
102
RTVSPost2010PropOp46
 70
     1
102
RTVSPost2010Prop47
 90
       50
102
RTVSPost2010PropOp47
 70
     1
102
RTVSPost2010Prop48
 90
       50
102
RTVSPost2010PropOp48
 70
     1
102
RTVSPost2010Prop49
280
     0
102
RTVSPost2010PropOp49
 70
     1
102
RTVSPost2010Prop50
 90
       50
102
RTVSPost2010PropOp50
 70
     1
102
RTVSPost2010Prop51ColorIndex
 90
      256
102
RTVSPost2010Prop51ColorRGB
 90
-16777216
102
RTVSPost2010PropOp51
 70
     0
102
RTVSPost2010Prop52
140
1.0
102
RTVSPost2010PropOp52
 70
     0
102
RTVSPost2010Prop53
 90
        2
102
RTVSPost2010PropOp53
 70
     1
102
RTVSPost2010Prop54
  1
strokes_ogs.tif
102
RTVSPost2010PropOp54
 70
     1
102
RTVSPost2010Prop55
280
     0
102
RTVSPost2010PropOp55
 70
     1
102
RTVSPost2010Prop56
140
1.0
102
RTVSPost2010PropOp56
 70
     1
102
RTVSPost2010Prop57
140
1.0
102
RTVSPost2010PropOp57
 70
     1
102
RTVSPropertyOp0
 70
     1
102
RTVSPropertyOp1
 70
     1
102
RTVSPropertyOp2
 70
     1
102
RTVSPropertyOp3
 70
     1
102
RTVSPropertyOp4
 70
     1
102
RTVSPropertyOp5
 70
     1
102
RTVSPropertyOp6
 70
     1
102
RTVSPropertyOp7
 70
     1
102
RTVSPropertyOp8
 70
     1
102
RTVSPropertyOp9
 70
     1
102
RTVSPropertyOp10
 70
     1
102
RTVSPropertyOp11
 70
     1
102
RTVSPropertyOp12
 70
     1
102
RTVSPropertyOp13
 70
     1
102
RTVSPropertyOp14
 70
     1
102
RTVSPropertyOp15
 70
     1
102
RTVSPropertyOp16
 70
     1
102
RTVSPropertyOp17
 70
     1
102
RTVSPropertyOp18
 70
     1
102
RTVSPropertyOp19
 70
     1
102
RTVSPropertyOp20
 70
     1
102
RTVSPropertyOp21
 70
     1
102
RTVSPropertyOp22
 70
     1
102
RTVSPropertyOp23
 70
     1
102
RTVSPropertyOp24
 70
     1
102
RTVSPropertyOp25
 70
     1
102
RTVSPropertyOp26
 70
     1
102
RTVSPropertyOp27
 70
     1
102
RTVSPropertyOp28
 70
     1
102
RTVSPropertyOp29
 70
     1
102
RTVSPropertyOp30
 70
     1
102
RTVSPropertyOp31
 70
     1
102
RTVSPropertyOp32
 70
     1
102
RTVSPropertyOp33
 70
     1
102
RTVSPropertyOp34
 70
     1
102
RTVSPropertyOp35
 70
     1
102
RTVSPropertyOp36
 70
     1
102
RTVSPropertyOp37
 70
     1
102
RTVSPropertyOp38
 70
     1
102
RTVSPropertyOp39
 70
     1
102
RTVSPropertyOp40
 70
     1
102
RTVSPropertyOp41
 70
     1
102
RTVSPropertyOp42
 70
     1
102
RTVSPropertyOp43
 70
     1
102
RTVSPropertyOp44
 70
     1
102
RTVSPropertyOp45
 70
     1
102
RTVSPropertyOp46
 70
     1
102
RTVSPropertyOp47
 70
     1
102
RTVSPropertyOp48
 70
     1
102
RTVSPropertyOp49
 70
     1
102
RTVSPropertyOp50
 70
     1
102
RTVSPropertyOp51
 70
     0
102
RTVSPropertyOp52
 70
     0
102
RTVSPropertyOp53
 70
     1
102
RTVSPropertyOp54
 70
     1
102
RTVSPropertyOp55
 70
     1
102
RTVSPropertyOp56
 70
     1
102
RTVSPropertyOp57
 70
     1
102
RTVSPropertyOp58
 70
     1
102
RTVSPropertyOp59
 70
     1
102
RTVSPropertyOp60
 70
     1
102
RTVSPropertyOp61
 70
     1
102
RTVSPropertyOp62
 70
     1
  0
XRECORD
  5
8564
102
{ACAD_REACTORS
330
8563
102
}
330
8563
100
AcDbXrecord
280
     1
102
RTVSPost2010Prop28
280
     0
102
RTVSPost2010PropOp28
 70
     1
102
RTVSPost2010Prop29
280
     1
102
RTVSPost2010PropOp29
 70
     1
102
RTVSPost2010Prop30
280
     1
102
RTVSPost2010PropOp30
 70
     1
102
RTVSPost2010Prop31
280
     0
102
RTVSPost2010PropOp31
 70
     1
102
RTVSPost2010Prop32
280
     0
102
RTVSPost2010PropOp32
 70
     1
102
RTVSPost2010Prop33
280
     0
102
RTVSPost2010PropOp33
 70
     1
102
RTVSPost2010Prop34
280
     0
102
RTVSPost2010PropOp34
 70
     1
102
RTVSPost2010Prop35
280
     0
102
RTVSPost2010PropOp35
 70
     1
102
RTVSPost2010Prop36
280
     0
102
RTVSPost2010PropOp36
 70
     1
102
RTVSPost2010Prop37
 90
       50
102
RTVSPost2010PropOp37
 70
     1
102
RTVSPost2010Prop38
140
0.0
102
RTVSPost2010PropOp38
 70
     1
102
RTVSPost2010Prop39
140
1.0
102
RTVSPost2010PropOp39
 70
     1
102
RTVSPost2010Prop40
 90
        0
102
RTVSPost2010PropOp40
 70
     1
102
RTVSPost2010Prop41ColorIndex
 90
       18
102
RTVSPost2010Prop41ColorRGB
 90
        0
102
RTVSPost2010PropOp41
 70
     1
102
RTVSPost2010Prop42
 90
       50
102
RTVSPost2010PropOp42
 70
     1
102
RTVSPost2010Prop43
 90
        3
102
RTVSPost2010PropOp43
 70
     1
102
RTVSPost2010Prop44ColorIndex
 90
        5
102
RTVSPost2010Prop44ColorRGB
 90
      255
102
RTVSPost2010PropOp44
 70
     1
102
RTVSPost2010Prop45
280
     0
102
RTVSPost2010PropOp45
 70
     1
102
RTVSPost2010Prop46
 90
       50
102
RTVSPost2010PropOp46
 70
     1
102
RTVSPost2010Prop47
 90
       50
102
RTVSPost2010PropOp47
 70
     1
102
RTVSPost2010Prop48
 90
       50
102
RTVSPost2010PropOp48
 70
     1
102
RTVSPost2010Prop49
280
     0
102
RTVSPost2010PropOp49
 70
     1
102
RTVSPost2010Prop50
 90
       50
102
RTVSPost2010PropOp50
 70
     1
102
RTVSPost2010Prop51ColorIndex
 90
      256
102
RTVSPost2010Prop51ColorRGB
 90
-16777216
102
RTVSPost2010PropOp51
 70
     0
102
RTVSPost2010Prop52
140
1.0
102
RTVSPost2010PropOp52
 70
     0
102
RTVSPost2010Prop53
 90
        2
102
RTVSPost2010PropOp53
 70
     1
102
RTVSPost2010Prop54
  1
strokes_ogs.tif
102
RTVSPost2010PropOp54
 70
     1
102
RTVSPost2010Prop55
280
     0
102
RTVSPost2010PropOp55
 70
     1
102
RTVSPost2010Prop56
140
1.0
102
RTVSPost2010PropOp56
 70
     1
102
RTVSPost2010Prop57
140
1.0
102
RTVSPost2010PropOp57
 70
     1
102
RTVSPropertyOp0
 70
     1
102
RTVSPropertyOp1
 70
     1
102
RTVSPropertyOp2
 70
     1
102
RTVSPropertyOp3
 70
     1
102
RTVSPropertyOp4
 70
     1
102
RTVSPropertyOp5
 70
     1
102
RTVSPropertyOp6
 70
     1
102
RTVSPropertyOp7
 70
     1
102
RTVSPropertyOp8
 70
     1
102
RTVSPropertyOp9
 70
     1
102
RTVSPropertyOp10
 70
     1
102
RTVSPropertyOp11
 70
     1
102
RTVSPropertyOp12
 70
     1
102
RTVSPropertyOp13
 70
     1
102
RTVSPropertyOp14
 70
     1
102
RTVSPropertyOp15
 70
     1
102
RTVSPropertyOp16
 70
     1
102
RTVSPropertyOp17
 70
     1
102
RTVSPropertyOp18
 70
     1
102
RTVSPropertyOp19
 70
     1
102
RTVSPropertyOp20
 70
     1
102
RTVSPropertyOp21
 70
     1
102
RTVSPropertyOp22
 70
     1
102
RTVSPropertyOp23
 70
     1
102
RTVSPropertyOp24
 70
     1
102
RTVSPropertyOp25
 70
     1
102
RTVSPropertyOp26
 70
     1
102
RTVSPropertyOp27
 70
     1
102
RTVSPropertyOp28
 70
     1
102
RTVSPropertyOp29
 70
     1
102
RTVSPropertyOp30
 70
     1
102
RTVSPropertyOp31
 70
     1
102
RTVSPropertyOp32
 70
     1
102
RTVSPropertyOp33
 70
     1
102
RTVSPropertyOp34
 70
     1
102
RTVSPropertyOp35
 70
     1
102
RTVSPropertyOp36
 70
     1
102
RTVSPropertyOp37
 70
     1
102
RTVSPropertyOp38
 70
     1
102
RTVSPropertyOp39
 70
     1
102
RTVSPropertyOp40
 70
     1
102
RTVSPropertyOp41
 70
     1
102
RTVSPropertyOp42
 70
     1
102
RTVSPropertyOp43
 70
     1
102
RTVSPropertyOp44
 70
     1
102
RTVSPropertyOp45
 70
     1
102
RTVSPropertyOp46
 70
     1
102
RTVSPropertyOp47
 70
     1
102
RTVSPropertyOp48
 70
     1
102
RTVSPropertyOp49
 70
     1
102
RTVSPropertyOp50
 70
     1
102
RTVSPropertyOp51
 70
     0
102
RTVSPropertyOp52
 70
     0
102
RTVSPropertyOp53
 70
     1
102
RTVSPropertyOp54
 70
     1
102
RTVSPropertyOp55
 70
     1
102
RTVSPropertyOp56
 70
     1
102
RTVSPropertyOp57
 70
     1
102
RTVSPropertyOp58
 70
     1
102
RTVSPropertyOp59
 70
     1
102
RTVSPropertyOp60
 70
     1
102
RTVSPropertyOp61
 70
     1
102
RTVSPropertyOp62
 70
     1
  0
XRECORD
  5
856C
102
{ACAD_REACTORS
330
856B
102
}
330
856B
100
AcDbXrecord
280
     1
102
RTVSPost2010Prop28
280
     0
102
RTVSPost2010PropOp28
 70
     1
102
RTVSPost2010Prop29
280
     1
102
RTVSPost2010PropOp29
 70
     1
102
RTVSPost2010Prop30
280
     1
102
RTVSPost2010PropOp30
 70
     1
102
RTVSPost2010Prop31
280
     0
102
RTVSPost2010PropOp31
 70
     1
102
RTVSPost2010Prop32
280
     0
102
RTVSPost2010PropOp32
 70
     1
102
RTVSPost2010Prop33
280
     0
102
RTVSPost2010PropOp33
 70
     1
102
RTVSPost2010Prop34
280
     0
102
RTVSPost2010PropOp34
 70
     1
102
RTVSPost2010Prop35
280
     0
102
RTVSPost2010PropOp35
 70
     1
102
RTVSPost2010Prop36
280
     0
102
RTVSPost2010PropOp36
 70
     1
102
RTVSPost2010Prop37
 90
       50
102
RTVSPost2010PropOp37
 70
     1
102
RTVSPost2010Prop38
140
0.0
102
RTVSPost2010PropOp38
 70
     1
102
RTVSPost2010Prop39
140
1.0
102
RTVSPost2010PropOp39
 70
     1
102
RTVSPost2010Prop40
 90
        0
102
RTVSPost2010PropOp40
 70
     1
102
RTVSPost2010Prop41ColorIndex
 90
       18
102
RTVSPost2010Prop41ColorRGB
 90
        0
102
RTVSPost2010PropOp41
 70
     1
102
RTVSPost2010Prop42
 90
       50
102
RTVSPost2010PropOp42
 70
     1
102
RTVSPost2010Prop43
 90
        3
102
RTVSPost2010PropOp43
 70
     1
102
RTVSPost2010Prop44ColorIndex
 90
        5
102
RTVSPost2010Prop44ColorRGB
 90
      255
102
RTVSPost2010PropOp44
 70
     1
102
RTVSPost2010Prop45
280
     0
102
RTVSPost2010PropOp45
 70
     1
102
RTVSPost2010Prop46
 90
       50
102
RTVSPost2010PropOp46
 70
     1
102
RTVSPost2010Prop47
 90
       50
102
RTVSPost2010PropOp47
 70
     1
102
RTVSPost2010Prop48
 90
       50
102
RTVSPost2010PropOp48
 70
     1
102
RTVSPost2010Prop49
280
     0
102
RTVSPost2010PropOp49
 70
     1
102
RTVSPost2010Prop50
 90
       50
102
RTVSPost2010PropOp50
 70
     1
102
RTVSPost2010Prop51ColorIndex
 90
      256
102
RTVSPost2010Prop51ColorRGB
 90
-16777216
102
RTVSPost2010PropOp51
 70
     0
102
RTVSPost2010Prop52
140
1.0
102
RTVSPost2010PropOp52
 70
     0
102
RTVSPost2010Prop53
 90
        2
102
RTVSPost2010PropOp53
 70
     1
102
RTVSPost2010Prop54
  1
strokes_ogs.tif
102
RTVSPost2010PropOp54
 70
     1
102
RTVSPost2010Prop55
280
     0
102
RTVSPost2010PropOp55
 70
     1
102
RTVSPost2010Prop56
140
1.0
102
RTVSPost2010PropOp56
 70
     1
102
RTVSPost2010Prop57
140
1.0
102
RTVSPost2010PropOp57
 70
     1
102
RTVSPropertyOp0
 70
     1
102
RTVSPropertyOp1
 70
     1
102
RTVSPropertyOp2
 70
     1
102
RTVSPropertyOp3
 70
     1
102
RTVSPropertyOp4
 70
     1
102
RTVSPropertyOp5
 70
     1
102
RTVSPropertyOp6
 70
     1
102
RTVSPropertyOp7
 70
     1
102
RTVSPropertyOp8
 70
     1
102
RTVSPropertyOp9
 70
     1
102
RTVSPropertyOp10
 70
     1
102
RTVSPropertyOp11
 70
     1
102
RTVSPropertyOp12
 70
     1
102
RTVSPropertyOp13
 70
     1
102
RTVSPropertyOp14
 70
     1
102
RTVSPropertyOp15
 70
     1
102
RTVSPropertyOp16
 70
     1
102
RTVSPropertyOp17
 70
     1
102
RTVSPropertyOp18
 70
     1
102
RTVSPropertyOp19
 70
     1
102
RTVSPropertyOp20
 70
     1
102
RTVSPropertyOp21
 70
     1
102
RTVSPropertyOp22
 70
     1
102
RTVSPropertyOp23
 70
     1
102
RTVSPropertyOp24
 70
     1
102
RTVSPropertyOp25
 70
     1
102
RTVSPropertyOp26
 70
     1
102
RTVSPropertyOp27
 70
     1
102
RTVSPropertyOp28
 70
     1
102
RTVSPropertyOp29
 70
     1
102
RTVSPropertyOp30
 70
     1
102
RTVSPropertyOp31
 70
     1
102
RTVSPropertyOp32
 70
     1
102
RTVSPropertyOp33
 70
     1
102
RTVSPropertyOp34
 70
     1
102
RTVSPropertyOp35
 70
     1
102
RTVSPropertyOp36
 70
     1
102
RTVSPropertyOp37
 70
     1
102
RTVSPropertyOp38
 70
     1
102
RTVSPropertyOp39
 70
     1
102
RTVSPropertyOp40
 70
     1
102
RTVSPropertyOp41
 70
     1
102
RTVSPropertyOp42
 70
     1
102
RTVSPropertyOp43
 70
     1
102
RTVSPropertyOp44
 70
     1
102
RTVSPropertyOp45
 70
     1
102
RTVSPropertyOp46
 70
     1
102
RTVSPropertyOp47
 70
     1
102
RTVSPropertyOp48
 70
     1
102
RTVSPropertyOp49
 70
     1
102
RTVSPropertyOp50
 70
     1
102
RTVSPropertyOp51
 70
     0
102
RTVSPropertyOp52
 70
     0
102
RTVSPropertyOp53
 70
     1
102
RTVSPropertyOp54
 70
     1
102
RTVSPropertyOp55
 70
     1
102
RTVSPropertyOp56
 70
     1
102
RTVSPropertyOp57
 70
     1
102
RTVSPropertyOp58
 70
     1
102
RTVSPropertyOp59
 70
     1
102
RTVSPropertyOp60
 70
     1
102
RTVSPropertyOp61
 70
     1
102
RTVSPropertyOp62
 70
     1
  0
XRECORD
  5
855E
102
{ACAD_REACTORS
330
855D
102
}
330
855D
100
AcDbXrecord
280
     1
102
RTVSPost2010Prop28
280
     0
102
RTVSPost2010PropOp28
 70
     1
102
RTVSPost2010Prop29
280
     1
102
RTVSPost2010PropOp29
 70
     1
102
RTVSPost2010Prop30
280
     1
102
RTVSPost2010PropOp30
 70
     1
102
RTVSPost2010Prop31
280
     0
102
RTVSPost2010PropOp31
 70
     1
102
RTVSPost2010Prop32
280
     0
102
RTVSPost2010PropOp32
 70
     1
102
RTVSPost2010Prop33
280
     0
102
RTVSPost2010PropOp33
 70
     1
102
RTVSPost2010Prop34
280
     0
102
RTVSPost2010PropOp34
 70
     1
102
RTVSPost2010Prop35
280
     0
102
RTVSPost2010PropOp35
 70
     1
102
RTVSPost2010Prop36
280
     0
102
RTVSPost2010PropOp36
 70
     1
102
RTVSPost2010Prop37
 90
       50
102
RTVSPost2010PropOp37
 70
     1
102
RTVSPost2010Prop38
140
0.0
102
RTVSPost2010PropOp38
 70
     1
102
RTVSPost2010Prop39
140
1.0
102
RTVSPost2010PropOp39
 70
     1
102
RTVSPost2010Prop40
 90
        0
102
RTVSPost2010PropOp40
 70
     1
102
RTVSPost2010Prop41ColorIndex
 90
       18
102
RTVSPost2010Prop41ColorRGB
 90
        0
102
RTVSPost2010PropOp41
 70
     1
102
RTVSPost2010Prop42
 90
       50
102
RTVSPost2010PropOp42
 70
     1
102
RTVSPost2010Prop43
 90
        3
102
RTVSPost2010PropOp43
 70
     1
102
RTVSPost2010Prop44ColorIndex
 90
        5
102
RTVSPost2010Prop44ColorRGB
 90
      255
102
RTVSPost2010PropOp44
 70
     1
102
RTVSPost2010Prop45
280
     0
102
RTVSPost2010PropOp45
 70
     1
102
RTVSPost2010Prop46
 90
       50
102
RTVSPost2010PropOp46
 70
     1
102
RTVSPost2010Prop47
 90
       50
102
RTVSPost2010PropOp47
 70
     1
102
RTVSPost2010Prop48
 90
       50
102
RTVSPost2010PropOp48
 70
     1
102
RTVSPost2010Prop49
280
     0
102
RTVSPost2010PropOp49
 70
     1
102
RTVSPost2010Prop50
 90
       50
102
RTVSPost2010PropOp50
 70
     1
102
RTVSPost2010Prop51ColorIndex
 90
      256
102
RTVSPost2010Prop51ColorRGB
 90
-16777216
102
RTVSPost2010PropOp51
 70
     0
102
RTVSPost2010Prop52
140
1.0
102
RTVSPost2010PropOp52
 70
     0
102
RTVSPost2010Prop53
 90
        2
102
RTVSPost2010PropOp53
 70
     1
102
RTVSPost2010Prop54
  1
strokes_ogs.tif
102
RTVSPost2010PropOp54
 70
     1
102
RTVSPost2010Prop55
280
     0
102
RTVSPost2010PropOp55
 70
     1
102
RTVSPost2010Prop56
140
1.0
102
RTVSPost2010PropOp56
 70
     1
102
RTVSPost2010Prop57
140
1.0
102
RTVSPost2010PropOp57
 70
     1
102
RTVSPropertyOp0
 70
     1
102
RTVSPropertyOp1
 70
     1
102
RTVSPropertyOp2
 70
     1
102
RTVSPropertyOp3
 70
     1
102
RTVSPropertyOp4
 70
     1
102
RTVSPropertyOp5
 70
     1
102
RTVSPropertyOp6
 70
     1
102
RTVSPropertyOp7
 70
     1
102
RTVSPropertyOp8
 70
     1
102
RTVSPropertyOp9
 70
     1
102
RTVSPropertyOp10
 70
     1
102
RTVSPropertyOp11
 70
     1
102
RTVSPropertyOp12
 70
     1
102
RTVSPropertyOp13
 70
     1
102
RTVSPropertyOp14
 70
     1
102
RTVSPropertyOp15
 70
     1
102
RTVSPropertyOp16
 70
     1
102
RTVSPropertyOp17
 70
     1
102
RTVSPropertyOp18
 70
     1
102
RTVSPropertyOp19
 70
     1
102
RTVSPropertyOp20
 70
     1
102
RTVSPropertyOp21
 70
     1
102
RTVSPropertyOp22
 70
     1
102
RTVSPropertyOp23
 70
     1
102
RTVSPropertyOp24
 70
     1
102
RTVSPropertyOp25
 70
     1
102
RTVSPropertyOp26
 70
     1
102
RTVSPropertyOp27
 70
     1
102
RTVSPropertyOp28
 70
     1
102
RTVSPropertyOp29
 70
     1
102
RTVSPropertyOp30
 70
     1
102
RTVSPropertyOp31
 70
     1
102
RTVSPropertyOp32
 70
     1
102
RTVSPropertyOp33
 70
     1
102
RTVSPropertyOp34
 70
     1
102
RTVSPropertyOp35
 70
     1
102
RTVSPropertyOp36
 70
     1
102
RTVSPropertyOp37
 70
     1
102
RTVSPropertyOp38
 70
     1
102
RTVSPropertyOp39
 70
     1
102
RTVSPropertyOp40
 70
     1
102
RTVSPropertyOp41
 70
     1
102
RTVSPropertyOp42
 70
     1
102
RTVSPropertyOp43
 70
     1
102
RTVSPropertyOp44
 70
     1
102
RTVSPropertyOp45
 70
     1
102
RTVSPropertyOp46
 70
     1
102
RTVSPropertyOp47
 70
     1
102
RTVSPropertyOp48
 70
     1
102
RTVSPropertyOp49
 70
     1
102
RTVSPropertyOp50
 70
     1
102
RTVSPropertyOp51
 70
     0
102
RTVSPropertyOp52
 70
     0
102
RTVSPropertyOp53
 70
     1
102
RTVSPropertyOp54
 70
     1
102
RTVSPropertyOp55
 70
     1
102
RTVSPropertyOp56
 70
     1
102
RTVSPropertyOp57
 70
     1
102
RTVSPropertyOp58
 70
     1
102
RTVSPropertyOp59
 70
     1
102
RTVSPropertyOp60
 70
     1
102
RTVSPropertyOp61
 70
     1
102
RTVSPropertyOp62
 70
     1
  0
XRECORD
  5
8562
102
{ACAD_REACTORS
330
8561
102
}
330
8561
100
AcDbXrecord
280
     1
102
RTVSPost2010Prop28
280
     0
102
RTVSPost2010PropOp28
 70
     1
102
RTVSPost2010Prop29
280
     1
102
RTVSPost2010PropOp29
 70
     1
102
RTVSPost2010Prop30
280
     1
102
RTVSPost2010PropOp30
 70
     1
102
RTVSPost2010Prop31
280
     0
102
RTVSPost2010PropOp31
 70
     1
102
RTVSPost2010Prop32
280
     0
102
RTVSPost2010PropOp32
 70
     1
102
RTVSPost2010Prop33
280
     0
102
RTVSPost2010PropOp33
 70
     1
102
RTVSPost2010Prop34
280
     0
102
RTVSPost2010PropOp34
 70
     1
102
RTVSPost2010Prop35
280
     0
102
RTVSPost2010PropOp35
 70
     1
102
RTVSPost2010Prop36
280
     0
102
RTVSPost2010PropOp36
 70
     1
102
RTVSPost2010Prop37
 90
       50
102
RTVSPost2010PropOp37
 70
     1
102
RTVSPost2010Prop38
140
0.0
102
RTVSPost2010PropOp38
 70
     1
102
RTVSPost2010Prop39
140
1.0
102
RTVSPost2010PropOp39
 70
     1
102
RTVSPost2010Prop40
 90
        0
102
RTVSPost2010PropOp40
 70
     1
102
RTVSPost2010Prop41ColorIndex
 90
       18
102
RTVSPost2010Prop41ColorRGB
 90
        0
102
RTVSPost2010PropOp41
 70
     1
102
RTVSPost2010Prop42
 90
       50
102
RTVSPost2010PropOp42
 70
     1
102
RTVSPost2010Prop43
 90
        3
102
RTVSPost2010PropOp43
 70
     1
102
RTVSPost2010Prop44ColorIndex
 90
        5
102
RTVSPost2010Prop44ColorRGB
 90
      255
102
RTVSPost2010PropOp44
 70
     1
102
RTVSPost2010Prop45
280
     0
102
RTVSPost2010PropOp45
 70
     1
102
RTVSPost2010Prop46
 90
       50
102
RTVSPost2010PropOp46
 70
     1
102
RTVSPost2010Prop47
 90
       50
102
RTVSPost2010PropOp47
 70
     1
102
RTVSPost2010Prop48
 90
       50
102
RTVSPost2010PropOp48
 70
     1
102
RTVSPost2010Prop49
280
     0
102
RTVSPost2010PropOp49
 70
     1
102
RTVSPost2010Prop50
 90
       50
102
RTVSPost2010PropOp50
 70
     1
102
RTVSPost2010Prop51ColorIndex
 90
      256
102
RTVSPost2010Prop51ColorRGB
 90
-16777216
102
RTVSPost2010PropOp51
 70
     0
102
RTVSPost2010Prop52
140
1.0
102
RTVSPost2010PropOp52
 70
     0
102
RTVSPost2010Prop53
 90
        2
102
RTVSPost2010PropOp53
 70
     1
102
RTVSPost2010Prop54
  1
strokes_ogs.tif
102
RTVSPost2010PropOp54
 70
     1
102
RTVSPost2010Prop55
280
     0
102
RTVSPost2010PropOp55
 70
     1
102
RTVSPost2010Prop56
140
1.0
102
RTVSPost2010PropOp56
 70
     1
102
RTVSPost2010Prop57
140
1.0
102
RTVSPost2010PropOp57
 70
     1
102
RTVSPropertyOp0
 70
     1
102
RTVSPropertyOp1
 70
     1
102
RTVSPropertyOp2
 70
     1
102
RTVSPropertyOp3
 70
     1
102
RTVSPropertyOp4
 70
     1
102
RTVSPropertyOp5
 70
     1
102
RTVSPropertyOp6
 70
     1
102
RTVSPropertyOp7
 70
     1
102
RTVSPropertyOp8
 70
     1
102
RTVSPropertyOp9
 70
     1
102
RTVSPropertyOp10
 70
     1
102
RTVSPropertyOp11
 70
     1
102
RTVSPropertyOp12
 70
     1
102
RTVSPropertyOp13
 70
     1
102
RTVSPropertyOp14
 70
     1
102
RTVSPropertyOp15
 70
     1
102
RTVSPropertyOp16
 70
     1
102
RTVSPropertyOp17
 70
     1
102
RTVSPropertyOp18
 70
     1
102
RTVSPropertyOp19
 70
     1
102
RTVSPropertyOp20
 70
     1
102
RTVSPropertyOp21
 70
     1
102
RTVSPropertyOp22
 70
     1
102
RTVSPropertyOp23
 70
     1
102
RTVSPropertyOp24
 70
     1
102
RTVSPropertyOp25
 70
     1
102
RTVSPropertyOp26
 70
     1
102
RTVSPropertyOp27
 70
     1
102
RTVSPropertyOp28
 70
     1
102
RTVSPropertyOp29
 70
     1
102
RTVSPropertyOp30
 70
     1
102
RTVSPropertyOp31
 70
     1
102
RTVSPropertyOp32
 70
     1
102
RTVSPropertyOp33
 70
     1
102
RTVSPropertyOp34
 70
     1
102
RTVSPropertyOp35
 70
     1
102
RTVSPropertyOp36
 70
     1
102
RTVSPropertyOp37
 70
     1
102
RTVSPropertyOp38
 70
     1
102
RTVSPropertyOp39
 70
     1
102
RTVSPropertyOp40
 70
     1
102
RTVSPropertyOp41
 70
     1
102
RTVSPropertyOp42
 70
     1
102
RTVSPropertyOp43
 70
     1
102
RTVSPropertyOp44
 70
     1
102
RTVSPropertyOp45
 70
     1
102
RTVSPropertyOp46
 70
     1
102
RTVSPropertyOp47
 70
     1
102
RTVSPropertyOp48
 70
     1
102
RTVSPropertyOp49
 70
     1
102
RTVSPropertyOp50
 70
     1
102
RTVSPropertyOp51
 70
     0
102
RTVSPropertyOp52
 70
     0
102
RTVSPropertyOp53
 70
     1
102
RTVSPropertyOp54
 70
     1
102
RTVSPropertyOp55
 70
     1
102
RTVSPropertyOp56
 70
     1
102
RTVSPropertyOp57
 70
     1
102
RTVSPropertyOp58
 70
     1
102
RTVSPropertyOp59
 70
     1
102
RTVSPropertyOp60
 70
     1
102
RTVSPropertyOp61
 70
     1
102
RTVSPropertyOp62
 70
     1
  0
XRECORD
  5
857C
102
{ACAD_REACTORS
330
857B
102
}
330
857B
100
AcDbXrecord
280
     1
102
RTVSPost2010Prop28
280
     0
102
RTVSPost2010PropOp28
 70
     1
102
RTVSPost2010Prop29
280
     1
102
RTVSPost2010PropOp29
 70
     1
102
RTVSPost2010Prop30
280
     1
102
RTVSPost2010PropOp30
 70
     1
102
RTVSPost2010Prop31
280
     0
102
RTVSPost2010PropOp31
 70
     1
102
RTVSPost2010Prop32
280
     0
102
RTVSPost2010PropOp32
 70
     1
102
RTVSPost2010Prop33
280
     0
102
RTVSPost2010PropOp33
 70
     1
102
RTVSPost2010Prop34
280
     0
102
RTVSPost2010PropOp34
 70
     1
102
RTVSPost2010Prop35
280
     0
102
RTVSPost2010PropOp35
 70
     1
102
RTVSPost2010Prop36
280
     0
102
RTVSPost2010PropOp36
 70
     1
102
RTVSPost2010Prop37
 90
       50
102
RTVSPost2010PropOp37
 70
     0
102
RTVSPost2010Prop38
140
0.0
102
RTVSPost2010PropOp38
 70
     0
102
RTVSPost2010Prop39
140
1.0
102
RTVSPost2010PropOp39
 70
     0
102
RTVSPost2010Prop40
 90
        0
102
RTVSPost2010PropOp40
 70
     0
102
RTVSPost2010Prop41ColorIndex
 90
       18
102
RTVSPost2010Prop41ColorRGB
 90
        0
102
RTVSPost2010PropOp41
 70
     0
102
RTVSPost2010Prop42
 90
       50
102
RTVSPost2010PropOp42
 70
     0
102
RTVSPost2010Prop43
 90
        3
102
RTVSPost2010PropOp43
 70
     0
102
RTVSPost2010Prop44ColorIndex
 90
        5
102
RTVSPost2010Prop44ColorRGB
 90
      255
102
RTVSPost2010PropOp44
 70
     0
102
RTVSPost2010Prop45
280
     0
102
RTVSPost2010PropOp45
 70
     1
102
RTVSPost2010Prop46
 90
       50
102
RTVSPost2010PropOp46
 70
     0
102
RTVSPost2010Prop47
 90
       50
102
RTVSPost2010PropOp47
 70
     0
102
RTVSPost2010Prop48
 90
       50
102
RTVSPost2010PropOp48
 70
     0
102
RTVSPost2010Prop49
280
     0
102
RTVSPost2010PropOp49
 70
     1
102
RTVSPost2010Prop50
 90
       50
102
RTVSPost2010PropOp50
 70
     0
102
RTVSPost2010Prop51ColorIndex
 90
      256
102
RTVSPost2010Prop51ColorRGB
 90
-16777216
102
RTVSPost2010PropOp51
 70
     0
102
RTVSPost2010Prop52
140
1.0
102
RTVSPost2010PropOp52
 70
     0
102
RTVSPost2010Prop53
 90
        2
102
RTVSPost2010PropOp53
 70
     0
102
RTVSPost2010Prop54
  1
strokes_ogs.tif
102
RTVSPost2010PropOp54
 70
     0
102
RTVSPost2010Prop55
280
     0
102
RTVSPost2010PropOp55
 70
     1
102
RTVSPost2010Prop56
140
1.0
102
RTVSPost2010PropOp56
 70
     0
102
RTVSPost2010Prop57
140
1.0
102
RTVSPost2010PropOp57
 70
     0
102
RTVSPropertyOp0
 70
     0
102
RTVSPropertyOp1
 70
     0
102
RTVSPropertyOp2
 70
     0
102
RTVSPropertyOp3
 70
     0
102
RTVSPropertyOp4
 70
     0
102
RTVSPropertyOp5
 70
     0
102
RTVSPropertyOp6
 70
     0
102
RTVSPropertyOp7
 70
     0
102
RTVSPropertyOp8
 70
     0
102
RTVSPropertyOp9
 70
     0
102
RTVSPropertyOp10
 70
     0
102
RTVSPropertyOp11
 70
     0
102
RTVSPropertyOp12
 70
     0
102
RTVSPropertyOp13
 70
     0
102
RTVSPropertyOp14
 70
     2
102
RTVSPropertyOp15
 70
     0
102
RTVSPropertyOp16
 70
     0
102
RTVSPropertyOp17
 70
     0
102
RTVSPropertyOp18
 70
     0
102
RTVSPropertyOp19
 70
     0
102
RTVSPropertyOp20
 70
     0
102
RTVSPropertyOp21
 70
     0
102
RTVSPropertyOp22
 70
     0
102
RTVSPropertyOp23
 70
     0
102
RTVSPropertyOp24
 70
     0
102
RTVSPropertyOp25
 70
     0
102
RTVSPropertyOp26
 70
     0
102
RTVSPropertyOp27
 70
     0
102
RTVSPropertyOp28
 70
     1
102
RTVSPropertyOp29
 70
     1
102
RTVSPropertyOp30
 70
     1
102
RTVSPropertyOp31
 70
     1
102
RTVSPropertyOp32
 70
     1
102
RTVSPropertyOp33
 70
     1
102
RTVSPropertyOp34
 70
     1
102
RTVSPropertyOp35
 70
     1
102
RTVSPropertyOp36
 70
     1
102
RTVSPropertyOp37
 70
     0
102
RTVSPropertyOp38
 70
     0
102
RTVSPropertyOp39
 70
     0
102
RTVSPropertyOp40
 70
     0
102
RTVSPropertyOp41
 70
     0
102
RTVSPropertyOp42
 70
     0
102
RTVSPropertyOp43
 70
     0
102
RTVSPropertyOp44
 70
     0
102
RTVSPropertyOp45
 70
     1
102
RTVSPropertyOp46
 70
     0
102
RTVSPropertyOp47
 70
     0
102
RTVSPropertyOp48
 70
     0
102
RTVSPropertyOp49
 70
     1
102
RTVSPropertyOp50
 70
     0
102
RTVSPropertyOp51
 70
     0
102
RTVSPropertyOp52
 70
     0
102
RTVSPropertyOp53
 70
     0
102
RTVSPropertyOp54
 70
     0
102
RTVSPropertyOp55
 70
     1
102
RTVSPropertyOp56
 70
     0
102
RTVSPropertyOp57
 70
     0
102
RTVSPropertyOp58
 70
     0
102
RTVSPropertyOp59
 70
     0
102
RTVSPropertyOp60
 70
     0
102
RTVSPropertyOp61
 70
     0
102
RTVSPropertyOp62
 70
     0
  0
XRECORD
  5
856A
102
{ACAD_REACTORS
330
8569
102
}
330
8569
100
AcDbXrecord
280
     1
102
RTVSPost2010Prop28
280
     0
102
RTVSPost2010PropOp28
 70
     1
102
RTVSPost2010Prop29
280
     1
102
RTVSPost2010PropOp29
 70
     1
102
RTVSPost2010Prop30
280
     1
102
RTVSPost2010PropOp30
 70
     1
102
RTVSPost2010Prop31
280
     0
102
RTVSPost2010PropOp31
 70
     1
102
RTVSPost2010Prop32
280
     0
102
RTVSPost2010PropOp32
 70
     1
102
RTVSPost2010Prop33
280
     0
102
RTVSPost2010PropOp33
 70
     1
102
RTVSPost2010Prop34
280
     0
102
RTVSPost2010PropOp34
 70
     1
102
RTVSPost2010Prop35
280
     0
102
RTVSPost2010PropOp35
 70
     1
102
RTVSPost2010Prop36
280
     0
102
RTVSPost2010PropOp36
 70
     1
102
RTVSPost2010Prop37
 90
       50
102
RTVSPost2010PropOp37
 70
     1
102
RTVSPost2010Prop38
140
0.0
102
RTVSPost2010PropOp38
 70
     1
102
RTVSPost2010Prop39
140
1.0
102
RTVSPost2010PropOp39
 70
     1
102
RTVSPost2010Prop40
 90
        0
102
RTVSPost2010PropOp40
 70
     1
102
RTVSPost2010Prop41ColorIndex
 90
       18
102
RTVSPost2010Prop41ColorRGB
 90
        0
102
RTVSPost2010PropOp41
 70
     1
102
RTVSPost2010Prop42
 90
       50
102
RTVSPost2010PropOp42
 70
     1
102
RTVSPost2010Prop43
 90
        3
102
RTVSPost2010PropOp43
 70
     1
102
RTVSPost2010Prop44ColorIndex
 90
        5
102
RTVSPost2010Prop44ColorRGB
 90
      255
102
RTVSPost2010PropOp44
 70
     1
102
RTVSPost2010Prop45
280
     0
102
RTVSPost2010PropOp45
 70
     1
102
RTVSPost2010Prop46
 90
       50
102
RTVSPost2010PropOp46
 70
     1
102
RTVSPost2010Prop47
 90
       50
102
RTVSPost2010PropOp47
 70
     1
102
RTVSPost2010Prop48
 90
       50
102
RTVSPost2010PropOp48
 70
     1
102
RTVSPost2010Prop49
280
     0
102
RTVSPost2010PropOp49
 70
     1
102
RTVSPost2010Prop50
 90
       50
102
RTVSPost2010PropOp50
 70
     1
102
RTVSPost2010Prop51ColorIndex
 90
      256
102
RTVSPost2010Prop51ColorRGB
 90
-16777216
102
RTVSPost2010PropOp51
 70
     0
102
RTVSPost2010Prop52
140
1.0
102
RTVSPost2010PropOp52
 70
     0
102
RTVSPost2010Prop53
 90
        2
102
RTVSPost2010PropOp53
 70
     1
102
RTVSPost2010Prop54
  1
strokes_ogs.tif
102
RTVSPost2010PropOp54
 70
     1
102
RTVSPost2010Prop55
280
     0
102
RTVSPost2010PropOp55
 70
     1
102
RTVSPost2010Prop56
140
1.0
102
RTVSPost2010PropOp56
 70
     1
102
RTVSPost2010Prop57
140
1.0
102
RTVSPost2010PropOp57
 70
     1
102
RTVSPropertyOp0
 70
     1
102
RTVSPropertyOp1
 70
     1
102
RTVSPropertyOp2
 70
     1
102
RTVSPropertyOp3
 70
     1
102
RTVSPropertyOp4
 70
     1
102
RTVSPropertyOp5
 70
     1
102
RTVSPropertyOp6
 70
     1
102
RTVSPropertyOp7
 70
     1
102
RTVSPropertyOp8
 70
     1
102
RTVSPropertyOp9
 70
     1
102
RTVSPropertyOp10
 70
     1
102
RTVSPropertyOp11
 70
     1
102
RTVSPropertyOp12
 70
     1
102
RTVSPropertyOp13
 70
     1
102
RTVSPropertyOp14
 70
     1
102
RTVSPropertyOp15
 70
     1
102
RTVSPropertyOp16
 70
     1
102
RTVSPropertyOp17
 70
     1
102
RTVSPropertyOp18
 70
     1
102
RTVSPropertyOp19
 70
     1
102
RTVSPropertyOp20
 70
     1
102
RTVSPropertyOp21
 70
     1
102
RTVSPropertyOp22
 70
     1
102
RTVSPropertyOp23
 70
     1
102
RTVSPropertyOp24
 70
     1
102
RTVSPropertyOp25
 70
     1
102
RTVSPropertyOp26
 70
     1
102
RTVSPropertyOp27
 70
     1
102
RTVSPropertyOp28
 70
     1
102
RTVSPropertyOp29
 70
     1
102
RTVSPropertyOp30
 70
     1
102
RTVSPropertyOp31
 70
     1
102
RTVSPropertyOp32
 70
     1
102
RTVSPropertyOp33
 70
     1
102
RTVSPropertyOp34
 70
     1
102
RTVSPropertyOp35
 70
     1
102
RTVSPropertyOp36
 70
     1
102
RTVSPropertyOp37
 70
     1
102
RTVSPropertyOp38
 70
     1
102
RTVSPropertyOp39
 70
     1
102
RTVSPropertyOp40
 70
     1
102
RTVSPropertyOp41
 70
     1
102
RTVSPropertyOp42
 70
     1
102
RTVSPropertyOp43
 70
     1
102
RTVSPropertyOp44
 70
     1
102
RTVSPropertyOp45
 70
     1
102
RTVSPropertyOp46
 70
     1
102
RTVSPropertyOp47
 70
     1
102
RTVSPropertyOp48
 70
     1
102
RTVSPropertyOp49
 70
     1
102
RTVSPropertyOp50
 70
     1
102
RTVSPropertyOp51
 70
     0
102
RTVSPropertyOp52
 70
     0
102
RTVSPropertyOp53
 70
     1
102
RTVSPropertyOp54
 70
     1
102
RTVSPropertyOp55
 70
     1
102
RTVSPropertyOp56
 70
     1
102
RTVSPropertyOp57
 70
     1
102
RTVSPropertyOp58
 70
     1
102
RTVSPropertyOp59
 70
     1
102
RTVSPropertyOp60
 70
     1
102
RTVSPropertyOp61
 70
     1
102
RTVSPropertyOp62
 70
     1
  0
XRECORD
  5
854E
102
{ACAD_REACTORS
330
854D
102
}
330
854D
100
AcDbXrecord
280
     1
102
RTVSPost2010Prop28
280
     0
102
RTVSPost2010PropOp28
 70
     1
102
RTVSPost2010Prop29
280
     1
102
RTVSPost2010PropOp29
 70
     1
102
RTVSPost2010Prop30
280
     1
102
RTVSPost2010PropOp30
 70
     1
102
RTVSPost2010Prop31
280
     0
102
RTVSPost2010PropOp31
 70
     1
102
RTVSPost2010Prop32
280
     0
102
RTVSPost2010PropOp32
 70
     1
102
RTVSPost2010Prop33
280
     0
102
RTVSPost2010PropOp33
 70
     1
102
RTVSPost2010Prop34
280
     0
102
RTVSPost2010PropOp34
 70
     1
102
RTVSPost2010Prop35
280
     0
102
RTVSPost2010PropOp35
 70
     1
102
RTVSPost2010Prop36
280
     0
102
RTVSPost2010PropOp36
 70
     1
102
RTVSPost2010Prop37
 90
       50
102
RTVSPost2010PropOp37
 70
     1
102
RTVSPost2010Prop38
140
0.0
102
RTVSPost2010PropOp38
 70
     1
102
RTVSPost2010Prop39
140
1.0
102
RTVSPost2010PropOp39
 70
     1
102
RTVSPost2010Prop40
 90
        0
102
RTVSPost2010PropOp40
 70
     1
102
RTVSPost2010Prop41ColorIndex
 90
       18
102
RTVSPost2010Prop41ColorRGB
 90
        0
102
RTVSPost2010PropOp41
 70
     1
102
RTVSPost2010Prop42
 90
       50
102
RTVSPost2010PropOp42
 70
     1
102
RTVSPost2010Prop43
 90
        3
102
RTVSPost2010PropOp43
 70
     1
102
RTVSPost2010Prop44ColorIndex
 90
        5
102
RTVSPost2010Prop44ColorRGB
 90
      255
102
RTVSPost2010PropOp44
 70
     1
102
RTVSPost2010Prop45
280
     0
102
RTVSPost2010PropOp45
 70
     1
102
RTVSPost2010Prop46
 90
       50
102
RTVSPost2010PropOp46
 70
     1
102
RTVSPost2010Prop47
 90
       50
102
RTVSPost2010PropOp47
 70
     1
102
RTVSPost2010Prop48
 90
       50
102
RTVSPost2010PropOp48
 70
     1
102
RTVSPost2010Prop49
280
     0
102
RTVSPost2010PropOp49
 70
     1
102
RTVSPost2010Prop50
 90
       50
102
RTVSPost2010PropOp50
 70
     1
102
RTVSPost2010Prop51ColorIndex
 90
      256
102
RTVSPost2010Prop51ColorRGB
 90
-16777216
102
RTVSPost2010PropOp51
 70
     0
102
RTVSPost2010Prop52
140
1.0
102
RTVSPost2010PropOp52
 70
     0
102
RTVSPost2010Prop53
 90
        2
102
RTVSPost2010PropOp53
 70
     1
102
RTVSPost2010Prop54
  1
strokes_ogs.tif
102
RTVSPost2010PropOp54
 70
     1
102
RTVSPost2010Prop55
280
     0
102
RTVSPost2010PropOp55
 70
     1
102
RTVSPost2010Prop56
140
1.0
102
RTVSPost2010PropOp56
 70
     1
102
RTVSPost2010Prop57
140
1.0
102
RTVSPost2010PropOp57
 70
     1
102
RTVSPropertyOp0
 70
     1
102
RTVSPropertyOp1
 70
     1
102
RTVSPropertyOp2
 70
     1
102
RTVSPropertyOp3
 70
     1
102
RTVSPropertyOp4
 70
     1
102
RTVSPropertyOp5
 70
     1
102
RTVSPropertyOp6
 70
     1
102
RTVSPropertyOp7
 70
     1
102
RTVSPropertyOp8
 70
     1
102
RTVSPropertyOp9
 70
     1
102
RTVSPropertyOp10
 70
     1
102
RTVSPropertyOp11
 70
     1
102
RTVSPropertyOp12
 70
     1
102
RTVSPropertyOp13
 70
     1
102
RTVSPropertyOp14
 70
     1
102
RTVSPropertyOp15
 70
     1
102
RTVSPropertyOp16
 70
     1
102
RTVSPropertyOp17
 70
     1
102
RTVSPropertyOp18
 70
     1
102
RTVSPropertyOp19
 70
     1
102
RTVSPropertyOp20
 70
     1
102
RTVSPropertyOp21
 70
     1
102
RTVSPropertyOp22
 70
     1
102
RTVSPropertyOp23
 70
     1
102
RTVSPropertyOp24
 70
     1
102
RTVSPropertyOp25
 70
     1
102
RTVSPropertyOp26
 70
     1
102
RTVSPropertyOp27
 70
     1
102
RTVSPropertyOp28
 70
     1
102
RTVSPropertyOp29
 70
     1
102
RTVSPropertyOp30
 70
     1
102
RTVSPropertyOp31
 70
     1
102
RTVSPropertyOp32
 70
     1
102
RTVSPropertyOp33
 70
     1
102
RTVSPropertyOp34
 70
     1
102
RTVSPropertyOp35
 70
     1
102
RTVSPropertyOp36
 70
     1
102
RTVSPropertyOp37
 70
     1
102
RTVSPropertyOp38
 70
     1
102
RTVSPropertyOp39
 70
     1
102
RTVSPropertyOp40
 70
     1
102
RTVSPropertyOp41
 70
     1
102
RTVSPropertyOp42
 70
     1
102
RTVSPropertyOp43
 70
     1
102
RTVSPropertyOp44
 70
     1
102
RTVSPropertyOp45
 70
     1
102
RTVSPropertyOp46
 70
     1
102
RTVSPropertyOp47
 70
     1
102
RTVSPropertyOp48
 70
     1
102
RTVSPropertyOp49
 70
     1
102
RTVSPropertyOp50
 70
     1
102
RTVSPropertyOp51
 70
     0
102
RTVSPropertyOp52
 70
     0
102
RTVSPropertyOp53
 70
     1
102
RTVSPropertyOp54
 70
     1
102
RTVSPropertyOp55
 70
     1
102
RTVSPropertyOp56
 70
     1
102
RTVSPropertyOp57
 70
     1
102
RTVSPropertyOp58
 70
     1
102
RTVSPropertyOp59
 70
     1
102
RTVSPropertyOp60
 70
     1
102
RTVSPropertyOp61
 70
     1
102
RTVSPropertyOp62
 70
     1
  0
XRECORD
  5
8550
102
{ACAD_REACTORS
330
854F
102
}
330
854F
100
AcDbXrecord
280
     1
102
RTVSPost2010Prop28
280
     0
102
RTVSPost2010PropOp28
 70
     1
102
RTVSPost2010Prop29
280
     1
102
RTVSPost2010PropOp29
 70
     1
102
RTVSPost2010Prop30
280
     1
102
RTVSPost2010PropOp30
 70
     1
102
RTVSPost2010Prop31
280
     0
102
RTVSPost2010PropOp31
 70
     1
102
RTVSPost2010Prop32
280
     0
102
RTVSPost2010PropOp32
 70
     1
102
RTVSPost2010Prop33
280
     0
102
RTVSPost2010PropOp33
 70
     1
102
RTVSPost2010Prop34
280
     0
102
RTVSPost2010PropOp34
 70
     1
102
RTVSPost2010Prop35
280
     0
102
RTVSPost2010PropOp35
 70
     1
102
RTVSPost2010Prop36
280
     0
102
RTVSPost2010PropOp36
 70
     1
102
RTVSPost2010Prop37
 90
       50
102
RTVSPost2010PropOp37
 70
     1
102
RTVSPost2010Prop38
140
0.0
102
RTVSPost2010PropOp38
 70
     1
102
RTVSPost2010Prop39
140
1.0
102
RTVSPost2010PropOp39
 70
     1
102
RTVSPost2010Prop40
 90
        0
102
RTVSPost2010PropOp40
 70
     1
102
RTVSPost2010Prop41ColorIndex
 90
       18
102
RTVSPost2010Prop41ColorRGB
 90
        0
102
RTVSPost2010PropOp41
 70
     1
102
RTVSPost2010Prop42
 90
       50
102
RTVSPost2010PropOp42
 70
     1
102
RTVSPost2010Prop43
 90
        3
102
RTVSPost2010PropOp43
 70
     1
102
RTVSPost2010Prop44ColorIndex
 90
        5
102
RTVSPost2010Prop44ColorRGB
 90
      255
102
RTVSPost2010PropOp44
 70
     1
102
RTVSPost2010Prop45
280
     0
102
RTVSPost2010PropOp45
 70
     1
102
RTVSPost2010Prop46
 90
       50
102
RTVSPost2010PropOp46
 70
     1
102
RTVSPost2010Prop47
 90
       50
102
RTVSPost2010PropOp47
 70
     1
102
RTVSPost2010Prop48
 90
       50
102
RTVSPost2010PropOp48
 70
     1
102
RTVSPost2010Prop49
280
     0
102
RTVSPost2010PropOp49
 70
     1
102
RTVSPost2010Prop50
 90
       50
102
RTVSPost2010PropOp50
 70
     1
102
RTVSPost2010Prop51ColorIndex
 90
      256
102
RTVSPost2010Prop51ColorRGB
 90
-16777216
102
RTVSPost2010PropOp51
 70
     0
102
RTVSPost2010Prop52
140
1.0
102
RTVSPost2010PropOp52
 70
     0
102
RTVSPost2010Prop53
 90
        2
102
RTVSPost2010PropOp53
 70
     1
102
RTVSPost2010Prop54
  1
strokes_ogs.tif
102
RTVSPost2010PropOp54
 70
     1
102
RTVSPost2010Prop55
280
     0
102
RTVSPost2010PropOp55
 70
     1
102
RTVSPost2010Prop56
140
1.0
102
RTVSPost2010PropOp56
 70
     1
102
RTVSPost2010Prop57
140
1.0
102
RTVSPost2010PropOp57
 70
     1
102
RTVSPropertyOp0
 70
     1
102
RTVSPropertyOp1
 70
     1
102
RTVSPropertyOp2
 70
     1
102
RTVSPropertyOp3
 70
     1
102
RTVSPropertyOp4
 70
     1
102
RTVSPropertyOp5
 70
     1
102
RTVSPropertyOp6
 70
     1
102
RTVSPropertyOp7
 70
     1
102
RTVSPropertyOp8
 70
     1
102
RTVSPropertyOp9
 70
     1
102
RTVSPropertyOp10
 70
     1
102
RTVSPropertyOp11
 70
     1
102
RTVSPropertyOp12
 70
     1
102
RTVSPropertyOp13
 70
     1
102
RTVSPropertyOp14
 70
     1
102
RTVSPropertyOp15
 70
     1
102
RTVSPropertyOp16
 70
     1
102
RTVSPropertyOp17
 70
     1
102
RTVSPropertyOp18
 70
     1
102
RTVSPropertyOp19
 70
     1
102
RTVSPropertyOp20
 70
     1
102
RTVSPropertyOp21
 70
     1
102
RTVSPropertyOp22
 70
     1
102
RTVSPropertyOp23
 70
     1
102
RTVSPropertyOp24
 70
     1
102
RTVSPropertyOp25
 70
     1
102
RTVSPropertyOp26
 70
     1
102
RTVSPropertyOp27
 70
     1
102
RTVSPropertyOp28
 70
     1
102
RTVSPropertyOp29
 70
     1
102
RTVSPropertyOp30
 70
     1
102
RTVSPropertyOp31
 70
     1
102
RTVSPropertyOp32
 70
     1
102
RTVSPropertyOp33
 70
     1
102
RTVSPropertyOp34
 70
     1
102
RTVSPropertyOp35
 70
     1
102
RTVSPropertyOp36
 70
     1
102
RTVSPropertyOp37
 70
     1
102
RTVSPropertyOp38
 70
     1
102
RTVSPropertyOp39
 70
     1
102
RTVSPropertyOp40
 70
     1
102
RTVSPropertyOp41
 70
     1
102
RTVSPropertyOp42
 70
     1
102
RTVSPropertyOp43
 70
     1
102
RTVSPropertyOp44
 70
     1
102
RTVSPropertyOp45
 70
     1
102
RTVSPropertyOp46
 70
     1
102
RTVSPropertyOp47
 70
     1
102
RTVSPropertyOp48
 70
     1
102
RTVSPropertyOp49
 70
     1
102
RTVSPropertyOp50
 70
     1
102
RTVSPropertyOp51
 70
     0
102
RTVSPropertyOp52
 70
     0
102
RTVSPropertyOp53
 70
     1
102
RTVSPropertyOp54
 70
     1
102
RTVSPropertyOp55
 70
     1
102
RTVSPropertyOp56
 70
     1
102
RTVSPropertyOp57
 70
     1
102
RTVSPropertyOp58
 70
     1
102
RTVSPropertyOp59
 70
     1
102
RTVSPropertyOp60
 70
     1
102
RTVSPropertyOp61
 70
     1
102
RTVSPropertyOp62
 70
     1
  0
XRECORD
  5
8552
102
{ACAD_REACTORS
330
8551
102
}
330
8551
100
AcDbXrecord
280
     1
102
RTVSPost2010Prop28
280
     0
102
RTVSPost2010PropOp28
 70
     1
102
RTVSPost2010Prop29
280
     1
102
RTVSPost2010PropOp29
 70
     1
102
RTVSPost2010Prop30
280
     1
102
RTVSPost2010PropOp30
 70
     1
102
RTVSPost2010Prop31
280
     0
102
RTVSPost2010PropOp31
 70
     1
102
RTVSPost2010Prop32
280
     0
102
RTVSPost2010PropOp32
 70
     1
102
RTVSPost2010Prop33
280
     0
102
RTVSPost2010PropOp33
 70
     1
102
RTVSPost2010Prop34
280
     0
102
RTVSPost2010PropOp34
 70
     1
102
RTVSPost2010Prop35
280
     0
102
RTVSPost2010PropOp35
 70
     1
102
RTVSPost2010Prop36
280
     0
102
RTVSPost2010PropOp36
 70
     1
102
RTVSPost2010Prop37
 90
       50
102
RTVSPost2010PropOp37
 70
     1
102
RTVSPost2010Prop38
140
0.0
102
RTVSPost2010PropOp38
 70
     1
102
RTVSPost2010Prop39
140
1.0
102
RTVSPost2010PropOp39
 70
     1
102
RTVSPost2010Prop40
 90
        0
102
RTVSPost2010PropOp40
 70
     1
102
RTVSPost2010Prop41ColorIndex
 90
       18
102
RTVSPost2010Prop41ColorRGB
 90
        0
102
RTVSPost2010PropOp41
 70
     1
102
RTVSPost2010Prop42
 90
       50
102
RTVSPost2010PropOp42
 70
     1
102
RTVSPost2010Prop43
 90
        3
102
RTVSPost2010PropOp43
 70
     1
102
RTVSPost2010Prop44ColorIndex
 90
        5
102
RTVSPost2010Prop44ColorRGB
 90
      255
102
RTVSPost2010PropOp44
 70
     1
102
RTVSPost2010Prop45
280
     0
102
RTVSPost2010PropOp45
 70
     1
102
RTVSPost2010Prop46
 90
       50
102
RTVSPost2010PropOp46
 70
     1
102
RTVSPost2010Prop47
 90
       50
102
RTVSPost2010PropOp47
 70
     1
102
RTVSPost2010Prop48
 90
       50
102
RTVSPost2010PropOp48
 70
     1
102
RTVSPost2010Prop49
280
     0
102
RTVSPost2010PropOp49
 70
     1
102
RTVSPost2010Prop50
 90
       50
102
RTVSPost2010PropOp50
 70
     1
102
RTVSPost2010Prop51ColorIndex
 90
      256
102
RTVSPost2010Prop51ColorRGB
 90
-16777216
102
RTVSPost2010PropOp51
 70
     0
102
RTVSPost2010Prop52
140
1.0
102
RTVSPost2010PropOp52
 70
     0
102
RTVSPost2010Prop53
 90
        2
102
RTVSPost2010PropOp53
 70
     1
102
RTVSPost2010Prop54
  1
strokes_ogs.tif
102
RTVSPost2010PropOp54
 70
     1
102
RTVSPost2010Prop55
280
     0
102
RTVSPost2010PropOp55
 70
     1
102
RTVSPost2010Prop56
140
1.0
102
RTVSPost2010PropOp56
 70
     1
102
RTVSPost2010Prop57
140
1.0
102
RTVSPost2010PropOp57
 70
     1
102
RTVSPropertyOp0
 70
     1
102
RTVSPropertyOp1
 70
     1
102
RTVSPropertyOp2
 70
     1
102
RTVSPropertyOp3
 70
     1
102
RTVSPropertyOp4
 70
     1
102
RTVSPropertyOp5
 70
     1
102
RTVSPropertyOp6
 70
     1
102
RTVSPropertyOp7
 70
     1
102
RTVSPropertyOp8
 70
     1
102
RTVSPropertyOp9
 70
     1
102
RTVSPropertyOp10
 70
     1
102
RTVSPropertyOp11
 70
     1
102
RTVSPropertyOp12
 70
     1
102
RTVSPropertyOp13
 70
     1
102
RTVSPropertyOp14
 70
     1
102
RTVSPropertyOp15
 70
     1
102
RTVSPropertyOp16
 70
     1
102
RTVSPropertyOp17
 70
     1
102
RTVSPropertyOp18
 70
     1
102
RTVSPropertyOp19
 70
     1
102
RTVSPropertyOp20
 70
     1
102
RTVSPropertyOp21
 70
     1
102
RTVSPropertyOp22
 70
     1
102
RTVSPropertyOp23
 70
     1
102
RTVSPropertyOp24
 70
     1
102
RTVSPropertyOp25
 70
     1
102
RTVSPropertyOp26
 70
     1
102
RTVSPropertyOp27
 70
     1
102
RTVSPropertyOp28
 70
     1
102
RTVSPropertyOp29
 70
     1
102
RTVSPropertyOp30
 70
     1
102
RTVSPropertyOp31
 70
     1
102
RTVSPropertyOp32
 70
     1
102
RTVSPropertyOp33
 70
     1
102
RTVSPropertyOp34
 70
     1
102
RTVSPropertyOp35
 70
     1
102
RTVSPropertyOp36
 70
     1
102
RTVSPropertyOp37
 70
     1
102
RTVSPropertyOp38
 70
     1
102
RTVSPropertyOp39
 70
     1
102
RTVSPropertyOp40
 70
     1
102
RTVSPropertyOp41
 70
     1
102
RTVSPropertyOp42
 70
     1
102
RTVSPropertyOp43
 70
     1
102
RTVSPropertyOp44
 70
     1
102
RTVSPropertyOp45
 70
     1
102
RTVSPropertyOp46
 70
     1
102
RTVSPropertyOp47
 70
     1
102
RTVSPropertyOp48
 70
     1
102
RTVSPropertyOp49
 70
     1
102
RTVSPropertyOp50
 70
     1
102
RTVSPropertyOp51
 70
     0
102
RTVSPropertyOp52
 70
     0
102
RTVSPropertyOp53
 70
     1
102
RTVSPropertyOp54
 70
     1
102
RTVSPropertyOp55
 70
     1
102
RTVSPropertyOp56
 70
     1
102
RTVSPropertyOp57
 70
     1
102
RTVSPropertyOp58
 70
     1
102
RTVSPropertyOp59
 70
     1
102
RTVSPropertyOp60
 70
     1
102
RTVSPropertyOp61
 70
     1
102
RTVSPropertyOp62
 70
     1
  0
XRECORD
  5
8554
102
{ACAD_REACTORS
330
8553
102
}
330
8553
100
AcDbXrecord
280
     1
102
RTVSPost2010Prop28
280
     0
102
RTVSPost2010PropOp28
 70
     1
102
RTVSPost2010Prop29
280
     1
102
RTVSPost2010PropOp29
 70
     1
102
RTVSPost2010Prop30
280
     1
102
RTVSPost2010PropOp30
 70
     1
102
RTVSPost2010Prop31
280
     0
102
RTVSPost2010PropOp31
 70
     1
102
RTVSPost2010Prop32
280
     0
102
RTVSPost2010PropOp32
 70
     1
102
RTVSPost2010Prop33
280
     0
102
RTVSPost2010PropOp33
 70
     1
102
RTVSPost2010Prop34
280
     0
102
RTVSPost2010PropOp34
 70
     1
102
RTVSPost2010Prop35
280
     0
102
RTVSPost2010PropOp35
 70
     1
102
RTVSPost2010Prop36
280
     0
102
RTVSPost2010PropOp36
 70
     1
102
RTVSPost2010Prop37
 90
       50
102
RTVSPost2010PropOp37
 70
     1
102
RTVSPost2010Prop38
140
0.0
102
RTVSPost2010PropOp38
 70
     1
102
RTVSPost2010Prop39
140
1.0
102
RTVSPost2010PropOp39
 70
     1
102
RTVSPost2010Prop40
 90
        0
102
RTVSPost2010PropOp40
 70
     1
102
RTVSPost2010Prop41ColorIndex
 90
       18
102
RTVSPost2010Prop41ColorRGB
 90
        0
102
RTVSPost2010PropOp41
 70
     1
102
RTVSPost2010Prop42
 90
       50
102
RTVSPost2010PropOp42
 70
     1
102
RTVSPost2010Prop43
 90
        3
102
RTVSPost2010PropOp43
 70
     1
102
RTVSPost2010Prop44ColorIndex
 90
        5
102
RTVSPost2010Prop44ColorRGB
 90
      255
102
RTVSPost2010PropOp44
 70
     1
102
RTVSPost2010Prop45
280
     0
102
RTVSPost2010PropOp45
 70
     1
102
RTVSPost2010Prop46
 90
       50
102
RTVSPost2010PropOp46
 70
     1
102
RTVSPost2010Prop47
 90
       50
102
RTVSPost2010PropOp47
 70
     1
102
RTVSPost2010Prop48
 90
       50
102
RTVSPost2010PropOp48
 70
     1
102
RTVSPost2010Prop49
280
     0
102
RTVSPost2010PropOp49
 70
     1
102
RTVSPost2010Prop50
 90
       50
102
RTVSPost2010PropOp50
 70
     1
102
RTVSPost2010Prop51ColorIndex
 90
      256
102
RTVSPost2010Prop51ColorRGB
 90
-16777216
102
RTVSPost2010PropOp51
 70
     0
102
RTVSPost2010Prop52
140
1.0
102
RTVSPost2010PropOp52
 70
     0
102
RTVSPost2010Prop53
 90
        2
102
RTVSPost2010PropOp53
 70
     1
102
RTVSPost2010Prop54
  1
strokes_ogs.tif
102
RTVSPost2010PropOp54
 70
     1
102
RTVSPost2010Prop55
280
     0
102
RTVSPost2010PropOp55
 70
     1
102
RTVSPost2010Prop56
140
1.0
102
RTVSPost2010PropOp56
 70
     1
102
RTVSPost2010Prop57
140
1.0
102
RTVSPost2010PropOp57
 70
     1
102
RTVSPropertyOp0
 70
     1
102
RTVSPropertyOp1
 70
     1
102
RTVSPropertyOp2
 70
     1
102
RTVSPropertyOp3
 70
     1
102
RTVSPropertyOp4
 70
     1
102
RTVSPropertyOp5
 70
     1
102
RTVSPropertyOp6
 70
     1
102
RTVSPropertyOp7
 70
     1
102
RTVSPropertyOp8
 70
     1
102
RTVSPropertyOp9
 70
     1
102
RTVSPropertyOp10
 70
     1
102
RTVSPropertyOp11
 70
     1
102
RTVSPropertyOp12
 70
     1
102
RTVSPropertyOp13
 70
     1
102
RTVSPropertyOp14
 70
     1
102
RTVSPropertyOp15
 70
     1
102
RTVSPropertyOp16
 70
     1
102
RTVSPropertyOp17
 70
     1
102
RTVSPropertyOp18
 70
     1
102
RTVSPropertyOp19
 70
     1
102
RTVSPropertyOp20
 70
     1
102
RTVSPropertyOp21
 70
     1
102
RTVSPropertyOp22
 70
     1
102
RTVSPropertyOp23
 70
     1
102
RTVSPropertyOp24
 70
     1
102
RTVSPropertyOp25
 70
     1
102
RTVSPropertyOp26
 70
     1
102
RTVSPropertyOp27
 70
     1
102
RTVSPropertyOp28
 70
     1
102
RTVSPropertyOp29
 70
     1
102
RTVSPropertyOp30
 70
     1
102
RTVSPropertyOp31
 70
     1
102
RTVSPropertyOp32
 70
     1
102
RTVSPropertyOp33
 70
     1
102
RTVSPropertyOp34
 70
     1
102
RTVSPropertyOp35
 70
     1
102
RTVSPropertyOp36
 70
     1
102
RTVSPropertyOp37
 70
     1
102
RTVSPropertyOp38
 70
     1
102
RTVSPropertyOp39
 70
     1
102
RTVSPropertyOp40
 70
     1
102
RTVSPropertyOp41
 70
     1
102
RTVSPropertyOp42
 70
     1
102
RTVSPropertyOp43
 70
     1
102
RTVSPropertyOp44
 70
     1
102
RTVSPropertyOp45
 70
     1
102
RTVSPropertyOp46
 70
     1
102
RTVSPropertyOp47
 70
     1
102
RTVSPropertyOp48
 70
     1
102
RTVSPropertyOp49
 70
     1
102
RTVSPropertyOp50
 70
     1
102
RTVSPropertyOp51
 70
     0
102
RTVSPropertyOp52
 70
     0
102
RTVSPropertyOp53
 70
     1
102
RTVSPropertyOp54
 70
     1
102
RTVSPropertyOp55
 70
     1
102
RTVSPropertyOp56
 70
     1
102
RTVSPropertyOp57
 70
     1
102
RTVSPropertyOp58
 70
     1
102
RTVSPropertyOp59
 70
     1
102
RTVSPropertyOp60
 70
     1
102
RTVSPropertyOp61
 70
     1
102
RTVSPropertyOp62
 70
     1
  0
XRECORD
  5
855C
102
{ACAD_REACTORS
330
855B
102
}
330
855B
100
AcDbXrecord
280
     1
102
RTVSPost2010Prop28
280
     0
102
RTVSPost2010PropOp28
 70
     1
102
RTVSPost2010Prop29
280
     1
102
RTVSPost2010PropOp29
 70
     1
102
RTVSPost2010Prop30
280
     1
102
RTVSPost2010PropOp30
 70
     1
102
RTVSPost2010Prop31
280
     0
102
RTVSPost2010PropOp31
 70
     1
102
RTVSPost2010Prop32
280
     0
102
RTVSPost2010PropOp32
 70
     1
102
RTVSPost2010Prop33
280
     0
102
RTVSPost2010PropOp33
 70
     1
102
RTVSPost2010Prop34
280
     0
102
RTVSPost2010PropOp34
 70
     1
102
RTVSPost2010Prop35
280
     0
102
RTVSPost2010PropOp35
 70
     1
102
RTVSPost2010Prop36
280
     0
102
RTVSPost2010PropOp36
 70
     1
102
RTVSPost2010Prop37
 90
       50
102
RTVSPost2010PropOp37
 70
     1
102
RTVSPost2010Prop38
140
0.0
102
RTVSPost2010PropOp38
 70
     1
102
RTVSPost2010Prop39
140
1.0
102
RTVSPost2010PropOp39
 70
     1
102
RTVSPost2010Prop40
 90
        0
102
RTVSPost2010PropOp40
 70
     1
102
RTVSPost2010Prop41ColorIndex
 90
       18
102
RTVSPost2010Prop41ColorRGB
 90
        0
102
RTVSPost2010PropOp41
 70
     1
102
RTVSPost2010Prop42
 90
       50
102
RTVSPost2010PropOp42
 70
     1
102
RTVSPost2010Prop43
 90
        3
102
RTVSPost2010PropOp43
 70
     1
102
RTVSPost2010Prop44ColorIndex
 90
        5
102
RTVSPost2010Prop44ColorRGB
 90
      255
102
RTVSPost2010PropOp44
 70
     1
102
RTVSPost2010Prop45
280
     0
102
RTVSPost2010PropOp45
 70
     1
102
RTVSPost2010Prop46
 90
       50
102
RTVSPost2010PropOp46
 70
     1
102
RTVSPost2010Prop47
 90
       50
102
RTVSPost2010PropOp47
 70
     1
102
RTVSPost2010Prop48
 90
       50
102
RTVSPost2010PropOp48
 70
     1
102
RTVSPost2010Prop49
280
     0
102
RTVSPost2010PropOp49
 70
     1
102
RTVSPost2010Prop50
 90
       50
102
RTVSPost2010PropOp50
 70
     1
102
RTVSPost2010Prop51ColorIndex
 90
      256
102
RTVSPost2010Prop51ColorRGB
 90
-16777216
102
RTVSPost2010PropOp51
 70
     0
102
RTVSPost2010Prop52
140
1.0
102
RTVSPost2010PropOp52
 70
     0
102
RTVSPost2010Prop53
 90
        2
102
RTVSPost2010PropOp53
 70
     1
102
RTVSPost2010Prop54
  1
strokes_ogs.tif
102
RTVSPost2010PropOp54
 70
     1
102
RTVSPost2010Prop55
280
     0
102
RTVSPost2010PropOp55
 70
     1
102
RTVSPost2010Prop56
140
1.0
102
RTVSPost2010PropOp56
 70
     1
102
RTVSPost2010Prop57
140
1.0
102
RTVSPost2010PropOp57
 70
     1
102
RTVSPropertyOp0
 70
     1
102
RTVSPropertyOp1
 70
     1
102
RTVSPropertyOp2
 70
     1
102
RTVSPropertyOp3
 70
     1
102
RTVSPropertyOp4
 70
     1
102
RTVSPropertyOp5
 70
     1
102
RTVSPropertyOp6
 70
     1
102
RTVSPropertyOp7
 70
     1
102
RTVSPropertyOp8
 70
     1
102
RTVSPropertyOp9
 70
     1
102
RTVSPropertyOp10
 70
     1
102
RTVSPropertyOp11
 70
     1
102
RTVSPropertyOp12
 70
     1
102
RTVSPropertyOp13
 70
     1
102
RTVSPropertyOp14
 70
     1
102
RTVSPropertyOp15
 70
     1
102
RTVSPropertyOp16
 70
     1
102
RTVSPropertyOp17
 70
     1
102
RTVSPropertyOp18
 70
     1
102
RTVSPropertyOp19
 70
     1
102
RTVSPropertyOp20
 70
     1
102
RTVSPropertyOp21
 70
     1
102
RTVSPropertyOp22
 70
     1
102
RTVSPropertyOp23
 70
     1
102
RTVSPropertyOp24
 70
     1
102
RTVSPropertyOp25
 70
     1
102
RTVSPropertyOp26
 70
     1
102
RTVSPropertyOp27
 70
     1
102
RTVSPropertyOp28
 70
     1
102
RTVSPropertyOp29
 70
     1
102
RTVSPropertyOp30
 70
     1
102
RTVSPropertyOp31
 70
     1
102
RTVSPropertyOp32
 70
     1
102
RTVSPropertyOp33
 70
     1
102
RTVSPropertyOp34
 70
     1
102
RTVSPropertyOp35
 70
     1
102
RTVSPropertyOp36
 70
     1
102
RTVSPropertyOp37
 70
     1
102
RTVSPropertyOp38
 70
     1
102
RTVSPropertyOp39
 70
     1
102
RTVSPropertyOp40
 70
     1
102
RTVSPropertyOp41
 70
     1
102
RTVSPropertyOp42
 70
     1
102
RTVSPropertyOp43
 70
     1
102
RTVSPropertyOp44
 70
     1
102
RTVSPropertyOp45
 70
     1
102
RTVSPropertyOp46
 70
     1
102
RTVSPropertyOp47
 70
     1
102
RTVSPropertyOp48
 70
     1
102
RTVSPropertyOp49
 70
     1
102
RTVSPropertyOp50
 70
     1
102
RTVSPropertyOp51
 70
     0
102
RTVSPropertyOp52
 70
     0
102
RTVSPropertyOp53
 70
     1
102
RTVSPropertyOp54
 70
     1
102
RTVSPropertyOp55
 70
     1
102
RTVSPropertyOp56
 70
     1
102
RTVSPropertyOp57
 70
     1
102
RTVSPropertyOp58
 70
     1
102
RTVSPropertyOp59
 70
     1
102
RTVSPropertyOp60
 70
     1
102
RTVSPropertyOp61
 70
     1
102
RTVSPropertyOp62
 70
     1
  0
XRECORD
  5
8578
102
{ACAD_REACTORS
330
8577
102
}
330
8577
100
AcDbXrecord
280
     1
102
RTVSPost2010Prop28
280
     0
102
RTVSPost2010PropOp28
 70
     1
102
RTVSPost2010Prop29
280
     1
102
RTVSPost2010PropOp29
 70
     1
102
RTVSPost2010Prop30
280
     1
102
RTVSPost2010PropOp30
 70
     1
102
RTVSPost2010Prop31
280
     0
102
RTVSPost2010PropOp31
 70
     1
102
RTVSPost2010Prop32
280
     0
102
RTVSPost2010PropOp32
 70
     1
102
RTVSPost2010Prop33
280
     0
102
RTVSPost2010PropOp33
 70
     1
102
RTVSPost2010Prop34
280
     0
102
RTVSPost2010PropOp34
 70
     1
102
RTVSPost2010Prop35
280
     0
102
RTVSPost2010PropOp35
 70
     1
102
RTVSPost2010Prop36
280
     0
102
RTVSPost2010PropOp36
 70
     1
102
RTVSPost2010Prop37
 90
       50
102
RTVSPost2010PropOp37
 70
     0
102
RTVSPost2010Prop38
140
0.0
102
RTVSPost2010PropOp38
 70
     0
102
RTVSPost2010Prop39
140
1.0
102
RTVSPost2010PropOp39
 70
     0
102
RTVSPost2010Prop40
 90
        0
102
RTVSPost2010PropOp40
 70
     0
102
RTVSPost2010Prop41ColorIndex
 90
       18
102
RTVSPost2010Prop41ColorRGB
 90
        0
102
RTVSPost2010PropOp41
 70
     0
102
RTVSPost2010Prop42
 90
       50
102
RTVSPost2010PropOp42
 70
     0
102
RTVSPost2010Prop43
 90
        3
102
RTVSPost2010PropOp43
 70
     0
102
RTVSPost2010Prop44ColorIndex
 90
        5
102
RTVSPost2010Prop44ColorRGB
 90
      255
102
RTVSPost2010PropOp44
 70
     0
102
RTVSPost2010Prop45
280
     0
102
RTVSPost2010PropOp45
 70
     1
102
RTVSPost2010Prop46
 90
       50
102
RTVSPost2010PropOp46
 70
     0
102
RTVSPost2010Prop47
 90
       50
102
RTVSPost2010PropOp47
 70
     0
102
RTVSPost2010Prop48
 90
       50
102
RTVSPost2010PropOp48
 70
     0
102
RTVSPost2010Prop49
280
     0
102
RTVSPost2010PropOp49
 70
     1
102
RTVSPost2010Prop50
 90
       50
102
RTVSPost2010PropOp50
 70
     0
102
RTVSPost2010Prop51ColorIndex
 90
      256
102
RTVSPost2010Prop51ColorRGB
 90
-16777216
102
RTVSPost2010PropOp51
 70
     0
102
RTVSPost2010Prop52
140
1.0
102
RTVSPost2010PropOp52
 70
     0
102
RTVSPost2010Prop53
 90
        2
102
RTVSPost2010PropOp53
 70
     0
102
RTVSPost2010Prop54
  1
strokes_ogs.tif
102
RTVSPost2010PropOp54
 70
     0
102
RTVSPost2010Prop55
280
     0
102
RTVSPost2010PropOp55
 70
     1
102
RTVSPost2010Prop56
140
1.0
102
RTVSPost2010PropOp56
 70
     0
102
RTVSPost2010Prop57
140
1.0
102
RTVSPost2010PropOp57
 70
     0
102
RTVSPropertyOp0
 70
     0
102
RTVSPropertyOp1
 70
     0
102
RTVSPropertyOp2
 70
     0
102
RTVSPropertyOp3
 70
     0
102
RTVSPropertyOp4
 70
     0
102
RTVSPropertyOp5
 70
     0
102
RTVSPropertyOp6
 70
     0
102
RTVSPropertyOp7
 70
     0
102
RTVSPropertyOp8
 70
     0
102
RTVSPropertyOp9
 70
     0
102
RTVSPropertyOp10
 70
     0
102
RTVSPropertyOp11
 70
     0
102
RTVSPropertyOp12
 70
     0
102
RTVSPropertyOp13
 70
     0
102
RTVSPropertyOp14
 70
     2
102
RTVSPropertyOp15
 70
     0
102
RTVSPropertyOp16
 70
     0
102
RTVSPropertyOp17
 70
     0
102
RTVSPropertyOp18
 70
     0
102
RTVSPropertyOp19
 70
     0
102
RTVSPropertyOp20
 70
     0
102
RTVSPropertyOp21
 70
     0
102
RTVSPropertyOp22
 70
     0
102
RTVSPropertyOp23
 70
     0
102
RTVSPropertyOp24
 70
     0
102
RTVSPropertyOp25
 70
     0
102
RTVSPropertyOp26
 70
     0
102
RTVSPropertyOp27
 70
     0
102
RTVSPropertyOp28
 70
     1
102
RTVSPropertyOp29
 70
     1
102
RTVSPropertyOp30
 70
     1
102
RTVSPropertyOp31
 70
     1
102
RTVSPropertyOp32
 70
     1
102
RTVSPropertyOp33
 70
     1
102
RTVSPropertyOp34
 70
     1
102
RTVSPropertyOp35
 70
     1
102
RTVSPropertyOp36
 70
     1
102
RTVSPropertyOp37
 70
     0
102
RTVSPropertyOp38
 70
     0
102
RTVSPropertyOp39
 70
     0
102
RTVSPropertyOp40
 70
     0
102
RTVSPropertyOp41
 70
     0
102
RTVSPropertyOp42
 70
     0
102
RTVSPropertyOp43
 70
     0
102
RTVSPropertyOp44
 70
     0
102
RTVSPropertyOp45
 70
     1
102
RTVSPropertyOp46
 70
     0
102
RTVSPropertyOp47
 70
     0
102
RTVSPropertyOp48
 70
     0
102
RTVSPropertyOp49
 70
     1
102
RTVSPropertyOp50
 70
     0
102
RTVSPropertyOp51
 70
     0
102
RTVSPropertyOp52
 70
     0
102
RTVSPropertyOp53
 70
     0
102
RTVSPropertyOp54
 70
     0
102
RTVSPropertyOp55
 70
     1
102
RTVSPropertyOp56
 70
     0
102
RTVSPropertyOp57
 70
     0
102
RTVSPropertyOp58
 70
     0
102
RTVSPropertyOp59
 70
     0
102
RTVSPropertyOp60
 70
     0
102
RTVSPropertyOp61
 70
     0
102
RTVSPropertyOp62
 70
     0
  0
XRECORD
  5
8568
102
{ACAD_REACTORS
330
8567
102
}
330
8567
100
AcDbXrecord
280
     1
102
RTVSPost2010Prop28
280
     0
102
RTVSPost2010PropOp28
 70
     1
102
RTVSPost2010Prop29
280
     1
102
RTVSPost2010PropOp29
 70
     1
102
RTVSPost2010Prop30
280
     1
102
RTVSPost2010PropOp30
 70
     1
102
RTVSPost2010Prop31
280
     0
102
RTVSPost2010PropOp31
 70
     1
102
RTVSPost2010Prop32
280
     0
102
RTVSPost2010PropOp32
 70
     1
102
RTVSPost2010Prop33
280
     0
102
RTVSPost2010PropOp33
 70
     1
102
RTVSPost2010Prop34
280
     0
102
RTVSPost2010PropOp34
 70
     1
102
RTVSPost2010Prop35
280
     0
102
RTVSPost2010PropOp35
 70
     1
102
RTVSPost2010Prop36
280
     0
102
RTVSPost2010PropOp36
 70
     1
102
RTVSPost2010Prop37
 90
       50
102
RTVSPost2010PropOp37
 70
     1
102
RTVSPost2010Prop38
140
0.0
102
RTVSPost2010PropOp38
 70
     1
102
RTVSPost2010Prop39
140
1.0
102
RTVSPost2010PropOp39
 70
     1
102
RTVSPost2010Prop40
 90
        0
102
RTVSPost2010PropOp40
 70
     1
102
RTVSPost2010Prop41ColorIndex
 90
       18
102
RTVSPost2010Prop41ColorRGB
 90
        0
102
RTVSPost2010PropOp41
 70
     1
102
RTVSPost2010Prop42
 90
       50
102
RTVSPost2010PropOp42
 70
     1
102
RTVSPost2010Prop43
 90
        3
102
RTVSPost2010PropOp43
 70
     1
102
RTVSPost2010Prop44ColorIndex
 90
        5
102
RTVSPost2010Prop44ColorRGB
 90
      255
102
RTVSPost2010PropOp44
 70
     1
102
RTVSPost2010Prop45
280
     0
102
RTVSPost2010PropOp45
 70
     1
102
RTVSPost2010Prop46
 90
       50
102
RTVSPost2010PropOp46
 70
     1
102
RTVSPost2010Prop47
 90
       50
102
RTVSPost2010PropOp47
 70
     1
102
RTVSPost2010Prop48
 90
       50
102
RTVSPost2010PropOp48
 70
     1
102
RTVSPost2010Prop49
280
     0
102
RTVSPost2010PropOp49
 70
     1
102
RTVSPost2010Prop50
 90
       50
102
RTVSPost2010PropOp50
 70
     1
102
RTVSPost2010Prop51ColorIndex
 90
      256
102
RTVSPost2010Prop51ColorRGB
 90
-16777216
102
RTVSPost2010PropOp51
 70
     0
102
RTVSPost2010Prop52
140
1.0
102
RTVSPost2010PropOp52
 70
     0
102
RTVSPost2010Prop53
 90
        2
102
RTVSPost2010PropOp53
 70
     1
102
RTVSPost2010Prop54
  1
strokes_ogs.tif
102
RTVSPost2010PropOp54
 70
     1
102
RTVSPost2010Prop55
280
     0
102
RTVSPost2010PropOp55
 70
     1
102
RTVSPost2010Prop56
140
1.0
102
RTVSPost2010PropOp56
 70
     1
102
RTVSPost2010Prop57
140
1.0
102
RTVSPost2010PropOp57
 70
     1
102
RTVSPropertyOp0
 70
     1
102
RTVSPropertyOp1
 70
     1
102
RTVSPropertyOp2
 70
     1
102
RTVSPropertyOp3
 70
     1
102
RTVSPropertyOp4
 70
     1
102
RTVSPropertyOp5
 70
     1
102
RTVSPropertyOp6
 70
     1
102
RTVSPropertyOp7
 70
     1
102
RTVSPropertyOp8
 70
     1
102
RTVSPropertyOp9
 70
     1
102
RTVSPropertyOp10
 70
     1
102
RTVSPropertyOp11
 70
     1
102
RTVSPropertyOp12
 70
     1
102
RTVSPropertyOp13
 70
     1
102
RTVSPropertyOp14
 70
     1
102
RTVSPropertyOp15
 70
     1
102
RTVSPropertyOp16
 70
     1
102
RTVSPropertyOp17
 70
     1
102
RTVSPropertyOp18
 70
     1
102
RTVSPropertyOp19
 70
     1
102
RTVSPropertyOp20
 70
     1
102
RTVSPropertyOp21
 70
     1
102
RTVSPropertyOp22
 70
     1
102
RTVSPropertyOp23
 70
     1
102
RTVSPropertyOp24
 70
     1
102
RTVSPropertyOp25
 70
     1
102
RTVSPropertyOp26
 70
     1
102
RTVSPropertyOp27
 70
     1
102
RTVSPropertyOp28
 70
     1
102
RTVSPropertyOp29
 70
     1
102
RTVSPropertyOp30
 70
     1
102
RTVSPropertyOp31
 70
     1
102
RTVSPropertyOp32
 70
     1
102
RTVSPropertyOp33
 70
     1
102
RTVSPropertyOp34
 70
     1
102
RTVSPropertyOp35
 70
     1
102
RTVSPropertyOp36
 70
     1
102
RTVSPropertyOp37
 70
     1
102
RTVSPropertyOp38
 70
     1
102
RTVSPropertyOp39
 70
     1
102
RTVSPropertyOp40
 70
     1
102
RTVSPropertyOp41
 70
     1
102
RTVSPropertyOp42
 70
     1
102
RTVSPropertyOp43
 70
     1
102
RTVSPropertyOp44
 70
     1
102
RTVSPropertyOp45
 70
     1
102
RTVSPropertyOp46
 70
     1
102
RTVSPropertyOp47
 70
     1
102
RTVSPropertyOp48
 70
     1
102
RTVSPropertyOp49
 70
     1
102
RTVSPropertyOp50
 70
     1
102
RTVSPropertyOp51
 70
     0
102
RTVSPropertyOp52
 70
     0
102
RTVSPropertyOp53
 70
     1
102
RTVSPropertyOp54
 70
     1
102
RTVSPropertyOp55
 70
     1
102
RTVSPropertyOp56
 70
     1
102
RTVSPropertyOp57
 70
     1
102
RTVSPropertyOp58
 70
     1
102
RTVSPropertyOp59
 70
     1
102
RTVSPropertyOp60
 70
     1
102
RTVSPropertyOp61
 70
     1
102
RTVSPropertyOp62
 70
     1
  0
XRECORD
  5
857A
102
{ACAD_REACTORS
330
8579
102
}
330
8579
100
AcDbXrecord
280
     1
102
RTVSPost2010Prop28
280
     0
102
RTVSPost2010PropOp28
 70
     1
102
RTVSPost2010Prop29
280
     1
102
RTVSPost2010PropOp29
 70
     1
102
RTVSPost2010Prop30
280
     1
102
RTVSPost2010PropOp30
 70
     1
102
RTVSPost2010Prop31
280
     0
102
RTVSPost2010PropOp31
 70
     1
102
RTVSPost2010Prop32
280
     0
102
RTVSPost2010PropOp32
 70
     1
102
RTVSPost2010Prop33
280
     0
102
RTVSPost2010PropOp33
 70
     1
102
RTVSPost2010Prop34
280
     0
102
RTVSPost2010PropOp34
 70
     1
102
RTVSPost2010Prop35
280
     0
102
RTVSPost2010PropOp35
 70
     1
102
RTVSPost2010Prop36
280
     0
102
RTVSPost2010PropOp36
 70
     1
102
RTVSPost2010Prop37
 90
       50
102
RTVSPost2010PropOp37
 70
     0
102
RTVSPost2010Prop38
140
0.0
102
RTVSPost2010PropOp38
 70
     0
102
RTVSPost2010Prop39
140
1.0
102
RTVSPost2010PropOp39
 70
     0
102
RTVSPost2010Prop40
 90
        0
102
RTVSPost2010PropOp40
 70
     0
102
RTVSPost2010Prop41ColorIndex
 90
       18
102
RTVSPost2010Prop41ColorRGB
 90
        0
102
RTVSPost2010PropOp41
 70
     0
102
RTVSPost2010Prop42
 90
       50
102
RTVSPost2010PropOp42
 70
     0
102
RTVSPost2010Prop43
 90
        3
102
RTVSPost2010PropOp43
 70
     0
102
RTVSPost2010Prop44ColorIndex
 90
        5
102
RTVSPost2010Prop44ColorRGB
 90
      255
102
RTVSPost2010PropOp44
 70
     0
102
RTVSPost2010Prop45
280
     0
102
RTVSPost2010PropOp45
 70
     1
102
RTVSPost2010Prop46
 90
       50
102
RTVSPost2010PropOp46
 70
     0
102
RTVSPost2010Prop47
 90
       50
102
RTVSPost2010PropOp47
 70
     0
102
RTVSPost2010Prop48
 90
       50
102
RTVSPost2010PropOp48
 70
     0
102
RTVSPost2010Prop49
280
     0
102
RTVSPost2010PropOp49
 70
     1
102
RTVSPost2010Prop50
 90
       50
102
RTVSPost2010PropOp50
 70
     0
102
RTVSPost2010Prop51ColorIndex
 90
      256
102
RTVSPost2010Prop51ColorRGB
 90
-16777216
102
RTVSPost2010PropOp51
 70
     0
102
RTVSPost2010Prop52
140
1.0
102
RTVSPost2010PropOp52
 70
     0
102
RTVSPost2010Prop53
 90
        2
102
RTVSPost2010PropOp53
 70
     0
102
RTVSPost2010Prop54
  1
strokes_ogs.tif
102
RTVSPost2010PropOp54
 70
     0
102
RTVSPost2010Prop55
280
     0
102
RTVSPost2010PropOp55
 70
     1
102
RTVSPost2010Prop56
140
1.0
102
RTVSPost2010PropOp56
 70
     0
102
RTVSPost2010Prop57
140
1.0
102
RTVSPost2010PropOp57
 70
     0
102
RTVSPropertyOp0
 70
     0
102
RTVSPropertyOp1
 70
     0
102
RTVSPropertyOp2
 70
     0
102
RTVSPropertyOp3
 70
     0
102
RTVSPropertyOp4
 70
     0
102
RTVSPropertyOp5
 70
     0
102
RTVSPropertyOp6
 70
     0
102
RTVSPropertyOp7
 70
     0
102
RTVSPropertyOp8
 70
     0
102
RTVSPropertyOp9
 70
     0
102
RTVSPropertyOp10
 70
     0
102
RTVSPropertyOp11
 70
     0
102
RTVSPropertyOp12
 70
     0
102
RTVSPropertyOp13
 70
     0
102
RTVSPropertyOp14
 70
     2
102
RTVSPropertyOp15
 70
     0
102
RTVSPropertyOp16
 70
     0
102
RTVSPropertyOp17
 70
     0
102
RTVSPropertyOp18
 70
     0
102
RTVSPropertyOp19
 70
     0
102
RTVSPropertyOp20
 70
     0
102
RTVSPropertyOp21
 70
     0
102
RTVSPropertyOp22
 70
     0
102
RTVSPropertyOp23
 70
     0
102
RTVSPropertyOp24
 70
     0
102
RTVSPropertyOp25
 70
     0
102
RTVSPropertyOp26
 70
     0
102
RTVSPropertyOp27
 70
     0
102
RTVSPropertyOp28
 70
     1
102
RTVSPropertyOp29
 70
     1
102
RTVSPropertyOp30
 70
     1
102
RTVSPropertyOp31
 70
     1
102
RTVSPropertyOp32
 70
     1
102
RTVSPropertyOp33
 70
     1
102
RTVSPropertyOp34
 70
     1
102
RTVSPropertyOp35
 70
     1
102
RTVSPropertyOp36
 70
     1
102
RTVSPropertyOp37
 70
     0
102
RTVSPropertyOp38
 70
     0
102
RTVSPropertyOp39
 70
     0
102
RTVSPropertyOp40
 70
     0
102
RTVSPropertyOp41
 70
     0
102
RTVSPropertyOp42
 70
     0
102
RTVSPropertyOp43
 70
     0
102
RTVSPropertyOp44
 70
     0
102
RTVSPropertyOp45
 70
     1
102
RTVSPropertyOp46
 70
     0
102
RTVSPropertyOp47
 70
     0
102
RTVSPropertyOp48
 70
     0
102
RTVSPropertyOp49
 70
     1
102
RTVSPropertyOp50
 70
     0
102
RTVSPropertyOp51
 70
     0
102
RTVSPropertyOp52
 70
     0
102
RTVSPropertyOp53
 70
     0
102
RTVSPropertyOp54
 70
     0
102
RTVSPropertyOp55
 70
     1
102
RTVSPropertyOp56
 70
     0
102
RTVSPropertyOp57
 70
     0
102
RTVSPropertyOp58
 70
     0
102
RTVSPropertyOp59
 70
     0
102
RTVSPropertyOp60
 70
     0
102
RTVSPropertyOp61
 70
     0
102
RTVSPropertyOp62
 70
     0
  0
XRECORD
  5
8560
102
{ACAD_REACTORS
330
855F
102
}
330
855F
100
AcDbXrecord
280
     1
102
RTVSPost2010Prop28
280
     0
102
RTVSPost2010PropOp28
 70
     1
102
RTVSPost2010Prop29
280
     1
102
RTVSPost2010PropOp29
 70
     1
102
RTVSPost2010Prop30
280
     1
102
RTVSPost2010PropOp30
 70
     1
102
RTVSPost2010Prop31
280
     0
102
RTVSPost2010PropOp31
 70
     1
102
RTVSPost2010Prop32
280
     0
102
RTVSPost2010PropOp32
 70
     1
102
RTVSPost2010Prop33
280
     0
102
RTVSPost2010PropOp33
 70
     1
102
RTVSPost2010Prop34
280
     0
102
RTVSPost2010PropOp34
 70
     1
102
RTVSPost2010Prop35
280
     0
102
RTVSPost2010PropOp35
 70
     1
102
RTVSPost2010Prop36
280
     0
102
RTVSPost2010PropOp36
 70
     1
102
RTVSPost2010Prop37
 90
       50
102
RTVSPost2010PropOp37
 70
     1
102
RTVSPost2010Prop38
140
0.0
102
RTVSPost2010PropOp38
 70
     1
102
RTVSPost2010Prop39
140
1.0
102
RTVSPost2010PropOp39
 70
     1
102
RTVSPost2010Prop40
 90
        0
102
RTVSPost2010PropOp40
 70
     1
102
RTVSPost2010Prop41ColorIndex
 90
       18
102
RTVSPost2010Prop41ColorRGB
 90
        0
102
RTVSPost2010PropOp41
 70
     1
102
RTVSPost2010Prop42
 90
       50
102
RTVSPost2010PropOp42
 70
     1
102
RTVSPost2010Prop43
 90
        3
102
RTVSPost2010PropOp43
 70
     1
102
RTVSPost2010Prop44ColorIndex
 90
        5
102
RTVSPost2010Prop44ColorRGB
 90
      255
102
RTVSPost2010PropOp44
 70
     1
102
RTVSPost2010Prop45
280
     0
102
RTVSPost2010PropOp45
 70
     1
102
RTVSPost2010Prop46
 90
       50
102
RTVSPost2010PropOp46
 70
     1
102
RTVSPost2010Prop47
 90
       50
102
RTVSPost2010PropOp47
 70
     1
102
RTVSPost2010Prop48
 90
       50
102
RTVSPost2010PropOp48
 70
     1
102
RTVSPost2010Prop49
280
     0
102
RTVSPost2010PropOp49
 70
     1
102
RTVSPost2010Prop50
 90
       50
102
RTVSPost2010PropOp50
 70
     1
102
RTVSPost2010Prop51ColorIndex
 90
      256
102
RTVSPost2010Prop51ColorRGB
 90
-16777216
102
RTVSPost2010PropOp51
 70
     0
102
RTVSPost2010Prop52
140
1.0
102
RTVSPost2010PropOp52
 70
     0
102
RTVSPost2010Prop53
 90
        2
102
RTVSPost2010PropOp53
 70
     1
102
RTVSPost2010Prop54
  1
strokes_ogs.tif
102
RTVSPost2010PropOp54
 70
     1
102
RTVSPost2010Prop55
280
     0
102
RTVSPost2010PropOp55
 70
     1
102
RTVSPost2010Prop56
140
1.0
102
RTVSPost2010PropOp56
 70
     1
102
RTVSPost2010Prop57
140
1.0
102
RTVSPost2010PropOp57
 70
     1
102
RTVSPropertyOp0
 70
     1
102
RTVSPropertyOp1
 70
     1
102
RTVSPropertyOp2
 70
     1
102
RTVSPropertyOp3
 70
     1
102
RTVSPropertyOp4
 70
     1
102
RTVSPropertyOp5
 70
     1
102
RTVSPropertyOp6
 70
     1
102
RTVSPropertyOp7
 70
     1
102
RTVSPropertyOp8
 70
     1
102
RTVSPropertyOp9
 70
     1
102
RTVSPropertyOp10
 70
     1
102
RTVSPropertyOp11
 70
     1
102
RTVSPropertyOp12
 70
     1
102
RTVSPropertyOp13
 70
     1
102
RTVSPropertyOp14
 70
     1
102
RTVSPropertyOp15
 70
     1
102
RTVSPropertyOp16
 70
     1
102
RTVSPropertyOp17
 70
     1
102
RTVSPropertyOp18
 70
     1
102
RTVSPropertyOp19
 70
     1
102
RTVSPropertyOp20
 70
     1
102
RTVSPropertyOp21
 70
     1
102
RTVSPropertyOp22
 70
     1
102
RTVSPropertyOp23
 70
     1
102
RTVSPropertyOp24
 70
     1
102
RTVSPropertyOp25
 70
     1
102
RTVSPropertyOp26
 70
     1
102
RTVSPropertyOp27
 70
     1
102
RTVSPropertyOp28
 70
     1
102
RTVSPropertyOp29
 70
     1
102
RTVSPropertyOp30
 70
     1
102
RTVSPropertyOp31
 70
     1
102
RTVSPropertyOp32
 70
     1
102
RTVSPropertyOp33
 70
     1
102
RTVSPropertyOp34
 70
     1
102
RTVSPropertyOp35
 70
     1
102
RTVSPropertyOp36
 70
     1
102
RTVSPropertyOp37
 70
     1
102
RTVSPropertyOp38
 70
     1
102
RTVSPropertyOp39
 70
     1
102
RTVSPropertyOp40
 70
     1
102
RTVSPropertyOp41
 70
     1
102
RTVSPropertyOp42
 70
     1
102
RTVSPropertyOp43
 70
     1
102
RTVSPropertyOp44
 70
     1
102
RTVSPropertyOp45
 70
     1
102
RTVSPropertyOp46
 70
     1
102
RTVSPropertyOp47
 70
     1
102
RTVSPropertyOp48
 70
     1
102
RTVSPropertyOp49
 70
     1
102
RTVSPropertyOp50
 70
     1
102
RTVSPropertyOp51
 70
     0
102
RTVSPropertyOp52
 70
     0
102
RTVSPropertyOp53
 70
     1
102
RTVSPropertyOp54
 70
     1
102
RTVSPropertyOp55
 70
     1
102
RTVSPropertyOp56
 70
     1
102
RTVSPropertyOp57
 70
     1
102
RTVSPropertyOp58
 70
     1
102
RTVSPropertyOp59
 70
     1
102
RTVSPropertyOp60
 70
     1
102
RTVSPropertyOp61
 70
     1
102
RTVSPropertyOp62
 70
     1
  0
XRECORD
  5
8576
102
{ACAD_REACTORS
330
8575
102
}
330
8575
100
AcDbXrecord
280
     1
102
RTVSPost2010Prop28
280
     0
102
RTVSPost2010PropOp28
 70
     1
102
RTVSPost2010Prop29
280
     1
102
RTVSPost2010PropOp29
 70
     1
102
RTVSPost2010Prop30
280
     1
102
RTVSPost2010PropOp30
 70
     1
102
RTVSPost2010Prop31
280
     0
102
RTVSPost2010PropOp31
 70
     1
102
RTVSPost2010Prop32
280
     0
102
RTVSPost2010PropOp32
 70
     1
102
RTVSPost2010Prop33
280
     0
102
RTVSPost2010PropOp33
 70
     1
102
RTVSPost2010Prop34
280
     0
102
RTVSPost2010PropOp34
 70
     1
102
RTVSPost2010Prop35
280
     0
102
RTVSPost2010PropOp35
 70
     1
102
RTVSPost2010Prop36
280
     0
102
RTVSPost2010PropOp36
 70
     1
102
RTVSPost2010Prop37
 90
       50
102
RTVSPost2010PropOp37
 70
     1
102
RTVSPost2010Prop38
140
0.0
102
RTVSPost2010PropOp38
 70
     1
102
RTVSPost2010Prop39
140
1.0
102
RTVSPost2010PropOp39
 70
     1
102
RTVSPost2010Prop40
 90
        0
102
RTVSPost2010PropOp40
 70
     1
102
RTVSPost2010Prop41ColorIndex
 90
       18
102
RTVSPost2010Prop41ColorRGB
 90
        0
102
RTVSPost2010PropOp41
 70
     1
102
RTVSPost2010Prop42
 90
       50
102
RTVSPost2010PropOp42
 70
     1
102
RTVSPost2010Prop43
 90
        3
102
RTVSPost2010PropOp43
 70
     1
102
RTVSPost2010Prop44ColorIndex
 90
        5
102
RTVSPost2010Prop44ColorRGB
 90
      255
102
RTVSPost2010PropOp44
 70
     1
102
RTVSPost2010Prop45
280
     0
102
RTVSPost2010PropOp45
 70
     1
102
RTVSPost2010Prop46
 90
       50
102
RTVSPost2010PropOp46
 70
     1
102
RTVSPost2010Prop47
 90
       50
102
RTVSPost2010PropOp47
 70
     1
102
RTVSPost2010Prop48
 90
       50
102
RTVSPost2010PropOp48
 70
     1
102
RTVSPost2010Prop49
280
     0
102
RTVSPost2010PropOp49
 70
     1
102
RTVSPost2010Prop50
 90
       50
102
RTVSPost2010PropOp50
 70
     1
102
RTVSPost2010Prop51ColorIndex
 90
      256
102
RTVSPost2010Prop51ColorRGB
 90
-16777216
102
RTVSPost2010PropOp51
 70
     0
102
RTVSPost2010Prop52
140
1.0
102
RTVSPost2010PropOp52
 70
     0
102
RTVSPost2010Prop53
 90
        2
102
RTVSPost2010PropOp53
 70
     1
102
RTVSPost2010Prop54
  1
strokes_ogs.tif
102
RTVSPost2010PropOp54
 70
     1
102
RTVSPost2010Prop55
280
     0
102
RTVSPost2010PropOp55
 70
     1
102
RTVSPost2010Prop56
140
1.0
102
RTVSPost2010PropOp56
 70
     1
102
RTVSPost2010Prop57
140
1.0
102
RTVSPost2010PropOp57
 70
     1
102
RTVSPropertyOp0
 70
     1
102
RTVSPropertyOp1
 70
     1
102
RTVSPropertyOp2
 70
     1
102
RTVSPropertyOp3
 70
     1
102
RTVSPropertyOp4
 70
     1
102
RTVSPropertyOp5
 70
     1
102
RTVSPropertyOp6
 70
     1
102
RTVSPropertyOp7
 70
     1
102
RTVSPropertyOp8
 70
     1
102
RTVSPropertyOp9
 70
     1
102
RTVSPropertyOp10
 70
     1
102
RTVSPropertyOp11
 70
     1
102
RTVSPropertyOp12
 70
     1
102
RTVSPropertyOp13
 70
     1
102
RTVSPropertyOp14
 70
     1
102
RTVSPropertyOp15
 70
     1
102
RTVSPropertyOp16
 70
     1
102
RTVSPropertyOp17
 70
     1
102
RTVSPropertyOp18
 70
     1
102
RTVSPropertyOp19
 70
     1
102
RTVSPropertyOp20
 70
     1
102
RTVSPropertyOp21
 70
     1
102
RTVSPropertyOp22
 70
     1
102
RTVSPropertyOp23
 70
     1
102
RTVSPropertyOp24
 70
     1
102
RTVSPropertyOp25
 70
     1
102
RTVSPropertyOp26
 70
     1
102
RTVSPropertyOp27
 70
     1
102
RTVSPropertyOp28
 70
     1
102
RTVSPropertyOp29
 70
     1
102
RTVSPropertyOp30
 70
     1
102
RTVSPropertyOp31
 70
     1
102
RTVSPropertyOp32
 70
     1
102
RTVSPropertyOp33
 70
     1
102
RTVSPropertyOp34
 70
     1
102
RTVSPropertyOp35
 70
     1
102
RTVSPropertyOp36
 70
     1
102
RTVSPropertyOp37
 70
     1
102
RTVSPropertyOp38
 70
     1
102
RTVSPropertyOp39
 70
     1
102
RTVSPropertyOp40
 70
     1
102
RTVSPropertyOp41
 70
     1
102
RTVSPropertyOp42
 70
     1
102
RTVSPropertyOp43
 70
     1
102
RTVSPropertyOp44
 70
     1
102
RTVSPropertyOp45
 70
     1
102
RTVSPropertyOp46
 70
     1
102
RTVSPropertyOp47
 70
     1
102
RTVSPropertyOp48
 70
     1
102
RTVSPropertyOp49
 70
     1
102
RTVSPropertyOp50
 70
     1
102
RTVSPropertyOp51
 70
     0
102
RTVSPropertyOp52
 70
     0
102
RTVSPropertyOp53
 70
     1
102
RTVSPropertyOp54
 70
     1
102
RTVSPropertyOp55
 70
     1
102
RTVSPropertyOp56
 70
     1
102
RTVSPropertyOp57
 70
     1
102
RTVSPropertyOp58
 70
     1
102
RTVSPropertyOp59
 70
     1
102
RTVSPropertyOp60
 70
     1
102
RTVSPropertyOp61
 70
     1
102
RTVSPropertyOp62
 70
     1
  0
XRECORD
  5
8574
102
{ACAD_REACTORS
330
8573
102
}
330
8573
100
AcDbXrecord
280
     1
102
RTVSPost2010Prop28
280
     0
102
RTVSPost2010PropOp28
 70
     1
102
RTVSPost2010Prop29
280
     1
102
RTVSPost2010PropOp29
 70
     1
102
RTVSPost2010Prop30
280
     1
102
RTVSPost2010PropOp30
 70
     1
102
RTVSPost2010Prop31
280
     0
102
RTVSPost2010PropOp31
 70
     1
102
RTVSPost2010Prop32
280
     0
102
RTVSPost2010PropOp32
 70
     1
102
RTVSPost2010Prop33
280
     0
102
RTVSPost2010PropOp33
 70
     1
102
RTVSPost2010Prop34
280
     0
102
RTVSPost2010PropOp34
 70
     1
102
RTVSPost2010Prop35
280
     0
102
RTVSPost2010PropOp35
 70
     1
102
RTVSPost2010Prop36
280
     0
102
RTVSPost2010PropOp36
 70
     1
102
RTVSPost2010Prop37
 90
       50
102
RTVSPost2010PropOp37
 70
     1
102
RTVSPost2010Prop38
140
0.0
102
RTVSPost2010PropOp38
 70
     1
102
RTVSPost2010Prop39
140
1.0
102
RTVSPost2010PropOp39
 70
     1
102
RTVSPost2010Prop40
 90
        0
102
RTVSPost2010PropOp40
 70
     1
102
RTVSPost2010Prop41ColorIndex
 90
       18
102
RTVSPost2010Prop41ColorRGB
 90
        0
102
RTVSPost2010PropOp41
 70
     1
102
RTVSPost2010Prop42
 90
       50
102
RTVSPost2010PropOp42
 70
     1
102
RTVSPost2010Prop43
 90
        3
102
RTVSPost2010PropOp43
 70
     1
102
RTVSPost2010Prop44ColorIndex
 90
        5
102
RTVSPost2010Prop44ColorRGB
 90
      255
102
RTVSPost2010PropOp44
 70
     1
102
RTVSPost2010Prop45
280
     0
102
RTVSPost2010PropOp45
 70
     1
102
RTVSPost2010Prop46
 90
       50
102
RTVSPost2010PropOp46
 70
     1
102
RTVSPost2010Prop47
 90
       50
102
RTVSPost2010PropOp47
 70
     1
102
RTVSPost2010Prop48
 90
       50
102
RTVSPost2010PropOp48
 70
     1
102
RTVSPost2010Prop49
280
     0
102
RTVSPost2010PropOp49
 70
     1
102
RTVSPost2010Prop50
 90
       50
102
RTVSPost2010PropOp50
 70
     1
102
RTVSPost2010Prop51ColorIndex
 90
      256
102
RTVSPost2010Prop51ColorRGB
 90
-16777216
102
RTVSPost2010PropOp51
 70
     0
102
RTVSPost2010Prop52
140
1.0
102
RTVSPost2010PropOp52
 70
     0
102
RTVSPost2010Prop53
 90
        2
102
RTVSPost2010PropOp53
 70
     1
102
RTVSPost2010Prop54
  1
strokes_ogs.tif
102
RTVSPost2010PropOp54
 70
     1
102
RTVSPost2010Prop55
280
     0
102
RTVSPost2010PropOp55
 70
     1
102
RTVSPost2010Prop56
140
1.0
102
RTVSPost2010PropOp56
 70
     1
102
RTVSPost2010Prop57
140
1.0
102
RTVSPost2010PropOp57
 70
     1
102
RTVSPropertyOp0
 70
     1
102
RTVSPropertyOp1
 70
     1
102
RTVSPropertyOp2
 70
     1
102
RTVSPropertyOp3
 70
     1
102
RTVSPropertyOp4
 70
     1
102
RTVSPropertyOp5
 70
     1
102
RTVSPropertyOp6
 70
     1
102
RTVSPropertyOp7
 70
     1
102
RTVSPropertyOp8
 70
     1
102
RTVSPropertyOp9
 70
     1
102
RTVSPropertyOp10
 70
     1
102
RTVSPropertyOp11
 70
     1
102
RTVSPropertyOp12
 70
     1
102
RTVSPropertyOp13
 70
     1
102
RTVSPropertyOp14
 70
     1
102
RTVSPropertyOp15
 70
     1
102
RTVSPropertyOp16
 70
     1
102
RTVSPropertyOp17
 70
     1
102
RTVSPropertyOp18
 70
     1
102
RTVSPropertyOp19
 70
     1
102
RTVSPropertyOp20
 70
     1
102
RTVSPropertyOp21
 70
     1
102
RTVSPropertyOp22
 70
     1
102
RTVSPropertyOp23
 70
     1
102
RTVSPropertyOp24
 70
     1
102
RTVSPropertyOp25
 70
     1
102
RTVSPropertyOp26
 70
     1
102
RTVSPropertyOp27
 70
     1
102
RTVSPropertyOp28
 70
     1
102
RTVSPropertyOp29
 70
     1
102
RTVSPropertyOp30
 70
     1
102
RTVSPropertyOp31
 70
     1
102
RTVSPropertyOp32
 70
     1
102
RTVSPropertyOp33
 70
     1
102
RTVSPropertyOp34
 70
     1
102
RTVSPropertyOp35
 70
     1
102
RTVSPropertyOp36
 70
     1
102
RTVSPropertyOp37
 70
     1
102
RTVSPropertyOp38
 70
     1
102
RTVSPropertyOp39
 70
     1
102
RTVSPropertyOp40
 70
     1
102
RTVSPropertyOp41
 70
     1
102
RTVSPropertyOp42
 70
     1
102
RTVSPropertyOp43
 70
     1
102
RTVSPropertyOp44
 70
     1
102
RTVSPropertyOp45
 70
     1
102
RTVSPropertyOp46
 70
     1
102
RTVSPropertyOp47
 70
     1
102
RTVSPropertyOp48
 70
     1
102
RTVSPropertyOp49
 70
     1
102
RTVSPropertyOp50
 70
     1
102
RTVSPropertyOp51
 70
     0
102
RTVSPropertyOp52
 70
     0
102
RTVSPropertyOp53
 70
     1
102
RTVSPropertyOp54
 70
     1
102
RTVSPropertyOp55
 70
     1
102
RTVSPropertyOp56
 70
     1
102
RTVSPropertyOp57
 70
     1
102
RTVSPropertyOp58
 70
     1
102
RTVSPropertyOp59
 70
     1
102
RTVSPropertyOp60
 70
     1
102
RTVSPropertyOp61
 70
     1
102
RTVSPropertyOp62
 70
     1
  0
XRECORD
  5
856E
102
{ACAD_REACTORS
330
856D
102
}
330
856D
100
AcDbXrecord
280
     1
102
RTVSPost2010Prop28
280
     0
102
RTVSPost2010PropOp28
 70
     1
102
RTVSPost2010Prop29
280
     1
102
RTVSPost2010PropOp29
 70
     1
102
RTVSPost2010Prop30
280
     1
102
RTVSPost2010PropOp30
 70
     1
102
RTVSPost2010Prop31
280
     0
102
RTVSPost2010PropOp31
 70
     1
102
RTVSPost2010Prop32
280
     0
102
RTVSPost2010PropOp32
 70
     1
102
RTVSPost2010Prop33
280
     0
102
RTVSPost2010PropOp33
 70
     1
102
RTVSPost2010Prop34
280
     0
102
RTVSPost2010PropOp34
 70
     1
102
RTVSPost2010Prop35
280
     0
102
RTVSPost2010PropOp35
 70
     1
102
RTVSPost2010Prop36
280
     0
102
RTVSPost2010PropOp36
 70
     1
102
RTVSPost2010Prop37
 90
       50
102
RTVSPost2010PropOp37
 70
     1
102
RTVSPost2010Prop38
140
0.0
102
RTVSPost2010PropOp38
 70
     1
102
RTVSPost2010Prop39
140
1.0
102
RTVSPost2010PropOp39
 70
     1
102
RTVSPost2010Prop40
 90
        0
102
RTVSPost2010PropOp40
 70
     1
102
RTVSPost2010Prop41ColorIndex
 90
       18
102
RTVSPost2010Prop41ColorRGB
 90
        0
102
RTVSPost2010PropOp41
 70
     1
102
RTVSPost2010Prop42
 90
       50
102
RTVSPost2010PropOp42
 70
     1
102
RTVSPost2010Prop43
 90
        3
102
RTVSPost2010PropOp43
 70
     1
102
RTVSPost2010Prop44ColorIndex
 90
        5
102
RTVSPost2010Prop44ColorRGB
 90
      255
102
RTVSPost2010PropOp44
 70
     1
102
RTVSPost2010Prop45
280
     0
102
RTVSPost2010PropOp45
 70
     1
102
RTVSPost2010Prop46
 90
       50
102
RTVSPost2010PropOp46
 70
     1
102
RTVSPost2010Prop47
 90
       50
102
RTVSPost2010PropOp47
 70
     1
102
RTVSPost2010Prop48
 90
       50
102
RTVSPost2010PropOp48
 70
     1
102
RTVSPost2010Prop49
280
     0
102
RTVSPost2010PropOp49
 70
     1
102
RTVSPost2010Prop50
 90
       50
102
RTVSPost2010PropOp50
 70
     1
102
RTVSPost2010Prop51ColorIndex
 90
      256
102
RTVSPost2010Prop51ColorRGB
 90
-16777216
102
RTVSPost2010PropOp51
 70
     0
102
RTVSPost2010Prop52
140
1.0
102
RTVSPost2010PropOp52
 70
     0
102
RTVSPost2010Prop53
 90
        2
102
RTVSPost2010PropOp53
 70
     1
102
RTVSPost2010Prop54
  1
strokes_ogs.tif
102
RTVSPost2010PropOp54
 70
     1
102
RTVSPost2010Prop55
280
     0
102
RTVSPost2010PropOp55
 70
     1
102
RTVSPost2010Prop56
140
1.0
102
RTVSPost2010PropOp56
 70
     1
102
RTVSPost2010Prop57
140
1.0
102
RTVSPost2010PropOp57
 70
     1
102
RTVSPropertyOp0
 70
     1
102
RTVSPropertyOp1
 70
     1
102
RTVSPropertyOp2
 70
     1
102
RTVSPropertyOp3
 70
     1
102
RTVSPropertyOp4
 70
     1
102
RTVSPropertyOp5
 70
     1
102
RTVSPropertyOp6
 70
     1
102
RTVSPropertyOp7
 70
     1
102
RTVSPropertyOp8
 70
     1
102
RTVSPropertyOp9
 70
     1
102
RTVSPropertyOp10
 70
     1
102
RTVSPropertyOp11
 70
     1
102
RTVSPropertyOp12
 70
     1
102
RTVSPropertyOp13
 70
     1
102
RTVSPropertyOp14
 70
     1
102
RTVSPropertyOp15
 70
     1
102
RTVSPropertyOp16
 70
     1
102
RTVSPropertyOp17
 70
     1
102
RTVSPropertyOp18
 70
     1
102
RTVSPropertyOp19
 70
     1
102
RTVSPropertyOp20
 70
     1
102
RTVSPropertyOp21
 70
     1
102
RTVSPropertyOp22
 70
     1
102
RTVSPropertyOp23
 70
     1
102
RTVSPropertyOp24
 70
     1
102
RTVSPropertyOp25
 70
     1
102
RTVSPropertyOp26
 70
     1
102
RTVSPropertyOp27
 70
     1
102
RTVSPropertyOp28
 70
     1
102
RTVSPropertyOp29
 70
     1
102
RTVSPropertyOp30
 70
     1
102
RTVSPropertyOp31
 70
     1
102
RTVSPropertyOp32
 70
     1
102
RTVSPropertyOp33
 70
     1
102
RTVSPropertyOp34
 70
     1
102
RTVSPropertyOp35
 70
     1
102
RTVSPropertyOp36
 70
     1
102
RTVSPropertyOp37
 70
     1
102
RTVSPropertyOp38
 70
     1
102
RTVSPropertyOp39
 70
     1
102
RTVSPropertyOp40
 70
     1
102
RTVSPropertyOp41
 70
     1
102
RTVSPropertyOp42
 70
     1
102
RTVSPropertyOp43
 70
     1
102
RTVSPropertyOp44
 70
     1
102
RTVSPropertyOp45
 70
     1
102
RTVSPropertyOp46
 70
     1
102
RTVSPropertyOp47
 70
     1
102
RTVSPropertyOp48
 70
     1
102
RTVSPropertyOp49
 70
     1
102
RTVSPropertyOp50
 70
     1
102
RTVSPropertyOp51
 70
     0
102
RTVSPropertyOp52
 70
     0
102
RTVSPropertyOp53
 70
     1
102
RTVSPropertyOp54
 70
     1
102
RTVSPropertyOp55
 70
     1
102
RTVSPropertyOp56
 70
     1
102
RTVSPropertyOp57
 70
     1
102
RTVSPropertyOp58
 70
     1
102
RTVSPropertyOp59
 70
     1
102
RTVSPropertyOp60
 70
     1
102
RTVSPropertyOp61
 70
     1
102
RTVSPropertyOp62
 70
     1
  0
XRECORD
  5
8570
102
{ACAD_REACTORS
330
856F
102
}
330
856F
100
AcDbXrecord
280
     1
102
RTVSPost2010Prop28
280
     0
102
RTVSPost2010PropOp28
 70
     1
102
RTVSPost2010Prop29
280
     1
102
RTVSPost2010PropOp29
 70
     1
102
RTVSPost2010Prop30
280
     1
102
RTVSPost2010PropOp30
 70
     1
102
RTVSPost2010Prop31
280
     0
102
RTVSPost2010PropOp31
 70
     1
102
RTVSPost2010Prop32
280
     0
102
RTVSPost2010PropOp32
 70
     1
102
RTVSPost2010Prop33
280
     0
102
RTVSPost2010PropOp33
 70
     1
102
RTVSPost2010Prop34
280
     0
102
RTVSPost2010PropOp34
 70
     1
102
RTVSPost2010Prop35
280
     0
102
RTVSPost2010PropOp35
 70
     1
102
RTVSPost2010Prop36
280
     0
102
RTVSPost2010PropOp36
 70
     1
102
RTVSPost2010Prop37
 90
       50
102
RTVSPost2010PropOp37
 70
     1
102
RTVSPost2010Prop38
140
0.0
102
RTVSPost2010PropOp38
 70
     1
102
RTVSPost2010Prop39
140
1.0
102
RTVSPost2010PropOp39
 70
     1
102
RTVSPost2010Prop40
 90
        0
102
RTVSPost2010PropOp40
 70
     1
102
RTVSPost2010Prop41ColorIndex
 90
       18
102
RTVSPost2010Prop41ColorRGB
 90
        0
102
RTVSPost2010PropOp41
 70
     1
102
RTVSPost2010Prop42
 90
       50
102
RTVSPost2010PropOp42
 70
     1
102
RTVSPost2010Prop43
 90
        3
102
RTVSPost2010PropOp43
 70
     1
102
RTVSPost2010Prop44ColorIndex
 90
        5
102
RTVSPost2010Prop44ColorRGB
 90
      255
102
RTVSPost2010PropOp44
 70
     1
102
RTVSPost2010Prop45
280
     0
102
RTVSPost2010PropOp45
 70
     1
102
RTVSPost2010Prop46
 90
       50
102
RTVSPost2010PropOp46
 70
     1
102
RTVSPost2010Prop47
 90
       50
102
RTVSPost2010PropOp47
 70
     1
102
RTVSPost2010Prop48
 90
       50
102
RTVSPost2010PropOp48
 70
     1
102
RTVSPost2010Prop49
280
     0
102
RTVSPost2010PropOp49
 70
     1
102
RTVSPost2010Prop50
 90
       50
102
RTVSPost2010PropOp50
 70
     1
102
RTVSPost2010Prop51ColorIndex
 90
      256
102
RTVSPost2010Prop51ColorRGB
 90
-16777216
102
RTVSPost2010PropOp51
 70
     0
102
RTVSPost2010Prop52
140
1.0
102
RTVSPost2010PropOp52
 70
     0
102
RTVSPost2010Prop53
 90
        2
102
RTVSPost2010PropOp53
 70
     1
102
RTVSPost2010Prop54
  1
strokes_ogs.tif
102
RTVSPost2010PropOp54
 70
     1
102
RTVSPost2010Prop55
280
     0
102
RTVSPost2010PropOp55
 70
     1
102
RTVSPost2010Prop56
140
1.0
102
RTVSPost2010PropOp56
 70
     1
102
RTVSPost2010Prop57
140
1.0
102
RTVSPost2010PropOp57
 70
     1
102
RTVSPropertyOp0
 70
     1
102
RTVSPropertyOp1
 70
     1
102
RTVSPropertyOp2
 70
     1
102
RTVSPropertyOp3
 70
     1
102
RTVSPropertyOp4
 70
     1
102
RTVSPropertyOp5
 70
     1
102
RTVSPropertyOp6
 70
     1
102
RTVSPropertyOp7
 70
     1
102
RTVSPropertyOp8
 70
     1
102
RTVSPropertyOp9
 70
     1
102
RTVSPropertyOp10
 70
     1
102
RTVSPropertyOp11
 70
     1
102
RTVSPropertyOp12
 70
     1
102
RTVSPropertyOp13
 70
     1
102
RTVSPropertyOp14
 70
     1
102
RTVSPropertyOp15
 70
     1
102
RTVSPropertyOp16
 70
     1
102
RTVSPropertyOp17
 70
     1
102
RTVSPropertyOp18
 70
     1
102
RTVSPropertyOp19
 70
     1
102
RTVSPropertyOp20
 70
     1
102
RTVSPropertyOp21
 70
     1
102
RTVSPropertyOp22
 70
     1
102
RTVSPropertyOp23
 70
     1
102
RTVSPropertyOp24
 70
     1
102
RTVSPropertyOp25
 70
     1
102
RTVSPropertyOp26
 70
     1
102
RTVSPropertyOp27
 70
     1
102
RTVSPropertyOp28
 70
     1
102
RTVSPropertyOp29
 70
     1
102
RTVSPropertyOp30
 70
     1
102
RTVSPropertyOp31
 70
     1
102
RTVSPropertyOp32
 70
     1
102
RTVSPropertyOp33
 70
     1
102
RTVSPropertyOp34
 70
     1
102
RTVSPropertyOp35
 70
     1
102
RTVSPropertyOp36
 70
     1
102
RTVSPropertyOp37
 70
     1
102
RTVSPropertyOp38
 70
     1
102
RTVSPropertyOp39
 70
     1
102
RTVSPropertyOp40
 70
     1
102
RTVSPropertyOp41
 70
     1
102
RTVSPropertyOp42
 70
     1
102
RTVSPropertyOp43
 70
     1
102
RTVSPropertyOp44
 70
     1
102
RTVSPropertyOp45
 70
     1
102
RTVSPropertyOp46
 70
     1
102
RTVSPropertyOp47
 70
     1
102
RTVSPropertyOp48
 70
     1
102
RTVSPropertyOp49
 70
     1
102
RTVSPropertyOp50
 70
     1
102
RTVSPropertyOp51
 70
     0
102
RTVSPropertyOp52
 70
     0
102
RTVSPropertyOp53
 70
     1
102
RTVSPropertyOp54
 70
     1
102
RTVSPropertyOp55
 70
     1
102
RTVSPropertyOp56
 70
     1
102
RTVSPropertyOp57
 70
     1
102
RTVSPropertyOp58
 70
     1
102
RTVSPropertyOp59
 70
     1
102
RTVSPropertyOp60
 70
     1
102
RTVSPropertyOp61
 70
     1
102
RTVSPropertyOp62
 70
     1
  0
XRECORD
  5
8566
102
{ACAD_REACTORS
330
8565
102
}
330
8565
100
AcDbXrecord
280
     1
102
RTVSPost2010Prop28
280
     0
102
RTVSPost2010PropOp28
 70
     1
102
RTVSPost2010Prop29
280
     1
102
RTVSPost2010PropOp29
 70
     1
102
RTVSPost2010Prop30
280
     1
102
RTVSPost2010PropOp30
 70
     1
102
RTVSPost2010Prop31
280
     0
102
RTVSPost2010PropOp31
 70
     1
102
RTVSPost2010Prop32
280
     0
102
RTVSPost2010PropOp32
 70
     1
102
RTVSPost2010Prop33
280
     0
102
RTVSPost2010PropOp33
 70
     1
102
RTVSPost2010Prop34
280
     0
102
RTVSPost2010PropOp34
 70
     1
102
RTVSPost2010Prop35
280
     0
102
RTVSPost2010PropOp35
 70
     1
102
RTVSPost2010Prop36
280
     0
102
RTVSPost2010PropOp36
 70
     1
102
RTVSPost2010Prop37
 90
       50
102
RTVSPost2010PropOp37
 70
     1
102
RTVSPost2010Prop38
140
0.0
102
RTVSPost2010PropOp38
 70
     1
102
RTVSPost2010Prop39
140
1.0
102
RTVSPost2010PropOp39
 70
     1
102
RTVSPost2010Prop40
 90
        0
102
RTVSPost2010PropOp40
 70
     1
102
RTVSPost2010Prop41ColorIndex
 90
       18
102
RTVSPost2010Prop41ColorRGB
 90
        0
102
RTVSPost2010PropOp41
 70
     1
102
RTVSPost2010Prop42
 90
       50
102
RTVSPost2010PropOp42
 70
     1
102
RTVSPost2010Prop43
 90
        3
102
RTVSPost2010PropOp43
 70
     1
102
RTVSPost2010Prop44ColorIndex
 90
        5
102
RTVSPost2010Prop44ColorRGB
 90
      255
102
RTVSPost2010PropOp44
 70
     1
102
RTVSPost2010Prop45
280
     0
102
RTVSPost2010PropOp45
 70
     1
102
RTVSPost2010Prop46
 90
       50
102
RTVSPost2010PropOp46
 70
     1
102
RTVSPost2010Prop47
 90
       50
102
RTVSPost2010PropOp47
 70
     1
102
RTVSPost2010Prop48
 90
       50
102
RTVSPost2010PropOp48
 70
     1
102
RTVSPost2010Prop49
280
     0
102
RTVSPost2010PropOp49
 70
     1
102
RTVSPost2010Prop50
 90
       50
102
RTVSPost2010PropOp50
 70
     1
102
RTVSPost2010Prop51ColorIndex
 90
      256
102
RTVSPost2010Prop51ColorRGB
 90
-16777216
102
RTVSPost2010PropOp51
 70
     0
102
RTVSPost2010Prop52
140
1.0
102
RTVSPost2010PropOp52
 70
     0
102
RTVSPost2010Prop53
 90
        2
102
RTVSPost2010PropOp53
 70
     1
102
RTVSPost2010Prop54
  1
strokes_ogs.tif
102
RTVSPost2010PropOp54
 70
     1
102
RTVSPost2010Prop55
280
     0
102
RTVSPost2010PropOp55
 70
     1
102
RTVSPost2010Prop56
140
1.0
102
RTVSPost2010PropOp56
 70
     1
102
RTVSPost2010Prop57
140
1.0
102
RTVSPost2010PropOp57
 70
     1
102
RTVSPropertyOp0
 70
     1
102
RTVSPropertyOp1
 70
     1
102
RTVSPropertyOp2
 70
     1
102
RTVSPropertyOp3
 70
     1
102
RTVSPropertyOp4
 70
     1
102
RTVSPropertyOp5
 70
     1
102
RTVSPropertyOp6
 70
     1
102
RTVSPropertyOp7
 70
     1
102
RTVSPropertyOp8
 70
     1
102
RTVSPropertyOp9
 70
     1
102
RTVSPropertyOp10
 70
     1
102
RTVSPropertyOp11
 70
     1
102
RTVSPropertyOp12
 70
     1
102
RTVSPropertyOp13
 70
     1
102
RTVSPropertyOp14
 70
     1
102
RTVSPropertyOp15
 70
     1
102
RTVSPropertyOp16
 70
     1
102
RTVSPropertyOp17
 70
     1
102
RTVSPropertyOp18
 70
     1
102
RTVSPropertyOp19
 70
     1
102
RTVSPropertyOp20
 70
     1
102
RTVSPropertyOp21
 70
     1
102
RTVSPropertyOp22
 70
     1
102
RTVSPropertyOp23
 70
     1
102
RTVSPropertyOp24
 70
     1
102
RTVSPropertyOp25
 70
     1
102
RTVSPropertyOp26
 70
     1
102
RTVSPropertyOp27
 70
     1
102
RTVSPropertyOp28
 70
     1
102
RTVSPropertyOp29
 70
     1
102
RTVSPropertyOp30
 70
     1
102
RTVSPropertyOp31
 70
     1
102
RTVSPropertyOp32
 70
     1
102
RTVSPropertyOp33
 70
     1
102
RTVSPropertyOp34
 70
     1
102
RTVSPropertyOp35
 70
     1
102
RTVSPropertyOp36
 70
     1
102
RTVSPropertyOp37
 70
     1
102
RTVSPropertyOp38
 70
     1
102
RTVSPropertyOp39
 70
     1
102
RTVSPropertyOp40
 70
     1
102
RTVSPropertyOp41
 70
     1
102
RTVSPropertyOp42
 70
     1
102
RTVSPropertyOp43
 70
     1
102
RTVSPropertyOp44
 70
     1
102
RTVSPropertyOp45
 70
     1
102
RTVSPropertyOp46
 70
     1
102
RTVSPropertyOp47
 70
     1
102
RTVSPropertyOp48
 70
     1
102
RTVSPropertyOp49
 70
     1
102
RTVSPropertyOp50
 70
     1
102
RTVSPropertyOp51
 70
     0
102
RTVSPropertyOp52
 70
     0
102
RTVSPropertyOp53
 70
     1
102
RTVSPropertyOp54
 70
     1
102
RTVSPropertyOp55
 70
     1
102
RTVSPropertyOp56
 70
     1
102
RTVSPropertyOp57
 70
     1
102
RTVSPropertyOp58
 70
     1
102
RTVSPropertyOp59
 70
     1
102
RTVSPropertyOp60
 70
     1
102
RTVSPropertyOp61
 70
     1
102
RTVSPropertyOp62
 70
     1
  0
XRECORD
  5
855A
102
{ACAD_REACTORS
330
8559
102
}
330
8559
100
AcDbXrecord
280
     1
102
RTVSPost2010Prop28
280
     0
102
RTVSPost2010PropOp28
 70
     1
102
RTVSPost2010Prop29
280
     1
102
RTVSPost2010PropOp29
 70
     1
102
RTVSPost2010Prop30
280
     1
102
RTVSPost2010PropOp30
 70
     1
102
RTVSPost2010Prop31
280
     0
102
RTVSPost2010PropOp31
 70
     1
102
RTVSPost2010Prop32
280
     0
102
RTVSPost2010PropOp32
 70
     1
102
RTVSPost2010Prop33
280
     0
102
RTVSPost2010PropOp33
 70
     1
102
RTVSPost2010Prop34
280
     0
102
RTVSPost2010PropOp34
 70
     1
102
RTVSPost2010Prop35
280
     0
102
RTVSPost2010PropOp35
 70
     1
102
RTVSPost2010Prop36
280
     0
102
RTVSPost2010PropOp36
 70
     1
102
RTVSPost2010Prop37
 90
       50
102
RTVSPost2010PropOp37
 70
     1
102
RTVSPost2010Prop38
140
0.0
102
RTVSPost2010PropOp38
 70
     1
102
RTVSPost2010Prop39
140
1.0
102
RTVSPost2010PropOp39
 70
     1
102
RTVSPost2010Prop40
 90
        0
102
RTVSPost2010PropOp40
 70
     1
102
RTVSPost2010Prop41ColorIndex
 90
       18
102
RTVSPost2010Prop41ColorRGB
 90
        0
102
RTVSPost2010PropOp41
 70
     1
102
RTVSPost2010Prop42
 90
       50
102
RTVSPost2010PropOp42
 70
     1
102
RTVSPost2010Prop43
 90
        3
102
RTVSPost2010PropOp43
 70
     1
102
RTVSPost2010Prop44ColorIndex
 90
        5
102
RTVSPost2010Prop44ColorRGB
 90
      255
102
RTVSPost2010PropOp44
 70
     1
102
RTVSPost2010Prop45
280
     0
102
RTVSPost2010PropOp45
 70
     1
102
RTVSPost2010Prop46
 90
       50
102
RTVSPost2010PropOp46
 70
     1
102
RTVSPost2010Prop47
 90
       50
102
RTVSPost2010PropOp47
 70
     1
102
RTVSPost2010Prop48
 90
       50
102
RTVSPost2010PropOp48
 70
     1
102
RTVSPost2010Prop49
280
     0
102
RTVSPost2010PropOp49
 70
     1
102
RTVSPost2010Prop50
 90
       50
102
RTVSPost2010PropOp50
 70
     1
102
RTVSPost2010Prop51ColorIndex
 90
      256
102
RTVSPost2010Prop51ColorRGB
 90
-16777216
102
RTVSPost2010PropOp51
 70
     0
102
RTVSPost2010Prop52
140
1.0
102
RTVSPost2010PropOp52
 70
     0
102
RTVSPost2010Prop53
 90
        2
102
RTVSPost2010PropOp53
 70
     1
102
RTVSPost2010Prop54
  1
strokes_ogs.tif
102
RTVSPost2010PropOp54
 70
     1
102
RTVSPost2010Prop55
280
     0
102
RTVSPost2010PropOp55
 70
     1
102
RTVSPost2010Prop56
140
1.0
102
RTVSPost2010PropOp56
 70
     1
102
RTVSPost2010Prop57
140
1.0
102
RTVSPost2010PropOp57
 70
     1
102
RTVSPropertyOp0
 70
     1
102
RTVSPropertyOp1
 70
     1
102
RTVSPropertyOp2
 70
     1
102
RTVSPropertyOp3
 70
     1
102
RTVSPropertyOp4
 70
     1
102
RTVSPropertyOp5
 70
     1
102
RTVSPropertyOp6
 70
     1
102
RTVSPropertyOp7
 70
     1
102
RTVSPropertyOp8
 70
     1
102
RTVSPropertyOp9
 70
     1
102
RTVSPropertyOp10
 70
     1
102
RTVSPropertyOp11
 70
     1
102
RTVSPropertyOp12
 70
     1
102
RTVSPropertyOp13
 70
     1
102
RTVSPropertyOp14
 70
     1
102
RTVSPropertyOp15
 70
     1
102
RTVSPropertyOp16
 70
     1
102
RTVSPropertyOp17
 70
     1
102
RTVSPropertyOp18
 70
     1
102
RTVSPropertyOp19
 70
     1
102
RTVSPropertyOp20
 70
     1
102
RTVSPropertyOp21
 70
     1
102
RTVSPropertyOp22
 70
     1
102
RTVSPropertyOp23
 70
     1
102
RTVSPropertyOp24
 70
     1
102
RTVSPropertyOp25
 70
     1
102
RTVSPropertyOp26
 70
     1
102
RTVSPropertyOp27
 70
     1
102
RTVSPropertyOp28
 70
     1
102
RTVSPropertyOp29
 70
     1
102
RTVSPropertyOp30
 70
     1
102
RTVSPropertyOp31
 70
     1
102
RTVSPropertyOp32
 70
     1
102
RTVSPropertyOp33
 70
     1
102
RTVSPropertyOp34
 70
     1
102
RTVSPropertyOp35
 70
     1
102
RTVSPropertyOp36
 70
     1
102
RTVSPropertyOp37
 70
     1
102
RTVSPropertyOp38
 70
     1
102
RTVSPropertyOp39
 70
     1
102
RTVSPropertyOp40
 70
     1
102
RTVSPropertyOp41
 70
     1
102
RTVSPropertyOp42
 70
     1
102
RTVSPropertyOp43
 70
     1
102
RTVSPropertyOp44
 70
     1
102
RTVSPropertyOp45
 70
     1
102
RTVSPropertyOp46
 70
     1
102
RTVSPropertyOp47
 70
     1
102
RTVSPropertyOp48
 70
     1
102
RTVSPropertyOp49
 70
     1
102
RTVSPropertyOp50
 70
     1
102
RTVSPropertyOp51
 70
     0
102
RTVSPropertyOp52
 70
     0
102
RTVSPropertyOp53
 70
     1
102
RTVSPropertyOp54
 70
     1
102
RTVSPropertyOp55
 70
     1
102
RTVSPropertyOp56
 70
     1
102
RTVSPropertyOp57
 70
     1
102
RTVSPropertyOp58
 70
     1
102
RTVSPropertyOp59
 70
     1
102
RTVSPropertyOp60
 70
     1
102
RTVSPropertyOp61
 70
     1
102
RTVSPropertyOp62
 70
     1
  0
XRECORD
  5
8572
102
{ACAD_REACTORS
330
8571
102
}
330
8571
100
AcDbXrecord
280
     1
102
RTVSPost2010Prop28
280
     0
102
RTVSPost2010PropOp28
 70
     1
102
RTVSPost2010Prop29
280
     1
102
RTVSPost2010PropOp29
 70
     1
102
RTVSPost2010Prop30
280
     1
102
RTVSPost2010PropOp30
 70
     1
102
RTVSPost2010Prop31
280
     0
102
RTVSPost2010PropOp31
 70
     1
102
RTVSPost2010Prop32
280
     0
102
RTVSPost2010PropOp32
 70
     1
102
RTVSPost2010Prop33
280
     0
102
RTVSPost2010PropOp33
 70
     1
102
RTVSPost2010Prop34
280
     0
102
RTVSPost2010PropOp34
 70
     1
102
RTVSPost2010Prop35
280
     0
102
RTVSPost2010PropOp35
 70
     1
102
RTVSPost2010Prop36
280
     0
102
RTVSPost2010PropOp36
 70
     1
102
RTVSPost2010Prop37
 90
       50
102
RTVSPost2010PropOp37
 70
     1
102
RTVSPost2010Prop38
140
0.0
102
RTVSPost2010PropOp38
 70
     1
102
RTVSPost2010Prop39
140
1.0
102
RTVSPost2010PropOp39
 70
     1
102
RTVSPost2010Prop40
 90
        0
102
RTVSPost2010PropOp40
 70
     1
102
RTVSPost2010Prop41ColorIndex
 90
       18
102
RTVSPost2010Prop41ColorRGB
 90
        0
102
RTVSPost2010PropOp41
 70
     1
102
RTVSPost2010Prop42
 90
       50
102
RTVSPost2010PropOp42
 70
     1
102
RTVSPost2010Prop43
 90
        3
102
RTVSPost2010PropOp43
 70
     1
102
RTVSPost2010Prop44ColorIndex
 90
        5
102
RTVSPost2010Prop44ColorRGB
 90
      255
102
RTVSPost2010PropOp44
 70
     1
102
RTVSPost2010Prop45
280
     0
102
RTVSPost2010PropOp45
 70
     1
102
RTVSPost2010Prop46
 90
       50
102
RTVSPost2010PropOp46
 70
     1
102
RTVSPost2010Prop47
 90
       50
102
RTVSPost2010PropOp47
 70
     1
102
RTVSPost2010Prop48
 90
       50
102
RTVSPost2010PropOp48
 70
     1
102
RTVSPost2010Prop49
280
     0
102
RTVSPost2010PropOp49
 70
     1
102
RTVSPost2010Prop50
 90
       50
102
RTVSPost2010PropOp50
 70
     1
102
RTVSPost2010Prop51ColorIndex
 90
      256
102
RTVSPost2010Prop51ColorRGB
 90
-16777216
102
RTVSPost2010PropOp51
 70
     0
102
RTVSPost2010Prop52
140
1.0
102
RTVSPost2010PropOp52
 70
     0
102
RTVSPost2010Prop53
 90
        2
102
RTVSPost2010PropOp53
 70
     1
102
RTVSPost2010Prop54
  1
strokes_ogs.tif
102
RTVSPost2010PropOp54
 70
     1
102
RTVSPost2010Prop55
280
     0
102
RTVSPost2010PropOp55
 70
     1
102
RTVSPost2010Prop56
140
1.0
102
RTVSPost2010PropOp56
 70
     1
102
RTVSPost2010Prop57
140
1.0
102
RTVSPost2010PropOp57
 70
     1
102
RTVSPropertyOp0
 70
     1
102
RTVSPropertyOp1
 70
     1
102
RTVSPropertyOp2
 70
     1
102
RTVSPropertyOp3
 70
     1
102
RTVSPropertyOp4
 70
     1
102
RTVSPropertyOp5
 70
     1
102
RTVSPropertyOp6
 70
     1
102
RTVSPropertyOp7
 70
     1
102
RTVSPropertyOp8
 70
     1
102
RTVSPropertyOp9
 70
     1
102
RTVSPropertyOp10
 70
     1
102
RTVSPropertyOp11
 70
     1
102
RTVSPropertyOp12
 70
     1
102
RTVSPropertyOp13
 70
     1
102
RTVSPropertyOp14
 70
     1
102
RTVSPropertyOp15
 70
     1
102
RTVSPropertyOp16
 70
     1
102
RTVSPropertyOp17
 70
     1
102
RTVSPropertyOp18
 70
     1
102
RTVSPropertyOp19
 70
     1
102
RTVSPropertyOp20
 70
     1
102
RTVSPropertyOp21
 70
     1
102
RTVSPropertyOp22
 70
     1
102
RTVSPropertyOp23
 70
     1
102
RTVSPropertyOp24
 70
     1
102
RTVSPropertyOp25
 70
     1
102
RTVSPropertyOp26
 70
     1
102
RTVSPropertyOp27
 70
     1
102
RTVSPropertyOp28
 70
     1
102
RTVSPropertyOp29
 70
     1
102
RTVSPropertyOp30
 70
     1
102
RTVSPropertyOp31
 70
     1
102
RTVSPropertyOp32
 70
     1
102
RTVSPropertyOp33
 70
     1
102
RTVSPropertyOp34
 70
     1
102
RTVSPropertyOp35
 70
     1
102
RTVSPropertyOp36
 70
     1
102
RTVSPropertyOp37
 70
     1
102
RTVSPropertyOp38
 70
     1
102
RTVSPropertyOp39
 70
     1
102
RTVSPropertyOp40
 70
     1
102
RTVSPropertyOp41
 70
     1
102
RTVSPropertyOp42
 70
     1
102
RTVSPropertyOp43
 70
     1
102
RTVSPropertyOp44
 70
     1
102
RTVSPropertyOp45
 70
     1
102
RTVSPropertyOp46
 70
     1
102
RTVSPropertyOp47
 70
     1
102
RTVSPropertyOp48
 70
     1
102
RTVSPropertyOp49
 70
     1
102
RTVSPropertyOp50
 70
     1
102
RTVSPropertyOp51
 70
     0
102
RTVSPropertyOp52
 70
     0
102
RTVSPropertyOp53
 70
     1
102
RTVSPropertyOp54
 70
     1
102
RTVSPropertyOp55
 70
     1
102
RTVSPropertyOp56
 70
     1
102
RTVSPropertyOp57
 70
     1
102
RTVSPropertyOp58
 70
     1
102
RTVSPropertyOp59
 70
     1
102
RTVSPropertyOp60
 70
     1
102
RTVSPropertyOp61
 70
     1
102
RTVSPropertyOp62
 70
     1
  0
ENDSEC
  0
EOF
