  0
SECTION
  2
HEADER
  9
$ACADVER
  1
AC1015
  9
$ACADMAINTVER
 70
    20
  9
$DWGCODEPAGE
  3
ANSI_932
  9
$INSBASE
 10
0.0
 20
0.0
 30
0.0
  9
$EXTMIN
 10
-0.1602050617329951
 20
-0.22504996767384
 30
-0.0015258207003583
  9
$EXTMAX
 10
5250.160229508953
 20
7375.225084310193
 30
0.0000000349246037
  9
$LIMMIN
 10
0.0
 20
0.0
  9
$LIMMAX
 10
297.0
 20
210.0
  9
$ORTHOMODE
 70
     1
  9
$REGENMODE
 70
     1
  9
$FILLMODE
 70
     0
  9
$QTEXTMODE
 70
     0
  9
$MIRRTEXT
 70
     1
  9
$LTSCALE
 40
100.0
  9
$ATTMODE
 70
     1
  9
$TEXTSIZE
 40
180.0
  9
$TRACEWID
 40
0.05
  9
$TEXTSTYLE
  7
STANDARD
  9
$CLAYER
  8
3
  9
$CELTYPE
  6
ByLayer
  9
$CECOLOR
 62
   256
  9
$CELTSCALE
 40
1.0
  9
$DISPSILH
 70
     0
  9
$DIMSCALE
 40
25.0
  9
$DIMASZ
 40
2.0
  9
$DIMEXO
 40
1.0
  9
$DIMDLI
 40
10.0
  9
$DIMRND
 40
0.0
  9
$DIMDLE
 40
0.0
  9
$DIMEXE
 40
1.0
  9
$DIMTP
 40
1.0
  9
$DIMTM
 40
1.0
  9
$DIMTXT
 40
3.0
  9
$DIMCEN
 40
0.0
  9
$DIMTSZ
 40
0.0
  9
$DIMTOL
 70
     0
  9
$DIMLIM
 70
     0
  9
$DIMTIH
 70
     0
  9
$DIMTOH
 70
     0
  9
$DIMSE1
 70
     0
  9
$DIMSE2
 70
     0
  9
$DIMTAD
 70
     1
  9
$DIMZIN
 70
     8
  9
$DIMBLK
  1

  9
$DIMASO
 70
     1
  9
$DIMSHO
 70
     1
  9
$DIMPOST
  1

  9
$DIMAPOST
  1

  9
$DIMALT
 70
     0
  9
$DIMALTD
 70
     2
  9
$DIMALTF
 40
0.039
  9
$DIMLFAC
 40
1.0
  9
$DIMTOFL
 70
     1
  9
$DIMTVP
 40
0.0
  9
$DIMTIX
 70
     0
  9
$DIMSOXD
 70
     0
  9
$DIMSAH
 70
     1
  9
$DIMBLK1
  1
OPEN
  9
$DIMBLK2
  1
OPEN
  9
$DIMSTYLE
  2
IGA
  9
$DIMCLRD
 70
     0
  9
$DIMCLRE
 70
     0
  9
$DIMCLRT
 70
     0
  9
$DIMTFAC
 40
10.0
  9
$DIMGAP
 40
1.0
  9
$DIMJUST
 70
     0
  9
$DIMSD1
 70
     0
  9
$DIMSD2
 70
     0
  9
$DIMTOLJ
 70
     1
  9
$DIMTZIN
 70
     0
  9
$DIMALTZ
 70
     0
  9
$DIMALTTZ
 70
     0
  9
$DIMUPT
 70
     0
  9
$DIMDEC
 70
     4
  9
$DIMTDEC
 70
     4
  9
$DIMALTU
 70
     2
  9
$DIMALTTD
 70
     2
  9
$DIMTXSTY
  7
STANDARD
  9
$DIMAUNIT
 70
     0
  9
$DIMADEC
 70
     0
  9
$DIMALTRND
 40
0.0
  9
$DIMAZIN
 70
     0
  9
$DIMDSEP
 70
    46
  9
$DIMATFIT
 70
     3
  9
$DIMFRAC
 70
     0
  9
$DIMLDRBLK
  1
OPEN
  9
$DIMLUNIT
 70
     2
  9
$DIMLWD
 70
    -2
  9
$DIMLWE
 70
    -2
  9
$DIMTMOVE
 70
     0
  9
$LUNITS
 70
     2
  9
$LUPREC
 70
     3
  9
$SKETCHINC
 40
0.1
  9
$FILLETRAD
 40
50.0
  9
$AUNITS
 70
     0
  9
$AUPREC
 70
     0
  9
$MENU
  1
acad
  9
$ELEVATION
 40
0.0
  9
$PELEVATION
 40
0.0
  9
$THICKNESS
 40
0.0
  9
$LIMCHECK
 70
     0
  9
$CHAMFERA
 40
0.5
  9
$CHAMFERB
 40
0.5
  9
$CHAMFERC
 40
0.0
  9
$CHAMFERD
 40
0.0
  9
$SKPOLY
 70
     0
  9
$TDCREATE
 40
2451389.455817940
  9
$TDUCREATE
 40
2451389.080817940
  9
$TDUPDATE
 40
2460265.709049930
  9
$TDUUPDATE
 40
2460265.334049930
  9
$TDINDWG
 40
0.0152587616
  9
$TDUSRTIMER
 40
0.0152585185
  9
$USRTIMER
 70
     1
  9
$ANGBASE
 50
0.0
  9
$ANGDIR
 70
     0
  9
$PDMODE
 70
     0
  9
$PDSIZE
 40
0.0
  9
$PLINEWID
 40
0.0
  9
$SPLFRAME
 70
     0
  9
$SPLINETYPE
 70
     6
  9
$SPLINESEGS
 70
     8
  9
$HANDSEED
  5
84F5
  9
$SURFTAB1
 70
     6
  9
$SURFTAB2
 70
     6
  9
$SURFTYPE
 70
     6
  9
$SURFU
 70
     6
  9
$SURFV
 70
     6
  9
$UCSBASE
  2

  9
$UCSNAME
  2

  9
$UCSORG
 10
0.0
 20
0.0
 30
0.0
  9
$UCSXDIR
 10
1.0
 20
0.0
 30
0.0
  9
$UCSYDIR
 10
0.0
 20
1.0
 30
0.0
  9
$UCSORTHOREF
  2

  9
$UCSORTHOVIEW
 70
     0
  9
$UCSORGTOP
 10
0.0
 20
0.0
 30
0.0
  9
$UCSORGBOTTOM
 10
0.0
 20
0.0
 30
0.0
  9
$UCSORGLEFT
 10
0.0
 20
0.0
 30
0.0
  9
$UCSORGRIGHT
 10
0.0
 20
0.0
 30
0.0
  9
$UCSORGFRONT
 10
0.0
 20
0.0
 30
0.0
  9
$UCSORGBACK
 10
0.0
 20
0.0
 30
0.0
  9
$PUCSBASE
  2

  9
$PUCSNAME
  2

  9
$PUCSORG
 10
0.0
 20
0.0
 30
0.0
  9
$PUCSXDIR
 10
1.0
 20
0.0
 30
0.0
  9
$PUCSYDIR
 10
0.0
 20
1.0
 30
0.0
  9
$PUCSORTHOREF
  2

  9
$PUCSORTHOVIEW
 70
     0
  9
$PUCSORGTOP
 10
0.0
 20
0.0
 30
0.0
  9
$PUCSORGBOTTOM
 10
0.0
 20
0.0
 30
0.0
  9
$PUCSORGLEFT
 10
0.0
 20
0.0
 30
0.0
  9
$PUCSORGRIGHT
 10
0.0
 20
0.0
 30
0.0
  9
$PUCSORGFRONT
 10
0.0
 20
0.0
 30
0.0
  9
$PUCSORGBACK
 10
0.0
 20
0.0
 30
0.0
  9
$USERI1
 70
     0
  9
$USERI2
 70
     0
  9
$USERI3
 70
     0
  9
$USERI4
 70
     0
  9
$USERI5
 70
     0
  9
$USERR1
 40
0.0
  9
$USERR2
 40
0.0
  9
$USERR3
 40
0.0
  9
$USERR4
 40
0.0
  9
$USERR5
 40
0.0
  9
$WORLDVIEW
 70
     1
  9
$SHADEDGE
 70
     3
  9
$SHADEDIF
 70
    70
  9
$TILEMODE
 70
     1
  9
$MAXACTVP
 70
    16
  9
$PINSBASE
 10
0.0
 20
0.0
 30
0.0
  9
$PLIMCHECK
 70
     0
  9
$PEXTMIN
 10
1.000000000000000E+20
 20
1.000000000000000E+20
 30
1.000000000000000E+20
  9
$PEXTMAX
 10
-1.000000000000000E+20
 20
-1.000000000000000E+20
 30
-1.000000000000000E+20
  9
$PLIMMIN
 10
0.0
 20
0.0
  9
$PLIMMAX
 10
12.0
 20
9.0
  9
$UNITMODE
 70
     0
  9
$VISRETAIN
 70
     0
  9
$PLINEGEN
 70
     0
  9
$PSLTSCALE
 70
     1
  9
$TREEDEPTH
 70
  3020
  9
$CMLSTYLE
  2
Standard
  9
$CMLJUST
 70
     0
  9
$CMLSCALE
 40
1.0
  9
$PROXYGRAPHICS
 70
     1
  9
$MEASUREMENT
 70
     0
  9
$CELWEIGHT
370
    -1
  9
$ENDCAPS
280
     0
  9
$JOINSTYLE
280
     0
  9
$LWDISPLAY
290
     0
  9
$INSUNITS
 70
     0
  9
$HYPERLINKBASE
  1

  9
$STYLESHEET
  1

  9
$XEDIT
290
     1
  9
$CEPSNTYPE
380
     0
  9
$PSTYLEMODE
290
     1
  9
$FINGERPRINTGUID
  2
{556F8AC5-5EB5-49CB-A285-D31832EE67E1}
  9
$VERSIONGUID
  2
{47239A19-81B9-4294-A871-C091D8F2BFB6}
  9
$EXTNAMES
290
     1
  9
$PSVPSCALE
 40
0.0
  9
$OLESTARTUP
290
     0
  0
ENDSEC
  0
SECTION
  2
CLASSES
  0
CLASS
  1
ACDBDICTIONARYWDFLT
  2
AcDbDictionaryWithDefault
  3
ObjectDBX Classes
 90
        0
280
     0
281
     0
  0
CLASS
  1
MATERIAL
  2
AcDbMaterial
  3
ObjectDBX Classes
 90
     1153
280
     0
281
     0
  0
CLASS
  1
VISUALSTYLE
  2
AcDbVisualStyle
  3
ObjectDBX Classes
 90
     4095
280
     0
281
     0
  0
CLASS
  1
SCALE
  2
AcDbScale
  3
ObjectDBX Classes
 90
     1153
280
     0
281
     0
  0
CLASS
  1
TABLESTYLE
  2
AcDbTableStyle
  3
ObjectDBX Classes
 90
     4095
280
     0
281
     0
  0
CLASS
  1
MLEADERSTYLE
  2
AcDbMLeaderStyle
  3
ACDB_MLEADERSTYLE_CLASS
 90
     4095
280
     0
281
     0
  0
CLASS
  1
ACDBSECTIONVIEWSTYLE
  2
AcDbSectionViewStyle
  3
ObjectDBX Classes
 90
     1025
280
     0
281
     0
  0
CLASS
  1
ACDBDETAILVIEWSTYLE
  2
AcDbDetailViewStyle
  3
ObjectDBX Classes
 90
     1025
280
     0
281
     0
  0
CLASS
  1
DICTIONARYVAR
  2
AcDbDictionaryVar
  3
ObjectDBX Classes
 90
        0
280
     0
281
     0
  0
CLASS
  1
CELLSTYLEMAP
  2
AcDbCellStyleMap
  3
ObjectDBX Classes
 90
     1152
280
     0
281
     0
  0
CLASS
  1
ACDBPLACEHOLDER
  2
AcDbPlaceHolder
  3
ObjectDBX Classes
 90
        0
280
     0
281
     0
  0
CLASS
  1
LAYOUT
  2
AcDbLayout
  3
ObjectDBX Classes
 90
        0
280
     0
281
     0
  0
ENDSEC
  0
SECTION
  2
TABLES
  0
TABLE
  2
VPORT
  5
80F6
330
0
100
AcDbSymbolTable
 70
     1
  0
VPORT
  5
8162
330
80F6
100
AcDbSymbolTableRecord
100
AcDbViewportTableRecord
  2
*ACTIVE
 70
     0
 10
0.0
 20
0.0
 11
1.0
 21
1.0
 12
2625.00001222361
 22
3687.500017171259
 13
0.0
 23
0.0
 14
10.0
 24
10.0
 15
10.0
 25
10.0
 16
0.0
 26
0.0
 36
1.0
 17
0.0
 27
0.0
 37
0.0
 40
7422.678203440799
 41
2.050213675213675
 42
50.0
 43
0.0
 44
0.0
 50
0.0
 51
0.0
 71
     0
 72
   100
 73
     1
 74
     0
 75
     0
 76
     0
 77
     0
 78
     0
281
     0
 65
     1
110
0.0
120
0.0
130
0.0
111
1.0
121
0.0
131
0.0
112
0.0
122
1.0
132
0.0
 79
     0
146
0.0
1001
ACAD_NAV_VCDISPLAY
1070
     3
  0
ENDTAB
  0
TABLE
  2
LTYPE
  5
80F3
330
0
100
AcDbSymbolTable
 70
     3
  0
LTYPE
  5
8148
330
80F3
100
AcDbSymbolTableRecord
100
AcDbLinetypeTableRecord
  2
ByBlock
 70
     0
  3

 72
    65
 73
     0
 40
0.0
  0
LTYPE
  5
8149
330
80F3
100
AcDbSymbolTableRecord
100
AcDbLinetypeTableRecord
  2
ByLayer
 70
     0
  3

 72
    65
 73
     0
 40
0.0
  0
LTYPE
  5
814A
330
80F3
100
AcDbSymbolTableRecord
100
AcDbLinetypeTableRecord
  2
CONTINUOUS
 70
     0
  3
Solid line
 72
    65
 73
     0
 40
0.0
  0
LTYPE
  5
8163
330
80F3
100
AcDbSymbolTableRecord
100
AcDbLinetypeTableRecord
  2
CENTER
 70
     0
  3
____ _ ____ _ ____ _ ____ _ ____ _ ____ _ ____ 
 72
    65
 73
     4
 40
2.0
 49
1.25
 74
     0
 49
-0.25
 74
     0
 49
0.25
 74
     0
 49
-0.25
 74
     0
  0
ENDTAB
  0
TABLE
  2
LAYER
  5
80F0
102
{ACAD_XDICTIONARY
360
81A9
102
}
330
0
100
AcDbSymbolTable
 70
     7
  0
LAYER
  5
8142
102
{ACAD_XDICTIONARY
360
81CF
102
}
330
80F0
100
AcDbSymbolTableRecord
100
AcDbLayerTableRecord
  2
0
 70
     0
 62
     7
  6
CONTINUOUS
370
    -3
390
80FD
  0
LAYER
  5
8161
102
{ACAD_XDICTIONARY
360
81D1
102
}
330
80F0
100
AcDbSymbolTableRecord
100
AcDbLayerTableRecord
  2
3
 70
     0
 62
     2
  6
CONTINUOUS
370
    -3
390
80FD
  0
LAYER
  5
8164
102
{ACAD_XDICTIONARY
360
81D3
102
}
330
80F0
100
AcDbSymbolTableRecord
100
AcDbLayerTableRecord
  2
2
 70
     0
 62
     3
  6
CENTER
370
    -3
390
80FD
  0
LAYER
  5
8165
102
{ACAD_XDICTIONARY
360
81D5
102
}
330
80F0
100
AcDbSymbolTableRecord
100
AcDbLayerTableRecord
  2
1
 70
     0
 62
     4
  6
CONTINUOUS
370
    -3
390
80FD
  0
LAYER
  5
8166
102
{ACAD_XDICTIONARY
360
81D7
102
}
330
80F0
100
AcDbSymbolTableRecord
100
AcDbLayerTableRecord
  2
4
 70
     0
 62
     7
  6
CONTINUOUS
370
    -3
390
80FD
  0
LAYER
  5
8167
330
80F0
100
AcDbSymbolTableRecord
100
AcDbLayerTableRecord
  2
DEFPOINTS
 70
     0
 62
     7
  6
CONTINUOUS
290
     0
370
    -3
390
80FD
  0
LAYER
  5
81A6
102
{ACAD_XDICTIONARY
360
81A7
102
}
330
80F0
100
AcDbSymbolTableRecord
100
AcDbLayerTableRecord
  2
FUTO
 70
     0
 62
     4
  6
CONTINUOUS
370
    -3
390
80FD
  0
ENDTAB
  0
TABLE
  2
STYLE
  5
80F1
330
0
100
AcDbSymbolTable
 70
     2
  0
STYLE
  5
8143
330
80F1
100
AcDbSymbolTableRecord
100
AcDbTextStyleTableRecord
  2
STANDARD
 70
     0
 40
0.0
 41
1.0
 50
0.0
 71
     0
 42
180.0
  3
simplex.shx
  4
extfont.shx
  0
STYLE
  5
8147
330
80F1
100
AcDbSymbolTableRecord
100
AcDbTextStyleTableRecord
  2
Annotative
 70
     0
 40
0.0
 41
1.0
 50
0.0
 71
     0
 42
0.2
  3
txt
  4

1001
AcadAnnotative
1000
AnnotativeData
1002
{
1070
     1
1070
     1
1002
}
  0
ENDTAB
  0
TABLE
  2
VIEW
  5
80F4
330
0
100
AcDbSymbolTable
 70
     0
  0
ENDTAB
  0
TABLE
  2
UCS
  5
80F5
330
0
100
AcDbSymbolTable
 70
     0
  0
ENDTAB
  0
TABLE
  2
APPID
  5
80F7
330
0
100
AcDbSymbolTable
 70
     8
  0
APPID
  5
8144
330
80F7
100
AcDbSymbolTableRecord
100
AcDbRegAppTableRecord
  2
ACAD
 70
     0
  0
APPID
  5
814B
330
80F7
100
AcDbSymbolTableRecord
100
AcDbRegAppTableRecord
  2
AcadAnnotative
 70
     0
  0
APPID
  5
81A8
330
80F7
100
AcDbSymbolTableRecord
100
AcDbRegAppTableRecord
  2
ACAD_NAV_VCDISPLAY
 70
     0
  0
APPID
  5
8226
330
80F7
100
AcDbSymbolTableRecord
100
AcDbRegAppTableRecord
  2
ACAD_DSTYLE_DIMJAG
 70
     0
  0
APPID
  5
8227
330
80F7
100
AcDbSymbolTableRecord
100
AcDbRegAppTableRecord
  2
ACAD_DSTYLE_DIMTALN
 70
     0
  0
APPID
  5
8254
330
80F7
100
AcDbSymbolTableRecord
100
AcDbRegAppTableRecord
  2
AcadAnnoMonitorAlertIconDisabled
 70
     0
  0
APPID
  5
8255
330
80F7
100
AcDbSymbolTableRecord
100
AcDbRegAppTableRecord
  2
ACAD_EXEMPT_FROM_CAD_STANDARDS
 70
     0
  0
APPID
  5
84EC
330
80F7
100
AcDbSymbolTableRecord
100
AcDbRegAppTableRecord
  2
ACAD_MLEADERVER
 70
     0
  0
ENDTAB
  0
TABLE
  2
DIMSTYLE
  5
80F8
330
0
100
AcDbSymbolTable
 70
     4
100
AcDbDimStyleTable
 71
     1
340
8168
  0
DIMSTYLE
105
8145
102
{ACAD_REACTORS
330
7C25
330
7C26
330
7C6B
330
7C90
330
7C91
330
7C92
330
7CA1
330
7CA5
330
7CA6
102
}
330
80F8
100
AcDbSymbolTableRecord
100
AcDbDimStyleTableRecord
  2
Standard
 70
     0
340
8143
  0
DIMSTYLE
105
8146
330
80F8
100
AcDbSymbolTableRecord
100
AcDbDimStyleTableRecord
  2
Annotative
 70
     0
340
8143
1001
AcadAnnotative
1000
AnnotativeData
1002
{
1070
     1
1070
     1
1002
}
  0
DIMSTYLE
105
8168
102
{ACAD_REACTORS
330
8228
330
8235
330
828D
330
829A
330
8309
330
8316
330
8323
330
8330
330
833D
330
835C
330
8372
330
837F
330
8391
102
}
330
80F8
100
AcDbSymbolTableRecord
100
AcDbDimStyleTableRecord
  2
IGA
 70
     0
 40
2.0
 41
2.0
 42
0.5
 43
10.0
 44
1.0
 47
1.0
 48
1.0
 73
     0
 74
     0
 77
     1
 78
     8
140
3.0
141
0.0
143
0.03937
146
10.0
147
1.0
173
     1
271
     3
272
     3
279
     2
284
     8
285
     8
286
     8
340
8143
  0
DIMSTYLE
105
8169
330
80F8
100
AcDbSymbolTableRecord
100
AcDbDimStyleTableRecord
  2
MATSU
 70
     0
 41
2.0
 42
1.0
 43
10.0
 44
1.0
 73
     0
 74
     0
 77
     1
 78
     8
140
3.0
141
0.0
143
0.03937
147
0.5
172
     1
173
     1
176
   256
177
   256
178
   256
271
     3
272
     3
279
     2
284
     8
285
     8
286
     8
340
8143
  0
ENDTAB
  0
TABLE
  2
BLOCK_RECORD
  5
80EF
330
0
100
AcDbSymbolTable
 70
    50
  0
BLOCK_RECORD
  5
815D
330
80EF
100
AcDbSymbolTableRecord
100
AcDbBlockTableRecord
  2
*Model_Space
340
8160
  0
BLOCK_RECORD
  5
8159
330
80EF
100
AcDbSymbolTableRecord
100
AcDbBlockTableRecord
  2
*Paper_Space
340
815C
  0
BLOCK_RECORD
  5
816D
330
80EF
100
AcDbSymbolTableRecord
100
AcDbBlockTableRecord
  2
$MODEL_SPACE
340
0
  0
BLOCK_RECORD
  5
816F
330
80EF
100
AcDbSymbolTableRecord
100
AcDbBlockTableRecord
  2
$PAPER_SPACE
340
0
  0
BLOCK_RECORD
  5
8171
330
80EF
100
AcDbSymbolTableRecord
100
AcDbBlockTableRecord
  2
_OPEN
340
0
102
{BLKREFS
331
7FC3
331
7FC4
331
80E2
331
80E3
331
8003
331
8004
331
8010
331
8011
331
801D
331
801E
331
802A
331
802B
331
805E
331
805F
331
84B0
331
83CD
331
83CE
331
845A
331
7E4A
331
7E4B
331
7E55
331
7E56
331
7E60
331
7E61
331
7E6B
331
7E6C
331
7E76
331
7E77
331
7E81
331
7E82
331
7E8C
331
7E8D
331
80D3
331
80DA
331
80DB
331
8310
331
8311
331
831D
331
831E
331
832A
331
832B
331
8337
331
8338
331
8356
331
8357
331
836C
331
836D
331
827E
331
827F
331
8287
331
8288
331
8294
331
8295
331
82AA
331
82AB
331
7DF2
331
7DF3
331
7DFD
331
7DFE
331
7E08
331
7E09
331
7E29
331
7E2A
331
7E3F
331
7E40
102
}
  0
BLOCK_RECORD
  5
8173
330
80EF
100
AcDbSymbolTableRecord
100
AcDbBlockTableRecord
  2
YA_N
340
0
102
{BLKREFS
331
7C00
331
7C22
331
7C3A
331
7C3C
102
}
  0
BLOCK_RECORD
  5
8175
330
80EF
100
AcDbSymbolTableRecord
100
AcDbBlockTableRecord
  2
*D4
340
0
  0
BLOCK_RECORD
  5
8177
330
80EF
100
AcDbSymbolTableRecord
100
AcDbBlockTableRecord
  2
*D5
340
0
  0
BLOCK_RECORD
  5
8179
330
80EF
100
AcDbSymbolTableRecord
100
AcDbBlockTableRecord
  2
*D6
340
0
  0
BLOCK_RECORD
  5
817B
330
80EF
100
AcDbSymbolTableRecord
100
AcDbBlockTableRecord
  2
*D7
340
0
  0
BLOCK_RECORD
  5
817D
330
80EF
100
AcDbSymbolTableRecord
100
AcDbBlockTableRecord
  2
*D8
340
0
  0
BLOCK_RECORD
  5
817F
330
80EF
100
AcDbSymbolTableRecord
100
AcDbBlockTableRecord
  2
*D9
340
0
  0
BLOCK_RECORD
  5
8181
330
80EF
100
AcDbSymbolTableRecord
100
AcDbBlockTableRecord
  2
*D10
340
0
  0
BLOCK_RECORD
  5
8183
330
80EF
100
AcDbSymbolTableRecord
100
AcDbBlockTableRecord
  2
*D11
340
0
  0
BLOCK_RECORD
  5
8185
330
80EF
100
AcDbSymbolTableRecord
100
AcDbBlockTableRecord
  2
*D12
340
0
  0
BLOCK_RECORD
  5
8187
330
80EF
100
AcDbSymbolTableRecord
100
AcDbBlockTableRecord
  2
*D13
340
0
  0
BLOCK_RECORD
  5
8189
330
80EF
100
AcDbSymbolTableRecord
100
AcDbBlockTableRecord
  2
*D14
340
0
  0
BLOCK_RECORD
  5
818B
330
80EF
100
AcDbSymbolTableRecord
100
AcDbBlockTableRecord
  2
*D15
340
0
  0
BLOCK_RECORD
  5
818D
330
80EF
100
AcDbSymbolTableRecord
100
AcDbBlockTableRecord
  2
*D16
340
0
  0
BLOCK_RECORD
  5
818F
330
80EF
100
AcDbSymbolTableRecord
100
AcDbBlockTableRecord
  2
_DOT
340
0
102
{BLKREFS
331
80D2
102
}
  0
BLOCK_RECORD
  5
8190
330
80EF
100
AcDbSymbolTableRecord
100
AcDbBlockTableRecord
  2
*D18
340
0
  0
BLOCK_RECORD
  5
8192
330
80EF
100
AcDbSymbolTableRecord
100
AcDbBlockTableRecord
  2
*D19
340
0
  0
BLOCK_RECORD
  5
8194
330
80EF
100
AcDbSymbolTableRecord
100
AcDbBlockTableRecord
  2
*D20
340
0
  0
BLOCK_RECORD
  5
8197
330
80EF
100
AcDbSymbolTableRecord
100
AcDbBlockTableRecord
  2
*D21
340
0
  0
BLOCK_RECORD
  5
8199
330
80EF
100
AcDbSymbolTableRecord
100
AcDbBlockTableRecord
  2
*D22
340
0
  0
BLOCK_RECORD
  5
819B
330
80EF
100
AcDbSymbolTableRecord
100
AcDbBlockTableRecord
  2
*D23
340
0
  0
BLOCK_RECORD
  5
819D
330
80EF
100
AcDbSymbolTableRecord
100
AcDbBlockTableRecord
  2
*D24
340
0
  0
BLOCK_RECORD
  5
819F
330
80EF
100
AcDbSymbolTableRecord
100
AcDbBlockTableRecord
  2
_NONE
340
0
  0
BLOCK_RECORD
  5
81A1
330
80EF
100
AcDbSymbolTableRecord
100
AcDbBlockTableRecord
  2
*D26
340
0
  0
BLOCK_RECORD
  5
81A3
330
80EF
100
AcDbSymbolTableRecord
100
AcDbBlockTableRecord
  2
*D27
340
0
  0
BLOCK_RECORD
  5
8229
330
80EF
100
AcDbSymbolTableRecord
100
AcDbBlockTableRecord
  2
*D29
340
0
  0
BLOCK_RECORD
  5
8236
330
80EF
100
AcDbSymbolTableRecord
100
AcDbBlockTableRecord
  2
*D30
340
0
  0
BLOCK_RECORD
  5
828E
330
80EF
100
AcDbSymbolTableRecord
100
AcDbBlockTableRecord
  2
*D31
340
0
  0
BLOCK_RECORD
  5
829B
330
80EF
100
AcDbSymbolTableRecord
100
AcDbBlockTableRecord
  2
*D32
340
0
  0
BLOCK_RECORD
  5
82B0
330
80EF
100
AcDbSymbolTableRecord
100
AcDbBlockTableRecord
  2
*D33
340
0
  0
BLOCK_RECORD
  5
82BD
330
80EF
100
AcDbSymbolTableRecord
100
AcDbBlockTableRecord
  2
*D34
340
0
  0
BLOCK_RECORD
  5
82CA
330
80EF
100
AcDbSymbolTableRecord
100
AcDbBlockTableRecord
  2
*D35
340
0
  0
BLOCK_RECORD
  5
82D7
330
80EF
100
AcDbSymbolTableRecord
100
AcDbBlockTableRecord
  2
*D36
340
0
  0
BLOCK_RECORD
  5
82E4
330
80EF
100
AcDbSymbolTableRecord
100
AcDbBlockTableRecord
  2
*D37
340
0
  0
BLOCK_RECORD
  5
82EF
330
80EF
100
AcDbSymbolTableRecord
100
AcDbBlockTableRecord
  2
*D38
340
0
  0
BLOCK_RECORD
  5
82FC
330
80EF
100
AcDbSymbolTableRecord
100
AcDbBlockTableRecord
  2
*D39
340
0
  0
BLOCK_RECORD
  5
830A
330
80EF
100
AcDbSymbolTableRecord
100
AcDbBlockTableRecord
  2
*D40
340
0
  0
BLOCK_RECORD
  5
8317
330
80EF
100
AcDbSymbolTableRecord
100
AcDbBlockTableRecord
  2
*D41
340
0
  0
BLOCK_RECORD
  5
8324
330
80EF
100
AcDbSymbolTableRecord
100
AcDbBlockTableRecord
  2
*D42
340
0
  0
BLOCK_RECORD
  5
8331
330
80EF
100
AcDbSymbolTableRecord
100
AcDbBlockTableRecord
  2
*D43
340
0
  0
BLOCK_RECORD
  5
833E
330
80EF
100
AcDbSymbolTableRecord
100
AcDbBlockTableRecord
  2
*D44
340
0
  0
BLOCK_RECORD
  5
835D
330
80EF
100
AcDbSymbolTableRecord
100
AcDbBlockTableRecord
  2
*D45
340
0
  0
BLOCK_RECORD
  5
8373
330
80EF
100
AcDbSymbolTableRecord
100
AcDbBlockTableRecord
  2
*D46
340
0
  0
BLOCK_RECORD
  5
8380
330
80EF
100
AcDbSymbolTableRecord
100
AcDbBlockTableRecord
  2
*D47
340
0
  0
BLOCK_RECORD
  5
8392
330
80EF
100
AcDbSymbolTableRecord
100
AcDbBlockTableRecord
  2
*D48
340
0
  0
BLOCK_RECORD
  5
844D
330
80EF
100
AcDbSymbolTableRecord
100
AcDbBlockTableRecord
  2
_DotSmall
340
0
102
{BLKREFS
331
845B
331
84AF
102
}
  0
ENDTAB
  0
ENDSEC
  0
SECTION
  2
BLOCKS
  0
BLOCK
  5
815E
330
815D
100
AcDbEntity
  8
0
100
AcDbBlockBegin
  2
*Model_Space
 70
     0
 10
0.0
 20
0.0
 30
0.0
  3
*Model_Space
  1

  0
ENDBLK
  5
815F
330
815D
100
AcDbEntity
  8
0
100
AcDbBlockEnd
  0
BLOCK
  5
815A
330
8159
100
AcDbEntity
 67
     1
  8
0
100
AcDbBlockBegin
  2
*Paper_Space
 70
     0
 10
0.0
 20
0.0
 30
0.0
  3
*Paper_Space
  1

  0
ENDBLK
  5
815B
330
8159
100
AcDbEntity
 67
     1
  8
0
100
AcDbBlockEnd
  0
BLOCK
  5
816E
330
816D
100
AcDbEntity
  8
0
100
AcDbBlockBegin
  2
$MODEL_SPACE
 70
     0
 10
0.0
 20
0.0
 30
0.0
  3
$MODEL_SPACE
  1

  0
ENDBLK
  5
1B
330
816D
100
AcDbEntity
  8
0
100
AcDbBlockEnd
  0
BLOCK
  5
8170
330
816F
100
AcDbEntity
  8
0
100
AcDbBlockBegin
  2
$PAPER_SPACE
 70
     0
 10
0.0
 20
0.0
 30
0.0
  3
$PAPER_SPACE
  1

  0
ENDBLK
  5
18
330
816F
100
AcDbEntity
  8
0
100
AcDbBlockEnd
  0
BLOCK
  5
8172
330
8171
100
AcDbEntity
  8
0
100
AcDbBlockBegin
  2
_OPEN
 70
     0
 10
0.0
 20
0.0
 30
0.0
  3
_OPEN
  1

  0
LINE
  5
79FD
330
8171
100
AcDbEntity
  8
0
  6
ByBlock
 62
     0
100
AcDbLine
 10
-1.0
 20
0.1666666666666666
 30
0.0
 11
0.0
 21
0.0
 31
0.0
  0
LINE
  5
79FE
330
8171
100
AcDbEntity
  8
0
  6
ByBlock
 62
     0
100
AcDbLine
 10
0.0
 20
0.0
 30
0.0
 11
-1.0
 21
-0.1666666666666666
 31
0.0
  0
LINE
  5
79FF
330
8171
100
AcDbEntity
  8
0
  6
ByBlock
 62
     0
100
AcDbLine
 10
0.0
 20
0.0
 30
0.0
 11
-1.0
 21
0.0
 31
0.0
  0
ENDBLK
  5
7A01
330
8171
100
AcDbEntity
  8
0
100
AcDbBlockEnd
  0
BLOCK
  5
8174
330
8173
100
AcDbEntity
  8
0
100
AcDbBlockBegin
  2
YA_N
 70
     0
 10
0.0
 20
0.0
 30
0.0
  3
YA_N
  1

  0
ENDBLK
  5
7A0C
330
8173
100
AcDbEntity
  8
0
100
AcDbBlockEnd
  0
BLOCK
  5
8176
330
8175
100
AcDbEntity
  8
0
100
AcDbBlockBegin
  2
*D4
 70
     1
 10
0.0
 20
0.0
 30
0.0
  3
*D4
  1

  0
LINE
  5
7DEF
330
8175
100
AcDbEntity
  8
0
  6
ByBlock
100
AcDbLine
 10
1609.114682945264
 20
2409.887615409481
 30
0.0
 11
1460.769339403201
 21
2409.887615409481
 31
0.0
  0
LINE
  5
7DF0
330
8175
100
AcDbEntity
  8
0
  6
ByBlock
100
AcDbLine
 10
1609.114682945264
 20
1584.887615409481
 30
0.0
 11
1460.769339403201
 21
1584.887615409481
 31
0.0
  0
LINE
  5
7DF1
330
8175
100
AcDbEntity
  8
0
  6
ByBlock
100
AcDbLine
 10
1485.769339403201
 20
2359.887615409481
 30
0.0
 11
1485.769339403201
 21
1634.887615409481
 31
0.0
  0
INSERT
  5
7DF2
330
8175
100
AcDbEntity
  8
0
  6
ByBlock
100
AcDbBlockReference
  2
_OPEN
 10
1485.769339403201
 20
2409.887615409481
 30
0.0
 41
50.0
 42
50.0
 43
50.0
 50
90.0
  0
INSERT
  5
7DF3
330
8175
100
AcDbEntity
  8
0
  6
ByBlock
100
AcDbBlockReference
  2
_OPEN
 10
1485.769339403201
 20
1584.887615409481
 30
0.0
 41
50.0
 42
50.0
 43
50.0
 50
270.0
  0
TEXT
  5
7DF4
330
8175
100
AcDbEntity
  8
3
100
AcDbText
 10
1473.269339403201
 20
1900.959043980909
 30
0.0
 40
75.0
  1
825
 50
90.0
100
AcDbText
  0
POINT
  5
7DF5
330
8175
100
AcDbEntity
  8
DEFPOINTS
  6
ByBlock
 62
     0
100
AcDbPoint
 10
1634.114682945265
 20
2409.887615409481
 30
0.0
  0
POINT
  5
7DF6
330
8175
100
AcDbEntity
  8
DEFPOINTS
  6
ByBlock
 62
     0
100
AcDbPoint
 10
1634.114682945265
 20
1584.887615409481
 30
0.0
  0
POINT
  5
7DF7
330
8175
100
AcDbEntity
  8
DEFPOINTS
  6
ByBlock
 62
     0
100
AcDbPoint
 10
1485.769339403201
 20
1584.887615409481
 30
0.0
  0
ENDBLK
  5
7DF8
330
8175
100
AcDbEntity
  8
0
100
AcDbBlockEnd
  0
BLOCK
  5
8178
330
8177
100
AcDbEntity
  8
0
100
AcDbBlockBegin
  2
*D5
 70
     1
 10
0.0
 20
0.0
 30
0.0
  3
*D5
  1

  0
LINE
  5
7DFA
330
8177
100
AcDbEntity
  8
0
  6
ByBlock
100
AcDbLine
 10
1609.114682945264
 20
2409.887615409481
 30
0.0
 11
1308.485936829398
 21
2409.887615409481
 31
0.0
  0
LINE
  5
7DFB
330
8177
100
AcDbEntity
  8
0
  6
ByBlock
100
AcDbLine
 10
1487.642891094874
 20
1561.887615409481
 30
0.0
 11
1308.485936829398
 21
1561.887615409481
 31
0.0
  0
LINE
  5
7DFC
330
8177
100
AcDbEntity
  8
0
  6
ByBlock
100
AcDbLine
 10
1333.485936829398
 20
2359.887615409481
 30
0.0
 11
1333.485936829398
 21
1611.887615409481
 31
0.0
  0
INSERT
  5
7DFD
330
8177
100
AcDbEntity
  8
0
  6
ByBlock
100
AcDbBlockReference
  2
_OPEN
 10
1333.485936829398
 20
2409.887615409481
 30
0.0
 41
50.0
 42
50.0
 43
50.0
 50
90.0
  0
INSERT
  5
7DFE
330
8177
100
AcDbEntity
  8
0
  6
ByBlock
100
AcDbBlockReference
  2
_OPEN
 10
1333.485936829398
 20
1561.887615409481
 30
0.0
 41
50.0
 42
50.0
 43
50.0
 50
270.0
  0
TEXT
  5
7DFF
330
8177
100
AcDbEntity
  8
3
100
AcDbText
 10
1320.985936829398
 20
1889.459043980909
 30
0.0
 40
75.0
  1
848
 50
90.0
100
AcDbText
  0
POINT
  5
7E00
330
8177
100
AcDbEntity
  8
DEFPOINTS
  6
ByBlock
 62
     0
100
AcDbPoint
 10
1634.114682945265
 20
2409.887615409481
 30
0.0
  0
POINT
  5
7E01
330
8177
100
AcDbEntity
  8
DEFPOINTS
  6
ByBlock
 62
     0
100
AcDbPoint
 10
1512.642891094874
 20
1561.887615409481
 30
0.0
  0
POINT
  5
7E02
330
8177
100
AcDbEntity
  8
DEFPOINTS
  6
ByBlock
 62
     0
100
AcDbPoint
 10
1333.485936829398
 20
1561.887615409481
 30
0.0
  0
ENDBLK
  5
7E03
330
8177
100
AcDbEntity
  8
0
100
AcDbBlockEnd
  0
BLOCK
  5
817A
330
8179
100
AcDbEntity
  8
0
100
AcDbBlockBegin
  2
*D6
 70
     1
 10
0.0
 20
0.0
 30
0.0
  3
*D6
  1

  0
LINE
  5
7E05
330
8179
100
AcDbEntity
  8
0
  6
ByBlock
100
AcDbLine
 10
1487.642891094874
 20
1561.887615409481
 30
0.0
 11
1307.845025767335
 21
1561.887615409481
 31
0.0
  0
LINE
  5
7E06
330
8179
100
AcDbEntity
  8
0
  6
ByBlock
100
AcDbLine
 10
1654.114682945265
 20
971.8876154094807
 30
0.0
 11
1307.845025767335
 21
971.8876154094807
 31
0.0
  0
LINE
  5
7E07
330
8179
100
AcDbEntity
  8
0
  6
ByBlock
100
AcDbLine
 10
1332.845025767335
 20
1511.887615409481
 30
0.0
 11
1332.845025767335
 21
1021.88761540948
 31
0.0
  0
INSERT
  5
7E08
330
8179
100
AcDbEntity
  8
0
  6
ByBlock
100
AcDbBlockReference
  2
_OPEN
 10
1332.845025767335
 20
1561.887615409481
 30
0.0
 41
50.0
 42
50.0
 43
50.0
 50
90.0
  0
INSERT
  5
7E09
330
8179
100
AcDbEntity
  8
0
  6
ByBlock
100
AcDbBlockReference
  2
_OPEN
 10
1332.845025767335
 20
971.8876154094807
 30
0.0
 41
50.0
 42
50.0
 43
50.0
 50
270.0
  0
TEXT
  5
7E0A
330
8179
100
AcDbEntity
  8
3
100
AcDbText
 10
1320.345025767335
 20
1170.459043980909
 30
0.0
 40
75.0
  1
590
 50
90.0
100
AcDbText
  0
POINT
  5
7E0B
330
8179
100
AcDbEntity
  8
DEFPOINTS
  6
ByBlock
 62
     0
100
AcDbPoint
 10
1512.642891094874
 20
1561.887615409481
 30
0.0
  0
POINT
  5
7E0C
330
8179
100
AcDbEntity
  8
DEFPOINTS
  6
ByBlock
 62
     0
100
AcDbPoint
 10
1679.114682945265
 20
971.8876154094807
 30
0.0
  0
POINT
  5
7E0D
330
8179
100
AcDbEntity
  8
DEFPOINTS
  6
ByBlock
 62
     0
100
AcDbPoint
 10
1332.845025767335
 20
971.8876154094807
 30
0.0
  0
ENDBLK
  5
7E0E
330
8179
100
AcDbEntity
  8
0
100
AcDbBlockEnd
  0
BLOCK
  5
817C
330
817B
100
AcDbEntity
  8
0
100
AcDbBlockBegin
  2
*D7
 70
     1
 10
0.0
 20
0.0
 30
0.0
  3
*D7
  1

  0
LINE
  5
7E26
330
817B
100
AcDbEntity
  8
0
  6
ByBlock
100
AcDbLine
 10
5441.207505112644
 20
1986.88761540948
 30
0.0
 11
5740.43091600962
 21
1986.88761540948
 31
0.0
  0
LINE
  5
7E27
330
817B
100
AcDbEntity
  8
0
  6
ByBlock
100
AcDbLine
 10
5441.207505112644
 20
1136.887615409481
 30
0.0
 11
5740.43091600962
 21
1136.887615409481
 31
0.0
  0
LINE
  5
7E28
330
817B
100
AcDbEntity
  8
0
  6
ByBlock
100
AcDbLine
 10
5715.43091600962
 20
1936.88761540948
 30
0.0
 11
5715.43091600962
 21
1186.887615409481
 31
0.0
  0
INSERT
  5
7E29
330
817B
100
AcDbEntity
  8
0
  6
ByBlock
100
AcDbBlockReference
  2
_OPEN
 10
5715.43091600962
 20
1986.88761540948
 30
0.0
 41
50.0
 42
50.0
 43
50.0
 50
90.0
  0
INSERT
  5
7E2A
330
817B
100
AcDbEntity
  8
0
  6
ByBlock
100
AcDbBlockReference
  2
_OPEN
 10
5715.43091600962
 20
1136.887615409481
 30
0.0
 41
50.0
 42
50.0
 43
50.0
 50
270.0
  0
TEXT
  5
7E2B
330
817B
100
AcDbEntity
  8
3
100
AcDbText
 10
5702.93091600962
 20
1427.959043980909
 30
0.0
 40
75.0
  1
\U+03C6850
 50
90.0
100
AcDbText
  0
POINT
  5
7E2C
330
817B
100
AcDbEntity
  8
DEFPOINTS
  6
ByBlock
 62
     0
100
AcDbPoint
 10
5416.207505112645
 20
1986.88761540948
 30
0.0
  0
POINT
  5
7E2D
330
817B
100
AcDbEntity
  8
DEFPOINTS
  6
ByBlock
 62
     0
100
AcDbPoint
 10
5416.207505112645
 20
1136.887615409481
 30
0.0
  0
POINT
  5
7E2E
330
817B
100
AcDbEntity
  8
DEFPOINTS
  6
ByBlock
 62
     0
100
AcDbPoint
 10
5715.43091600962
 20
1136.887615409481
 30
0.0
  0
ENDBLK
  5
7E2F
330
817B
100
AcDbEntity
  8
0
100
AcDbBlockEnd
  0
BLOCK
  5
817E
330
817D
100
AcDbEntity
  8
0
100
AcDbBlockBegin
  2
*D8
 70
     1
 10
0.0
 20
0.0
 30
0.0
  3
*D8
  1

  0
LINE
  5
7E3C
330
817D
100
AcDbEntity
  8
0
  6
ByBlock
100
AcDbLine
 10
2679.114682945265
 20
4579.380572240498
 30
0.0
 11
2679.114682945265
 21
4730.503855791452
 31
0.0
  0
LINE
  5
7E3D
330
817D
100
AcDbEntity
  8
0
  6
ByBlock
100
AcDbLine
 10
1679.114682945265
 20
4579.380572240498
 30
0.0
 11
1679.114682945265
 21
4730.503855791452
 31
0.0
  0
LINE
  5
7E3E
330
817D
100
AcDbEntity
  8
0
  6
ByBlock
100
AcDbLine
 10
2629.114682945266
 20
4705.503855791452
 30
0.0
 11
1729.114682945265
 21
4705.503855791452
 31
0.0
  0
INSERT
  5
7E3F
330
817D
100
AcDbEntity
  8
0
  6
ByBlock
100
AcDbBlockReference
  2
_OPEN
 10
2679.114682945265
 20
4705.503855791452
 30
0.0
 41
50.0
 42
50.0
 43
50.0
  0
INSERT
  5
7E40
330
817D
100
AcDbEntity
  8
0
  6
ByBlock
100
AcDbBlockReference
  2
_OPEN
 10
1679.114682945265
 20
4705.503855791452
 30
0.0
 41
50.0
 42
50.0
 43
50.0
 50
180.0
  0
TEXT
  5
7E41
330
817D
100
AcDbEntity
  8
3
100
AcDbText
 10
2054.114682945265
 20
4718.003855791452
 30
0.0
 40
75.0
  1
1000
100
AcDbText
  0
POINT
  5
7E42
330
817D
100
AcDbEntity
  8
DEFPOINTS
  6
ByBlock
 62
     0
100
AcDbPoint
 10
2679.114682945265
 20
4554.380572240497
 30
0.0
  0
POINT
  5
7E43
330
817D
100
AcDbEntity
  8
DEFPOINTS
  6
ByBlock
 62
     0
100
AcDbPoint
 10
1679.114682945265
 20
4554.380572240497
 30
0.0
  0
POINT
  5
7E44
330
817D
100
AcDbEntity
  8
DEFPOINTS
  6
ByBlock
 62
     0
100
AcDbPoint
 10
1679.114682945265
 20
4705.503855791452
 30
0.0
  0
ENDBLK
  5
7E45
330
817D
100
AcDbEntity
  8
0
100
AcDbBlockEnd
  0
BLOCK
  5
8180
330
817F
100
AcDbEntity
  8
0
100
AcDbBlockBegin
  2
*D9
 70
     1
 10
0.0
 20
0.0
 30
0.0
  3
*D9
  1

  0
LINE
  5
7E47
330
817F
100
AcDbEntity
  8
0
  6
ByBlock
100
AcDbLine
 10
1654.114682945265
 20
4554.380572240497
 30
0.0
 11
1436.177954795375
 21
4554.380572240497
 31
0.0
  0
LINE
  5
7E48
330
817F
100
AcDbEntity
  8
0
  6
ByBlock
100
AcDbLine
 10
1654.114682945265
 20
3299.3805722405
 30
0.0
 11
1436.177954795375
 21
3299.3805722405
 31
0.0
  0
LINE
  5
7E49
330
817F
100
AcDbEntity
  8
0
  6
ByBlock
100
AcDbLine
 10
1461.177954795374
 20
4504.380572240497
 30
0.0
 11
1461.177954795374
 21
3349.380572240499
 31
0.0
  0
INSERT
  5
7E4A
330
817F
100
AcDbEntity
  8
0
  6
ByBlock
100
AcDbBlockReference
  2
_OPEN
 10
1461.177954795374
 20
4554.380572240497
 30
0.0
 41
50.0
 42
50.0
 43
50.0
 50
90.0
  0
INSERT
  5
7E4B
330
817F
100
AcDbEntity
  8
0
  6
ByBlock
100
AcDbBlockReference
  2
_OPEN
 10
1461.177954795374
 20
3299.3805722405
 30
0.0
 41
50.0
 42
50.0
 43
50.0
 50
270.0
  0
TEXT
  5
7E4C
330
817F
100
AcDbEntity
  8
3
100
AcDbText
 10
1448.677954795375
 20
3801.8805722405
 30
0.0
 40
75.0
  1
1255
 50
90.0
100
AcDbText
  0
POINT
  5
7E4D
330
817F
100
AcDbEntity
  8
DEFPOINTS
  6
ByBlock
 62
     0
100
AcDbPoint
 10
1679.114682945265
 20
4554.380572240497
 30
0.0
  0
POINT
  5
7E4E
330
817F
100
AcDbEntity
  8
DEFPOINTS
  6
ByBlock
 62
     0
100
AcDbPoint
 10
1679.114682945265
 20
3299.3805722405
 30
0.0
  0
POINT
  5
7E4F
330
817F
100
AcDbEntity
  8
DEFPOINTS
  6
ByBlock
 62
     0
100
AcDbPoint
 10
1461.177954795374
 20
3299.3805722405
 30
0.0
  0
ENDBLK
  5
7E50
330
817F
100
AcDbEntity
  8
0
100
AcDbBlockEnd
  0
BLOCK
  5
8182
330
8181
100
AcDbEntity
  8
0
100
AcDbBlockBegin
  2
*D10
 70
     1
 10
0.0
 20
0.0
 30
0.0
  3
*D10
  1

  0
LINE
  5
7E52
330
8181
100
AcDbEntity
  8
0
  6
ByBlock
100
AcDbLine
 10
3454.114682945265
 20
4049.380572240499
 30
0.0
 11
3606.267512068578
 21
4049.380572240499
 31
0.0
  0
LINE
  5
7E53
330
8181
100
AcDbEntity
  8
0
  6
ByBlock
100
AcDbLine
 10
3454.114682945265
 20
3299.3805722405
 30
0.0
 11
3606.267512068578
 21
3299.3805722405
 31
0.0
  0
LINE
  5
7E54
330
8181
100
AcDbEntity
  8
0
  6
ByBlock
100
AcDbLine
 10
3581.267512068578
 20
3999.380572240499
 30
0.0
 11
3581.267512068578
 21
3349.3805722405
 31
0.0
  0
INSERT
  5
7E55
330
8181
100
AcDbEntity
  8
0
  6
ByBlock
100
AcDbBlockReference
  2
_OPEN
 10
3581.267512068578
 20
4049.380572240499
 30
0.0
 41
50.0
 42
50.0
 43
50.0
 50
90.0
  0
INSERT
  5
7E56
330
8181
100
AcDbEntity
  8
0
  6
ByBlock
100
AcDbBlockReference
  2
_OPEN
 10
3581.267512068578
 20
3299.3805722405
 30
0.0
 41
50.0
 42
50.0
 43
50.0
 50
270.0
  0
TEXT
  5
7E57
330
8181
100
AcDbEntity
  8
3
100
AcDbText
 10
3568.767512068578
 20
3577.952000811928
 30
0.0
 40
75.0
  1
750
 50
90.0
100
AcDbText
  0
POINT
  5
7E58
330
8181
100
AcDbEntity
  8
DEFPOINTS
  6
ByBlock
 62
     0
100
AcDbPoint
 10
3429.114682945265
 20
4049.380572240499
 30
0.0
  0
POINT
  5
7E59
330
8181
100
AcDbEntity
  8
DEFPOINTS
  6
ByBlock
 62
     0
100
AcDbPoint
 10
3429.114682945265
 20
3299.3805722405
 30
0.0
  0
POINT
  5
7E5A
330
8181
100
AcDbEntity
  8
DEFPOINTS
  6
ByBlock
 62
     0
100
AcDbPoint
 10
3581.267512068578
 20
3299.3805722405
 30
0.0
  0
ENDBLK
  5
7E5B
330
8181
100
AcDbEntity
  8
0
100
AcDbBlockEnd
  0
BLOCK
  5
8184
330
8183
100
AcDbEntity
  8
0
100
AcDbBlockBegin
  2
*D11
 70
     1
 10
0.0
 20
0.0
 30
0.0
  3
*D11
  1

  0
LINE
  5
7E5D
330
8183
100
AcDbEntity
  8
0
  6
ByBlock
100
AcDbLine
 10
3429.114682945265
 20
3274.3805722405
 30
0.0
 11
3429.114682945265
 21
3013.7147873961
 31
0.0
  0
LINE
  5
7E5E
330
8183
100
AcDbEntity
  8
0
  6
ByBlock
100
AcDbLine
 10
1679.114682945265
 20
3274.380572240499
 30
0.0
 11
1679.114682945265
 21
3013.7147873961
 31
0.0
  0
LINE
  5
7E5F
330
8183
100
AcDbEntity
  8
0
  6
ByBlock
100
AcDbLine
 10
3379.114682945264
 20
3038.7147873961
 30
0.0
 11
1729.114682945265
 21
3038.7147873961
 31
0.0
  0
INSERT
  5
7E60
330
8183
100
AcDbEntity
  8
0
  6
ByBlock
100
AcDbBlockReference
  2
_OPEN
 10
3429.114682945265
 20
3038.7147873961
 30
0.0
 41
50.0
 42
50.0
 43
50.0
  0
INSERT
  5
7E61
330
8183
100
AcDbEntity
  8
0
  6
ByBlock
100
AcDbBlockReference
  2
_OPEN
 10
1679.114682945265
 20
3038.7147873961
 30
0.0
 41
50.0
 42
50.0
 43
50.0
 50
180.0
  0
TEXT
  5
7E62
330
8183
100
AcDbEntity
  8
3
100
AcDbText
 10
2429.114682945265
 20
3051.2147873961
 30
0.0
 40
75.0
  1
1750
100
AcDbText
  0
POINT
  5
7E63
330
8183
100
AcDbEntity
  8
DEFPOINTS
  6
ByBlock
 62
     0
100
AcDbPoint
 10
3429.114682945265
 20
3299.3805722405
 30
0.0
  0
POINT
  5
7E64
330
8183
100
AcDbEntity
  8
DEFPOINTS
  6
ByBlock
 62
     0
100
AcDbPoint
 10
1679.114682945265
 20
3299.3805722405
 30
0.0
  0
POINT
  5
7E65
330
8183
100
AcDbEntity
  8
DEFPOINTS
  6
ByBlock
 62
     0
100
AcDbPoint
 10
1679.114682945265
 20
3038.7147873961
 30
0.0
  0
ENDBLK
  5
7E66
330
8183
100
AcDbEntity
  8
0
100
AcDbBlockEnd
  0
BLOCK
  5
8186
330
8185
100
AcDbEntity
  8
0
100
AcDbBlockBegin
  2
*D12
 70
     1
 10
0.0
 20
0.0
 30
0.0
  3
*D12
  1

  0
LINE
  5
7E68
330
8185
100
AcDbEntity
  8
0
  6
ByBlock
100
AcDbLine
 10
4413.907505112644
 20
2434.887615409481
 30
0.0
 11
4413.907505112644
 21
2587.190522429095
 31
0.0
  0
LINE
  5
7E69
330
8185
100
AcDbEntity
  8
0
  6
ByBlock
100
AcDbLine
 10
5413.907505112645
 20
2434.887615409481
 30
0.0
 11
5413.907505112645
 21
2587.190522429095
 31
0.0
  0
LINE
  5
7E6A
330
8185
100
AcDbEntity
  8
0
  6
ByBlock
100
AcDbLine
 10
4463.907505112644
 20
2562.190522429094
 30
0.0
 11
5363.907505112646
 21
2562.190522429094
 31
0.0
  0
INSERT
  5
7E6B
330
8185
100
AcDbEntity
  8
0
  6
ByBlock
100
AcDbBlockReference
  2
_OPEN
 10
4413.907505112644
 20
2562.190522429094
 30
0.0
 41
50.0
 42
50.0
 43
50.0
 50
180.0
  0
INSERT
  5
7E6C
330
8185
100
AcDbEntity
  8
0
  6
ByBlock
100
AcDbBlockReference
  2
_OPEN
 10
5413.907505112645
 20
2562.190522429094
 30
0.0
 41
50.0
 42
50.0
 43
50.0
  0
TEXT
  5
7E6D
330
8185
100
AcDbEntity
  8
3
100
AcDbText
 10
4788.907505112644
 20
2574.690522429095
 30
0.0
 40
75.0
  1
1000
100
AcDbText
  0
POINT
  5
7E6E
330
8185
100
AcDbEntity
  8
DEFPOINTS
  6
ByBlock
 62
     0
100
AcDbPoint
 10
4413.907505112644
 20
2409.887615409481
 30
0.0
  0
POINT
  5
7E6F
330
8185
100
AcDbEntity
  8
DEFPOINTS
  6
ByBlock
 62
     0
100
AcDbPoint
 10
5413.907505112645
 20
2409.887615409481
 30
0.0
  0
POINT
  5
7E70
330
8185
100
AcDbEntity
  8
DEFPOINTS
  6
ByBlock
 62
     0
100
AcDbPoint
 10
5413.907505112645
 20
2562.190522429094
 30
0.0
  0
ENDBLK
  5
7E71
330
8185
100
AcDbEntity
  8
0
100
AcDbBlockEnd
  0
BLOCK
  5
8188
330
8187
100
AcDbEntity
  8
0
100
AcDbBlockBegin
  2
*D13
 70
     1
 10
0.0
 20
0.0
 30
0.0
  3
*D13
  1

  0
LINE
  5
7E73
330
8187
100
AcDbEntity
  8
0
  6
ByBlock
100
AcDbLine
 10
2862.774766698257
 20
1586.887615409481
 30
0.0
 11
2862.774766698257
 21
2589.20679631228
 31
0.0
  0
LINE
  5
7E74
330
8187
100
AcDbEntity
  8
0
  6
ByBlock
100
AcDbLine
 10
2179.114682945265
 20
2445.570948036724
 30
0.0
 11
2179.114682945265
 21
2589.20679631228
 31
0.0
  0
LINE
  5
7E75
330
8187
100
AcDbEntity
  8
0
  6
ByBlock
100
AcDbLine
 10
2812.774766698256
 20
2564.20679631228
 30
0.0
 11
2229.114682945265
 21
2564.20679631228
 31
0.0
  0
INSERT
  5
7E76
330
8187
100
AcDbEntity
  8
0
  6
ByBlock
100
AcDbBlockReference
  2
_OPEN
 10
2862.774766698257
 20
2564.20679631228
 30
0.0
 41
50.0
 42
50.0
 43
50.0
  0
INSERT
  5
7E77
330
8187
100
AcDbEntity
  8
0
  6
ByBlock
100
AcDbBlockReference
  2
_OPEN
 10
2179.114682945265
 20
2564.20679631228
 30
0.0
 41
50.0
 42
50.0
 43
50.0
 50
180.0
  0
TEXT
  5
7E78
330
8187
100
AcDbEntity
  8
3
100
AcDbText
 10
2426.301867678903
 20
2576.706796312281
 30
0.0
 40
75.0
  1
686
100
AcDbText
  0
POINT
  5
7E79
330
8187
100
AcDbEntity
  8
DEFPOINTS
  6
ByBlock
 62
     0
100
AcDbPoint
 10
2862.774766698257
 20
1561.887615409481
 30
0.0
  0
POINT
  5
7E7A
330
8187
100
AcDbEntity
  8
DEFPOINTS
  6
ByBlock
 62
     0
100
AcDbPoint
 10
2179.114682945265
 20
2420.570948036724
 30
0.0
  0
POINT
  5
7E7B
330
8187
100
AcDbEntity
  8
DEFPOINTS
  6
ByBlock
 62
     0
100
AcDbPoint
 10
2179.114682945265
 20
2564.20679631228
 30
0.0
  0
ENDBLK
  5
7E7C
330
8187
100
AcDbEntity
  8
0
100
AcDbBlockEnd
  0
BLOCK
  5
818A
330
8189
100
AcDbEntity
  8
0
100
AcDbBlockBegin
  2
*D14
 70
     1
 10
0.0
 20
0.0
 30
0.0
  3
*D14
  1

  0
LINE
  5
7E7E
330
8189
100
AcDbEntity
  8
0
  6
ByBlock
100
AcDbLine
 10
2179.114682945265
 20
2445.570948036724
 30
0.0
 11
2179.114682945265
 21
2589.20679631228
 31
0.0
  0
LINE
  5
7E7F
330
8189
100
AcDbEntity
  8
0
  6
ByBlock
100
AcDbLine
 10
1634.114682945265
 20
2477.387615409481
 30
0.0
 11
1634.114682945265
 21
2589.20679631228
 31
0.0
  0
LINE
  5
7E80
330
8189
100
AcDbEntity
  8
0
  6
ByBlock
100
AcDbLine
 10
2129.114682945265
 20
2564.20679631228
 30
0.0
 11
1684.114682945265
 21
2564.20679631228
 31
0.0
  0
INSERT
  5
7E81
330
8189
100
AcDbEntity
  8
0
  6
ByBlock
100
AcDbBlockReference
  2
_OPEN
 10
2179.114682945265
 20
2564.20679631228
 30
0.0
 41
50.0
 42
50.0
 43
50.0
  0
INSERT
  5
7E82
330
8189
100
AcDbEntity
  8
0
  6
ByBlock
100
AcDbBlockReference
  2
_OPEN
 10
1634.114682945265
 20
2564.20679631228
 30
0.0
 41
50.0
 42
50.0
 43
50.0
 50
180.0
  0
TEXT
  5
7E83
330
8189
100
AcDbEntity
  8
3
100
AcDbText
 10
1810.186111516693
 20
2576.706796312281
 30
0.0
 40
75.0
  1
545
100
AcDbText
  0
POINT
  5
7E84
330
8189
100
AcDbEntity
  8
DEFPOINTS
  6
ByBlock
 62
     0
100
AcDbPoint
 10
2179.114682945265
 20
2420.570948036724
 30
0.0
  0
POINT
  5
7E85
330
8189
100
AcDbEntity
  8
DEFPOINTS
  6
ByBlock
 62
     0
100
AcDbPoint
 10
1634.114682945265
 20
2452.387615409481
 30
0.0
  0
POINT
  5
7E86
330
8189
100
AcDbEntity
  8
DEFPOINTS
  6
ByBlock
 62
     0
100
AcDbPoint
 10
1634.114682945265
 20
2564.20679631228
 30
0.0
  0
ENDBLK
  5
7E87
330
8189
100
AcDbEntity
  8
0
100
AcDbBlockEnd
  0
BLOCK
  5
818C
330
818B
100
AcDbEntity
  8
0
100
AcDbBlockBegin
  2
*D15
 70
     1
 10
0.0
 20
0.0
 30
0.0
  3
*D15
  1

  0
LINE
  5
7E89
330
818B
100
AcDbEntity
  8
0
  6
ByBlock
100
AcDbLine
 10
3429.114682945265
 20
1096.887615409481
 30
0.0
 11
3429.114682945265
 21
2736.143709729451
 31
0.0
  0
LINE
  5
7E8A
330
818B
100
AcDbEntity
  8
0
  6
ByBlock
100
AcDbLine
 10
1634.114682945265
 20
2477.387615409481
 30
0.0
 11
1634.114682945265
 21
2736.143709729451
 31
0.0
  0
LINE
  5
7E8B
330
818B
100
AcDbEntity
  8
0
  6
ByBlock
100
AcDbLine
 10
3379.114682945265
 20
2711.143709729451
 30
0.0
 11
1684.114682945265
 21
2711.143709729451
 31
0.0
  0
INSERT
  5
7E8C
330
818B
100
AcDbEntity
  8
0
  6
ByBlock
100
AcDbBlockReference
  2
_OPEN
 10
3429.114682945265
 20
2711.143709729451
 30
0.0
 41
50.0
 42
50.0
 43
50.0
  0
INSERT
  5
7E8D
330
818B
100
AcDbEntity
  8
0
  6
ByBlock
100
AcDbBlockReference
  2
_OPEN
 10
1634.114682945265
 20
2711.143709729451
 30
0.0
 41
50.0
 42
50.0
 43
50.0
 50
180.0
  0
TEXT
  5
7E8E
330
818B
100
AcDbEntity
  8
3
100
AcDbText
 10
2406.614682945265
 20
2723.643709729451
 30
0.0
 40
75.0
  1
1795
100
AcDbText
  0
POINT
  5
7E8F
330
818B
100
AcDbEntity
  8
DEFPOINTS
  6
ByBlock
 62
     0
100
AcDbPoint
 10
3429.114682945265
 20
1071.88761540948
 30
0.0
  0
POINT
  5
7E90
330
818B
100
AcDbEntity
  8
DEFPOINTS
  6
ByBlock
 62
     0
100
AcDbPoint
 10
1634.114682945265
 20
2452.387615409481
 30
0.0
  0
POINT
  5
7E91
330
818B
100
AcDbEntity
  8
DEFPOINTS
  6
ByBlock
 62
     0
100
AcDbPoint
 10
1634.114682945265
 20
2711.143709729451
 30
0.0
  0
ENDBLK
  5
7E92
330
818B
100
AcDbEntity
  8
0
100
AcDbBlockEnd
  0
BLOCK
  5
818E
330
818D
100
AcDbEntity
  8
0
100
AcDbBlockBegin
  2
*D16
 70
     1
 10
0.0
 20
0.0
 30
0.0
  3
*D16
  1

  0
LINE
  5
80CD
330
818D
100
AcDbEntity
  8
3
 62
     0
100
AcDbLine
 10
1032.962242941992
 20
1826.798180525844
 30
0.0
 11
674.1925857640636
 21
1826.798180525844
 31
0.0
  0
LINE
  5
80CE
330
818D
100
AcDbEntity
  8
3
 62
     0
100
AcDbLine
 10
1032.962242941992
 20
1726.798180525844
 30
0.0
 11
674.1925857640636
 21
1726.798180525844
 31
0.0
  0
LINE
  5
80CF
330
818D
100
AcDbEntity
  8
3
 62
     0
100
AcDbLine
 10
699.1925857640636
 20
1876.798180525844
 30
0.0
 11
699.1925857640636
 21
1926.798180525844
 31
0.0
  0
LINE
  5
80D0
330
818D
100
AcDbEntity
  8
3
 62
     0
100
AcDbLine
 10
699.1925857640636
 20
1676.798180525844
 30
0.0
 11
699.1925857640636
 21
1398.226751954415
 31
0.0
  0
LINE
  5
80D1
330
818D
100
AcDbEntity
  8
3
 62
     0
100
AcDbLine
 10
699.1925857640636
 20
1826.798180525844
 30
0.0
 11
699.1925857640636
 21
1726.798180525844
 31
0.0
  0
INSERT
  5
80D2
330
818D
100
AcDbEntity
  8
3
 62
     0
100
AcDbBlockReference
  2
_DOT
 10
699.1925857640636
 20
1826.798180525844
 30
0.0
 41
50.0
 42
50.0
 43
50.0
 50
270.0
  0
INSERT
  5
80D3
330
818D
100
AcDbEntity
  8
3
 62
     0
100
AcDbBlockReference
  2
_OPEN
 10
699.1925857640636
 20
1726.798180525844
 30
0.0
 41
50.0
 42
50.0
 43
50.0
 50
90.0
  0
TEXT
  5
80EB
330
818D
100
AcDbEntity
  8
3
 62
     0
100
AcDbText
 10
486.693
 20
1379.76
 30
0.0
 40
75.0
  1
100
100
AcDbText
  0
POINT
  5
80D5
330
818D
100
AcDbEntity
  8
DEFPOINTS
 62
     0
100
AcDbPoint
 10
1045.462242941992
 20
1826.798180525844
 30
0.0
  0
POINT
  5
80D6
330
818D
100
AcDbEntity
  8
DEFPOINTS
 62
     0
100
AcDbPoint
 10
1045.462242941992
 20
1726.798180525844
 30
0.0
  0
POINT
  5
80D7
330
818D
100
AcDbEntity
  8
DEFPOINTS
 62
     0
100
AcDbPoint
 10
699.1925857640636
 20
1726.798180525844
 30
0.0
  0
ENDBLK
  5
7F7E
330
818D
100
AcDbEntity
  8
0
100
AcDbBlockEnd
  0
BLOCK
  5
8196
330
818F
100
AcDbEntity
  8
0
100
AcDbBlockBegin
  2
_DOT
 70
     0
 10
0.0
 20
0.0
 30
0.0
  3
_DOT
  1

  0
LWPOLYLINE
  5
7FA8
330
818F
100
AcDbEntity
  8
0
  6
ByBlock
 62
     0
100
AcDbPolyline
 90
        2
 70
     1
 43
0.25
 10
-0.125
 20
0.0
 42
1.0
 10
0.125
 20
0.0
 42
1.0
  0
LINE
  5
7FAC
330
818F
100
AcDbEntity
  8
0
  6
ByBlock
 62
     0
100
AcDbLine
 10
-0.25
 20
0.0
 30
0.0
 11
-1.0
 21
0.0
 31
0.0
  0
ENDBLK
  5
7F71
330
818F
100
AcDbEntity
  8
0
100
AcDbBlockEnd
  0
BLOCK
  5
8191
330
8190
100
AcDbEntity
  8
0
100
AcDbBlockBegin
  2
*D18
 70
     1
 10
0.0
 20
0.0
 30
0.0
  3
*D18
  1

  0
LINE
  5
80D8
330
8190
100
AcDbEntity
  8
3
100
AcDbLine
 10
2795.462242941992
 20
5024.291137356862
 30
0.0
 11
2795.462242941992
 21
5680.414420907816
 31
0.0
  0
LINE
  5
80D9
330
8190
100
AcDbEntity
  8
3
100
AcDbLine
 10
2095.462242941993
 20
5655.414420907815
 30
0.0
 11
2745.462242941992
 21
5655.414420907815
 31
0.0
  0
INSERT
  5
80DA
330
8190
100
AcDbEntity
  8
3
100
AcDbBlockReference
  2
_OPEN
 10
2045.462242941993
 20
5655.414420907815
 30
0.0
 41
50.0
 42
50.0
 43
50.0
 50
180.0
  0
INSERT
  5
80DB
330
8190
100
AcDbEntity
  8
3
100
AcDbBlockReference
  2
_OPEN
 10
2795.462242941992
 20
5655.414420907815
 30
0.0
 41
50.0
 42
50.0
 43
50.0
  0
TEXT
  5
80EC
330
8190
100
AcDbEntity
  8
3
100
AcDbText
 10
2270.46
 20
5572.659999999999
 30
0.0
 40
75.0
  1
750
100
AcDbText
  0
POINT
  5
80DD
330
8190
100
AcDbEntity
  8
DEFPOINTS
 62
     0
100
AcDbPoint
 10
2045.462242941993
 20
5504.291137356862
 30
0.0
  0
POINT
  5
80DE
330
8190
100
AcDbEntity
  8
DEFPOINTS
 62
     0
100
AcDbPoint
 10
2795.462242941992
 20
4999.291137356863
 30
0.0
  0
POINT
  5
80DF
330
8190
100
AcDbEntity
  8
DEFPOINTS
 62
     0
100
AcDbPoint
 10
2795.462242941992
 20
5655.414420907815
 30
0.0
  0
ENDBLK
  5
7ED7
330
8190
100
AcDbEntity
  8
0
100
AcDbBlockEnd
  0
BLOCK
  5
8193
330
8192
100
AcDbEntity
  8
0
100
AcDbBlockBegin
  2
*D19
 70
     1
 10
0.0
 20
0.0
 30
0.0
  3
*D19
  1

  0
LINE
  5
7FC0
330
8192
100
AcDbEntity
  8
0
  6
ByBlock
100
AcDbLine
 10
4880.255065109373
 20
2497.298180525843
 30
0.0
 11
4880.255065109373
 21
3673.781527104818
 31
0.0
  0
LINE
  5
7FC1
330
8192
100
AcDbEntity
  8
0
  6
ByBlock
100
AcDbLine
 10
4280.255065109371
 20
3607.406554294833
 30
0.0
 11
4280.255065109371
 21
3673.781527104818
 31
0.0
  0
LINE
  5
7FC2
330
8192
100
AcDbEntity
  8
0
  6
ByBlock
100
AcDbLine
 10
4830.255065109373
 20
3648.781527104818
 30
0.0
 11
4330.255065109372
 21
3648.781527104818
 31
0.0
  0
INSERT
  5
7FC3
330
8192
100
AcDbEntity
  8
0
  6
ByBlock
100
AcDbBlockReference
  2
_OPEN
 10
4880.255065109373
 20
3648.781527104818
 30
0.0
 41
50.0
 42
50.0
 43
50.0
  0
INSERT
  5
7FC4
330
8192
100
AcDbEntity
  8
0
  6
ByBlock
100
AcDbBlockReference
  2
_OPEN
 10
4280.255065109371
 20
3648.781527104818
 30
0.0
 41
50.0
 42
50.0
 43
50.0
 50
180.0
  0
TEXT
  5
7FC5
330
8192
100
AcDbEntity
  8
3
100
AcDbText
 10
4442.755065109372
 20
3693.424384247676
 30
0.0
 40
75.0
  1
(610)
100
AcDbText
  0
POINT
  5
7FC6
330
8192
100
AcDbEntity
  8
DEFPOINTS
  6
ByBlock
 62
     0
100
AcDbPoint
 10
4880.255065109373
 20
2472.298180525843
 30
0.0
  0
POINT
  5
7FC7
330
8192
100
AcDbEntity
  8
DEFPOINTS
  6
ByBlock
 62
     0
100
AcDbPoint
 10
4280.255065109371
 20
3582.406554294835
 30
0.0
  0
POINT
  5
7FC8
330
8192
100
AcDbEntity
  8
DEFPOINTS
  6
ByBlock
 62
     0
100
AcDbPoint
 10
4280.255065109371
 20
3648.781527104818
 30
0.0
  0
ENDBLK
  5
7FC9
330
8192
100
AcDbEntity
  8
0
100
AcDbBlockEnd
  0
BLOCK
  5
8195
330
8194
100
AcDbEntity
  8
0
100
AcDbBlockBegin
  2
*D20
 70
     1
 10
0.0
 20
0.0
 30
0.0
  3
*D20
  1

  0
LINE
  5
80E0
330
8194
100
AcDbEntity
  8
3
100
AcDbLine
 10
3470.255065109371
 20
2756.798180525843
 30
0.0
 11
3470.255065109371
 21
3673.781527104818
 31
0.0
  0
LINE
  5
80E1
330
8194
100
AcDbEntity
  8
3
100
AcDbLine
 10
4230.25506510937
 20
3648.781527104818
 30
0.0
 11
3520.255065109371
 21
3648.781527104818
 31
0.0
  0
INSERT
  5
80E2
330
8194
100
AcDbEntity
  8
3
100
AcDbBlockReference
  2
_OPEN
 10
4280.255065109371
 20
3648.781527104818
 30
0.0
 41
50.0
 42
50.0
 43
50.0
  0
INSERT
  5
80E3
330
8194
100
AcDbEntity
  8
3
100
AcDbBlockReference
  2
_OPEN
 10
3470.255065109371
 20
3648.781527104818
 30
0.0
 41
50.0
 42
50.0
 43
50.0
 50
180.0
  0
TEXT
  5
80ED
330
8194
100
AcDbEntity
  8
3
100
AcDbText
 10
3725.26
 20
3628.53
 30
0.0
 40
75.0
  1
MAX
100
AcDbText
  0
TEXT
  5
80EE
330
8194
100
AcDbEntity
  8
3
100
AcDbText
 10
3725.26
 20
3531.030000000001
 30
0.0
 40
75.0
  1
860
100
AcDbText
  0
POINT
  5
80E5
330
8194
100
AcDbEntity
  8
DEFPOINTS
 62
     0
100
AcDbPoint
 10
4280.255065109371
 20
3582.406554294835
 30
0.0
  0
POINT
  5
80E6
330
8194
100
AcDbEntity
  8
DEFPOINTS
 62
     0
100
AcDbPoint
 10
3470.255065109371
 20
2731.798180525843
 30
0.0
  0
POINT
  5
80E7
330
8194
100
AcDbEntity
  8
DEFPOINTS
 62
     0
100
AcDbPoint
 10
3470.255065109371
 20
3648.781527104818
 30
0.0
  0
ENDBLK
  5
7FBE
330
8194
100
AcDbEntity
  8
0
100
AcDbBlockEnd
  0
BLOCK
  5
8198
330
8197
100
AcDbEntity
  8
0
100
AcDbBlockBegin
  2
*D21
 70
     1
 10
0.0
 20
0.0
 30
0.0
  3
*D21
  1

  0
LINE
  5
8000
330
8197
100
AcDbEntity
  8
0
  6
ByBlock
 62
     0
100
AcDbLine
 10
1045.462242941992
 20
1769.798180525844
 30
0.0
 11
1045.462242941992
 21
1604.850427013442
 31
0.0
  0
LINE
  5
8001
330
8197
100
AcDbEntity
  8
0
  6
ByBlock
 62
     0
100
AcDbLine
 10
1545.462242941992
 20
1769.798180525843
 30
0.0
 11
1545.462242941992
 21
1604.850427013442
 31
0.0
  0
LINE
  5
8002
330
8197
100
AcDbEntity
  8
0
  6
ByBlock
 62
     0
100
AcDbLine
 10
1095.462242941992
 20
1629.850427013441
 30
0.0
 11
1495.462242941992
 21
1629.850427013441
 31
0.0
  0
INSERT
  5
8003
330
8197
100
AcDbEntity
  8
0
  6
ByBlock
 62
     0
100
AcDbBlockReference
  2
_OPEN
 10
1045.462242941992
 20
1629.850427013441
 30
0.0
 41
50.0
 42
50.0
 43
50.0
 50
180.0
  0
INSERT
  5
8004
330
8197
100
AcDbEntity
  8
0
  6
ByBlock
 62
     0
100
AcDbBlockReference
  2
_OPEN
 10
1545.462242941992
 20
1629.850427013441
 30
0.0
 41
50.0
 42
50.0
 43
50.0
  0
TEXT
  5
8005
330
8197
100
AcDbEntity
  8
3
 62
     0
100
AcDbText
 10
1199.033671513421
 20
1654.850427013442
 30
0.0
 40
75.0
  1
500
100
AcDbText
  0
POINT
  5
8006
330
8197
100
AcDbEntity
  8
DEFPOINTS
  6
ByBlock
 62
     0
100
AcDbPoint
 10
1045.462242941992
 20
1794.798180525844
 30
0.0
  0
POINT
  5
8007
330
8197
100
AcDbEntity
  8
DEFPOINTS
  6
ByBlock
 62
     0
100
AcDbPoint
 10
1545.462242941992
 20
1794.798180525844
 30
0.0
  0
POINT
  5
8008
330
8197
100
AcDbEntity
  8
DEFPOINTS
  6
ByBlock
 62
     0
100
AcDbPoint
 10
1545.462242941992
 20
1629.850427013441
 30
0.0
  0
ENDBLK
  5
8009
330
8197
100
AcDbEntity
  8
0
100
AcDbBlockEnd
  0
BLOCK
  5
819A
330
8199
100
AcDbEntity
  8
0
100
AcDbBlockBegin
  2
*D22
 70
     1
 10
0.0
 20
0.0
 30
0.0
  3
*D22
  1

  0
LINE
  5
800D
330
8199
100
AcDbEntity
  8
0
  6
ByBlock
 62
     0
100
AcDbLine
 10
1545.462242941992
 20
1769.798180525843
 30
0.0
 11
1545.462242941992
 21
1604.850427013442
 31
0.0
  0
LINE
  5
800E
330
8199
100
AcDbEntity
  8
0
  6
ByBlock
 62
     0
100
AcDbLine
 10
2795.462242941992
 20
1769.798180525844
 30
0.0
 11
2795.462242941992
 21
1604.850427013442
 31
0.0
  0
LINE
  5
800F
330
8199
100
AcDbEntity
  8
0
  6
ByBlock
 62
     0
100
AcDbLine
 10
1595.462242941992
 20
1629.850427013441
 30
0.0
 11
2745.462242941992
 21
1629.850427013441
 31
0.0
  0
INSERT
  5
8010
330
8199
100
AcDbEntity
  8
0
  6
ByBlock
 62
     0
100
AcDbBlockReference
  2
_OPEN
 10
1545.462242941992
 20
1629.850427013441
 30
0.0
 41
50.0
 42
50.0
 43
50.0
 50
180.0
  0
INSERT
  5
8011
330
8199
100
AcDbEntity
  8
0
  6
ByBlock
 62
     0
100
AcDbBlockReference
  2
_OPEN
 10
2795.462242941992
 20
1629.850427013441
 30
0.0
 41
50.0
 42
50.0
 43
50.0
  0
TEXT
  5
8012
330
8199
100
AcDbEntity
  8
3
 62
     0
100
AcDbText
 10
2045.462242941992
 20
1654.850427013442
 30
0.0
 40
75.0
  1
1250
100
AcDbText
  0
POINT
  5
8013
330
8199
100
AcDbEntity
  8
DEFPOINTS
  6
ByBlock
 62
     0
100
AcDbPoint
 10
1545.462242941992
 20
1794.798180525844
 30
0.0
  0
POINT
  5
8014
330
8199
100
AcDbEntity
  8
DEFPOINTS
  6
ByBlock
 62
     0
100
AcDbPoint
 10
2795.462242941992
 20
1794.798180525844
 30
0.0
  0
POINT
  5
8015
330
8199
100
AcDbEntity
  8
DEFPOINTS
  6
ByBlock
 62
     0
100
AcDbPoint
 10
2795.462242941992
 20
1629.850427013441
 30
0.0
  0
ENDBLK
  5
8016
330
8199
100
AcDbEntity
  8
0
100
AcDbBlockEnd
  0
BLOCK
  5
819C
330
819B
100
AcDbEntity
  8
0
100
AcDbBlockBegin
  2
*D23
 70
     1
 10
0.0
 20
0.0
 30
0.0
  3
*D23
  1

  0
LINE
  5
801A
330
819B
100
AcDbEntity
  8
0
  6
ByBlock
 62
     0
100
AcDbLine
 10
3578.255065109371
 20
1769.798180525844
 30
0.0
 11
3578.255065109371
 21
1604.850427013442
 31
0.0
  0
LINE
  5
801B
330
819B
100
AcDbEntity
  8
0
  6
ByBlock
 62
     0
100
AcDbLine
 10
4280.255065109371
 20
1769.798180525844
 30
0.0
 11
4280.255065109371
 21
1604.850427013442
 31
0.0
  0
LINE
  5
801C
330
819B
100
AcDbEntity
  8
0
  6
ByBlock
 62
     0
100
AcDbLine
 10
3628.255065109371
 20
1629.850427013441
 30
0.0
 11
4230.255065109371
 21
1629.850427013441
 31
0.0
  0
INSERT
  5
801D
330
819B
100
AcDbEntity
  8
0
  6
ByBlock
 62
     0
100
AcDbBlockReference
  2
_OPEN
 10
3578.255065109371
 20
1629.850427013441
 30
0.0
 41
50.0
 42
50.0
 43
50.0
 50
180.0
  0
INSERT
  5
801E
330
819B
100
AcDbEntity
  8
0
  6
ByBlock
 62
     0
100
AcDbBlockReference
  2
_OPEN
 10
4280.255065109371
 20
1629.850427013441
 30
0.0
 41
50.0
 42
50.0
 43
50.0
  0
TEXT
  5
801F
330
819B
100
AcDbEntity
  8
3
 62
     0
100
AcDbText
 10
3832.8264936808
 20
1654.850427013442
 30
0.0
 40
75.0
  1
702
100
AcDbText
  0
POINT
  5
8020
330
819B
100
AcDbEntity
  8
DEFPOINTS
  6
ByBlock
 62
     0
100
AcDbPoint
 10
3578.255065109371
 20
1794.798180525844
 30
0.0
  0
POINT
  5
8021
330
819B
100
AcDbEntity
  8
DEFPOINTS
  6
ByBlock
 62
     0
100
AcDbPoint
 10
4280.255065109371
 20
1794.798180525844
 30
0.0
  0
POINT
  5
8022
330
819B
100
AcDbEntity
  8
DEFPOINTS
  6
ByBlock
 62
     0
100
AcDbPoint
 10
4280.255065109371
 20
1629.850427013441
 30
0.0
  0
ENDBLK
  5
8023
330
819B
100
AcDbEntity
  8
0
100
AcDbBlockEnd
  0
BLOCK
  5
819E
330
819D
100
AcDbEntity
  8
0
100
AcDbBlockBegin
  2
*D24
 70
     1
 10
0.0
 20
0.0
 30
0.0
  3
*D24
  1

  0
LINE
  5
8027
330
819D
100
AcDbEntity
  8
0
  6
ByBlock
 62
     0
100
AcDbLine
 10
4280.255065109371
 20
1769.798180525844
 30
0.0
 11
4280.255065109371
 21
1604.850427013442
 31
0.0
  0
LINE
  5
8028
330
819D
100
AcDbEntity
  8
0
  6
ByBlock
 62
     0
100
AcDbLine
 10
4833.255065109373
 20
1769.798180525844
 30
0.0
 11
4833.255065109373
 21
1604.850427013442
 31
0.0
  0
LINE
  5
8029
330
819D
100
AcDbEntity
  8
0
  6
ByBlock
 62
     0
100
AcDbLine
 10
4330.255065109372
 20
1629.850427013441
 30
0.0
 11
4783.255065109371
 21
1629.850427013441
 31
0.0
  0
INSERT
  5
802A
330
819D
100
AcDbEntity
  8
0
  6
ByBlock
 62
     0
100
AcDbBlockReference
  2
_OPEN
 10
4280.255065109371
 20
1629.850427013441
 30
0.0
 41
50.0
 42
50.0
 43
50.0
 50
180.0
  0
INSERT
  5
802B
330
819D
100
AcDbEntity
  8
0
  6
ByBlock
 62
     0
100
AcDbBlockReference
  2
_OPEN
 10
4833.255065109373
 20
1629.850427013441
 30
0.0
 41
50.0
 42
50.0
 43
50.0
  0
TEXT
  5
802C
330
819D
100
AcDbEntity
  8
3
 62
     0
100
AcDbText
 10
4460.326493680801
 20
1654.850427013442
 30
0.0
 40
75.0
  1
553
100
AcDbText
  0
POINT
  5
802D
330
819D
100
AcDbEntity
  8
DEFPOINTS
  6
ByBlock
 62
     0
100
AcDbPoint
 10
4280.255065109371
 20
1794.798180525844
 30
0.0
  0
POINT
  5
802E
330
819D
100
AcDbEntity
  8
DEFPOINTS
  6
ByBlock
 62
     0
100
AcDbPoint
 10
4833.255065109373
 20
1794.798180525844
 30
0.0
  0
POINT
  5
802F
330
819D
100
AcDbEntity
  8
DEFPOINTS
  6
ByBlock
 62
     0
100
AcDbPoint
 10
4833.255065109373
 20
1629.850427013441
 30
0.0
  0
ENDBLK
  5
8030
330
819D
100
AcDbEntity
  8
0
100
AcDbBlockEnd
  0
BLOCK
  5
81A0
330
819F
100
AcDbEntity
  8
0
100
AcDbBlockBegin
  2
_NONE
 70
     0
 10
0.0
 20
0.0
 30
0.0
  3
_NONE
  1

  0
CIRCLE
  5
8034
330
819F
100
AcDbEntity
  8
0
  6
ByBlock
 62
     0
100
AcDbCircle
 10
0.0
 20
0.0
 30
0.0
 40
0.25
  0
ENDBLK
  5
8035
330
819F
100
AcDbEntity
  8
0
100
AcDbBlockEnd
  0
BLOCK
  5
81A2
330
81A1
100
AcDbEntity
  8
0
100
AcDbBlockBegin
  2
*D26
 70
     1
 10
0.0
 20
0.0
 30
0.0
  3
*D26
  1

  0
LINE
  5
8052
330
81A1
100
AcDbEntity
  8
0
  6
ByBlock
 62
     0
100
AcDbLine
 10
695.8811264104553
 20
1826.798180525844
 30
0.0
 11
695.8811264104553
 21
1921.798180525843
 31
0.0
  0
TEXT
  5
8053
330
81A1
100
AcDbEntity
  8
3
 62
     0
100
AcDbText
 10
601.2382692675981
 20
1765.369609097272
 30
0.0
 40
75.0
  1
(95)
 50
90.0
100
AcDbText
  0
POINT
  5
8054
330
81A1
100
AcDbEntity
  8
DEFPOINTS
  6
ByBlock
 62
     0
100
AcDbPoint
 10
1045.462242941992
 20
1826.798180525844
 30
0.0
  0
POINT
  5
8055
330
81A1
100
AcDbEntity
  8
DEFPOINTS
  6
ByBlock
 62
     0
100
AcDbPoint
 10
1045.462242941992
 20
1921.798180525843
 30
0.0
  0
POINT
  5
8056
330
81A1
100
AcDbEntity
  8
DEFPOINTS
  6
ByBlock
 62
     0
100
AcDbPoint
 10
695.8811264104553
 20
1921.798180525843
 30
0.0
  0
ENDBLK
  5
8057
330
81A1
100
AcDbEntity
  8
0
100
AcDbBlockEnd
  0
BLOCK
  5
81A4
330
81A3
100
AcDbEntity
  8
0
100
AcDbBlockBegin
  2
*D27
 70
     1
 10
0.0
 20
0.0
 30
0.0
  3
*D27
  1

  0
LINE
  5
805B
330
81A3
100
AcDbEntity
  8
0
  6
ByBlock
 62
     0
100
AcDbLine
 10
1020.462242941992
 20
1726.798180525844
 30
0.0
 11
460.2164846041413
 21
1726.798180525844
 31
0.0
  0
LINE
  5
805C
330
81A3
100
AcDbEntity
  8
0
  6
ByBlock
 62
     0
100
AcDbLine
 10
950.4622429419928
 20
3359.798180525845
 30
0.0
 11
460.2164846041413
 21
3359.798180525845
 31
0.0
  0
LINE
  5
805D
330
81A3
100
AcDbEntity
  8
0
  6
ByBlock
 62
     0
100
AcDbLine
 10
485.2164846041413
 20
1776.798180525844
 30
0.0
 11
485.2164846041413
 21
3309.798180525844
 31
0.0
  0
INSERT
  5
805E
330
81A3
100
AcDbEntity
  8
0
  6
ByBlock
 62
     0
100
AcDbBlockReference
  2
_OPEN
 10
485.2164846041413
 20
1726.798180525844
 30
0.0
 41
50.0
 42
50.0
 43
50.0
 50
270.0
  0
INSERT
  5
805F
330
81A3
100
AcDbEntity
  8
0
  6
ByBlock
 62
     0
100
AcDbBlockReference
  2
_OPEN
 10
485.2164846041413
 20
3359.798180525845
 30
0.0
 41
50.0
 42
50.0
 43
50.0
 50
90.0
  0
TEXT
  5
8060
330
81A3
100
AcDbEntity
  8
3
 62
     0
100
AcDbText
 10
428.0736274612842
 20
2370.083894811557
 30
0.0
 40
75.0
  1
(1633)
 50
90.0
100
AcDbText
  0
POINT
  5
8061
330
81A3
100
AcDbEntity
  8
DEFPOINTS
  6
ByBlock
 62
     0
100
AcDbPoint
 10
1045.462242941992
 20
1726.798180525844
 30
0.0
  0
POINT
  5
8062
330
81A3
100
AcDbEntity
  8
DEFPOINTS
  6
ByBlock
 62
     0
100
AcDbPoint
 10
975.4622429419928
 20
3359.798180525845
 30
0.0
  0
POINT
  5
8063
330
81A3
100
AcDbEntity
  8
DEFPOINTS
  6
ByBlock
 62
     0
100
AcDbPoint
 10
485.2164846041413
 20
3359.798180525845
 30
0.0
  0
ENDBLK
  5
8064
330
81A3
100
AcDbEntity
  8
0
100
AcDbBlockEnd
  0
BLOCK
  5
822A
330
8229
100
AcDbEntity
  8
0
100
AcDbBlockBegin
  2
*D29
 70
     1
 10
0.0
 20
0.0
 30
0.0
  3
*D29
  1

  0
LINE
  5
827B
330
8229
100
AcDbEntity
  8
3
 62
     0
370
    -2
100
AcDbLine
 10
3380.255065109371
 20
2756.798180525843
 30
0.0
 11
3380.255065109371
 21
3700.055597123374
 31
0.0
  0
LINE
  5
827C
330
8229
100
AcDbEntity
  8
3
 62
     0
370
    -2
100
AcDbLine
 10
4280.255065109371
 20
3624.601087545458
 30
0.0
 11
4280.255065109371
 21
3700.055597123374
 31
0.0
  0
LINE
  5
827D
330
8229
100
AcDbEntity
  8
3
 62
     0
370
    -2
100
AcDbLine
 10
3430.255065109371
 20
3675.055597123374
 30
0.0
 11
4230.25506510937
 21
3675.055597123374
 31
0.0
  0
INSERT
  5
827E
330
8229
100
AcDbEntity
  8
3
 62
     0
370
    -2
100
AcDbBlockReference
  2
_OPEN
 10
3380.255065109371
 20
3675.055597123374
 30
0.0
 41
50.0
 42
50.0
 43
50.0
 50
180.0
  0
INSERT
  5
827F
330
8229
100
AcDbEntity
  8
3
 62
     0
370
    -2
100
AcDbBlockReference
  2
_OPEN
 10
4280.255065109371
 20
3675.055597123374
 30
0.0
 41
50.0
 42
50.0
 43
50.0
  0
MTEXT
  5
8280
330
8229
100
AcDbEntity
  8
3
 62
     0
100
AcDbMText
 10
3830.255065109371
 20
3757.198454266231
 30
0.0
 40
75.0
 41
0.0
 71
     5
 72
     1
  1
\A1;(900)
 73
     1
 44
1.0
1001
ACAD
1000
MTEXTBEGIN
1070
    73
1070
     1
1070
    44
1040
1.0
1070
    74
1070
     0
1000
MTEXTEND
  0
POINT
  5
8281
330
8229
100
AcDbEntity
  8
DEFPOINTS
 62
     0
100
AcDbPoint
 10
3380.255065109371
 20
2731.798180525843
 30
0.0
  0
POINT
  5
8282
330
8229
100
AcDbEntity
  8
DEFPOINTS
 62
     0
100
AcDbPoint
 10
4280.255065109371
 20
3599.601087545458
 30
0.0
  0
POINT
  5
8283
330
8229
100
AcDbEntity
  8
DEFPOINTS
 62
     0
100
AcDbPoint
 10
4280.255065109371
 20
3675.055597123374
 30
0.0
  0
ENDBLK
  5
822B
330
8229
100
AcDbEntity
  8
0
100
AcDbBlockEnd
  0
BLOCK
  5
8237
330
8236
100
AcDbEntity
  8
0
100
AcDbBlockBegin
  2
*D30
 70
     1
 10
0.0
 20
0.0
 30
0.0
  3
*D30
  1

  0
LINE
  5
8284
330
8236
100
AcDbEntity
  8
3
 62
     0
370
    -2
100
AcDbLine
 10
4280.255065109371
 20
3624.601087545458
 30
0.0
 11
4280.255065109371
 21
3700.055597123374
 31
0.0
  0
LINE
  5
8285
330
8236
100
AcDbEntity
  8
3
 62
     0
370
    -2
100
AcDbLine
 10
4890.255065109373
 20
2497.298180525843
 30
0.0
 11
4890.255065109373
 21
3700.055597123374
 31
0.0
  0
LINE
  5
8286
330
8236
100
AcDbEntity
  8
3
 62
     0
370
    -2
100
AcDbLine
 10
4330.255065109371
 20
3675.055597123374
 30
0.0
 11
4840.255065109373
 21
3675.055597123374
 31
0.0
  0
INSERT
  5
8287
330
8236
100
AcDbEntity
  8
3
 62
     0
370
    -2
100
AcDbBlockReference
  2
_OPEN
 10
4280.255065109371
 20
3675.055597123374
 30
0.0
 41
50.0
 42
50.0
 43
50.0
 50
180.0
  0
INSERT
  5
8288
330
8236
100
AcDbEntity
  8
3
 62
     0
370
    -2
100
AcDbBlockReference
  2
_OPEN
 10
4890.255065109373
 20
3675.055597123374
 30
0.0
 41
50.0
 42
50.0
 43
50.0
  0
MTEXT
  5
8289
330
8236
100
AcDbEntity
  8
3
 62
     0
100
AcDbMText
 10
4585.255065109371
 20
3757.198454266231
 30
0.0
 40
75.0
 41
0.0
 71
     5
 72
     1
  1
\A1;(610)
 73
     1
 44
1.0
1001
ACAD
1000
MTEXTBEGIN
1070
    73
1070
     1
1070
    44
1040
1.0
1070
    74
1070
     0
1000
MTEXTEND
  0
POINT
  5
828A
330
8236
100
AcDbEntity
  8
DEFPOINTS
 62
     0
100
AcDbPoint
 10
4280.255065109371
 20
3599.601087545458
 30
0.0
  0
POINT
  5
828B
330
8236
100
AcDbEntity
  8
DEFPOINTS
 62
     0
100
AcDbPoint
 10
4890.255065109373
 20
2472.298180525843
 30
0.0
  0
POINT
  5
828C
330
8236
100
AcDbEntity
  8
DEFPOINTS
 62
     0
100
AcDbPoint
 10
4890.255065109373
 20
3675.055597123374
 30
0.0
  0
ENDBLK
  5
8238
330
8236
100
AcDbEntity
  8
0
100
AcDbBlockEnd
  0
BLOCK
  5
828F
330
828E
100
AcDbEntity
  8
0
100
AcDbBlockBegin
  2
*D31
 70
     1
 10
0.0
 20
0.0
 30
0.0
  3
*D31
  1

  0
LINE
  5
8291
330
828E
100
AcDbEntity
  8
3
 62
     0
370
    -2
100
AcDbLine
 10
1045.462242941992
 20
4224.291137356863
 30
0.0
 11
1045.462242941992
 21
3867.394799587532
 31
0.0
  0
LINE
  5
8292
330
828E
100
AcDbEntity
  8
3
 62
     0
370
    -2
100
AcDbLine
 10
2795.462242941992
 20
4224.291137356863
 30
0.0
 11
2795.462242941992
 21
3867.394799587532
 31
0.0
  0
LINE
  5
8293
330
828E
100
AcDbEntity
  8
3
 62
     0
370
    -2
100
AcDbLine
 10
1095.462242941992
 20
3892.394799587532
 30
0.0
 11
2745.462242941993
 21
3892.394799587532
 31
0.0
  0
INSERT
  5
8294
330
828E
100
AcDbEntity
  8
3
 62
     0
370
    -2
100
AcDbBlockReference
  2
_OPEN
 10
1045.462242941992
 20
3892.394799587532
 30
0.0
 41
50.0
 42
50.0
 43
50.0
 50
180.0
  0
INSERT
  5
8295
330
828E
100
AcDbEntity
  8
3
 62
     0
370
    -2
100
AcDbBlockReference
  2
_OPEN
 10
2795.462242941992
 20
3892.394799587532
 30
0.0
 41
50.0
 42
50.0
 43
50.0
  0
MTEXT
  5
8296
330
828E
100
AcDbEntity
  8
3
 62
     0
100
AcDbMText
 10
1920.462242941992
 20
3954.894799587532
 30
0.0
 40
75.0
 41
0.0
 71
     5
 72
     1
  1
\A1;1750
 73
     1
 44
1.0
1001
ACAD
1000
MTEXTBEGIN
1070
    73
1070
     1
1070
    44
1040
1.0
1070
    74
1070
     0
1000
MTEXTEND
  0
POINT
  5
8297
330
828E
100
AcDbEntity
  8
DEFPOINTS
 62
     0
100
AcDbPoint
 10
1045.462242941992
 20
4249.291137356863
 30
0.0
  0
POINT
  5
8298
330
828E
100
AcDbEntity
  8
DEFPOINTS
 62
     0
100
AcDbPoint
 10
2795.462242941992
 20
4249.291137356863
 30
0.0
  0
POINT
  5
8299
330
828E
100
AcDbEntity
  8
DEFPOINTS
 62
     0
100
AcDbPoint
 10
2795.462242941992
 20
3892.394799587532
 30
0.0
  0
ENDBLK
  5
8290
330
828E
100
AcDbEntity
  8
0
100
AcDbBlockEnd
  0
BLOCK
  5
829C
330
829B
100
AcDbEntity
  8
0
100
AcDbBlockBegin
  2
*D32
 70
     1
 10
0.0
 20
0.0
 30
0.0
  3
*D32
  1

  0
LINE
  5
82A7
330
829B
100
AcDbEntity
  8
3
 62
     0
370
    -2
100
AcDbLine
 10
2045.462242941992
 20
5529.291137356861
 30
0.0
 11
2045.462242941992
 21
5680.414420907816
 31
0.0
  0
LINE
  5
82A8
330
829B
100
AcDbEntity
  8
3
 62
     0
370
    -2
100
AcDbLine
 10
2795.462242941992
 20
5024.291137356863
 30
0.0
 11
2795.462242941992
 21
5680.414420907816
 31
0.0
  0
LINE
  5
82A9
330
829B
100
AcDbEntity
  8
3
 62
     0
370
    -2
100
AcDbLine
 10
2095.462242941992
 20
5655.414420907815
 30
0.0
 11
2745.462242941993
 21
5655.414420907815
 31
0.0
  0
INSERT
  5
82AA
330
829B
100
AcDbEntity
  8
3
 62
     0
370
    -2
100
AcDbBlockReference
  2
_OPEN
 10
2045.462242941992
 20
5655.414420907815
 30
0.0
 41
50.0
 42
50.0
 43
50.0
 50
180.0
  0
INSERT
  5
82AB
330
829B
100
AcDbEntity
  8
3
 62
     0
370
    -2
100
AcDbBlockReference
  2
_OPEN
 10
2795.462242941992
 20
5655.414420907815
 30
0.0
 41
50.0
 42
50.0
 43
50.0
  0
MTEXT
  5
82AC
330
829B
100
AcDbEntity
  8
3
 62
     0
100
AcDbMText
 10
2420.462242941992
 20
5717.914420907815
 30
0.0
 40
75.0
 41
0.0
 71
     5
 72
     1
  1
\A1;750
 73
     1
 44
1.0
1001
ACAD
1000
MTEXTBEGIN
1070
    73
1070
     1
1070
    44
1040
1.0
1070
    74
1070
     0
1000
MTEXTEND
  0
POINT
  5
82AD
330
829B
100
AcDbEntity
  8
DEFPOINTS
 62
     0
100
AcDbPoint
 10
2045.462242941992
 20
5504.291137356862
 30
0.0
  0
POINT
  5
82AE
330
829B
100
AcDbEntity
  8
DEFPOINTS
 62
     0
100
AcDbPoint
 10
2795.462242941992
 20
4999.291137356863
 30
0.0
  0
POINT
  5
82AF
330
829B
100
AcDbEntity
  8
DEFPOINTS
 62
     0
100
AcDbPoint
 10
2795.462242941992
 20
5655.414420907815
 30
0.0
  0
ENDBLK
  5
829D
330
829B
100
AcDbEntity
  8
0
100
AcDbBlockEnd
  0
BLOCK
  5
82B1
330
82B0
100
AcDbEntity
  8
0
100
AcDbBlockBegin
  2
*D33
 70
     1
 10
0.0
 20
0.0
 30
0.0
  3
*D33
  1

  0
LINE
  5
82B3
330
82B0
100
AcDbEntity
  8
3
 62
     0
370
    -2
100
AcDbLine
 10
1045.462242941992
 20
1716.798180525844
 30
0.0
 11
1045.462242941992
 21
1572.350427013441
 31
0.0
  0
LINE
  5
82B4
330
82B0
100
AcDbEntity
  8
3
 62
     0
370
    -2
100
AcDbLine
 10
1545.462242941992
 20
1716.798180525844
 30
0.0
 11
1545.462242941992
 21
1572.350427013441
 31
0.0
  0
LINE
  5
82B5
330
82B0
100
AcDbEntity
  8
3
 62
     0
370
    -2
100
AcDbLine
 10
1049.962242941992
 20
1576.850427013441
 30
0.0
 11
1287.426528656278
 21
1576.850427013441
 31
0.0
  0
LINE
  5
82B6
330
82B0
100
AcDbEntity
  8
3
 62
     0
370
    -2
100
AcDbLine
 10
1540.962242941992
 20
1576.850427013441
 30
0.0
 11
1303.497957227706
 21
1576.850427013441
 31
0.0
  0
SOLID
  5
82B7
330
82B0
100
AcDbEntity
  8
3
 62
     0
100
AcDbTrace
 10
1049.962242941992
 20
1577.600427013441
 30
0.0
 11
1049.962242941992
 21
1576.100427013441
 31
0.0
 12
1045.462242941992
 22
1576.850427013441
 32
0.0
 13
1045.462242941992
 23
1576.850427013441
 33
0.0
  0
SOLID
  5
82B8
330
82B0
100
AcDbEntity
  8
3
 62
     0
100
AcDbTrace
 10
1540.962242941992
 20
1577.600427013441
 30
0.0
 11
1540.962242941992
 21
1576.100427013441
 31
0.0
 12
1545.462242941992
 22
1576.850427013441
 32
0.0
 13
1545.462242941992
 23
1576.850427013441
 33
0.0
  0
MTEXT
  5
82B9
330
82B0
100
AcDbEntity
  8
3
 62
     0
100
AcDbMText
 10
1295.462242941992
 20
1576.850427013441
 30
0.0
 40
4.5
 41
0.0
 71
     5
 72
     1
  1
\A1;500
 73
     1
 44
1.0
1001
ACAD
1000
MTEXTBEGIN
1070
    73
1070
     1
1070
    44
1040
1.0
1070
    74
1070
     0
1000
MTEXTEND
  0
POINT
  5
82BA
330
82B0
100
AcDbEntity
  8
DEFPOINTS
 62
     0
100
AcDbPoint
 10
1045.462242941992
 20
1741.798180525844
 30
0.0
  0
POINT
  5
82BB
330
82B0
100
AcDbEntity
  8
DEFPOINTS
 62
     0
100
AcDbPoint
 10
1545.462242941992
 20
1741.798180525844
 30
0.0
  0
POINT
  5
82BC
330
82B0
100
AcDbEntity
  8
DEFPOINTS
 62
     0
100
AcDbPoint
 10
1545.462242941992
 20
1576.850427013441
 30
0.0
  0
ENDBLK
  5
82B2
330
82B0
100
AcDbEntity
  8
0
100
AcDbBlockEnd
  0
BLOCK
  5
82BE
330
82BD
100
AcDbEntity
  8
0
100
AcDbBlockBegin
  2
*D34
 70
     1
 10
0.0
 20
0.0
 30
0.0
  3
*D34
  1

  0
LINE
  5
82C0
330
82BD
100
AcDbEntity
  8
3
 62
     0
370
    -2
100
AcDbLine
 10
1545.462242941992
 20
1716.798180525844
 30
0.0
 11
1545.462242941992
 21
1572.350427013441
 31
0.0
  0
LINE
  5
82C1
330
82BD
100
AcDbEntity
  8
3
 62
     0
370
    -2
100
AcDbLine
 10
2795.462242941992
 20
1716.798180525844
 30
0.0
 11
2795.462242941992
 21
1572.350427013441
 31
0.0
  0
LINE
  5
82C2
330
82BD
100
AcDbEntity
  8
3
 62
     0
370
    -2
100
AcDbLine
 10
1549.962242941992
 20
1576.850427013441
 30
0.0
 11
2160.712242941992
 21
1576.850427013441
 31
0.0
  0
LINE
  5
82C3
330
82BD
100
AcDbEntity
  8
3
 62
     0
370
    -2
100
AcDbLine
 10
2790.962242941993
 20
1576.850427013441
 30
0.0
 11
2180.212242941992
 21
1576.850427013441
 31
0.0
  0
SOLID
  5
82C4
330
82BD
100
AcDbEntity
  8
3
 62
     0
100
AcDbTrace
 10
1549.962242941992
 20
1577.600427013441
 30
0.0
 11
1549.962242941992
 21
1576.100427013441
 31
0.0
 12
1545.462242941992
 22
1576.850427013441
 32
0.0
 13
1545.462242941992
 23
1576.850427013441
 33
0.0
  0
SOLID
  5
82C5
330
82BD
100
AcDbEntity
  8
3
 62
     0
100
AcDbTrace
 10
2790.962242941993
 20
1577.600427013441
 30
0.0
 11
2790.962242941993
 21
1576.100427013441
 31
0.0
 12
2795.462242941992
 22
1576.850427013441
 32
0.0
 13
2795.462242941992
 23
1576.850427013441
 33
0.0
  0
MTEXT
  5
82C6
330
82BD
100
AcDbEntity
  8
3
 62
     0
100
AcDbMText
 10
2170.462242941992
 20
1576.850427013441
 30
0.0
 40
4.5
 41
0.0
 71
     5
 72
     1
  1
\A1;1250
 73
     1
 44
1.0
1001
ACAD
1000
MTEXTBEGIN
1070
    73
1070
     1
1070
    44
1040
1.0
1070
    74
1070
     0
1000
MTEXTEND
  0
POINT
  5
82C7
330
82BD
100
AcDbEntity
  8
DEFPOINTS
 62
     0
100
AcDbPoint
 10
1545.462242941992
 20
1741.798180525844
 30
0.0
  0
POINT
  5
82C8
330
82BD
100
AcDbEntity
  8
DEFPOINTS
 62
     0
100
AcDbPoint
 10
2795.462242941992
 20
1741.798180525844
 30
0.0
  0
POINT
  5
82C9
330
82BD
100
AcDbEntity
  8
DEFPOINTS
 62
     0
100
AcDbPoint
 10
2795.462242941992
 20
1576.850427013441
 30
0.0
  0
ENDBLK
  5
82BF
330
82BD
100
AcDbEntity
  8
0
100
AcDbBlockEnd
  0
BLOCK
  5
82CB
330
82CA
100
AcDbEntity
  8
0
100
AcDbBlockBegin
  2
*D35
 70
     1
 10
0.0
 20
0.0
 30
0.0
  3
*D35
  1

  0
LINE
  5
82CD
330
82CA
100
AcDbEntity
  8
3
 62
     0
370
    -2
100
AcDbLine
 10
3578.255065109371
 20
1716.798180525844
 30
0.0
 11
3578.255065109371
 21
1572.350427013441
 31
0.0
  0
LINE
  5
82CE
330
82CA
100
AcDbEntity
  8
3
 62
     0
370
    -2
100
AcDbLine
 10
4280.255065109371
 20
1716.798180525844
 30
0.0
 11
4280.255065109371
 21
1572.350427013441
 31
0.0
  0
LINE
  5
82CF
330
82CA
100
AcDbEntity
  8
3
 62
     0
370
    -2
100
AcDbLine
 10
3582.755065109371
 20
1576.850427013441
 30
0.0
 11
3921.219350823657
 21
1576.850427013441
 31
0.0
  0
LINE
  5
82D0
330
82CA
100
AcDbEntity
  8
3
 62
     0
370
    -2
100
AcDbLine
 10
4275.755065109371
 20
1576.850427013441
 30
0.0
 11
3937.290779395085
 21
1576.850427013441
 31
0.0
  0
SOLID
  5
82D1
330
82CA
100
AcDbEntity
  8
3
 62
     0
100
AcDbTrace
 10
3582.755065109371
 20
1577.600427013441
 30
0.0
 11
3582.755065109371
 21
1576.100427013441
 31
0.0
 12
3578.255065109371
 22
1576.850427013441
 32
0.0
 13
3578.255065109371
 23
1576.850427013441
 33
0.0
  0
SOLID
  5
82D2
330
82CA
100
AcDbEntity
  8
3
 62
     0
100
AcDbTrace
 10
4275.755065109371
 20
1577.600427013441
 30
0.0
 11
4275.755065109371
 21
1576.100427013441
 31
0.0
 12
4280.255065109371
 22
1576.850427013441
 32
0.0
 13
4280.255065109371
 23
1576.850427013441
 33
0.0
  0
MTEXT
  5
82D3
330
82CA
100
AcDbEntity
  8
3
 62
     0
100
AcDbMText
 10
3929.255065109371
 20
1576.850427013441
 30
0.0
 40
4.5
 41
0.0
 71
     5
 72
     1
  1
\A1;702
 73
     1
 44
1.0
1001
ACAD
1000
MTEXTBEGIN
1070
    73
1070
     1
1070
    44
1040
1.0
1070
    74
1070
     0
1000
MTEXTEND
  0
POINT
  5
82D4
330
82CA
100
AcDbEntity
  8
DEFPOINTS
 62
     0
100
AcDbPoint
 10
3578.255065109371
 20
1741.798180525844
 30
0.0
  0
POINT
  5
82D5
330
82CA
100
AcDbEntity
  8
DEFPOINTS
 62
     0
100
AcDbPoint
 10
4280.255065109371
 20
1741.798180525844
 30
0.0
  0
POINT
  5
82D6
330
82CA
100
AcDbEntity
  8
DEFPOINTS
 62
     0
100
AcDbPoint
 10
4280.255065109371
 20
1576.850427013441
 30
0.0
  0
ENDBLK
  5
82CC
330
82CA
100
AcDbEntity
  8
0
100
AcDbBlockEnd
  0
BLOCK
  5
82D8
330
82D7
100
AcDbEntity
  8
0
100
AcDbBlockBegin
  2
*D36
 70
     1
 10
0.0
 20
0.0
 30
0.0
  3
*D36
  1

  0
LINE
  5
82DA
330
82D7
100
AcDbEntity
  8
3
 62
     0
370
    -2
100
AcDbLine
 10
4280.255065109371
 20
1716.798180525844
 30
0.0
 11
4280.255065109371
 21
1572.350427013441
 31
0.0
  0
LINE
  5
82DB
330
82D7
100
AcDbEntity
  8
3
 62
     0
370
    -2
100
AcDbLine
 10
4833.255065109373
 20
1716.798180525844
 30
0.0
 11
4833.255065109373
 21
1572.350427013441
 31
0.0
  0
LINE
  5
82DC
330
82D7
100
AcDbEntity
  8
3
 62
     0
370
    -2
100
AcDbLine
 10
4284.755065109371
 20
1576.850427013441
 30
0.0
 11
4548.719350823658
 21
1576.850427013441
 31
0.0
  0
LINE
  5
82DD
330
82D7
100
AcDbEntity
  8
3
 62
     0
370
    -2
100
AcDbLine
 10
4828.755065109374
 20
1576.850427013441
 30
0.0
 11
4564.790779395087
 21
1576.850427013441
 31
0.0
  0
SOLID
  5
82DE
330
82D7
100
AcDbEntity
  8
3
 62
     0
100
AcDbTrace
 10
4284.755065109371
 20
1577.600427013441
 30
0.0
 11
4284.755065109371
 21
1576.100427013441
 31
0.0
 12
4280.255065109371
 22
1576.850427013441
 32
0.0
 13
4280.255065109371
 23
1576.850427013441
 33
0.0
  0
SOLID
  5
82DF
330
82D7
100
AcDbEntity
  8
3
 62
     0
100
AcDbTrace
 10
4828.755065109374
 20
1577.600427013441
 30
0.0
 11
4828.755065109374
 21
1576.100427013441
 31
0.0
 12
4833.255065109373
 22
1576.850427013441
 32
0.0
 13
4833.255065109373
 23
1576.850427013441
 33
0.0
  0
MTEXT
  5
82E0
330
82D7
100
AcDbEntity
  8
3
 62
     0
100
AcDbMText
 10
4556.755065109372
 20
1576.850427013441
 30
0.0
 40
4.5
 41
0.0
 71
     5
 72
     1
  1
\A1;553
 73
     1
 44
1.0
1001
ACAD
1000
MTEXTBEGIN
1070
    73
1070
     1
1070
    44
1040
1.0
1070
    74
1070
     0
1000
MTEXTEND
  0
POINT
  5
82E1
330
82D7
100
AcDbEntity
  8
DEFPOINTS
 62
     0
100
AcDbPoint
 10
4280.255065109371
 20
1741.798180525844
 30
0.0
  0
POINT
  5
82E2
330
82D7
100
AcDbEntity
  8
DEFPOINTS
 62
     0
100
AcDbPoint
 10
4833.255065109373
 20
1741.798180525844
 30
0.0
  0
POINT
  5
82E3
330
82D7
100
AcDbEntity
  8
DEFPOINTS
 62
     0
100
AcDbPoint
 10
4833.255065109373
 20
1576.850427013441
 30
0.0
  0
ENDBLK
  5
82D9
330
82D7
100
AcDbEntity
  8
0
100
AcDbBlockEnd
  0
BLOCK
  5
82E5
330
82E4
100
AcDbEntity
  8
0
100
AcDbBlockBegin
  2
*D37
 70
     1
 10
0.0
 20
0.0
 30
0.0
  3
*D37
  1

  0
LINE
  5
82E7
330
82E4
100
AcDbEntity
  8
3
 62
     0
370
    -2
100
AcDbLine
 10
695.8811264104553
 20
1846.298180525844
 30
0.0
 11
695.8811264104553
 21
1876.119609097272
 31
0.0
  0
LINE
  5
82E8
330
82E4
100
AcDbEntity
  8
3
 62
     0
370
    -2
100
AcDbLine
 10
695.8811264104553
 20
1917.298180525843
 30
0.0
 11
695.8811264104553
 21
1887.476751954414
 31
0.0
  0
SOLID
  5
82E9
330
82E4
100
AcDbEntity
  8
3
 62
     0
100
AcDbTrace
 10
695.1311264104552
 20
1846.298180525844
 30
0.0
 11
696.6311264104553
 21
1846.298180525844
 31
0.0
 12
695.8811264104553
 22
1841.798180525844
 32
0.0
 13
695.8811264104553
 23
1841.798180525844
 33
0.0
  0
SOLID
  5
82EA
330
82E4
100
AcDbEntity
  8
3
 62
     0
100
AcDbTrace
 10
695.1311264104552
 20
1917.298180525843
 30
0.0
 11
696.6311264104553
 21
1917.298180525843
 31
0.0
 12
695.8811264104553
 22
1921.798180525843
 32
0.0
 13
695.8811264104553
 23
1921.798180525843
 33
0.0
  0
MTEXT
  5
82EB
330
82E4
100
AcDbEntity
  8
3
 62
     0
100
AcDbMText
 10
695.8811264104549
 20
1881.798180525844
 30
0.0
 40
4.5
 41
0.0
 71
     5
 72
     1
  1
\A1;(80)
 73
     1
 44
1.0
1001
ACAD
1000
MTEXTBEGIN
1070
    73
1070
     1
1070
    44
1040
1.0
1070
    74
1070
     0
1000
MTEXTEND
  0
POINT
  5
82EC
330
82E4
100
AcDbEntity
  8
DEFPOINTS
 62
     0
100
AcDbPoint
 10
1045.462242941992
 20
1841.798180525844
 30
0.0
  0
POINT
  5
82ED
330
82E4
100
AcDbEntity
  8
DEFPOINTS
 62
     0
100
AcDbPoint
 10
1045.462242941992
 20
1921.798180525843
 30
0.0
  0
POINT
  5
82EE
330
82E4
100
AcDbEntity
  8
DEFPOINTS
 62
     0
100
AcDbPoint
 10
695.8811264104553
 20
1921.798180525843
 30
0.0
  0
ENDBLK
  5
82E6
330
82E4
100
AcDbEntity
  8
0
100
AcDbBlockEnd
  0
BLOCK
  5
82F0
330
82EF
100
AcDbEntity
  8
0
100
AcDbBlockBegin
  2
*D38
 70
     1
 10
0.0
 20
0.0
 30
0.0
  3
*D38
  1

  0
LINE
  5
82F2
330
82EF
100
AcDbEntity
  8
3
 62
     0
370
    -2
100
AcDbLine
 10
1020.462242941992
 20
1741.798180525844
 30
0.0
 11
480.716484604141
 21
1741.798180525844
 31
0.0
  0
LINE
  5
82F3
330
82EF
100
AcDbEntity
  8
3
 62
     0
370
    -2
100
AcDbLine
 10
950.4622429419928
 20
3359.798180525845
 30
0.0
 11
480.7164846041414
 21
3359.798180525845
 31
0.0
  0
LINE
  5
82F4
330
82EF
100
AcDbEntity
  8
3
 62
     0
370
    -2
100
AcDbLine
 10
485.216484604141
 20
1746.298180525844
 30
0.0
 11
485.2164846041412
 21
2545.119609097273
 31
0.0
  0
LINE
  5
82F5
330
82EF
100
AcDbEntity
  8
3
 62
     0
370
    -2
100
AcDbLine
 10
485.2164846041413
 20
3355.298180525844
 30
0.0
 11
485.2164846041412
 21
2556.476751954416
 31
0.0
  0
SOLID
  5
82F6
330
82EF
100
AcDbEntity
  8
3
 62
     0
100
AcDbTrace
 10
484.466484604141
 20
1746.298180525844
 30
0.0
 11
485.966484604141
 21
1746.298180525844
 31
0.0
 12
485.216484604141
 22
1741.798180525844
 32
0.0
 13
485.216484604141
 23
1741.798180525844
 33
0.0
  0
SOLID
  5
82F7
330
82EF
100
AcDbEntity
  8
3
 62
     0
100
AcDbTrace
 10
484.4664846041413
 20
3355.298180525844
 30
0.0
 11
485.9664846041414
 21
3355.298180525844
 31
0.0
 12
485.2164846041413
 22
3359.798180525845
 32
0.0
 13
485.2164846041413
 23
3359.798180525845
 33
0.0
  0
MTEXT
  5
82F8
330
82EF
100
AcDbEntity
  8
3
 62
     0
100
AcDbMText
 10
485.2164846041408
 20
2550.798180525844
 30
0.0
 40
4.5
 41
0.0
 71
     5
 72
     1
  1
\A1;(1618)
 73
     1
 44
1.0
1001
ACAD
1000
MTEXTBEGIN
1070
    73
1070
     1
1070
    44
1040
1.0
1070
    74
1070
     0
1000
MTEXTEND
  0
POINT
  5
82F9
330
82EF
100
AcDbEntity
  8
DEFPOINTS
 62
     0
100
AcDbPoint
 10
1045.462242941992
 20
1741.798180525844
 30
0.0
  0
POINT
  5
82FA
330
82EF
100
AcDbEntity
  8
DEFPOINTS
 62
     0
100
AcDbPoint
 10
975.4622429419928
 20
3359.798180525845
 30
0.0
  0
POINT
  5
82FB
330
82EF
100
AcDbEntity
  8
DEFPOINTS
 62
     0
100
AcDbPoint
 10
485.2164846041413
 20
3359.798180525845
 30
0.0
  0
ENDBLK
  5
82F1
330
82EF
100
AcDbEntity
  8
0
100
AcDbBlockEnd
  0
BLOCK
  5
82FD
330
82FC
100
AcDbEntity
  8
0
100
AcDbBlockBegin
  2
*D39
 70
     1
 10
0.0
 20
0.0
 30
0.0
  3
*D39
  1

  0
LINE
  5
82FF
330
82FC
100
AcDbEntity
  8
3
 62
     0
370
    -2
100
AcDbLine
 10
1043.899742941992
 20
1841.798180525844
 30
0.0
 11
694.6925857640636
 21
1841.798180525844
 31
0.0
  0
LINE
  5
8300
330
82FC
100
AcDbEntity
  8
3
 62
     0
370
    -2
100
AcDbLine
 10
1043.899742941992
 20
1741.798180525844
 30
0.0
 11
694.6925857640636
 21
1741.798180525844
 31
0.0
  0
LINE
  5
8301
330
82FC
100
AcDbEntity
  8
3
 62
     0
370
    -2
100
AcDbLine
 10
699.1925857640636
 20
1837.298180525844
 30
0.0
 11
699.1925857640636
 21
1796.298180525844
 31
0.0
  0
LINE
  5
8302
330
82FC
100
AcDbEntity
  8
3
 62
     0
370
    -2
100
AcDbLine
 10
699.1925857640636
 20
1746.298180525844
 30
0.0
 11
699.1925857640636
 21
1787.298180525844
 31
0.0
  0
SOLID
  5
8303
330
82FC
100
AcDbEntity
  8
3
 62
     0
100
AcDbTrace
 10
698.4425857640636
 20
1837.298180525844
 30
0.0
 11
699.9425857640637
 21
1837.298180525844
 31
0.0
 12
699.1925857640636
 22
1841.798180525844
 32
0.0
 13
699.1925857640636
 23
1841.798180525844
 33
0.0
  0
SOLID
  5
8304
330
82FC
100
AcDbEntity
  8
3
 62
     0
100
AcDbTrace
 10
698.4425857640635
 20
1746.298180525844
 30
0.0
 11
699.9425857640635
 21
1746.298180525844
 31
0.0
 12
699.1925857640636
 22
1741.798180525844
 32
0.0
 13
699.1925857640636
 23
1741.798180525844
 33
0.0
  0
MTEXT
  5
8305
330
82FC
100
AcDbEntity
  8
3
 62
     0
100
AcDbMText
 10
699.1925857640633
 20
1791.798180525844
 30
0.0
 40
4.5
 41
0.0
 71
     5
 72
     1
  1
\A1;100
 73
     1
 44
1.0
1001
ACAD
1000
MTEXTBEGIN
1070
    73
1070
     1
1070
    44
1040
1.0
1070
    74
1070
     0
1000
MTEXTEND
  0
POINT
  5
8306
330
82FC
100
AcDbEntity
  8
DEFPOINTS
 62
     0
100
AcDbPoint
 10
1045.462242941992
 20
1841.798180525844
 30
0.0
  0
POINT
  5
8307
330
82FC
100
AcDbEntity
  8
DEFPOINTS
 62
     0
100
AcDbPoint
 10
1045.462242941992
 20
1741.798180525844
 30
0.0
  0
POINT
  5
8308
330
82FC
100
AcDbEntity
  8
DEFPOINTS
 62
     0
100
AcDbPoint
 10
699.1925857640636
 20
1741.798180525844
 30
0.0
  0
ENDBLK
  5
82FE
330
82FC
100
AcDbEntity
  8
0
100
AcDbBlockEnd
  0
BLOCK
  5
830B
330
830A
100
AcDbEntity
  8
0
100
AcDbBlockBegin
  2
*D40
 70
     1
 10
0.0
 20
0.0
 30
0.0
  3
*D40
  1

  0
LINE
  5
830D
330
830A
100
AcDbEntity
  8
3
 62
     0
370
    -2
100
AcDbLine
 10
3578.255065109371
 20
1716.798180525844
 30
0.0
 11
3578.255065109371
 21
1556.289946242985
 31
0.0
  0
LINE
  5
830E
330
830A
100
AcDbEntity
  8
3
 62
     0
370
    -2
100
AcDbLine
 10
4280.255065109371
 20
1716.798180525844
 30
0.0
 11
4280.255065109371
 21
1556.289946242985
 31
0.0
  0
LINE
  5
830F
330
830A
100
AcDbEntity
  8
3
 62
     0
370
    -2
100
AcDbLine
 10
3628.255065109371
 20
1581.289946242985
 30
0.0
 11
4230.255065109371
 21
1581.289946242985
 31
0.0
  0
INSERT
  5
8310
330
830A
100
AcDbEntity
  8
3
 62
     0
370
    -2
100
AcDbBlockReference
  2
_OPEN
 10
3578.255065109371
 20
1581.289946242985
 30
0.0
 41
50.0
 42
50.0
 43
50.0
 50
180.0
  0
INSERT
  5
8311
330
830A
100
AcDbEntity
  8
3
 62
     0
370
    -2
100
AcDbBlockReference
  2
_OPEN
 10
4280.255065109371
 20
1581.289946242985
 30
0.0
 41
50.0
 42
50.0
 43
50.0
  0
MTEXT
  5
8312
330
830A
100
AcDbEntity
  8
3
 62
     0
100
AcDbMText
 10
3929.255065109371
 20
1643.789946242985
 30
0.0
 40
75.0
 41
0.0
 71
     5
 72
     1
  1
\A1;702
 73
     1
 44
1.0
1001
ACAD
1000
MTEXTBEGIN
1070
    73
1070
     1
1070
    44
1040
1.0
1070
    74
1070
     0
1000
MTEXTEND
  0
POINT
  5
8313
330
830A
100
AcDbEntity
  8
DEFPOINTS
 62
     0
100
AcDbPoint
 10
3578.255065109371
 20
1741.798180525844
 30
0.0
  0
POINT
  5
8314
330
830A
100
AcDbEntity
  8
DEFPOINTS
 62
     0
100
AcDbPoint
 10
4280.255065109371
 20
1741.798180525844
 30
0.0
  0
POINT
  5
8315
330
830A
100
AcDbEntity
  8
DEFPOINTS
 62
     0
100
AcDbPoint
 10
4280.255065109371
 20
1581.289946242985
 30
0.0
  0
ENDBLK
  5
830C
330
830A
100
AcDbEntity
  8
0
100
AcDbBlockEnd
  0
BLOCK
  5
8318
330
8317
100
AcDbEntity
  8
0
100
AcDbBlockBegin
  2
*D41
 70
     1
 10
0.0
 20
0.0
 30
0.0
  3
*D41
  1

  0
LINE
  5
831A
330
8317
100
AcDbEntity
  8
3
 62
     0
370
    -2
100
AcDbLine
 10
4280.255065109371
 20
1716.798180525844
 30
0.0
 11
4280.255065109371
 21
1556.289946242985
 31
0.0
  0
LINE
  5
831B
330
8317
100
AcDbEntity
  8
3
 62
     0
370
    -2
100
AcDbLine
 10
4833.255065109372
 20
1716.798180525844
 30
0.0
 11
4833.255065109372
 21
1556.289946242985
 31
0.0
  0
LINE
  5
831C
330
8317
100
AcDbEntity
  8
3
 62
     0
370
    -2
100
AcDbLine
 10
4330.255065109372
 20
1581.289946242985
 30
0.0
 11
4783.255065109371
 21
1581.289946242985
 31
0.0
  0
INSERT
  5
831D
330
8317
100
AcDbEntity
  8
3
 62
     0
370
    -2
100
AcDbBlockReference
  2
_OPEN
 10
4280.255065109371
 20
1581.289946242985
 30
0.0
 41
50.0
 42
50.0
 43
50.0
 50
180.0
  0
INSERT
  5
831E
330
8317
100
AcDbEntity
  8
3
 62
     0
370
    -2
100
AcDbBlockReference
  2
_OPEN
 10
4833.255065109372
 20
1581.289946242985
 30
0.0
 41
50.0
 42
50.0
 43
50.0
  0
MTEXT
  5
831F
330
8317
100
AcDbEntity
  8
3
 62
     0
100
AcDbMText
 10
4556.755065109372
 20
1643.789946242985
 30
0.0
 40
75.0
 41
0.0
 71
     5
 72
     1
  1
\A1;553
 73
     1
 44
1.0
1001
ACAD
1000
MTEXTBEGIN
1070
    73
1070
     1
1070
    44
1040
1.0
1070
    74
1070
     0
1000
MTEXTEND
  0
POINT
  5
8320
330
8317
100
AcDbEntity
  8
DEFPOINTS
 62
     0
100
AcDbPoint
 10
4280.255065109371
 20
1741.798180525844
 30
0.0
  0
POINT
  5
8321
330
8317
100
AcDbEntity
  8
DEFPOINTS
 62
     0
100
AcDbPoint
 10
4833.255065109372
 20
1741.798180525844
 30
0.0
  0
POINT
  5
8322
330
8317
100
AcDbEntity
  8
DEFPOINTS
 62
     0
100
AcDbPoint
 10
4833.255065109372
 20
1581.289946242985
 30
0.0
  0
ENDBLK
  5
8319
330
8317
100
AcDbEntity
  8
0
100
AcDbBlockEnd
  0
BLOCK
  5
8325
330
8324
100
AcDbEntity
  8
0
100
AcDbBlockBegin
  2
*D42
 70
     1
 10
0.0
 20
0.0
 30
0.0
  3
*D42
  1

  0
LINE
  5
8327
330
8324
100
AcDbEntity
  8
3
 62
     0
370
    -2
100
AcDbLine
 10
1045.462242941992
 20
1716.798180525844
 30
0.0
 11
1045.462242941992
 21
1551.511327358879
 31
0.0
  0
LINE
  5
8328
330
8324
100
AcDbEntity
  8
3
 62
     0
370
    -2
100
AcDbLine
 10
1545.462242941992
 20
1716.798180525844
 30
0.0
 11
1545.462242941992
 21
1551.511327358879
 31
0.0
  0
LINE
  5
8329
330
8324
100
AcDbEntity
  8
3
 62
     0
370
    -2
100
AcDbLine
 10
1095.462242941992
 20
1576.511327358879
 30
0.0
 11
1495.462242941992
 21
1576.511327358879
 31
0.0
  0
INSERT
  5
832A
330
8324
100
AcDbEntity
  8
3
 62
     0
370
    -2
100
AcDbBlockReference
  2
_OPEN
 10
1045.462242941992
 20
1576.511327358879
 30
0.0
 41
50.0
 42
50.0
 43
50.0
 50
180.0
  0
INSERT
  5
832B
330
8324
100
AcDbEntity
  8
3
 62
     0
370
    -2
100
AcDbBlockReference
  2
_OPEN
 10
1545.462242941992
 20
1576.511327358879
 30
0.0
 41
50.0
 42
50.0
 43
50.0
  0
MTEXT
  5
832C
330
8324
100
AcDbEntity
  8
3
 62
     0
100
AcDbMText
 10
1295.462242941992
 20
1639.011327358879
 30
0.0
 40
75.0
 41
0.0
 71
     5
 72
     1
  1
\A1;500
 73
     1
 44
1.0
1001
ACAD
1000
MTEXTBEGIN
1070
    73
1070
     1
1070
    44
1040
1.0
1070
    74
1070
     0
1000
MTEXTEND
  0
POINT
  5
832D
330
8324
100
AcDbEntity
  8
DEFPOINTS
 62
     0
100
AcDbPoint
 10
1045.462242941992
 20
1741.798180525844
 30
0.0
  0
POINT
  5
832E
330
8324
100
AcDbEntity
  8
DEFPOINTS
 62
     0
100
AcDbPoint
 10
1545.462242941992
 20
1741.798180525844
 30
0.0
  0
POINT
  5
832F
330
8324
100
AcDbEntity
  8
DEFPOINTS
 62
     0
100
AcDbPoint
 10
1545.462242941992
 20
1576.511327358879
 30
0.0
  0
ENDBLK
  5
8326
330
8324
100
AcDbEntity
  8
0
100
AcDbBlockEnd
  0
BLOCK
  5
8332
330
8331
100
AcDbEntity
  8
0
100
AcDbBlockBegin
  2
*D43
 70
     1
 10
0.0
 20
0.0
 30
0.0
  3
*D43
  1

  0
LINE
  5
8334
330
8331
100
AcDbEntity
  8
3
 62
     0
370
    -2
100
AcDbLine
 10
1545.462242941992
 20
1716.798180525844
 30
0.0
 11
1545.462242941992
 21
1551.511327358879
 31
0.0
  0
LINE
  5
8335
330
8331
100
AcDbEntity
  8
3
 62
     0
370
    -2
100
AcDbLine
 10
2795.462242941992
 20
1716.798180525844
 30
0.0
 11
2795.462242941992
 21
1551.511327358879
 31
0.0
  0
LINE
  5
8336
330
8331
100
AcDbEntity
  8
3
 62
     0
370
    -2
100
AcDbLine
 10
1595.462242941992
 20
1576.511327358879
 30
0.0
 11
2745.462242941993
 21
1576.511327358879
 31
0.0
  0
INSERT
  5
8337
330
8331
100
AcDbEntity
  8
3
 62
     0
370
    -2
100
AcDbBlockReference
  2
_OPEN
 10
1545.462242941992
 20
1576.511327358879
 30
0.0
 41
50.0
 42
50.0
 43
50.0
 50
180.0
  0
INSERT
  5
8338
330
8331
100
AcDbEntity
  8
3
 62
     0
370
    -2
100
AcDbBlockReference
  2
_OPEN
 10
2795.462242941992
 20
1576.511327358879
 30
0.0
 41
50.0
 42
50.0
 43
50.0
  0
MTEXT
  5
8339
330
8331
100
AcDbEntity
  8
3
 62
     0
100
AcDbMText
 10
2170.462242941992
 20
1639.011327358879
 30
0.0
 40
75.0
 41
0.0
 71
     5
 72
     1
  1
\A1;1250
 73
     1
 44
1.0
1001
ACAD
1000
MTEXTBEGIN
1070
    73
1070
     1
1070
    44
1040
1.0
1070
    74
1070
     0
1000
MTEXTEND
  0
POINT
  5
833A
330
8331
100
AcDbEntity
  8
DEFPOINTS
 62
     0
100
AcDbPoint
 10
1545.462242941992
 20
1741.798180525844
 30
0.0
  0
POINT
  5
833B
330
8331
100
AcDbEntity
  8
DEFPOINTS
 62
     0
100
AcDbPoint
 10
2795.462242941992
 20
1741.798180525844
 30
0.0
  0
POINT
  5
833C
330
8331
100
AcDbEntity
  8
DEFPOINTS
 62
     0
100
AcDbPoint
 10
2795.462242941992
 20
1576.511327358879
 30
0.0
  0
ENDBLK
  5
8333
330
8331
100
AcDbEntity
  8
0
100
AcDbBlockEnd
  0
BLOCK
  5
833F
330
833E
100
AcDbEntity
  8
0
100
AcDbBlockBegin
  2
*D44
 70
     1
 10
0.0
 20
0.0
 30
0.0
  3
*D44
  1

  0
LINE
  5
8353
330
833E
100
AcDbEntity
  8
3
 62
     0
370
    -2
100
AcDbLine
 10
1020.462242941992
 20
1741.798180525844
 30
0.0
 11
371.6249793783715
 21
1741.798180525844
 31
0.0
  0
LINE
  5
8354
330
833E
100
AcDbEntity
  8
3
 62
     0
370
    -2
100
AcDbLine
 10
975.4622429419921
 20
3359.798180525845
 30
0.0
 11
371.6249793783719
 21
3359.798180525845
 31
0.0
  0
LINE
  5
8355
330
833E
100
AcDbEntity
  8
3
 62
     0
370
    -2
100
AcDbLine
 10
396.6249793783715
 20
1791.798180525844
 30
0.0
 11
396.6249793783719
 21
3309.798180525844
 31
0.0
  0
INSERT
  5
8356
330
833E
100
AcDbEntity
  8
3
 62
     0
370
    -2
100
AcDbBlockReference
  2
_OPEN
 10
396.6249793783715
 20
1741.798180525844
 30
0.0
 41
50.0
 42
50.0
 43
50.0
 50
270.0
  0
INSERT
  5
8357
330
833E
100
AcDbEntity
  8
3
 62
     0
370
    -2
100
AcDbBlockReference
  2
_OPEN
 10
396.6249793783719
 20
3359.798180525845
 30
0.0
 41
50.0
 42
50.0
 43
50.0
 50
90.0
  0
MTEXT
  5
8358
330
833E
100
AcDbEntity
  8
3
 62
     0
100
AcDbMText
 10
314.4821222355142
 20
2550.798180525844
 30
0.0
 40
75.0
 41
0.0
 71
     5
 72
     1
  1
\A1;(1618)
 11
0.0000000000000001
 21
1.0
 31
0.0
 73
     1
 44
1.0
1001
ACAD
1000
MTEXTBEGIN
1070
    73
1070
     1
1070
    44
1040
1.0
1070
    74
1070
     0
1000
MTEXTEND
  0
POINT
  5
8359
330
833E
100
AcDbEntity
  8
DEFPOINTS
 62
     0
100
AcDbPoint
 10
1045.462242941992
 20
1741.798180525844
 30
0.0
  0
POINT
  5
835A
330
833E
100
AcDbEntity
  8
DEFPOINTS
 62
     0
100
AcDbPoint
 10
1000.462242941992
 20
3359.798180525845
 30
0.0
  0
POINT
  5
835B
330
833E
100
AcDbEntity
  8
DEFPOINTS
 62
     0
100
AcDbPoint
 10
396.6249793783719
 20
3359.798180525845
 30
0.0
  0
ENDBLK
  5
8340
330
833E
100
AcDbEntity
  8
0
100
AcDbBlockEnd
  0
BLOCK
  5
835E
330
835D
100
AcDbEntity
  8
0
100
AcDbBlockBegin
  2
*D45
 70
     1
 10
0.0
 20
0.0
 30
0.0
  3
*D45
  1

  0
LINE
  5
8369
330
835D
100
AcDbEntity
  8
3
 62
     0
370
    -2
100
AcDbLine
 10
1545.462242941992
 20
3395.481513153087
 30
0.0
 11
1545.462242941992
 21
3539.117361428643
 31
0.0
  0
LINE
  5
836A
330
835D
100
AcDbEntity
  8
3
 62
     0
370
    -2
100
AcDbLine
 10
2221.462242941992
 20
2595.798180525843
 30
0.0
 11
2221.462242941992
 21
3539.117361428643
 31
0.0
  0
LINE
  5
836B
330
835D
100
AcDbEntity
  8
3
 62
     0
370
    -2
100
AcDbLine
 10
1595.462242941992
 20
3514.117361428643
 30
0.0
 11
2171.462242941992
 21
3514.117361428643
 31
0.0
  0
INSERT
  5
836C
330
835D
100
AcDbEntity
  8
3
 62
     0
370
    -2
100
AcDbBlockReference
  2
_OPEN
 10
1545.462242941992
 20
3514.117361428643
 30
0.0
 41
50.0
 42
50.0
 43
50.0
 50
180.0
  0
INSERT
  5
836D
330
835D
100
AcDbEntity
  8
3
 62
     0
370
    -2
100
AcDbBlockReference
  2
_OPEN
 10
2221.462242941992
 20
3514.117361428643
 30
0.0
 41
50.0
 42
50.0
 43
50.0
  0
MTEXT
  5
836E
330
835D
100
AcDbEntity
  8
3
 62
     0
100
AcDbMText
 10
1883.462242941992
 20
3576.617361428643
 30
0.0
 40
75.0
 41
0.0
 71
     5
 72
     1
  1
\A1;676
 73
     1
 44
1.0
1001
ACAD
1000
MTEXTBEGIN
1070
    73
1070
     1
1070
    44
1040
1.0
1070
    74
1070
     0
1000
MTEXTEND
  0
POINT
  5
836F
330
835D
100
AcDbEntity
  8
DEFPOINTS
 62
     0
100
AcDbPoint
 10
1545.462242941992
 20
3370.481513153087
 30
0.0
  0
POINT
  5
8370
330
835D
100
AcDbEntity
  8
DEFPOINTS
 62
     0
100
AcDbPoint
 10
2221.462242941992
 20
2570.798180525843
 30
0.0
  0
POINT
  5
8371
330
835D
100
AcDbEntity
  8
DEFPOINTS
 62
     0
100
AcDbPoint
 10
2221.462242941992
 20
3514.117361428643
 30
0.0
  0
ENDBLK
  5
835F
330
835D
100
AcDbEntity
  8
0
100
AcDbBlockEnd
  0
BLOCK
  5
8374
330
8373
100
AcDbEntity
  8
0
100
AcDbBlockBegin
  2
*D46
 70
     1
 10
0.0
 20
0.0
 30
0.0
  3
*D46
  1

  0
LINE
  5
83CA
330
8373
100
AcDbEntity
  8
3
 62
     0
370
    -2
100
AcDbLine
 10
853.9904510916022
 20
2511.798180525843
 30
0.0
 11
674.8334968261262
 21
2511.798180525843
 31
0.0
  0
LINE
  5
83CB
330
8373
100
AcDbEntity
  8
3
 62
     0
370
    -2
100
AcDbLine
 10
1020.462242941992
 20
1921.798180525843
 30
0.0
 11
674.8334968261261
 21
1921.798180525843
 31
0.0
  0
LINE
  5
83CC
330
8373
100
AcDbEntity
  8
3
 62
     0
370
    -2
100
AcDbLine
 10
699.8334968261262
 20
2461.798180525843
 30
0.0
 11
699.8334968261261
 21
1971.798180525843
 31
0.0
  0
INSERT
  5
83CD
330
8373
100
AcDbEntity
  8
3
 62
     0
370
    -2
100
AcDbBlockReference
  2
_OPEN
 10
699.8334968261262
 20
2511.798180525843
 30
0.0
 41
50.0
 42
50.0
 43
50.0
 50
90.0
  0
INSERT
  5
83CE
330
8373
100
AcDbEntity
  8
3
 62
     0
370
    -2
100
AcDbBlockReference
  2
_OPEN
 10
699.8334968261261
 20
1921.798180525843
 30
0.0
 41
50.0
 42
50.0
 43
50.0
 50
270.0
  0
MTEXT
  5
83CF
330
8373
100
AcDbEntity
  8
3
 62
     0
100
AcDbMText
 10
637.3334968261257
 20
2216.798180525843
 30
0.0
 40
75.0
 41
0.0
 71
     5
 72
     1
  1
\A1;590
 11
0.0000000000000001
 21
1.0
 31
0.0
 73
     1
 44
1.0
1001
ACAD
1000
MTEXTBEGIN
1070
    73
1070
     1
1070
    44
1040
1.0
1070
    74
1070
     0
1000
MTEXTEND
  0
POINT
  5
83D0
330
8373
100
AcDbEntity
  8
DEFPOINTS
 62
     0
100
AcDbPoint
 10
878.9904510916022
 20
2511.798180525843
 30
0.0
  0
POINT
  5
83D1
330
8373
100
AcDbEntity
  8
DEFPOINTS
 62
     0
100
AcDbPoint
 10
1045.462242941992
 20
1921.798180525843
 30
0.0
  0
POINT
  5
83D2
330
8373
100
AcDbEntity
  8
DEFPOINTS
 62
     0
100
AcDbPoint
 10
699.8334968261261
 20
1921.798180525843
 30
0.0
  0
ENDBLK
  5
8375
330
8373
100
AcDbEntity
  8
0
100
AcDbBlockEnd
  0
BLOCK
  5
8381
330
8380
100
AcDbEntity
  8
0
100
AcDbBlockBegin
  2
*D47
 70
     1
 10
0.0
 20
0.0
 30
0.0
  3
*D47
  1

  0
LINE
  5
8451
330
8380
100
AcDbEntity
  8
3
 62
     0
370
    -2
100
AcDbLine
 10
1020.462242941992
 20
1921.798180525843
 30
0.0
 11
674.8334968261261
 21
1921.798180525843
 31
0.0
  0
LINE
  5
8452
330
8380
100
AcDbEntity
  8
3
 62
     0
370
    -2
100
AcDbLine
 10
1020.462242941992
 20
1841.798180525844
 30
0.0
 11
674.8334968261261
 21
1841.798180525844
 31
0.0
  0
LINE
  5
8453
330
8380
100
AcDbEntity
  8
3
 62
     0
370
    -2
100
AcDbLine
 10
699.8334968261261
 20
1971.798180525843
 30
0.0
 11
699.8334968261261
 21
2021.798180525843
 31
0.0
  0
LINE
  5
8454
330
8380
100
AcDbEntity
  8
3
 62
     0
370
    -2
100
AcDbLine
 10
699.8334968261261
 20
1841.798180525844
 30
0.0
 11
699.8334968261259
 21
1791.798180525844
 31
0.0
  0
LINE
  5
8455
330
8380
100
AcDbEntity
  8
3
 62
     0
370
    -2
100
AcDbLine
 10
699.8334968261261
 20
1881.798180525843
 30
0.0
 11
580.190639683269
 21
1917.6910376687
 31
0.0
  0
LINE
  5
8456
330
8380
100
AcDbEntity
  8
3
 62
     0
370
    -2
100
AcDbLine
 10
580.190639683269
 20
1917.6910376687
 30
0.0
 11
580.190639683269
 21
2185.548180525844
 31
0.0
  0
MTEXT
  5
8457
330
8380
100
AcDbEntity
  8
3
 62
     0
100
AcDbMText
 10
498.0477825404115
 20
2051.619609097272
 30
0.0
 40
75.0
 41
0.0
 71
     5
 72
     1
  1
\A1;(80)
 11
0.0000000000000001
 21
1.0
 31
0.0
 73
     1
 44
1.0
1001
ACAD
1000
MTEXTBEGIN
1070
    73
1070
     1
1070
    44
1040
1.0
1070
    74
1070
     0
1000
MTEXTEND
  0
LINE
  5
8458
330
8380
100
AcDbEntity
  8
3
 62
     0
370
    -2
100
AcDbLine
 10
699.8334968261261
 20
1921.798180525843
 30
0.0
 11
699.8334968261261
 21
1841.798180525844
 31
0.0
  0
LINE
  5
8459
330
8380
100
AcDbEntity
  8
3
 62
     0
370
    -2
100
AcDbLine
 10
699.8334968261261
 20
1921.798180525843
 30
0.0
 11
699.8334968261261
 21
1841.798180525844
 31
0.0
  0
INSERT
  5
845A
330
8380
100
AcDbEntity
  8
3
 62
     0
370
    -2
100
AcDbBlockReference
  2
_OPEN
 10
699.8334968261261
 20
1921.798180525843
 30
0.0
 41
50.0
 42
50.0
 43
50.0
 50
270.0
  0
INSERT
  5
845B
330
8380
100
AcDbEntity
  8
3
 62
     0
370
    -2
100
AcDbBlockReference
  2
_DotSmall
 10
699.8334968261261
 20
1841.798180525844
 30
0.0
 41
50.0
 42
50.0
 43
50.0
 50
90.0
  0
POINT
  5
845C
330
8380
100
AcDbEntity
  8
DEFPOINTS
 62
     0
100
AcDbPoint
 10
1045.462242941992
 20
1921.798180525843
 30
0.0
  0
POINT
  5
845D
330
8380
100
AcDbEntity
  8
DEFPOINTS
 62
     0
100
AcDbPoint
 10
1045.462242941992
 20
1841.798180525844
 30
0.0
  0
POINT
  5
845E
330
8380
100
AcDbEntity
  8
DEFPOINTS
 62
     0
100
AcDbPoint
 10
699.8334968261261
 20
1841.798180525844
 30
0.0
  0
ENDBLK
  5
8382
330
8380
100
AcDbEntity
  8
0
100
AcDbBlockEnd
  0
BLOCK
  5
8393
330
8392
100
AcDbEntity
  8
0
100
AcDbBlockBegin
  2
*D48
 70
     1
 10
0.0
 20
0.0
 30
0.0
  3
*D48
  1

  0
LINE
  5
84AB
330
8392
100
AcDbEntity
  8
3
 62
     0
370
    -2
100
AcDbLine
 10
1020.462242941992
 20
1841.798180525844
 30
0.0
 11
674.8334968261262
 21
1841.798180525844
 31
0.0
  0
LINE
  5
84AC
330
8392
100
AcDbEntity
  8
3
 62
     0
370
    -2
100
AcDbLine
 10
1020.462242941992
 20
1741.798180525844
 30
0.0
 11
674.8334968261261
 21
1741.798180525844
 31
0.0
  0
LINE
  5
84AD
330
8392
100
AcDbEntity
  8
3
 62
     0
370
    -2
100
AcDbLine
 10
699.8334968261262
 20
1841.798180525844
 30
0.0
 11
699.8334968261261
 21
1791.798180525844
 31
0.0
  0
MTEXT
  5
84AE
330
8392
100
AcDbEntity
  8
3
 62
     0
100
AcDbMText
 10
603.9941898645992
 20
1620.946930025635
 30
0.0
 40
75.0
 41
0.0
 71
     5
 72
     1
  1
\A1;100
 11
0.0000000000000001
 21
1.0
 31
0.0
 73
     1
 44
1.0
1001
ACAD
1000
MTEXTBEGIN
1070
    73
1070
     1
1070
    44
1040
1.0
1070
    74
1070
     0
1000
MTEXTEND
  0
INSERT
  5
84AF
330
8392
100
AcDbEntity
  8
3
 62
     0
370
    -2
100
AcDbBlockReference
  2
_DotSmall
 10
699.8334968261262
 20
1841.798180525844
 30
0.0
 41
50.0
 42
50.0
 43
50.0
 50
90.0
  0
INSERT
  5
84B0
330
8392
100
AcDbEntity
  8
3
 62
     0
370
    -2
100
AcDbBlockReference
  2
_OPEN
 10
699.8334968261261
 20
1741.798180525844
 30
0.0
 41
50.0
 42
50.0
 43
50.0
 50
270.0
  0
POINT
  5
84B1
330
8392
100
AcDbEntity
  8
DEFPOINTS
 62
     0
100
AcDbPoint
 10
1045.462242941992
 20
1841.798180525844
 30
0.0
  0
POINT
  5
84B2
330
8392
100
AcDbEntity
  8
DEFPOINTS
 62
     0
100
AcDbPoint
 10
1045.462242941992
 20
1741.798180525844
 30
0.0
  0
POINT
  5
84B3
330
8392
100
AcDbEntity
  8
DEFPOINTS
 62
     0
100
AcDbPoint
 10
699.8334968261261
 20
1741.798180525844
 30
0.0
  0
ENDBLK
  5
8394
330
8392
100
AcDbEntity
  8
0
100
AcDbBlockEnd
  0
BLOCK
  5
844F
330
844D
100
AcDbEntity
  8
0
100
AcDbBlockBegin
  2
_DotSmall
 70
     0
 10
0.0
 20
0.0
 30
0.0
  3
_DotSmall
  1

  0
LWPOLYLINE
  5
844E
330
844D
100
AcDbEntity
  8
0
  6
ByBlock
 62
     0
100
AcDbPolyline
 90
        2
 70
     1
 43
0.5
 10
-0.0625
 20
0.0
 42
1.0
 10
0.0625
 20
0.0
 42
1.0
  0
ENDBLK
  5
8450
330
844D
100
AcDbEntity
  8
0
100
AcDbBlockEnd
  0
ENDSEC
  0
SECTION
  2
ENTITIES
  0
INSERT
  5
7C00
330
815D
100
AcDbEntity
  8
0
100
AcDbBlockReference
  2
YA_N
 10
6.0
 20
5.0
 30
0.0
  0
LINE
  5
7C02
330
815D
100
AcDbEntity
  8
2
100
AcDbLine
 10
1545.462242941992
 20
3370.481513153087
 30
0.0
 11
1545.462242941992
 21
1741.798180525844
 31
0.0
  0
LINE
  5
7C03
330
815D
100
AcDbEntity
  8
2
100
AcDbLine
 10
878.9904510916022
 20
2511.798180525843
 30
0.0
 11
2303.365820132028
 21
2511.798180525843
 31
0.0
  0
LINE
  5
7C0E
330
815D
100
AcDbEntity
  8
1
100
AcDbLine
 10
2795.462242941992
 20
1741.798180525844
 30
0.0
 11
1045.462242941992
 21
1741.798180525844
 31
0.0
  0
LINE
  5
7C0F
330
815D
100
AcDbEntity
  8
1
100
AcDbLine
 10
1045.462242941992
 20
1841.798180525844
 30
0.0
 11
1045.462242941992
 21
1741.798180525844
 31
0.0
  0
LINE
  5
7C10
330
815D
100
AcDbEntity
  8
1
100
AcDbLine
 10
2795.462242941992
 20
1841.798180525844
 30
0.0
 11
2795.462242941992
 21
1741.798180525844
 31
0.0
  0
LINE
  5
7C11
330
815D
100
AcDbEntity
  8
1
100
AcDbLine
 10
2345.462242941992
 20
2061.798180525844
 30
0.0
 11
2345.462242941992
 21
2021.798180525843
 31
0.0
  0
LINE
  5
7C12
330
815D
100
AcDbEntity
  8
1
100
AcDbLine
 10
4780.255065109371
 20
3359.798180525845
 30
0.0
 11
4780.255065109369
 21
2534.798180525844
 31
0.0
  0
LINE
  5
7C13
330
815D
100
AcDbEntity
  8
1
100
AcDbLine
 10
3578.255065109371
 20
1741.798180525844
 30
0.0
 11
4783.255065109371
 21
1741.798180525844
 31
0.0
  0
LINE
  5
7C14
330
815D
100
AcDbEntity
  8
1
100
AcDbLine
 10
3578.255065109371
 20
1841.798180525844
 30
0.0
 11
3578.255065109371
 21
1741.798180525844
 31
0.0
  0
LINE
  5
7C15
330
815D
100
AcDbEntity
  8
2
100
AcDbLine
 10
3390.93713455608
 20
2511.798180525843
 30
0.0
 11
4931.304911688568
 21
2511.798180525843
 31
0.0
  0
LINE
  5
7C16
330
815D
100
AcDbEntity
  8
2
100
AcDbLine
 10
3390.93713455608
 20
2271.798180525843
 30
0.0
 11
4291.557589741238
 21
2271.798180525843
 31
0.0
  0
LINE
  5
7C17
330
815D
100
AcDbEntity
  8
1
100
AcDbLine
 10
3512.255065109371
 20
2638.798180525844
 30
0.0
 11
3512.255065109371
 21
2384.798180525844
 31
0.0
  0
LINE
  5
7C18
330
815D
100
AcDbEntity
  8
1
100
AcDbLine
 10
3380.255065109371
 20
2731.798180525843
 30
0.0
 11
3380.255065109371
 21
2051.798180525843
 31
0.0
  0
LINE
  5
7C19
330
815D
100
AcDbEntity
  8
1
100
AcDbLine
 10
3380.255065109371
 20
2731.798180525843
 30
0.0
 11
3630.255065109372
 21
2731.798180525843
 31
0.0
  0
LINE
  5
7C1A
330
815D
100
AcDbEntity
  8
1
100
AcDbLine
 10
3630.255065109372
 20
2731.798180525843
 30
0.0
 11
3630.255065109372
 21
2681.798180525843
 31
0.0
  0
LINE
  5
7C1B
330
815D
100
AcDbEntity
  8
1
100
AcDbLine
 10
3630.255065109372
 20
2094.293957917181
 30
0.0
 11
3630.255065109372
 21
2051.798180525843
 31
0.0
  0
LINE
  5
7C1C
330
815D
100
AcDbEntity
  8
2
100
AcDbLine
 10
4280.255065109371
 20
3495.571552694518
 30
0.0
 11
4280.255065109371
 21
1741.798180525844
 31
0.0
  0
POINT
  5
7C1D
330
815D
100
AcDbEntity
  8
1
100
AcDbPoint
 10
1045.462242941992
 20
1921.798180525843
 30
0.0
  0
POINT
  5
7C1E
330
815D
100
AcDbEntity
  8
1
100
AcDbPoint
 10
1045.462242941992
 20
1921.798180525843
 30
0.0
  0
POINT
  5
7C1F
330
815D
100
AcDbEntity
  8
1
100
AcDbPoint
 10
1045.462242941992
 20
1921.798180525843
 30
0.0
  0
INSERT
  5
7C22
330
815D
100
AcDbEntity
  8
0
100
AcDbBlockReference
  2
YA_N
 10
-733.6448571667497
 20
-271.0302667023643
 30
0.0
 41
20.0
 42
20.0
 43
20.0
  0
DIMENSION
  5
7C25
330
815D
100
AcDbEntity
  8
3
100
AcDbDimension
  2
*D4
 10
852.1168993999292
 20
2534.798180525844
 30
0.0
 11
802.1168993999292
 21
2947.298180525844
 31
0.0
 12
-633.6524400032722
 22
949.9105651163629
 32
0.0
 71
     5
 42
-1.0
  3
Standard
100
AcDbAlignedDimension
 13
1000.462242941992
 23
3359.798180525845
 33
0.0
 14
1000.462242941992
 24
2534.798180525844
 34
0.0
 50
90.0
100
AcDbRotatedDimension
1001
ACAD
1000
DSTYLE
1002
{
1070
    40
1040
25.0
1002
}
  0
DIMENSION
  5
7C26
330
815D
100
AcDbEntity
  8
3
100
AcDbDimension
  2
*D5
 10
699.8334968261261
 20
2511.798180525843
 30
0.0
 11
649.8334968261261
 21
2935.798180525845
 31
0.0
 12
-633.6524400032722
 22
949.9105651163629
 32
0.0
 71
     5
 42
-1.0
  3
Standard
100
AcDbAlignedDimension
 13
1000.462242941992
 23
3359.798180525845
 33
0.0
 14
878.9904510916022
 24
2511.798180525843
 34
0.0
 50
90.0
100
AcDbRotatedDimension
1001
ACAD
1000
DSTYLE
1002
{
1070
    40
1040
25.0
1002
}
  0
LINE
  5
7C27
330
815D
100
AcDbEntity
  8
1
100
AcDbLine
 10
2679.921142941993
 20
2181.486180525844
 30
0.0
 11
2699.462242941992
 21
2127.798180525843
 31
0.0
  0
LINE
  5
7C28
330
815D
100
AcDbEntity
  8
1
100
AcDbLine
 10
2411.015442941993
 20
2181.519180525843
 30
0.0
 11
2391.462242941992
 21
2127.798180525843
 31
0.0
  0
ARC
  5
7C29
330
815D
100
AcDbEntity
  8
1
100
AcDbCircle
 10
2545.462242941992
 20
2271.798180525843
 30
0.0
 40
162.0
100
AcDbArc
 50
326.1051229528019
 51
0.0
  0
ARC
  5
7C2A
330
815D
100
AcDbEntity
  8
1
100
AcDbCircle
 10
2545.462242941992
 20
2271.798180525843
 30
0.0
 40
162.0
100
AcDbArc
 50
0.0
 51
213.8949135395933
  0
LINE
  5
7C2B
330
815D
100
AcDbEntity
  8
2
100
AcDbLine
 10
2545.462242941992
 20
2450.24794861303
 30
0.0
 11
2545.462242941992
 21
1741.798180525844
 31
0.0
  0
LINE
  5
7C2C
330
815D
100
AcDbEntity
  8
1
100
AcDbLine
 10
2391.462242941992
 20
2111.798180525843
 30
0.0
 11
2391.462242941992
 21
2127.798180525843
 31
0.0
  0
LINE
  5
7C2D
330
815D
100
AcDbEntity
  8
1
100
AcDbLine
 10
2699.462242941992
 20
2111.798180525843
 30
0.0
 11
2699.462242941992
 21
2127.798180525843
 31
0.0
  0
LINE
  5
7C2E
330
815D
100
AcDbEntity
  8
2
100
AcDbLine
 10
2357.35179887932
 20
2271.798180525844
 30
0.0
 11
2732.430603909349
 21
2271.798180525843
 31
0.0
  0
LINE
  5
7C2F
330
815D
100
AcDbEntity
  8
1
100
AcDbLine
 10
2733.976886208032
 20
2111.798180525843
 30
0.0
 11
2356.707375327181
 21
2111.798180525841
 31
0.0
  0
LINE
  5
7C30
330
815D
100
AcDbEntity
  8
1
100
AcDbLine
 10
2343.462242941993
 20
2061.798180525844
 30
0.0
 11
2356.707375327181
 21
2111.798180525843
 31
0.0
  0
LINE
  5
7C31
330
815D
100
AcDbEntity
  8
1
100
AcDbLine
 10
2747.462242941994
 20
2061.798180525844
 30
0.0
 11
2733.976886208032
 21
2111.798180525843
 31
0.0
  0
CIRCLE
  5
7C32
330
815D
100
AcDbEntity
  8
1
100
AcDbCircle
 10
2545.462242941992
 20
2271.798180525844
 30
0.0
 40
110.0
  0
CIRCLE
  5
7C33
330
815D
100
AcDbEntity
  8
1
100
AcDbCircle
 10
1545.462242941992
 20
2511.798180525843
 30
0.0
 40
127.0
  0
LINE
  5
7C34
330
815D
100
AcDbEntity
  8
1
100
AcDbLine
 10
3512.255065109371
 20
2638.798180525844
 30
0.0
 11
3597.255065109372
 21
2638.798180525844
 31
0.0
  0
LINE
  5
7C35
330
815D
100
AcDbEntity
  8
1
100
AcDbLine
 10
3512.255065109371
 20
2384.798180525844
 30
0.0
 11
3597.255065109372
 21
2384.798180525844
 31
0.0
  0
LINE
  5
7C36
330
815D
100
AcDbEntity
  8
1
100
AcDbLine
 10
3512.255065109372
 20
2381.798180525843
 30
0.0
 11
3597.255065109372
 21
2381.798180525843
 31
0.0
  0
LINE
  5
7C37
330
815D
100
AcDbEntity
  8
1
100
AcDbLine
 10
3512.255065109371
 20
2161.798180525843
 30
0.0
 11
3597.255065109372
 21
2161.798180525843
 31
0.0
  0
LINE
  5
7C38
330
815D
100
AcDbEntity
  8
1
100
AcDbLine
 10
3380.255065109371
 20
2051.798180525843
 30
0.0
 11
3630.255065109372
 21
2051.798180525843
 31
0.0
  0
LINE
  5
7C39
330
815D
100
AcDbEntity
  8
1
100
AcDbLine
 10
3597.255065109372
 20
2638.798180525844
 30
0.0
 11
3597.255065109372
 21
2384.798180525844
 31
0.0
  0
INSERT
  5
7C3A
330
815D
100
AcDbEntity
  8
0
100
AcDbBlockReference
  2
YA_N
 10
-36.73462870802178
 20
301.6536876033205
 30
0.0
 41
20.0
 42
20.0
 43
20.0
  0
INSERT
  5
7C3C
330
815D
100
AcDbEntity
  8
0
100
AcDbBlockReference
  2
YA_N
 10
77.48489664613955
 20
225.3119777640749
 30
0.0
 41
20.0
 42
20.0
 43
20.0
  0
LINE
  5
7C3E
330
815D
100
AcDbEntity
  8
1
100
AcDbLine
 10
3578.255065109371
 20
1841.798180525843
 30
0.0
 11
4833.255065109372
 21
1841.798180525844
 31
0.0
1001
ACAD
1000
ASC_BOUNDS
1002
{
1070
    19
1002
}
  0
LINE
  5
7C3F
330
815D
100
AcDbEntity
  8
1
100
AcDbLine
 10
1045.462242941992
 20
1841.798180525844
 30
0.0
 11
2795.462242941992
 21
1841.798180525843
 31
0.0
1001
ACAD
1000
ASC_BOUNDS
1002
{
1070
    19
1005
0
1005
0
1002
}
  0
POINT
  5
7C40
330
815D
100
AcDbEntity
  8
1
100
AcDbPoint
 10
1045.462242941992
 20
1841.798180525844
 30
0.0
  0
POINT
  5
7C41
330
815D
100
AcDbEntity
  8
1
100
AcDbPoint
 10
1045.462242941992
 20
1741.798180525844
 30
0.0
  0
POINT
  5
7C42
330
815D
100
AcDbEntity
  8
1
100
AcDbPoint
 10
1045.462242941992
 20
1841.798180525844
 30
0.0
  0
POINT
  5
7C43
330
815D
100
AcDbEntity
  8
1
100
AcDbPoint
 10
1045.462242941992
 20
1921.798180525843
 30
0.0
  0
LINE
  5
7C44
330
815D
100
AcDbEntity
  8
1
100
AcDbLine
 10
4833.255065109372
 20
1841.798180525844
 30
0.0
 11
4833.255065109372
 21
1741.798180525844
 31
0.0
  0
LINE
  5
7C45
330
815D
100
AcDbEntity
  8
1
100
AcDbLine
 10
4783.255065109369
 20
1741.798180525844
 30
0.0
 11
4833.255065109373
 21
1741.798180525844
 31
0.0
  0
POINT
  5
7C47
330
815D
100
AcDbEntity
  8
1
100
AcDbPoint
 10
1045.462242941992
 20
1841.798180525844
 30
0.0
  0
POINT
  5
7C48
330
815D
100
AcDbEntity
  8
1
100
AcDbPoint
 10
1045.462242941992
 20
1741.798180525844
 30
0.0
  0
POINT
  5
7C49
330
815D
100
AcDbEntity
  8
1
100
AcDbPoint
 10
1045.462242941992
 20
1841.798180525844
 30
0.0
  0
POINT
  5
7C4A
330
815D
100
AcDbEntity
  8
1
100
AcDbPoint
 10
1045.462242941992
 20
1921.798180525843
 30
0.0
  0
LINE
  5
7C4B
330
815D
100
AcDbEntity
  8
1
100
AcDbLine
 10
4280.255065109371
 20
3359.798180525845
 30
0.0
 11
4780.255065109369
 21
3359.798180525845
 31
0.0
  0
LINE
  5
7C4D
330
815D
100
AcDbEntity
  8
1
100
AcDbLine
 10
4780.255065109369
 20
2534.798180525844
 30
0.0
 11
4780.255065109369
 21
2021.798180525843
 31
0.0
  0
LINE
  5
7C4F
330
815D
100
AcDbEntity
  8
1
100
AcDbLine
 10
3780.255065109372
 20
2534.798180525844
 30
0.0
 11
3780.255065109372
 21
2433.798180525843
 31
0.0
  0
LINE
  5
7C50
330
815D
100
AcDbEntity
  8
1
100
AcDbLine
 10
3780.255065109372
 20
3359.798180525845
 30
0.0
 11
3780.255065109372
 21
2534.798180525844
 31
0.0
  0
LINE
  5
7C51
330
815D
100
AcDbEntity
  8
1
100
AcDbLine
 10
4280.255065109371
 20
3359.798180525845
 30
0.0
 11
3780.255065109372
 21
3359.798180525845
 31
0.0
  0
LINE
  5
7C52
330
815D
100
AcDbEntity
  8
1
100
AcDbLine
 10
3642.255065109371
 20
2475.998180525843
 30
0.0
 11
3642.255065109371
 21
2433.798180525844
 31
0.0
  0
LINE
  5
7C53
330
815D
100
AcDbEntity
  8
1
100
AcDbLine
 10
3652.255065109371
 20
2485.998180525843
 30
0.0
 11
3780.255065109372
 21
2485.998180525843
 31
0.0
  0
ARC
  5
7C54
330
815D
100
AcDbEntity
  8
1
100
AcDbCircle
 10
3652.255065109371
 20
2475.998180525843
 30
0.0
 40
10.0
100
AcDbArc
 50
90.0
 51
180.0
  0
LINE
  5
7C55
330
815D
100
AcDbEntity
  8
1
100
AcDbLine
 10
4890.255065109373
 20
2472.298180525843
 30
0.0
 11
4890.255065109373
 21
2372.298180525843
 31
0.0
  0
ARC
  5
7C56
330
815D
100
AcDbEntity
  8
1
100
AcDbCircle
 10
4880.255065109372
 20
2372.298180525843
 30
0.0
 40
10.0
100
AcDbArc
 50
270.0
 51
0.0
  0
ARC
  5
7C57
330
815D
100
AcDbEntity
  8
1
100
AcDbCircle
 10
4880.255065109372
 20
2472.298180525843
 30
0.0
 40
10.0
100
AcDbArc
 50
0.0
 51
90.0
  0
LINE
  5
7C58
330
815D
100
AcDbEntity
  8
1
100
AcDbLine
 10
4780.255065109369
 20
2362.298180525843
 30
0.0
 11
4880.255065109372
 21
2362.298180525843
 31
0.0
  0
LINE
  5
7C59
330
815D
100
AcDbEntity
  8
1
100
AcDbLine
 10
4780.255065109369
 20
2482.298180525845
 30
0.0
 11
4880.255065109372
 21
2482.298180525843
 31
0.0
  0
LINE
  5
7C5A
330
815D
100
AcDbEntity
  8
1
100
AcDbLine
 10
2745.462242941993
 20
2061.798180525844
 30
0.0
 11
2745.462242941993
 21
2021.798180525843
 31
0.0
  0
POINT
  5
7C5B
330
815D
100
AcDbEntity
  8
1
100
AcDbPoint
 10
4890.255065109373
 20
2472.298180525843
 30
0.0
  0
LINE
  5
7C5C
330
815D
100
AcDbEntity
  8
1
100
AcDbLine
 10
2795.462242941992
 20
4249.291137356863
 30
0.0
 11
1045.462242941992
 21
4249.291137356863
 31
0.0
  0
LINE
  5
7C5D
330
815D
100
AcDbEntity
  8
1
100
AcDbLine
 10
2045.462242941992
 20
5504.291137356862
 30
0.0
 11
1045.462242941992
 21
5504.291137356862
 31
0.0
  0
LINE
  5
7C5E
330
815D
100
AcDbEntity
  8
1
100
AcDbLine
 10
1045.462242941992
 20
5504.291137356862
 30
0.0
 11
1045.462242941992
 21
5451.291137356861
 31
0.0
  0
LINE
  5
7C5F
330
815D
100
AcDbEntity
  8
1
100
AcDbLine
 10
2795.462242941992
 20
4999.291137356863
 30
0.0
 11
2795.462242941992
 21
4249.291137356863
 31
0.0
  0
LINE
  5
7C60
330
815D
100
AcDbEntity
  8
1
100
AcDbLine
 10
2045.462242941993
 20
5504.291137356862
 30
0.0
 11
2045.462242941993
 21
5451.291137356863
 31
0.0
  0
LINE
  5
7C61
330
815D
100
AcDbEntity
  8
1
100
AcDbLine
 10
2795.462242941992
 20
4999.291137356863
 30
0.0
 11
2229.122326694983
 21
4999.291137356863
 31
0.0
  0
LINE
  5
7C62
330
815D
100
AcDbEntity
  8
2
100
AcDbLine
 10
2279.188128084268
 20
4951.291137356863
 30
0.0
 11
965.0698745335612
 21
4951.291137356861
 31
0.0
  0
LINE
  5
7C63
330
815D
100
AcDbEntity
  8
2
100
AcDbLine
 10
1545.462242941994
 20
5537.275052893789
 30
0.0
 11
1545.462242941992
 21
4014.427486206725
 31
0.0
  0
LINE
  5
7C64
330
815D
100
AcDbEntity
  8
2
100
AcDbLine
 10
2545.462242941992
 20
4865.781126840807
 30
0.0
 11
2545.462242941992
 21
4014.427486206725
 31
0.0
  0
LINE
  5
7C67
330
815D
100
AcDbEntity
  8
1
100
AcDbLine
 10
4833.255065109372
 20
2021.798180525843
 30
0.0
 11
4833.255065109372
 21
1921.798180525843
 31
0.0
  0
LINE
  5
7C68
330
815D
100
AcDbEntity
  8
1
100
AcDbLine
 10
3578.255065109371
 20
2021.798180525843
 30
0.0
 11
4833.255065109369
 21
2021.798180525844
 31
0.0
1001
ACAD
1000
ASC_BOUNDS
1002
{
1070
    19
1002
}
  0
LINE
  5
7C69
330
815D
100
AcDbEntity
  8
1
100
AcDbLine
 10
3578.255065109371
 20
1921.798180525843
 30
0.0
 11
4833.255065109372
 21
1921.798180525843
 31
0.0
  0
LINE
  5
7C6A
330
815D
100
AcDbEntity
  8
1
100
AcDbLine
 10
3578.255065109371
 20
2021.798180525843
 30
0.0
 11
3578.255065109371
 21
1921.798180525843
 31
0.0
  0
DIMENSION
  5
7C6B
330
815D
100
AcDbEntity
  8
3
100
AcDbDimension
  2
*D7
 10
5081.778476006348
 20
2086.798180525844
 30
0.0
 11
5031.778476006349
 21
2511.798180525843
 31
0.0
 12
-633.6524400032722
 22
949.9105651163629
 32
0.0
 71
     5
 42
-1.0
  3
Standard
100
AcDbAlignedDimension
 13
4782.555065109372
 23
2936.798180525843
 33
0.0
 14
4782.555065109372
 24
2086.798180525844
 34
0.0
 50
90.0
100
AcDbRotatedDimension
1001
ACAD
1000
DSTYLE
1002
{
1070
    40
1040
25.0
1070
     3
1000
\U+03C6<>
1002
}
  0
LINE
  5
7C6C
330
815D
100
AcDbEntity
  8
1
100
AcDbLine
 10
3597.255065109372
 20
2541.798180525844
 30
0.0
 11
3780.255065109372
 21
2541.798180525844
 31
0.0
  0
LINE
  5
7C6D
330
815D
100
AcDbEntity
  8
1
100
AcDbLine
 10
3597.255065109372
 20
2481.798180525844
 30
0.0
 11
3644.108900367605
 21
2481.798180525843
 31
0.0
  0
ARC
  5
7C6F
330
815D
100
AcDbEntity
  8
1
100
AcDbCircle
 10
1545.462242941992
 20
2511.798180525843
 30
0.0
 40
220.0
100
AcDbArc
 50
76.50426671920421
 51
256.5042667192043
  0
ARC
  5
7C70
330
815D
100
AcDbEntity
  8
1
100
AcDbCircle
 10
2545.462242941994
 20
2271.798180525843
 30
0.0
 40
220.0
100
AcDbArc
 50
256.5042667192043
 51
76.50426671920415
  0
LINE
  5
7C71
330
815D
100
AcDbEntity
  8
1
100
AcDbLine
 10
1596.804292486564
 20
2725.723386961557
 30
0.0
 11
2596.804292486564
 21
2485.723386961558
 31
0.0
  0
LINE
  5
7C72
330
815D
100
AcDbEntity
  8
1
100
AcDbLine
 10
1577.137972660184
 20
2634.784554351646
 30
0.0
 11
2572.89791435145
 21
2378.321811398585
 31
0.0
  0
LINE
  5
7C73
330
815D
100
AcDbEntity
  8
1
100
AcDbLine
 10
1517.869342270698
 20
2387.831927728785
 30
0.0
 11
2521.562880155832
 21
2164.42583558351
 31
0.0
  0
LINE
  5
7C74
330
815D
100
AcDbEntity
  8
1
100
AcDbLine
 10
1494.120193397421
 20
2297.872974090129
 30
0.0
 11
2494.120193397421
 21
2057.87297409013
 31
0.0
  0
LINE
  5
7C75
330
815D
100
AcDbEntity
  8
1
100
AcDbLine
 10
2795.462242941992
 20
1921.798180525843
 30
0.0
 11
1045.462242941992
 21
1921.798180525843
 31
0.0
  0
LINE
  5
7C76
330
815D
100
AcDbEntity
  8
1
100
AcDbLine
 10
1045.462242941992
 20
2021.798180525843
 30
0.0
 11
2795.462242941992
 21
2021.798180525843
 31
0.0
1001
ACAD
1000
ASC_BOUNDS
1002
{
1070
    19
1005
0
1005
0
1002
}
  0
LINE
  5
7C77
330
815D
100
AcDbEntity
  8
1
100
AcDbLine
 10
2795.462242941992
 20
2021.798180525843
 30
0.0
 11
2795.462242941992
 21
1921.798180525843
 31
0.0
  0
LINE
  5
7C78
330
815D
100
AcDbEntity
  8
1
100
AcDbLine
 10
1045.462242941992
 20
2021.798180525843
 30
0.0
 11
1045.462242941992
 21
1921.798180525843
 31
0.0
  0
CIRCLE
  5
7C7A
330
815D
100
AcDbEntity
  8
1
100
AcDbCircle
 10
1545.462242941992
 20
2511.798180525843
 30
0.0
 40
425.0
  0
CIRCLE
  5
7C7B
330
815D
100
AcDbEntity
  8
1
100
AcDbCircle
 10
1545.462242941992
 20
2511.798180525843
 30
0.0
 40
465.0
  0
LINE
  5
7C7C
330
815D
100
AcDbEntity
  8
1
100
AcDbLine
 10
2343.462242941993
 20
2061.798180525844
 30
0.0
 11
2747.462242941992
 21
2061.798180525844
 31
0.0
  0
POINT
  5
7C80
330
815D
100
AcDbEntity
  8
1
100
AcDbPoint
 10
1045.462242941992
 20
1841.798180525844
 30
0.0
  0
POINT
  5
7C81
330
815D
100
AcDbEntity
  8
1
100
AcDbPoint
 10
1045.462242941992
 20
1921.798180525843
 30
0.0
  0
LINE
  5
7C82
330
815D
100
AcDbEntity
  8
1
100
AcDbLine
 10
2229.122326694983
 20
5451.291137356863
 30
0.0
 11
1000.462242941994
 21
5451.291137356861
 31
0.0
  0
LINE
  5
7C83
330
815D
100
AcDbEntity
  8
1
100
AcDbLine
 10
2229.122326694983
 20
4451.291137356863
 30
0.0
 11
1000.462242941993
 21
4451.291137356861
 31
0.0
  0
LINE
  5
7C84
330
815D
100
AcDbEntity
  8
1
100
AcDbLine
 10
1000.462242941994
 20
5494.291137356864
 30
0.0
 11
1000.462242941992
 21
4408.291137356863
 31
0.0
  0
LINE
  5
7C85
330
815D
100
AcDbEntity
  8
1
100
AcDbLine
 10
2229.122326694983
 20
4451.291137356863
 30
0.0
 11
2229.122326694983
 21
5451.291137356863
 31
0.0
  0
LINE
  5
7C86
330
815D
100
AcDbEntity
  8
1
100
AcDbLine
 10
1003.462242941994
 20
5494.291137356862
 30
0.0
 11
1000.462242941994
 21
5494.291137356862
 31
0.0
  0
LINE
  5
7C87
330
815D
100
AcDbEntity
  8
1
100
AcDbLine
 10
1003.462242941992
 20
4408.291137356861
 30
0.0
 11
1000.462242941993
 21
4408.291137356861
 31
0.0
  0
LINE
  5
7C88
330
815D
100
AcDbEntity
  8
1
100
AcDbLine
 10
1040.462242941994
 20
5451.291137356861
 30
0.0
 11
1040.462242941992
 21
4451.291137356861
 31
0.0
  0
LINE
  5
7C89
330
815D
100
AcDbEntity
  8
1
100
AcDbLine
 10
1003.462242941994
 20
5494.291137356864
 30
0.0
 11
1003.462242941992
 21
4408.291137356863
 31
0.0
  0
LINE
  5
7C8A
330
815D
100
AcDbEntity
  8
1
100
AcDbLine
 10
1045.462242941992
 20
4451.291137356861
 30
0.0
 11
1045.462242941992
 21
4249.291137356863
 31
0.0
  0
DIMENSION
  5
7C90
330
815D
100
AcDbEntity
  8
3
100
AcDbDimension
  2
*D8
 10
1045.462242941992
 20
5655.414420907815
 30
0.0
 11
1545.462242941993
 21
5705.414420907815
 31
0.0
 12
-633.6524400032722
 22
949.9105651163629
 32
0.0
 71
     5
 42
-1.0
  3
Standard
100
AcDbAlignedDimension
 13
2045.462242941993
 23
5504.291137356862
 33
0.0
 14
1045.462242941992
 24
5504.291137356862
 34
0.0
100
AcDbRotatedDimension
1001
ACAD
1000
DSTYLE
1002
{
1070
    40
1040
25.0
1002
}
  0
DIMENSION
  5
7C91
330
815D
100
AcDbEntity
  8
3
100
AcDbDimension
  2
*D9
 10
827.5255147921035
 20
4249.291137356863
 30
0.0
 11
827.5255147921035
 21
4876.791137356862
 31
0.0
 12
-633.6524400032722
 22
949.9105651163629
 32
0.0
 70
   128
 71
     5
 42
-1.0
  3
Standard
100
AcDbAlignedDimension
 13
1045.462242941992
 23
5504.291137356862
 33
0.0
 14
1045.462242941992
 24
4249.291137356863
 34
0.0
 50
270.0
100
AcDbRotatedDimension
1001
ACAD
1000
DSTYLE
1002
{
1070
    40
1040
25.0
1002
}
  0
DIMENSION
  5
7C92
330
815D
100
AcDbEntity
  8
3
100
AcDbDimension
  2
*D10
 10
2947.615072065305
 20
4249.291137356863
 30
0.0
 11
2897.615072065306
 21
4624.291137356862
 31
0.0
 12
-633.6524400032722
 22
949.9105651163629
 32
0.0
 71
     5
 42
-1.0
  3
Standard
100
AcDbAlignedDimension
 13
2795.462242941992
 23
4999.291137356863
 33
0.0
 14
2795.462242941992
 24
4249.291137356863
 34
0.0
 50
270.0
100
AcDbRotatedDimension
1001
ACAD
1000
DSTYLE
1002
{
1070
    40
1040
25.0
1002
}
  0
LINE
  5
7C93
330
815D
100
AcDbEntity
  8
1
100
AcDbLine
 10
2655.462242941992
 20
4183.291137356864
 30
0.0
 11
2435.462242941992
 21
4183.291137356863
 31
0.0
  0
LINE
  5
7C94
330
815D
100
AcDbEntity
  8
1
100
AcDbLine
 10
2655.462242941992
 20
4268.291137356864
 30
0.0
 11
2435.462242941993
 21
4268.291137356864
 31
0.0
  0
LINE
  5
7C95
330
815D
100
AcDbEntity
  8
1
100
AcDbLine
 10
1418.462242941992
 20
4268.291137356863
 30
0.0
 11
1418.462242941992
 21
4183.291137356863
 31
0.0
  0
LINE
  5
7C96
330
815D
100
AcDbEntity
  8
1
100
AcDbLine
 10
1672.462242941992
 20
4268.291137356864
 30
0.0
 11
1672.462242941992
 21
4183.291137356863
 31
0.0
  0
LINE
  5
7C97
330
815D
100
AcDbEntity
  8
1
100
AcDbLine
 10
2435.462242941992
 20
4268.291137356864
 30
0.0
 11
2435.462242941992
 21
4183.291137356864
 31
0.0
  0
LINE
  5
7C98
330
815D
100
AcDbEntity
  8
1
100
AcDbLine
 10
2655.462242941992
 20
4268.291137356865
 30
0.0
 11
2655.462242941992
 21
4183.291137356864
 31
0.0
  0
LINE
  5
7C99
330
815D
100
AcDbEntity
  8
1
100
AcDbLine
 10
1672.462242941992
 20
4183.291137356863
 30
0.0
 11
1418.462242941992
 21
4183.291137356863
 31
0.0
  0
LINE
  5
7C9A
330
815D
100
AcDbEntity
  8
1
100
AcDbLine
 10
1672.462242941992
 20
4268.291137356863
 30
0.0
 11
1418.462242941992
 21
4268.291137356863
 31
0.0
  0
LINE
  5
7C9B
330
815D
100
AcDbEntity
  8
1
100
AcDbLine
 10
2765.462242941993
 20
4051.291137356864
 30
0.0
 11
1325.462242941992
 21
4051.291137356863
 31
0.0
  0
LINE
  5
7C9C
330
815D
100
AcDbEntity
  8
1
100
AcDbLine
 10
1325.462242941992
 20
4298.291137356863
 30
0.0
 11
1325.462242941992
 21
4051.291137356863
 31
0.0
  0
LINE
  5
7C9D
330
815D
100
AcDbEntity
  8
1
100
AcDbLine
 10
2765.462242941993
 20
4298.291137356864
 30
0.0
 11
2765.462242941993
 21
4051.291137356864
 31
0.0
  0
LINE
  5
7C9E
330
815D
100
AcDbEntity
  8
1
100
AcDbLine
 10
2765.462242941993
 20
4298.291137356864
 30
0.0
 11
1325.462242941991
 21
4298.291137356863
 31
0.0
  0
POINT
  5
7CA0
330
815D
100
AcDbEntity
  8
1
100
AcDbPoint
 10
4890.255065109373
 20
2472.298180525843
 30
0.0
  0
DIMENSION
  5
7CA1
330
815D
100
AcDbEntity
  8
3
100
AcDbDimension
  2
*D12
 10
4780.255065109371
 20
3512.101087545458
 30
0.0
 11
4280.255065109371
 21
3562.101087545458
 31
0.0
 12
-633.6524400032722
 22
949.9105651163629
 32
0.0
 71
     5
 42
-1.0
  3
Standard
100
AcDbAlignedDimension
 13
3780.255065109372
 23
3359.798180525845
 33
0.0
 14
4780.255065109371
 24
3359.798180525845
 34
0.0
100
AcDbRotatedDimension
1001
ACAD
1000
DSTYLE
1002
{
1070
    40
1040
25.0
1002
}
  0
POINT
  5
7CA2
330
815D
100
AcDbEntity
  8
1
100
AcDbPoint
 10
4890.255065109373
 20
2472.298180525843
 30
0.0
  0
POINT
  5
7CA3
330
815D
100
AcDbEntity
  8
1
100
AcDbPoint
 10
3380.255065109371
 20
2731.798180525843
 30
0.0
  0
DIMENSION
  5
7CA5
330
815D
100
AcDbEntity
  8
3
100
AcDbDimension
  2
*D14
 10
1000.462242941992
 20
3514.117361428644
 30
0.0
 11
1272.962242941992
 21
3564.117361428643
 31
0.0
 12
-633.6524400032722
 22
949.9105651163629
 32
0.0
 71
     5
 42
-1.0
  3
Standard
100
AcDbAlignedDimension
 13
1545.462242941992
 23
3370.481513153087
 33
0.0
 14
1000.462242941992
 24
3402.298180525844
 34
0.0
100
AcDbRotatedDimension
1001
ACAD
1000
DSTYLE
1002
{
1070
    40
1040
25.0
1002
}
  0
DIMENSION
  5
7CA6
330
815D
100
AcDbEntity
  8
3
100
AcDbDimension
  2
*D15
 10
1000.462242941992
 20
3661.054274845813
 30
0.0
 11
1897.962242941992
 21
3711.054274845813
 31
0.0
 12
-633.6524400032722
 22
949.9105651163629
 32
0.0
 71
     5
 42
-1.0
  3
Standard
100
AcDbAlignedDimension
 13
2795.462242941992
 23
2021.798180525843
 33
0.0
 14
1000.462242941992
 24
3402.298180525844
 34
0.0
100
AcDbRotatedDimension
1001
ACAD
1000
DSTYLE
1002
{
1070
    40
1040
25.0
1002
}
  0
LINE
  5
7CA7
330
815D
100
AcDbEntity
  8
1
100
AcDbLine
 10
2707.462242941992
 20
4837.791137356865
 30
0.0
 11
2383.462242941992
 21
4837.791137356862
 31
0.0
  0
LINE
  5
7CA8
330
815D
100
AcDbEntity
  8
1
100
AcDbLine
 10
2707.462242941992
 20
4308.791137356864
 30
0.0
 11
2383.462242941992
 21
4308.791137356863
 31
0.0
  0
LINE
  5
7CA9
330
815D
100
AcDbEntity
  8
1
100
AcDbLine
 10
2524.462242941992
 20
4308.791137356864
 30
0.0
 11
2524.462242941992
 21
4268.291137356864
 31
0.0
  0
LINE
  5
7CAA
330
815D
100
AcDbEntity
  8
1
100
AcDbLine
 10
2566.462242941992
 20
4308.791137356864
 30
0.0
 11
2566.462242941992
 21
4268.291137356864
 31
0.0
  0
LINE
  5
7CAB
330
815D
100
AcDbEntity
  8
1
100
AcDbLine
 10
2707.462242941992
 20
4837.791137356866
 30
0.0
 11
2707.462242941992
 21
4308.791137356864
 31
0.0
  0
LINE
  5
7CAC
330
815D
100
AcDbEntity
  8
1
100
AcDbLine
 10
2383.462242941992
 20
4837.791137356862
 30
0.0
 11
2383.462242941992
 21
4308.791137356863
 31
0.0
  0
LINE
  5
7CAE
330
815D
100
AcDbEntity
  8
1
100
AcDbLine
 10
4166.755065109369
 20
2109.798180525844
 30
0.0
 11
3637.755065109369
 21
2109.798180525844
 31
0.0
  0
LINE
  5
7CAF
330
815D
100
AcDbEntity
  8
1
100
AcDbLine
 10
4166.755065109373
 20
2433.798180525843
 30
0.0
 11
3637.755065109374
 21
2433.798180525843
 31
0.0
  0
LINE
  5
7CB0
330
815D
100
AcDbEntity
  8
1
100
AcDbLine
 10
3637.755065109372
 20
2433.798180525843
 30
0.0
 11
3637.755065109369
 21
2109.798180525844
 31
0.0
  0
LINE
  5
7CB1
330
815D
100
AcDbEntity
  8
1
100
AcDbLine
 10
3637.755065109371
 20
2292.798180525843
 30
0.0
 11
3597.255065109372
 21
2292.798180525843
 31
0.0
  0
LINE
  5
7CB2
330
815D
100
AcDbEntity
  8
1
100
AcDbLine
 10
3637.755065109371
 20
2250.798180525844
 30
0.0
 11
3597.255065109372
 21
2250.798180525844
 31
0.0
  0
LINE
  5
7CB3
330
815D
100
AcDbEntity
  8
1
100
AcDbLine
 10
3597.255065109372
 20
2381.798180525843
 30
0.0
 11
3597.255065109372
 21
2161.798180525843
 31
0.0
  0
LINE
  5
7CB4
330
815D
100
AcDbEntity
  8
1
100
AcDbLine
 10
3512.255065109371
 20
2381.798180525843
 30
0.0
 11
3512.255065109371
 21
2161.798180525843
 31
0.0
  0
LINE
  5
7CBD
330
815D
100
AcDbEntity
  8
1
100
AcDbLine
 10
4166.755065109373
 20
2433.798180525839
 30
0.0
 11
4166.755065109369
 21
2109.798180525839
 31
0.0
  0
LINE
  5
7CBE
330
815D
100
AcDbEntity
  8
1
100
AcDbLine
 10
4072.916755590035
 20
2109.798180525844
 30
0.0
 11
4072.916755590035
 21
2021.798180525843
 31
0.0
  0
LINE
  5
7CBF
330
815D
100
AcDbEntity
  8
1
100
AcDbLine
 10
3694.262011192173
 20
2109.798180525844
 30
0.0
 11
3694.262011192171
 21
2021.798180525843
 31
0.0
  0
LINE
  5
7CC0
330
815D
100
AcDbEntity
  8
1
100
AcDbLine
 10
3694.262011192171
 20
2061.798180525844
 30
0.0
 11
4072.916755590035
 21
2061.798180525844
 31
0.0
  0
LINE
  5
7EED
330
815D
100
AcDbEntity
  8
4
100
AcDbLine
 10
4625.0
 20
1250.0
 30
0.0
 11
4625.0
 21
750.0
 31
0.0
  0
LINE
  5
7EEE
330
815D
100
AcDbEntity
  8
4
100
AcDbLine
 10
2875.0
 20
1250.0
 30
0.0
 11
2875.0
 21
750.0
 31
0.0
  0
LINE
  5
7EEF
330
815D
100
AcDbEntity
  8
4
100
AcDbLine
 10
1625.0
 20
1250.0
 30
0.0
 11
1625.0
 21
750.0
 31
0.0
  0
LINE
  5
7EF2
330
815D
100
AcDbEntity
  8
4
100
AcDbLine
 10
1625.0
 20
750.0
 30
0.0
 11
4625.0
 21
750.0
 31
0.0
  0
LINE
  5
7EF3
330
815D
100
AcDbEntity
  8
4
100
AcDbLine
 10
1625.0
 20
1000.0
 30
0.0
 11
4625.0
 21
1000.0
 31
0.0
  0
TEXT
  5
7EF4
330
815D
100
AcDbEntity
  8
4
100
AcDbText
 10
1721.255202117253
 20
1078.857564666532
 30
0.0
 40
125.0
  1
機器名称
100
AcDbText
  0
TEXT
  5
7EF5
330
815D
100
AcDbEntity
  8
4
100
AcDbText
 10
1715.645265061993
 20
804.1128918300273
 30
0.0
 40
125.0
  1
機器型番
100
AcDbText
  0
TEXT
  5
7EF6
330
815D
100
AcDbEntity
  8
4
100
AcDbText
 10
2944.196863719162
 20
1056.429422393921
 30
0.0
 40
125.0
  1
ミツヤ多翼送風機
100
AcDbText
  0
TEXT
  5
7EF7
330
815D
100
AcDbEntity
  8
4
100
AcDbText
 10
2966.636238963701
 20
792.8989606998584
 30
0.0
 40
125.0
  1
MF#5-5
100
AcDbText
  0
TEXT
  5
7EF9
330
815D
100
AcDbEntity
  8
4
100
AcDbText
 10
1918.735985024545
 20
5958.572103331289
 30
0.0
 40
135.0
  1
床置防振ベット
100
AcDbText
  0
TEXT
  5
7EFA
330
815D
100
AcDbEntity
  8
4
100
AcDbText
 10
790.4189833236158
 20
6334.702440498245
 30
0.0
 40
180.0
  1
遠心式両吸込両持多翼ファン
100
AcDbText
  0
LINE
  5
7EFB
330
815D
100
AcDbEntity
  8
4
100
AcDbLine
 10
625.0
 20
6173.521885662012
 30
0.0
 11
4625.0
 21
6173.521885662012
 31
0.0
  0
LINE
  5
7EFC
330
815D
100
AcDbEntity
  8
4
100
AcDbLine
 10
625.0
 20
6673.521885662011
 30
0.0
 11
4625.0
 21
6673.521885662011
 31
0.0
  0
LINE
  5
7EFD
330
815D
100
AcDbEntity
  8
4
100
AcDbLine
 10
1625.0
 20
1250.0
 30
0.0
 11
4625.0
 21
1250.0
 31
0.0
  0
LINE
  5
7EFE
330
815D
100
AcDbEntity
  8
4
100
AcDbLine
 10
625.0
 20
6673.521885662011
 30
0.0
 11
625.0
 21
6173.521885662012
 31
0.0
  0
TEXT
  5
7EFF
330
815D
100
AcDbEntity
  8
4
100
AcDbText
 10
829.0889044177893
 20
5955.798693865858
 30
0.0
 40
135.0
  1
左回転左横向
100
AcDbText
  0
TEXT
  5
7F00
330
815D
100
AcDbEntity
  8
4
100
AcDbText
 10
3672.423898123224
 20
6765.15270373827
 30
0.0
 40
140.0
  1
No.
100
AcDbText
  0
TEXT
  5
7F01
330
815D
100
AcDbEntity
  8
4
100
AcDbText
 10
3278.240156500032
 20
5958.572103331289
 30
0.0
 40
135.0
  1
縮尺：1/25
100
AcDbText
  0
LINE
  5
7F02
330
815D
100
AcDbEntity
  8
4
100
AcDbLine
 10
4625.0
 20
6673.521885662011
 30
0.0
 11
4625.0
 21
6173.521885662012
 31
0.0
  0
LINE
  5
7F03
330
815D
100
AcDbEntity
  8
4
100
AcDbLine
 10
5250.0
 20
7375.0
 30
0.0
 11
5250.0
 21
7375.0
 31
0.0
  0
LINE
  5
7F04
330
815D
100
AcDbEntity
  8
4
100
AcDbLine
 10
3601.543555899662
 20
6703.158957813504
 30
0.0
 11
3601.543555899662
 21
6966.630653874381
 31
0.0
  0
LINE
  5
7F05
330
815D
100
AcDbEntity
  8
4
100
AcDbLine
 10
3601.543555899662
 20
6966.630653874381
 30
0.0
 11
4625.0
 21
6966.630653874381
 31
0.0
  0
LINE
  5
7F06
330
815D
100
AcDbEntity
  8
4
100
AcDbLine
 10
4625.0
 20
6966.630653874381
 30
0.0
 11
4625.0
 21
6703.158957813504
 31
0.0
  0
LINE
  5
7F07
330
815D
100
AcDbEntity
  8
4
100
AcDbLine
 10
4625.0
 20
6703.158957813504
 30
0.0
 11
3601.543555899662
 21
6703.158957813504
 31
0.0
  0
LINE
  5
7F08
330
815D
100
AcDbEntity
  8
4
100
AcDbLine
 10
0.0
 20
0.0
 30
0.0
 11
0.0
 21
7375.0
 31
0.0
  0
LINE
  5
7F09
330
815D
100
AcDbEntity
  8
4
100
AcDbLine
 10
0.0
 20
7375.0
 30
0.0
 11
5250.0
 21
7375.0
 31
0.0
  0
LINE
  5
7F0A
330
815D
100
AcDbEntity
  8
4
100
AcDbLine
 10
5250.0
 20
7375.0
 30
0.0
 11
5250.0
 21
0.0
 31
0.0
  0
LINE
  5
7F0B
330
815D
100
AcDbEntity
  8
4
100
AcDbLine
 10
5250.0
 20
0.0
 30
0.0
 11
0.0
 21
0.0
 31
0.0
  0
ARC
  5
81C1
330
815D
100
AcDbEntity
  8
FUTO
100
AcDbCircle
 10
1592.962242941992
 20
2464.298180525843
 30
0.0
 40
510.5
100
AcDbArc
 50
180.0
 51
240.0885665287069
  0
LINE
  5
81C2
330
815D
100
AcDbEntity
  8
FUTO
100
AcDbLine
 10
1000.462242941992
 20
3359.798180525843
 30
0.0
 11
1545.462242941992
 21
3303.426326313322
 31
0.0
  0
ARC
  5
81C3
330
815D
100
AcDbEntity
  8
FUTO
100
AcDbCircle
 10
1604.462242941992
 20
2570.798180525843
 30
0.0
 40
617.0
100
AcDbArc
 50
297.1532172619914
 51
0.0
  0
ARC
  5
81C4
330
815D
100
AcDbEntity
  8
FUTO
100
AcDbCircle
 10
1486.462242941992
 20
2570.798180525843
 30
0.0
 40
735.0
100
AcDbArc
 50
0.0
 51
85.39579327349866
  0
ARC
  5
81C5
330
815D
100
AcDbEntity
  8
FUTO
100
AcDbCircle
 10
1514.962242941992
 20
2481.298180525843
 30
0.0
 40
432.5
100
AcDbArc
 50
172.8943447527032
 51
180.0
  0
LINE
  5
81C6
330
815D
100
AcDbEntity
  8
FUTO
100
AcDbLine
 10
1085.783958309602
 20
2534.798180525843
 30
0.0
 11
1000.462242941992
 21
2534.798180525843
 31
0.0
  0
LINE
  5
81C7
330
815D
100
AcDbEntity
  8
FUTO
100
AcDbLine
 10
1082.462242941992
 20
2464.298180525843
 30
0.0
 11
1082.462242941992
 21
2481.298180525843
 31
0.0
  0
LINE
  5
81C8
330
815D
100
AcDbEntity
  8
1
100
AcDbLine
 10
1000.462242941992
 20
3402.298180525843
 30
0.0
 11
1000.462242941994
 21
2492.298180525843
 31
0.0
  0
LINE
  5
81C9
330
815D
100
AcDbEntity
  8
1
100
AcDbLine
 10
1000.462242941992
 20
3402.298180525843
 30
0.0
 11
1003.462242941992
 21
3402.298180525843
 31
0.0
  0
LINE
  5
81CA
330
815D
100
AcDbEntity
  8
1
100
AcDbLine
 10
1000.462242941994
 20
2492.298180525843
 30
0.0
 11
1003.462242941994
 21
2492.298180525843
 31
0.0
  0
LINE
  5
81CB
330
815D
100
AcDbEntity
  8
1
100
AcDbLine
 10
1040.462242941992
 20
3356.39708575542
 30
0.0
 11
1040.462242941994
 21
2534.798180525843
 31
0.0
  0
LINE
  5
81CC
330
815D
100
AcDbEntity
  8
1
100
AcDbLine
 10
1003.462242941992
 20
3402.298180525843
 30
0.0
 11
1003.462242941994
 21
2492.298180525843
 31
0.0
  0
POINT
  5
81CD
330
815D
100
AcDbEntity
  8
1
100
AcDbPoint
 10
980.24433227297
 20
2511.798180525843
 30
0.0
  0
POINT
  5
81CE
330
815D
100
AcDbEntity
  8
1
100
AcDbPoint
 10
980.24433227297
 20
2511.798180525843
 30
0.0
  0
DIMENSION
  5
8228
330
815D
100
AcDbEntity
  8
3
100
AcDbDimension
  2
*D29
 10
4280.255065109371
 20
3675.055597123374
 30
0.0
 11
3830.255065109371
 21
3757.198454266231
 31
0.0
 70
    32
  1
(<>)
 71
     5
 42
900.0
  3
IGA
100
AcDbAlignedDimension
 13
3380.255065109371
 23
2731.798180525843
 33
0.0
 14
4280.255065109371
 24
3599.601087545458
 34
0.0
100
AcDbRotatedDimension
1001
ACAD
1000
DSTYLE
1002
{
1070
    40
1040
25.0
1070
    42
1040
1.0
1070
   143
1040
0.039
1070
   172
1070
     1
1070
   271
1070
     4
1070
   272
1070
     4
1070
   279
1070
     0
1070
   284
1070
     0
1070
   285
1070
     0
1070
   286
1070
     0
1070
   341
1005
8171
1070
   343
1005
8171
1070
   344
1005
8171
1002
}
  0
DIMENSION
  5
8235
330
815D
100
AcDbEntity
  8
3
100
AcDbDimension
  2
*D30
 10
4890.255065109373
 20
3675.055597123374
 30
0.0
 11
4585.255065109371
 21
3757.198454266231
 31
0.0
 70
    32
  1
(<>)
 71
     5
 42
610.0000000000027
  3
IGA
100
AcDbAlignedDimension
 13
4280.255065109371
 23
3599.601087545458
 33
0.0
 14
4890.255065109373
 24
2472.298180525843
 34
0.0
100
AcDbRotatedDimension
1001
ACAD
1000
DSTYLE
1002
{
1070
    40
1040
25.0
1070
    42
1040
1.0
1070
   143
1040
0.039
1070
   172
1070
     1
1070
   271
1070
     4
1070
   272
1070
     4
1070
   279
1070
     1
1070
   284
1070
     0
1070
   285
1070
     0
1070
   286
1070
     0
1070
   341
1005
8171
1070
   343
1005
8171
1070
   344
1005
8171
1002
}
  0
DIMENSION
  5
828D
330
815D
100
AcDbEntity
  8
3
100
AcDbDimension
  2
*D31
 10
2795.462242941992
 20
3892.394799587532
 30
0.0
 11
1920.462242941992
 21
3954.894799587532
 31
0.0
 70
    32
 71
     5
 42
1750.0
  3
IGA
100
AcDbAlignedDimension
 13
1045.462242941992
 23
4249.291137356863
 33
0.0
 14
2795.462242941992
 24
4249.291137356863
 34
0.0
100
AcDbRotatedDimension
1001
ACAD
1000
DSTYLE
1002
{
1070
    40
1040
25.0
1070
    42
1040
1.0
1070
   143
1040
0.039
1070
   172
1070
     1
1070
   271
1070
     4
1070
   272
1070
     4
1070
   279
1070
     0
1070
   284
1070
     0
1070
   285
1070
     0
1070
   286
1070
     0
1070
   341
1005
8171
1070
   343
1005
8171
1070
   344
1005
8171
1002
}
  0
DIMENSION
  5
829A
330
815D
100
AcDbEntity
  8
3
100
AcDbDimension
  2
*D32
 10
2795.462242941992
 20
5655.414420907815
 30
0.0
 11
2420.462242941992
 21
5717.914420907815
 31
0.0
 70
    32
 71
     5
 42
750.0000000000004
  3
IGA
100
AcDbAlignedDimension
 13
2045.462242941992
 23
5504.291137356862
 33
0.0
 14
2795.462242941992
 24
4999.291137356863
 34
0.0
100
AcDbRotatedDimension
1001
ACAD
1000
DSTYLE
1002
{
1070
    40
1040
25.0
1070
    42
1040
1.0
1070
   143
1040
0.039
1070
   172
1070
     1
1070
   271
1070
     4
1070
   272
1070
     4
1070
   279
1070
     0
1070
   284
1070
     0
1070
   285
1070
     0
1070
   286
1070
     0
1070
   341
1005
8171
1070
   343
1005
8171
1070
   344
1005
8171
1002
}
  0
DIMENSION
  5
8309
330
815D
100
AcDbEntity
  8
3
100
AcDbDimension
  2
*D40
 10
4280.255065109371
 20
1581.289946242985
 30
0.0
 11
3929.255065109371
 21
1643.789946242985
 31
0.0
 70
    32
 71
     5
 42
702.0000000000009
  3
IGA
100
AcDbAlignedDimension
 13
3578.255065109371
 23
1741.798180525844
 33
0.0
 14
4280.255065109371
 24
1741.798180525844
 34
0.0
100
AcDbRotatedDimension
1001
ACAD
1000
DSTYLE
1002
{
1070
    40
1040
25.0
1070
    42
1040
1.0
1070
   143
1040
0.039
1070
   172
1070
     1
1070
   271
1070
     4
1070
   272
1070
     4
1070
   279
1070
     0
1070
   284
1070
     0
1070
   285
1070
     0
1070
   286
1070
     0
1070
   341
1005
8171
1070
   343
1005
8171
1070
   344
1005
8171
1002
}
  0
DIMENSION
  5
8316
330
815D
100
AcDbEntity
  8
3
100
AcDbDimension
  2
*D41
 10
4833.255065109372
 20
1581.289946242985
 30
0.0
 11
4556.755065109372
 21
1643.789946242985
 31
0.0
 70
    32
 71
     5
 42
553.0
  3
IGA
100
AcDbAlignedDimension
 13
4280.255065109371
 23
1741.798180525844
 33
0.0
 14
4833.255065109372
 24
1741.798180525844
 34
0.0
100
AcDbRotatedDimension
1001
ACAD
1000
DSTYLE
1002
{
1070
    40
1040
25.0
1070
    42
1040
1.0
1070
   143
1040
0.039
1070
   172
1070
     1
1070
   271
1070
     4
1070
   272
1070
     4
1070
   279
1070
     1
1070
   284
1070
     0
1070
   285
1070
     0
1070
   286
1070
     0
1070
   341
1005
8171
1070
   343
1005
8171
1070
   344
1005
8171
1002
}
  0
DIMENSION
  5
8323
330
815D
100
AcDbEntity
  8
3
100
AcDbDimension
  2
*D42
 10
1545.462242941992
 20
1576.511327358879
 30
0.0
 11
1295.462242941992
 21
1639.011327358879
 31
0.0
 70
    32
 71
     5
 42
499.9999999999998
  3
IGA
100
AcDbAlignedDimension
 13
1045.462242941992
 23
1741.798180525844
 33
0.0
 14
1545.462242941992
 24
1741.798180525844
 34
0.0
100
AcDbRotatedDimension
1001
ACAD
1000
DSTYLE
1002
{
1070
    40
1040
25.0
1070
    42
1040
1.0
1070
   143
1040
0.039
1070
   172
1070
     1
1070
   271
1070
     4
1070
   272
1070
     4
1070
   279
1070
     0
1070
   284
1070
     0
1070
   285
1070
     0
1070
   286
1070
     0
1070
   341
1005
8171
1070
   343
1005
8171
1070
   344
1005
8171
1002
}
  0
DIMENSION
  5
8330
330
815D
100
AcDbEntity
  8
3
100
AcDbDimension
  2
*D43
 10
2795.462242941992
 20
1576.511327358879
 30
0.0
 11
2170.462242941992
 21
1639.011327358879
 31
0.0
 70
    32
 71
     5
 42
1250.0
  3
IGA
100
AcDbAlignedDimension
 13
1545.462242941992
 23
1741.798180525844
 33
0.0
 14
2795.462242941992
 24
1741.798180525844
 34
0.0
100
AcDbRotatedDimension
1001
ACAD
1000
DSTYLE
1002
{
1070
    40
1040
25.0
1070
    42
1040
1.0
1070
   143
1040
0.039
1070
   172
1070
     1
1070
   271
1070
     4
1070
   272
1070
     4
1070
   279
1070
     1
1070
   284
1070
     0
1070
   285
1070
     0
1070
   286
1070
     0
1070
   341
1005
8171
1070
   343
1005
8171
1070
   344
1005
8171
1002
}
  0
DIMENSION
  5
833D
330
815D
100
AcDbEntity
  8
3
100
AcDbDimension
  2
*D44
 10
396.6249793783719
 20
3359.798180525845
 30
0.0
 11
314.4821222355142
 21
2550.798180525844
 31
0.0
 70
    32
  1
(<>)
 71
     5
 42
1618.0
  3
IGA
100
AcDbAlignedDimension
 13
1045.462242941992
 23
1741.798180525844
 33
0.0
 14
1000.462242941992
 24
3359.798180525845
 34
0.0
 50
90.0
100
AcDbRotatedDimension
1001
ACAD
1000
DSTYLE
1002
{
1070
    40
1040
25.0
1070
    42
1040
1.0
1070
   143
1040
0.039
1070
   172
1070
     1
1070
   271
1070
     4
1070
   272
1070
     4
1070
   279
1070
     0
1070
   284
1070
     0
1070
   285
1070
     0
1070
   286
1070
     0
1070
   341
1005
8171
1070
   343
1005
8171
1070
   344
1005
8171
1002
}
  0
DIMENSION
  5
835C
330
815D
100
AcDbEntity
  8
3
100
AcDbDimension
  2
*D45
 10
2221.462242941992
 20
3514.117361428643
 30
0.0
 11
1883.462242941992
 21
3576.617361428643
 31
0.0
 70
    32
 71
     5
 42
676.0
  3
IGA
100
AcDbAlignedDimension
 13
1545.462242941992
 23
3370.481513153087
 33
0.0
 14
2221.462242941992
 24
2570.798180525843
 34
0.0
100
AcDbRotatedDimension
1001
ACAD
1000
DSTYLE
1002
{
1070
    40
1040
25.0
1070
    42
1040
1.0
1070
   143
1040
0.039
1070
   172
1070
     1
1070
   271
1070
     4
1070
   272
1070
     4
1070
   279
1070
     0
1070
   284
1070
     0
1070
   285
1070
     0
1070
   286
1070
     0
1070
   341
1005
8171
1070
   343
1005
8171
1070
   344
1005
8171
1002
}
  0
DIMENSION
  5
8372
330
815D
100
AcDbEntity
  8
3
100
AcDbDimension
  2
*D46
 10
699.8334968261261
 20
1921.798180525843
 30
0.0
 11
637.3334968261257
 21
2216.798180525843
 31
0.0
 70
    32
 71
     5
 42
589.9999999999995
  3
IGA
100
AcDbAlignedDimension
 13
878.9904510916022
 23
2511.798180525843
 33
0.0
 14
1045.462242941992
 24
1921.798180525843
 34
0.0
 50
90.0
100
AcDbRotatedDimension
1001
ACAD
1000
DSTYLE
1002
{
1070
    40
1040
25.0
1070
    42
1040
1.0
1070
   143
1040
0.039
1070
   172
1070
     1
1070
   271
1070
     4
1070
   272
1070
     4
1070
   279
1070
     0
1070
   284
1070
     0
1070
   285
1070
     0
1070
   286
1070
     0
1070
   341
1005
8171
1070
   343
1005
8171
1070
   344
1005
8171
1002
}
  0
DIMENSION
  5
837F
330
815D
100
AcDbEntity
  8
3
100
AcDbDimension
  2
*D47
 10
699.8334968261261
 20
1841.798180525844
 30
0.0
 11
498.0477825404115
 21
1942.691037668701
 31
0.0
 70
    32
  1
(<>)
 71
     5
 42
79.99999999999886
  3
IGA
100
AcDbAlignedDimension
 13
1045.462242941992
 23
1921.798180525843
 33
0.0
 14
1045.462242941992
 24
1841.798180525844
 34
0.0
 50
90.0
100
AcDbRotatedDimension
1001
ACAD
1000
DSTYLE
1002
{
1070
    40
1040
25.0
1070
    42
1040
1.0
1070
   143
1040
0.039
1070
   172
1070
     1
1070
   271
1070
     4
1070
   272
1070
     4
1070
   279
1070
     1
1070
   284
1070
     0
1070
   285
1070
     0
1070
   286
1070
     0
1070
   341
1005
8171
1070
   343
1005
8171
1070
   344
1005
844D
1002
}
  0
DIMENSION
  5
8391
330
815D
100
AcDbEntity
  8
3
100
AcDbDimension
  2
*D48
 10
699.8334968261261
 20
1741.798180525844
 30
0.0
 11
666.4941898645992
 21
1620.946930025635
 31
0.0
 70
   160
 71
     5
 42
100.0
  3
IGA
100
AcDbAlignedDimension
 13
1045.462242941992
 23
1841.798180525844
 33
0.0
 14
1045.462242941992
 24
1741.798180525844
 34
0.0
 50
90.0
100
AcDbRotatedDimension
1001
ACAD
1000
DSTYLE
1002
{
1070
    40
1040
25.0
1070
    42
1040
1.0
1070
   143
1040
0.039
1070
   172
1070
     1
1070
   271
1070
     4
1070
   272
1070
     4
1070
   279
1070
     1
1070
   284
1070
     0
1070
   285
1070
     0
1070
   286
1070
     0
1070
   341
1005
8171
1070
   343
1005
844D
1070
   344
1005
8171
1002
}
  0
ENDSEC
  0
SECTION
  2
OBJECTS
  0
DICTIONARY
  5
80FA
330
0
100
AcDbDictionary
281
     1
  3
ACAD_CIP_PREVIOUS_PRODUCT_INFO
350
81A5
  3
ACAD_COLOR
350
8150
  3
ACAD_DETAILVIEWSTYLE
350
8157
  3
ACAD_GROUP
350
80FB
  3
ACAD_LAYOUT
350
814F
  3
ACAD_MATERIAL
350
80FE
  3
ACAD_MLEADERSTYLE
350
8153
  3
ACAD_MLINESTYLE
350
814C
  3
ACAD_PLOTSETTINGS
350
814E
  3
ACAD_PLOTSTYLENAME
350
80FC
  3
ACAD_SCALELIST
350
8130
  3
ACAD_SECTIONVIEWSTYLE
350
8155
  3
ACAD_TABLESTYLE
350
8151
  3
ACAD_VISUALSTYLE
350
8117
  3
ACDB_RECOMPOSE_DATA
350
84B6
  3
AcDbVariableDictionary
350
81DA
  3
DWGPROPS
350
84B7
  0
DICTIONARY
  5
81A9
330
80F0
100
AcDbDictionary
280
     1
281
     1
  3
ACAD_LAYERSTATES
360
81AA
  0
DICTIONARY
  5
81CF
330
8142
100
AcDbDictionary
280
     1
281
     1
  3
ADSK_XREC_LAYER_RECONCILED
360
81D0
  0
DICTIONARY
  5
81D1
330
8161
100
AcDbDictionary
280
     1
281
     1
  3
ADSK_XREC_LAYER_RECONCILED
360
81D2
  0
DICTIONARY
  5
81D3
330
8164
100
AcDbDictionary
280
     1
281
     1
  3
ADSK_XREC_LAYER_RECONCILED
360
81D4
  0
DICTIONARY
  5
81D5
330
8165
100
AcDbDictionary
280
     1
281
     1
  3
ADSK_XREC_LAYER_RECONCILED
360
81D6
  0
DICTIONARY
  5
81D7
330
8166
100
AcDbDictionary
280
     1
281
     1
  3
ADSK_XREC_LAYER_RECONCILED
360
81D8
  0
DICTIONARY
  5
81A7
330
81A6
100
AcDbDictionary
280
     1
281
     1
  3
ADSK_XREC_LAYER_RECONCILED
360
81D9
  0
XRECORD
  5
81A5
102
{ACAD_REACTORS
330
80FA
102
}
330
80FA
100
AcDbXrecord
280
     1
300
ACDLT
300
2015
300
INVLTS_F_S
  0
DICTIONARY
  5
8150
102
{ACAD_REACTORS
330
80FA
102
}
330
80FA
100
AcDbDictionary
281
     1
  0
DICTIONARY
  5
8157
102
{ACAD_REACTORS
330
80FA
102
}
330
80FA
100
AcDbDictionary
281
     1
  3
Imperial24
350
8158
  0
DICTIONARY
  5
80FB
102
{ACAD_REACTORS
330
80FA
102
}
330
80FA
100
AcDbDictionary
281
     1
  0
DICTIONARY
  5
814F
102
{ACAD_REACTORS
330
80FA
102
}
330
80FA
100
AcDbDictionary
281
     1
  3
Model
350
8160
  3
レイアウト1
350
815C
  0
DICTIONARY
  5
80FE
102
{ACAD_REACTORS
330
80FA
102
}
330
80FA
100
AcDbDictionary
281
     1
  3
ByBlock
350
8107
  3
ByLayer
350
80FF
  3
Global
350
810F
  0
DICTIONARY
  5
8153
102
{ACAD_REACTORS
330
80FA
102
}
330
80FA
100
AcDbDictionary
281
     1
  3
Standard
350
8154
  0
DICTIONARY
  5
814C
102
{ACAD_REACTORS
330
80FA
102
}
330
80FA
100
AcDbDictionary
281
     1
  3
Standard
350
814D
  0
DICTIONARY
  5
814E
102
{ACAD_REACTORS
330
80FA
102
}
330
80FA
100
AcDbDictionary
281
     1
  0
ACDBDICTIONARYWDFLT
  5
80FC
102
{ACAD_REACTORS
330
80FA
102
}
330
80FA
100
AcDbDictionary
281
     1
  3
Normal
350
80FD
100
AcDbDictionaryWithDefault
340
80FD
  0
DICTIONARY
  5
8130
102
{ACAD_REACTORS
330
80FA
102
}
330
80FA
100
AcDbDictionary
281
     1
  3
A0
350
8131
  3
A1
350
8132
  3
A2
350
8133
  3
A3
350
8134
  3
A4
350
8135
  3
A5
350
8136
  3
A6
350
8137
  3
A7
350
8138
  3
A8
350
8139
  3
A9
350
813A
  3
B0
350
813B
  3
B1
350
813C
  3
B2
350
813D
  3
B3
350
813E
  3
B4
350
813F
  3
B5
350
8140
  3
B6
350
8141
  0
DICTIONARY
  5
8155
102
{ACAD_REACTORS
330
80FA
102
}
330
80FA
100
AcDbDictionary
281
     1
  3
Imperial24
350
8156
  0
DICTIONARY
  5
8151
102
{ACAD_REACTORS
330
80FA
102
}
330
80FA
100
AcDbDictionary
281
     1
  3
Standard
350
8152
  0
DICTIONARY
  5
8117
102
{ACAD_REACTORS
330
80FA
102
}
330
80FA
100
AcDbDictionary
281
     1
  3
2dWireframe
350
811D
  3
Basic
350
811C
  3
Brighten
350
8123
  3
ColorChange
350
8127
  3
Conceptual
350
8120
  3
Dim
350
8122
  3
EdgeColorOff
350
812F
  3
Facepattern
350
8126
  3
Flat
350
8118
  3
FlatWithEdges
350
8119
  3
Gouraud
350
811A
  3
GouraudWithEdges
350
811B
  3
Hidden
350
811F
  3
JitterOff
350
812D
  3
Linepattern
350
8125
  3
OverhangOff
350
812E
  3
Realistic
350
8121
  3
Shaded
350
812C
  3
Shaded with edges
350
812B
  3
Shades of Gray
350
8128
  3
Sketchy
350
8129
  3
Thicken
350
8124
  3
Wireframe
350
811E
  3
X-Ray
350
812A
  0
XRECORD
  5
84B6
102
{ACAD_REACTORS
330
80FA
102
}
330
80FA
100
AcDbXrecord
280
     1
 90
        1
330
8152
  0
DICTIONARY
  5
81DA
102
{ACAD_REACTORS
330
80FA
102
}
330
80FA
100
AcDbDictionary
281
     1
  3
CANNOSCALE
350
81DF
  3
CMLEADERSTYLE
350
81DC
  3
CTABLESTYLE
350
81DB
  3
CVIEWDETAILSTYLE
350
81DD
  3
CVIEWSECTIONSTYLE
350
81DE
  3
DIMASSOC
350
81E2
  3
INDEXCTL
350
81E1
  3
SORTENTS
350
81E0
  3
XCLIPFRAME
350
81E3
  0
XRECORD
  5
84B7
102
{ACAD_REACTORS
330
80FA
102
}
330
80FA
100
AcDbXrecord
280
     1
  1
DWGPROPS COOKIE
  2

  3

  4

  6

  7

  8
yasukiyo.ogawa
  9

300
=
301
=
302
=
303
=
304
=
305
=
306
=
307
=
308
=
309
=
 40
0.0152578356481482
 41
2451389.45581794
 42
2460265.70904993
  1

 90
        0
  0
DICTIONARY
  5
81AA
102
{ACAD_REACTORS
330
81A9
102
}
330
81A9
100
AcDbDictionary
281
     1
  0
XRECORD
  5
81D0
102
{ACAD_REACTORS
330
81CF
102
}
330
81CF
100
AcDbXrecord
280
     1
290
     1
  0
XRECORD
  5
81D2
102
{ACAD_REACTORS
330
81D1
102
}
330
81D1
100
AcDbXrecord
280
     1
290
     1
  0
XRECORD
  5
81D4
102
{ACAD_REACTORS
330
81D3
102
}
330
81D3
100
AcDbXrecord
280
     1
290
     1
  0
XRECORD
  5
81D6
102
{ACAD_REACTORS
330
81D5
102
}
330
81D5
100
AcDbXrecord
280
     1
290
     1
  0
XRECORD
  5
81D8
102
{ACAD_REACTORS
330
81D7
102
}
330
81D7
100
AcDbXrecord
280
     1
290
     1
  0
XRECORD
  5
81D9
102
{ACAD_REACTORS
330
81A7
102
}
330
81A7
100
AcDbXrecord
280
     1
290
     1
  0
ACDBDETAILVIEWSTYLE
  5
8158
102
{ACAD_XDICTIONARY
360
84EF
102
}
102
{ACAD_REACTORS
330
8157
102
}
330
8157
100
AcDbModelDocViewStyle
 70
     0
  3
Imperial24
290
     0
100
AcDbDetailViewStyle
 70
     0
 71
     0
 90
        3
 71
     1
340
8143
 40
0.24
340
0
 40
0.24
300

 40
0.36
280
     3
 71
     2
340
814A
 90
       25
 71
     3
340
8143
 40
0.24
 90
        1
 40
0.75
 90
        1
300
%<\AcVar ViewType \f "%tc1">% %<\AcVar ViewDetailId>%\PSCALE %<\AcVar ViewScale \f "%sn">%
 71
     4
340
814A
 90
       25
340
814A
 90
       25
280
     0
  0
LAYOUT
  5
8160
102
{ACAD_XDICTIONARY
360
84F3
102
}
102
{ACAD_REACTORS
330
814F
102
}
330
814F
100
AcDbPlotSettings
  1

  2
RICOH imagio MP W3600 RPCS
  4

  6

 40
0.0
 41
0.0
 42
0.0
 43
0.0
 44
0.0
 45
0.0
 46
0.0
 47
0.0
 48
0.0
 49
0.0
140
0.0
141
0.0
142
1.0
143
1.0
 70
  1712
 72
     0
 73
     0
 74
     0
  7

 75
     0
147
1.0
148
0.0
149
0.0
100
AcDbLayout
  1
Model
 70
     1
 71
     0
 10
0.0
 20
0.0
 11
12.0
 21
9.0
 12
0.0
 22
0.0
 32
0.0
 14
0.0
 24
0.0
 34
0.0
 15
0.0
 25
0.0
 35
0.0
146
0.0
 13
0.0
 23
0.0
 33
0.0
 16
1.0
 26
0.0
 36
0.0
 17
0.0
 27
1.0
 37
0.0
 76
     0
330
815D
331
8162
  0
LAYOUT
  5
815C
102
{ACAD_XDICTIONARY
360
84F1
102
}
102
{ACAD_REACTORS
330
814F
102
}
330
814F
100
AcDbPlotSettings
  1

  2
RICOH imagio MP W3600 RPCS
  4

  6

 40
0.0
 41
0.0
 42
0.0
 43
0.0
 44
0.0
 45
0.0
 46
0.0
 47
0.0
 48
0.0
 49
0.0
140
0.0
141
0.0
142
1.0
143
1.0
 70
   688
 72
     0
 73
     0
 74
     5
  7

 75
    16
147
1.0
148
0.0
149
0.0
100
AcDbLayout
  1
レイアウト1
 70
     1
 71
     1
 10
0.0
 20
0.0
 11
12.0
 21
9.0
 12
0.0
 22
0.0
 32
0.0
 14
1.000000000000000E+20
 24
1.000000000000000E+20
 34
1.000000000000000E+20
 15
-1.000000000000000E+20
 25
-1.000000000000000E+20
 35
-1.000000000000000E+20
146
0.0
 13
0.0
 23
0.0
 33
0.0
 16
1.0
 26
0.0
 36
0.0
 17
0.0
 27
1.0
 37
0.0
 76
     0
330
8159
  0
MATERIAL
  5
8107
102
{ACAD_XDICTIONARY
360
8108
102
}
102
{ACAD_REACTORS
330
80FE
102
}
330
80FE
100
AcDbMaterial
  1
ByBlock
 72
     0
 43
0.0208333333333333
 43
0.0
 43
0.0
 43
0.0
 43
0.0
 43
0.0208333333333333
 43
0.0
 43
0.0
 43
0.0
 43
0.0
 43
1.0
 43
0.0
 43
0.0
 43
0.0
 43
0.0
 43
1.0
 77
     0
 47
0.0208333333333333
 47
0.0
 47
0.0
 47
0.0
 47
0.0
 47
0.0208333333333333
 47
0.0
 47
0.0
 47
0.0
 47
0.0
 47
1.0
 47
0.0
 47
0.0
 47
0.0
 47
0.0
 47
1.0
171
     0
 49
0.0208333333333333
 49
0.0
 49
0.0
 49
0.0
 49
0.0
 49
0.0208333333333333
 49
0.0
 49
0.0
 49
0.0
 49
0.0
 49
1.0
 49
0.0
 49
0.0
 49
0.0
 49
0.0
 49
1.0
175
     0
142
0.0208333333333333
142
0.0
142
0.0
142
0.0
142
0.0
142
0.0208333333333333
142
0.0
142
0.0
142
0.0
142
0.0
142
1.0
142
0.0
142
0.0
142
0.0
142
0.0
142
1.0
179
     0
144
0.0208333333333333
144
0.0
144
0.0
144
0.0
144
0.0
144
0.0208333333333333
144
0.0
144
0.0
144
0.0
144
0.0
144
1.0
144
0.0
144
0.0
144
0.0
144
0.0
144
1.0
147
0.0208333333333333
147
0.0
147
0.0
147
0.0
147
0.0
147
0.0208333333333333
147
0.0
147
0.0
147
0.0
147
0.0
147
1.0
147
0.0
147
0.0
147
0.0
147
0.0
147
1.0
  0
MATERIAL
  5
80FF
102
{ACAD_XDICTIONARY
360
8100
102
}
102
{ACAD_REACTORS
330
80FE
102
}
330
80FE
100
AcDbMaterial
  1
ByLayer
 72
     0
 43
0.0208333333333333
 43
0.0
 43
0.0
 43
0.0
 43
0.0
 43
0.0208333333333333
 43
0.0
 43
0.0
 43
0.0
 43
0.0
 43
1.0
 43
0.0
 43
0.0
 43
0.0
 43
0.0
 43
1.0
 77
     0
 47
0.0208333333333333
 47
0.0
 47
0.0
 47
0.0
 47
0.0
 47
0.0208333333333333
 47
0.0
 47
0.0
 47
0.0
 47
0.0
 47
1.0
 47
0.0
 47
0.0
 47
0.0
 47
0.0
 47
1.0
171
     0
 49
0.0208333333333333
 49
0.0
 49
0.0
 49
0.0
 49
0.0
 49
0.0208333333333333
 49
0.0
 49
0.0
 49
0.0
 49
0.0
 49
1.0
 49
0.0
 49
0.0
 49
0.0
 49
0.0
 49
1.0
175
     0
142
0.0208333333333333
142
0.0
142
0.0
142
0.0
142
0.0
142
0.0208333333333333
142
0.0
142
0.0
142
0.0
142
0.0
142
1.0
142
0.0
142
0.0
142
0.0
142
0.0
142
1.0
179
     0
144
0.0208333333333333
144
0.0
144
0.0
144
0.0
144
0.0
144
0.0208333333333333
144
0.0
144
0.0
144
0.0
144
0.0
144
1.0
144
0.0
144
0.0
144
0.0
144
0.0
144
1.0
147
0.0208333333333333
147
0.0
147
0.0
147
0.0
147
0.0
147
0.0208333333333333
147
0.0
147
0.0
147
0.0
147
0.0
147
1.0
147
0.0
147
0.0
147
0.0
147
0.0
147
1.0
  0
MATERIAL
  5
810F
102
{ACAD_XDICTIONARY
360
8110
102
}
102
{ACAD_REACTORS
330
80FE
102
}
330
80FE
100
AcDbMaterial
  1
Global
 72
     0
 43
0.0208333333333333
 43
0.0
 43
0.0
 43
0.0
 43
0.0
 43
0.0208333333333333
 43
0.0
 43
0.0
 43
0.0
 43
0.0
 43
1.0
 43
0.0
 43
0.0
 43
0.0
 43
0.0
 43
1.0
 77
     0
 47
0.0208333333333333
 47
0.0
 47
0.0
 47
0.0
 47
0.0
 47
0.0208333333333333
 47
0.0
 47
0.0
 47
0.0
 47
0.0
 47
1.0
 47
0.0
 47
0.0
 47
0.0
 47
0.0
 47
1.0
171
     0
 49
0.0208333333333333
 49
0.0
 49
0.0
 49
0.0
 49
0.0
 49
0.0208333333333333
 49
0.0
 49
0.0
 49
0.0
 49
0.0
 49
1.0
 49
0.0
 49
0.0
 49
0.0
 49
0.0
 49
1.0
175
     0
142
0.0208333333333333
142
0.0
142
0.0
142
0.0
142
0.0
142
0.0208333333333333
142
0.0
142
0.0
142
0.0
142
0.0
142
1.0
142
0.0
142
0.0
142
0.0
142
0.0
142
1.0
179
     0
144
0.0208333333333333
144
0.0
144
0.0
144
0.0
144
0.0
144
0.0208333333333333
144
0.0
144
0.0
144
0.0
144
0.0
144
1.0
144
0.0
144
0.0
144
0.0
144
0.0
144
1.0
147
0.0208333333333333
147
0.0
147
0.0
147
0.0
147
0.0
147
0.0208333333333333
147
0.0
147
0.0
147
0.0
147
0.0
147
1.0
147
0.0
147
0.0
147
0.0
147
0.0
147
1.0
  0
MLEADERSTYLE
  5
8154
102
{ACAD_REACTORS
330
8153
102
}
330
8153
100
AcDbMLeaderStyle
170
     2
171
     1
172
     0
 90
        2
 40
0.0
 41
0.0
173
     1
 91
-1056964608
340
8148
 92
       -2
290
     1
 42
0.09
291
     1
 43
0.36
  3
Standard
 44
0.18
300

342
8143
174
     1
178
     6
175
     1
176
     0
 93
-1056964608
 45
0.18
292
     0
297
     0
 46
0.18
 94
-1056964608
 47
1.0
 49
1.0
140
1.0
293
     1
141
0.0
294
     1
177
     0
142
1.0
295
     0
296
     0
143
0.125
1001
ACAD_MLEADERVER
1070
     2
  0
MLINESTYLE
  5
814D
102
{ACAD_REACTORS
330
814C
102
}
330
814C
100
AcDbMlineStyle
  2
STANDARD
 70
     0
  3

 62
   256
 51
90.0
 52
90.0
 71
     2
 49
0.5
 62
   256
  6
BYLAYER
 49
-0.5
 62
   256
  6
BYLAYER
  0
ACDBPLACEHOLDER
  5
80FD
102
{ACAD_REACTORS
330
80FC
102
}
330
80FC
  0
SCALE
  5
8131
102
{ACAD_REACTORS
330
8130
102
}
330
8130
100
AcDbScale
 70
     0
300
1:1
140
1.0
141
1.0
290
     1
  0
SCALE
  5
8132
102
{ACAD_REACTORS
330
8130
102
}
330
8130
100
AcDbScale
 70
     0
300
1/128" = 1'-0"
140
0.0078125
141
12.0
290
     0
  0
SCALE
  5
8133
102
{ACAD_REACTORS
330
8130
102
}
330
8130
100
AcDbScale
 70
     0
300
1/64" = 1'-0"
140
0.015625
141
12.0
290
     0
  0
SCALE
  5
8134
102
{ACAD_REACTORS
330
8130
102
}
330
8130
100
AcDbScale
 70
     0
300
1/32" = 1'-0"
140
0.03125
141
12.0
290
     0
  0
SCALE
  5
8135
102
{ACAD_REACTORS
330
8130
102
}
330
8130
100
AcDbScale
 70
     0
300
1/16" = 1'-0"
140
0.0625
141
12.0
290
     0
  0
SCALE
  5
8136
102
{ACAD_REACTORS
330
8130
102
}
330
8130
100
AcDbScale
 70
     0
300
3/32" = 1'-0"
140
0.09375
141
12.0
290
     0
  0
SCALE
  5
8137
102
{ACAD_REACTORS
330
8130
102
}
330
8130
100
AcDbScale
 70
     0
300
1/8" = 1'-0"
140
0.125
141
12.0
290
     0
  0
SCALE
  5
8138
102
{ACAD_REACTORS
330
8130
102
}
330
8130
100
AcDbScale
 70
     0
300
3/16" = 1'-0"
140
0.1875
141
12.0
290
     0
  0
SCALE
  5
8139
102
{ACAD_REACTORS
330
8130
102
}
330
8130
100
AcDbScale
 70
     0
300
1/4" = 1'-0"
140
0.25
141
12.0
290
     0
  0
SCALE
  5
813A
102
{ACAD_REACTORS
330
8130
102
}
330
8130
100
AcDbScale
 70
     0
300
3/8" = 1'-0"
140
0.375
141
12.0
290
     0
  0
SCALE
  5
813B
102
{ACAD_REACTORS
330
8130
102
}
330
8130
100
AcDbScale
 70
     0
300
1/2" = 1'-0"
140
0.5
141
12.0
290
     0
  0
SCALE
  5
813C
102
{ACAD_REACTORS
330
8130
102
}
330
8130
100
AcDbScale
 70
     0
300
3/4" = 1'-0"
140
0.75
141
12.0
290
     0
  0
SCALE
  5
813D
102
{ACAD_REACTORS
330
8130
102
}
330
8130
100
AcDbScale
 70
     0
300
1" = 1'-0"
140
1.0
141
12.0
290
     0
  0
SCALE
  5
813E
102
{ACAD_REACTORS
330
8130
102
}
330
8130
100
AcDbScale
 70
     0
300
1-1/2" = 1'-0"
140
1.5
141
12.0
290
     0
  0
SCALE
  5
813F
102
{ACAD_REACTORS
330
8130
102
}
330
8130
100
AcDbScale
 70
     0
300
3" = 1'-0"
140
3.0
141
12.0
290
     0
  0
SCALE
  5
8140
102
{ACAD_REACTORS
330
8130
102
}
330
8130
100
AcDbScale
 70
     0
300
6" = 1'-0"
140
6.0
141
12.0
290
     0
  0
SCALE
  5
8141
102
{ACAD_REACTORS
330
8130
102
}
330
8130
100
AcDbScale
 70
     0
300
1'-0" = 1'-0"
140
12.0
141
12.0
290
     0
  0
ACDBSECTIONVIEWSTYLE
  5
8156
102
{ACAD_XDICTIONARY
360
84ED
102
}
102
{ACAD_REACTORS
330
8155
102
}
330
8155
100
AcDbModelDocViewStyle
 70
     0
  3
Imperial24
290
     0
100
AcDbSectionViewStyle
 70
     0
 71
     0
 90
       78
 71
     1
340
8143
 40
0.24
340
0
340
0
 40
0.24
300
I, O, Q, S, X, Z
 40
0.48
 90
        3
 40
0.18
 90
        1
 71
     2
340
814A
 90
       25
340
814A
 90
       50
 40
0.24
 40
0.0
 40
0.24
 71
     3
340
8143
 40
0.24
 90
        1
 40
0.75
 90
        1
300
%<\AcVar ViewType \f "%tc1">% %<\AcVar ViewSectionStartId>%-%<\AcVar ViewSectionEndId>%\PSCALE %<\AcVar ViewScale \f "%sn">%
 71
     4
300
ANSI31
 40
1.0
 90
        0
290
     0
290
     0
 90
        6
 40
0.0
 40
1.570796326794896
 40
0.2617993877991494
 40
1.308996938995747
 40
-0.2617993877991494
 40
1.832595714594046
  0
TABLESTYLE
  5
8152
102
{ACAD_XDICTIONARY
360
84B4
102
}
102
{ACAD_REACTORS
330
8151
102
}
330
8151
100
AcDbTableStyle
  3
Standard
 70
     0
 71
     0
 40
0.06
 41
0.06
280
     0
281
     0
  7
STANDARD
140
0.18
170
     2
 62
     0
 63
     7
283
     0
274
    -2
284
     1
 64
     0
275
    -2
285
     1
 65
     0
276
    -2
286
     1
 66
     0
277
    -2
287
     1
 67
     0
278
    -2
288
     1
 68
     0
279
    -2
289
     1
 69
     0
  7
STANDARD
140
0.25
170
     5
 62
     0
 63
     7
283
     0
274
    -2
284
     1
 64
     0
275
    -2
285
     1
 65
     0
276
    -2
286
     1
 66
     0
277
    -2
287
     1
 67
     0
278
    -2
288
     1
 68
     0
279
    -2
289
     1
 69
     0
  7
STANDARD
140
0.18
170
     5
 62
     0
 63
     7
283
     0
274
    -2
284
     1
 64
     0
275
    -2
285
     1
 65
     0
276
    -2
286
     1
 66
     0
277
    -2
287
     1
 67
     0
278
    -2
288
     1
 68
     0
279
    -2
289
     1
 69
     0
  0
VISUALSTYLE
  5
811D
102
{ACAD_XDICTIONARY
360
84C5
102
}
102
{ACAD_REACTORS
330
8117
102
}
330
8117
100
AcDbVisualStyle
  2
2dWireframe
 70
     4
 71
     0
 72
     2
 73
     0
 90
        0
 40
-0.6
 41
-30.0
 62
     5
 63
     7
 74
     1
 91
        4
 64
     7
 65
   257
 75
     1
175
     1
 42
1.0
 92
        0
 66
   257
 43
1.0
 76
     1
 77
     6
 78
     2
 67
     7
 79
     5
170
     0
171
     0
290
     0
174
     0
 93
        1
 44
0.0
173
     0
291
     0
 45
0.0
1001
ACAD
1000
AcDbSavedByObjectVersion
1070
     0
  0
VISUALSTYLE
  5
811C
102
{ACAD_XDICTIONARY
360
84C3
102
}
102
{ACAD_REACTORS
330
8117
102
}
330
8117
100
AcDbVisualStyle
  2
Basic
 70
     7
 71
     1
 72
     0
 73
     1
 90
        0
 40
-0.6
 41
-30.0
 62
     5
 63
     7
 74
     0
 91
        4
 64
     7
 65
   257
 75
     1
175
     1
 42
1.0
 92
        8
 66
     7
 43
1.0
 76
     1
 77
     6
 78
     2
 67
     7
 79
     5
170
     0
171
     0
290
     0
174
     0
 93
        1
 44
0.0
173
     0
291
     1
 45
0.0
1001
ACAD
1000
AcDbSavedByObjectVersion
1070
     0
  0
VISUALSTYLE
  5
8123
102
{ACAD_XDICTIONARY
360
84D1
102
}
102
{ACAD_REACTORS
330
8117
102
}
330
8117
100
AcDbVisualStyle
  2
Brighten
 70
    12
 71
     2
 72
     2
 73
     0
 90
        0
 40
-0.6
 41
-30.0
 62
     5
 63
     7
 74
     1
 91
        4
 64
     7
 65
   257
 75
     1
175
     1
 42
1.0
 92
        8
 66
     7
 43
1.0
 76
     1
 77
     6
 78
     2
 67
     7
 79
     5
170
     0
171
     0
290
     0
174
     0
 93
        1
 44
50.0
173
     0
291
     1
 45
0.0
1001
ACAD
1000
AcDbSavedByObjectVersion
1070
     0
  0
VISUALSTYLE
  5
8127
102
{ACAD_XDICTIONARY
360
84D9
102
}
102
{ACAD_REACTORS
330
8117
102
}
330
8117
100
AcDbVisualStyle
  2
ColorChange
 70
    16
 71
     2
 72
     2
 73
     3
 90
        0
 40
-0.6
 41
-30.0
 62
     5
 63
     8
 74
     1
 91
        4
 64
     7
 65
   257
 75
     1
175
     1
 42
1.0
 92
        8
 66
     8
 43
1.0
 76
     1
 77
     6
 78
     2
 67
     7
 79
     5
170
     0
171
     0
290
     0
174
     0
 93
        1
 44
0.0
173
     0
291
     1
 45
0.0
1001
ACAD
1000
AcDbSavedByObjectVersion
1070
     0
  0
VISUALSTYLE
  5
8120
102
{ACAD_XDICTIONARY
360
84CB
102
}
102
{ACAD_REACTORS
330
8117
102
}
330
8117
100
AcDbVisualStyle
  2
Conceptual
 70
     9
 71
     3
 72
     2
 73
     0
 90
        0
 40
-0.6
 41
-30.0
 62
     5
 63
     7
 74
     2
 91
        2
 64
     7
 65
   257
 75
     1
175
     1
 42
179.0
 92
        8
 66
     7
 43
1.0
 76
     1
 77
     6
 78
     2
 67
     7
 79
     3
170
     0
171
     0
290
     0
174
     0
 93
        1
 44
0.0
173
     0
291
     0
 45
0.0
1001
ACAD
1000
AcDbSavedByObjectVersion
1070
     0
  0
VISUALSTYLE
  5
8122
102
{ACAD_XDICTIONARY
360
84CF
102
}
102
{ACAD_REACTORS
330
8117
102
}
330
8117
100
AcDbVisualStyle
  2
Dim
 70
    11
 71
     2
 72
     2
 73
     0
 90
        0
 40
-0.6
 41
-30.0
 62
     5
 63
     7
 74
     1
 91
        4
 64
     7
 65
   257
 75
     1
175
     1
 42
1.0
 92
        8
 66
     7
 43
1.0
 76
     1
 77
     6
 78
     2
 67
     7
 79
     5
170
     0
171
     0
290
     0
174
     0
 93
        1
 44
-50.0
173
     0
291
     1
 45
0.0
1001
ACAD
1000
AcDbSavedByObjectVersion
1070
     0
  0
VISUALSTYLE
  5
812F
102
{ACAD_XDICTIONARY
360
84E9
102
}
102
{ACAD_REACTORS
330
8117
102
}
330
8117
100
AcDbVisualStyle
  2
EdgeColorOff
 70
    22
 71
     2
 72
     2
 73
     0
 90
        0
 40
-0.6
 41
-30.0
 62
     5
 63
     7
 74
     1
 91
        4
 64
     7
 65
   257
 75
     1
175
     1
 42
1.0
 92
        8
 66
     7
 43
1.0
 76
     1
 77
     6
 78
     2
 67
     7
 79
     5
170
     0
171
     0
290
     0
174
     0
 93
        1
 44
0.0
173
     0
291
     1
 45
0.0
1001
ACAD
1000
AcDbSavedByObjectVersion
1070
     0
  0
VISUALSTYLE
  5
8126
102
{ACAD_XDICTIONARY
360
84D7
102
}
102
{ACAD_REACTORS
330
8117
102
}
330
8117
100
AcDbVisualStyle
  2
Facepattern
 70
    15
 71
     2
 72
     2
 73
     0
 90
        0
 40
-0.6
 41
-30.0
 62
     5
 63
     7
 74
     1
 91
        4
 64
     7
 65
   257
 75
     1
175
     1
 42
1.0
 92
        8
 66
     7
 43
1.0
 76
     1
 77
     6
 78
     2
 67
     7
 79
     5
170
     0
171
     0
290
     0
174
     0
 93
        1
 44
0.0
173
     0
291
     1
 45
0.0
1001
ACAD
1000
AcDbSavedByObjectVersion
1070
     0
  0
VISUALSTYLE
  5
8118
102
{ACAD_XDICTIONARY
360
84BB
102
}
102
{ACAD_REACTORS
330
8117
102
}
330
8117
100
AcDbVisualStyle
  2
Flat
 70
     0
 71
     2
 72
     1
 73
     1
 90
        2
 40
-0.6
 41
30.0
 62
     5
 63
     7
 74
     0
 91
        0
 64
     7
 65
   257
 75
     1
175
     1
 42
1.0
 92
        8
 66
     7
 43
1.0
 76
     1
 77
     6
 78
     2
 67
     7
 79
     5
170
     0
171
     0
290
     0
174
     0
 93
       13
 44
0.0
173
     0
291
     1
 45
0.0
1001
ACAD
1000
AcDbSavedByObjectVersion
1070
     0
  0
VISUALSTYLE
  5
8119
102
{ACAD_XDICTIONARY
360
84BD
102
}
102
{ACAD_REACTORS
330
8117
102
}
330
8117
100
AcDbVisualStyle
  2
FlatWithEdges
 70
     1
 71
     2
 72
     1
 73
     1
 90
        2
 40
-0.6
 41
30.0
 62
     5
 63
     7
 74
     1
 91
        0
 64
     7
 65
   257
 75
     1
175
     1
 42
1.0
 92
        0
 66
   257
 43
1.0
 76
     1
 77
     6
 78
     2
 67
     7
 79
     5
170
     0
171
     0
290
     0
174
     0
 93
       13
 44
0.0
173
     0
291
     1
 45
0.0
1001
ACAD
1000
AcDbSavedByObjectVersion
1070
     0
  0
VISUALSTYLE
  5
811A
102
{ACAD_XDICTIONARY
360
84BF
102
}
102
{ACAD_REACTORS
330
8117
102
}
330
8117
100
AcDbVisualStyle
  2
Gouraud
 70
     2
 71
     2
 72
     2
 73
     1
 90
        2
 40
-0.6
 41
30.0
 62
     5
 63
     7
 74
     0
 91
        0
 64
     7
 65
   257
 75
     1
175
     1
 42
1.0
 92
        0
 66
     7
 43
1.0
 76
     1
 77
     6
 78
     2
 67
     7
 79
     5
170
     0
171
     0
290
     0
174
     0
 93
       13
 44
0.0
173
     0
291
     1
 45
0.0
1001
ACAD
1000
AcDbSavedByObjectVersion
1070
     0
  0
VISUALSTYLE
  5
811B
102
{ACAD_XDICTIONARY
360
84C1
102
}
102
{ACAD_REACTORS
330
8117
102
}
330
8117
100
AcDbVisualStyle
  2
GouraudWithEdges
 70
     3
 71
     2
 72
     2
 73
     1
 90
        2
 40
-0.6
 41
30.0
 62
     5
 63
     7
 74
     1
 91
        0
 64
     7
 65
   257
 75
     1
175
     1
 42
1.0
 92
        0
 66
   257
 43
1.0
 76
     1
 77
     6
 78
     2
 67
     7
 79
     5
170
     0
171
     0
290
     0
174
     0
 93
       13
 44
0.0
173
     0
291
     1
 45
0.0
1001
ACAD
1000
AcDbSavedByObjectVersion
1070
     0
  0
VISUALSTYLE
  5
811F
102
{ACAD_XDICTIONARY
360
84C9
102
}
102
{ACAD_REACTORS
330
8117
102
}
330
8117
100
AcDbVisualStyle
  2
Hidden
 70
     6
 71
     1
 72
     2
 73
     2
 90
        0
 40
-0.6
 41
-30.0
 62
     5
 63
     7
 74
     2
 91
        2
 64
     7
 65
   257
 75
     2
175
     1
 42
40.0
 92
        0
 66
   257
 43
1.0
 76
     1
 77
     6
 78
     2
 67
     7
 79
     3
170
     0
171
     0
290
     0
174
     0
 93
        1
 44
0.0
173
     0
291
     0
 45
0.0
1001
ACAD
1000
AcDbSavedByObjectVersion
1070
     0
  0
VISUALSTYLE
  5
812D
102
{ACAD_XDICTIONARY
360
84E5
102
}
102
{ACAD_REACTORS
330
8117
102
}
330
8117
100
AcDbVisualStyle
  2
JitterOff
 70
    20
 71
     2
 72
     2
 73
     0
 90
        0
 40
-0.6
 41
-30.0
 62
     5
 63
     7
 74
     1
 91
        4
 64
     7
 65
   257
 75
     1
175
     1
 42
1.0
 92
       10
 66
     7
 43
1.0
 76
     1
 77
     6
 78
     2
 67
     7
 79
     5
170
     0
171
     0
290
     0
174
     0
 93
        1
 44
0.0
173
     0
291
     1
 45
0.0
1001
ACAD
1000
AcDbSavedByObjectVersion
1070
     0
  0
VISUALSTYLE
  5
8125
102
{ACAD_XDICTIONARY
360
84D5
102
}
102
{ACAD_REACTORS
330
8117
102
}
330
8117
100
AcDbVisualStyle
  2
Linepattern
 70
    14
 71
     2
 72
     2
 73
     0
 90
        0
 40
-0.6
 41
-30.0
 62
     5
 63
     7
 74
     1
 91
        4
 64
     7
 65
   257
 75
     7
175
     7
 42
1.0
 92
        8
 66
     7
 43
1.0
 76
     1
 77
     6
 78
     2
 67
     7
 79
     5
170
     0
171
     0
290
     0
174
     0
 93
        1
 44
0.0
173
     0
291
     1
 45
0.0
1001
ACAD
1000
AcDbSavedByObjectVersion
1070
     0
  0
VISUALSTYLE
  5
812E
102
{ACAD_XDICTIONARY
360
84E7
102
}
102
{ACAD_REACTORS
330
8117
102
}
330
8117
100
AcDbVisualStyle
  2
OverhangOff
 70
    21
 71
     2
 72
     2
 73
     0
 90
        0
 40
-0.6
 41
-30.0
 62
     5
 63
     7
 74
     1
 91
        4
 64
     7
 65
   257
 75
     1
175
     1
 42
1.0
 92
        9
 66
     7
 43
1.0
 76
     1
 77
     6
 78
     2
 67
     7
 79
     5
170
     0
171
     0
290
     0
174
     0
 93
        1
 44
0.0
173
     0
291
     1
 45
0.0
1001
ACAD
1000
AcDbSavedByObjectVersion
1070
     0
  0
VISUALSTYLE
  5
8121
102
{ACAD_XDICTIONARY
360
84CD
102
}
102
{ACAD_REACTORS
330
8117
102
}
330
8117
100
AcDbVisualStyle
  2
Realistic
 70
     8
 71
     2
 72
     3
 73
     0
 90
        2
 40
-0.6
 41
30.0
 62
     5
 63
     7
 74
     0
 91
        0
 64
     7
 65
   257
 75
     1
175
     1
 42
1.0
 92
        8
 66
   257
 43
1.0
 76
     1
 77
     6
 78
     2
 67
     7
 79
     3
170
     0
171
     0
290
     0
174
     0
 93
       13
 44
0.0
173
     0
291
     0
 45
0.0
1001
ACAD
1000
AcDbSavedByObjectVersion
1070
     0
  0
VISUALSTYLE
  5
812C
102
{ACAD_XDICTIONARY
360
84E3
102
}
102
{ACAD_REACTORS
330
8117
102
}
330
8117
100
AcDbVisualStyle
  2
Shaded
 70
    27
 71
     2
 72
     2
 73
     1
 90
        2
 40
-0.6
 41
30.0
 62
     5
 63
     7
 74
     0
 91
        4
 64
     7
 65
   257
 75
     1
175
     1
 42
1.0
 92
        8
 66
   257
 43
1.0
 76
     1
 77
     6
 78
     2
 67
     8
 79
     3
170
     0
171
     0
290
     0
174
     0
 93
        5
 44
0.0
173
     0
291
     0
 45
0.0
1001
ACAD
1000
AcDbSavedByObjectVersion
1070
     0
  0
VISUALSTYLE
  5
812B
102
{ACAD_XDICTIONARY
360
84E1
102
}
102
{ACAD_REACTORS
330
8117
102
}
330
8117
100
AcDbVisualStyle
  2
Shaded with edges
 70
    26
 71
     2
 72
     2
 73
     1
 90
        2
 40
-0.6
 41
30.0
 62
     5
 63
     7
 74
     1
 91
       10
 64
     7
 65
   257
 75
     2
175
     1
 42
1.0
 92
        8
 66
   257
 43
1.0
 76
     1
 77
     6
 78
     2
 67
     7
 79
     3
170
     0
171
     0
290
     0
174
     0
 93
        5
 44
0.0
173
     0
291
     0
 45
0.0
1001
ACAD
1000
AcDbSavedByObjectVersion
1070
     0
  0
VISUALSTYLE
  5
8128
102
{ACAD_XDICTIONARY
360
84DB
102
}
102
{ACAD_REACTORS
330
8117
102
}
330
8117
100
AcDbVisualStyle
  2
Shades of Gray
 70
    23
 71
     2
 72
     2
 73
     3
 90
        0
 40
-0.6
 41
-30.0
 62
     5
 63
     7
 74
     2
 91
        2
 64
     7
 65
     7
 75
     1
175
     1
 42
40.0
 92
        8
 66
     7
 43
1.0
 76
     1
 77
     6
 78
     2
 67
     7
 79
     3
170
     0
171
     0
290
     0
174
     0
 93
        1
 44
0.0
173
     0
291
     0
 45
0.0
1001
ACAD
1000
AcDbSavedByObjectVersion
1070
     0
  0
VISUALSTYLE
  5
8129
102
{ACAD_XDICTIONARY
360
84DD
102
}
102
{ACAD_REACTORS
330
8117
102
}
330
8117
100
AcDbVisualStyle
  2
Sketchy
 70
    24
 71
     1
 72
     2
 73
     2
 90
        0
 40
-0.6
 41
-30.0
 62
     5
 63
     7
 74
     2
 91
        2
 64
     7
 65
     7
 75
     1
175
     1
 42
40.0
 92
       11
 66
     7
 43
1.0
 76
     1
 77
     6
 78
     2
 67
     7
 79
     6
170
     0
171
     0
290
     0
174
     0
 93
        1
 44
0.0
173
     0
291
     0
 45
0.0
1001
ACAD
1000
AcDbSavedByObjectVersion
1070
     0
  0
VISUALSTYLE
  5
8124
102
{ACAD_XDICTIONARY
360
84D3
102
}
102
{ACAD_REACTORS
330
8117
102
}
330
8117
100
AcDbVisualStyle
  2
Thicken
 70
    13
 71
     2
 72
     2
 73
     0
 90
        0
 40
-0.6
 41
-30.0
 62
     5
 63
     7
 74
     1
 91
        4
 64
     7
 65
   257
 75
     1
175
     1
 42
1.0
 92
       12
 66
     7
 43
1.0
 76
     1
 77
     6
 78
     2
 67
     7
 79
     5
170
     0
171
     0
290
     0
174
     0
 93
        1
 44
0.0
173
     0
291
     1
 45
0.0
1001
ACAD
1000
AcDbSavedByObjectVersion
1070
     0
  0
VISUALSTYLE
  5
811E
102
{ACAD_XDICTIONARY
360
84C7
102
}
102
{ACAD_REACTORS
330
8117
102
}
330
8117
100
AcDbVisualStyle
  2
Wireframe
 70
     5
 71
     0
 72
     2
 73
     0
 90
        0
 40
-0.6
 41
-30.0
 62
     5
 63
     7
 74
     1
 91
        4
 64
     7
 65
   257
 75
     1
175
     1
 42
1.0
 92
        0
 66
   257
 43
1.0
 76
     1
 77
     6
 78
     2
 67
     7
 79
     3
170
     0
171
     0
290
     0
174
     0
 93
        1
 44
0.0
173
     0
291
     0
 45
0.0
1001
ACAD
1000
AcDbSavedByObjectVersion
1070
     0
  0
VISUALSTYLE
  5
812A
102
{ACAD_XDICTIONARY
360
84DF
102
}
102
{ACAD_REACTORS
330
8117
102
}
330
8117
100
AcDbVisualStyle
  2
X-Ray
 70
    25
 71
     2
 72
     2
 73
     1
 90
        1
 40
0.5
 41
-30.0
 62
     5
 63
     7
 74
     1
 91
        0
 64
     7
 65
   257
 75
     1
175
     1
 42
1.0
 92
        8
 66
     7
 43
1.0
 76
     1
 77
     6
 78
     2
 67
     7
 79
     3
170
     0
171
     0
290
     0
174
     0
 93
       13
 44
0.0
173
     0
291
     0
 45
0.0
1001
ACAD
1000
AcDbSavedByObjectVersion
1070
     0
  0
DICTIONARYVAR
  5
81DF
102
{ACAD_REACTORS
330
81DA
102
}
330
81DA
100
DictionaryVariables
280
     0
  1
1:1
  0
DICTIONARYVAR
  5
81DC
102
{ACAD_REACTORS
330
81DA
102
}
330
81DA
100
DictionaryVariables
280
     0
  1
STANDARD
  0
DICTIONARYVAR
  5
81DB
102
{ACAD_REACTORS
330
81DA
102
}
330
81DA
100
DictionaryVariables
280
     0
  1
STANDARD
  0
DICTIONARYVAR
  5
81DD
102
{ACAD_REACTORS
330
81DA
102
}
330
81DA
100
DictionaryVariables
280
     0
  1
Imperial24
  0
DICTIONARYVAR
  5
81DE
102
{ACAD_REACTORS
330
81DA
102
}
330
81DA
100
DictionaryVariables
280
     0
  1
Imperial24
  0
DICTIONARYVAR
  5
81E2
102
{ACAD_REACTORS
330
81DA
102
}
330
81DA
100
DictionaryVariables
280
     0
  1
1
  0
DICTIONARYVAR
  5
81E1
102
{ACAD_REACTORS
330
81DA
102
}
330
81DA
100
DictionaryVariables
280
     0
  1
0
  0
DICTIONARYVAR
  5
81E0
102
{ACAD_REACTORS
330
81DA
102
}
330
81DA
100
DictionaryVariables
280
     0
  1
127
  0
DICTIONARYVAR
  5
81E3
102
{ACAD_REACTORS
330
81DA
102
}
330
81DA
100
DictionaryVariables
280
     0
  1
2
  0
DICTIONARY
  5
84EF
330
8158
100
AcDbDictionary
280
     1
281
     1
  3
ACAD_XREC_ROUNDTRIP
360
84F0
  0
DICTIONARY
  5
84F3
330
8160
100
AcDbDictionary
280
     1
281
     1
  3
ACAD_XREC_ROUNDTRIP
360
84F4
  0
DICTIONARY
  5
84F1
330
815C
100
AcDbDictionary
280
     1
281
     1
  3
ACAD_XREC_ROUNDTRIP
360
84F2
  0
DICTIONARY
  5
8108
330
8107
100
AcDbDictionary
280
     1
281
     1
  3
ACAD_XREC_ROUNDTRIP
360
84B9
  3
BUMPTILE
360
810A
  3
DIFFUSETILE
360
8109
  3
OPACITYTILE
360
810D
  3
REFLECTIONTILE
360
810C
  3
REFRACTIONTILE
360
810E
  3
SPECULARTILE
360
810B
  0
DICTIONARY
  5
8100
330
80FF
100
AcDbDictionary
280
     1
281
     1
  3
ACAD_XREC_ROUNDTRIP
360
84B8
  3
BUMPTILE
360
8102
  3
DIFFUSETILE
360
8101
  3
OPACITYTILE
360
8105
  3
REFLECTIONTILE
360
8104
  3
REFRACTIONTILE
360
8106
  3
SPECULARTILE
360
8103
  0
DICTIONARY
  5
8110
330
810F
100
AcDbDictionary
280
     1
281
     1
  3
ACAD_XREC_ROUNDTRIP
360
84BA
  3
BUMPTILE
360
8112
  3
DIFFUSETILE
360
8111
  3
FBXASSET
360
8225
  3
OPACITYTILE
360
8115
  3
REFLECTIONTILE
360
8114
  3
REFRACTIONTILE
360
8116
  3
SPECULARTILE
360
8113
  0
DICTIONARY
  5
84ED
330
8156
100
AcDbDictionary
280
     1
281
     1
  3
ACAD_XREC_ROUNDTRIP
360
84EE
  0
DICTIONARY
  5
84B4
330
8152
100
AcDbDictionary
280
     1
281
     1
  3
ACAD_ROUNDTRIP_2008_TABLESTYLE_CELLSTYLEMAP
360
84B5
  3
ACAD_XREC_ROUNDTRIP
360
84EB
  0
DICTIONARY
  5
84C5
330
811D
100
AcDbDictionary
280
     1
281
     1
  3
ACAD_XREC_ROUNDTRIP
360
84C6
  0
DICTIONARY
  5
84C3
330
811C
100
AcDbDictionary
280
     1
281
     1
  3
ACAD_XREC_ROUNDTRIP
360
84C4
  0
DICTIONARY
  5
84D1
330
8123
100
AcDbDictionary
280
     1
281
     1
  3
ACAD_XREC_ROUNDTRIP
360
84D2
  0
DICTIONARY
  5
84D9
330
8127
100
AcDbDictionary
280
     1
281
     1
  3
ACAD_XREC_ROUNDTRIP
360
84DA
  0
DICTIONARY
  5
84CB
330
8120
100
AcDbDictionary
280
     1
281
     1
  3
ACAD_XREC_ROUNDTRIP
360
84CC
  0
DICTIONARY
  5
84CF
330
8122
100
AcDbDictionary
280
     1
281
     1
  3
ACAD_XREC_ROUNDTRIP
360
84D0
  0
DICTIONARY
  5
84E9
330
812F
100
AcDbDictionary
280
     1
281
     1
  3
ACAD_XREC_ROUNDTRIP
360
84EA
  0
DICTIONARY
  5
84D7
330
8126
100
AcDbDictionary
280
     1
281
     1
  3
ACAD_XREC_ROUNDTRIP
360
84D8
  0
DICTIONARY
  5
84BB
330
8118
100
AcDbDictionary
280
     1
281
     1
  3
ACAD_XREC_ROUNDTRIP
360
84BC
  0
DICTIONARY
  5
84BD
330
8119
100
AcDbDictionary
280
     1
281
     1
  3
ACAD_XREC_ROUNDTRIP
360
84BE
  0
DICTIONARY
  5
84BF
330
811A
100
AcDbDictionary
280
     1
281
     1
  3
ACAD_XREC_ROUNDTRIP
360
84C0
  0
DICTIONARY
  5
84C1
330
811B
100
AcDbDictionary
280
     1
281
     1
  3
ACAD_XREC_ROUNDTRIP
360
84C2
  0
DICTIONARY
  5
84C9
330
811F
100
AcDbDictionary
280
     1
281
     1
  3
ACAD_XREC_ROUNDTRIP
360
84CA
  0
DICTIONARY
  5
84E5
330
812D
100
AcDbDictionary
280
     1
281
     1
  3
ACAD_XREC_ROUNDTRIP
360
84E6
  0
DICTIONARY
  5
84D5
330
8125
100
AcDbDictionary
280
     1
281
     1
  3
ACAD_XREC_ROUNDTRIP
360
84D6
  0
DICTIONARY
  5
84E7
330
812E
100
AcDbDictionary
280
     1
281
     1
  3
ACAD_XREC_ROUNDTRIP
360
84E8
  0
DICTIONARY
  5
84CD
330
8121
100
AcDbDictionary
280
     1
281
     1
  3
ACAD_XREC_ROUNDTRIP
360
84CE
  0
DICTIONARY
  5
84E3
330
812C
100
AcDbDictionary
280
     1
281
     1
  3
ACAD_XREC_ROUNDTRIP
360
84E4
  0
DICTIONARY
  5
84E1
330
812B
100
AcDbDictionary
280
     1
281
     1
  3
ACAD_XREC_ROUNDTRIP
360
84E2
  0
DICTIONARY
  5
84DB
330
8128
100
AcDbDictionary
280
     1
281
     1
  3
ACAD_XREC_ROUNDTRIP
360
84DC
  0
DICTIONARY
  5
84DD
330
8129
100
AcDbDictionary
280
     1
281
     1
  3
ACAD_XREC_ROUNDTRIP
360
84DE
  0
DICTIONARY
  5
84D3
330
8124
100
AcDbDictionary
280
     1
281
     1
  3
ACAD_XREC_ROUNDTRIP
360
84D4
  0
DICTIONARY
  5
84C7
330
811E
100
AcDbDictionary
280
     1
281
     1
  3
ACAD_XREC_ROUNDTRIP
360
84C8
  0
DICTIONARY
  5
84DF
330
812A
100
AcDbDictionary
280
     1
281
     1
  3
ACAD_XREC_ROUNDTRIP
360
84E0
  0
XRECORD
  5
84F0
102
{ACAD_REACTORS
330
84EF
102
}
330
84EF
100
AcDbXrecord
280
     1
102
DISPLAYNAME
  1
Imperial24
102
FLAGS
 90
        0
  0
XRECORD
  5
84F4
102
{ACAD_REACTORS
330
84F3
102
}
330
84F3
100
AcDbXrecord
280
     1
102
SHADEPLOT
 70
     0
102
SHADEPLOTRESLEVEL
 70
     2
102
SHADEPLOTCUSTOMDPI
 70
   300
  0
XRECORD
  5
84F2
102
{ACAD_REACTORS
330
84F1
102
}
330
84F1
100
AcDbXrecord
280
     1
102
SHADEPLOT
 70
     0
102
SHADEPLOTRESLEVEL
 70
     2
102
SHADEPLOTCUSTOMDPI
 70
   300
  0
XRECORD
  5
84B9
102
{ACAD_REACTORS
330
8108
102
}
330
8108
100
AcDbXrecord
280
     1
102
MATERIAL
148
0.0
149
0.0
149
0.0
 93
        0
 94
      127
282
     0
 72
     0
 77
     0
171
     0
175
     0
179
     0
273
     0
  0
XRECORD
  5
810A
102
{ACAD_REACTORS
330
8108
102
}
330
8108
100
AcDbXrecord
280
     1
270
     1
271
     1
  0
XRECORD
  5
8109
102
{ACAD_REACTORS
330
8108
102
}
330
8108
100
AcDbXrecord
280
     1
270
     1
271
     1
  0
XRECORD
  5
810D
102
{ACAD_REACTORS
330
8108
102
}
330
8108
100
AcDbXrecord
280
     1
270
     1
271
     1
  0
XRECORD
  5
810C
102
{ACAD_REACTORS
330
8108
102
}
330
8108
100
AcDbXrecord
280
     1
270
     1
271
     1
  0
XRECORD
  5
810E
102
{ACAD_REACTORS
330
8108
102
}
330
8108
100
AcDbXrecord
280
     1
270
     1
271
     1
  0
XRECORD
  5
810B
102
{ACAD_REACTORS
330
8108
102
}
330
8108
100
AcDbXrecord
280
     1
270
     1
271
     1
  0
XRECORD
  5
84B8
102
{ACAD_REACTORS
330
8100
102
}
330
8100
100
AcDbXrecord
280
     1
102
MATERIAL
148
0.0
149
0.0
149
0.0
 93
        0
 94
      127
282
     0
 72
     0
 77
     0
171
     0
175
     0
179
     0
273
     0
  0
XRECORD
  5
8102
102
{ACAD_REACTORS
330
8100
102
}
330
8100
100
AcDbXrecord
280
     1
270
     1
271
     1
  0
XRECORD
  5
8101
102
{ACAD_REACTORS
330
8100
102
}
330
8100
100
AcDbXrecord
280
     1
270
     1
271
     1
  0
XRECORD
  5
8105
102
{ACAD_REACTORS
330
8100
102
}
330
8100
100
AcDbXrecord
280
     1
270
     1
271
     1
  0
XRECORD
  5
8104
102
{ACAD_REACTORS
330
8100
102
}
330
8100
100
AcDbXrecord
280
     1
270
     1
271
     1
  0
XRECORD
  5
8106
102
{ACAD_REACTORS
330
8100
102
}
330
8100
100
AcDbXrecord
280
     1
270
     1
271
     1
  0
XRECORD
  5
8103
102
{ACAD_REACTORS
330
8100
102
}
330
8100
100
AcDbXrecord
280
     1
270
     1
271
     1
  0
XRECORD
  5
84BA
102
{ACAD_REACTORS
330
8110
102
}
330
8110
100
AcDbXrecord
280
     1
102
MATERIAL
148
0.0
149
0.0
149
0.0
 93
        0
 94
      127
282
     0
 72
     0
 77
     0
171
     0
175
     0
179
     0
273
     0
  0
XRECORD
  5
8112
102
{ACAD_REACTORS
330
8110
102
}
330
8110
100
AcDbXrecord
280
     1
270
     1
271
     1
  0
XRECORD
  5
8111
102
{ACAD_REACTORS
330
8110
102
}
330
8110
100
AcDbXrecord
280
     1
270
     1
271
     1
  0
XRECORD
  5
8225
102
{ACAD_REACTORS
330
8110
102
}
330
8110
100
AcDbXrecord
280
     1
 70
     1
 90
1959938040
 71
     1
  1
2B8E75ED-CDF6-44DC-935F-B87769468DED
311
504B0304140006080800E9867057F4617968C0000000200100004F00000036383739304332322D363445392D343430332D394436332D4646413732374338453538392F4173736574446174612F446566696E6974696F6E4974657261746F7250726F706572746965732E62696EEB606060F80F0540260323103700495E20ED
311
9E9A975A94991C9C9C919A9BC8C00612C9C94F4ACC6147C831019920AE4B6A5A62694E0948976F6671726A4E4E625E6A7E69B12042A9426E6209D0B8C41C3D90264E20860914834C48875806B2DF0F88414E02D189290556F689C5C5A925B6FA694915FAC68E266E4E4646E6BA6606E696BA2686AE2EBA160666E6BA26966E
311
E606C6CE2EA626C6C6FA45A9C5F9A545C9A9C5FA46FA06F15093E30BF2D219187EFCF8C3FA066809C80D204C080000504B0304140006080800E98670574C1D27A319010000300200004500000036383739304332322D363445392D343430332D394436332D4646413732374338453538392F4173736574446174612F496E73
311
74616E636550726F706572746965732E62696EEB606060F80F0540260323103700495E20ED9E9A975A94991C9C9C919A9BA802143072B27035377575D175767133D335317171D6B5343675D375B2303737B33431B3707175614768046931363471713532B5D435353131D635313332D475727372D13534373670367376B674
311
74B5042A03DBCBA019D37FE8ABC6157B20CD04146B0062181F4C03F940F0C11EA29A8141C08141002C0426541C106CAC2CA046088033B02A030AC2157C6006F21A8018AAF50194E6010A610250382264E08660284CD9E98021862280A91564B406929A0FF62C401E28B6F88038B83CB1243943D7A928312F25350524030705
311
109E0250400D2A28C1E00B970E61A8637062D063E0808A1C10539CF51A68ACC112EE1B201A24B1A50E2C09221500504B0304140006080800E986705728BB58AF800100009E0500003D00000036383739304332322D363445392D343430332D394436332D4646413732374338453538392F536368656D61732F436F6D6D6F6E
311
536368656D612E786D6CBD544D4FC23018BEFB2B96DE15493C78601010A34B880709DEDFB52FD0D8B54BD70DF6EFED3AC0B12E6442E2716BFB3CEFF3D18E26FB440405EA8C2B1992E1C323095052C5B8DC842437EBFB673219DF8DA659866649B798C078B48AE6410122242F2A4994AC7F93815DF85C049C8564CA0A901499
311
DD886B2EB9B1E02448F358701A9235880C49A0119892A20C89D1B9FD768815CAD268CB5E0355B40B1E47F3E37A2020464BED06AA57CE8FCC20C3C3446D46761A2632A8C1283D07031EFF2AE7CCB1BFEEE916E406DFAC8E36FFD99A9D60A6944090EEDC3B670C7DC13DE86B6B2C5C240D6E503BB85ACD579D513F1B9F9A69DC
311
9CC22AFA80C426D40AF0B21EA168559156B6276F0F726A6BFF04DCD513A87A62CAD41FB24FCB2858B3952E3D852084DA25B9303C15687973CC8E8AAE11DF2836C38C6A9E765E8C1BA1BFB1DC29CDFE518C8B5A7655A4ED7E77291ABEB80DBD82EC866ADE1B8D05AF9E35CF09D7A061F38A986D9EC412B8F0F65E5D81534D9B
311
231D1E5A8FE577A241F3A5FD01504B0304140006080800E98670572CCEBD668A040000E01200003E00000036383739304332322D363445392D343430332D394436332D4646413732374338453538392F536368656D61732F47656E65726963536368656D612E786D6CD5586D6FDB380CFE7EBF42F0F7A649B70E1B90744856
311
B4970F450FCD7A5F05459613EDE4174872DADCAF3F522F8ED3B88D2F1D06AC4050DBA2493EE4438AF2F8EB73AEC8466823CB62928C06C384888297A92C5693A4B6D9D9E7E4EBD51FE3A931C22EF85AE4EC6AFC38BF261BA626C9AD288496DC3F4FCEAFC63366845F7A10452AF41DB320C0D44EC26EAB209187355655826956
311
70811A6A49643A49A6E9069FA4604A64B29016DC4B48552F95E4932463CA888468C1D2B250DB4962750DF7CE273069CE8363F1FF4EDB00E0A21999574AE4A2B00C353B93F3BD4777B8A61ED8F604ABFEDD79CE56A2B7BDFBDBC50996E0ADDE16FED26223C5D30956C29BDF4A55EA686E5E58B112DA45CE67F76F4FA27EFA3F
311
B672FD7372FC388FAECDCA5209E693CAD167BADCD272F943701B3812F8A3D852008B1D2E32DB927B2F833C6EA95879925356D254582695095A3CE982924720BE5774A3CB9CDCDB350427D2DF20DA1B5532EBE2D5D6288D75D4F7E4FD9890A0EF8E3D93EBB8F8BA4758158EF6FB90A6F9520281C93DE7AAC6D24607DA296BB9
311
6018123F821A7D6A5C5884050C475DA4865442732C8B95684A50165CBB3A32F25F783A4A480ED59AD7F924B968AEA50131F46303223E6A397B0E52976030DC1DCA81D7E7C1EDEEA42C19FF27635C505E2BD5198A599020DF50A2330FCB3AAF28CB0124108429553EF1B228802E2265D8F7CC2401042B155BCC7070F1E5C55F
311
13B4A9577362CCCE46C32174E010C3C378C44841A4BDA00FE3A12006CE11EE6AEC59894D3526DDE1CD59D503ECC324017F8061B7F162162FA62EDD81AE3308617770796DCBDAD2B2625C5AE8A63DE20B2C8AA5E95E76E5730823955956E33E705425A2187C185D36489A1B44D3DCEC2172F6BA2105C3546287A7194B233176
311
8EBBE64F6E70A9930ABE0ADEA89E9E2C38523B810287AD67A54A039C1606EAFE68F8304610BB9093DBDDABC0B2AE4E290DCDA15376D7E39F72B556F0B32EAB5D3D498B4C41ABADEC3A1434C422D87E8025A84BDCB2B1417ED750FAE4DA8976863974C577C7F902D3F156AD354DEA3540DE6BEAE2BEA52F7A2EB4CA43802ECE
311
5BF2CE2EDC9347179FFB023CE412E60BE16DA0BE29B374988A553F561DC04615DD35F7D2C8979F60E5955CE93DF29DED8AFA1EE6642D53418086C03C47C377910F75F7E8F5EF665F70B60FFB22AEDF897D119E8423C773E819A3C1E55E550599EE6EDCA34D0C86FD72057DF2CD46F16A470682471C164E4346D5306BF12D7D
311
12D82CFF673D41636C347443FEB51B50D72EA171A8E4A58623A4A16E0FA2B8B10A0D23268D87C33896EE8FB73305A74BF224EDBADFA0BD674AB354D63DB7BD5D83426761C077DE767728235446A552754EB93B755891C3C4CC6CADE37CF0E912A7BB38DBA010F9DE1282EDF470CA69A9CDA482E334C4A6EA4107987980B17E
311
72F31730EBF88BBD39E7C629F56797A3C0009C2C5AE7951D9A05A02773440F02EEB4DE396A3B6A570C72CCFBCD823B0B8ED3F1D5CEDDFED772FA70236C83FB7D86C385D570B87107535572A60A96035F8F7C6A7192F13007246BBE0521855E6AC46F3E27689CEE7D186A6FD679D98CDCAD13333E04EBE7ED6F55FF01504B03
311
04140006080800E98670576180134D5F0100006B0300004500000036383739304332322D363445392D343430332D394436332D4646413732374338453538392F536368656D61732F52656E6465724D6174657269616C536368656D612E786D6CA5934D6FC2300C86EFFB1551EEE343DBA41D1A103009551ADAD40EAE28A4A6
311
8D9426284961FCFBE5A340113B2071746D3F765EBF4DC6BFB5407BD0862B49F0B037C0082453059725C18DDD3EBFE3F1E829991803366715D474942CD30FB4A782E00C64017A412D684E454CE3FE28995203B162A6EA5AC94B66997D225E109CD63B0135484BAD1B3C07E9080CA35DB3119C11BCA5C200461A68A1A438126C
311
75E3E230D40FF81FB3F03C91D1E3A3A0AF79FE28E25BC39EC3E17E4C2A2D94A0833A51AF55BCCA7D88572FCBAC529C4140B020FC3AAFA886621DCED7EAD7664CC86024E806DC297DA1BB393E4156543457A4537DB8817349A70F8ACBF09B3EEE2CB2F33E91B65D60786E4E3B39B77E3FEEEF5650424525DA657FB8B46BE6BF
311
064646F0A0F7327C0BC1BC1B4CBBC1C419FA3CCB23500007872A2580CAAE5461865565294E4EDB4617B62FF579DF9A5B2F54E834076A597573A020912FED777F9B3F504B0304140006080800E9867057E5ACB09351000000570000004700000036383739304332322D363445392D343430332D394436332D46464137323743
311
38453538392F4173736574446174612F41737365745461626C654F66436F6E74656E74732E62696E536160603072B27035377575D175767133D335317171D6B5343675D375B2303737B33431B37071751102AACB4D2C492DCA4CCC492C28484D2C4ACC4B4E050A82012F90744FCD03CA26072767A4E6260200504B03041400
311
06080800E9867057F865834058000000680000004500000036383739304332322D363445392D343430332D394436332D4646413732374338453538392F4173736574446174612F53747265616D56657273696F6E5461626C652E696E66558CBD0A80300C06F73E4B117FB66E451741D041DC5BF98480A492E4FDD18EAEC7DD
311
4555D89EF28DF51A0B1BD8340C4DE7DD848B988C0ACF0649566493F2408C508DDEBB99D5129FF8F1AF8CF5B9503E20FAE5A16B5AF702504B0304140006080800E986705710EFE75C340100009A0400003600000036383739304332322D363445392D343430332D394436332D4646413732374338453538392F417373657444
311
6174612F636E782E786D6CCD94414F03211085FFCA86FB42A969A30D4B63F4D29326361EBC4DD9D94ACAC206668DFE7BA1DD83A6C6530FBD0E6F86C717DEA8F567EFAA0F8CC906DF30C967AC426F426BFDBE612375F52DABD65AC510E8878C551E7A6C582933ADF6318CC3546AB183D195AAB3FE3015EF5342DAC2CEE153F7
311
103CA1A7C42AE320A58625F38E3D701829B4980EBC05022E79C414C668304F22DBE334C94404C296E9F96C7E534B59CBE5562E578BC54ADEBD2951945AED427093DEE6CB62182A73BA95E99912E558AB31DA4953DEC2F45F1EF9CE7A25B252AB443133993AE86BC81D300CCE1AA08C4E044348751621F44A9CC45A89C2E017
311
8947ECACB7A565938D0185F89CED61248B5747E43FAF9727B3F189C01BBC5E1EE70E2F4FE1E5F8835E4F813C26E6DA7272EE905BDF5D2025E2B8467268CA56D1DF504B0304140006080800E9867057E9CA68FF080100004F0300003400000036383739304332322D363445392D343430332D394436332D4646413732374338
311
453538392F536368656D61732F636E782E786D6CCD933F4F432114C5BFCA0BFB8352D3461B1E1D1C9C5CD4C90DE1B69202F7853F46BFBDF0646813371DBAC1E11772CEE122F69FDE0D1F1093C530114E576480A0D1D8709C48C987F1960C7B2922623EC3C810948789349948718C58E62E1938A8E29AEA6C3875F11EBDC7F0
311
ACDFC12B3268A7529A485AB654958C06D2891A9515E53442C21235D41BB2F5D06FD011540643E47AB5BE19391FF9F6856F779BCD8EDFBD0AD64829DE105DE76DC810711E34D645A8765682B563294AB49D6919883CF7466B1B8255428A9463EDA093F96BAEA49A6767B5CAB52AB6803F8C14AC45BD08FC0001A2D5D799F8C2
311
DCBF457E8260203ED6578A56B9EB4CFE9BC7BF15C096D9AF23D0BE82FC06504B0304140006080800E9867057410A3D5871000000A40000002C00000036383739304332322D363445392D343430332D394436332D4646413732374338453538392F636E782E786D6C55CC4D0E82301086E1AB34B31774E7A22D31F1069E6002
311
0334B633A63FC6E34B0909B07DDE2F9FEE7EC1AB2FC5E4840DDC9A2B28E25E06C7938192C7CB1D54677514C9871928C640062A83D55394F2D968A0118BAFEA1DBF377CA444F98919176EAB9FEAAB9F2960DA5BBB1E2ED3FA6FFF504B0304140006080800E98670571C1E59C77F000000A300000007000000636E782E786D6C
311
4D8CDF0E82201C465F85FDEE2942E2CF26B866FA1E2ED139111A49EBF183E64557DF76F69D53379FCDA1B78DAF25780D97130164FD238C8B9F35A47DC2125063EA18C2FE7703E487CD6A28184C3DC7909E071AED342457A85BFC7A402E85222DA598B34E61C64885D59D57B8EF6F828A567657A9B2712E4A9E5F2F6FC99B2F
311
504B0304140006080800E986705716E99B5DA600000035010000130000005B436F6E74656E745F54797065735D2E786D6C9590410E82301045AFD2740F4517C6180A0BF5065E60AC53688469D30E066F6F91AD9AB89CF9FFFD3F99BA9DC7413C3026E749CB4D59498164FCCD51A7E5C4B6D84BD136F5E5193089ECA5A465CF
311
1C0E4A25D3E308A9F401292BD6C711388FB15301CC1D3A54DBAADA29E38991B8E0254336F5092D4C038BF39CD76B6FC6A538AEBEA54A4B08617006389FA516557DE4AE8E7E70DE30729138228C5F021CD93F02D4FB0DCD0B504B0304140006080800E98670573DEE336E64000000790000001B0000006175746F6465736B2D
311
64657369676E2D7061636B6167652E786D6C35CBC10E83200C00D05F21DCA56CA76D41FC96062B120735B69A7DBE268BB7777961F8D5AF396893C2ADB70FE7ADA196782C2DF776D7A97B5933C430F15651E5469C55D70F80A4992A3ADC954792C525AE70A1E4D6AD9816CC044FEFDF01FE3FDE907802504B03041400060808
311
00E9867057DC5D8F20F9000000960100003700000036383739304332322D363445392D343430332D394436332D4646413732374338453538392F4173736574446174612F636F72652E786D6C8550CB6E833010FC15B4770386404C641CD1927E414FBD59C62156828DFCA8FAF9B50395DA534FBB9A9D99DD1D7AFE5A1ED9A7
311
B44E19DD03CE4BC8A41666527AEE21F82B22909D19B5C6F85F34C8345F640F090646676BC2BA43C2682F7542B599E40E72E7A4874C3C62D3831337B9F09C071F19EE9EAF5CDCF92C739C6F3C464350D32E5553745357252DB01742CABA7A6BD1A53B0EE83090060D87F11575E3119376245577E96891C48C7AB5FC6C175672
311
2F27605559D5086384DB77DC9E9AE684BB0F5A2426A3CEDBF8F3BE347D076C48578FDC735A6CD33FAE619DFE770D4AFBBADA5D37850386E391CF01A3454A29966784B1A644D937504B0304140006080800E9867057CBAC7F95F8000000940100003500000036383739304332322D363445392D343430332D394436332D4646
311
413732374338453538392F536368656D61732F636F72652E786D6C8550CB6E833010FC15B4770386404C641CD192FE407BEACDC20EB5126CE447D5CFAF4DA8D49E7ADAD5ECCCECEED0F3D772CF3EA575CAE81E705E4226F56484D2730FC15F1181ECCCA835C6FFA241A6F9227B4830303A5B13D61D9A8CF65227541B217790
311
3B273D64D33D363DB8E9432E3CE7C14786BBE52B9F6E7C9639CE1F3C46435062972A11DDD455490BEC8990B2AE5E5A74E98E033A0CA441C3617C46DD78C4A41D49D55D3A5A2431A35E2D3FDB272BB9970258555635C218E1F60DB7A7A639E1EE9D1689C9A8F336FEBC2F4DDF017BDDEE74B478CCFE788655FCEF1994F675B5
311
7B3E140E188E276E03468B94512C5B80B1A63CD937504B0304140006080800E9867057E210AC5801010000D70100002D00000036383739304332322D363445392D343430332D394436332D4646413732374338453538392F636F72652E786D6C95914D6EC3201085AF62CD1EDBE0FF081355697282AEBAA366E2A2C460195C
311
F5F885DA55DB5DBB023DBE37C39BE1C7F7E99EBCE1E2B4353DD0348704CD609536630FABBF921692A3E08BB5FE0706899113F61065107C5CEC3AEFD2608D4713556315EEA2740E3D24C33D5C7A70C32B4E3295AB0F84BBA5B31C6E72C494A61B27B8D7D3977558507A542058CE0A4229A1F513AD0F5575A0DD33CF2229F8AA
311
8D2FD8DE0CA71754899D7D8804A2E2D9F61AA855AB9DD12AFC515F352E20EAB6E9F21363A42ECF1D29CBBC20DD635D90CBE5A161CDA93D576D178A04B3E0CE2F61327B913883BFDA37E3AF64EBACFE996C733810F43B5416C72C78F6B98370C695880F504B0304140006080800E9867057FEBCF69E08010000B20100000800
311
0000636F72652E786D6C8D50C16E842014FC15F2EEA8E8EAEA06D9D8BAFD829E7AA3C25AB20A0670D3FE7D61B5497BEBE99199796F86A1E7CF794277699D32BA05926480A41E8C507A6C61F5575C033A336A8DF1BF6480349F650B110646476BD6658706A3BDD411D546C81DE4CE490F6898C2A305377CC899277CF541E16E
311
C9C2871B1F6542924DC7A857F3CFEA6025F75200CBB3BCC0846052BD92EA549627D2BCD1342A195D5725762B2582BBBA2A69813DD57556E42F15BE34C70E1FBABAC4DDA17FC64D7F2475D5D7797369681A971975DE863FEF47424E8F1CBF475F9A6E14A3EFC64CBB208412C8E8E90B5846D348FC09BD2EE21FA195F645BE1F
311
DC361C3012023D88601C1B0CE3516F98B16DF60D504B01021400140006080800E9867057F4617968C0000000200100004F000000000000000000000000000000000036383739304332322D363445392D343430332D394436332D4646413732374338453538392F4173736574446174612F446566696E6974696F6E49746572
311
61746F7250726F706572746965732E62696E504B01021400140006080800E98670574C1D27A3190100003002000045000000000000000000000000002D01000036383739304332322D363445392D343430332D394436332D4646413732374338453538392F4173736574446174612F496E7374616E636550726F7065727469
311
65732E62696E504B01021400140006080800E986705728BB58AF800100009E0500003D00000000000000000000000000A902000036383739304332322D363445392D343430332D394436332D4646413732374338453538392F536368656D61732F436F6D6D6F6E536368656D612E786D6C504B01021400140006080800E986
311
70572CCEBD668A040000E01200003E000000000000000000000000008404000036383739304332322D363445392D343430332D394436332D4646413732374338453538392F536368656D61732F47656E65726963536368656D612E786D6C504B01021400140006080800E98670576180134D5F0100006B0300004500000000
311
0000000000000000006A09000036383739304332322D363445392D343430332D394436332D4646413732374338453538392F536368656D61732F52656E6465724D6174657269616C536368656D612E786D6C504B01021400140006080800E9867057E5ACB093510000005700000047000000000000000000000000002C0B00
311
0036383739304332322D363445392D343430332D394436332D4646413732374338453538392F4173736574446174612F41737365745461626C654F66436F6E74656E74732E62696E504B01021400140006080800E9867057F865834058000000680000004500000000000000000000000000E20B000036383739304332322D
311
363445392D343430332D394436332D4646413732374338453538392F4173736574446174612F53747265616D56657273696F6E5461626C652E696E66504B01021400140006080800E986705710EFE75C340100009A04000036000000000000000000000000009D0C000036383739304332322D363445392D343430332D3944
311
36332D4646413732374338453538392F4173736574446174612F636E782E786D6C504B01021400140006080800E9867057E9CA68FF080100004F0300003400000000000000000000000000250E000036383739304332322D363445392D343430332D394436332D4646413732374338453538392F536368656D61732F636E78
311
2E786D6C504B01021400140006080800E9867057410A3D5871000000A40000002C000000000000000000000000007F0F000036383739304332322D363445392D343430332D394436332D4646413732374338453538392F636E782E786D6C504B01021400140006080800E98670571C1E59C77F000000A30000000700000000
311
0000000000000000003A100000636E782E786D6C504B01021400140006080800E986705716E99B5DA6000000350100001300000000000000000000000000DE1000005B436F6E74656E745F54797065735D2E786D6C504B01021400140006080800E98670573DEE336E64000000790000001B00000000000000000000000000
311
B51100006175746F6465736B2D64657369676E2D7061636B6167652E786D6C504B01021400140006080800E9867057DC5D8F20F90000009601000037000000000000000000000000005212000036383739304332322D363445392D343430332D394436332D4646413732374338453538392F4173736574446174612F636F72
311
652E786D6C504B01021400140006080800E9867057CBAC7F95F8000000940100003500000000000000000000000000A013000036383739304332322D363445392D343430332D394436332D4646413732374338453538392F536368656D61732F636F72652E786D6C504B01021400140006080800E9867057E210AC58010100
311
00D70100002D00000000000000000000000000EB14000036383739304332322D363445392D343430332D394436332D4646413732374338453538392F636F72652E786D6C504B01021400140006080800E9867057FEBCF69E08010000B2010000080000000000000000000000000037160000636F72652E786D6C504B050600
311
000000110011005A060000651700000000
310
504B0304140006080800E9867057000000000000000000000000370000006662782F43314441313536322D343846302D343035352D393442442D4537313738313141344334432F617474726962757465732E62696E504B0304140006080800E9867057000000000000000000000000350000006662782F4331444131353632
310
2D343846302D343035352D393442442D4537313738313141344334432F76657274696365732E62696E504B0304140006080800E9867057F270F1330600000004000000360000006662782F43314441313536322D343846302D343035352D393442442D4537313738313141344334432F747269616E676C65732E62696E6366
310
60600000504B0304140006080800E986705751464CB48900000043010000360000006662782F43314441313536322D343846302D343035352D393442442D4537313738313141344334432F6469726563746F72792E786D6C9D8F310EC2300C45AF127987122606C71DD918B841D4B851A43646695A717C52A85029031293A5
310
A76FBF6FACEF7DA7264E43906840EF0FA03836E242F406C6DCEE4EA06AC22492573150D1F66C60C640E8938CB705396EEDD86DE9B5042FE27813D640EA63BB001C722AF6E55CB61E4863F58284D5D3F53DD715CE1C3985E63FD7F1B7EBDD617E9F1E504B0304140006080800E9867057A0D59AA838070000201C0000340000
310
006662782F43314441313536322D343846302D343035352D393442442D4537313738313141344334432F6F626A656374732E786D6CDD59DB6EDB3810FD1542FBB2FBA09BE56BE1B848ECB8308AB4458D2EF64DA065DAE146379052E2ECD7EF90226549966DA5DB02C52640E230D470E6CCCC99E168FAFE1085E899304E93F8
310
C6702DC740240E922D8DF737469EEDCCB181DECFD094254956D967A01847E4C610CBC66CBA67499EAAA52DD9E13C6CAE2EEFFE423C203131501062CE6F0C1E3C92085B38CF922DE14FD61667D8DAEF0E966B151BEB62F70CA78F8DA352CC489C81AAB01E8314A5815BFF134CB267535B6CA86DEB75DBE65DD8664BC3EB8AD2
310
9867380E4EB46AC8E975D3CA73FB8BFBDE60620EFA7DCFEC0F7BAE79B7BC5B98EEC873E6C3F97C727B3F31D06CBA4992B074404AE22D78F1D598B9535BFCA7345FA1D0A67790C43109149A6D1BB644C9A5843731A901EB4AD32A0E296CAD2C781D8D3FB3AD132835956A686BE3F4EF6AF4269BBF0104DE254A192722CA79C6
310
C0D70AFB221F9CA95DACD6FC42398A704618C5210AE98661060E82AD85836A6244B60851486026BDA8E5557585C0BE9E4B6D5AEEF23014F96BCC64A6F9908F24E35233FA0F6147EDABA7814E606D4EE36CAC8CCD5E53103199DA72B1F89FD753FF2C8044BB10EF215AC04CB1C9EB35F09A0B2E582D8CD9C7E5E6B016FCD07E
310
78CA9294B04C449E4C669577DA8395D082E0EB004A816BDD774754BE02F49F00F952173405CF317AE81FFADA768663BE4B5804DE410E321DF8E120F1F1E4D3D42E1F9E2154E3CA739842DAFE204C6B66D4CEAE403A9B3E43D027CC53C6AD031C424C3FD058E439040A0A135802BEDF6D0EC66C05640A8BF0140EC17AF89EDA
310
E223825F851CE09B8687DAE8B783A374C234F3ECE8AB0F10338C06A5AB6A369EC377F043F0BD5DAC3FAE73B6C301795089BD203B1AD30C8A69BB4235D06B29FF6DF54966E4893DB55D019CB34F0471B4F865ADFC82A463401551870BD7C895070AE91E86382649CED57A1B51054998307FF3EA1739DC7AD69F3A088AC320BF
310
4504B4921954F780D1548062CC947925135A479C040FAA00DC174EF537387812F0FA0130D6F7E801518B5953681EA53E8E923C16F47D1ADE4DD32CCF915FAE3BE93993DE7832D4C672295E678FA6865279714E84D33387CC6BDE52ACA1251779D407B66CB320809E29CFFC24C501CDDA63A16184CA5000FBA2CA5BBADBE51C
310
48BD159686C696E70E9053F9591E72597B75884F23BC27FE0E8B0AD77A5E0DA052B8B6A015997D98704E63C2658772C25C0D541C0B88A0885B2DB5250829F72392E1EF893F59F21AE1C7C82EF4A197CA44377B3DFAB482AA7A9E93283AB724F6A5FDAF3EC7511A165DDA350CDC5EE384565C85D2E2886788371F67BEB325B2
310
E9BE26BDE4058D6F27E993EF167F061E867F3A3CFA080AAD37D4C8EB9E75AD813B115F632095E1C0F546DA11D7B0D24765A2070973E89A8257FF85D0FD633742EB740E27E1CEA76198477E510F3212410B86B39C75CAD7E1C03971BEE2854642544EDAD1101AE4CEA4297B0FDD7D8055B2F938479A9563C0281AC31DAD9321
310
2756B486B0F485BC8F8A6BD775EFBF5DEA7FE6CBEA3DE589BCBE246CDBAA69BD8DD01D986E18045DAA0A57C691943C9B56932F921797EB38F4B510C56FC52D41450823CF540C26E40DA8F5FEC05F70160091AEE56FF30E32624BB6C79EA2264E8D398C191CAAA5E93EB57AD301B213E5A3D678AD04A146306DC082671FC487
310
F02B065743E7C76DD5D5D8C5FA4A14360B062B473D2EC8FAFC61DD90022B9D9FFE2230222F0D096A752E1AB90BA2BEAD8EFD6A4382B2E8DBEAC2E3D9631E6D624C4565146181B7E9BBF7F22E7963C345C1F66EFBCBBB5E6F640E9DD1C4ECBBF70B73EC0C47667FB21C39DE7C31E87B9ECD084F7216106EF76CC7D7BD531AEF
310
756014D075B951C054E1FAD54FC773D3C1FFE31B45986CF0B958FC552F1465BB271AB2462E76BD50B412F5E66DDDBF7B42D4ED45EC4D9D73312BD0017EB96C0119E97ADFBDB5D0A27527D1AE73A522BEB1F09EBDADFCF41A5323F4D6FA50DBD146F9752E86D9534B95D2B75BC96BBDBBF1FD6800EC355F2C8766BFBF989B13
310
6FB034EFC6A3D170D21F8E17F78B1271550BBBD6955F8243B5B295311A4C8379125218CA932DDA93046E403075E8C0AF2C225CDE6CA00150655CBF11E8F0F4733153CDF026D44F078F1806D3A1AAC879004351B875DC186A1DFD066350318994C329EB090A8F8A7603E58CDE1810021985FA626D609C258787527A635C096E
310
C3F15EDC998AA7CABF8F8F097420568E76957BBAE0A22CAB45270C0752F99E00D84E3724DF6FBA5607E10C3E6EF2AC34E6B870B44681A05F0814C6C1D4EF49C17B00E2B96C976BC93D35483A4DE62FC64121D5CC30DBCBF17A05EFDBC5175B4CC6579F511AE67BE1CE4BF5BE26C9147D46981743A82904863233C5E21E3E7F
310
677F6109BC628AD0924210A0DF0FE3E11FF63C89A2242E96EC5BF5A20AAD1FE1B5D3D6D6233F685C1C7760CBBE478DF5616EC58985B7FC0916C0B58C8AD96801712D004A7AAA0480F688F0053C56DBBF5A2055042A2D6CB57515F0C8993E824412EF7244DA5437540690900BA05531A72D3FE885A9CD60083EFB17504B0304
310
140006080800E986705717255EA93E01000046050000300000006662782F43314441313536322D343846302D343035352D393442442D4537313738313141344334432F636E782E786D6CCD94C14E032110865F65C37D9752D3461B96261E7C020FC61BCB4E572C0B1B188C7D7BA1D2AA31351E9AB43732FC93FCDFCC9FE1EB
310
F7D1546FE08376B625AC99910AAC72BDB6434B226EEA5B52AD05F7CEE13719A9AC1CA125B94C041FBC8B5329F5B091D1E4AAD1765B8A12D1EB2E2204522923436849502F30CA4646743D846DD34B940D6B3C0417BD82D48F7A84D2AF3C48849E88F96C7E533356B3E5235BAE168B15BB7BE6342B05EF9C3345AF2D827753A5
310
5C7AD86466C669FE163C7A5D349980882F674DA72DA7E95FF090DCDAA1E8703765DD3419AD24A63151A710B04E229023A79F62C169E6FD41FD70FF747050F5DA8342E777171A003B3580A3B12625E17FFC7BE1DFD8AE7B4DB897DAF649D862EB6CA887B48614D7DFFB4F29927630D717FAA3B1F3673E9D12D4EAFA900FBECE
310
444CF7272F2D3D5F40F101504B0304140006080800E98670577D04B23F7E000000A30000000B0000006662782F636E782E786D6C4D8CD10AC22018465F45FE7B4B439B813A96ABF718CD0D99D3B0193D7E1ABBE8EA83C3778E6C3FAB476F9B5E2E0605F44000D9F088A30BB382BC4D58006AB54C316E7F37406158AD828A41
310
CB39C5FCDCD168A721FB4ABD0BCB0E0DED3BCACF27CCC49D604638C71776EDF1ADA18DA0B4638699621CAB52E6D72B5BF3FA0B504B0304140006080800E9867057A6D797065F0000008200000007000000636E782E786D6C4DCB3B0E80201045D1AD90E9FD7516806B51190811670C8A61F982B1B0BAC9C97B72CA7B1037C6
310
D3332918DA1E04D2CAC69353902EDB8C20262D23F3F59B81A079470595414B17391D1F19B4730A5583A7ED43BBE4025D9592775E5ADFFA01504B0304140006080800E98670574FEB6A7CA0000000F4000000130000005B436F6E74656E745F54797065735D2E786D6C7D8F4B0EC2300C44AF1279DFA6B0400835ED02B80117
310
30C16D239A8F121795DB93D02D6269CFBC19BBED573B8B17C564BC53B0AB1B10E4B47F18372A5878A88E20FAAEBDBD032591BD2E299898C349CAA427B2986A1FC86565F0D122E7318E32A07EE24872DF3407A9BD63725C71C980AEBDD080CBCCE2BAE6F5D69B7110E7CD57AA146008B3D1C8F92C5954F993BB1BF787F39A89
310
ABC491D09600F9FDA2FB00504B0304140006080800E98670573DEE336E64000000790000001B0000006175746F6465736B2D64657369676E2D7061636B6167652E786D6C35CBC10E83200C00D05F21DCA56CA76D41FC96062B120735B69A7DBE268BB7777961F8D5AF396893C2ADB70FE7ADA196782C2DF776D7A97B5933C4
310
30F15651E5469C55D70F80A4992A3ADC954792C525AE70A1E4D6AD9816CC044FEFDF01FE3FDE907802504B0304140006080800E986705720DB782FF9000000960100003B0000006662782F43314441313536322D343846302D343035352D393442442D4537313738313141344334432F7265736F75726365732F636F72652E
310
786D6C8550CB6E833010FC15B47703864220328E42DA7E414FBD596643AD041BF951F5F36B072AB5A79E76353B33BB3BECF4B5DCB34FB44E193D00CD4BC8504B33293D0F10FC9574909D38B3C6F85F34C8B4587080040367B33561DD2169B4479D506D26DC41E11C7AC8E43D360338F9818BC845F091E16EF92AE44DCC98D3
310
7CE37116829A76A99AA29BBA2AB4C0FBEE858E637321E3737F214F87F640C6F3B9275D45CBEEB5EE9BBA2E5991C49C79B5FC6C971685C70978555635A194D0F68DB6C7A639D2FE9D1589C999F336FEBC2F4DDF01B7E84CB0121D2BB6E91FD7B04EFFBB06A57D5DEDAE9BC201A7F1C8C780B322A514CB23C25853A2FC1B504B
310
0304140006080800E9867057D9FA1C6AF2000000B1010000310000006662782F43314441313536322D343846302D343035352D393442442D4537313738313141344334432F636F72652E786D6C8D50CB6E833010FC15B477034B8090C8384A49FB053DF56619875A0936F2A3EAE7D70E546A6F39AD353BE3991D7AFA9EEFD9
310
97B44E19DD03E62564520B332A3DF510FC9574909D18B5C6F83F34C8349F650F090646276BC2B241C2682F7542B519E50672E7A4874CDCE3A307273EE5CC731E7C64B85BBE7071E393CC315F798C7A35FF4A8595DCCB115855563B8248B07DC7F6D834473C7CD02231190D418D9B951AA3BBBA2A69810D783963D356A4EEDE
310
4A52974D430EF5CB85BCEE71DF219EEBA11E6891C48C3A6FE3CDDB27E9BA67E5ABF05FE6B08C4F6456DAEFAACD7055386018F33C168C16A9C0381EEDC699CA663F504B0304140006080800E98670576500CEA754010000DD0200000C0000006662782F636F72652E786D6C8D52DB8E832014FC15C33B2A5A5B6D90A67677BF
310
609FF68D227549150C82E9E72F7889DB87BDC404C99C7366CE4CC0A747D70623D78350B204288C41C02553B5904D09ACB9C11C042782B552E65B1B0824ED78093C0C086EB4B2FD0231250D971E95AAE60B4887811B10B0D65D4A30B04FDED1905AE33A867BD85376A70D0F5138F7116CADA89751513B3671135C0352E4AFA8
310
AAB20BAC5E8A0BDC1DF607589DCF05CC1314E76F6991A5698C233F4CB011DDAACE34A786D780247192428420DABFA3FD31CB8EA8F8C091EF247830DA795E44BD3B406ED7078E66FC89CFF6F5DF7C564893260BDF3C310082DC7A5381E0C8E7E37E5378CF193A61979FA1D776B57077D0C899517AE72AB5B25B69A4ADE58E3A
310
0EA60F4773D5314F043FF124BFF0FCCEE182A2B271AB51E3AE576BBCFAF34E3DD770348F402ADDD1765B6E5E713B37A1274BEB3853ADD2FF995EADAE6146FE61922F504B0304140006080800E9867057AA7CFCE007010000B201000008000000636F72652E786D6C8D504B6E833010BD8A357B03864220328E42DA9EA0ABEE
310
5CEC102B60237FA2F6F6B5132AB5BBAEC67AF37E1E7AF85C667493D629A37B20590148EAD108A5A71E823FE316D081516B8CFF4503A4F9227B4830303A5913D60D1A8DF65227541B2137903B273DA0718E8F1EDC78910BCF78F091E1AED9CAC72B9F6446B2078F51AF961FE96825F752002B8BB2C28460D2BC91665FD77BD2
310
BDD33C31190D41892D4A8998AECE4A5A605DFB4286A13EE1E1B93BE1A75DB3C3C3F1D8E1B62445FB5A75755515344F62469DB7F1CF9B49ECE991E3B7944BF3C78AD10F63E68D104B0964F4FC052C3AA4C59FD26115FF28ADB4AFCACDF0A170C0482C745FC4E074C138EEE78D335D9B7D03504B01021400140006080800E986
310
70570000000000000000000000003700000000000000000000000000000000006662782F43314441313536322D343846302D343035352D393442442D4537313738313141344334432F617474726962757465732E62696E504B01021400140006080800E9867057000000000000000000000000350000000000000000000000
310
0000550000006662782F43314441313536322D343846302D343035352D393442442D4537313738313141344334432F76657274696365732E62696E504B01021400140006080800E9867057F270F13306000000040000003600000000000000000000000000A80000006662782F43314441313536322D343846302D34303535
310
2D393442442D4537313738313141344334432F747269616E676C65732E62696E504B01021400140006080800E986705751464CB489000000430100003600000000000000000000000000020100006662782F43314441313536322D343846302D343035352D393442442D4537313738313141344334432F6469726563746F72
310
792E786D6C504B01021400140006080800E9867057A0D59AA838070000201C00003400000000000000000000000000DF0100006662782F43314441313536322D343846302D343035352D393442442D4537313738313141344334432F6F626A656374732E786D6C504B01021400140006080800E986705717255EA93E010000
310
460500003000000000000000000000000000690900006662782F43314441313536322D343846302D343035352D393442442D4537313738313141344334432F636E782E786D6C504B01021400140006080800E98670577D04B23F7E000000A30000000B00000000000000000000000000F50A00006662782F636E782E786D6C
310
504B01021400140006080800E9867057A6D797065F0000008200000007000000000000000000000000009C0B0000636E782E786D6C504B01021400140006080800E98670574FEB6A7CA0000000F40000001300000000000000000000000000200C00005B436F6E74656E745F54797065735D2E786D6C504B01021400140006
310
080800E98670573DEE336E64000000790000001B00000000000000000000000000F10C00006175746F6465736B2D64657369676E2D7061636B6167652E786D6C504B01021400140006080800E986705720DB782FF9000000960100003B000000000000000000000000008E0D00006662782F43314441313536322D34384630
310
2D343035352D393442442D4537313738313141344334432F7265736F75726365732F636F72652E786D6C504B01021400140006080800E9867057D9FA1C6AF2000000B10100003100000000000000000000000000E00E00006662782F43314441313536322D343846302D343035352D393442442D4537313738313141344334
310
432F636F72652E786D6C504B01021400140006080800E98670576500CEA754010000DD0200000C00000000000000000000000000211000006662782F636F72652E786D6C504B01021400140006080800E9867057AA7CFCE007010000B201000008000000000000000000000000009F110000636F72652E786D6C504B050600
310
0000000E000E0080040000CC1200000000
  0
XRECORD
  5
8115
102
{ACAD_REACTORS
330
8110
102
}
330
8110
100
AcDbXrecord
280
     1
270
     1
271
     1
  0
XRECORD
  5
8114
102
{ACAD_REACTORS
330
8110
102
}
330
8110
100
AcDbXrecord
280
     1
270
     1
271
     1
  0
XRECORD
  5
8116
102
{ACAD_REACTORS
330
8110
102
}
330
8110
100
AcDbXrecord
280
     1
270
     1
271
     1
  0
XRECORD
  5
8113
102
{ACAD_REACTORS
330
8110
102
}
330
8110
100
AcDbXrecord
280
     1
270
     1
271
     1
  0
XRECORD
  5
84EE
102
{ACAD_REACTORS
330
84ED
102
}
330
84ED
100
AcDbXrecord
280
     1
102
DISPLAYNAME
  1
Imperial24
102
FLAGS
 90
        0
  0
CELLSTYLEMAP
  5
84B5
102
{ACAD_REACTORS
330
84B4
102
}
330
84B4
100
AcDbCellStyleMap
 90
        3
300
CELLSTYLE
  1
TABLEFORMAT_BEGIN
 90
        5
170
     1
 91
        0
 92
    32768
 62
   257
 93
        1
300
CONTENTFORMAT
  1
CONTENTFORMAT_BEGIN
 90
        0
 91
        0
 92
      512
 93
        0
300

 40
0.0
140
1.0
 94
        5
 62
     0
340
8143
144
0.25
309
CONTENTFORMAT_END
171
     0
 94
        0
309
TABLEFORMAT_END
  1
CELLSTYLE_BEGIN
 90
        1
 91
        1
300
_TITLE
309
CELLSTYLE_END
300
CELLSTYLE
  1
TABLEFORMAT_BEGIN
 90
        5
170
     1
 91
        0
 92
        0
 62
   257
 93
        1
300
CONTENTFORMAT
  1
CONTENTFORMAT_BEGIN
 90
        0
 91
        0
 92
      512
 93
        0
300

 40
0.0
140
1.0
 94
        5
 62
     0
340
8143
144
0.18
309
CONTENTFORMAT_END
171
     0
 94
        0
309
TABLEFORMAT_END
  1
CELLSTYLE_BEGIN
 90
        2
 91
        1
300
_HEADER
309
CELLSTYLE_END
300
CELLSTYLE
  1
TABLEFORMAT_BEGIN
 90
        5
170
     1
 91
        0
 92
        0
 62
   257
 93
        1
300
CONTENTFORMAT
  1
CONTENTFORMAT_BEGIN
 90
        0
 91
        0
 92
      512
 93
        0
300

 40
0.0
140
1.0
 94
        2
 62
     0
340
8143
144
0.18
309
CONTENTFORMAT_END
171
     0
 94
        0
309
TABLEFORMAT_END
  1
CELLSTYLE_BEGIN
 90
        3
 91
        2
300
_DATA
309
CELLSTYLE_END
  0
XRECORD
  5
84EB
102
{ACAD_REACTORS
330
84B4
102
}
330
84B4
100
AcDbXrecord
280
     1
102
ACAD_ROUNDTRIP_PRE2007_TABLESTYLE
 90
      512
 91
        0
  1

 92
      512
 93
        0
  2

 94
      512
 95
        0
  3

  0
XRECORD
  5
84C6
102
{ACAD_REACTORS
330
84C5
102
}
330
84C5
100
AcDbXrecord
280
     1
102
RTVSPost2010Prop28
280
     1
102
RTVSPost2010PropOp28
 70
     1
102
RTVSPost2010Prop29
280
     1
102
RTVSPost2010PropOp29
 70
     1
102
RTVSPost2010Prop30
280
     0
102
RTVSPost2010PropOp30
 70
     1
102
RTVSPost2010Prop31
280
     0
102
RTVSPost2010PropOp31
 70
     1
102
RTVSPost2010Prop32
280
     0
102
RTVSPost2010PropOp32
 70
     1
102
RTVSPost2010Prop33
280
     0
102
RTVSPost2010PropOp33
 70
     1
102
RTVSPost2010Prop34
280
     0
102
RTVSPost2010PropOp34
 70
     1
102
RTVSPost2010Prop35
280
     0
102
RTVSPost2010PropOp35
 70
     1
102
RTVSPost2010Prop36
280
     0
102
RTVSPost2010PropOp36
 70
     1
102
RTVSPost2010Prop37
 90
       50
102
RTVSPost2010PropOp37
 70
     1
102
RTVSPost2010Prop38
140
0.0
102
RTVSPost2010PropOp38
 70
     1
102
RTVSPost2010Prop39
140
1.0
102
RTVSPost2010PropOp39
 70
     1
102
RTVSPost2010Prop40
 90
        0
102
RTVSPost2010PropOp40
 70
     1
102
RTVSPost2010Prop41ColorIndex
 90
       18
102
RTVSPost2010Prop41ColorRGB
 90
        0
102
RTVSPost2010PropOp41
 70
     1
102
RTVSPost2010Prop42
 90
       50
102
RTVSPost2010PropOp42
 70
     1
102
RTVSPost2010Prop43
 90
        3
102
RTVSPost2010PropOp43
 70
     1
102
RTVSPost2010Prop44ColorIndex
 90
        5
102
RTVSPost2010Prop44ColorRGB
 90
      255
102
RTVSPost2010PropOp44
 70
     1
102
RTVSPost2010Prop45
280
     0
102
RTVSPost2010PropOp45
 70
     1
102
RTVSPost2010Prop46
 90
       50
102
RTVSPost2010PropOp46
 70
     1
102
RTVSPost2010Prop47
 90
       50
102
RTVSPost2010PropOp47
 70
     1
102
RTVSPost2010Prop48
 90
       50
102
RTVSPost2010PropOp48
 70
     1
102
RTVSPost2010Prop49
280
     0
102
RTVSPost2010PropOp49
 70
     1
102
RTVSPost2010Prop50
 90
       50
102
RTVSPost2010PropOp50
 70
     1
102
RTVSPost2010Prop51ColorIndex
 90
      256
102
RTVSPost2010Prop51ColorRGB
 90
-16777216
102
RTVSPost2010PropOp51
 70
     0
102
RTVSPost2010Prop52
140
1.0
102
RTVSPost2010PropOp52
 70
     0
102
RTVSPost2010Prop53
 90
        2
102
RTVSPost2010PropOp53
 70
     1
102
RTVSPost2010Prop54
  1
strokes_ogs.tif
102
RTVSPost2010PropOp54
 70
     1
102
RTVSPost2010Prop55
280
     0
102
RTVSPost2010PropOp55
 70
     1
102
RTVSPost2010Prop56
140
1.0
102
RTVSPost2010PropOp56
 70
     1
102
RTVSPost2010Prop57
140
1.0
102
RTVSPost2010PropOp57
 70
     1
102
RTVSPropertyOp0
 70
     1
102
RTVSPropertyOp1
 70
     1
102
RTVSPropertyOp2
 70
     1
102
RTVSPropertyOp3
 70
     1
102
RTVSPropertyOp4
 70
     1
102
RTVSPropertyOp5
 70
     1
102
RTVSPropertyOp6
 70
     1
102
RTVSPropertyOp7
 70
     1
102
RTVSPropertyOp8
 70
     1
102
RTVSPropertyOp9
 70
     1
102
RTVSPropertyOp10
 70
     1
102
RTVSPropertyOp11
 70
     1
102
RTVSPropertyOp12
 70
     1
102
RTVSPropertyOp13
 70
     1
102
RTVSPropertyOp14
 70
     1
102
RTVSPropertyOp15
 70
     1
102
RTVSPropertyOp16
 70
     1
102
RTVSPropertyOp17
 70
     1
102
RTVSPropertyOp18
 70
     1
102
RTVSPropertyOp19
 70
     1
102
RTVSPropertyOp20
 70
     1
102
RTVSPropertyOp21
 70
     1
102
RTVSPropertyOp22
 70
     1
102
RTVSPropertyOp23
 70
     1
102
RTVSPropertyOp24
 70
     1
102
RTVSPropertyOp25
 70
     1
102
RTVSPropertyOp26
 70
     1
102
RTVSPropertyOp27
 70
     1
102
RTVSPropertyOp28
 70
     1
102
RTVSPropertyOp29
 70
     1
102
RTVSPropertyOp30
 70
     1
102
RTVSPropertyOp31
 70
     1
102
RTVSPropertyOp32
 70
     1
102
RTVSPropertyOp33
 70
     1
102
RTVSPropertyOp34
 70
     1
102
RTVSPropertyOp35
 70
     1
102
RTVSPropertyOp36
 70
     1
102
RTVSPropertyOp37
 70
     1
102
RTVSPropertyOp38
 70
     1
102
RTVSPropertyOp39
 70
     1
102
RTVSPropertyOp40
 70
     1
102
RTVSPropertyOp41
 70
     1
102
RTVSPropertyOp42
 70
     1
102
RTVSPropertyOp43
 70
     1
102
RTVSPropertyOp44
 70
     1
102
RTVSPropertyOp45
 70
     1
102
RTVSPropertyOp46
 70
     1
102
RTVSPropertyOp47
 70
     1
102
RTVSPropertyOp48
 70
     1
102
RTVSPropertyOp49
 70
     1
102
RTVSPropertyOp50
 70
     1
102
RTVSPropertyOp51
 70
     0
102
RTVSPropertyOp52
 70
     0
102
RTVSPropertyOp53
 70
     1
102
RTVSPropertyOp54
 70
     1
102
RTVSPropertyOp55
 70
     1
102
RTVSPropertyOp56
 70
     1
102
RTVSPropertyOp57
 70
     1
102
RTVSPropertyOp58
 70
     1
102
RTVSPropertyOp59
 70
     1
102
RTVSPropertyOp60
 70
     1
102
RTVSPropertyOp61
 70
     1
102
RTVSPropertyOp62
 70
     1
  0
XRECORD
  5
84C4
102
{ACAD_REACTORS
330
84C3
102
}
330
84C3
100
AcDbXrecord
280
     1
102
RTVSPost2010Prop28
280
     0
102
RTVSPost2010PropOp28
 70
     1
102
RTVSPost2010Prop29
280
     1
102
RTVSPost2010PropOp29
 70
     1
102
RTVSPost2010Prop30
280
     1
102
RTVSPost2010PropOp30
 70
     1
102
RTVSPost2010Prop31
280
     0
102
RTVSPost2010PropOp31
 70
     1
102
RTVSPost2010Prop32
280
     0
102
RTVSPost2010PropOp32
 70
     1
102
RTVSPost2010Prop33
280
     0
102
RTVSPost2010PropOp33
 70
     1
102
RTVSPost2010Prop34
280
     0
102
RTVSPost2010PropOp34
 70
     1
102
RTVSPost2010Prop35
280
     0
102
RTVSPost2010PropOp35
 70
     1
102
RTVSPost2010Prop36
280
     0
102
RTVSPost2010PropOp36
 70
     1
102
RTVSPost2010Prop37
 90
       50
102
RTVSPost2010PropOp37
 70
     1
102
RTVSPost2010Prop38
140
0.0
102
RTVSPost2010PropOp38
 70
     1
102
RTVSPost2010Prop39
140
1.0
102
RTVSPost2010PropOp39
 70
     1
102
RTVSPost2010Prop40
 90
        0
102
RTVSPost2010PropOp40
 70
     1
102
RTVSPost2010Prop41ColorIndex
 90
       18
102
RTVSPost2010Prop41ColorRGB
 90
        0
102
RTVSPost2010PropOp41
 70
     1
102
RTVSPost2010Prop42
 90
       50
102
RTVSPost2010PropOp42
 70
     1
102
RTVSPost2010Prop43
 90
        3
102
RTVSPost2010PropOp43
 70
     1
102
RTVSPost2010Prop44ColorIndex
 90
        5
102
RTVSPost2010Prop44ColorRGB
 90
      255
102
RTVSPost2010PropOp44
 70
     1
102
RTVSPost2010Prop45
280
     0
102
RTVSPost2010PropOp45
 70
     1
102
RTVSPost2010Prop46
 90
       50
102
RTVSPost2010PropOp46
 70
     1
102
RTVSPost2010Prop47
 90
       50
102
RTVSPost2010PropOp47
 70
     1
102
RTVSPost2010Prop48
 90
       50
102
RTVSPost2010PropOp48
 70
     1
102
RTVSPost2010Prop49
280
     0
102
RTVSPost2010PropOp49
 70
     1
102
RTVSPost2010Prop50
 90
       50
102
RTVSPost2010PropOp50
 70
     1
102
RTVSPost2010Prop51ColorIndex
 90
      256
102
RTVSPost2010Prop51ColorRGB
 90
-16777216
102
RTVSPost2010PropOp51
 70
     0
102
RTVSPost2010Prop52
140
1.0
102
RTVSPost2010PropOp52
 70
     0
102
RTVSPost2010Prop53
 90
        2
102
RTVSPost2010PropOp53
 70
     1
102
RTVSPost2010Prop54
  1
strokes_ogs.tif
102
RTVSPost2010PropOp54
 70
     1
102
RTVSPost2010Prop55
280
     0
102
RTVSPost2010PropOp55
 70
     1
102
RTVSPost2010Prop56
140
1.0
102
RTVSPost2010PropOp56
 70
     1
102
RTVSPost2010Prop57
140
1.0
102
RTVSPost2010PropOp57
 70
     1
102
RTVSPropertyOp0
 70
     1
102
RTVSPropertyOp1
 70
     1
102
RTVSPropertyOp2
 70
     1
102
RTVSPropertyOp3
 70
     1
102
RTVSPropertyOp4
 70
     1
102
RTVSPropertyOp5
 70
     1
102
RTVSPropertyOp6
 70
     1
102
RTVSPropertyOp7
 70
     1
102
RTVSPropertyOp8
 70
     1
102
RTVSPropertyOp9
 70
     1
102
RTVSPropertyOp10
 70
     1
102
RTVSPropertyOp11
 70
     1
102
RTVSPropertyOp12
 70
     1
102
RTVSPropertyOp13
 70
     1
102
RTVSPropertyOp14
 70
     1
102
RTVSPropertyOp15
 70
     1
102
RTVSPropertyOp16
 70
     1
102
RTVSPropertyOp17
 70
     1
102
RTVSPropertyOp18
 70
     1
102
RTVSPropertyOp19
 70
     1
102
RTVSPropertyOp20
 70
     1
102
RTVSPropertyOp21
 70
     1
102
RTVSPropertyOp22
 70
     1
102
RTVSPropertyOp23
 70
     1
102
RTVSPropertyOp24
 70
     1
102
RTVSPropertyOp25
 70
     1
102
RTVSPropertyOp26
 70
     1
102
RTVSPropertyOp27
 70
     1
102
RTVSPropertyOp28
 70
     1
102
RTVSPropertyOp29
 70
     1
102
RTVSPropertyOp30
 70
     1
102
RTVSPropertyOp31
 70
     1
102
RTVSPropertyOp32
 70
     1
102
RTVSPropertyOp33
 70
     1
102
RTVSPropertyOp34
 70
     1
102
RTVSPropertyOp35
 70
     1
102
RTVSPropertyOp36
 70
     1
102
RTVSPropertyOp37
 70
     1
102
RTVSPropertyOp38
 70
     1
102
RTVSPropertyOp39
 70
     1
102
RTVSPropertyOp40
 70
     1
102
RTVSPropertyOp41
 70
     1
102
RTVSPropertyOp42
 70
     1
102
RTVSPropertyOp43
 70
     1
102
RTVSPropertyOp44
 70
     1
102
RTVSPropertyOp45
 70
     1
102
RTVSPropertyOp46
 70
     1
102
RTVSPropertyOp47
 70
     1
102
RTVSPropertyOp48
 70
     1
102
RTVSPropertyOp49
 70
     1
102
RTVSPropertyOp50
 70
     1
102
RTVSPropertyOp51
 70
     0
102
RTVSPropertyOp52
 70
     0
102
RTVSPropertyOp53
 70
     1
102
RTVSPropertyOp54
 70
     1
102
RTVSPropertyOp55
 70
     1
102
RTVSPropertyOp56
 70
     1
102
RTVSPropertyOp57
 70
     1
102
RTVSPropertyOp58
 70
     1
102
RTVSPropertyOp59
 70
     1
102
RTVSPropertyOp60
 70
     1
102
RTVSPropertyOp61
 70
     1
102
RTVSPropertyOp62
 70
     1
  0
XRECORD
  5
84D2
102
{ACAD_REACTORS
330
84D1
102
}
330
84D1
100
AcDbXrecord
280
     1
102
RTVSPost2010Prop28
280
     0
102
RTVSPost2010PropOp28
 70
     1
102
RTVSPost2010Prop29
280
     1
102
RTVSPost2010PropOp29
 70
     1
102
RTVSPost2010Prop30
280
     1
102
RTVSPost2010PropOp30
 70
     1
102
RTVSPost2010Prop31
280
     0
102
RTVSPost2010PropOp31
 70
     1
102
RTVSPost2010Prop32
280
     0
102
RTVSPost2010PropOp32
 70
     1
102
RTVSPost2010Prop33
280
     0
102
RTVSPost2010PropOp33
 70
     1
102
RTVSPost2010Prop34
280
     0
102
RTVSPost2010PropOp34
 70
     1
102
RTVSPost2010Prop35
280
     0
102
RTVSPost2010PropOp35
 70
     1
102
RTVSPost2010Prop36
280
     0
102
RTVSPost2010PropOp36
 70
     1
102
RTVSPost2010Prop37
 90
       50
102
RTVSPost2010PropOp37
 70
     1
102
RTVSPost2010Prop38
140
0.0
102
RTVSPost2010PropOp38
 70
     1
102
RTVSPost2010Prop39
140
1.0
102
RTVSPost2010PropOp39
 70
     1
102
RTVSPost2010Prop40
 90
        0
102
RTVSPost2010PropOp40
 70
     1
102
RTVSPost2010Prop41ColorIndex
 90
       18
102
RTVSPost2010Prop41ColorRGB
 90
        0
102
RTVSPost2010PropOp41
 70
     1
102
RTVSPost2010Prop42
 90
       50
102
RTVSPost2010PropOp42
 70
     1
102
RTVSPost2010Prop43
 90
        3
102
RTVSPost2010PropOp43
 70
     1
102
RTVSPost2010Prop44ColorIndex
 90
        5
102
RTVSPost2010Prop44ColorRGB
 90
      255
102
RTVSPost2010PropOp44
 70
     1
102
RTVSPost2010Prop45
280
     0
102
RTVSPost2010PropOp45
 70
     1
102
RTVSPost2010Prop46
 90
       50
102
RTVSPost2010PropOp46
 70
     1
102
RTVSPost2010Prop47
 90
       50
102
RTVSPost2010PropOp47
 70
     1
102
RTVSPost2010Prop48
 90
       50
102
RTVSPost2010PropOp48
 70
     1
102
RTVSPost2010Prop49
280
     0
102
RTVSPost2010PropOp49
 70
     1
102
RTVSPost2010Prop50
 90
       50
102
RTVSPost2010PropOp50
 70
     1
102
RTVSPost2010Prop51ColorIndex
 90
      256
102
RTVSPost2010Prop51ColorRGB
 90
-16777216
102
RTVSPost2010PropOp51
 70
     0
102
RTVSPost2010Prop52
140
1.0
102
RTVSPost2010PropOp52
 70
     0
102
RTVSPost2010Prop53
 90
        2
102
RTVSPost2010PropOp53
 70
     1
102
RTVSPost2010Prop54
  1
strokes_ogs.tif
102
RTVSPost2010PropOp54
 70
     1
102
RTVSPost2010Prop55
280
     0
102
RTVSPost2010PropOp55
 70
     1
102
RTVSPost2010Prop56
140
1.0
102
RTVSPost2010PropOp56
 70
     1
102
RTVSPost2010Prop57
140
1.0
102
RTVSPost2010PropOp57
 70
     1
102
RTVSPropertyOp0
 70
     1
102
RTVSPropertyOp1
 70
     1
102
RTVSPropertyOp2
 70
     1
102
RTVSPropertyOp3
 70
     1
102
RTVSPropertyOp4
 70
     1
102
RTVSPropertyOp5
 70
     1
102
RTVSPropertyOp6
 70
     1
102
RTVSPropertyOp7
 70
     1
102
RTVSPropertyOp8
 70
     1
102
RTVSPropertyOp9
 70
     1
102
RTVSPropertyOp10
 70
     1
102
RTVSPropertyOp11
 70
     1
102
RTVSPropertyOp12
 70
     1
102
RTVSPropertyOp13
 70
     1
102
RTVSPropertyOp14
 70
     1
102
RTVSPropertyOp15
 70
     1
102
RTVSPropertyOp16
 70
     1
102
RTVSPropertyOp17
 70
     1
102
RTVSPropertyOp18
 70
     1
102
RTVSPropertyOp19
 70
     1
102
RTVSPropertyOp20
 70
     1
102
RTVSPropertyOp21
 70
     1
102
RTVSPropertyOp22
 70
     1
102
RTVSPropertyOp23
 70
     1
102
RTVSPropertyOp24
 70
     1
102
RTVSPropertyOp25
 70
     1
102
RTVSPropertyOp26
 70
     1
102
RTVSPropertyOp27
 70
     1
102
RTVSPropertyOp28
 70
     1
102
RTVSPropertyOp29
 70
     1
102
RTVSPropertyOp30
 70
     1
102
RTVSPropertyOp31
 70
     1
102
RTVSPropertyOp32
 70
     1
102
RTVSPropertyOp33
 70
     1
102
RTVSPropertyOp34
 70
     1
102
RTVSPropertyOp35
 70
     1
102
RTVSPropertyOp36
 70
     1
102
RTVSPropertyOp37
 70
     1
102
RTVSPropertyOp38
 70
     1
102
RTVSPropertyOp39
 70
     1
102
RTVSPropertyOp40
 70
     1
102
RTVSPropertyOp41
 70
     1
102
RTVSPropertyOp42
 70
     1
102
RTVSPropertyOp43
 70
     1
102
RTVSPropertyOp44
 70
     1
102
RTVSPropertyOp45
 70
     1
102
RTVSPropertyOp46
 70
     1
102
RTVSPropertyOp47
 70
     1
102
RTVSPropertyOp48
 70
     1
102
RTVSPropertyOp49
 70
     1
102
RTVSPropertyOp50
 70
     1
102
RTVSPropertyOp51
 70
     0
102
RTVSPropertyOp52
 70
     0
102
RTVSPropertyOp53
 70
     1
102
RTVSPropertyOp54
 70
     1
102
RTVSPropertyOp55
 70
     1
102
RTVSPropertyOp56
 70
     1
102
RTVSPropertyOp57
 70
     1
102
RTVSPropertyOp58
 70
     1
102
RTVSPropertyOp59
 70
     1
102
RTVSPropertyOp60
 70
     1
102
RTVSPropertyOp61
 70
     1
102
RTVSPropertyOp62
 70
     1
  0
XRECORD
  5
84DA
102
{ACAD_REACTORS
330
84D9
102
}
330
84D9
100
AcDbXrecord
280
     1
102
RTVSPost2010Prop28
280
     0
102
RTVSPost2010PropOp28
 70
     1
102
RTVSPost2010Prop29
280
     1
102
RTVSPost2010PropOp29
 70
     1
102
RTVSPost2010Prop30
280
     1
102
RTVSPost2010PropOp30
 70
     1
102
RTVSPost2010Prop31
280
     0
102
RTVSPost2010PropOp31
 70
     1
102
RTVSPost2010Prop32
280
     0
102
RTVSPost2010PropOp32
 70
     1
102
RTVSPost2010Prop33
280
     0
102
RTVSPost2010PropOp33
 70
     1
102
RTVSPost2010Prop34
280
     0
102
RTVSPost2010PropOp34
 70
     1
102
RTVSPost2010Prop35
280
     0
102
RTVSPost2010PropOp35
 70
     1
102
RTVSPost2010Prop36
280
     0
102
RTVSPost2010PropOp36
 70
     1
102
RTVSPost2010Prop37
 90
       50
102
RTVSPost2010PropOp37
 70
     1
102
RTVSPost2010Prop38
140
0.0
102
RTVSPost2010PropOp38
 70
     1
102
RTVSPost2010Prop39
140
1.0
102
RTVSPost2010PropOp39
 70
     1
102
RTVSPost2010Prop40
 90
        0
102
RTVSPost2010PropOp40
 70
     1
102
RTVSPost2010Prop41ColorIndex
 90
       18
102
RTVSPost2010Prop41ColorRGB
 90
        0
102
RTVSPost2010PropOp41
 70
     1
102
RTVSPost2010Prop42
 90
       50
102
RTVSPost2010PropOp42
 70
     1
102
RTVSPost2010Prop43
 90
        3
102
RTVSPost2010PropOp43
 70
     1
102
RTVSPost2010Prop44ColorIndex
 90
        5
102
RTVSPost2010Prop44ColorRGB
 90
      255
102
RTVSPost2010PropOp44
 70
     1
102
RTVSPost2010Prop45
280
     0
102
RTVSPost2010PropOp45
 70
     1
102
RTVSPost2010Prop46
 90
       50
102
RTVSPost2010PropOp46
 70
     1
102
RTVSPost2010Prop47
 90
       50
102
RTVSPost2010PropOp47
 70
     1
102
RTVSPost2010Prop48
 90
       50
102
RTVSPost2010PropOp48
 70
     1
102
RTVSPost2010Prop49
280
     0
102
RTVSPost2010PropOp49
 70
     1
102
RTVSPost2010Prop50
 90
       50
102
RTVSPost2010PropOp50
 70
     1
102
RTVSPost2010Prop51ColorIndex
 90
      256
102
RTVSPost2010Prop51ColorRGB
 90
-16777216
102
RTVSPost2010PropOp51
 70
     0
102
RTVSPost2010Prop52
140
1.0
102
RTVSPost2010PropOp52
 70
     0
102
RTVSPost2010Prop53
 90
        2
102
RTVSPost2010PropOp53
 70
     1
102
RTVSPost2010Prop54
  1
strokes_ogs.tif
102
RTVSPost2010PropOp54
 70
     1
102
RTVSPost2010Prop55
280
     0
102
RTVSPost2010PropOp55
 70
     1
102
RTVSPost2010Prop56
140
1.0
102
RTVSPost2010PropOp56
 70
     1
102
RTVSPost2010Prop57
140
1.0
102
RTVSPost2010PropOp57
 70
     1
102
RTVSPropertyOp0
 70
     1
102
RTVSPropertyOp1
 70
     1
102
RTVSPropertyOp2
 70
     1
102
RTVSPropertyOp3
 70
     1
102
RTVSPropertyOp4
 70
     1
102
RTVSPropertyOp5
 70
     1
102
RTVSPropertyOp6
 70
     1
102
RTVSPropertyOp7
 70
     1
102
RTVSPropertyOp8
 70
     1
102
RTVSPropertyOp9
 70
     1
102
RTVSPropertyOp10
 70
     1
102
RTVSPropertyOp11
 70
     1
102
RTVSPropertyOp12
 70
     1
102
RTVSPropertyOp13
 70
     1
102
RTVSPropertyOp14
 70
     1
102
RTVSPropertyOp15
 70
     1
102
RTVSPropertyOp16
 70
     1
102
RTVSPropertyOp17
 70
     1
102
RTVSPropertyOp18
 70
     1
102
RTVSPropertyOp19
 70
     1
102
RTVSPropertyOp20
 70
     1
102
RTVSPropertyOp21
 70
     1
102
RTVSPropertyOp22
 70
     1
102
RTVSPropertyOp23
 70
     1
102
RTVSPropertyOp24
 70
     1
102
RTVSPropertyOp25
 70
     1
102
RTVSPropertyOp26
 70
     1
102
RTVSPropertyOp27
 70
     1
102
RTVSPropertyOp28
 70
     1
102
RTVSPropertyOp29
 70
     1
102
RTVSPropertyOp30
 70
     1
102
RTVSPropertyOp31
 70
     1
102
RTVSPropertyOp32
 70
     1
102
RTVSPropertyOp33
 70
     1
102
RTVSPropertyOp34
 70
     1
102
RTVSPropertyOp35
 70
     1
102
RTVSPropertyOp36
 70
     1
102
RTVSPropertyOp37
 70
     1
102
RTVSPropertyOp38
 70
     1
102
RTVSPropertyOp39
 70
     1
102
RTVSPropertyOp40
 70
     1
102
RTVSPropertyOp41
 70
     1
102
RTVSPropertyOp42
 70
     1
102
RTVSPropertyOp43
 70
     1
102
RTVSPropertyOp44
 70
     1
102
RTVSPropertyOp45
 70
     1
102
RTVSPropertyOp46
 70
     1
102
RTVSPropertyOp47
 70
     1
102
RTVSPropertyOp48
 70
     1
102
RTVSPropertyOp49
 70
     1
102
RTVSPropertyOp50
 70
     1
102
RTVSPropertyOp51
 70
     0
102
RTVSPropertyOp52
 70
     0
102
RTVSPropertyOp53
 70
     1
102
RTVSPropertyOp54
 70
     1
102
RTVSPropertyOp55
 70
     1
102
RTVSPropertyOp56
 70
     1
102
RTVSPropertyOp57
 70
     1
102
RTVSPropertyOp58
 70
     1
102
RTVSPropertyOp59
 70
     1
102
RTVSPropertyOp60
 70
     1
102
RTVSPropertyOp61
 70
     1
102
RTVSPropertyOp62
 70
     1
  0
XRECORD
  5
84CC
102
{ACAD_REACTORS
330
84CB
102
}
330
84CB
100
AcDbXrecord
280
     1
102
RTVSPost2010Prop28
280
     0
102
RTVSPost2010PropOp28
 70
     1
102
RTVSPost2010Prop29
280
     1
102
RTVSPost2010PropOp29
 70
     1
102
RTVSPost2010Prop30
280
     1
102
RTVSPost2010PropOp30
 70
     1
102
RTVSPost2010Prop31
280
     0
102
RTVSPost2010PropOp31
 70
     1
102
RTVSPost2010Prop32
280
     0
102
RTVSPost2010PropOp32
 70
     1
102
RTVSPost2010Prop33
280
     0
102
RTVSPost2010PropOp33
 70
     1
102
RTVSPost2010Prop34
280
     0
102
RTVSPost2010PropOp34
 70
     1
102
RTVSPost2010Prop35
280
     0
102
RTVSPost2010PropOp35
 70
     1
102
RTVSPost2010Prop36
280
     0
102
RTVSPost2010PropOp36
 70
     1
102
RTVSPost2010Prop37
 90
       50
102
RTVSPost2010PropOp37
 70
     1
102
RTVSPost2010Prop38
140
0.0
102
RTVSPost2010PropOp38
 70
     1
102
RTVSPost2010Prop39
140
1.0
102
RTVSPost2010PropOp39
 70
     1
102
RTVSPost2010Prop40
 90
        0
102
RTVSPost2010PropOp40
 70
     1
102
RTVSPost2010Prop41ColorIndex
 90
       18
102
RTVSPost2010Prop41ColorRGB
 90
        0
102
RTVSPost2010PropOp41
 70
     1
102
RTVSPost2010Prop42
 90
       50
102
RTVSPost2010PropOp42
 70
     1
102
RTVSPost2010Prop43
 90
        3
102
RTVSPost2010PropOp43
 70
     1
102
RTVSPost2010Prop44ColorIndex
 90
        5
102
RTVSPost2010Prop44ColorRGB
 90
      255
102
RTVSPost2010PropOp44
 70
     1
102
RTVSPost2010Prop45
280
     0
102
RTVSPost2010PropOp45
 70
     1
102
RTVSPost2010Prop46
 90
       50
102
RTVSPost2010PropOp46
 70
     1
102
RTVSPost2010Prop47
 90
       50
102
RTVSPost2010PropOp47
 70
     1
102
RTVSPost2010Prop48
 90
       50
102
RTVSPost2010PropOp48
 70
     1
102
RTVSPost2010Prop49
280
     0
102
RTVSPost2010PropOp49
 70
     1
102
RTVSPost2010Prop50
 90
       50
102
RTVSPost2010PropOp50
 70
     1
102
RTVSPost2010Prop51ColorIndex
 90
      256
102
RTVSPost2010Prop51ColorRGB
 90
-16777216
102
RTVSPost2010PropOp51
 70
     0
102
RTVSPost2010Prop52
140
1.0
102
RTVSPost2010PropOp52
 70
     0
102
RTVSPost2010Prop53
 90
        2
102
RTVSPost2010PropOp53
 70
     1
102
RTVSPost2010Prop54
  1
strokes_ogs.tif
102
RTVSPost2010PropOp54
 70
     1
102
RTVSPost2010Prop55
280
     0
102
RTVSPost2010PropOp55
 70
     1
102
RTVSPost2010Prop56
140
1.0
102
RTVSPost2010PropOp56
 70
     1
102
RTVSPost2010Prop57
140
1.0
102
RTVSPost2010PropOp57
 70
     1
102
RTVSPropertyOp0
 70
     1
102
RTVSPropertyOp1
 70
     1
102
RTVSPropertyOp2
 70
     1
102
RTVSPropertyOp3
 70
     1
102
RTVSPropertyOp4
 70
     1
102
RTVSPropertyOp5
 70
     1
102
RTVSPropertyOp6
 70
     1
102
RTVSPropertyOp7
 70
     1
102
RTVSPropertyOp8
 70
     1
102
RTVSPropertyOp9
 70
     1
102
RTVSPropertyOp10
 70
     1
102
RTVSPropertyOp11
 70
     1
102
RTVSPropertyOp12
 70
     1
102
RTVSPropertyOp13
 70
     1
102
RTVSPropertyOp14
 70
     1
102
RTVSPropertyOp15
 70
     1
102
RTVSPropertyOp16
 70
     1
102
RTVSPropertyOp17
 70
     1
102
RTVSPropertyOp18
 70
     1
102
RTVSPropertyOp19
 70
     1
102
RTVSPropertyOp20
 70
     1
102
RTVSPropertyOp21
 70
     1
102
RTVSPropertyOp22
 70
     1
102
RTVSPropertyOp23
 70
     1
102
RTVSPropertyOp24
 70
     1
102
RTVSPropertyOp25
 70
     1
102
RTVSPropertyOp26
 70
     1
102
RTVSPropertyOp27
 70
     1
102
RTVSPropertyOp28
 70
     1
102
RTVSPropertyOp29
 70
     1
102
RTVSPropertyOp30
 70
     1
102
RTVSPropertyOp31
 70
     1
102
RTVSPropertyOp32
 70
     1
102
RTVSPropertyOp33
 70
     1
102
RTVSPropertyOp34
 70
     1
102
RTVSPropertyOp35
 70
     1
102
RTVSPropertyOp36
 70
     1
102
RTVSPropertyOp37
 70
     1
102
RTVSPropertyOp38
 70
     1
102
RTVSPropertyOp39
 70
     1
102
RTVSPropertyOp40
 70
     1
102
RTVSPropertyOp41
 70
     1
102
RTVSPropertyOp42
 70
     1
102
RTVSPropertyOp43
 70
     1
102
RTVSPropertyOp44
 70
     1
102
RTVSPropertyOp45
 70
     1
102
RTVSPropertyOp46
 70
     1
102
RTVSPropertyOp47
 70
     1
102
RTVSPropertyOp48
 70
     1
102
RTVSPropertyOp49
 70
     1
102
RTVSPropertyOp50
 70
     1
102
RTVSPropertyOp51
 70
     0
102
RTVSPropertyOp52
 70
     0
102
RTVSPropertyOp53
 70
     1
102
RTVSPropertyOp54
 70
     1
102
RTVSPropertyOp55
 70
     1
102
RTVSPropertyOp56
 70
     1
102
RTVSPropertyOp57
 70
     1
102
RTVSPropertyOp58
 70
     1
102
RTVSPropertyOp59
 70
     1
102
RTVSPropertyOp60
 70
     1
102
RTVSPropertyOp61
 70
     1
102
RTVSPropertyOp62
 70
     1
  0
XRECORD
  5
84D0
102
{ACAD_REACTORS
330
84CF
102
}
330
84CF
100
AcDbXrecord
280
     1
102
RTVSPost2010Prop28
280
     0
102
RTVSPost2010PropOp28
 70
     1
102
RTVSPost2010Prop29
280
     1
102
RTVSPost2010PropOp29
 70
     1
102
RTVSPost2010Prop30
280
     1
102
RTVSPost2010PropOp30
 70
     1
102
RTVSPost2010Prop31
280
     0
102
RTVSPost2010PropOp31
 70
     1
102
RTVSPost2010Prop32
280
     0
102
RTVSPost2010PropOp32
 70
     1
102
RTVSPost2010Prop33
280
     0
102
RTVSPost2010PropOp33
 70
     1
102
RTVSPost2010Prop34
280
     0
102
RTVSPost2010PropOp34
 70
     1
102
RTVSPost2010Prop35
280
     0
102
RTVSPost2010PropOp35
 70
     1
102
RTVSPost2010Prop36
280
     0
102
RTVSPost2010PropOp36
 70
     1
102
RTVSPost2010Prop37
 90
       50
102
RTVSPost2010PropOp37
 70
     1
102
RTVSPost2010Prop38
140
0.0
102
RTVSPost2010PropOp38
 70
     1
102
RTVSPost2010Prop39
140
1.0
102
RTVSPost2010PropOp39
 70
     1
102
RTVSPost2010Prop40
 90
        0
102
RTVSPost2010PropOp40
 70
     1
102
RTVSPost2010Prop41ColorIndex
 90
       18
102
RTVSPost2010Prop41ColorRGB
 90
        0
102
RTVSPost2010PropOp41
 70
     1
102
RTVSPost2010Prop42
 90
       50
102
RTVSPost2010PropOp42
 70
     1
102
RTVSPost2010Prop43
 90
        3
102
RTVSPost2010PropOp43
 70
     1
102
RTVSPost2010Prop44ColorIndex
 90
        5
102
RTVSPost2010Prop44ColorRGB
 90
      255
102
RTVSPost2010PropOp44
 70
     1
102
RTVSPost2010Prop45
280
     0
102
RTVSPost2010PropOp45
 70
     1
102
RTVSPost2010Prop46
 90
       50
102
RTVSPost2010PropOp46
 70
     1
102
RTVSPost2010Prop47
 90
       50
102
RTVSPost2010PropOp47
 70
     1
102
RTVSPost2010Prop48
 90
       50
102
RTVSPost2010PropOp48
 70
     1
102
RTVSPost2010Prop49
280
     0
102
RTVSPost2010PropOp49
 70
     1
102
RTVSPost2010Prop50
 90
       50
102
RTVSPost2010PropOp50
 70
     1
102
RTVSPost2010Prop51ColorIndex
 90
      256
102
RTVSPost2010Prop51ColorRGB
 90
-16777216
102
RTVSPost2010PropOp51
 70
     0
102
RTVSPost2010Prop52
140
1.0
102
RTVSPost2010PropOp52
 70
     0
102
RTVSPost2010Prop53
 90
        2
102
RTVSPost2010PropOp53
 70
     1
102
RTVSPost2010Prop54
  1
strokes_ogs.tif
102
RTVSPost2010PropOp54
 70
     1
102
RTVSPost2010Prop55
280
     0
102
RTVSPost2010PropOp55
 70
     1
102
RTVSPost2010Prop56
140
1.0
102
RTVSPost2010PropOp56
 70
     1
102
RTVSPost2010Prop57
140
1.0
102
RTVSPost2010PropOp57
 70
     1
102
RTVSPropertyOp0
 70
     1
102
RTVSPropertyOp1
 70
     1
102
RTVSPropertyOp2
 70
     1
102
RTVSPropertyOp3
 70
     1
102
RTVSPropertyOp4
 70
     1
102
RTVSPropertyOp5
 70
     1
102
RTVSPropertyOp6
 70
     1
102
RTVSPropertyOp7
 70
     1
102
RTVSPropertyOp8
 70
     1
102
RTVSPropertyOp9
 70
     1
102
RTVSPropertyOp10
 70
     1
102
RTVSPropertyOp11
 70
     1
102
RTVSPropertyOp12
 70
     1
102
RTVSPropertyOp13
 70
     1
102
RTVSPropertyOp14
 70
     1
102
RTVSPropertyOp15
 70
     1
102
RTVSPropertyOp16
 70
     1
102
RTVSPropertyOp17
 70
     1
102
RTVSPropertyOp18
 70
     1
102
RTVSPropertyOp19
 70
     1
102
RTVSPropertyOp20
 70
     1
102
RTVSPropertyOp21
 70
     1
102
RTVSPropertyOp22
 70
     1
102
RTVSPropertyOp23
 70
     1
102
RTVSPropertyOp24
 70
     1
102
RTVSPropertyOp25
 70
     1
102
RTVSPropertyOp26
 70
     1
102
RTVSPropertyOp27
 70
     1
102
RTVSPropertyOp28
 70
     1
102
RTVSPropertyOp29
 70
     1
102
RTVSPropertyOp30
 70
     1
102
RTVSPropertyOp31
 70
     1
102
RTVSPropertyOp32
 70
     1
102
RTVSPropertyOp33
 70
     1
102
RTVSPropertyOp34
 70
     1
102
RTVSPropertyOp35
 70
     1
102
RTVSPropertyOp36
 70
     1
102
RTVSPropertyOp37
 70
     1
102
RTVSPropertyOp38
 70
     1
102
RTVSPropertyOp39
 70
     1
102
RTVSPropertyOp40
 70
     1
102
RTVSPropertyOp41
 70
     1
102
RTVSPropertyOp42
 70
     1
102
RTVSPropertyOp43
 70
     1
102
RTVSPropertyOp44
 70
     1
102
RTVSPropertyOp45
 70
     1
102
RTVSPropertyOp46
 70
     1
102
RTVSPropertyOp47
 70
     1
102
RTVSPropertyOp48
 70
     1
102
RTVSPropertyOp49
 70
     1
102
RTVSPropertyOp50
 70
     1
102
RTVSPropertyOp51
 70
     0
102
RTVSPropertyOp52
 70
     0
102
RTVSPropertyOp53
 70
     1
102
RTVSPropertyOp54
 70
     1
102
RTVSPropertyOp55
 70
     1
102
RTVSPropertyOp56
 70
     1
102
RTVSPropertyOp57
 70
     1
102
RTVSPropertyOp58
 70
     1
102
RTVSPropertyOp59
 70
     1
102
RTVSPropertyOp60
 70
     1
102
RTVSPropertyOp61
 70
     1
102
RTVSPropertyOp62
 70
     1
  0
XRECORD
  5
84EA
102
{ACAD_REACTORS
330
84E9
102
}
330
84E9
100
AcDbXrecord
280
     1
102
RTVSPost2010Prop28
280
     0
102
RTVSPost2010PropOp28
 70
     1
102
RTVSPost2010Prop29
280
     1
102
RTVSPost2010PropOp29
 70
     1
102
RTVSPost2010Prop30
280
     1
102
RTVSPost2010PropOp30
 70
     1
102
RTVSPost2010Prop31
280
     0
102
RTVSPost2010PropOp31
 70
     1
102
RTVSPost2010Prop32
280
     0
102
RTVSPost2010PropOp32
 70
     1
102
RTVSPost2010Prop33
280
     0
102
RTVSPost2010PropOp33
 70
     1
102
RTVSPost2010Prop34
280
     0
102
RTVSPost2010PropOp34
 70
     1
102
RTVSPost2010Prop35
280
     0
102
RTVSPost2010PropOp35
 70
     1
102
RTVSPost2010Prop36
280
     0
102
RTVSPost2010PropOp36
 70
     1
102
RTVSPost2010Prop37
 90
       50
102
RTVSPost2010PropOp37
 70
     0
102
RTVSPost2010Prop38
140
0.0
102
RTVSPost2010PropOp38
 70
     0
102
RTVSPost2010Prop39
140
1.0
102
RTVSPost2010PropOp39
 70
     0
102
RTVSPost2010Prop40
 90
        0
102
RTVSPost2010PropOp40
 70
     0
102
RTVSPost2010Prop41ColorIndex
 90
       18
102
RTVSPost2010Prop41ColorRGB
 90
        0
102
RTVSPost2010PropOp41
 70
     0
102
RTVSPost2010Prop42
 90
       50
102
RTVSPost2010PropOp42
 70
     0
102
RTVSPost2010Prop43
 90
        3
102
RTVSPost2010PropOp43
 70
     0
102
RTVSPost2010Prop44ColorIndex
 90
        5
102
RTVSPost2010Prop44ColorRGB
 90
      255
102
RTVSPost2010PropOp44
 70
     0
102
RTVSPost2010Prop45
280
     0
102
RTVSPost2010PropOp45
 70
     1
102
RTVSPost2010Prop46
 90
       50
102
RTVSPost2010PropOp46
 70
     0
102
RTVSPost2010Prop47
 90
       50
102
RTVSPost2010PropOp47
 70
     0
102
RTVSPost2010Prop48
 90
       50
102
RTVSPost2010PropOp48
 70
     0
102
RTVSPost2010Prop49
280
     0
102
RTVSPost2010PropOp49
 70
     1
102
RTVSPost2010Prop50
 90
       50
102
RTVSPost2010PropOp50
 70
     0
102
RTVSPost2010Prop51ColorIndex
 90
      256
102
RTVSPost2010Prop51ColorRGB
 90
-16777216
102
RTVSPost2010PropOp51
 70
     0
102
RTVSPost2010Prop52
140
1.0
102
RTVSPost2010PropOp52
 70
     0
102
RTVSPost2010Prop53
 90
        2
102
RTVSPost2010PropOp53
 70
     0
102
RTVSPost2010Prop54
  1
strokes_ogs.tif
102
RTVSPost2010PropOp54
 70
     0
102
RTVSPost2010Prop55
280
     0
102
RTVSPost2010PropOp55
 70
     1
102
RTVSPost2010Prop56
140
1.0
102
RTVSPost2010PropOp56
 70
     0
102
RTVSPost2010Prop57
140
1.0
102
RTVSPost2010PropOp57
 70
     0
102
RTVSPropertyOp0
 70
     0
102
RTVSPropertyOp1
 70
     0
102
RTVSPropertyOp2
 70
     0
102
RTVSPropertyOp3
 70
     0
102
RTVSPropertyOp4
 70
     0
102
RTVSPropertyOp5
 70
     0
102
RTVSPropertyOp6
 70
     0
102
RTVSPropertyOp7
 70
     0
102
RTVSPropertyOp8
 70
     0
102
RTVSPropertyOp9
 70
     0
102
RTVSPropertyOp10
 70
     0
102
RTVSPropertyOp11
 70
     0
102
RTVSPropertyOp12
 70
     0
102
RTVSPropertyOp13
 70
     0
102
RTVSPropertyOp14
 70
     2
102
RTVSPropertyOp15
 70
     0
102
RTVSPropertyOp16
 70
     0
102
RTVSPropertyOp17
 70
     0
102
RTVSPropertyOp18
 70
     0
102
RTVSPropertyOp19
 70
     0
102
RTVSPropertyOp20
 70
     0
102
RTVSPropertyOp21
 70
     0
102
RTVSPropertyOp22
 70
     0
102
RTVSPropertyOp23
 70
     0
102
RTVSPropertyOp24
 70
     0
102
RTVSPropertyOp25
 70
     0
102
RTVSPropertyOp26
 70
     0
102
RTVSPropertyOp27
 70
     0
102
RTVSPropertyOp28
 70
     1
102
RTVSPropertyOp29
 70
     1
102
RTVSPropertyOp30
 70
     1
102
RTVSPropertyOp31
 70
     1
102
RTVSPropertyOp32
 70
     1
102
RTVSPropertyOp33
 70
     1
102
RTVSPropertyOp34
 70
     1
102
RTVSPropertyOp35
 70
     1
102
RTVSPropertyOp36
 70
     1
102
RTVSPropertyOp37
 70
     0
102
RTVSPropertyOp38
 70
     0
102
RTVSPropertyOp39
 70
     0
102
RTVSPropertyOp40
 70
     0
102
RTVSPropertyOp41
 70
     0
102
RTVSPropertyOp42
 70
     0
102
RTVSPropertyOp43
 70
     0
102
RTVSPropertyOp44
 70
     0
102
RTVSPropertyOp45
 70
     1
102
RTVSPropertyOp46
 70
     0
102
RTVSPropertyOp47
 70
     0
102
RTVSPropertyOp48
 70
     0
102
RTVSPropertyOp49
 70
     1
102
RTVSPropertyOp50
 70
     0
102
RTVSPropertyOp51
 70
     0
102
RTVSPropertyOp52
 70
     0
102
RTVSPropertyOp53
 70
     0
102
RTVSPropertyOp54
 70
     0
102
RTVSPropertyOp55
 70
     1
102
RTVSPropertyOp56
 70
     0
102
RTVSPropertyOp57
 70
     0
102
RTVSPropertyOp58
 70
     0
102
RTVSPropertyOp59
 70
     0
102
RTVSPropertyOp60
 70
     0
102
RTVSPropertyOp61
 70
     0
102
RTVSPropertyOp62
 70
     0
  0
XRECORD
  5
84D8
102
{ACAD_REACTORS
330
84D7
102
}
330
84D7
100
AcDbXrecord
280
     1
102
RTVSPost2010Prop28
280
     0
102
RTVSPost2010PropOp28
 70
     1
102
RTVSPost2010Prop29
280
     1
102
RTVSPost2010PropOp29
 70
     1
102
RTVSPost2010Prop30
280
     1
102
RTVSPost2010PropOp30
 70
     1
102
RTVSPost2010Prop31
280
     0
102
RTVSPost2010PropOp31
 70
     1
102
RTVSPost2010Prop32
280
     0
102
RTVSPost2010PropOp32
 70
     1
102
RTVSPost2010Prop33
280
     0
102
RTVSPost2010PropOp33
 70
     1
102
RTVSPost2010Prop34
280
     0
102
RTVSPost2010PropOp34
 70
     1
102
RTVSPost2010Prop35
280
     0
102
RTVSPost2010PropOp35
 70
     1
102
RTVSPost2010Prop36
280
     0
102
RTVSPost2010PropOp36
 70
     1
102
RTVSPost2010Prop37
 90
       50
102
RTVSPost2010PropOp37
 70
     1
102
RTVSPost2010Prop38
140
0.0
102
RTVSPost2010PropOp38
 70
     1
102
RTVSPost2010Prop39
140
1.0
102
RTVSPost2010PropOp39
 70
     1
102
RTVSPost2010Prop40
 90
        0
102
RTVSPost2010PropOp40
 70
     1
102
RTVSPost2010Prop41ColorIndex
 90
       18
102
RTVSPost2010Prop41ColorRGB
 90
        0
102
RTVSPost2010PropOp41
 70
     1
102
RTVSPost2010Prop42
 90
       50
102
RTVSPost2010PropOp42
 70
     1
102
RTVSPost2010Prop43
 90
        3
102
RTVSPost2010PropOp43
 70
     1
102
RTVSPost2010Prop44ColorIndex
 90
        5
102
RTVSPost2010Prop44ColorRGB
 90
      255
102
RTVSPost2010PropOp44
 70
     1
102
RTVSPost2010Prop45
280
     0
102
RTVSPost2010PropOp45
 70
     1
102
RTVSPost2010Prop46
 90
       50
102
RTVSPost2010PropOp46
 70
     1
102
RTVSPost2010Prop47
 90
       50
102
RTVSPost2010PropOp47
 70
     1
102
RTVSPost2010Prop48
 90
       50
102
RTVSPost2010PropOp48
 70
     1
102
RTVSPost2010Prop49
280
     0
102
RTVSPost2010PropOp49
 70
     1
102
RTVSPost2010Prop50
 90
       50
102
RTVSPost2010PropOp50
 70
     1
102
RTVSPost2010Prop51ColorIndex
 90
      256
102
RTVSPost2010Prop51ColorRGB
 90
-16777216
102
RTVSPost2010PropOp51
 70
     0
102
RTVSPost2010Prop52
140
1.0
102
RTVSPost2010PropOp52
 70
     0
102
RTVSPost2010Prop53
 90
        2
102
RTVSPost2010PropOp53
 70
     1
102
RTVSPost2010Prop54
  1
strokes_ogs.tif
102
RTVSPost2010PropOp54
 70
     1
102
RTVSPost2010Prop55
280
     0
102
RTVSPost2010PropOp55
 70
     1
102
RTVSPost2010Prop56
140
1.0
102
RTVSPost2010PropOp56
 70
     1
102
RTVSPost2010Prop57
140
1.0
102
RTVSPost2010PropOp57
 70
     1
102
RTVSPropertyOp0
 70
     1
102
RTVSPropertyOp1
 70
     1
102
RTVSPropertyOp2
 70
     1
102
RTVSPropertyOp3
 70
     1
102
RTVSPropertyOp4
 70
     1
102
RTVSPropertyOp5
 70
     1
102
RTVSPropertyOp6
 70
     1
102
RTVSPropertyOp7
 70
     1
102
RTVSPropertyOp8
 70
     1
102
RTVSPropertyOp9
 70
     1
102
RTVSPropertyOp10
 70
     1
102
RTVSPropertyOp11
 70
     1
102
RTVSPropertyOp12
 70
     1
102
RTVSPropertyOp13
 70
     1
102
RTVSPropertyOp14
 70
     1
102
RTVSPropertyOp15
 70
     1
102
RTVSPropertyOp16
 70
     1
102
RTVSPropertyOp17
 70
     1
102
RTVSPropertyOp18
 70
     1
102
RTVSPropertyOp19
 70
     1
102
RTVSPropertyOp20
 70
     1
102
RTVSPropertyOp21
 70
     1
102
RTVSPropertyOp22
 70
     1
102
RTVSPropertyOp23
 70
     1
102
RTVSPropertyOp24
 70
     1
102
RTVSPropertyOp25
 70
     1
102
RTVSPropertyOp26
 70
     1
102
RTVSPropertyOp27
 70
     1
102
RTVSPropertyOp28
 70
     1
102
RTVSPropertyOp29
 70
     1
102
RTVSPropertyOp30
 70
     1
102
RTVSPropertyOp31
 70
     1
102
RTVSPropertyOp32
 70
     1
102
RTVSPropertyOp33
 70
     1
102
RTVSPropertyOp34
 70
     1
102
RTVSPropertyOp35
 70
     1
102
RTVSPropertyOp36
 70
     1
102
RTVSPropertyOp37
 70
     1
102
RTVSPropertyOp38
 70
     1
102
RTVSPropertyOp39
 70
     1
102
RTVSPropertyOp40
 70
     1
102
RTVSPropertyOp41
 70
     1
102
RTVSPropertyOp42
 70
     1
102
RTVSPropertyOp43
 70
     1
102
RTVSPropertyOp44
 70
     1
102
RTVSPropertyOp45
 70
     1
102
RTVSPropertyOp46
 70
     1
102
RTVSPropertyOp47
 70
     1
102
RTVSPropertyOp48
 70
     1
102
RTVSPropertyOp49
 70
     1
102
RTVSPropertyOp50
 70
     1
102
RTVSPropertyOp51
 70
     0
102
RTVSPropertyOp52
 70
     0
102
RTVSPropertyOp53
 70
     1
102
RTVSPropertyOp54
 70
     1
102
RTVSPropertyOp55
 70
     1
102
RTVSPropertyOp56
 70
     1
102
RTVSPropertyOp57
 70
     1
102
RTVSPropertyOp58
 70
     1
102
RTVSPropertyOp59
 70
     1
102
RTVSPropertyOp60
 70
     1
102
RTVSPropertyOp61
 70
     1
102
RTVSPropertyOp62
 70
     1
  0
XRECORD
  5
84BC
102
{ACAD_REACTORS
330
84BB
102
}
330
84BB
100
AcDbXrecord
280
     1
102
RTVSPost2010Prop28
280
     0
102
RTVSPost2010PropOp28
 70
     1
102
RTVSPost2010Prop29
280
     1
102
RTVSPost2010PropOp29
 70
     1
102
RTVSPost2010Prop30
280
     1
102
RTVSPost2010PropOp30
 70
     1
102
RTVSPost2010Prop31
280
     0
102
RTVSPost2010PropOp31
 70
     1
102
RTVSPost2010Prop32
280
     0
102
RTVSPost2010PropOp32
 70
     1
102
RTVSPost2010Prop33
280
     0
102
RTVSPost2010PropOp33
 70
     1
102
RTVSPost2010Prop34
280
     0
102
RTVSPost2010PropOp34
 70
     1
102
RTVSPost2010Prop35
280
     0
102
RTVSPost2010PropOp35
 70
     1
102
RTVSPost2010Prop36
280
     0
102
RTVSPost2010PropOp36
 70
     1
102
RTVSPost2010Prop37
 90
       50
102
RTVSPost2010PropOp37
 70
     1
102
RTVSPost2010Prop38
140
0.0
102
RTVSPost2010PropOp38
 70
     1
102
RTVSPost2010Prop39
140
1.0
102
RTVSPost2010PropOp39
 70
     1
102
RTVSPost2010Prop40
 90
        0
102
RTVSPost2010PropOp40
 70
     1
102
RTVSPost2010Prop41ColorIndex
 90
       18
102
RTVSPost2010Prop41ColorRGB
 90
        0
102
RTVSPost2010PropOp41
 70
     1
102
RTVSPost2010Prop42
 90
       50
102
RTVSPost2010PropOp42
 70
     1
102
RTVSPost2010Prop43
 90
        3
102
RTVSPost2010PropOp43
 70
     1
102
RTVSPost2010Prop44ColorIndex
 90
        5
102
RTVSPost2010Prop44ColorRGB
 90
      255
102
RTVSPost2010PropOp44
 70
     1
102
RTVSPost2010Prop45
280
     0
102
RTVSPost2010PropOp45
 70
     1
102
RTVSPost2010Prop46
 90
       50
102
RTVSPost2010PropOp46
 70
     1
102
RTVSPost2010Prop47
 90
       50
102
RTVSPost2010PropOp47
 70
     1
102
RTVSPost2010Prop48
 90
       50
102
RTVSPost2010PropOp48
 70
     1
102
RTVSPost2010Prop49
280
     0
102
RTVSPost2010PropOp49
 70
     1
102
RTVSPost2010Prop50
 90
       50
102
RTVSPost2010PropOp50
 70
     1
102
RTVSPost2010Prop51ColorIndex
 90
      256
102
RTVSPost2010Prop51ColorRGB
 90
-16777216
102
RTVSPost2010PropOp51
 70
     0
102
RTVSPost2010Prop52
140
1.0
102
RTVSPost2010PropOp52
 70
     0
102
RTVSPost2010Prop53
 90
        2
102
RTVSPost2010PropOp53
 70
     1
102
RTVSPost2010Prop54
  1
strokes_ogs.tif
102
RTVSPost2010PropOp54
 70
     1
102
RTVSPost2010Prop55
280
     0
102
RTVSPost2010PropOp55
 70
     1
102
RTVSPost2010Prop56
140
1.0
102
RTVSPost2010PropOp56
 70
     1
102
RTVSPost2010Prop57
140
1.0
102
RTVSPost2010PropOp57
 70
     1
102
RTVSPropertyOp0
 70
     1
102
RTVSPropertyOp1
 70
     1
102
RTVSPropertyOp2
 70
     1
102
RTVSPropertyOp3
 70
     1
102
RTVSPropertyOp4
 70
     1
102
RTVSPropertyOp5
 70
     1
102
RTVSPropertyOp6
 70
     1
102
RTVSPropertyOp7
 70
     1
102
RTVSPropertyOp8
 70
     1
102
RTVSPropertyOp9
 70
     1
102
RTVSPropertyOp10
 70
     1
102
RTVSPropertyOp11
 70
     1
102
RTVSPropertyOp12
 70
     1
102
RTVSPropertyOp13
 70
     1
102
RTVSPropertyOp14
 70
     1
102
RTVSPropertyOp15
 70
     1
102
RTVSPropertyOp16
 70
     1
102
RTVSPropertyOp17
 70
     1
102
RTVSPropertyOp18
 70
     1
102
RTVSPropertyOp19
 70
     1
102
RTVSPropertyOp20
 70
     1
102
RTVSPropertyOp21
 70
     1
102
RTVSPropertyOp22
 70
     1
102
RTVSPropertyOp23
 70
     1
102
RTVSPropertyOp24
 70
     1
102
RTVSPropertyOp25
 70
     1
102
RTVSPropertyOp26
 70
     1
102
RTVSPropertyOp27
 70
     1
102
RTVSPropertyOp28
 70
     1
102
RTVSPropertyOp29
 70
     1
102
RTVSPropertyOp30
 70
     1
102
RTVSPropertyOp31
 70
     1
102
RTVSPropertyOp32
 70
     1
102
RTVSPropertyOp33
 70
     1
102
RTVSPropertyOp34
 70
     1
102
RTVSPropertyOp35
 70
     1
102
RTVSPropertyOp36
 70
     1
102
RTVSPropertyOp37
 70
     1
102
RTVSPropertyOp38
 70
     1
102
RTVSPropertyOp39
 70
     1
102
RTVSPropertyOp40
 70
     1
102
RTVSPropertyOp41
 70
     1
102
RTVSPropertyOp42
 70
     1
102
RTVSPropertyOp43
 70
     1
102
RTVSPropertyOp44
 70
     1
102
RTVSPropertyOp45
 70
     1
102
RTVSPropertyOp46
 70
     1
102
RTVSPropertyOp47
 70
     1
102
RTVSPropertyOp48
 70
     1
102
RTVSPropertyOp49
 70
     1
102
RTVSPropertyOp50
 70
     1
102
RTVSPropertyOp51
 70
     0
102
RTVSPropertyOp52
 70
     0
102
RTVSPropertyOp53
 70
     1
102
RTVSPropertyOp54
 70
     1
102
RTVSPropertyOp55
 70
     1
102
RTVSPropertyOp56
 70
     1
102
RTVSPropertyOp57
 70
     1
102
RTVSPropertyOp58
 70
     1
102
RTVSPropertyOp59
 70
     1
102
RTVSPropertyOp60
 70
     1
102
RTVSPropertyOp61
 70
     1
102
RTVSPropertyOp62
 70
     1
  0
XRECORD
  5
84BE
102
{ACAD_REACTORS
330
84BD
102
}
330
84BD
100
AcDbXrecord
280
     1
102
RTVSPost2010Prop28
280
     0
102
RTVSPost2010PropOp28
 70
     1
102
RTVSPost2010Prop29
280
     1
102
RTVSPost2010PropOp29
 70
     1
102
RTVSPost2010Prop30
280
     1
102
RTVSPost2010PropOp30
 70
     1
102
RTVSPost2010Prop31
280
     0
102
RTVSPost2010PropOp31
 70
     1
102
RTVSPost2010Prop32
280
     0
102
RTVSPost2010PropOp32
 70
     1
102
RTVSPost2010Prop33
280
     0
102
RTVSPost2010PropOp33
 70
     1
102
RTVSPost2010Prop34
280
     0
102
RTVSPost2010PropOp34
 70
     1
102
RTVSPost2010Prop35
280
     0
102
RTVSPost2010PropOp35
 70
     1
102
RTVSPost2010Prop36
280
     0
102
RTVSPost2010PropOp36
 70
     1
102
RTVSPost2010Prop37
 90
       50
102
RTVSPost2010PropOp37
 70
     1
102
RTVSPost2010Prop38
140
0.0
102
RTVSPost2010PropOp38
 70
     1
102
RTVSPost2010Prop39
140
1.0
102
RTVSPost2010PropOp39
 70
     1
102
RTVSPost2010Prop40
 90
        0
102
RTVSPost2010PropOp40
 70
     1
102
RTVSPost2010Prop41ColorIndex
 90
       18
102
RTVSPost2010Prop41ColorRGB
 90
        0
102
RTVSPost2010PropOp41
 70
     1
102
RTVSPost2010Prop42
 90
       50
102
RTVSPost2010PropOp42
 70
     1
102
RTVSPost2010Prop43
 90
        3
102
RTVSPost2010PropOp43
 70
     1
102
RTVSPost2010Prop44ColorIndex
 90
        5
102
RTVSPost2010Prop44ColorRGB
 90
      255
102
RTVSPost2010PropOp44
 70
     1
102
RTVSPost2010Prop45
280
     0
102
RTVSPost2010PropOp45
 70
     1
102
RTVSPost2010Prop46
 90
       50
102
RTVSPost2010PropOp46
 70
     1
102
RTVSPost2010Prop47
 90
       50
102
RTVSPost2010PropOp47
 70
     1
102
RTVSPost2010Prop48
 90
       50
102
RTVSPost2010PropOp48
 70
     1
102
RTVSPost2010Prop49
280
     0
102
RTVSPost2010PropOp49
 70
     1
102
RTVSPost2010Prop50
 90
       50
102
RTVSPost2010PropOp50
 70
     1
102
RTVSPost2010Prop51ColorIndex
 90
      256
102
RTVSPost2010Prop51ColorRGB
 90
-16777216
102
RTVSPost2010PropOp51
 70
     0
102
RTVSPost2010Prop52
140
1.0
102
RTVSPost2010PropOp52
 70
     0
102
RTVSPost2010Prop53
 90
        2
102
RTVSPost2010PropOp53
 70
     1
102
RTVSPost2010Prop54
  1
strokes_ogs.tif
102
RTVSPost2010PropOp54
 70
     1
102
RTVSPost2010Prop55
280
     0
102
RTVSPost2010PropOp55
 70
     1
102
RTVSPost2010Prop56
140
1.0
102
RTVSPost2010PropOp56
 70
     1
102
RTVSPost2010Prop57
140
1.0
102
RTVSPost2010PropOp57
 70
     1
102
RTVSPropertyOp0
 70
     1
102
RTVSPropertyOp1
 70
     1
102
RTVSPropertyOp2
 70
     1
102
RTVSPropertyOp3
 70
     1
102
RTVSPropertyOp4
 70
     1
102
RTVSPropertyOp5
 70
     1
102
RTVSPropertyOp6
 70
     1
102
RTVSPropertyOp7
 70
     1
102
RTVSPropertyOp8
 70
     1
102
RTVSPropertyOp9
 70
     1
102
RTVSPropertyOp10
 70
     1
102
RTVSPropertyOp11
 70
     1
102
RTVSPropertyOp12
 70
     1
102
RTVSPropertyOp13
 70
     1
102
RTVSPropertyOp14
 70
     1
102
RTVSPropertyOp15
 70
     1
102
RTVSPropertyOp16
 70
     1
102
RTVSPropertyOp17
 70
     1
102
RTVSPropertyOp18
 70
     1
102
RTVSPropertyOp19
 70
     1
102
RTVSPropertyOp20
 70
     1
102
RTVSPropertyOp21
 70
     1
102
RTVSPropertyOp22
 70
     1
102
RTVSPropertyOp23
 70
     1
102
RTVSPropertyOp24
 70
     1
102
RTVSPropertyOp25
 70
     1
102
RTVSPropertyOp26
 70
     1
102
RTVSPropertyOp27
 70
     1
102
RTVSPropertyOp28
 70
     1
102
RTVSPropertyOp29
 70
     1
102
RTVSPropertyOp30
 70
     1
102
RTVSPropertyOp31
 70
     1
102
RTVSPropertyOp32
 70
     1
102
RTVSPropertyOp33
 70
     1
102
RTVSPropertyOp34
 70
     1
102
RTVSPropertyOp35
 70
     1
102
RTVSPropertyOp36
 70
     1
102
RTVSPropertyOp37
 70
     1
102
RTVSPropertyOp38
 70
     1
102
RTVSPropertyOp39
 70
     1
102
RTVSPropertyOp40
 70
     1
102
RTVSPropertyOp41
 70
     1
102
RTVSPropertyOp42
 70
     1
102
RTVSPropertyOp43
 70
     1
102
RTVSPropertyOp44
 70
     1
102
RTVSPropertyOp45
 70
     1
102
RTVSPropertyOp46
 70
     1
102
RTVSPropertyOp47
 70
     1
102
RTVSPropertyOp48
 70
     1
102
RTVSPropertyOp49
 70
     1
102
RTVSPropertyOp50
 70
     1
102
RTVSPropertyOp51
 70
     0
102
RTVSPropertyOp52
 70
     0
102
RTVSPropertyOp53
 70
     1
102
RTVSPropertyOp54
 70
     1
102
RTVSPropertyOp55
 70
     1
102
RTVSPropertyOp56
 70
     1
102
RTVSPropertyOp57
 70
     1
102
RTVSPropertyOp58
 70
     1
102
RTVSPropertyOp59
 70
     1
102
RTVSPropertyOp60
 70
     1
102
RTVSPropertyOp61
 70
     1
102
RTVSPropertyOp62
 70
     1
  0
XRECORD
  5
84C0
102
{ACAD_REACTORS
330
84BF
102
}
330
84BF
100
AcDbXrecord
280
     1
102
RTVSPost2010Prop28
280
     0
102
RTVSPost2010PropOp28
 70
     1
102
RTVSPost2010Prop29
280
     1
102
RTVSPost2010PropOp29
 70
     1
102
RTVSPost2010Prop30
280
     1
102
RTVSPost2010PropOp30
 70
     1
102
RTVSPost2010Prop31
280
     0
102
RTVSPost2010PropOp31
 70
     1
102
RTVSPost2010Prop32
280
     0
102
RTVSPost2010PropOp32
 70
     1
102
RTVSPost2010Prop33
280
     0
102
RTVSPost2010PropOp33
 70
     1
102
RTVSPost2010Prop34
280
     0
102
RTVSPost2010PropOp34
 70
     1
102
RTVSPost2010Prop35
280
     0
102
RTVSPost2010PropOp35
 70
     1
102
RTVSPost2010Prop36
280
     0
102
RTVSPost2010PropOp36
 70
     1
102
RTVSPost2010Prop37
 90
       50
102
RTVSPost2010PropOp37
 70
     1
102
RTVSPost2010Prop38
140
0.0
102
RTVSPost2010PropOp38
 70
     1
102
RTVSPost2010Prop39
140
1.0
102
RTVSPost2010PropOp39
 70
     1
102
RTVSPost2010Prop40
 90
        0
102
RTVSPost2010PropOp40
 70
     1
102
RTVSPost2010Prop41ColorIndex
 90
       18
102
RTVSPost2010Prop41ColorRGB
 90
        0
102
RTVSPost2010PropOp41
 70
     1
102
RTVSPost2010Prop42
 90
       50
102
RTVSPost2010PropOp42
 70
     1
102
RTVSPost2010Prop43
 90
        3
102
RTVSPost2010PropOp43
 70
     1
102
RTVSPost2010Prop44ColorIndex
 90
        5
102
RTVSPost2010Prop44ColorRGB
 90
      255
102
RTVSPost2010PropOp44
 70
     1
102
RTVSPost2010Prop45
280
     0
102
RTVSPost2010PropOp45
 70
     1
102
RTVSPost2010Prop46
 90
       50
102
RTVSPost2010PropOp46
 70
     1
102
RTVSPost2010Prop47
 90
       50
102
RTVSPost2010PropOp47
 70
     1
102
RTVSPost2010Prop48
 90
       50
102
RTVSPost2010PropOp48
 70
     1
102
RTVSPost2010Prop49
280
     0
102
RTVSPost2010PropOp49
 70
     1
102
RTVSPost2010Prop50
 90
       50
102
RTVSPost2010PropOp50
 70
     1
102
RTVSPost2010Prop51ColorIndex
 90
      256
102
RTVSPost2010Prop51ColorRGB
 90
-16777216
102
RTVSPost2010PropOp51
 70
     0
102
RTVSPost2010Prop52
140
1.0
102
RTVSPost2010PropOp52
 70
     0
102
RTVSPost2010Prop53
 90
        2
102
RTVSPost2010PropOp53
 70
     1
102
RTVSPost2010Prop54
  1
strokes_ogs.tif
102
RTVSPost2010PropOp54
 70
     1
102
RTVSPost2010Prop55
280
     0
102
RTVSPost2010PropOp55
 70
     1
102
RTVSPost2010Prop56
140
1.0
102
RTVSPost2010PropOp56
 70
     1
102
RTVSPost2010Prop57
140
1.0
102
RTVSPost2010PropOp57
 70
     1
102
RTVSPropertyOp0
 70
     1
102
RTVSPropertyOp1
 70
     1
102
RTVSPropertyOp2
 70
     1
102
RTVSPropertyOp3
 70
     1
102
RTVSPropertyOp4
 70
     1
102
RTVSPropertyOp5
 70
     1
102
RTVSPropertyOp6
 70
     1
102
RTVSPropertyOp7
 70
     1
102
RTVSPropertyOp8
 70
     1
102
RTVSPropertyOp9
 70
     1
102
RTVSPropertyOp10
 70
     1
102
RTVSPropertyOp11
 70
     1
102
RTVSPropertyOp12
 70
     1
102
RTVSPropertyOp13
 70
     1
102
RTVSPropertyOp14
 70
     1
102
RTVSPropertyOp15
 70
     1
102
RTVSPropertyOp16
 70
     1
102
RTVSPropertyOp17
 70
     1
102
RTVSPropertyOp18
 70
     1
102
RTVSPropertyOp19
 70
     1
102
RTVSPropertyOp20
 70
     1
102
RTVSPropertyOp21
 70
     1
102
RTVSPropertyOp22
 70
     1
102
RTVSPropertyOp23
 70
     1
102
RTVSPropertyOp24
 70
     1
102
RTVSPropertyOp25
 70
     1
102
RTVSPropertyOp26
 70
     1
102
RTVSPropertyOp27
 70
     1
102
RTVSPropertyOp28
 70
     1
102
RTVSPropertyOp29
 70
     1
102
RTVSPropertyOp30
 70
     1
102
RTVSPropertyOp31
 70
     1
102
RTVSPropertyOp32
 70
     1
102
RTVSPropertyOp33
 70
     1
102
RTVSPropertyOp34
 70
     1
102
RTVSPropertyOp35
 70
     1
102
RTVSPropertyOp36
 70
     1
102
RTVSPropertyOp37
 70
     1
102
RTVSPropertyOp38
 70
     1
102
RTVSPropertyOp39
 70
     1
102
RTVSPropertyOp40
 70
     1
102
RTVSPropertyOp41
 70
     1
102
RTVSPropertyOp42
 70
     1
102
RTVSPropertyOp43
 70
     1
102
RTVSPropertyOp44
 70
     1
102
RTVSPropertyOp45
 70
     1
102
RTVSPropertyOp46
 70
     1
102
RTVSPropertyOp47
 70
     1
102
RTVSPropertyOp48
 70
     1
102
RTVSPropertyOp49
 70
     1
102
RTVSPropertyOp50
 70
     1
102
RTVSPropertyOp51
 70
     0
102
RTVSPropertyOp52
 70
     0
102
RTVSPropertyOp53
 70
     1
102
RTVSPropertyOp54
 70
     1
102
RTVSPropertyOp55
 70
     1
102
RTVSPropertyOp56
 70
     1
102
RTVSPropertyOp57
 70
     1
102
RTVSPropertyOp58
 70
     1
102
RTVSPropertyOp59
 70
     1
102
RTVSPropertyOp60
 70
     1
102
RTVSPropertyOp61
 70
     1
102
RTVSPropertyOp62
 70
     1
  0
XRECORD
  5
84C2
102
{ACAD_REACTORS
330
84C1
102
}
330
84C1
100
AcDbXrecord
280
     1
102
RTVSPost2010Prop28
280
     0
102
RTVSPost2010PropOp28
 70
     1
102
RTVSPost2010Prop29
280
     1
102
RTVSPost2010PropOp29
 70
     1
102
RTVSPost2010Prop30
280
     1
102
RTVSPost2010PropOp30
 70
     1
102
RTVSPost2010Prop31
280
     0
102
RTVSPost2010PropOp31
 70
     1
102
RTVSPost2010Prop32
280
     0
102
RTVSPost2010PropOp32
 70
     1
102
RTVSPost2010Prop33
280
     0
102
RTVSPost2010PropOp33
 70
     1
102
RTVSPost2010Prop34
280
     0
102
RTVSPost2010PropOp34
 70
     1
102
RTVSPost2010Prop35
280
     0
102
RTVSPost2010PropOp35
 70
     1
102
RTVSPost2010Prop36
280
     0
102
RTVSPost2010PropOp36
 70
     1
102
RTVSPost2010Prop37
 90
       50
102
RTVSPost2010PropOp37
 70
     1
102
RTVSPost2010Prop38
140
0.0
102
RTVSPost2010PropOp38
 70
     1
102
RTVSPost2010Prop39
140
1.0
102
RTVSPost2010PropOp39
 70
     1
102
RTVSPost2010Prop40
 90
        0
102
RTVSPost2010PropOp40
 70
     1
102
RTVSPost2010Prop41ColorIndex
 90
       18
102
RTVSPost2010Prop41ColorRGB
 90
        0
102
RTVSPost2010PropOp41
 70
     1
102
RTVSPost2010Prop42
 90
       50
102
RTVSPost2010PropOp42
 70
     1
102
RTVSPost2010Prop43
 90
        3
102
RTVSPost2010PropOp43
 70
     1
102
RTVSPost2010Prop44ColorIndex
 90
        5
102
RTVSPost2010Prop44ColorRGB
 90
      255
102
RTVSPost2010PropOp44
 70
     1
102
RTVSPost2010Prop45
280
     0
102
RTVSPost2010PropOp45
 70
     1
102
RTVSPost2010Prop46
 90
       50
102
RTVSPost2010PropOp46
 70
     1
102
RTVSPost2010Prop47
 90
       50
102
RTVSPost2010PropOp47
 70
     1
102
RTVSPost2010Prop48
 90
       50
102
RTVSPost2010PropOp48
 70
     1
102
RTVSPost2010Prop49
280
     0
102
RTVSPost2010PropOp49
 70
     1
102
RTVSPost2010Prop50
 90
       50
102
RTVSPost2010PropOp50
 70
     1
102
RTVSPost2010Prop51ColorIndex
 90
      256
102
RTVSPost2010Prop51ColorRGB
 90
-16777216
102
RTVSPost2010PropOp51
 70
     0
102
RTVSPost2010Prop52
140
1.0
102
RTVSPost2010PropOp52
 70
     0
102
RTVSPost2010Prop53
 90
        2
102
RTVSPost2010PropOp53
 70
     1
102
RTVSPost2010Prop54
  1
strokes_ogs.tif
102
RTVSPost2010PropOp54
 70
     1
102
RTVSPost2010Prop55
280
     0
102
RTVSPost2010PropOp55
 70
     1
102
RTVSPost2010Prop56
140
1.0
102
RTVSPost2010PropOp56
 70
     1
102
RTVSPost2010Prop57
140
1.0
102
RTVSPost2010PropOp57
 70
     1
102
RTVSPropertyOp0
 70
     1
102
RTVSPropertyOp1
 70
     1
102
RTVSPropertyOp2
 70
     1
102
RTVSPropertyOp3
 70
     1
102
RTVSPropertyOp4
 70
     1
102
RTVSPropertyOp5
 70
     1
102
RTVSPropertyOp6
 70
     1
102
RTVSPropertyOp7
 70
     1
102
RTVSPropertyOp8
 70
     1
102
RTVSPropertyOp9
 70
     1
102
RTVSPropertyOp10
 70
     1
102
RTVSPropertyOp11
 70
     1
102
RTVSPropertyOp12
 70
     1
102
RTVSPropertyOp13
 70
     1
102
RTVSPropertyOp14
 70
     1
102
RTVSPropertyOp15
 70
     1
102
RTVSPropertyOp16
 70
     1
102
RTVSPropertyOp17
 70
     1
102
RTVSPropertyOp18
 70
     1
102
RTVSPropertyOp19
 70
     1
102
RTVSPropertyOp20
 70
     1
102
RTVSPropertyOp21
 70
     1
102
RTVSPropertyOp22
 70
     1
102
RTVSPropertyOp23
 70
     1
102
RTVSPropertyOp24
 70
     1
102
RTVSPropertyOp25
 70
     1
102
RTVSPropertyOp26
 70
     1
102
RTVSPropertyOp27
 70
     1
102
RTVSPropertyOp28
 70
     1
102
RTVSPropertyOp29
 70
     1
102
RTVSPropertyOp30
 70
     1
102
RTVSPropertyOp31
 70
     1
102
RTVSPropertyOp32
 70
     1
102
RTVSPropertyOp33
 70
     1
102
RTVSPropertyOp34
 70
     1
102
RTVSPropertyOp35
 70
     1
102
RTVSPropertyOp36
 70
     1
102
RTVSPropertyOp37
 70
     1
102
RTVSPropertyOp38
 70
     1
102
RTVSPropertyOp39
 70
     1
102
RTVSPropertyOp40
 70
     1
102
RTVSPropertyOp41
 70
     1
102
RTVSPropertyOp42
 70
     1
102
RTVSPropertyOp43
 70
     1
102
RTVSPropertyOp44
 70
     1
102
RTVSPropertyOp45
 70
     1
102
RTVSPropertyOp46
 70
     1
102
RTVSPropertyOp47
 70
     1
102
RTVSPropertyOp48
 70
     1
102
RTVSPropertyOp49
 70
     1
102
RTVSPropertyOp50
 70
     1
102
RTVSPropertyOp51
 70
     0
102
RTVSPropertyOp52
 70
     0
102
RTVSPropertyOp53
 70
     1
102
RTVSPropertyOp54
 70
     1
102
RTVSPropertyOp55
 70
     1
102
RTVSPropertyOp56
 70
     1
102
RTVSPropertyOp57
 70
     1
102
RTVSPropertyOp58
 70
     1
102
RTVSPropertyOp59
 70
     1
102
RTVSPropertyOp60
 70
     1
102
RTVSPropertyOp61
 70
     1
102
RTVSPropertyOp62
 70
     1
  0
XRECORD
  5
84CA
102
{ACAD_REACTORS
330
84C9
102
}
330
84C9
100
AcDbXrecord
280
     1
102
RTVSPost2010Prop28
280
     0
102
RTVSPost2010PropOp28
 70
     1
102
RTVSPost2010Prop29
280
     1
102
RTVSPost2010PropOp29
 70
     1
102
RTVSPost2010Prop30
280
     1
102
RTVSPost2010PropOp30
 70
     1
102
RTVSPost2010Prop31
280
     0
102
RTVSPost2010PropOp31
 70
     1
102
RTVSPost2010Prop32
280
     0
102
RTVSPost2010PropOp32
 70
     1
102
RTVSPost2010Prop33
280
     0
102
RTVSPost2010PropOp33
 70
     1
102
RTVSPost2010Prop34
280
     0
102
RTVSPost2010PropOp34
 70
     1
102
RTVSPost2010Prop35
280
     0
102
RTVSPost2010PropOp35
 70
     1
102
RTVSPost2010Prop36
280
     0
102
RTVSPost2010PropOp36
 70
     1
102
RTVSPost2010Prop37
 90
       50
102
RTVSPost2010PropOp37
 70
     1
102
RTVSPost2010Prop38
140
0.0
102
RTVSPost2010PropOp38
 70
     1
102
RTVSPost2010Prop39
140
1.0
102
RTVSPost2010PropOp39
 70
     1
102
RTVSPost2010Prop40
 90
        0
102
RTVSPost2010PropOp40
 70
     1
102
RTVSPost2010Prop41ColorIndex
 90
       18
102
RTVSPost2010Prop41ColorRGB
 90
        0
102
RTVSPost2010PropOp41
 70
     1
102
RTVSPost2010Prop42
 90
       50
102
RTVSPost2010PropOp42
 70
     1
102
RTVSPost2010Prop43
 90
        3
102
RTVSPost2010PropOp43
 70
     1
102
RTVSPost2010Prop44ColorIndex
 90
        5
102
RTVSPost2010Prop44ColorRGB
 90
      255
102
RTVSPost2010PropOp44
 70
     1
102
RTVSPost2010Prop45
280
     0
102
RTVSPost2010PropOp45
 70
     1
102
RTVSPost2010Prop46
 90
       50
102
RTVSPost2010PropOp46
 70
     1
102
RTVSPost2010Prop47
 90
       50
102
RTVSPost2010PropOp47
 70
     1
102
RTVSPost2010Prop48
 90
       50
102
RTVSPost2010PropOp48
 70
     1
102
RTVSPost2010Prop49
280
     0
102
RTVSPost2010PropOp49
 70
     1
102
RTVSPost2010Prop50
 90
       50
102
RTVSPost2010PropOp50
 70
     1
102
RTVSPost2010Prop51ColorIndex
 90
      256
102
RTVSPost2010Prop51ColorRGB
 90
-16777216
102
RTVSPost2010PropOp51
 70
     0
102
RTVSPost2010Prop52
140
1.0
102
RTVSPost2010PropOp52
 70
     0
102
RTVSPost2010Prop53
 90
        2
102
RTVSPost2010PropOp53
 70
     1
102
RTVSPost2010Prop54
  1
strokes_ogs.tif
102
RTVSPost2010PropOp54
 70
     1
102
RTVSPost2010Prop55
280
     0
102
RTVSPost2010PropOp55
 70
     1
102
RTVSPost2010Prop56
140
1.0
102
RTVSPost2010PropOp56
 70
     1
102
RTVSPost2010Prop57
140
1.0
102
RTVSPost2010PropOp57
 70
     1
102
RTVSPropertyOp0
 70
     1
102
RTVSPropertyOp1
 70
     1
102
RTVSPropertyOp2
 70
     1
102
RTVSPropertyOp3
 70
     1
102
RTVSPropertyOp4
 70
     1
102
RTVSPropertyOp5
 70
     1
102
RTVSPropertyOp6
 70
     1
102
RTVSPropertyOp7
 70
     1
102
RTVSPropertyOp8
 70
     1
102
RTVSPropertyOp9
 70
     1
102
RTVSPropertyOp10
 70
     1
102
RTVSPropertyOp11
 70
     1
102
RTVSPropertyOp12
 70
     1
102
RTVSPropertyOp13
 70
     1
102
RTVSPropertyOp14
 70
     1
102
RTVSPropertyOp15
 70
     1
102
RTVSPropertyOp16
 70
     1
102
RTVSPropertyOp17
 70
     1
102
RTVSPropertyOp18
 70
     1
102
RTVSPropertyOp19
 70
     1
102
RTVSPropertyOp20
 70
     1
102
RTVSPropertyOp21
 70
     1
102
RTVSPropertyOp22
 70
     1
102
RTVSPropertyOp23
 70
     1
102
RTVSPropertyOp24
 70
     1
102
RTVSPropertyOp25
 70
     1
102
RTVSPropertyOp26
 70
     1
102
RTVSPropertyOp27
 70
     1
102
RTVSPropertyOp28
 70
     1
102
RTVSPropertyOp29
 70
     1
102
RTVSPropertyOp30
 70
     1
102
RTVSPropertyOp31
 70
     1
102
RTVSPropertyOp32
 70
     1
102
RTVSPropertyOp33
 70
     1
102
RTVSPropertyOp34
 70
     1
102
RTVSPropertyOp35
 70
     1
102
RTVSPropertyOp36
 70
     1
102
RTVSPropertyOp37
 70
     1
102
RTVSPropertyOp38
 70
     1
102
RTVSPropertyOp39
 70
     1
102
RTVSPropertyOp40
 70
     1
102
RTVSPropertyOp41
 70
     1
102
RTVSPropertyOp42
 70
     1
102
RTVSPropertyOp43
 70
     1
102
RTVSPropertyOp44
 70
     1
102
RTVSPropertyOp45
 70
     1
102
RTVSPropertyOp46
 70
     1
102
RTVSPropertyOp47
 70
     1
102
RTVSPropertyOp48
 70
     1
102
RTVSPropertyOp49
 70
     1
102
RTVSPropertyOp50
 70
     1
102
RTVSPropertyOp51
 70
     0
102
RTVSPropertyOp52
 70
     0
102
RTVSPropertyOp53
 70
     1
102
RTVSPropertyOp54
 70
     1
102
RTVSPropertyOp55
 70
     1
102
RTVSPropertyOp56
 70
     1
102
RTVSPropertyOp57
 70
     1
102
RTVSPropertyOp58
 70
     1
102
RTVSPropertyOp59
 70
     1
102
RTVSPropertyOp60
 70
     1
102
RTVSPropertyOp61
 70
     1
102
RTVSPropertyOp62
 70
     1
  0
XRECORD
  5
84E6
102
{ACAD_REACTORS
330
84E5
102
}
330
84E5
100
AcDbXrecord
280
     1
102
RTVSPost2010Prop28
280
     0
102
RTVSPost2010PropOp28
 70
     1
102
RTVSPost2010Prop29
280
     1
102
RTVSPost2010PropOp29
 70
     1
102
RTVSPost2010Prop30
280
     1
102
RTVSPost2010PropOp30
 70
     1
102
RTVSPost2010Prop31
280
     0
102
RTVSPost2010PropOp31
 70
     1
102
RTVSPost2010Prop32
280
     0
102
RTVSPost2010PropOp32
 70
     1
102
RTVSPost2010Prop33
280
     0
102
RTVSPost2010PropOp33
 70
     1
102
RTVSPost2010Prop34
280
     0
102
RTVSPost2010PropOp34
 70
     1
102
RTVSPost2010Prop35
280
     0
102
RTVSPost2010PropOp35
 70
     1
102
RTVSPost2010Prop36
280
     0
102
RTVSPost2010PropOp36
 70
     1
102
RTVSPost2010Prop37
 90
       50
102
RTVSPost2010PropOp37
 70
     0
102
RTVSPost2010Prop38
140
0.0
102
RTVSPost2010PropOp38
 70
     0
102
RTVSPost2010Prop39
140
1.0
102
RTVSPost2010PropOp39
 70
     0
102
RTVSPost2010Prop40
 90
        0
102
RTVSPost2010PropOp40
 70
     0
102
RTVSPost2010Prop41ColorIndex
 90
       18
102
RTVSPost2010Prop41ColorRGB
 90
        0
102
RTVSPost2010PropOp41
 70
     0
102
RTVSPost2010Prop42
 90
       50
102
RTVSPost2010PropOp42
 70
     0
102
RTVSPost2010Prop43
 90
        3
102
RTVSPost2010PropOp43
 70
     0
102
RTVSPost2010Prop44ColorIndex
 90
        5
102
RTVSPost2010Prop44ColorRGB
 90
      255
102
RTVSPost2010PropOp44
 70
     0
102
RTVSPost2010Prop45
280
     0
102
RTVSPost2010PropOp45
 70
     1
102
RTVSPost2010Prop46
 90
       50
102
RTVSPost2010PropOp46
 70
     0
102
RTVSPost2010Prop47
 90
       50
102
RTVSPost2010PropOp47
 70
     0
102
RTVSPost2010Prop48
 90
       50
102
RTVSPost2010PropOp48
 70
     0
102
RTVSPost2010Prop49
280
     0
102
RTVSPost2010PropOp49
 70
     1
102
RTVSPost2010Prop50
 90
       50
102
RTVSPost2010PropOp50
 70
     0
102
RTVSPost2010Prop51ColorIndex
 90
      256
102
RTVSPost2010Prop51ColorRGB
 90
-16777216
102
RTVSPost2010PropOp51
 70
     0
102
RTVSPost2010Prop52
140
1.0
102
RTVSPost2010PropOp52
 70
     0
102
RTVSPost2010Prop53
 90
        2
102
RTVSPost2010PropOp53
 70
     0
102
RTVSPost2010Prop54
  1
strokes_ogs.tif
102
RTVSPost2010PropOp54
 70
     0
102
RTVSPost2010Prop55
280
     0
102
RTVSPost2010PropOp55
 70
     1
102
RTVSPost2010Prop56
140
1.0
102
RTVSPost2010PropOp56
 70
     0
102
RTVSPost2010Prop57
140
1.0
102
RTVSPost2010PropOp57
 70
     0
102
RTVSPropertyOp0
 70
     0
102
RTVSPropertyOp1
 70
     0
102
RTVSPropertyOp2
 70
     0
102
RTVSPropertyOp3
 70
     0
102
RTVSPropertyOp4
 70
     0
102
RTVSPropertyOp5
 70
     0
102
RTVSPropertyOp6
 70
     0
102
RTVSPropertyOp7
 70
     0
102
RTVSPropertyOp8
 70
     0
102
RTVSPropertyOp9
 70
     0
102
RTVSPropertyOp10
 70
     0
102
RTVSPropertyOp11
 70
     0
102
RTVSPropertyOp12
 70
     0
102
RTVSPropertyOp13
 70
     0
102
RTVSPropertyOp14
 70
     2
102
RTVSPropertyOp15
 70
     0
102
RTVSPropertyOp16
 70
     0
102
RTVSPropertyOp17
 70
     0
102
RTVSPropertyOp18
 70
     0
102
RTVSPropertyOp19
 70
     0
102
RTVSPropertyOp20
 70
     0
102
RTVSPropertyOp21
 70
     0
102
RTVSPropertyOp22
 70
     0
102
RTVSPropertyOp23
 70
     0
102
RTVSPropertyOp24
 70
     0
102
RTVSPropertyOp25
 70
     0
102
RTVSPropertyOp26
 70
     0
102
RTVSPropertyOp27
 70
     0
102
RTVSPropertyOp28
 70
     1
102
RTVSPropertyOp29
 70
     1
102
RTVSPropertyOp30
 70
     1
102
RTVSPropertyOp31
 70
     1
102
RTVSPropertyOp32
 70
     1
102
RTVSPropertyOp33
 70
     1
102
RTVSPropertyOp34
 70
     1
102
RTVSPropertyOp35
 70
     1
102
RTVSPropertyOp36
 70
     1
102
RTVSPropertyOp37
 70
     0
102
RTVSPropertyOp38
 70
     0
102
RTVSPropertyOp39
 70
     0
102
RTVSPropertyOp40
 70
     0
102
RTVSPropertyOp41
 70
     0
102
RTVSPropertyOp42
 70
     0
102
RTVSPropertyOp43
 70
     0
102
RTVSPropertyOp44
 70
     0
102
RTVSPropertyOp45
 70
     1
102
RTVSPropertyOp46
 70
     0
102
RTVSPropertyOp47
 70
     0
102
RTVSPropertyOp48
 70
     0
102
RTVSPropertyOp49
 70
     1
102
RTVSPropertyOp50
 70
     0
102
RTVSPropertyOp51
 70
     0
102
RTVSPropertyOp52
 70
     0
102
RTVSPropertyOp53
 70
     0
102
RTVSPropertyOp54
 70
     0
102
RTVSPropertyOp55
 70
     1
102
RTVSPropertyOp56
 70
     0
102
RTVSPropertyOp57
 70
     0
102
RTVSPropertyOp58
 70
     0
102
RTVSPropertyOp59
 70
     0
102
RTVSPropertyOp60
 70
     0
102
RTVSPropertyOp61
 70
     0
102
RTVSPropertyOp62
 70
     0
  0
XRECORD
  5
84D6
102
{ACAD_REACTORS
330
84D5
102
}
330
84D5
100
AcDbXrecord
280
     1
102
RTVSPost2010Prop28
280
     0
102
RTVSPost2010PropOp28
 70
     1
102
RTVSPost2010Prop29
280
     1
102
RTVSPost2010PropOp29
 70
     1
102
RTVSPost2010Prop30
280
     1
102
RTVSPost2010PropOp30
 70
     1
102
RTVSPost2010Prop31
280
     0
102
RTVSPost2010PropOp31
 70
     1
102
RTVSPost2010Prop32
280
     0
102
RTVSPost2010PropOp32
 70
     1
102
RTVSPost2010Prop33
280
     0
102
RTVSPost2010PropOp33
 70
     1
102
RTVSPost2010Prop34
280
     0
102
RTVSPost2010PropOp34
 70
     1
102
RTVSPost2010Prop35
280
     0
102
RTVSPost2010PropOp35
 70
     1
102
RTVSPost2010Prop36
280
     0
102
RTVSPost2010PropOp36
 70
     1
102
RTVSPost2010Prop37
 90
       50
102
RTVSPost2010PropOp37
 70
     1
102
RTVSPost2010Prop38
140
0.0
102
RTVSPost2010PropOp38
 70
     1
102
RTVSPost2010Prop39
140
1.0
102
RTVSPost2010PropOp39
 70
     1
102
RTVSPost2010Prop40
 90
        0
102
RTVSPost2010PropOp40
 70
     1
102
RTVSPost2010Prop41ColorIndex
 90
       18
102
RTVSPost2010Prop41ColorRGB
 90
        0
102
RTVSPost2010PropOp41
 70
     1
102
RTVSPost2010Prop42
 90
       50
102
RTVSPost2010PropOp42
 70
     1
102
RTVSPost2010Prop43
 90
        3
102
RTVSPost2010PropOp43
 70
     1
102
RTVSPost2010Prop44ColorIndex
 90
        5
102
RTVSPost2010Prop44ColorRGB
 90
      255
102
RTVSPost2010PropOp44
 70
     1
102
RTVSPost2010Prop45
280
     0
102
RTVSPost2010PropOp45
 70
     1
102
RTVSPost2010Prop46
 90
       50
102
RTVSPost2010PropOp46
 70
     1
102
RTVSPost2010Prop47
 90
       50
102
RTVSPost2010PropOp47
 70
     1
102
RTVSPost2010Prop48
 90
       50
102
RTVSPost2010PropOp48
 70
     1
102
RTVSPost2010Prop49
280
     0
102
RTVSPost2010PropOp49
 70
     1
102
RTVSPost2010Prop50
 90
       50
102
RTVSPost2010PropOp50
 70
     1
102
RTVSPost2010Prop51ColorIndex
 90
      256
102
RTVSPost2010Prop51ColorRGB
 90
-16777216
102
RTVSPost2010PropOp51
 70
     0
102
RTVSPost2010Prop52
140
1.0
102
RTVSPost2010PropOp52
 70
     0
102
RTVSPost2010Prop53
 90
        2
102
RTVSPost2010PropOp53
 70
     1
102
RTVSPost2010Prop54
  1
strokes_ogs.tif
102
RTVSPost2010PropOp54
 70
     1
102
RTVSPost2010Prop55
280
     0
102
RTVSPost2010PropOp55
 70
     1
102
RTVSPost2010Prop56
140
1.0
102
RTVSPost2010PropOp56
 70
     1
102
RTVSPost2010Prop57
140
1.0
102
RTVSPost2010PropOp57
 70
     1
102
RTVSPropertyOp0
 70
     1
102
RTVSPropertyOp1
 70
     1
102
RTVSPropertyOp2
 70
     1
102
RTVSPropertyOp3
 70
     1
102
RTVSPropertyOp4
 70
     1
102
RTVSPropertyOp5
 70
     1
102
RTVSPropertyOp6
 70
     1
102
RTVSPropertyOp7
 70
     1
102
RTVSPropertyOp8
 70
     1
102
RTVSPropertyOp9
 70
     1
102
RTVSPropertyOp10
 70
     1
102
RTVSPropertyOp11
 70
     1
102
RTVSPropertyOp12
 70
     1
102
RTVSPropertyOp13
 70
     1
102
RTVSPropertyOp14
 70
     1
102
RTVSPropertyOp15
 70
     1
102
RTVSPropertyOp16
 70
     1
102
RTVSPropertyOp17
 70
     1
102
RTVSPropertyOp18
 70
     1
102
RTVSPropertyOp19
 70
     1
102
RTVSPropertyOp20
 70
     1
102
RTVSPropertyOp21
 70
     1
102
RTVSPropertyOp22
 70
     1
102
RTVSPropertyOp23
 70
     1
102
RTVSPropertyOp24
 70
     1
102
RTVSPropertyOp25
 70
     1
102
RTVSPropertyOp26
 70
     1
102
RTVSPropertyOp27
 70
     1
102
RTVSPropertyOp28
 70
     1
102
RTVSPropertyOp29
 70
     1
102
RTVSPropertyOp30
 70
     1
102
RTVSPropertyOp31
 70
     1
102
RTVSPropertyOp32
 70
     1
102
RTVSPropertyOp33
 70
     1
102
RTVSPropertyOp34
 70
     1
102
RTVSPropertyOp35
 70
     1
102
RTVSPropertyOp36
 70
     1
102
RTVSPropertyOp37
 70
     1
102
RTVSPropertyOp38
 70
     1
102
RTVSPropertyOp39
 70
     1
102
RTVSPropertyOp40
 70
     1
102
RTVSPropertyOp41
 70
     1
102
RTVSPropertyOp42
 70
     1
102
RTVSPropertyOp43
 70
     1
102
RTVSPropertyOp44
 70
     1
102
RTVSPropertyOp45
 70
     1
102
RTVSPropertyOp46
 70
     1
102
RTVSPropertyOp47
 70
     1
102
RTVSPropertyOp48
 70
     1
102
RTVSPropertyOp49
 70
     1
102
RTVSPropertyOp50
 70
     1
102
RTVSPropertyOp51
 70
     0
102
RTVSPropertyOp52
 70
     0
102
RTVSPropertyOp53
 70
     1
102
RTVSPropertyOp54
 70
     1
102
RTVSPropertyOp55
 70
     1
102
RTVSPropertyOp56
 70
     1
102
RTVSPropertyOp57
 70
     1
102
RTVSPropertyOp58
 70
     1
102
RTVSPropertyOp59
 70
     1
102
RTVSPropertyOp60
 70
     1
102
RTVSPropertyOp61
 70
     1
102
RTVSPropertyOp62
 70
     1
  0
XRECORD
  5
84E8
102
{ACAD_REACTORS
330
84E7
102
}
330
84E7
100
AcDbXrecord
280
     1
102
RTVSPost2010Prop28
280
     0
102
RTVSPost2010PropOp28
 70
     1
102
RTVSPost2010Prop29
280
     1
102
RTVSPost2010PropOp29
 70
     1
102
RTVSPost2010Prop30
280
     1
102
RTVSPost2010PropOp30
 70
     1
102
RTVSPost2010Prop31
280
     0
102
RTVSPost2010PropOp31
 70
     1
102
RTVSPost2010Prop32
280
     0
102
RTVSPost2010PropOp32
 70
     1
102
RTVSPost2010Prop33
280
     0
102
RTVSPost2010PropOp33
 70
     1
102
RTVSPost2010Prop34
280
     0
102
RTVSPost2010PropOp34
 70
     1
102
RTVSPost2010Prop35
280
     0
102
RTVSPost2010PropOp35
 70
     1
102
RTVSPost2010Prop36
280
     0
102
RTVSPost2010PropOp36
 70
     1
102
RTVSPost2010Prop37
 90
       50
102
RTVSPost2010PropOp37
 70
     0
102
RTVSPost2010Prop38
140
0.0
102
RTVSPost2010PropOp38
 70
     0
102
RTVSPost2010Prop39
140
1.0
102
RTVSPost2010PropOp39
 70
     0
102
RTVSPost2010Prop40
 90
        0
102
RTVSPost2010PropOp40
 70
     0
102
RTVSPost2010Prop41ColorIndex
 90
       18
102
RTVSPost2010Prop41ColorRGB
 90
        0
102
RTVSPost2010PropOp41
 70
     0
102
RTVSPost2010Prop42
 90
       50
102
RTVSPost2010PropOp42
 70
     0
102
RTVSPost2010Prop43
 90
        3
102
RTVSPost2010PropOp43
 70
     0
102
RTVSPost2010Prop44ColorIndex
 90
        5
102
RTVSPost2010Prop44ColorRGB
 90
      255
102
RTVSPost2010PropOp44
 70
     0
102
RTVSPost2010Prop45
280
     0
102
RTVSPost2010PropOp45
 70
     1
102
RTVSPost2010Prop46
 90
       50
102
RTVSPost2010PropOp46
 70
     0
102
RTVSPost2010Prop47
 90
       50
102
RTVSPost2010PropOp47
 70
     0
102
RTVSPost2010Prop48
 90
       50
102
RTVSPost2010PropOp48
 70
     0
102
RTVSPost2010Prop49
280
     0
102
RTVSPost2010PropOp49
 70
     1
102
RTVSPost2010Prop50
 90
       50
102
RTVSPost2010PropOp50
 70
     0
102
RTVSPost2010Prop51ColorIndex
 90
      256
102
RTVSPost2010Prop51ColorRGB
 90
-16777216
102
RTVSPost2010PropOp51
 70
     0
102
RTVSPost2010Prop52
140
1.0
102
RTVSPost2010PropOp52
 70
     0
102
RTVSPost2010Prop53
 90
        2
102
RTVSPost2010PropOp53
 70
     0
102
RTVSPost2010Prop54
  1
strokes_ogs.tif
102
RTVSPost2010PropOp54
 70
     0
102
RTVSPost2010Prop55
280
     0
102
RTVSPost2010PropOp55
 70
     1
102
RTVSPost2010Prop56
140
1.0
102
RTVSPost2010PropOp56
 70
     0
102
RTVSPost2010Prop57
140
1.0
102
RTVSPost2010PropOp57
 70
     0
102
RTVSPropertyOp0
 70
     0
102
RTVSPropertyOp1
 70
     0
102
RTVSPropertyOp2
 70
     0
102
RTVSPropertyOp3
 70
     0
102
RTVSPropertyOp4
 70
     0
102
RTVSPropertyOp5
 70
     0
102
RTVSPropertyOp6
 70
     0
102
RTVSPropertyOp7
 70
     0
102
RTVSPropertyOp8
 70
     0
102
RTVSPropertyOp9
 70
     0
102
RTVSPropertyOp10
 70
     0
102
RTVSPropertyOp11
 70
     0
102
RTVSPropertyOp12
 70
     0
102
RTVSPropertyOp13
 70
     0
102
RTVSPropertyOp14
 70
     2
102
RTVSPropertyOp15
 70
     0
102
RTVSPropertyOp16
 70
     0
102
RTVSPropertyOp17
 70
     0
102
RTVSPropertyOp18
 70
     0
102
RTVSPropertyOp19
 70
     0
102
RTVSPropertyOp20
 70
     0
102
RTVSPropertyOp21
 70
     0
102
RTVSPropertyOp22
 70
     0
102
RTVSPropertyOp23
 70
     0
102
RTVSPropertyOp24
 70
     0
102
RTVSPropertyOp25
 70
     0
102
RTVSPropertyOp26
 70
     0
102
RTVSPropertyOp27
 70
     0
102
RTVSPropertyOp28
 70
     1
102
RTVSPropertyOp29
 70
     1
102
RTVSPropertyOp30
 70
     1
102
RTVSPropertyOp31
 70
     1
102
RTVSPropertyOp32
 70
     1
102
RTVSPropertyOp33
 70
     1
102
RTVSPropertyOp34
 70
     1
102
RTVSPropertyOp35
 70
     1
102
RTVSPropertyOp36
 70
     1
102
RTVSPropertyOp37
 70
     0
102
RTVSPropertyOp38
 70
     0
102
RTVSPropertyOp39
 70
     0
102
RTVSPropertyOp40
 70
     0
102
RTVSPropertyOp41
 70
     0
102
RTVSPropertyOp42
 70
     0
102
RTVSPropertyOp43
 70
     0
102
RTVSPropertyOp44
 70
     0
102
RTVSPropertyOp45
 70
     1
102
RTVSPropertyOp46
 70
     0
102
RTVSPropertyOp47
 70
     0
102
RTVSPropertyOp48
 70
     0
102
RTVSPropertyOp49
 70
     1
102
RTVSPropertyOp50
 70
     0
102
RTVSPropertyOp51
 70
     0
102
RTVSPropertyOp52
 70
     0
102
RTVSPropertyOp53
 70
     0
102
RTVSPropertyOp54
 70
     0
102
RTVSPropertyOp55
 70
     1
102
RTVSPropertyOp56
 70
     0
102
RTVSPropertyOp57
 70
     0
102
RTVSPropertyOp58
 70
     0
102
RTVSPropertyOp59
 70
     0
102
RTVSPropertyOp60
 70
     0
102
RTVSPropertyOp61
 70
     0
102
RTVSPropertyOp62
 70
     0
  0
XRECORD
  5
84CE
102
{ACAD_REACTORS
330
84CD
102
}
330
84CD
100
AcDbXrecord
280
     1
102
RTVSPost2010Prop28
280
     0
102
RTVSPost2010PropOp28
 70
     1
102
RTVSPost2010Prop29
280
     1
102
RTVSPost2010PropOp29
 70
     1
102
RTVSPost2010Prop30
280
     1
102
RTVSPost2010PropOp30
 70
     1
102
RTVSPost2010Prop31
280
     0
102
RTVSPost2010PropOp31
 70
     1
102
RTVSPost2010Prop32
280
     0
102
RTVSPost2010PropOp32
 70
     1
102
RTVSPost2010Prop33
280
     0
102
RTVSPost2010PropOp33
 70
     1
102
RTVSPost2010Prop34
280
     0
102
RTVSPost2010PropOp34
 70
     1
102
RTVSPost2010Prop35
280
     0
102
RTVSPost2010PropOp35
 70
     1
102
RTVSPost2010Prop36
280
     0
102
RTVSPost2010PropOp36
 70
     1
102
RTVSPost2010Prop37
 90
       50
102
RTVSPost2010PropOp37
 70
     1
102
RTVSPost2010Prop38
140
0.0
102
RTVSPost2010PropOp38
 70
     1
102
RTVSPost2010Prop39
140
1.0
102
RTVSPost2010PropOp39
 70
     1
102
RTVSPost2010Prop40
 90
        0
102
RTVSPost2010PropOp40
 70
     1
102
RTVSPost2010Prop41ColorIndex
 90
       18
102
RTVSPost2010Prop41ColorRGB
 90
        0
102
RTVSPost2010PropOp41
 70
     1
102
RTVSPost2010Prop42
 90
       50
102
RTVSPost2010PropOp42
 70
     1
102
RTVSPost2010Prop43
 90
        3
102
RTVSPost2010PropOp43
 70
     1
102
RTVSPost2010Prop44ColorIndex
 90
        5
102
RTVSPost2010Prop44ColorRGB
 90
      255
102
RTVSPost2010PropOp44
 70
     1
102
RTVSPost2010Prop45
280
     0
102
RTVSPost2010PropOp45
 70
     1
102
RTVSPost2010Prop46
 90
       50
102
RTVSPost2010PropOp46
 70
     1
102
RTVSPost2010Prop47
 90
       50
102
RTVSPost2010PropOp47
 70
     1
102
RTVSPost2010Prop48
 90
       50
102
RTVSPost2010PropOp48
 70
     1
102
RTVSPost2010Prop49
280
     0
102
RTVSPost2010PropOp49
 70
     1
102
RTVSPost2010Prop50
 90
       50
102
RTVSPost2010PropOp50
 70
     1
102
RTVSPost2010Prop51ColorIndex
 90
      256
102
RTVSPost2010Prop51ColorRGB
 90
-16777216
102
RTVSPost2010PropOp51
 70
     0
102
RTVSPost2010Prop52
140
1.0
102
RTVSPost2010PropOp52
 70
     0
102
RTVSPost2010Prop53
 90
        2
102
RTVSPost2010PropOp53
 70
     1
102
RTVSPost2010Prop54
  1
strokes_ogs.tif
102
RTVSPost2010PropOp54
 70
     1
102
RTVSPost2010Prop55
280
     0
102
RTVSPost2010PropOp55
 70
     1
102
RTVSPost2010Prop56
140
1.0
102
RTVSPost2010PropOp56
 70
     1
102
RTVSPost2010Prop57
140
1.0
102
RTVSPost2010PropOp57
 70
     1
102
RTVSPropertyOp0
 70
     1
102
RTVSPropertyOp1
 70
     1
102
RTVSPropertyOp2
 70
     1
102
RTVSPropertyOp3
 70
     1
102
RTVSPropertyOp4
 70
     1
102
RTVSPropertyOp5
 70
     1
102
RTVSPropertyOp6
 70
     1
102
RTVSPropertyOp7
 70
     1
102
RTVSPropertyOp8
 70
     1
102
RTVSPropertyOp9
 70
     1
102
RTVSPropertyOp10
 70
     1
102
RTVSPropertyOp11
 70
     1
102
RTVSPropertyOp12
 70
     1
102
RTVSPropertyOp13
 70
     1
102
RTVSPropertyOp14
 70
     1
102
RTVSPropertyOp15
 70
     1
102
RTVSPropertyOp16
 70
     1
102
RTVSPropertyOp17
 70
     1
102
RTVSPropertyOp18
 70
     1
102
RTVSPropertyOp19
 70
     1
102
RTVSPropertyOp20
 70
     1
102
RTVSPropertyOp21
 70
     1
102
RTVSPropertyOp22
 70
     1
102
RTVSPropertyOp23
 70
     1
102
RTVSPropertyOp24
 70
     1
102
RTVSPropertyOp25
 70
     1
102
RTVSPropertyOp26
 70
     1
102
RTVSPropertyOp27
 70
     1
102
RTVSPropertyOp28
 70
     1
102
RTVSPropertyOp29
 70
     1
102
RTVSPropertyOp30
 70
     1
102
RTVSPropertyOp31
 70
     1
102
RTVSPropertyOp32
 70
     1
102
RTVSPropertyOp33
 70
     1
102
RTVSPropertyOp34
 70
     1
102
RTVSPropertyOp35
 70
     1
102
RTVSPropertyOp36
 70
     1
102
RTVSPropertyOp37
 70
     1
102
RTVSPropertyOp38
 70
     1
102
RTVSPropertyOp39
 70
     1
102
RTVSPropertyOp40
 70
     1
102
RTVSPropertyOp41
 70
     1
102
RTVSPropertyOp42
 70
     1
102
RTVSPropertyOp43
 70
     1
102
RTVSPropertyOp44
 70
     1
102
RTVSPropertyOp45
 70
     1
102
RTVSPropertyOp46
 70
     1
102
RTVSPropertyOp47
 70
     1
102
RTVSPropertyOp48
 70
     1
102
RTVSPropertyOp49
 70
     1
102
RTVSPropertyOp50
 70
     1
102
RTVSPropertyOp51
 70
     0
102
RTVSPropertyOp52
 70
     0
102
RTVSPropertyOp53
 70
     1
102
RTVSPropertyOp54
 70
     1
102
RTVSPropertyOp55
 70
     1
102
RTVSPropertyOp56
 70
     1
102
RTVSPropertyOp57
 70
     1
102
RTVSPropertyOp58
 70
     1
102
RTVSPropertyOp59
 70
     1
102
RTVSPropertyOp60
 70
     1
102
RTVSPropertyOp61
 70
     1
102
RTVSPropertyOp62
 70
     1
  0
XRECORD
  5
84E4
102
{ACAD_REACTORS
330
84E3
102
}
330
84E3
100
AcDbXrecord
280
     1
102
RTVSPost2010Prop28
280
     0
102
RTVSPost2010PropOp28
 70
     1
102
RTVSPost2010Prop29
280
     1
102
RTVSPost2010PropOp29
 70
     1
102
RTVSPost2010Prop30
280
     1
102
RTVSPost2010PropOp30
 70
     1
102
RTVSPost2010Prop31
280
     0
102
RTVSPost2010PropOp31
 70
     1
102
RTVSPost2010Prop32
280
     0
102
RTVSPost2010PropOp32
 70
     1
102
RTVSPost2010Prop33
280
     0
102
RTVSPost2010PropOp33
 70
     1
102
RTVSPost2010Prop34
280
     0
102
RTVSPost2010PropOp34
 70
     1
102
RTVSPost2010Prop35
280
     0
102
RTVSPost2010PropOp35
 70
     1
102
RTVSPost2010Prop36
280
     0
102
RTVSPost2010PropOp36
 70
     1
102
RTVSPost2010Prop37
 90
       50
102
RTVSPost2010PropOp37
 70
     1
102
RTVSPost2010Prop38
140
0.0
102
RTVSPost2010PropOp38
 70
     1
102
RTVSPost2010Prop39
140
1.0
102
RTVSPost2010PropOp39
 70
     1
102
RTVSPost2010Prop40
 90
        0
102
RTVSPost2010PropOp40
 70
     1
102
RTVSPost2010Prop41ColorIndex
 90
       18
102
RTVSPost2010Prop41ColorRGB
 90
        0
102
RTVSPost2010PropOp41
 70
     1
102
RTVSPost2010Prop42
 90
       50
102
RTVSPost2010PropOp42
 70
     1
102
RTVSPost2010Prop43
 90
        3
102
RTVSPost2010PropOp43
 70
     1
102
RTVSPost2010Prop44ColorIndex
 90
        5
102
RTVSPost2010Prop44ColorRGB
 90
      255
102
RTVSPost2010PropOp44
 70
     1
102
RTVSPost2010Prop45
280
     0
102
RTVSPost2010PropOp45
 70
     1
102
RTVSPost2010Prop46
 90
       50
102
RTVSPost2010PropOp46
 70
     1
102
RTVSPost2010Prop47
 90
       50
102
RTVSPost2010PropOp47
 70
     1
102
RTVSPost2010Prop48
 90
       50
102
RTVSPost2010PropOp48
 70
     1
102
RTVSPost2010Prop49
280
     0
102
RTVSPost2010PropOp49
 70
     1
102
RTVSPost2010Prop50
 90
       50
102
RTVSPost2010PropOp50
 70
     1
102
RTVSPost2010Prop51ColorIndex
 90
      256
102
RTVSPost2010Prop51ColorRGB
 90
-16777216
102
RTVSPost2010PropOp51
 70
     0
102
RTVSPost2010Prop52
140
1.0
102
RTVSPost2010PropOp52
 70
     0
102
RTVSPost2010Prop53
 90
        2
102
RTVSPost2010PropOp53
 70
     1
102
RTVSPost2010Prop54
  1
strokes_ogs.tif
102
RTVSPost2010PropOp54
 70
     1
102
RTVSPost2010Prop55
280
     0
102
RTVSPost2010PropOp55
 70
     1
102
RTVSPost2010Prop56
140
1.0
102
RTVSPost2010PropOp56
 70
     1
102
RTVSPost2010Prop57
140
1.0
102
RTVSPost2010PropOp57
 70
     1
102
RTVSPropertyOp0
 70
     1
102
RTVSPropertyOp1
 70
     1
102
RTVSPropertyOp2
 70
     1
102
RTVSPropertyOp3
 70
     1
102
RTVSPropertyOp4
 70
     1
102
RTVSPropertyOp5
 70
     1
102
RTVSPropertyOp6
 70
     1
102
RTVSPropertyOp7
 70
     1
102
RTVSPropertyOp8
 70
     1
102
RTVSPropertyOp9
 70
     1
102
RTVSPropertyOp10
 70
     1
102
RTVSPropertyOp11
 70
     1
102
RTVSPropertyOp12
 70
     1
102
RTVSPropertyOp13
 70
     1
102
RTVSPropertyOp14
 70
     1
102
RTVSPropertyOp15
 70
     1
102
RTVSPropertyOp16
 70
     1
102
RTVSPropertyOp17
 70
     1
102
RTVSPropertyOp18
 70
     1
102
RTVSPropertyOp19
 70
     1
102
RTVSPropertyOp20
 70
     1
102
RTVSPropertyOp21
 70
     1
102
RTVSPropertyOp22
 70
     1
102
RTVSPropertyOp23
 70
     1
102
RTVSPropertyOp24
 70
     1
102
RTVSPropertyOp25
 70
     1
102
RTVSPropertyOp26
 70
     1
102
RTVSPropertyOp27
 70
     1
102
RTVSPropertyOp28
 70
     1
102
RTVSPropertyOp29
 70
     1
102
RTVSPropertyOp30
 70
     1
102
RTVSPropertyOp31
 70
     1
102
RTVSPropertyOp32
 70
     1
102
RTVSPropertyOp33
 70
     1
102
RTVSPropertyOp34
 70
     1
102
RTVSPropertyOp35
 70
     1
102
RTVSPropertyOp36
 70
     1
102
RTVSPropertyOp37
 70
     1
102
RTVSPropertyOp38
 70
     1
102
RTVSPropertyOp39
 70
     1
102
RTVSPropertyOp40
 70
     1
102
RTVSPropertyOp41
 70
     1
102
RTVSPropertyOp42
 70
     1
102
RTVSPropertyOp43
 70
     1
102
RTVSPropertyOp44
 70
     1
102
RTVSPropertyOp45
 70
     1
102
RTVSPropertyOp46
 70
     1
102
RTVSPropertyOp47
 70
     1
102
RTVSPropertyOp48
 70
     1
102
RTVSPropertyOp49
 70
     1
102
RTVSPropertyOp50
 70
     1
102
RTVSPropertyOp51
 70
     0
102
RTVSPropertyOp52
 70
     0
102
RTVSPropertyOp53
 70
     1
102
RTVSPropertyOp54
 70
     1
102
RTVSPropertyOp55
 70
     1
102
RTVSPropertyOp56
 70
     1
102
RTVSPropertyOp57
 70
     1
102
RTVSPropertyOp58
 70
     1
102
RTVSPropertyOp59
 70
     1
102
RTVSPropertyOp60
 70
     1
102
RTVSPropertyOp61
 70
     1
102
RTVSPropertyOp62
 70
     1
  0
XRECORD
  5
84E2
102
{ACAD_REACTORS
330
84E1
102
}
330
84E1
100
AcDbXrecord
280
     1
102
RTVSPost2010Prop28
280
     0
102
RTVSPost2010PropOp28
 70
     1
102
RTVSPost2010Prop29
280
     1
102
RTVSPost2010PropOp29
 70
     1
102
RTVSPost2010Prop30
280
     1
102
RTVSPost2010PropOp30
 70
     1
102
RTVSPost2010Prop31
280
     0
102
RTVSPost2010PropOp31
 70
     1
102
RTVSPost2010Prop32
280
     0
102
RTVSPost2010PropOp32
 70
     1
102
RTVSPost2010Prop33
280
     0
102
RTVSPost2010PropOp33
 70
     1
102
RTVSPost2010Prop34
280
     0
102
RTVSPost2010PropOp34
 70
     1
102
RTVSPost2010Prop35
280
     0
102
RTVSPost2010PropOp35
 70
     1
102
RTVSPost2010Prop36
280
     0
102
RTVSPost2010PropOp36
 70
     1
102
RTVSPost2010Prop37
 90
       50
102
RTVSPost2010PropOp37
 70
     1
102
RTVSPost2010Prop38
140
0.0
102
RTVSPost2010PropOp38
 70
     1
102
RTVSPost2010Prop39
140
1.0
102
RTVSPost2010PropOp39
 70
     1
102
RTVSPost2010Prop40
 90
        0
102
RTVSPost2010PropOp40
 70
     1
102
RTVSPost2010Prop41ColorIndex
 90
       18
102
RTVSPost2010Prop41ColorRGB
 90
        0
102
RTVSPost2010PropOp41
 70
     1
102
RTVSPost2010Prop42
 90
       50
102
RTVSPost2010PropOp42
 70
     1
102
RTVSPost2010Prop43
 90
        3
102
RTVSPost2010PropOp43
 70
     1
102
RTVSPost2010Prop44ColorIndex
 90
        5
102
RTVSPost2010Prop44ColorRGB
 90
      255
102
RTVSPost2010PropOp44
 70
     1
102
RTVSPost2010Prop45
280
     0
102
RTVSPost2010PropOp45
 70
     1
102
RTVSPost2010Prop46
 90
       50
102
RTVSPost2010PropOp46
 70
     1
102
RTVSPost2010Prop47
 90
       50
102
RTVSPost2010PropOp47
 70
     1
102
RTVSPost2010Prop48
 90
       50
102
RTVSPost2010PropOp48
 70
     1
102
RTVSPost2010Prop49
280
     0
102
RTVSPost2010PropOp49
 70
     1
102
RTVSPost2010Prop50
 90
       50
102
RTVSPost2010PropOp50
 70
     1
102
RTVSPost2010Prop51ColorIndex
 90
      256
102
RTVSPost2010Prop51ColorRGB
 90
-16777216
102
RTVSPost2010PropOp51
 70
     0
102
RTVSPost2010Prop52
140
1.0
102
RTVSPost2010PropOp52
 70
     0
102
RTVSPost2010Prop53
 90
        2
102
RTVSPost2010PropOp53
 70
     1
102
RTVSPost2010Prop54
  1
strokes_ogs.tif
102
RTVSPost2010PropOp54
 70
     1
102
RTVSPost2010Prop55
280
     0
102
RTVSPost2010PropOp55
 70
     1
102
RTVSPost2010Prop56
140
1.0
102
RTVSPost2010PropOp56
 70
     1
102
RTVSPost2010Prop57
140
1.0
102
RTVSPost2010PropOp57
 70
     1
102
RTVSPropertyOp0
 70
     1
102
RTVSPropertyOp1
 70
     1
102
RTVSPropertyOp2
 70
     1
102
RTVSPropertyOp3
 70
     1
102
RTVSPropertyOp4
 70
     1
102
RTVSPropertyOp5
 70
     1
102
RTVSPropertyOp6
 70
     1
102
RTVSPropertyOp7
 70
     1
102
RTVSPropertyOp8
 70
     1
102
RTVSPropertyOp9
 70
     1
102
RTVSPropertyOp10
 70
     1
102
RTVSPropertyOp11
 70
     1
102
RTVSPropertyOp12
 70
     1
102
RTVSPropertyOp13
 70
     1
102
RTVSPropertyOp14
 70
     1
102
RTVSPropertyOp15
 70
     1
102
RTVSPropertyOp16
 70
     1
102
RTVSPropertyOp17
 70
     1
102
RTVSPropertyOp18
 70
     1
102
RTVSPropertyOp19
 70
     1
102
RTVSPropertyOp20
 70
     1
102
RTVSPropertyOp21
 70
     1
102
RTVSPropertyOp22
 70
     1
102
RTVSPropertyOp23
 70
     1
102
RTVSPropertyOp24
 70
     1
102
RTVSPropertyOp25
 70
     1
102
RTVSPropertyOp26
 70
     1
102
RTVSPropertyOp27
 70
     1
102
RTVSPropertyOp28
 70
     1
102
RTVSPropertyOp29
 70
     1
102
RTVSPropertyOp30
 70
     1
102
RTVSPropertyOp31
 70
     1
102
RTVSPropertyOp32
 70
     1
102
RTVSPropertyOp33
 70
     1
102
RTVSPropertyOp34
 70
     1
102
RTVSPropertyOp35
 70
     1
102
RTVSPropertyOp36
 70
     1
102
RTVSPropertyOp37
 70
     1
102
RTVSPropertyOp38
 70
     1
102
RTVSPropertyOp39
 70
     1
102
RTVSPropertyOp40
 70
     1
102
RTVSPropertyOp41
 70
     1
102
RTVSPropertyOp42
 70
     1
102
RTVSPropertyOp43
 70
     1
102
RTVSPropertyOp44
 70
     1
102
RTVSPropertyOp45
 70
     1
102
RTVSPropertyOp46
 70
     1
102
RTVSPropertyOp47
 70
     1
102
RTVSPropertyOp48
 70
     1
102
RTVSPropertyOp49
 70
     1
102
RTVSPropertyOp50
 70
     1
102
RTVSPropertyOp51
 70
     0
102
RTVSPropertyOp52
 70
     0
102
RTVSPropertyOp53
 70
     1
102
RTVSPropertyOp54
 70
     1
102
RTVSPropertyOp55
 70
     1
102
RTVSPropertyOp56
 70
     1
102
RTVSPropertyOp57
 70
     1
102
RTVSPropertyOp58
 70
     1
102
RTVSPropertyOp59
 70
     1
102
RTVSPropertyOp60
 70
     1
102
RTVSPropertyOp61
 70
     1
102
RTVSPropertyOp62
 70
     1
  0
XRECORD
  5
84DC
102
{ACAD_REACTORS
330
84DB
102
}
330
84DB
100
AcDbXrecord
280
     1
102
RTVSPost2010Prop28
280
     0
102
RTVSPost2010PropOp28
 70
     1
102
RTVSPost2010Prop29
280
     1
102
RTVSPost2010PropOp29
 70
     1
102
RTVSPost2010Prop30
280
     1
102
RTVSPost2010PropOp30
 70
     1
102
RTVSPost2010Prop31
280
     0
102
RTVSPost2010PropOp31
 70
     1
102
RTVSPost2010Prop32
280
     0
102
RTVSPost2010PropOp32
 70
     1
102
RTVSPost2010Prop33
280
     0
102
RTVSPost2010PropOp33
 70
     1
102
RTVSPost2010Prop34
280
     0
102
RTVSPost2010PropOp34
 70
     1
102
RTVSPost2010Prop35
280
     0
102
RTVSPost2010PropOp35
 70
     1
102
RTVSPost2010Prop36
280
     0
102
RTVSPost2010PropOp36
 70
     1
102
RTVSPost2010Prop37
 90
       50
102
RTVSPost2010PropOp37
 70
     1
102
RTVSPost2010Prop38
140
0.0
102
RTVSPost2010PropOp38
 70
     1
102
RTVSPost2010Prop39
140
1.0
102
RTVSPost2010PropOp39
 70
     1
102
RTVSPost2010Prop40
 90
        0
102
RTVSPost2010PropOp40
 70
     1
102
RTVSPost2010Prop41ColorIndex
 90
       18
102
RTVSPost2010Prop41ColorRGB
 90
        0
102
RTVSPost2010PropOp41
 70
     1
102
RTVSPost2010Prop42
 90
       50
102
RTVSPost2010PropOp42
 70
     1
102
RTVSPost2010Prop43
 90
        3
102
RTVSPost2010PropOp43
 70
     1
102
RTVSPost2010Prop44ColorIndex
 90
        5
102
RTVSPost2010Prop44ColorRGB
 90
      255
102
RTVSPost2010PropOp44
 70
     1
102
RTVSPost2010Prop45
280
     0
102
RTVSPost2010PropOp45
 70
     1
102
RTVSPost2010Prop46
 90
       50
102
RTVSPost2010PropOp46
 70
     1
102
RTVSPost2010Prop47
 90
       50
102
RTVSPost2010PropOp47
 70
     1
102
RTVSPost2010Prop48
 90
       50
102
RTVSPost2010PropOp48
 70
     1
102
RTVSPost2010Prop49
280
     0
102
RTVSPost2010PropOp49
 70
     1
102
RTVSPost2010Prop50
 90
       50
102
RTVSPost2010PropOp50
 70
     1
102
RTVSPost2010Prop51ColorIndex
 90
      256
102
RTVSPost2010Prop51ColorRGB
 90
-16777216
102
RTVSPost2010PropOp51
 70
     0
102
RTVSPost2010Prop52
140
1.0
102
RTVSPost2010PropOp52
 70
     0
102
RTVSPost2010Prop53
 90
        2
102
RTVSPost2010PropOp53
 70
     1
102
RTVSPost2010Prop54
  1
strokes_ogs.tif
102
RTVSPost2010PropOp54
 70
     1
102
RTVSPost2010Prop55
280
     0
102
RTVSPost2010PropOp55
 70
     1
102
RTVSPost2010Prop56
140
1.0
102
RTVSPost2010PropOp56
 70
     1
102
RTVSPost2010Prop57
140
1.0
102
RTVSPost2010PropOp57
 70
     1
102
RTVSPropertyOp0
 70
     1
102
RTVSPropertyOp1
 70
     1
102
RTVSPropertyOp2
 70
     1
102
RTVSPropertyOp3
 70
     1
102
RTVSPropertyOp4
 70
     1
102
RTVSPropertyOp5
 70
     1
102
RTVSPropertyOp6
 70
     1
102
RTVSPropertyOp7
 70
     1
102
RTVSPropertyOp8
 70
     1
102
RTVSPropertyOp9
 70
     1
102
RTVSPropertyOp10
 70
     1
102
RTVSPropertyOp11
 70
     1
102
RTVSPropertyOp12
 70
     1
102
RTVSPropertyOp13
 70
     1
102
RTVSPropertyOp14
 70
     1
102
RTVSPropertyOp15
 70
     1
102
RTVSPropertyOp16
 70
     1
102
RTVSPropertyOp17
 70
     1
102
RTVSPropertyOp18
 70
     1
102
RTVSPropertyOp19
 70
     1
102
RTVSPropertyOp20
 70
     1
102
RTVSPropertyOp21
 70
     1
102
RTVSPropertyOp22
 70
     1
102
RTVSPropertyOp23
 70
     1
102
RTVSPropertyOp24
 70
     1
102
RTVSPropertyOp25
 70
     1
102
RTVSPropertyOp26
 70
     1
102
RTVSPropertyOp27
 70
     1
102
RTVSPropertyOp28
 70
     1
102
RTVSPropertyOp29
 70
     1
102
RTVSPropertyOp30
 70
     1
102
RTVSPropertyOp31
 70
     1
102
RTVSPropertyOp32
 70
     1
102
RTVSPropertyOp33
 70
     1
102
RTVSPropertyOp34
 70
     1
102
RTVSPropertyOp35
 70
     1
102
RTVSPropertyOp36
 70
     1
102
RTVSPropertyOp37
 70
     1
102
RTVSPropertyOp38
 70
     1
102
RTVSPropertyOp39
 70
     1
102
RTVSPropertyOp40
 70
     1
102
RTVSPropertyOp41
 70
     1
102
RTVSPropertyOp42
 70
     1
102
RTVSPropertyOp43
 70
     1
102
RTVSPropertyOp44
 70
     1
102
RTVSPropertyOp45
 70
     1
102
RTVSPropertyOp46
 70
     1
102
RTVSPropertyOp47
 70
     1
102
RTVSPropertyOp48
 70
     1
102
RTVSPropertyOp49
 70
     1
102
RTVSPropertyOp50
 70
     1
102
RTVSPropertyOp51
 70
     0
102
RTVSPropertyOp52
 70
     0
102
RTVSPropertyOp53
 70
     1
102
RTVSPropertyOp54
 70
     1
102
RTVSPropertyOp55
 70
     1
102
RTVSPropertyOp56
 70
     1
102
RTVSPropertyOp57
 70
     1
102
RTVSPropertyOp58
 70
     1
102
RTVSPropertyOp59
 70
     1
102
RTVSPropertyOp60
 70
     1
102
RTVSPropertyOp61
 70
     1
102
RTVSPropertyOp62
 70
     1
  0
XRECORD
  5
84DE
102
{ACAD_REACTORS
330
84DD
102
}
330
84DD
100
AcDbXrecord
280
     1
102
RTVSPost2010Prop28
280
     0
102
RTVSPost2010PropOp28
 70
     1
102
RTVSPost2010Prop29
280
     1
102
RTVSPost2010PropOp29
 70
     1
102
RTVSPost2010Prop30
280
     1
102
RTVSPost2010PropOp30
 70
     1
102
RTVSPost2010Prop31
280
     0
102
RTVSPost2010PropOp31
 70
     1
102
RTVSPost2010Prop32
280
     0
102
RTVSPost2010PropOp32
 70
     1
102
RTVSPost2010Prop33
280
     0
102
RTVSPost2010PropOp33
 70
     1
102
RTVSPost2010Prop34
280
     0
102
RTVSPost2010PropOp34
 70
     1
102
RTVSPost2010Prop35
280
     0
102
RTVSPost2010PropOp35
 70
     1
102
RTVSPost2010Prop36
280
     0
102
RTVSPost2010PropOp36
 70
     1
102
RTVSPost2010Prop37
 90
       50
102
RTVSPost2010PropOp37
 70
     1
102
RTVSPost2010Prop38
140
0.0
102
RTVSPost2010PropOp38
 70
     1
102
RTVSPost2010Prop39
140
1.0
102
RTVSPost2010PropOp39
 70
     1
102
RTVSPost2010Prop40
 90
        0
102
RTVSPost2010PropOp40
 70
     1
102
RTVSPost2010Prop41ColorIndex
 90
       18
102
RTVSPost2010Prop41ColorRGB
 90
        0
102
RTVSPost2010PropOp41
 70
     1
102
RTVSPost2010Prop42
 90
       50
102
RTVSPost2010PropOp42
 70
     1
102
RTVSPost2010Prop43
 90
        3
102
RTVSPost2010PropOp43
 70
     1
102
RTVSPost2010Prop44ColorIndex
 90
        5
102
RTVSPost2010Prop44ColorRGB
 90
      255
102
RTVSPost2010PropOp44
 70
     1
102
RTVSPost2010Prop45
280
     0
102
RTVSPost2010PropOp45
 70
     1
102
RTVSPost2010Prop46
 90
       50
102
RTVSPost2010PropOp46
 70
     1
102
RTVSPost2010Prop47
 90
       50
102
RTVSPost2010PropOp47
 70
     1
102
RTVSPost2010Prop48
 90
       50
102
RTVSPost2010PropOp48
 70
     1
102
RTVSPost2010Prop49
280
     0
102
RTVSPost2010PropOp49
 70
     1
102
RTVSPost2010Prop50
 90
       50
102
RTVSPost2010PropOp50
 70
     1
102
RTVSPost2010Prop51ColorIndex
 90
      256
102
RTVSPost2010Prop51ColorRGB
 90
-16777216
102
RTVSPost2010PropOp51
 70
     0
102
RTVSPost2010Prop52
140
1.0
102
RTVSPost2010PropOp52
 70
     0
102
RTVSPost2010Prop53
 90
        2
102
RTVSPost2010PropOp53
 70
     1
102
RTVSPost2010Prop54
  1
strokes_ogs.tif
102
RTVSPost2010PropOp54
 70
     1
102
RTVSPost2010Prop55
280
     0
102
RTVSPost2010PropOp55
 70
     1
102
RTVSPost2010Prop56
140
1.0
102
RTVSPost2010PropOp56
 70
     1
102
RTVSPost2010Prop57
140
1.0
102
RTVSPost2010PropOp57
 70
     1
102
RTVSPropertyOp0
 70
     1
102
RTVSPropertyOp1
 70
     1
102
RTVSPropertyOp2
 70
     1
102
RTVSPropertyOp3
 70
     1
102
RTVSPropertyOp4
 70
     1
102
RTVSPropertyOp5
 70
     1
102
RTVSPropertyOp6
 70
     1
102
RTVSPropertyOp7
 70
     1
102
RTVSPropertyOp8
 70
     1
102
RTVSPropertyOp9
 70
     1
102
RTVSPropertyOp10
 70
     1
102
RTVSPropertyOp11
 70
     1
102
RTVSPropertyOp12
 70
     1
102
RTVSPropertyOp13
 70
     1
102
RTVSPropertyOp14
 70
     1
102
RTVSPropertyOp15
 70
     1
102
RTVSPropertyOp16
 70
     1
102
RTVSPropertyOp17
 70
     1
102
RTVSPropertyOp18
 70
     1
102
RTVSPropertyOp19
 70
     1
102
RTVSPropertyOp20
 70
     1
102
RTVSPropertyOp21
 70
     1
102
RTVSPropertyOp22
 70
     1
102
RTVSPropertyOp23
 70
     1
102
RTVSPropertyOp24
 70
     1
102
RTVSPropertyOp25
 70
     1
102
RTVSPropertyOp26
 70
     1
102
RTVSPropertyOp27
 70
     1
102
RTVSPropertyOp28
 70
     1
102
RTVSPropertyOp29
 70
     1
102
RTVSPropertyOp30
 70
     1
102
RTVSPropertyOp31
 70
     1
102
RTVSPropertyOp32
 70
     1
102
RTVSPropertyOp33
 70
     1
102
RTVSPropertyOp34
 70
     1
102
RTVSPropertyOp35
 70
     1
102
RTVSPropertyOp36
 70
     1
102
RTVSPropertyOp37
 70
     1
102
RTVSPropertyOp38
 70
     1
102
RTVSPropertyOp39
 70
     1
102
RTVSPropertyOp40
 70
     1
102
RTVSPropertyOp41
 70
     1
102
RTVSPropertyOp42
 70
     1
102
RTVSPropertyOp43
 70
     1
102
RTVSPropertyOp44
 70
     1
102
RTVSPropertyOp45
 70
     1
102
RTVSPropertyOp46
 70
     1
102
RTVSPropertyOp47
 70
     1
102
RTVSPropertyOp48
 70
     1
102
RTVSPropertyOp49
 70
     1
102
RTVSPropertyOp50
 70
     1
102
RTVSPropertyOp51
 70
     0
102
RTVSPropertyOp52
 70
     0
102
RTVSPropertyOp53
 70
     1
102
RTVSPropertyOp54
 70
     1
102
RTVSPropertyOp55
 70
     1
102
RTVSPropertyOp56
 70
     1
102
RTVSPropertyOp57
 70
     1
102
RTVSPropertyOp58
 70
     1
102
RTVSPropertyOp59
 70
     1
102
RTVSPropertyOp60
 70
     1
102
RTVSPropertyOp61
 70
     1
102
RTVSPropertyOp62
 70
     1
  0
XRECORD
  5
84D4
102
{ACAD_REACTORS
330
84D3
102
}
330
84D3
100
AcDbXrecord
280
     1
102
RTVSPost2010Prop28
280
     0
102
RTVSPost2010PropOp28
 70
     1
102
RTVSPost2010Prop29
280
     1
102
RTVSPost2010PropOp29
 70
     1
102
RTVSPost2010Prop30
280
     1
102
RTVSPost2010PropOp30
 70
     1
102
RTVSPost2010Prop31
280
     0
102
RTVSPost2010PropOp31
 70
     1
102
RTVSPost2010Prop32
280
     0
102
RTVSPost2010PropOp32
 70
     1
102
RTVSPost2010Prop33
280
     0
102
RTVSPost2010PropOp33
 70
     1
102
RTVSPost2010Prop34
280
     0
102
RTVSPost2010PropOp34
 70
     1
102
RTVSPost2010Prop35
280
     0
102
RTVSPost2010PropOp35
 70
     1
102
RTVSPost2010Prop36
280
     0
102
RTVSPost2010PropOp36
 70
     1
102
RTVSPost2010Prop37
 90
       50
102
RTVSPost2010PropOp37
 70
     1
102
RTVSPost2010Prop38
140
0.0
102
RTVSPost2010PropOp38
 70
     1
102
RTVSPost2010Prop39
140
1.0
102
RTVSPost2010PropOp39
 70
     1
102
RTVSPost2010Prop40
 90
        0
102
RTVSPost2010PropOp40
 70
     1
102
RTVSPost2010Prop41ColorIndex
 90
       18
102
RTVSPost2010Prop41ColorRGB
 90
        0
102
RTVSPost2010PropOp41
 70
     1
102
RTVSPost2010Prop42
 90
       50
102
RTVSPost2010PropOp42
 70
     1
102
RTVSPost2010Prop43
 90
        3
102
RTVSPost2010PropOp43
 70
     1
102
RTVSPost2010Prop44ColorIndex
 90
        5
102
RTVSPost2010Prop44ColorRGB
 90
      255
102
RTVSPost2010PropOp44
 70
     1
102
RTVSPost2010Prop45
280
     0
102
RTVSPost2010PropOp45
 70
     1
102
RTVSPost2010Prop46
 90
       50
102
RTVSPost2010PropOp46
 70
     1
102
RTVSPost2010Prop47
 90
       50
102
RTVSPost2010PropOp47
 70
     1
102
RTVSPost2010Prop48
 90
       50
102
RTVSPost2010PropOp48
 70
     1
102
RTVSPost2010Prop49
280
     0
102
RTVSPost2010PropOp49
 70
     1
102
RTVSPost2010Prop50
 90
       50
102
RTVSPost2010PropOp50
 70
     1
102
RTVSPost2010Prop51ColorIndex
 90
      256
102
RTVSPost2010Prop51ColorRGB
 90
-16777216
102
RTVSPost2010PropOp51
 70
     0
102
RTVSPost2010Prop52
140
1.0
102
RTVSPost2010PropOp52
 70
     0
102
RTVSPost2010Prop53
 90
        2
102
RTVSPost2010PropOp53
 70
     1
102
RTVSPost2010Prop54
  1
strokes_ogs.tif
102
RTVSPost2010PropOp54
 70
     1
102
RTVSPost2010Prop55
280
     0
102
RTVSPost2010PropOp55
 70
     1
102
RTVSPost2010Prop56
140
1.0
102
RTVSPost2010PropOp56
 70
     1
102
RTVSPost2010Prop57
140
1.0
102
RTVSPost2010PropOp57
 70
     1
102
RTVSPropertyOp0
 70
     1
102
RTVSPropertyOp1
 70
     1
102
RTVSPropertyOp2
 70
     1
102
RTVSPropertyOp3
 70
     1
102
RTVSPropertyOp4
 70
     1
102
RTVSPropertyOp5
 70
     1
102
RTVSPropertyOp6
 70
     1
102
RTVSPropertyOp7
 70
     1
102
RTVSPropertyOp8
 70
     1
102
RTVSPropertyOp9
 70
     1
102
RTVSPropertyOp10
 70
     1
102
RTVSPropertyOp11
 70
     1
102
RTVSPropertyOp12
 70
     1
102
RTVSPropertyOp13
 70
     1
102
RTVSPropertyOp14
 70
     1
102
RTVSPropertyOp15
 70
     1
102
RTVSPropertyOp16
 70
     1
102
RTVSPropertyOp17
 70
     1
102
RTVSPropertyOp18
 70
     1
102
RTVSPropertyOp19
 70
     1
102
RTVSPropertyOp20
 70
     1
102
RTVSPropertyOp21
 70
     1
102
RTVSPropertyOp22
 70
     1
102
RTVSPropertyOp23
 70
     1
102
RTVSPropertyOp24
 70
     1
102
RTVSPropertyOp25
 70
     1
102
RTVSPropertyOp26
 70
     1
102
RTVSPropertyOp27
 70
     1
102
RTVSPropertyOp28
 70
     1
102
RTVSPropertyOp29
 70
     1
102
RTVSPropertyOp30
 70
     1
102
RTVSPropertyOp31
 70
     1
102
RTVSPropertyOp32
 70
     1
102
RTVSPropertyOp33
 70
     1
102
RTVSPropertyOp34
 70
     1
102
RTVSPropertyOp35
 70
     1
102
RTVSPropertyOp36
 70
     1
102
RTVSPropertyOp37
 70
     1
102
RTVSPropertyOp38
 70
     1
102
RTVSPropertyOp39
 70
     1
102
RTVSPropertyOp40
 70
     1
102
RTVSPropertyOp41
 70
     1
102
RTVSPropertyOp42
 70
     1
102
RTVSPropertyOp43
 70
     1
102
RTVSPropertyOp44
 70
     1
102
RTVSPropertyOp45
 70
     1
102
RTVSPropertyOp46
 70
     1
102
RTVSPropertyOp47
 70
     1
102
RTVSPropertyOp48
 70
     1
102
RTVSPropertyOp49
 70
     1
102
RTVSPropertyOp50
 70
     1
102
RTVSPropertyOp51
 70
     0
102
RTVSPropertyOp52
 70
     0
102
RTVSPropertyOp53
 70
     1
102
RTVSPropertyOp54
 70
     1
102
RTVSPropertyOp55
 70
     1
102
RTVSPropertyOp56
 70
     1
102
RTVSPropertyOp57
 70
     1
102
RTVSPropertyOp58
 70
     1
102
RTVSPropertyOp59
 70
     1
102
RTVSPropertyOp60
 70
     1
102
RTVSPropertyOp61
 70
     1
102
RTVSPropertyOp62
 70
     1
  0
XRECORD
  5
84C8
102
{ACAD_REACTORS
330
84C7
102
}
330
84C7
100
AcDbXrecord
280
     1
102
RTVSPost2010Prop28
280
     0
102
RTVSPost2010PropOp28
 70
     1
102
RTVSPost2010Prop29
280
     1
102
RTVSPost2010PropOp29
 70
     1
102
RTVSPost2010Prop30
280
     1
102
RTVSPost2010PropOp30
 70
     1
102
RTVSPost2010Prop31
280
     0
102
RTVSPost2010PropOp31
 70
     1
102
RTVSPost2010Prop32
280
     0
102
RTVSPost2010PropOp32
 70
     1
102
RTVSPost2010Prop33
280
     0
102
RTVSPost2010PropOp33
 70
     1
102
RTVSPost2010Prop34
280
     0
102
RTVSPost2010PropOp34
 70
     1
102
RTVSPost2010Prop35
280
     0
102
RTVSPost2010PropOp35
 70
     1
102
RTVSPost2010Prop36
280
     0
102
RTVSPost2010PropOp36
 70
     1
102
RTVSPost2010Prop37
 90
       50
102
RTVSPost2010PropOp37
 70
     1
102
RTVSPost2010Prop38
140
0.0
102
RTVSPost2010PropOp38
 70
     1
102
RTVSPost2010Prop39
140
1.0
102
RTVSPost2010PropOp39
 70
     1
102
RTVSPost2010Prop40
 90
        0
102
RTVSPost2010PropOp40
 70
     1
102
RTVSPost2010Prop41ColorIndex
 90
       18
102
RTVSPost2010Prop41ColorRGB
 90
        0
102
RTVSPost2010PropOp41
 70
     1
102
RTVSPost2010Prop42
 90
       50
102
RTVSPost2010PropOp42
 70
     1
102
RTVSPost2010Prop43
 90
        3
102
RTVSPost2010PropOp43
 70
     1
102
RTVSPost2010Prop44ColorIndex
 90
        5
102
RTVSPost2010Prop44ColorRGB
 90
      255
102
RTVSPost2010PropOp44
 70
     1
102
RTVSPost2010Prop45
280
     0
102
RTVSPost2010PropOp45
 70
     1
102
RTVSPost2010Prop46
 90
       50
102
RTVSPost2010PropOp46
 70
     1
102
RTVSPost2010Prop47
 90
       50
102
RTVSPost2010PropOp47
 70
     1
102
RTVSPost2010Prop48
 90
       50
102
RTVSPost2010PropOp48
 70
     1
102
RTVSPost2010Prop49
280
     0
102
RTVSPost2010PropOp49
 70
     1
102
RTVSPost2010Prop50
 90
       50
102
RTVSPost2010PropOp50
 70
     1
102
RTVSPost2010Prop51ColorIndex
 90
      256
102
RTVSPost2010Prop51ColorRGB
 90
-16777216
102
RTVSPost2010PropOp51
 70
     0
102
RTVSPost2010Prop52
140
1.0
102
RTVSPost2010PropOp52
 70
     0
102
RTVSPost2010Prop53
 90
        2
102
RTVSPost2010PropOp53
 70
     1
102
RTVSPost2010Prop54
  1
strokes_ogs.tif
102
RTVSPost2010PropOp54
 70
     1
102
RTVSPost2010Prop55
280
     0
102
RTVSPost2010PropOp55
 70
     1
102
RTVSPost2010Prop56
140
1.0
102
RTVSPost2010PropOp56
 70
     1
102
RTVSPost2010Prop57
140
1.0
102
RTVSPost2010PropOp57
 70
     1
102
RTVSPropertyOp0
 70
     1
102
RTVSPropertyOp1
 70
     1
102
RTVSPropertyOp2
 70
     1
102
RTVSPropertyOp3
 70
     1
102
RTVSPropertyOp4
 70
     1
102
RTVSPropertyOp5
 70
     1
102
RTVSPropertyOp6
 70
     1
102
RTVSPropertyOp7
 70
     1
102
RTVSPropertyOp8
 70
     1
102
RTVSPropertyOp9
 70
     1
102
RTVSPropertyOp10
 70
     1
102
RTVSPropertyOp11
 70
     1
102
RTVSPropertyOp12
 70
     1
102
RTVSPropertyOp13
 70
     1
102
RTVSPropertyOp14
 70
     1
102
RTVSPropertyOp15
 70
     1
102
RTVSPropertyOp16
 70
     1
102
RTVSPropertyOp17
 70
     1
102
RTVSPropertyOp18
 70
     1
102
RTVSPropertyOp19
 70
     1
102
RTVSPropertyOp20
 70
     1
102
RTVSPropertyOp21
 70
     1
102
RTVSPropertyOp22
 70
     1
102
RTVSPropertyOp23
 70
     1
102
RTVSPropertyOp24
 70
     1
102
RTVSPropertyOp25
 70
     1
102
RTVSPropertyOp26
 70
     1
102
RTVSPropertyOp27
 70
     1
102
RTVSPropertyOp28
 70
     1
102
RTVSPropertyOp29
 70
     1
102
RTVSPropertyOp30
 70
     1
102
RTVSPropertyOp31
 70
     1
102
RTVSPropertyOp32
 70
     1
102
RTVSPropertyOp33
 70
     1
102
RTVSPropertyOp34
 70
     1
102
RTVSPropertyOp35
 70
     1
102
RTVSPropertyOp36
 70
     1
102
RTVSPropertyOp37
 70
     1
102
RTVSPropertyOp38
 70
     1
102
RTVSPropertyOp39
 70
     1
102
RTVSPropertyOp40
 70
     1
102
RTVSPropertyOp41
 70
     1
102
RTVSPropertyOp42
 70
     1
102
RTVSPropertyOp43
 70
     1
102
RTVSPropertyOp44
 70
     1
102
RTVSPropertyOp45
 70
     1
102
RTVSPropertyOp46
 70
     1
102
RTVSPropertyOp47
 70
     1
102
RTVSPropertyOp48
 70
     1
102
RTVSPropertyOp49
 70
     1
102
RTVSPropertyOp50
 70
     1
102
RTVSPropertyOp51
 70
     0
102
RTVSPropertyOp52
 70
     0
102
RTVSPropertyOp53
 70
     1
102
RTVSPropertyOp54
 70
     1
102
RTVSPropertyOp55
 70
     1
102
RTVSPropertyOp56
 70
     1
102
RTVSPropertyOp57
 70
     1
102
RTVSPropertyOp58
 70
     1
102
RTVSPropertyOp59
 70
     1
102
RTVSPropertyOp60
 70
     1
102
RTVSPropertyOp61
 70
     1
102
RTVSPropertyOp62
 70
     1
  0
XRECORD
  5
84E0
102
{ACAD_REACTORS
330
84DF
102
}
330
84DF
100
AcDbXrecord
280
     1
102
RTVSPost2010Prop28
280
     0
102
RTVSPost2010PropOp28
 70
     1
102
RTVSPost2010Prop29
280
     1
102
RTVSPost2010PropOp29
 70
     1
102
RTVSPost2010Prop30
280
     1
102
RTVSPost2010PropOp30
 70
     1
102
RTVSPost2010Prop31
280
     0
102
RTVSPost2010PropOp31
 70
     1
102
RTVSPost2010Prop32
280
     0
102
RTVSPost2010PropOp32
 70
     1
102
RTVSPost2010Prop33
280
     0
102
RTVSPost2010PropOp33
 70
     1
102
RTVSPost2010Prop34
280
     0
102
RTVSPost2010PropOp34
 70
     1
102
RTVSPost2010Prop35
280
     0
102
RTVSPost2010PropOp35
 70
     1
102
RTVSPost2010Prop36
280
     0
102
RTVSPost2010PropOp36
 70
     1
102
RTVSPost2010Prop37
 90
       50
102
RTVSPost2010PropOp37
 70
     1
102
RTVSPost2010Prop38
140
0.0
102
RTVSPost2010PropOp38
 70
     1
102
RTVSPost2010Prop39
140
1.0
102
RTVSPost2010PropOp39
 70
     1
102
RTVSPost2010Prop40
 90
        0
102
RTVSPost2010PropOp40
 70
     1
102
RTVSPost2010Prop41ColorIndex
 90
       18
102
RTVSPost2010Prop41ColorRGB
 90
        0
102
RTVSPost2010PropOp41
 70
     1
102
RTVSPost2010Prop42
 90
       50
102
RTVSPost2010PropOp42
 70
     1
102
RTVSPost2010Prop43
 90
        3
102
RTVSPost2010PropOp43
 70
     1
102
RTVSPost2010Prop44ColorIndex
 90
        5
102
RTVSPost2010Prop44ColorRGB
 90
      255
102
RTVSPost2010PropOp44
 70
     1
102
RTVSPost2010Prop45
280
     0
102
RTVSPost2010PropOp45
 70
     1
102
RTVSPost2010Prop46
 90
       50
102
RTVSPost2010PropOp46
 70
     1
102
RTVSPost2010Prop47
 90
       50
102
RTVSPost2010PropOp47
 70
     1
102
RTVSPost2010Prop48
 90
       50
102
RTVSPost2010PropOp48
 70
     1
102
RTVSPost2010Prop49
280
     0
102
RTVSPost2010PropOp49
 70
     1
102
RTVSPost2010Prop50
 90
       50
102
RTVSPost2010PropOp50
 70
     1
102
RTVSPost2010Prop51ColorIndex
 90
      256
102
RTVSPost2010Prop51ColorRGB
 90
-16777216
102
RTVSPost2010PropOp51
 70
     0
102
RTVSPost2010Prop52
140
1.0
102
RTVSPost2010PropOp52
 70
     0
102
RTVSPost2010Prop53
 90
        2
102
RTVSPost2010PropOp53
 70
     1
102
RTVSPost2010Prop54
  1
strokes_ogs.tif
102
RTVSPost2010PropOp54
 70
     1
102
RTVSPost2010Prop55
280
     0
102
RTVSPost2010PropOp55
 70
     1
102
RTVSPost2010Prop56
140
1.0
102
RTVSPost2010PropOp56
 70
     1
102
RTVSPost2010Prop57
140
1.0
102
RTVSPost2010PropOp57
 70
     1
102
RTVSPropertyOp0
 70
     1
102
RTVSPropertyOp1
 70
     1
102
RTVSPropertyOp2
 70
     1
102
RTVSPropertyOp3
 70
     1
102
RTVSPropertyOp4
 70
     1
102
RTVSPropertyOp5
 70
     1
102
RTVSPropertyOp6
 70
     1
102
RTVSPropertyOp7
 70
     1
102
RTVSPropertyOp8
 70
     1
102
RTVSPropertyOp9
 70
     1
102
RTVSPropertyOp10
 70
     1
102
RTVSPropertyOp11
 70
     1
102
RTVSPropertyOp12
 70
     1
102
RTVSPropertyOp13
 70
     1
102
RTVSPropertyOp14
 70
     1
102
RTVSPropertyOp15
 70
     1
102
RTVSPropertyOp16
 70
     1
102
RTVSPropertyOp17
 70
     1
102
RTVSPropertyOp18
 70
     1
102
RTVSPropertyOp19
 70
     1
102
RTVSPropertyOp20
 70
     1
102
RTVSPropertyOp21
 70
     1
102
RTVSPropertyOp22
 70
     1
102
RTVSPropertyOp23
 70
     1
102
RTVSPropertyOp24
 70
     1
102
RTVSPropertyOp25
 70
     1
102
RTVSPropertyOp26
 70
     1
102
RTVSPropertyOp27
 70
     1
102
RTVSPropertyOp28
 70
     1
102
RTVSPropertyOp29
 70
     1
102
RTVSPropertyOp30
 70
     1
102
RTVSPropertyOp31
 70
     1
102
RTVSPropertyOp32
 70
     1
102
RTVSPropertyOp33
 70
     1
102
RTVSPropertyOp34
 70
     1
102
RTVSPropertyOp35
 70
     1
102
RTVSPropertyOp36
 70
     1
102
RTVSPropertyOp37
 70
     1
102
RTVSPropertyOp38
 70
     1
102
RTVSPropertyOp39
 70
     1
102
RTVSPropertyOp40
 70
     1
102
RTVSPropertyOp41
 70
     1
102
RTVSPropertyOp42
 70
     1
102
RTVSPropertyOp43
 70
     1
102
RTVSPropertyOp44
 70
     1
102
RTVSPropertyOp45
 70
     1
102
RTVSPropertyOp46
 70
     1
102
RTVSPropertyOp47
 70
     1
102
RTVSPropertyOp48
 70
     1
102
RTVSPropertyOp49
 70
     1
102
RTVSPropertyOp50
 70
     1
102
RTVSPropertyOp51
 70
     0
102
RTVSPropertyOp52
 70
     0
102
RTVSPropertyOp53
 70
     1
102
RTVSPropertyOp54
 70
     1
102
RTVSPropertyOp55
 70
     1
102
RTVSPropertyOp56
 70
     1
102
RTVSPropertyOp57
 70
     1
102
RTVSPropertyOp58
 70
     1
102
RTVSPropertyOp59
 70
     1
102
RTVSPropertyOp60
 70
     1
102
RTVSPropertyOp61
 70
     1
102
RTVSPropertyOp62
 70
     1
  0
ENDSEC
  0
EOF
