  0
SECTION
  2
HEADER
  9
$ACADVER
  1
AC1015
  9
$ACADMAINTVER
 70
    20
  9
$DWGCODEPAGE
  3
ANSI_932
  9
$INSBASE
 10
0.0
 20
0.0
 30
0.0
  9
$EXTMIN
 10
-0.1602050617329951
 20
-0.22504996767384
 30
-0.0015258207003583
  9
$EXTMAX
 10
5250.160229508953
 20
7375.225084310193
 30
0.0000000349246037
  9
$LIMMIN
 10
0.0
 20
0.0
  9
$LIMMAX
 10
297.0
 20
210.0
  9
$ORTHOMODE
 70
     1
  9
$REGENMODE
 70
     1
  9
$FILLMODE
 70
     0
  9
$QTEXTMODE
 70
     0
  9
$MIRRTEXT
 70
     1
  9
$LTSCALE
 40
100.0
  9
$ATTMODE
 70
     1
  9
$TEXTSIZE
 40
180.0
  9
$TRACEWID
 40
0.05
  9
$TEXTSTYLE
  7
STANDARD
  9
$CLAYER
  8
3
  9
$CELTYPE
  6
ByLayer
  9
$CECOLOR
 62
   256
  9
$CELTSCALE
 40
1.0
  9
$DISPSILH
 70
     0
  9
$DIMSCALE
 40
25.0
  9
$DIMASZ
 40
2.0
  9
$DIMEXO
 40
1.0
  9
$DIMDLI
 40
10.0
  9
$DIMRND
 40
0.0
  9
$DIMDLE
 40
0.0
  9
$DIMEXE
 40
1.0
  9
$DIMTP
 40
1.0
  9
$DIMTM
 40
1.0
  9
$DIMTXT
 40
3.0
  9
$DIMCEN
 40
0.0
  9
$DIMTSZ
 40
0.0
  9
$DIMTOL
 70
     0
  9
$DIMLIM
 70
     0
  9
$DIMTIH
 70
     0
  9
$DIMTOH
 70
     0
  9
$DIMSE1
 70
     0
  9
$DIMSE2
 70
     0
  9
$DIMTAD
 70
     1
  9
$DIMZIN
 70
     8
  9
$DIMBLK
  1

  9
$DIMASO
 70
     1
  9
$DIMSHO
 70
     1
  9
$DIMPOST
  1

  9
$DIMAPOST
  1

  9
$DIMALT
 70
     0
  9
$DIMALTD
 70
     2
  9
$DIMALTF
 40
0.039
  9
$DIMLFAC
 40
1.0
  9
$DIMTOFL
 70
     1
  9
$DIMTVP
 40
0.0
  9
$DIMTIX
 70
     0
  9
$DIMSOXD
 70
     0
  9
$DIMSAH
 70
     1
  9
$DIMBLK1
  1
OPEN
  9
$DIMBLK2
  1
OPEN
  9
$DIMSTYLE
  2
IGA
  9
$DIMCLRD
 70
     0
  9
$DIMCLRE
 70
     0
  9
$DIMCLRT
 70
     0
  9
$DIMTFAC
 40
10.0
  9
$DIMGAP
 40
1.0
  9
$DIMJUST
 70
     0
  9
$DIMSD1
 70
     0
  9
$DIMSD2
 70
     0
  9
$DIMTOLJ
 70
     1
  9
$DIMTZIN
 70
     0
  9
$DIMALTZ
 70
     0
  9
$DIMALTTZ
 70
     0
  9
$DIMUPT
 70
     0
  9
$DIMDEC
 70
     4
  9
$DIMTDEC
 70
     4
  9
$DIMALTU
 70
     2
  9
$DIMALTTD
 70
     2
  9
$DIMTXSTY
  7
STANDARD
  9
$DIMAUNIT
 70
     0
  9
$DIMADEC
 70
     0
  9
$DIMALTRND
 40
0.0
  9
$DIMAZIN
 70
     0
  9
$DIMDSEP
 70
    46
  9
$DIMATFIT
 70
     3
  9
$DIMFRAC
 70
     0
  9
$DIMLDRBLK
  1
OPEN
  9
$DIMLUNIT
 70
     2
  9
$DIMLWD
 70
    -2
  9
$DIMLWE
 70
    -2
  9
$DIMTMOVE
 70
     0
  9
$LUNITS
 70
     2
  9
$LUPREC
 70
     3
  9
$SKETCHINC
 40
0.1
  9
$FILLETRAD
 40
50.0
  9
$AUNITS
 70
     0
  9
$AUPREC
 70
     0
  9
$MENU
  1
acad
  9
$ELEVATION
 40
0.0
  9
$PELEVATION
 40
0.0
  9
$THICKNESS
 40
0.0
  9
$LIMCHECK
 70
     0
  9
$CHAMFERA
 40
0.5
  9
$CHAMFERB
 40
0.5
  9
$CHAMFERC
 40
0.0
  9
$CHAMFERD
 40
0.0
  9
$SKPOLY
 70
     0
  9
$TDCREATE
 40
2451389.450209723
  9
$TDUCREATE
 40
2451389.075209723
  9
$TDUPDATE
 40
2460265.697859838
  9
$TDUUPDATE
 40
2460265.322859838
  9
$TDINDWG
 40
0.0133091204
  9
$TDUSRTIMER
 40
0.0133088657
  9
$USRTIMER
 70
     1
  9
$ANGBASE
 50
0.0
  9
$ANGDIR
 70
     0
  9
$PDMODE
 70
     0
  9
$PDSIZE
 40
0.0
  9
$PLINEWID
 40
0.0
  9
$SPLFRAME
 70
     0
  9
$SPLINETYPE
 70
     6
  9
$SPLINESEGS
 70
     8
  9
$HANDSEED
  5
8301
  9
$SURFTAB1
 70
     6
  9
$SURFTAB2
 70
     6
  9
$SURFTYPE
 70
     6
  9
$SURFU
 70
     6
  9
$SURFV
 70
     6
  9
$UCSBASE
  2

  9
$UCSNAME
  2

  9
$UCSORG
 10
0.0
 20
0.0
 30
0.0
  9
$UCSXDIR
 10
1.0
 20
0.0
 30
0.0
  9
$UCSYDIR
 10
0.0
 20
1.0
 30
0.0
  9
$UCSORTHOREF
  2

  9
$UCSORTHOVIEW
 70
     0
  9
$UCSORGTOP
 10
0.0
 20
0.0
 30
0.0
  9
$UCSORGBOTTOM
 10
0.0
 20
0.0
 30
0.0
  9
$UCSORGLEFT
 10
0.0
 20
0.0
 30
0.0
  9
$UCSORGRIGHT
 10
0.0
 20
0.0
 30
0.0
  9
$UCSORGFRONT
 10
0.0
 20
0.0
 30
0.0
  9
$UCSORGBACK
 10
0.0
 20
0.0
 30
0.0
  9
$PUCSBASE
  2

  9
$PUCSNAME
  2

  9
$PUCSORG
 10
0.0
 20
0.0
 30
0.0
  9
$PUCSXDIR
 10
1.0
 20
0.0
 30
0.0
  9
$PUCSYDIR
 10
0.0
 20
1.0
 30
0.0
  9
$PUCSORTHOREF
  2

  9
$PUCSORTHOVIEW
 70
     0
  9
$PUCSORGTOP
 10
0.0
 20
0.0
 30
0.0
  9
$PUCSORGBOTTOM
 10
0.0
 20
0.0
 30
0.0
  9
$PUCSORGLEFT
 10
0.0
 20
0.0
 30
0.0
  9
$PUCSORGRIGHT
 10
0.0
 20
0.0
 30
0.0
  9
$PUCSORGFRONT
 10
0.0
 20
0.0
 30
0.0
  9
$PUCSORGBACK
 10
0.0
 20
0.0
 30
0.0
  9
$USERI1
 70
     0
  9
$USERI2
 70
     0
  9
$USERI3
 70
     0
  9
$USERI4
 70
     0
  9
$USERI5
 70
     0
  9
$USERR1
 40
0.0
  9
$USERR2
 40
0.0
  9
$USERR3
 40
0.0
  9
$USERR4
 40
0.0
  9
$USERR5
 40
0.0
  9
$WORLDVIEW
 70
     1
  9
$SHADEDGE
 70
     3
  9
$SHADEDIF
 70
    70
  9
$TILEMODE
 70
     1
  9
$MAXACTVP
 70
    16
  9
$PINSBASE
 10
0.0
 20
0.0
 30
0.0
  9
$PLIMCHECK
 70
     0
  9
$PEXTMIN
 10
1.000000000000000E+20
 20
1.000000000000000E+20
 30
1.000000000000000E+20
  9
$PEXTMAX
 10
-1.000000000000000E+20
 20
-1.000000000000000E+20
 30
-1.000000000000000E+20
  9
$PLIMMIN
 10
0.0
 20
0.0
  9
$PLIMMAX
 10
12.0
 20
9.0
  9
$UNITMODE
 70
     0
  9
$VISRETAIN
 70
     0
  9
$PLINEGEN
 70
     0
  9
$PSLTSCALE
 70
     1
  9
$TREEDEPTH
 70
  3020
  9
$CMLSTYLE
  2
Standard
  9
$CMLJUST
 70
     0
  9
$CMLSCALE
 40
1.0
  9
$PROXYGRAPHICS
 70
     1
  9
$MEASUREMENT
 70
     0
  9
$CELWEIGHT
370
    -1
  9
$ENDCAPS
280
     0
  9
$JOINSTYLE
280
     0
  9
$LWDISPLAY
290
     0
  9
$INSUNITS
 70
     0
  9
$HYPERLINKBASE
  1

  9
$STYLESHEET
  1

  9
$XEDIT
290
     1
  9
$CEPSNTYPE
380
     0
  9
$PSTYLEMODE
290
     1
  9
$FINGERPRINTGUID
  2
{E9131E30-5E70-4EB0-BE23-1EF44DB747F9}
  9
$VERSIONGUID
  2
{8EC5C4F8-E433-457C-9ACB-73E957AF8376}
  9
$EXTNAMES
290
     1
  9
$PSVPSCALE
 40
0.0
  9
$OLESTARTUP
290
     0
  0
ENDSEC
  0
SECTION
  2
CLASSES
  0
CLASS
  1
ACDBDICTIONARYWDFLT
  2
AcDbDictionaryWithDefault
  3
ObjectDBX Classes
 90
        0
280
     0
281
     0
  0
CLASS
  1
MATERIAL
  2
AcDbMaterial
  3
ObjectDBX Classes
 90
     1153
280
     0
281
     0
  0
CLASS
  1
VISUALSTYLE
  2
AcDbVisualStyle
  3
ObjectDBX Classes
 90
     4095
280
     0
281
     0
  0
CLASS
  1
SCALE
  2
AcDbScale
  3
ObjectDBX Classes
 90
     1153
280
     0
281
     0
  0
CLASS
  1
TABLESTYLE
  2
AcDbTableStyle
  3
ObjectDBX Classes
 90
     4095
280
     0
281
     0
  0
CLASS
  1
MLEADERSTYLE
  2
AcDbMLeaderStyle
  3
ACDB_MLEADERSTYLE_CLASS
 90
     4095
280
     0
281
     0
  0
CLASS
  1
ACDBSECTIONVIEWSTYLE
  2
AcDbSectionViewStyle
  3
ObjectDBX Classes
 90
     1025
280
     0
281
     0
  0
CLASS
  1
ACDBDETAILVIEWSTYLE
  2
AcDbDetailViewStyle
  3
ObjectDBX Classes
 90
     1025
280
     0
281
     0
  0
CLASS
  1
DICTIONARYVAR
  2
AcDbDictionaryVar
  3
ObjectDBX Classes
 90
        0
280
     0
281
     0
  0
CLASS
  1
CELLSTYLEMAP
  2
AcDbCellStyleMap
  3
ObjectDBX Classes
 90
     1152
280
     0
281
     0
  0
CLASS
  1
ACDBPLACEHOLDER
  2
AcDbPlaceHolder
  3
ObjectDBX Classes
 90
        0
280
     0
281
     0
  0
CLASS
  1
LAYOUT
  2
AcDbLayout
  3
ObjectDBX Classes
 90
        0
280
     0
281
     0
  0
ENDSEC
  0
SECTION
  2
TABLES
  0
TABLE
  2
VPORT
  5
8094
330
0
100
AcDbSymbolTable
 70
     1
  0
VPORT
  5
8100
330
8094
100
AcDbSymbolTableRecord
100
AcDbViewportTableRecord
  2
*ACTIVE
 70
     0
 10
0.0
 20
0.0
 11
1.0
 21
1.0
 12
2625.00001222361
 22
3687.500017171259
 13
0.0
 23
0.0
 14
10.0
 24
10.0
 15
10.0
 25
10.0
 16
0.0
 26
0.0
 36
1.0
 17
0.0
 27
0.0
 37
0.0
 40
7422.678203440799
 41
2.050213675213675
 42
50.0
 43
0.0
 44
0.0
 50
0.0
 51
0.0
 71
     0
 72
   100
 73
     1
 74
     0
 75
     0
 76
     0
 77
     0
 78
     0
281
     0
 65
     1
110
0.0
120
0.0
130
0.0
111
1.0
121
0.0
131
0.0
112
0.0
122
1.0
132
0.0
 79
     0
146
0.0
1001
ACAD_NAV_VCDISPLAY
1070
     3
  0
ENDTAB
  0
TABLE
  2
LTYPE
  5
8091
330
0
100
AcDbSymbolTable
 70
     3
  0
LTYPE
  5
80E6
330
8091
100
AcDbSymbolTableRecord
100
AcDbLinetypeTableRecord
  2
ByBlock
 70
     0
  3

 72
    65
 73
     0
 40
0.0
  0
LTYPE
  5
80E7
330
8091
100
AcDbSymbolTableRecord
100
AcDbLinetypeTableRecord
  2
ByLayer
 70
     0
  3

 72
    65
 73
     0
 40
0.0
  0
LTYPE
  5
80E8
330
8091
100
AcDbSymbolTableRecord
100
AcDbLinetypeTableRecord
  2
CONTINUOUS
 70
     0
  3
Solid line
 72
    65
 73
     0
 40
0.0
  0
LTYPE
  5
8101
330
8091
100
AcDbSymbolTableRecord
100
AcDbLinetypeTableRecord
  2
CENTER
 70
     0
  3
____ _ ____ _ ____ _ ____ _ ____ _ ____ _ ____ 
 72
    65
 73
     4
 40
2.0
 49
1.25
 74
     0
 49
-0.25
 74
     0
 49
0.25
 74
     0
 49
-0.25
 74
     0
  0
ENDTAB
  0
TABLE
  2
LAYER
  5
808E
102
{ACAD_XDICTIONARY
360
819E
102
}
330
0
100
AcDbSymbolTable
 70
     7
  0
LAYER
  5
80E0
102
{ACAD_XDICTIONARY
360
8146
102
}
330
808E
100
AcDbSymbolTableRecord
100
AcDbLayerTableRecord
  2
0
 70
     0
 62
     7
  6
CONTINUOUS
370
    -3
390
809B
  0
LAYER
  5
80FF
102
{ACAD_XDICTIONARY
360
8148
102
}
330
808E
100
AcDbSymbolTableRecord
100
AcDbLayerTableRecord
  2
3
 70
     0
 62
     2
  6
CONTINUOUS
370
    -3
390
809B
  0
LAYER
  5
8102
102
{ACAD_XDICTIONARY
360
814A
102
}
330
808E
100
AcDbSymbolTableRecord
100
AcDbLayerTableRecord
  2
2
 70
     0
 62
     3
  6
CENTER
370
    -3
390
809B
  0
LAYER
  5
8103
102
{ACAD_XDICTIONARY
360
814C
102
}
330
808E
100
AcDbSymbolTableRecord
100
AcDbLayerTableRecord
  2
1
 70
     0
 62
     4
  6
CONTINUOUS
370
    -3
390
809B
  0
LAYER
  5
8104
102
{ACAD_XDICTIONARY
360
814E
102
}
330
808E
100
AcDbSymbolTableRecord
100
AcDbLayerTableRecord
  2
4
 70
     0
 62
     7
  6
CONTINUOUS
370
    -3
390
809B
  0
LAYER
  5
8105
330
808E
100
AcDbSymbolTableRecord
100
AcDbLayerTableRecord
  2
DEFPOINTS
 70
     0
 62
     7
  6
CONTINUOUS
290
     0
370
    -3
390
809B
  0
LAYER
  5
819C
102
{ACAD_XDICTIONARY
360
819D
102
}
330
808E
100
AcDbSymbolTableRecord
100
AcDbLayerTableRecord
  2
FUTO
 70
     0
 62
     4
  6
CONTINUOUS
370
    -3
390
809B
  0
ENDTAB
  0
TABLE
  2
STYLE
  5
808F
330
0
100
AcDbSymbolTable
 70
     2
  0
STYLE
  5
80E1
330
808F
100
AcDbSymbolTableRecord
100
AcDbTextStyleTableRecord
  2
STANDARD
 70
     0
 40
0.0
 41
1.0
 50
0.0
 71
     0
 42
180.0
  3
simplex.shx
  4
extfont.shx
  0
STYLE
  5
80E5
330
808F
100
AcDbSymbolTableRecord
100
AcDbTextStyleTableRecord
  2
Annotative
 70
     0
 40
0.0
 41
1.0
 50
0.0
 71
     0
 42
0.2
  3
txt
  4

1001
AcadAnnotative
1000
AnnotativeData
1002
{
1070
     1
1070
     1
1002
}
  0
ENDTAB
  0
TABLE
  2
VIEW
  5
8092
330
0
100
AcDbSymbolTable
 70
     0
  0
ENDTAB
  0
TABLE
  2
UCS
  5
8093
330
0
100
AcDbSymbolTable
 70
     0
  0
ENDTAB
  0
TABLE
  2
APPID
  5
8095
330
0
100
AcDbSymbolTable
 70
     8
  0
APPID
  5
80E2
330
8095
100
AcDbSymbolTableRecord
100
AcDbRegAppTableRecord
  2
ACAD
 70
     0
  0
APPID
  5
80E9
330
8095
100
AcDbSymbolTableRecord
100
AcDbRegAppTableRecord
  2
AcadAnnotative
 70
     0
  0
APPID
  5
815A
330
8095
100
AcDbSymbolTableRecord
100
AcDbRegAppTableRecord
  2
ACAD_NAV_VCDISPLAY
 70
     0
  0
APPID
  5
81C5
330
8095
100
AcDbSymbolTableRecord
100
AcDbRegAppTableRecord
  2
ACAD_DSTYLE_DIMJAG
 70
     0
  0
APPID
  5
81C6
330
8095
100
AcDbSymbolTableRecord
100
AcDbRegAppTableRecord
  2
ACAD_DSTYLE_DIMTALN
 70
     0
  0
APPID
  5
81F3
330
8095
100
AcDbSymbolTableRecord
100
AcDbRegAppTableRecord
  2
AcadAnnoMonitorAlertIconDisabled
 70
     0
  0
APPID
  5
81F4
330
8095
100
AcDbSymbolTableRecord
100
AcDbRegAppTableRecord
  2
ACAD_EXEMPT_FROM_CAD_STANDARDS
 70
     0
  0
APPID
  5
82F8
330
8095
100
AcDbSymbolTableRecord
100
AcDbRegAppTableRecord
  2
ACAD_MLEADERVER
 70
     0
  0
ENDTAB
  0
TABLE
  2
DIMSTYLE
  5
8096
330
0
100
AcDbSymbolTable
 70
     4
100
AcDbDimStyleTable
 71
     1
340
8106
  0
DIMSTYLE
105
80E3
102
{ACAD_REACTORS
330
7C31
330
7C32
330
7C76
330
7C99
330
7C9A
330
7C9B
330
7CAA
330
7CC0
330
7CC9
330
7CCB
330
7FB4
330
7FC1
330
7FCE
330
7FDB
330
7FEA
102
}
330
8096
100
AcDbSymbolTableRecord
100
AcDbDimStyleTableRecord
  2
Standard
 70
     0
340
80E1
  0
DIMSTYLE
105
80E4
330
8096
100
AcDbSymbolTableRecord
100
AcDbDimStyleTableRecord
  2
Annotative
 70
     0
340
80E1
1001
AcadAnnotative
1000
AnnotativeData
1002
{
1070
     1
1070
     1
1002
}
  0
DIMSTYLE
105
8106
102
{ACAD_REACTORS
330
81C7
330
81D4
330
822C
330
8249
330
825F
330
8275
330
828B
330
82AA
102
}
330
8096
100
AcDbSymbolTableRecord
100
AcDbDimStyleTableRecord
  2
IGA
 70
     0
 40
2.0
 41
2.0
 42
0.5
 43
10.0
 44
1.0
 47
1.0
 48
1.0
 73
     0
 74
     0
 77
     1
 78
     8
140
3.0
141
0.0
143
0.03937
146
10.0
147
1.0
173
     1
271
     3
272
     3
279
     2
284
     8
285
     8
286
     8
340
80E1
  0
DIMSTYLE
105
8107
330
8096
100
AcDbSymbolTableRecord
100
AcDbDimStyleTableRecord
  2
MATSU
 70
     0
 41
2.0
 42
1.0
 43
10.0
 44
1.0
 73
     0
 74
     0
 77
     1
 78
     8
140
3.0
141
0.0
143
0.03937
147
0.5
172
     1
173
     1
176
   256
177
   256
178
   256
271
     3
272
     3
279
     2
284
     8
285
     8
286
     8
340
80E1
  0
ENDTAB
  0
TABLE
  2
BLOCK_RECORD
  5
808D
330
0
100
AcDbSymbolTable
 70
    38
  0
BLOCK_RECORD
  5
80FB
330
808D
100
AcDbSymbolTableRecord
100
AcDbBlockTableRecord
  2
*Model_Space
340
80FE
  0
BLOCK_RECORD
  5
80F7
330
808D
100
AcDbSymbolTableRecord
100
AcDbBlockTableRecord
  2
*Paper_Space
340
80FA
  0
BLOCK_RECORD
  5
810B
330
808D
100
AcDbSymbolTableRecord
100
AcDbBlockTableRecord
  2
$MODEL_SPACE
340
0
  0
BLOCK_RECORD
  5
810D
330
808D
100
AcDbSymbolTableRecord
100
AcDbBlockTableRecord
  2
$PAPER_SPACE
340
0
  0
BLOCK_RECORD
  5
810F
330
808D
100
AcDbSymbolTableRecord
100
AcDbBlockTableRecord
  2
_OPEN
340
0
102
{BLKREFS
331
826F
331
8270
331
8285
331
8286
331
82A4
331
82A5
331
82BA
331
82BB
331
7EB8
331
7EB9
331
8078
331
807F
331
7ECD
331
7ECE
331
7EF1
331
7F06
331
7F07
331
7FAD
331
7FAE
331
7FBA
331
7FBB
331
7FC7
331
7FC8
331
7FD4
331
7FD5
331
7FF0
331
7FF1
331
821D
331
821E
331
8226
331
8227
331
8233
331
8234
331
8259
331
825A
331
8080
331
7E0A
331
7E0B
331
7E15
331
7E16
331
7E36
331
7E37
331
7E4C
331
7E4D
331
7E57
331
7E58
331
7E62
331
7E63
331
7E6D
331
7E6E
331
7F6D
331
7F6E
331
8067
331
8068
331
806F
331
7F58
331
7F59
331
8070
331
8077
102
}
  0
BLOCK_RECORD
  5
8111
330
808D
100
AcDbSymbolTableRecord
100
AcDbBlockTableRecord
  2
YA_N
340
0
102
{BLKREFS
331
7C0C
331
7C2E
331
7C46
331
7C48
102
}
  0
BLOCK_RECORD
  5
8113
330
808D
100
AcDbSymbolTableRecord
100
AcDbBlockTableRecord
  2
_DOT
340
0
102
{BLKREFS
331
7EF0
102
}
  0
BLOCK_RECORD
  5
8115
330
808D
100
AcDbSymbolTableRecord
100
AcDbBlockTableRecord
  2
*D5
340
0
  0
BLOCK_RECORD
  5
8117
330
808D
100
AcDbSymbolTableRecord
100
AcDbBlockTableRecord
  2
*D6
340
0
  0
BLOCK_RECORD
  5
8119
330
808D
100
AcDbSymbolTableRecord
100
AcDbBlockTableRecord
  2
*D7
340
0
  0
BLOCK_RECORD
  5
811B
330
808D
100
AcDbSymbolTableRecord
100
AcDbBlockTableRecord
  2
*D8
340
0
  0
BLOCK_RECORD
  5
811D
330
808D
100
AcDbSymbolTableRecord
100
AcDbBlockTableRecord
  2
*D9
340
0
  0
BLOCK_RECORD
  5
811F
330
808D
100
AcDbSymbolTableRecord
100
AcDbBlockTableRecord
  2
*D10
340
0
  0
BLOCK_RECORD
  5
8121
330
808D
100
AcDbSymbolTableRecord
100
AcDbBlockTableRecord
  2
*D11
340
0
  0
BLOCK_RECORD
  5
8123
330
808D
100
AcDbSymbolTableRecord
100
AcDbBlockTableRecord
  2
*D12
340
0
  0
BLOCK_RECORD
  5
8125
330
808D
100
AcDbSymbolTableRecord
100
AcDbBlockTableRecord
  2
*D13
340
0
  0
BLOCK_RECORD
  5
8127
330
808D
100
AcDbSymbolTableRecord
100
AcDbBlockTableRecord
  2
*D14
340
0
  0
BLOCK_RECORD
  5
8129
330
808D
100
AcDbSymbolTableRecord
100
AcDbBlockTableRecord
  2
*D15
340
0
  0
BLOCK_RECORD
  5
812B
330
808D
100
AcDbSymbolTableRecord
100
AcDbBlockTableRecord
  2
*D16
340
0
  0
BLOCK_RECORD
  5
812D
330
808D
100
AcDbSymbolTableRecord
100
AcDbBlockTableRecord
  2
*D17
340
0
  0
BLOCK_RECORD
  5
812F
330
808D
100
AcDbSymbolTableRecord
100
AcDbBlockTableRecord
  2
*D18
340
0
  0
BLOCK_RECORD
  5
8131
330
808D
100
AcDbSymbolTableRecord
100
AcDbBlockTableRecord
  2
*D19
340
0
  0
BLOCK_RECORD
  5
8133
330
808D
100
AcDbSymbolTableRecord
100
AcDbBlockTableRecord
  2
*D20
340
0
  0
BLOCK_RECORD
  5
8135
330
808D
100
AcDbSymbolTableRecord
100
AcDbBlockTableRecord
  2
*D21
340
0
  0
BLOCK_RECORD
  5
8137
330
808D
100
AcDbSymbolTableRecord
100
AcDbBlockTableRecord
  2
*D22
340
0
  0
BLOCK_RECORD
  5
8139
330
808D
100
AcDbSymbolTableRecord
100
AcDbBlockTableRecord
  2
*D23
340
0
  0
BLOCK_RECORD
  5
813B
330
808D
100
AcDbSymbolTableRecord
100
AcDbBlockTableRecord
  2
*D24
340
0
  0
BLOCK_RECORD
  5
813D
330
808D
100
AcDbSymbolTableRecord
100
AcDbBlockTableRecord
  2
*D25
340
0
  0
BLOCK_RECORD
  5
813F
330
808D
100
AcDbSymbolTableRecord
100
AcDbBlockTableRecord
  2
_NONE
340
0
  0
BLOCK_RECORD
  5
8141
330
808D
100
AcDbSymbolTableRecord
100
AcDbBlockTableRecord
  2
*D27
340
0
  0
BLOCK_RECORD
  5
8143
330
808D
100
AcDbSymbolTableRecord
100
AcDbBlockTableRecord
  2
*D28
340
0
  0
BLOCK_RECORD
  5
81C8
330
808D
100
AcDbSymbolTableRecord
100
AcDbBlockTableRecord
  2
*D30
340
0
  0
BLOCK_RECORD
  5
81D5
330
808D
100
AcDbSymbolTableRecord
100
AcDbBlockTableRecord
  2
*D31
340
0
  0
BLOCK_RECORD
  5
822D
330
808D
100
AcDbSymbolTableRecord
100
AcDbBlockTableRecord
  2
*D32
340
0
  0
BLOCK_RECORD
  5
824A
330
808D
100
AcDbSymbolTableRecord
100
AcDbBlockTableRecord
  2
*D33
340
0
  0
BLOCK_RECORD
  5
8260
330
808D
100
AcDbSymbolTableRecord
100
AcDbBlockTableRecord
  2
*D34
340
0
  0
BLOCK_RECORD
  5
8276
330
808D
100
AcDbSymbolTableRecord
100
AcDbBlockTableRecord
  2
*D35
340
0
  0
BLOCK_RECORD
  5
828C
330
808D
100
AcDbSymbolTableRecord
100
AcDbBlockTableRecord
  2
*D36
340
0
  0
BLOCK_RECORD
  5
82AB
330
808D
100
AcDbSymbolTableRecord
100
AcDbBlockTableRecord
  2
*D37
340
0
  0
ENDTAB
  0
ENDSEC
  0
SECTION
  2
BLOCKS
  0
BLOCK
  5
80FC
330
80FB
100
AcDbEntity
  8
0
100
AcDbBlockBegin
  2
*Model_Space
 70
     0
 10
0.0
 20
0.0
 30
0.0
  3
*Model_Space
  1

  0
ENDBLK
  5
80FD
330
80FB
100
AcDbEntity
  8
0
100
AcDbBlockEnd
  0
BLOCK
  5
80F8
330
80F7
100
AcDbEntity
 67
     1
  8
0
100
AcDbBlockBegin
  2
*Paper_Space
 70
     0
 10
0.0
 20
0.0
 30
0.0
  3
*Paper_Space
  1

  0
ENDBLK
  5
80F9
330
80F7
100
AcDbEntity
 67
     1
  8
0
100
AcDbBlockEnd
  0
BLOCK
  5
810C
330
810B
100
AcDbEntity
  8
0
100
AcDbBlockBegin
  2
$MODEL_SPACE
 70
     0
 10
0.0
 20
0.0
 30
0.0
  3
$MODEL_SPACE
  1

  0
ENDBLK
  5
1B
330
810B
100
AcDbEntity
  8
0
100
AcDbBlockEnd
  0
BLOCK
  5
810E
330
810D
100
AcDbEntity
  8
0
100
AcDbBlockBegin
  2
$PAPER_SPACE
 70
     0
 10
0.0
 20
0.0
 30
0.0
  3
$PAPER_SPACE
  1

  0
ENDBLK
  5
18
330
810D
100
AcDbEntity
  8
0
100
AcDbBlockEnd
  0
BLOCK
  5
8110
330
810F
100
AcDbEntity
  8
0
100
AcDbBlockBegin
  2
_OPEN
 70
     0
 10
0.0
 20
0.0
 30
0.0
  3
_OPEN
  1

  0
LINE
  5
79FD
330
810F
100
AcDbEntity
  8
0
  6
ByBlock
 62
     0
100
AcDbLine
 10
-1.0
 20
0.1666666666666666
 30
0.0
 11
0.0
 21
0.0
 31
0.0
  0
LINE
  5
79FE
330
810F
100
AcDbEntity
  8
0
  6
ByBlock
 62
     0
100
AcDbLine
 10
0.0
 20
0.0
 30
0.0
 11
-1.0
 21
-0.1666666666666666
 31
0.0
  0
LINE
  5
79FF
330
810F
100
AcDbEntity
  8
0
  6
ByBlock
 62
     0
100
AcDbLine
 10
0.0
 20
0.0
 30
0.0
 11
-1.0
 21
0.0
 31
0.0
  0
ENDBLK
  5
7A01
330
810F
100
AcDbEntity
  8
0
100
AcDbBlockEnd
  0
BLOCK
  5
8112
330
8111
100
AcDbEntity
  8
0
100
AcDbBlockBegin
  2
YA_N
 70
     0
 10
0.0
 20
0.0
 30
0.0
  3
YA_N
  1

  0
ENDBLK
  5
7A04
330
8111
100
AcDbEntity
  8
0
100
AcDbBlockEnd
  0
BLOCK
  5
8114
330
8113
100
AcDbEntity
  8
0
100
AcDbBlockBegin
  2
_DOT
 70
     0
 10
0.0
 20
0.0
 30
0.0
  3
_DOT
  1

  0
LWPOLYLINE
  5
7F2E
330
8113
100
AcDbEntity
  8
0
  6
ByBlock
 62
     0
100
AcDbPolyline
 90
        2
 70
     1
 43
0.25
 10
-0.125
 20
0.0
 42
1.0
 10
0.125
 20
0.0
 42
1.0
  0
LINE
  5
7F32
330
8113
100
AcDbEntity
  8
0
  6
ByBlock
 62
     0
100
AcDbLine
 10
-0.25
 20
0.0
 30
0.0
 11
-1.0
 21
0.0
 31
0.0
  0
ENDBLK
  5
7B23
330
8113
100
AcDbEntity
  8
0
100
AcDbBlockEnd
  0
BLOCK
  5
8116
330
8115
100
AcDbEntity
  8
0
100
AcDbBlockBegin
  2
*D5
 70
     1
 10
0.0
 20
0.0
 30
0.0
  3
*D5
  1

  0
LINE
  5
7E07
330
8115
100
AcDbEntity
  8
0
  6
ByBlock
100
AcDbLine
 10
1241.29309838609
 20
713.8876154094804
 30
0.0
 11
1092.947754844026
 21
713.8876154094804
 31
0.0
  0
LINE
  5
7E08
330
8115
100
AcDbEntity
  8
0
  6
ByBlock
100
AcDbLine
 10
1241.29309838609
 20
1538.88761540948
 30
0.0
 11
1092.947754844026
 21
1538.88761540948
 31
0.0
  0
LINE
  5
7E09
330
8115
100
AcDbEntity
  8
0
  6
ByBlock
100
AcDbLine
 10
1117.947754844026
 20
763.8876154094804
 30
0.0
 11
1117.947754844026
 21
1488.88761540948
 31
0.0
  0
INSERT
  5
7E0A
330
8115
100
AcDbEntity
  8
0
  6
ByBlock
100
AcDbBlockReference
  2
_OPEN
 10
1117.947754844026
 20
713.8876154094804
 30
0.0
 41
50.0
 42
50.0
 43
50.0
 50
270.0
  0
INSERT
  5
7E0B
330
8115
100
AcDbEntity
  8
0
  6
ByBlock
100
AcDbBlockReference
  2
_OPEN
 10
1117.947754844026
 20
1538.88761540948
 30
0.0
 41
50.0
 42
50.0
 43
50.0
 50
90.0
  0
TEXT
  5
7E0C
330
8115
100
AcDbEntity
  8
3
100
AcDbText
 10
1105.447754844026
 20
1029.959043980909
 30
0.0
 40
75.0
  1
825
 50
90.0
100
AcDbText
  0
POINT
  5
7E0D
330
8115
100
AcDbEntity
  8
DEFPOINTS
  6
ByBlock
 62
     0
100
AcDbPoint
 10
1266.29309838609
 20
713.8876154094804
 30
0.0
  0
POINT
  5
7E0E
330
8115
100
AcDbEntity
  8
DEFPOINTS
  6
ByBlock
 62
     0
100
AcDbPoint
 10
1266.29309838609
 20
1538.88761540948
 30
0.0
  0
POINT
  5
7E0F
330
8115
100
AcDbEntity
  8
DEFPOINTS
  6
ByBlock
 62
     0
100
AcDbPoint
 10
1117.947754844026
 20
1538.88761540948
 30
0.0
  0
ENDBLK
  5
7E10
330
8115
100
AcDbEntity
  8
0
100
AcDbBlockEnd
  0
BLOCK
  5
8118
330
8117
100
AcDbEntity
  8
0
100
AcDbBlockBegin
  2
*D6
 70
     1
 10
0.0
 20
0.0
 30
0.0
  3
*D6
  1

  0
LINE
  5
7E12
330
8117
100
AcDbEntity
  8
0
  6
ByBlock
100
AcDbLine
 10
1241.29309838609
 20
713.8876154094804
 30
0.0
 11
940.6643522702234
 21
713.8876154094804
 31
0.0
  0
LINE
  5
7E13
330
8117
100
AcDbEntity
  8
0
  6
ByBlock
100
AcDbLine
 10
1119.821306535699
 20
1561.887615409481
 30
0.0
 11
940.6643522702234
 21
1561.887615409481
 31
0.0
  0
LINE
  5
7E14
330
8117
100
AcDbEntity
  8
0
  6
ByBlock
100
AcDbLine
 10
965.6643522702234
 20
763.8876154094804
 30
0.0
 11
965.6643522702234
 21
1511.887615409481
 31
0.0
  0
INSERT
  5
7E15
330
8117
100
AcDbEntity
  8
0
  6
ByBlock
100
AcDbBlockReference
  2
_OPEN
 10
965.6643522702234
 20
713.8876154094804
 30
0.0
 41
50.0
 42
50.0
 43
50.0
 50
270.0
  0
INSERT
  5
7E16
330
8117
100
AcDbEntity
  8
0
  6
ByBlock
100
AcDbBlockReference
  2
_OPEN
 10
965.6643522702234
 20
1561.887615409481
 30
0.0
 41
50.0
 42
50.0
 43
50.0
 50
90.0
  0
TEXT
  5
7E17
330
8117
100
AcDbEntity
  8
3
100
AcDbText
 10
953.1643522702234
 20
1041.459043980909
 30
0.0
 40
75.0
  1
848
 50
90.0
100
AcDbText
  0
POINT
  5
7E18
330
8117
100
AcDbEntity
  8
DEFPOINTS
  6
ByBlock
 62
     0
100
AcDbPoint
 10
1266.29309838609
 20
713.8876154094804
 30
0.0
  0
POINT
  5
7E19
330
8117
100
AcDbEntity
  8
DEFPOINTS
  6
ByBlock
 62
     0
100
AcDbPoint
 10
1144.821306535699
 20
1561.887615409481
 30
0.0
  0
POINT
  5
7E1A
330
8117
100
AcDbEntity
  8
DEFPOINTS
  6
ByBlock
 62
     0
100
AcDbPoint
 10
965.6643522702234
 20
1561.887615409481
 30
0.0
  0
ENDBLK
  5
7E1B
330
8117
100
AcDbEntity
  8
0
100
AcDbBlockEnd
  0
BLOCK
  5
811A
330
8119
100
AcDbEntity
  8
0
100
AcDbBlockBegin
  2
*D7
 70
     1
 10
0.0
 20
0.0
 30
0.0
  3
*D7
  1

  0
LINE
  5
7E33
330
8119
100
AcDbEntity
  8
0
  6
ByBlock
100
AcDbLine
 10
5441.207505112644
 20
1986.88761540948
 30
0.0
 11
5740.43091600962
 21
1986.88761540948
 31
0.0
  0
LINE
  5
7E34
330
8119
100
AcDbEntity
  8
0
  6
ByBlock
100
AcDbLine
 10
5441.207505112644
 20
1136.887615409481
 30
0.0
 11
5740.43091600962
 21
1136.887615409481
 31
0.0
  0
LINE
  5
7E35
330
8119
100
AcDbEntity
  8
0
  6
ByBlock
100
AcDbLine
 10
5715.43091600962
 20
1936.88761540948
 30
0.0
 11
5715.43091600962
 21
1186.887615409481
 31
0.0
  0
INSERT
  5
7E36
330
8119
100
AcDbEntity
  8
0
  6
ByBlock
100
AcDbBlockReference
  2
_OPEN
 10
5715.43091600962
 20
1986.88761540948
 30
0.0
 41
50.0
 42
50.0
 43
50.0
 50
90.0
  0
INSERT
  5
7E37
330
8119
100
AcDbEntity
  8
0
  6
ByBlock
100
AcDbBlockReference
  2
_OPEN
 10
5715.43091600962
 20
1136.887615409481
 30
0.0
 41
50.0
 42
50.0
 43
50.0
 50
270.0
  0
TEXT
  5
7E38
330
8119
100
AcDbEntity
  8
3
100
AcDbText
 10
5702.93091600962
 20
1427.959043980909
 30
0.0
 40
75.0
  1
\U+03C6850
 50
90.0
100
AcDbText
  0
POINT
  5
7E39
330
8119
100
AcDbEntity
  8
DEFPOINTS
  6
ByBlock
 62
     0
100
AcDbPoint
 10
5416.207505112645
 20
1986.88761540948
 30
0.0
  0
POINT
  5
7E3A
330
8119
100
AcDbEntity
  8
DEFPOINTS
  6
ByBlock
 62
     0
100
AcDbPoint
 10
5416.207505112645
 20
1136.887615409481
 30
0.0
  0
POINT
  5
7E3B
330
8119
100
AcDbEntity
  8
DEFPOINTS
  6
ByBlock
 62
     0
100
AcDbPoint
 10
5715.43091600962
 20
1136.887615409481
 30
0.0
  0
ENDBLK
  5
7E3C
330
8119
100
AcDbEntity
  8
0
100
AcDbBlockEnd
  0
BLOCK
  5
811C
330
811B
100
AcDbEntity
  8
0
100
AcDbBlockBegin
  2
*D8
 70
     1
 10
0.0
 20
0.0
 30
0.0
  3
*D8
  1

  0
LINE
  5
7E49
330
811B
100
AcDbEntity
  8
0
  6
ByBlock
100
AcDbLine
 10
2311.293098386091
 20
4579.380572240498
 30
0.0
 11
2311.293098386091
 21
4730.503855791452
 31
0.0
  0
LINE
  5
7E4A
330
811B
100
AcDbEntity
  8
0
  6
ByBlock
100
AcDbLine
 10
1311.29309838609
 20
4579.380572240498
 30
0.0
 11
1311.29309838609
 21
4730.503855791452
 31
0.0
  0
LINE
  5
7E4B
330
811B
100
AcDbEntity
  8
0
  6
ByBlock
100
AcDbLine
 10
2261.293098386091
 20
4705.503855791452
 30
0.0
 11
1361.29309838609
 21
4705.503855791452
 31
0.0
  0
INSERT
  5
7E4C
330
811B
100
AcDbEntity
  8
0
  6
ByBlock
100
AcDbBlockReference
  2
_OPEN
 10
2311.293098386091
 20
4705.503855791452
 30
0.0
 41
50.0
 42
50.0
 43
50.0
  0
INSERT
  5
7E4D
330
811B
100
AcDbEntity
  8
0
  6
ByBlock
100
AcDbBlockReference
  2
_OPEN
 10
1311.29309838609
 20
4705.503855791452
 30
0.0
 41
50.0
 42
50.0
 43
50.0
 50
180.0
  0
TEXT
  5
7E4E
330
811B
100
AcDbEntity
  8
3
100
AcDbText
 10
1686.29309838609
 20
4718.003855791452
 30
0.0
 40
75.0
  1
1000
100
AcDbText
  0
POINT
  5
7E4F
330
811B
100
AcDbEntity
  8
DEFPOINTS
  6
ByBlock
 62
     0
100
AcDbPoint
 10
2311.293098386091
 20
4554.380572240497
 30
0.0
  0
POINT
  5
7E50
330
811B
100
AcDbEntity
  8
DEFPOINTS
  6
ByBlock
 62
     0
100
AcDbPoint
 10
1311.29309838609
 20
4554.380572240497
 30
0.0
  0
POINT
  5
7E51
330
811B
100
AcDbEntity
  8
DEFPOINTS
  6
ByBlock
 62
     0
100
AcDbPoint
 10
1311.29309838609
 20
4705.503855791452
 30
0.0
  0
ENDBLK
  5
7E52
330
811B
100
AcDbEntity
  8
0
100
AcDbBlockEnd
  0
BLOCK
  5
811E
330
811D
100
AcDbEntity
  8
0
100
AcDbBlockBegin
  2
*D9
 70
     1
 10
0.0
 20
0.0
 30
0.0
  3
*D9
  1

  0
LINE
  5
7E54
330
811D
100
AcDbEntity
  8
0
  6
ByBlock
100
AcDbLine
 10
1286.29309838609
 20
4554.380572240497
 30
0.0
 11
1068.3563702362
 21
4554.380572240497
 31
0.0
  0
LINE
  5
7E55
330
811D
100
AcDbEntity
  8
0
  6
ByBlock
100
AcDbLine
 10
1286.29309838609
 20
3299.3805722405
 30
0.0
 11
1068.3563702362
 21
3299.3805722405
 31
0.0
  0
LINE
  5
7E56
330
811D
100
AcDbEntity
  8
0
  6
ByBlock
100
AcDbLine
 10
1093.3563702362
 20
4504.380572240497
 30
0.0
 11
1093.3563702362
 21
3349.380572240499
 31
0.0
  0
INSERT
  5
7E57
330
811D
100
AcDbEntity
  8
0
  6
ByBlock
100
AcDbBlockReference
  2
_OPEN
 10
1093.3563702362
 20
4554.380572240497
 30
0.0
 41
50.0
 42
50.0
 43
50.0
 50
90.0
  0
INSERT
  5
7E58
330
811D
100
AcDbEntity
  8
0
  6
ByBlock
100
AcDbBlockReference
  2
_OPEN
 10
1093.3563702362
 20
3299.3805722405
 30
0.0
 41
50.0
 42
50.0
 43
50.0
 50
270.0
  0
TEXT
  5
7E59
330
811D
100
AcDbEntity
  8
3
100
AcDbText
 10
1080.8563702362
 20
3801.8805722405
 30
0.0
 40
75.0
  1
1255
 50
90.0
100
AcDbText
  0
POINT
  5
7E5A
330
811D
100
AcDbEntity
  8
DEFPOINTS
  6
ByBlock
 62
     0
100
AcDbPoint
 10
1311.29309838609
 20
4554.380572240497
 30
0.0
  0
POINT
  5
7E5B
330
811D
100
AcDbEntity
  8
DEFPOINTS
  6
ByBlock
 62
     0
100
AcDbPoint
 10
1311.29309838609
 20
3299.3805722405
 30
0.0
  0
POINT
  5
7E5C
330
811D
100
AcDbEntity
  8
DEFPOINTS
  6
ByBlock
 62
     0
100
AcDbPoint
 10
1093.3563702362
 20
3299.3805722405
 30
0.0
  0
ENDBLK
  5
7E5D
330
811D
100
AcDbEntity
  8
0
100
AcDbBlockEnd
  0
BLOCK
  5
8120
330
811F
100
AcDbEntity
  8
0
100
AcDbBlockBegin
  2
*D10
 70
     1
 10
0.0
 20
0.0
 30
0.0
  3
*D10
  1

  0
LINE
  5
7E5F
330
811F
100
AcDbEntity
  8
0
  6
ByBlock
100
AcDbLine
 10
3086.293098386089
 20
4049.380572240499
 30
0.0
 11
3238.445927509403
 21
4049.380572240499
 31
0.0
  0
LINE
  5
7E60
330
811F
100
AcDbEntity
  8
0
  6
ByBlock
100
AcDbLine
 10
3086.293098386089
 20
3299.3805722405
 30
0.0
 11
3238.445927509403
 21
3299.3805722405
 31
0.0
  0
LINE
  5
7E61
330
811F
100
AcDbEntity
  8
0
  6
ByBlock
100
AcDbLine
 10
3213.445927509403
 20
3999.380572240499
 30
0.0
 11
3213.445927509403
 21
3349.3805722405
 31
0.0
  0
INSERT
  5
7E62
330
811F
100
AcDbEntity
  8
0
  6
ByBlock
100
AcDbBlockReference
  2
_OPEN
 10
3213.445927509403
 20
4049.380572240499
 30
0.0
 41
50.0
 42
50.0
 43
50.0
 50
90.0
  0
INSERT
  5
7E63
330
811F
100
AcDbEntity
  8
0
  6
ByBlock
100
AcDbBlockReference
  2
_OPEN
 10
3213.445927509403
 20
3299.3805722405
 30
0.0
 41
50.0
 42
50.0
 43
50.0
 50
270.0
  0
TEXT
  5
7E64
330
811F
100
AcDbEntity
  8
3
100
AcDbText
 10
3200.945927509403
 20
3577.952000811928
 30
0.0
 40
75.0
  1
750
 50
90.0
100
AcDbText
  0
POINT
  5
7E65
330
811F
100
AcDbEntity
  8
DEFPOINTS
  6
ByBlock
 62
     0
100
AcDbPoint
 10
3061.293098386089
 20
4049.380572240499
 30
0.0
  0
POINT
  5
7E66
330
811F
100
AcDbEntity
  8
DEFPOINTS
  6
ByBlock
 62
     0
100
AcDbPoint
 10
3061.293098386089
 20
3299.3805722405
 30
0.0
  0
POINT
  5
7E67
330
811F
100
AcDbEntity
  8
DEFPOINTS
  6
ByBlock
 62
     0
100
AcDbPoint
 10
3213.445927509403
 20
3299.3805722405
 30
0.0
  0
ENDBLK
  5
7E68
330
811F
100
AcDbEntity
  8
0
100
AcDbBlockEnd
  0
BLOCK
  5
8122
330
8121
100
AcDbEntity
  8
0
100
AcDbBlockBegin
  2
*D11
 70
     1
 10
0.0
 20
0.0
 30
0.0
  3
*D11
  1

  0
LINE
  5
7E6A
330
8121
100
AcDbEntity
  8
0
  6
ByBlock
100
AcDbLine
 10
3061.293098386089
 20
3274.3805722405
 30
0.0
 11
3061.293098386089
 21
3013.7147873961
 31
0.0
  0
LINE
  5
7E6B
330
8121
100
AcDbEntity
  8
0
  6
ByBlock
100
AcDbLine
 10
1311.29309838609
 20
3274.380572240499
 30
0.0
 11
1311.29309838609
 21
3013.7147873961
 31
0.0
  0
LINE
  5
7E6C
330
8121
100
AcDbEntity
  8
0
  6
ByBlock
100
AcDbLine
 10
3011.293098386091
 20
3038.7147873961
 30
0.0
 11
1361.29309838609
 21
3038.7147873961
 31
0.0
  0
INSERT
  5
7E6D
330
8121
100
AcDbEntity
  8
0
  6
ByBlock
100
AcDbBlockReference
  2
_OPEN
 10
3061.293098386089
 20
3038.7147873961
 30
0.0
 41
50.0
 42
50.0
 43
50.0
  0
INSERT
  5
7E6E
330
8121
100
AcDbEntity
  8
0
  6
ByBlock
100
AcDbBlockReference
  2
_OPEN
 10
1311.29309838609
 20
3038.7147873961
 30
0.0
 41
50.0
 42
50.0
 43
50.0
 50
180.0
  0
TEXT
  5
7E6F
330
8121
100
AcDbEntity
  8
3
100
AcDbText
 10
2061.293098386089
 20
3051.2147873961
 30
0.0
 40
75.0
  1
1750
100
AcDbText
  0
POINT
  5
7E70
330
8121
100
AcDbEntity
  8
DEFPOINTS
  6
ByBlock
 62
     0
100
AcDbPoint
 10
3061.293098386089
 20
3299.3805722405
 30
0.0
  0
POINT
  5
7E71
330
8121
100
AcDbEntity
  8
DEFPOINTS
  6
ByBlock
 62
     0
100
AcDbPoint
 10
1311.29309838609
 20
3299.3805722405
 30
0.0
  0
POINT
  5
7E72
330
8121
100
AcDbEntity
  8
DEFPOINTS
  6
ByBlock
 62
     0
100
AcDbPoint
 10
1311.29309838609
 20
3038.7147873961
 30
0.0
  0
ENDBLK
  5
7E73
330
8121
100
AcDbEntity
  8
0
100
AcDbBlockEnd
  0
BLOCK
  5
8124
330
8123
100
AcDbEntity
  8
0
100
AcDbBlockBegin
  2
*D12
 70
     1
 10
0.0
 20
0.0
 30
0.0
  3
*D12
  1

  0
LINE
  5
7F6A
330
8123
100
AcDbEntity
  8
0
  6
ByBlock
100
AcDbLine
 10
3714.249582193797
 20
3421.435029840878
 30
0.0
 11
3714.249582193797
 21
3543.440210206699
 31
0.0
  0
LINE
  5
7F6B
330
8123
100
AcDbEntity
  8
0
  6
ByBlock
100
AcDbLine
 10
4714.249582193798
 20
3421.435029840878
 30
0.0
 11
4714.249582193798
 21
3543.440210206699
 31
0.0
  0
LINE
  5
7F6C
330
8123
100
AcDbEntity
  8
0
  6
ByBlock
100
AcDbLine
 10
3764.249582193798
 20
3518.440210206699
 30
0.0
 11
4664.249582193798
 21
3518.440210206699
 31
0.0
  0
INSERT
  5
7F6D
330
8123
100
AcDbEntity
  8
0
  6
ByBlock
100
AcDbBlockReference
  2
_OPEN
 10
3714.249582193797
 20
3518.440210206699
 30
0.0
 41
50.0
 42
50.0
 43
50.0
 50
180.0
  0
INSERT
  5
7F6E
330
8123
100
AcDbEntity
  8
0
  6
ByBlock
100
AcDbBlockReference
  2
_OPEN
 10
4714.249582193798
 20
3518.440210206699
 30
0.0
 41
50.0
 42
50.0
 43
50.0
  0
TEXT
  5
7F6F
330
8123
100
AcDbEntity
  8
3
100
AcDbText
 10
4089.249582193796
 20
3530.940210206699
 30
0.0
 40
75.0
  1
1000
100
AcDbText
  0
POINT
  5
7F70
330
8123
100
AcDbEntity
  8
DEFPOINTS
  6
ByBlock
 62
     0
100
AcDbPoint
 10
3714.249582193797
 20
3396.435029840878
 30
0.0
  0
POINT
  5
7F71
330
8123
100
AcDbEntity
  8
DEFPOINTS
  6
ByBlock
 62
     0
100
AcDbPoint
 10
4714.249582193798
 20
3396.435029840878
 30
0.0
  0
POINT
  5
7F72
330
8123
100
AcDbEntity
  8
DEFPOINTS
  6
ByBlock
 62
     0
100
AcDbPoint
 10
4714.249582193798
 20
3518.440210206699
 30
0.0
  0
ENDBLK
  5
7F73
330
8123
100
AcDbEntity
  8
0
100
AcDbBlockEnd
  0
BLOCK
  5
8126
330
8125
100
AcDbEntity
  8
0
100
AcDbBlockBegin
  2
*D13
 70
     1
 10
0.0
 20
0.0
 30
0.0
  3
*D13
  1

  0
LINE
  5
8065
330
8125
100
AcDbEntity
  8
3
100
AcDbLine
 10
2995.287641258175
 20
4997.90473181634
 30
0.0
 11
2995.287641258175
 21
5654.028015367292
 31
0.0
  0
LINE
  5
8066
330
8125
100
AcDbEntity
  8
3
100
AcDbLine
 10
2295.287641258176
 20
5629.028015367293
 30
0.0
 11
2945.287641258175
 21
5629.028015367293
 31
0.0
  0
INSERT
  5
8067
330
8125
100
AcDbEntity
  8
3
100
AcDbBlockReference
  2
_OPEN
 10
2245.287641258176
 20
5629.028015367293
 30
0.0
 41
50.0
 42
50.0
 43
50.0
 50
180.0
  0
INSERT
  5
8068
330
8125
100
AcDbEntity
  8
3
100
AcDbBlockReference
  2
_OPEN
 10
2995.287641258175
 20
5629.028015367293
 30
0.0
 41
50.0
 42
50.0
 43
50.0
  0
TEXT
  5
8088
330
8125
100
AcDbEntity
  8
3
100
AcDbText
 10
2470.29
 20
5546.28
 30
0.0
 40
75.0
  1
750
100
AcDbText
  0
POINT
  5
806A
330
8125
100
AcDbEntity
  8
DEFPOINTS
 62
     0
100
AcDbPoint
 10
2245.287641258176
 20
5477.904731816339
 30
0.0
  0
POINT
  5
806B
330
8125
100
AcDbEntity
  8
DEFPOINTS
 62
     0
100
AcDbPoint
 10
2995.287641258175
 20
4972.904731816339
 30
0.0
  0
POINT
  5
806C
330
8125
100
AcDbEntity
  8
DEFPOINTS
 62
     0
100
AcDbPoint
 10
2995.287641258175
 20
5629.028015367293
 30
0.0
  0
ENDBLK
  5
7E9E
330
8125
100
AcDbEntity
  8
0
100
AcDbBlockEnd
  0
BLOCK
  5
8128
330
8127
100
AcDbEntity
  8
0
100
AcDbBlockBegin
  2
*D14
 70
     1
 10
0.0
 20
0.0
 30
0.0
  3
*D14
  1

  0
LINE
  5
7F55
330
8127
100
AcDbEntity
  8
0
  6
ByBlock
100
AcDbLine
 10
4814.249582193799
 20
2813.935029840878
 30
0.0
 11
4814.249582193799
 21
3740.71610307365
 31
0.0
  0
LINE
  5
7F56
330
8127
100
AcDbEntity
  8
0
  6
ByBlock
100
AcDbLine
 10
4214.249582193797
 20
3644.043403609869
 30
0.0
 11
4214.249582193797
 21
3740.71610307365
 31
0.0
  0
LINE
  5
7F57
330
8127
100
AcDbEntity
  8
0
  6
ByBlock
100
AcDbLine
 10
4764.249582193798
 20
3715.71610307365
 30
0.0
 11
4264.249582193797
 21
3715.71610307365
 31
0.0
  0
INSERT
  5
7F58
330
8127
100
AcDbEntity
  8
0
  6
ByBlock
100
AcDbBlockReference
  2
_OPEN
 10
4814.249582193799
 20
3715.71610307365
 30
0.0
 41
50.0
 42
50.0
 43
50.0
  0
INSERT
  5
7F59
330
8127
100
AcDbEntity
  8
0
  6
ByBlock
100
AcDbBlockReference
  2
_OPEN
 10
4214.249582193797
 20
3715.71610307365
 30
0.0
 41
50.0
 42
50.0
 43
50.0
 50
180.0
  0
TEXT
  5
7F5A
330
8127
100
AcDbEntity
  8
3
100
AcDbText
 10
4376.749582193798
 20
3760.358960216506
 30
0.0
 40
75.0
  1
(610)
100
AcDbText
  0
POINT
  5
7F5B
330
8127
100
AcDbEntity
  8
DEFPOINTS
  6
ByBlock
 62
     0
100
AcDbPoint
 10
4814.249582193799
 20
2788.935029840879
 30
0.0
  0
POINT
  5
7F5C
330
8127
100
AcDbEntity
  8
DEFPOINTS
  6
ByBlock
 62
     0
100
AcDbPoint
 10
4214.249582193797
 20
3619.043403609868
 30
0.0
  0
POINT
  5
7F5D
330
8127
100
AcDbEntity
  8
DEFPOINTS
  6
ByBlock
 62
     0
100
AcDbPoint
 10
4214.249582193797
 20
3715.71610307365
 30
0.0
  0
ENDBLK
  5
7F5E
330
8127
100
AcDbEntity
  8
0
100
AcDbBlockEnd
  0
BLOCK
  5
812A
330
8129
100
AcDbEntity
  8
0
100
AcDbBlockBegin
  2
*D15
 70
     1
 10
0.0
 20
0.0
 30
0.0
  3
*D15
  1

  0
LINE
  5
806D
330
8129
100
AcDbEntity
  8
3
100
AcDbLine
 10
3404.249582193797
 20
3073.435029840878
 30
0.0
 11
3404.249582193797
 21
3740.71610307365
 31
0.0
  0
LINE
  5
806E
330
8129
100
AcDbEntity
  8
3
100
AcDbLine
 10
4164.249582193797
 20
3715.71610307365
 30
0.0
 11
3454.249582193797
 21
3715.71610307365
 31
0.0
  0
INSERT
  5
806F
330
8129
100
AcDbEntity
  8
3
100
AcDbBlockReference
  2
_OPEN
 10
4214.249582193797
 20
3715.71610307365
 30
0.0
 41
50.0
 42
50.0
 43
50.0
  0
INSERT
  5
8070
330
8129
100
AcDbEntity
  8
3
100
AcDbBlockReference
  2
_OPEN
 10
3404.249582193797
 20
3715.71610307365
 30
0.0
 41
50.0
 42
50.0
 43
50.0
 50
180.0
  0
TEXT
  5
8089
330
8129
100
AcDbEntity
  8
3
100
AcDbText
 10
3659.25
 20
3695.47
 30
0.0
 40
75.0
  1
MAX
100
AcDbText
  0
TEXT
  5
808A
330
8129
100
AcDbEntity
  8
3
100
AcDbText
 10
3659.25
 20
3597.97
 30
0.0
 40
75.0
  1
860
100
AcDbText
  0
POINT
  5
8072
330
8129
100
AcDbEntity
  8
DEFPOINTS
 62
     0
100
AcDbPoint
 10
4214.249582193797
 20
3619.043403609868
 30
0.0
  0
POINT
  5
8073
330
8129
100
AcDbEntity
  8
DEFPOINTS
 62
     0
100
AcDbPoint
 10
3404.249582193797
 20
3048.435029840878
 30
0.0
  0
POINT
  5
8074
330
8129
100
AcDbEntity
  8
DEFPOINTS
 62
     0
100
AcDbPoint
 10
3404.249582193797
 20
3715.71610307365
 30
0.0
  0
ENDBLK
  5
7F68
330
8129
100
AcDbEntity
  8
0
100
AcDbBlockEnd
  0
BLOCK
  5
812C
330
812B
100
AcDbEntity
  8
0
100
AcDbBlockBegin
  2
*D16
 70
     1
 10
0.0
 20
0.0
 30
0.0
  3
*D16
  1

  0
LINE
  5
7EB5
330
812B
100
AcDbEntity
  8
0
  6
ByBlock
100
AcDbLine
 10
1266.29309838609
 20
1606.38761540948
 30
0.0
 11
1266.29309838609
 21
2284.4493873368
 31
0.0
  0
LINE
  5
7EB6
330
812B
100
AcDbEntity
  8
0
  6
ByBlock
100
AcDbLine
 10
1811.293098386089
 20
2243.905936120953
 30
0.0
 11
1811.293098386089
 21
2284.4493873368
 31
0.0
  0
LINE
  5
7EB7
330
812B
100
AcDbEntity
  8
0
  6
ByBlock
100
AcDbLine
 10
1316.29309838609
 20
2259.4493873368
 30
0.0
 11
1761.29309838609
 21
2259.4493873368
 31
0.0
  0
INSERT
  5
7EB8
330
812B
100
AcDbEntity
  8
0
  6
ByBlock
100
AcDbBlockReference
  2
_OPEN
 10
1266.29309838609
 20
2259.4493873368
 30
0.0
 41
50.0
 42
50.0
 43
50.0
 50
180.0
  0
INSERT
  5
7EB9
330
812B
100
AcDbEntity
  8
0
  6
ByBlock
100
AcDbBlockReference
  2
_OPEN
 10
1811.293098386089
 20
2259.4493873368
 30
0.0
 41
50.0
 42
50.0
 43
50.0
  0
TEXT
  5
7EBA
330
812B
100
AcDbEntity
  8
3
100
AcDbText
 10
1442.364526957519
 20
2271.949387336801
 30
0.0
 40
75.0
  1
545
100
AcDbText
  0
POINT
  5
7EBB
330
812B
100
AcDbEntity
  8
DEFPOINTS
  6
ByBlock
 62
     0
100
AcDbPoint
 10
1266.29309838609
 20
1581.38761540948
 30
0.0
  0
POINT
  5
7EBC
330
812B
100
AcDbEntity
  8
DEFPOINTS
  6
ByBlock
 62
     0
100
AcDbPoint
 10
1811.293098386089
 20
2218.905936120953
 30
0.0
  0
POINT
  5
7EBD
330
812B
100
AcDbEntity
  8
DEFPOINTS
  6
ByBlock
 62
     0
100
AcDbPoint
 10
1811.293098386089
 20
2259.4493873368
 30
0.0
  0
ENDBLK
  5
7EBE
330
812B
100
AcDbEntity
  8
0
100
AcDbBlockEnd
  0
BLOCK
  5
812E
330
812D
100
AcDbEntity
  8
0
100
AcDbBlockBegin
  2
*D17
 70
     1
 10
0.0
 20
0.0
 30
0.0
  3
*D17
  1

  0
LINE
  5
8075
330
812D
100
AcDbEntity
  8
3
100
AcDbLine
 10
2431.287641258176
 20
2794.435029840878
 30
0.0
 11
2431.287641258176
 21
3550.996801768198
 31
0.0
  0
LINE
  5
8076
330
812D
100
AcDbEntity
  8
3
100
AcDbLine
 10
1795.287641258175
 20
3525.996801768199
 30
0.0
 11
2381.287641258175
 21
3525.996801768199
 31
0.0
  0
INSERT
  5
8077
330
812D
100
AcDbEntity
  8
3
100
AcDbBlockReference
  2
_OPEN
 10
1745.287641258175
 20
3525.996801768199
 30
0.0
 41
50.0
 42
50.0
 43
50.0
 50
180.0
  0
INSERT
  5
8078
330
812D
100
AcDbEntity
  8
3
100
AcDbBlockReference
  2
_OPEN
 10
2431.287641258176
 20
3525.996801768199
 30
0.0
 41
50.0
 42
50.0
 43
50.0
  0
TEXT
  5
808B
330
812D
100
AcDbEntity
  8
3
100
AcDbText
 10
1938.29
 20
3443.25
 30
0.0
 40
75.0
  1
686
100
AcDbText
  0
POINT
  5
807A
330
812D
100
AcDbEntity
  8
DEFPOINTS
 62
     0
100
AcDbPoint
 10
1745.287641258175
 20
3485.45335055235
 30
0.0
  0
POINT
  5
807B
330
812D
100
AcDbEntity
  8
DEFPOINTS
 62
     0
100
AcDbPoint
 10
2431.287641258176
 20
2769.435029840878
 30
0.0
  0
POINT
  5
807C
330
812D
100
AcDbEntity
  8
DEFPOINTS
 62
     0
100
AcDbPoint
 10
2431.287641258176
 20
3525.996801768199
 30
0.0
  0
ENDBLK
  5
7EC8
330
812D
100
AcDbEntity
  8
0
100
AcDbBlockEnd
  0
BLOCK
  5
8130
330
812F
100
AcDbEntity
  8
0
100
AcDbBlockBegin
  2
*D18
 70
     1
 10
0.0
 20
0.0
 30
0.0
  3
*D18
  1

  0
LINE
  5
7ECA
330
812F
100
AcDbEntity
  8
0
  6
ByBlock
100
AcDbLine
 10
1845.293098386089
 20
2129.88761540948
 30
0.0
 11
785.372573656188
 21
2129.88761540948
 31
0.0
  0
LINE
  5
7ECB
330
812F
100
AcDbEntity
  8
0
  6
ByBlock
100
AcDbLine
 10
1094.821306535699
 20
1561.887615409481
 30
0.0
 11
785.372573656188
 21
1561.887615409481
 31
0.0
  0
LINE
  5
7ECC
330
812F
100
AcDbEntity
  8
0
  6
ByBlock
100
AcDbLine
 10
810.372573656188
 20
2079.88761540948
 30
0.0
 11
810.372573656188
 21
1611.887615409481
 31
0.0
  0
INSERT
  5
7ECD
330
812F
100
AcDbEntity
  8
0
  6
ByBlock
100
AcDbBlockReference
  2
_OPEN
 10
810.372573656188
 20
2129.88761540948
 30
0.0
 41
50.0
 42
50.0
 43
50.0
 50
90.0
  0
INSERT
  5
7ECE
330
812F
100
AcDbEntity
  8
0
  6
ByBlock
100
AcDbBlockReference
  2
_OPEN
 10
810.372573656188
 20
1561.887615409481
 30
0.0
 41
50.0
 42
50.0
 43
50.0
 50
270.0
  0
TEXT
  5
7ECF
330
812F
100
AcDbEntity
  8
3
100
AcDbText
 10
797.872573656188
 20
1749.459043980909
 30
0.0
 40
75.0
  1
568
 50
90.0
100
AcDbText
  0
POINT
  5
7ED0
330
812F
100
AcDbEntity
  8
DEFPOINTS
  6
ByBlock
 62
     0
100
AcDbPoint
 10
1870.293098386089
 20
2129.88761540948
 30
0.0
  0
POINT
  5
7ED1
330
812F
100
AcDbEntity
  8
DEFPOINTS
  6
ByBlock
 62
     0
100
AcDbPoint
 10
1119.821306535699
 20
1561.887615409481
 30
0.0
  0
POINT
  5
7ED2
330
812F
100
AcDbEntity
  8
DEFPOINTS
  6
ByBlock
 62
     0
100
AcDbPoint
 10
810.372573656188
 20
1561.887615409481
 30
0.0
  0
ENDBLK
  5
7ED3
330
812F
100
AcDbEntity
  8
0
100
AcDbBlockEnd
  0
BLOCK
  5
8132
330
8131
100
AcDbEntity
  8
0
100
AcDbBlockBegin
  2
*D19
 70
     1
 10
0.0
 20
0.0
 30
0.0
  3
*D19
  1

  0
LINE
  5
807D
330
8131
100
AcDbEntity
  8
3
100
AcDbLine
 10
1220.287641258176
 20
1868.435029840878
 30
0.0
 11
719.3671165282739
 21
1868.435029840878
 31
0.0
  0
LINE
  5
807E
330
8131
100
AcDbEntity
  8
3
100
AcDbLine
 10
744.3671165282741
 20
2778.435029840879
 30
0.0
 11
744.3671165282737
 21
1918.435029840878
 31
0.0
  0
INSERT
  5
807F
330
8131
100
AcDbEntity
  8
3
100
AcDbBlockReference
  2
_OPEN
 10
744.3671165282742
 20
2828.435029840878
 30
0.0
 41
50.0
 42
50.0
 43
50.0
 50
90.0
  0
INSERT
  5
8080
330
8131
100
AcDbEntity
  8
3
100
AcDbBlockReference
  2
_OPEN
 10
744.3671165282737
 20
1868.435029840878
 30
0.0
 41
50.0
 42
50.0
 43
50.0
 50
270.0
  0
TEXT
  5
808C
330
8131
100
AcDbEntity
  8
3
100
AcDbText
 10
544.367
 20
2215.69
 30
0.0
 40
75.0
  1
960
100
AcDbText
  0
POINT
  5
8082
330
8131
100
AcDbEntity
  8
DEFPOINTS
 62
     0
100
AcDbPoint
 10
1053.815849407785
 20
2828.435029840878
 30
0.0
  0
POINT
  5
8083
330
8131
100
AcDbEntity
  8
DEFPOINTS
 62
     0
100
AcDbPoint
 10
1245.287641258175
 20
1868.435029840878
 30
0.0
  0
POINT
  5
8084
330
8131
100
AcDbEntity
  8
DEFPOINTS
 62
     0
100
AcDbPoint
 10
744.3671165282737
 20
1868.435029840878
 30
0.0
  0
ENDBLK
  5
7EDD
330
8131
100
AcDbEntity
  8
0
100
AcDbBlockEnd
  0
BLOCK
  5
8134
330
8133
100
AcDbEntity
  8
0
100
AcDbBlockBegin
  2
*D20
 70
     1
 10
0.0
 20
0.0
 30
0.0
  3
*D20
  1

  0
LINE
  5
7EEB
330
8133
100
AcDbEntity
  8
0
  6
ByBlock
100
AcDbLine
 10
1286.29309838609
 20
556.8876154094814
 30
0.0
 11
785.372573656188
 21
556.8876154094814
 31
0.0
  0
LINE
  5
7EEC
330
8133
100
AcDbEntity
  8
0
  6
ByBlock
100
AcDbLine
 10
1286.29309838609
 20
456.8876154094813
 30
0.0
 11
785.372573656188
 21
456.8876154094813
 31
0.0
  0
LINE
  5
7EED
330
8133
100
AcDbEntity
  8
0
  6
ByBlock
100
AcDbLine
 10
810.372573656188
 20
606.8876154094815
 30
0.0
 11
810.372573656188
 21
656.8876154094815
 31
0.0
  0
LINE
  5
7EEE
330
8133
100
AcDbEntity
  8
0
  6
ByBlock
100
AcDbLine
 10
810.372573656188
 20
406.8876154094813
 30
0.0
 11
810.372573656188
 21
153.3161868380529
 31
0.0
  0
LINE
  5
7EEF
330
8133
100
AcDbEntity
  8
0
  6
ByBlock
100
AcDbLine
 10
810.372573656188
 20
556.8876154094814
 30
0.0
 11
810.372573656188
 21
456.8876154094813
 31
0.0
  0
INSERT
  5
7EF0
330
8133
100
AcDbEntity
  8
0
  6
ByBlock
100
AcDbBlockReference
  2
_DOT
 10
810.372573656188
 20
556.8876154094814
 30
0.0
 41
50.0
 42
50.0
 43
50.0
 50
270.0
  0
INSERT
  5
7EF1
330
8133
100
AcDbEntity
  8
0
  6
ByBlock
100
AcDbBlockReference
  2
_OPEN
 10
810.372573656188
 20
456.8876154094813
 30
0.0
 41
50.0
 42
50.0
 43
50.0
 50
90.0
  0
TEXT
  5
7EF2
330
8133
100
AcDbEntity
  8
3
100
AcDbText
 10
797.872573656188
 20
165.8161868380528
 30
0.0
 40
75.0
  1
100
 50
90.0
100
AcDbText
  0
POINT
  5
7EF3
330
8133
100
AcDbEntity
  8
DEFPOINTS
  6
ByBlock
 62
     0
100
AcDbPoint
 10
1311.29309838609
 20
556.8876154094814
 30
0.0
  0
POINT
  5
7EF4
330
8133
100
AcDbEntity
  8
DEFPOINTS
  6
ByBlock
 62
     0
100
AcDbPoint
 10
1311.29309838609
 20
456.8876154094813
 30
0.0
  0
POINT
  5
7EF5
330
8133
100
AcDbEntity
  8
DEFPOINTS
  6
ByBlock
 62
     0
100
AcDbPoint
 10
810.372573656188
 20
456.8876154094813
 30
0.0
  0
ENDBLK
  5
7EF6
330
8133
100
AcDbEntity
  8
0
100
AcDbBlockEnd
  0
BLOCK
  5
8136
330
8135
100
AcDbEntity
  8
0
100
AcDbBlockBegin
  2
*D21
 70
     1
 10
0.0
 20
0.0
 30
0.0
  3
*D21
  1

  0
LINE
  5
7F03
330
8135
100
AcDbEntity
  8
0
  6
ByBlock
100
AcDbLine
 10
1266.29309838609
 20
1606.38761540948
 30
0.0
 11
1266.29309838609
 21
2429.427103778762
 31
0.0
  0
LINE
  5
7F04
330
8135
100
AcDbEntity
  8
0
  6
ByBlock
100
AcDbLine
 10
3061.293098386091
 20
726.8876154094804
 30
0.0
 11
3061.293098386091
 21
2429.427103778762
 31
0.0
  0
LINE
  5
7F05
330
8135
100
AcDbEntity
  8
0
  6
ByBlock
100
AcDbLine
 10
1316.29309838609
 20
2404.427103778762
 30
0.0
 11
3011.293098386091
 21
2404.427103778762
 31
0.0
  0
INSERT
  5
7F06
330
8135
100
AcDbEntity
  8
0
  6
ByBlock
100
AcDbBlockReference
  2
_OPEN
 10
1266.29309838609
 20
2404.427103778762
 30
0.0
 41
50.0
 42
50.0
 43
50.0
 50
180.0
  0
INSERT
  5
7F07
330
8135
100
AcDbEntity
  8
0
  6
ByBlock
100
AcDbBlockReference
  2
_OPEN
 10
3061.293098386091
 20
2404.427103778762
 30
0.0
 41
50.0
 42
50.0
 43
50.0
  0
TEXT
  5
7F08
330
8135
100
AcDbEntity
  8
3
100
AcDbText
 10
2038.79309838609
 20
2416.927103778762
 30
0.0
 40
75.0
  1
1795
100
AcDbText
  0
POINT
  5
7F09
330
8135
100
AcDbEntity
  8
DEFPOINTS
  6
ByBlock
 62
     0
100
AcDbPoint
 10
1266.29309838609
 20
1581.38761540948
 30
0.0
  0
POINT
  5
7F0A
330
8135
100
AcDbEntity
  8
DEFPOINTS
  6
ByBlock
 62
     0
100
AcDbPoint
 10
3061.293098386091
 20
701.8876154094804
 30
0.0
  0
POINT
  5
7F0B
330
8135
100
AcDbEntity
  8
DEFPOINTS
  6
ByBlock
 62
     0
100
AcDbPoint
 10
3061.293098386091
 20
2404.427103778762
 30
0.0
  0
ENDBLK
  5
7F0C
330
8135
100
AcDbEntity
  8
0
100
AcDbBlockEnd
  0
BLOCK
  5
8138
330
8137
100
AcDbEntity
  8
0
100
AcDbBlockBegin
  2
*D22
 70
     1
 10
0.0
 20
0.0
 30
0.0
  3
*D22
  1

  0
LINE
  5
7FAA
330
8137
100
AcDbEntity
  8
0
  6
ByBlock
 62
     0
100
AcDbLine
 10
1245.287641258175
 20
1716.435029840879
 30
0.0
 11
1245.287641258175
 21
1541.86154046152
 31
0.0
  0
LINE
  5
7FAB
330
8137
100
AcDbEntity
  8
0
  6
ByBlock
 62
     0
100
AcDbLine
 10
1745.287641258175
 20
1716.435029840879
 30
0.0
 11
1745.287641258175
 21
1541.86154046152
 31
0.0
  0
LINE
  5
7FAC
330
8137
100
AcDbEntity
  8
0
  6
ByBlock
 62
     0
100
AcDbLine
 10
1295.287641258175
 20
1566.861540461521
 30
0.0
 11
1695.287641258175
 21
1566.861540461521
 31
0.0
  0
INSERT
  5
7FAD
330
8137
100
AcDbEntity
  8
0
  6
ByBlock
 62
     0
100
AcDbBlockReference
  2
_OPEN
 10
1245.287641258175
 20
1566.861540461521
 30
0.0
 41
50.0
 42
50.0
 43
50.0
 50
180.0
  0
INSERT
  5
7FAE
330
8137
100
AcDbEntity
  8
0
  6
ByBlock
 62
     0
100
AcDbBlockReference
  2
_OPEN
 10
1745.287641258175
 20
1566.861540461521
 30
0.0
 41
50.0
 42
50.0
 43
50.0
  0
TEXT
  5
7FAF
330
8137
100
AcDbEntity
  8
3
 62
     0
100
AcDbText
 10
1398.859069829604
 20
1591.861540461521
 30
0.0
 40
75.0
  1
500
100
AcDbText
  0
POINT
  5
7FB0
330
8137
100
AcDbEntity
  8
DEFPOINTS
  6
ByBlock
 62
     0
100
AcDbPoint
 10
1245.287641258175
 20
1741.435029840879
 30
0.0
  0
POINT
  5
7FB1
330
8137
100
AcDbEntity
  8
DEFPOINTS
  6
ByBlock
 62
     0
100
AcDbPoint
 10
1745.287641258175
 20
1741.435029840879
 30
0.0
  0
POINT
  5
7FB2
330
8137
100
AcDbEntity
  8
DEFPOINTS
  6
ByBlock
 62
     0
100
AcDbPoint
 10
1745.287641258175
 20
1566.861540461521
 30
0.0
  0
ENDBLK
  5
7FB3
330
8137
100
AcDbEntity
  8
0
100
AcDbBlockEnd
  0
BLOCK
  5
813A
330
8139
100
AcDbEntity
  8
0
100
AcDbBlockBegin
  2
*D23
 70
     1
 10
0.0
 20
0.0
 30
0.0
  3
*D23
  1

  0
LINE
  5
7FB7
330
8139
100
AcDbEntity
  8
0
  6
ByBlock
 62
     0
100
AcDbLine
 10
1745.287641258175
 20
1716.435029840879
 30
0.0
 11
1745.287641258175
 21
1541.86154046152
 31
0.0
  0
LINE
  5
7FB8
330
8139
100
AcDbEntity
  8
0
  6
ByBlock
 62
     0
100
AcDbLine
 10
2995.287641258176
 20
1716.435029840879
 30
0.0
 11
2995.287641258176
 21
1541.86154046152
 31
0.0
  0
LINE
  5
7FB9
330
8139
100
AcDbEntity
  8
0
  6
ByBlock
 62
     0
100
AcDbLine
 10
1795.287641258175
 20
1566.861540461521
 30
0.0
 11
2945.287641258175
 21
1566.861540461521
 31
0.0
  0
INSERT
  5
7FBA
330
8139
100
AcDbEntity
  8
0
  6
ByBlock
 62
     0
100
AcDbBlockReference
  2
_OPEN
 10
1745.287641258175
 20
1566.861540461521
 30
0.0
 41
50.0
 42
50.0
 43
50.0
 50
180.0
  0
INSERT
  5
7FBB
330
8139
100
AcDbEntity
  8
0
  6
ByBlock
 62
     0
100
AcDbBlockReference
  2
_OPEN
 10
2995.287641258176
 20
1566.861540461521
 30
0.0
 41
50.0
 42
50.0
 43
50.0
  0
TEXT
  5
7FBC
330
8139
100
AcDbEntity
  8
3
 62
     0
100
AcDbText
 10
2245.287641258176
 20
1591.861540461521
 30
0.0
 40
75.0
  1
1250
100
AcDbText
  0
POINT
  5
7FBD
330
8139
100
AcDbEntity
  8
DEFPOINTS
  6
ByBlock
 62
     0
100
AcDbPoint
 10
1745.287641258175
 20
1741.435029840879
 30
0.0
  0
POINT
  5
7FBE
330
8139
100
AcDbEntity
  8
DEFPOINTS
  6
ByBlock
 62
     0
100
AcDbPoint
 10
2995.287641258176
 20
1741.435029840879
 30
0.0
  0
POINT
  5
7FBF
330
8139
100
AcDbEntity
  8
DEFPOINTS
  6
ByBlock
 62
     0
100
AcDbPoint
 10
2995.287641258176
 20
1566.861540461521
 30
0.0
  0
ENDBLK
  5
7FC0
330
8139
100
AcDbEntity
  8
0
100
AcDbBlockEnd
  0
BLOCK
  5
813C
330
813B
100
AcDbEntity
  8
0
100
AcDbBlockBegin
  2
*D24
 70
     1
 10
0.0
 20
0.0
 30
0.0
  3
*D24
  1

  0
LINE
  5
7FC4
330
813B
100
AcDbEntity
  8
0
  6
ByBlock
 62
     0
100
AcDbLine
 10
3512.249582193797
 20
1716.435029840879
 30
0.0
 11
3512.249582193797
 21
1541.86154046152
 31
0.0
  0
LINE
  5
7FC5
330
813B
100
AcDbEntity
  8
0
  6
ByBlock
 62
     0
100
AcDbLine
 10
4214.249582193797
 20
1716.435029840878
 30
0.0
 11
4214.249582193797
 21
1541.86154046152
 31
0.0
  0
LINE
  5
7FC6
330
813B
100
AcDbEntity
  8
0
  6
ByBlock
 62
     0
100
AcDbLine
 10
3562.249582193797
 20
1566.861540461521
 30
0.0
 11
4164.249582193797
 21
1566.861540461521
 31
0.0
  0
INSERT
  5
7FC7
330
813B
100
AcDbEntity
  8
0
  6
ByBlock
 62
     0
100
AcDbBlockReference
  2
_OPEN
 10
3512.249582193797
 20
1566.861540461521
 30
0.0
 41
50.0
 42
50.0
 43
50.0
 50
180.0
  0
INSERT
  5
7FC8
330
813B
100
AcDbEntity
  8
0
  6
ByBlock
 62
     0
100
AcDbBlockReference
  2
_OPEN
 10
4214.249582193797
 20
1566.861540461521
 30
0.0
 41
50.0
 42
50.0
 43
50.0
  0
TEXT
  5
7FC9
330
813B
100
AcDbEntity
  8
3
 62
     0
100
AcDbText
 10
3766.821010765226
 20
1591.861540461521
 30
0.0
 40
75.0
  1
702
100
AcDbText
  0
POINT
  5
7FCA
330
813B
100
AcDbEntity
  8
DEFPOINTS
  6
ByBlock
 62
     0
100
AcDbPoint
 10
3512.249582193797
 20
1741.435029840879
 30
0.0
  0
POINT
  5
7FCB
330
813B
100
AcDbEntity
  8
DEFPOINTS
  6
ByBlock
 62
     0
100
AcDbPoint
 10
4214.249582193797
 20
1741.435029840878
 30
0.0
  0
POINT
  5
7FCC
330
813B
100
AcDbEntity
  8
DEFPOINTS
  6
ByBlock
 62
     0
100
AcDbPoint
 10
4214.249582193797
 20
1566.861540461521
 30
0.0
  0
ENDBLK
  5
7FCD
330
813B
100
AcDbEntity
  8
0
100
AcDbBlockEnd
  0
BLOCK
  5
813E
330
813D
100
AcDbEntity
  8
0
100
AcDbBlockBegin
  2
*D25
 70
     1
 10
0.0
 20
0.0
 30
0.0
  3
*D25
  1

  0
LINE
  5
7FD1
330
813D
100
AcDbEntity
  8
0
  6
ByBlock
 62
     0
100
AcDbLine
 10
4214.249582193797
 20
1716.435029840878
 30
0.0
 11
4214.249582193797
 21
1541.86154046152
 31
0.0
  0
LINE
  5
7FD2
330
813D
100
AcDbEntity
  8
0
  6
ByBlock
 62
     0
100
AcDbLine
 10
4767.249582193797
 20
1716.435029840879
 30
0.0
 11
4767.249582193797
 21
1541.86154046152
 31
0.0
  0
LINE
  5
7FD3
330
813D
100
AcDbEntity
  8
0
  6
ByBlock
 62
     0
100
AcDbLine
 10
4264.249582193797
 20
1566.861540461521
 30
0.0
 11
4717.249582193796
 21
1566.861540461521
 31
0.0
  0
INSERT
  5
7FD4
330
813D
100
AcDbEntity
  8
0
  6
ByBlock
 62
     0
100
AcDbBlockReference
  2
_OPEN
 10
4214.249582193797
 20
1566.861540461521
 30
0.0
 41
50.0
 42
50.0
 43
50.0
 50
180.0
  0
INSERT
  5
7FD5
330
813D
100
AcDbEntity
  8
0
  6
ByBlock
 62
     0
100
AcDbBlockReference
  2
_OPEN
 10
4767.249582193797
 20
1566.861540461521
 30
0.0
 41
50.0
 42
50.0
 43
50.0
  0
TEXT
  5
7FD6
330
813D
100
AcDbEntity
  8
3
 62
     0
100
AcDbText
 10
4394.321010765224
 20
1591.861540461521
 30
0.0
 40
75.0
  1
553
100
AcDbText
  0
POINT
  5
7FD7
330
813D
100
AcDbEntity
  8
DEFPOINTS
  6
ByBlock
 62
     0
100
AcDbPoint
 10
4214.249582193797
 20
1741.435029840878
 30
0.0
  0
POINT
  5
7FD8
330
813D
100
AcDbEntity
  8
DEFPOINTS
  6
ByBlock
 62
     0
100
AcDbPoint
 10
4767.249582193797
 20
1741.435029840879
 30
0.0
  0
POINT
  5
7FD9
330
813D
100
AcDbEntity
  8
DEFPOINTS
  6
ByBlock
 62
     0
100
AcDbPoint
 10
4767.249582193797
 20
1566.861540461521
 30
0.0
  0
ENDBLK
  5
7FDA
330
813D
100
AcDbEntity
  8
0
100
AcDbBlockEnd
  0
BLOCK
  5
8140
330
813F
100
AcDbEntity
  8
0
100
AcDbBlockBegin
  2
_NONE
 70
     0
 10
0.0
 20
0.0
 30
0.0
  3
_NONE
  1

  0
CIRCLE
  5
7FDE
330
813F
100
AcDbEntity
  8
0
  6
ByBlock
 62
     0
100
AcDbCircle
 10
0.0
 20
0.0
 30
0.0
 40
0.25
  0
ENDBLK
  5
7FDF
330
813F
100
AcDbEntity
  8
0
100
AcDbBlockEnd
  0
BLOCK
  5
8142
330
8141
100
AcDbEntity
  8
0
100
AcDbBlockBegin
  2
*D27
 70
     1
 10
0.0
 20
0.0
 30
0.0
  3
*D27
  1

  0
LINE
  5
7FE2
330
8141
100
AcDbEntity
  8
0
  6
ByBlock
 62
     0
100
AcDbLine
 10
745.9156716671242
 20
1841.435029840879
 30
0.0
 11
745.9156716671242
 21
1841.435029840879
 31
0.0
  0
LINE
  5
7FE3
330
8141
100
AcDbEntity
  8
0
  6
ByBlock
 62
     0
100
AcDbLine
 10
745.9156716671242
 20
1868.435029840878
 30
0.0
 11
745.9156716671242
 21
1968.435029840878
 31
0.0
  0
TEXT
  5
7FE4
330
8141
100
AcDbEntity
  8
3
 62
     0
100
AcDbText
 10
651.272814524267
 20
1746.006458412307
 30
0.0
 40
75.0
  1
(27)
 50
90.0
100
AcDbText
  0
LINE
  5
7FE5
330
8141
100
AcDbEntity
  8
0
  6
ByBlock
 62
     0
100
AcDbLine
 10
745.9156716671242
 20
1841.435029840879
 30
0.0
 11
745.9156716671242
 21
1868.435029840878
 31
0.0
  0
POINT
  5
7FE6
330
8141
100
AcDbEntity
  8
DEFPOINTS
  6
ByBlock
 62
     0
100
AcDbPoint
 10
1245.287641258175
 20
1841.435029840879
 30
0.0
  0
POINT
  5
7FE7
330
8141
100
AcDbEntity
  8
DEFPOINTS
  6
ByBlock
 62
     0
100
AcDbPoint
 10
1245.287641258175
 20
1868.435029840878
 30
0.0
  0
POINT
  5
7FE8
330
8141
100
AcDbEntity
  8
DEFPOINTS
  6
ByBlock
 62
     0
100
AcDbPoint
 10
745.9156716671242
 20
1868.435029840878
 30
0.0
  0
ENDBLK
  5
7FE9
330
8141
100
AcDbEntity
  8
0
100
AcDbBlockEnd
  0
BLOCK
  5
8144
330
8143
100
AcDbEntity
  8
0
100
AcDbBlockBegin
  2
*D28
 70
     1
 10
0.0
 20
0.0
 30
0.0
  3
*D28
  1

  0
LINE
  5
7FED
330
8143
100
AcDbEntity
  8
0
  6
ByBlock
 62
     0
100
AcDbLine
 10
1220.287641258176
 20
1741.435029840879
 30
0.0
 11
489.6197332755872
 21
1741.435029840879
 31
0.0
  0
LINE
  5
7FEE
330
8143
100
AcDbEntity
  8
0
  6
ByBlock
 62
     0
100
AcDbLine
 10
1754.287641258176
 20
3396.435029840878
 30
0.0
 11
489.6197332755872
 21
3396.435029840878
 31
0.0
  0
LINE
  5
7FEF
330
8143
100
AcDbEntity
  8
0
  6
ByBlock
 62
     0
100
AcDbLine
 10
514.6197332755873
 20
1791.435029840879
 30
0.0
 11
514.6197332755873
 21
3346.435029840878
 31
0.0
  0
INSERT
  5
7FF0
330
8143
100
AcDbEntity
  8
0
  6
ByBlock
 62
     0
100
AcDbBlockReference
  2
_OPEN
 10
514.6197332755873
 20
1741.435029840879
 30
0.0
 41
50.0
 42
50.0
 43
50.0
 50
270.0
  0
INSERT
  5
7FF1
330
8143
100
AcDbEntity
  8
0
  6
ByBlock
 62
     0
100
AcDbBlockReference
  2
_OPEN
 10
514.6197332755873
 20
3396.435029840878
 30
0.0
 41
50.0
 42
50.0
 43
50.0
 50
90.0
  0
TEXT
  5
7FF2
330
8143
100
AcDbEntity
  8
3
 62
     0
100
AcDbText
 10
457.4768761327302
 20
2395.720744126593
 30
0.0
 40
75.0
  1
(1655)
 50
90.0
100
AcDbText
  0
POINT
  5
7FF3
330
8143
100
AcDbEntity
  8
DEFPOINTS
  6
ByBlock
 62
     0
100
AcDbPoint
 10
1245.287641258175
 20
1741.435029840879
 30
0.0
  0
POINT
  5
7FF4
330
8143
100
AcDbEntity
  8
DEFPOINTS
  6
ByBlock
 62
     0
100
AcDbPoint
 10
1779.287641258175
 20
3396.435029840878
 30
0.0
  0
POINT
  5
7FF5
330
8143
100
AcDbEntity
  8
DEFPOINTS
  6
ByBlock
 62
     0
100
AcDbPoint
 10
514.6197332755873
 20
3396.435029840878
 30
0.0
  0
ENDBLK
  5
7FF6
330
8143
100
AcDbEntity
  8
0
100
AcDbBlockEnd
  0
BLOCK
  5
81C9
330
81C8
100
AcDbEntity
  8
0
100
AcDbBlockBegin
  2
*D30
 70
     1
 10
0.0
 20
0.0
 30
0.0
  3
*D30
  1

  0
LINE
  5
821A
330
81C8
100
AcDbEntity
  8
3
 62
     0
370
    -2
100
AcDbLine
 10
3314.249582193797
 20
3073.435029840878
 30
0.0
 11
3314.249582193797
 21
3705.806892383786
 31
0.0
  0
LINE
  5
821B
330
81C8
100
AcDbEntity
  8
3
 62
     0
370
    -2
100
AcDbLine
 10
4214.249582193797
 20
3630.940210206699
 30
0.0
 11
4214.249582193797
 21
3705.806892383786
 31
0.0
  0
LINE
  5
821C
330
81C8
100
AcDbEntity
  8
3
 62
     0
370
    -2
100
AcDbLine
 10
3364.249582193797
 20
3680.806892383786
 30
0.0
 11
4164.249582193797
 21
3680.806892383786
 31
0.0
  0
INSERT
  5
821D
330
81C8
100
AcDbEntity
  8
3
 62
     0
370
    -2
100
AcDbBlockReference
  2
_OPEN
 10
3314.249582193797
 20
3680.806892383786
 30
0.0
 41
50.0
 42
50.0
 43
50.0
 50
180.0
  0
INSERT
  5
821E
330
81C8
100
AcDbEntity
  8
3
 62
     0
370
    -2
100
AcDbBlockReference
  2
_OPEN
 10
4214.249582193797
 20
3680.806892383786
 30
0.0
 41
50.0
 42
50.0
 43
50.0
  0
MTEXT
  5
821F
330
81C8
100
AcDbEntity
  8
3
 62
     0
100
AcDbMText
 10
3764.249582193798
 20
3762.949749526643
 30
0.0
 40
75.0
 41
0.0
 71
     5
 72
     1
  1
\A1;(900)
 73
     1
 44
1.0
1001
ACAD
1000
MTEXTBEGIN
1070
    73
1070
     1
1070
    44
1040
1.0
1070
    74
1070
     0
1000
MTEXTEND
  0
POINT
  5
8220
330
81C8
100
AcDbEntity
  8
DEFPOINTS
 62
     0
100
AcDbPoint
 10
3314.249582193797
 20
3048.435029840878
 30
0.0
  0
POINT
  5
8221
330
81C8
100
AcDbEntity
  8
DEFPOINTS
 62
     0
100
AcDbPoint
 10
4214.249582193797
 20
3605.940210206699
 30
0.0
  0
POINT
  5
8222
330
81C8
100
AcDbEntity
  8
DEFPOINTS
 62
     0
100
AcDbPoint
 10
4214.249582193797
 20
3680.806892383786
 30
0.0
  0
ENDBLK
  5
81CA
330
81C8
100
AcDbEntity
  8
0
100
AcDbBlockEnd
  0
BLOCK
  5
81D6
330
81D5
100
AcDbEntity
  8
0
100
AcDbBlockBegin
  2
*D31
 70
     1
 10
0.0
 20
0.0
 30
0.0
  3
*D31
  1

  0
LINE
  5
8223
330
81D5
100
AcDbEntity
  8
3
 62
     0
370
    -2
100
AcDbLine
 10
4214.249582193797
 20
3630.940210206699
 30
0.0
 11
4214.249582193797
 21
3705.806892383786
 31
0.0
  0
LINE
  5
8224
330
81D5
100
AcDbEntity
  8
3
 62
     0
370
    -2
100
AcDbLine
 10
4824.249582193799
 20
2813.935029840878
 30
0.0
 11
4824.249582193799
 21
3705.806892383786
 31
0.0
  0
LINE
  5
8225
330
81D5
100
AcDbEntity
  8
3
 62
     0
370
    -2
100
AcDbLine
 10
4264.249582193797
 20
3680.806892383786
 30
0.0
 11
4774.249582193799
 21
3680.806892383786
 31
0.0
  0
INSERT
  5
8226
330
81D5
100
AcDbEntity
  8
3
 62
     0
370
    -2
100
AcDbBlockReference
  2
_OPEN
 10
4214.249582193797
 20
3680.806892383786
 30
0.0
 41
50.0
 42
50.0
 43
50.0
 50
180.0
  0
INSERT
  5
8227
330
81D5
100
AcDbEntity
  8
3
 62
     0
370
    -2
100
AcDbBlockReference
  2
_OPEN
 10
4824.249582193799
 20
3680.806892383786
 30
0.0
 41
50.0
 42
50.0
 43
50.0
  0
MTEXT
  5
8228
330
81D5
100
AcDbEntity
  8
3
 62
     0
100
AcDbMText
 10
4519.249582193798
 20
3762.949749526643
 30
0.0
 40
75.0
 41
0.0
 71
     5
 72
     1
  1
\A1;(610)
 73
     1
 44
1.0
1001
ACAD
1000
MTEXTBEGIN
1070
    73
1070
     1
1070
    44
1040
1.0
1070
    74
1070
     0
1000
MTEXTEND
  0
POINT
  5
8229
330
81D5
100
AcDbEntity
  8
DEFPOINTS
 62
     0
100
AcDbPoint
 10
4214.249582193797
 20
3605.940210206699
 30
0.0
  0
POINT
  5
822A
330
81D5
100
AcDbEntity
  8
DEFPOINTS
 62
     0
100
AcDbPoint
 10
4824.249582193799
 20
2788.935029840879
 30
0.0
  0
POINT
  5
822B
330
81D5
100
AcDbEntity
  8
DEFPOINTS
 62
     0
100
AcDbPoint
 10
4824.249582193799
 20
3680.806892383786
 30
0.0
  0
ENDBLK
  5
81D7
330
81D5
100
AcDbEntity
  8
0
100
AcDbBlockEnd
  0
BLOCK
  5
822E
330
822D
100
AcDbEntity
  8
0
100
AcDbBlockBegin
  2
*D32
 70
     1
 10
0.0
 20
0.0
 30
0.0
  3
*D32
  1

  0
LINE
  5
8230
330
822D
100
AcDbEntity
  8
3
 62
     0
370
    -2
100
AcDbLine
 10
1245.287641258175
 20
4197.904731816339
 30
0.0
 11
1245.287641258175
 21
3852.270619084644
 31
0.0
  0
LINE
  5
8231
330
822D
100
AcDbEntity
  8
3
 62
     0
370
    -2
100
AcDbLine
 10
2995.287641258175
 20
4197.904731816339
 30
0.0
 11
2995.287641258175
 21
3852.270619084644
 31
0.0
  0
LINE
  5
8232
330
822D
100
AcDbEntity
  8
3
 62
     0
370
    -2
100
AcDbLine
 10
1295.287641258175
 20
3877.270619084644
 30
0.0
 11
2945.287641258175
 21
3877.270619084644
 31
0.0
  0
INSERT
  5
8233
330
822D
100
AcDbEntity
  8
3
 62
     0
370
    -2
100
AcDbBlockReference
  2
_OPEN
 10
1245.287641258175
 20
3877.270619084644
 30
0.0
 41
50.0
 42
50.0
 43
50.0
 50
180.0
  0
INSERT
  5
8234
330
822D
100
AcDbEntity
  8
3
 62
     0
370
    -2
100
AcDbBlockReference
  2
_OPEN
 10
2995.287641258175
 20
3877.270619084644
 30
0.0
 41
50.0
 42
50.0
 43
50.0
  0
MTEXT
  5
8235
330
822D
100
AcDbEntity
  8
3
 62
     0
100
AcDbMText
 10
2120.287641258175
 20
3939.770619084644
 30
0.0
 40
75.0
 41
0.0
 71
     5
 72
     1
  1
\A1;1750
 73
     1
 44
1.0
1001
ACAD
1000
MTEXTBEGIN
1070
    73
1070
     1
1070
    44
1040
1.0
1070
    74
1070
     0
1000
MTEXTEND
  0
POINT
  5
8236
330
822D
100
AcDbEntity
  8
DEFPOINTS
 62
     0
100
AcDbPoint
 10
1245.287641258175
 20
4222.904731816339
 30
0.0
  0
POINT
  5
8237
330
822D
100
AcDbEntity
  8
DEFPOINTS
 62
     0
100
AcDbPoint
 10
2995.287641258175
 20
4222.904731816339
 30
0.0
  0
POINT
  5
8238
330
822D
100
AcDbEntity
  8
DEFPOINTS
 62
     0
100
AcDbPoint
 10
2995.287641258175
 20
3877.270619084644
 30
0.0
  0
ENDBLK
  5
822F
330
822D
100
AcDbEntity
  8
0
100
AcDbBlockEnd
  0
BLOCK
  5
824B
330
824A
100
AcDbEntity
  8
0
100
AcDbBlockBegin
  2
*D33
 70
     1
 10
0.0
 20
0.0
 30
0.0
  3
*D33
  1

  0
LINE
  5
8256
330
824A
100
AcDbEntity
  8
3
 62
     0
370
    -2
100
AcDbLine
 10
1745.287641258175
 20
3510.45335055235
 30
0.0
 11
1745.287641258175
 21
3550.996801768198
 31
0.0
  0
LINE
  5
8257
330
824A
100
AcDbEntity
  8
3
 62
     0
370
    -2
100
AcDbLine
 10
2421.287641258175
 20
2794.435029840878
 30
0.0
 11
2421.287641258175
 21
3550.996801768198
 31
0.0
  0
LINE
  5
8258
330
824A
100
AcDbEntity
  8
3
 62
     0
370
    -2
100
AcDbLine
 10
1795.287641258175
 20
3525.996801768198
 30
0.0
 11
2371.287641258175
 21
3525.996801768198
 31
0.0
  0
INSERT
  5
8259
330
824A
100
AcDbEntity
  8
3
 62
     0
370
    -2
100
AcDbBlockReference
  2
_OPEN
 10
1745.287641258175
 20
3525.996801768198
 30
0.0
 41
50.0
 42
50.0
 43
50.0
 50
180.0
  0
INSERT
  5
825A
330
824A
100
AcDbEntity
  8
3
 62
     0
370
    -2
100
AcDbBlockReference
  2
_OPEN
 10
2421.287641258175
 20
3525.996801768198
 30
0.0
 41
50.0
 42
50.0
 43
50.0
  0
MTEXT
  5
825B
330
824A
100
AcDbEntity
  8
3
 62
     0
100
AcDbMText
 10
2083.287641258175
 20
3588.496801768198
 30
0.0
 40
75.0
 41
0.0
 71
     5
 72
     1
  1
\A1;676
 73
     1
 44
1.0
1001
ACAD
1000
MTEXTBEGIN
1070
    73
1070
     1
1070
    44
1040
1.0
1070
    74
1070
     0
1000
MTEXTEND
  0
POINT
  5
825C
330
824A
100
AcDbEntity
  8
DEFPOINTS
 62
     0
100
AcDbPoint
 10
1745.287641258175
 20
3485.45335055235
 30
0.0
  0
POINT
  5
825D
330
824A
100
AcDbEntity
  8
DEFPOINTS
 62
     0
100
AcDbPoint
 10
2421.287641258175
 20
2769.435029840878
 30
0.0
  0
POINT
  5
825E
330
824A
100
AcDbEntity
  8
DEFPOINTS
 62
     0
100
AcDbPoint
 10
2421.287641258175
 20
3525.996801768198
 30
0.0
  0
ENDBLK
  5
824C
330
824A
100
AcDbEntity
  8
0
100
AcDbBlockEnd
  0
BLOCK
  5
8261
330
8260
100
AcDbEntity
  8
0
100
AcDbBlockBegin
  2
*D34
 70
     1
 10
0.0
 20
0.0
 30
0.0
  3
*D34
  1

  0
LINE
  5
826C
330
8260
100
AcDbEntity
  8
3
 62
     0
370
    -2
100
AcDbLine
 10
1053.815849407785
 20
2828.435029840878
 30
0.0
 11
719.3671165282741
 21
2828.435029840879
 31
0.0
  0
LINE
  5
826D
330
8260
100
AcDbEntity
  8
3
 62
     0
370
    -2
100
AcDbLine
 10
1779.287641258175
 20
3386.435029840878
 30
0.0
 11
719.3671165282741
 21
3386.435029840879
 31
0.0
  0
LINE
  5
826E
330
8260
100
AcDbEntity
  8
3
 62
     0
370
    -2
100
AcDbLine
 10
744.3671165282741
 20
2878.435029840879
 30
0.0
 11
744.3671165282742
 21
3336.435029840879
 31
0.0
  0
INSERT
  5
826F
330
8260
100
AcDbEntity
  8
3
 62
     0
370
    -2
100
AcDbBlockReference
  2
_OPEN
 10
744.3671165282741
 20
2828.435029840879
 30
0.0
 41
50.0
 42
50.0
 43
50.0
 50
270.0
  0
INSERT
  5
8270
330
8260
100
AcDbEntity
  8
3
 62
     0
370
    -2
100
AcDbBlockReference
  2
_OPEN
 10
744.3671165282742
 20
3386.435029840879
 30
0.0
 41
50.0
 42
50.0
 43
50.0
 50
90.0
  0
MTEXT
  5
8271
330
8260
100
AcDbEntity
  8
3
 62
     0
100
AcDbMText
 10
681.8671165282736
 20
3107.435029840879
 30
0.0
 40
75.0
 41
0.0
 71
     5
 72
     1
  1
\A1;558
 11
0.0000000000000001
 21
1.0
 31
0.0
 73
     1
 44
1.0
1001
ACAD
1000
MTEXTBEGIN
1070
    73
1070
     1
1070
    44
1040
1.0
1070
    74
1070
     0
1000
MTEXTEND
  0
POINT
  5
8272
330
8260
100
AcDbEntity
  8
DEFPOINTS
 62
     0
100
AcDbPoint
 10
1078.815849407785
 20
2828.435029840878
 30
0.0
  0
POINT
  5
8273
330
8260
100
AcDbEntity
  8
DEFPOINTS
 62
     0
100
AcDbPoint
 10
1804.287641258175
 20
3386.435029840878
 30
0.0
  0
POINT
  5
8274
330
8260
100
AcDbEntity
  8
DEFPOINTS
 62
     0
100
AcDbPoint
 10
744.3671165282742
 20
3386.435029840879
 30
0.0
  0
ENDBLK
  5
8262
330
8260
100
AcDbEntity
  8
0
100
AcDbBlockEnd
  0
BLOCK
  5
8277
330
8276
100
AcDbEntity
  8
0
100
AcDbBlockBegin
  2
*D35
 70
     1
 10
0.0
 20
0.0
 30
0.0
  3
*D35
  1

  0
LINE
  5
8282
330
8276
100
AcDbEntity
  8
3
 62
     0
370
    -2
100
AcDbLine
 10
1053.815849407785
 20
2828.435029840878
 30
0.0
 11
720.9156716671245
 21
2828.435029840879
 31
0.0
  0
LINE
  5
8283
330
8276
100
AcDbEntity
  8
3
 62
     0
370
    -2
100
AcDbLine
 10
1220.287641258175
 20
1868.435029840878
 30
0.0
 11
720.9156716671242
 21
1868.435029840878
 31
0.0
  0
LINE
  5
8284
330
8276
100
AcDbEntity
  8
3
 62
     0
370
    -2
100
AcDbLine
 10
745.9156716671243
 20
2778.435029840879
 30
0.0
 11
745.9156716671242
 21
1918.435029840878
 31
0.0
  0
INSERT
  5
8285
330
8276
100
AcDbEntity
  8
3
 62
     0
370
    -2
100
AcDbBlockReference
  2
_OPEN
 10
745.9156716671245
 20
2828.435029840879
 30
0.0
 41
50.0
 42
50.0
 43
50.0
 50
90.0
  0
INSERT
  5
8286
330
8276
100
AcDbEntity
  8
3
 62
     0
370
    -2
100
AcDbBlockReference
  2
_OPEN
 10
745.9156716671242
 20
1868.435029840878
 30
0.0
 41
50.0
 42
50.0
 43
50.0
 50
270.0
  0
MTEXT
  5
8287
330
8276
100
AcDbEntity
  8
3
 62
     0
100
AcDbMText
 10
683.4156716671238
 20
2348.435029840878
 30
0.0
 40
75.0
 41
0.0
 71
     5
 72
     1
  1
\A1;960
 11
0.0000000000000001
 21
1.0
 31
0.0
 73
     1
 44
1.0
1001
ACAD
1000
MTEXTBEGIN
1070
    73
1070
     1
1070
    44
1040
1.0
1070
    74
1070
     0
1000
MTEXTEND
  0
POINT
  5
8288
330
8276
100
AcDbEntity
  8
DEFPOINTS
 62
     0
100
AcDbPoint
 10
1078.815849407785
 20
2828.435029840878
 30
0.0
  0
POINT
  5
8289
330
8276
100
AcDbEntity
  8
DEFPOINTS
 62
     0
100
AcDbPoint
 10
1245.287641258175
 20
1868.435029840878
 30
0.0
  0
POINT
  5
828A
330
8276
100
AcDbEntity
  8
DEFPOINTS
 62
     0
100
AcDbPoint
 10
745.9156716671242
 20
1868.435029840878
 30
0.0
  0
ENDBLK
  5
8278
330
8276
100
AcDbEntity
  8
0
100
AcDbBlockEnd
  0
BLOCK
  5
828D
330
828C
100
AcDbEntity
  8
0
100
AcDbBlockBegin
  2
*D36
 70
     1
 10
0.0
 20
0.0
 30
0.0
  3
*D36
  1

  0
LINE
  5
82A1
330
828C
100
AcDbEntity
  8
3
 62
     0
370
    -2
100
AcDbLine
 10
1779.287641258175
 20
3386.435029840878
 30
0.0
 11
471.4287118485739
 21
3386.435029840879
 31
0.0
  0
LINE
  5
82A2
330
828C
100
AcDbEntity
  8
3
 62
     0
370
    -2
100
AcDbLine
 10
1220.287641258175
 20
1741.435029840879
 30
0.0
 11
471.4287118485735
 21
1741.435029840879
 31
0.0
  0
LINE
  5
82A3
330
828C
100
AcDbEntity
  8
3
 62
     0
370
    -2
100
AcDbLine
 10
496.4287118485739
 20
3336.435029840879
 30
0.0
 11
496.4287118485735
 21
1791.435029840879
 31
0.0
  0
INSERT
  5
82A4
330
828C
100
AcDbEntity
  8
3
 62
     0
370
    -2
100
AcDbBlockReference
  2
_OPEN
 10
496.4287118485739
 20
3386.435029840879
 30
0.0
 41
50.0
 42
50.0
 43
50.0
 50
90.0
  0
INSERT
  5
82A5
330
828C
100
AcDbEntity
  8
3
 62
     0
370
    -2
100
AcDbBlockReference
  2
_OPEN
 10
496.4287118485735
 20
1741.435029840879
 30
0.0
 41
50.0
 42
50.0
 43
50.0
 50
270.0
  0
MTEXT
  5
82A6
330
828C
100
AcDbEntity
  8
3
 62
     0
100
AcDbMText
 10
414.2858547057161
 20
2563.935029840879
 30
0.0
 40
75.0
 41
0.0
 71
     5
 72
     1
  1
\A1;(1645)
 11
0.0000000000000001
 21
1.0
 31
0.0
 73
     1
 44
1.0
1001
ACAD
1000
MTEXTBEGIN
1070
    73
1070
     1
1070
    44
1040
1.0
1070
    74
1070
     0
1000
MTEXTEND
  0
POINT
  5
82A7
330
828C
100
AcDbEntity
  8
DEFPOINTS
 62
     0
100
AcDbPoint
 10
1804.287641258175
 20
3386.435029840878
 30
0.0
  0
POINT
  5
82A8
330
828C
100
AcDbEntity
  8
DEFPOINTS
 62
     0
100
AcDbPoint
 10
1245.287641258175
 20
1741.435029840879
 30
0.0
  0
POINT
  5
82A9
330
828C
100
AcDbEntity
  8
DEFPOINTS
 62
     0
100
AcDbPoint
 10
496.4287118485735
 20
1741.435029840879
 30
0.0
  0
ENDBLK
  5
828E
330
828C
100
AcDbEntity
  8
0
100
AcDbBlockEnd
  0
BLOCK
  5
82AC
330
82AB
100
AcDbEntity
  8
0
100
AcDbBlockBegin
  2
*D37
 70
     1
 10
0.0
 20
0.0
 30
0.0
  3
*D37
  1

  0
LINE
  5
82B7
330
82AB
100
AcDbEntity
  8
3
 62
     0
370
    -2
100
AcDbLine
 10
2245.287641258176
 20
5502.904731816339
 30
0.0
 11
2245.287641258176
 21
5654.028015367292
 31
0.0
  0
LINE
  5
82B8
330
82AB
100
AcDbEntity
  8
3
 62
     0
370
    -2
100
AcDbLine
 10
2995.287641258175
 20
4997.90473181634
 30
0.0
 11
2995.287641258175
 21
5654.028015367292
 31
0.0
  0
LINE
  5
82B9
330
82AB
100
AcDbEntity
  8
3
 62
     0
370
    -2
100
AcDbLine
 10
2295.287641258176
 20
5629.028015367293
 30
0.0
 11
2945.287641258175
 21
5629.028015367293
 31
0.0
  0
INSERT
  5
82BA
330
82AB
100
AcDbEntity
  8
3
 62
     0
370
    -2
100
AcDbBlockReference
  2
_OPEN
 10
2245.287641258176
 20
5629.028015367293
 30
0.0
 41
50.0
 42
50.0
 43
50.0
 50
180.0
  0
INSERT
  5
82BB
330
82AB
100
AcDbEntity
  8
3
 62
     0
370
    -2
100
AcDbBlockReference
  2
_OPEN
 10
2995.287641258175
 20
5629.028015367293
 30
0.0
 41
50.0
 42
50.0
 43
50.0
  0
MTEXT
  5
82BC
330
82AB
100
AcDbEntity
  8
3
 62
     0
100
AcDbMText
 10
2620.287641258176
 20
5691.528015367293
 30
0.0
 40
75.0
 41
0.0
 71
     5
 72
     1
  1
\A1;750
 73
     1
 44
1.0
1001
ACAD
1000
MTEXTBEGIN
1070
    73
1070
     1
1070
    44
1040
1.0
1070
    74
1070
     0
1000
MTEXTEND
  0
POINT
  5
82BD
330
82AB
100
AcDbEntity
  8
DEFPOINTS
 62
     0
100
AcDbPoint
 10
2245.287641258176
 20
5477.904731816339
 30
0.0
  0
POINT
  5
82BE
330
82AB
100
AcDbEntity
  8
DEFPOINTS
 62
     0
100
AcDbPoint
 10
2995.287641258175
 20
4972.904731816339
 30
0.0
  0
POINT
  5
82BF
330
82AB
100
AcDbEntity
  8
DEFPOINTS
 62
     0
100
AcDbPoint
 10
2995.287641258175
 20
5629.028015367293
 30
0.0
  0
ENDBLK
  5
82AD
330
82AB
100
AcDbEntity
  8
0
100
AcDbBlockEnd
  0
ENDSEC
  0
SECTION
  2
ENTITIES
  0
INSERT
  5
7C0C
330
80FB
100
AcDbEntity
  8
0
100
AcDbBlockReference
  2
YA_N
 10
6.0
 20
5.0
 30
0.0
  0
LINE
  5
7C0E
330
80FB
100
AcDbEntity
  8
2
100
AcDbLine
 10
1745.287641258175
 20
3485.45335055235
 30
0.0
 11
1745.287641258175
 21
1741.435029840879
 31
0.0
  0
LINE
  5
7C0F
330
80FB
100
AcDbEntity
  8
2
100
AcDbLine
 10
1078.815849407785
 20
2828.435029840878
 30
0.0
 11
2503.191218448212
 21
2828.435029840878
 31
0.0
  0
LINE
  5
7C1A
330
80FB
100
AcDbEntity
  8
1
100
AcDbLine
 10
2995.287641258176
 20
1741.435029840879
 30
0.0
 11
1245.287641258175
 21
1741.435029840879
 31
0.0
  0
LINE
  5
7C1B
330
80FB
100
AcDbEntity
  8
1
100
AcDbLine
 10
1245.287641258175
 20
1841.435029840879
 30
0.0
 11
1245.287641258175
 21
1741.435029840879
 31
0.0
  0
LINE
  5
7C1C
330
80FB
100
AcDbEntity
  8
1
100
AcDbLine
 10
2995.287641258176
 20
1841.435029840879
 30
0.0
 11
2995.287641258176
 21
1741.435029840879
 31
0.0
  0
LINE
  5
7C1D
330
80FB
100
AcDbEntity
  8
1
100
AcDbLine
 10
2545.287641258175
 20
2008.435029840878
 30
0.0
 11
2545.287641258175
 21
1968.435029840878
 31
0.0
  0
LINE
  5
7C1E
330
80FB
100
AcDbEntity
  8
1
100
AcDbLine
 10
4714.249582193798
 20
3396.435029840878
 30
0.0
 11
4714.249582193797
 21
2851.435029840878
 31
0.0
  0
LINE
  5
7C1F
330
80FB
100
AcDbEntity
  8
1
100
AcDbLine
 10
3512.249582193797
 20
1741.435029840879
 30
0.0
 11
4767.249582193797
 21
1741.435029840879
 31
0.0
  0
LINE
  5
7C20
330
80FB
100
AcDbEntity
  8
1
100
AcDbLine
 10
3512.249582193797
 20
1841.435029840879
 30
0.0
 11
3512.249582193797
 21
1741.435029840879
 31
0.0
  0
LINE
  5
7C21
330
80FB
100
AcDbEntity
  8
2
100
AcDbLine
 10
3324.931651640504
 20
2828.435029840878
 30
0.0
 11
4865.299428772996
 21
2828.435029840878
 31
0.0
  0
LINE
  5
7C22
330
80FB
100
AcDbEntity
  8
2
100
AcDbLine
 10
3324.931651640504
 20
2218.435029840878
 30
0.0
 11
4139.443032638628
 21
2218.435029840878
 31
0.0
  0
LINE
  5
7C23
330
80FB
100
AcDbEntity
  8
1
100
AcDbLine
 10
3446.249582193797
 20
2955.435029840878
 30
0.0
 11
3446.249582193797
 21
2701.435029840878
 31
0.0
  0
LINE
  5
7C24
330
80FB
100
AcDbEntity
  8
1
100
AcDbLine
 10
3314.249582193797
 20
3048.435029840878
 30
0.0
 11
3314.249582193797
 21
1998.435029840878
 31
0.0
  0
LINE
  5
7C25
330
80FB
100
AcDbEntity
  8
1
100
AcDbLine
 10
3314.249582193797
 20
3048.435029840878
 30
0.0
 11
3564.249582193797
 21
3048.435029840878
 31
0.0
  0
LINE
  5
7C26
330
80FB
100
AcDbEntity
  8
1
100
AcDbLine
 10
3564.249582193797
 20
3048.435029840878
 30
0.0
 11
3564.249582193797
 21
2998.435029840878
 31
0.0
  0
LINE
  5
7C27
330
80FB
100
AcDbEntity
  8
1
100
AcDbLine
 10
3564.249582193798
 20
2040.930807232216
 30
0.0
 11
3564.249582193798
 21
1998.435029840878
 31
0.0
  0
LINE
  5
7C28
330
80FB
100
AcDbEntity
  8
2
100
AcDbLine
 10
4214.249582193797
 20
3501.910675355758
 30
0.0
 11
4214.249582193797
 21
1741.435029840878
 31
0.0
  0
POINT
  5
7C29
330
80FB
100
AcDbEntity
  8
1
100
AcDbPoint
 10
1245.287641258175
 20
1868.435029840878
 30
0.0
  0
POINT
  5
7C2A
330
80FB
100
AcDbEntity
  8
1
100
AcDbPoint
 10
1245.287641258175
 20
1868.435029840878
 30
0.0
  0
POINT
  5
7C2B
330
80FB
100
AcDbEntity
  8
1
100
AcDbPoint
 10
1245.287641258175
 20
1868.435029840878
 30
0.0
  0
INSERT
  5
7C2E
330
80FB
100
AcDbEntity
  8
0
100
AcDbBlockReference
  2
YA_N
 10
-733.6448571667497
 20
-271.0302667023643
 30
0.0
 41
20.0
 42
20.0
 43
20.0
  0
DIMENSION
  5
7C31
330
80FB
100
AcDbEntity
  8
3
100
AcDbDimension
  2
*D5
 10
1051.942297716112
 20
2805.435029840878
 30
0.0
 11
1001.942297716112
 21
2392.935029840878
 31
0.0
 12
-66.00545712791426
 22
1266.547414431397
 32
0.0
 71
     5
 42
-1.0
  3
Standard
100
AcDbAlignedDimension
 13
1200.287641258175
 23
1980.435029840878
 33
0.0
 14
1200.287641258175
 24
2805.435029840878
 34
0.0
 50
90.0
100
AcDbRotatedDimension
1001
ACAD
1000
DSTYLE
1002
{
1070
    40
1040
25.0
1002
}
  0
DIMENSION
  5
7C32
330
80FB
100
AcDbEntity
  8
3
100
AcDbDimension
  2
*D6
 10
899.658895142309
 20
2828.435029840878
 30
0.0
 11
849.658895142309
 21
2404.435029840878
 31
0.0
 12
-66.00545712791426
 22
1266.547414431397
 32
0.0
 71
     5
 42
-1.0
  3
Standard
100
AcDbAlignedDimension
 13
1200.287641258175
 23
1980.435029840878
 33
0.0
 14
1078.815849407785
 24
2828.435029840878
 34
0.0
 50
90.0
100
AcDbRotatedDimension
1001
ACAD
1000
DSTYLE
1002
{
1070
    40
1040
25.0
1002
}
  0
LINE
  5
7C33
330
80FB
100
AcDbEntity
  8
1
100
AcDbLine
 10
2879.746541258177
 20
2128.123029840879
 30
0.0
 11
2899.287641258175
 21
2074.435029840878
 31
0.0
  0
LINE
  5
7C34
330
80FB
100
AcDbEntity
  8
1
100
AcDbLine
 10
2610.840841258176
 20
2128.156029840878
 30
0.0
 11
2591.287641258175
 21
2074.435029840878
 31
0.0
  0
ARC
  5
7C35
330
80FB
100
AcDbEntity
  8
1
100
AcDbCircle
 10
2745.287641258175
 20
2218.435029840878
 30
0.0
 40
162.0
100
AcDbArc
 50
326.1051229528019
 51
0.0
  0
ARC
  5
7C36
330
80FB
100
AcDbEntity
  8
1
100
AcDbCircle
 10
2745.287641258175
 20
2218.435029840878
 30
0.0
 40
162.0
100
AcDbArc
 50
0.0
 51
213.8949135395933
  0
LINE
  5
7C37
330
80FB
100
AcDbEntity
  8
2
100
AcDbLine
 10
2745.287641258175
 20
2396.884797928064
 30
0.0
 11
2745.287641258176
 21
1741.435029840879
 31
0.0
  0
LINE
  5
7C38
330
80FB
100
AcDbEntity
  8
1
100
AcDbLine
 10
2591.287641258175
 20
2058.435029840878
 30
0.0
 11
2591.287641258175
 21
2074.435029840878
 31
0.0
  0
LINE
  5
7C39
330
80FB
100
AcDbEntity
  8
1
100
AcDbLine
 10
2899.287641258175
 20
2058.435029840878
 30
0.0
 11
2899.287641258175
 21
2074.435029840878
 31
0.0
  0
LINE
  5
7C3A
330
80FB
100
AcDbEntity
  8
2
100
AcDbLine
 10
2557.177197195504
 20
2218.435029840878
 30
0.0
 11
2932.256002225533
 21
2218.435029840877
 31
0.0
  0
LINE
  5
7C3B
330
80FB
100
AcDbEntity
  8
1
100
AcDbLine
 10
2933.802284524215
 20
2058.435029840878
 30
0.0
 11
2556.532773643365
 21
2058.435029840877
 31
0.0
  0
LINE
  5
7C3C
330
80FB
100
AcDbEntity
  8
1
100
AcDbLine
 10
2543.287641258176
 20
2008.435029840878
 30
0.0
 11
2556.532773643365
 21
2058.435029840878
 31
0.0
  0
LINE
  5
7C3D
330
80FB
100
AcDbEntity
  8
1
100
AcDbLine
 10
2947.287641258176
 20
2008.435029840878
 30
0.0
 11
2933.802284524215
 21
2058.435029840878
 31
0.0
  0
CIRCLE
  5
7C3E
330
80FB
100
AcDbEntity
  8
1
100
AcDbCircle
 10
2745.287641258175
 20
2218.435029840878
 30
0.0
 40
110.0
  0
CIRCLE
  5
7C3F
330
80FB
100
AcDbEntity
  8
1
100
AcDbCircle
 10
1745.287641258175
 20
2828.435029840878
 30
0.0
 40
127.0
  0
LINE
  5
7C40
330
80FB
100
AcDbEntity
  8
1
100
AcDbLine
 10
3446.249582193797
 20
2955.435029840878
 30
0.0
 11
3531.249582193797
 21
2955.435029840878
 31
0.0
  0
LINE
  5
7C41
330
80FB
100
AcDbEntity
  8
1
100
AcDbLine
 10
3446.249582193797
 20
2701.435029840878
 30
0.0
 11
3531.249582193798
 21
2701.435029840878
 31
0.0
  0
LINE
  5
7C42
330
80FB
100
AcDbEntity
  8
1
100
AcDbLine
 10
3446.249582193798
 20
2328.435029840878
 30
0.0
 11
3531.249582193797
 21
2328.435029840878
 31
0.0
  0
LINE
  5
7C43
330
80FB
100
AcDbEntity
  8
1
100
AcDbLine
 10
3446.249582193797
 20
2108.435029840878
 30
0.0
 11
3531.249582193797
 21
2108.435029840878
 31
0.0
  0
LINE
  5
7C44
330
80FB
100
AcDbEntity
  8
1
100
AcDbLine
 10
3314.249582193797
 20
1998.435029840878
 30
0.0
 11
3564.249582193797
 21
1998.435029840878
 31
0.0
  0
LINE
  5
7C45
330
80FB
100
AcDbEntity
  8
1
100
AcDbLine
 10
3531.249582193797
 20
2955.435029840878
 30
0.0
 11
3531.249582193797
 21
2701.435029840878
 31
0.0
  0
INSERT
  5
7C46
330
80FB
100
AcDbEntity
  8
0
100
AcDbBlockReference
  2
YA_N
 10
-36.73462870802178
 20
301.6536876033205
 30
0.0
 41
20.0
 42
20.0
 43
20.0
  0
INSERT
  5
7C48
330
80FB
100
AcDbEntity
  8
0
100
AcDbBlockReference
  2
YA_N
 10
77.48489664613955
 20
225.3119777640749
 30
0.0
 41
20.0
 42
20.0
 43
20.0
  0
LINE
  5
7C4A
330
80FB
100
AcDbEntity
  8
1
100
AcDbLine
 10
3512.249582193796
 20
1841.435029840878
 30
0.0
 11
4767.249582193797
 21
1841.435029840879
 31
0.0
1001
ACAD
1000
ASC_BOUNDS
1002
{
1070
    19
1002
}
  0
LINE
  5
7C4B
330
80FB
100
AcDbEntity
  8
1
100
AcDbLine
 10
1245.287641258175
 20
1841.435029840879
 30
0.0
 11
2995.287641258176
 21
1841.435029840878
 31
0.0
1001
ACAD
1000
ASC_BOUNDS
1002
{
1070
    19
1005
0
1005
0
1002
}
  0
POINT
  5
7C4C
330
80FB
100
AcDbEntity
  8
1
100
AcDbPoint
 10
1245.287641258175
 20
1841.435029840879
 30
0.0
  0
POINT
  5
7C4D
330
80FB
100
AcDbEntity
  8
1
100
AcDbPoint
 10
1245.287641258175
 20
1741.435029840879
 30
0.0
  0
POINT
  5
7C4E
330
80FB
100
AcDbEntity
  8
1
100
AcDbPoint
 10
1245.287641258175
 20
1841.435029840879
 30
0.0
  0
POINT
  5
7C4F
330
80FB
100
AcDbEntity
  8
1
100
AcDbPoint
 10
1245.287641258175
 20
1868.435029840878
 30
0.0
  0
LINE
  5
7C50
330
80FB
100
AcDbEntity
  8
1
100
AcDbLine
 10
4767.249582193797
 20
1841.435029840879
 30
0.0
 11
4767.249582193797
 21
1741.435029840879
 31
0.0
  0
POINT
  5
7C52
330
80FB
100
AcDbEntity
  8
1
100
AcDbPoint
 10
1245.287641258175
 20
1841.435029840879
 30
0.0
  0
POINT
  5
7C53
330
80FB
100
AcDbEntity
  8
1
100
AcDbPoint
 10
1245.287641258175
 20
1741.435029840879
 30
0.0
  0
POINT
  5
7C54
330
80FB
100
AcDbEntity
  8
1
100
AcDbPoint
 10
1245.287641258175
 20
1841.435029840879
 30
0.0
  0
POINT
  5
7C55
330
80FB
100
AcDbEntity
  8
1
100
AcDbPoint
 10
1245.287641258175
 20
1868.435029840878
 30
0.0
  0
LINE
  5
7C56
330
80FB
100
AcDbEntity
  8
1
100
AcDbLine
 10
4214.249582193797
 20
3396.435029840878
 30
0.0
 11
4714.249582193797
 21
3396.435029840878
 31
0.0
  0
LINE
  5
7C57
330
80FB
100
AcDbEntity
  8
1
100
AcDbLine
 10
4714.249582193797
 20
2851.435029840878
 30
0.0
 11
4714.249582193797
 21
1980.435029840878
 31
0.0
  0
LINE
  5
7C58
330
80FB
100
AcDbEntity
  8
1
100
AcDbLine
 10
3714.249582193797
 20
2851.435029840878
 30
0.0
 11
3714.249582193798
 21
2380.435029840878
 31
0.0
  0
LINE
  5
7C59
330
80FB
100
AcDbEntity
  8
1
100
AcDbLine
 10
3714.249582193797
 20
3396.435029840878
 30
0.0
 11
3714.249582193798
 21
2851.435029840878
 31
0.0
  0
LINE
  5
7C5A
330
80FB
100
AcDbEntity
  8
1
100
AcDbLine
 10
4214.249582193797
 20
3396.435029840878
 30
0.0
 11
3714.249582193797
 21
3396.435029840878
 31
0.0
  0
LINE
  5
7C5B
330
80FB
100
AcDbEntity
  8
1
100
AcDbLine
 10
3576.249582193797
 20
2792.635029840877
 30
0.0
 11
3576.249582193797
 21
2662.635029840878
 31
0.0
  0
LINE
  5
7C5C
330
80FB
100
AcDbEntity
  8
1
100
AcDbLine
 10
3586.249582193797
 20
2802.635029840878
 30
0.0
 11
3714.249582193797
 21
2802.635029840878
 31
0.0
  0
LINE
  5
7C5D
330
80FB
100
AcDbEntity
  8
1
100
AcDbLine
 10
3586.249582193797
 20
2652.635029840879
 30
0.0
 11
3714.249582193797
 21
2652.635029840878
 31
0.0
  0
ARC
  5
7C5E
330
80FB
100
AcDbEntity
  8
1
100
AcDbCircle
 10
3586.249582193797
 20
2792.635029840877
 30
0.0
 40
10.0
100
AcDbArc
 50
90.0
 51
180.0
  0
ARC
  5
7C5F
330
80FB
100
AcDbEntity
  8
1
100
AcDbCircle
 10
3586.249582193797
 20
2662.635029840878
 30
0.0
 40
10.0
100
AcDbArc
 50
180.0
 51
270.0
  0
LINE
  5
7C60
330
80FB
100
AcDbEntity
  8
1
100
AcDbLine
 10
4824.249582193799
 20
2788.935029840879
 30
0.0
 11
4824.249582193799
 21
2688.935029840878
 31
0.0
  0
ARC
  5
7C61
330
80FB
100
AcDbEntity
  8
1
100
AcDbCircle
 10
4814.249582193799
 20
2688.935029840878
 30
0.0
 40
10.0
100
AcDbArc
 50
270.0
 51
0.0
  0
ARC
  5
7C62
330
80FB
100
AcDbEntity
  8
1
100
AcDbCircle
 10
4814.249582193799
 20
2788.935029840879
 30
0.0
 40
10.0
100
AcDbArc
 50
0.0
 51
90.0
  0
LINE
  5
7C63
330
80FB
100
AcDbEntity
  8
1
100
AcDbLine
 10
4714.249582193797
 20
2678.935029840878
 30
0.0
 11
4814.249582193799
 21
2678.935029840878
 31
0.0
  0
LINE
  5
7C64
330
80FB
100
AcDbEntity
  8
1
100
AcDbLine
 10
4714.249582193797
 20
2798.93502984088
 30
0.0
 11
4814.249582193799
 21
2798.935029840878
 31
0.0
  0
LINE
  5
7C65
330
80FB
100
AcDbEntity
  8
1
100
AcDbLine
 10
2945.287641258176
 20
2008.435029840878
 30
0.0
 11
2945.287641258176
 21
1968.435029840878
 31
0.0
  0
POINT
  5
7C66
330
80FB
100
AcDbEntity
  8
1
100
AcDbPoint
 10
4824.249582193799
 20
2788.935029840879
 30
0.0
  0
LINE
  5
7C67
330
80FB
100
AcDbEntity
  8
1
100
AcDbLine
 10
2995.287641258175
 20
4222.904731816339
 30
0.0
 11
1245.287641258175
 21
4222.904731816339
 31
0.0
  0
LINE
  5
7C68
330
80FB
100
AcDbEntity
  8
1
100
AcDbLine
 10
2245.287641258175
 20
5477.904731816339
 30
0.0
 11
1245.287641258175
 21
5477.904731816339
 31
0.0
  0
LINE
  5
7C69
330
80FB
100
AcDbEntity
  8
1
100
AcDbLine
 10
1245.287641258175
 20
5477.904731816339
 30
0.0
 11
1245.287641258175
 21
5424.904731816337
 31
0.0
  0
LINE
  5
7C6A
330
80FB
100
AcDbEntity
  8
1
100
AcDbLine
 10
2995.287641258175
 20
4972.904731816339
 30
0.0
 11
2995.287641258175
 21
4222.904731816339
 31
0.0
  0
LINE
  5
7C6B
330
80FB
100
AcDbEntity
  8
1
100
AcDbLine
 10
2245.287641258176
 20
5477.904731816339
 30
0.0
 11
2245.287641258176
 21
5424.904731816339
 31
0.0
  0
LINE
  5
7C6C
330
80FB
100
AcDbEntity
  8
1
100
AcDbLine
 10
2995.287641258175
 20
4972.904731816339
 30
0.0
 11
2428.947725011167
 21
4972.904731816339
 31
0.0
  0
LINE
  5
7C6D
330
80FB
100
AcDbEntity
  8
2
100
AcDbLine
 10
2479.013526400451
 20
4924.904731816339
 30
0.0
 11
1164.895272849744
 21
4924.904731816337
 31
0.0
  0
LINE
  5
7C6E
330
80FB
100
AcDbEntity
  8
2
100
AcDbLine
 10
1745.287641258177
 20
5510.888647353266
 30
0.0
 11
1745.287641258175
 21
3988.041080666202
 31
0.0
  0
LINE
  5
7C6F
330
80FB
100
AcDbEntity
  8
2
100
AcDbLine
 10
2745.287641258175
 20
4839.394721300283
 30
0.0
 11
2745.287641258175
 21
3988.041080666202
 31
0.0
  0
LINE
  5
7C72
330
80FB
100
AcDbEntity
  8
1
100
AcDbLine
 10
4767.249582193797
 20
1968.435029840878
 30
0.0
 11
4767.249582193797
 21
1868.435029840878
 31
0.0
  0
LINE
  5
7C73
330
80FB
100
AcDbEntity
  8
1
100
AcDbLine
 10
3512.249582193796
 20
1968.435029840878
 30
0.0
 11
4767.249582193797
 21
1968.435029840878
 31
0.0
1001
ACAD
1000
ASC_BOUNDS
1002
{
1070
    19
1002
}
  0
LINE
  5
7C74
330
80FB
100
AcDbEntity
  8
1
100
AcDbLine
 10
3512.249582193797
 20
1868.435029840878
 30
0.0
 11
4767.249582193797
 21
1868.435029840878
 31
0.0
  0
LINE
  5
7C75
330
80FB
100
AcDbEntity
  8
1
100
AcDbLine
 10
3512.249582193797
 20
1968.435029840878
 30
0.0
 11
3512.249582193797
 21
1868.435029840878
 31
0.0
  0
DIMENSION
  5
7C76
330
80FB
100
AcDbEntity
  8
3
100
AcDbDimension
  2
*D7
 10
5015.772993090774
 20
2403.435029840879
 30
0.0
 11
4965.772993090773
 21
2828.435029840878
 31
0.0
 12
-699.6579229188464
 22
1266.547414431397
 32
0.0
 71
     5
 42
-1.0
  3
Standard
100
AcDbAlignedDimension
 13
4716.549582193796
 23
3253.435029840878
 33
0.0
 14
4716.549582193796
 24
2403.435029840879
 34
0.0
 50
90.0
100
AcDbRotatedDimension
1001
ACAD
1000
DSTYLE
1002
{
1070
    40
1040
25.0
1070
     3
1000
\U+03C6<>
1002
}
  0
LINE
  5
7C77
330
80FB
100
AcDbEntity
  8
1
100
AcDbLine
 10
3531.249582193797
 20
2858.435029840878
 30
0.0
 11
3714.249582193798
 21
2858.435029840878
 31
0.0
  0
LINE
  5
7C78
330
80FB
100
AcDbEntity
  8
1
100
AcDbLine
 10
3531.249582193797
 20
2798.435029840879
 30
0.0
 11
3578.103417452029
 21
2798.435029840878
 31
0.0
  0
ARC
  5
7C7A
330
80FB
100
AcDbEntity
  8
1
100
AcDbCircle
 10
1745.287641258175
 20
2828.435029840878
 30
0.0
 40
220.0
100
AcDbArc
 50
76.50426671920421
 51
256.5042667192043
  0
ARC
  5
7C7B
330
80FB
100
AcDbEntity
  8
1
100
AcDbCircle
 10
2745.287641258176
 20
2218.435029840878
 30
0.0
 40
220.0
100
AcDbArc
 50
256.5042667192043
 51
76.50426671920415
  0
LINE
  5
7C7C
330
80FB
100
AcDbEntity
  8
1
100
AcDbLine
 10
1796.629690802746
 20
3042.360236276592
 30
0.0
 11
2796.629690802747
 21
2432.360236276592
 31
0.0
  0
LINE
  5
7C7D
330
80FB
100
AcDbEntity
  8
1
100
AcDbLine
 10
1776.963370976368
 20
2951.42140366668
 30
0.0
 11
2772.723312667634
 21
2324.95866071362
 31
0.0
  0
LINE
  5
7C7E
330
80FB
100
AcDbEntity
  8
1
100
AcDbLine
 10
1717.694740586881
 20
2704.46877704382
 30
0.0
 11
2721.388278472015
 21
2111.062684898544
 31
0.0
  0
LINE
  5
7C7F
330
80FB
100
AcDbEntity
  8
1
100
AcDbLine
 10
1693.945591713604
 20
2614.509823405164
 30
0.0
 11
2693.945591713605
 21
2004.509823405164
 31
0.0
  0
LINE
  5
7C80
330
80FB
100
AcDbEntity
  8
1
100
AcDbLine
 10
2995.287641258176
 20
1868.435029840878
 30
0.0
 11
1245.287641258175
 21
1868.435029840878
 31
0.0
  0
LINE
  5
7C81
330
80FB
100
AcDbEntity
  8
1
100
AcDbLine
 10
1245.287641258175
 20
1968.435029840878
 30
0.0
 11
2995.287641258176
 21
1968.435029840878
 31
0.0
1001
ACAD
1000
ASC_BOUNDS
1002
{
1070
    19
1005
0
1005
0
1002
}
  0
LINE
  5
7C82
330
80FB
100
AcDbEntity
  8
1
100
AcDbLine
 10
2995.287641258176
 20
1968.435029840878
 30
0.0
 11
2995.287641258176
 21
1868.435029840878
 31
0.0
  0
LINE
  5
7C83
330
80FB
100
AcDbEntity
  8
1
100
AcDbLine
 10
1245.287641258175
 20
1968.435029840878
 30
0.0
 11
1245.287641258175
 21
1868.435029840878
 31
0.0
  0
CIRCLE
  5
7C85
330
80FB
100
AcDbEntity
  8
1
100
AcDbCircle
 10
1745.287641258175
 20
2828.435029840878
 30
0.0
 40
425.0
  0
CIRCLE
  5
7C86
330
80FB
100
AcDbEntity
  8
1
100
AcDbCircle
 10
1745.287641258175
 20
2828.435029840878
 30
0.0
 40
465.0
  0
LINE
  5
7C87
330
80FB
100
AcDbEntity
  8
1
100
AcDbLine
 10
2543.287641258176
 20
2008.435029840878
 30
0.0
 11
2947.287641258176
 21
2008.435029840878
 31
0.0
  0
POINT
  5
7C89
330
80FB
100
AcDbEntity
  8
1
100
AcDbPoint
 10
1245.287641258175
 20
1841.435029840879
 30
0.0
  0
POINT
  5
7C8A
330
80FB
100
AcDbEntity
  8
1
100
AcDbPoint
 10
1245.287641258175
 20
1868.435029840878
 30
0.0
  0
LINE
  5
7C8B
330
80FB
100
AcDbEntity
  8
1
100
AcDbLine
 10
2428.947725011167
 20
5424.904731816339
 30
0.0
 11
1200.287641258177
 21
5424.904731816337
 31
0.0
  0
LINE
  5
7C8C
330
80FB
100
AcDbEntity
  8
1
100
AcDbLine
 10
2428.947725011167
 20
4424.904731816339
 30
0.0
 11
1200.287641258176
 21
4424.904731816337
 31
0.0
  0
LINE
  5
7C8D
330
80FB
100
AcDbEntity
  8
1
100
AcDbLine
 10
1200.287641258177
 20
5467.904731816339
 30
0.0
 11
1200.287641258175
 21
4381.904731816339
 31
0.0
  0
LINE
  5
7C8E
330
80FB
100
AcDbEntity
  8
1
100
AcDbLine
 10
2428.947725011167
 20
4424.904731816339
 30
0.0
 11
2428.947725011167
 21
5424.904731816339
 31
0.0
  0
LINE
  5
7C8F
330
80FB
100
AcDbEntity
  8
1
100
AcDbLine
 10
1203.287641258177
 20
5467.904731816339
 30
0.0
 11
1200.287641258177
 21
5467.904731816339
 31
0.0
  0
LINE
  5
7C90
330
80FB
100
AcDbEntity
  8
1
100
AcDbLine
 10
1203.287641258175
 20
4381.904731816337
 30
0.0
 11
1200.287641258176
 21
4381.904731816337
 31
0.0
  0
LINE
  5
7C91
330
80FB
100
AcDbEntity
  8
1
100
AcDbLine
 10
1240.287641258177
 20
5424.904731816337
 30
0.0
 11
1240.287641258175
 21
4424.904731816337
 31
0.0
  0
LINE
  5
7C92
330
80FB
100
AcDbEntity
  8
1
100
AcDbLine
 10
1203.287641258177
 20
5467.904731816339
 30
0.0
 11
1203.287641258175
 21
4381.904731816339
 31
0.0
  0
LINE
  5
7C93
330
80FB
100
AcDbEntity
  8
1
100
AcDbLine
 10
1245.287641258175
 20
4424.904731816337
 30
0.0
 11
1245.287641258175
 21
4222.904731816339
 31
0.0
  0
DIMENSION
  5
7C99
330
80FB
100
AcDbEntity
  8
3
100
AcDbDimension
  2
*D8
 10
1245.287641258175
 20
5629.028015367293
 30
0.0
 11
1745.287641258176
 21
5679.028015367292
 31
0.0
 12
-66.00545712791426
 22
923.5241595758397
 32
0.0
 71
     5
 42
-1.0
  3
Standard
100
AcDbAlignedDimension
 13
2245.287641258176
 23
5477.904731816339
 33
0.0
 14
1245.287641258175
 24
5477.904731816339
 34
0.0
100
AcDbRotatedDimension
1001
ACAD
1000
DSTYLE
1002
{
1070
    40
1040
25.0
1002
}
  0
DIMENSION
  5
7C9A
330
80FB
100
AcDbEntity
  8
3
100
AcDbDimension
  2
*D9
 10
1027.350913108286
 20
4222.904731816339
 30
0.0
 11
1027.350913108286
 21
4850.40473181634
 31
0.0
 12
-66.00545712791426
 22
923.5241595758397
 32
0.0
 70
   128
 71
     5
 42
-1.0
  3
Standard
100
AcDbAlignedDimension
 13
1245.287641258175
 23
5477.904731816339
 33
0.0
 14
1245.287641258175
 24
4222.904731816339
 34
0.0
 50
270.0
100
AcDbRotatedDimension
1001
ACAD
1000
DSTYLE
1002
{
1070
    40
1040
25.0
1002
}
  0
DIMENSION
  5
7C9B
330
80FB
100
AcDbEntity
  8
3
100
AcDbDimension
  2
*D10
 10
3147.44047038149
 20
4222.904731816339
 30
0.0
 11
3097.440470381489
 21
4597.904731816339
 31
0.0
 12
-66.00545712791426
 22
923.5241595758397
 32
0.0
 71
     5
 42
-1.0
  3
Standard
100
AcDbAlignedDimension
 13
2995.287641258175
 23
4972.904731816339
 33
0.0
 14
2995.287641258175
 24
4222.904731816339
 34
0.0
 50
270.0
100
AcDbRotatedDimension
1001
ACAD
1000
DSTYLE
1002
{
1070
    40
1040
25.0
1002
}
  0
LINE
  5
7C9C
330
80FB
100
AcDbEntity
  8
1
100
AcDbLine
 10
2855.287641258175
 20
4156.904731816341
 30
0.0
 11
2635.287641258175
 21
4156.904731816339
 31
0.0
  0
LINE
  5
7C9D
330
80FB
100
AcDbEntity
  8
1
100
AcDbLine
 10
2855.287641258175
 20
4241.904731816341
 30
0.0
 11
2635.287641258176
 21
4241.904731816341
 31
0.0
  0
LINE
  5
7C9E
330
80FB
100
AcDbEntity
  8
1
100
AcDbLine
 10
1618.287641258175
 20
4241.904731816339
 30
0.0
 11
1618.287641258175
 21
4156.904731816339
 31
0.0
  0
LINE
  5
7C9F
330
80FB
100
AcDbEntity
  8
1
100
AcDbLine
 10
1872.287641258175
 20
4241.904731816341
 30
0.0
 11
1872.287641258175
 21
4156.904731816339
 31
0.0
  0
LINE
  5
7CA0
330
80FB
100
AcDbEntity
  8
1
100
AcDbLine
 10
2635.287641258175
 20
4241.904731816341
 30
0.0
 11
2635.287641258175
 21
4156.904731816341
 31
0.0
  0
LINE
  5
7CA1
330
80FB
100
AcDbEntity
  8
1
100
AcDbLine
 10
2855.287641258175
 20
4241.904731816343
 30
0.0
 11
2855.287641258175
 21
4156.904731816341
 31
0.0
  0
LINE
  5
7CA2
330
80FB
100
AcDbEntity
  8
1
100
AcDbLine
 10
1872.287641258175
 20
4156.904731816339
 30
0.0
 11
1618.287641258175
 21
4156.904731816339
 31
0.0
  0
LINE
  5
7CA3
330
80FB
100
AcDbEntity
  8
1
100
AcDbLine
 10
1872.287641258175
 20
4241.904731816339
 30
0.0
 11
1618.287641258175
 21
4241.904731816339
 31
0.0
  0
LINE
  5
7CA4
330
80FB
100
AcDbEntity
  8
1
100
AcDbLine
 10
2965.287641258175
 20
4024.904731816339
 30
0.0
 11
1525.287641258175
 21
4024.904731816339
 31
0.0
  0
LINE
  5
7CA5
330
80FB
100
AcDbEntity
  8
1
100
AcDbLine
 10
1525.287641258175
 20
4271.90473181634
 30
0.0
 11
1525.287641258175
 21
4024.904731816339
 31
0.0
  0
LINE
  5
7CA6
330
80FB
100
AcDbEntity
  8
1
100
AcDbLine
 10
2965.287641258175
 20
4271.904731816341
 30
0.0
 11
2965.287641258175
 21
4024.904731816339
 31
0.0
  0
LINE
  5
7CA7
330
80FB
100
AcDbEntity
  8
1
100
AcDbLine
 10
2965.287641258175
 20
4271.904731816341
 30
0.0
 11
1525.287641258174
 21
4271.90473181634
 31
0.0
  0
POINT
  5
7CA9
330
80FB
100
AcDbEntity
  8
1
100
AcDbPoint
 10
4824.249582193799
 20
2788.935029840879
 30
0.0
  0
DIMENSION
  5
7CAA
330
80FB
100
AcDbEntity
  8
3
100
AcDbDimension
  2
*D12
 10
4714.249582193798
 20
3518.440210206699
 30
0.0
 11
4214.249582193797
 21
3568.440210206698
 31
0.0
 71
     5
 42
-1.0
  3
Standard
100
AcDbAlignedDimension
 13
3714.249582193797
 23
3396.435029840878
 33
0.0
 14
4714.249582193798
 24
3396.435029840878
 34
0.0
100
AcDbRotatedDimension
1001
ACAD
1000
DSTYLE
1002
{
1070
    40
1040
25.0
1002
}
  0
POINT
  5
7CAB
330
80FB
100
AcDbEntity
  8
1
100
AcDbPoint
 10
4824.249582193799
 20
2788.935029840879
 30
0.0
  0
POINT
  5
7CAC
330
80FB
100
AcDbEntity
  8
1
100
AcDbPoint
 10
3314.249582193797
 20
3048.435029840878
 30
0.0
  0
LINE
  5
7CAD
330
80FB
100
AcDbEntity
  8
1
100
AcDbLine
 10
2907.287641258175
 20
4811.404731816342
 30
0.0
 11
2583.287641258175
 21
4811.404731816339
 31
0.0
  0
LINE
  5
7CAE
330
80FB
100
AcDbEntity
  8
1
100
AcDbLine
 10
2907.287641258175
 20
4282.404731816341
 30
0.0
 11
2583.287641258175
 21
4282.404731816339
 31
0.0
  0
LINE
  5
7CAF
330
80FB
100
AcDbEntity
  8
1
100
AcDbLine
 10
2724.287641258175
 20
4282.404731816341
 30
0.0
 11
2724.287641258175
 21
4241.904731816341
 31
0.0
  0
LINE
  5
7CB0
330
80FB
100
AcDbEntity
  8
1
100
AcDbLine
 10
2766.287641258175
 20
4282.404731816341
 30
0.0
 11
2766.287641258175
 21
4241.904731816341
 31
0.0
  0
LINE
  5
7CB1
330
80FB
100
AcDbEntity
  8
1
100
AcDbLine
 10
2907.287641258175
 20
4811.404731816343
 30
0.0
 11
2907.287641258175
 21
4282.404731816341
 31
0.0
  0
LINE
  5
7CB2
330
80FB
100
AcDbEntity
  8
1
100
AcDbLine
 10
2583.287641258175
 20
4811.404731816339
 30
0.0
 11
2583.287641258175
 21
4282.404731816339
 31
0.0
  0
LINE
  5
7CB3
330
80FB
100
AcDbEntity
  8
1
100
AcDbLine
 10
4100.749582193794
 20
2056.435029840878
 30
0.0
 11
3571.749582193796
 21
2056.435029840878
 31
0.0
  0
LINE
  5
7CB4
330
80FB
100
AcDbEntity
  8
1
100
AcDbLine
 10
4100.749582193798
 20
2380.435029840878
 30
0.0
 11
3571.749582193799
 21
2380.435029840878
 31
0.0
  0
LINE
  5
7CB5
330
80FB
100
AcDbEntity
  8
1
100
AcDbLine
 10
3571.749582193798
 20
2380.435029840878
 30
0.0
 11
3571.749582193795
 21
2056.435029840878
 31
0.0
  0
LINE
  5
7CB6
330
80FB
100
AcDbEntity
  8
1
100
AcDbLine
 10
3571.749582193797
 20
2239.435029840878
 30
0.0
 11
3531.249582193798
 21
2239.435029840878
 31
0.0
  0
LINE
  5
7CB7
330
80FB
100
AcDbEntity
  8
1
100
AcDbLine
 10
3571.749582193797
 20
2197.435029840878
 30
0.0
 11
3531.249582193798
 21
2197.435029840878
 31
0.0
  0
LINE
  5
7CB8
330
80FB
100
AcDbEntity
  8
1
100
AcDbLine
 10
3531.249582193797
 20
2328.435029840878
 30
0.0
 11
3531.249582193797
 21
2108.435029840878
 31
0.0
  0
LINE
  5
7CB9
330
80FB
100
AcDbEntity
  8
1
100
AcDbLine
 10
3446.249582193797
 20
2328.435029840878
 30
0.0
 11
3446.249582193797
 21
2108.435029840878
 31
0.0
  0
DIMENSION
  5
7CC0
330
80FB
100
AcDbEntity
  8
3
100
AcDbDimension
  2
*D16
 10
1745.287641258175
 20
3525.996801768199
 30
0.0
 11
1472.787641258176
 21
3575.996801768198
 31
0.0
 12
-66.00545712791426
 22
1266.547414431397
 32
0.0
 71
     5
 42
-1.0
  3
Standard
100
AcDbAlignedDimension
 13
1200.287641258176
 23
2847.935029840878
 33
0.0
 14
1745.287641258175
 24
3485.45335055235
 34
0.0
100
AcDbRotatedDimension
1001
ACAD
1000
DSTYLE
1002
{
1070
    40
1040
25.0
1002
}
  0
LINE
  5
7CC2
330
80FB
100
AcDbEntity
  8
1
100
AcDbLine
 10
4036.012020898634
 20
1980.435029840878
 30
0.0
 11
4714.249582193797
 21
1980.435029840878
 31
0.0
  0
DIMENSION
  5
7CC9
330
80FB
100
AcDbEntity
  8
3
100
AcDbDimension
  2
*D20
 10
744.3671165282737
 20
1741.435029840879
 30
0.0
 11
694.3671165282739
 21
1539.649315555164
 31
0.0
 12
-66.00545712791426
 22
1284.547414431397
 32
0.0
 71
     5
 42
-1.0
  3
Standard
100
AcDbAlignedDimension
 13
1245.287641258175
 23
1841.435029840879
 33
0.0
 14
1245.287641258175
 24
1741.435029840879
 34
0.0
 50
270.0
100
AcDbRotatedDimension
1001
ACAD
1000
DSTYLE
1002
{
1070
    40
1040
25.0
1070
     6
1000
_DOT
1002
}
  0
DIMENSION
  5
7CCB
330
80FB
100
AcDbEntity
  8
3
100
AcDbDimension
  2
*D21
 10
2995.287641258176
 20
3670.97451821016
 30
0.0
 11
2097.787641258176
 21
3720.97451821016
 31
0.0
 12
-66.00545712791426
 22
1266.547414431397
 32
0.0
 71
     5
 42
-1.0
  3
Standard
100
AcDbAlignedDimension
 13
1200.287641258176
 23
2847.935029840878
 33
0.0
 14
2995.287641258176
 24
1968.435029840878
 34
0.0
100
AcDbRotatedDimension
1001
ACAD
1000
DSTYLE
1002
{
1070
    40
1040
25.0
1002
}
  0
LINE
  5
7CCC
330
80FB
100
AcDbEntity
  8
1
100
AcDbLine
 10
4100.749582193798
 20
2380.435029840874
 30
0.0
 11
4100.749582193794
 21
2056.435029840874
 31
0.0
  0
LINE
  5
7CCD
330
80FB
100
AcDbEntity
  8
1
100
AcDbLine
 10
3659.977849953
 20
2008.435029840878
 30
0.0
 11
4036.012020898634
 21
2008.435029840878
 31
0.0
  0
LINE
  5
7CCE
330
80FB
100
AcDbEntity
  8
1
100
AcDbLine
 10
4036.012020898634
 20
2056.435029840878
 30
0.0
 11
4036.012020898634
 21
1968.435029840878
 31
0.0
  0
LINE
  5
7CCF
330
80FB
100
AcDbEntity
  8
1
100
AcDbLine
 10
3659.977849953
 20
2056.435029840878
 30
0.0
 11
3659.977849953
 21
1968.435029840878
 31
0.0
  0
LINE
  5
7F0D
330
80FB
100
AcDbEntity
  8
4
100
AcDbLine
 10
4625.0
 20
1250.0
 30
0.0
 11
4625.0
 21
750.0
 31
0.0
  0
LINE
  5
7F0E
330
80FB
100
AcDbEntity
  8
4
100
AcDbLine
 10
2875.0
 20
1250.0
 30
0.0
 11
2875.0
 21
750.0
 31
0.0
  0
LINE
  5
7F0F
330
80FB
100
AcDbEntity
  8
4
100
AcDbLine
 10
1625.0
 20
1250.0
 30
0.0
 11
1625.0
 21
750.0
 31
0.0
  0
LINE
  5
7F12
330
80FB
100
AcDbEntity
  8
4
100
AcDbLine
 10
1625.0
 20
750.0
 30
0.0
 11
4625.0
 21
750.0
 31
0.0
  0
LINE
  5
7F13
330
80FB
100
AcDbEntity
  8
4
100
AcDbLine
 10
1625.0
 20
1000.0
 30
0.0
 11
4625.0
 21
1000.0
 31
0.0
  0
TEXT
  5
7F14
330
80FB
100
AcDbEntity
  8
4
100
AcDbText
 10
1721.255202117253
 20
1078.857564666532
 30
0.0
 40
125.0
  1
機器名称
100
AcDbText
  0
TEXT
  5
7F15
330
80FB
100
AcDbEntity
  8
4
100
AcDbText
 10
1715.645265061993
 20
804.1128918300273
 30
0.0
 40
125.0
  1
機器型番
100
AcDbText
  0
TEXT
  5
7F16
330
80FB
100
AcDbEntity
  8
4
100
AcDbText
 10
2944.196863719162
 20
1056.429422393921
 30
0.0
 40
125.0
  1
ミツヤ多翼送風機
100
AcDbText
  0
TEXT
  5
7F17
330
80FB
100
AcDbEntity
  8
4
100
AcDbText
 10
2966.636238963701
 20
792.8989606998584
 30
0.0
 40
125.0
  1
MF#5-5
100
AcDbText
  0
TEXT
  5
7F19
330
80FB
100
AcDbEntity
  8
4
100
AcDbText
 10
2024.344742216864
 20
5958.572103331289
 30
0.0
 40
135.0
  1
床置防振ベット
100
AcDbText
  0
TEXT
  5
7F1A
330
80FB
100
AcDbEntity
  8
4
100
AcDbText
 10
790.4189833236158
 20
6334.702440498245
 30
0.0
 40
180.0
  1
遠心式両吸込両持多翼ファン
100
AcDbText
  0
LINE
  5
7F1B
330
80FB
100
AcDbEntity
  8
4
100
AcDbLine
 10
625.0
 20
6173.521885662012
 30
0.0
 11
4625.0
 21
6173.521885662012
 31
0.0
  0
LINE
  5
7F1C
330
80FB
100
AcDbEntity
  8
4
100
AcDbLine
 10
625.0
 20
6673.521885662011
 30
0.0
 11
4625.0
 21
6673.521885662011
 31
0.0
  0
LINE
  5
7F1D
330
80FB
100
AcDbEntity
  8
4
100
AcDbLine
 10
1625.0
 20
1250.0
 30
0.0
 11
4625.0
 21
1250.0
 31
0.0
  0
LINE
  5
7F1E
330
80FB
100
AcDbEntity
  8
4
100
AcDbLine
 10
625.0
 20
6673.521885662011
 30
0.0
 11
625.0
 21
6173.521885662012
 31
0.0
  0
TEXT
  5
7F1F
330
80FB
100
AcDbEntity
  8
4
100
AcDbText
 10
934.6976616101091
 20
5955.798693865858
 30
0.0
 40
135.0
  1
右回転左横向
100
AcDbText
  0
TEXT
  5
7F20
330
80FB
100
AcDbEntity
  8
4
100
AcDbText
 10
3672.423898123224
 20
6765.15270373827
 30
0.0
 40
140.0
  1
No.
100
AcDbText
  0
TEXT
  5
7F21
330
80FB
100
AcDbEntity
  8
4
100
AcDbText
 10
3278.240156500032
 20
5958.572103331289
 30
0.0
 40
135.0
  1
縮尺：1/25
100
AcDbText
  0
LINE
  5
7F22
330
80FB
100
AcDbEntity
  8
4
100
AcDbLine
 10
4625.0
 20
6673.521885662011
 30
0.0
 11
4625.0
 21
6173.521885662012
 31
0.0
  0
LINE
  5
7F23
330
80FB
100
AcDbEntity
  8
4
100
AcDbLine
 10
5250.0
 20
7375.0
 30
0.0
 11
5250.0
 21
7375.0
 31
0.0
  0
LINE
  5
7F24
330
80FB
100
AcDbEntity
  8
4
100
AcDbLine
 10
3601.543555899662
 20
6703.158957813504
 30
0.0
 11
3601.543555899662
 21
6966.630653874381
 31
0.0
  0
LINE
  5
7F25
330
80FB
100
AcDbEntity
  8
4
100
AcDbLine
 10
3601.543555899662
 20
6966.630653874381
 30
0.0
 11
4625.0
 21
6966.630653874381
 31
0.0
  0
LINE
  5
7F26
330
80FB
100
AcDbEntity
  8
4
100
AcDbLine
 10
4625.0
 20
6966.630653874381
 30
0.0
 11
4625.0
 21
6703.158957813504
 31
0.0
  0
LINE
  5
7F27
330
80FB
100
AcDbEntity
  8
4
100
AcDbLine
 10
4625.0
 20
6703.158957813504
 30
0.0
 11
3601.543555899662
 21
6703.158957813504
 31
0.0
  0
LINE
  5
7F28
330
80FB
100
AcDbEntity
  8
4
100
AcDbLine
 10
0.0
 20
0.0
 30
0.0
 11
0.0
 21
7375.0
 31
0.0
  0
LINE
  5
7F29
330
80FB
100
AcDbEntity
  8
4
100
AcDbLine
 10
0.0
 20
7375.0
 30
0.0
 11
5250.0
 21
7375.0
 31
0.0
  0
LINE
  5
7F2A
330
80FB
100
AcDbEntity
  8
4
100
AcDbLine
 10
5250.0
 20
7375.0
 30
0.0
 11
5250.0
 21
0.0
 31
0.0
  0
LINE
  5
7F2B
330
80FB
100
AcDbEntity
  8
4
100
AcDbLine
 10
5250.0
 20
0.0
 30
0.0
 11
0.0
 21
0.0
 31
0.0
  0
DIMENSION
  5
7FB4
330
80FB
100
AcDbEntity
  8
3
100
AcDbDimension
  2
*D22
 10
1745.287641258175
 20
1566.861540461521
 30
0.0
 11
1495.287641258175
 21
1629.36154046152
 31
0.0
 71
     5
 42
-1.0
  3
Standard
100
AcDbAlignedDimension
 13
1245.287641258175
 23
1741.435029840879
 33
0.0
 14
1745.287641258175
 24
1741.435029840879
 34
0.0
100
AcDbRotatedDimension
1001
ACAD
1000
DSTYLE
1002
{
1070
   172
1070
     1
1070
    40
1040
25.0
1070
    42
1040
1.0
1070
   271
1070
     0
1070
   143
1040
0.039
1002
}
  0
DIMENSION
  5
7FC1
330
80FB
100
AcDbEntity
  8
3
100
AcDbDimension
  2
*D23
 10
2995.287641258176
 20
1566.861540461521
 30
0.0
 11
2370.287641258176
 21
1629.36154046152
 31
0.0
 71
     5
 42
-1.0
  3
Standard
100
AcDbAlignedDimension
 13
1745.287641258175
 23
1741.435029840879
 33
0.0
 14
2995.287641258176
 24
1741.435029840879
 34
0.0
100
AcDbRotatedDimension
1001
ACAD
1000
DSTYLE
1002
{
1070
   172
1070
     1
1070
    40
1040
25.0
1070
    42
1040
1.0
1070
   271
1070
     0
1070
   143
1040
0.039
1002
}
  0
DIMENSION
  5
7FCE
330
80FB
100
AcDbEntity
  8
3
100
AcDbDimension
  2
*D24
 10
4214.249582193797
 20
1566.861540461521
 30
0.0
 11
3863.249582193797
 21
1629.36154046152
 31
0.0
 71
     5
 42
-1.0
  3
Standard
100
AcDbAlignedDimension
 13
3512.249582193797
 23
1741.435029840879
 33
0.0
 14
4214.249582193797
 24
1741.435029840878
 34
0.0
100
AcDbRotatedDimension
1001
ACAD
1000
DSTYLE
1002
{
1070
   172
1070
     1
1070
    40
1040
25.0
1070
    42
1040
1.0
1070
   271
1070
     0
1070
   143
1040
0.039
1002
}
  0
DIMENSION
  5
7FDB
330
80FB
100
AcDbEntity
  8
3
100
AcDbDimension
  2
*D25
 10
4767.249582193797
 20
1566.861540461521
 30
0.0
 11
4490.749582193797
 21
1629.36154046152
 31
0.0
 71
     5
 42
-1.0
  3
Standard
100
AcDbAlignedDimension
 13
4214.249582193797
 23
1741.435029840878
 33
0.0
 14
4767.249582193797
 24
1741.435029840879
 34
0.0
100
AcDbRotatedDimension
1001
ACAD
1000
DSTYLE
1002
{
1070
   172
1070
     1
1070
    40
1040
25.0
1070
    42
1040
1.0
1070
   271
1070
     0
1070
   143
1040
0.039
1002
}
  0
DIMENSION
  5
7FEA
330
80FB
100
AcDbEntity
  8
3
100
AcDbDimension
  2
*D27
 10
745.9156716671242
 20
1868.435029840878
 30
0.0
 11
626.272814524267
 21
1854.935029840879
 31
0.0
 71
     5
 42
-1.0
  3
Standard
100
AcDbAlignedDimension
 13
1245.287641258175
 23
1841.435029840879
 33
0.0
 14
1245.287641258175
 24
1868.435029840878
 34
0.0
 50
90.0
100
AcDbRotatedDimension
1001
ACAD
1000
DSTYLE
1002
{
1070
   172
1070
     1
1070
    76
1070
     1
1070
    75
1070
     1
1070
    40
1040
25.0
1070
     3
1000
(<>)
1070
    42
1040
1.0
1070
   271
1070
     0
1070
     7
1000
_NONE
1070
     6
1000
_NONE
1070
   143
1040
0.039
1002
}
  0
DIMENSION
  5
81C7
330
80FB
100
AcDbEntity
  8
3
100
AcDbDimension
  2
*D30
 10
4214.249582193797
 20
3680.806892383786
 30
0.0
 11
3764.249582193798
 21
3762.949749526643
 31
0.0
 70
    32
  1
(<>)
 71
     5
 42
900.0000000000005
  3
IGA
100
AcDbAlignedDimension
 13
3314.249582193797
 23
3048.435029840878
 33
0.0
 14
4214.249582193797
 24
3605.940210206699
 34
0.0
100
AcDbRotatedDimension
1001
ACAD
1000
DSTYLE
1002
{
1070
    40
1040
25.0
1070
    42
1040
1.0
1070
   143
1040
0.039
1070
   172
1070
     1
1070
   271
1070
     4
1070
   272
1070
     4
1070
   279
1070
     0
1070
   284
1070
     0
1070
   285
1070
     0
1070
   286
1070
     0
1070
   341
1005
810F
1070
   343
1005
810F
1070
   344
1005
810F
1002
}
  0
DIMENSION
  5
81D4
330
80FB
100
AcDbEntity
  8
3
100
AcDbDimension
  2
*D31
 10
4824.249582193799
 20
3680.806892383786
 30
0.0
 11
4519.249582193798
 21
3762.949749526643
 31
0.0
 70
    32
  1
(<>)
 71
     5
 42
610.0000000000018
  3
IGA
100
AcDbAlignedDimension
 13
4214.249582193797
 23
3605.940210206699
 33
0.0
 14
4824.249582193799
 24
2788.935029840879
 34
0.0
100
AcDbRotatedDimension
1001
ACAD
1000
DSTYLE
1002
{
1070
    40
1040
25.0
1070
    42
1040
1.0
1070
   143
1040
0.039
1070
   172
1070
     1
1070
   271
1070
     4
1070
   272
1070
     4
1070
   279
1070
     1
1070
   284
1070
     0
1070
   285
1070
     0
1070
   286
1070
     0
1070
   341
1005
810F
1070
   343
1005
810F
1070
   344
1005
810F
1002
}
  0
DIMENSION
  5
822C
330
80FB
100
AcDbEntity
  8
3
100
AcDbDimension
  2
*D32
 10
2995.287641258175
 20
3877.270619084644
 30
0.0
 11
2120.287641258175
 21
3939.770619084644
 31
0.0
 70
    32
 71
     5
 42
1750.0
  3
IGA
100
AcDbAlignedDimension
 13
1245.287641258175
 23
4222.904731816339
 33
0.0
 14
2995.287641258175
 24
4222.904731816339
 34
0.0
100
AcDbRotatedDimension
1001
ACAD
1000
DSTYLE
1002
{
1070
    40
1040
25.0
1070
    42
1040
1.0
1070
   143
1040
0.039
1070
   172
1070
     1
1070
   271
1070
     4
1070
   272
1070
     4
1070
   279
1070
     0
1070
   284
1070
     0
1070
   285
1070
     0
1070
   286
1070
     0
1070
   341
1005
810F
1070
   343
1005
810F
1070
   344
1005
810F
1002
}
  0
ARC
  5
823B
330
80FB
100
AcDbEntity
  8
FUTO
100
AcDbCircle
 10
1792.787641258175
 20
2875.935029840878
 30
0.0
 40
510.5
100
AcDbArc
 50
95.33886758813769
 51
180.0
  0
LINE
  5
823C
330
80FB
100
AcDbEntity
  8
FUTO
100
AcDbLine
 10
1200.287641258175
 20
1980.435029840878
 30
0.0
 11
1745.287641258175
 21
2036.806884053399
 31
0.0
  0
ARC
  5
823D
330
80FB
100
AcDbEntity
  8
FUTO
100
AcDbCircle
 10
1804.287641258175
 20
2769.435029840878
 30
0.0
 40
617.0
100
AcDbArc
 50
0.0
 51
95.48723514289859
  0
ARC
  5
823E
330
80FB
100
AcDbEntity
  8
FUTO
100
AcDbCircle
 10
1686.287641258175
 20
2769.435029840878
 30
0.0
 40
735.0
100
AcDbArc
 50
274.6042067265012
 51
0.0
  0
ARC
  5
823F
330
80FB
100
AcDbEntity
  8
FUTO
100
AcDbCircle
 10
1714.787641258175
 20
2858.935029840878
 30
0.0
 40
432.5
100
AcDbArc
 50
180.0
 51
187.1056552472967
  0
LINE
  5
8240
330
80FB
100
AcDbEntity
  8
FUTO
100
AcDbLine
 10
1285.609356625785
 20
2805.435029840878
 30
0.0
 11
1200.287641258175
 21
2805.435029840878
 31
0.0
  0
LINE
  5
8241
330
80FB
100
AcDbEntity
  8
FUTO
100
AcDbLine
 10
1282.287641258175
 20
2875.935029840878
 30
0.0
 11
1282.287641258175
 21
2858.935029840878
 31
0.0
  0
LINE
  5
8242
330
80FB
100
AcDbEntity
  8
1
100
AcDbLine
 10
1200.287641258175
 20
1937.935029840878
 30
0.0
 11
1200.287641258177
 21
2847.935029840878
 31
0.0
  0
LINE
  5
8243
330
80FB
100
AcDbEntity
  8
1
100
AcDbLine
 10
1200.287641258175
 20
1937.935029840878
 30
0.0
 11
1203.287641258175
 21
1937.935029840878
 31
0.0
  0
LINE
  5
8244
330
80FB
100
AcDbEntity
  8
1
100
AcDbLine
 10
1200.287641258177
 20
2847.935029840878
 30
0.0
 11
1203.287641258176
 21
2847.935029840878
 31
0.0
  0
LINE
  5
8245
330
80FB
100
AcDbEntity
  8
1
100
AcDbLine
 10
1240.287641258175
 20
1983.836124611301
 30
0.0
 11
1240.287641258177
 21
2805.435029840878
 31
0.0
  0
LINE
  5
8246
330
80FB
100
AcDbEntity
  8
1
100
AcDbLine
 10
1203.287641258175
 20
1937.935029840878
 30
0.0
 11
1203.287641258176
 21
2847.935029840878
 31
0.0
  0
POINT
  5
8247
330
80FB
100
AcDbEntity
  8
1
100
AcDbPoint
 10
1180.069730589153
 20
2828.435029840878
 30
0.0
  0
POINT
  5
8248
330
80FB
100
AcDbEntity
  8
1
100
AcDbPoint
 10
1180.069730589153
 20
2828.435029840878
 30
0.0
  0
DIMENSION
  5
8249
330
80FB
100
AcDbEntity
  8
3
100
AcDbDimension
  2
*D33
 10
2421.287641258175
 20
3525.996801768198
 30
0.0
 11
2083.287641258175
 21
3588.496801768198
 31
0.0
 70
    32
 71
     5
 42
676.0
  3
IGA
100
AcDbAlignedDimension
 13
1745.287641258175
 23
3485.45335055235
 33
0.0
 14
2421.287641258175
 24
2769.435029840878
 34
0.0
100
AcDbRotatedDimension
1001
ACAD
1000
DSTYLE
1002
{
1070
    40
1040
25.0
1070
    42
1040
1.0
1070
   143
1040
0.039
1070
   172
1070
     1
1070
   271
1070
     4
1070
   272
1070
     4
1070
   279
1070
     0
1070
   284
1070
     0
1070
   285
1070
     0
1070
   286
1070
     0
1070
   341
1005
810F
1070
   343
1005
810F
1070
   344
1005
810F
1002
}
  0
DIMENSION
  5
825F
330
80FB
100
AcDbEntity
  8
3
100
AcDbDimension
  2
*D34
 10
744.3671165282742
 20
3386.435029840879
 30
0.0
 11
681.8671165282736
 21
3107.435029840879
 31
0.0
 70
    32
 71
     5
 42
558.0
  3
IGA
100
AcDbAlignedDimension
 13
1078.815849407785
 23
2828.435029840878
 33
0.0
 14
1804.287641258175
 24
3386.435029840878
 34
0.0
 50
90.0
100
AcDbRotatedDimension
1001
ACAD
1000
DSTYLE
1002
{
1070
    40
1040
25.0
1070
    42
1040
1.0
1070
   143
1040
0.039
1070
   172
1070
     1
1070
   271
1070
     4
1070
   272
1070
     4
1070
   279
1070
     0
1070
   284
1070
     0
1070
   285
1070
     0
1070
   286
1070
     0
1070
   341
1005
810F
1070
   343
1005
810F
1070
   344
1005
810F
1002
}
  0
DIMENSION
  5
8275
330
80FB
100
AcDbEntity
  8
3
100
AcDbDimension
  2
*D35
 10
745.9156716671242
 20
1868.435029840878
 30
0.0
 11
683.4156716671238
 21
2348.435029840878
 31
0.0
 70
    32
 71
     5
 42
960.0000000000003
  3
IGA
100
AcDbAlignedDimension
 13
1078.815849407785
 23
2828.435029840878
 33
0.0
 14
1245.287641258175
 24
1868.435029840878
 34
0.0
 50
90.0
100
AcDbRotatedDimension
1001
ACAD
1000
DSTYLE
1002
{
1070
    40
1040
25.0
1070
    42
1040
1.0
1070
   143
1040
0.039
1070
   172
1070
     1
1070
   271
1070
     4
1070
   272
1070
     4
1070
   279
1070
     0
1070
   284
1070
     0
1070
   285
1070
     0
1070
   286
1070
     0
1070
   341
1005
810F
1070
   343
1005
810F
1070
   344
1005
810F
1002
}
  0
DIMENSION
  5
828B
330
80FB
100
AcDbEntity
  8
3
100
AcDbDimension
  2
*D36
 10
496.4287118485735
 20
1741.435029840879
 30
0.0
 11
414.2858547057161
 21
2563.935029840879
 31
0.0
 70
    32
  1
(<>)
 71
     5
 42
1644.999999999999
  3
IGA
100
AcDbAlignedDimension
 13
1804.287641258175
 23
3386.435029840878
 33
0.0
 14
1245.287641258175
 24
1741.435029840879
 34
0.0
 50
90.0
100
AcDbRotatedDimension
1001
ACAD
1000
DSTYLE
1002
{
1070
    40
1040
25.0
1070
    42
1040
1.0
1070
   143
1040
0.039
1070
   172
1070
     1
1070
   271
1070
     4
1070
   272
1070
     4
1070
   279
1070
     0
1070
   284
1070
     0
1070
   285
1070
     0
1070
   286
1070
     0
1070
   341
1005
810F
1070
   343
1005
810F
1070
   344
1005
810F
1002
}
  0
DIMENSION
  5
82AA
330
80FB
100
AcDbEntity
  8
3
100
AcDbDimension
  2
*D37
 10
2995.287641258175
 20
5629.028015367293
 30
0.0
 11
2620.287641258176
 21
5691.528015367293
 31
0.0
 70
    32
 71
     5
 42
749.9999999999991
  3
IGA
100
AcDbAlignedDimension
 13
2245.287641258176
 23
5477.904731816339
 33
0.0
 14
2995.287641258175
 24
4972.904731816339
 34
0.0
100
AcDbRotatedDimension
1001
ACAD
1000
DSTYLE
1002
{
1070
    40
1040
25.0
1070
    42
1040
1.0
1070
   143
1040
0.039
1070
   172
1070
     1
1070
   271
1070
     4
1070
   272
1070
     4
1070
   279
1070
     0
1070
   284
1070
     0
1070
   285
1070
     0
1070
   286
1070
     0
1070
   341
1005
810F
1070
   343
1005
810F
1070
   344
1005
810F
1002
}
  0
ENDSEC
  0
SECTION
  2
OBJECTS
  0
DICTIONARY
  5
8098
330
0
100
AcDbDictionary
281
     1
  3
ACAD_CIP_PREVIOUS_PRODUCT_INFO
350
8145
  3
ACAD_COLOR
350
80EE
  3
ACAD_DETAILVIEWSTYLE
350
80F5
  3
ACAD_GROUP
350
8099
  3
ACAD_LAYOUT
350
80ED
  3
ACAD_MATERIAL
350
809C
  3
ACAD_MLEADERSTYLE
350
80F1
  3
ACAD_MLINESTYLE
350
80EA
  3
ACAD_PLOTSETTINGS
350
80EC
  3
ACAD_PLOTSTYLENAME
350
809A
  3
ACAD_SCALELIST
350
80CE
  3
ACAD_SECTIONVIEWSTYLE
350
80F3
  3
ACAD_TABLESTYLE
350
80EF
  3
ACAD_VISUALSTYLE
350
80B5
  3
ACDB_RECOMPOSE_DATA
350
82C2
  3
AcDbVariableDictionary
350
8150
  3
DWGPROPS
350
82C3
  0
DICTIONARY
  5
819E
330
808E
100
AcDbDictionary
280
     1
281
     1
  3
ACAD_LAYERSTATES
360
819F
  0
DICTIONARY
  5
8146
330
80E0
100
AcDbDictionary
280
     1
281
     1
  3
ADSK_XREC_LAYER_RECONCILED
360
8147
  0
DICTIONARY
  5
8148
330
80FF
100
AcDbDictionary
280
     1
281
     1
  3
ADSK_XREC_LAYER_RECONCILED
360
8149
  0
DICTIONARY
  5
814A
330
8102
100
AcDbDictionary
280
     1
281
     1
  3
ADSK_XREC_LAYER_RECONCILED
360
814B
  0
DICTIONARY
  5
814C
330
8103
100
AcDbDictionary
280
     1
281
     1
  3
ADSK_XREC_LAYER_RECONCILED
360
814D
  0
DICTIONARY
  5
814E
330
8104
100
AcDbDictionary
280
     1
281
     1
  3
ADSK_XREC_LAYER_RECONCILED
360
814F
  0
DICTIONARY
  5
819D
330
819C
100
AcDbDictionary
280
     1
281
     1
  0
XRECORD
  5
8145
102
{ACAD_REACTORS
330
8098
102
}
330
8098
100
AcDbXrecord
280
     1
300
ACDLT
300
2015
300
INVLTS_F_S
  0
DICTIONARY
  5
80EE
102
{ACAD_REACTORS
330
8098
102
}
330
8098
100
AcDbDictionary
281
     1
  0
DICTIONARY
  5
80F5
102
{ACAD_REACTORS
330
8098
102
}
330
8098
100
AcDbDictionary
281
     1
  3
Imperial24
350
80F6
  0
DICTIONARY
  5
8099
102
{ACAD_REACTORS
330
8098
102
}
330
8098
100
AcDbDictionary
281
     1
  0
DICTIONARY
  5
80ED
102
{ACAD_REACTORS
330
8098
102
}
330
8098
100
AcDbDictionary
281
     1
  3
Model
350
80FE
  3
レイアウト1
350
80FA
  0
DICTIONARY
  5
809C
102
{ACAD_REACTORS
330
8098
102
}
330
8098
100
AcDbDictionary
281
     1
  3
ByBlock
350
80A5
  3
ByLayer
350
809D
  3
Global
350
80AD
  0
DICTIONARY
  5
80F1
102
{ACAD_REACTORS
330
8098
102
}
330
8098
100
AcDbDictionary
281
     1
  3
Standard
350
80F2
  0
DICTIONARY
  5
80EA
102
{ACAD_REACTORS
330
8098
102
}
330
8098
100
AcDbDictionary
281
     1
  3
Standard
350
80EB
  0
DICTIONARY
  5
80EC
102
{ACAD_REACTORS
330
8098
102
}
330
8098
100
AcDbDictionary
281
     1
  0
ACDBDICTIONARYWDFLT
  5
809A
102
{ACAD_REACTORS
330
8098
102
}
330
8098
100
AcDbDictionary
281
     1
  3
Normal
350
809B
100
AcDbDictionaryWithDefault
340
809B
  0
DICTIONARY
  5
80CE
102
{ACAD_REACTORS
330
8098
102
}
330
8098
100
AcDbDictionary
281
     1
  3
A0
350
80CF
  3
A1
350
80D0
  3
A2
350
80D1
  3
A3
350
80D2
  3
A4
350
80D3
  3
A5
350
80D4
  3
A6
350
80D5
  3
A7
350
80D6
  3
A8
350
80D7
  3
A9
350
80D8
  3
B0
350
80D9
  3
B1
350
80DA
  3
B2
350
80DB
  3
B3
350
80DC
  3
B4
350
80DD
  3
B5
350
80DE
  3
B6
350
80DF
  0
DICTIONARY
  5
80F3
102
{ACAD_REACTORS
330
8098
102
}
330
8098
100
AcDbDictionary
281
     1
  3
Imperial24
350
80F4
  0
DICTIONARY
  5
80EF
102
{ACAD_REACTORS
330
8098
102
}
330
8098
100
AcDbDictionary
281
     1
  3
Standard
350
80F0
  0
DICTIONARY
  5
80B5
102
{ACAD_REACTORS
330
8098
102
}
330
8098
100
AcDbDictionary
281
     1
  3
2dWireframe
350
80BB
  3
Basic
350
80BA
  3
Brighten
350
80C1
  3
ColorChange
350
80C5
  3
Conceptual
350
80BE
  3
Dim
350
80C0
  3
EdgeColorOff
350
80CD
  3
Facepattern
350
80C4
  3
Flat
350
80B6
  3
FlatWithEdges
350
80B7
  3
Gouraud
350
80B8
  3
GouraudWithEdges
350
80B9
  3
Hidden
350
80BD
  3
JitterOff
350
80CB
  3
Linepattern
350
80C3
  3
OverhangOff
350
80CC
  3
Realistic
350
80BF
  3
Shaded
350
80CA
  3
Shaded with edges
350
80C9
  3
Shades of Gray
350
80C6
  3
Sketchy
350
80C7
  3
Thicken
350
80C2
  3
Wireframe
350
80BC
  3
X-Ray
350
80C8
  0
XRECORD
  5
82C2
102
{ACAD_REACTORS
330
8098
102
}
330
8098
100
AcDbXrecord
280
     1
 90
        1
330
80F0
  0
DICTIONARY
  5
8150
102
{ACAD_REACTORS
330
8098
102
}
330
8098
100
AcDbDictionary
281
     1
  3
CANNOSCALE
350
8155
  3
CMLEADERSTYLE
350
8152
  3
CTABLESTYLE
350
8151
  3
CVIEWDETAILSTYLE
350
8153
  3
CVIEWSECTIONSTYLE
350
8154
  3
DIMASSOC
350
8158
  3
INDEXCTL
350
8157
  3
SORTENTS
350
8156
  3
XCLIPFRAME
350
8159
  0
XRECORD
  5
82C3
102
{ACAD_REACTORS
330
8098
102
}
330
8098
100
AcDbXrecord
280
     1
  1
DWGPROPS COOKIE
  2

  3

  4

  6

  7

  8
yasukiyo.ogawa
  9

300
=
301
=
302
=
303
=
304
=
305
=
306
=
307
=
308
=
309
=
 40
0.0133082638888889
 41
2451389.450209723
 42
2460265.697859838
  1

 90
        0
  0
DICTIONARY
  5
819F
102
{ACAD_REACTORS
330
819E
102
}
330
819E
100
AcDbDictionary
281
     1
  0
XRECORD
  5
8147
102
{ACAD_REACTORS
330
8146
102
}
330
8146
100
AcDbXrecord
280
     1
290
     1
  0
XRECORD
  5
8149
102
{ACAD_REACTORS
330
8148
102
}
330
8148
100
AcDbXrecord
280
     1
290
     1
  0
XRECORD
  5
814B
102
{ACAD_REACTORS
330
814A
102
}
330
814A
100
AcDbXrecord
280
     1
290
     1
  0
XRECORD
  5
814D
102
{ACAD_REACTORS
330
814C
102
}
330
814C
100
AcDbXrecord
280
     1
290
     1
  0
XRECORD
  5
814F
102
{ACAD_REACTORS
330
814E
102
}
330
814E
100
AcDbXrecord
280
     1
290
     1
  0
ACDBDETAILVIEWSTYLE
  5
80F6
102
{ACAD_XDICTIONARY
360
82FB
102
}
102
{ACAD_REACTORS
330
80F5
102
}
330
80F5
100
AcDbModelDocViewStyle
 70
     0
  3
Imperial24
290
     0
100
AcDbDetailViewStyle
 70
     0
 71
     0
 90
        3
 71
     1
340
80E1
 40
0.24
340
0
 40
0.24
300

 40
0.36
280
     3
 71
     2
340
80E8
 90
       25
 71
     3
340
80E1
 40
0.24
 90
        1
 40
0.75
 90
        1
300
%<\AcVar ViewType \f "%tc1">% %<\AcVar ViewDetailId>%\PSCALE %<\AcVar ViewScale \f "%sn">%
 71
     4
340
80E8
 90
       25
340
80E8
 90
       25
280
     0
  0
LAYOUT
  5
80FE
102
{ACAD_XDICTIONARY
360
82FF
102
}
102
{ACAD_REACTORS
330
80ED
102
}
330
80ED
100
AcDbPlotSettings
  1

  2
RICOH imagio MP W3600 RPCS
  4

  6

 40
0.0
 41
0.0
 42
0.0
 43
0.0
 44
0.0
 45
0.0
 46
0.0
 47
0.0
 48
0.0
 49
0.0
140
0.0
141
0.0
142
1.0
143
1.0
 70
  1712
 72
     0
 73
     0
 74
     0
  7

 75
     0
147
1.0
148
0.0
149
0.0
100
AcDbLayout
  1
Model
 70
     1
 71
     0
 10
0.0
 20
0.0
 11
12.0
 21
9.0
 12
0.0
 22
0.0
 32
0.0
 14
0.0
 24
0.0
 34
0.0
 15
0.0
 25
0.0
 35
0.0
146
0.0
 13
0.0
 23
0.0
 33
0.0
 16
1.0
 26
0.0
 36
0.0
 17
0.0
 27
1.0
 37
0.0
 76
     0
330
80FB
331
8100
  0
LAYOUT
  5
80FA
102
{ACAD_XDICTIONARY
360
82FD
102
}
102
{ACAD_REACTORS
330
80ED
102
}
330
80ED
100
AcDbPlotSettings
  1

  2
RICOH imagio MP W3600 RPCS
  4

  6

 40
0.0
 41
0.0
 42
0.0
 43
0.0
 44
0.0
 45
0.0
 46
0.0
 47
0.0
 48
0.0
 49
0.0
140
0.0
141
0.0
142
1.0
143
1.0
 70
   688
 72
     0
 73
     0
 74
     5
  7

 75
    16
147
1.0
148
0.0
149
0.0
100
AcDbLayout
  1
レイアウト1
 70
     1
 71
     1
 10
0.0
 20
0.0
 11
12.0
 21
9.0
 12
0.0
 22
0.0
 32
0.0
 14
1.000000000000000E+20
 24
1.000000000000000E+20
 34
1.000000000000000E+20
 15
-1.000000000000000E+20
 25
-1.000000000000000E+20
 35
-1.000000000000000E+20
146
0.0
 13
0.0
 23
0.0
 33
0.0
 16
1.0
 26
0.0
 36
0.0
 17
0.0
 27
1.0
 37
0.0
 76
     0
330
80F7
  0
MATERIAL
  5
80A5
102
{ACAD_XDICTIONARY
360
80A6
102
}
102
{ACAD_REACTORS
330
809C
102
}
330
809C
100
AcDbMaterial
  1
ByBlock
 72
     0
 43
0.0208333333333333
 43
0.0
 43
0.0
 43
0.0
 43
0.0
 43
0.0208333333333333
 43
0.0
 43
0.0
 43
0.0
 43
0.0
 43
1.0
 43
0.0
 43
0.0
 43
0.0
 43
0.0
 43
1.0
 77
     0
 47
0.0208333333333333
 47
0.0
 47
0.0
 47
0.0
 47
0.0
 47
0.0208333333333333
 47
0.0
 47
0.0
 47
0.0
 47
0.0
 47
1.0
 47
0.0
 47
0.0
 47
0.0
 47
0.0
 47
1.0
171
     0
 49
0.0208333333333333
 49
0.0
 49
0.0
 49
0.0
 49
0.0
 49
0.0208333333333333
 49
0.0
 49
0.0
 49
0.0
 49
0.0
 49
1.0
 49
0.0
 49
0.0
 49
0.0
 49
0.0
 49
1.0
175
     0
142
0.0208333333333333
142
0.0
142
0.0
142
0.0
142
0.0
142
0.0208333333333333
142
0.0
142
0.0
142
0.0
142
0.0
142
1.0
142
0.0
142
0.0
142
0.0
142
0.0
142
1.0
179
     0
144
0.0208333333333333
144
0.0
144
0.0
144
0.0
144
0.0
144
0.0208333333333333
144
0.0
144
0.0
144
0.0
144
0.0
144
1.0
144
0.0
144
0.0
144
0.0
144
0.0
144
1.0
147
0.0208333333333333
147
0.0
147
0.0
147
0.0
147
0.0
147
0.0208333333333333
147
0.0
147
0.0
147
0.0
147
0.0
147
1.0
147
0.0
147
0.0
147
0.0
147
0.0
147
1.0
  0
MATERIAL
  5
809D
102
{ACAD_XDICTIONARY
360
809E
102
}
102
{ACAD_REACTORS
330
809C
102
}
330
809C
100
AcDbMaterial
  1
ByLayer
 72
     0
 43
0.0208333333333333
 43
0.0
 43
0.0
 43
0.0
 43
0.0
 43
0.0208333333333333
 43
0.0
 43
0.0
 43
0.0
 43
0.0
 43
1.0
 43
0.0
 43
0.0
 43
0.0
 43
0.0
 43
1.0
 77
     0
 47
0.0208333333333333
 47
0.0
 47
0.0
 47
0.0
 47
0.0
 47
0.0208333333333333
 47
0.0
 47
0.0
 47
0.0
 47
0.0
 47
1.0
 47
0.0
 47
0.0
 47
0.0
 47
0.0
 47
1.0
171
     0
 49
0.0208333333333333
 49
0.0
 49
0.0
 49
0.0
 49
0.0
 49
0.0208333333333333
 49
0.0
 49
0.0
 49
0.0
 49
0.0
 49
1.0
 49
0.0
 49
0.0
 49
0.0
 49
0.0
 49
1.0
175
     0
142
0.0208333333333333
142
0.0
142
0.0
142
0.0
142
0.0
142
0.0208333333333333
142
0.0
142
0.0
142
0.0
142
0.0
142
1.0
142
0.0
142
0.0
142
0.0
142
0.0
142
1.0
179
     0
144
0.0208333333333333
144
0.0
144
0.0
144
0.0
144
0.0
144
0.0208333333333333
144
0.0
144
0.0
144
0.0
144
0.0
144
1.0
144
0.0
144
0.0
144
0.0
144
0.0
144
1.0
147
0.0208333333333333
147
0.0
147
0.0
147
0.0
147
0.0
147
0.0208333333333333
147
0.0
147
0.0
147
0.0
147
0.0
147
1.0
147
0.0
147
0.0
147
0.0
147
0.0
147
1.0
  0
MATERIAL
  5
80AD
102
{ACAD_XDICTIONARY
360
80AE
102
}
102
{ACAD_REACTORS
330
809C
102
}
330
809C
100
AcDbMaterial
  1
Global
 72
     0
 43
0.0208333333333333
 43
0.0
 43
0.0
 43
0.0
 43
0.0
 43
0.0208333333333333
 43
0.0
 43
0.0
 43
0.0
 43
0.0
 43
1.0
 43
0.0
 43
0.0
 43
0.0
 43
0.0
 43
1.0
 77
     0
 47
0.0208333333333333
 47
0.0
 47
0.0
 47
0.0
 47
0.0
 47
0.0208333333333333
 47
0.0
 47
0.0
 47
0.0
 47
0.0
 47
1.0
 47
0.0
 47
0.0
 47
0.0
 47
0.0
 47
1.0
171
     0
 49
0.0208333333333333
 49
0.0
 49
0.0
 49
0.0
 49
0.0
 49
0.0208333333333333
 49
0.0
 49
0.0
 49
0.0
 49
0.0
 49
1.0
 49
0.0
 49
0.0
 49
0.0
 49
0.0
 49
1.0
175
     0
142
0.0208333333333333
142
0.0
142
0.0
142
0.0
142
0.0
142
0.0208333333333333
142
0.0
142
0.0
142
0.0
142
0.0
142
1.0
142
0.0
142
0.0
142
0.0
142
0.0
142
1.0
179
     0
144
0.0208333333333333
144
0.0
144
0.0
144
0.0
144
0.0
144
0.0208333333333333
144
0.0
144
0.0
144
0.0
144
0.0
144
1.0
144
0.0
144
0.0
144
0.0
144
0.0
144
1.0
147
0.0208333333333333
147
0.0
147
0.0
147
0.0
147
0.0
147
0.0208333333333333
147
0.0
147
0.0
147
0.0
147
0.0
147
1.0
147
0.0
147
0.0
147
0.0
147
0.0
147
1.0
  0
MLEADERSTYLE
  5
80F2
102
{ACAD_REACTORS
330
80F1
102
}
330
80F1
100
AcDbMLeaderStyle
170
     2
171
     1
172
     0
 90
        2
 40
0.0
 41
0.0
173
     1
 91
-1056964608
340
80E6
 92
       -2
290
     1
 42
0.09
291
     1
 43
0.36
  3
Standard
 44
0.18
300

342
80E1
174
     1
178
     6
175
     1
176
     0
 93
-1056964608
 45
0.18
292
     0
297
     0
 46
0.18
 94
-1056964608
 47
1.0
 49
1.0
140
1.0
293
     1
141
0.0
294
     1
177
     0
142
1.0
295
     0
296
     0
143
0.125
1001
ACAD_MLEADERVER
1070
     2
  0
MLINESTYLE
  5
80EB
102
{ACAD_REACTORS
330
80EA
102
}
330
80EA
100
AcDbMlineStyle
  2
STANDARD
 70
     0
  3

 62
   256
 51
90.0
 52
90.0
 71
     2
 49
0.5
 62
   256
  6
BYLAYER
 49
-0.5
 62
   256
  6
BYLAYER
  0
ACDBPLACEHOLDER
  5
809B
102
{ACAD_REACTORS
330
809A
102
}
330
809A
  0
SCALE
  5
80CF
102
{ACAD_REACTORS
330
80CE
102
}
330
80CE
100
AcDbScale
 70
     0
300
1:1
140
1.0
141
1.0
290
     1
  0
SCALE
  5
80D0
102
{ACAD_REACTORS
330
80CE
102
}
330
80CE
100
AcDbScale
 70
     0
300
1/128" = 1'-0"
140
0.0078125
141
12.0
290
     0
  0
SCALE
  5
80D1
102
{ACAD_REACTORS
330
80CE
102
}
330
80CE
100
AcDbScale
 70
     0
300
1/64" = 1'-0"
140
0.015625
141
12.0
290
     0
  0
SCALE
  5
80D2
102
{ACAD_REACTORS
330
80CE
102
}
330
80CE
100
AcDbScale
 70
     0
300
1/32" = 1'-0"
140
0.03125
141
12.0
290
     0
  0
SCALE
  5
80D3
102
{ACAD_REACTORS
330
80CE
102
}
330
80CE
100
AcDbScale
 70
     0
300
1/16" = 1'-0"
140
0.0625
141
12.0
290
     0
  0
SCALE
  5
80D4
102
{ACAD_REACTORS
330
80CE
102
}
330
80CE
100
AcDbScale
 70
     0
300
3/32" = 1'-0"
140
0.09375
141
12.0
290
     0
  0
SCALE
  5
80D5
102
{ACAD_REACTORS
330
80CE
102
}
330
80CE
100
AcDbScale
 70
     0
300
1/8" = 1'-0"
140
0.125
141
12.0
290
     0
  0
SCALE
  5
80D6
102
{ACAD_REACTORS
330
80CE
102
}
330
80CE
100
AcDbScale
 70
     0
300
3/16" = 1'-0"
140
0.1875
141
12.0
290
     0
  0
SCALE
  5
80D7
102
{ACAD_REACTORS
330
80CE
102
}
330
80CE
100
AcDbScale
 70
     0
300
1/4" = 1'-0"
140
0.25
141
12.0
290
     0
  0
SCALE
  5
80D8
102
{ACAD_REACTORS
330
80CE
102
}
330
80CE
100
AcDbScale
 70
     0
300
3/8" = 1'-0"
140
0.375
141
12.0
290
     0
  0
SCALE
  5
80D9
102
{ACAD_REACTORS
330
80CE
102
}
330
80CE
100
AcDbScale
 70
     0
300
1/2" = 1'-0"
140
0.5
141
12.0
290
     0
  0
SCALE
  5
80DA
102
{ACAD_REACTORS
330
80CE
102
}
330
80CE
100
AcDbScale
 70
     0
300
3/4" = 1'-0"
140
0.75
141
12.0
290
     0
  0
SCALE
  5
80DB
102
{ACAD_REACTORS
330
80CE
102
}
330
80CE
100
AcDbScale
 70
     0
300
1" = 1'-0"
140
1.0
141
12.0
290
     0
  0
SCALE
  5
80DC
102
{ACAD_REACTORS
330
80CE
102
}
330
80CE
100
AcDbScale
 70
     0
300
1-1/2" = 1'-0"
140
1.5
141
12.0
290
     0
  0
SCALE
  5
80DD
102
{ACAD_REACTORS
330
80CE
102
}
330
80CE
100
AcDbScale
 70
     0
300
3" = 1'-0"
140
3.0
141
12.0
290
     0
  0
SCALE
  5
80DE
102
{ACAD_REACTORS
330
80CE
102
}
330
80CE
100
AcDbScale
 70
     0
300
6" = 1'-0"
140
6.0
141
12.0
290
     0
  0
SCALE
  5
80DF
102
{ACAD_REACTORS
330
80CE
102
}
330
80CE
100
AcDbScale
 70
     0
300
1'-0" = 1'-0"
140
12.0
141
12.0
290
     0
  0
ACDBSECTIONVIEWSTYLE
  5
80F4
102
{ACAD_XDICTIONARY
360
82F9
102
}
102
{ACAD_REACTORS
330
80F3
102
}
330
80F3
100
AcDbModelDocViewStyle
 70
     0
  3
Imperial24
290
     0
100
AcDbSectionViewStyle
 70
     0
 71
     0
 90
       78
 71
     1
340
80E1
 40
0.24
340
0
340
0
 40
0.24
300
I, O, Q, S, X, Z
 40
0.48
 90
        3
 40
0.18
 90
        1
 71
     2
340
80E8
 90
       25
340
80E8
 90
       50
 40
0.24
 40
0.0
 40
0.24
 71
     3
340
80E1
 40
0.24
 90
        1
 40
0.75
 90
        1
300
%<\AcVar ViewType \f "%tc1">% %<\AcVar ViewSectionStartId>%-%<\AcVar ViewSectionEndId>%\PSCALE %<\AcVar ViewScale \f "%sn">%
 71
     4
300
ANSI31
 40
1.0
 90
        0
290
     0
290
     0
 90
        6
 40
0.0
 40
1.570796326794896
 40
0.2617993877991494
 40
1.308996938995747
 40
-0.2617993877991494
 40
1.832595714594046
  0
TABLESTYLE
  5
80F0
102
{ACAD_XDICTIONARY
360
82C0
102
}
102
{ACAD_REACTORS
330
80EF
102
}
330
80EF
100
AcDbTableStyle
  3
Standard
 70
     0
 71
     0
 40
0.06
 41
0.06
280
     0
281
     0
  7
STANDARD
140
0.18
170
     2
 62
     0
 63
     7
283
     0
274
    -2
284
     1
 64
     0
275
    -2
285
     1
 65
     0
276
    -2
286
     1
 66
     0
277
    -2
287
     1
 67
     0
278
    -2
288
     1
 68
     0
279
    -2
289
     1
 69
     0
  7
STANDARD
140
0.25
170
     5
 62
     0
 63
     7
283
     0
274
    -2
284
     1
 64
     0
275
    -2
285
     1
 65
     0
276
    -2
286
     1
 66
     0
277
    -2
287
     1
 67
     0
278
    -2
288
     1
 68
     0
279
    -2
289
     1
 69
     0
  7
STANDARD
140
0.18
170
     5
 62
     0
 63
     7
283
     0
274
    -2
284
     1
 64
     0
275
    -2
285
     1
 65
     0
276
    -2
286
     1
 66
     0
277
    -2
287
     1
 67
     0
278
    -2
288
     1
 68
     0
279
    -2
289
     1
 69
     0
  0
VISUALSTYLE
  5
80BB
102
{ACAD_XDICTIONARY
360
82D1
102
}
102
{ACAD_REACTORS
330
80B5
102
}
330
80B5
100
AcDbVisualStyle
  2
2dWireframe
 70
     4
 71
     0
 72
     2
 73
     0
 90
        0
 40
-0.6
 41
-30.0
 62
     5
 63
     7
 74
     1
 91
        4
 64
     7
 65
   257
 75
     1
175
     1
 42
1.0
 92
        0
 66
   257
 43
1.0
 76
     1
 77
     6
 78
     2
 67
     7
 79
     5
170
     0
171
     0
290
     0
174
     0
 93
        1
 44
0.0
173
     0
291
     0
 45
0.0
1001
ACAD
1000
AcDbSavedByObjectVersion
1070
     0
  0
VISUALSTYLE
  5
80BA
102
{ACAD_XDICTIONARY
360
82CF
102
}
102
{ACAD_REACTORS
330
80B5
102
}
330
80B5
100
AcDbVisualStyle
  2
Basic
 70
     7
 71
     1
 72
     0
 73
     1
 90
        0
 40
-0.6
 41
-30.0
 62
     5
 63
     7
 74
     0
 91
        4
 64
     7
 65
   257
 75
     1
175
     1
 42
1.0
 92
        8
 66
     7
 43
1.0
 76
     1
 77
     6
 78
     2
 67
     7
 79
     5
170
     0
171
     0
290
     0
174
     0
 93
        1
 44
0.0
173
     0
291
     1
 45
0.0
1001
ACAD
1000
AcDbSavedByObjectVersion
1070
     0
  0
VISUALSTYLE
  5
80C1
102
{ACAD_XDICTIONARY
360
82DD
102
}
102
{ACAD_REACTORS
330
80B5
102
}
330
80B5
100
AcDbVisualStyle
  2
Brighten
 70
    12
 71
     2
 72
     2
 73
     0
 90
        0
 40
-0.6
 41
-30.0
 62
     5
 63
     7
 74
     1
 91
        4
 64
     7
 65
   257
 75
     1
175
     1
 42
1.0
 92
        8
 66
     7
 43
1.0
 76
     1
 77
     6
 78
     2
 67
     7
 79
     5
170
     0
171
     0
290
     0
174
     0
 93
        1
 44
50.0
173
     0
291
     1
 45
0.0
1001
ACAD
1000
AcDbSavedByObjectVersion
1070
     0
  0
VISUALSTYLE
  5
80C5
102
{ACAD_XDICTIONARY
360
82E5
102
}
102
{ACAD_REACTORS
330
80B5
102
}
330
80B5
100
AcDbVisualStyle
  2
ColorChange
 70
    16
 71
     2
 72
     2
 73
     3
 90
        0
 40
-0.6
 41
-30.0
 62
     5
 63
     8
 74
     1
 91
        4
 64
     7
 65
   257
 75
     1
175
     1
 42
1.0
 92
        8
 66
     8
 43
1.0
 76
     1
 77
     6
 78
     2
 67
     7
 79
     5
170
     0
171
     0
290
     0
174
     0
 93
        1
 44
0.0
173
     0
291
     1
 45
0.0
1001
ACAD
1000
AcDbSavedByObjectVersion
1070
     0
  0
VISUALSTYLE
  5
80BE
102
{ACAD_XDICTIONARY
360
82D7
102
}
102
{ACAD_REACTORS
330
80B5
102
}
330
80B5
100
AcDbVisualStyle
  2
Conceptual
 70
     9
 71
     3
 72
     2
 73
     0
 90
        0
 40
-0.6
 41
-30.0
 62
     5
 63
     7
 74
     2
 91
        2
 64
     7
 65
   257
 75
     1
175
     1
 42
179.0
 92
        8
 66
     7
 43
1.0
 76
     1
 77
     6
 78
     2
 67
     7
 79
     3
170
     0
171
     0
290
     0
174
     0
 93
        1
 44
0.0
173
     0
291
     0
 45
0.0
1001
ACAD
1000
AcDbSavedByObjectVersion
1070
     0
  0
VISUALSTYLE
  5
80C0
102
{ACAD_XDICTIONARY
360
82DB
102
}
102
{ACAD_REACTORS
330
80B5
102
}
330
80B5
100
AcDbVisualStyle
  2
Dim
 70
    11
 71
     2
 72
     2
 73
     0
 90
        0
 40
-0.6
 41
-30.0
 62
     5
 63
     7
 74
     1
 91
        4
 64
     7
 65
   257
 75
     1
175
     1
 42
1.0
 92
        8
 66
     7
 43
1.0
 76
     1
 77
     6
 78
     2
 67
     7
 79
     5
170
     0
171
     0
290
     0
174
     0
 93
        1
 44
-50.0
173
     0
291
     1
 45
0.0
1001
ACAD
1000
AcDbSavedByObjectVersion
1070
     0
  0
VISUALSTYLE
  5
80CD
102
{ACAD_XDICTIONARY
360
82F5
102
}
102
{ACAD_REACTORS
330
80B5
102
}
330
80B5
100
AcDbVisualStyle
  2
EdgeColorOff
 70
    22
 71
     2
 72
     2
 73
     0
 90
        0
 40
-0.6
 41
-30.0
 62
     5
 63
     7
 74
     1
 91
        4
 64
     7
 65
   257
 75
     1
175
     1
 42
1.0
 92
        8
 66
     7
 43
1.0
 76
     1
 77
     6
 78
     2
 67
     7
 79
     5
170
     0
171
     0
290
     0
174
     0
 93
        1
 44
0.0
173
     0
291
     1
 45
0.0
1001
ACAD
1000
AcDbSavedByObjectVersion
1070
     0
  0
VISUALSTYLE
  5
80C4
102
{ACAD_XDICTIONARY
360
82E3
102
}
102
{ACAD_REACTORS
330
80B5
102
}
330
80B5
100
AcDbVisualStyle
  2
Facepattern
 70
    15
 71
     2
 72
     2
 73
     0
 90
        0
 40
-0.6
 41
-30.0
 62
     5
 63
     7
 74
     1
 91
        4
 64
     7
 65
   257
 75
     1
175
     1
 42
1.0
 92
        8
 66
     7
 43
1.0
 76
     1
 77
     6
 78
     2
 67
     7
 79
     5
170
     0
171
     0
290
     0
174
     0
 93
        1
 44
0.0
173
     0
291
     1
 45
0.0
1001
ACAD
1000
AcDbSavedByObjectVersion
1070
     0
  0
VISUALSTYLE
  5
80B6
102
{ACAD_XDICTIONARY
360
82C7
102
}
102
{ACAD_REACTORS
330
80B5
102
}
330
80B5
100
AcDbVisualStyle
  2
Flat
 70
     0
 71
     2
 72
     1
 73
     1
 90
        2
 40
-0.6
 41
30.0
 62
     5
 63
     7
 74
     0
 91
        0
 64
     7
 65
   257
 75
     1
175
     1
 42
1.0
 92
        8
 66
     7
 43
1.0
 76
     1
 77
     6
 78
     2
 67
     7
 79
     5
170
     0
171
     0
290
     0
174
     0
 93
       13
 44
0.0
173
     0
291
     1
 45
0.0
1001
ACAD
1000
AcDbSavedByObjectVersion
1070
     0
  0
VISUALSTYLE
  5
80B7
102
{ACAD_XDICTIONARY
360
82C9
102
}
102
{ACAD_REACTORS
330
80B5
102
}
330
80B5
100
AcDbVisualStyle
  2
FlatWithEdges
 70
     1
 71
     2
 72
     1
 73
     1
 90
        2
 40
-0.6
 41
30.0
 62
     5
 63
     7
 74
     1
 91
        0
 64
     7
 65
   257
 75
     1
175
     1
 42
1.0
 92
        0
 66
   257
 43
1.0
 76
     1
 77
     6
 78
     2
 67
     7
 79
     5
170
     0
171
     0
290
     0
174
     0
 93
       13
 44
0.0
173
     0
291
     1
 45
0.0
1001
ACAD
1000
AcDbSavedByObjectVersion
1070
     0
  0
VISUALSTYLE
  5
80B8
102
{ACAD_XDICTIONARY
360
82CB
102
}
102
{ACAD_REACTORS
330
80B5
102
}
330
80B5
100
AcDbVisualStyle
  2
Gouraud
 70
     2
 71
     2
 72
     2
 73
     1
 90
        2
 40
-0.6
 41
30.0
 62
     5
 63
     7
 74
     0
 91
        0
 64
     7
 65
   257
 75
     1
175
     1
 42
1.0
 92
        0
 66
     7
 43
1.0
 76
     1
 77
     6
 78
     2
 67
     7
 79
     5
170
     0
171
     0
290
     0
174
     0
 93
       13
 44
0.0
173
     0
291
     1
 45
0.0
1001
ACAD
1000
AcDbSavedByObjectVersion
1070
     0
  0
VISUALSTYLE
  5
80B9
102
{ACAD_XDICTIONARY
360
82CD
102
}
102
{ACAD_REACTORS
330
80B5
102
}
330
80B5
100
AcDbVisualStyle
  2
GouraudWithEdges
 70
     3
 71
     2
 72
     2
 73
     1
 90
        2
 40
-0.6
 41
30.0
 62
     5
 63
     7
 74
     1
 91
        0
 64
     7
 65
   257
 75
     1
175
     1
 42
1.0
 92
        0
 66
   257
 43
1.0
 76
     1
 77
     6
 78
     2
 67
     7
 79
     5
170
     0
171
     0
290
     0
174
     0
 93
       13
 44
0.0
173
     0
291
     1
 45
0.0
1001
ACAD
1000
AcDbSavedByObjectVersion
1070
     0
  0
VISUALSTYLE
  5
80BD
102
{ACAD_XDICTIONARY
360
82D5
102
}
102
{ACAD_REACTORS
330
80B5
102
}
330
80B5
100
AcDbVisualStyle
  2
Hidden
 70
     6
 71
     1
 72
     2
 73
     2
 90
        0
 40
-0.6
 41
-30.0
 62
     5
 63
     7
 74
     2
 91
        2
 64
     7
 65
   257
 75
     2
175
     1
 42
40.0
 92
        0
 66
   257
 43
1.0
 76
     1
 77
     6
 78
     2
 67
     7
 79
     3
170
     0
171
     0
290
     0
174
     0
 93
        1
 44
0.0
173
     0
291
     0
 45
0.0
1001
ACAD
1000
AcDbSavedByObjectVersion
1070
     0
  0
VISUALSTYLE
  5
80CB
102
{ACAD_XDICTIONARY
360
82F1
102
}
102
{ACAD_REACTORS
330
80B5
102
}
330
80B5
100
AcDbVisualStyle
  2
JitterOff
 70
    20
 71
     2
 72
     2
 73
     0
 90
        0
 40
-0.6
 41
-30.0
 62
     5
 63
     7
 74
     1
 91
        4
 64
     7
 65
   257
 75
     1
175
     1
 42
1.0
 92
       10
 66
     7
 43
1.0
 76
     1
 77
     6
 78
     2
 67
     7
 79
     5
170
     0
171
     0
290
     0
174
     0
 93
        1
 44
0.0
173
     0
291
     1
 45
0.0
1001
ACAD
1000
AcDbSavedByObjectVersion
1070
     0
  0
VISUALSTYLE
  5
80C3
102
{ACAD_XDICTIONARY
360
82E1
102
}
102
{ACAD_REACTORS
330
80B5
102
}
330
80B5
100
AcDbVisualStyle
  2
Linepattern
 70
    14
 71
     2
 72
     2
 73
     0
 90
        0
 40
-0.6
 41
-30.0
 62
     5
 63
     7
 74
     1
 91
        4
 64
     7
 65
   257
 75
     7
175
     7
 42
1.0
 92
        8
 66
     7
 43
1.0
 76
     1
 77
     6
 78
     2
 67
     7
 79
     5
170
     0
171
     0
290
     0
174
     0
 93
        1
 44
0.0
173
     0
291
     1
 45
0.0
1001
ACAD
1000
AcDbSavedByObjectVersion
1070
     0
  0
VISUALSTYLE
  5
80CC
102
{ACAD_XDICTIONARY
360
82F3
102
}
102
{ACAD_REACTORS
330
80B5
102
}
330
80B5
100
AcDbVisualStyle
  2
OverhangOff
 70
    21
 71
     2
 72
     2
 73
     0
 90
        0
 40
-0.6
 41
-30.0
 62
     5
 63
     7
 74
     1
 91
        4
 64
     7
 65
   257
 75
     1
175
     1
 42
1.0
 92
        9
 66
     7
 43
1.0
 76
     1
 77
     6
 78
     2
 67
     7
 79
     5
170
     0
171
     0
290
     0
174
     0
 93
        1
 44
0.0
173
     0
291
     1
 45
0.0
1001
ACAD
1000
AcDbSavedByObjectVersion
1070
     0
  0
VISUALSTYLE
  5
80BF
102
{ACAD_XDICTIONARY
360
82D9
102
}
102
{ACAD_REACTORS
330
80B5
102
}
330
80B5
100
AcDbVisualStyle
  2
Realistic
 70
     8
 71
     2
 72
     3
 73
     0
 90
        2
 40
-0.6
 41
30.0
 62
     5
 63
     7
 74
     0
 91
        0
 64
     7
 65
   257
 75
     1
175
     1
 42
1.0
 92
        8
 66
   257
 43
1.0
 76
     1
 77
     6
 78
     2
 67
     7
 79
     3
170
     0
171
     0
290
     0
174
     0
 93
       13
 44
0.0
173
     0
291
     0
 45
0.0
1001
ACAD
1000
AcDbSavedByObjectVersion
1070
     0
  0
VISUALSTYLE
  5
80CA
102
{ACAD_XDICTIONARY
360
82EF
102
}
102
{ACAD_REACTORS
330
80B5
102
}
330
80B5
100
AcDbVisualStyle
  2
Shaded
 70
    27
 71
     2
 72
     2
 73
     1
 90
        2
 40
-0.6
 41
30.0
 62
     5
 63
     7
 74
     0
 91
        4
 64
     7
 65
   257
 75
     1
175
     1
 42
1.0
 92
        8
 66
   257
 43
1.0
 76
     1
 77
     6
 78
     2
 67
     8
 79
     3
170
     0
171
     0
290
     0
174
     0
 93
        5
 44
0.0
173
     0
291
     0
 45
0.0
1001
ACAD
1000
AcDbSavedByObjectVersion
1070
     0
  0
VISUALSTYLE
  5
80C9
102
{ACAD_XDICTIONARY
360
82ED
102
}
102
{ACAD_REACTORS
330
80B5
102
}
330
80B5
100
AcDbVisualStyle
  2
Shaded with edges
 70
    26
 71
     2
 72
     2
 73
     1
 90
        2
 40
-0.6
 41
30.0
 62
     5
 63
     7
 74
     1
 91
       10
 64
     7
 65
   257
 75
     2
175
     1
 42
1.0
 92
        8
 66
   257
 43
1.0
 76
     1
 77
     6
 78
     2
 67
     7
 79
     3
170
     0
171
     0
290
     0
174
     0
 93
        5
 44
0.0
173
     0
291
     0
 45
0.0
1001
ACAD
1000
AcDbSavedByObjectVersion
1070
     0
  0
VISUALSTYLE
  5
80C6
102
{ACAD_XDICTIONARY
360
82E7
102
}
102
{ACAD_REACTORS
330
80B5
102
}
330
80B5
100
AcDbVisualStyle
  2
Shades of Gray
 70
    23
 71
     2
 72
     2
 73
     3
 90
        0
 40
-0.6
 41
-30.0
 62
     5
 63
     7
 74
     2
 91
        2
 64
     7
 65
     7
 75
     1
175
     1
 42
40.0
 92
        8
 66
     7
 43
1.0
 76
     1
 77
     6
 78
     2
 67
     7
 79
     3
170
     0
171
     0
290
     0
174
     0
 93
        1
 44
0.0
173
     0
291
     0
 45
0.0
1001
ACAD
1000
AcDbSavedByObjectVersion
1070
     0
  0
VISUALSTYLE
  5
80C7
102
{ACAD_XDICTIONARY
360
82E9
102
}
102
{ACAD_REACTORS
330
80B5
102
}
330
80B5
100
AcDbVisualStyle
  2
Sketchy
 70
    24
 71
     1
 72
     2
 73
     2
 90
        0
 40
-0.6
 41
-30.0
 62
     5
 63
     7
 74
     2
 91
        2
 64
     7
 65
     7
 75
     1
175
     1
 42
40.0
 92
       11
 66
     7
 43
1.0
 76
     1
 77
     6
 78
     2
 67
     7
 79
     6
170
     0
171
     0
290
     0
174
     0
 93
        1
 44
0.0
173
     0
291
     0
 45
0.0
1001
ACAD
1000
AcDbSavedByObjectVersion
1070
     0
  0
VISUALSTYLE
  5
80C2
102
{ACAD_XDICTIONARY
360
82DF
102
}
102
{ACAD_REACTORS
330
80B5
102
}
330
80B5
100
AcDbVisualStyle
  2
Thicken
 70
    13
 71
     2
 72
     2
 73
     0
 90
        0
 40
-0.6
 41
-30.0
 62
     5
 63
     7
 74
     1
 91
        4
 64
     7
 65
   257
 75
     1
175
     1
 42
1.0
 92
       12
 66
     7
 43
1.0
 76
     1
 77
     6
 78
     2
 67
     7
 79
     5
170
     0
171
     0
290
     0
174
     0
 93
        1
 44
0.0
173
     0
291
     1
 45
0.0
1001
ACAD
1000
AcDbSavedByObjectVersion
1070
     0
  0
VISUALSTYLE
  5
80BC
102
{ACAD_XDICTIONARY
360
82D3
102
}
102
{ACAD_REACTORS
330
80B5
102
}
330
80B5
100
AcDbVisualStyle
  2
Wireframe
 70
     5
 71
     0
 72
     2
 73
     0
 90
        0
 40
-0.6
 41
-30.0
 62
     5
 63
     7
 74
     1
 91
        4
 64
     7
 65
   257
 75
     1
175
     1
 42
1.0
 92
        0
 66
   257
 43
1.0
 76
     1
 77
     6
 78
     2
 67
     7
 79
     3
170
     0
171
     0
290
     0
174
     0
 93
        1
 44
0.0
173
     0
291
     0
 45
0.0
1001
ACAD
1000
AcDbSavedByObjectVersion
1070
     0
  0
VISUALSTYLE
  5
80C8
102
{ACAD_XDICTIONARY
360
82EB
102
}
102
{ACAD_REACTORS
330
80B5
102
}
330
80B5
100
AcDbVisualStyle
  2
X-Ray
 70
    25
 71
     2
 72
     2
 73
     1
 90
        1
 40
0.5
 41
-30.0
 62
     5
 63
     7
 74
     1
 91
        0
 64
     7
 65
   257
 75
     1
175
     1
 42
1.0
 92
        8
 66
     7
 43
1.0
 76
     1
 77
     6
 78
     2
 67
     7
 79
     3
170
     0
171
     0
290
     0
174
     0
 93
       13
 44
0.0
173
     0
291
     0
 45
0.0
1001
ACAD
1000
AcDbSavedByObjectVersion
1070
     0
  0
DICTIONARYVAR
  5
8155
102
{ACAD_REACTORS
330
8150
102
}
330
8150
100
DictionaryVariables
280
     0
  1
1:1
  0
DICTIONARYVAR
  5
8152
102
{ACAD_REACTORS
330
8150
102
}
330
8150
100
DictionaryVariables
280
     0
  1
STANDARD
  0
DICTIONARYVAR
  5
8151
102
{ACAD_REACTORS
330
8150
102
}
330
8150
100
DictionaryVariables
280
     0
  1
STANDARD
  0
DICTIONARYVAR
  5
8153
102
{ACAD_REACTORS
330
8150
102
}
330
8150
100
DictionaryVariables
280
     0
  1
Imperial24
  0
DICTIONARYVAR
  5
8154
102
{ACAD_REACTORS
330
8150
102
}
330
8150
100
DictionaryVariables
280
     0
  1
Imperial24
  0
DICTIONARYVAR
  5
8158
102
{ACAD_REACTORS
330
8150
102
}
330
8150
100
DictionaryVariables
280
     0
  1
1
  0
DICTIONARYVAR
  5
8157
102
{ACAD_REACTORS
330
8150
102
}
330
8150
100
DictionaryVariables
280
     0
  1
0
  0
DICTIONARYVAR
  5
8156
102
{ACAD_REACTORS
330
8150
102
}
330
8150
100
DictionaryVariables
280
     0
  1
127
  0
DICTIONARYVAR
  5
8159
102
{ACAD_REACTORS
330
8150
102
}
330
8150
100
DictionaryVariables
280
     0
  1
2
  0
DICTIONARY
  5
82FB
330
80F6
100
AcDbDictionary
280
     1
281
     1
  3
ACAD_XREC_ROUNDTRIP
360
82FC
  0
DICTIONARY
  5
82FF
330
80FE
100
AcDbDictionary
280
     1
281
     1
  3
ACAD_XREC_ROUNDTRIP
360
8300
  0
DICTIONARY
  5
82FD
330
80FA
100
AcDbDictionary
280
     1
281
     1
  3
ACAD_XREC_ROUNDTRIP
360
82FE
  0
DICTIONARY
  5
80A6
330
80A5
100
AcDbDictionary
280
     1
281
     1
  3
ACAD_XREC_ROUNDTRIP
360
82C5
  3
BUMPTILE
360
80A8
  3
DIFFUSETILE
360
80A7
  3
OPACITYTILE
360
80AB
  3
REFLECTIONTILE
360
80AA
  3
REFRACTIONTILE
360
80AC
  3
SPECULARTILE
360
80A9
  0
DICTIONARY
  5
809E
330
809D
100
AcDbDictionary
280
     1
281
     1
  3
ACAD_XREC_ROUNDTRIP
360
82C4
  3
BUMPTILE
360
80A0
  3
DIFFUSETILE
360
809F
  3
OPACITYTILE
360
80A3
  3
REFLECTIONTILE
360
80A2
  3
REFRACTIONTILE
360
80A4
  3
SPECULARTILE
360
80A1
  0
DICTIONARY
  5
80AE
330
80AD
100
AcDbDictionary
280
     1
281
     1
  3
ACAD_XREC_ROUNDTRIP
360
82C6
  3
BUMPTILE
360
80B0
  3
DIFFUSETILE
360
80AF
  3
FBXASSET
360
81C4
  3
OPACITYTILE
360
80B3
  3
REFLECTIONTILE
360
80B2
  3
REFRACTIONTILE
360
80B4
  3
SPECULARTILE
360
80B1
  0
DICTIONARY
  5
82F9
330
80F4
100
AcDbDictionary
280
     1
281
     1
  3
ACAD_XREC_ROUNDTRIP
360
82FA
  0
DICTIONARY
  5
82C0
330
80F0
100
AcDbDictionary
280
     1
281
     1
  3
ACAD_ROUNDTRIP_2008_TABLESTYLE_CELLSTYLEMAP
360
82C1
  3
ACAD_XREC_ROUNDTRIP
360
82F7
  0
DICTIONARY
  5
82D1
330
80BB
100
AcDbDictionary
280
     1
281
     1
  3
ACAD_XREC_ROUNDTRIP
360
82D2
  0
DICTIONARY
  5
82CF
330
80BA
100
AcDbDictionary
280
     1
281
     1
  3
ACAD_XREC_ROUNDTRIP
360
82D0
  0
DICTIONARY
  5
82DD
330
80C1
100
AcDbDictionary
280
     1
281
     1
  3
ACAD_XREC_ROUNDTRIP
360
82DE
  0
DICTIONARY
  5
82E5
330
80C5
100
AcDbDictionary
280
     1
281
     1
  3
ACAD_XREC_ROUNDTRIP
360
82E6
  0
DICTIONARY
  5
82D7
330
80BE
100
AcDbDictionary
280
     1
281
     1
  3
ACAD_XREC_ROUNDTRIP
360
82D8
  0
DICTIONARY
  5
82DB
330
80C0
100
AcDbDictionary
280
     1
281
     1
  3
ACAD_XREC_ROUNDTRIP
360
82DC
  0
DICTIONARY
  5
82F5
330
80CD
100
AcDbDictionary
280
     1
281
     1
  3
ACAD_XREC_ROUNDTRIP
360
82F6
  0
DICTIONARY
  5
82E3
330
80C4
100
AcDbDictionary
280
     1
281
     1
  3
ACAD_XREC_ROUNDTRIP
360
82E4
  0
DICTIONARY
  5
82C7
330
80B6
100
AcDbDictionary
280
     1
281
     1
  3
ACAD_XREC_ROUNDTRIP
360
82C8
  0
DICTIONARY
  5
82C9
330
80B7
100
AcDbDictionary
280
     1
281
     1
  3
ACAD_XREC_ROUNDTRIP
360
82CA
  0
DICTIONARY
  5
82CB
330
80B8
100
AcDbDictionary
280
     1
281
     1
  3
ACAD_XREC_ROUNDTRIP
360
82CC
  0
DICTIONARY
  5
82CD
330
80B9
100
AcDbDictionary
280
     1
281
     1
  3
ACAD_XREC_ROUNDTRIP
360
82CE
  0
DICTIONARY
  5
82D5
330
80BD
100
AcDbDictionary
280
     1
281
     1
  3
ACAD_XREC_ROUNDTRIP
360
82D6
  0
DICTIONARY
  5
82F1
330
80CB
100
AcDbDictionary
280
     1
281
     1
  3
ACAD_XREC_ROUNDTRIP
360
82F2
  0
DICTIONARY
  5
82E1
330
80C3
100
AcDbDictionary
280
     1
281
     1
  3
ACAD_XREC_ROUNDTRIP
360
82E2
  0
DICTIONARY
  5
82F3
330
80CC
100
AcDbDictionary
280
     1
281
     1
  3
ACAD_XREC_ROUNDTRIP
360
82F4
  0
DICTIONARY
  5
82D9
330
80BF
100
AcDbDictionary
280
     1
281
     1
  3
ACAD_XREC_ROUNDTRIP
360
82DA
  0
DICTIONARY
  5
82EF
330
80CA
100
AcDbDictionary
280
     1
281
     1
  3
ACAD_XREC_ROUNDTRIP
360
82F0
  0
DICTIONARY
  5
82ED
330
80C9
100
AcDbDictionary
280
     1
281
     1
  3
ACAD_XREC_ROUNDTRIP
360
82EE
  0
DICTIONARY
  5
82E7
330
80C6
100
AcDbDictionary
280
     1
281
     1
  3
ACAD_XREC_ROUNDTRIP
360
82E8
  0
DICTIONARY
  5
82E9
330
80C7
100
AcDbDictionary
280
     1
281
     1
  3
ACAD_XREC_ROUNDTRIP
360
82EA
  0
DICTIONARY
  5
82DF
330
80C2
100
AcDbDictionary
280
     1
281
     1
  3
ACAD_XREC_ROUNDTRIP
360
82E0
  0
DICTIONARY
  5
82D3
330
80BC
100
AcDbDictionary
280
     1
281
     1
  3
ACAD_XREC_ROUNDTRIP
360
82D4
  0
DICTIONARY
  5
82EB
330
80C8
100
AcDbDictionary
280
     1
281
     1
  3
ACAD_XREC_ROUNDTRIP
360
82EC
  0
XRECORD
  5
82FC
102
{ACAD_REACTORS
330
82FB
102
}
330
82FB
100
AcDbXrecord
280
     1
102
DISPLAYNAME
  1
Imperial24
102
FLAGS
 90
        0
  0
XRECORD
  5
8300
102
{ACAD_REACTORS
330
82FF
102
}
330
82FF
100
AcDbXrecord
280
     1
102
SHADEPLOT
 70
     0
102
SHADEPLOTRESLEVEL
 70
     2
102
SHADEPLOTCUSTOMDPI
 70
   300
  0
XRECORD
  5
82FE
102
{ACAD_REACTORS
330
82FD
102
}
330
82FD
100
AcDbXrecord
280
     1
102
SHADEPLOT
 70
     0
102
SHADEPLOTRESLEVEL
 70
     2
102
SHADEPLOTCUSTOMDPI
 70
   300
  0
XRECORD
  5
82C5
102
{ACAD_REACTORS
330
80A6
102
}
330
80A6
100
AcDbXrecord
280
     1
102
MATERIAL
148
0.0
149
0.0
149
0.0
 93
        0
 94
      127
282
     0
 72
     0
 77
     0
171
     0
175
     0
179
     0
273
     0
  0
XRECORD
  5
80A8
102
{ACAD_REACTORS
330
80A6
102
}
330
80A6
100
AcDbXrecord
280
     1
270
     1
271
     1
  0
XRECORD
  5
80A7
102
{ACAD_REACTORS
330
80A6
102
}
330
80A6
100
AcDbXrecord
280
     1
270
     1
271
     1
  0
XRECORD
  5
80AB
102
{ACAD_REACTORS
330
80A6
102
}
330
80A6
100
AcDbXrecord
280
     1
270
     1
271
     1
  0
XRECORD
  5
80AA
102
{ACAD_REACTORS
330
80A6
102
}
330
80A6
100
AcDbXrecord
280
     1
270
     1
271
     1
  0
XRECORD
  5
80AC
102
{ACAD_REACTORS
330
80A6
102
}
330
80A6
100
AcDbXrecord
280
     1
270
     1
271
     1
  0
XRECORD
  5
80A9
102
{ACAD_REACTORS
330
80A6
102
}
330
80A6
100
AcDbXrecord
280
     1
270
     1
271
     1
  0
XRECORD
  5
82C4
102
{ACAD_REACTORS
330
809E
102
}
330
809E
100
AcDbXrecord
280
     1
102
MATERIAL
148
0.0
149
0.0
149
0.0
 93
        0
 94
      127
282
     0
 72
     0
 77
     0
171
     0
175
     0
179
     0
273
     0
  0
XRECORD
  5
80A0
102
{ACAD_REACTORS
330
809E
102
}
330
809E
100
AcDbXrecord
280
     1
270
     1
271
     1
  0
XRECORD
  5
809F
102
{ACAD_REACTORS
330
809E
102
}
330
809E
100
AcDbXrecord
280
     1
270
     1
271
     1
  0
XRECORD
  5
80A3
102
{ACAD_REACTORS
330
809E
102
}
330
809E
100
AcDbXrecord
280
     1
270
     1
271
     1
  0
XRECORD
  5
80A2
102
{ACAD_REACTORS
330
809E
102
}
330
809E
100
AcDbXrecord
280
     1
270
     1
271
     1
  0
XRECORD
  5
80A4
102
{ACAD_REACTORS
330
809E
102
}
330
809E
100
AcDbXrecord
280
     1
270
     1
271
     1
  0
XRECORD
  5
80A1
102
{ACAD_REACTORS
330
809E
102
}
330
809E
100
AcDbXrecord
280
     1
270
     1
271
     1
  0
XRECORD
  5
82C6
102
{ACAD_REACTORS
330
80AE
102
}
330
80AE
100
AcDbXrecord
280
     1
102
MATERIAL
148
0.0
149
0.0
149
0.0
 93
        0
 94
      127
282
     0
 72
     0
 77
     0
171
     0
175
     0
179
     0
273
     0
  0
XRECORD
  5
80B0
102
{ACAD_REACTORS
330
80AE
102
}
330
80AE
100
AcDbXrecord
280
     1
270
     1
271
     1
  0
XRECORD
  5
80AF
102
{ACAD_REACTORS
330
80AE
102
}
330
80AE
100
AcDbXrecord
280
     1
270
     1
271
     1
  0
XRECORD
  5
81C4
102
{ACAD_REACTORS
330
80AE
102
}
330
80AE
100
AcDbXrecord
280
     1
 70
     1
 90
1959938040
 71
     1
  1
CBB7E032-FC84-4814-A0B2-CB15F59C3808
311
504B03041400060808002E857057EBDC98D4D9000000200100004F00000032394234303846302D434532412D343330312D394244442D3832314331313343383436382F4173736574446174612F446566696E6974696F6E4974657261746F7250726F706572746965732E62696E454E3D4FC3400C3D3A143174E01F54DD8FFB
311
2421515B048432C1025397CABDB825D225A97289C4C8C8BFA66751544BCFCF9FCFFE618CFD9E2C86EC22E23BFA49E4176CB0ABDCBBFBC41AD8982ABEDD82BF3CF74631A4B4C01D0CBEA7ADD72A38F41E1A6C87707D1E9DD6D04739F037B47415F15F08A4B0FF3B46F7DF22E82562280FF93D8480FD42ECB65FC23CD8D5A3D6
311
294F649A71AB9E0B7E279394DB6C954AF354DC5A634487A11D3A874168213727E5CDA1D957E572DE57354E1BA87131731DC69FCAD9524B6DB8525C251F2AC9ADCA75B69E0B9A3C02504B03041400060808002E857057A86E15F5F0000000300200004500000032394234303846302D434532412D343330312D394244442D38
311
32314331313343383436382F4173736574446174612F496E7374616E636550726F706572746965732E62696EEB606060F80F0540260323103700495E20ED9E9A975A94991C9C9C919A9BA802147076723277353036D27573B630D135B13034D175347032D2757632347533B57436B630B0604768046931363471713532B5D4
311
35353131D635313332D475727372D13534373670367376B67474B5042A03DBCBA019D37FE8ABC6157B20CD04146B0062181F4C03F940F0C11EA29A8141C08141002C0426541C106CAC2CA046088033B02A030AC2157C6006F21A8018AAF50194E6010A610250382264E08660284CD9E98021862280A91564B406929A0FF62C
311
401E28B6F88038B83CB1243943D7A928312F25350524C390F6DF96161800504B03041400060808002E85705728BB58AF800100009E0500003D00000032394234303846302D434532412D343330312D394244442D3832314331313343383436382F536368656D61732F436F6D6D6F6E536368656D612E786D6CBD544D4FC230
311
18BEFB2B96DE15493C78601010A34B880709DEDFB52FD0D8B54BD70DF6EFED3AC0B12E6442E2716BFB3CEFF3D18E26FB440405EA8C2B1992E1C323095052C5B8DC842437EBFB673219DF8DA659866649B798C078B48AE6410122242F2A4994AC7F93815DF85C049C8564CA0A901499DD886B2EB9B1E02448F358701A923588
311
0C49A0119892A20C89D1B9FD768815CAD268CB5E0355B40B1E47F3E37A2020464BED06AA57CE8FCC20C3C3446D46761A2632A8C1283D07031EFF2AE7CCB1BFEEE916E406DFAC8E36FFD99A9D60A6944090EEDC3B670C7DC13DE86B6B2C5C240D6E503BB85ACD579D513F1B9F9A69DC9CC22AFA80C426D40AF0B21EA1685591
311
56B6276F0F726A6BFF04DCD513A87A62CAD41FB24FCB2858B3952E3D852084DA25B9303C15687973CC8E8AAE11DF2836C38C6A9E765E8C1BA1BFB1DC29CDFE518C8B5A7655A4ED7E77291ABEB80DBD82EC866ADE1B8D05AF9E35CF09D7A061F38A986D9EC412B8F0F65E5D81534D9B231D1E5A8FE577A241F3A5FD01504B03
311
041400060808002E8570572CCEBD668A040000E01200003E00000032394234303846302D434532412D343330312D394244442D3832314331313343383436382F536368656D61732F47656E65726963536368656D612E786D6CD5586D6FDB380CFE7EBF42F0F7A649B70E1B90744856B4970F450FCD7A5F05459613EDE41748
311
72DADCAF3F522F8ED3B88D2F1D06AC4050DBA2493EE4438AF2F8EB73AEC8466823CB62928C06C384888297A92C5693A4B6D9D9E7E4EBD51FE3A931C22EF85AE4EC6AFC38BF261BA626C9AD288496DC3F4FCEAFC63366845F7A10452AF41DB320C0D44EC26EAB20918735565582695670811A6A49643A49A6E9069FA4604A64
311
B29016DC4B48552F95E4932463CA888468C1D2B250DB4962750DF7CE273069CE8363F1FF4EDB00E0A21999574AE4A2B00C353B93F3BD4777B8A61ED8F604ABFEDD79CE56A2B7BDFBDBC50996E0ADDE16FED26223C5D30956C29BDF4A55EA686E5E58B112DA45CE67F76F4FA27EFA3FB672FD7372FC388FAECDCA5209E693CA
311
D167BADCD272F943701B3812F8A3D852008B1D2E32DB927B2F833C6EA95879925356D254582695095A3CE982924720BE5774A3CB9CDCDB350427D2DF20DA1B5532EBE2D5D6288D75D4F7E4FD9890A0EF8E3D93EBB8F8BA4758158EF6FB90A6F9520281C93DE7AAC6D24607DA296BB96018123F821A7D6A5C5884050C475DA4
311
865442732C8B95684A50165CBB3A32F25F783A4A480ED59AD7F924B968AEA50131F46303223E6A397B0E52976030DC1DCA81D7E7C1EDEEA42C19FF27635C505E2BD5198A599020DF50A2330FCB3AAF28CB0124108429553EF1B228802E2265D8F7CC2401042B155BCC7070F1E5C55F13B4A9577362CCCE46C32174E010C3C3
311
78C44841A4BDA00FE3A12006CE11EE6AEC59894D3526DDE1CD59D503ECC324017F8061B7F162162FA62EDD81AE3308617770796DCBDAD2B2625C5AE8A63DE20B2C8AA5E95E76E5730823955956E33E705425A2187C185D36489A1B44D3DCEC2172F6BA2105C3546287A7194B2331768EBBE64F6E70A9930ABE0ADEA89E9E2C
311
38523B810287AD67A54A039C1606EAFE68F8304610BB9093DBDDABC0B2AE4E290DCDA15376D7E39F72B556F0B32EAB5D3D498B4C41ABADEC3A1434C422D87E8025A84BDCB2B1417ED750FAE4DA8976863974C577C7F902D3F156AD354DEA3540DE6BEAE2BEA52F7A2EB4CA43802ECE5BF2CE2EDC9347179FFB023CE412E60B
311
E16DA0BE29B374988A553F561DC04615DD35F7D2C8979F60E5955CE93DF29DED8AFA1EE6642D53418086C03C47C377910F75F7E8F5EF665F70B60FFB22AEDF897D119E8423C773E819A3C1E55E550599EE6EDCA34D0C86FD72057DF2CD46F16A470682471C164E4346D5306BF12D7D12D82CFF673D41636C347443FEB51B50
311
D72EA171A8E4A58623A4A16E0FA2B8B10A0D23268D87C33896EE8FB73305A74BF224EDBADFA0BD674AB354D63DB7BD5D83426761C077DE767728235446A552754EB93B755891C3C4CC6CADE37CF0E912A7BB38DBA010F9DE1282EDF470CA69A9CDA482E334C4A6EA4107987980B17E72F31730EBF88BBD39E7C629F56797A3
311
C0009C2C5AE7951D9A05A02773440F02EEB4DE396A3B6A570C72CCFBCD823B0B8ED3F1D5CEDDFED772FA70236C83FB7D86C385D570B87107535572A60A96035F8F7C6A7192F13007246BBE0521855E6AC46F3E27689CEE7D186A6FD679D98CDCAD13333E04EBE7ED6F55FF01504B03041400060808002E8570576180134D5F
311
0100006B0300004500000032394234303846302D434532412D343330312D394244442D3832314331313343383436382F536368656D61732F52656E6465724D6174657269616C536368656D612E786D6CA5934D6FC2300C86EFFB1551EEE343DBA41D1A103009551ADAD40EAE28A4A68D9426284961FCFBE5A340113B207174
311
6D3F765EBF4DC6BFB5407BD0862B49F0B037C0082453059725C18DDD3EBFE3F1E829991803366715D474942CD30FB4A782E00C64017A412D684E454CE3FE28995203B162A6EA5AC94B66997D225E109CD63B0135484BAD1B3C07E9080CA35DB3119C11BCA5C200461A68A1A438126C75E3E230D40FF81FB3F03C91D1E3A3A0
311
AF79FE28E25BC39EC3E17E4C2A2D94A0833A51AF55BCCA7D88572FCBAC529C4140B020FC3AAFA886621DCED7EAD7664CC86024E806DC297DA1BB393E4156543457A4537DB8817349A70F8ACBF09B3EEE2CB2F33E91B65D60786E4E3B39B77E3FEEEF5650424525DA657FB8B46BE6BF064646F0A0F7327C0BC1BC1B4CBBC1C4
311
19FA3CCB23500007872A2580CAAE5461865565294E4EDB4617B62FF579DF9A5B2F54E834076A597573A020912FED777F9B3F504B03041400060808002E8570579E4CB31051000000570000004700000032394234303846302D434532412D343330312D394244442D3832314331313343383436382F4173736574446174612F
311
41737365745461626C654F66436F6E74656E74732E62696E536160607076723277353036D27573B630D135B13034D175347032D2757632347533B57436B630B01002AACB4D2C492DCA4CCC492C28484D2C4ACC4B4E050A82012F90744FCD03CA26072767A4E6260200504B03041400060808002E857057F865834058000000
311
680000004500000032394234303846302D434532412D343330312D394244442D3832314331313343383436382F4173736574446174612F53747265616D56657273696F6E5461626C652E696E66558CBD0A80300C06F73E4B117FB66E451741D041DC5BF98480A492E4FDD18EAEC7DD4555D89EF28DF51A0B1BD8340C4DE7DD
311
848B988C0ACF0649566493F2408C508DDEBB99D5129FF8F1AF8CF5B9503E20FAE5A16B5AF702504B03041400060808002E8570579C126B20340100009A0400003600000032394234303846302D434532412D343330312D394244442D3832314331313343383436382F4173736574446174612F636E782E786D6CCD94414F03
311
211085FFCA86FB42A9A6D186A5317AE949131B0FDEA6EC6C4BCAC206668DFE7BA1DD83A6C6530FBD0E6F86C717DEA8D567EFAA0F8CC906DF30C967AC426F426BFDAE612375F51DAB565AC510E8878C551E7A6C582933AD76318CC3546AB183D195AAB3FE30151F5242DAC0D6E173F7183CA1A7C42AE320A58625B3C71E388C
311
145A4C07DE0201973C620A6334982791ED719A64220261CBF47C36BFA9A5ACE5622317CB5BB99CDFBF2B51945A6D437093DEE6CB62182A73BA95E99912E558AB31DA4953DEC2F45F1EF9D67A25B252AB443133993AE86BC81D300CCE1AA08C4E044348751621F44A9CC45A89C2E0178927ECACB7A5659D8D0185F892ED6124
311
8B5747E43FAF9727B3F689C01BBC5E1EE70E2F4FE1F5F883DE4E813C26E6DA7272EE905BDF5D2025E2B8467268CA56D1DF504B03041400060808002E857057D6A4CAA1080100004F0300003400000032394234303846302D434532412D343330312D394244442D3832314331313343383436382F536368656D61732F636E78
311
2E786D6CCD93314F04211484FFCA867E6159CD452F2C575858D9A8951DC2BB3B72C0DB006BF4DF0B2BC55D62A7C575307C2133C343EC3EBDEB3E20268B61229C0EA483A0D1D87098C892F7FD1DE9765244C47C86912E280F13A93291E21071999B6460AF16575567C3A9890FE83D86177D04AF48A79D4A692269DD52B56434
311
904ED4A8AC28A711122E5143B9215B0FED061D416530448EC378D373DEF3CD2BDF6C6FF976BC7F13AC9252BC23BAC6DB9021E2DC692C8B50EC0C82D5632996681B53331079EE8D9636042B841429C7D24123F3D75C4835CFCE6A954B556C057F1829588D7A11F8110244ABAF33F185B97F8BFC0CC1407C2AAF14AD72D799FC
311
378F7F2B80ADB35F46A07E05F90D504B03041400060808002E857057410A3D5871000000A40000002C00000032394234303846302D434532412D343330312D394244442D3832314331313343383436382F636E782E786D6C55CC4D0E82301086E1AB34B31774E7A22D31F1069E60020334B633A63FC6E34B0909B07DDE2F9F
311
EE7EC1AB2FC5E4840DDC9A2B28E25E06C7938192C7CB1D54677514C9871928C640062A83D55394F2D968A0118BAFEA1DBF377CA444F98919176EAB9FEAAB9F2960DA5BBB1E2ED3FA6FFF504B03041400060808002E857057631908FE7E000000A300000007000000636E782E786D6C4D8CD10AC22018465F45FE7B4B9D8403
311
753457EF319A1B92D361337AFC3476D1D50787EF1CD97D568FDE36BD5C0C0AE88900B2E11127171605799FB100D4699962DCFF6E80C2B85A051583964B8A793BD064E731FB4ABD0BCF03B2B6E744DC09363776C5BC2114B7FD3060C1A8A1B431825F4431CE5529F3EB95AD79FD05504B03041400060808002E85705716E99B
311
5DA600000035010000130000005B436F6E74656E745F54797065735D2E786D6C9590410E82301045AFD2740F4517C6180A0BF5065E60AC53688469D30E066F6F91AD9AB89CF9FFFD3F99BA9DC7413C3026E749CB4D59498164FCCD51A7E5C4B6D84BD136F5E5193089ECA5A465CF1C0E4A25D3E308A9F401292BD6C711388F
311
B15301CC1D3A54DBAADA29E38991B8E0254336F5092D4C038BF39CD76B6FC6A538AEBEA54A4B08617006389FA516557DE4AE8E7E70DE30729138228C5F021CD93F02D4FB0DCD0B504B03041400060808002E8570573DEE336E64000000790000001B0000006175746F6465736B2D64657369676E2D7061636B6167652E786D
311
6C35CBC10E83200C00D05F21DCA56CA76D41FC96062B120735B69A7DBE268BB7777961F8D5AF396893C2ADB70FE7ADA196782C2DF776D7A97B5933C430F15651E5469C55D70F80A4992A3ADC954792C525AE70A1E4D6AD9816CC044FEFDF01FE3FDE907802504B03041400060808002E857057730ED1A4F900000096010000
311
3700000032394234303846302D434532412D343330312D394244442D3832314331313343383436382F4173736574446174612F636F72652E786D6C8550CB6E833010FC15B47703060224328E28095FD0536F9671889560233FAA7E7EED40A5F6D4D3AE66676677879CBF9667F2298C955A7580D31C12A1B89EA49A3BF0EE86
311
5A48CE9418ADDD2F1A248A2DA283080325B3D17EDD21AE95132AA24A4F620799B5C241C29FA1E9C0F2BB5858CABC0B0CFB4857C61F6C16294E371E25DECB6997CA29B8C99B1406E8D8B715C6C3050D75D1A0AA1D4AF4D68C07D4B779733D8CC7F1585E4916C59438B9FC6CE746302726A0455E94086384EB775C9F2A7C2A8E
311
1F248B4C4AAC33E1E77D69FC0E681FAFBE30C748B64DFFB8FA75FADFD54BE5CA6277DD1416280E47BE06946431A5505E11861A13A5DF504B03041400060808002E8570570B0007E3F8000000940100003500000032394234303846302D434532412D343330312D394244442D3832314331313343383436382F536368656D61
311
732F636F72652E786D6C8550CB6E833010FC15B47703060224328E521A7EA03DF5666187580936F2A3EAE7D7062AB5A79E76353B33BB3BE4FC353F934F61ACD4AA039CE69008356A2ED5D4817737D44272A6C468ED7ED120516C161D441828998CF6CB0E8D5A39A122AA34173BC8AC150E92F1199A0EEC7817334B99778161
311
1FE9C2C6079B448AD38D4789F792EF52C9839BBC4961800E97B6C2B87F457D5D34A86AFB12BD34C3015DDABCB91E86E3702CAF248B624A9C9C7FB68F46302738D0222F4A8431C2F53BAE4F153E15C70F92452625D699F0F3BE347E07F46DBDD3926C9BFDF1F40BFFDFD34BE5CA62F7DC1416280E27AE034AB29851286B80A1
311
C63CE937504B03041400060808002E857057F29DE962FF000000D70100002D00000032394234303846302D434532412D343330312D394244442D3832314331313343383436382F636F72652E786D6C9551CD4EC420187C15C29DB6D0DAB41BCAC6EDEA1378F286E5DB4A760B0D3FC6C7176C8D7AD3136498998F998F1FDF97
311
1B7A03E7B53503A645851198C92A6DE601C770211D4647C19DB5E1070D232317187086B1E0B3B371DDA1C99A0026A3C62AD841E93D048CA65BBA0CD84FAFB0C842C69018FE5AAC72BACA190A5A6C3CC1835EBEA49303194061C12A56134A096D9F687B68E881F5CFBCCC4CC1A336A166FB30585E4021BB8614098B3B5E6EAF
311
8915B5DA395AA53FEA8B06978CFB5353758F15191FD83D69EA8A92FE743E938ED191D27AEC9AB64B26492CB80F2E35B39BE40EFE2ADF84BF92C555FD33D9A6F058D0EF5065AE59F0F27307E9CC2B111F504B03041400060808002E85705771CA400009010000B201000008000000636F72652E786D6C8D50CB6E833010FC15
311
6BEF060C8447641CA5347C414FBDB9D82156C046D844EDDFD70E546A6F3DAD3533BB331E7AFA9C46F4908B55463740A20490D4BD114A0F0DACEE8A2B4027461763DC2F1920CD27D9408081D16131EBBC43BDD14EEA806A23E40E726BA503D48FFED180ED6F72E2115F9D57D87B34F3FECE07199168D331EAD4F4B3DA2F923B
311
2980A5499A61423029DE4871CCC931ADDF691C948CAEAB12BB9512DE5D5D955C8075E72A27A47DC56D919638AFDA0CBF94DD019FABA4BC1CBABAABB30B8DC332A3D62DFECFFB119FD321CB1FC197C61BC5E88731E32EF0A104327AFC0296D038107F42AFB3F84768A55D96EE07B70D0B8CF8404FC21B8706FD78D6EB67689B
311
7D03504B010214001400060808002E857057EBDC98D4D9000000200100004F000000000000000000000000000000000032394234303846302D434532412D343330312D394244442D3832314331313343383436382F4173736574446174612F446566696E6974696F6E4974657261746F7250726F706572746965732E62696E
311
504B010214001400060808002E857057A86E15F5F00000003002000045000000000000000000000000004601000032394234303846302D434532412D343330312D394244442D3832314331313343383436382F4173736574446174612F496E7374616E636550726F706572746965732E62696E504B01021400140006080800
311
2E85705728BB58AF800100009E0500003D000000000000000000000000009902000032394234303846302D434532412D343330312D394244442D3832314331313343383436382F536368656D61732F436F6D6D6F6E536368656D612E786D6C504B010214001400060808002E8570572CCEBD668A040000E01200003E000000
311
000000000000000000007404000032394234303846302D434532412D343330312D394244442D3832314331313343383436382F536368656D61732F47656E65726963536368656D612E786D6C504B010214001400060808002E8570576180134D5F0100006B03000045000000000000000000000000005A0900003239423430
311
3846302D434532412D343330312D394244442D3832314331313343383436382F536368656D61732F52656E6465724D6174657269616C536368656D612E786D6C504B010214001400060808002E8570579E4CB310510000005700000047000000000000000000000000001C0B000032394234303846302D434532412D343330
311
312D394244442D3832314331313343383436382F4173736574446174612F41737365745461626C654F66436F6E74656E74732E62696E504B010214001400060808002E857057F865834058000000680000004500000000000000000000000000D20B000032394234303846302D434532412D343330312D394244442D383231
311
4331313343383436382F4173736574446174612F53747265616D56657273696F6E5461626C652E696E66504B010214001400060808002E8570579C126B20340100009A04000036000000000000000000000000008D0C000032394234303846302D434532412D343330312D394244442D3832314331313343383436382F4173
311
736574446174612F636E782E786D6C504B010214001400060808002E857057D6A4CAA1080100004F0300003400000000000000000000000000150E000032394234303846302D434532412D343330312D394244442D3832314331313343383436382F536368656D61732F636E782E786D6C504B010214001400060808002E85
311
7057410A3D5871000000A40000002C000000000000000000000000006F0F000032394234303846302D434532412D343330312D394244442D3832314331313343383436382F636E782E786D6C504B010214001400060808002E857057631908FE7E000000A300000007000000000000000000000000002A100000636E782E78
311
6D6C504B010214001400060808002E85705716E99B5DA6000000350100001300000000000000000000000000CD1000005B436F6E74656E745F54797065735D2E786D6C504B010214001400060808002E8570573DEE336E64000000790000001B00000000000000000000000000A41100006175746F6465736B2D6465736967
311
6E2D7061636B6167652E786D6C504B010214001400060808002E857057730ED1A4F90000009601000037000000000000000000000000004112000032394234303846302D434532412D343330312D394244442D3832314331313343383436382F4173736574446174612F636F72652E786D6C504B010214001400060808002E
311
8570570B0007E3F80000009401000035000000000000000000000000008F13000032394234303846302D434532412D343330312D394244442D3832314331313343383436382F536368656D61732F636F72652E786D6C504B010214001400060808002E857057F29DE962FF000000D70100002D000000000000000000000000
311
00DA14000032394234303846302D434532412D343330312D394244442D3832314331313343383436382F636F72652E786D6C504B010214001400060808002E85705771CA400009010000B2010000080000000000000000000000000024160000636F72652E786D6C504B050600000000110011005A060000531700000000
310
504B03041400060808002E857057000000000000000000000000370000006662782F31363338454635342D433243372D344136302D394344462D4331463845433034303343392F617474726962757465732E62696E504B03041400060808002E857057000000000000000000000000350000006662782F3136333845463534
310
2D433243372D344136302D394344462D4331463845433034303343392F76657274696365732E62696E504B03041400060808002E857057F270F1330600000004000000360000006662782F31363338454635342D433243372D344136302D394344462D4331463845433034303343392F747269616E676C65732E62696E6366
310
60600000504B03041400060808002E85705751464CB48900000043010000360000006662782F31363338454635342D433243372D344136302D394344462D4331463845433034303343392F6469726563746F72792E786D6C9D8F310EC2300C45AF127987122606C71DD918B841D4B851A43646695A717C52A85029031293A5
310
A76FBF6FACEF7DA7264E43906840EF0FA03836E242F406C6DCEE4EA06AC22492573150D1F66C60C640E8938CB705396EEDD86DE9B5042FE27813D640EA63BB001C722AF6E55CB61E4863F58284D5D3F53DD715CE1C3985E63FD7F1B7EBDD617E9F1E504B03041400060808002E857057ABDBC0703F070000201C0000340000
310
006662782F31363338454635342D433243372D344136302D394344462D4331463845433034303343392F6F626A656374732E786D6CDD595B6FE23814FE2B56F665F7212421D0C288322A504668D499D1A059ED5B6482A1DE3A1739494BF7D7EFB16387380D90CE455A6D2B15EAD8C7E77CE77E32797F88187A223CA3497C63
310
793DD742240E932D8DF7375691EFEC9185DE4FD18427495EDB67A11847E4C612CBD674B2E74991AAA52DD9E182355797B3BF5016929858286438CB6EAC2C7C2011EEE1224FB6247BEC6D718E7BFBDDA1E7F5CA8D26D93DC7E943E3AA147312E7C02AACC7404571E099FF8248CE74E2880DC636BFDBB6FE996D8E14DC6494C6
310
598EE3F015578DEBFA27B86A5CE77B83C55D7F38B68783816F0FAEFA9E3D5BCE16B677EDBBF3ABF97C7C7B37B6D074B2491256292025F116B4F8624DBD89239E54E22B14DAF80E933826A142B36DC39628BA94644D4C0C603D295A4D21A5ACB505BFA3F027B67502C560C9405B0BA73FEBD69B6CFE0610B22E56CA3322AC3C
310
CB39E85A615FFA833B71CA55432F344311CE09A7982146371C7350106C2D15649011DE2248218199D4A2A657E7150CFBB22FB571B92B1813FE6B4DA5A705E08F24CF2467F41FC28FDCD76F039E40DA82C6F948099BBFA440623C71E462F9CCEFAB87259068C7F01EAC05C4149BFC7E03AFB98805AB8535FDB8DC1CD6223EB4
310
5F9EF224253C1796279D59F99DD660CDB4C0F83A8052E26AEAEE88CA5780FE13205FF18226A0394E0F83C340CBCE719CED121E8176908B6C17FEB8487C7DF56DE25487A70819B1F214A6E0B63F0953430CE3EE1AA4D3C913187DC27D25DC3AC40C6CFA9EC6C2CFC150104B6009E2FD6E73B0A62B08A6B008A73003E9E177E2
310
88AF083E4A3A106F1A1A6A0BBF1D14A51DA6E967475D7D009BE134AC5465C8780ADFE14FC1F776B1FEB82EF80E87E45E39F682EC684C7348A6ED0C19A01B2EFF6DF5497AE407966C303B9E36368570CD3E1171A3452D6BA51624F5029C88345C6A46AEDC53F076C6704C922253EB6D712A4C58C283CD4B50BA70EB5D7F6A1B
310
282F5306D01ACB20B9879CA602136BAAB45505C25E4D50B030CC9505EE4BAD069B224A031C25452C42ED6B536CF201714658225095D4B4616BAFD564B774B72B32085EAD24E70690CA9F35E1D2C20710C7DAF8E564C73124D1240E28E4607096D61B8C0B2AF0CEF39C11B60B28634514EC28833C1244383D41BFA304F5CCF5
310
485E9E13BE6D25685A96F6496D43027005AC064967AB32E62B9D72F244459929F399CE06C60E55875AD3C189742132450BA0DA18A599CF67B3EB3BD7EFDBCBF968600F46DEC0BE75677D7B3EF386CBE178EE8FDC51934F1DADEAF90E5429CA1CC3FFF28722DAC498327820C4C6DBF4DD7B993D6F1C088D8E7F3B58CEFAFD6B
310
FBCABD1EDB03EF6E618FDCAB6B7B305E5EBBFE7C311CF8BEC34996143C2499D377DC409B641AEF4F71A5B97B1D43A1ACB99CECB4BE9AC2FC8F63683327184AFCAF06D12A76B514845D83A838DA0CA1387C14292A08A1EA6B759F46106DF2D116E7DE1897DD9EEFCA1FCF1BF7DD717F34BEAA8CFD6CA096F7FC709C6B932084
310
BEB3C88324C521CDDB136A03978E71FA4DB9A5E77B4304E8547FAB4BCEE71975494023BC27C10E8B2EA125305E92A03587ED599265342699ECF25E557F0D9A6E0F8A2933E7B61821CD8288E4F87BEC4FB60D0D9B86D8CC02E847733111B858155406AD3A90531445F70B895BCAFF1264384A59D9E95EC2C0EB6B08748FD366
310
71826971C513D85B80F3C0DD1239B8B844BD625FD707AD5A6B521F7F37F913F0E8BAE617C2A3AFE85E3AF586DE58FC8C20A85C0D3DFF5A2BE21256FAAA5CF471AC80CE337C099E09DD3F742A34BBE9A456B29545754E226863715EF04EFE7A35745F5DA4E242C3216A37BDB13894FD9BEEE0003DD9C09D2A6F6BD7401D4A63
310
98737512E49514AD262C7521677A6274F506BF3EABEC3AD51F8E97BFBC62AE3B5F24873F9771806AB90CC02AFA1835756BD56DD443D933CE4308A46BF969CFC023B6647B6CCC0C726D25BAAE4F2F55CF2B11502398D8621167EFC517F61583AAA17BCE9C0F65D1E694EB2B91D87A309C3EF261306DD2FAFC61DDA0022B9D4F
310
7F111891E70605B53A17DDF01952DF56C79EBF414149F46D75E6F87FA2A3D00AAC8DD1601A9C258CC2509E6CD19E2490BD61ECD0A1DBE011C9645606E355414ABF11E870FAA99CA9E678C3F4E9F001C3609AA95EAC0861280A19F3C652EBE83718838A49A41C4EF51EA10D5331CC4205A73716586C4EA1DBEA6D609C258787
310
927A635C098E8DE3BDC8F7E5A9EAFFE331810E44A5A35CD59E2EB828C90C6782C23695EF09A0EA2B1F4C27DF2FBA6607E11CBE6E8ABC12E6B870944681A05F0894C2C1D4EF51C17B8082E2BC5C5E4FEE3120E934993F6B0725553BC77C2FC7EB35BC6F175F1C31195F7D46292BF6429DE7BA5F83922DBA6E569453A8091886
310
1233C5A2869CBF73BEF0045E31456849C108D0EF87D1D51FCE3C89A2242E979C5BF5A20AAD1FE0B5D3D6D1233F68E35D6FE8C829801AEB071B9C911EDE668FB000AAE554CC464B880D03A8A269CD00B446842EE098B17FB540AA36AA4D48EA6157C02367FA081C49BCCB116E53DF501B40822F0057F2E1F18B5E98381C86E0
310
D37F01504B03041400060808002E857057D1D2C16F3E01000046050000300000006662782F31363338454635342D433243372D344136302D394344462D4331463845433034303343392F636E782E786D6CCD94C14EC3300C865FA5CABDED32D004539A491C78020E885B9A7A255B1A578983D8DB938C6E80D0108749DB2D72
310
7E4BFF67FFB258BD0FB678031F0CBA86F16AC60A701A3BE3FA86455A9777AC5849E111E99B8C154E0DD0B05C6652F41EE338953A58AB6873D51AB79D8A8AC89B3612045668AB426858D0AF30A84A45C20EC2B6EA14A98A571E0246AF21F5931960EAD71E1441C7E47C36BF29392FF9E2892F96B77C39BF7F1175564AD122DA
310
496F1C81C7B1D0981E2E9999893A7F4B11BD99349980C92F67556B9CA8D3BF1421B975FDA4A3DD9875E3688D5694C654A326A03289400DA2FE144B5167DE1FD48F0FCF070745673C6842BFBBD000F8A9011C8D552909FFE3DF0BFFC6C67693702FB5ED93B093ADB3A11ED21A525C7FEF3FA548B9DE5E5FE88FC6CE9FF9744A
310
C8E8EB433EF83A1371BD3F7969E9F902CA0F504B03041400060808002E8570575F700CB77E000000A30000000B0000006662782F636E782E786D6C4D8CD10AC22018465F45FE7B4B9B2D07EA089BEF319A1B92D3B0193D7E1ABBE8EA83C3778EE83FAB476F9B5E2E0609F44000D9708F930B8B84BCCD9803EA9548316E7F37
310
40615CAD848A418925C5FCDCD164E731FB4ABD0B8F1DD2B6E1833933AC4FFA82D9B525B8D3378335357CD084914677C53856A5CCAF57B6E6D517504B03041400060808002E857057A6D797065F0000008200000007000000636E782E786D6C4DCB3B0E80201045D1AD90E9FD7516806B51190811670C8A61F982B1B0BAC9C9
310
7B72CA7B1037C6D3332918DA1E04D2CAC69353902EDB8C20262D23F3F59B81A079470595414B17391D1F19B4730A5583A7ED43BBE4025D9592775E5ADFFA01504B03041400060808002E8570574FEB6A7CA0000000F4000000130000005B436F6E74656E745F54797065735D2E786D6C7D8F4B0EC2300C44AF1279DFA6B040
310
0835ED02B8011730C16D239A8F121795DB93D02D6269CFBC19BBED573B8B17C564BC53B0AB1B10E4B47F18372A5878A88E20FAAEBDBD032591BD2E299898C349CAA427B2986A1FC86565F0D122E7318E32A07EE24872DF3407A9BD63725C71C980AEBDD080CBCCE2BAE6F5D69B7110E7CD57AA146008B3D1C8F92C5954F993
310
BB1BF787F39A89ABC491D09600F9FDA2FB00504B03041400060808002E8570573DEE336E64000000790000001B0000006175746F6465736B2D64657369676E2D7061636B6167652E786D6C35CBC10E83200C00D05F21DCA56CA76D41FC96062B120735B69A7DBE268BB7777961F8D5AF396893C2ADB70FE7ADA196782C2DF7
310
76D7A97B5933C430F15651E5469C55D70F80A4992A3ADC954792C525AE70A1E4D6AD9816CC044FEFDF01FE3FDE907802504B03041400060808002E8570579C7B6A54F8000000960100003B0000006662782F31363338454635342D433243372D344136302D394344462D4331463845433034303343392F7265736F75726365
310
732F636F72652E786D6C8550CB6E833010FC15B47703068A70641CF541BEA0A7DE2CB32156828DFCA8FAF9B5132AB5A79E76353B33BB3BFCF8B5DE8A4F745E5B33022D6B28D0283B6BB38C10C3990C501C0577D6865F34288C5C71840C83E08BB371DB21654D4093516367DC41E93D0628D42D35237875C155963286C4F0D7
310
7293EA2A172C69F9E0091EA39E77A99E939B3E6B742086E7FE34BD760361CDA9251D9B3AC2584D097D99A6960DECAD1E9E7895C58207BDFE6C570E65C0194453372DA189DFBFD3FED0D143C33E78959982FBE0D2CFFBD2FC1D0887DE46A7D0F3EA31FDE31AB7F97FD7A84D689BDDF5A1F020683AF23E10BCCA29A5728F30D5
310
9CA8F806504B03041400060808002E857057AA8041C0F2000000B1010000310000006662782F31363338454635342D433243372D344136302D394344462D4331463845433034303343392F636F72652E786D6C8D50CB6EC32010FC158B3BB6B15DD789305145E32FE8A937041B0725068B47D5CF2FC4AED4DE725A343BC3CC
310
0E3D7D2FF7E20B9CD7D68C8894352AC048ABB4994714C3050FA83831EAAC0D7F68A8306281116518313A3B1BD71D92D60430193556C10E0AEF21A042DED363445E5E6111A5882131FCAD5C85BC89194A526E3C46835E7EA5D28108A0106BEAA6C58460D27F90FED8916373F8A45566321AA356BB9556C95D5F3438C448DF0E
310
E7E9A5C3BCE1AFB87BEB6B7CE0EF13E6641ACEBCEEEA961F6895C58CFAE0D2CDFB27F9BA67E59BF05FE6B8AA27326B13DA6637DC143E79A63C8F05A3552E308D47BB69E6B2D90F504B03041400060808002E857057AAB3868853010000DD0200000C0000006662782F636F72652E786D6C8D52CB6E833010FC15E43B0F038D
310
A0328EFA205FD0536F8E71A815B091B1513EBF6B1EA23934AD908C35BB3B3B333239DEFA2E988419A55615C2518202A1B86EA46A2BE4EC252C5070A4C4686D7FB4A140B15E54C8C38892D66837AC10D7CA0AE551A51BB1826C1C854501EFE052A1917F899E45CC59E818AFD1C0F895B522C2D1D2478973B2594765036CF222
310
8541B478399CEAB7BC08CBF494857959E761592638C4AF759D9545F99E144F24F6C39458D96FDBB911CC8A06D13449B31043FFE1031F9E73FC9C969F24F69D948CD680E775A97787E8E57C23F182DFF1B9A1F99BCF4965B374E55B26464431C89B0B94C43E1FF8CDE1DD67088B213FCBCEDD66E10AD024B8D526874AA3DD5E
310
9A58E7045027C1FC9178A902F34CF01B4FFA80E7310704C5540BD29885EBD959BFFD5ED3204C38D95BA0B4E959B78B5B24EEE7BEE8CED236CE75A7CD7FA637AB5B98B17F98F41B504B03041400060808002E857057B92C2ECA06010000B201000008000000636F72652E786D6C8D50CB6E842014FD1572F7A8A8353241267D
310
385FD0557754184B46C1F098B47F5F98B149BBEBEA9273CF8BCB8E9FEB82AECA796DCD00A4A800293359A9CD3C400C67DC033A72E6AC0DBF68808C58D5001906CE6667E3B643933541998C1A2BD50E0AEF5500342DE931809F3ED42A0A114362F84BB189E922665590E2CEE32CE8F5473A39258292C0EBAA6E30219874AFA4
310
3BB4E450D33756662667316AB9476999D2F5592B07BC7FEC4EE373DB635A9F1ADCD2B1C59456C9E2691C1BDAD397AA7F60651673E6834B7FDE4D52CF80BCB8E65C56DE579CBD5BBBEC84544A226B962FE0152BF3E24FE9B8C97F94D62634F56E785778E02415BA2D5270BE601AB7F3A699AFCDBF01504B0102140014000608
310
08002E8570570000000000000000000000003700000000000000000000000000000000006662782F31363338454635342D433243372D344136302D394344462D4331463845433034303343392F617474726962757465732E62696E504B010214001400060808002E8570570000000000000000000000003500000000000000
310
000000000000550000006662782F31363338454635342D433243372D344136302D394344462D4331463845433034303343392F76657274696365732E62696E504B010214001400060808002E857057F270F13306000000040000003600000000000000000000000000A80000006662782F31363338454635342D433243372D
310
344136302D394344462D4331463845433034303343392F747269616E676C65732E62696E504B010214001400060808002E85705751464CB489000000430100003600000000000000000000000000020100006662782F31363338454635342D433243372D344136302D394344462D4331463845433034303343392F64697265
310
63746F72792E786D6C504B010214001400060808002E857057ABDBC0703F070000201C00003400000000000000000000000000DF0100006662782F31363338454635342D433243372D344136302D394344462D4331463845433034303343392F6F626A656374732E786D6C504B010214001400060808002E857057D1D2C16F
310
3E010000460500003000000000000000000000000000700900006662782F31363338454635342D433243372D344136302D394344462D4331463845433034303343392F636E782E786D6C504B010214001400060808002E8570575F700CB77E000000A30000000B00000000000000000000000000FC0A00006662782F636E78
310
2E786D6C504B010214001400060808002E857057A6D797065F000000820000000700000000000000000000000000A30B0000636E782E786D6C504B010214001400060808002E8570574FEB6A7CA0000000F40000001300000000000000000000000000270C00005B436F6E74656E745F54797065735D2E786D6C504B010214
310
001400060808002E8570573DEE336E64000000790000001B00000000000000000000000000F80C00006175746F6465736B2D64657369676E2D7061636B6167652E786D6C504B010214001400060808002E8570579C7B6A54F8000000960100003B00000000000000000000000000950D00006662782F31363338454635342D
310
433243372D344136302D394344462D4331463845433034303343392F7265736F75726365732F636F72652E786D6C504B010214001400060808002E857057AA8041C0F2000000B10100003100000000000000000000000000E60E00006662782F31363338454635342D433243372D344136302D394344462D43314638454330
310
34303343392F636F72652E786D6C504B010214001400060808002E857057AAB3868853010000DD0200000C00000000000000000000000000271000006662782F636F72652E786D6C504B010214001400060808002E857057B92C2ECA06010000B20100000800000000000000000000000000A4110000636F72652E786D6C50
310
4B0506000000000E000E0080040000D01200000000
  0
XRECORD
  5
80B3
102
{ACAD_REACTORS
330
80AE
102
}
330
80AE
100
AcDbXrecord
280
     1
270
     1
271
     1
  0
XRECORD
  5
80B2
102
{ACAD_REACTORS
330
80AE
102
}
330
80AE
100
AcDbXrecord
280
     1
270
     1
271
     1
  0
XRECORD
  5
80B4
102
{ACAD_REACTORS
330
80AE
102
}
330
80AE
100
AcDbXrecord
280
     1
270
     1
271
     1
  0
XRECORD
  5
80B1
102
{ACAD_REACTORS
330
80AE
102
}
330
80AE
100
AcDbXrecord
280
     1
270
     1
271
     1
  0
XRECORD
  5
82FA
102
{ACAD_REACTORS
330
82F9
102
}
330
82F9
100
AcDbXrecord
280
     1
102
DISPLAYNAME
  1
Imperial24
102
FLAGS
 90
        0
  0
CELLSTYLEMAP
  5
82C1
102
{ACAD_REACTORS
330
82C0
102
}
330
82C0
100
AcDbCellStyleMap
 90
        3
300
CELLSTYLE
  1
TABLEFORMAT_BEGIN
 90
        5
170
     1
 91
        0
 92
    32768
 62
   257
 93
        1
300
CONTENTFORMAT
  1
CONTENTFORMAT_BEGIN
 90
        0
 91
        0
 92
      512
 93
        0
300

 40
0.0
140
1.0
 94
        5
 62
     0
340
80E1
144
0.25
309
CONTENTFORMAT_END
171
     0
 94
        0
309
TABLEFORMAT_END
  1
CELLSTYLE_BEGIN
 90
        1
 91
        1
300
_TITLE
309
CELLSTYLE_END
300
CELLSTYLE
  1
TABLEFORMAT_BEGIN
 90
        5
170
     1
 91
        0
 92
        0
 62
   257
 93
        1
300
CONTENTFORMAT
  1
CONTENTFORMAT_BEGIN
 90
        0
 91
        0
 92
      512
 93
        0
300

 40
0.0
140
1.0
 94
        5
 62
     0
340
80E1
144
0.18
309
CONTENTFORMAT_END
171
     0
 94
        0
309
TABLEFORMAT_END
  1
CELLSTYLE_BEGIN
 90
        2
 91
        1
300
_HEADER
309
CELLSTYLE_END
300
CELLSTYLE
  1
TABLEFORMAT_BEGIN
 90
        5
170
     1
 91
        0
 92
        0
 62
   257
 93
        1
300
CONTENTFORMAT
  1
CONTENTFORMAT_BEGIN
 90
        0
 91
        0
 92
      512
 93
        0
300

 40
0.0
140
1.0
 94
        2
 62
     0
340
80E1
144
0.18
309
CONTENTFORMAT_END
171
     0
 94
        0
309
TABLEFORMAT_END
  1
CELLSTYLE_BEGIN
 90
        3
 91
        2
300
_DATA
309
CELLSTYLE_END
  0
XRECORD
  5
82F7
102
{ACAD_REACTORS
330
82C0
102
}
330
82C0
100
AcDbXrecord
280
     1
102
ACAD_ROUNDTRIP_PRE2007_TABLESTYLE
 90
      512
 91
        0
  1

 92
      512
 93
        0
  2

 94
      512
 95
        0
  3

  0
XRECORD
  5
82D2
102
{ACAD_REACTORS
330
82D1
102
}
330
82D1
100
AcDbXrecord
280
     1
102
RTVSPost2010Prop28
280
     1
102
RTVSPost2010PropOp28
 70
     1
102
RTVSPost2010Prop29
280
     1
102
RTVSPost2010PropOp29
 70
     1
102
RTVSPost2010Prop30
280
     0
102
RTVSPost2010PropOp30
 70
     1
102
RTVSPost2010Prop31
280
     0
102
RTVSPost2010PropOp31
 70
     1
102
RTVSPost2010Prop32
280
     0
102
RTVSPost2010PropOp32
 70
     1
102
RTVSPost2010Prop33
280
     0
102
RTVSPost2010PropOp33
 70
     1
102
RTVSPost2010Prop34
280
     0
102
RTVSPost2010PropOp34
 70
     1
102
RTVSPost2010Prop35
280
     0
102
RTVSPost2010PropOp35
 70
     1
102
RTVSPost2010Prop36
280
     0
102
RTVSPost2010PropOp36
 70
     1
102
RTVSPost2010Prop37
 90
       50
102
RTVSPost2010PropOp37
 70
     1
102
RTVSPost2010Prop38
140
0.0
102
RTVSPost2010PropOp38
 70
     1
102
RTVSPost2010Prop39
140
1.0
102
RTVSPost2010PropOp39
 70
     1
102
RTVSPost2010Prop40
 90
        0
102
RTVSPost2010PropOp40
 70
     1
102
RTVSPost2010Prop41ColorIndex
 90
       18
102
RTVSPost2010Prop41ColorRGB
 90
        0
102
RTVSPost2010PropOp41
 70
     1
102
RTVSPost2010Prop42
 90
       50
102
RTVSPost2010PropOp42
 70
     1
102
RTVSPost2010Prop43
 90
        3
102
RTVSPost2010PropOp43
 70
     1
102
RTVSPost2010Prop44ColorIndex
 90
        5
102
RTVSPost2010Prop44ColorRGB
 90
      255
102
RTVSPost2010PropOp44
 70
     1
102
RTVSPost2010Prop45
280
     0
102
RTVSPost2010PropOp45
 70
     1
102
RTVSPost2010Prop46
 90
       50
102
RTVSPost2010PropOp46
 70
     1
102
RTVSPost2010Prop47
 90
       50
102
RTVSPost2010PropOp47
 70
     1
102
RTVSPost2010Prop48
 90
       50
102
RTVSPost2010PropOp48
 70
     1
102
RTVSPost2010Prop49
280
     0
102
RTVSPost2010PropOp49
 70
     1
102
RTVSPost2010Prop50
 90
       50
102
RTVSPost2010PropOp50
 70
     1
102
RTVSPost2010Prop51ColorIndex
 90
      256
102
RTVSPost2010Prop51ColorRGB
 90
-16777216
102
RTVSPost2010PropOp51
 70
     0
102
RTVSPost2010Prop52
140
1.0
102
RTVSPost2010PropOp52
 70
     0
102
RTVSPost2010Prop53
 90
        2
102
RTVSPost2010PropOp53
 70
     1
102
RTVSPost2010Prop54
  1
strokes_ogs.tif
102
RTVSPost2010PropOp54
 70
     1
102
RTVSPost2010Prop55
280
     0
102
RTVSPost2010PropOp55
 70
     1
102
RTVSPost2010Prop56
140
1.0
102
RTVSPost2010PropOp56
 70
     1
102
RTVSPost2010Prop57
140
1.0
102
RTVSPost2010PropOp57
 70
     1
102
RTVSPropertyOp0
 70
     1
102
RTVSPropertyOp1
 70
     1
102
RTVSPropertyOp2
 70
     1
102
RTVSPropertyOp3
 70
     1
102
RTVSPropertyOp4
 70
     1
102
RTVSPropertyOp5
 70
     1
102
RTVSPropertyOp6
 70
     1
102
RTVSPropertyOp7
 70
     1
102
RTVSPropertyOp8
 70
     1
102
RTVSPropertyOp9
 70
     1
102
RTVSPropertyOp10
 70
     1
102
RTVSPropertyOp11
 70
     1
102
RTVSPropertyOp12
 70
     1
102
RTVSPropertyOp13
 70
     1
102
RTVSPropertyOp14
 70
     1
102
RTVSPropertyOp15
 70
     1
102
RTVSPropertyOp16
 70
     1
102
RTVSPropertyOp17
 70
     1
102
RTVSPropertyOp18
 70
     1
102
RTVSPropertyOp19
 70
     1
102
RTVSPropertyOp20
 70
     1
102
RTVSPropertyOp21
 70
     1
102
RTVSPropertyOp22
 70
     1
102
RTVSPropertyOp23
 70
     1
102
RTVSPropertyOp24
 70
     1
102
RTVSPropertyOp25
 70
     1
102
RTVSPropertyOp26
 70
     1
102
RTVSPropertyOp27
 70
     1
102
RTVSPropertyOp28
 70
     1
102
RTVSPropertyOp29
 70
     1
102
RTVSPropertyOp30
 70
     1
102
RTVSPropertyOp31
 70
     1
102
RTVSPropertyOp32
 70
     1
102
RTVSPropertyOp33
 70
     1
102
RTVSPropertyOp34
 70
     1
102
RTVSPropertyOp35
 70
     1
102
RTVSPropertyOp36
 70
     1
102
RTVSPropertyOp37
 70
     1
102
RTVSPropertyOp38
 70
     1
102
RTVSPropertyOp39
 70
     1
102
RTVSPropertyOp40
 70
     1
102
RTVSPropertyOp41
 70
     1
102
RTVSPropertyOp42
 70
     1
102
RTVSPropertyOp43
 70
     1
102
RTVSPropertyOp44
 70
     1
102
RTVSPropertyOp45
 70
     1
102
RTVSPropertyOp46
 70
     1
102
RTVSPropertyOp47
 70
     1
102
RTVSPropertyOp48
 70
     1
102
RTVSPropertyOp49
 70
     1
102
RTVSPropertyOp50
 70
     1
102
RTVSPropertyOp51
 70
     0
102
RTVSPropertyOp52
 70
     0
102
RTVSPropertyOp53
 70
     1
102
RTVSPropertyOp54
 70
     1
102
RTVSPropertyOp55
 70
     1
102
RTVSPropertyOp56
 70
     1
102
RTVSPropertyOp57
 70
     1
102
RTVSPropertyOp58
 70
     1
102
RTVSPropertyOp59
 70
     1
102
RTVSPropertyOp60
 70
     1
102
RTVSPropertyOp61
 70
     1
102
RTVSPropertyOp62
 70
     1
  0
XRECORD
  5
82D0
102
{ACAD_REACTORS
330
82CF
102
}
330
82CF
100
AcDbXrecord
280
     1
102
RTVSPost2010Prop28
280
     0
102
RTVSPost2010PropOp28
 70
     1
102
RTVSPost2010Prop29
280
     1
102
RTVSPost2010PropOp29
 70
     1
102
RTVSPost2010Prop30
280
     1
102
RTVSPost2010PropOp30
 70
     1
102
RTVSPost2010Prop31
280
     0
102
RTVSPost2010PropOp31
 70
     1
102
RTVSPost2010Prop32
280
     0
102
RTVSPost2010PropOp32
 70
     1
102
RTVSPost2010Prop33
280
     0
102
RTVSPost2010PropOp33
 70
     1
102
RTVSPost2010Prop34
280
     0
102
RTVSPost2010PropOp34
 70
     1
102
RTVSPost2010Prop35
280
     0
102
RTVSPost2010PropOp35
 70
     1
102
RTVSPost2010Prop36
280
     0
102
RTVSPost2010PropOp36
 70
     1
102
RTVSPost2010Prop37
 90
       50
102
RTVSPost2010PropOp37
 70
     1
102
RTVSPost2010Prop38
140
0.0
102
RTVSPost2010PropOp38
 70
     1
102
RTVSPost2010Prop39
140
1.0
102
RTVSPost2010PropOp39
 70
     1
102
RTVSPost2010Prop40
 90
        0
102
RTVSPost2010PropOp40
 70
     1
102
RTVSPost2010Prop41ColorIndex
 90
       18
102
RTVSPost2010Prop41ColorRGB
 90
        0
102
RTVSPost2010PropOp41
 70
     1
102
RTVSPost2010Prop42
 90
       50
102
RTVSPost2010PropOp42
 70
     1
102
RTVSPost2010Prop43
 90
        3
102
RTVSPost2010PropOp43
 70
     1
102
RTVSPost2010Prop44ColorIndex
 90
        5
102
RTVSPost2010Prop44ColorRGB
 90
      255
102
RTVSPost2010PropOp44
 70
     1
102
RTVSPost2010Prop45
280
     0
102
RTVSPost2010PropOp45
 70
     1
102
RTVSPost2010Prop46
 90
       50
102
RTVSPost2010PropOp46
 70
     1
102
RTVSPost2010Prop47
 90
       50
102
RTVSPost2010PropOp47
 70
     1
102
RTVSPost2010Prop48
 90
       50
102
RTVSPost2010PropOp48
 70
     1
102
RTVSPost2010Prop49
280
     0
102
RTVSPost2010PropOp49
 70
     1
102
RTVSPost2010Prop50
 90
       50
102
RTVSPost2010PropOp50
 70
     1
102
RTVSPost2010Prop51ColorIndex
 90
      256
102
RTVSPost2010Prop51ColorRGB
 90
-16777216
102
RTVSPost2010PropOp51
 70
     0
102
RTVSPost2010Prop52
140
1.0
102
RTVSPost2010PropOp52
 70
     0
102
RTVSPost2010Prop53
 90
        2
102
RTVSPost2010PropOp53
 70
     1
102
RTVSPost2010Prop54
  1
strokes_ogs.tif
102
RTVSPost2010PropOp54
 70
     1
102
RTVSPost2010Prop55
280
     0
102
RTVSPost2010PropOp55
 70
     1
102
RTVSPost2010Prop56
140
1.0
102
RTVSPost2010PropOp56
 70
     1
102
RTVSPost2010Prop57
140
1.0
102
RTVSPost2010PropOp57
 70
     1
102
RTVSPropertyOp0
 70
     1
102
RTVSPropertyOp1
 70
     1
102
RTVSPropertyOp2
 70
     1
102
RTVSPropertyOp3
 70
     1
102
RTVSPropertyOp4
 70
     1
102
RTVSPropertyOp5
 70
     1
102
RTVSPropertyOp6
 70
     1
102
RTVSPropertyOp7
 70
     1
102
RTVSPropertyOp8
 70
     1
102
RTVSPropertyOp9
 70
     1
102
RTVSPropertyOp10
 70
     1
102
RTVSPropertyOp11
 70
     1
102
RTVSPropertyOp12
 70
     1
102
RTVSPropertyOp13
 70
     1
102
RTVSPropertyOp14
 70
     1
102
RTVSPropertyOp15
 70
     1
102
RTVSPropertyOp16
 70
     1
102
RTVSPropertyOp17
 70
     1
102
RTVSPropertyOp18
 70
     1
102
RTVSPropertyOp19
 70
     1
102
RTVSPropertyOp20
 70
     1
102
RTVSPropertyOp21
 70
     1
102
RTVSPropertyOp22
 70
     1
102
RTVSPropertyOp23
 70
     1
102
RTVSPropertyOp24
 70
     1
102
RTVSPropertyOp25
 70
     1
102
RTVSPropertyOp26
 70
     1
102
RTVSPropertyOp27
 70
     1
102
RTVSPropertyOp28
 70
     1
102
RTVSPropertyOp29
 70
     1
102
RTVSPropertyOp30
 70
     1
102
RTVSPropertyOp31
 70
     1
102
RTVSPropertyOp32
 70
     1
102
RTVSPropertyOp33
 70
     1
102
RTVSPropertyOp34
 70
     1
102
RTVSPropertyOp35
 70
     1
102
RTVSPropertyOp36
 70
     1
102
RTVSPropertyOp37
 70
     1
102
RTVSPropertyOp38
 70
     1
102
RTVSPropertyOp39
 70
     1
102
RTVSPropertyOp40
 70
     1
102
RTVSPropertyOp41
 70
     1
102
RTVSPropertyOp42
 70
     1
102
RTVSPropertyOp43
 70
     1
102
RTVSPropertyOp44
 70
     1
102
RTVSPropertyOp45
 70
     1
102
RTVSPropertyOp46
 70
     1
102
RTVSPropertyOp47
 70
     1
102
RTVSPropertyOp48
 70
     1
102
RTVSPropertyOp49
 70
     1
102
RTVSPropertyOp50
 70
     1
102
RTVSPropertyOp51
 70
     0
102
RTVSPropertyOp52
 70
     0
102
RTVSPropertyOp53
 70
     1
102
RTVSPropertyOp54
 70
     1
102
RTVSPropertyOp55
 70
     1
102
RTVSPropertyOp56
 70
     1
102
RTVSPropertyOp57
 70
     1
102
RTVSPropertyOp58
 70
     1
102
RTVSPropertyOp59
 70
     1
102
RTVSPropertyOp60
 70
     1
102
RTVSPropertyOp61
 70
     1
102
RTVSPropertyOp62
 70
     1
  0
XRECORD
  5
82DE
102
{ACAD_REACTORS
330
82DD
102
}
330
82DD
100
AcDbXrecord
280
     1
102
RTVSPost2010Prop28
280
     0
102
RTVSPost2010PropOp28
 70
     1
102
RTVSPost2010Prop29
280
     1
102
RTVSPost2010PropOp29
 70
     1
102
RTVSPost2010Prop30
280
     1
102
RTVSPost2010PropOp30
 70
     1
102
RTVSPost2010Prop31
280
     0
102
RTVSPost2010PropOp31
 70
     1
102
RTVSPost2010Prop32
280
     0
102
RTVSPost2010PropOp32
 70
     1
102
RTVSPost2010Prop33
280
     0
102
RTVSPost2010PropOp33
 70
     1
102
RTVSPost2010Prop34
280
     0
102
RTVSPost2010PropOp34
 70
     1
102
RTVSPost2010Prop35
280
     0
102
RTVSPost2010PropOp35
 70
     1
102
RTVSPost2010Prop36
280
     0
102
RTVSPost2010PropOp36
 70
     1
102
RTVSPost2010Prop37
 90
       50
102
RTVSPost2010PropOp37
 70
     1
102
RTVSPost2010Prop38
140
0.0
102
RTVSPost2010PropOp38
 70
     1
102
RTVSPost2010Prop39
140
1.0
102
RTVSPost2010PropOp39
 70
     1
102
RTVSPost2010Prop40
 90
        0
102
RTVSPost2010PropOp40
 70
     1
102
RTVSPost2010Prop41ColorIndex
 90
       18
102
RTVSPost2010Prop41ColorRGB
 90
        0
102
RTVSPost2010PropOp41
 70
     1
102
RTVSPost2010Prop42
 90
       50
102
RTVSPost2010PropOp42
 70
     1
102
RTVSPost2010Prop43
 90
        3
102
RTVSPost2010PropOp43
 70
     1
102
RTVSPost2010Prop44ColorIndex
 90
        5
102
RTVSPost2010Prop44ColorRGB
 90
      255
102
RTVSPost2010PropOp44
 70
     1
102
RTVSPost2010Prop45
280
     0
102
RTVSPost2010PropOp45
 70
     1
102
RTVSPost2010Prop46
 90
       50
102
RTVSPost2010PropOp46
 70
     1
102
RTVSPost2010Prop47
 90
       50
102
RTVSPost2010PropOp47
 70
     1
102
RTVSPost2010Prop48
 90
       50
102
RTVSPost2010PropOp48
 70
     1
102
RTVSPost2010Prop49
280
     0
102
RTVSPost2010PropOp49
 70
     1
102
RTVSPost2010Prop50
 90
       50
102
RTVSPost2010PropOp50
 70
     1
102
RTVSPost2010Prop51ColorIndex
 90
      256
102
RTVSPost2010Prop51ColorRGB
 90
-16777216
102
RTVSPost2010PropOp51
 70
     0
102
RTVSPost2010Prop52
140
1.0
102
RTVSPost2010PropOp52
 70
     0
102
RTVSPost2010Prop53
 90
        2
102
RTVSPost2010PropOp53
 70
     1
102
RTVSPost2010Prop54
  1
strokes_ogs.tif
102
RTVSPost2010PropOp54
 70
     1
102
RTVSPost2010Prop55
280
     0
102
RTVSPost2010PropOp55
 70
     1
102
RTVSPost2010Prop56
140
1.0
102
RTVSPost2010PropOp56
 70
     1
102
RTVSPost2010Prop57
140
1.0
102
RTVSPost2010PropOp57
 70
     1
102
RTVSPropertyOp0
 70
     1
102
RTVSPropertyOp1
 70
     1
102
RTVSPropertyOp2
 70
     1
102
RTVSPropertyOp3
 70
     1
102
RTVSPropertyOp4
 70
     1
102
RTVSPropertyOp5
 70
     1
102
RTVSPropertyOp6
 70
     1
102
RTVSPropertyOp7
 70
     1
102
RTVSPropertyOp8
 70
     1
102
RTVSPropertyOp9
 70
     1
102
RTVSPropertyOp10
 70
     1
102
RTVSPropertyOp11
 70
     1
102
RTVSPropertyOp12
 70
     1
102
RTVSPropertyOp13
 70
     1
102
RTVSPropertyOp14
 70
     1
102
RTVSPropertyOp15
 70
     1
102
RTVSPropertyOp16
 70
     1
102
RTVSPropertyOp17
 70
     1
102
RTVSPropertyOp18
 70
     1
102
RTVSPropertyOp19
 70
     1
102
RTVSPropertyOp20
 70
     1
102
RTVSPropertyOp21
 70
     1
102
RTVSPropertyOp22
 70
     1
102
RTVSPropertyOp23
 70
     1
102
RTVSPropertyOp24
 70
     1
102
RTVSPropertyOp25
 70
     1
102
RTVSPropertyOp26
 70
     1
102
RTVSPropertyOp27
 70
     1
102
RTVSPropertyOp28
 70
     1
102
RTVSPropertyOp29
 70
     1
102
RTVSPropertyOp30
 70
     1
102
RTVSPropertyOp31
 70
     1
102
RTVSPropertyOp32
 70
     1
102
RTVSPropertyOp33
 70
     1
102
RTVSPropertyOp34
 70
     1
102
RTVSPropertyOp35
 70
     1
102
RTVSPropertyOp36
 70
     1
102
RTVSPropertyOp37
 70
     1
102
RTVSPropertyOp38
 70
     1
102
RTVSPropertyOp39
 70
     1
102
RTVSPropertyOp40
 70
     1
102
RTVSPropertyOp41
 70
     1
102
RTVSPropertyOp42
 70
     1
102
RTVSPropertyOp43
 70
     1
102
RTVSPropertyOp44
 70
     1
102
RTVSPropertyOp45
 70
     1
102
RTVSPropertyOp46
 70
     1
102
RTVSPropertyOp47
 70
     1
102
RTVSPropertyOp48
 70
     1
102
RTVSPropertyOp49
 70
     1
102
RTVSPropertyOp50
 70
     1
102
RTVSPropertyOp51
 70
     0
102
RTVSPropertyOp52
 70
     0
102
RTVSPropertyOp53
 70
     1
102
RTVSPropertyOp54
 70
     1
102
RTVSPropertyOp55
 70
     1
102
RTVSPropertyOp56
 70
     1
102
RTVSPropertyOp57
 70
     1
102
RTVSPropertyOp58
 70
     1
102
RTVSPropertyOp59
 70
     1
102
RTVSPropertyOp60
 70
     1
102
RTVSPropertyOp61
 70
     1
102
RTVSPropertyOp62
 70
     1
  0
XRECORD
  5
82E6
102
{ACAD_REACTORS
330
82E5
102
}
330
82E5
100
AcDbXrecord
280
     1
102
RTVSPost2010Prop28
280
     0
102
RTVSPost2010PropOp28
 70
     1
102
RTVSPost2010Prop29
280
     1
102
RTVSPost2010PropOp29
 70
     1
102
RTVSPost2010Prop30
280
     1
102
RTVSPost2010PropOp30
 70
     1
102
RTVSPost2010Prop31
280
     0
102
RTVSPost2010PropOp31
 70
     1
102
RTVSPost2010Prop32
280
     0
102
RTVSPost2010PropOp32
 70
     1
102
RTVSPost2010Prop33
280
     0
102
RTVSPost2010PropOp33
 70
     1
102
RTVSPost2010Prop34
280
     0
102
RTVSPost2010PropOp34
 70
     1
102
RTVSPost2010Prop35
280
     0
102
RTVSPost2010PropOp35
 70
     1
102
RTVSPost2010Prop36
280
     0
102
RTVSPost2010PropOp36
 70
     1
102
RTVSPost2010Prop37
 90
       50
102
RTVSPost2010PropOp37
 70
     1
102
RTVSPost2010Prop38
140
0.0
102
RTVSPost2010PropOp38
 70
     1
102
RTVSPost2010Prop39
140
1.0
102
RTVSPost2010PropOp39
 70
     1
102
RTVSPost2010Prop40
 90
        0
102
RTVSPost2010PropOp40
 70
     1
102
RTVSPost2010Prop41ColorIndex
 90
       18
102
RTVSPost2010Prop41ColorRGB
 90
        0
102
RTVSPost2010PropOp41
 70
     1
102
RTVSPost2010Prop42
 90
       50
102
RTVSPost2010PropOp42
 70
     1
102
RTVSPost2010Prop43
 90
        3
102
RTVSPost2010PropOp43
 70
     1
102
RTVSPost2010Prop44ColorIndex
 90
        5
102
RTVSPost2010Prop44ColorRGB
 90
      255
102
RTVSPost2010PropOp44
 70
     1
102
RTVSPost2010Prop45
280
     0
102
RTVSPost2010PropOp45
 70
     1
102
RTVSPost2010Prop46
 90
       50
102
RTVSPost2010PropOp46
 70
     1
102
RTVSPost2010Prop47
 90
       50
102
RTVSPost2010PropOp47
 70
     1
102
RTVSPost2010Prop48
 90
       50
102
RTVSPost2010PropOp48
 70
     1
102
RTVSPost2010Prop49
280
     0
102
RTVSPost2010PropOp49
 70
     1
102
RTVSPost2010Prop50
 90
       50
102
RTVSPost2010PropOp50
 70
     1
102
RTVSPost2010Prop51ColorIndex
 90
      256
102
RTVSPost2010Prop51ColorRGB
 90
-16777216
102
RTVSPost2010PropOp51
 70
     0
102
RTVSPost2010Prop52
140
1.0
102
RTVSPost2010PropOp52
 70
     0
102
RTVSPost2010Prop53
 90
        2
102
RTVSPost2010PropOp53
 70
     1
102
RTVSPost2010Prop54
  1
strokes_ogs.tif
102
RTVSPost2010PropOp54
 70
     1
102
RTVSPost2010Prop55
280
     0
102
RTVSPost2010PropOp55
 70
     1
102
RTVSPost2010Prop56
140
1.0
102
RTVSPost2010PropOp56
 70
     1
102
RTVSPost2010Prop57
140
1.0
102
RTVSPost2010PropOp57
 70
     1
102
RTVSPropertyOp0
 70
     1
102
RTVSPropertyOp1
 70
     1
102
RTVSPropertyOp2
 70
     1
102
RTVSPropertyOp3
 70
     1
102
RTVSPropertyOp4
 70
     1
102
RTVSPropertyOp5
 70
     1
102
RTVSPropertyOp6
 70
     1
102
RTVSPropertyOp7
 70
     1
102
RTVSPropertyOp8
 70
     1
102
RTVSPropertyOp9
 70
     1
102
RTVSPropertyOp10
 70
     1
102
RTVSPropertyOp11
 70
     1
102
RTVSPropertyOp12
 70
     1
102
RTVSPropertyOp13
 70
     1
102
RTVSPropertyOp14
 70
     1
102
RTVSPropertyOp15
 70
     1
102
RTVSPropertyOp16
 70
     1
102
RTVSPropertyOp17
 70
     1
102
RTVSPropertyOp18
 70
     1
102
RTVSPropertyOp19
 70
     1
102
RTVSPropertyOp20
 70
     1
102
RTVSPropertyOp21
 70
     1
102
RTVSPropertyOp22
 70
     1
102
RTVSPropertyOp23
 70
     1
102
RTVSPropertyOp24
 70
     1
102
RTVSPropertyOp25
 70
     1
102
RTVSPropertyOp26
 70
     1
102
RTVSPropertyOp27
 70
     1
102
RTVSPropertyOp28
 70
     1
102
RTVSPropertyOp29
 70
     1
102
RTVSPropertyOp30
 70
     1
102
RTVSPropertyOp31
 70
     1
102
RTVSPropertyOp32
 70
     1
102
RTVSPropertyOp33
 70
     1
102
RTVSPropertyOp34
 70
     1
102
RTVSPropertyOp35
 70
     1
102
RTVSPropertyOp36
 70
     1
102
RTVSPropertyOp37
 70
     1
102
RTVSPropertyOp38
 70
     1
102
RTVSPropertyOp39
 70
     1
102
RTVSPropertyOp40
 70
     1
102
RTVSPropertyOp41
 70
     1
102
RTVSPropertyOp42
 70
     1
102
RTVSPropertyOp43
 70
     1
102
RTVSPropertyOp44
 70
     1
102
RTVSPropertyOp45
 70
     1
102
RTVSPropertyOp46
 70
     1
102
RTVSPropertyOp47
 70
     1
102
RTVSPropertyOp48
 70
     1
102
RTVSPropertyOp49
 70
     1
102
RTVSPropertyOp50
 70
     1
102
RTVSPropertyOp51
 70
     0
102
RTVSPropertyOp52
 70
     0
102
RTVSPropertyOp53
 70
     1
102
RTVSPropertyOp54
 70
     1
102
RTVSPropertyOp55
 70
     1
102
RTVSPropertyOp56
 70
     1
102
RTVSPropertyOp57
 70
     1
102
RTVSPropertyOp58
 70
     1
102
RTVSPropertyOp59
 70
     1
102
RTVSPropertyOp60
 70
     1
102
RTVSPropertyOp61
 70
     1
102
RTVSPropertyOp62
 70
     1
  0
XRECORD
  5
82D8
102
{ACAD_REACTORS
330
82D7
102
}
330
82D7
100
AcDbXrecord
280
     1
102
RTVSPost2010Prop28
280
     0
102
RTVSPost2010PropOp28
 70
     1
102
RTVSPost2010Prop29
280
     1
102
RTVSPost2010PropOp29
 70
     1
102
RTVSPost2010Prop30
280
     1
102
RTVSPost2010PropOp30
 70
     1
102
RTVSPost2010Prop31
280
     0
102
RTVSPost2010PropOp31
 70
     1
102
RTVSPost2010Prop32
280
     0
102
RTVSPost2010PropOp32
 70
     1
102
RTVSPost2010Prop33
280
     0
102
RTVSPost2010PropOp33
 70
     1
102
RTVSPost2010Prop34
280
     0
102
RTVSPost2010PropOp34
 70
     1
102
RTVSPost2010Prop35
280
     0
102
RTVSPost2010PropOp35
 70
     1
102
RTVSPost2010Prop36
280
     0
102
RTVSPost2010PropOp36
 70
     1
102
RTVSPost2010Prop37
 90
       50
102
RTVSPost2010PropOp37
 70
     1
102
RTVSPost2010Prop38
140
0.0
102
RTVSPost2010PropOp38
 70
     1
102
RTVSPost2010Prop39
140
1.0
102
RTVSPost2010PropOp39
 70
     1
102
RTVSPost2010Prop40
 90
        0
102
RTVSPost2010PropOp40
 70
     1
102
RTVSPost2010Prop41ColorIndex
 90
       18
102
RTVSPost2010Prop41ColorRGB
 90
        0
102
RTVSPost2010PropOp41
 70
     1
102
RTVSPost2010Prop42
 90
       50
102
RTVSPost2010PropOp42
 70
     1
102
RTVSPost2010Prop43
 90
        3
102
RTVSPost2010PropOp43
 70
     1
102
RTVSPost2010Prop44ColorIndex
 90
        5
102
RTVSPost2010Prop44ColorRGB
 90
      255
102
RTVSPost2010PropOp44
 70
     1
102
RTVSPost2010Prop45
280
     0
102
RTVSPost2010PropOp45
 70
     1
102
RTVSPost2010Prop46
 90
       50
102
RTVSPost2010PropOp46
 70
     1
102
RTVSPost2010Prop47
 90
       50
102
RTVSPost2010PropOp47
 70
     1
102
RTVSPost2010Prop48
 90
       50
102
RTVSPost2010PropOp48
 70
     1
102
RTVSPost2010Prop49
280
     0
102
RTVSPost2010PropOp49
 70
     1
102
RTVSPost2010Prop50
 90
       50
102
RTVSPost2010PropOp50
 70
     1
102
RTVSPost2010Prop51ColorIndex
 90
      256
102
RTVSPost2010Prop51ColorRGB
 90
-16777216
102
RTVSPost2010PropOp51
 70
     0
102
RTVSPost2010Prop52
140
1.0
102
RTVSPost2010PropOp52
 70
     0
102
RTVSPost2010Prop53
 90
        2
102
RTVSPost2010PropOp53
 70
     1
102
RTVSPost2010Prop54
  1
strokes_ogs.tif
102
RTVSPost2010PropOp54
 70
     1
102
RTVSPost2010Prop55
280
     0
102
RTVSPost2010PropOp55
 70
     1
102
RTVSPost2010Prop56
140
1.0
102
RTVSPost2010PropOp56
 70
     1
102
RTVSPost2010Prop57
140
1.0
102
RTVSPost2010PropOp57
 70
     1
102
RTVSPropertyOp0
 70
     1
102
RTVSPropertyOp1
 70
     1
102
RTVSPropertyOp2
 70
     1
102
RTVSPropertyOp3
 70
     1
102
RTVSPropertyOp4
 70
     1
102
RTVSPropertyOp5
 70
     1
102
RTVSPropertyOp6
 70
     1
102
RTVSPropertyOp7
 70
     1
102
RTVSPropertyOp8
 70
     1
102
RTVSPropertyOp9
 70
     1
102
RTVSPropertyOp10
 70
     1
102
RTVSPropertyOp11
 70
     1
102
RTVSPropertyOp12
 70
     1
102
RTVSPropertyOp13
 70
     1
102
RTVSPropertyOp14
 70
     1
102
RTVSPropertyOp15
 70
     1
102
RTVSPropertyOp16
 70
     1
102
RTVSPropertyOp17
 70
     1
102
RTVSPropertyOp18
 70
     1
102
RTVSPropertyOp19
 70
     1
102
RTVSPropertyOp20
 70
     1
102
RTVSPropertyOp21
 70
     1
102
RTVSPropertyOp22
 70
     1
102
RTVSPropertyOp23
 70
     1
102
RTVSPropertyOp24
 70
     1
102
RTVSPropertyOp25
 70
     1
102
RTVSPropertyOp26
 70
     1
102
RTVSPropertyOp27
 70
     1
102
RTVSPropertyOp28
 70
     1
102
RTVSPropertyOp29
 70
     1
102
RTVSPropertyOp30
 70
     1
102
RTVSPropertyOp31
 70
     1
102
RTVSPropertyOp32
 70
     1
102
RTVSPropertyOp33
 70
     1
102
RTVSPropertyOp34
 70
     1
102
RTVSPropertyOp35
 70
     1
102
RTVSPropertyOp36
 70
     1
102
RTVSPropertyOp37
 70
     1
102
RTVSPropertyOp38
 70
     1
102
RTVSPropertyOp39
 70
     1
102
RTVSPropertyOp40
 70
     1
102
RTVSPropertyOp41
 70
     1
102
RTVSPropertyOp42
 70
     1
102
RTVSPropertyOp43
 70
     1
102
RTVSPropertyOp44
 70
     1
102
RTVSPropertyOp45
 70
     1
102
RTVSPropertyOp46
 70
     1
102
RTVSPropertyOp47
 70
     1
102
RTVSPropertyOp48
 70
     1
102
RTVSPropertyOp49
 70
     1
102
RTVSPropertyOp50
 70
     1
102
RTVSPropertyOp51
 70
     0
102
RTVSPropertyOp52
 70
     0
102
RTVSPropertyOp53
 70
     1
102
RTVSPropertyOp54
 70
     1
102
RTVSPropertyOp55
 70
     1
102
RTVSPropertyOp56
 70
     1
102
RTVSPropertyOp57
 70
     1
102
RTVSPropertyOp58
 70
     1
102
RTVSPropertyOp59
 70
     1
102
RTVSPropertyOp60
 70
     1
102
RTVSPropertyOp61
 70
     1
102
RTVSPropertyOp62
 70
     1
  0
XRECORD
  5
82DC
102
{ACAD_REACTORS
330
82DB
102
}
330
82DB
100
AcDbXrecord
280
     1
102
RTVSPost2010Prop28
280
     0
102
RTVSPost2010PropOp28
 70
     1
102
RTVSPost2010Prop29
280
     1
102
RTVSPost2010PropOp29
 70
     1
102
RTVSPost2010Prop30
280
     1
102
RTVSPost2010PropOp30
 70
     1
102
RTVSPost2010Prop31
280
     0
102
RTVSPost2010PropOp31
 70
     1
102
RTVSPost2010Prop32
280
     0
102
RTVSPost2010PropOp32
 70
     1
102
RTVSPost2010Prop33
280
     0
102
RTVSPost2010PropOp33
 70
     1
102
RTVSPost2010Prop34
280
     0
102
RTVSPost2010PropOp34
 70
     1
102
RTVSPost2010Prop35
280
     0
102
RTVSPost2010PropOp35
 70
     1
102
RTVSPost2010Prop36
280
     0
102
RTVSPost2010PropOp36
 70
     1
102
RTVSPost2010Prop37
 90
       50
102
RTVSPost2010PropOp37
 70
     1
102
RTVSPost2010Prop38
140
0.0
102
RTVSPost2010PropOp38
 70
     1
102
RTVSPost2010Prop39
140
1.0
102
RTVSPost2010PropOp39
 70
     1
102
RTVSPost2010Prop40
 90
        0
102
RTVSPost2010PropOp40
 70
     1
102
RTVSPost2010Prop41ColorIndex
 90
       18
102
RTVSPost2010Prop41ColorRGB
 90
        0
102
RTVSPost2010PropOp41
 70
     1
102
RTVSPost2010Prop42
 90
       50
102
RTVSPost2010PropOp42
 70
     1
102
RTVSPost2010Prop43
 90
        3
102
RTVSPost2010PropOp43
 70
     1
102
RTVSPost2010Prop44ColorIndex
 90
        5
102
RTVSPost2010Prop44ColorRGB
 90
      255
102
RTVSPost2010PropOp44
 70
     1
102
RTVSPost2010Prop45
280
     0
102
RTVSPost2010PropOp45
 70
     1
102
RTVSPost2010Prop46
 90
       50
102
RTVSPost2010PropOp46
 70
     1
102
RTVSPost2010Prop47
 90
       50
102
RTVSPost2010PropOp47
 70
     1
102
RTVSPost2010Prop48
 90
       50
102
RTVSPost2010PropOp48
 70
     1
102
RTVSPost2010Prop49
280
     0
102
RTVSPost2010PropOp49
 70
     1
102
RTVSPost2010Prop50
 90
       50
102
RTVSPost2010PropOp50
 70
     1
102
RTVSPost2010Prop51ColorIndex
 90
      256
102
RTVSPost2010Prop51ColorRGB
 90
-16777216
102
RTVSPost2010PropOp51
 70
     0
102
RTVSPost2010Prop52
140
1.0
102
RTVSPost2010PropOp52
 70
     0
102
RTVSPost2010Prop53
 90
        2
102
RTVSPost2010PropOp53
 70
     1
102
RTVSPost2010Prop54
  1
strokes_ogs.tif
102
RTVSPost2010PropOp54
 70
     1
102
RTVSPost2010Prop55
280
     0
102
RTVSPost2010PropOp55
 70
     1
102
RTVSPost2010Prop56
140
1.0
102
RTVSPost2010PropOp56
 70
     1
102
RTVSPost2010Prop57
140
1.0
102
RTVSPost2010PropOp57
 70
     1
102
RTVSPropertyOp0
 70
     1
102
RTVSPropertyOp1
 70
     1
102
RTVSPropertyOp2
 70
     1
102
RTVSPropertyOp3
 70
     1
102
RTVSPropertyOp4
 70
     1
102
RTVSPropertyOp5
 70
     1
102
RTVSPropertyOp6
 70
     1
102
RTVSPropertyOp7
 70
     1
102
RTVSPropertyOp8
 70
     1
102
RTVSPropertyOp9
 70
     1
102
RTVSPropertyOp10
 70
     1
102
RTVSPropertyOp11
 70
     1
102
RTVSPropertyOp12
 70
     1
102
RTVSPropertyOp13
 70
     1
102
RTVSPropertyOp14
 70
     1
102
RTVSPropertyOp15
 70
     1
102
RTVSPropertyOp16
 70
     1
102
RTVSPropertyOp17
 70
     1
102
RTVSPropertyOp18
 70
     1
102
RTVSPropertyOp19
 70
     1
102
RTVSPropertyOp20
 70
     1
102
RTVSPropertyOp21
 70
     1
102
RTVSPropertyOp22
 70
     1
102
RTVSPropertyOp23
 70
     1
102
RTVSPropertyOp24
 70
     1
102
RTVSPropertyOp25
 70
     1
102
RTVSPropertyOp26
 70
     1
102
RTVSPropertyOp27
 70
     1
102
RTVSPropertyOp28
 70
     1
102
RTVSPropertyOp29
 70
     1
102
RTVSPropertyOp30
 70
     1
102
RTVSPropertyOp31
 70
     1
102
RTVSPropertyOp32
 70
     1
102
RTVSPropertyOp33
 70
     1
102
RTVSPropertyOp34
 70
     1
102
RTVSPropertyOp35
 70
     1
102
RTVSPropertyOp36
 70
     1
102
RTVSPropertyOp37
 70
     1
102
RTVSPropertyOp38
 70
     1
102
RTVSPropertyOp39
 70
     1
102
RTVSPropertyOp40
 70
     1
102
RTVSPropertyOp41
 70
     1
102
RTVSPropertyOp42
 70
     1
102
RTVSPropertyOp43
 70
     1
102
RTVSPropertyOp44
 70
     1
102
RTVSPropertyOp45
 70
     1
102
RTVSPropertyOp46
 70
     1
102
RTVSPropertyOp47
 70
     1
102
RTVSPropertyOp48
 70
     1
102
RTVSPropertyOp49
 70
     1
102
RTVSPropertyOp50
 70
     1
102
RTVSPropertyOp51
 70
     0
102
RTVSPropertyOp52
 70
     0
102
RTVSPropertyOp53
 70
     1
102
RTVSPropertyOp54
 70
     1
102
RTVSPropertyOp55
 70
     1
102
RTVSPropertyOp56
 70
     1
102
RTVSPropertyOp57
 70
     1
102
RTVSPropertyOp58
 70
     1
102
RTVSPropertyOp59
 70
     1
102
RTVSPropertyOp60
 70
     1
102
RTVSPropertyOp61
 70
     1
102
RTVSPropertyOp62
 70
     1
  0
XRECORD
  5
82F6
102
{ACAD_REACTORS
330
82F5
102
}
330
82F5
100
AcDbXrecord
280
     1
102
RTVSPost2010Prop28
280
     0
102
RTVSPost2010PropOp28
 70
     1
102
RTVSPost2010Prop29
280
     1
102
RTVSPost2010PropOp29
 70
     1
102
RTVSPost2010Prop30
280
     1
102
RTVSPost2010PropOp30
 70
     1
102
RTVSPost2010Prop31
280
     0
102
RTVSPost2010PropOp31
 70
     1
102
RTVSPost2010Prop32
280
     0
102
RTVSPost2010PropOp32
 70
     1
102
RTVSPost2010Prop33
280
     0
102
RTVSPost2010PropOp33
 70
     1
102
RTVSPost2010Prop34
280
     0
102
RTVSPost2010PropOp34
 70
     1
102
RTVSPost2010Prop35
280
     0
102
RTVSPost2010PropOp35
 70
     1
102
RTVSPost2010Prop36
280
     0
102
RTVSPost2010PropOp36
 70
     1
102
RTVSPost2010Prop37
 90
       50
102
RTVSPost2010PropOp37
 70
     0
102
RTVSPost2010Prop38
140
0.0
102
RTVSPost2010PropOp38
 70
     0
102
RTVSPost2010Prop39
140
1.0
102
RTVSPost2010PropOp39
 70
     0
102
RTVSPost2010Prop40
 90
        0
102
RTVSPost2010PropOp40
 70
     0
102
RTVSPost2010Prop41ColorIndex
 90
       18
102
RTVSPost2010Prop41ColorRGB
 90
        0
102
RTVSPost2010PropOp41
 70
     0
102
RTVSPost2010Prop42
 90
       50
102
RTVSPost2010PropOp42
 70
     0
102
RTVSPost2010Prop43
 90
        3
102
RTVSPost2010PropOp43
 70
     0
102
RTVSPost2010Prop44ColorIndex
 90
        5
102
RTVSPost2010Prop44ColorRGB
 90
      255
102
RTVSPost2010PropOp44
 70
     0
102
RTVSPost2010Prop45
280
     0
102
RTVSPost2010PropOp45
 70
     1
102
RTVSPost2010Prop46
 90
       50
102
RTVSPost2010PropOp46
 70
     0
102
RTVSPost2010Prop47
 90
       50
102
RTVSPost2010PropOp47
 70
     0
102
RTVSPost2010Prop48
 90
       50
102
RTVSPost2010PropOp48
 70
     0
102
RTVSPost2010Prop49
280
     0
102
RTVSPost2010PropOp49
 70
     1
102
RTVSPost2010Prop50
 90
       50
102
RTVSPost2010PropOp50
 70
     0
102
RTVSPost2010Prop51ColorIndex
 90
      256
102
RTVSPost2010Prop51ColorRGB
 90
-16777216
102
RTVSPost2010PropOp51
 70
     0
102
RTVSPost2010Prop52
140
1.0
102
RTVSPost2010PropOp52
 70
     0
102
RTVSPost2010Prop53
 90
        2
102
RTVSPost2010PropOp53
 70
     0
102
RTVSPost2010Prop54
  1
strokes_ogs.tif
102
RTVSPost2010PropOp54
 70
     0
102
RTVSPost2010Prop55
280
     0
102
RTVSPost2010PropOp55
 70
     1
102
RTVSPost2010Prop56
140
1.0
102
RTVSPost2010PropOp56
 70
     0
102
RTVSPost2010Prop57
140
1.0
102
RTVSPost2010PropOp57
 70
     0
102
RTVSPropertyOp0
 70
     0
102
RTVSPropertyOp1
 70
     0
102
RTVSPropertyOp2
 70
     0
102
RTVSPropertyOp3
 70
     0
102
RTVSPropertyOp4
 70
     0
102
RTVSPropertyOp5
 70
     0
102
RTVSPropertyOp6
 70
     0
102
RTVSPropertyOp7
 70
     0
102
RTVSPropertyOp8
 70
     0
102
RTVSPropertyOp9
 70
     0
102
RTVSPropertyOp10
 70
     0
102
RTVSPropertyOp11
 70
     0
102
RTVSPropertyOp12
 70
     0
102
RTVSPropertyOp13
 70
     0
102
RTVSPropertyOp14
 70
     2
102
RTVSPropertyOp15
 70
     0
102
RTVSPropertyOp16
 70
     0
102
RTVSPropertyOp17
 70
     0
102
RTVSPropertyOp18
 70
     0
102
RTVSPropertyOp19
 70
     0
102
RTVSPropertyOp20
 70
     0
102
RTVSPropertyOp21
 70
     0
102
RTVSPropertyOp22
 70
     0
102
RTVSPropertyOp23
 70
     0
102
RTVSPropertyOp24
 70
     0
102
RTVSPropertyOp25
 70
     0
102
RTVSPropertyOp26
 70
     0
102
RTVSPropertyOp27
 70
     0
102
RTVSPropertyOp28
 70
     1
102
RTVSPropertyOp29
 70
     1
102
RTVSPropertyOp30
 70
     1
102
RTVSPropertyOp31
 70
     1
102
RTVSPropertyOp32
 70
     1
102
RTVSPropertyOp33
 70
     1
102
RTVSPropertyOp34
 70
     1
102
RTVSPropertyOp35
 70
     1
102
RTVSPropertyOp36
 70
     1
102
RTVSPropertyOp37
 70
     0
102
RTVSPropertyOp38
 70
     0
102
RTVSPropertyOp39
 70
     0
102
RTVSPropertyOp40
 70
     0
102
RTVSPropertyOp41
 70
     0
102
RTVSPropertyOp42
 70
     0
102
RTVSPropertyOp43
 70
     0
102
RTVSPropertyOp44
 70
     0
102
RTVSPropertyOp45
 70
     1
102
RTVSPropertyOp46
 70
     0
102
RTVSPropertyOp47
 70
     0
102
RTVSPropertyOp48
 70
     0
102
RTVSPropertyOp49
 70
     1
102
RTVSPropertyOp50
 70
     0
102
RTVSPropertyOp51
 70
     0
102
RTVSPropertyOp52
 70
     0
102
RTVSPropertyOp53
 70
     0
102
RTVSPropertyOp54
 70
     0
102
RTVSPropertyOp55
 70
     1
102
RTVSPropertyOp56
 70
     0
102
RTVSPropertyOp57
 70
     0
102
RTVSPropertyOp58
 70
     0
102
RTVSPropertyOp59
 70
     0
102
RTVSPropertyOp60
 70
     0
102
RTVSPropertyOp61
 70
     0
102
RTVSPropertyOp62
 70
     0
  0
XRECORD
  5
82E4
102
{ACAD_REACTORS
330
82E3
102
}
330
82E3
100
AcDbXrecord
280
     1
102
RTVSPost2010Prop28
280
     0
102
RTVSPost2010PropOp28
 70
     1
102
RTVSPost2010Prop29
280
     1
102
RTVSPost2010PropOp29
 70
     1
102
RTVSPost2010Prop30
280
     1
102
RTVSPost2010PropOp30
 70
     1
102
RTVSPost2010Prop31
280
     0
102
RTVSPost2010PropOp31
 70
     1
102
RTVSPost2010Prop32
280
     0
102
RTVSPost2010PropOp32
 70
     1
102
RTVSPost2010Prop33
280
     0
102
RTVSPost2010PropOp33
 70
     1
102
RTVSPost2010Prop34
280
     0
102
RTVSPost2010PropOp34
 70
     1
102
RTVSPost2010Prop35
280
     0
102
RTVSPost2010PropOp35
 70
     1
102
RTVSPost2010Prop36
280
     0
102
RTVSPost2010PropOp36
 70
     1
102
RTVSPost2010Prop37
 90
       50
102
RTVSPost2010PropOp37
 70
     1
102
RTVSPost2010Prop38
140
0.0
102
RTVSPost2010PropOp38
 70
     1
102
RTVSPost2010Prop39
140
1.0
102
RTVSPost2010PropOp39
 70
     1
102
RTVSPost2010Prop40
 90
        0
102
RTVSPost2010PropOp40
 70
     1
102
RTVSPost2010Prop41ColorIndex
 90
       18
102
RTVSPost2010Prop41ColorRGB
 90
        0
102
RTVSPost2010PropOp41
 70
     1
102
RTVSPost2010Prop42
 90
       50
102
RTVSPost2010PropOp42
 70
     1
102
RTVSPost2010Prop43
 90
        3
102
RTVSPost2010PropOp43
 70
     1
102
RTVSPost2010Prop44ColorIndex
 90
        5
102
RTVSPost2010Prop44ColorRGB
 90
      255
102
RTVSPost2010PropOp44
 70
     1
102
RTVSPost2010Prop45
280
     0
102
RTVSPost2010PropOp45
 70
     1
102
RTVSPost2010Prop46
 90
       50
102
RTVSPost2010PropOp46
 70
     1
102
RTVSPost2010Prop47
 90
       50
102
RTVSPost2010PropOp47
 70
     1
102
RTVSPost2010Prop48
 90
       50
102
RTVSPost2010PropOp48
 70
     1
102
RTVSPost2010Prop49
280
     0
102
RTVSPost2010PropOp49
 70
     1
102
RTVSPost2010Prop50
 90
       50
102
RTVSPost2010PropOp50
 70
     1
102
RTVSPost2010Prop51ColorIndex
 90
      256
102
RTVSPost2010Prop51ColorRGB
 90
-16777216
102
RTVSPost2010PropOp51
 70
     0
102
RTVSPost2010Prop52
140
1.0
102
RTVSPost2010PropOp52
 70
     0
102
RTVSPost2010Prop53
 90
        2
102
RTVSPost2010PropOp53
 70
     1
102
RTVSPost2010Prop54
  1
strokes_ogs.tif
102
RTVSPost2010PropOp54
 70
     1
102
RTVSPost2010Prop55
280
     0
102
RTVSPost2010PropOp55
 70
     1
102
RTVSPost2010Prop56
140
1.0
102
RTVSPost2010PropOp56
 70
     1
102
RTVSPost2010Prop57
140
1.0
102
RTVSPost2010PropOp57
 70
     1
102
RTVSPropertyOp0
 70
     1
102
RTVSPropertyOp1
 70
     1
102
RTVSPropertyOp2
 70
     1
102
RTVSPropertyOp3
 70
     1
102
RTVSPropertyOp4
 70
     1
102
RTVSPropertyOp5
 70
     1
102
RTVSPropertyOp6
 70
     1
102
RTVSPropertyOp7
 70
     1
102
RTVSPropertyOp8
 70
     1
102
RTVSPropertyOp9
 70
     1
102
RTVSPropertyOp10
 70
     1
102
RTVSPropertyOp11
 70
     1
102
RTVSPropertyOp12
 70
     1
102
RTVSPropertyOp13
 70
     1
102
RTVSPropertyOp14
 70
     1
102
RTVSPropertyOp15
 70
     1
102
RTVSPropertyOp16
 70
     1
102
RTVSPropertyOp17
 70
     1
102
RTVSPropertyOp18
 70
     1
102
RTVSPropertyOp19
 70
     1
102
RTVSPropertyOp20
 70
     1
102
RTVSPropertyOp21
 70
     1
102
RTVSPropertyOp22
 70
     1
102
RTVSPropertyOp23
 70
     1
102
RTVSPropertyOp24
 70
     1
102
RTVSPropertyOp25
 70
     1
102
RTVSPropertyOp26
 70
     1
102
RTVSPropertyOp27
 70
     1
102
RTVSPropertyOp28
 70
     1
102
RTVSPropertyOp29
 70
     1
102
RTVSPropertyOp30
 70
     1
102
RTVSPropertyOp31
 70
     1
102
RTVSPropertyOp32
 70
     1
102
RTVSPropertyOp33
 70
     1
102
RTVSPropertyOp34
 70
     1
102
RTVSPropertyOp35
 70
     1
102
RTVSPropertyOp36
 70
     1
102
RTVSPropertyOp37
 70
     1
102
RTVSPropertyOp38
 70
     1
102
RTVSPropertyOp39
 70
     1
102
RTVSPropertyOp40
 70
     1
102
RTVSPropertyOp41
 70
     1
102
RTVSPropertyOp42
 70
     1
102
RTVSPropertyOp43
 70
     1
102
RTVSPropertyOp44
 70
     1
102
RTVSPropertyOp45
 70
     1
102
RTVSPropertyOp46
 70
     1
102
RTVSPropertyOp47
 70
     1
102
RTVSPropertyOp48
 70
     1
102
RTVSPropertyOp49
 70
     1
102
RTVSPropertyOp50
 70
     1
102
RTVSPropertyOp51
 70
     0
102
RTVSPropertyOp52
 70
     0
102
RTVSPropertyOp53
 70
     1
102
RTVSPropertyOp54
 70
     1
102
RTVSPropertyOp55
 70
     1
102
RTVSPropertyOp56
 70
     1
102
RTVSPropertyOp57
 70
     1
102
RTVSPropertyOp58
 70
     1
102
RTVSPropertyOp59
 70
     1
102
RTVSPropertyOp60
 70
     1
102
RTVSPropertyOp61
 70
     1
102
RTVSPropertyOp62
 70
     1
  0
XRECORD
  5
82C8
102
{ACAD_REACTORS
330
82C7
102
}
330
82C7
100
AcDbXrecord
280
     1
102
RTVSPost2010Prop28
280
     0
102
RTVSPost2010PropOp28
 70
     1
102
RTVSPost2010Prop29
280
     1
102
RTVSPost2010PropOp29
 70
     1
102
RTVSPost2010Prop30
280
     1
102
RTVSPost2010PropOp30
 70
     1
102
RTVSPost2010Prop31
280
     0
102
RTVSPost2010PropOp31
 70
     1
102
RTVSPost2010Prop32
280
     0
102
RTVSPost2010PropOp32
 70
     1
102
RTVSPost2010Prop33
280
     0
102
RTVSPost2010PropOp33
 70
     1
102
RTVSPost2010Prop34
280
     0
102
RTVSPost2010PropOp34
 70
     1
102
RTVSPost2010Prop35
280
     0
102
RTVSPost2010PropOp35
 70
     1
102
RTVSPost2010Prop36
280
     0
102
RTVSPost2010PropOp36
 70
     1
102
RTVSPost2010Prop37
 90
       50
102
RTVSPost2010PropOp37
 70
     1
102
RTVSPost2010Prop38
140
0.0
102
RTVSPost2010PropOp38
 70
     1
102
RTVSPost2010Prop39
140
1.0
102
RTVSPost2010PropOp39
 70
     1
102
RTVSPost2010Prop40
 90
        0
102
RTVSPost2010PropOp40
 70
     1
102
RTVSPost2010Prop41ColorIndex
 90
       18
102
RTVSPost2010Prop41ColorRGB
 90
        0
102
RTVSPost2010PropOp41
 70
     1
102
RTVSPost2010Prop42
 90
       50
102
RTVSPost2010PropOp42
 70
     1
102
RTVSPost2010Prop43
 90
        3
102
RTVSPost2010PropOp43
 70
     1
102
RTVSPost2010Prop44ColorIndex
 90
        5
102
RTVSPost2010Prop44ColorRGB
 90
      255
102
RTVSPost2010PropOp44
 70
     1
102
RTVSPost2010Prop45
280
     0
102
RTVSPost2010PropOp45
 70
     1
102
RTVSPost2010Prop46
 90
       50
102
RTVSPost2010PropOp46
 70
     1
102
RTVSPost2010Prop47
 90
       50
102
RTVSPost2010PropOp47
 70
     1
102
RTVSPost2010Prop48
 90
       50
102
RTVSPost2010PropOp48
 70
     1
102
RTVSPost2010Prop49
280
     0
102
RTVSPost2010PropOp49
 70
     1
102
RTVSPost2010Prop50
 90
       50
102
RTVSPost2010PropOp50
 70
     1
102
RTVSPost2010Prop51ColorIndex
 90
      256
102
RTVSPost2010Prop51ColorRGB
 90
-16777216
102
RTVSPost2010PropOp51
 70
     0
102
RTVSPost2010Prop52
140
1.0
102
RTVSPost2010PropOp52
 70
     0
102
RTVSPost2010Prop53
 90
        2
102
RTVSPost2010PropOp53
 70
     1
102
RTVSPost2010Prop54
  1
strokes_ogs.tif
102
RTVSPost2010PropOp54
 70
     1
102
RTVSPost2010Prop55
280
     0
102
RTVSPost2010PropOp55
 70
     1
102
RTVSPost2010Prop56
140
1.0
102
RTVSPost2010PropOp56
 70
     1
102
RTVSPost2010Prop57
140
1.0
102
RTVSPost2010PropOp57
 70
     1
102
RTVSPropertyOp0
 70
     1
102
RTVSPropertyOp1
 70
     1
102
RTVSPropertyOp2
 70
     1
102
RTVSPropertyOp3
 70
     1
102
RTVSPropertyOp4
 70
     1
102
RTVSPropertyOp5
 70
     1
102
RTVSPropertyOp6
 70
     1
102
RTVSPropertyOp7
 70
     1
102
RTVSPropertyOp8
 70
     1
102
RTVSPropertyOp9
 70
     1
102
RTVSPropertyOp10
 70
     1
102
RTVSPropertyOp11
 70
     1
102
RTVSPropertyOp12
 70
     1
102
RTVSPropertyOp13
 70
     1
102
RTVSPropertyOp14
 70
     1
102
RTVSPropertyOp15
 70
     1
102
RTVSPropertyOp16
 70
     1
102
RTVSPropertyOp17
 70
     1
102
RTVSPropertyOp18
 70
     1
102
RTVSPropertyOp19
 70
     1
102
RTVSPropertyOp20
 70
     1
102
RTVSPropertyOp21
 70
     1
102
RTVSPropertyOp22
 70
     1
102
RTVSPropertyOp23
 70
     1
102
RTVSPropertyOp24
 70
     1
102
RTVSPropertyOp25
 70
     1
102
RTVSPropertyOp26
 70
     1
102
RTVSPropertyOp27
 70
     1
102
RTVSPropertyOp28
 70
     1
102
RTVSPropertyOp29
 70
     1
102
RTVSPropertyOp30
 70
     1
102
RTVSPropertyOp31
 70
     1
102
RTVSPropertyOp32
 70
     1
102
RTVSPropertyOp33
 70
     1
102
RTVSPropertyOp34
 70
     1
102
RTVSPropertyOp35
 70
     1
102
RTVSPropertyOp36
 70
     1
102
RTVSPropertyOp37
 70
     1
102
RTVSPropertyOp38
 70
     1
102
RTVSPropertyOp39
 70
     1
102
RTVSPropertyOp40
 70
     1
102
RTVSPropertyOp41
 70
     1
102
RTVSPropertyOp42
 70
     1
102
RTVSPropertyOp43
 70
     1
102
RTVSPropertyOp44
 70
     1
102
RTVSPropertyOp45
 70
     1
102
RTVSPropertyOp46
 70
     1
102
RTVSPropertyOp47
 70
     1
102
RTVSPropertyOp48
 70
     1
102
RTVSPropertyOp49
 70
     1
102
RTVSPropertyOp50
 70
     1
102
RTVSPropertyOp51
 70
     0
102
RTVSPropertyOp52
 70
     0
102
RTVSPropertyOp53
 70
     1
102
RTVSPropertyOp54
 70
     1
102
RTVSPropertyOp55
 70
     1
102
RTVSPropertyOp56
 70
     1
102
RTVSPropertyOp57
 70
     1
102
RTVSPropertyOp58
 70
     1
102
RTVSPropertyOp59
 70
     1
102
RTVSPropertyOp60
 70
     1
102
RTVSPropertyOp61
 70
     1
102
RTVSPropertyOp62
 70
     1
  0
XRECORD
  5
82CA
102
{ACAD_REACTORS
330
82C9
102
}
330
82C9
100
AcDbXrecord
280
     1
102
RTVSPost2010Prop28
280
     0
102
RTVSPost2010PropOp28
 70
     1
102
RTVSPost2010Prop29
280
     1
102
RTVSPost2010PropOp29
 70
     1
102
RTVSPost2010Prop30
280
     1
102
RTVSPost2010PropOp30
 70
     1
102
RTVSPost2010Prop31
280
     0
102
RTVSPost2010PropOp31
 70
     1
102
RTVSPost2010Prop32
280
     0
102
RTVSPost2010PropOp32
 70
     1
102
RTVSPost2010Prop33
280
     0
102
RTVSPost2010PropOp33
 70
     1
102
RTVSPost2010Prop34
280
     0
102
RTVSPost2010PropOp34
 70
     1
102
RTVSPost2010Prop35
280
     0
102
RTVSPost2010PropOp35
 70
     1
102
RTVSPost2010Prop36
280
     0
102
RTVSPost2010PropOp36
 70
     1
102
RTVSPost2010Prop37
 90
       50
102
RTVSPost2010PropOp37
 70
     1
102
RTVSPost2010Prop38
140
0.0
102
RTVSPost2010PropOp38
 70
     1
102
RTVSPost2010Prop39
140
1.0
102
RTVSPost2010PropOp39
 70
     1
102
RTVSPost2010Prop40
 90
        0
102
RTVSPost2010PropOp40
 70
     1
102
RTVSPost2010Prop41ColorIndex
 90
       18
102
RTVSPost2010Prop41ColorRGB
 90
        0
102
RTVSPost2010PropOp41
 70
     1
102
RTVSPost2010Prop42
 90
       50
102
RTVSPost2010PropOp42
 70
     1
102
RTVSPost2010Prop43
 90
        3
102
RTVSPost2010PropOp43
 70
     1
102
RTVSPost2010Prop44ColorIndex
 90
        5
102
RTVSPost2010Prop44ColorRGB
 90
      255
102
RTVSPost2010PropOp44
 70
     1
102
RTVSPost2010Prop45
280
     0
102
RTVSPost2010PropOp45
 70
     1
102
RTVSPost2010Prop46
 90
       50
102
RTVSPost2010PropOp46
 70
     1
102
RTVSPost2010Prop47
 90
       50
102
RTVSPost2010PropOp47
 70
     1
102
RTVSPost2010Prop48
 90
       50
102
RTVSPost2010PropOp48
 70
     1
102
RTVSPost2010Prop49
280
     0
102
RTVSPost2010PropOp49
 70
     1
102
RTVSPost2010Prop50
 90
       50
102
RTVSPost2010PropOp50
 70
     1
102
RTVSPost2010Prop51ColorIndex
 90
      256
102
RTVSPost2010Prop51ColorRGB
 90
-16777216
102
RTVSPost2010PropOp51
 70
     0
102
RTVSPost2010Prop52
140
1.0
102
RTVSPost2010PropOp52
 70
     0
102
RTVSPost2010Prop53
 90
        2
102
RTVSPost2010PropOp53
 70
     1
102
RTVSPost2010Prop54
  1
strokes_ogs.tif
102
RTVSPost2010PropOp54
 70
     1
102
RTVSPost2010Prop55
280
     0
102
RTVSPost2010PropOp55
 70
     1
102
RTVSPost2010Prop56
140
1.0
102
RTVSPost2010PropOp56
 70
     1
102
RTVSPost2010Prop57
140
1.0
102
RTVSPost2010PropOp57
 70
     1
102
RTVSPropertyOp0
 70
     1
102
RTVSPropertyOp1
 70
     1
102
RTVSPropertyOp2
 70
     1
102
RTVSPropertyOp3
 70
     1
102
RTVSPropertyOp4
 70
     1
102
RTVSPropertyOp5
 70
     1
102
RTVSPropertyOp6
 70
     1
102
RTVSPropertyOp7
 70
     1
102
RTVSPropertyOp8
 70
     1
102
RTVSPropertyOp9
 70
     1
102
RTVSPropertyOp10
 70
     1
102
RTVSPropertyOp11
 70
     1
102
RTVSPropertyOp12
 70
     1
102
RTVSPropertyOp13
 70
     1
102
RTVSPropertyOp14
 70
     1
102
RTVSPropertyOp15
 70
     1
102
RTVSPropertyOp16
 70
     1
102
RTVSPropertyOp17
 70
     1
102
RTVSPropertyOp18
 70
     1
102
RTVSPropertyOp19
 70
     1
102
RTVSPropertyOp20
 70
     1
102
RTVSPropertyOp21
 70
     1
102
RTVSPropertyOp22
 70
     1
102
RTVSPropertyOp23
 70
     1
102
RTVSPropertyOp24
 70
     1
102
RTVSPropertyOp25
 70
     1
102
RTVSPropertyOp26
 70
     1
102
RTVSPropertyOp27
 70
     1
102
RTVSPropertyOp28
 70
     1
102
RTVSPropertyOp29
 70
     1
102
RTVSPropertyOp30
 70
     1
102
RTVSPropertyOp31
 70
     1
102
RTVSPropertyOp32
 70
     1
102
RTVSPropertyOp33
 70
     1
102
RTVSPropertyOp34
 70
     1
102
RTVSPropertyOp35
 70
     1
102
RTVSPropertyOp36
 70
     1
102
RTVSPropertyOp37
 70
     1
102
RTVSPropertyOp38
 70
     1
102
RTVSPropertyOp39
 70
     1
102
RTVSPropertyOp40
 70
     1
102
RTVSPropertyOp41
 70
     1
102
RTVSPropertyOp42
 70
     1
102
RTVSPropertyOp43
 70
     1
102
RTVSPropertyOp44
 70
     1
102
RTVSPropertyOp45
 70
     1
102
RTVSPropertyOp46
 70
     1
102
RTVSPropertyOp47
 70
     1
102
RTVSPropertyOp48
 70
     1
102
RTVSPropertyOp49
 70
     1
102
RTVSPropertyOp50
 70
     1
102
RTVSPropertyOp51
 70
     0
102
RTVSPropertyOp52
 70
     0
102
RTVSPropertyOp53
 70
     1
102
RTVSPropertyOp54
 70
     1
102
RTVSPropertyOp55
 70
     1
102
RTVSPropertyOp56
 70
     1
102
RTVSPropertyOp57
 70
     1
102
RTVSPropertyOp58
 70
     1
102
RTVSPropertyOp59
 70
     1
102
RTVSPropertyOp60
 70
     1
102
RTVSPropertyOp61
 70
     1
102
RTVSPropertyOp62
 70
     1
  0
XRECORD
  5
82CC
102
{ACAD_REACTORS
330
82CB
102
}
330
82CB
100
AcDbXrecord
280
     1
102
RTVSPost2010Prop28
280
     0
102
RTVSPost2010PropOp28
 70
     1
102
RTVSPost2010Prop29
280
     1
102
RTVSPost2010PropOp29
 70
     1
102
RTVSPost2010Prop30
280
     1
102
RTVSPost2010PropOp30
 70
     1
102
RTVSPost2010Prop31
280
     0
102
RTVSPost2010PropOp31
 70
     1
102
RTVSPost2010Prop32
280
     0
102
RTVSPost2010PropOp32
 70
     1
102
RTVSPost2010Prop33
280
     0
102
RTVSPost2010PropOp33
 70
     1
102
RTVSPost2010Prop34
280
     0
102
RTVSPost2010PropOp34
 70
     1
102
RTVSPost2010Prop35
280
     0
102
RTVSPost2010PropOp35
 70
     1
102
RTVSPost2010Prop36
280
     0
102
RTVSPost2010PropOp36
 70
     1
102
RTVSPost2010Prop37
 90
       50
102
RTVSPost2010PropOp37
 70
     1
102
RTVSPost2010Prop38
140
0.0
102
RTVSPost2010PropOp38
 70
     1
102
RTVSPost2010Prop39
140
1.0
102
RTVSPost2010PropOp39
 70
     1
102
RTVSPost2010Prop40
 90
        0
102
RTVSPost2010PropOp40
 70
     1
102
RTVSPost2010Prop41ColorIndex
 90
       18
102
RTVSPost2010Prop41ColorRGB
 90
        0
102
RTVSPost2010PropOp41
 70
     1
102
RTVSPost2010Prop42
 90
       50
102
RTVSPost2010PropOp42
 70
     1
102
RTVSPost2010Prop43
 90
        3
102
RTVSPost2010PropOp43
 70
     1
102
RTVSPost2010Prop44ColorIndex
 90
        5
102
RTVSPost2010Prop44ColorRGB
 90
      255
102
RTVSPost2010PropOp44
 70
     1
102
RTVSPost2010Prop45
280
     0
102
RTVSPost2010PropOp45
 70
     1
102
RTVSPost2010Prop46
 90
       50
102
RTVSPost2010PropOp46
 70
     1
102
RTVSPost2010Prop47
 90
       50
102
RTVSPost2010PropOp47
 70
     1
102
RTVSPost2010Prop48
 90
       50
102
RTVSPost2010PropOp48
 70
     1
102
RTVSPost2010Prop49
280
     0
102
RTVSPost2010PropOp49
 70
     1
102
RTVSPost2010Prop50
 90
       50
102
RTVSPost2010PropOp50
 70
     1
102
RTVSPost2010Prop51ColorIndex
 90
      256
102
RTVSPost2010Prop51ColorRGB
 90
-16777216
102
RTVSPost2010PropOp51
 70
     0
102
RTVSPost2010Prop52
140
1.0
102
RTVSPost2010PropOp52
 70
     0
102
RTVSPost2010Prop53
 90
        2
102
RTVSPost2010PropOp53
 70
     1
102
RTVSPost2010Prop54
  1
strokes_ogs.tif
102
RTVSPost2010PropOp54
 70
     1
102
RTVSPost2010Prop55
280
     0
102
RTVSPost2010PropOp55
 70
     1
102
RTVSPost2010Prop56
140
1.0
102
RTVSPost2010PropOp56
 70
     1
102
RTVSPost2010Prop57
140
1.0
102
RTVSPost2010PropOp57
 70
     1
102
RTVSPropertyOp0
 70
     1
102
RTVSPropertyOp1
 70
     1
102
RTVSPropertyOp2
 70
     1
102
RTVSPropertyOp3
 70
     1
102
RTVSPropertyOp4
 70
     1
102
RTVSPropertyOp5
 70
     1
102
RTVSPropertyOp6
 70
     1
102
RTVSPropertyOp7
 70
     1
102
RTVSPropertyOp8
 70
     1
102
RTVSPropertyOp9
 70
     1
102
RTVSPropertyOp10
 70
     1
102
RTVSPropertyOp11
 70
     1
102
RTVSPropertyOp12
 70
     1
102
RTVSPropertyOp13
 70
     1
102
RTVSPropertyOp14
 70
     1
102
RTVSPropertyOp15
 70
     1
102
RTVSPropertyOp16
 70
     1
102
RTVSPropertyOp17
 70
     1
102
RTVSPropertyOp18
 70
     1
102
RTVSPropertyOp19
 70
     1
102
RTVSPropertyOp20
 70
     1
102
RTVSPropertyOp21
 70
     1
102
RTVSPropertyOp22
 70
     1
102
RTVSPropertyOp23
 70
     1
102
RTVSPropertyOp24
 70
     1
102
RTVSPropertyOp25
 70
     1
102
RTVSPropertyOp26
 70
     1
102
RTVSPropertyOp27
 70
     1
102
RTVSPropertyOp28
 70
     1
102
RTVSPropertyOp29
 70
     1
102
RTVSPropertyOp30
 70
     1
102
RTVSPropertyOp31
 70
     1
102
RTVSPropertyOp32
 70
     1
102
RTVSPropertyOp33
 70
     1
102
RTVSPropertyOp34
 70
     1
102
RTVSPropertyOp35
 70
     1
102
RTVSPropertyOp36
 70
     1
102
RTVSPropertyOp37
 70
     1
102
RTVSPropertyOp38
 70
     1
102
RTVSPropertyOp39
 70
     1
102
RTVSPropertyOp40
 70
     1
102
RTVSPropertyOp41
 70
     1
102
RTVSPropertyOp42
 70
     1
102
RTVSPropertyOp43
 70
     1
102
RTVSPropertyOp44
 70
     1
102
RTVSPropertyOp45
 70
     1
102
RTVSPropertyOp46
 70
     1
102
RTVSPropertyOp47
 70
     1
102
RTVSPropertyOp48
 70
     1
102
RTVSPropertyOp49
 70
     1
102
RTVSPropertyOp50
 70
     1
102
RTVSPropertyOp51
 70
     0
102
RTVSPropertyOp52
 70
     0
102
RTVSPropertyOp53
 70
     1
102
RTVSPropertyOp54
 70
     1
102
RTVSPropertyOp55
 70
     1
102
RTVSPropertyOp56
 70
     1
102
RTVSPropertyOp57
 70
     1
102
RTVSPropertyOp58
 70
     1
102
RTVSPropertyOp59
 70
     1
102
RTVSPropertyOp60
 70
     1
102
RTVSPropertyOp61
 70
     1
102
RTVSPropertyOp62
 70
     1
  0
XRECORD
  5
82CE
102
{ACAD_REACTORS
330
82CD
102
}
330
82CD
100
AcDbXrecord
280
     1
102
RTVSPost2010Prop28
280
     0
102
RTVSPost2010PropOp28
 70
     1
102
RTVSPost2010Prop29
280
     1
102
RTVSPost2010PropOp29
 70
     1
102
RTVSPost2010Prop30
280
     1
102
RTVSPost2010PropOp30
 70
     1
102
RTVSPost2010Prop31
280
     0
102
RTVSPost2010PropOp31
 70
     1
102
RTVSPost2010Prop32
280
     0
102
RTVSPost2010PropOp32
 70
     1
102
RTVSPost2010Prop33
280
     0
102
RTVSPost2010PropOp33
 70
     1
102
RTVSPost2010Prop34
280
     0
102
RTVSPost2010PropOp34
 70
     1
102
RTVSPost2010Prop35
280
     0
102
RTVSPost2010PropOp35
 70
     1
102
RTVSPost2010Prop36
280
     0
102
RTVSPost2010PropOp36
 70
     1
102
RTVSPost2010Prop37
 90
       50
102
RTVSPost2010PropOp37
 70
     1
102
RTVSPost2010Prop38
140
0.0
102
RTVSPost2010PropOp38
 70
     1
102
RTVSPost2010Prop39
140
1.0
102
RTVSPost2010PropOp39
 70
     1
102
RTVSPost2010Prop40
 90
        0
102
RTVSPost2010PropOp40
 70
     1
102
RTVSPost2010Prop41ColorIndex
 90
       18
102
RTVSPost2010Prop41ColorRGB
 90
        0
102
RTVSPost2010PropOp41
 70
     1
102
RTVSPost2010Prop42
 90
       50
102
RTVSPost2010PropOp42
 70
     1
102
RTVSPost2010Prop43
 90
        3
102
RTVSPost2010PropOp43
 70
     1
102
RTVSPost2010Prop44ColorIndex
 90
        5
102
RTVSPost2010Prop44ColorRGB
 90
      255
102
RTVSPost2010PropOp44
 70
     1
102
RTVSPost2010Prop45
280
     0
102
RTVSPost2010PropOp45
 70
     1
102
RTVSPost2010Prop46
 90
       50
102
RTVSPost2010PropOp46
 70
     1
102
RTVSPost2010Prop47
 90
       50
102
RTVSPost2010PropOp47
 70
     1
102
RTVSPost2010Prop48
 90
       50
102
RTVSPost2010PropOp48
 70
     1
102
RTVSPost2010Prop49
280
     0
102
RTVSPost2010PropOp49
 70
     1
102
RTVSPost2010Prop50
 90
       50
102
RTVSPost2010PropOp50
 70
     1
102
RTVSPost2010Prop51ColorIndex
 90
      256
102
RTVSPost2010Prop51ColorRGB
 90
-16777216
102
RTVSPost2010PropOp51
 70
     0
102
RTVSPost2010Prop52
140
1.0
102
RTVSPost2010PropOp52
 70
     0
102
RTVSPost2010Prop53
 90
        2
102
RTVSPost2010PropOp53
 70
     1
102
RTVSPost2010Prop54
  1
strokes_ogs.tif
102
RTVSPost2010PropOp54
 70
     1
102
RTVSPost2010Prop55
280
     0
102
RTVSPost2010PropOp55
 70
     1
102
RTVSPost2010Prop56
140
1.0
102
RTVSPost2010PropOp56
 70
     1
102
RTVSPost2010Prop57
140
1.0
102
RTVSPost2010PropOp57
 70
     1
102
RTVSPropertyOp0
 70
     1
102
RTVSPropertyOp1
 70
     1
102
RTVSPropertyOp2
 70
     1
102
RTVSPropertyOp3
 70
     1
102
RTVSPropertyOp4
 70
     1
102
RTVSPropertyOp5
 70
     1
102
RTVSPropertyOp6
 70
     1
102
RTVSPropertyOp7
 70
     1
102
RTVSPropertyOp8
 70
     1
102
RTVSPropertyOp9
 70
     1
102
RTVSPropertyOp10
 70
     1
102
RTVSPropertyOp11
 70
     1
102
RTVSPropertyOp12
 70
     1
102
RTVSPropertyOp13
 70
     1
102
RTVSPropertyOp14
 70
     1
102
RTVSPropertyOp15
 70
     1
102
RTVSPropertyOp16
 70
     1
102
RTVSPropertyOp17
 70
     1
102
RTVSPropertyOp18
 70
     1
102
RTVSPropertyOp19
 70
     1
102
RTVSPropertyOp20
 70
     1
102
RTVSPropertyOp21
 70
     1
102
RTVSPropertyOp22
 70
     1
102
RTVSPropertyOp23
 70
     1
102
RTVSPropertyOp24
 70
     1
102
RTVSPropertyOp25
 70
     1
102
RTVSPropertyOp26
 70
     1
102
RTVSPropertyOp27
 70
     1
102
RTVSPropertyOp28
 70
     1
102
RTVSPropertyOp29
 70
     1
102
RTVSPropertyOp30
 70
     1
102
RTVSPropertyOp31
 70
     1
102
RTVSPropertyOp32
 70
     1
102
RTVSPropertyOp33
 70
     1
102
RTVSPropertyOp34
 70
     1
102
RTVSPropertyOp35
 70
     1
102
RTVSPropertyOp36
 70
     1
102
RTVSPropertyOp37
 70
     1
102
RTVSPropertyOp38
 70
     1
102
RTVSPropertyOp39
 70
     1
102
RTVSPropertyOp40
 70
     1
102
RTVSPropertyOp41
 70
     1
102
RTVSPropertyOp42
 70
     1
102
RTVSPropertyOp43
 70
     1
102
RTVSPropertyOp44
 70
     1
102
RTVSPropertyOp45
 70
     1
102
RTVSPropertyOp46
 70
     1
102
RTVSPropertyOp47
 70
     1
102
RTVSPropertyOp48
 70
     1
102
RTVSPropertyOp49
 70
     1
102
RTVSPropertyOp50
 70
     1
102
RTVSPropertyOp51
 70
     0
102
RTVSPropertyOp52
 70
     0
102
RTVSPropertyOp53
 70
     1
102
RTVSPropertyOp54
 70
     1
102
RTVSPropertyOp55
 70
     1
102
RTVSPropertyOp56
 70
     1
102
RTVSPropertyOp57
 70
     1
102
RTVSPropertyOp58
 70
     1
102
RTVSPropertyOp59
 70
     1
102
RTVSPropertyOp60
 70
     1
102
RTVSPropertyOp61
 70
     1
102
RTVSPropertyOp62
 70
     1
  0
XRECORD
  5
82D6
102
{ACAD_REACTORS
330
82D5
102
}
330
82D5
100
AcDbXrecord
280
     1
102
RTVSPost2010Prop28
280
     0
102
RTVSPost2010PropOp28
 70
     1
102
RTVSPost2010Prop29
280
     1
102
RTVSPost2010PropOp29
 70
     1
102
RTVSPost2010Prop30
280
     1
102
RTVSPost2010PropOp30
 70
     1
102
RTVSPost2010Prop31
280
     0
102
RTVSPost2010PropOp31
 70
     1
102
RTVSPost2010Prop32
280
     0
102
RTVSPost2010PropOp32
 70
     1
102
RTVSPost2010Prop33
280
     0
102
RTVSPost2010PropOp33
 70
     1
102
RTVSPost2010Prop34
280
     0
102
RTVSPost2010PropOp34
 70
     1
102
RTVSPost2010Prop35
280
     0
102
RTVSPost2010PropOp35
 70
     1
102
RTVSPost2010Prop36
280
     0
102
RTVSPost2010PropOp36
 70
     1
102
RTVSPost2010Prop37
 90
       50
102
RTVSPost2010PropOp37
 70
     1
102
RTVSPost2010Prop38
140
0.0
102
RTVSPost2010PropOp38
 70
     1
102
RTVSPost2010Prop39
140
1.0
102
RTVSPost2010PropOp39
 70
     1
102
RTVSPost2010Prop40
 90
        0
102
RTVSPost2010PropOp40
 70
     1
102
RTVSPost2010Prop41ColorIndex
 90
       18
102
RTVSPost2010Prop41ColorRGB
 90
        0
102
RTVSPost2010PropOp41
 70
     1
102
RTVSPost2010Prop42
 90
       50
102
RTVSPost2010PropOp42
 70
     1
102
RTVSPost2010Prop43
 90
        3
102
RTVSPost2010PropOp43
 70
     1
102
RTVSPost2010Prop44ColorIndex
 90
        5
102
RTVSPost2010Prop44ColorRGB
 90
      255
102
RTVSPost2010PropOp44
 70
     1
102
RTVSPost2010Prop45
280
     0
102
RTVSPost2010PropOp45
 70
     1
102
RTVSPost2010Prop46
 90
       50
102
RTVSPost2010PropOp46
 70
     1
102
RTVSPost2010Prop47
 90
       50
102
RTVSPost2010PropOp47
 70
     1
102
RTVSPost2010Prop48
 90
       50
102
RTVSPost2010PropOp48
 70
     1
102
RTVSPost2010Prop49
280
     0
102
RTVSPost2010PropOp49
 70
     1
102
RTVSPost2010Prop50
 90
       50
102
RTVSPost2010PropOp50
 70
     1
102
RTVSPost2010Prop51ColorIndex
 90
      256
102
RTVSPost2010Prop51ColorRGB
 90
-16777216
102
RTVSPost2010PropOp51
 70
     0
102
RTVSPost2010Prop52
140
1.0
102
RTVSPost2010PropOp52
 70
     0
102
RTVSPost2010Prop53
 90
        2
102
RTVSPost2010PropOp53
 70
     1
102
RTVSPost2010Prop54
  1
strokes_ogs.tif
102
RTVSPost2010PropOp54
 70
     1
102
RTVSPost2010Prop55
280
     0
102
RTVSPost2010PropOp55
 70
     1
102
RTVSPost2010Prop56
140
1.0
102
RTVSPost2010PropOp56
 70
     1
102
RTVSPost2010Prop57
140
1.0
102
RTVSPost2010PropOp57
 70
     1
102
RTVSPropertyOp0
 70
     1
102
RTVSPropertyOp1
 70
     1
102
RTVSPropertyOp2
 70
     1
102
RTVSPropertyOp3
 70
     1
102
RTVSPropertyOp4
 70
     1
102
RTVSPropertyOp5
 70
     1
102
RTVSPropertyOp6
 70
     1
102
RTVSPropertyOp7
 70
     1
102
RTVSPropertyOp8
 70
     1
102
RTVSPropertyOp9
 70
     1
102
RTVSPropertyOp10
 70
     1
102
RTVSPropertyOp11
 70
     1
102
RTVSPropertyOp12
 70
     1
102
RTVSPropertyOp13
 70
     1
102
RTVSPropertyOp14
 70
     1
102
RTVSPropertyOp15
 70
     1
102
RTVSPropertyOp16
 70
     1
102
RTVSPropertyOp17
 70
     1
102
RTVSPropertyOp18
 70
     1
102
RTVSPropertyOp19
 70
     1
102
RTVSPropertyOp20
 70
     1
102
RTVSPropertyOp21
 70
     1
102
RTVSPropertyOp22
 70
     1
102
RTVSPropertyOp23
 70
     1
102
RTVSPropertyOp24
 70
     1
102
RTVSPropertyOp25
 70
     1
102
RTVSPropertyOp26
 70
     1
102
RTVSPropertyOp27
 70
     1
102
RTVSPropertyOp28
 70
     1
102
RTVSPropertyOp29
 70
     1
102
RTVSPropertyOp30
 70
     1
102
RTVSPropertyOp31
 70
     1
102
RTVSPropertyOp32
 70
     1
102
RTVSPropertyOp33
 70
     1
102
RTVSPropertyOp34
 70
     1
102
RTVSPropertyOp35
 70
     1
102
RTVSPropertyOp36
 70
     1
102
RTVSPropertyOp37
 70
     1
102
RTVSPropertyOp38
 70
     1
102
RTVSPropertyOp39
 70
     1
102
RTVSPropertyOp40
 70
     1
102
RTVSPropertyOp41
 70
     1
102
RTVSPropertyOp42
 70
     1
102
RTVSPropertyOp43
 70
     1
102
RTVSPropertyOp44
 70
     1
102
RTVSPropertyOp45
 70
     1
102
RTVSPropertyOp46
 70
     1
102
RTVSPropertyOp47
 70
     1
102
RTVSPropertyOp48
 70
     1
102
RTVSPropertyOp49
 70
     1
102
RTVSPropertyOp50
 70
     1
102
RTVSPropertyOp51
 70
     0
102
RTVSPropertyOp52
 70
     0
102
RTVSPropertyOp53
 70
     1
102
RTVSPropertyOp54
 70
     1
102
RTVSPropertyOp55
 70
     1
102
RTVSPropertyOp56
 70
     1
102
RTVSPropertyOp57
 70
     1
102
RTVSPropertyOp58
 70
     1
102
RTVSPropertyOp59
 70
     1
102
RTVSPropertyOp60
 70
     1
102
RTVSPropertyOp61
 70
     1
102
RTVSPropertyOp62
 70
     1
  0
XRECORD
  5
82F2
102
{ACAD_REACTORS
330
82F1
102
}
330
82F1
100
AcDbXrecord
280
     1
102
RTVSPost2010Prop28
280
     0
102
RTVSPost2010PropOp28
 70
     1
102
RTVSPost2010Prop29
280
     1
102
RTVSPost2010PropOp29
 70
     1
102
RTVSPost2010Prop30
280
     1
102
RTVSPost2010PropOp30
 70
     1
102
RTVSPost2010Prop31
280
     0
102
RTVSPost2010PropOp31
 70
     1
102
RTVSPost2010Prop32
280
     0
102
RTVSPost2010PropOp32
 70
     1
102
RTVSPost2010Prop33
280
     0
102
RTVSPost2010PropOp33
 70
     1
102
RTVSPost2010Prop34
280
     0
102
RTVSPost2010PropOp34
 70
     1
102
RTVSPost2010Prop35
280
     0
102
RTVSPost2010PropOp35
 70
     1
102
RTVSPost2010Prop36
280
     0
102
RTVSPost2010PropOp36
 70
     1
102
RTVSPost2010Prop37
 90
       50
102
RTVSPost2010PropOp37
 70
     0
102
RTVSPost2010Prop38
140
0.0
102
RTVSPost2010PropOp38
 70
     0
102
RTVSPost2010Prop39
140
1.0
102
RTVSPost2010PropOp39
 70
     0
102
RTVSPost2010Prop40
 90
        0
102
RTVSPost2010PropOp40
 70
     0
102
RTVSPost2010Prop41ColorIndex
 90
       18
102
RTVSPost2010Prop41ColorRGB
 90
        0
102
RTVSPost2010PropOp41
 70
     0
102
RTVSPost2010Prop42
 90
       50
102
RTVSPost2010PropOp42
 70
     0
102
RTVSPost2010Prop43
 90
        3
102
RTVSPost2010PropOp43
 70
     0
102
RTVSPost2010Prop44ColorIndex
 90
        5
102
RTVSPost2010Prop44ColorRGB
 90
      255
102
RTVSPost2010PropOp44
 70
     0
102
RTVSPost2010Prop45
280
     0
102
RTVSPost2010PropOp45
 70
     1
102
RTVSPost2010Prop46
 90
       50
102
RTVSPost2010PropOp46
 70
     0
102
RTVSPost2010Prop47
 90
       50
102
RTVSPost2010PropOp47
 70
     0
102
RTVSPost2010Prop48
 90
       50
102
RTVSPost2010PropOp48
 70
     0
102
RTVSPost2010Prop49
280
     0
102
RTVSPost2010PropOp49
 70
     1
102
RTVSPost2010Prop50
 90
       50
102
RTVSPost2010PropOp50
 70
     0
102
RTVSPost2010Prop51ColorIndex
 90
      256
102
RTVSPost2010Prop51ColorRGB
 90
-16777216
102
RTVSPost2010PropOp51
 70
     0
102
RTVSPost2010Prop52
140
1.0
102
RTVSPost2010PropOp52
 70
     0
102
RTVSPost2010Prop53
 90
        2
102
RTVSPost2010PropOp53
 70
     0
102
RTVSPost2010Prop54
  1
strokes_ogs.tif
102
RTVSPost2010PropOp54
 70
     0
102
RTVSPost2010Prop55
280
     0
102
RTVSPost2010PropOp55
 70
     1
102
RTVSPost2010Prop56
140
1.0
102
RTVSPost2010PropOp56
 70
     0
102
RTVSPost2010Prop57
140
1.0
102
RTVSPost2010PropOp57
 70
     0
102
RTVSPropertyOp0
 70
     0
102
RTVSPropertyOp1
 70
     0
102
RTVSPropertyOp2
 70
     0
102
RTVSPropertyOp3
 70
     0
102
RTVSPropertyOp4
 70
     0
102
RTVSPropertyOp5
 70
     0
102
RTVSPropertyOp6
 70
     0
102
RTVSPropertyOp7
 70
     0
102
RTVSPropertyOp8
 70
     0
102
RTVSPropertyOp9
 70
     0
102
RTVSPropertyOp10
 70
     0
102
RTVSPropertyOp11
 70
     0
102
RTVSPropertyOp12
 70
     0
102
RTVSPropertyOp13
 70
     0
102
RTVSPropertyOp14
 70
     2
102
RTVSPropertyOp15
 70
     0
102
RTVSPropertyOp16
 70
     0
102
RTVSPropertyOp17
 70
     0
102
RTVSPropertyOp18
 70
     0
102
RTVSPropertyOp19
 70
     0
102
RTVSPropertyOp20
 70
     0
102
RTVSPropertyOp21
 70
     0
102
RTVSPropertyOp22
 70
     0
102
RTVSPropertyOp23
 70
     0
102
RTVSPropertyOp24
 70
     0
102
RTVSPropertyOp25
 70
     0
102
RTVSPropertyOp26
 70
     0
102
RTVSPropertyOp27
 70
     0
102
RTVSPropertyOp28
 70
     1
102
RTVSPropertyOp29
 70
     1
102
RTVSPropertyOp30
 70
     1
102
RTVSPropertyOp31
 70
     1
102
RTVSPropertyOp32
 70
     1
102
RTVSPropertyOp33
 70
     1
102
RTVSPropertyOp34
 70
     1
102
RTVSPropertyOp35
 70
     1
102
RTVSPropertyOp36
 70
     1
102
RTVSPropertyOp37
 70
     0
102
RTVSPropertyOp38
 70
     0
102
RTVSPropertyOp39
 70
     0
102
RTVSPropertyOp40
 70
     0
102
RTVSPropertyOp41
 70
     0
102
RTVSPropertyOp42
 70
     0
102
RTVSPropertyOp43
 70
     0
102
RTVSPropertyOp44
 70
     0
102
RTVSPropertyOp45
 70
     1
102
RTVSPropertyOp46
 70
     0
102
RTVSPropertyOp47
 70
     0
102
RTVSPropertyOp48
 70
     0
102
RTVSPropertyOp49
 70
     1
102
RTVSPropertyOp50
 70
     0
102
RTVSPropertyOp51
 70
     0
102
RTVSPropertyOp52
 70
     0
102
RTVSPropertyOp53
 70
     0
102
RTVSPropertyOp54
 70
     0
102
RTVSPropertyOp55
 70
     1
102
RTVSPropertyOp56
 70
     0
102
RTVSPropertyOp57
 70
     0
102
RTVSPropertyOp58
 70
     0
102
RTVSPropertyOp59
 70
     0
102
RTVSPropertyOp60
 70
     0
102
RTVSPropertyOp61
 70
     0
102
RTVSPropertyOp62
 70
     0
  0
XRECORD
  5
82E2
102
{ACAD_REACTORS
330
82E1
102
}
330
82E1
100
AcDbXrecord
280
     1
102
RTVSPost2010Prop28
280
     0
102
RTVSPost2010PropOp28
 70
     1
102
RTVSPost2010Prop29
280
     1
102
RTVSPost2010PropOp29
 70
     1
102
RTVSPost2010Prop30
280
     1
102
RTVSPost2010PropOp30
 70
     1
102
RTVSPost2010Prop31
280
     0
102
RTVSPost2010PropOp31
 70
     1
102
RTVSPost2010Prop32
280
     0
102
RTVSPost2010PropOp32
 70
     1
102
RTVSPost2010Prop33
280
     0
102
RTVSPost2010PropOp33
 70
     1
102
RTVSPost2010Prop34
280
     0
102
RTVSPost2010PropOp34
 70
     1
102
RTVSPost2010Prop35
280
     0
102
RTVSPost2010PropOp35
 70
     1
102
RTVSPost2010Prop36
280
     0
102
RTVSPost2010PropOp36
 70
     1
102
RTVSPost2010Prop37
 90
       50
102
RTVSPost2010PropOp37
 70
     1
102
RTVSPost2010Prop38
140
0.0
102
RTVSPost2010PropOp38
 70
     1
102
RTVSPost2010Prop39
140
1.0
102
RTVSPost2010PropOp39
 70
     1
102
RTVSPost2010Prop40
 90
        0
102
RTVSPost2010PropOp40
 70
     1
102
RTVSPost2010Prop41ColorIndex
 90
       18
102
RTVSPost2010Prop41ColorRGB
 90
        0
102
RTVSPost2010PropOp41
 70
     1
102
RTVSPost2010Prop42
 90
       50
102
RTVSPost2010PropOp42
 70
     1
102
RTVSPost2010Prop43
 90
        3
102
RTVSPost2010PropOp43
 70
     1
102
RTVSPost2010Prop44ColorIndex
 90
        5
102
RTVSPost2010Prop44ColorRGB
 90
      255
102
RTVSPost2010PropOp44
 70
     1
102
RTVSPost2010Prop45
280
     0
102
RTVSPost2010PropOp45
 70
     1
102
RTVSPost2010Prop46
 90
       50
102
RTVSPost2010PropOp46
 70
     1
102
RTVSPost2010Prop47
 90
       50
102
RTVSPost2010PropOp47
 70
     1
102
RTVSPost2010Prop48
 90
       50
102
RTVSPost2010PropOp48
 70
     1
102
RTVSPost2010Prop49
280
     0
102
RTVSPost2010PropOp49
 70
     1
102
RTVSPost2010Prop50
 90
       50
102
RTVSPost2010PropOp50
 70
     1
102
RTVSPost2010Prop51ColorIndex
 90
      256
102
RTVSPost2010Prop51ColorRGB
 90
-16777216
102
RTVSPost2010PropOp51
 70
     0
102
RTVSPost2010Prop52
140
1.0
102
RTVSPost2010PropOp52
 70
     0
102
RTVSPost2010Prop53
 90
        2
102
RTVSPost2010PropOp53
 70
     1
102
RTVSPost2010Prop54
  1
strokes_ogs.tif
102
RTVSPost2010PropOp54
 70
     1
102
RTVSPost2010Prop55
280
     0
102
RTVSPost2010PropOp55
 70
     1
102
RTVSPost2010Prop56
140
1.0
102
RTVSPost2010PropOp56
 70
     1
102
RTVSPost2010Prop57
140
1.0
102
RTVSPost2010PropOp57
 70
     1
102
RTVSPropertyOp0
 70
     1
102
RTVSPropertyOp1
 70
     1
102
RTVSPropertyOp2
 70
     1
102
RTVSPropertyOp3
 70
     1
102
RTVSPropertyOp4
 70
     1
102
RTVSPropertyOp5
 70
     1
102
RTVSPropertyOp6
 70
     1
102
RTVSPropertyOp7
 70
     1
102
RTVSPropertyOp8
 70
     1
102
RTVSPropertyOp9
 70
     1
102
RTVSPropertyOp10
 70
     1
102
RTVSPropertyOp11
 70
     1
102
RTVSPropertyOp12
 70
     1
102
RTVSPropertyOp13
 70
     1
102
RTVSPropertyOp14
 70
     1
102
RTVSPropertyOp15
 70
     1
102
RTVSPropertyOp16
 70
     1
102
RTVSPropertyOp17
 70
     1
102
RTVSPropertyOp18
 70
     1
102
RTVSPropertyOp19
 70
     1
102
RTVSPropertyOp20
 70
     1
102
RTVSPropertyOp21
 70
     1
102
RTVSPropertyOp22
 70
     1
102
RTVSPropertyOp23
 70
     1
102
RTVSPropertyOp24
 70
     1
102
RTVSPropertyOp25
 70
     1
102
RTVSPropertyOp26
 70
     1
102
RTVSPropertyOp27
 70
     1
102
RTVSPropertyOp28
 70
     1
102
RTVSPropertyOp29
 70
     1
102
RTVSPropertyOp30
 70
     1
102
RTVSPropertyOp31
 70
     1
102
RTVSPropertyOp32
 70
     1
102
RTVSPropertyOp33
 70
     1
102
RTVSPropertyOp34
 70
     1
102
RTVSPropertyOp35
 70
     1
102
RTVSPropertyOp36
 70
     1
102
RTVSPropertyOp37
 70
     1
102
RTVSPropertyOp38
 70
     1
102
RTVSPropertyOp39
 70
     1
102
RTVSPropertyOp40
 70
     1
102
RTVSPropertyOp41
 70
     1
102
RTVSPropertyOp42
 70
     1
102
RTVSPropertyOp43
 70
     1
102
RTVSPropertyOp44
 70
     1
102
RTVSPropertyOp45
 70
     1
102
RTVSPropertyOp46
 70
     1
102
RTVSPropertyOp47
 70
     1
102
RTVSPropertyOp48
 70
     1
102
RTVSPropertyOp49
 70
     1
102
RTVSPropertyOp50
 70
     1
102
RTVSPropertyOp51
 70
     0
102
RTVSPropertyOp52
 70
     0
102
RTVSPropertyOp53
 70
     1
102
RTVSPropertyOp54
 70
     1
102
RTVSPropertyOp55
 70
     1
102
RTVSPropertyOp56
 70
     1
102
RTVSPropertyOp57
 70
     1
102
RTVSPropertyOp58
 70
     1
102
RTVSPropertyOp59
 70
     1
102
RTVSPropertyOp60
 70
     1
102
RTVSPropertyOp61
 70
     1
102
RTVSPropertyOp62
 70
     1
  0
XRECORD
  5
82F4
102
{ACAD_REACTORS
330
82F3
102
}
330
82F3
100
AcDbXrecord
280
     1
102
RTVSPost2010Prop28
280
     0
102
RTVSPost2010PropOp28
 70
     1
102
RTVSPost2010Prop29
280
     1
102
RTVSPost2010PropOp29
 70
     1
102
RTVSPost2010Prop30
280
     1
102
RTVSPost2010PropOp30
 70
     1
102
RTVSPost2010Prop31
280
     0
102
RTVSPost2010PropOp31
 70
     1
102
RTVSPost2010Prop32
280
     0
102
RTVSPost2010PropOp32
 70
     1
102
RTVSPost2010Prop33
280
     0
102
RTVSPost2010PropOp33
 70
     1
102
RTVSPost2010Prop34
280
     0
102
RTVSPost2010PropOp34
 70
     1
102
RTVSPost2010Prop35
280
     0
102
RTVSPost2010PropOp35
 70
     1
102
RTVSPost2010Prop36
280
     0
102
RTVSPost2010PropOp36
 70
     1
102
RTVSPost2010Prop37
 90
       50
102
RTVSPost2010PropOp37
 70
     0
102
RTVSPost2010Prop38
140
0.0
102
RTVSPost2010PropOp38
 70
     0
102
RTVSPost2010Prop39
140
1.0
102
RTVSPost2010PropOp39
 70
     0
102
RTVSPost2010Prop40
 90
        0
102
RTVSPost2010PropOp40
 70
     0
102
RTVSPost2010Prop41ColorIndex
 90
       18
102
RTVSPost2010Prop41ColorRGB
 90
        0
102
RTVSPost2010PropOp41
 70
     0
102
RTVSPost2010Prop42
 90
       50
102
RTVSPost2010PropOp42
 70
     0
102
RTVSPost2010Prop43
 90
        3
102
RTVSPost2010PropOp43
 70
     0
102
RTVSPost2010Prop44ColorIndex
 90
        5
102
RTVSPost2010Prop44ColorRGB
 90
      255
102
RTVSPost2010PropOp44
 70
     0
102
RTVSPost2010Prop45
280
     0
102
RTVSPost2010PropOp45
 70
     1
102
RTVSPost2010Prop46
 90
       50
102
RTVSPost2010PropOp46
 70
     0
102
RTVSPost2010Prop47
 90
       50
102
RTVSPost2010PropOp47
 70
     0
102
RTVSPost2010Prop48
 90
       50
102
RTVSPost2010PropOp48
 70
     0
102
RTVSPost2010Prop49
280
     0
102
RTVSPost2010PropOp49
 70
     1
102
RTVSPost2010Prop50
 90
       50
102
RTVSPost2010PropOp50
 70
     0
102
RTVSPost2010Prop51ColorIndex
 90
      256
102
RTVSPost2010Prop51ColorRGB
 90
-16777216
102
RTVSPost2010PropOp51
 70
     0
102
RTVSPost2010Prop52
140
1.0
102
RTVSPost2010PropOp52
 70
     0
102
RTVSPost2010Prop53
 90
        2
102
RTVSPost2010PropOp53
 70
     0
102
RTVSPost2010Prop54
  1
strokes_ogs.tif
102
RTVSPost2010PropOp54
 70
     0
102
RTVSPost2010Prop55
280
     0
102
RTVSPost2010PropOp55
 70
     1
102
RTVSPost2010Prop56
140
1.0
102
RTVSPost2010PropOp56
 70
     0
102
RTVSPost2010Prop57
140
1.0
102
RTVSPost2010PropOp57
 70
     0
102
RTVSPropertyOp0
 70
     0
102
RTVSPropertyOp1
 70
     0
102
RTVSPropertyOp2
 70
     0
102
RTVSPropertyOp3
 70
     0
102
RTVSPropertyOp4
 70
     0
102
RTVSPropertyOp5
 70
     0
102
RTVSPropertyOp6
 70
     0
102
RTVSPropertyOp7
 70
     0
102
RTVSPropertyOp8
 70
     0
102
RTVSPropertyOp9
 70
     0
102
RTVSPropertyOp10
 70
     0
102
RTVSPropertyOp11
 70
     0
102
RTVSPropertyOp12
 70
     0
102
RTVSPropertyOp13
 70
     0
102
RTVSPropertyOp14
 70
     2
102
RTVSPropertyOp15
 70
     0
102
RTVSPropertyOp16
 70
     0
102
RTVSPropertyOp17
 70
     0
102
RTVSPropertyOp18
 70
     0
102
RTVSPropertyOp19
 70
     0
102
RTVSPropertyOp20
 70
     0
102
RTVSPropertyOp21
 70
     0
102
RTVSPropertyOp22
 70
     0
102
RTVSPropertyOp23
 70
     0
102
RTVSPropertyOp24
 70
     0
102
RTVSPropertyOp25
 70
     0
102
RTVSPropertyOp26
 70
     0
102
RTVSPropertyOp27
 70
     0
102
RTVSPropertyOp28
 70
     1
102
RTVSPropertyOp29
 70
     1
102
RTVSPropertyOp30
 70
     1
102
RTVSPropertyOp31
 70
     1
102
RTVSPropertyOp32
 70
     1
102
RTVSPropertyOp33
 70
     1
102
RTVSPropertyOp34
 70
     1
102
RTVSPropertyOp35
 70
     1
102
RTVSPropertyOp36
 70
     1
102
RTVSPropertyOp37
 70
     0
102
RTVSPropertyOp38
 70
     0
102
RTVSPropertyOp39
 70
     0
102
RTVSPropertyOp40
 70
     0
102
RTVSPropertyOp41
 70
     0
102
RTVSPropertyOp42
 70
     0
102
RTVSPropertyOp43
 70
     0
102
RTVSPropertyOp44
 70
     0
102
RTVSPropertyOp45
 70
     1
102
RTVSPropertyOp46
 70
     0
102
RTVSPropertyOp47
 70
     0
102
RTVSPropertyOp48
 70
     0
102
RTVSPropertyOp49
 70
     1
102
RTVSPropertyOp50
 70
     0
102
RTVSPropertyOp51
 70
     0
102
RTVSPropertyOp52
 70
     0
102
RTVSPropertyOp53
 70
     0
102
RTVSPropertyOp54
 70
     0
102
RTVSPropertyOp55
 70
     1
102
RTVSPropertyOp56
 70
     0
102
RTVSPropertyOp57
 70
     0
102
RTVSPropertyOp58
 70
     0
102
RTVSPropertyOp59
 70
     0
102
RTVSPropertyOp60
 70
     0
102
RTVSPropertyOp61
 70
     0
102
RTVSPropertyOp62
 70
     0
  0
XRECORD
  5
82DA
102
{ACAD_REACTORS
330
82D9
102
}
330
82D9
100
AcDbXrecord
280
     1
102
RTVSPost2010Prop28
280
     0
102
RTVSPost2010PropOp28
 70
     1
102
RTVSPost2010Prop29
280
     1
102
RTVSPost2010PropOp29
 70
     1
102
RTVSPost2010Prop30
280
     1
102
RTVSPost2010PropOp30
 70
     1
102
RTVSPost2010Prop31
280
     0
102
RTVSPost2010PropOp31
 70
     1
102
RTVSPost2010Prop32
280
     0
102
RTVSPost2010PropOp32
 70
     1
102
RTVSPost2010Prop33
280
     0
102
RTVSPost2010PropOp33
 70
     1
102
RTVSPost2010Prop34
280
     0
102
RTVSPost2010PropOp34
 70
     1
102
RTVSPost2010Prop35
280
     0
102
RTVSPost2010PropOp35
 70
     1
102
RTVSPost2010Prop36
280
     0
102
RTVSPost2010PropOp36
 70
     1
102
RTVSPost2010Prop37
 90
       50
102
RTVSPost2010PropOp37
 70
     1
102
RTVSPost2010Prop38
140
0.0
102
RTVSPost2010PropOp38
 70
     1
102
RTVSPost2010Prop39
140
1.0
102
RTVSPost2010PropOp39
 70
     1
102
RTVSPost2010Prop40
 90
        0
102
RTVSPost2010PropOp40
 70
     1
102
RTVSPost2010Prop41ColorIndex
 90
       18
102
RTVSPost2010Prop41ColorRGB
 90
        0
102
RTVSPost2010PropOp41
 70
     1
102
RTVSPost2010Prop42
 90
       50
102
RTVSPost2010PropOp42
 70
     1
102
RTVSPost2010Prop43
 90
        3
102
RTVSPost2010PropOp43
 70
     1
102
RTVSPost2010Prop44ColorIndex
 90
        5
102
RTVSPost2010Prop44ColorRGB
 90
      255
102
RTVSPost2010PropOp44
 70
     1
102
RTVSPost2010Prop45
280
     0
102
RTVSPost2010PropOp45
 70
     1
102
RTVSPost2010Prop46
 90
       50
102
RTVSPost2010PropOp46
 70
     1
102
RTVSPost2010Prop47
 90
       50
102
RTVSPost2010PropOp47
 70
     1
102
RTVSPost2010Prop48
 90
       50
102
RTVSPost2010PropOp48
 70
     1
102
RTVSPost2010Prop49
280
     0
102
RTVSPost2010PropOp49
 70
     1
102
RTVSPost2010Prop50
 90
       50
102
RTVSPost2010PropOp50
 70
     1
102
RTVSPost2010Prop51ColorIndex
 90
      256
102
RTVSPost2010Prop51ColorRGB
 90
-16777216
102
RTVSPost2010PropOp51
 70
     0
102
RTVSPost2010Prop52
140
1.0
102
RTVSPost2010PropOp52
 70
     0
102
RTVSPost2010Prop53
 90
        2
102
RTVSPost2010PropOp53
 70
     1
102
RTVSPost2010Prop54
  1
strokes_ogs.tif
102
RTVSPost2010PropOp54
 70
     1
102
RTVSPost2010Prop55
280
     0
102
RTVSPost2010PropOp55
 70
     1
102
RTVSPost2010Prop56
140
1.0
102
RTVSPost2010PropOp56
 70
     1
102
RTVSPost2010Prop57
140
1.0
102
RTVSPost2010PropOp57
 70
     1
102
RTVSPropertyOp0
 70
     1
102
RTVSPropertyOp1
 70
     1
102
RTVSPropertyOp2
 70
     1
102
RTVSPropertyOp3
 70
     1
102
RTVSPropertyOp4
 70
     1
102
RTVSPropertyOp5
 70
     1
102
RTVSPropertyOp6
 70
     1
102
RTVSPropertyOp7
 70
     1
102
RTVSPropertyOp8
 70
     1
102
RTVSPropertyOp9
 70
     1
102
RTVSPropertyOp10
 70
     1
102
RTVSPropertyOp11
 70
     1
102
RTVSPropertyOp12
 70
     1
102
RTVSPropertyOp13
 70
     1
102
RTVSPropertyOp14
 70
     1
102
RTVSPropertyOp15
 70
     1
102
RTVSPropertyOp16
 70
     1
102
RTVSPropertyOp17
 70
     1
102
RTVSPropertyOp18
 70
     1
102
RTVSPropertyOp19
 70
     1
102
RTVSPropertyOp20
 70
     1
102
RTVSPropertyOp21
 70
     1
102
RTVSPropertyOp22
 70
     1
102
RTVSPropertyOp23
 70
     1
102
RTVSPropertyOp24
 70
     1
102
RTVSPropertyOp25
 70
     1
102
RTVSPropertyOp26
 70
     1
102
RTVSPropertyOp27
 70
     1
102
RTVSPropertyOp28
 70
     1
102
RTVSPropertyOp29
 70
     1
102
RTVSPropertyOp30
 70
     1
102
RTVSPropertyOp31
 70
     1
102
RTVSPropertyOp32
 70
     1
102
RTVSPropertyOp33
 70
     1
102
RTVSPropertyOp34
 70
     1
102
RTVSPropertyOp35
 70
     1
102
RTVSPropertyOp36
 70
     1
102
RTVSPropertyOp37
 70
     1
102
RTVSPropertyOp38
 70
     1
102
RTVSPropertyOp39
 70
     1
102
RTVSPropertyOp40
 70
     1
102
RTVSPropertyOp41
 70
     1
102
RTVSPropertyOp42
 70
     1
102
RTVSPropertyOp43
 70
     1
102
RTVSPropertyOp44
 70
     1
102
RTVSPropertyOp45
 70
     1
102
RTVSPropertyOp46
 70
     1
102
RTVSPropertyOp47
 70
     1
102
RTVSPropertyOp48
 70
     1
102
RTVSPropertyOp49
 70
     1
102
RTVSPropertyOp50
 70
     1
102
RTVSPropertyOp51
 70
     0
102
RTVSPropertyOp52
 70
     0
102
RTVSPropertyOp53
 70
     1
102
RTVSPropertyOp54
 70
     1
102
RTVSPropertyOp55
 70
     1
102
RTVSPropertyOp56
 70
     1
102
RTVSPropertyOp57
 70
     1
102
RTVSPropertyOp58
 70
     1
102
RTVSPropertyOp59
 70
     1
102
RTVSPropertyOp60
 70
     1
102
RTVSPropertyOp61
 70
     1
102
RTVSPropertyOp62
 70
     1
  0
XRECORD
  5
82F0
102
{ACAD_REACTORS
330
82EF
102
}
330
82EF
100
AcDbXrecord
280
     1
102
RTVSPost2010Prop28
280
     0
102
RTVSPost2010PropOp28
 70
     1
102
RTVSPost2010Prop29
280
     1
102
RTVSPost2010PropOp29
 70
     1
102
RTVSPost2010Prop30
280
     1
102
RTVSPost2010PropOp30
 70
     1
102
RTVSPost2010Prop31
280
     0
102
RTVSPost2010PropOp31
 70
     1
102
RTVSPost2010Prop32
280
     0
102
RTVSPost2010PropOp32
 70
     1
102
RTVSPost2010Prop33
280
     0
102
RTVSPost2010PropOp33
 70
     1
102
RTVSPost2010Prop34
280
     0
102
RTVSPost2010PropOp34
 70
     1
102
RTVSPost2010Prop35
280
     0
102
RTVSPost2010PropOp35
 70
     1
102
RTVSPost2010Prop36
280
     0
102
RTVSPost2010PropOp36
 70
     1
102
RTVSPost2010Prop37
 90
       50
102
RTVSPost2010PropOp37
 70
     1
102
RTVSPost2010Prop38
140
0.0
102
RTVSPost2010PropOp38
 70
     1
102
RTVSPost2010Prop39
140
1.0
102
RTVSPost2010PropOp39
 70
     1
102
RTVSPost2010Prop40
 90
        0
102
RTVSPost2010PropOp40
 70
     1
102
RTVSPost2010Prop41ColorIndex
 90
       18
102
RTVSPost2010Prop41ColorRGB
 90
        0
102
RTVSPost2010PropOp41
 70
     1
102
RTVSPost2010Prop42
 90
       50
102
RTVSPost2010PropOp42
 70
     1
102
RTVSPost2010Prop43
 90
        3
102
RTVSPost2010PropOp43
 70
     1
102
RTVSPost2010Prop44ColorIndex
 90
        5
102
RTVSPost2010Prop44ColorRGB
 90
      255
102
RTVSPost2010PropOp44
 70
     1
102
RTVSPost2010Prop45
280
     0
102
RTVSPost2010PropOp45
 70
     1
102
RTVSPost2010Prop46
 90
       50
102
RTVSPost2010PropOp46
 70
     1
102
RTVSPost2010Prop47
 90
       50
102
RTVSPost2010PropOp47
 70
     1
102
RTVSPost2010Prop48
 90
       50
102
RTVSPost2010PropOp48
 70
     1
102
RTVSPost2010Prop49
280
     0
102
RTVSPost2010PropOp49
 70
     1
102
RTVSPost2010Prop50
 90
       50
102
RTVSPost2010PropOp50
 70
     1
102
RTVSPost2010Prop51ColorIndex
 90
      256
102
RTVSPost2010Prop51ColorRGB
 90
-16777216
102
RTVSPost2010PropOp51
 70
     0
102
RTVSPost2010Prop52
140
1.0
102
RTVSPost2010PropOp52
 70
     0
102
RTVSPost2010Prop53
 90
        2
102
RTVSPost2010PropOp53
 70
     1
102
RTVSPost2010Prop54
  1
strokes_ogs.tif
102
RTVSPost2010PropOp54
 70
     1
102
RTVSPost2010Prop55
280
     0
102
RTVSPost2010PropOp55
 70
     1
102
RTVSPost2010Prop56
140
1.0
102
RTVSPost2010PropOp56
 70
     1
102
RTVSPost2010Prop57
140
1.0
102
RTVSPost2010PropOp57
 70
     1
102
RTVSPropertyOp0
 70
     1
102
RTVSPropertyOp1
 70
     1
102
RTVSPropertyOp2
 70
     1
102
RTVSPropertyOp3
 70
     1
102
RTVSPropertyOp4
 70
     1
102
RTVSPropertyOp5
 70
     1
102
RTVSPropertyOp6
 70
     1
102
RTVSPropertyOp7
 70
     1
102
RTVSPropertyOp8
 70
     1
102
RTVSPropertyOp9
 70
     1
102
RTVSPropertyOp10
 70
     1
102
RTVSPropertyOp11
 70
     1
102
RTVSPropertyOp12
 70
     1
102
RTVSPropertyOp13
 70
     1
102
RTVSPropertyOp14
 70
     1
102
RTVSPropertyOp15
 70
     1
102
RTVSPropertyOp16
 70
     1
102
RTVSPropertyOp17
 70
     1
102
RTVSPropertyOp18
 70
     1
102
RTVSPropertyOp19
 70
     1
102
RTVSPropertyOp20
 70
     1
102
RTVSPropertyOp21
 70
     1
102
RTVSPropertyOp22
 70
     1
102
RTVSPropertyOp23
 70
     1
102
RTVSPropertyOp24
 70
     1
102
RTVSPropertyOp25
 70
     1
102
RTVSPropertyOp26
 70
     1
102
RTVSPropertyOp27
 70
     1
102
RTVSPropertyOp28
 70
     1
102
RTVSPropertyOp29
 70
     1
102
RTVSPropertyOp30
 70
     1
102
RTVSPropertyOp31
 70
     1
102
RTVSPropertyOp32
 70
     1
102
RTVSPropertyOp33
 70
     1
102
RTVSPropertyOp34
 70
     1
102
RTVSPropertyOp35
 70
     1
102
RTVSPropertyOp36
 70
     1
102
RTVSPropertyOp37
 70
     1
102
RTVSPropertyOp38
 70
     1
102
RTVSPropertyOp39
 70
     1
102
RTVSPropertyOp40
 70
     1
102
RTVSPropertyOp41
 70
     1
102
RTVSPropertyOp42
 70
     1
102
RTVSPropertyOp43
 70
     1
102
RTVSPropertyOp44
 70
     1
102
RTVSPropertyOp45
 70
     1
102
RTVSPropertyOp46
 70
     1
102
RTVSPropertyOp47
 70
     1
102
RTVSPropertyOp48
 70
     1
102
RTVSPropertyOp49
 70
     1
102
RTVSPropertyOp50
 70
     1
102
RTVSPropertyOp51
 70
     0
102
RTVSPropertyOp52
 70
     0
102
RTVSPropertyOp53
 70
     1
102
RTVSPropertyOp54
 70
     1
102
RTVSPropertyOp55
 70
     1
102
RTVSPropertyOp56
 70
     1
102
RTVSPropertyOp57
 70
     1
102
RTVSPropertyOp58
 70
     1
102
RTVSPropertyOp59
 70
     1
102
RTVSPropertyOp60
 70
     1
102
RTVSPropertyOp61
 70
     1
102
RTVSPropertyOp62
 70
     1
  0
XRECORD
  5
82EE
102
{ACAD_REACTORS
330
82ED
102
}
330
82ED
100
AcDbXrecord
280
     1
102
RTVSPost2010Prop28
280
     0
102
RTVSPost2010PropOp28
 70
     1
102
RTVSPost2010Prop29
280
     1
102
RTVSPost2010PropOp29
 70
     1
102
RTVSPost2010Prop30
280
     1
102
RTVSPost2010PropOp30
 70
     1
102
RTVSPost2010Prop31
280
     0
102
RTVSPost2010PropOp31
 70
     1
102
RTVSPost2010Prop32
280
     0
102
RTVSPost2010PropOp32
 70
     1
102
RTVSPost2010Prop33
280
     0
102
RTVSPost2010PropOp33
 70
     1
102
RTVSPost2010Prop34
280
     0
102
RTVSPost2010PropOp34
 70
     1
102
RTVSPost2010Prop35
280
     0
102
RTVSPost2010PropOp35
 70
     1
102
RTVSPost2010Prop36
280
     0
102
RTVSPost2010PropOp36
 70
     1
102
RTVSPost2010Prop37
 90
       50
102
RTVSPost2010PropOp37
 70
     1
102
RTVSPost2010Prop38
140
0.0
102
RTVSPost2010PropOp38
 70
     1
102
RTVSPost2010Prop39
140
1.0
102
RTVSPost2010PropOp39
 70
     1
102
RTVSPost2010Prop40
 90
        0
102
RTVSPost2010PropOp40
 70
     1
102
RTVSPost2010Prop41ColorIndex
 90
       18
102
RTVSPost2010Prop41ColorRGB
 90
        0
102
RTVSPost2010PropOp41
 70
     1
102
RTVSPost2010Prop42
 90
       50
102
RTVSPost2010PropOp42
 70
     1
102
RTVSPost2010Prop43
 90
        3
102
RTVSPost2010PropOp43
 70
     1
102
RTVSPost2010Prop44ColorIndex
 90
        5
102
RTVSPost2010Prop44ColorRGB
 90
      255
102
RTVSPost2010PropOp44
 70
     1
102
RTVSPost2010Prop45
280
     0
102
RTVSPost2010PropOp45
 70
     1
102
RTVSPost2010Prop46
 90
       50
102
RTVSPost2010PropOp46
 70
     1
102
RTVSPost2010Prop47
 90
       50
102
RTVSPost2010PropOp47
 70
     1
102
RTVSPost2010Prop48
 90
       50
102
RTVSPost2010PropOp48
 70
     1
102
RTVSPost2010Prop49
280
     0
102
RTVSPost2010PropOp49
 70
     1
102
RTVSPost2010Prop50
 90
       50
102
RTVSPost2010PropOp50
 70
     1
102
RTVSPost2010Prop51ColorIndex
 90
      256
102
RTVSPost2010Prop51ColorRGB
 90
-16777216
102
RTVSPost2010PropOp51
 70
     0
102
RTVSPost2010Prop52
140
1.0
102
RTVSPost2010PropOp52
 70
     0
102
RTVSPost2010Prop53
 90
        2
102
RTVSPost2010PropOp53
 70
     1
102
RTVSPost2010Prop54
  1
strokes_ogs.tif
102
RTVSPost2010PropOp54
 70
     1
102
RTVSPost2010Prop55
280
     0
102
RTVSPost2010PropOp55
 70
     1
102
RTVSPost2010Prop56
140
1.0
102
RTVSPost2010PropOp56
 70
     1
102
RTVSPost2010Prop57
140
1.0
102
RTVSPost2010PropOp57
 70
     1
102
RTVSPropertyOp0
 70
     1
102
RTVSPropertyOp1
 70
     1
102
RTVSPropertyOp2
 70
     1
102
RTVSPropertyOp3
 70
     1
102
RTVSPropertyOp4
 70
     1
102
RTVSPropertyOp5
 70
     1
102
RTVSPropertyOp6
 70
     1
102
RTVSPropertyOp7
 70
     1
102
RTVSPropertyOp8
 70
     1
102
RTVSPropertyOp9
 70
     1
102
RTVSPropertyOp10
 70
     1
102
RTVSPropertyOp11
 70
     1
102
RTVSPropertyOp12
 70
     1
102
RTVSPropertyOp13
 70
     1
102
RTVSPropertyOp14
 70
     1
102
RTVSPropertyOp15
 70
     1
102
RTVSPropertyOp16
 70
     1
102
RTVSPropertyOp17
 70
     1
102
RTVSPropertyOp18
 70
     1
102
RTVSPropertyOp19
 70
     1
102
RTVSPropertyOp20
 70
     1
102
RTVSPropertyOp21
 70
     1
102
RTVSPropertyOp22
 70
     1
102
RTVSPropertyOp23
 70
     1
102
RTVSPropertyOp24
 70
     1
102
RTVSPropertyOp25
 70
     1
102
RTVSPropertyOp26
 70
     1
102
RTVSPropertyOp27
 70
     1
102
RTVSPropertyOp28
 70
     1
102
RTVSPropertyOp29
 70
     1
102
RTVSPropertyOp30
 70
     1
102
RTVSPropertyOp31
 70
     1
102
RTVSPropertyOp32
 70
     1
102
RTVSPropertyOp33
 70
     1
102
RTVSPropertyOp34
 70
     1
102
RTVSPropertyOp35
 70
     1
102
RTVSPropertyOp36
 70
     1
102
RTVSPropertyOp37
 70
     1
102
RTVSPropertyOp38
 70
     1
102
RTVSPropertyOp39
 70
     1
102
RTVSPropertyOp40
 70
     1
102
RTVSPropertyOp41
 70
     1
102
RTVSPropertyOp42
 70
     1
102
RTVSPropertyOp43
 70
     1
102
RTVSPropertyOp44
 70
     1
102
RTVSPropertyOp45
 70
     1
102
RTVSPropertyOp46
 70
     1
102
RTVSPropertyOp47
 70
     1
102
RTVSPropertyOp48
 70
     1
102
RTVSPropertyOp49
 70
     1
102
RTVSPropertyOp50
 70
     1
102
RTVSPropertyOp51
 70
     0
102
RTVSPropertyOp52
 70
     0
102
RTVSPropertyOp53
 70
     1
102
RTVSPropertyOp54
 70
     1
102
RTVSPropertyOp55
 70
     1
102
RTVSPropertyOp56
 70
     1
102
RTVSPropertyOp57
 70
     1
102
RTVSPropertyOp58
 70
     1
102
RTVSPropertyOp59
 70
     1
102
RTVSPropertyOp60
 70
     1
102
RTVSPropertyOp61
 70
     1
102
RTVSPropertyOp62
 70
     1
  0
XRECORD
  5
82E8
102
{ACAD_REACTORS
330
82E7
102
}
330
82E7
100
AcDbXrecord
280
     1
102
RTVSPost2010Prop28
280
     0
102
RTVSPost2010PropOp28
 70
     1
102
RTVSPost2010Prop29
280
     1
102
RTVSPost2010PropOp29
 70
     1
102
RTVSPost2010Prop30
280
     1
102
RTVSPost2010PropOp30
 70
     1
102
RTVSPost2010Prop31
280
     0
102
RTVSPost2010PropOp31
 70
     1
102
RTVSPost2010Prop32
280
     0
102
RTVSPost2010PropOp32
 70
     1
102
RTVSPost2010Prop33
280
     0
102
RTVSPost2010PropOp33
 70
     1
102
RTVSPost2010Prop34
280
     0
102
RTVSPost2010PropOp34
 70
     1
102
RTVSPost2010Prop35
280
     0
102
RTVSPost2010PropOp35
 70
     1
102
RTVSPost2010Prop36
280
     0
102
RTVSPost2010PropOp36
 70
     1
102
RTVSPost2010Prop37
 90
       50
102
RTVSPost2010PropOp37
 70
     1
102
RTVSPost2010Prop38
140
0.0
102
RTVSPost2010PropOp38
 70
     1
102
RTVSPost2010Prop39
140
1.0
102
RTVSPost2010PropOp39
 70
     1
102
RTVSPost2010Prop40
 90
        0
102
RTVSPost2010PropOp40
 70
     1
102
RTVSPost2010Prop41ColorIndex
 90
       18
102
RTVSPost2010Prop41ColorRGB
 90
        0
102
RTVSPost2010PropOp41
 70
     1
102
RTVSPost2010Prop42
 90
       50
102
RTVSPost2010PropOp42
 70
     1
102
RTVSPost2010Prop43
 90
        3
102
RTVSPost2010PropOp43
 70
     1
102
RTVSPost2010Prop44ColorIndex
 90
        5
102
RTVSPost2010Prop44ColorRGB
 90
      255
102
RTVSPost2010PropOp44
 70
     1
102
RTVSPost2010Prop45
280
     0
102
RTVSPost2010PropOp45
 70
     1
102
RTVSPost2010Prop46
 90
       50
102
RTVSPost2010PropOp46
 70
     1
102
RTVSPost2010Prop47
 90
       50
102
RTVSPost2010PropOp47
 70
     1
102
RTVSPost2010Prop48
 90
       50
102
RTVSPost2010PropOp48
 70
     1
102
RTVSPost2010Prop49
280
     0
102
RTVSPost2010PropOp49
 70
     1
102
RTVSPost2010Prop50
 90
       50
102
RTVSPost2010PropOp50
 70
     1
102
RTVSPost2010Prop51ColorIndex
 90
      256
102
RTVSPost2010Prop51ColorRGB
 90
-16777216
102
RTVSPost2010PropOp51
 70
     0
102
RTVSPost2010Prop52
140
1.0
102
RTVSPost2010PropOp52
 70
     0
102
RTVSPost2010Prop53
 90
        2
102
RTVSPost2010PropOp53
 70
     1
102
RTVSPost2010Prop54
  1
strokes_ogs.tif
102
RTVSPost2010PropOp54
 70
     1
102
RTVSPost2010Prop55
280
     0
102
RTVSPost2010PropOp55
 70
     1
102
RTVSPost2010Prop56
140
1.0
102
RTVSPost2010PropOp56
 70
     1
102
RTVSPost2010Prop57
140
1.0
102
RTVSPost2010PropOp57
 70
     1
102
RTVSPropertyOp0
 70
     1
102
RTVSPropertyOp1
 70
     1
102
RTVSPropertyOp2
 70
     1
102
RTVSPropertyOp3
 70
     1
102
RTVSPropertyOp4
 70
     1
102
RTVSPropertyOp5
 70
     1
102
RTVSPropertyOp6
 70
     1
102
RTVSPropertyOp7
 70
     1
102
RTVSPropertyOp8
 70
     1
102
RTVSPropertyOp9
 70
     1
102
RTVSPropertyOp10
 70
     1
102
RTVSPropertyOp11
 70
     1
102
RTVSPropertyOp12
 70
     1
102
RTVSPropertyOp13
 70
     1
102
RTVSPropertyOp14
 70
     1
102
RTVSPropertyOp15
 70
     1
102
RTVSPropertyOp16
 70
     1
102
RTVSPropertyOp17
 70
     1
102
RTVSPropertyOp18
 70
     1
102
RTVSPropertyOp19
 70
     1
102
RTVSPropertyOp20
 70
     1
102
RTVSPropertyOp21
 70
     1
102
RTVSPropertyOp22
 70
     1
102
RTVSPropertyOp23
 70
     1
102
RTVSPropertyOp24
 70
     1
102
RTVSPropertyOp25
 70
     1
102
RTVSPropertyOp26
 70
     1
102
RTVSPropertyOp27
 70
     1
102
RTVSPropertyOp28
 70
     1
102
RTVSPropertyOp29
 70
     1
102
RTVSPropertyOp30
 70
     1
102
RTVSPropertyOp31
 70
     1
102
RTVSPropertyOp32
 70
     1
102
RTVSPropertyOp33
 70
     1
102
RTVSPropertyOp34
 70
     1
102
RTVSPropertyOp35
 70
     1
102
RTVSPropertyOp36
 70
     1
102
RTVSPropertyOp37
 70
     1
102
RTVSPropertyOp38
 70
     1
102
RTVSPropertyOp39
 70
     1
102
RTVSPropertyOp40
 70
     1
102
RTVSPropertyOp41
 70
     1
102
RTVSPropertyOp42
 70
     1
102
RTVSPropertyOp43
 70
     1
102
RTVSPropertyOp44
 70
     1
102
RTVSPropertyOp45
 70
     1
102
RTVSPropertyOp46
 70
     1
102
RTVSPropertyOp47
 70
     1
102
RTVSPropertyOp48
 70
     1
102
RTVSPropertyOp49
 70
     1
102
RTVSPropertyOp50
 70
     1
102
RTVSPropertyOp51
 70
     0
102
RTVSPropertyOp52
 70
     0
102
RTVSPropertyOp53
 70
     1
102
RTVSPropertyOp54
 70
     1
102
RTVSPropertyOp55
 70
     1
102
RTVSPropertyOp56
 70
     1
102
RTVSPropertyOp57
 70
     1
102
RTVSPropertyOp58
 70
     1
102
RTVSPropertyOp59
 70
     1
102
RTVSPropertyOp60
 70
     1
102
RTVSPropertyOp61
 70
     1
102
RTVSPropertyOp62
 70
     1
  0
XRECORD
  5
82EA
102
{ACAD_REACTORS
330
82E9
102
}
330
82E9
100
AcDbXrecord
280
     1
102
RTVSPost2010Prop28
280
     0
102
RTVSPost2010PropOp28
 70
     1
102
RTVSPost2010Prop29
280
     1
102
RTVSPost2010PropOp29
 70
     1
102
RTVSPost2010Prop30
280
     1
102
RTVSPost2010PropOp30
 70
     1
102
RTVSPost2010Prop31
280
     0
102
RTVSPost2010PropOp31
 70
     1
102
RTVSPost2010Prop32
280
     0
102
RTVSPost2010PropOp32
 70
     1
102
RTVSPost2010Prop33
280
     0
102
RTVSPost2010PropOp33
 70
     1
102
RTVSPost2010Prop34
280
     0
102
RTVSPost2010PropOp34
 70
     1
102
RTVSPost2010Prop35
280
     0
102
RTVSPost2010PropOp35
 70
     1
102
RTVSPost2010Prop36
280
     0
102
RTVSPost2010PropOp36
 70
     1
102
RTVSPost2010Prop37
 90
       50
102
RTVSPost2010PropOp37
 70
     1
102
RTVSPost2010Prop38
140
0.0
102
RTVSPost2010PropOp38
 70
     1
102
RTVSPost2010Prop39
140
1.0
102
RTVSPost2010PropOp39
 70
     1
102
RTVSPost2010Prop40
 90
        0
102
RTVSPost2010PropOp40
 70
     1
102
RTVSPost2010Prop41ColorIndex
 90
       18
102
RTVSPost2010Prop41ColorRGB
 90
        0
102
RTVSPost2010PropOp41
 70
     1
102
RTVSPost2010Prop42
 90
       50
102
RTVSPost2010PropOp42
 70
     1
102
RTVSPost2010Prop43
 90
        3
102
RTVSPost2010PropOp43
 70
     1
102
RTVSPost2010Prop44ColorIndex
 90
        5
102
RTVSPost2010Prop44ColorRGB
 90
      255
102
RTVSPost2010PropOp44
 70
     1
102
RTVSPost2010Prop45
280
     0
102
RTVSPost2010PropOp45
 70
     1
102
RTVSPost2010Prop46
 90
       50
102
RTVSPost2010PropOp46
 70
     1
102
RTVSPost2010Prop47
 90
       50
102
RTVSPost2010PropOp47
 70
     1
102
RTVSPost2010Prop48
 90
       50
102
RTVSPost2010PropOp48
 70
     1
102
RTVSPost2010Prop49
280
     0
102
RTVSPost2010PropOp49
 70
     1
102
RTVSPost2010Prop50
 90
       50
102
RTVSPost2010PropOp50
 70
     1
102
RTVSPost2010Prop51ColorIndex
 90
      256
102
RTVSPost2010Prop51ColorRGB
 90
-16777216
102
RTVSPost2010PropOp51
 70
     0
102
RTVSPost2010Prop52
140
1.0
102
RTVSPost2010PropOp52
 70
     0
102
RTVSPost2010Prop53
 90
        2
102
RTVSPost2010PropOp53
 70
     1
102
RTVSPost2010Prop54
  1
strokes_ogs.tif
102
RTVSPost2010PropOp54
 70
     1
102
RTVSPost2010Prop55
280
     0
102
RTVSPost2010PropOp55
 70
     1
102
RTVSPost2010Prop56
140
1.0
102
RTVSPost2010PropOp56
 70
     1
102
RTVSPost2010Prop57
140
1.0
102
RTVSPost2010PropOp57
 70
     1
102
RTVSPropertyOp0
 70
     1
102
RTVSPropertyOp1
 70
     1
102
RTVSPropertyOp2
 70
     1
102
RTVSPropertyOp3
 70
     1
102
RTVSPropertyOp4
 70
     1
102
RTVSPropertyOp5
 70
     1
102
RTVSPropertyOp6
 70
     1
102
RTVSPropertyOp7
 70
     1
102
RTVSPropertyOp8
 70
     1
102
RTVSPropertyOp9
 70
     1
102
RTVSPropertyOp10
 70
     1
102
RTVSPropertyOp11
 70
     1
102
RTVSPropertyOp12
 70
     1
102
RTVSPropertyOp13
 70
     1
102
RTVSPropertyOp14
 70
     1
102
RTVSPropertyOp15
 70
     1
102
RTVSPropertyOp16
 70
     1
102
RTVSPropertyOp17
 70
     1
102
RTVSPropertyOp18
 70
     1
102
RTVSPropertyOp19
 70
     1
102
RTVSPropertyOp20
 70
     1
102
RTVSPropertyOp21
 70
     1
102
RTVSPropertyOp22
 70
     1
102
RTVSPropertyOp23
 70
     1
102
RTVSPropertyOp24
 70
     1
102
RTVSPropertyOp25
 70
     1
102
RTVSPropertyOp26
 70
     1
102
RTVSPropertyOp27
 70
     1
102
RTVSPropertyOp28
 70
     1
102
RTVSPropertyOp29
 70
     1
102
RTVSPropertyOp30
 70
     1
102
RTVSPropertyOp31
 70
     1
102
RTVSPropertyOp32
 70
     1
102
RTVSPropertyOp33
 70
     1
102
RTVSPropertyOp34
 70
     1
102
RTVSPropertyOp35
 70
     1
102
RTVSPropertyOp36
 70
     1
102
RTVSPropertyOp37
 70
     1
102
RTVSPropertyOp38
 70
     1
102
RTVSPropertyOp39
 70
     1
102
RTVSPropertyOp40
 70
     1
102
RTVSPropertyOp41
 70
     1
102
RTVSPropertyOp42
 70
     1
102
RTVSPropertyOp43
 70
     1
102
RTVSPropertyOp44
 70
     1
102
RTVSPropertyOp45
 70
     1
102
RTVSPropertyOp46
 70
     1
102
RTVSPropertyOp47
 70
     1
102
RTVSPropertyOp48
 70
     1
102
RTVSPropertyOp49
 70
     1
102
RTVSPropertyOp50
 70
     1
102
RTVSPropertyOp51
 70
     0
102
RTVSPropertyOp52
 70
     0
102
RTVSPropertyOp53
 70
     1
102
RTVSPropertyOp54
 70
     1
102
RTVSPropertyOp55
 70
     1
102
RTVSPropertyOp56
 70
     1
102
RTVSPropertyOp57
 70
     1
102
RTVSPropertyOp58
 70
     1
102
RTVSPropertyOp59
 70
     1
102
RTVSPropertyOp60
 70
     1
102
RTVSPropertyOp61
 70
     1
102
RTVSPropertyOp62
 70
     1
  0
XRECORD
  5
82E0
102
{ACAD_REACTORS
330
82DF
102
}
330
82DF
100
AcDbXrecord
280
     1
102
RTVSPost2010Prop28
280
     0
102
RTVSPost2010PropOp28
 70
     1
102
RTVSPost2010Prop29
280
     1
102
RTVSPost2010PropOp29
 70
     1
102
RTVSPost2010Prop30
280
     1
102
RTVSPost2010PropOp30
 70
     1
102
RTVSPost2010Prop31
280
     0
102
RTVSPost2010PropOp31
 70
     1
102
RTVSPost2010Prop32
280
     0
102
RTVSPost2010PropOp32
 70
     1
102
RTVSPost2010Prop33
280
     0
102
RTVSPost2010PropOp33
 70
     1
102
RTVSPost2010Prop34
280
     0
102
RTVSPost2010PropOp34
 70
     1
102
RTVSPost2010Prop35
280
     0
102
RTVSPost2010PropOp35
 70
     1
102
RTVSPost2010Prop36
280
     0
102
RTVSPost2010PropOp36
 70
     1
102
RTVSPost2010Prop37
 90
       50
102
RTVSPost2010PropOp37
 70
     1
102
RTVSPost2010Prop38
140
0.0
102
RTVSPost2010PropOp38
 70
     1
102
RTVSPost2010Prop39
140
1.0
102
RTVSPost2010PropOp39
 70
     1
102
RTVSPost2010Prop40
 90
        0
102
RTVSPost2010PropOp40
 70
     1
102
RTVSPost2010Prop41ColorIndex
 90
       18
102
RTVSPost2010Prop41ColorRGB
 90
        0
102
RTVSPost2010PropOp41
 70
     1
102
RTVSPost2010Prop42
 90
       50
102
RTVSPost2010PropOp42
 70
     1
102
RTVSPost2010Prop43
 90
        3
102
RTVSPost2010PropOp43
 70
     1
102
RTVSPost2010Prop44ColorIndex
 90
        5
102
RTVSPost2010Prop44ColorRGB
 90
      255
102
RTVSPost2010PropOp44
 70
     1
102
RTVSPost2010Prop45
280
     0
102
RTVSPost2010PropOp45
 70
     1
102
RTVSPost2010Prop46
 90
       50
102
RTVSPost2010PropOp46
 70
     1
102
RTVSPost2010Prop47
 90
       50
102
RTVSPost2010PropOp47
 70
     1
102
RTVSPost2010Prop48
 90
       50
102
RTVSPost2010PropOp48
 70
     1
102
RTVSPost2010Prop49
280
     0
102
RTVSPost2010PropOp49
 70
     1
102
RTVSPost2010Prop50
 90
       50
102
RTVSPost2010PropOp50
 70
     1
102
RTVSPost2010Prop51ColorIndex
 90
      256
102
RTVSPost2010Prop51ColorRGB
 90
-16777216
102
RTVSPost2010PropOp51
 70
     0
102
RTVSPost2010Prop52
140
1.0
102
RTVSPost2010PropOp52
 70
     0
102
RTVSPost2010Prop53
 90
        2
102
RTVSPost2010PropOp53
 70
     1
102
RTVSPost2010Prop54
  1
strokes_ogs.tif
102
RTVSPost2010PropOp54
 70
     1
102
RTVSPost2010Prop55
280
     0
102
RTVSPost2010PropOp55
 70
     1
102
RTVSPost2010Prop56
140
1.0
102
RTVSPost2010PropOp56
 70
     1
102
RTVSPost2010Prop57
140
1.0
102
RTVSPost2010PropOp57
 70
     1
102
RTVSPropertyOp0
 70
     1
102
RTVSPropertyOp1
 70
     1
102
RTVSPropertyOp2
 70
     1
102
RTVSPropertyOp3
 70
     1
102
RTVSPropertyOp4
 70
     1
102
RTVSPropertyOp5
 70
     1
102
RTVSPropertyOp6
 70
     1
102
RTVSPropertyOp7
 70
     1
102
RTVSPropertyOp8
 70
     1
102
RTVSPropertyOp9
 70
     1
102
RTVSPropertyOp10
 70
     1
102
RTVSPropertyOp11
 70
     1
102
RTVSPropertyOp12
 70
     1
102
RTVSPropertyOp13
 70
     1
102
RTVSPropertyOp14
 70
     1
102
RTVSPropertyOp15
 70
     1
102
RTVSPropertyOp16
 70
     1
102
RTVSPropertyOp17
 70
     1
102
RTVSPropertyOp18
 70
     1
102
RTVSPropertyOp19
 70
     1
102
RTVSPropertyOp20
 70
     1
102
RTVSPropertyOp21
 70
     1
102
RTVSPropertyOp22
 70
     1
102
RTVSPropertyOp23
 70
     1
102
RTVSPropertyOp24
 70
     1
102
RTVSPropertyOp25
 70
     1
102
RTVSPropertyOp26
 70
     1
102
RTVSPropertyOp27
 70
     1
102
RTVSPropertyOp28
 70
     1
102
RTVSPropertyOp29
 70
     1
102
RTVSPropertyOp30
 70
     1
102
RTVSPropertyOp31
 70
     1
102
RTVSPropertyOp32
 70
     1
102
RTVSPropertyOp33
 70
     1
102
RTVSPropertyOp34
 70
     1
102
RTVSPropertyOp35
 70
     1
102
RTVSPropertyOp36
 70
     1
102
RTVSPropertyOp37
 70
     1
102
RTVSPropertyOp38
 70
     1
102
RTVSPropertyOp39
 70
     1
102
RTVSPropertyOp40
 70
     1
102
RTVSPropertyOp41
 70
     1
102
RTVSPropertyOp42
 70
     1
102
RTVSPropertyOp43
 70
     1
102
RTVSPropertyOp44
 70
     1
102
RTVSPropertyOp45
 70
     1
102
RTVSPropertyOp46
 70
     1
102
RTVSPropertyOp47
 70
     1
102
RTVSPropertyOp48
 70
     1
102
RTVSPropertyOp49
 70
     1
102
RTVSPropertyOp50
 70
     1
102
RTVSPropertyOp51
 70
     0
102
RTVSPropertyOp52
 70
     0
102
RTVSPropertyOp53
 70
     1
102
RTVSPropertyOp54
 70
     1
102
RTVSPropertyOp55
 70
     1
102
RTVSPropertyOp56
 70
     1
102
RTVSPropertyOp57
 70
     1
102
RTVSPropertyOp58
 70
     1
102
RTVSPropertyOp59
 70
     1
102
RTVSPropertyOp60
 70
     1
102
RTVSPropertyOp61
 70
     1
102
RTVSPropertyOp62
 70
     1
  0
XRECORD
  5
82D4
102
{ACAD_REACTORS
330
82D3
102
}
330
82D3
100
AcDbXrecord
280
     1
102
RTVSPost2010Prop28
280
     0
102
RTVSPost2010PropOp28
 70
     1
102
RTVSPost2010Prop29
280
     1
102
RTVSPost2010PropOp29
 70
     1
102
RTVSPost2010Prop30
280
     1
102
RTVSPost2010PropOp30
 70
     1
102
RTVSPost2010Prop31
280
     0
102
RTVSPost2010PropOp31
 70
     1
102
RTVSPost2010Prop32
280
     0
102
RTVSPost2010PropOp32
 70
     1
102
RTVSPost2010Prop33
280
     0
102
RTVSPost2010PropOp33
 70
     1
102
RTVSPost2010Prop34
280
     0
102
RTVSPost2010PropOp34
 70
     1
102
RTVSPost2010Prop35
280
     0
102
RTVSPost2010PropOp35
 70
     1
102
RTVSPost2010Prop36
280
     0
102
RTVSPost2010PropOp36
 70
     1
102
RTVSPost2010Prop37
 90
       50
102
RTVSPost2010PropOp37
 70
     1
102
RTVSPost2010Prop38
140
0.0
102
RTVSPost2010PropOp38
 70
     1
102
RTVSPost2010Prop39
140
1.0
102
RTVSPost2010PropOp39
 70
     1
102
RTVSPost2010Prop40
 90
        0
102
RTVSPost2010PropOp40
 70
     1
102
RTVSPost2010Prop41ColorIndex
 90
       18
102
RTVSPost2010Prop41ColorRGB
 90
        0
102
RTVSPost2010PropOp41
 70
     1
102
RTVSPost2010Prop42
 90
       50
102
RTVSPost2010PropOp42
 70
     1
102
RTVSPost2010Prop43
 90
        3
102
RTVSPost2010PropOp43
 70
     1
102
RTVSPost2010Prop44ColorIndex
 90
        5
102
RTVSPost2010Prop44ColorRGB
 90
      255
102
RTVSPost2010PropOp44
 70
     1
102
RTVSPost2010Prop45
280
     0
102
RTVSPost2010PropOp45
 70
     1
102
RTVSPost2010Prop46
 90
       50
102
RTVSPost2010PropOp46
 70
     1
102
RTVSPost2010Prop47
 90
       50
102
RTVSPost2010PropOp47
 70
     1
102
RTVSPost2010Prop48
 90
       50
102
RTVSPost2010PropOp48
 70
     1
102
RTVSPost2010Prop49
280
     0
102
RTVSPost2010PropOp49
 70
     1
102
RTVSPost2010Prop50
 90
       50
102
RTVSPost2010PropOp50
 70
     1
102
RTVSPost2010Prop51ColorIndex
 90
      256
102
RTVSPost2010Prop51ColorRGB
 90
-16777216
102
RTVSPost2010PropOp51
 70
     0
102
RTVSPost2010Prop52
140
1.0
102
RTVSPost2010PropOp52
 70
     0
102
RTVSPost2010Prop53
 90
        2
102
RTVSPost2010PropOp53
 70
     1
102
RTVSPost2010Prop54
  1
strokes_ogs.tif
102
RTVSPost2010PropOp54
 70
     1
102
RTVSPost2010Prop55
280
     0
102
RTVSPost2010PropOp55
 70
     1
102
RTVSPost2010Prop56
140
1.0
102
RTVSPost2010PropOp56
 70
     1
102
RTVSPost2010Prop57
140
1.0
102
RTVSPost2010PropOp57
 70
     1
102
RTVSPropertyOp0
 70
     1
102
RTVSPropertyOp1
 70
     1
102
RTVSPropertyOp2
 70
     1
102
RTVSPropertyOp3
 70
     1
102
RTVSPropertyOp4
 70
     1
102
RTVSPropertyOp5
 70
     1
102
RTVSPropertyOp6
 70
     1
102
RTVSPropertyOp7
 70
     1
102
RTVSPropertyOp8
 70
     1
102
RTVSPropertyOp9
 70
     1
102
RTVSPropertyOp10
 70
     1
102
RTVSPropertyOp11
 70
     1
102
RTVSPropertyOp12
 70
     1
102
RTVSPropertyOp13
 70
     1
102
RTVSPropertyOp14
 70
     1
102
RTVSPropertyOp15
 70
     1
102
RTVSPropertyOp16
 70
     1
102
RTVSPropertyOp17
 70
     1
102
RTVSPropertyOp18
 70
     1
102
RTVSPropertyOp19
 70
     1
102
RTVSPropertyOp20
 70
     1
102
RTVSPropertyOp21
 70
     1
102
RTVSPropertyOp22
 70
     1
102
RTVSPropertyOp23
 70
     1
102
RTVSPropertyOp24
 70
     1
102
RTVSPropertyOp25
 70
     1
102
RTVSPropertyOp26
 70
     1
102
RTVSPropertyOp27
 70
     1
102
RTVSPropertyOp28
 70
     1
102
RTVSPropertyOp29
 70
     1
102
RTVSPropertyOp30
 70
     1
102
RTVSPropertyOp31
 70
     1
102
RTVSPropertyOp32
 70
     1
102
RTVSPropertyOp33
 70
     1
102
RTVSPropertyOp34
 70
     1
102
RTVSPropertyOp35
 70
     1
102
RTVSPropertyOp36
 70
     1
102
RTVSPropertyOp37
 70
     1
102
RTVSPropertyOp38
 70
     1
102
RTVSPropertyOp39
 70
     1
102
RTVSPropertyOp40
 70
     1
102
RTVSPropertyOp41
 70
     1
102
RTVSPropertyOp42
 70
     1
102
RTVSPropertyOp43
 70
     1
102
RTVSPropertyOp44
 70
     1
102
RTVSPropertyOp45
 70
     1
102
RTVSPropertyOp46
 70
     1
102
RTVSPropertyOp47
 70
     1
102
RTVSPropertyOp48
 70
     1
102
RTVSPropertyOp49
 70
     1
102
RTVSPropertyOp50
 70
     1
102
RTVSPropertyOp51
 70
     0
102
RTVSPropertyOp52
 70
     0
102
RTVSPropertyOp53
 70
     1
102
RTVSPropertyOp54
 70
     1
102
RTVSPropertyOp55
 70
     1
102
RTVSPropertyOp56
 70
     1
102
RTVSPropertyOp57
 70
     1
102
RTVSPropertyOp58
 70
     1
102
RTVSPropertyOp59
 70
     1
102
RTVSPropertyOp60
 70
     1
102
RTVSPropertyOp61
 70
     1
102
RTVSPropertyOp62
 70
     1
  0
XRECORD
  5
82EC
102
{ACAD_REACTORS
330
82EB
102
}
330
82EB
100
AcDbXrecord
280
     1
102
RTVSPost2010Prop28
280
     0
102
RTVSPost2010PropOp28
 70
     1
102
RTVSPost2010Prop29
280
     1
102
RTVSPost2010PropOp29
 70
     1
102
RTVSPost2010Prop30
280
     1
102
RTVSPost2010PropOp30
 70
     1
102
RTVSPost2010Prop31
280
     0
102
RTVSPost2010PropOp31
 70
     1
102
RTVSPost2010Prop32
280
     0
102
RTVSPost2010PropOp32
 70
     1
102
RTVSPost2010Prop33
280
     0
102
RTVSPost2010PropOp33
 70
     1
102
RTVSPost2010Prop34
280
     0
102
RTVSPost2010PropOp34
 70
     1
102
RTVSPost2010Prop35
280
     0
102
RTVSPost2010PropOp35
 70
     1
102
RTVSPost2010Prop36
280
     0
102
RTVSPost2010PropOp36
 70
     1
102
RTVSPost2010Prop37
 90
       50
102
RTVSPost2010PropOp37
 70
     1
102
RTVSPost2010Prop38
140
0.0
102
RTVSPost2010PropOp38
 70
     1
102
RTVSPost2010Prop39
140
1.0
102
RTVSPost2010PropOp39
 70
     1
102
RTVSPost2010Prop40
 90
        0
102
RTVSPost2010PropOp40
 70
     1
102
RTVSPost2010Prop41ColorIndex
 90
       18
102
RTVSPost2010Prop41ColorRGB
 90
        0
102
RTVSPost2010PropOp41
 70
     1
102
RTVSPost2010Prop42
 90
       50
102
RTVSPost2010PropOp42
 70
     1
102
RTVSPost2010Prop43
 90
        3
102
RTVSPost2010PropOp43
 70
     1
102
RTVSPost2010Prop44ColorIndex
 90
        5
102
RTVSPost2010Prop44ColorRGB
 90
      255
102
RTVSPost2010PropOp44
 70
     1
102
RTVSPost2010Prop45
280
     0
102
RTVSPost2010PropOp45
 70
     1
102
RTVSPost2010Prop46
 90
       50
102
RTVSPost2010PropOp46
 70
     1
102
RTVSPost2010Prop47
 90
       50
102
RTVSPost2010PropOp47
 70
     1
102
RTVSPost2010Prop48
 90
       50
102
RTVSPost2010PropOp48
 70
     1
102
RTVSPost2010Prop49
280
     0
102
RTVSPost2010PropOp49
 70
     1
102
RTVSPost2010Prop50
 90
       50
102
RTVSPost2010PropOp50
 70
     1
102
RTVSPost2010Prop51ColorIndex
 90
      256
102
RTVSPost2010Prop51ColorRGB
 90
-16777216
102
RTVSPost2010PropOp51
 70
     0
102
RTVSPost2010Prop52
140
1.0
102
RTVSPost2010PropOp52
 70
     0
102
RTVSPost2010Prop53
 90
        2
102
RTVSPost2010PropOp53
 70
     1
102
RTVSPost2010Prop54
  1
strokes_ogs.tif
102
RTVSPost2010PropOp54
 70
     1
102
RTVSPost2010Prop55
280
     0
102
RTVSPost2010PropOp55
 70
     1
102
RTVSPost2010Prop56
140
1.0
102
RTVSPost2010PropOp56
 70
     1
102
RTVSPost2010Prop57
140
1.0
102
RTVSPost2010PropOp57
 70
     1
102
RTVSPropertyOp0
 70
     1
102
RTVSPropertyOp1
 70
     1
102
RTVSPropertyOp2
 70
     1
102
RTVSPropertyOp3
 70
     1
102
RTVSPropertyOp4
 70
     1
102
RTVSPropertyOp5
 70
     1
102
RTVSPropertyOp6
 70
     1
102
RTVSPropertyOp7
 70
     1
102
RTVSPropertyOp8
 70
     1
102
RTVSPropertyOp9
 70
     1
102
RTVSPropertyOp10
 70
     1
102
RTVSPropertyOp11
 70
     1
102
RTVSPropertyOp12
 70
     1
102
RTVSPropertyOp13
 70
     1
102
RTVSPropertyOp14
 70
     1
102
RTVSPropertyOp15
 70
     1
102
RTVSPropertyOp16
 70
     1
102
RTVSPropertyOp17
 70
     1
102
RTVSPropertyOp18
 70
     1
102
RTVSPropertyOp19
 70
     1
102
RTVSPropertyOp20
 70
     1
102
RTVSPropertyOp21
 70
     1
102
RTVSPropertyOp22
 70
     1
102
RTVSPropertyOp23
 70
     1
102
RTVSPropertyOp24
 70
     1
102
RTVSPropertyOp25
 70
     1
102
RTVSPropertyOp26
 70
     1
102
RTVSPropertyOp27
 70
     1
102
RTVSPropertyOp28
 70
     1
102
RTVSPropertyOp29
 70
     1
102
RTVSPropertyOp30
 70
     1
102
RTVSPropertyOp31
 70
     1
102
RTVSPropertyOp32
 70
     1
102
RTVSPropertyOp33
 70
     1
102
RTVSPropertyOp34
 70
     1
102
RTVSPropertyOp35
 70
     1
102
RTVSPropertyOp36
 70
     1
102
RTVSPropertyOp37
 70
     1
102
RTVSPropertyOp38
 70
     1
102
RTVSPropertyOp39
 70
     1
102
RTVSPropertyOp40
 70
     1
102
RTVSPropertyOp41
 70
     1
102
RTVSPropertyOp42
 70
     1
102
RTVSPropertyOp43
 70
     1
102
RTVSPropertyOp44
 70
     1
102
RTVSPropertyOp45
 70
     1
102
RTVSPropertyOp46
 70
     1
102
RTVSPropertyOp47
 70
     1
102
RTVSPropertyOp48
 70
     1
102
RTVSPropertyOp49
 70
     1
102
RTVSPropertyOp50
 70
     1
102
RTVSPropertyOp51
 70
     0
102
RTVSPropertyOp52
 70
     0
102
RTVSPropertyOp53
 70
     1
102
RTVSPropertyOp54
 70
     1
102
RTVSPropertyOp55
 70
     1
102
RTVSPropertyOp56
 70
     1
102
RTVSPropertyOp57
 70
     1
102
RTVSPropertyOp58
 70
     1
102
RTVSPropertyOp59
 70
     1
102
RTVSPropertyOp60
 70
     1
102
RTVSPropertyOp61
 70
     1
102
RTVSPropertyOp62
 70
     1
  0
ENDSEC
  0
EOF
