  0
SECTION
  2
HEADER
  9
$ACADVER
  1
AC1015
  9
$ACADMAINTVER
 70
    20
  9
$DWGCODEPAGE
  3
ANSI_932
  9
$INSBASE
 10
0.0
 20
0.0
 30
0.0
  9
$EXTMIN
 10
-0.5267270981494221
 20
-0.22504996767384
 30
-0.0015258207003583
  9
$EXTMAX
 10
5250.287069258583
 20
7375.225084310193
 30
0.0000000349246037
  9
$LIMMIN
 10
0.0
 20
0.0
  9
$LIMMAX
 10
297.0
 20
210.0
  9
$ORTHOMODE
 70
     1
  9
$REGENMODE
 70
     1
  9
$FILLMODE
 70
     0
  9
$QTEXTMODE
 70
     0
  9
$MIRRTEXT
 70
     1
  9
$LTSCALE
 40
100.0
  9
$ATTMODE
 70
     1
  9
$TEXTSIZE
 40
180.0
  9
$TRACEWID
 40
0.05
  9
$TEXTSTYLE
  7
STANDARD
  9
$CLAYER
  8
3
  9
$CELTYPE
  6
ByLayer
  9
$CECOLOR
 62
   256
  9
$CELTSCALE
 40
1.0
  9
$DISPSILH
 70
     0
  9
$DIMSCALE
 40
25.0
  9
$DIMASZ
 40
2.0
  9
$DIMEXO
 40
1.0
  9
$DIMDLI
 40
10.0
  9
$DIMRND
 40
0.0
  9
$DIMDLE
 40
0.0
  9
$DIMEXE
 40
1.0
  9
$DIMTP
 40
1.0
  9
$DIMTM
 40
1.0
  9
$DIMTXT
 40
3.0
  9
$DIMCEN
 40
0.0
  9
$DIMTSZ
 40
0.0
  9
$DIMTOL
 70
     0
  9
$DIMLIM
 70
     0
  9
$DIMTIH
 70
     0
  9
$DIMTOH
 70
     0
  9
$DIMSE1
 70
     0
  9
$DIMSE2
 70
     0
  9
$DIMTAD
 70
     1
  9
$DIMZIN
 70
     8
  9
$DIMBLK
  1

  9
$DIMASO
 70
     1
  9
$DIMSHO
 70
     1
  9
$DIMPOST
  1

  9
$DIMAPOST
  1

  9
$DIMALT
 70
     0
  9
$DIMALTD
 70
     2
  9
$DIMALTF
 40
0.039
  9
$DIMLFAC
 40
1.0
  9
$DIMTOFL
 70
     1
  9
$DIMTVP
 40
0.0
  9
$DIMTIX
 70
     0
  9
$DIMSOXD
 70
     0
  9
$DIMSAH
 70
     1
  9
$DIMBLK1
  1
OPEN
  9
$DIMBLK2
  1
OPEN
  9
$DIMSTYLE
  2
IGA
  9
$DIMCLRD
 70
     0
  9
$DIMCLRE
 70
     0
  9
$DIMCLRT
 70
     0
  9
$DIMTFAC
 40
10.0
  9
$DIMGAP
 40
1.0
  9
$DIMJUST
 70
     0
  9
$DIMSD1
 70
     0
  9
$DIMSD2
 70
     0
  9
$DIMTOLJ
 70
     1
  9
$DIMTZIN
 70
     0
  9
$DIMALTZ
 70
     0
  9
$DIMALTTZ
 70
     0
  9
$DIMUPT
 70
     0
  9
$DIMDEC
 70
     4
  9
$DIMTDEC
 70
     4
  9
$DIMALTU
 70
     2
  9
$DIMALTTD
 70
     2
  9
$DIMTXSTY
  7
STANDARD
  9
$DIMAUNIT
 70
     0
  9
$DIMADEC
 70
     0
  9
$DIMALTRND
 40
0.0
  9
$DIMAZIN
 70
     0
  9
$DIMDSEP
 70
    46
  9
$DIMATFIT
 70
     3
  9
$DIMFRAC
 70
     0
  9
$DIMLDRBLK
  1
OPEN
  9
$DIMLUNIT
 70
     2
  9
$DIMLWD
 70
    -2
  9
$DIMLWE
 70
    -2
  9
$DIMTMOVE
 70
     0
  9
$LUNITS
 70
     2
  9
$LUPREC
 70
     3
  9
$SKETCHINC
 40
0.1
  9
$FILLETRAD
 40
50.0
  9
$AUNITS
 70
     0
  9
$AUPREC
 70
     0
  9
$MENU
  1
acad
  9
$ELEVATION
 40
0.0
  9
$PELEVATION
 40
0.0
  9
$THICKNESS
 40
0.0
  9
$LIMCHECK
 70
     0
  9
$CHAMFERA
 40
0.5
  9
$CHAMFERB
 40
0.5
  9
$CHAMFERC
 40
0.0
  9
$CHAMFERD
 40
0.0
  9
$SKPOLY
 70
     0
  9
$TDCREATE
 40
2451389.445084028
  9
$TDUCREATE
 40
2451389.070084028
  9
$TDUPDATE
 40
2460265.694848680
  9
$TDUUPDATE
 40
2460265.319848681
  9
$TDINDWG
 40
0.0152755787
  9
$TDUSRTIMER
 40
0.0152753356
  9
$USRTIMER
 70
     1
  9
$ANGBASE
 50
0.0
  9
$ANGDIR
 70
     0
  9
$PDMODE
 70
     0
  9
$PDSIZE
 40
0.0
  9
$PLINEWID
 40
0.0
  9
$SPLFRAME
 70
     0
  9
$SPLINETYPE
 70
     6
  9
$SPLINESEGS
 70
     8
  9
$HANDSEED
  5
82FE
  9
$SURFTAB1
 70
     6
  9
$SURFTAB2
 70
     6
  9
$SURFTYPE
 70
     6
  9
$SURFU
 70
     6
  9
$SURFV
 70
     6
  9
$UCSBASE
  2

  9
$UCSNAME
  2

  9
$UCSORG
 10
0.0
 20
0.0
 30
0.0
  9
$UCSXDIR
 10
1.0
 20
0.0
 30
0.0
  9
$UCSYDIR
 10
0.0
 20
1.0
 30
0.0
  9
$UCSORTHOREF
  2

  9
$UCSORTHOVIEW
 70
     0
  9
$UCSORGTOP
 10
0.0
 20
0.0
 30
0.0
  9
$UCSORGBOTTOM
 10
0.0
 20
0.0
 30
0.0
  9
$UCSORGLEFT
 10
0.0
 20
0.0
 30
0.0
  9
$UCSORGRIGHT
 10
0.0
 20
0.0
 30
0.0
  9
$UCSORGFRONT
 10
0.0
 20
0.0
 30
0.0
  9
$UCSORGBACK
 10
0.0
 20
0.0
 30
0.0
  9
$PUCSBASE
  2

  9
$PUCSNAME
  2

  9
$PUCSORG
 10
0.0
 20
0.0
 30
0.0
  9
$PUCSXDIR
 10
1.0
 20
0.0
 30
0.0
  9
$PUCSYDIR
 10
0.0
 20
1.0
 30
0.0
  9
$PUCSORTHOREF
  2

  9
$PUCSORTHOVIEW
 70
     0
  9
$PUCSORGTOP
 10
0.0
 20
0.0
 30
0.0
  9
$PUCSORGBOTTOM
 10
0.0
 20
0.0
 30
0.0
  9
$PUCSORGLEFT
 10
0.0
 20
0.0
 30
0.0
  9
$PUCSORGRIGHT
 10
0.0
 20
0.0
 30
0.0
  9
$PUCSORGFRONT
 10
0.0
 20
0.0
 30
0.0
  9
$PUCSORGBACK
 10
0.0
 20
0.0
 30
0.0
  9
$USERI1
 70
     0
  9
$USERI2
 70
     0
  9
$USERI3
 70
     0
  9
$USERI4
 70
     0
  9
$USERI5
 70
     0
  9
$USERR1
 40
0.0
  9
$USERR2
 40
0.0
  9
$USERR3
 40
0.0
  9
$USERR4
 40
0.0
  9
$USERR5
 40
0.0
  9
$WORLDVIEW
 70
     1
  9
$SHADEDGE
 70
     3
  9
$SHADEDIF
 70
    70
  9
$TILEMODE
 70
     1
  9
$MAXACTVP
 70
    16
  9
$PINSBASE
 10
0.0
 20
0.0
 30
0.0
  9
$PLIMCHECK
 70
     0
  9
$PEXTMIN
 10
1.000000000000000E+20
 20
1.000000000000000E+20
 30
1.000000000000000E+20
  9
$PEXTMAX
 10
-1.000000000000000E+20
 20
-1.000000000000000E+20
 30
-1.000000000000000E+20
  9
$PLIMMIN
 10
0.0
 20
0.0
  9
$PLIMMAX
 10
12.0
 20
9.0
  9
$UNITMODE
 70
     0
  9
$VISRETAIN
 70
     0
  9
$PLINEGEN
 70
     0
  9
$PSLTSCALE
 70
     1
  9
$TREEDEPTH
 70
  3020
  9
$CMLSTYLE
  2
Standard
  9
$CMLJUST
 70
     0
  9
$CMLSCALE
 40
1.0
  9
$PROXYGRAPHICS
 70
     1
  9
$MEASUREMENT
 70
     0
  9
$CELWEIGHT
370
    -1
  9
$ENDCAPS
280
     0
  9
$JOINSTYLE
280
     0
  9
$LWDISPLAY
290
     0
  9
$INSUNITS
 70
     0
  9
$HYPERLINKBASE
  1

  9
$STYLESHEET
  1

  9
$XEDIT
290
     1
  9
$CEPSNTYPE
380
     0
  9
$PSTYLEMODE
290
     1
  9
$FINGERPRINTGUID
  2
{50211006-1898-44B7-A243-CC8240B6CFD5}
  9
$VERSIONGUID
  2
{FA5A9E84-D66B-40C0-9E34-3BC4255B6958}
  9
$EXTNAMES
290
     1
  9
$PSVPSCALE
 40
0.0
  9
$OLESTARTUP
290
     0
  0
ENDSEC
  0
SECTION
  2
CLASSES
  0
CLASS
  1
ACDBDICTIONARYWDFLT
  2
AcDbDictionaryWithDefault
  3
ObjectDBX Classes
 90
        0
280
     0
281
     0
  0
CLASS
  1
MATERIAL
  2
AcDbMaterial
  3
ObjectDBX Classes
 90
     1153
280
     0
281
     0
  0
CLASS
  1
VISUALSTYLE
  2
AcDbVisualStyle
  3
ObjectDBX Classes
 90
     4095
280
     0
281
     0
  0
CLASS
  1
SCALE
  2
AcDbScale
  3
ObjectDBX Classes
 90
     1153
280
     0
281
     0
  0
CLASS
  1
TABLESTYLE
  2
AcDbTableStyle
  3
ObjectDBX Classes
 90
     4095
280
     0
281
     0
  0
CLASS
  1
MLEADERSTYLE
  2
AcDbMLeaderStyle
  3
ACDB_MLEADERSTYLE_CLASS
 90
     4095
280
     0
281
     0
  0
CLASS
  1
ACDBSECTIONVIEWSTYLE
  2
AcDbSectionViewStyle
  3
ObjectDBX Classes
 90
     1025
280
     0
281
     0
  0
CLASS
  1
ACDBDETAILVIEWSTYLE
  2
AcDbDetailViewStyle
  3
ObjectDBX Classes
 90
     1025
280
     0
281
     0
  0
CLASS
  1
DICTIONARYVAR
  2
AcDbDictionaryVar
  3
ObjectDBX Classes
 90
        0
280
     0
281
     0
  0
CLASS
  1
CELLSTYLEMAP
  2
AcDbCellStyleMap
  3
ObjectDBX Classes
 90
     1152
280
     0
281
     0
  0
CLASS
  1
ACDBPLACEHOLDER
  2
AcDbPlaceHolder
  3
ObjectDBX Classes
 90
        0
280
     0
281
     0
  0
CLASS
  1
LAYOUT
  2
AcDbLayout
  3
ObjectDBX Classes
 90
        0
280
     0
281
     0
  0
ENDSEC
  0
SECTION
  2
TABLES
  0
TABLE
  2
VPORT
  5
8099
330
0
100
AcDbSymbolTable
 70
     1
  0
VPORT
  5
8105
330
8099
100
AcDbSymbolTableRecord
100
AcDbViewportTableRecord
  2
*ACTIVE
 70
     0
 10
0.0
 20
0.0
 11
1.0
 21
1.0
 12
2624.880171080216
 22
3687.500017171259
 13
0.0
 23
0.0
 14
10.0
 24
10.0
 15
10.0
 25
10.0
 16
0.0
 26
0.0
 36
1.0
 17
0.0
 27
0.0
 37
0.0
 40
7422.678203440799
 41
2.050213675213675
 42
50.0
 43
0.0
 44
0.0
 50
0.0
 51
0.0
 71
     0
 72
   100
 73
     1
 74
     0
 75
     0
 76
     0
 77
     0
 78
     0
281
     0
 65
     1
110
0.0
120
0.0
130
0.0
111
1.0
121
0.0
131
0.0
112
0.0
122
1.0
132
0.0
 79
     0
146
0.0
1001
ACAD_NAV_VCDISPLAY
1070
     3
  0
ENDTAB
  0
TABLE
  2
LTYPE
  5
8096
330
0
100
AcDbSymbolTable
 70
     3
  0
LTYPE
  5
80EB
330
8096
100
AcDbSymbolTableRecord
100
AcDbLinetypeTableRecord
  2
ByBlock
 70
     0
  3

 72
    65
 73
     0
 40
0.0
  0
LTYPE
  5
80EC
330
8096
100
AcDbSymbolTableRecord
100
AcDbLinetypeTableRecord
  2
ByLayer
 70
     0
  3

 72
    65
 73
     0
 40
0.0
  0
LTYPE
  5
80ED
330
8096
100
AcDbSymbolTableRecord
100
AcDbLinetypeTableRecord
  2
CONTINUOUS
 70
     0
  3
Solid line
 72
    65
 73
     0
 40
0.0
  0
LTYPE
  5
8106
330
8096
100
AcDbSymbolTableRecord
100
AcDbLinetypeTableRecord
  2
CENTER
 70
     0
  3
____ _ ____ _ ____ _ ____ _ ____ _ ____ _ ____ 
 72
    65
 73
     4
 40
2.0
 49
1.25
 74
     0
 49
-0.25
 74
     0
 49
0.25
 74
     0
 49
-0.25
 74
     0
  0
ENDTAB
  0
TABLE
  2
LAYER
  5
8093
102
{ACAD_XDICTIONARY
360
814C
102
}
330
0
100
AcDbSymbolTable
 70
     7
  0
LAYER
  5
80E5
102
{ACAD_XDICTIONARY
360
8172
102
}
330
8093
100
AcDbSymbolTableRecord
100
AcDbLayerTableRecord
  2
0
 70
     0
 62
     7
  6
CONTINUOUS
370
    -3
390
80A0
  0
LAYER
  5
8104
102
{ACAD_XDICTIONARY
360
8174
102
}
330
8093
100
AcDbSymbolTableRecord
100
AcDbLayerTableRecord
  2
3
 70
     0
 62
     2
  6
CONTINUOUS
370
    -3
390
80A0
  0
LAYER
  5
8107
102
{ACAD_XDICTIONARY
360
8176
102
}
330
8093
100
AcDbSymbolTableRecord
100
AcDbLayerTableRecord
  2
2
 70
     0
 62
     3
  6
CENTER
370
    -3
390
80A0
  0
LAYER
  5
8108
102
{ACAD_XDICTIONARY
360
8178
102
}
330
8093
100
AcDbSymbolTableRecord
100
AcDbLayerTableRecord
  2
1
 70
     0
 62
     4
  6
CONTINUOUS
370
    -3
390
80A0
  0
LAYER
  5
8109
102
{ACAD_XDICTIONARY
360
817A
102
}
330
8093
100
AcDbSymbolTableRecord
100
AcDbLayerTableRecord
  2
4
 70
     0
 62
     7
  6
CONTINUOUS
370
    -3
390
80A0
  0
LAYER
  5
810A
330
8093
100
AcDbSymbolTableRecord
100
AcDbLayerTableRecord
  2
DEFPOINTS
 70
     0
 62
     7
  6
CONTINUOUS
290
     0
370
    -3
390
80A0
  0
LAYER
  5
8149
102
{ACAD_XDICTIONARY
360
814A
102
}
330
8093
100
AcDbSymbolTableRecord
100
AcDbLayerTableRecord
  2
FUTO
 70
     0
 62
     4
  6
CONTINUOUS
370
    -3
390
80A0
  0
ENDTAB
  0
TABLE
  2
STYLE
  5
8094
330
0
100
AcDbSymbolTable
 70
     2
  0
STYLE
  5
80E6
330
8094
100
AcDbSymbolTableRecord
100
AcDbTextStyleTableRecord
  2
STANDARD
 70
     0
 40
0.0
 41
1.0
 50
0.0
 71
     0
 42
180.0
  3
simplex.shx
  4
extfont.shx
  0
STYLE
  5
80EA
330
8094
100
AcDbSymbolTableRecord
100
AcDbTextStyleTableRecord
  2
Annotative
 70
     0
 40
0.0
 41
1.0
 50
0.0
 71
     0
 42
0.2
  3
txt
  4

1001
AcadAnnotative
1000
AnnotativeData
1002
{
1070
     1
1070
     1
1002
}
  0
ENDTAB
  0
TABLE
  2
VIEW
  5
8097
330
0
100
AcDbSymbolTable
 70
     0
  0
ENDTAB
  0
TABLE
  2
UCS
  5
8098
330
0
100
AcDbSymbolTable
 70
     0
  0
ENDTAB
  0
TABLE
  2
APPID
  5
809A
330
0
100
AcDbSymbolTable
 70
     7
  0
APPID
  5
80E7
330
809A
100
AcDbSymbolTableRecord
100
AcDbRegAppTableRecord
  2
ACAD
 70
     0
  0
APPID
  5
80EE
330
809A
100
AcDbSymbolTableRecord
100
AcDbRegAppTableRecord
  2
AcadAnnotative
 70
     0
  0
APPID
  5
814B
330
809A
100
AcDbSymbolTableRecord
100
AcDbRegAppTableRecord
  2
ACAD_NAV_VCDISPLAY
 70
     0
  0
APPID
  5
8217
330
809A
100
AcDbSymbolTableRecord
100
AcDbRegAppTableRecord
  2
ACAD_DSTYLE_DIMJAG
 70
     0
  0
APPID
  5
8218
330
809A
100
AcDbSymbolTableRecord
100
AcDbRegAppTableRecord
  2
ACAD_DSTYLE_DIMTALN
 70
     0
  0
APPID
  5
823C
330
809A
100
AcDbSymbolTableRecord
100
AcDbRegAppTableRecord
  2
ACAD_EXEMPT_FROM_CAD_STANDARDS
 70
     0
  0
APPID
  5
82F5
330
809A
100
AcDbSymbolTableRecord
100
AcDbRegAppTableRecord
  2
ACAD_MLEADERVER
 70
     0
  0
ENDTAB
  0
TABLE
  2
DIMSTYLE
  5
809B
330
0
100
AcDbSymbolTable
 70
     5
100
AcDbDimStyleTable
 71
     1
340
810B
  0
DIMSTYLE
105
80E8
102
{ACAD_REACTORS
330
7C21
330
7C22
330
7C68
330
7C85
330
7C86
330
7C87
330
7C96
330
7CAD
330
7CB0
330
7FA2
330
7FAF
330
7FBC
330
7FC9
330
7FD8
330
7FE5
102
}
330
809B
100
AcDbSymbolTableRecord
100
AcDbDimStyleTableRecord
  2
Standard
 70
     0
340
80E6
  0
DIMSTYLE
105
80E9
330
809B
100
AcDbSymbolTableRecord
100
AcDbDimStyleTableRecord
  2
Annotative
 70
     0
340
80E6
1001
AcadAnnotative
1000
AnnotativeData
1002
{
1070
     1
1070
     1
1002
}
  0
DIMSTYLE
105
810B
102
{ACAD_REACTORS
330
81D8
330
81E5
330
8219
330
822F
330
8243
330
8259
330
82A7
102
}
330
809B
100
AcDbSymbolTableRecord
100
AcDbDimStyleTableRecord
  2
IGA
 70
     0
 40
2.0
 41
2.0
 42
0.5
 43
10.0
 44
1.0
 47
1.0
 48
1.0
 73
     0
 74
     0
 77
     1
 78
     8
140
3.0
141
0.0
143
0.03937
146
10.0
147
1.0
173
     1
271
     3
272
     3
279
     2
284
     8
285
     8
286
     8
340
80E6
  0
DIMSTYLE
105
810C
330
809B
100
AcDbSymbolTableRecord
100
AcDbDimStyleTableRecord
  2
MATSU
 70
     0
 41
2.0
 42
1.0
 43
10.0
 44
1.0
 73
     0
 74
     0
 77
     1
 78
     8
140
3.0
141
0.0
143
0.03937
147
0.5
172
     1
173
     1
176
   256
177
   256
178
   256
271
     3
272
     3
279
     2
284
     8
285
     8
286
     8
340
80E6
  0
ENDTAB
  0
TABLE
  2
BLOCK_RECORD
  5
8092
330
0
100
AcDbSymbolTable
 70
    37
  0
BLOCK_RECORD
  5
8100
330
8092
100
AcDbSymbolTableRecord
100
AcDbBlockTableRecord
  2
*Model_Space
340
8103
  0
BLOCK_RECORD
  5
80FC
330
8092
100
AcDbSymbolTableRecord
100
AcDbBlockTableRecord
  2
*Paper_Space
340
80FF
  0
BLOCK_RECORD
  5
8110
330
8092
100
AcDbSymbolTableRecord
100
AcDbBlockTableRecord
  2
$MODEL_SPACE
340
0
  0
BLOCK_RECORD
  5
8112
330
8092
100
AcDbSymbolTableRecord
100
AcDbBlockTableRecord
  2
$PAPER_SPACE
340
0
  0
BLOCK_RECORD
  5
8114
330
8092
100
AcDbSymbolTableRecord
100
AcDbBlockTableRecord
  2
_OPEN
340
0
102
{BLKREFS
331
7DEA
331
7DEB
331
7DF5
331
7DF6
331
7E16
331
7E17
331
7E2C
331
7E2D
331
7E37
331
7E38
331
8207
331
8208
331
8210
331
8211
331
8229
331
822A
331
8236
331
8237
331
8253
331
8254
331
8260
331
8261
331
82B7
331
82B8
331
7FC2
331
7FC3
331
7FDE
331
7FDF
331
7E42
331
7E43
331
7E4D
331
7E4E
331
7F87
331
7F88
331
8060
331
8061
331
7F7C
331
7F7D
331
8068
331
8069
331
8070
331
8071
331
7EA2
331
7EA3
331
8078
331
8079
331
8084
331
7EDB
331
7EDC
331
7F9B
331
7F9C
331
7FA8
331
7FA9
331
7FB5
331
7FB6
102
}
  0
BLOCK_RECORD
  5
8116
330
8092
100
AcDbSymbolTableRecord
100
AcDbBlockTableRecord
  2
YA_N
340
0
102
{BLKREFS
331
7BFC
331
7C1E
331
7C36
331
7C38
102
}
  0
BLOCK_RECORD
  5
8118
330
8092
100
AcDbSymbolTableRecord
100
AcDbBlockTableRecord
  2
*D4
340
0
  0
BLOCK_RECORD
  5
811A
330
8092
100
AcDbSymbolTableRecord
100
AcDbBlockTableRecord
  2
*D5
340
0
  0
BLOCK_RECORD
  5
811C
330
8092
100
AcDbSymbolTableRecord
100
AcDbBlockTableRecord
  2
*D6
340
0
  0
BLOCK_RECORD
  5
811E
330
8092
100
AcDbSymbolTableRecord
100
AcDbBlockTableRecord
  2
*D7
340
0
  0
BLOCK_RECORD
  5
8120
330
8092
100
AcDbSymbolTableRecord
100
AcDbBlockTableRecord
  2
*D8
340
0
  0
BLOCK_RECORD
  5
8122
330
8092
100
AcDbSymbolTableRecord
100
AcDbBlockTableRecord
  2
*D9
340
0
  0
BLOCK_RECORD
  5
8124
330
8092
100
AcDbSymbolTableRecord
100
AcDbBlockTableRecord
  2
*D10
340
0
  0
BLOCK_RECORD
  5
8126
330
8092
100
AcDbSymbolTableRecord
100
AcDbBlockTableRecord
  2
*D11
340
0
  0
BLOCK_RECORD
  5
8128
330
8092
100
AcDbSymbolTableRecord
100
AcDbBlockTableRecord
  2
*D12
340
0
  0
BLOCK_RECORD
  5
812A
330
8092
100
AcDbSymbolTableRecord
100
AcDbBlockTableRecord
  2
*D13
340
0
  0
BLOCK_RECORD
  5
812C
330
8092
100
AcDbSymbolTableRecord
100
AcDbBlockTableRecord
  2
*D14
340
0
  0
BLOCK_RECORD
  5
812E
330
8092
100
AcDbSymbolTableRecord
100
AcDbBlockTableRecord
  2
*D15
340
0
  0
BLOCK_RECORD
  5
8130
330
8092
100
AcDbSymbolTableRecord
100
AcDbBlockTableRecord
  2
*D16
340
0
  0
BLOCK_RECORD
  5
8132
330
8092
100
AcDbSymbolTableRecord
100
AcDbBlockTableRecord
  2
*D17
340
0
  0
BLOCK_RECORD
  5
8134
330
8092
100
AcDbSymbolTableRecord
100
AcDbBlockTableRecord
  2
*D18
340
0
  0
BLOCK_RECORD
  5
8136
330
8092
100
AcDbSymbolTableRecord
100
AcDbBlockTableRecord
  2
_DOT
340
0
102
{BLKREFS
331
8083
102
}
  0
BLOCK_RECORD
  5
8137
330
8092
100
AcDbSymbolTableRecord
100
AcDbBlockTableRecord
  2
*D20
340
0
  0
BLOCK_RECORD
  5
813A
330
8092
100
AcDbSymbolTableRecord
100
AcDbBlockTableRecord
  2
*D21
340
0
  0
BLOCK_RECORD
  5
813C
330
8092
100
AcDbSymbolTableRecord
100
AcDbBlockTableRecord
  2
*D22
340
0
  0
BLOCK_RECORD
  5
813E
330
8092
100
AcDbSymbolTableRecord
100
AcDbBlockTableRecord
  2
*D23
340
0
  0
BLOCK_RECORD
  5
8140
330
8092
100
AcDbSymbolTableRecord
100
AcDbBlockTableRecord
  2
*D24
340
0
  0
BLOCK_RECORD
  5
8142
330
8092
100
AcDbSymbolTableRecord
100
AcDbBlockTableRecord
  2
_NONE
340
0
  0
BLOCK_RECORD
  5
8144
330
8092
100
AcDbSymbolTableRecord
100
AcDbBlockTableRecord
  2
*D26
340
0
  0
BLOCK_RECORD
  5
8146
330
8092
100
AcDbSymbolTableRecord
100
AcDbBlockTableRecord
  2
*D27
340
0
  0
BLOCK_RECORD
  5
81D9
330
8092
100
AcDbSymbolTableRecord
100
AcDbBlockTableRecord
  2
*D29
340
0
  0
BLOCK_RECORD
  5
81E6
330
8092
100
AcDbSymbolTableRecord
100
AcDbBlockTableRecord
  2
*D30
340
0
  0
BLOCK_RECORD
  5
821A
330
8092
100
AcDbSymbolTableRecord
100
AcDbBlockTableRecord
  2
*D31
340
0
  0
BLOCK_RECORD
  5
8230
330
8092
100
AcDbSymbolTableRecord
100
AcDbBlockTableRecord
  2
*D32
340
0
  0
BLOCK_RECORD
  5
8244
330
8092
100
AcDbSymbolTableRecord
100
AcDbBlockTableRecord
  2
*D34
340
0
  0
BLOCK_RECORD
  5
825A
330
8092
100
AcDbSymbolTableRecord
100
AcDbBlockTableRecord
  2
*D35
340
0
  0
BLOCK_RECORD
  5
82A8
330
8092
100
AcDbSymbolTableRecord
100
AcDbBlockTableRecord
  2
*D36
340
0
  0
ENDTAB
  0
ENDSEC
  0
SECTION
  2
BLOCKS
  0
BLOCK
  5
8101
330
8100
100
AcDbEntity
  8
0
100
AcDbBlockBegin
  2
*Model_Space
 70
     0
 10
0.0
 20
0.0
 30
0.0
  3
*Model_Space
  1

  0
ENDBLK
  5
8102
330
8100
100
AcDbEntity
  8
0
100
AcDbBlockEnd
  0
BLOCK
  5
80FD
330
80FC
100
AcDbEntity
 67
     1
  8
0
100
AcDbBlockBegin
  2
*Paper_Space
 70
     0
 10
0.0
 20
0.0
 30
0.0
  3
*Paper_Space
  1

  0
ENDBLK
  5
80FE
330
80FC
100
AcDbEntity
 67
     1
  8
0
100
AcDbBlockEnd
  0
BLOCK
  5
8111
330
8110
100
AcDbEntity
  8
0
100
AcDbBlockBegin
  2
$MODEL_SPACE
 70
     0
 10
0.0
 20
0.0
 30
0.0
  3
$MODEL_SPACE
  1

  0
ENDBLK
  5
1B
330
8110
100
AcDbEntity
  8
0
100
AcDbBlockEnd
  0
BLOCK
  5
8113
330
8112
100
AcDbEntity
  8
0
100
AcDbBlockBegin
  2
$PAPER_SPACE
 70
     0
 10
0.0
 20
0.0
 30
0.0
  3
$PAPER_SPACE
  1

  0
ENDBLK
  5
18
330
8112
100
AcDbEntity
  8
0
100
AcDbBlockEnd
  0
BLOCK
  5
8115
330
8114
100
AcDbEntity
  8
0
100
AcDbBlockBegin
  2
_OPEN
 70
     0
 10
0.0
 20
0.0
 30
0.0
  3
_OPEN
  1

  0
LINE
  5
79FD
330
8114
100
AcDbEntity
  8
0
  6
ByBlock
 62
     0
100
AcDbLine
 10
-1.0
 20
0.1666666666666666
 30
0.0
 11
0.0
 21
0.0
 31
0.0
  0
LINE
  5
79FE
330
8114
100
AcDbEntity
  8
0
  6
ByBlock
 62
     0
100
AcDbLine
 10
0.0
 20
0.0
 30
0.0
 11
-1.0
 21
-0.1666666666666666
 31
0.0
  0
LINE
  5
79FF
330
8114
100
AcDbEntity
  8
0
  6
ByBlock
 62
     0
100
AcDbLine
 10
0.0
 20
0.0
 30
0.0
 11
-1.0
 21
0.0
 31
0.0
  0
ENDBLK
  5
7A01
330
8114
100
AcDbEntity
  8
0
100
AcDbBlockEnd
  0
BLOCK
  5
8117
330
8116
100
AcDbEntity
  8
0
100
AcDbBlockBegin
  2
YA_N
 70
     0
 10
0.0
 20
0.0
 30
0.0
  3
YA_N
  1

  0
ENDBLK
  5
7A0C
330
8116
100
AcDbEntity
  8
0
100
AcDbBlockEnd
  0
BLOCK
  5
8119
330
8118
100
AcDbEntity
  8
0
100
AcDbBlockBegin
  2
*D4
 70
     1
 10
0.0
 20
0.0
 30
0.0
  3
*D4
  1

  0
LINE
  5
7DE7
330
8118
100
AcDbEntity
  8
0
  6
ByBlock
100
AcDbLine
 10
1380.866167799454
 20
2131.887615409481
 30
0.0
 11
1380.866167799454
 21
2280.232958951545
 31
0.0
  0
LINE
  5
7DE8
330
8118
100
AcDbEntity
  8
0
  6
ByBlock
100
AcDbLine
 10
2205.866167799455
 20
2131.887615409481
 30
0.0
 11
2205.866167799455
 21
2280.232958951545
 31
0.0
  0
LINE
  5
7DE9
330
8118
100
AcDbEntity
  8
0
  6
ByBlock
100
AcDbLine
 10
1430.866167799454
 20
2255.232958951544
 30
0.0
 11
2155.866167799455
 21
2255.232958951544
 31
0.0
  0
INSERT
  5
7DEA
330
8118
100
AcDbEntity
  8
0
  6
ByBlock
100
AcDbBlockReference
  2
_OPEN
 10
1380.866167799454
 20
2255.232958951544
 30
0.0
 41
50.0
 42
50.0
 43
50.0
 50
180.0
  0
INSERT
  5
7DEB
330
8118
100
AcDbEntity
  8
0
  6
ByBlock
100
AcDbBlockReference
  2
_OPEN
 10
2205.866167799455
 20
2255.232958951544
 30
0.0
 41
50.0
 42
50.0
 43
50.0
  0
TEXT
  5
7DEC
330
8118
100
AcDbEntity
  8
3
100
AcDbText
 10
1696.937596370882
 20
2267.732958951544
 30
0.0
 40
75.0
  1
825
100
AcDbText
  0
POINT
  5
7DED
330
8118
100
AcDbEntity
  8
DEFPOINTS
  6
ByBlock
 62
     0
100
AcDbPoint
 10
1380.866167799454
 20
2106.887615409481
 30
0.0
  0
POINT
  5
7DEE
330
8118
100
AcDbEntity
  8
DEFPOINTS
  6
ByBlock
 62
     0
100
AcDbPoint
 10
2205.866167799455
 20
2106.887615409481
 30
0.0
  0
POINT
  5
7DEF
330
8118
100
AcDbEntity
  8
DEFPOINTS
  6
ByBlock
 62
     0
100
AcDbPoint
 10
2205.866167799455
 20
2255.232958951544
 30
0.0
  0
ENDBLK
  5
7DF0
330
8118
100
AcDbEntity
  8
0
100
AcDbBlockEnd
  0
BLOCK
  5
811B
330
811A
100
AcDbEntity
  8
0
100
AcDbBlockBegin
  2
*D5
 70
     1
 10
0.0
 20
0.0
 30
0.0
  3
*D5
  1

  0
LINE
  5
7DF2
330
811A
100
AcDbEntity
  8
0
  6
ByBlock
100
AcDbLine
 10
1380.866167799454
 20
2131.887615409481
 30
0.0
 11
1380.866167799454
 21
2432.516361525348
 31
0.0
  0
LINE
  5
7DF3
330
811A
100
AcDbEntity
  8
0
  6
ByBlock
100
AcDbLine
 10
2228.866167799455
 20
2253.359407259871
 30
0.0
 11
2228.866167799455
 21
2432.516361525348
 31
0.0
  0
LINE
  5
7DF4
330
811A
100
AcDbEntity
  8
0
  6
ByBlock
100
AcDbLine
 10
1430.866167799454
 20
2407.516361525347
 30
0.0
 11
2178.866167799455
 21
2407.516361525347
 31
0.0
  0
INSERT
  5
7DF5
330
811A
100
AcDbEntity
  8
0
  6
ByBlock
100
AcDbBlockReference
  2
_OPEN
 10
1380.866167799454
 20
2407.516361525347
 30
0.0
 41
50.0
 42
50.0
 43
50.0
 50
180.0
  0
INSERT
  5
7DF6
330
811A
100
AcDbEntity
  8
0
  6
ByBlock
100
AcDbBlockReference
  2
_OPEN
 10
2228.866167799455
 20
2407.516361525347
 30
0.0
 41
50.0
 42
50.0
 43
50.0
  0
TEXT
  5
7DF7
330
811A
100
AcDbEntity
  8
3
100
AcDbText
 10
1708.437596370883
 20
2420.016361525347
 30
0.0
 40
75.0
  1
848
100
AcDbText
  0
POINT
  5
7DF8
330
811A
100
AcDbEntity
  8
DEFPOINTS
  6
ByBlock
 62
     0
100
AcDbPoint
 10
1380.866167799454
 20
2106.887615409481
 30
0.0
  0
POINT
  5
7DF9
330
811A
100
AcDbEntity
  8
DEFPOINTS
  6
ByBlock
 62
     0
100
AcDbPoint
 10
2228.866167799455
 20
2228.359407259871
 30
0.0
  0
POINT
  5
7DFA
330
811A
100
AcDbEntity
  8
DEFPOINTS
  6
ByBlock
 62
     0
100
AcDbPoint
 10
2228.866167799455
 20
2407.516361525347
 30
0.0
  0
ENDBLK
  5
7DFB
330
811A
100
AcDbEntity
  8
0
100
AcDbBlockEnd
  0
BLOCK
  5
811D
330
811C
100
AcDbEntity
  8
0
100
AcDbBlockBegin
  2
*D6
 70
     1
 10
0.0
 20
0.0
 30
0.0
  3
*D6
  1

  0
LINE
  5
7E13
330
811C
100
AcDbEntity
  8
0
  6
ByBlock
100
AcDbLine
 10
5441.207505112644
 20
1986.88761540948
 30
0.0
 11
5740.43091600962
 21
1986.88761540948
 31
0.0
  0
LINE
  5
7E14
330
811C
100
AcDbEntity
  8
0
  6
ByBlock
100
AcDbLine
 10
5441.207505112644
 20
1136.887615409481
 30
0.0
 11
5740.43091600962
 21
1136.887615409481
 31
0.0
  0
LINE
  5
7E15
330
811C
100
AcDbEntity
  8
0
  6
ByBlock
100
AcDbLine
 10
5715.43091600962
 20
1936.88761540948
 30
0.0
 11
5715.43091600962
 21
1186.887615409481
 31
0.0
  0
INSERT
  5
7E16
330
811C
100
AcDbEntity
  8
0
  6
ByBlock
100
AcDbBlockReference
  2
_OPEN
 10
5715.43091600962
 20
1986.88761540948
 30
0.0
 41
50.0
 42
50.0
 43
50.0
 50
90.0
  0
INSERT
  5
7E17
330
811C
100
AcDbEntity
  8
0
  6
ByBlock
100
AcDbBlockReference
  2
_OPEN
 10
5715.43091600962
 20
1136.887615409481
 30
0.0
 41
50.0
 42
50.0
 43
50.0
 50
270.0
  0
TEXT
  5
7E18
330
811C
100
AcDbEntity
  8
3
100
AcDbText
 10
5702.93091600962
 20
1427.959043980909
 30
0.0
 40
75.0
  1
\U+03C6850
 50
90.0
100
AcDbText
  0
POINT
  5
7E19
330
811C
100
AcDbEntity
  8
DEFPOINTS
  6
ByBlock
 62
     0
100
AcDbPoint
 10
5416.207505112645
 20
1986.88761540948
 30
0.0
  0
POINT
  5
7E1A
330
811C
100
AcDbEntity
  8
DEFPOINTS
  6
ByBlock
 62
     0
100
AcDbPoint
 10
5416.207505112645
 20
1136.887615409481
 30
0.0
  0
POINT
  5
7E1B
330
811C
100
AcDbEntity
  8
DEFPOINTS
  6
ByBlock
 62
     0
100
AcDbPoint
 10
5715.43091600962
 20
1136.887615409481
 30
0.0
  0
ENDBLK
  5
7E1C
330
811C
100
AcDbEntity
  8
0
100
AcDbBlockEnd
  0
BLOCK
  5
811F
330
811E
100
AcDbEntity
  8
0
100
AcDbBlockBegin
  2
*D7
 70
     1
 10
0.0
 20
0.0
 30
0.0
  3
*D7
  1

  0
LINE
  5
7E29
330
811E
100
AcDbEntity
  8
0
  6
ByBlock
100
AcDbLine
 10
1728.866167799454
 20
4579.380572240498
 30
0.0
 11
1728.866167799454
 21
4730.503855791452
 31
0.0
  0
LINE
  5
7E2A
330
811E
100
AcDbEntity
  8
0
  6
ByBlock
100
AcDbLine
 10
2728.866167799455
 20
4579.380572240498
 30
0.0
 11
2728.866167799455
 21
4730.503855791452
 31
0.0
  0
LINE
  5
7E2B
330
811E
100
AcDbEntity
  8
0
  6
ByBlock
100
AcDbLine
 10
1778.866167799454
 20
4705.503855791452
 30
0.0
 11
2678.866167799455
 21
4705.503855791452
 31
0.0
  0
INSERT
  5
7E2C
330
811E
100
AcDbEntity
  8
0
  6
ByBlock
100
AcDbBlockReference
  2
_OPEN
 10
1728.866167799454
 20
4705.503855791452
 30
0.0
 41
50.0
 42
50.0
 43
50.0
 50
180.0
  0
INSERT
  5
7E2D
330
811E
100
AcDbEntity
  8
0
  6
ByBlock
100
AcDbBlockReference
  2
_OPEN
 10
2728.866167799455
 20
4705.503855791452
 30
0.0
 41
50.0
 42
50.0
 43
50.0
  0
TEXT
  5
7E2E
330
811E
100
AcDbEntity
  8
3
100
AcDbText
 10
2103.866167799455
 20
4718.003855791452
 30
0.0
 40
75.0
  1
1000
100
AcDbText
  0
POINT
  5
7E2F
330
811E
100
AcDbEntity
  8
DEFPOINTS
  6
ByBlock
 62
     0
100
AcDbPoint
 10
1728.866167799454
 20
4554.380572240497
 30
0.0
  0
POINT
  5
7E30
330
811E
100
AcDbEntity
  8
DEFPOINTS
  6
ByBlock
 62
     0
100
AcDbPoint
 10
2728.866167799455
 20
4554.380572240497
 30
0.0
  0
POINT
  5
7E31
330
811E
100
AcDbEntity
  8
DEFPOINTS
  6
ByBlock
 62
     0
100
AcDbPoint
 10
2728.866167799455
 20
4705.503855791452
 30
0.0
  0
ENDBLK
  5
7E32
330
811E
100
AcDbEntity
  8
0
100
AcDbBlockEnd
  0
BLOCK
  5
8121
330
8120
100
AcDbEntity
  8
0
100
AcDbBlockBegin
  2
*D8
 70
     1
 10
0.0
 20
0.0
 30
0.0
  3
*D8
  1

  0
LINE
  5
7E34
330
8120
100
AcDbEntity
  8
0
  6
ByBlock
100
AcDbLine
 10
2753.866167799455
 20
4554.380572240497
 30
0.0
 11
2971.802895949344
 21
4554.380572240497
 31
0.0
  0
LINE
  5
7E35
330
8120
100
AcDbEntity
  8
0
  6
ByBlock
100
AcDbLine
 10
2753.866167799455
 20
3299.3805722405
 30
0.0
 11
2971.802895949344
 21
3299.3805722405
 31
0.0
  0
LINE
  5
7E36
330
8120
100
AcDbEntity
  8
0
  6
ByBlock
100
AcDbLine
 10
2946.802895949344
 20
4504.380572240497
 30
0.0
 11
2946.802895949344
 21
3349.380572240499
 31
0.0
  0
INSERT
  5
7E37
330
8120
100
AcDbEntity
  8
0
  6
ByBlock
100
AcDbBlockReference
  2
_OPEN
 10
2946.802895949344
 20
4554.380572240497
 30
0.0
 41
50.0
 42
50.0
 43
50.0
 50
90.0
  0
INSERT
  5
7E38
330
8120
100
AcDbEntity
  8
0
  6
ByBlock
100
AcDbBlockReference
  2
_OPEN
 10
2946.802895949344
 20
3299.3805722405
 30
0.0
 41
50.0
 42
50.0
 43
50.0
 50
270.0
  0
TEXT
  5
7E39
330
8120
100
AcDbEntity
  8
3
100
AcDbText
 10
2934.302895949344
 20
3801.8805722405
 30
0.0
 40
75.0
  1
1255
 50
90.0
100
AcDbText
  0
POINT
  5
7E3A
330
8120
100
AcDbEntity
  8
DEFPOINTS
  6
ByBlock
 62
     0
100
AcDbPoint
 10
2728.866167799455
 20
4554.380572240497
 30
0.0
  0
POINT
  5
7E3B
330
8120
100
AcDbEntity
  8
DEFPOINTS
  6
ByBlock
 62
     0
100
AcDbPoint
 10
2728.866167799455
 20
3299.3805722405
 30
0.0
  0
POINT
  5
7E3C
330
8120
100
AcDbEntity
  8
DEFPOINTS
  6
ByBlock
 62
     0
100
AcDbPoint
 10
2946.802895949344
 20
3299.3805722405
 30
0.0
  0
ENDBLK
  5
7E3D
330
8120
100
AcDbEntity
  8
0
100
AcDbBlockEnd
  0
BLOCK
  5
8123
330
8122
100
AcDbEntity
  8
0
100
AcDbBlockBegin
  2
*D9
 70
     1
 10
0.0
 20
0.0
 30
0.0
  3
*D9
  1

  0
LINE
  5
7E3F
330
8122
100
AcDbEntity
  8
0
  6
ByBlock
100
AcDbLine
 10
953.8661677994548
 20
4049.380572240499
 30
0.0
 11
801.7133386761415
 21
4049.380572240499
 31
0.0
  0
LINE
  5
7E40
330
8122
100
AcDbEntity
  8
0
  6
ByBlock
100
AcDbLine
 10
953.8661677994548
 20
3299.3805722405
 30
0.0
 11
801.7133386761415
 21
3299.3805722405
 31
0.0
  0
LINE
  5
7E41
330
8122
100
AcDbEntity
  8
0
  6
ByBlock
100
AcDbLine
 10
826.7133386761415
 20
3999.380572240499
 30
0.0
 11
826.7133386761415
 21
3349.3805722405
 31
0.0
  0
INSERT
  5
7E42
330
8122
100
AcDbEntity
  8
0
  6
ByBlock
100
AcDbBlockReference
  2
_OPEN
 10
826.7133386761415
 20
4049.380572240499
 30
0.0
 41
50.0
 42
50.0
 43
50.0
 50
90.0
  0
INSERT
  5
7E43
330
8122
100
AcDbEntity
  8
0
  6
ByBlock
100
AcDbBlockReference
  2
_OPEN
 10
826.7133386761415
 20
3299.3805722405
 30
0.0
 41
50.0
 42
50.0
 43
50.0
 50
270.0
  0
TEXT
  5
7E44
330
8122
100
AcDbEntity
  8
3
100
AcDbText
 10
814.2133386761415
 20
3577.952000811928
 30
0.0
 40
75.0
  1
750
 50
90.0
100
AcDbText
  0
POINT
  5
7E45
330
8122
100
AcDbEntity
  8
DEFPOINTS
  6
ByBlock
 62
     0
100
AcDbPoint
 10
978.8661677994548
 20
4049.380572240499
 30
0.0
  0
POINT
  5
7E46
330
8122
100
AcDbEntity
  8
DEFPOINTS
  6
ByBlock
 62
     0
100
AcDbPoint
 10
978.8661677994548
 20
3299.3805722405
 30
0.0
  0
POINT
  5
7E47
330
8122
100
AcDbEntity
  8
DEFPOINTS
  6
ByBlock
 62
     0
100
AcDbPoint
 10
826.7133386761415
 20
3299.3805722405
 30
0.0
  0
ENDBLK
  5
7E48
330
8122
100
AcDbEntity
  8
0
100
AcDbBlockEnd
  0
BLOCK
  5
8125
330
8124
100
AcDbEntity
  8
0
100
AcDbBlockBegin
  2
*D10
 70
     1
 10
0.0
 20
0.0
 30
0.0
  3
*D10
  1

  0
LINE
  5
7E4A
330
8124
100
AcDbEntity
  8
0
  6
ByBlock
100
AcDbLine
 10
978.8661677994548
 20
3274.3805722405
 30
0.0
 11
978.8661677994548
 21
3013.7147873961
 31
0.0
  0
LINE
  5
7E4B
330
8124
100
AcDbEntity
  8
0
  6
ByBlock
100
AcDbLine
 10
2728.866167799455
 20
3274.380572240499
 30
0.0
 11
2728.866167799455
 21
3013.7147873961
 31
0.0
  0
LINE
  5
7E4C
330
8124
100
AcDbEntity
  8
0
  6
ByBlock
100
AcDbLine
 10
1028.866167799455
 20
3038.7147873961
 30
0.0
 11
2678.866167799455
 21
3038.7147873961
 31
0.0
  0
INSERT
  5
7E4D
330
8124
100
AcDbEntity
  8
0
  6
ByBlock
100
AcDbBlockReference
  2
_OPEN
 10
978.8661677994548
 20
3038.7147873961
 30
0.0
 41
50.0
 42
50.0
 43
50.0
 50
180.0
  0
INSERT
  5
7E4E
330
8124
100
AcDbEntity
  8
0
  6
ByBlock
100
AcDbBlockReference
  2
_OPEN
 10
2728.866167799455
 20
3038.7147873961
 30
0.0
 41
50.0
 42
50.0
 43
50.0
  0
TEXT
  5
7E4F
330
8124
100
AcDbEntity
  8
3
100
AcDbText
 10
1728.866167799455
 20
3051.2147873961
 30
0.0
 40
75.0
  1
1750
100
AcDbText
  0
POINT
  5
7E50
330
8124
100
AcDbEntity
  8
DEFPOINTS
  6
ByBlock
 62
     0
100
AcDbPoint
 10
978.8661677994548
 20
3299.3805722405
 30
0.0
  0
POINT
  5
7E51
330
8124
100
AcDbEntity
  8
DEFPOINTS
  6
ByBlock
 62
     0
100
AcDbPoint
 10
2728.866167799455
 20
3299.3805722405
 30
0.0
  0
POINT
  5
7E52
330
8124
100
AcDbEntity
  8
DEFPOINTS
  6
ByBlock
 62
     0
100
AcDbPoint
 10
2728.866167799455
 20
3038.7147873961
 30
0.0
  0
ENDBLK
  5
7E53
330
8124
100
AcDbEntity
  8
0
100
AcDbBlockEnd
  0
BLOCK
  5
8127
330
8126
100
AcDbEntity
  8
0
100
AcDbBlockBegin
  2
*D11
 70
     1
 10
0.0
 20
0.0
 30
0.0
  3
*D11
  1

  0
LINE
  5
7F84
330
8126
100
AcDbEntity
  8
0
  6
ByBlock
100
AcDbLine
 10
3489.831002171238
 20
3160.957379976157
 30
0.0
 11
3489.831002171238
 21
3275.072520919997
 31
0.0
  0
LINE
  5
7F85
330
8126
100
AcDbEntity
  8
0
  6
ByBlock
100
AcDbLine
 10
4489.831002171237
 20
3160.957379976157
 30
0.0
 11
4489.831002171237
 21
3275.072520919997
 31
0.0
  0
LINE
  5
7F86
330
8126
100
AcDbEntity
  8
0
  6
ByBlock
100
AcDbLine
 10
3539.831002171236
 20
3250.072520919997
 30
0.0
 11
4439.831002171238
 21
3250.072520919997
 31
0.0
  0
INSERT
  5
7F87
330
8126
100
AcDbEntity
  8
0
  6
ByBlock
100
AcDbBlockReference
  2
_OPEN
 10
3489.831002171238
 20
3250.072520919997
 30
0.0
 41
50.0
 42
50.0
 43
50.0
 50
180.0
  0
INSERT
  5
7F88
330
8126
100
AcDbEntity
  8
0
  6
ByBlock
100
AcDbBlockReference
  2
_OPEN
 10
4489.831002171237
 20
3250.072520919997
 30
0.0
 41
50.0
 42
50.0
 43
50.0
  0
TEXT
  5
7F89
330
8126
100
AcDbEntity
  8
3
100
AcDbText
 10
3864.831002171238
 20
3262.572520919997
 30
0.0
 40
75.0
  1
1000
100
AcDbText
  0
POINT
  5
7F8A
330
8126
100
AcDbEntity
  8
DEFPOINTS
  6
ByBlock
 62
     0
100
AcDbPoint
 10
3489.831002171238
 20
3135.957379976157
 30
0.0
  0
POINT
  5
7F8B
330
8126
100
AcDbEntity
  8
DEFPOINTS
  6
ByBlock
 62
     0
100
AcDbPoint
 10
4489.831002171237
 20
3135.957379976157
 30
0.0
  0
POINT
  5
7F8C
330
8126
100
AcDbEntity
  8
DEFPOINTS
  6
ByBlock
 62
     0
100
AcDbPoint
 10
4489.831002171237
 20
3250.072520919997
 30
0.0
  0
ENDBLK
  5
7F8D
330
8126
100
AcDbEntity
  8
0
100
AcDbBlockEnd
  0
BLOCK
  5
8129
330
8128
100
AcDbEntity
  8
0
100
AcDbBlockBegin
  2
*D12
 70
     1
 10
0.0
 20
0.0
 30
0.0
  3
*D12
  1

  0
LINE
  5
805E
330
8128
100
AcDbEntity
  8
3
100
AcDbLine
 10
582.8333992443276
 20
4958.325114919922
 30
0.0
 11
582.8333992443276
 21
5614.448398470875
 31
0.0
  0
LINE
  5
805F
330
8128
100
AcDbEntity
  8
3
100
AcDbLine
 10
1282.833399244326
 20
5589.448398470874
 30
0.0
 11
632.8333992443276
 21
5589.448398470874
 31
0.0
  0
INSERT
  5
8060
330
8128
100
AcDbEntity
  8
3
100
AcDbBlockReference
  2
_OPEN
 10
1332.833399244326
 20
5589.448398470874
 30
0.0
 41
50.0
 42
50.0
 43
50.0
  0
INSERT
  5
8061
330
8128
100
AcDbEntity
  8
3
100
AcDbBlockReference
  2
_OPEN
 10
582.8333992443276
 20
5589.448398470874
 30
0.0
 41
50.0
 42
50.0
 43
50.0
 50
180.0
  0
TEXT
  5
808C
330
8128
100
AcDbEntity
  8
3
100
AcDbText
 10
807.8330000000001
 20
5506.7
 30
0.0
 40
75.0
  1
750
100
AcDbText
  0
POINT
  5
8063
330
8128
100
AcDbEntity
  8
DEFPOINTS
 62
     0
100
AcDbPoint
 10
1332.833399244326
 20
5438.325114919923
 30
0.0
  0
POINT
  5
8064
330
8128
100
AcDbEntity
  8
DEFPOINTS
 62
     0
100
AcDbPoint
 10
582.8333992443276
 20
4933.325114919922
 30
0.0
  0
POINT
  5
8065
330
8128
100
AcDbEntity
  8
DEFPOINTS
 62
     0
100
AcDbPoint
 10
582.8333992443276
 20
5589.448398470874
 30
0.0
  0
ENDBLK
  5
7E7E
330
8128
100
AcDbEntity
  8
0
100
AcDbBlockEnd
  0
BLOCK
  5
812B
330
812A
100
AcDbEntity
  8
0
100
AcDbBlockBegin
  2
*D13
 70
     1
 10
0.0
 20
0.0
 30
0.0
  3
*D13
  1

  0
LINE
  5
7F79
330
812A
100
AcDbEntity
  8
0
  6
ByBlock
100
AcDbLine
 10
4589.831002171236
 20
2576.457379976157
 30
0.0
 11
4589.831002171236
 21
3449.940726555132
 31
0.0
  0
LINE
  5
7F7A
330
812A
100
AcDbEntity
  8
0
  6
ByBlock
100
AcDbLine
 10
3989.831002171238
 20
3383.565753745148
 30
0.0
 11
3989.831002171238
 21
3449.940726555132
 31
0.0
  0
LINE
  5
7F7B
330
812A
100
AcDbEntity
  8
0
  6
ByBlock
100
AcDbLine
 10
4539.831002171236
 20
3424.940726555131
 30
0.0
 11
4039.831002171236
 21
3424.940726555131
 31
0.0
  0
INSERT
  5
7F7C
330
812A
100
AcDbEntity
  8
0
  6
ByBlock
100
AcDbBlockReference
  2
_OPEN
 10
4589.831002171236
 20
3424.940726555131
 30
0.0
 41
50.0
 42
50.0
 43
50.0
  0
INSERT
  5
7F7D
330
812A
100
AcDbEntity
  8
0
  6
ByBlock
100
AcDbBlockReference
  2
_OPEN
 10
3989.831002171238
 20
3424.940726555131
 30
0.0
 41
50.0
 42
50.0
 43
50.0
 50
180.0
  0
TEXT
  5
7F7E
330
812A
100
AcDbEntity
  8
3
100
AcDbText
 10
4152.331002171236
 20
3469.583583697989
 30
0.0
 40
75.0
  1
(610)
100
AcDbText
  0
POINT
  5
7F7F
330
812A
100
AcDbEntity
  8
DEFPOINTS
  6
ByBlock
 62
     0
100
AcDbPoint
 10
4589.831002171236
 20
2551.457379976157
 30
0.0
  0
POINT
  5
7F80
330
812A
100
AcDbEntity
  8
DEFPOINTS
  6
ByBlock
 62
     0
100
AcDbPoint
 10
3989.831002171238
 20
3358.565753745148
 30
0.0
  0
POINT
  5
7F81
330
812A
100
AcDbEntity
  8
DEFPOINTS
  6
ByBlock
 62
     0
100
AcDbPoint
 10
3989.831002171238
 20
3424.940726555131
 30
0.0
  0
ENDBLK
  5
7F82
330
812A
100
AcDbEntity
  8
0
100
AcDbBlockEnd
  0
BLOCK
  5
812D
330
812C
100
AcDbEntity
  8
0
100
AcDbBlockBegin
  2
*D14
 70
     1
 10
0.0
 20
0.0
 30
0.0
  3
*D14
  1

  0
LINE
  5
8066
330
812C
100
AcDbEntity
  8
3
100
AcDbLine
 10
3179.831002171237
 20
2835.957379976158
 30
0.0
 11
3179.831002171237
 21
3449.940726555132
 31
0.0
  0
LINE
  5
8067
330
812C
100
AcDbEntity
  8
3
100
AcDbLine
 10
3939.831002171238
 20
3424.940726555131
 30
0.0
 11
3229.831002171236
 21
3424.940726555131
 31
0.0
  0
INSERT
  5
8068
330
812C
100
AcDbEntity
  8
3
100
AcDbBlockReference
  2
_OPEN
 10
3989.831002171238
 20
3424.940726555131
 30
0.0
 41
50.0
 42
50.0
 43
50.0
  0
INSERT
  5
8069
330
812C
100
AcDbEntity
  8
3
100
AcDbBlockReference
  2
_OPEN
 10
3179.831002171237
 20
3424.940726555131
 30
0.0
 41
50.0
 42
50.0
 43
50.0
 50
180.0
  0
TEXT
  5
808D
330
812C
100
AcDbEntity
  8
3
100
AcDbText
 10
3434.83
 20
3404.69
 30
0.0
 40
75.0
  1
MAX
100
AcDbText
  0
TEXT
  5
808E
330
812C
100
AcDbEntity
  8
3
100
AcDbText
 10
3434.83
 20
3307.19
 30
0.0
 40
75.0
  1
860
100
AcDbText
  0
POINT
  5
806B
330
812C
100
AcDbEntity
  8
DEFPOINTS
 62
     0
100
AcDbPoint
 10
3989.831002171238
 20
3358.565753745148
 30
0.0
  0
POINT
  5
806C
330
812C
100
AcDbEntity
  8
DEFPOINTS
 62
     0
100
AcDbPoint
 10
3179.831002171237
 20
2810.957379976157
 30
0.0
  0
POINT
  5
806D
330
812C
100
AcDbEntity
  8
DEFPOINTS
 62
     0
100
AcDbPoint
 10
3179.831002171237
 20
3424.940726555131
 30
0.0
  0
ENDBLK
  5
7F77
330
812C
100
AcDbEntity
  8
0
100
AcDbBlockEnd
  0
BLOCK
  5
812F
330
812E
100
AcDbEntity
  8
0
100
AcDbBlockBegin
  2
*D15
 70
     1
 10
0.0
 20
0.0
 30
0.0
  3
*D15
  1

  0
LINE
  5
806E
330
812E
100
AcDbEntity
  8
3
100
AcDbLine
 10
2400.833399244326
 20
2556.957379976157
 30
0.0
 11
2400.833399244326
 21
3461.586126092024
 31
0.0
  0
LINE
  5
806F
330
812E
100
AcDbEntity
  8
3
100
AcDbLine
 10
1882.833399244327
 20
3436.586126092024
 30
0.0
 11
2350.833399244327
 21
3436.586126092024
 31
0.0
  0
INSERT
  5
8070
330
812E
100
AcDbEntity
  8
3
100
AcDbBlockReference
  2
_OPEN
 10
1832.833399244327
 20
3436.586126092024
 30
0.0
 41
50.0
 42
50.0
 43
50.0
 50
180.0
  0
INSERT
  5
8071
330
812E
100
AcDbEntity
  8
3
100
AcDbBlockReference
  2
_OPEN
 10
2400.833399244326
 20
3436.586126092024
 30
0.0
 41
50.0
 42
50.0
 43
50.0
  0
TEXT
  5
808F
330
812E
100
AcDbEntity
  8
3
100
AcDbText
 10
1966.83
 20
3353.84
 30
0.0
 40
75.0
  1
568
100
AcDbText
  0
POINT
  5
8073
330
812E
100
AcDbEntity
  8
DEFPOINTS
 62
     0
100
AcDbPoint
 10
1832.833399244327
 20
3257.429171826548
 30
0.0
  0
POINT
  5
8074
330
812E
100
AcDbEntity
  8
DEFPOINTS
 62
     0
100
AcDbPoint
 10
2400.833399244326
 20
2531.957379976157
 30
0.0
  0
POINT
  5
8075
330
812E
100
AcDbEntity
  8
DEFPOINTS
 62
     0
100
AcDbPoint
 10
2400.833399244326
 20
3436.586126092024
 30
0.0
  0
ENDBLK
  5
7E9D
330
812E
100
AcDbEntity
  8
0
100
AcDbBlockEnd
  0
BLOCK
  5
8131
330
8130
100
AcDbEntity
  8
0
100
AcDbBlockBegin
  2
*D16
 70
     1
 10
0.0
 20
0.0
 30
0.0
  3
*D16
  1

  0
LINE
  5
7E9F
330
8130
100
AcDbEntity
  8
0
  6
ByBlock
100
AcDbLine
 10
2273.366167799455
 20
2106.88761540948
 30
0.0
 11
3055.339309700877
 21
2106.88761540948
 31
0.0
  0
LINE
  5
7EA0
330
8130
100
AcDbEntity
  8
0
  6
ByBlock
100
AcDbLine
 10
2920.337959649845
 20
1561.887615409481
 30
0.0
 11
3055.339309700877
 21
1561.887615409481
 31
0.0
  0
LINE
  5
7EA1
330
8130
100
AcDbEntity
  8
0
  6
ByBlock
100
AcDbLine
 10
3030.339309700877
 20
2056.88761540948
 30
0.0
 11
3030.339309700877
 21
1611.887615409481
 31
0.0
  0
INSERT
  5
7EA2
330
8130
100
AcDbEntity
  8
0
  6
ByBlock
100
AcDbBlockReference
  2
_OPEN
 10
3030.339309700877
 20
2106.88761540948
 30
0.0
 41
50.0
 42
50.0
 43
50.0
 50
90.0
  0
INSERT
  5
7EA3
330
8130
100
AcDbEntity
  8
0
  6
ByBlock
100
AcDbBlockReference
  2
_OPEN
 10
3030.339309700877
 20
1561.887615409481
 30
0.0
 41
50.0
 42
50.0
 43
50.0
 50
270.0
  0
TEXT
  5
7EA4
330
8130
100
AcDbEntity
  8
3
100
AcDbText
 10
3017.839309700877
 20
1737.959043980909
 30
0.0
 40
75.0
  1
545
 50
90.0
100
AcDbText
  0
POINT
  5
7EA5
330
8130
100
AcDbEntity
  8
DEFPOINTS
  6
ByBlock
 62
     0
100
AcDbPoint
 10
2248.366167799455
 20
2106.88761540948
 30
0.0
  0
POINT
  5
7EA6
330
8130
100
AcDbEntity
  8
DEFPOINTS
  6
ByBlock
 62
     0
100
AcDbPoint
 10
2895.337959649845
 20
1561.887615409481
 30
0.0
  0
POINT
  5
7EA7
330
8130
100
AcDbEntity
  8
DEFPOINTS
  6
ByBlock
 62
     0
100
AcDbPoint
 10
3030.339309700877
 20
1561.887615409481
 30
0.0
  0
ENDBLK
  5
7EA8
330
8130
100
AcDbEntity
  8
0
100
AcDbBlockEnd
  0
BLOCK
  5
8133
330
8132
100
AcDbEntity
  8
0
100
AcDbBlockBegin
  2
*D17
 70
     1
 10
0.0
 20
0.0
 30
0.0
  3
*D17
  1

  0
LINE
  5
8076
330
8132
100
AcDbEntity
  8
3
100
AcDbLine
 10
2357.833399244327
 20
1890.957379976157
 30
0.0
 11
2659.30654114575
 21
1890.957379976157
 31
0.0
  0
LINE
  5
8077
330
8132
100
AcDbEntity
  8
3
100
AcDbLine
 10
2634.30654114575
 20
2540.957379976157
 30
0.0
 11
2634.30654114575
 21
1940.957379976157
 31
0.0
  0
INSERT
  5
8078
330
8132
100
AcDbEntity
  8
3
100
AcDbBlockReference
  2
_OPEN
 10
2634.30654114575
 20
2590.957379976158
 30
0.0
 41
50.0
 42
50.0
 43
50.0
 50
90.0
  0
INSERT
  5
8079
330
8132
100
AcDbEntity
  8
3
100
AcDbBlockReference
  2
_OPEN
 10
2634.30654114575
 20
1890.957379976157
 30
0.0
 41
50.0
 42
50.0
 43
50.0
 50
270.0
  0
TEXT
  5
8090
330
8132
100
AcDbEntity
  8
3
100
AcDbText
 10
2434.31
 20
2108.21
 30
0.0
 40
75.0
  1
700
100
AcDbText
  0
POINT
  5
807B
330
8132
100
AcDbEntity
  8
DEFPOINTS
 62
     0
100
AcDbPoint
 10
2499.305191094717
 20
2590.957379976158
 30
0.0
  0
POINT
  5
807C
330
8132
100
AcDbEntity
  8
DEFPOINTS
 62
     0
100
AcDbPoint
 10
2332.833399244327
 20
1890.957379976157
 30
0.0
  0
POINT
  5
807D
330
8132
100
AcDbEntity
  8
DEFPOINTS
 62
     0
100
AcDbPoint
 10
2634.30654114575
 20
1890.957379976157
 30
0.0
  0
ENDBLK
  5
7EB2
330
8132
100
AcDbEntity
  8
0
100
AcDbBlockEnd
  0
BLOCK
  5
8135
330
8134
100
AcDbEntity
  8
0
100
AcDbBlockBegin
  2
*D18
 70
     1
 10
0.0
 20
0.0
 30
0.0
  3
*D18
  1

  0
LINE
  5
807E
330
8134
100
AcDbEntity
  8
3
 62
     0
100
AcDbLine
 10
2345.333399244327
 20
1863.957379976158
 30
0.0
 11
2659.30654114575
 21
1863.957379976158
 31
0.0
  0
LINE
  5
807F
330
8134
100
AcDbEntity
  8
3
 62
     0
100
AcDbLine
 10
2345.333399244327
 20
1763.957379976158
 30
0.0
 11
2659.30654114575
 21
1763.957379976158
 31
0.0
  0
LINE
  5
8080
330
8134
100
AcDbEntity
  8
3
 62
     0
100
AcDbLine
 10
2634.30654114575
 20
1913.957379976158
 30
0.0
 11
2634.30654114575
 21
1963.957379976158
 31
0.0
  0
LINE
  5
8081
330
8134
100
AcDbEntity
  8
3
 62
     0
100
AcDbLine
 10
2634.30654114575
 20
1713.957379976158
 30
0.0
 11
2634.30654114575
 21
1435.385951404729
 31
0.0
  0
LINE
  5
8082
330
8134
100
AcDbEntity
  8
3
 62
     0
100
AcDbLine
 10
2634.30654114575
 20
1863.957379976158
 30
0.0
 11
2634.30654114575
 21
1763.957379976158
 31
0.0
  0
INSERT
  5
8083
330
8134
100
AcDbEntity
  8
3
 62
     0
100
AcDbBlockReference
  2
_DOT
 10
2634.30654114575
 20
1863.957379976158
 30
0.0
 41
50.0
 42
50.0
 43
50.0
 50
270.0
  0
INSERT
  5
8084
330
8134
100
AcDbEntity
  8
3
 62
     0
100
AcDbBlockReference
  2
_OPEN
 10
2634.30654114575
 20
1763.957379976158
 30
0.0
 41
50.0
 42
50.0
 43
50.0
 50
90.0
  0
TEXT
  5
8091
330
8134
100
AcDbEntity
  8
3
 62
     0
100
AcDbText
 10
2421.81
 20
1416.92
 30
0.0
 40
75.0
  1
100
100
AcDbText
  0
POINT
  5
8086
330
8134
100
AcDbEntity
  8
DEFPOINTS
 62
     0
100
AcDbPoint
 10
2332.833399244327
 20
1863.957379976158
 30
0.0
  0
POINT
  5
8087
330
8134
100
AcDbEntity
  8
DEFPOINTS
 62
     0
100
AcDbPoint
 10
2332.833399244327
 20
1763.957379976158
 30
0.0
  0
POINT
  5
8088
330
8134
100
AcDbEntity
  8
DEFPOINTS
 62
     0
100
AcDbPoint
 10
2634.30654114575
 20
1763.957379976158
 30
0.0
  0
ENDBLK
  5
7F5E
330
8134
100
AcDbEntity
  8
0
100
AcDbBlockEnd
  0
BLOCK
  5
8139
330
8136
100
AcDbEntity
  8
0
100
AcDbBlockBegin
  2
_DOT
 70
     0
 10
0.0
 20
0.0
 30
0.0
  3
_DOT
  1

  0
LWPOLYLINE
  5
7F61
330
8136
100
AcDbEntity
  8
0
  6
ByBlock
 62
     0
100
AcDbPolyline
 90
        2
 70
     1
 43
0.25
 10
-0.125
 20
0.0
 42
1.0
 10
0.125
 20
0.0
 42
1.0
  0
LINE
  5
7F65
330
8136
100
AcDbEntity
  8
0
  6
ByBlock
 62
     0
100
AcDbLine
 10
-0.25
 20
0.0
 30
0.0
 11
-1.0
 21
0.0
 31
0.0
  0
ENDBLK
  5
7F44
330
8136
100
AcDbEntity
  8
0
100
AcDbBlockEnd
  0
BLOCK
  5
8138
330
8137
100
AcDbEntity
  8
0
100
AcDbBlockBegin
  2
*D20
 70
     1
 10
0.0
 20
0.0
 30
0.0
  3
*D20
  1

  0
LINE
  5
7ED8
330
8137
100
AcDbEntity
  8
0
  6
ByBlock
100
AcDbLine
 10
2796.866167799454
 20
1527.887615409481
 30
0.0
 11
2796.866167799454
 21
2580.097017149203
 31
0.0
  0
LINE
  5
7ED9
330
8137
100
AcDbEntity
  8
0
  6
ByBlock
100
AcDbLine
 10
978.8661677994548
 20
986.8876154094804
 30
0.0
 11
978.8661677994548
 21
2580.097017149203
 31
0.0
  0
LINE
  5
7EDA
330
8137
100
AcDbEntity
  8
0
  6
ByBlock
100
AcDbLine
 10
2746.866167799455
 20
2555.097017149203
 30
0.0
 11
1028.866167799454
 21
2555.097017149203
 31
0.0
  0
INSERT
  5
7EDB
330
8137
100
AcDbEntity
  8
0
  6
ByBlock
100
AcDbBlockReference
  2
_OPEN
 10
2796.866167799454
 20
2555.097017149203
 30
0.0
 41
50.0
 42
50.0
 43
50.0
  0
INSERT
  5
7EDC
330
8137
100
AcDbEntity
  8
0
  6
ByBlock
100
AcDbBlockReference
  2
_OPEN
 10
978.8661677994548
 20
2555.097017149203
 30
0.0
 41
50.0
 42
50.0
 43
50.0
 50
180.0
  0
TEXT
  5
7EDD
330
8137
100
AcDbEntity
  8
3
100
AcDbText
 10
1770.009024942311
 20
2567.597017149203
 30
0.0
 40
75.0
  1
1818
100
AcDbText
  0
POINT
  5
7EDE
330
8137
100
AcDbEntity
  8
DEFPOINTS
  6
ByBlock
 62
     0
100
AcDbPoint
 10
2796.866167799454
 20
1502.887615409481
 30
0.0
  0
POINT
  5
7EDF
330
8137
100
AcDbEntity
  8
DEFPOINTS
  6
ByBlock
 62
     0
100
AcDbPoint
 10
978.8661677994548
 20
961.8876154094804
 30
0.0
  0
POINT
  5
7EE0
330
8137
100
AcDbEntity
  8
DEFPOINTS
  6
ByBlock
 62
     0
100
AcDbPoint
 10
978.8661677994548
 20
2555.097017149203
 30
0.0
  0
ENDBLK
  5
7EE1
330
8137
100
AcDbEntity
  8
0
100
AcDbBlockEnd
  0
BLOCK
  5
813B
330
813A
100
AcDbEntity
  8
0
100
AcDbBlockBegin
  2
*D21
 70
     1
 10
0.0
 20
0.0
 30
0.0
  3
*D21
  1

  0
LINE
  5
7F98
330
813A
100
AcDbEntity
  8
0
  6
ByBlock
 62
     0
100
AcDbLine
 10
582.8333992443272
 20
1738.957379976158
 30
0.0
 11
582.8333992443272
 21
1568.069038644256
 31
0.0
  0
LINE
  5
7F99
330
813A
100
AcDbEntity
  8
0
  6
ByBlock
 62
     0
100
AcDbLine
 10
1832.833399244327
 20
1738.957379976158
 30
0.0
 11
1832.833399244327
 21
1568.069038644256
 31
0.0
  0
LINE
  5
7F9A
330
813A
100
AcDbEntity
  8
0
  6
ByBlock
 62
     0
100
AcDbLine
 10
632.8333992443272
 20
1593.069038644256
 30
0.0
 11
1782.833399244327
 21
1593.069038644256
 31
0.0
  0
INSERT
  5
7F9B
330
813A
100
AcDbEntity
  8
0
  6
ByBlock
 62
     0
100
AcDbBlockReference
  2
_OPEN
 10
582.8333992443272
 20
1593.069038644256
 30
0.0
 41
50.0
 42
50.0
 43
50.0
 50
180.0
  0
INSERT
  5
7F9C
330
813A
100
AcDbEntity
  8
0
  6
ByBlock
 62
     0
100
AcDbBlockReference
  2
_OPEN
 10
1832.833399244327
 20
1593.069038644256
 30
0.0
 41
50.0
 42
50.0
 43
50.0
  0
TEXT
  5
7F9D
330
813A
100
AcDbEntity
  8
3
 62
     0
100
AcDbText
 10
1082.833399244327
 20
1618.069038644256
 30
0.0
 40
75.0
  1
1250
100
AcDbText
  0
POINT
  5
7F9E
330
813A
100
AcDbEntity
  8
DEFPOINTS
  6
ByBlock
 62
     0
100
AcDbPoint
 10
582.8333992443272
 20
1763.957379976158
 30
0.0
  0
POINT
  5
7F9F
330
813A
100
AcDbEntity
  8
DEFPOINTS
  6
ByBlock
 62
     0
100
AcDbPoint
 10
1832.833399244327
 20
1763.957379976158
 30
0.0
  0
POINT
  5
7FA0
330
813A
100
AcDbEntity
  8
DEFPOINTS
  6
ByBlock
 62
     0
100
AcDbPoint
 10
1832.833399244327
 20
1593.069038644256
 30
0.0
  0
ENDBLK
  5
7FA1
330
813A
100
AcDbEntity
  8
0
100
AcDbBlockEnd
  0
BLOCK
  5
813D
330
813C
100
AcDbEntity
  8
0
100
AcDbBlockBegin
  2
*D22
 70
     1
 10
0.0
 20
0.0
 30
0.0
  3
*D22
  1

  0
LINE
  5
7FA5
330
813C
100
AcDbEntity
  8
0
  6
ByBlock
 62
     0
100
AcDbLine
 10
1832.833399244327
 20
1738.957379976158
 30
0.0
 11
1832.833399244327
 21
1568.069038644256
 31
0.0
  0
LINE
  5
7FA6
330
813C
100
AcDbEntity
  8
0
  6
ByBlock
 62
     0
100
AcDbLine
 10
2332.833399244327
 20
1738.957379976158
 30
0.0
 11
2332.833399244327
 21
1568.069038644256
 31
0.0
  0
LINE
  5
7FA7
330
813C
100
AcDbEntity
  8
0
  6
ByBlock
 62
     0
100
AcDbLine
 10
1882.833399244327
 20
1593.069038644256
 30
0.0
 11
2282.833399244327
 21
1593.069038644256
 31
0.0
  0
INSERT
  5
7FA8
330
813C
100
AcDbEntity
  8
0
  6
ByBlock
 62
     0
100
AcDbBlockReference
  2
_OPEN
 10
1832.833399244327
 20
1593.069038644256
 30
0.0
 41
50.0
 42
50.0
 43
50.0
 50
180.0
  0
INSERT
  5
7FA9
330
813C
100
AcDbEntity
  8
0
  6
ByBlock
 62
     0
100
AcDbBlockReference
  2
_OPEN
 10
2332.833399244327
 20
1593.069038644256
 30
0.0
 41
50.0
 42
50.0
 43
50.0
  0
TEXT
  5
7FAA
330
813C
100
AcDbEntity
  8
3
 62
     0
100
AcDbText
 10
1986.404827815755
 20
1618.069038644256
 30
0.0
 40
75.0
  1
500
100
AcDbText
  0
POINT
  5
7FAB
330
813C
100
AcDbEntity
  8
DEFPOINTS
  6
ByBlock
 62
     0
100
AcDbPoint
 10
1832.833399244327
 20
1763.957379976158
 30
0.0
  0
POINT
  5
7FAC
330
813C
100
AcDbEntity
  8
DEFPOINTS
  6
ByBlock
 62
     0
100
AcDbPoint
 10
2332.833399244327
 20
1763.957379976158
 30
0.0
  0
POINT
  5
7FAD
330
813C
100
AcDbEntity
  8
DEFPOINTS
  6
ByBlock
 62
     0
100
AcDbPoint
 10
2332.833399244327
 20
1593.069038644256
 30
0.0
  0
ENDBLK
  5
7FAE
330
813C
100
AcDbEntity
  8
0
100
AcDbBlockEnd
  0
BLOCK
  5
813F
330
813E
100
AcDbEntity
  8
0
100
AcDbBlockBegin
  2
*D23
 70
     1
 10
0.0
 20
0.0
 30
0.0
  3
*D23
  1

  0
LINE
  5
7FB2
330
813E
100
AcDbEntity
  8
0
  6
ByBlock
 62
     0
100
AcDbLine
 10
3287.831002171236
 20
1738.957379976158
 30
0.0
 11
3287.831002171236
 21
1568.069038644256
 31
0.0
  0
LINE
  5
7FB3
330
813E
100
AcDbEntity
  8
0
  6
ByBlock
 62
     0
100
AcDbLine
 10
3989.831002171238
 20
1738.957379976158
 30
0.0
 11
3989.831002171238
 21
1568.069038644256
 31
0.0
  0
LINE
  5
7FB4
330
813E
100
AcDbEntity
  8
0
  6
ByBlock
 62
     0
100
AcDbLine
 10
3337.831002171236
 20
1593.069038644256
 30
0.0
 11
3939.831002171239
 21
1593.069038644256
 31
0.0
  0
INSERT
  5
7FB5
330
813E
100
AcDbEntity
  8
0
  6
ByBlock
 62
     0
100
AcDbBlockReference
  2
_OPEN
 10
3287.831002171236
 20
1593.069038644256
 30
0.0
 41
50.0
 42
50.0
 43
50.0
 50
180.0
  0
INSERT
  5
7FB6
330
813E
100
AcDbEntity
  8
0
  6
ByBlock
 62
     0
100
AcDbBlockReference
  2
_OPEN
 10
3989.831002171238
 20
1593.069038644256
 30
0.0
 41
50.0
 42
50.0
 43
50.0
  0
TEXT
  5
7FB7
330
813E
100
AcDbEntity
  8
3
 62
     0
100
AcDbText
 10
3542.402430742667
 20
1618.069038644256
 30
0.0
 40
75.0
  1
702
100
AcDbText
  0
POINT
  5
7FB8
330
813E
100
AcDbEntity
  8
DEFPOINTS
  6
ByBlock
 62
     0
100
AcDbPoint
 10
3287.831002171236
 20
1763.957379976158
 30
0.0
  0
POINT
  5
7FB9
330
813E
100
AcDbEntity
  8
DEFPOINTS
  6
ByBlock
 62
     0
100
AcDbPoint
 10
3989.831002171238
 20
1763.957379976158
 30
0.0
  0
POINT
  5
7FBA
330
813E
100
AcDbEntity
  8
DEFPOINTS
  6
ByBlock
 62
     0
100
AcDbPoint
 10
3989.831002171238
 20
1593.069038644256
 30
0.0
  0
ENDBLK
  5
7FBB
330
813E
100
AcDbEntity
  8
0
100
AcDbBlockEnd
  0
BLOCK
  5
8141
330
8140
100
AcDbEntity
  8
0
100
AcDbBlockBegin
  2
*D24
 70
     1
 10
0.0
 20
0.0
 30
0.0
  3
*D24
  1

  0
LINE
  5
7FBF
330
8140
100
AcDbEntity
  8
0
  6
ByBlock
 62
     0
100
AcDbLine
 10
3989.831002171238
 20
1738.957379976158
 30
0.0
 11
3989.831002171238
 21
1568.069038644256
 31
0.0
  0
LINE
  5
7FC0
330
8140
100
AcDbEntity
  8
0
  6
ByBlock
 62
     0
100
AcDbLine
 10
4542.831002171237
 20
1738.957379976158
 30
0.0
 11
4542.831002171237
 21
1568.069038644256
 31
0.0
  0
LINE
  5
7FC1
330
8140
100
AcDbEntity
  8
0
  6
ByBlock
 62
     0
100
AcDbLine
 10
4039.831002171238
 20
1593.069038644256
 30
0.0
 11
4492.831002171237
 21
1593.069038644256
 31
0.0
  0
INSERT
  5
7FC2
330
8140
100
AcDbEntity
  8
0
  6
ByBlock
 62
     0
100
AcDbBlockReference
  2
_OPEN
 10
3989.831002171238
 20
1593.069038644256
 30
0.0
 41
50.0
 42
50.0
 43
50.0
 50
180.0
  0
INSERT
  5
7FC3
330
8140
100
AcDbEntity
  8
0
  6
ByBlock
 62
     0
100
AcDbBlockReference
  2
_OPEN
 10
4542.831002171237
 20
1593.069038644256
 30
0.0
 41
50.0
 42
50.0
 43
50.0
  0
TEXT
  5
7FC4
330
8140
100
AcDbEntity
  8
3
 62
     0
100
AcDbText
 10
4169.902430742665
 20
1618.069038644256
 30
0.0
 40
75.0
  1
553
100
AcDbText
  0
POINT
  5
7FC5
330
8140
100
AcDbEntity
  8
DEFPOINTS
  6
ByBlock
 62
     0
100
AcDbPoint
 10
3989.831002171238
 20
1763.957379976158
 30
0.0
  0
POINT
  5
7FC6
330
8140
100
AcDbEntity
  8
DEFPOINTS
  6
ByBlock
 62
     0
100
AcDbPoint
 10
4542.831002171237
 20
1763.957379976158
 30
0.0
  0
POINT
  5
7FC7
330
8140
100
AcDbEntity
  8
DEFPOINTS
  6
ByBlock
 62
     0
100
AcDbPoint
 10
4542.831002171237
 20
1593.069038644256
 30
0.0
  0
ENDBLK
  5
7FC8
330
8140
100
AcDbEntity
  8
0
100
AcDbBlockEnd
  0
BLOCK
  5
8143
330
8142
100
AcDbEntity
  8
0
100
AcDbBlockBegin
  2
_NONE
 70
     0
 10
0.0
 20
0.0
 30
0.0
  3
_NONE
  1

  0
CIRCLE
  5
7FCC
330
8142
100
AcDbEntity
  8
0
  6
ByBlock
 62
     0
100
AcDbCircle
 10
0.0
 20
0.0
 30
0.0
 40
0.25
  0
ENDBLK
  5
7FCD
330
8142
100
AcDbEntity
  8
0
100
AcDbBlockEnd
  0
BLOCK
  5
8145
330
8144
100
AcDbEntity
  8
0
100
AcDbBlockBegin
  2
*D26
 70
     1
 10
0.0
 20
0.0
 30
0.0
  3
*D26
  1

  0
LINE
  5
7FD0
330
8144
100
AcDbEntity
  8
0
  6
ByBlock
 62
     0
100
AcDbLine
 10
2631.95272848233
 20
1863.957379976158
 30
0.0
 11
2631.95272848233
 21
1863.957379976158
 31
0.0
  0
LINE
  5
7FD1
330
8144
100
AcDbEntity
  8
0
  6
ByBlock
 62
     0
100
AcDbLine
 10
2631.95272848233
 20
1890.957379976157
 30
0.0
 11
2631.95272848233
 21
1990.957379976157
 31
0.0
  0
TEXT
  5
7FD2
330
8144
100
AcDbEntity
  8
3
 62
     0
100
AcDbText
 10
2776.595585625188
 20
1768.528808547586
 30
0.0
 40
75.0
  1
(27)
 50
90.0
100
AcDbText
  0
LINE
  5
7FD3
330
8144
100
AcDbEntity
  8
0
  6
ByBlock
 62
     0
100
AcDbLine
 10
2631.95272848233
 20
1863.957379976158
 30
0.0
 11
2631.95272848233
 21
1890.957379976157
 31
0.0
  0
POINT
  5
7FD4
330
8144
100
AcDbEntity
  8
DEFPOINTS
  6
ByBlock
 62
     0
100
AcDbPoint
 10
2332.833399244327
 20
1863.957379976158
 30
0.0
  0
POINT
  5
7FD5
330
8144
100
AcDbEntity
  8
DEFPOINTS
  6
ByBlock
 62
     0
100
AcDbPoint
 10
2332.833399244327
 20
1890.957379976157
 30
0.0
  0
POINT
  5
7FD6
330
8144
100
AcDbEntity
  8
DEFPOINTS
  6
ByBlock
 62
     0
100
AcDbPoint
 10
2631.95272848233
 20
1890.957379976157
 30
0.0
  0
ENDBLK
  5
7FD7
330
8144
100
AcDbEntity
  8
0
100
AcDbBlockEnd
  0
BLOCK
  5
8147
330
8146
100
AcDbEntity
  8
0
100
AcDbBlockBegin
  2
*D27
 70
     1
 10
0.0
 20
0.0
 30
0.0
  3
*D27
  1

  0
LINE
  5
7FDB
330
8146
100
AcDbEntity
  8
0
  6
ByBlock
 62
     0
100
AcDbLine
 10
2357.833399244327
 20
1763.957379976158
 30
0.0
 11
2858.170711795414
 21
1763.957379976158
 31
0.0
  0
LINE
  5
7FDC
330
8146
100
AcDbEntity
  8
0
  6
ByBlock
 62
     0
100
AcDbLine
 10
1877.333399244326
 20
3135.957379976157
 30
0.0
 11
2858.170711795414
 21
3135.957379976157
 31
0.0
  0
LINE
  5
7FDD
330
8146
100
AcDbEntity
  8
0
  6
ByBlock
 62
     0
100
AcDbLine
 10
2833.170711795414
 20
1813.957379976158
 30
0.0
 11
2833.170711795414
 21
3085.957379976158
 31
0.0
  0
INSERT
  5
7FDE
330
8146
100
AcDbEntity
  8
0
  6
ByBlock
 62
     0
100
AcDbBlockReference
  2
_OPEN
 10
2833.170711795414
 20
1763.957379976158
 30
0.0
 41
50.0
 42
50.0
 43
50.0
 50
270.0
  0
INSERT
  5
7FDF
330
8146
100
AcDbEntity
  8
0
  6
ByBlock
 62
     0
100
AcDbBlockReference
  2
_OPEN
 10
2833.170711795414
 20
3135.957379976157
 30
0.0
 41
50.0
 42
50.0
 43
50.0
 50
90.0
  0
TEXT
  5
7FE0
330
8146
100
AcDbEntity
  8
3
 62
     0
100
AcDbText
 10
2776.027854652556
 20
2276.743094261872
 30
0.0
 40
75.0
  1
(1372)
 50
90.0
100
AcDbText
  0
POINT
  5
7FE1
330
8146
100
AcDbEntity
  8
DEFPOINTS
  6
ByBlock
 62
     0
100
AcDbPoint
 10
2332.833399244327
 20
1763.957379976158
 30
0.0
  0
POINT
  5
7FE2
330
8146
100
AcDbEntity
  8
DEFPOINTS
  6
ByBlock
 62
     0
100
AcDbPoint
 10
1852.333399244326
 20
3135.957379976157
 30
0.0
  0
POINT
  5
7FE3
330
8146
100
AcDbEntity
  8
DEFPOINTS
  6
ByBlock
 62
     0
100
AcDbPoint
 10
2833.170711795414
 20
3135.957379976157
 30
0.0
  0
ENDBLK
  5
7FE4
330
8146
100
AcDbEntity
  8
0
100
AcDbBlockEnd
  0
BLOCK
  5
81DA
330
81D9
100
AcDbEntity
  8
0
100
AcDbBlockBegin
  2
*D29
 70
     1
 10
0.0
 20
0.0
 30
0.0
  3
*D29
  1

  0
LINE
  5
8204
330
81D9
100
AcDbEntity
  8
3
 62
     0
370
    -2
100
AcDbLine
 10
3089.831002171238
 20
2835.957379976158
 30
0.0
 11
3089.831002171238
 21
3555.473025875345
 31
0.0
  0
LINE
  5
8205
330
81D9
100
AcDbEntity
  8
3
 62
     0
370
    -2
100
AcDbLine
 10
3989.831002171238
 20
3362.572520919997
 30
0.0
 11
3989.831002171238
 21
3555.473025875345
 31
0.0
  0
LINE
  5
8206
330
81D9
100
AcDbEntity
  8
3
 62
     0
370
    -2
100
AcDbLine
 10
3139.831002171237
 20
3530.473025875345
 30
0.0
 11
3939.831002171238
 21
3530.473025875345
 31
0.0
  0
INSERT
  5
8207
330
81D9
100
AcDbEntity
  8
3
 62
     0
370
    -2
100
AcDbBlockReference
  2
_OPEN
 10
3089.831002171238
 20
3530.473025875345
 30
0.0
 41
50.0
 42
50.0
 43
50.0
 50
180.0
  0
INSERT
  5
8208
330
81D9
100
AcDbEntity
  8
3
 62
     0
370
    -2
100
AcDbBlockReference
  2
_OPEN
 10
3989.831002171238
 20
3530.473025875345
 30
0.0
 41
50.0
 42
50.0
 43
50.0
  0
MTEXT
  5
8209
330
81D9
100
AcDbEntity
  8
3
 62
     0
100
AcDbMText
 10
3539.831002171238
 20
3612.615883018202
 30
0.0
 40
75.0
 41
0.0
 71
     5
 72
     1
  1
\A1;(900)
 73
     1
 44
1.0
1001
ACAD
1000
MTEXTBEGIN
1070
    73
1070
     1
1070
    44
1040
1.0
1070
    74
1070
     0
1000
MTEXTEND
  0
POINT
  5
820A
330
81D9
100
AcDbEntity
  8
DEFPOINTS
 62
     0
100
AcDbPoint
 10
3089.831002171238
 20
2810.957379976157
 30
0.0
  0
POINT
  5
820B
330
81D9
100
AcDbEntity
  8
DEFPOINTS
 62
     0
100
AcDbPoint
 10
3989.831002171238
 20
3337.572520919997
 30
0.0
  0
POINT
  5
820C
330
81D9
100
AcDbEntity
  8
DEFPOINTS
 62
     0
100
AcDbPoint
 10
3989.831002171238
 20
3530.473025875345
 30
0.0
  0
ENDBLK
  5
81DB
330
81D9
100
AcDbEntity
  8
0
100
AcDbBlockEnd
  0
BLOCK
  5
81E7
330
81E6
100
AcDbEntity
  8
0
100
AcDbBlockBegin
  2
*D30
 70
     1
 10
0.0
 20
0.0
 30
0.0
  3
*D30
  1

  0
LINE
  5
820D
330
81E6
100
AcDbEntity
  8
3
 62
     0
370
    -2
100
AcDbLine
 10
3989.831002171238
 20
3362.572520919997
 30
0.0
 11
3989.831002171238
 21
3555.473025875345
 31
0.0
  0
LINE
  5
820E
330
81E6
100
AcDbEntity
  8
3
 62
     0
370
    -2
100
AcDbLine
 10
4599.831002171237
 20
2576.457379976157
 30
0.0
 11
4599.831002171237
 21
3555.473025875345
 31
0.0
  0
LINE
  5
820F
330
81E6
100
AcDbEntity
  8
3
 62
     0
370
    -2
100
AcDbLine
 10
4039.831002171237
 20
3530.473025875345
 30
0.0
 11
4549.831002171237
 21
3530.473025875345
 31
0.0
  0
INSERT
  5
8210
330
81E6
100
AcDbEntity
  8
3
 62
     0
370
    -2
100
AcDbBlockReference
  2
_OPEN
 10
3989.831002171238
 20
3530.473025875345
 30
0.0
 41
50.0
 42
50.0
 43
50.0
 50
180.0
  0
INSERT
  5
8211
330
81E6
100
AcDbEntity
  8
3
 62
     0
370
    -2
100
AcDbBlockReference
  2
_OPEN
 10
4599.831002171237
 20
3530.473025875345
 30
0.0
 41
50.0
 42
50.0
 43
50.0
  0
MTEXT
  5
8212
330
81E6
100
AcDbEntity
  8
3
 62
     0
100
AcDbMText
 10
4294.831002171236
 20
3612.615883018202
 30
0.0
 40
75.0
 41
0.0
 71
     5
 72
     1
  1
\A1;(610)
 73
     1
 44
1.0
1001
ACAD
1000
MTEXTBEGIN
1070
    73
1070
     1
1070
    44
1040
1.0
1070
    74
1070
     0
1000
MTEXTEND
  0
POINT
  5
8213
330
81E6
100
AcDbEntity
  8
DEFPOINTS
 62
     0
100
AcDbPoint
 10
3989.831002171238
 20
3337.572520919997
 30
0.0
  0
POINT
  5
8214
330
81E6
100
AcDbEntity
  8
DEFPOINTS
 62
     0
100
AcDbPoint
 10
4599.831002171237
 20
2551.457379976157
 30
0.0
  0
POINT
  5
8215
330
81E6
100
AcDbEntity
  8
DEFPOINTS
 62
     0
100
AcDbPoint
 10
4599.831002171237
 20
3530.473025875345
 30
0.0
  0
ENDBLK
  5
81E8
330
81E6
100
AcDbEntity
  8
0
100
AcDbBlockEnd
  0
BLOCK
  5
821B
330
821A
100
AcDbEntity
  8
0
100
AcDbBlockBegin
  2
*D31
 70
     1
 10
0.0
 20
0.0
 30
0.0
  3
*D31
  1

  0
LINE
  5
8226
330
821A
100
AcDbEntity
  8
3
 62
     0
370
    -2
100
AcDbLine
 10
582.8333992443276
 20
4958.325114919922
 30
0.0
 11
582.8333992443276
 21
5614.448398470875
 31
0.0
  0
LINE
  5
8227
330
821A
100
AcDbEntity
  8
3
 62
     0
370
    -2
100
AcDbLine
 10
1332.833399244326
 20
5463.325114919923
 30
0.0
 11
1332.833399244326
 21
5614.448398470875
 31
0.0
  0
LINE
  5
8228
330
821A
100
AcDbEntity
  8
3
 62
     0
370
    -2
100
AcDbLine
 10
632.8333992443276
 20
5589.448398470874
 30
0.0
 11
1282.833399244326
 21
5589.448398470874
 31
0.0
  0
INSERT
  5
8229
330
821A
100
AcDbEntity
  8
3
 62
     0
370
    -2
100
AcDbBlockReference
  2
_OPEN
 10
582.8333992443276
 20
5589.448398470874
 30
0.0
 41
50.0
 42
50.0
 43
50.0
 50
180.0
  0
INSERT
  5
822A
330
821A
100
AcDbEntity
  8
3
 62
     0
370
    -2
100
AcDbBlockReference
  2
_OPEN
 10
1332.833399244326
 20
5589.448398470874
 30
0.0
 41
50.0
 42
50.0
 43
50.0
  0
MTEXT
  5
822B
330
821A
100
AcDbEntity
  8
3
 62
     0
100
AcDbMText
 10
957.8333992443269
 20
5651.948398470874
 30
0.0
 40
75.0
 41
0.0
 71
     5
 72
     1
  1
\A1;750
 73
     1
 44
1.0
1001
ACAD
1000
MTEXTBEGIN
1070
    73
1070
     1
1070
    44
1040
1.0
1070
    74
1070
     0
1000
MTEXTEND
  0
POINT
  5
822C
330
821A
100
AcDbEntity
  8
DEFPOINTS
 62
     0
100
AcDbPoint
 10
582.8333992443276
 20
4933.325114919922
 30
0.0
  0
POINT
  5
822D
330
821A
100
AcDbEntity
  8
DEFPOINTS
 62
     0
100
AcDbPoint
 10
1332.833399244326
 20
5438.325114919923
 30
0.0
  0
POINT
  5
822E
330
821A
100
AcDbEntity
  8
DEFPOINTS
 62
     0
100
AcDbPoint
 10
1332.833399244326
 20
5589.448398470874
 30
0.0
  0
ENDBLK
  5
821C
330
821A
100
AcDbEntity
  8
0
100
AcDbBlockEnd
  0
BLOCK
  5
8231
330
8230
100
AcDbEntity
  8
0
100
AcDbBlockBegin
  2
*D32
 70
     1
 10
0.0
 20
0.0
 30
0.0
  3
*D32
  1

  0
LINE
  5
8233
330
8230
100
AcDbEntity
  8
3
 62
     0
370
    -2
100
AcDbLine
 10
582.8333992443276
 20
4158.325114919921
 30
0.0
 11
582.8333992443276
 21
3807.283694111775
 31
0.0
  0
LINE
  5
8234
330
8230
100
AcDbEntity
  8
3
 62
     0
370
    -2
100
AcDbLine
 10
2332.833399244327
 20
4158.325114919921
 30
0.0
 11
2332.833399244327
 21
3807.283694111775
 31
0.0
  0
LINE
  5
8235
330
8230
100
AcDbEntity
  8
3
 62
     0
370
    -2
100
AcDbLine
 10
632.8333992443276
 20
3832.283694111775
 30
0.0
 11
2282.833399244327
 21
3832.283694111775
 31
0.0
  0
INSERT
  5
8236
330
8230
100
AcDbEntity
  8
3
 62
     0
370
    -2
100
AcDbBlockReference
  2
_OPEN
 10
582.8333992443276
 20
3832.283694111775
 30
0.0
 41
50.0
 42
50.0
 43
50.0
 50
180.0
  0
INSERT
  5
8237
330
8230
100
AcDbEntity
  8
3
 62
     0
370
    -2
100
AcDbBlockReference
  2
_OPEN
 10
2332.833399244327
 20
3832.283694111775
 30
0.0
 41
50.0
 42
50.0
 43
50.0
  0
MTEXT
  5
8238
330
8230
100
AcDbEntity
  8
3
 62
     0
100
AcDbMText
 10
1457.833399244327
 20
3894.783694111775
 30
0.0
 40
75.0
 41
0.0
 71
     5
 72
     1
  1
\A1;1750
 73
     1
 44
1.0
1001
ACAD
1000
MTEXTBEGIN
1070
    73
1070
     1
1070
    44
1040
1.0
1070
    74
1070
     0
1000
MTEXTEND
  0
POINT
  5
8239
330
8230
100
AcDbEntity
  8
DEFPOINTS
 62
     0
100
AcDbPoint
 10
582.8333992443276
 20
4183.325114919921
 30
0.0
  0
POINT
  5
823A
330
8230
100
AcDbEntity
  8
DEFPOINTS
 62
     0
100
AcDbPoint
 10
2332.833399244327
 20
4183.325114919921
 30
0.0
  0
POINT
  5
823B
330
8230
100
AcDbEntity
  8
DEFPOINTS
 62
     0
100
AcDbPoint
 10
2332.833399244327
 20
3832.283694111775
 30
0.0
  0
ENDBLK
  5
8232
330
8230
100
AcDbEntity
  8
0
100
AcDbBlockEnd
  0
BLOCK
  5
8245
330
8244
100
AcDbEntity
  8
0
100
AcDbBlockBegin
  2
*D34
 70
     1
 10
0.0
 20
0.0
 30
0.0
  3
*D34
  1

  0
LINE
  5
8250
330
8244
100
AcDbEntity
  8
3
 62
     0
370
    -2
100
AcDbLine
 10
1832.833399244327
 20
3292.177184564924
 30
0.0
 11
1832.833399244327
 21
3461.586126092024
 31
0.0
  0
LINE
  5
8251
330
8244
100
AcDbEntity
  8
3
 62
     0
370
    -2
100
AcDbLine
 10
2390.833399244327
 20
2556.957379976158
 30
0.0
 11
2390.833399244327
 21
3461.586126092024
 31
0.0
  0
LINE
  5
8252
330
8244
100
AcDbEntity
  8
3
 62
     0
370
    -2
100
AcDbLine
 10
1882.833399244327
 20
3436.586126092024
 30
0.0
 11
2340.833399244327
 21
3436.586126092024
 31
0.0
  0
INSERT
  5
8253
330
8244
100
AcDbEntity
  8
3
 62
     0
370
    -2
100
AcDbBlockReference
  2
_OPEN
 10
1832.833399244327
 20
3436.586126092024
 30
0.0
 41
50.0
 42
50.0
 43
50.0
 50
180.0
  0
INSERT
  5
8254
330
8244
100
AcDbEntity
  8
3
 62
     0
370
    -2
100
AcDbBlockReference
  2
_OPEN
 10
2390.833399244327
 20
3436.586126092024
 30
0.0
 41
50.0
 42
50.0
 43
50.0
  0
MTEXT
  5
8255
330
8244
100
AcDbEntity
  8
3
 62
     0
100
AcDbMText
 10
2111.833399244327
 20
3499.086126092024
 30
0.0
 40
75.0
 41
0.0
 71
     5
 72
     1
  1
\A1;558
 73
     1
 44
1.0
1001
ACAD
1000
MTEXTBEGIN
1070
    73
1070
     1
1070
    44
1040
1.0
1070
    74
1070
     0
1000
MTEXTEND
  0
POINT
  5
8256
330
8244
100
AcDbEntity
  8
DEFPOINTS
 62
     0
100
AcDbPoint
 10
1832.833399244327
 20
3267.177184564924
 30
0.0
  0
POINT
  5
8257
330
8244
100
AcDbEntity
  8
DEFPOINTS
 62
     0
100
AcDbPoint
 10
2390.833399244327
 20
2531.957379976157
 30
0.0
  0
POINT
  5
8258
330
8244
100
AcDbEntity
  8
DEFPOINTS
 62
     0
100
AcDbPoint
 10
2390.833399244327
 20
3436.586126092024
 30
0.0
  0
ENDBLK
  5
8246
330
8244
100
AcDbEntity
  8
0
100
AcDbBlockEnd
  0
BLOCK
  5
825B
330
825A
100
AcDbEntity
  8
0
100
AcDbBlockBegin
  2
*D35
 70
     1
 10
0.0
 20
0.0
 30
0.0
  3
*D35
  1

  0
LINE
  5
825D
330
825A
100
AcDbEntity
  8
3
 62
     0
370
    -2
100
AcDbLine
 10
582.8333992443272
 20
2015.957379976157
 30
0.0
 11
582.8333992443273
 21
3609.266565265615
 31
0.0
  0
LINE
  5
825E
330
825A
100
AcDbEntity
  8
3
 62
     0
370
    -2
100
AcDbLine
 10
2390.833399244327
 20
2556.957379976158
 30
0.0
 11
2390.833399244327
 21
3609.266565265615
 31
0.0
  0
LINE
  5
825F
330
825A
100
AcDbEntity
  8
3
 62
     0
370
    -2
100
AcDbLine
 10
632.8333992443273
 20
3584.266565265615
 30
0.0
 11
2340.833399244327
 21
3584.266565265615
 31
0.0
  0
INSERT
  5
8260
330
825A
100
AcDbEntity
  8
3
 62
     0
370
    -2
100
AcDbBlockReference
  2
_OPEN
 10
582.8333992443273
 20
3584.266565265615
 30
0.0
 41
50.0
 42
50.0
 43
50.0
 50
180.0
  0
INSERT
  5
8261
330
825A
100
AcDbEntity
  8
3
 62
     0
370
    -2
100
AcDbBlockReference
  2
_OPEN
 10
2390.833399244327
 20
3584.266565265615
 30
0.0
 41
50.0
 42
50.0
 43
50.0
  0
MTEXT
  5
8262
330
825A
100
AcDbEntity
  8
3
 62
     0
100
AcDbMText
 10
1486.833399244327
 20
3646.766565265615
 30
0.0
 40
75.0
 41
0.0
 71
     5
 72
     1
  1
\A1;1808
 73
     1
 44
1.0
1001
ACAD
1000
MTEXTBEGIN
1070
    73
1070
     1
1070
    44
1040
1.0
1070
    74
1070
     0
1000
MTEXTEND
  0
POINT
  5
8263
330
825A
100
AcDbEntity
  8
DEFPOINTS
 62
     0
100
AcDbPoint
 10
582.8333992443272
 20
1990.957379976157
 30
0.0
  0
POINT
  5
8264
330
825A
100
AcDbEntity
  8
DEFPOINTS
 62
     0
100
AcDbPoint
 10
2390.833399244327
 20
2531.957379976157
 30
0.0
  0
POINT
  5
8265
330
825A
100
AcDbEntity
  8
DEFPOINTS
 62
     0
100
AcDbPoint
 10
2390.833399244327
 20
3584.266565265615
 30
0.0
  0
ENDBLK
  5
825C
330
825A
100
AcDbEntity
  8
0
100
AcDbBlockEnd
  0
BLOCK
  5
82A9
330
82A8
100
AcDbEntity
  8
0
100
AcDbBlockBegin
  2
*D36
 70
     1
 10
0.0
 20
0.0
 30
0.0
  3
*D36
  1

  0
LINE
  5
82B4
330
82A8
100
AcDbEntity
  8
3
 62
     0
370
    -2
100
AcDbLine
 10
2524.305191094717
 20
2590.957379976158
 30
0.0
 11
2656.952728482329
 21
2590.957379976158
 31
0.0
  0
LINE
  5
82B5
330
82A8
100
AcDbEntity
  8
3
 62
     0
370
    -2
100
AcDbLine
 10
2357.833399244327
 20
1890.957379976157
 30
0.0
 11
2656.952728482329
 21
1890.957379976157
 31
0.0
  0
LINE
  5
82B6
330
82A8
100
AcDbEntity
  8
3
 62
     0
370
    -2
100
AcDbLine
 10
2631.95272848233
 20
2540.957379976158
 30
0.0
 11
2631.95272848233
 21
1940.957379976157
 31
0.0
  0
INSERT
  5
82B7
330
82A8
100
AcDbEntity
  8
3
 62
     0
370
    -2
100
AcDbBlockReference
  2
_OPEN
 10
2631.95272848233
 20
2590.957379976158
 30
0.0
 41
50.0
 42
50.0
 43
50.0
 50
90.0
  0
INSERT
  5
82B8
330
82A8
100
AcDbEntity
  8
3
 62
     0
370
    -2
100
AcDbBlockReference
  2
_OPEN
 10
2631.95272848233
 20
1890.957379976157
 30
0.0
 41
50.0
 42
50.0
 43
50.0
 50
270.0
  0
MTEXT
  5
82B9
330
82A8
100
AcDbEntity
  8
3
 62
     0
100
AcDbMText
 10
2569.452728482329
 20
2240.957379976157
 30
0.0
 40
75.0
 41
0.0
 71
     5
 72
     1
  1
\A1;700
 11
0.0000000000000001
 21
1.0
 31
0.0
 73
     1
 44
1.0
1001
ACAD
1000
MTEXTBEGIN
1070
    73
1070
     1
1070
    44
1040
1.0
1070
    74
1070
     0
1000
MTEXTEND
  0
POINT
  5
82BA
330
82A8
100
AcDbEntity
  8
DEFPOINTS
 62
     0
100
AcDbPoint
 10
2499.305191094717
 20
2590.957379976158
 30
0.0
  0
POINT
  5
82BB
330
82A8
100
AcDbEntity
  8
DEFPOINTS
 62
     0
100
AcDbPoint
 10
2332.833399244327
 20
1890.957379976157
 30
0.0
  0
POINT
  5
82BC
330
82A8
100
AcDbEntity
  8
DEFPOINTS
 62
     0
100
AcDbPoint
 10
2631.95272848233
 20
1890.957379976157
 30
0.0
  0
ENDBLK
  5
82AA
330
82A8
100
AcDbEntity
  8
0
100
AcDbBlockEnd
  0
ENDSEC
  0
SECTION
  2
ENTITIES
  0
INSERT
  5
7BFC
330
8100
100
AcDbEntity
  8
0
100
AcDbBlockReference
  2
YA_N
 10
6.0
 20
5.0
 30
0.0
  0
LINE
  5
7BFE
330
8100
100
AcDbEntity
  8
2
100
AcDbLine
 10
1832.833399244327
 20
3267.177184564924
 30
0.0
 11
1832.833399244327
 21
1763.957379976158
 31
0.0
  0
LINE
  5
7BFF
330
8100
100
AcDbEntity
  8
2
100
AcDbLine
 10
2499.305191094717
 20
2590.957379976158
 30
0.0
 11
968.4518555902995
 21
2590.957379976158
 31
0.0
  0
LINE
  5
7C0A
330
8100
100
AcDbEntity
  8
1
100
AcDbLine
 10
582.8333992443272
 20
1763.957379976158
 30
0.0
 11
2332.833399244327
 21
1763.957379976158
 31
0.0
  0
LINE
  5
7C0B
330
8100
100
AcDbEntity
  8
1
100
AcDbLine
 10
2332.833399244327
 20
1863.957379976158
 30
0.0
 11
2332.833399244327
 21
1763.957379976158
 31
0.0
  0
LINE
  5
7C0C
330
8100
100
AcDbEntity
  8
1
100
AcDbLine
 10
582.8333992443272
 20
1863.957379976158
 30
0.0
 11
582.8333992443272
 21
1763.957379976158
 31
0.0
  0
LINE
  5
7C0D
330
8100
100
AcDbEntity
  8
1
100
AcDbLine
 10
1032.833399244327
 20
2030.957379976157
 30
0.0
 11
1032.833399244327
 21
1990.957379976157
 31
0.0
  0
LINE
  5
7C0E
330
8100
100
AcDbEntity
  8
1
100
AcDbLine
 10
4489.831002171237
 20
3135.957379976157
 30
0.0
 11
4489.831002171236
 21
2613.957379976158
 31
0.0
  0
LINE
  5
7C0F
330
8100
100
AcDbEntity
  8
1
100
AcDbLine
 10
3287.831002171236
 20
1763.957379976158
 30
0.0
 11
4492.831002171238
 21
1763.957379976158
 31
0.0
  0
LINE
  5
7C10
330
8100
100
AcDbEntity
  8
1
100
AcDbLine
 10
3287.831002171236
 20
1863.957379976158
 30
0.0
 11
3287.831002171236
 21
1763.957379976158
 31
0.0
  0
LINE
  5
7C11
330
8100
100
AcDbEntity
  8
2
100
AcDbLine
 10
3100.513071617944
 20
2590.957379976158
 30
0.0
 11
4640.880848750433
 21
2590.957379976158
 31
0.0
  0
LINE
  5
7C12
330
8100
100
AcDbEntity
  8
2
100
AcDbLine
 10
3100.513071617944
 20
2240.957379976157
 30
0.0
 11
3489.831002171238
 21
2240.957379976157
 31
0.0
  0
LINE
  5
7C13
330
8100
100
AcDbEntity
  8
1
100
AcDbLine
 10
3221.831002171238
 20
2717.957379976157
 30
0.0
 11
3221.831002171238
 21
2463.957379976157
 31
0.0
  0
LINE
  5
7C14
330
8100
100
AcDbEntity
  8
1
100
AcDbLine
 10
3089.831002171238
 20
2810.957379976157
 30
0.0
 11
3089.831002171238
 21
2020.957379976157
 31
0.0
  0
LINE
  5
7C15
330
8100
100
AcDbEntity
  8
1
100
AcDbLine
 10
3089.831002171238
 20
2810.957379976157
 30
0.0
 11
3339.831002171238
 21
2810.957379976157
 31
0.0
  0
LINE
  5
7C16
330
8100
100
AcDbEntity
  8
1
100
AcDbLine
 10
3339.831002171238
 20
2810.957379976157
 30
0.0
 11
3339.831002171238
 21
2760.957379976157
 31
0.0
  0
LINE
  5
7C17
330
8100
100
AcDbEntity
  8
1
100
AcDbLine
 10
3339.831002171238
 20
2063.453157367495
 30
0.0
 11
3339.831002171238
 21
2020.957379976157
 31
0.0
  0
LINE
  5
7C18
330
8100
100
AcDbEntity
  8
2
100
AcDbLine
 10
3989.831002171238
 20
3233.542986069056
 30
0.0
 11
3989.831002171238
 21
1763.957379976158
 31
0.0
  0
POINT
  5
7C19
330
8100
100
AcDbEntity
  8
1
100
AcDbPoint
 10
2332.833399244327
 20
1890.957379976157
 30
0.0
  0
POINT
  5
7C1A
330
8100
100
AcDbEntity
  8
1
100
AcDbPoint
 10
2332.833399244327
 20
1890.957379976157
 30
0.0
  0
POINT
  5
7C1B
330
8100
100
AcDbEntity
  8
1
100
AcDbPoint
 10
2332.833399244327
 20
1890.957379976157
 30
0.0
  0
INSERT
  5
7C1E
330
8100
100
AcDbEntity
  8
0
100
AcDbBlockReference
  2
YA_N
 10
-733.6448571667497
 20
-271.0302667023643
 30
0.0
 41
20.0
 42
20.0
 43
20.0
  0
DIMENSION
  5
7C21
330
8100
100
AcDbEntity
  8
3
100
AcDbDimension
  2
*D4
 10
1809.833399244326
 20
3284.302723518222
 30
0.0
 11
1397.333399244326
 21
3334.302723518222
 31
0.0
 12
-396.0327685551274
 22
1029.069764566677
 32
0.0
 71
     5
 42
-1.0
  3
Standard
100
AcDbAlignedDimension
 13
984.8333992443267
 23
3135.957379976157
 33
0.0
 14
1809.833399244326
 24
3135.957379976157
 34
0.0
100
AcDbRotatedDimension
1001
ACAD
1000
DSTYLE
1002
{
1070
    40
1040
25.0
1002
}
  0
DIMENSION
  5
7C22
330
8100
100
AcDbEntity
  8
3
100
AcDbDimension
  2
*D5
 10
1832.833399244327
 20
3436.586126092024
 30
0.0
 11
1408.833399244326
 21
3486.586126092024
 31
0.0
 12
-396.0327685551274
 22
1029.069764566677
 32
0.0
 71
     5
 42
-1.0
  3
Standard
100
AcDbAlignedDimension
 13
984.8333992443267
 23
3135.957379976157
 33
0.0
 14
1832.833399244327
 24
3257.429171826548
 34
0.0
100
AcDbRotatedDimension
1001
ACAD
1000
DSTYLE
1002
{
1070
    40
1040
25.0
1002
}
  0
LINE
  5
7C23
330
8100
100
AcDbEntity
  8
1
100
AcDbLine
 10
698.3744992443271
 20
2150.645379976157
 30
0.0
 11
678.8333992443272
 21
2096.957379976157
 31
0.0
  0
LINE
  5
7C24
330
8100
100
AcDbEntity
  8
1
100
AcDbLine
 10
967.2801992443272
 20
2150.678379976157
 30
0.0
 11
986.8333992443272
 21
2096.957379976157
 31
0.0
  0
ARC
  5
7C25
330
8100
100
AcDbEntity
  8
1
100
AcDbCircle
 10
832.8333992443274
 20
2240.957379976157
 30
0.0
 40
162.0
100
AcDbArc
 50
180.0
 51
213.894877047198
  0
ARC
  5
7C26
330
8100
100
AcDbEntity
  8
1
100
AcDbCircle
 10
832.8333992443274
 20
2240.957379976157
 30
0.0
 40
162.0
100
AcDbArc
 50
326.1050864604068
 51
180.0
  0
LINE
  5
7C27
330
8100
100
AcDbEntity
  8
2
100
AcDbLine
 10
832.8333992443274
 20
2419.407148063344
 30
0.0
 11
832.8333992443267
 21
1763.957379976158
 31
0.0
  0
LINE
  5
7C28
330
8100
100
AcDbEntity
  8
1
100
AcDbLine
 10
986.8333992443272
 20
2080.957379976157
 30
0.0
 11
986.8333992443272
 21
2096.957379976157
 31
0.0
  0
LINE
  5
7C29
330
8100
100
AcDbEntity
  8
1
100
AcDbLine
 10
678.8333992443272
 20
2080.957379976157
 30
0.0
 11
678.8333992443272
 21
2096.957379976157
 31
0.0
  0
LINE
  5
7C2A
330
8100
100
AcDbEntity
  8
2
100
AcDbLine
 10
1020.943843306999
 20
2240.957379976157
 30
0.0
 11
645.8650382769701
 21
2240.957379976157
 31
0.0
  0
LINE
  5
7C2B
330
8100
100
AcDbEntity
  8
1
100
AcDbLine
 10
644.3187559782868
 20
2080.957379976157
 30
0.0
 11
1021.588266859138
 21
2080.957379976156
 31
0.0
  0
LINE
  5
7C2C
330
8100
100
AcDbEntity
  8
1
100
AcDbLine
 10
1034.833399244326
 20
2030.957379976157
 30
0.0
 11
1021.588266859138
 21
2080.957379976157
 31
0.0
  0
LINE
  5
7C2D
330
8100
100
AcDbEntity
  8
1
100
AcDbLine
 10
630.8333992443267
 20
2030.957379976157
 30
0.0
 11
644.3187559782877
 21
2080.957379976157
 31
0.0
  0
CIRCLE
  5
7C2E
330
8100
100
AcDbEntity
  8
1
100
AcDbCircle
 10
832.8333992443274
 20
2240.957379976157
 30
0.0
 40
110.0
  0
CIRCLE
  5
7C2F
330
8100
100
AcDbEntity
  8
1
100
AcDbCircle
 10
1832.833399244327
 20
2590.957379976158
 30
0.0
 40
127.0
  0
LINE
  5
7C30
330
8100
100
AcDbEntity
  8
1
100
AcDbLine
 10
3221.831002171238
 20
2717.957379976157
 30
0.0
 11
3306.831002171237
 21
2717.957379976157
 31
0.0
  0
LINE
  5
7C31
330
8100
100
AcDbEntity
  8
1
100
AcDbLine
 10
3221.831002171238
 20
2463.957379976157
 30
0.0
 11
3306.831002171239
 21
2463.957379976157
 31
0.0
  0
LINE
  5
7C32
330
8100
100
AcDbEntity
  8
1
100
AcDbLine
 10
3221.831002171238
 20
2350.957379976157
 30
0.0
 11
3306.831002171237
 21
2350.957379976157
 31
0.0
  0
LINE
  5
7C33
330
8100
100
AcDbEntity
  8
1
100
AcDbLine
 10
3221.831002171238
 20
2130.957379976157
 30
0.0
 11
3306.831002171237
 21
2130.957379976157
 31
0.0
  0
LINE
  5
7C34
330
8100
100
AcDbEntity
  8
1
100
AcDbLine
 10
3089.831002171238
 20
2020.957379976157
 30
0.0
 11
3339.831002171238
 21
2020.957379976157
 31
0.0
  0
LINE
  5
7C35
330
8100
100
AcDbEntity
  8
1
100
AcDbLine
 10
3306.831002171237
 20
2717.957379976157
 30
0.0
 11
3306.831002171237
 21
2463.957379976157
 31
0.0
  0
INSERT
  5
7C36
330
8100
100
AcDbEntity
  8
0
100
AcDbBlockReference
  2
YA_N
 10
-36.73462870802178
 20
301.6536876033205
 30
0.0
 41
20.0
 42
20.0
 43
20.0
  0
INSERT
  5
7C38
330
8100
100
AcDbEntity
  8
0
100
AcDbBlockReference
  2
YA_N
 10
77.48489664613955
 20
225.3119777640749
 30
0.0
 41
20.0
 42
20.0
 43
20.0
  0
LINE
  5
7C3A
330
8100
100
AcDbEntity
  8
1
100
AcDbLine
 10
3287.831002171236
 20
1863.957379976158
 30
0.0
 11
4542.831002171237
 21
1863.957379976158
 31
0.0
1001
ACAD
1000
ASC_BOUNDS
1002
{
1070
    19
1002
}
  0
LINE
  5
7C3B
330
8100
100
AcDbEntity
  8
1
100
AcDbLine
 10
2332.833399244327
 20
1863.957379976158
 30
0.0
 11
582.8333992443272
 21
1863.957379976158
 31
0.0
1001
ACAD
1000
ASC_BOUNDS
1002
{
1070
    19
1005
0
1005
0
1002
}
  0
POINT
  5
7C3C
330
8100
100
AcDbEntity
  8
1
100
AcDbPoint
 10
2332.833399244327
 20
1863.957379976158
 30
0.0
  0
POINT
  5
7C3D
330
8100
100
AcDbEntity
  8
1
100
AcDbPoint
 10
2332.833399244327
 20
1763.957379976158
 30
0.0
  0
POINT
  5
7C3E
330
8100
100
AcDbEntity
  8
1
100
AcDbPoint
 10
2332.833399244327
 20
1863.957379976158
 30
0.0
  0
POINT
  5
7C3F
330
8100
100
AcDbEntity
  8
1
100
AcDbPoint
 10
2332.833399244327
 20
1890.957379976157
 30
0.0
  0
LINE
  5
7C40
330
8100
100
AcDbEntity
  8
1
100
AcDbLine
 10
4542.831002171237
 20
1863.957379976158
 30
0.0
 11
4542.831002171237
 21
1763.957379976158
 31
0.0
  0
LINE
  5
7C41
330
8100
100
AcDbEntity
  8
1
100
AcDbLine
 10
4492.831002171237
 20
1763.957379976158
 30
0.0
 11
4542.831002171237
 21
1763.957379976158
 31
0.0
  0
POINT
  5
7C42
330
8100
100
AcDbEntity
  8
1
100
AcDbPoint
 10
2332.833399244327
 20
1863.957379976158
 30
0.0
  0
POINT
  5
7C43
330
8100
100
AcDbEntity
  8
1
100
AcDbPoint
 10
2332.833399244327
 20
1763.957379976158
 30
0.0
  0
POINT
  5
7C44
330
8100
100
AcDbEntity
  8
1
100
AcDbPoint
 10
2332.833399244327
 20
1863.957379976158
 30
0.0
  0
POINT
  5
7C45
330
8100
100
AcDbEntity
  8
1
100
AcDbPoint
 10
2332.833399244327
 20
1890.957379976157
 30
0.0
  0
LINE
  5
7C46
330
8100
100
AcDbEntity
  8
1
100
AcDbLine
 10
3989.831002171238
 20
3135.957379976157
 30
0.0
 11
4529.831002171238
 21
3135.957379976157
 31
0.0
  0
LINE
  5
7C48
330
8100
100
AcDbEntity
  8
1
100
AcDbLine
 10
4489.831002171237
 20
2613.957379976158
 30
0.0
 11
4489.831002171237
 21
1990.957379976157
 31
0.0
  0
LINE
  5
7C4A
330
8100
100
AcDbEntity
  8
1
100
AcDbLine
 10
3489.831002171238
 20
2613.957379976158
 30
0.0
 11
3489.831002171238
 21
1990.957379976157
 31
0.0
  0
LINE
  5
7C4B
330
8100
100
AcDbEntity
  8
1
100
AcDbLine
 10
3489.831002171238
 20
3135.957379976157
 30
0.0
 11
3489.831002171238
 21
2613.957379976158
 31
0.0
  0
LINE
  5
7C4C
330
8100
100
AcDbEntity
  8
1
100
AcDbLine
 10
3989.831002171238
 20
3135.957379976157
 30
0.0
 11
3449.831002171237
 21
3135.957379976157
 31
0.0
  0
LINE
  5
7C4D
330
8100
100
AcDbEntity
  8
1
100
AcDbLine
 10
3351.831002171236
 20
2555.157379976157
 30
0.0
 11
3351.831002171236
 21
2425.157379976159
 31
0.0
  0
LINE
  5
7C4E
330
8100
100
AcDbEntity
  8
1
100
AcDbLine
 10
3361.831002171236
 20
2565.157379976159
 30
0.0
 11
3489.831002171238
 21
2565.157379976157
 31
0.0
  0
LINE
  5
7C4F
330
8100
100
AcDbEntity
  8
1
100
AcDbLine
 10
3361.831002171236
 20
2415.157379976159
 30
0.0
 11
3489.831002171238
 21
2415.157379976157
 31
0.0
  0
ARC
  5
7C50
330
8100
100
AcDbEntity
  8
1
100
AcDbCircle
 10
3361.831002171236
 20
2555.157379976157
 30
0.0
 40
10.0
100
AcDbArc
 50
90.0
 51
180.0
  0
ARC
  5
7C51
330
8100
100
AcDbEntity
  8
1
100
AcDbCircle
 10
3361.831002171236
 20
2425.157379976159
 30
0.0
 40
10.0
100
AcDbArc
 50
180.0
 51
270.0
  0
LINE
  5
7C52
330
8100
100
AcDbEntity
  8
1
100
AcDbLine
 10
4599.831002171237
 20
2551.457379976157
 30
0.0
 11
4599.831002171237
 21
2451.457379976157
 31
0.0
  0
ARC
  5
7C53
330
8100
100
AcDbEntity
  8
1
100
AcDbCircle
 10
4589.831002171236
 20
2451.457379976157
 30
0.0
 40
10.0
100
AcDbArc
 50
270.0
 51
0.0
  0
ARC
  5
7C54
330
8100
100
AcDbEntity
  8
1
100
AcDbCircle
 10
4589.831002171236
 20
2551.457379976157
 30
0.0
 40
10.0
100
AcDbArc
 50
0.0
 51
90.0
  0
LINE
  5
7C55
330
8100
100
AcDbEntity
  8
1
100
AcDbLine
 10
4489.831002171237
 20
2441.457379976157
 30
0.0
 11
4589.831002171236
 21
2441.457379976157
 31
0.0
  0
LINE
  5
7C56
330
8100
100
AcDbEntity
  8
1
100
AcDbLine
 10
4489.831002171237
 20
2561.45737997616
 30
0.0
 11
4589.831002171236
 21
2561.457379976157
 31
0.0
  0
LINE
  5
7C57
330
8100
100
AcDbEntity
  8
1
100
AcDbLine
 10
632.8333992443267
 20
2030.957379976157
 30
0.0
 11
632.8333992443267
 21
1990.957379976157
 31
0.0
  0
POINT
  5
7C58
330
8100
100
AcDbEntity
  8
1
100
AcDbPoint
 10
4599.831002171237
 20
2551.457379976157
 30
0.0
  0
LINE
  5
7C59
330
8100
100
AcDbEntity
  8
1
100
AcDbLine
 10
582.8333992443276
 20
4183.325114919921
 30
0.0
 11
2332.833399244327
 21
4183.325114919921
 31
0.0
  0
LINE
  5
7C5A
330
8100
100
AcDbEntity
  8
1
100
AcDbLine
 10
1332.833399244327
 20
5438.325114919923
 30
0.0
 11
2332.833399244327
 21
5438.325114919923
 31
0.0
  0
LINE
  5
7C5B
330
8100
100
AcDbEntity
  8
1
100
AcDbLine
 10
2332.833399244327
 20
5438.325114919923
 30
0.0
 11
2332.833399244327
 21
5385.325114919922
 31
0.0
  0
LINE
  5
7C5C
330
8100
100
AcDbEntity
  8
1
100
AcDbLine
 10
582.8333992443276
 20
4933.325114919922
 30
0.0
 11
582.8333992443276
 21
4183.325114919921
 31
0.0
  0
LINE
  5
7C5D
330
8100
100
AcDbEntity
  8
1
100
AcDbLine
 10
1332.833399244326
 20
5438.325114919923
 30
0.0
 11
1332.833399244326
 21
5385.325114919923
 31
0.0
  0
LINE
  5
7C5E
330
8100
100
AcDbEntity
  8
1
100
AcDbLine
 10
582.8333992443276
 20
4933.325114919922
 30
0.0
 11
984.8333992443267
 21
4933.325114919922
 31
0.0
  0
LINE
  5
7C5F
330
8100
100
AcDbEntity
  8
2
100
AcDbLine
 10
1099.107514102052
 20
4885.325114919923
 30
0.0
 11
2413.225767652758
 21
4885.325114919922
 31
0.0
  0
LINE
  5
7C60
330
8100
100
AcDbEntity
  8
2
100
AcDbLine
 10
1832.833399244325
 20
5471.30903045685
 30
0.0
 11
1832.833399244327
 21
3948.461463769785
 31
0.0
  0
LINE
  5
7C61
330
8100
100
AcDbEntity
  8
2
100
AcDbLine
 10
832.8333992443274
 20
4799.815104403865
 30
0.0
 11
832.8333992443274
 21
3948.461463769785
 31
0.0
  0
LINE
  5
7C64
330
8100
100
AcDbEntity
  8
1
100
AcDbLine
 10
4542.831002171237
 20
1990.957379976157
 30
0.0
 11
4542.831002171237
 21
1890.957379976157
 31
0.0
  0
LINE
  5
7C65
330
8100
100
AcDbEntity
  8
1
100
AcDbLine
 10
3287.831002171236
 20
1990.957379976157
 30
0.0
 11
4542.831002171236
 21
1990.957379976158
 31
0.0
1001
ACAD
1000
ASC_BOUNDS
1002
{
1070
    19
1002
}
  0
LINE
  5
7C66
330
8100
100
AcDbEntity
  8
1
100
AcDbLine
 10
3287.831002171236
 20
1890.957379976157
 30
0.0
 11
4542.831002171237
 21
1890.957379976157
 31
0.0
  0
LINE
  5
7C67
330
8100
100
AcDbEntity
  8
1
100
AcDbLine
 10
3287.831002171236
 20
1990.957379976157
 30
0.0
 11
3287.831002171236
 21
1890.957379976157
 31
0.0
  0
DIMENSION
  5
7C68
330
8100
100
AcDbEntity
  8
3
100
AcDbDimension
  2
*D6
 10
4791.354413068213
 20
2165.957379976157
 30
0.0
 11
4741.354413068213
 21
2590.957379976158
 31
0.0
 12
-924.0765029414067
 22
1029.069764566677
 32
0.0
 71
     5
 42
-1.0
  3
Standard
100
AcDbAlignedDimension
 13
4492.131002171237
 23
3015.957379976157
 33
0.0
 14
4492.131002171237
 24
2165.957379976157
 34
0.0
 50
90.0
100
AcDbRotatedDimension
1001
ACAD
1000
DSTYLE
1002
{
1070
    40
1040
25.0
1070
     3
1000
\U+03C6<>
1002
}
  0
LINE
  5
7C69
330
8100
100
AcDbEntity
  8
1
100
AcDbLine
 10
3306.831002171237
 20
2620.957379976157
 30
0.0
 11
3489.831002171238
 21
2620.957379976157
 31
0.0
  0
LINE
  5
7C6A
330
8100
100
AcDbEntity
  8
1
100
AcDbLine
 10
3306.831002171237
 20
2560.957379976159
 30
0.0
 11
3353.68483742947
 21
2560.957379976157
 31
0.0
  0
ARC
  5
7C6C
330
8100
100
AcDbEntity
  8
1
100
AcDbCircle
 10
1832.833399244327
 20
2590.957379976158
 30
0.0
 40
220.0
100
AcDbArc
 50
283.4957332807956
 51
103.4957332807957
  0
ARC
  5
7C6D
330
8100
100
AcDbEntity
  8
1
100
AcDbCircle
 10
832.8333992443267
 20
2240.957379976157
 30
0.0
 40
220.0
100
AcDbArc
 50
103.4957332807958
 51
283.4957332807956
  0
LINE
  5
7C6E
330
8100
100
AcDbEntity
  8
1
100
AcDbLine
 10
1781.491349699756
 20
2804.882586411872
 30
0.0
 11
781.491349699756
 21
2454.882586411871
 31
0.0
  0
LINE
  5
7C6F
330
8100
100
AcDbEntity
  8
1
100
AcDbLine
 10
1801.157669526135
 20
2713.94375380196
 30
0.0
 11
805.3977278348693
 21
2347.4810108489
 31
0.0
  0
LINE
  5
7C70
330
8100
100
AcDbEntity
  8
1
100
AcDbLine
 10
1860.426299915621
 20
2466.991127179099
 30
0.0
 11
856.7327620304871
 21
2133.585035033824
 31
0.0
  0
LINE
  5
7C71
330
8100
100
AcDbEntity
  8
1
100
AcDbLine
 10
1884.175448788897
 20
2377.032173540444
 30
0.0
 11
884.1754487888982
 21
2027.032173540443
 31
0.0
  0
LINE
  5
7C72
330
8100
100
AcDbEntity
  8
1
100
AcDbLine
 10
582.8333992443272
 20
1890.957379976157
 30
0.0
 11
2332.833399244327
 21
1890.957379976157
 31
0.0
  0
LINE
  5
7C73
330
8100
100
AcDbEntity
  8
1
100
AcDbLine
 10
2332.833399244327
 20
1990.957379976157
 30
0.0
 11
582.8333992443272
 21
1990.957379976157
 31
0.0
1001
ACAD
1000
ASC_BOUNDS
1002
{
1070
    19
1005
0
1005
0
1002
}
  0
LINE
  5
7C74
330
8100
100
AcDbEntity
  8
1
100
AcDbLine
 10
582.8333992443272
 20
1990.957379976157
 30
0.0
 11
582.8333992443272
 21
1890.957379976157
 31
0.0
  0
LINE
  5
7C75
330
8100
100
AcDbEntity
  8
1
100
AcDbLine
 10
2332.833399244327
 20
1990.957379976157
 30
0.0
 11
2332.833399244327
 21
1890.957379976157
 31
0.0
  0
CIRCLE
  5
7C77
330
8100
100
AcDbEntity
  8
1
100
AcDbCircle
 10
1832.833399244327
 20
2590.957379976158
 30
0.0
 40
425.0
  0
CIRCLE
  5
7C78
330
8100
100
AcDbEntity
  8
1
100
AcDbCircle
 10
1832.833399244327
 20
2590.957379976158
 30
0.0
 40
465.0
  0
LINE
  5
7C7A
330
8100
100
AcDbEntity
  8
1
100
AcDbLine
 10
630.8333992443267
 20
2030.957379976157
 30
0.0
 11
1034.833399244326
 21
2030.957379976157
 31
0.0
  0
POINT
  5
7C7B
330
8100
100
AcDbEntity
  8
1
100
AcDbPoint
 10
2332.833399244327
 20
1863.957379976158
 30
0.0
  0
POINT
  5
7C7C
330
8100
100
AcDbEntity
  8
1
100
AcDbPoint
 10
2332.833399244327
 20
1890.957379976157
 30
0.0
  0
LINE
  5
7C7D
330
8100
100
AcDbEntity
  8
1
100
AcDbLine
 10
984.8333992443267
 20
5385.325114919925
 30
0.0
 11
2400.833399244326
 21
5385.325114919922
 31
0.0
  0
LINE
  5
7C7E
330
8100
100
AcDbEntity
  8
1
100
AcDbLine
 10
984.8333992443276
 20
4385.325114919921
 30
0.0
 11
2400.833399244327
 21
4385.325114919921
 31
0.0
  0
LINE
  5
7C7F
330
8100
100
AcDbEntity
  8
1
100
AcDbLine
 10
2332.833399244327
 20
4385.325114919921
 30
0.0
 11
2332.833399244327
 21
4183.325114919921
 31
0.0
  0
DIMENSION
  5
7C85
330
8100
100
AcDbEntity
  8
3
100
AcDbDimension
  2
*D7
 10
2332.833399244327
 20
5589.448398470874
 30
0.0
 11
1832.833399244327
 21
5639.448398470875
 31
0.0
 12
-396.0327685551274
 22
883.9445426794227
 32
0.0
 71
     5
 42
-1.0
  3
Standard
100
AcDbAlignedDimension
 13
1332.833399244326
 23
5438.325114919923
 33
0.0
 14
2332.833399244327
 24
5438.325114919923
 34
0.0
100
AcDbRotatedDimension
1001
ACAD
1000
DSTYLE
1002
{
1070
    40
1040
25.0
1002
}
  0
DIMENSION
  5
7C86
330
8100
100
AcDbEntity
  8
3
100
AcDbDimension
  2
*D8
 10
2550.770127394216
 20
4183.325114919921
 30
0.0
 11
2550.770127394216
 21
4810.825114919922
 31
0.0
 12
-396.0327685551274
 22
883.9445426794227
 32
0.0
 70
   128
 71
     5
 42
-1.0
  3
Standard
100
AcDbAlignedDimension
 13
2332.833399244327
 23
5438.325114919923
 33
0.0
 14
2332.833399244327
 24
4183.325114919921
 34
0.0
 50
90.0
100
AcDbRotatedDimension
1001
ACAD
1000
DSTYLE
1002
{
1070
    40
1040
25.0
1002
}
  0
DIMENSION
  5
7C87
330
8100
100
AcDbEntity
  8
3
100
AcDbDimension
  2
*D9
 10
430.6805701210142
 20
4183.325114919921
 30
0.0
 11
380.6805701210141
 21
4558.325114919922
 31
0.0
 12
-396.0327685551274
 22
883.9445426794227
 32
0.0
 71
     5
 42
-1.0
  3
Standard
100
AcDbAlignedDimension
 13
582.8333992443276
 23
4933.325114919922
 33
0.0
 14
582.8333992443276
 24
4183.325114919921
 34
0.0
 50
90.0
100
AcDbRotatedDimension
1001
ACAD
1000
DSTYLE
1002
{
1070
    40
1040
25.0
1002
}
  0
LINE
  5
7C88
330
8100
100
AcDbEntity
  8
1
100
AcDbLine
 10
722.8333992443277
 20
4117.325114919924
 30
0.0
 11
942.8333992443276
 21
4117.325114919923
 31
0.0
  0
LINE
  5
7C89
330
8100
100
AcDbEntity
  8
1
100
AcDbLine
 10
722.8333992443277
 20
4202.325114919924
 30
0.0
 11
942.8333992443267
 21
4202.325114919924
 31
0.0
  0
LINE
  5
7C8A
330
8100
100
AcDbEntity
  8
1
100
AcDbLine
 10
1959.833399244327
 20
4202.325114919921
 30
0.0
 11
1959.833399244327
 21
4117.325114919921
 31
0.0
  0
LINE
  5
7C8B
330
8100
100
AcDbEntity
  8
1
100
AcDbLine
 10
1705.833399244327
 20
4202.325114919924
 30
0.0
 11
1705.833399244327
 21
4117.325114919923
 31
0.0
  0
LINE
  5
7C8C
330
8100
100
AcDbEntity
  8
1
100
AcDbLine
 10
942.8333992443276
 20
4202.325114919924
 30
0.0
 11
942.8333992443276
 21
4117.325114919924
 31
0.0
  0
LINE
  5
7C8D
330
8100
100
AcDbEntity
  8
1
100
AcDbLine
 10
722.8333992443277
 20
4202.325114919925
 30
0.0
 11
722.8333992443277
 21
4117.325114919924
 31
0.0
  0
LINE
  5
7C8E
330
8100
100
AcDbEntity
  8
1
100
AcDbLine
 10
1705.833399244327
 20
4117.325114919921
 30
0.0
 11
1959.833399244327
 21
4117.325114919921
 31
0.0
  0
LINE
  5
7C8F
330
8100
100
AcDbEntity
  8
1
100
AcDbLine
 10
1705.833399244327
 20
4202.325114919923
 30
0.0
 11
1959.833399244327
 21
4202.325114919921
 31
0.0
  0
LINE
  5
7C90
330
8100
100
AcDbEntity
  8
1
100
AcDbLine
 10
612.8333992443276
 20
3985.325114919924
 30
0.0
 11
2052.833399244327
 21
3985.325114919922
 31
0.0
  0
LINE
  5
7C91
330
8100
100
AcDbEntity
  8
1
100
AcDbLine
 10
2052.833399244327
 20
4232.325114919921
 30
0.0
 11
2052.833399244327
 21
3985.325114919922
 31
0.0
  0
LINE
  5
7C92
330
8100
100
AcDbEntity
  8
1
100
AcDbLine
 10
612.8333992443276
 20
4232.325114919924
 30
0.0
 11
612.8333992443276
 21
3985.325114919924
 31
0.0
  0
LINE
  5
7C93
330
8100
100
AcDbEntity
  8
1
100
AcDbLine
 10
612.8333992443276
 20
4232.325114919924
 30
0.0
 11
2052.833399244328
 21
4232.325114919921
 31
0.0
  0
POINT
  5
7C95
330
8100
100
AcDbEntity
  8
1
100
AcDbPoint
 10
4599.831002171237
 20
2551.457379976157
 30
0.0
  0
DIMENSION
  5
7C96
330
8100
100
AcDbEntity
  8
3
100
AcDbDimension
  2
*D11
 10
4489.831002171237
 20
3250.072520919997
 30
0.0
 11
3989.831002171238
 21
3300.072520919997
 31
0.0
 71
     5
 42
-1.0
  3
Standard
100
AcDbAlignedDimension
 13
3489.831002171238
 23
3135.957379976157
 33
0.0
 14
4489.831002171237
 24
3135.957379976157
 34
0.0
100
AcDbRotatedDimension
1001
ACAD
1000
DSTYLE
1002
{
1070
    40
1040
25.0
1002
}
  0
POINT
  5
7C97
330
8100
100
AcDbEntity
  8
1
100
AcDbPoint
 10
4599.831002171237
 20
2551.457379976157
 30
0.0
  0
POINT
  5
7C98
330
8100
100
AcDbEntity
  8
1
100
AcDbPoint
 10
3089.831002171238
 20
2810.957379976157
 30
0.0
  0
LINE
  5
7C99
330
8100
100
AcDbEntity
  8
1
100
AcDbLine
 10
670.8333992443276
 20
4771.825114919925
 30
0.0
 11
984.8333992443267
 21
4771.825114919923
 31
0.0
  0
LINE
  5
7C9A
330
8100
100
AcDbEntity
  8
1
100
AcDbLine
 10
670.8333992443276
 20
4242.825114919924
 30
0.0
 11
994.8333992443277
 21
4242.825114919923
 31
0.0
  0
LINE
  5
7C9B
330
8100
100
AcDbEntity
  8
1
100
AcDbLine
 10
853.8333992443277
 20
4242.825114919924
 30
0.0
 11
853.8333992443277
 21
4202.325114919924
 31
0.0
  0
LINE
  5
7C9C
330
8100
100
AcDbEntity
  8
1
100
AcDbLine
 10
811.8333992443277
 20
4242.825114919924
 30
0.0
 11
811.8333992443277
 21
4202.325114919924
 31
0.0
  0
LINE
  5
7C9D
330
8100
100
AcDbEntity
  8
1
100
AcDbLine
 10
670.8333992443276
 20
4771.825114919926
 30
0.0
 11
670.8333992443276
 21
4242.825114919924
 31
0.0
  0
LINE
  5
7C9E
330
8100
100
AcDbEntity
  8
1
100
AcDbLine
 10
994.8333992443277
 20
4385.325114919921
 30
0.0
 11
994.8333992443277
 21
4242.825114919923
 31
0.0
  0
LINE
  5
7C9F
330
8100
100
AcDbEntity
  8
1
100
AcDbLine
 10
3489.831002171238
 20
2078.957379976158
 30
0.0
 11
3347.331002171236
 21
2078.957379976158
 31
0.0
  0
LINE
  5
7CA0
330
8100
100
AcDbEntity
  8
1
100
AcDbLine
 10
3489.831002171238
 20
2402.957379976157
 30
0.0
 11
3347.331002171238
 21
2402.957379976157
 31
0.0
  0
LINE
  5
7CA1
330
8100
100
AcDbEntity
  8
1
100
AcDbLine
 10
3347.331002171237
 20
2402.957379976157
 30
0.0
 11
3347.331002171234
 21
2078.957379976158
 31
0.0
  0
LINE
  5
7CA2
330
8100
100
AcDbEntity
  8
1
100
AcDbLine
 10
3347.331002171237
 20
2261.957379976157
 30
0.0
 11
3306.831002171239
 21
2261.957379976157
 31
0.0
  0
LINE
  5
7CA3
330
8100
100
AcDbEntity
  8
1
100
AcDbLine
 10
3347.331002171237
 20
2219.957379976158
 30
0.0
 11
3306.831002171239
 21
2219.957379976158
 31
0.0
  0
LINE
  5
7CA4
330
8100
100
AcDbEntity
  8
1
100
AcDbLine
 10
3306.831002171237
 20
2350.957379976157
 30
0.0
 11
3306.831002171237
 21
2130.957379976157
 31
0.0
  0
LINE
  5
7CA5
330
8100
100
AcDbEntity
  8
1
100
AcDbLine
 10
3221.831002171238
 20
2350.957379976157
 30
0.0
 11
3221.831002171238
 21
2130.957379976157
 31
0.0
  0
DIMENSION
  5
7CAD
330
8100
100
AcDbEntity
  8
3
100
AcDbDimension
  2
*D16
 10
2634.30654114575
 20
2590.957379976158
 30
0.0
 11
2584.30654114575
 21
2863.457379976157
 31
0.0
 12
-396.0327685551274
 22
1029.069764566677
 32
0.0
 71
     5
 42
-1.0
  3
Standard
100
AcDbAlignedDimension
 13
1852.333399244326
 23
3135.957379976157
 33
0.0
 14
2499.305191094717
 24
2590.957379976158
 34
0.0
 50
90.0
100
AcDbRotatedDimension
1001
ACAD
1000
DSTYLE
1002
{
1070
    40
1040
25.0
1002
}
  0
DIMENSION
  5
7CB0
330
8100
100
AcDbEntity
  8
3
100
AcDbDimension
  2
*D18
 10
2634.30654114575
 20
1763.957379976158
 30
0.0
 11
2571.80654114575
 21
1549.671665690444
 31
0.0
 71
     5
 42
-1.0
  3
Standard
100
AcDbAlignedDimension
 13
2332.833399244327
 23
1863.957379976158
 33
0.0
 14
2332.833399244327
 24
1763.957379976158
 34
0.0
 50
90.0
100
AcDbRotatedDimension
1001
ACAD
1000
DSTYLE
1002
{
1070
   287
1070
     3
1070
   287
1070
     3
1070
    40
1040
25.0
1070
   143
1040
0.039
1070
   172
1070
     1
1070
   271
1070
     0
1070
   279
1070
     0
1070
   288
1070
     1
1070
     6
1000
DOT
1002
}
  0
LINE
  5
7CB3
330
8100
100
AcDbEntity
  8
1
100
AcDbLine
 10
3989.831002171238
 20
3132.957379976158
 30
0.0
 11
3449.831002171237
 21
3132.957379976158
 31
0.0
  0
LINE
  5
7CB4
330
8100
100
AcDbEntity
  8
1
100
AcDbLine
 10
3989.831002171238
 20
3132.957379976158
 30
0.0
 11
4529.831002171238
 21
3132.957379976158
 31
0.0
  0
LINE
  5
7CB5
330
8100
100
AcDbEntity
  8
1
100
AcDbLine
 10
3449.831002171237
 20
3135.957379976157
 30
0.0
 11
3449.831002171237
 21
3132.957379976158
 31
0.0
  0
LINE
  5
7CB6
330
8100
100
AcDbEntity
  8
1
100
AcDbLine
 10
4529.831002171238
 20
3135.957379976157
 30
0.0
 11
4529.831002171238
 21
3132.957379976158
 31
0.0
  0
LINE
  5
7CB7
330
8100
100
AcDbEntity
  8
1
100
AcDbLine
 10
984.8333992443256
 20
5385.325114919925
 30
0.0
 11
984.8333992443276
 21
4385.325114919921
 31
0.0
  0
LINE
  5
7CB8
330
8100
100
AcDbEntity
  8
1
100
AcDbLine
 10
2400.833399244326
 20
5385.325114919922
 30
0.0
 11
2400.833399244327
 21
4385.325114919921
 31
0.0
  0
LINE
  5
7CB9
330
8100
100
AcDbEntity
  8
1
100
AcDbLine
 10
1809.833399244325
 20
5385.325114919925
 30
0.0
 11
1809.833399244327
 21
4385.325114919925
 31
0.0
  0
LINE
  5
7CBA
330
8100
100
AcDbEntity
  8
1
100
AcDbLine
 10
1809.833399244325
 20
5385.325114919922
 30
0.0
 11
984.8333992443276
 21
4385.325114919921
 31
0.0
  0
LINE
  5
7CBB
330
8100
100
AcDbEntity
  8
1
100
AcDbLine
 10
984.8333992443256
 20
5385.325114919925
 30
0.0
 11
1809.833399244327
 21
4385.325114919921
 31
0.0
  0
LINE
  5
7EE2
330
8100
100
AcDbEntity
  8
4
100
AcDbLine
 10
4625.0
 20
1250.0
 30
0.0
 11
4625.0
 21
750.0
 31
0.0
  0
LINE
  5
7EE3
330
8100
100
AcDbEntity
  8
4
100
AcDbLine
 10
2875.0
 20
1250.0
 30
0.0
 11
2875.0
 21
750.0
 31
0.0
  0
LINE
  5
7EE4
330
8100
100
AcDbEntity
  8
4
100
AcDbLine
 10
1625.0
 20
1250.0
 30
0.0
 11
1625.0
 21
750.0
 31
0.0
  0
LINE
  5
7EE7
330
8100
100
AcDbEntity
  8
4
100
AcDbLine
 10
1625.0
 20
750.0
 30
0.0
 11
4625.0
 21
750.0
 31
0.0
  0
LINE
  5
7EE8
330
8100
100
AcDbEntity
  8
4
100
AcDbLine
 10
1625.0
 20
1000.0
 30
0.0
 11
4625.0
 21
1000.0
 31
0.0
  0
TEXT
  5
7EE9
330
8100
100
AcDbEntity
  8
4
100
AcDbText
 10
1721.255202117253
 20
1078.857564666532
 30
0.0
 40
125.0
  1
機器名称
100
AcDbText
  0
TEXT
  5
7EEA
330
8100
100
AcDbEntity
  8
4
100
AcDbText
 10
1715.645265061993
 20
804.1128918300273
 30
0.0
 40
125.0
  1
機器型番
100
AcDbText
  0
TEXT
  5
7EEB
330
8100
100
AcDbEntity
  8
4
100
AcDbText
 10
2944.196863719162
 20
1056.429422393921
 30
0.0
 40
125.0
  1
ミツヤ多翼送風機
100
AcDbText
  0
TEXT
  5
7EEC
330
8100
100
AcDbEntity
  8
4
100
AcDbText
 10
2966.636238963701
 20
792.8989606998584
 30
0.0
 40
125.0
  1
MF#5-5
100
AcDbText
  0
TEXT
  5
7EEE
330
8100
100
AcDbEntity
  8
4
100
AcDbText
 10
1958.339285088954
 20
5958.572103331289
 30
0.0
 40
135.0
  1
床置防振ベット
100
AcDbText
  0
TEXT
  5
7EEF
330
8100
100
AcDbEntity
  8
4
100
AcDbText
 10
790.4189833236158
 20
6334.702440498245
 30
0.0
 40
180.0
  1
遠心式両吸込両持多翼ファン
100
AcDbText
  0
LINE
  5
7EF0
330
8100
100
AcDbEntity
  8
4
100
AcDbLine
 10
625.0
 20
6173.521885662012
 30
0.0
 11
4625.0
 21
6173.521885662012
 31
0.0
  0
LINE
  5
7EF1
330
8100
100
AcDbEntity
  8
4
100
AcDbLine
 10
625.0
 20
6673.521885662011
 30
0.0
 11
4625.0
 21
6673.521885662011
 31
0.0
  0
LINE
  5
7EF2
330
8100
100
AcDbEntity
  8
4
100
AcDbLine
 10
1625.0
 20
1250.0
 30
0.0
 11
4625.0
 21
1250.0
 31
0.0
  0
LINE
  5
7EF3
330
8100
100
AcDbEntity
  8
4
100
AcDbLine
 10
625.0
 20
6673.521885662011
 30
0.0
 11
625.0
 21
6173.521885662012
 31
0.0
  0
TEXT
  5
7EF4
330
8100
100
AcDbEntity
  8
4
100
AcDbText
 10
868.6922044821983
 20
5955.798693865858
 30
0.0
 40
135.0
  1
右回転上向
100
AcDbText
  0
TEXT
  5
7EF5
330
8100
100
AcDbEntity
  8
4
100
AcDbText
 10
3672.423898123224
 20
6765.15270373827
 30
0.0
 40
140.0
  1
No.
100
AcDbText
  0
TEXT
  5
7EF6
330
8100
100
AcDbEntity
  8
4
100
AcDbText
 10
3278.240156500032
 20
5958.572103331289
 30
0.0
 40
135.0
  1
縮尺：1/25
100
AcDbText
  0
LINE
  5
7EF7
330
8100
100
AcDbEntity
  8
4
100
AcDbLine
 10
4625.0
 20
6673.521885662011
 30
0.0
 11
4625.0
 21
6173.521885662012
 31
0.0
  0
LINE
  5
7EF8
330
8100
100
AcDbEntity
  8
4
100
AcDbLine
 10
5250.0
 20
7375.0
 30
0.0
 11
5250.0
 21
7375.0
 31
0.0
  0
LINE
  5
7EF9
330
8100
100
AcDbEntity
  8
4
100
AcDbLine
 10
3601.543555899662
 20
6703.158957813504
 30
0.0
 11
3601.543555899662
 21
6966.630653874381
 31
0.0
  0
LINE
  5
7EFA
330
8100
100
AcDbEntity
  8
4
100
AcDbLine
 10
3601.543555899662
 20
6966.630653874381
 30
0.0
 11
4625.0
 21
6966.630653874381
 31
0.0
  0
LINE
  5
7EFB
330
8100
100
AcDbEntity
  8
4
100
AcDbLine
 10
4625.0
 20
6966.630653874381
 30
0.0
 11
4625.0
 21
6703.158957813504
 31
0.0
  0
LINE
  5
7EFC
330
8100
100
AcDbEntity
  8
4
100
AcDbLine
 10
4625.0
 20
6703.158957813504
 30
0.0
 11
3601.543555899662
 21
6703.158957813504
 31
0.0
  0
LINE
  5
7EFD
330
8100
100
AcDbEntity
  8
4
100
AcDbLine
 10
0.0
 20
0.0
 30
0.0
 11
0.0
 21
7375.0
 31
0.0
  0
LINE
  5
7EFE
330
8100
100
AcDbEntity
  8
4
100
AcDbLine
 10
0.0
 20
7375.0
 30
0.0
 11
5250.0
 21
7375.0
 31
0.0
  0
LINE
  5
7EFF
330
8100
100
AcDbEntity
  8
4
100
AcDbLine
 10
5250.0
 20
7375.0
 30
0.0
 11
5250.0
 21
0.0
 31
0.0
  0
LINE
  5
7F00
330
8100
100
AcDbEntity
  8
4
100
AcDbLine
 10
5250.0
 20
0.0
 30
0.0
 11
0.0
 21
0.0
 31
0.0
  0
DIMENSION
  5
7FA2
330
8100
100
AcDbEntity
  8
3
100
AcDbDimension
  2
*D21
 10
1832.833399244327
 20
1593.069038644256
 30
0.0
 11
1207.833399244327
 21
1655.569038644256
 31
0.0
 71
     5
 42
-1.0
  3
Standard
100
AcDbAlignedDimension
 13
582.8333992443272
 23
1763.957379976158
 33
0.0
 14
1832.833399244327
 24
1763.957379976158
 34
0.0
100
AcDbRotatedDimension
1001
ACAD
1000
DSTYLE
1002
{
1070
   172
1070
     1
1070
    40
1040
25.0
1070
    42
1040
1.0
1070
   271
1070
     0
1070
   143
1040
0.039
1002
}
  0
DIMENSION
  5
7FAF
330
8100
100
AcDbEntity
  8
3
100
AcDbDimension
  2
*D22
 10
2332.833399244327
 20
1593.069038644256
 30
0.0
 11
2082.833399244327
 21
1655.569038644256
 31
0.0
 71
     5
 42
-1.0
  3
Standard
100
AcDbAlignedDimension
 13
1832.833399244327
 23
1763.957379976158
 33
0.0
 14
2332.833399244327
 24
1763.957379976158
 34
0.0
100
AcDbRotatedDimension
1001
ACAD
1000
DSTYLE
1002
{
1070
   172
1070
     1
1070
    40
1040
25.0
1070
    42
1040
1.0
1070
   271
1070
     0
1070
   143
1040
0.039
1002
}
  0
DIMENSION
  5
7FBC
330
8100
100
AcDbEntity
  8
3
100
AcDbDimension
  2
*D23
 10
3989.831002171238
 20
1593.069038644256
 30
0.0
 11
3638.831002171239
 21
1655.569038644256
 31
0.0
 71
     5
 42
-1.0
  3
Standard
100
AcDbAlignedDimension
 13
3287.831002171236
 23
1763.957379976158
 33
0.0
 14
3989.831002171238
 24
1763.957379976158
 34
0.0
100
AcDbRotatedDimension
1001
ACAD
1000
DSTYLE
1002
{
1070
   172
1070
     1
1070
    40
1040
25.0
1070
    42
1040
1.0
1070
   271
1070
     0
1070
   143
1040
0.039
1002
}
  0
DIMENSION
  5
7FC9
330
8100
100
AcDbEntity
  8
3
100
AcDbDimension
  2
*D24
 10
4542.831002171237
 20
1593.069038644256
 30
0.0
 11
4266.331002171237
 21
1655.569038644256
 31
0.0
 71
     5
 42
-1.0
  3
Standard
100
AcDbAlignedDimension
 13
3989.831002171238
 23
1763.957379976158
 33
0.0
 14
4542.831002171237
 24
1763.957379976158
 34
0.0
100
AcDbRotatedDimension
1001
ACAD
1000
DSTYLE
1002
{
1070
   172
1070
     1
1070
    40
1040
25.0
1070
    42
1040
1.0
1070
   271
1070
     0
1070
   143
1040
0.039
1002
}
  0
DIMENSION
  5
7FD8
330
8100
100
AcDbEntity
  8
3
100
AcDbDimension
  2
*D26
 10
2631.95272848233
 20
1890.957379976157
 30
0.0
 11
2751.595585625188
 21
1877.457379976157
 31
0.0
 71
     5
 42
-1.0
  3
Standard
100
AcDbAlignedDimension
 13
2332.833399244327
 23
1863.957379976158
 33
0.0
 14
2332.833399244327
 24
1890.957379976157
 34
0.0
 50
90.0
100
AcDbRotatedDimension
1001
ACAD
1000
DSTYLE
1002
{
1070
   172
1070
     1
1070
    76
1070
     1
1070
    75
1070
     1
1070
    40
1040
25.0
1070
     3
1000
(<>)
1070
    42
1040
1.0
1070
   271
1070
     0
1070
     7
1000
_NONE
1070
     6
1000
_NONE
1070
   143
1040
0.039
1002
}
  0
DIMENSION
  5
7FE5
330
8100
100
AcDbEntity
  8
3
100
AcDbDimension
  2
*D27
 10
2833.170711795414
 20
3135.957379976157
 30
0.0
 11
2751.027854652556
 21
2449.957379976158
 31
0.0
 71
     5
 42
-1.0
  3
Standard
100
AcDbAlignedDimension
 13
2332.833399244327
 23
1763.957379976158
 33
0.0
 14
1852.333399244326
 24
3135.957379976157
 34
0.0
 50
90.0
100
AcDbRotatedDimension
1001
ACAD
1000
DSTYLE
1002
{
1070
   172
1070
     1
1070
    40
1040
25.0
1070
     3
1000
(<>)
1070
    42
1040
1.0
1070
   271
1070
     0
1070
   143
1040
0.039
1002
}
  0
ARC
  5
81CA
330
8100
100
AcDbEntity
  8
FUTO
100
AcDbCircle
 10
1880.333399244326
 20
2543.457379976158
 30
0.0
 40
510.5
100
AcDbArc
 50
5.338867588140104
 51
90.0
  0
LINE
  5
81CB
330
8100
100
AcDbEntity
  8
FUTO
100
AcDbLine
 10
984.8333992443267
 20
3135.957379976157
 30
0.0
 11
1041.205253456847
 21
2590.957379976158
 31
0.0
  0
ARC
  5
81CC
330
8100
100
AcDbEntity
  8
FUTO
100
AcDbCircle
 10
1773.833399244327
 20
2531.957379976157
 30
0.0
 40
617.0
100
AcDbArc
 50
298.7384928435364
 51
5.487235142901093
  0
ARC
  5
81CD
330
8100
100
AcDbEntity
  8
FUTO
100
AcDbCircle
 10
1773.833399244327
 20
2649.957379976158
 30
0.0
 40
735.0
100
AcDbArc
 50
184.6042067265012
 51
243.7145140431399
  0
ARC
  5
81CE
330
8100
100
AcDbEntity
  8
FUTO
100
AcDbCircle
 10
1863.333399244327
 20
2621.457379976158
 30
0.0
 40
432.5
100
AcDbArc
 50
90.0
 51
97.10565524729716
  0
LINE
  5
81CF
330
8100
100
AcDbEntity
  8
FUTO
100
AcDbLine
 10
1809.833399244327
 20
3050.635664608547
 30
0.0
 11
1809.833399244327
 21
3135.957379976157
 31
0.0
  0
LINE
  5
81D0
330
8100
100
AcDbEntity
  8
FUTO
100
AcDbLine
 10
1880.333399244326
 20
3053.957379976158
 30
0.0
 11
1863.333399244327
 21
3053.957379976158
 31
0.0
  0
LINE
  5
81D1
330
8100
100
AcDbEntity
  8
1
100
AcDbLine
 10
942.3333992443268
 20
3135.957379976157
 30
0.0
 11
1852.333399244326
 21
3135.957379976156
 31
0.0
  0
LINE
  5
81D2
330
8100
100
AcDbEntity
  8
1
100
AcDbLine
 10
942.3333992443268
 20
3135.957379976157
 30
0.0
 11
942.3333992443268
 21
3132.957379976158
 31
0.0
  0
LINE
  5
81D3
330
8100
100
AcDbEntity
  8
1
100
AcDbLine
 10
1852.333399244326
 20
3135.957379976156
 30
0.0
 11
1852.333399244326
 21
3132.957379976156
 31
0.0
  0
LINE
  5
81D4
330
8100
100
AcDbEntity
  8
1
100
AcDbLine
 10
988.2344940147495
 20
3095.957379976157
 30
0.0
 11
1809.833399244327
 21
3095.957379976156
 31
0.0
  0
LINE
  5
81D5
330
8100
100
AcDbEntity
  8
1
100
AcDbLine
 10
942.3333992443268
 20
3132.957379976158
 30
0.0
 11
1852.333399244326
 21
3132.957379976156
 31
0.0
  0
POINT
  5
81D6
330
8100
100
AcDbEntity
  8
1
100
AcDbPoint
 10
1832.833399244327
 20
3156.17529064518
 30
0.0
 50
270.0
  0
POINT
  5
81D7
330
8100
100
AcDbEntity
  8
1
100
AcDbPoint
 10
1832.833399244327
 20
3156.17529064518
 30
0.0
 50
270.0
  0
DIMENSION
  5
81D8
330
8100
100
AcDbEntity
  8
3
100
AcDbDimension
  2
*D29
 10
3989.831002171238
 20
3530.473025875345
 30
0.0
 11
3539.831002171238
 21
3612.615883018202
 31
0.0
 70
    32
 71
     5
 42
900.0
  3
IGA
100
AcDbAlignedDimension
 13
3089.831002171238
 23
2810.957379976157
 33
0.0
 14
3989.831002171238
 24
3337.572520919997
 34
0.0
100
AcDbRotatedDimension
1001
ACAD
1000
DSTYLE
1002
{
1070
     3
1000
(<>)
1070
    40
1040
25.0
1070
    42
1040
1.0
1070
   143
1040
0.039
1070
   172
1070
     1
1070
   271
1070
     4
1070
   272
1070
     4
1070
   279
1070
     0
1070
   284
1070
     0
1070
   285
1070
     0
1070
   286
1070
     0
1070
   341
1005
8114
1070
   343
1005
8114
1070
   344
1005
8114
1002
}
  0
DIMENSION
  5
81E5
330
8100
100
AcDbEntity
  8
3
100
AcDbDimension
  2
*D30
 10
4599.831002171237
 20
3530.473025875345
 30
0.0
 11
4294.831002171236
 21
3612.615883018202
 31
0.0
 70
    32
 71
     5
 42
609.9999999999995
  3
IGA
100
AcDbAlignedDimension
 13
3989.831002171238
 23
3337.572520919997
 33
0.0
 14
4599.831002171237
 24
2551.457379976157
 34
0.0
100
AcDbRotatedDimension
1001
ACAD
1000
DSTYLE
1002
{
1070
     3
1000
(<>)
1070
    40
1040
25.0
1070
    42
1040
1.0
1070
   143
1040
0.039
1070
   172
1070
     1
1070
   271
1070
     4
1070
   272
1070
     4
1070
   279
1070
     1
1070
   284
1070
     0
1070
   285
1070
     0
1070
   286
1070
     0
1070
   341
1005
8114
1070
   343
1005
8114
1070
   344
1005
8114
1002
}
  0
DIMENSION
  5
8219
330
8100
100
AcDbEntity
  8
3
100
AcDbDimension
  2
*D31
 10
1332.833399244326
 20
5589.448398470874
 30
0.0
 11
957.8333992443269
 21
5651.948398470874
 31
0.0
 70
    32
 71
     5
 42
749.9999999999984
  3
IGA
100
AcDbAlignedDimension
 13
582.8333992443276
 23
4933.325114919922
 33
0.0
 14
1332.833399244326
 24
5438.325114919923
 34
0.0
100
AcDbRotatedDimension
1001
ACAD
1000
DSTYLE
1002
{
1070
    40
1040
25.0
1070
    42
1040
1.0
1070
   143
1040
0.039
1070
   172
1070
     1
1070
   271
1070
     4
1070
   272
1070
     4
1070
   279
1070
     0
1070
   284
1070
     0
1070
   285
1070
     0
1070
   286
1070
     0
1070
   341
1005
8114
1070
   343
1005
8114
1070
   344
1005
8114
1002
}
  0
DIMENSION
  5
822F
330
8100
100
AcDbEntity
  8
3
100
AcDbDimension
  2
*D32
 10
2332.833399244327
 20
3832.283694111775
 30
0.0
 11
1457.833399244327
 21
3894.783694111775
 31
0.0
 70
    32
 71
     5
 42
1750.0
  3
IGA
100
AcDbAlignedDimension
 13
582.8333992443276
 23
4183.325114919921
 33
0.0
 14
2332.833399244327
 24
4183.325114919921
 34
0.0
100
AcDbRotatedDimension
1001
ACAD
1000
DSTYLE
1002
{
1070
    40
1040
25.0
1070
    42
1040
1.0
1070
   143
1040
0.039
1070
   172
1070
     1
1070
   271
1070
     4
1070
   272
1070
     4
1070
   279
1070
     0
1070
   284
1070
     0
1070
   285
1070
     0
1070
   286
1070
     0
1070
   341
1005
8114
1070
   343
1005
8114
1070
   344
1005
8114
1002
}
  0
DIMENSION
  5
8243
330
8100
100
AcDbEntity
  8
3
100
AcDbDimension
  2
*D34
 10
2390.833399244327
 20
3436.586126092024
 30
0.0
 11
2111.833399244327
 21
3499.086126092024
 31
0.0
 70
    32
 71
     5
 42
557.9999999999997
  3
IGA
100
AcDbAlignedDimension
 13
1832.833399244327
 23
3267.177184564924
 33
0.0
 14
2390.833399244327
 24
2531.957379976157
 34
0.0
100
AcDbRotatedDimension
1001
ACAD
1000
DSTYLE
1002
{
1070
    40
1040
25.0
1070
    42
1040
1.0
1070
   143
1040
0.039
1070
   172
1070
     1
1070
   271
1070
     4
1070
   272
1070
     4
1070
   279
1070
     0
1070
   284
1070
     0
1070
   285
1070
     0
1070
   286
1070
     0
1070
   341
1005
8114
1070
   343
1005
8114
1070
   344
1005
8114
1002
}
  0
DIMENSION
  5
8259
330
8100
100
AcDbEntity
  8
3
100
AcDbDimension
  2
*D35
 10
2390.833399244327
 20
3584.266565265615
 30
0.0
 11
1486.833399244327
 21
3646.766565265615
 31
0.0
 70
    32
 71
     5
 42
1807.999999999999
  3
IGA
100
AcDbAlignedDimension
 13
582.8333992443272
 23
1990.957379976157
 33
0.0
 14
2390.833399244327
 24
2531.957379976157
 34
0.0
100
AcDbRotatedDimension
1001
ACAD
1000
DSTYLE
1002
{
1070
    40
1040
25.0
1070
    42
1040
1.0
1070
   143
1040
0.039
1070
   172
1070
     1
1070
   271
1070
     4
1070
   272
1070
     4
1070
   279
1070
     0
1070
   284
1070
     0
1070
   285
1070
     0
1070
   286
1070
     0
1070
   341
1005
8114
1070
   343
1005
8114
1070
   344
1005
8114
1002
}
  0
DIMENSION
  5
82A7
330
8100
100
AcDbEntity
  8
3
100
AcDbDimension
  2
*D36
 10
2631.95272848233
 20
1890.957379976157
 30
0.0
 11
2569.452728482329
 21
2240.957379976157
 31
0.0
 70
    32
 71
     5
 42
700.0000000000004
  3
IGA
100
AcDbAlignedDimension
 13
2499.305191094717
 23
2590.957379976158
 33
0.0
 14
2332.833399244327
 24
1890.957379976157
 34
0.0
 50
90.0
100
AcDbRotatedDimension
1001
ACAD
1000
DSTYLE
1002
{
1070
    40
1040
25.0
1070
    42
1040
1.0
1070
   143
1040
0.039
1070
   172
1070
     1
1070
   271
1070
     4
1070
   272
1070
     4
1070
   279
1070
     0
1070
   284
1070
     0
1070
   285
1070
     0
1070
   286
1070
     0
1070
   341
1005
8114
1070
   343
1005
8114
1070
   344
1005
8114
1002
}
  0
ENDSEC
  0
SECTION
  2
OBJECTS
  0
DICTIONARY
  5
809D
330
0
100
AcDbDictionary
281
     1
  3
ACAD_CIP_PREVIOUS_PRODUCT_INFO
350
8148
  3
ACAD_COLOR
350
80F3
  3
ACAD_DETAILVIEWSTYLE
350
80FA
  3
ACAD_GROUP
350
809E
  3
ACAD_LAYOUT
350
80F2
  3
ACAD_MATERIAL
350
80A1
  3
ACAD_MLEADERSTYLE
350
80F6
  3
ACAD_MLINESTYLE
350
80EF
  3
ACAD_PLOTSETTINGS
350
80F1
  3
ACAD_PLOTSTYLENAME
350
809F
  3
ACAD_SCALELIST
350
80D3
  3
ACAD_SECTIONVIEWSTYLE
350
80F8
  3
ACAD_TABLESTYLE
350
80F4
  3
ACAD_VISUALSTYLE
350
80BA
  3
ACDB_RECOMPOSE_DATA
350
82BF
  3
AcDbVariableDictionary
350
817D
  3
DWGPROPS
350
82C0
  0
DICTIONARY
  5
814C
330
8093
100
AcDbDictionary
280
     1
281
     1
  3
ACAD_LAYERSTATES
360
814D
  0
DICTIONARY
  5
8172
330
80E5
100
AcDbDictionary
280
     1
281
     1
  3
ADSK_XREC_LAYER_RECONCILED
360
8173
  0
DICTIONARY
  5
8174
330
8104
100
AcDbDictionary
280
     1
281
     1
  3
ADSK_XREC_LAYER_RECONCILED
360
8175
  0
DICTIONARY
  5
8176
330
8107
100
AcDbDictionary
280
     1
281
     1
  3
ADSK_XREC_LAYER_RECONCILED
360
8177
  0
DICTIONARY
  5
8178
330
8108
100
AcDbDictionary
280
     1
281
     1
  3
ADSK_XREC_LAYER_RECONCILED
360
8179
  0
DICTIONARY
  5
817A
330
8109
100
AcDbDictionary
280
     1
281
     1
  3
ADSK_XREC_LAYER_RECONCILED
360
817B
  0
DICTIONARY
  5
814A
330
8149
100
AcDbDictionary
280
     1
281
     1
  3
ADSK_XREC_LAYER_RECONCILED
360
817C
  0
XRECORD
  5
8148
102
{ACAD_REACTORS
330
809D
102
}
330
809D
100
AcDbXrecord
280
     1
300
ACDLT
300
2015
300
INVLTS_F_S
  0
DICTIONARY
  5
80F3
102
{ACAD_REACTORS
330
809D
102
}
330
809D
100
AcDbDictionary
281
     1
  0
DICTIONARY
  5
80FA
102
{ACAD_REACTORS
330
809D
102
}
330
809D
100
AcDbDictionary
281
     1
  3
Imperial24
350
80FB
  0
DICTIONARY
  5
809E
102
{ACAD_REACTORS
330
809D
102
}
330
809D
100
AcDbDictionary
281
     1
  0
DICTIONARY
  5
80F2
102
{ACAD_REACTORS
330
809D
102
}
330
809D
100
AcDbDictionary
281
     1
  3
Model
350
8103
  3
レイアウト1
350
80FF
  0
DICTIONARY
  5
80A1
102
{ACAD_REACTORS
330
809D
102
}
330
809D
100
AcDbDictionary
281
     1
  3
ByBlock
350
80AA
  3
ByLayer
350
80A2
  3
Global
350
80B2
  0
DICTIONARY
  5
80F6
102
{ACAD_REACTORS
330
809D
102
}
330
809D
100
AcDbDictionary
281
     1
  3
Standard
350
80F7
  0
DICTIONARY
  5
80EF
102
{ACAD_REACTORS
330
809D
102
}
330
809D
100
AcDbDictionary
281
     1
  3
Standard
350
80F0
  0
DICTIONARY
  5
80F1
102
{ACAD_REACTORS
330
809D
102
}
330
809D
100
AcDbDictionary
281
     1
  0
ACDBDICTIONARYWDFLT
  5
809F
102
{ACAD_REACTORS
330
809D
102
}
330
809D
100
AcDbDictionary
281
     1
  3
Normal
350
80A0
100
AcDbDictionaryWithDefault
340
80A0
  0
DICTIONARY
  5
80D3
102
{ACAD_REACTORS
330
809D
102
}
330
809D
100
AcDbDictionary
281
     1
  3
A0
350
80D4
  3
A1
350
80D5
  3
A2
350
80D6
  3
A3
350
80D7
  3
A4
350
80D8
  3
A5
350
80D9
  3
A6
350
80DA
  3
A7
350
80DB
  3
A8
350
80DC
  3
A9
350
80DD
  3
B0
350
80DE
  3
B1
350
80DF
  3
B2
350
80E0
  3
B3
350
80E1
  3
B4
350
80E2
  3
B5
350
80E3
  3
B6
350
80E4
  0
DICTIONARY
  5
80F8
102
{ACAD_REACTORS
330
809D
102
}
330
809D
100
AcDbDictionary
281
     1
  3
Imperial24
350
80F9
  0
DICTIONARY
  5
80F4
102
{ACAD_REACTORS
330
809D
102
}
330
809D
100
AcDbDictionary
281
     1
  3
Standard
350
80F5
  0
DICTIONARY
  5
80BA
102
{ACAD_REACTORS
330
809D
102
}
330
809D
100
AcDbDictionary
281
     1
  3
2dWireframe
350
80C0
  3
Basic
350
80BF
  3
Brighten
350
80C6
  3
ColorChange
350
80CA
  3
Conceptual
350
80C3
  3
Dim
350
80C5
  3
EdgeColorOff
350
80D2
  3
Facepattern
350
80C9
  3
Flat
350
80BB
  3
FlatWithEdges
350
80BC
  3
Gouraud
350
80BD
  3
GouraudWithEdges
350
80BE
  3
Hidden
350
80C2
  3
JitterOff
350
80D0
  3
Linepattern
350
80C8
  3
OverhangOff
350
80D1
  3
Realistic
350
80C4
  3
Shaded
350
80CF
  3
Shaded with edges
350
80CE
  3
Shades of Gray
350
80CB
  3
Sketchy
350
80CC
  3
Thicken
350
80C7
  3
Wireframe
350
80C1
  3
X-Ray
350
80CD
  0
XRECORD
  5
82BF
102
{ACAD_REACTORS
330
809D
102
}
330
809D
100
AcDbXrecord
280
     1
 90
        1
330
80F5
  0
DICTIONARY
  5
817D
102
{ACAD_REACTORS
330
809D
102
}
330
809D
100
AcDbDictionary
281
     1
  3
CANNOSCALE
350
8182
  3
CMLEADERSTYLE
350
817F
  3
CTABLESTYLE
350
817E
  3
CVIEWDETAILSTYLE
350
8180
  3
CVIEWSECTIONSTYLE
350
8181
  3
DIMASSOC
350
8185
  3
INDEXCTL
350
8184
  3
SORTENTS
350
8183
  3
XCLIPFRAME
350
8186
  0
XRECORD
  5
82C0
102
{ACAD_REACTORS
330
809D
102
}
330
809D
100
AcDbXrecord
280
     1
  1
DWGPROPS COOKIE
  2

  3

  4

  6

  7

  8
yasukiyo.ogawa
  9

300
=
301
=
302
=
303
=
304
=
305
=
306
=
307
=
308
=
309
=
 40
0.0152746064814815
 41
2451389.445084028
 42
2460265.69484868
  1

 90
        0
  0
DICTIONARY
  5
814D
102
{ACAD_REACTORS
330
814C
102
}
330
814C
100
AcDbDictionary
281
     1
  0
XRECORD
  5
8173
102
{ACAD_REACTORS
330
8172
102
}
330
8172
100
AcDbXrecord
280
     1
290
     1
  0
XRECORD
  5
8175
102
{ACAD_REACTORS
330
8174
102
}
330
8174
100
AcDbXrecord
280
     1
290
     1
  0
XRECORD
  5
8177
102
{ACAD_REACTORS
330
8176
102
}
330
8176
100
AcDbXrecord
280
     1
290
     1
  0
XRECORD
  5
8179
102
{ACAD_REACTORS
330
8178
102
}
330
8178
100
AcDbXrecord
280
     1
290
     1
  0
XRECORD
  5
817B
102
{ACAD_REACTORS
330
817A
102
}
330
817A
100
AcDbXrecord
280
     1
290
     1
  0
XRECORD
  5
817C
102
{ACAD_REACTORS
330
814A
102
}
330
814A
100
AcDbXrecord
280
     1
290
     1
  0
ACDBDETAILVIEWSTYLE
  5
80FB
102
{ACAD_XDICTIONARY
360
82F8
102
}
102
{ACAD_REACTORS
330
80FA
102
}
330
80FA
100
AcDbModelDocViewStyle
 70
     0
  3
Imperial24
290
     0
100
AcDbDetailViewStyle
 70
     0
 71
     0
 90
        3
 71
     1
340
80E6
 40
0.24
340
0
 40
0.24
300

 40
0.36
280
     3
 71
     2
340
80ED
 90
       25
 71
     3
340
80E6
 40
0.24
 90
        1
 40
0.75
 90
        1
300
%<\AcVar ViewType \f "%tc1">% %<\AcVar ViewDetailId>%\PSCALE %<\AcVar ViewScale \f "%sn">%
 71
     4
340
80ED
 90
       25
340
80ED
 90
       25
280
     0
  0
LAYOUT
  5
8103
102
{ACAD_XDICTIONARY
360
82FC
102
}
102
{ACAD_REACTORS
330
80F2
102
}
330
80F2
100
AcDbPlotSettings
  1

  2
RICOH imagio MP W3600 RPCS
  4

  6

 40
0.0
 41
0.0
 42
0.0
 43
0.0
 44
0.0
 45
0.0
 46
0.0
 47
0.0
 48
0.0
 49
0.0
140
0.0
141
0.0
142
1.0
143
1.0
 70
  1712
 72
     0
 73
     0
 74
     0
  7

 75
     0
147
1.0
148
0.0
149
0.0
100
AcDbLayout
  1
Model
 70
     1
 71
     0
 10
0.0
 20
0.0
 11
12.0
 21
9.0
 12
0.0
 22
0.0
 32
0.0
 14
0.0
 24
0.0
 34
0.0
 15
0.0
 25
0.0
 35
0.0
146
0.0
 13
0.0
 23
0.0
 33
0.0
 16
1.0
 26
0.0
 36
0.0
 17
0.0
 27
1.0
 37
0.0
 76
     0
330
8100
331
8105
  0
LAYOUT
  5
80FF
102
{ACAD_XDICTIONARY
360
82FA
102
}
102
{ACAD_REACTORS
330
80F2
102
}
330
80F2
100
AcDbPlotSettings
  1

  2
RICOH imagio MP W3600 RPCS
  4

  6

 40
0.0
 41
0.0
 42
0.0
 43
0.0
 44
0.0
 45
0.0
 46
0.0
 47
0.0
 48
0.0
 49
0.0
140
0.0
141
0.0
142
1.0
143
1.0
 70
   688
 72
     0
 73
     0
 74
     5
  7

 75
    16
147
1.0
148
0.0
149
0.0
100
AcDbLayout
  1
レイアウト1
 70
     1
 71
     1
 10
0.0
 20
0.0
 11
12.0
 21
9.0
 12
0.0
 22
0.0
 32
0.0
 14
1.000000000000000E+20
 24
1.000000000000000E+20
 34
1.000000000000000E+20
 15
-1.000000000000000E+20
 25
-1.000000000000000E+20
 35
-1.000000000000000E+20
146
0.0
 13
0.0
 23
0.0
 33
0.0
 16
1.0
 26
0.0
 36
0.0
 17
0.0
 27
1.0
 37
0.0
 76
     0
330
80FC
  0
MATERIAL
  5
80AA
102
{ACAD_XDICTIONARY
360
80AB
102
}
102
{ACAD_REACTORS
330
80A1
102
}
330
80A1
100
AcDbMaterial
  1
ByBlock
 72
     0
 43
0.0208333333333333
 43
0.0
 43
0.0
 43
0.0
 43
0.0
 43
0.0208333333333333
 43
0.0
 43
0.0
 43
0.0
 43
0.0
 43
1.0
 43
0.0
 43
0.0
 43
0.0
 43
0.0
 43
1.0
 77
     0
 47
0.0208333333333333
 47
0.0
 47
0.0
 47
0.0
 47
0.0
 47
0.0208333333333333
 47
0.0
 47
0.0
 47
0.0
 47
0.0
 47
1.0
 47
0.0
 47
0.0
 47
0.0
 47
0.0
 47
1.0
171
     0
 49
0.0208333333333333
 49
0.0
 49
0.0
 49
0.0
 49
0.0
 49
0.0208333333333333
 49
0.0
 49
0.0
 49
0.0
 49
0.0
 49
1.0
 49
0.0
 49
0.0
 49
0.0
 49
0.0
 49
1.0
175
     0
142
0.0208333333333333
142
0.0
142
0.0
142
0.0
142
0.0
142
0.0208333333333333
142
0.0
142
0.0
142
0.0
142
0.0
142
1.0
142
0.0
142
0.0
142
0.0
142
0.0
142
1.0
179
     0
144
0.0208333333333333
144
0.0
144
0.0
144
0.0
144
0.0
144
0.0208333333333333
144
0.0
144
0.0
144
0.0
144
0.0
144
1.0
144
0.0
144
0.0
144
0.0
144
0.0
144
1.0
147
0.0208333333333333
147
0.0
147
0.0
147
0.0
147
0.0
147
0.0208333333333333
147
0.0
147
0.0
147
0.0
147
0.0
147
1.0
147
0.0
147
0.0
147
0.0
147
0.0
147
1.0
  0
MATERIAL
  5
80A2
102
{ACAD_XDICTIONARY
360
80A3
102
}
102
{ACAD_REACTORS
330
80A1
102
}
330
80A1
100
AcDbMaterial
  1
ByLayer
 72
     0
 43
0.0208333333333333
 43
0.0
 43
0.0
 43
0.0
 43
0.0
 43
0.0208333333333333
 43
0.0
 43
0.0
 43
0.0
 43
0.0
 43
1.0
 43
0.0
 43
0.0
 43
0.0
 43
0.0
 43
1.0
 77
     0
 47
0.0208333333333333
 47
0.0
 47
0.0
 47
0.0
 47
0.0
 47
0.0208333333333333
 47
0.0
 47
0.0
 47
0.0
 47
0.0
 47
1.0
 47
0.0
 47
0.0
 47
0.0
 47
0.0
 47
1.0
171
     0
 49
0.0208333333333333
 49
0.0
 49
0.0
 49
0.0
 49
0.0
 49
0.0208333333333333
 49
0.0
 49
0.0
 49
0.0
 49
0.0
 49
1.0
 49
0.0
 49
0.0
 49
0.0
 49
0.0
 49
1.0
175
     0
142
0.0208333333333333
142
0.0
142
0.0
142
0.0
142
0.0
142
0.0208333333333333
142
0.0
142
0.0
142
0.0
142
0.0
142
1.0
142
0.0
142
0.0
142
0.0
142
0.0
142
1.0
179
     0
144
0.0208333333333333
144
0.0
144
0.0
144
0.0
144
0.0
144
0.0208333333333333
144
0.0
144
0.0
144
0.0
144
0.0
144
1.0
144
0.0
144
0.0
144
0.0
144
0.0
144
1.0
147
0.0208333333333333
147
0.0
147
0.0
147
0.0
147
0.0
147
0.0208333333333333
147
0.0
147
0.0
147
0.0
147
0.0
147
1.0
147
0.0
147
0.0
147
0.0
147
0.0
147
1.0
  0
MATERIAL
  5
80B2
102
{ACAD_XDICTIONARY
360
80B3
102
}
102
{ACAD_REACTORS
330
80A1
102
}
330
80A1
100
AcDbMaterial
  1
Global
 72
     0
 43
0.0208333333333333
 43
0.0
 43
0.0
 43
0.0
 43
0.0
 43
0.0208333333333333
 43
0.0
 43
0.0
 43
0.0
 43
0.0
 43
1.0
 43
0.0
 43
0.0
 43
0.0
 43
0.0
 43
1.0
 77
     0
 47
0.0208333333333333
 47
0.0
 47
0.0
 47
0.0
 47
0.0
 47
0.0208333333333333
 47
0.0
 47
0.0
 47
0.0
 47
0.0
 47
1.0
 47
0.0
 47
0.0
 47
0.0
 47
0.0
 47
1.0
171
     0
 49
0.0208333333333333
 49
0.0
 49
0.0
 49
0.0
 49
0.0
 49
0.0208333333333333
 49
0.0
 49
0.0
 49
0.0
 49
0.0
 49
1.0
 49
0.0
 49
0.0
 49
0.0
 49
0.0
 49
1.0
175
     0
142
0.0208333333333333
142
0.0
142
0.0
142
0.0
142
0.0
142
0.0208333333333333
142
0.0
142
0.0
142
0.0
142
0.0
142
1.0
142
0.0
142
0.0
142
0.0
142
0.0
142
1.0
179
     0
144
0.0208333333333333
144
0.0
144
0.0
144
0.0
144
0.0
144
0.0208333333333333
144
0.0
144
0.0
144
0.0
144
0.0
144
1.0
144
0.0
144
0.0
144
0.0
144
0.0
144
1.0
147
0.0208333333333333
147
0.0
147
0.0
147
0.0
147
0.0
147
0.0208333333333333
147
0.0
147
0.0
147
0.0
147
0.0
147
1.0
147
0.0
147
0.0
147
0.0
147
0.0
147
1.0
  0
MLEADERSTYLE
  5
80F7
102
{ACAD_REACTORS
330
80F6
102
}
330
80F6
100
AcDbMLeaderStyle
170
     2
171
     1
172
     0
 90
        2
 40
0.0
 41
0.0
173
     1
 91
-1056964608
340
80EB
 92
       -2
290
     1
 42
0.09
291
     1
 43
0.36
  3
Standard
 44
0.18
300

342
80E6
174
     1
178
     6
175
     1
176
     0
 93
-1056964608
 45
0.18
292
     0
297
     0
 46
0.18
 94
-1056964608
 47
1.0
 49
1.0
140
1.0
293
     1
141
0.0
294
     1
177
     0
142
1.0
295
     0
296
     0
143
0.125
1001
ACAD_MLEADERVER
1070
     2
  0
MLINESTYLE
  5
80F0
102
{ACAD_REACTORS
330
80EF
102
}
330
80EF
100
AcDbMlineStyle
  2
STANDARD
 70
     0
  3

 62
   256
 51
90.0
 52
90.0
 71
     2
 49
0.5
 62
   256
  6
BYLAYER
 49
-0.5
 62
   256
  6
BYLAYER
  0
ACDBPLACEHOLDER
  5
80A0
102
{ACAD_REACTORS
330
809F
102
}
330
809F
  0
SCALE
  5
80D4
102
{ACAD_REACTORS
330
80D3
102
}
330
80D3
100
AcDbScale
 70
     0
300
1:1
140
1.0
141
1.0
290
     1
  0
SCALE
  5
80D5
102
{ACAD_REACTORS
330
80D3
102
}
330
80D3
100
AcDbScale
 70
     0
300
1/128" = 1'-0"
140
0.0078125
141
12.0
290
     0
  0
SCALE
  5
80D6
102
{ACAD_REACTORS
330
80D3
102
}
330
80D3
100
AcDbScale
 70
     0
300
1/64" = 1'-0"
140
0.015625
141
12.0
290
     0
  0
SCALE
  5
80D7
102
{ACAD_REACTORS
330
80D3
102
}
330
80D3
100
AcDbScale
 70
     0
300
1/32" = 1'-0"
140
0.03125
141
12.0
290
     0
  0
SCALE
  5
80D8
102
{ACAD_REACTORS
330
80D3
102
}
330
80D3
100
AcDbScale
 70
     0
300
1/16" = 1'-0"
140
0.0625
141
12.0
290
     0
  0
SCALE
  5
80D9
102
{ACAD_REACTORS
330
80D3
102
}
330
80D3
100
AcDbScale
 70
     0
300
3/32" = 1'-0"
140
0.09375
141
12.0
290
     0
  0
SCALE
  5
80DA
102
{ACAD_REACTORS
330
80D3
102
}
330
80D3
100
AcDbScale
 70
     0
300
1/8" = 1'-0"
140
0.125
141
12.0
290
     0
  0
SCALE
  5
80DB
102
{ACAD_REACTORS
330
80D3
102
}
330
80D3
100
AcDbScale
 70
     0
300
3/16" = 1'-0"
140
0.1875
141
12.0
290
     0
  0
SCALE
  5
80DC
102
{ACAD_REACTORS
330
80D3
102
}
330
80D3
100
AcDbScale
 70
     0
300
1/4" = 1'-0"
140
0.25
141
12.0
290
     0
  0
SCALE
  5
80DD
102
{ACAD_REACTORS
330
80D3
102
}
330
80D3
100
AcDbScale
 70
     0
300
3/8" = 1'-0"
140
0.375
141
12.0
290
     0
  0
SCALE
  5
80DE
102
{ACAD_REACTORS
330
80D3
102
}
330
80D3
100
AcDbScale
 70
     0
300
1/2" = 1'-0"
140
0.5
141
12.0
290
     0
  0
SCALE
  5
80DF
102
{ACAD_REACTORS
330
80D3
102
}
330
80D3
100
AcDbScale
 70
     0
300
3/4" = 1'-0"
140
0.75
141
12.0
290
     0
  0
SCALE
  5
80E0
102
{ACAD_REACTORS
330
80D3
102
}
330
80D3
100
AcDbScale
 70
     0
300
1" = 1'-0"
140
1.0
141
12.0
290
     0
  0
SCALE
  5
80E1
102
{ACAD_REACTORS
330
80D3
102
}
330
80D3
100
AcDbScale
 70
     0
300
1-1/2" = 1'-0"
140
1.5
141
12.0
290
     0
  0
SCALE
  5
80E2
102
{ACAD_REACTORS
330
80D3
102
}
330
80D3
100
AcDbScale
 70
     0
300
3" = 1'-0"
140
3.0
141
12.0
290
     0
  0
SCALE
  5
80E3
102
{ACAD_REACTORS
330
80D3
102
}
330
80D3
100
AcDbScale
 70
     0
300
6" = 1'-0"
140
6.0
141
12.0
290
     0
  0
SCALE
  5
80E4
102
{ACAD_REACTORS
330
80D3
102
}
330
80D3
100
AcDbScale
 70
     0
300
1'-0" = 1'-0"
140
12.0
141
12.0
290
     0
  0
ACDBSECTIONVIEWSTYLE
  5
80F9
102
{ACAD_XDICTIONARY
360
82F6
102
}
102
{ACAD_REACTORS
330
80F8
102
}
330
80F8
100
AcDbModelDocViewStyle
 70
     0
  3
Imperial24
290
     0
100
AcDbSectionViewStyle
 70
     0
 71
     0
 90
       78
 71
     1
340
80E6
 40
0.24
340
0
340
0
 40
0.24
300
I, O, Q, S, X, Z
 40
0.48
 90
        3
 40
0.18
 90
        1
 71
     2
340
80ED
 90
       25
340
80ED
 90
       50
 40
0.24
 40
0.0
 40
0.24
 71
     3
340
80E6
 40
0.24
 90
        1
 40
0.75
 90
        1
300
%<\AcVar ViewType \f "%tc1">% %<\AcVar ViewSectionStartId>%-%<\AcVar ViewSectionEndId>%\PSCALE %<\AcVar ViewScale \f "%sn">%
 71
     4
300
ANSI31
 40
1.0
 90
        0
290
     0
290
     0
 90
        6
 40
0.0
 40
1.570796326794896
 40
0.2617993877991494
 40
1.308996938995747
 40
-0.2617993877991494
 40
1.832595714594046
  0
TABLESTYLE
  5
80F5
102
{ACAD_XDICTIONARY
360
82BD
102
}
102
{ACAD_REACTORS
330
80F4
102
}
330
80F4
100
AcDbTableStyle
  3
Standard
 70
     0
 71
     0
 40
0.06
 41
0.06
280
     0
281
     0
  7
STANDARD
140
0.18
170
     2
 62
     0
 63
     7
283
     0
274
    -2
284
     1
 64
     0
275
    -2
285
     1
 65
     0
276
    -2
286
     1
 66
     0
277
    -2
287
     1
 67
     0
278
    -2
288
     1
 68
     0
279
    -2
289
     1
 69
     0
  7
STANDARD
140
0.25
170
     5
 62
     0
 63
     7
283
     0
274
    -2
284
     1
 64
     0
275
    -2
285
     1
 65
     0
276
    -2
286
     1
 66
     0
277
    -2
287
     1
 67
     0
278
    -2
288
     1
 68
     0
279
    -2
289
     1
 69
     0
  7
STANDARD
140
0.18
170
     5
 62
     0
 63
     7
283
     0
274
    -2
284
     1
 64
     0
275
    -2
285
     1
 65
     0
276
    -2
286
     1
 66
     0
277
    -2
287
     1
 67
     0
278
    -2
288
     1
 68
     0
279
    -2
289
     1
 69
     0
  0
VISUALSTYLE
  5
80C0
102
{ACAD_XDICTIONARY
360
82CE
102
}
102
{ACAD_REACTORS
330
80BA
102
}
330
80BA
100
AcDbVisualStyle
  2
2dWireframe
 70
     4
 71
     0
 72
     2
 73
     0
 90
        0
 40
-0.6
 41
-30.0
 62
     5
 63
     7
 74
     1
 91
        4
 64
     7
 65
   257
 75
     1
175
     1
 42
1.0
 92
        0
 66
   257
 43
1.0
 76
     1
 77
     6
 78
     2
 67
     7
 79
     5
170
     0
171
     0
290
     0
174
     0
 93
        1
 44
0.0
173
     0
291
     0
 45
0.0
1001
ACAD
1000
AcDbSavedByObjectVersion
1070
     0
  0
VISUALSTYLE
  5
80BF
102
{ACAD_XDICTIONARY
360
82CC
102
}
102
{ACAD_REACTORS
330
80BA
102
}
330
80BA
100
AcDbVisualStyle
  2
Basic
 70
     7
 71
     1
 72
     0
 73
     1
 90
        0
 40
-0.6
 41
-30.0
 62
     5
 63
     7
 74
     0
 91
        4
 64
     7
 65
   257
 75
     1
175
     1
 42
1.0
 92
        8
 66
     7
 43
1.0
 76
     1
 77
     6
 78
     2
 67
     7
 79
     5
170
     0
171
     0
290
     0
174
     0
 93
        1
 44
0.0
173
     0
291
     1
 45
0.0
1001
ACAD
1000
AcDbSavedByObjectVersion
1070
     0
  0
VISUALSTYLE
  5
80C6
102
{ACAD_XDICTIONARY
360
82DA
102
}
102
{ACAD_REACTORS
330
80BA
102
}
330
80BA
100
AcDbVisualStyle
  2
Brighten
 70
    12
 71
     2
 72
     2
 73
     0
 90
        0
 40
-0.6
 41
-30.0
 62
     5
 63
     7
 74
     1
 91
        4
 64
     7
 65
   257
 75
     1
175
     1
 42
1.0
 92
        8
 66
     7
 43
1.0
 76
     1
 77
     6
 78
     2
 67
     7
 79
     5
170
     0
171
     0
290
     0
174
     0
 93
        1
 44
50.0
173
     0
291
     1
 45
0.0
1001
ACAD
1000
AcDbSavedByObjectVersion
1070
     0
  0
VISUALSTYLE
  5
80CA
102
{ACAD_XDICTIONARY
360
82E2
102
}
102
{ACAD_REACTORS
330
80BA
102
}
330
80BA
100
AcDbVisualStyle
  2
ColorChange
 70
    16
 71
     2
 72
     2
 73
     3
 90
        0
 40
-0.6
 41
-30.0
 62
     5
 63
     8
 74
     1
 91
        4
 64
     7
 65
   257
 75
     1
175
     1
 42
1.0
 92
        8
 66
     8
 43
1.0
 76
     1
 77
     6
 78
     2
 67
     7
 79
     5
170
     0
171
     0
290
     0
174
     0
 93
        1
 44
0.0
173
     0
291
     1
 45
0.0
1001
ACAD
1000
AcDbSavedByObjectVersion
1070
     0
  0
VISUALSTYLE
  5
80C3
102
{ACAD_XDICTIONARY
360
82D4
102
}
102
{ACAD_REACTORS
330
80BA
102
}
330
80BA
100
AcDbVisualStyle
  2
Conceptual
 70
     9
 71
     3
 72
     2
 73
     0
 90
        0
 40
-0.6
 41
-30.0
 62
     5
 63
     7
 74
     2
 91
        2
 64
     7
 65
   257
 75
     1
175
     1
 42
179.0
 92
        8
 66
     7
 43
1.0
 76
     1
 77
     6
 78
     2
 67
     7
 79
     3
170
     0
171
     0
290
     0
174
     0
 93
        1
 44
0.0
173
     0
291
     0
 45
0.0
1001
ACAD
1000
AcDbSavedByObjectVersion
1070
     0
  0
VISUALSTYLE
  5
80C5
102
{ACAD_XDICTIONARY
360
82D8
102
}
102
{ACAD_REACTORS
330
80BA
102
}
330
80BA
100
AcDbVisualStyle
  2
Dim
 70
    11
 71
     2
 72
     2
 73
     0
 90
        0
 40
-0.6
 41
-30.0
 62
     5
 63
     7
 74
     1
 91
        4
 64
     7
 65
   257
 75
     1
175
     1
 42
1.0
 92
        8
 66
     7
 43
1.0
 76
     1
 77
     6
 78
     2
 67
     7
 79
     5
170
     0
171
     0
290
     0
174
     0
 93
        1
 44
-50.0
173
     0
291
     1
 45
0.0
1001
ACAD
1000
AcDbSavedByObjectVersion
1070
     0
  0
VISUALSTYLE
  5
80D2
102
{ACAD_XDICTIONARY
360
82F2
102
}
102
{ACAD_REACTORS
330
80BA
102
}
330
80BA
100
AcDbVisualStyle
  2
EdgeColorOff
 70
    22
 71
     2
 72
     2
 73
     0
 90
        0
 40
-0.6
 41
-30.0
 62
     5
 63
     7
 74
     1
 91
        4
 64
     7
 65
   257
 75
     1
175
     1
 42
1.0
 92
        8
 66
     7
 43
1.0
 76
     1
 77
     6
 78
     2
 67
     7
 79
     5
170
     0
171
     0
290
     0
174
     0
 93
        1
 44
0.0
173
     0
291
     1
 45
0.0
1001
ACAD
1000
AcDbSavedByObjectVersion
1070
     0
  0
VISUALSTYLE
  5
80C9
102
{ACAD_XDICTIONARY
360
82E0
102
}
102
{ACAD_REACTORS
330
80BA
102
}
330
80BA
100
AcDbVisualStyle
  2
Facepattern
 70
    15
 71
     2
 72
     2
 73
     0
 90
        0
 40
-0.6
 41
-30.0
 62
     5
 63
     7
 74
     1
 91
        4
 64
     7
 65
   257
 75
     1
175
     1
 42
1.0
 92
        8
 66
     7
 43
1.0
 76
     1
 77
     6
 78
     2
 67
     7
 79
     5
170
     0
171
     0
290
     0
174
     0
 93
        1
 44
0.0
173
     0
291
     1
 45
0.0
1001
ACAD
1000
AcDbSavedByObjectVersion
1070
     0
  0
VISUALSTYLE
  5
80BB
102
{ACAD_XDICTIONARY
360
82C4
102
}
102
{ACAD_REACTORS
330
80BA
102
}
330
80BA
100
AcDbVisualStyle
  2
Flat
 70
     0
 71
     2
 72
     1
 73
     1
 90
        2
 40
-0.6
 41
30.0
 62
     5
 63
     7
 74
     0
 91
        0
 64
     7
 65
   257
 75
     1
175
     1
 42
1.0
 92
        8
 66
     7
 43
1.0
 76
     1
 77
     6
 78
     2
 67
     7
 79
     5
170
     0
171
     0
290
     0
174
     0
 93
       13
 44
0.0
173
     0
291
     1
 45
0.0
1001
ACAD
1000
AcDbSavedByObjectVersion
1070
     0
  0
VISUALSTYLE
  5
80BC
102
{ACAD_XDICTIONARY
360
82C6
102
}
102
{ACAD_REACTORS
330
80BA
102
}
330
80BA
100
AcDbVisualStyle
  2
FlatWithEdges
 70
     1
 71
     2
 72
     1
 73
     1
 90
        2
 40
-0.6
 41
30.0
 62
     5
 63
     7
 74
     1
 91
        0
 64
     7
 65
   257
 75
     1
175
     1
 42
1.0
 92
        0
 66
   257
 43
1.0
 76
     1
 77
     6
 78
     2
 67
     7
 79
     5
170
     0
171
     0
290
     0
174
     0
 93
       13
 44
0.0
173
     0
291
     1
 45
0.0
1001
ACAD
1000
AcDbSavedByObjectVersion
1070
     0
  0
VISUALSTYLE
  5
80BD
102
{ACAD_XDICTIONARY
360
82C8
102
}
102
{ACAD_REACTORS
330
80BA
102
}
330
80BA
100
AcDbVisualStyle
  2
Gouraud
 70
     2
 71
     2
 72
     2
 73
     1
 90
        2
 40
-0.6
 41
30.0
 62
     5
 63
     7
 74
     0
 91
        0
 64
     7
 65
   257
 75
     1
175
     1
 42
1.0
 92
        0
 66
     7
 43
1.0
 76
     1
 77
     6
 78
     2
 67
     7
 79
     5
170
     0
171
     0
290
     0
174
     0
 93
       13
 44
0.0
173
     0
291
     1
 45
0.0
1001
ACAD
1000
AcDbSavedByObjectVersion
1070
     0
  0
VISUALSTYLE
  5
80BE
102
{ACAD_XDICTIONARY
360
82CA
102
}
102
{ACAD_REACTORS
330
80BA
102
}
330
80BA
100
AcDbVisualStyle
  2
GouraudWithEdges
 70
     3
 71
     2
 72
     2
 73
     1
 90
        2
 40
-0.6
 41
30.0
 62
     5
 63
     7
 74
     1
 91
        0
 64
     7
 65
   257
 75
     1
175
     1
 42
1.0
 92
        0
 66
   257
 43
1.0
 76
     1
 77
     6
 78
     2
 67
     7
 79
     5
170
     0
171
     0
290
     0
174
     0
 93
       13
 44
0.0
173
     0
291
     1
 45
0.0
1001
ACAD
1000
AcDbSavedByObjectVersion
1070
     0
  0
VISUALSTYLE
  5
80C2
102
{ACAD_XDICTIONARY
360
82D2
102
}
102
{ACAD_REACTORS
330
80BA
102
}
330
80BA
100
AcDbVisualStyle
  2
Hidden
 70
     6
 71
     1
 72
     2
 73
     2
 90
        0
 40
-0.6
 41
-30.0
 62
     5
 63
     7
 74
     2
 91
        2
 64
     7
 65
   257
 75
     2
175
     1
 42
40.0
 92
        0
 66
   257
 43
1.0
 76
     1
 77
     6
 78
     2
 67
     7
 79
     3
170
     0
171
     0
290
     0
174
     0
 93
        1
 44
0.0
173
     0
291
     0
 45
0.0
1001
ACAD
1000
AcDbSavedByObjectVersion
1070
     0
  0
VISUALSTYLE
  5
80D0
102
{ACAD_XDICTIONARY
360
82EE
102
}
102
{ACAD_REACTORS
330
80BA
102
}
330
80BA
100
AcDbVisualStyle
  2
JitterOff
 70
    20
 71
     2
 72
     2
 73
     0
 90
        0
 40
-0.6
 41
-30.0
 62
     5
 63
     7
 74
     1
 91
        4
 64
     7
 65
   257
 75
     1
175
     1
 42
1.0
 92
       10
 66
     7
 43
1.0
 76
     1
 77
     6
 78
     2
 67
     7
 79
     5
170
     0
171
     0
290
     0
174
     0
 93
        1
 44
0.0
173
     0
291
     1
 45
0.0
1001
ACAD
1000
AcDbSavedByObjectVersion
1070
     0
  0
VISUALSTYLE
  5
80C8
102
{ACAD_XDICTIONARY
360
82DE
102
}
102
{ACAD_REACTORS
330
80BA
102
}
330
80BA
100
AcDbVisualStyle
  2
Linepattern
 70
    14
 71
     2
 72
     2
 73
     0
 90
        0
 40
-0.6
 41
-30.0
 62
     5
 63
     7
 74
     1
 91
        4
 64
     7
 65
   257
 75
     7
175
     7
 42
1.0
 92
        8
 66
     7
 43
1.0
 76
     1
 77
     6
 78
     2
 67
     7
 79
     5
170
     0
171
     0
290
     0
174
     0
 93
        1
 44
0.0
173
     0
291
     1
 45
0.0
1001
ACAD
1000
AcDbSavedByObjectVersion
1070
     0
  0
VISUALSTYLE
  5
80D1
102
{ACAD_XDICTIONARY
360
82F0
102
}
102
{ACAD_REACTORS
330
80BA
102
}
330
80BA
100
AcDbVisualStyle
  2
OverhangOff
 70
    21
 71
     2
 72
     2
 73
     0
 90
        0
 40
-0.6
 41
-30.0
 62
     5
 63
     7
 74
     1
 91
        4
 64
     7
 65
   257
 75
     1
175
     1
 42
1.0
 92
        9
 66
     7
 43
1.0
 76
     1
 77
     6
 78
     2
 67
     7
 79
     5
170
     0
171
     0
290
     0
174
     0
 93
        1
 44
0.0
173
     0
291
     1
 45
0.0
1001
ACAD
1000
AcDbSavedByObjectVersion
1070
     0
  0
VISUALSTYLE
  5
80C4
102
{ACAD_XDICTIONARY
360
82D6
102
}
102
{ACAD_REACTORS
330
80BA
102
}
330
80BA
100
AcDbVisualStyle
  2
Realistic
 70
     8
 71
     2
 72
     3
 73
     0
 90
        2
 40
-0.6
 41
30.0
 62
     5
 63
     7
 74
     0
 91
        0
 64
     7
 65
   257
 75
     1
175
     1
 42
1.0
 92
        8
 66
   257
 43
1.0
 76
     1
 77
     6
 78
     2
 67
     7
 79
     3
170
     0
171
     0
290
     0
174
     0
 93
       13
 44
0.0
173
     0
291
     0
 45
0.0
1001
ACAD
1000
AcDbSavedByObjectVersion
1070
     0
  0
VISUALSTYLE
  5
80CF
102
{ACAD_XDICTIONARY
360
82EC
102
}
102
{ACAD_REACTORS
330
80BA
102
}
330
80BA
100
AcDbVisualStyle
  2
Shaded
 70
    27
 71
     2
 72
     2
 73
     1
 90
        2
 40
-0.6
 41
30.0
 62
     5
 63
     7
 74
     0
 91
        4
 64
     7
 65
   257
 75
     1
175
     1
 42
1.0
 92
        8
 66
   257
 43
1.0
 76
     1
 77
     6
 78
     2
 67
     8
 79
     3
170
     0
171
     0
290
     0
174
     0
 93
        5
 44
0.0
173
     0
291
     0
 45
0.0
1001
ACAD
1000
AcDbSavedByObjectVersion
1070
     0
  0
VISUALSTYLE
  5
80CE
102
{ACAD_XDICTIONARY
360
82EA
102
}
102
{ACAD_REACTORS
330
80BA
102
}
330
80BA
100
AcDbVisualStyle
  2
Shaded with edges
 70
    26
 71
     2
 72
     2
 73
     1
 90
        2
 40
-0.6
 41
30.0
 62
     5
 63
     7
 74
     1
 91
       10
 64
     7
 65
   257
 75
     2
175
     1
 42
1.0
 92
        8
 66
   257
 43
1.0
 76
     1
 77
     6
 78
     2
 67
     7
 79
     3
170
     0
171
     0
290
     0
174
     0
 93
        5
 44
0.0
173
     0
291
     0
 45
0.0
1001
ACAD
1000
AcDbSavedByObjectVersion
1070
     0
  0
VISUALSTYLE
  5
80CB
102
{ACAD_XDICTIONARY
360
82E4
102
}
102
{ACAD_REACTORS
330
80BA
102
}
330
80BA
100
AcDbVisualStyle
  2
Shades of Gray
 70
    23
 71
     2
 72
     2
 73
     3
 90
        0
 40
-0.6
 41
-30.0
 62
     5
 63
     7
 74
     2
 91
        2
 64
     7
 65
     7
 75
     1
175
     1
 42
40.0
 92
        8
 66
     7
 43
1.0
 76
     1
 77
     6
 78
     2
 67
     7
 79
     3
170
     0
171
     0
290
     0
174
     0
 93
        1
 44
0.0
173
     0
291
     0
 45
0.0
1001
ACAD
1000
AcDbSavedByObjectVersion
1070
     0
  0
VISUALSTYLE
  5
80CC
102
{ACAD_XDICTIONARY
360
82E6
102
}
102
{ACAD_REACTORS
330
80BA
102
}
330
80BA
100
AcDbVisualStyle
  2
Sketchy
 70
    24
 71
     1
 72
     2
 73
     2
 90
        0
 40
-0.6
 41
-30.0
 62
     5
 63
     7
 74
     2
 91
        2
 64
     7
 65
     7
 75
     1
175
     1
 42
40.0
 92
       11
 66
     7
 43
1.0
 76
     1
 77
     6
 78
     2
 67
     7
 79
     6
170
     0
171
     0
290
     0
174
     0
 93
        1
 44
0.0
173
     0
291
     0
 45
0.0
1001
ACAD
1000
AcDbSavedByObjectVersion
1070
     0
  0
VISUALSTYLE
  5
80C7
102
{ACAD_XDICTIONARY
360
82DC
102
}
102
{ACAD_REACTORS
330
80BA
102
}
330
80BA
100
AcDbVisualStyle
  2
Thicken
 70
    13
 71
     2
 72
     2
 73
     0
 90
        0
 40
-0.6
 41
-30.0
 62
     5
 63
     7
 74
     1
 91
        4
 64
     7
 65
   257
 75
     1
175
     1
 42
1.0
 92
       12
 66
     7
 43
1.0
 76
     1
 77
     6
 78
     2
 67
     7
 79
     5
170
     0
171
     0
290
     0
174
     0
 93
        1
 44
0.0
173
     0
291
     1
 45
0.0
1001
ACAD
1000
AcDbSavedByObjectVersion
1070
     0
  0
VISUALSTYLE
  5
80C1
102
{ACAD_XDICTIONARY
360
82D0
102
}
102
{ACAD_REACTORS
330
80BA
102
}
330
80BA
100
AcDbVisualStyle
  2
Wireframe
 70
     5
 71
     0
 72
     2
 73
     0
 90
        0
 40
-0.6
 41
-30.0
 62
     5
 63
     7
 74
     1
 91
        4
 64
     7
 65
   257
 75
     1
175
     1
 42
1.0
 92
        0
 66
   257
 43
1.0
 76
     1
 77
     6
 78
     2
 67
     7
 79
     3
170
     0
171
     0
290
     0
174
     0
 93
        1
 44
0.0
173
     0
291
     0
 45
0.0
1001
ACAD
1000
AcDbSavedByObjectVersion
1070
     0
  0
VISUALSTYLE
  5
80CD
102
{ACAD_XDICTIONARY
360
82E8
102
}
102
{ACAD_REACTORS
330
80BA
102
}
330
80BA
100
AcDbVisualStyle
  2
X-Ray
 70
    25
 71
     2
 72
     2
 73
     1
 90
        1
 40
0.5
 41
-30.0
 62
     5
 63
     7
 74
     1
 91
        0
 64
     7
 65
   257
 75
     1
175
     1
 42
1.0
 92
        8
 66
     7
 43
1.0
 76
     1
 77
     6
 78
     2
 67
     7
 79
     3
170
     0
171
     0
290
     0
174
     0
 93
       13
 44
0.0
173
     0
291
     0
 45
0.0
1001
ACAD
1000
AcDbSavedByObjectVersion
1070
     0
  0
DICTIONARYVAR
  5
8182
102
{ACAD_REACTORS
330
817D
102
}
330
817D
100
DictionaryVariables
280
     0
  1
1:1
  0
DICTIONARYVAR
  5
817F
102
{ACAD_REACTORS
330
817D
102
}
330
817D
100
DictionaryVariables
280
     0
  1
STANDARD
  0
DICTIONARYVAR
  5
817E
102
{ACAD_REACTORS
330
817D
102
}
330
817D
100
DictionaryVariables
280
     0
  1
STANDARD
  0
DICTIONARYVAR
  5
8180
102
{ACAD_REACTORS
330
817D
102
}
330
817D
100
DictionaryVariables
280
     0
  1
Imperial24
  0
DICTIONARYVAR
  5
8181
102
{ACAD_REACTORS
330
817D
102
}
330
817D
100
DictionaryVariables
280
     0
  1
Imperial24
  0
DICTIONARYVAR
  5
8185
102
{ACAD_REACTORS
330
817D
102
}
330
817D
100
DictionaryVariables
280
     0
  1
1
  0
DICTIONARYVAR
  5
8184
102
{ACAD_REACTORS
330
817D
102
}
330
817D
100
DictionaryVariables
280
     0
  1
0
  0
DICTIONARYVAR
  5
8183
102
{ACAD_REACTORS
330
817D
102
}
330
817D
100
DictionaryVariables
280
     0
  1
127
  0
DICTIONARYVAR
  5
8186
102
{ACAD_REACTORS
330
817D
102
}
330
817D
100
DictionaryVariables
280
     0
  1
2
  0
DICTIONARY
  5
82F8
330
80FB
100
AcDbDictionary
280
     1
281
     1
  3
ACAD_XREC_ROUNDTRIP
360
82F9
  0
DICTIONARY
  5
82FC
330
8103
100
AcDbDictionary
280
     1
281
     1
  3
ACAD_XREC_ROUNDTRIP
360
82FD
  0
DICTIONARY
  5
82FA
330
80FF
100
AcDbDictionary
280
     1
281
     1
  3
ACAD_XREC_ROUNDTRIP
360
82FB
  0
DICTIONARY
  5
80AB
330
80AA
100
AcDbDictionary
280
     1
281
     1
  3
ACAD_XREC_ROUNDTRIP
360
82C2
  3
BUMPTILE
360
80AD
  3
DIFFUSETILE
360
80AC
  3
OPACITYTILE
360
80B0
  3
REFLECTIONTILE
360
80AF
  3
REFRACTIONTILE
360
80B1
  3
SPECULARTILE
360
80AE
  0
DICTIONARY
  5
80A3
330
80A2
100
AcDbDictionary
280
     1
281
     1
  3
ACAD_XREC_ROUNDTRIP
360
82C1
  3
BUMPTILE
360
80A5
  3
DIFFUSETILE
360
80A4
  3
OPACITYTILE
360
80A8
  3
REFLECTIONTILE
360
80A7
  3
REFRACTIONTILE
360
80A9
  3
SPECULARTILE
360
80A6
  0
DICTIONARY
  5
80B3
330
80B2
100
AcDbDictionary
280
     1
281
     1
  3
ACAD_XREC_ROUNDTRIP
360
82C3
  3
BUMPTILE
360
80B5
  3
DIFFUSETILE
360
80B4
  3
FBXASSET
360
8216
  3
OPACITYTILE
360
80B8
  3
REFLECTIONTILE
360
80B7
  3
REFRACTIONTILE
360
80B9
  3
SPECULARTILE
360
80B6
  0
DICTIONARY
  5
82F6
330
80F9
100
AcDbDictionary
280
     1
281
     1
  3
ACAD_XREC_ROUNDTRIP
360
82F7
  0
DICTIONARY
  5
82BD
330
80F5
100
AcDbDictionary
280
     1
281
     1
  3
ACAD_ROUNDTRIP_2008_TABLESTYLE_CELLSTYLEMAP
360
82BE
  3
ACAD_XREC_ROUNDTRIP
360
82F4
  0
DICTIONARY
  5
82CE
330
80C0
100
AcDbDictionary
280
     1
281
     1
  3
ACAD_XREC_ROUNDTRIP
360
82CF
  0
DICTIONARY
  5
82CC
330
80BF
100
AcDbDictionary
280
     1
281
     1
  3
ACAD_XREC_ROUNDTRIP
360
82CD
  0
DICTIONARY
  5
82DA
330
80C6
100
AcDbDictionary
280
     1
281
     1
  3
ACAD_XREC_ROUNDTRIP
360
82DB
  0
DICTIONARY
  5
82E2
330
80CA
100
AcDbDictionary
280
     1
281
     1
  3
ACAD_XREC_ROUNDTRIP
360
82E3
  0
DICTIONARY
  5
82D4
330
80C3
100
AcDbDictionary
280
     1
281
     1
  3
ACAD_XREC_ROUNDTRIP
360
82D5
  0
DICTIONARY
  5
82D8
330
80C5
100
AcDbDictionary
280
     1
281
     1
  3
ACAD_XREC_ROUNDTRIP
360
82D9
  0
DICTIONARY
  5
82F2
330
80D2
100
AcDbDictionary
280
     1
281
     1
  3
ACAD_XREC_ROUNDTRIP
360
82F3
  0
DICTIONARY
  5
82E0
330
80C9
100
AcDbDictionary
280
     1
281
     1
  3
ACAD_XREC_ROUNDTRIP
360
82E1
  0
DICTIONARY
  5
82C4
330
80BB
100
AcDbDictionary
280
     1
281
     1
  3
ACAD_XREC_ROUNDTRIP
360
82C5
  0
DICTIONARY
  5
82C6
330
80BC
100
AcDbDictionary
280
     1
281
     1
  3
ACAD_XREC_ROUNDTRIP
360
82C7
  0
DICTIONARY
  5
82C8
330
80BD
100
AcDbDictionary
280
     1
281
     1
  3
ACAD_XREC_ROUNDTRIP
360
82C9
  0
DICTIONARY
  5
82CA
330
80BE
100
AcDbDictionary
280
     1
281
     1
  3
ACAD_XREC_ROUNDTRIP
360
82CB
  0
DICTIONARY
  5
82D2
330
80C2
100
AcDbDictionary
280
     1
281
     1
  3
ACAD_XREC_ROUNDTRIP
360
82D3
  0
DICTIONARY
  5
82EE
330
80D0
100
AcDbDictionary
280
     1
281
     1
  3
ACAD_XREC_ROUNDTRIP
360
82EF
  0
DICTIONARY
  5
82DE
330
80C8
100
AcDbDictionary
280
     1
281
     1
  3
ACAD_XREC_ROUNDTRIP
360
82DF
  0
DICTIONARY
  5
82F0
330
80D1
100
AcDbDictionary
280
     1
281
     1
  3
ACAD_XREC_ROUNDTRIP
360
82F1
  0
DICTIONARY
  5
82D6
330
80C4
100
AcDbDictionary
280
     1
281
     1
  3
ACAD_XREC_ROUNDTRIP
360
82D7
  0
DICTIONARY
  5
82EC
330
80CF
100
AcDbDictionary
280
     1
281
     1
  3
ACAD_XREC_ROUNDTRIP
360
82ED
  0
DICTIONARY
  5
82EA
330
80CE
100
AcDbDictionary
280
     1
281
     1
  3
ACAD_XREC_ROUNDTRIP
360
82EB
  0
DICTIONARY
  5
82E4
330
80CB
100
AcDbDictionary
280
     1
281
     1
  3
ACAD_XREC_ROUNDTRIP
360
82E5
  0
DICTIONARY
  5
82E6
330
80CC
100
AcDbDictionary
280
     1
281
     1
  3
ACAD_XREC_ROUNDTRIP
360
82E7
  0
DICTIONARY
  5
82DC
330
80C7
100
AcDbDictionary
280
     1
281
     1
  3
ACAD_XREC_ROUNDTRIP
360
82DD
  0
DICTIONARY
  5
82D0
330
80C1
100
AcDbDictionary
280
     1
281
     1
  3
ACAD_XREC_ROUNDTRIP
360
82D1
  0
DICTIONARY
  5
82E8
330
80CD
100
AcDbDictionary
280
     1
281
     1
  3
ACAD_XREC_ROUNDTRIP
360
82E9
  0
XRECORD
  5
82F9
102
{ACAD_REACTORS
330
82F8
102
}
330
82F8
100
AcDbXrecord
280
     1
102
DISPLAYNAME
  1
Imperial24
102
FLAGS
 90
        0
  0
XRECORD
  5
82FD
102
{ACAD_REACTORS
330
82FC
102
}
330
82FC
100
AcDbXrecord
280
     1
102
SHADEPLOT
 70
     0
102
SHADEPLOTRESLEVEL
 70
     2
102
SHADEPLOTCUSTOMDPI
 70
   300
  0
XRECORD
  5
82FB
102
{ACAD_REACTORS
330
82FA
102
}
330
82FA
100
AcDbXrecord
280
     1
102
SHADEPLOT
 70
     0
102
SHADEPLOTRESLEVEL
 70
     2
102
SHADEPLOTCUSTOMDPI
 70
   300
  0
XRECORD
  5
82C2
102
{ACAD_REACTORS
330
80AB
102
}
330
80AB
100
AcDbXrecord
280
     1
102
MATERIAL
148
0.0
149
0.0
149
0.0
 93
        0
 94
      127
282
     0
 72
     0
 77
     0
171
     0
175
     0
179
     0
273
     0
  0
XRECORD
  5
80AD
102
{ACAD_REACTORS
330
80AB
102
}
330
80AB
100
AcDbXrecord
280
     1
270
     1
271
     1
  0
XRECORD
  5
80AC
102
{ACAD_REACTORS
330
80AB
102
}
330
80AB
100
AcDbXrecord
280
     1
270
     1
271
     1
  0
XRECORD
  5
80B0
102
{ACAD_REACTORS
330
80AB
102
}
330
80AB
100
AcDbXrecord
280
     1
270
     1
271
     1
  0
XRECORD
  5
80AF
102
{ACAD_REACTORS
330
80AB
102
}
330
80AB
100
AcDbXrecord
280
     1
270
     1
271
     1
  0
XRECORD
  5
80B1
102
{ACAD_REACTORS
330
80AB
102
}
330
80AB
100
AcDbXrecord
280
     1
270
     1
271
     1
  0
XRECORD
  5
80AE
102
{ACAD_REACTORS
330
80AB
102
}
330
80AB
100
AcDbXrecord
280
     1
270
     1
271
     1
  0
XRECORD
  5
82C1
102
{ACAD_REACTORS
330
80A3
102
}
330
80A3
100
AcDbXrecord
280
     1
102
MATERIAL
148
0.0
149
0.0
149
0.0
 93
        0
 94
      127
282
     0
 72
     0
 77
     0
171
     0
175
     0
179
     0
273
     0
  0
XRECORD
  5
80A5
102
{ACAD_REACTORS
330
80A3
102
}
330
80A3
100
AcDbXrecord
280
     1
270
     1
271
     1
  0
XRECORD
  5
80A4
102
{ACAD_REACTORS
330
80A3
102
}
330
80A3
100
AcDbXrecord
280
     1
270
     1
271
     1
  0
XRECORD
  5
80A8
102
{ACAD_REACTORS
330
80A3
102
}
330
80A3
100
AcDbXrecord
280
     1
270
     1
271
     1
  0
XRECORD
  5
80A7
102
{ACAD_REACTORS
330
80A3
102
}
330
80A3
100
AcDbXrecord
280
     1
270
     1
271
     1
  0
XRECORD
  5
80A9
102
{ACAD_REACTORS
330
80A3
102
}
330
80A3
100
AcDbXrecord
280
     1
270
     1
271
     1
  0
XRECORD
  5
80A6
102
{ACAD_REACTORS
330
80A3
102
}
330
80A3
100
AcDbXrecord
280
     1
270
     1
271
     1
  0
XRECORD
  5
82C3
102
{ACAD_REACTORS
330
80B3
102
}
330
80B3
100
AcDbXrecord
280
     1
102
MATERIAL
148
0.0
149
0.0
149
0.0
 93
        0
 94
      127
282
     0
 72
     0
 77
     0
171
     0
175
     0
179
     0
273
     0
  0
XRECORD
  5
80B5
102
{ACAD_REACTORS
330
80B3
102
}
330
80B3
100
AcDbXrecord
280
     1
270
     1
271
     1
  0
XRECORD
  5
80B4
102
{ACAD_REACTORS
330
80B3
102
}
330
80B3
100
AcDbXrecord
280
     1
270
     1
271
     1
  0
XRECORD
  5
8216
102
{ACAD_REACTORS
330
80B3
102
}
330
80B3
100
AcDbXrecord
280
     1
 70
     1
 90
1959938040
 71
     1
  1
FD44D522-0B06-4C86-8035-1D7D07F1184D
311
504B030414000608080091847057F7B8EBEEC0000000200100004F00000035444633353335412D354539422D343246422D413637382D3632433132393536453644412F4173736574446174612F446566696E6974696F6E4974657261746F7250726F706572746965732E62696EEB606060F80F0540260323103700495E20ED
311
9E9A975A94991C9C9C919A9BC8C00612C9C94F4ACC6147C831019920AE4B6A5A62694E0948976F6671726A4E4E625E6A7E69B12042A9426E6209D0B8C41C3D90264E20860914834C48875806B2DF0F88414E02D189290556F689C5C5A925B6FA694915FAC68E266E4E4646E6BA6606E696BA2686AE2EBA160666E6BA26966E
311
E606C6CE2EA626C6C6FA45A9C5F9A545C9A9C5FA46FA06F15093E30BF2D2191856B42D38F51A6809C80D204C080000504B03041400060808009184705711EDB320FE000000300200004500000035444633353335412D354539422D343246422D413637382D3632433132393536453644412F4173736574446174612F496E73
311
74616E636550726F706572746965732E62696EEB606060F80F0540260323103700495E20ED9E9A975A94991C9C9C919A9BA802147073313171313532D235703230D33571B630D3B5303036D5357431773130773334B43071614768046931363471713532B5D435353131D635313332D475727372D13534373670367376B674
311
74B5042A03DBCBA019D37FE8ABC6157B20CD04146B0062181F4C03F940F0C11EA29A8141C08141002C0426541C106CAC2CA046088033B02A030AC2157C6006F21A8018AAF50194E6010A610250382264E08660284CD9E98021862280A91564B406929A0FF62C401E28B6F88038B83CB1243943D7A928312F2535052403037B
311
6FC856AED45EEFD0A7E8CA24E6BCD281527100504B03041400060808009184705728BB58AF800100009E0500003D00000035444633353335412D354539422D343246422D413637382D3632433132393536453644412F536368656D61732F436F6D6D6F6E536368656D612E786D6CBD544D4FC23018BEFB2B96DE15493C7860
311
1010A34B880709DEDFB52FD0D8B54BD70DF6EFED3AC0B12E6442E2716BFB3CEFF3D18E26FB440405EA8C2B1992E1C323095052C5B8DC842437EBFB673219DF8DA659866649B798C078B48AE6410122242F2A4994AC7F93815DF85C049C8564CA0A901499DD886B2EB9B1E02448F358701A9235880C49A0119892A20C89D1B9
311
FD768815CAD268CB5E0355B40B1E47F3E37A2020464BED06AA57CE8FCC20C3C3446D46761A2632A8C1283D07031EFF2AE7CCB1BFEEE916E406DFAC8E36FFD99A9D60A6944090EEDC3B670C7DC13DE86B6B2C5C240D6E503BB85ACD579D513F1B9F9A69DC9CC22AFA80C426D40AF0B21EA168559156B6276F0F726A6BFF04DC
311
D513A87A62CAD41FB24FCB2858B3952E3D852084DA25B9303C15687973CC8E8AAE11DF2836C38C6A9E765E8C1BA1BFB1DC29CDFE518C8B5A7655A4ED7E77291ABEB80DBD82EC866ADE1B8D05AF9E35CF09D7A061F38A986D9EC412B8F0F65E5D81534D9B231D1E5A8FE577A241F3A5FD01504B030414000608080091847057
311
2CCEBD668A040000E01200003E00000035444633353335412D354539422D343246422D413637382D3632433132393536453644412F536368656D61732F47656E65726963536368656D612E786D6CD5586D6FDB380CFE7EBF42F0F7A649B70E1B90744856B4970F450FCD7A5F05459613EDE4174872DADCAF3F522F8ED3B88D
311
2F1D06AC4050DBA2493EE4438AF2F8EB73AEC8466823CB62928C06C384888297A92C5693A4B6D9D9E7E4EBD51FE3A931C22EF85AE4EC6AFC38BF261BA626C9AD288496DC3F4FCEAFC63366845F7A10452AF41DB320C0D44EC26EAB20918735565582695670811A6A49643A49A6E9069FA4604A64B29016DC4B48552F95E493
311
2463CA888468C1D2B250DB4962750DF7CE273069CE8363F1FF4EDB00E0A21999574AE4A2B00C353B93F3BD4777B8A61ED8F604ABFEDD79CE56A2B7BDFBDBC50996E0ADDE16FED26223C5D30956C29BDF4A55EA686E5E58B112DA45CE67F76F4FA27EFA3FB672FD7372FC388FAECDCA5209E693CAD167BADCD272F943701B38
311
12F8A3D852008B1D2E32DB927B2F833C6EA95879925356D254582695095A3CE982924720BE5774A3CB9CDCDB350427D2DF20DA1B5532EBE2D5D6288D75D4F7E4FD9890A0EF8E3D93EBB8F8BA4758158EF6FB90A6F9520281C93DE7AAC6D24607DA296BB96018123F821A7D6A5C5884050C475DA4865442732C8B95684A5016
311
5CBB3A32F25F783A4A480ED59AD7F924B968AEA50131F46303223E6A397B0E52976030DC1DCA81D7E7C1EDEEA42C19FF27635C505E2BD5198A599020DF50A2330FCB3AAF28CB0124108429553EF1B228802E2265D8F7CC2401042B155BCC7070F1E5C55F13B4A9577362CCCE46C32174E010C3C378C44841A4BDA00FE3A120
311
06CE11EE6AEC59894D3526DDE1CD59D503ECC324017F8061B7F162162FA62EDD81AE3308617770796DCBDAD2B2625C5AE8A63DE20B2C8AA5E95E76E5730823955956E33E705425A2187C185D36489A1B44D3DCEC2172F6BA2105C3546287A7194B2331768EBBE64F6E70A9930ABE0ADEA89E9E2C38523B810287AD67A54A03
311
9C1606EAFE68F8304610BB9093DBDDABC0B2AE4E290DCDA15376D7E39F72B556F0B32EAB5D3D498B4C41ABADEC3A1434C422D87E8025A84BDCB2B1417ED750FAE4DA8976863974C577C7F902D3F156AD354DEA3540DE6BEAE2BEA52F7A2EB4CA43802ECE5BF2CE2EDC9347179FFB023CE412E60BE16DA0BE29B374988A553F
311
561DC04615DD35F7D2C8979F60E5955CE93DF29DED8AFA1EE6642D53418086C03C47C377910F75F7E8F5EF665F70B60FFB22AEDF897D119E8423C773E819A3C1E55E550599EE6EDCA34D0C86FD72057DF2CD46F16A470682471C164E4346D5306BF12D7D12D82CFF673D41636C347443FEB51B50D72EA171A8E4A58623A4A1
311
6E0FA2B8B10A0D23268D87C33896EE8FB73305A74BF224EDBADFA0BD674AB354D63DB7BD5D83426761C077DE767728235446A552754EB93B755891C3C4CC6CADE37CF0E912A7BB38DBA010F9DE1282EDF470CA69A9CDA482E334C4A6EA4107987980B17E72F31730EBF88BBD39E7C629F56797A3C0009C2C5AE7951D9A05A0
311
2773440F02EEB4DE396A3B6A570C72CCFBCD823B0B8ED3F1D5CEDDFED772FA70236C83FB7D86C385D570B87107535572A60A96035F8F7C6A7192F13007246BBE0521855E6AC46F3E27689CEE7D186A6FD679D98CDCAD13333E04EBE7ED6F55FF01504B0304140006080800918470576180134D5F0100006B03000045000000
311
35444633353335412D354539422D343246422D413637382D3632433132393536453644412F536368656D61732F52656E6465724D6174657269616C536368656D612E786D6CA5934D6FC2300C86EFFB1551EEE343DBA41D1A103009551ADAD40EAE28A4A68D9426284961FCFBE5A340113B2071746D3F765EBF4DC6BFB5407B
311
D0862B49F0B037C0082453059725C18DDD3EBFE3F1E829991803366715D474942CD30FB4A782E00C64017A412D684E454CE3FE28995203B162A6EA5AC94B66997D225E109CD63B0135484BAD1B3C07E9080CA35DB3119C11BCA5C200461A68A1A438126C75E3E230D40FF81FB3F03C91D1E3A3A0AF79FE28E25BC39EC3E17E
311
4C2A2D94A0833A51AF55BCCA7D88572FCBAC529C4140B020FC3AAFA886621DCED7EAD7664CC86024E806DC297DA1BB393E4156543457A4537DB8817349A70F8ACBF09B3EEE2CB2F33E91B65D60786E4E3B39B77E3FEEEF5650424525DA657FB8B46BE6BF064646F0A0F7327C0BC1BC1B4CBBC1C419FA3CCB23500007872A25
311
80CAAE5461865565294E4EDB4617B62FF579DF9A5B2F54E834076A597573A020912FED777F9B3F504B030414000608080091847057569A1E2F51000000570000004700000035444633353335412D354539422D343246422D413637382D3632433132393536453644412F4173736574446174612F41737365745461626C654F
311
66436F6E74656E74732E62696E536160607073313171313532D235703230D33571B630D3B5303036D5357431773130773334B430711102AACB4D2C492DCA4CCC492C28484D2C4ACC4B4E050A82012F90744FCD03CA26072767A4E6260200504B030414000608080091847057F8658340580000006800000045000000354446
311
33353335412D354539422D343246422D413637382D3632433132393536453644412F4173736574446174612F53747265616D56657273696F6E5461626C652E696E66558CBD0A80300C06F73E4B117FB66E451741D041DC5BF98480A492E4FDD18EAEC7DD4555D89EF28DF51A0B1BD8340C4DE7DD848B988C0ACF0649566493
311
F2408C508DDEBB99D5129FF8F1AF8CF5B9503E20FAE5A16B5AF702504B0304140006080800918470570CC56589340100009A0400003600000035444633353335412D354539422D343246422D413637382D3632433132393536453644412F4173736574446174612F636E782E786D6CCD54B14EC33010FD95C87BECA4151542
311
8E2B044B2790A818D8AECEA55875ECC8BE20F87BEC2403A888A943254FCFEFEE9E9FFC4E6E3F7B5B7C6088C6BB86D5BC62053AED5BE38E0D1BA92B6F59B15532784F3F68AC70D063C332CC943C063F0E0BD46207A3CDA835EEB480F73122EDE160F1A97BF08ED0516485B61063C3A27EC71E388CE45B8C27DE0201AF79C0E8
311
C7A0317522D3E3D2490704C296A955B55A97755DD69B7DBDB95BA773F32645662A79F0DE2E7C9386053F147A9ECA542545BE56720C66E1E4B730F597467E304E8AC4543252489E2C15F435A40A18066B3450B24E784D48652221F452CC642545F6E097138FD8196772C92E0903F2E139C9C34006AFCE91FFB45EDE999D8B04
311
4EE3F5FA71AEF0F22EBC4C3FE8750EE494986BCBC9B9426E5C77819488698DA4D0E4ADA2BE01504B030414000608080091847057E86BFC08080100004F0300003400000035444633353335412D354539422D343246422D413637382D3632433132393536453644412F536368656D61732F636E782E786D6CCD933F4F042110
311
C5BFCA867E61B98B176358AEB0B0B2512B3B84B9931C301BFE18FDF6C24A7197D8697109053C7E99CC7B0C62FFE9DDF00131590C33E1742203048DC686E34C4A3E8CB764D84B1111F3194686A03CCCA4C9448A63C4B274C9C04115D75467C3A98BF7E83D8667FD0E5E91413B95D24CD27AA4AA6434904ED4A8AC28A7111296
311
A8A156C8D643AFA023A80C86C8CDB4D98E9C8F7CF7C27777DBBA6E5E056BA4146F88AEF3366488B80C1AEB26D47626C1DAB51425DACE340F449EF7466B1A8255428A9463CDA093F96BA9A45A1667B5CA352AB6823F8C14AC59BD30FC0001A2D5D7E9F8A2B97FB3FC04C1407CACAF14AD72D7E9FCB71EFF16005B67BF8E40FB
311
0AF21B504B030414000608080091847057410A3D5871000000A40000002C00000035444633353335412D354539422D343246422D413637382D3632433132393536453644412F636E782E786D6C55CC4D0E82301086E1AB34B31774E7A22D31F1069E60020334B633A63FC6E34B0909B07DDE2F9FEE7EC1AB2FC5E4840DDC9A
311
2B28E25E06C7938192C7CB1D54677514C9871928C640062A83D55394F2D968A0118BAFEA1DBF377CA444F98919176EAB9FEAAB9F2960DA5BBB1E2ED3FA6FFF504B030414000608080091847057025BD5727F000000A300000007000000636E782E786D6C4D8CD10E822018465F85FDF75462906E80C3D4F770898E89D0485A
311
8F1F342FBAFAB6B3EF1CDE7C368BDE3ABC8C77028AD30590760F3F19B70888FB8C2B408DE4C1FBFDEF06C88D9B16903148BE041F9F079AF43C469BA9356E3D20ED8692965461DAD72DBE92A1C58ADD2ACCC8BD2035653DEB5432CE5949F3EBA5CD79F905504B03041400060808009184705716E99B5DA60000003501000013
311
0000005B436F6E74656E745F54797065735D2E786D6C9590410E82301045AFD2740F4517C6180A0BF5065E60AC53688469D30E066F6F91AD9AB89CF9FFFD3F99BA9DC7413C3026E749CB4D59498164FCCD51A7E5C4B6D84BD136F5E5193089ECA5A465CF1C0E4A25D3E308A9F401292BD6C711388FB15301CC1D3A54DBAADA
311
29E38991B8E0254336F5092D4C038BF39CD76B6FC6A538AEBEA54A4B08617006389FA516557DE4AE8E7E70DE30729138228C5F021CD93F02D4FB0DCD0B504B0304140006080800918470573DEE336E64000000790000001B0000006175746F6465736B2D64657369676E2D7061636B6167652E786D6C35CBC10E83200C00D0
311
5F21DCA56CA76D41FC96062B120735B69A7DBE268BB7777961F8D5AF396893C2ADB70FE7ADA196782C2DF776D7A97B5933C430F15651E5469C55D70F80A4992A3ADC954792C525AE70A1E4D6AD9816CC044FEFDF01FE3FDE907802504B03041400060808009184705723CB59C7F90000009601000037000000354446333533
311
35412D354539422D343246422D413637382D3632433132393536453644412F4173736574446174612F636F72652E786D6C8550CB6EC32010FC156BEFD8C6D8691261A2A876BEA0A7DE10101725068B4794CF2FC4AED49E2A212D9A9D9DDD197A7ACEF7E2A19CD7D6F480CB1A0A658495DA4C3DC470457B284E8C3A6BC32F1A
311
1486CFAA870C03A393B371D920614D5026A3C64AB581DC7B15A010F7F4E9C18B2F35F392C79018FE562E5CDCF8A44A5CAE3C4663D4721BD532A9E9AB560E1826EDE53CB6EFA8DB371D6A2F6444877A78436418C801775DD38E2DADF230A341CF3FDB85533C2809ACA91B82304678F7817747925EF749ABCC64D407973C6F4B
311
B33B60E77CF5C003A7D5DAFDA31A17F9BF6AD4269066535D277CF2918E7C3518AD724AA9BC224C3527CABE01504B030414000608080091847057D808FA34F7000000940100003500000035444633353335412D354539422D343246422D413637382D3632433132393536453644412F536368656D61732F636F72652E786D6C
311
8550CB6EC32010FC156BEFD8C6D8691261A2AA767EA03DF58680B82831583CAA7E7EC176A5F6540969D1ECECECCED0CBD7FC283E95F3DA9A1E705943A18CB0529BA987186EE808C58551676DF84583C2F059F59061607472362E3B24AC09CA64D458A976907BAF0214E2913E3D78F1A1665EF21812C3DFCB858B3B9F5489CB
311
8DC7688C5AEEA35A26357DD3CA01C3A4BD3E8FED0BEA8E4D87DA2B19D1A91E9E10190672C25DD7B4634BAB3CCC68D0F3CF76E1140F4A026BEA86208C113EBCE1C399A4D7BDD32A3319F5C125CFFBD2EC0ED8EB7AA7A7D5D6FBA31917F9BF66D4269066D7DC267C72914E5C1B8C5639A354D60053CD79B26F504B0304140006
311
08080091847057A2E4D29701010000D70100002D00000035444633353335412D354539422D343246422D413637382D3632433132393536453644412F636F72652E786D6C9591D14EC32014865F859C7BDA41A56E86B2746E7B02AFBC4338AB642B34851A1F5F6A6BD43B4D48203FDF7FE03F47EEDFFB1B79C331BAE01B60C5
311
06087A13ACF35D0353BAD02D90BD926308E90706C4EB1E1B986550B21BC334AC92093EA19F551F2CAEA28E11131073CB8706A279C55E177A4A9988D762D0E6AA3B2C58B1704A26D77F59CD883AA105C537BCA28C51563FB1FAA1CA4B3CCB7226959C9C4F155F1FC3FE052D0943CA914009592EB7999A9C5D1967F31FDDC5E1
311
9889E3B9129568A938ED0EF48E9F0FB4ADEFB7B4E68F8CEF447DAA8F6D2E92CD4AC634E6CEAC45E61EFCD5BE187F259B06FBCF648B238262DFA1CAB9CD4A969F33C8FB3C12F501504B030414000608080091847057F802154E07010000B201000008000000636F72652E786D6C8D50CB6EC32010FC15C41DDB183B4D224C54
311
D5CE17F4D41B05E2A2D860F188DABF2F24546A6F959016CDCCEECC2E3D7DAE0BB829E7B53503C455038132C24A6DE601C670417B084E8C3A6BC32F190486AF6A8019868CCECEC6AD40C29AA04C468D95AA80DC7B1520104BFA0CD08B0FB5F28AC79014FE5A6D5C5CF9AC2A5C3D748C06BDFEB40AA7785012B2B66909C218E1
311
DD2BDE1D497AFD1BADB392D118B52C565A26777DD1CA418649777E9EBA17D4EFDB1E756732A143333E21328EE480FBBEEDA68ED6B999511F5CDAB90C493903F0FC967D69FDA0187DB7762982144A026B962FC81A5A67E24FE8B8C97F84D62690B60C7C74F8943905BA13C9385F3095FB7953CDD766DF504B01021400140006
311
08080091847057F7B8EBEEC0000000200100004F000000000000000000000000000000000035444633353335412D354539422D343246422D413637382D3632433132393536453644412F4173736574446174612F446566696E6974696F6E4974657261746F7250726F706572746965732E62696E504B010214001400060808
311
009184705711EDB320FE0000003002000045000000000000000000000000002D01000035444633353335412D354539422D343246422D413637382D3632433132393536453644412F4173736574446174612F496E7374616E636550726F706572746965732E62696E504B010214001400060808009184705728BB58AF800100
311
009E0500003D000000000000000000000000008E02000035444633353335412D354539422D343246422D413637382D3632433132393536453644412F536368656D61732F436F6D6D6F6E536368656D612E786D6C504B01021400140006080800918470572CCEBD668A040000E01200003E0000000000000000000000000069
311
04000035444633353335412D354539422D343246422D413637382D3632433132393536453644412F536368656D61732F47656E65726963536368656D612E786D6C504B01021400140006080800918470576180134D5F0100006B03000045000000000000000000000000004F09000035444633353335412D354539422D3432
311
46422D413637382D3632433132393536453644412F536368656D61732F52656E6465724D6174657269616C536368656D612E786D6C504B0102140014000608080091847057569A1E2F51000000570000004700000000000000000000000000110B000035444633353335412D354539422D343246422D413637382D36324331
311
32393536453644412F4173736574446174612F41737365745461626C654F66436F6E74656E74732E62696E504B0102140014000608080091847057F865834058000000680000004500000000000000000000000000C70B000035444633353335412D354539422D343246422D413637382D3632433132393536453644412F41
311
73736574446174612F53747265616D56657273696F6E5461626C652E696E66504B01021400140006080800918470570CC56589340100009A0400003600000000000000000000000000820C000035444633353335412D354539422D343246422D413637382D3632433132393536453644412F4173736574446174612F636E78
311
2E786D6C504B0102140014000608080091847057E86BFC08080100004F03000034000000000000000000000000000A0E000035444633353335412D354539422D343246422D413637382D3632433132393536453644412F536368656D61732F636E782E786D6C504B0102140014000608080091847057410A3D5871000000A4
311
0000002C00000000000000000000000000640F000035444633353335412D354539422D343246422D413637382D3632433132393536453644412F636E782E786D6C504B0102140014000608080091847057025BD5727F000000A300000007000000000000000000000000001F100000636E782E786D6C504B01021400140006
311
0808009184705716E99B5DA6000000350100001300000000000000000000000000C31000005B436F6E74656E745F54797065735D2E786D6C504B01021400140006080800918470573DEE336E64000000790000001B000000000000000000000000009A1100006175746F6465736B2D64657369676E2D7061636B6167652E78
311
6D6C504B010214001400060808009184705723CB59C7F90000009601000037000000000000000000000000003712000035444633353335412D354539422D343246422D413637382D3632433132393536453644412F4173736574446174612F636F72652E786D6C504B0102140014000608080091847057D808FA34F7000000
311
9401000035000000000000000000000000008513000035444633353335412D354539422D343246422D413637382D3632433132393536453644412F536368656D61732F636F72652E786D6C504B0102140014000608080091847057A2E4D29701010000D70100002D00000000000000000000000000CF140000354446333533
311
35412D354539422D343246422D413637382D3632433132393536453644412F636F72652E786D6C504B0102140014000608080091847057F802154E07010000B201000008000000000000000000000000001B160000636F72652E786D6C504B050600000000110011005A060000481700000000
310
504B030414000608080091847057000000000000000000000000370000006662782F34423431444434452D303139352D343346392D414538352D3232373044444244334333332F617474726962757465732E62696E504B030414000608080091847057000000000000000000000000350000006662782F3442343144443445
310
2D303139352D343346392D414538352D3232373044444244334333332F76657274696365732E62696E504B030414000608080091847057F270F1330600000004000000360000006662782F34423431444434452D303139352D343346392D414538352D3232373044444244334333332F747269616E676C65732E62696E6366
310
60600000504B03041400060808009184705751464CB48900000043010000360000006662782F34423431444434452D303139352D343346392D414538352D3232373044444244334333332F6469726563746F72792E786D6C9D8F310EC2300C45AF127987122606C71DD918B841D4B851A43646695A717C52A85029031293A5
310
A76FBF6FACEF7DA7264E43906840EF0FA03836E242F406C6DCEE4EA06AC22492573150D1F66C60C640E8938CB705396EEDD86DE9B5042FE27813D640EA63BB001C722AF6E55CB61E4863F58284D5D3F53DD715CE1C3985E63FD7F1B7EBDD617E9F1E504B030414000608080091847057FC315FC23C070000201C0000340000
310
006662782F34423431444434452D303139352D343346392D414538352D3232373044444244334333332F6F626A656374732E786D6CDD59596FDB3810FE2B84F665F74197255F85E322B19BC028D21635BAD837819669871B5DA0A4C4D95FBF438A944545B6951EC062132076287238F3CD3D9ABD3FC4117A222CA7697265B8
310
9663209284E99626FB2BA32C76E6C440EFE768C6D2B468EC335082637265F065633EDBB3B4CCE4D296EC7019B5576F6FFE4279481262A030C2797E65E4E10389B185CB22DD92FCD1DAE2025BFBDDC172AD6AA34E76CF70F6D0BA2AC38C2405B00AEB0950911CB8FABF20923D9FD97C83B6CDEBB76D70669B2D04D719A5495E
310
E0247CC555EBBAC109AE5AD779AEBFFC30184ECDA1EF7BA63F1AB8E6CDEDCDD274C79EB3182D16D3EB0F5303CD679B348D6A056424D982165F8CB93BB3F9935A7C894217DF619A24249468766DD812499792BC8D8906AC2B446B28A492B5B1E0F514FEC4B65EA0682C69682BE1D467D37AD3CDDF0042DEC74A594EB895E705
310
035D4BEC2B7F706676B5AAE985E628C60561144728A21B86192808B6560AD2C8706FE1A410C74C6851D16BF20A867DD997BAB8DC9551C4FDD7980B4F0BC01F49910BCEE83F841DB96FDE063C81B4254D8A8914B678C980C474668BC5EA9937900F2B20D12EC27BB01610936FF2062DBC163C16AC96C6FCE3EDE6B0E6F1A1FB
310
F28CA5196105B73CE1CCD2EF94061BA605C6D703940A575D774754BE02F49F00F99A173403CD317AF00FBE929DE124DFA52C06ED2007990EFC7110FFFAEADBCCAE0FCF11D262E5294CC16D7F12A69A18DADD0D48E7B32730FA947952B8758823B0E97B9A703F074341510A4B10EF779B83315F41308545388523901E7E6736
310
FF8AE0A3A203F1A6A5A1AEF0DB4351CA61DA7E76D4D51DD80CA361AD2A4DC653F80E7F0ABED7CBF5C775C9763824F7D2B1976447135A4032ED6648035D73F96FAB4FC223EFA27483A3E3696D5308D7EC531E373AD4B2966A41422FC0094FC39566C4CA3D056F8F229C90B4CCE57A579C0AD32865C1E625A85CB8F3AE3F950D
310
54974903E88C6590DC4346338E893197DAAA03A1D510142C0C336981FB4AABC1A68CB300C76999F050FBDA14DB7C409CE1960854053565D8CA6B15D92DDDEDCA1C825727C98506A4F46745B8B2701FE25817BF8CEC1886249A2601851C0CCED2798376410DDE799E7312ED021A45651CEC68047924887176827E4F099A99EB
310
91BC3CA76CDB4950B72CE593CA8638E012580592CA5655CC973A65E489F23253E433950DB41DB20E35E6FE8974C1334507A0CA188599DF2E7D7F391C0C4CE7C61999FE623232278E3734DDE578E98C6F5D77E22FDB7CAA68D5CC77A04A5EE668FE573C94F126C13482075C6CBCCDDEBD17D9F3CA86D0687BD7FEEDCD603036
310
47CE786AFAEE8725DC3D1A9BFEF476EC788BE5D0F73C9B913C2D5948727B603B8132C92CD99FE24A71F73A8642597339D9297DB585F91FC7D0764ED094F85F0DA275ECEA2808FB06517EB41D4271F8C853541042D5D7E93EAD20DAE6A32BCEBD312E3B96E7881FD79D0E9CE960321DD5C67E36508B7B7E38CE75491042DF59
310
16419AE19016DD09B5854BCF38FDA6DC6279EE10013AF5DFFA92F379465E12D018EF49B0C3BC4BE8088C9724E8CC61FB28CD739A905C7479AFAABF164DC782624ACFB91D4648F3202605FE1EFB136D43CBA621364701F4A3059F085CAC0A6A83961DC8298ABCFB85C42DE47F09721C6751D5E95EC2C01D2808548FD365719C
310
697EC513D85B808BC0D91231B8B844BD665FD5079D5A6B539F7E37F913F0A8BAE617C2A3AEE85F3A594377CA7F2610544643D71B2B455CC24A5D55F03E2E2AA1F30C5F826742F70FBD0ACD7E3A69946C55515D9018DA585C94AC97BF8E86CEAB8B645C683944E3A6371687A27F531D1CA0271AB853E56DE31AA843690273AE
310
5E82BC92A2D384852EC44C8F8FAEDEE0D76795DDA4FAC3F1F29757CC4DE78BC5F0E7320E502D570158461FADA6EEACBAB57A287FC6450881742D3ECD1BF0882DD91E1B338D5C5789AEEAD34BD5F38A07D41826B698C7D97BFE25FA8A41D5D03DE7F65D55B4D9D5FA8A27360B86D3473E34A6755A9FEFD62D2AB0D2FBF4178E
310
11796E5190AB0BDE0D9F21F56D75ECF95B14A444DF56678EFF273A0AA5C0C6180DA6C1791A5118CA932DDA9314B2378C1D7A741B2C26B9C8CA60BC3248A937023D4E3F5533D5026F22753A7CC030988E642F56863014858C7965C875F41B8C41F924520CA7AC4768C3640C3350C9E89501165B50E8B6AC0D8CB3C4F050506F
310
8D2BC1B171B2E7F9BE3A55FF7F3CC6D181A87494ABDED307172999E64C50D866E23D01547DD583F9ECFB4557EC205CC0D74D59D4C21C178ED24810D40B814A3898FA3D4A780F50509C97CBB5C41E0D925E93F9B3765051350BCCF662BCDEC0FB7AF9C5E693F1D5679445E59EABF35CF7AB513279D71D95D5146A068621C5CC
310
30AF2117EFEC2F2C85574C31BAA56004E8F7C364F487BD48E3384DAA25FB5ABEA842EB0778EDB4B5D5C80FDA78C71DDA620A20C7FAC106E7C4C2DBFC111640B58CF2D96805B1660075346D1880D208D7051CD3F6AF9648D6468D094933EC7278C44C1F8123F17739DC6D9A1B1A0348F005E04A3C3C7E510B339BC1107CFE2F
310
504B030414000608080091847057B5F57CDF3E01000046050000300000006662782F34423431444434452D303139352D343346392D414538352D3232373044444244334333332F636E782E786D6CCD94C14A033110865F65C97D37BB2D16916C0A1E7C020FE22D9B9DAEB1D9CC92CC8A7D7B939A56452A1E0A2DE410267FE0
310
FF667E46ACDF475BBC810F065DCB9AAA6605388DBD7143CB66DA94B7AC584BE111E99B8C154E8DD0B25466520C1EE729977AD8A8D9A6AA356E9B8B8AC89B6E2608ACD05685D0B2A05F6054959A097B08DBAA57A4AAA6F21070F61AE27F3223E4FFDA8322E8995CD48B65D93465B37A6C5677CB786E9E054F4A293A449BF5C6
310
11789C0A8DF1E2A2995AF0F42CC5EC4DD6240226BF9C559D7182C777294274EB86ACA3DD9474D3648D5614DBC45113501945A046C13FC552F0C4FB83FAE1FEE9E0A0E88D074DE877176A4073AA014763554CC2FFF8F7C2BFB1B17B8DB8979AF649D86CEB6CA887B48618D7DFF38F29526EB0D717FAA3B1F3673EAE1232FAFA
310
900FBECE44CCF72B2F0E3D6D40F901504B030414000608080091847057A89F7CAA7E000000A30000000B0000006662782F636E782E786D6C4D8CD10E822018465F85FDF714082EDD009761EFE1121D13A191B41E3F685E74F56D67DF39A2FB6C0EBD4D7CD9E025D0130164FC234CD62F12D23EE30650A7440C61FFBB01F2E3
310
6624140C4A2C31A4E78126338FC915EAAC5F0FC87B4EB5E60326B4AD3167F7165F87A6C65575215AF79ADD18CBC6B928797EBDBC25AFBE504B030414000608080091847057A6D797065F0000008200000007000000636E782E786D6C4DCB3B0E80201045D1AD90E9FD7516806B51190811670C8A61F982B1B0BAC9C97B72CA
310
7B1037C6D3332918DA1E04D2CAC69353902EDB8C20262D23F3F59B81A079470595414B17391D1F19B4730A5583A7ED43BBE4025D9592775E5ADFFA01504B0304140006080800918470574FEB6A7CA0000000F4000000130000005B436F6E74656E745F54797065735D2E786D6C7D8F4B0EC2300C44AF1279DFA6B0400835ED
310
02B8011730C16D239A8F121795DB93D02D6269CFBC19BBED573B8B17C564BC53B0AB1B10E4B47F18372A5878A88E20FAAEBDBD032591BD2E299898C349CAA427B2986A1FC86565F0D122E7318E32A07EE24872DF3407A9BD63725C71C980AEBDD080CBCCE2BAE6F5D69B7110E7CD57AA146008B3D1C8F92C5954F993BB1BF7
310
87F39A89ABC491D09600F9FDA2FB00504B0304140006080800918470573DEE336E64000000790000001B0000006175746F6465736B2D64657369676E2D7061636B6167652E786D6C35CBC10E83200C00D05F21DCA56CA76D41FC96062B120735B69A7DBE268BB7777961F8D5AF396893C2ADB70FE7ADA196782C2DF776D7A9
310
7B5933C430F15651E5469C55D70F80A4992A3ADC954792C525AE70A1E4D6AD9816CC044FEFDF01FE3FDE907802504B0304140006080800918470573828D98CF9000000960100003B0000006662782F34423431444434452D303139352D343346392D414538352D3232373044444244334333332F7265736F75726365732F63
310
6F72652E786D6C8550CB6E833010FC15B47703E6D5A4328E2849BFA0A7DE2CB3A156828DFCA8FAF9B50395DA53254B6BCDCECCEE0E3B7D2DF7EC13AD5346F740F31232D4D24C4ACF3D047F2507C84E9C5963FC2F1A645A2CD8438281B3D99AB0EE9034DAA34EA83613EEA0700E3D64F21E3F3D38F9818BC845F091E16EF92A
310
E44DCC98D37CE37116829A76A99AA29BBA2AB4C087A74BFB721E1A72783D76A439972D192EE34886E3B9A1E530D66533B0228939F36AF9992E2D0A8F13F0AAAC6A4229A1DD1BED9EEBF8DA7756242667CEDB78F33E345D07DCA233C14A74ACD8BA7F5CC33AFDEF1A94F675B5BB6E0A079CC6251F0DCE8A94522C8F08634D89
310
F26F504B030414000608080091847057BD99B0A5F2000000B1010000310000006662782F34423431444434452D303139352D343346392D414538352D3232373044444244334333332F636F72652E786D6C8D504B6EC32014BC8AF5F66063EC34A9305153A727E8AA3B04C44589C1E253F5F885D895DA5D24A487861966DEB0
310
E3F77CABBEB40FC6D901086EA0D2563A65EC34408A17B487EAC899772EFEA14165C5AC07283070367997960D92CE466D0B6A9DD21B2842D0112A79CB970182FCD4B3C022C5CC0857BC08791593C604AF3CCEA2997FA5D26B11B502DE362D458420B27B27BB679A4FFFC1EAC2E42C25A3362BA3B2BBB918ED8177A78E8C6377
310
460D39F4A8A36F07F472DEF7A86D9F9A713C8DF495525617316721FABCF3F649D9EE51F92AFC97392DEA81CCC646DA6E86AB22002739CFFD81B3BA1498C7BDDD3C4BD9FC07504B030414000608080091847057235179D254010000DD0200000C0000006662782F636F72652E786D6C8D52CB6E833010FC15E4BB01034993CA
310
38A249FA053DF5E68043AD808D8C8DF2F95DF350CAA16905C2D6ECCEECCE087AB8B74D3008D34BAD7244C218054295BA92AACE91B357BC43C18151A3B5FDD18602C55B91230F23466BA35D3743A55656288F2A5D8919E47D2F2C0ACA062E39EACB2FD1F2903B0B1DFD2DEC7879E3B5084938F531EA9CAC66AAAC404D5EA530
310
88152FE7CDDBA9C8F0EE7DBFC5D929DEE0E27C3CE2627FCA485C1CD3382B68E4C98C5AD92ED34B23B8151562499CA498104CB61F64FB9AC2BBF9A491EF64B4B7063CCF43BD3BC4AE973B8D267CA5E7BAEA6F3D27954D93596F62F48811586F2C301AF97CE018C35B670883213FCB2FCD62E106D0204AAB4D06954ABB4769E0
310
8D13201D07E343A3A90ACAA3C06F3AC9139DE71A10145735ACC62D5C2FCEFAE9EB9D3A61F060EF81D2A6E5CD63B969C5C7F731686569A197BAD1E63FECC5EA1266E47F4CF60D504B03041400060808009184705745B3A8CB09010000B201000008000000636F72652E786D6C8D50CB6EC32010FC15B4776CE357930813B976
310
FA053DF5460D71516CB00C8EDABF2FC4546A6F959016CDCCEECC2E3D7FCE13BACBD52AA31B20490648EAC108A5C7063677C5074067465763DC2F1920CD67D9408081D17135DB12A1C168277540B5113282DC5AE9000D93FF3460870F39F3846FCE2BEC2D59F870E3A34C48B2EB18756AFE691D56C99D14C0F22C2F302198D4
310
AFA43E15FE556F340D4A46B74D8968A584775757255760EDD3A57AEEDB121F5E8E352EFBACC2EDA5EB707BEC4B92B55D91952D4D4333A3D6AD7EE738C4E774C8F27BF0A5E94E31FA6ECC14053E9440464F5FC0329A06E24FE86D11FF08ADB42BF23870EFB0C0880FF420BC71B8A02F8FF3FA1AAECDBE01504B010214001400
310
06080800918470570000000000000000000000003700000000000000000000000000000000006662782F34423431444434452D303139352D343346392D414538352D3232373044444244334333332F617474726962757465732E62696E504B0102140014000608080091847057000000000000000000000000350000000000
310
0000000000000000550000006662782F34423431444434452D303139352D343346392D414538352D3232373044444244334333332F76657274696365732E62696E504B0102140014000608080091847057F270F13306000000040000003600000000000000000000000000A80000006662782F34423431444434452D303139
310
352D343346392D414538352D3232373044444244334333332F747269616E676C65732E62696E504B010214001400060808009184705751464CB489000000430100003600000000000000000000000000020100006662782F34423431444434452D303139352D343346392D414538352D3232373044444244334333332F6469
310
726563746F72792E786D6C504B0102140014000608080091847057FC315FC23C070000201C00003400000000000000000000000000DF0100006662782F34423431444434452D303139352D343346392D414538352D3232373044444244334333332F6F626A656374732E786D6C504B0102140014000608080091847057B5F5
310
7CDF3E0100004605000030000000000000000000000000006D0900006662782F34423431444434452D303139352D343346392D414538352D3232373044444244334333332F636E782E786D6C504B0102140014000608080091847057A89F7CAA7E000000A30000000B00000000000000000000000000F90A00006662782F63
310
6E782E786D6C504B0102140014000608080091847057A6D797065F000000820000000700000000000000000000000000A00B0000636E782E786D6C504B01021400140006080800918470574FEB6A7CA0000000F40000001300000000000000000000000000240C00005B436F6E74656E745F54797065735D2E786D6C504B01
310
021400140006080800918470573DEE336E64000000790000001B00000000000000000000000000F50C00006175746F6465736B2D64657369676E2D7061636B6167652E786D6C504B01021400140006080800918470573828D98CF9000000960100003B00000000000000000000000000920D00006662782F34423431444434
310
452D303139352D343346392D414538352D3232373044444244334333332F7265736F75726365732F636F72652E786D6C504B0102140014000608080091847057BD99B0A5F2000000B10100003100000000000000000000000000E40E00006662782F34423431444434452D303139352D343346392D414538352D3232373044
310
444244334333332F636F72652E786D6C504B0102140014000608080091847057235179D254010000DD0200000C00000000000000000000000000251000006662782F636F72652E786D6C504B010214001400060808009184705745B3A8CB09010000B20100000800000000000000000000000000A3110000636F72652E786D
310
6C504B0506000000000E000E0080040000D21200000000
  0
XRECORD
  5
80B8
102
{ACAD_REACTORS
330
80B3
102
}
330
80B3
100
AcDbXrecord
280
     1
270
     1
271
     1
  0
XRECORD
  5
80B7
102
{ACAD_REACTORS
330
80B3
102
}
330
80B3
100
AcDbXrecord
280
     1
270
     1
271
     1
  0
XRECORD
  5
80B9
102
{ACAD_REACTORS
330
80B3
102
}
330
80B3
100
AcDbXrecord
280
     1
270
     1
271
     1
  0
XRECORD
  5
80B6
102
{ACAD_REACTORS
330
80B3
102
}
330
80B3
100
AcDbXrecord
280
     1
270
     1
271
     1
  0
XRECORD
  5
82F7
102
{ACAD_REACTORS
330
82F6
102
}
330
82F6
100
AcDbXrecord
280
     1
102
DISPLAYNAME
  1
Imperial24
102
FLAGS
 90
        0
  0
CELLSTYLEMAP
  5
82BE
102
{ACAD_REACTORS
330
82BD
102
}
330
82BD
100
AcDbCellStyleMap
 90
        3
300
CELLSTYLE
  1
TABLEFORMAT_BEGIN
 90
        5
170
     1
 91
        0
 92
    32768
 62
   257
 93
        1
300
CONTENTFORMAT
  1
CONTENTFORMAT_BEGIN
 90
        0
 91
        0
 92
      512
 93
        0
300

 40
0.0
140
1.0
 94
        5
 62
     0
340
80E6
144
0.25
309
CONTENTFORMAT_END
171
     0
 94
        0
309
TABLEFORMAT_END
  1
CELLSTYLE_BEGIN
 90
        1
 91
        1
300
_TITLE
309
CELLSTYLE_END
300
CELLSTYLE
  1
TABLEFORMAT_BEGIN
 90
        5
170
     1
 91
        0
 92
        0
 62
   257
 93
        1
300
CONTENTFORMAT
  1
CONTENTFORMAT_BEGIN
 90
        0
 91
        0
 92
      512
 93
        0
300

 40
0.0
140
1.0
 94
        5
 62
     0
340
80E6
144
0.18
309
CONTENTFORMAT_END
171
     0
 94
        0
309
TABLEFORMAT_END
  1
CELLSTYLE_BEGIN
 90
        2
 91
        1
300
_HEADER
309
CELLSTYLE_END
300
CELLSTYLE
  1
TABLEFORMAT_BEGIN
 90
        5
170
     1
 91
        0
 92
        0
 62
   257
 93
        1
300
CONTENTFORMAT
  1
CONTENTFORMAT_BEGIN
 90
        0
 91
        0
 92
      512
 93
        0
300

 40
0.0
140
1.0
 94
        2
 62
     0
340
80E6
144
0.18
309
CONTENTFORMAT_END
171
     0
 94
        0
309
TABLEFORMAT_END
  1
CELLSTYLE_BEGIN
 90
        3
 91
        2
300
_DATA
309
CELLSTYLE_END
  0
XRECORD
  5
82F4
102
{ACAD_REACTORS
330
82BD
102
}
330
82BD
100
AcDbXrecord
280
     1
102
ACAD_ROUNDTRIP_PRE2007_TABLESTYLE
 90
      512
 91
        0
  1

 92
      512
 93
        0
  2

 94
      512
 95
        0
  3

  0
XRECORD
  5
82CF
102
{ACAD_REACTORS
330
82CE
102
}
330
82CE
100
AcDbXrecord
280
     1
102
RTVSPost2010Prop28
280
     1
102
RTVSPost2010PropOp28
 70
     1
102
RTVSPost2010Prop29
280
     1
102
RTVSPost2010PropOp29
 70
     1
102
RTVSPost2010Prop30
280
     0
102
RTVSPost2010PropOp30
 70
     1
102
RTVSPost2010Prop31
280
     0
102
RTVSPost2010PropOp31
 70
     1
102
RTVSPost2010Prop32
280
     0
102
RTVSPost2010PropOp32
 70
     1
102
RTVSPost2010Prop33
280
     0
102
RTVSPost2010PropOp33
 70
     1
102
RTVSPost2010Prop34
280
     0
102
RTVSPost2010PropOp34
 70
     1
102
RTVSPost2010Prop35
280
     0
102
RTVSPost2010PropOp35
 70
     1
102
RTVSPost2010Prop36
280
     0
102
RTVSPost2010PropOp36
 70
     1
102
RTVSPost2010Prop37
 90
       50
102
RTVSPost2010PropOp37
 70
     1
102
RTVSPost2010Prop38
140
0.0
102
RTVSPost2010PropOp38
 70
     1
102
RTVSPost2010Prop39
140
1.0
102
RTVSPost2010PropOp39
 70
     1
102
RTVSPost2010Prop40
 90
        0
102
RTVSPost2010PropOp40
 70
     1
102
RTVSPost2010Prop41ColorIndex
 90
       18
102
RTVSPost2010Prop41ColorRGB
 90
        0
102
RTVSPost2010PropOp41
 70
     1
102
RTVSPost2010Prop42
 90
       50
102
RTVSPost2010PropOp42
 70
     1
102
RTVSPost2010Prop43
 90
        3
102
RTVSPost2010PropOp43
 70
     1
102
RTVSPost2010Prop44ColorIndex
 90
        5
102
RTVSPost2010Prop44ColorRGB
 90
      255
102
RTVSPost2010PropOp44
 70
     1
102
RTVSPost2010Prop45
280
     0
102
RTVSPost2010PropOp45
 70
     1
102
RTVSPost2010Prop46
 90
       50
102
RTVSPost2010PropOp46
 70
     1
102
RTVSPost2010Prop47
 90
       50
102
RTVSPost2010PropOp47
 70
     1
102
RTVSPost2010Prop48
 90
       50
102
RTVSPost2010PropOp48
 70
     1
102
RTVSPost2010Prop49
280
     0
102
RTVSPost2010PropOp49
 70
     1
102
RTVSPost2010Prop50
 90
       50
102
RTVSPost2010PropOp50
 70
     1
102
RTVSPost2010Prop51ColorIndex
 90
      256
102
RTVSPost2010Prop51ColorRGB
 90
-16777216
102
RTVSPost2010PropOp51
 70
     0
102
RTVSPost2010Prop52
140
1.0
102
RTVSPost2010PropOp52
 70
     0
102
RTVSPost2010Prop53
 90
        2
102
RTVSPost2010PropOp53
 70
     1
102
RTVSPost2010Prop54
  1
strokes_ogs.tif
102
RTVSPost2010PropOp54
 70
     1
102
RTVSPost2010Prop55
280
     0
102
RTVSPost2010PropOp55
 70
     1
102
RTVSPost2010Prop56
140
1.0
102
RTVSPost2010PropOp56
 70
     1
102
RTVSPost2010Prop57
140
1.0
102
RTVSPost2010PropOp57
 70
     1
102
RTVSPropertyOp0
 70
     1
102
RTVSPropertyOp1
 70
     1
102
RTVSPropertyOp2
 70
     1
102
RTVSPropertyOp3
 70
     1
102
RTVSPropertyOp4
 70
     1
102
RTVSPropertyOp5
 70
     1
102
RTVSPropertyOp6
 70
     1
102
RTVSPropertyOp7
 70
     1
102
RTVSPropertyOp8
 70
     1
102
RTVSPropertyOp9
 70
     1
102
RTVSPropertyOp10
 70
     1
102
RTVSPropertyOp11
 70
     1
102
RTVSPropertyOp12
 70
     1
102
RTVSPropertyOp13
 70
     1
102
RTVSPropertyOp14
 70
     1
102
RTVSPropertyOp15
 70
     1
102
RTVSPropertyOp16
 70
     1
102
RTVSPropertyOp17
 70
     1
102
RTVSPropertyOp18
 70
     1
102
RTVSPropertyOp19
 70
     1
102
RTVSPropertyOp20
 70
     1
102
RTVSPropertyOp21
 70
     1
102
RTVSPropertyOp22
 70
     1
102
RTVSPropertyOp23
 70
     1
102
RTVSPropertyOp24
 70
     1
102
RTVSPropertyOp25
 70
     1
102
RTVSPropertyOp26
 70
     1
102
RTVSPropertyOp27
 70
     1
102
RTVSPropertyOp28
 70
     1
102
RTVSPropertyOp29
 70
     1
102
RTVSPropertyOp30
 70
     1
102
RTVSPropertyOp31
 70
     1
102
RTVSPropertyOp32
 70
     1
102
RTVSPropertyOp33
 70
     1
102
RTVSPropertyOp34
 70
     1
102
RTVSPropertyOp35
 70
     1
102
RTVSPropertyOp36
 70
     1
102
RTVSPropertyOp37
 70
     1
102
RTVSPropertyOp38
 70
     1
102
RTVSPropertyOp39
 70
     1
102
RTVSPropertyOp40
 70
     1
102
RTVSPropertyOp41
 70
     1
102
RTVSPropertyOp42
 70
     1
102
RTVSPropertyOp43
 70
     1
102
RTVSPropertyOp44
 70
     1
102
RTVSPropertyOp45
 70
     1
102
RTVSPropertyOp46
 70
     1
102
RTVSPropertyOp47
 70
     1
102
RTVSPropertyOp48
 70
     1
102
RTVSPropertyOp49
 70
     1
102
RTVSPropertyOp50
 70
     1
102
RTVSPropertyOp51
 70
     0
102
RTVSPropertyOp52
 70
     0
102
RTVSPropertyOp53
 70
     1
102
RTVSPropertyOp54
 70
     1
102
RTVSPropertyOp55
 70
     1
102
RTVSPropertyOp56
 70
     1
102
RTVSPropertyOp57
 70
     1
102
RTVSPropertyOp58
 70
     1
102
RTVSPropertyOp59
 70
     1
102
RTVSPropertyOp60
 70
     1
102
RTVSPropertyOp61
 70
     1
102
RTVSPropertyOp62
 70
     1
  0
XRECORD
  5
82CD
102
{ACAD_REACTORS
330
82CC
102
}
330
82CC
100
AcDbXrecord
280
     1
102
RTVSPost2010Prop28
280
     0
102
RTVSPost2010PropOp28
 70
     1
102
RTVSPost2010Prop29
280
     1
102
RTVSPost2010PropOp29
 70
     1
102
RTVSPost2010Prop30
280
     1
102
RTVSPost2010PropOp30
 70
     1
102
RTVSPost2010Prop31
280
     0
102
RTVSPost2010PropOp31
 70
     1
102
RTVSPost2010Prop32
280
     0
102
RTVSPost2010PropOp32
 70
     1
102
RTVSPost2010Prop33
280
     0
102
RTVSPost2010PropOp33
 70
     1
102
RTVSPost2010Prop34
280
     0
102
RTVSPost2010PropOp34
 70
     1
102
RTVSPost2010Prop35
280
     0
102
RTVSPost2010PropOp35
 70
     1
102
RTVSPost2010Prop36
280
     0
102
RTVSPost2010PropOp36
 70
     1
102
RTVSPost2010Prop37
 90
       50
102
RTVSPost2010PropOp37
 70
     1
102
RTVSPost2010Prop38
140
0.0
102
RTVSPost2010PropOp38
 70
     1
102
RTVSPost2010Prop39
140
1.0
102
RTVSPost2010PropOp39
 70
     1
102
RTVSPost2010Prop40
 90
        0
102
RTVSPost2010PropOp40
 70
     1
102
RTVSPost2010Prop41ColorIndex
 90
       18
102
RTVSPost2010Prop41ColorRGB
 90
        0
102
RTVSPost2010PropOp41
 70
     1
102
RTVSPost2010Prop42
 90
       50
102
RTVSPost2010PropOp42
 70
     1
102
RTVSPost2010Prop43
 90
        3
102
RTVSPost2010PropOp43
 70
     1
102
RTVSPost2010Prop44ColorIndex
 90
        5
102
RTVSPost2010Prop44ColorRGB
 90
      255
102
RTVSPost2010PropOp44
 70
     1
102
RTVSPost2010Prop45
280
     0
102
RTVSPost2010PropOp45
 70
     1
102
RTVSPost2010Prop46
 90
       50
102
RTVSPost2010PropOp46
 70
     1
102
RTVSPost2010Prop47
 90
       50
102
RTVSPost2010PropOp47
 70
     1
102
RTVSPost2010Prop48
 90
       50
102
RTVSPost2010PropOp48
 70
     1
102
RTVSPost2010Prop49
280
     0
102
RTVSPost2010PropOp49
 70
     1
102
RTVSPost2010Prop50
 90
       50
102
RTVSPost2010PropOp50
 70
     1
102
RTVSPost2010Prop51ColorIndex
 90
      256
102
RTVSPost2010Prop51ColorRGB
 90
-16777216
102
RTVSPost2010PropOp51
 70
     0
102
RTVSPost2010Prop52
140
1.0
102
RTVSPost2010PropOp52
 70
     0
102
RTVSPost2010Prop53
 90
        2
102
RTVSPost2010PropOp53
 70
     1
102
RTVSPost2010Prop54
  1
strokes_ogs.tif
102
RTVSPost2010PropOp54
 70
     1
102
RTVSPost2010Prop55
280
     0
102
RTVSPost2010PropOp55
 70
     1
102
RTVSPost2010Prop56
140
1.0
102
RTVSPost2010PropOp56
 70
     1
102
RTVSPost2010Prop57
140
1.0
102
RTVSPost2010PropOp57
 70
     1
102
RTVSPropertyOp0
 70
     1
102
RTVSPropertyOp1
 70
     1
102
RTVSPropertyOp2
 70
     1
102
RTVSPropertyOp3
 70
     1
102
RTVSPropertyOp4
 70
     1
102
RTVSPropertyOp5
 70
     1
102
RTVSPropertyOp6
 70
     1
102
RTVSPropertyOp7
 70
     1
102
RTVSPropertyOp8
 70
     1
102
RTVSPropertyOp9
 70
     1
102
RTVSPropertyOp10
 70
     1
102
RTVSPropertyOp11
 70
     1
102
RTVSPropertyOp12
 70
     1
102
RTVSPropertyOp13
 70
     1
102
RTVSPropertyOp14
 70
     1
102
RTVSPropertyOp15
 70
     1
102
RTVSPropertyOp16
 70
     1
102
RTVSPropertyOp17
 70
     1
102
RTVSPropertyOp18
 70
     1
102
RTVSPropertyOp19
 70
     1
102
RTVSPropertyOp20
 70
     1
102
RTVSPropertyOp21
 70
     1
102
RTVSPropertyOp22
 70
     1
102
RTVSPropertyOp23
 70
     1
102
RTVSPropertyOp24
 70
     1
102
RTVSPropertyOp25
 70
     1
102
RTVSPropertyOp26
 70
     1
102
RTVSPropertyOp27
 70
     1
102
RTVSPropertyOp28
 70
     1
102
RTVSPropertyOp29
 70
     1
102
RTVSPropertyOp30
 70
     1
102
RTVSPropertyOp31
 70
     1
102
RTVSPropertyOp32
 70
     1
102
RTVSPropertyOp33
 70
     1
102
RTVSPropertyOp34
 70
     1
102
RTVSPropertyOp35
 70
     1
102
RTVSPropertyOp36
 70
     1
102
RTVSPropertyOp37
 70
     1
102
RTVSPropertyOp38
 70
     1
102
RTVSPropertyOp39
 70
     1
102
RTVSPropertyOp40
 70
     1
102
RTVSPropertyOp41
 70
     1
102
RTVSPropertyOp42
 70
     1
102
RTVSPropertyOp43
 70
     1
102
RTVSPropertyOp44
 70
     1
102
RTVSPropertyOp45
 70
     1
102
RTVSPropertyOp46
 70
     1
102
RTVSPropertyOp47
 70
     1
102
RTVSPropertyOp48
 70
     1
102
RTVSPropertyOp49
 70
     1
102
RTVSPropertyOp50
 70
     1
102
RTVSPropertyOp51
 70
     0
102
RTVSPropertyOp52
 70
     0
102
RTVSPropertyOp53
 70
     1
102
RTVSPropertyOp54
 70
     1
102
RTVSPropertyOp55
 70
     1
102
RTVSPropertyOp56
 70
     1
102
RTVSPropertyOp57
 70
     1
102
RTVSPropertyOp58
 70
     1
102
RTVSPropertyOp59
 70
     1
102
RTVSPropertyOp60
 70
     1
102
RTVSPropertyOp61
 70
     1
102
RTVSPropertyOp62
 70
     1
  0
XRECORD
  5
82DB
102
{ACAD_REACTORS
330
82DA
102
}
330
82DA
100
AcDbXrecord
280
     1
102
RTVSPost2010Prop28
280
     0
102
RTVSPost2010PropOp28
 70
     1
102
RTVSPost2010Prop29
280
     1
102
RTVSPost2010PropOp29
 70
     1
102
RTVSPost2010Prop30
280
     1
102
RTVSPost2010PropOp30
 70
     1
102
RTVSPost2010Prop31
280
     0
102
RTVSPost2010PropOp31
 70
     1
102
RTVSPost2010Prop32
280
     0
102
RTVSPost2010PropOp32
 70
     1
102
RTVSPost2010Prop33
280
     0
102
RTVSPost2010PropOp33
 70
     1
102
RTVSPost2010Prop34
280
     0
102
RTVSPost2010PropOp34
 70
     1
102
RTVSPost2010Prop35
280
     0
102
RTVSPost2010PropOp35
 70
     1
102
RTVSPost2010Prop36
280
     0
102
RTVSPost2010PropOp36
 70
     1
102
RTVSPost2010Prop37
 90
       50
102
RTVSPost2010PropOp37
 70
     1
102
RTVSPost2010Prop38
140
0.0
102
RTVSPost2010PropOp38
 70
     1
102
RTVSPost2010Prop39
140
1.0
102
RTVSPost2010PropOp39
 70
     1
102
RTVSPost2010Prop40
 90
        0
102
RTVSPost2010PropOp40
 70
     1
102
RTVSPost2010Prop41ColorIndex
 90
       18
102
RTVSPost2010Prop41ColorRGB
 90
        0
102
RTVSPost2010PropOp41
 70
     1
102
RTVSPost2010Prop42
 90
       50
102
RTVSPost2010PropOp42
 70
     1
102
RTVSPost2010Prop43
 90
        3
102
RTVSPost2010PropOp43
 70
     1
102
RTVSPost2010Prop44ColorIndex
 90
        5
102
RTVSPost2010Prop44ColorRGB
 90
      255
102
RTVSPost2010PropOp44
 70
     1
102
RTVSPost2010Prop45
280
     0
102
RTVSPost2010PropOp45
 70
     1
102
RTVSPost2010Prop46
 90
       50
102
RTVSPost2010PropOp46
 70
     1
102
RTVSPost2010Prop47
 90
       50
102
RTVSPost2010PropOp47
 70
     1
102
RTVSPost2010Prop48
 90
       50
102
RTVSPost2010PropOp48
 70
     1
102
RTVSPost2010Prop49
280
     0
102
RTVSPost2010PropOp49
 70
     1
102
RTVSPost2010Prop50
 90
       50
102
RTVSPost2010PropOp50
 70
     1
102
RTVSPost2010Prop51ColorIndex
 90
      256
102
RTVSPost2010Prop51ColorRGB
 90
-16777216
102
RTVSPost2010PropOp51
 70
     0
102
RTVSPost2010Prop52
140
1.0
102
RTVSPost2010PropOp52
 70
     0
102
RTVSPost2010Prop53
 90
        2
102
RTVSPost2010PropOp53
 70
     1
102
RTVSPost2010Prop54
  1
strokes_ogs.tif
102
RTVSPost2010PropOp54
 70
     1
102
RTVSPost2010Prop55
280
     0
102
RTVSPost2010PropOp55
 70
     1
102
RTVSPost2010Prop56
140
1.0
102
RTVSPost2010PropOp56
 70
     1
102
RTVSPost2010Prop57
140
1.0
102
RTVSPost2010PropOp57
 70
     1
102
RTVSPropertyOp0
 70
     1
102
RTVSPropertyOp1
 70
     1
102
RTVSPropertyOp2
 70
     1
102
RTVSPropertyOp3
 70
     1
102
RTVSPropertyOp4
 70
     1
102
RTVSPropertyOp5
 70
     1
102
RTVSPropertyOp6
 70
     1
102
RTVSPropertyOp7
 70
     1
102
RTVSPropertyOp8
 70
     1
102
RTVSPropertyOp9
 70
     1
102
RTVSPropertyOp10
 70
     1
102
RTVSPropertyOp11
 70
     1
102
RTVSPropertyOp12
 70
     1
102
RTVSPropertyOp13
 70
     1
102
RTVSPropertyOp14
 70
     1
102
RTVSPropertyOp15
 70
     1
102
RTVSPropertyOp16
 70
     1
102
RTVSPropertyOp17
 70
     1
102
RTVSPropertyOp18
 70
     1
102
RTVSPropertyOp19
 70
     1
102
RTVSPropertyOp20
 70
     1
102
RTVSPropertyOp21
 70
     1
102
RTVSPropertyOp22
 70
     1
102
RTVSPropertyOp23
 70
     1
102
RTVSPropertyOp24
 70
     1
102
RTVSPropertyOp25
 70
     1
102
RTVSPropertyOp26
 70
     1
102
RTVSPropertyOp27
 70
     1
102
RTVSPropertyOp28
 70
     1
102
RTVSPropertyOp29
 70
     1
102
RTVSPropertyOp30
 70
     1
102
RTVSPropertyOp31
 70
     1
102
RTVSPropertyOp32
 70
     1
102
RTVSPropertyOp33
 70
     1
102
RTVSPropertyOp34
 70
     1
102
RTVSPropertyOp35
 70
     1
102
RTVSPropertyOp36
 70
     1
102
RTVSPropertyOp37
 70
     1
102
RTVSPropertyOp38
 70
     1
102
RTVSPropertyOp39
 70
     1
102
RTVSPropertyOp40
 70
     1
102
RTVSPropertyOp41
 70
     1
102
RTVSPropertyOp42
 70
     1
102
RTVSPropertyOp43
 70
     1
102
RTVSPropertyOp44
 70
     1
102
RTVSPropertyOp45
 70
     1
102
RTVSPropertyOp46
 70
     1
102
RTVSPropertyOp47
 70
     1
102
RTVSPropertyOp48
 70
     1
102
RTVSPropertyOp49
 70
     1
102
RTVSPropertyOp50
 70
     1
102
RTVSPropertyOp51
 70
     0
102
RTVSPropertyOp52
 70
     0
102
RTVSPropertyOp53
 70
     1
102
RTVSPropertyOp54
 70
     1
102
RTVSPropertyOp55
 70
     1
102
RTVSPropertyOp56
 70
     1
102
RTVSPropertyOp57
 70
     1
102
RTVSPropertyOp58
 70
     1
102
RTVSPropertyOp59
 70
     1
102
RTVSPropertyOp60
 70
     1
102
RTVSPropertyOp61
 70
     1
102
RTVSPropertyOp62
 70
     1
  0
XRECORD
  5
82E3
102
{ACAD_REACTORS
330
82E2
102
}
330
82E2
100
AcDbXrecord
280
     1
102
RTVSPost2010Prop28
280
     0
102
RTVSPost2010PropOp28
 70
     1
102
RTVSPost2010Prop29
280
     1
102
RTVSPost2010PropOp29
 70
     1
102
RTVSPost2010Prop30
280
     1
102
RTVSPost2010PropOp30
 70
     1
102
RTVSPost2010Prop31
280
     0
102
RTVSPost2010PropOp31
 70
     1
102
RTVSPost2010Prop32
280
     0
102
RTVSPost2010PropOp32
 70
     1
102
RTVSPost2010Prop33
280
     0
102
RTVSPost2010PropOp33
 70
     1
102
RTVSPost2010Prop34
280
     0
102
RTVSPost2010PropOp34
 70
     1
102
RTVSPost2010Prop35
280
     0
102
RTVSPost2010PropOp35
 70
     1
102
RTVSPost2010Prop36
280
     0
102
RTVSPost2010PropOp36
 70
     1
102
RTVSPost2010Prop37
 90
       50
102
RTVSPost2010PropOp37
 70
     1
102
RTVSPost2010Prop38
140
0.0
102
RTVSPost2010PropOp38
 70
     1
102
RTVSPost2010Prop39
140
1.0
102
RTVSPost2010PropOp39
 70
     1
102
RTVSPost2010Prop40
 90
        0
102
RTVSPost2010PropOp40
 70
     1
102
RTVSPost2010Prop41ColorIndex
 90
       18
102
RTVSPost2010Prop41ColorRGB
 90
        0
102
RTVSPost2010PropOp41
 70
     1
102
RTVSPost2010Prop42
 90
       50
102
RTVSPost2010PropOp42
 70
     1
102
RTVSPost2010Prop43
 90
        3
102
RTVSPost2010PropOp43
 70
     1
102
RTVSPost2010Prop44ColorIndex
 90
        5
102
RTVSPost2010Prop44ColorRGB
 90
      255
102
RTVSPost2010PropOp44
 70
     1
102
RTVSPost2010Prop45
280
     0
102
RTVSPost2010PropOp45
 70
     1
102
RTVSPost2010Prop46
 90
       50
102
RTVSPost2010PropOp46
 70
     1
102
RTVSPost2010Prop47
 90
       50
102
RTVSPost2010PropOp47
 70
     1
102
RTVSPost2010Prop48
 90
       50
102
RTVSPost2010PropOp48
 70
     1
102
RTVSPost2010Prop49
280
     0
102
RTVSPost2010PropOp49
 70
     1
102
RTVSPost2010Prop50
 90
       50
102
RTVSPost2010PropOp50
 70
     1
102
RTVSPost2010Prop51ColorIndex
 90
      256
102
RTVSPost2010Prop51ColorRGB
 90
-16777216
102
RTVSPost2010PropOp51
 70
     0
102
RTVSPost2010Prop52
140
1.0
102
RTVSPost2010PropOp52
 70
     0
102
RTVSPost2010Prop53
 90
        2
102
RTVSPost2010PropOp53
 70
     1
102
RTVSPost2010Prop54
  1
strokes_ogs.tif
102
RTVSPost2010PropOp54
 70
     1
102
RTVSPost2010Prop55
280
     0
102
RTVSPost2010PropOp55
 70
     1
102
RTVSPost2010Prop56
140
1.0
102
RTVSPost2010PropOp56
 70
     1
102
RTVSPost2010Prop57
140
1.0
102
RTVSPost2010PropOp57
 70
     1
102
RTVSPropertyOp0
 70
     1
102
RTVSPropertyOp1
 70
     1
102
RTVSPropertyOp2
 70
     1
102
RTVSPropertyOp3
 70
     1
102
RTVSPropertyOp4
 70
     1
102
RTVSPropertyOp5
 70
     1
102
RTVSPropertyOp6
 70
     1
102
RTVSPropertyOp7
 70
     1
102
RTVSPropertyOp8
 70
     1
102
RTVSPropertyOp9
 70
     1
102
RTVSPropertyOp10
 70
     1
102
RTVSPropertyOp11
 70
     1
102
RTVSPropertyOp12
 70
     1
102
RTVSPropertyOp13
 70
     1
102
RTVSPropertyOp14
 70
     1
102
RTVSPropertyOp15
 70
     1
102
RTVSPropertyOp16
 70
     1
102
RTVSPropertyOp17
 70
     1
102
RTVSPropertyOp18
 70
     1
102
RTVSPropertyOp19
 70
     1
102
RTVSPropertyOp20
 70
     1
102
RTVSPropertyOp21
 70
     1
102
RTVSPropertyOp22
 70
     1
102
RTVSPropertyOp23
 70
     1
102
RTVSPropertyOp24
 70
     1
102
RTVSPropertyOp25
 70
     1
102
RTVSPropertyOp26
 70
     1
102
RTVSPropertyOp27
 70
     1
102
RTVSPropertyOp28
 70
     1
102
RTVSPropertyOp29
 70
     1
102
RTVSPropertyOp30
 70
     1
102
RTVSPropertyOp31
 70
     1
102
RTVSPropertyOp32
 70
     1
102
RTVSPropertyOp33
 70
     1
102
RTVSPropertyOp34
 70
     1
102
RTVSPropertyOp35
 70
     1
102
RTVSPropertyOp36
 70
     1
102
RTVSPropertyOp37
 70
     1
102
RTVSPropertyOp38
 70
     1
102
RTVSPropertyOp39
 70
     1
102
RTVSPropertyOp40
 70
     1
102
RTVSPropertyOp41
 70
     1
102
RTVSPropertyOp42
 70
     1
102
RTVSPropertyOp43
 70
     1
102
RTVSPropertyOp44
 70
     1
102
RTVSPropertyOp45
 70
     1
102
RTVSPropertyOp46
 70
     1
102
RTVSPropertyOp47
 70
     1
102
RTVSPropertyOp48
 70
     1
102
RTVSPropertyOp49
 70
     1
102
RTVSPropertyOp50
 70
     1
102
RTVSPropertyOp51
 70
     0
102
RTVSPropertyOp52
 70
     0
102
RTVSPropertyOp53
 70
     1
102
RTVSPropertyOp54
 70
     1
102
RTVSPropertyOp55
 70
     1
102
RTVSPropertyOp56
 70
     1
102
RTVSPropertyOp57
 70
     1
102
RTVSPropertyOp58
 70
     1
102
RTVSPropertyOp59
 70
     1
102
RTVSPropertyOp60
 70
     1
102
RTVSPropertyOp61
 70
     1
102
RTVSPropertyOp62
 70
     1
  0
XRECORD
  5
82D5
102
{ACAD_REACTORS
330
82D4
102
}
330
82D4
100
AcDbXrecord
280
     1
102
RTVSPost2010Prop28
280
     0
102
RTVSPost2010PropOp28
 70
     1
102
RTVSPost2010Prop29
280
     1
102
RTVSPost2010PropOp29
 70
     1
102
RTVSPost2010Prop30
280
     1
102
RTVSPost2010PropOp30
 70
     1
102
RTVSPost2010Prop31
280
     0
102
RTVSPost2010PropOp31
 70
     1
102
RTVSPost2010Prop32
280
     0
102
RTVSPost2010PropOp32
 70
     1
102
RTVSPost2010Prop33
280
     0
102
RTVSPost2010PropOp33
 70
     1
102
RTVSPost2010Prop34
280
     0
102
RTVSPost2010PropOp34
 70
     1
102
RTVSPost2010Prop35
280
     0
102
RTVSPost2010PropOp35
 70
     1
102
RTVSPost2010Prop36
280
     0
102
RTVSPost2010PropOp36
 70
     1
102
RTVSPost2010Prop37
 90
       50
102
RTVSPost2010PropOp37
 70
     1
102
RTVSPost2010Prop38
140
0.0
102
RTVSPost2010PropOp38
 70
     1
102
RTVSPost2010Prop39
140
1.0
102
RTVSPost2010PropOp39
 70
     1
102
RTVSPost2010Prop40
 90
        0
102
RTVSPost2010PropOp40
 70
     1
102
RTVSPost2010Prop41ColorIndex
 90
       18
102
RTVSPost2010Prop41ColorRGB
 90
        0
102
RTVSPost2010PropOp41
 70
     1
102
RTVSPost2010Prop42
 90
       50
102
RTVSPost2010PropOp42
 70
     1
102
RTVSPost2010Prop43
 90
        3
102
RTVSPost2010PropOp43
 70
     1
102
RTVSPost2010Prop44ColorIndex
 90
        5
102
RTVSPost2010Prop44ColorRGB
 90
      255
102
RTVSPost2010PropOp44
 70
     1
102
RTVSPost2010Prop45
280
     0
102
RTVSPost2010PropOp45
 70
     1
102
RTVSPost2010Prop46
 90
       50
102
RTVSPost2010PropOp46
 70
     1
102
RTVSPost2010Prop47
 90
       50
102
RTVSPost2010PropOp47
 70
     1
102
RTVSPost2010Prop48
 90
       50
102
RTVSPost2010PropOp48
 70
     1
102
RTVSPost2010Prop49
280
     0
102
RTVSPost2010PropOp49
 70
     1
102
RTVSPost2010Prop50
 90
       50
102
RTVSPost2010PropOp50
 70
     1
102
RTVSPost2010Prop51ColorIndex
 90
      256
102
RTVSPost2010Prop51ColorRGB
 90
-16777216
102
RTVSPost2010PropOp51
 70
     0
102
RTVSPost2010Prop52
140
1.0
102
RTVSPost2010PropOp52
 70
     0
102
RTVSPost2010Prop53
 90
        2
102
RTVSPost2010PropOp53
 70
     1
102
RTVSPost2010Prop54
  1
strokes_ogs.tif
102
RTVSPost2010PropOp54
 70
     1
102
RTVSPost2010Prop55
280
     0
102
RTVSPost2010PropOp55
 70
     1
102
RTVSPost2010Prop56
140
1.0
102
RTVSPost2010PropOp56
 70
     1
102
RTVSPost2010Prop57
140
1.0
102
RTVSPost2010PropOp57
 70
     1
102
RTVSPropertyOp0
 70
     1
102
RTVSPropertyOp1
 70
     1
102
RTVSPropertyOp2
 70
     1
102
RTVSPropertyOp3
 70
     1
102
RTVSPropertyOp4
 70
     1
102
RTVSPropertyOp5
 70
     1
102
RTVSPropertyOp6
 70
     1
102
RTVSPropertyOp7
 70
     1
102
RTVSPropertyOp8
 70
     1
102
RTVSPropertyOp9
 70
     1
102
RTVSPropertyOp10
 70
     1
102
RTVSPropertyOp11
 70
     1
102
RTVSPropertyOp12
 70
     1
102
RTVSPropertyOp13
 70
     1
102
RTVSPropertyOp14
 70
     1
102
RTVSPropertyOp15
 70
     1
102
RTVSPropertyOp16
 70
     1
102
RTVSPropertyOp17
 70
     1
102
RTVSPropertyOp18
 70
     1
102
RTVSPropertyOp19
 70
     1
102
RTVSPropertyOp20
 70
     1
102
RTVSPropertyOp21
 70
     1
102
RTVSPropertyOp22
 70
     1
102
RTVSPropertyOp23
 70
     1
102
RTVSPropertyOp24
 70
     1
102
RTVSPropertyOp25
 70
     1
102
RTVSPropertyOp26
 70
     1
102
RTVSPropertyOp27
 70
     1
102
RTVSPropertyOp28
 70
     1
102
RTVSPropertyOp29
 70
     1
102
RTVSPropertyOp30
 70
     1
102
RTVSPropertyOp31
 70
     1
102
RTVSPropertyOp32
 70
     1
102
RTVSPropertyOp33
 70
     1
102
RTVSPropertyOp34
 70
     1
102
RTVSPropertyOp35
 70
     1
102
RTVSPropertyOp36
 70
     1
102
RTVSPropertyOp37
 70
     1
102
RTVSPropertyOp38
 70
     1
102
RTVSPropertyOp39
 70
     1
102
RTVSPropertyOp40
 70
     1
102
RTVSPropertyOp41
 70
     1
102
RTVSPropertyOp42
 70
     1
102
RTVSPropertyOp43
 70
     1
102
RTVSPropertyOp44
 70
     1
102
RTVSPropertyOp45
 70
     1
102
RTVSPropertyOp46
 70
     1
102
RTVSPropertyOp47
 70
     1
102
RTVSPropertyOp48
 70
     1
102
RTVSPropertyOp49
 70
     1
102
RTVSPropertyOp50
 70
     1
102
RTVSPropertyOp51
 70
     0
102
RTVSPropertyOp52
 70
     0
102
RTVSPropertyOp53
 70
     1
102
RTVSPropertyOp54
 70
     1
102
RTVSPropertyOp55
 70
     1
102
RTVSPropertyOp56
 70
     1
102
RTVSPropertyOp57
 70
     1
102
RTVSPropertyOp58
 70
     1
102
RTVSPropertyOp59
 70
     1
102
RTVSPropertyOp60
 70
     1
102
RTVSPropertyOp61
 70
     1
102
RTVSPropertyOp62
 70
     1
  0
XRECORD
  5
82D9
102
{ACAD_REACTORS
330
82D8
102
}
330
82D8
100
AcDbXrecord
280
     1
102
RTVSPost2010Prop28
280
     0
102
RTVSPost2010PropOp28
 70
     1
102
RTVSPost2010Prop29
280
     1
102
RTVSPost2010PropOp29
 70
     1
102
RTVSPost2010Prop30
280
     1
102
RTVSPost2010PropOp30
 70
     1
102
RTVSPost2010Prop31
280
     0
102
RTVSPost2010PropOp31
 70
     1
102
RTVSPost2010Prop32
280
     0
102
RTVSPost2010PropOp32
 70
     1
102
RTVSPost2010Prop33
280
     0
102
RTVSPost2010PropOp33
 70
     1
102
RTVSPost2010Prop34
280
     0
102
RTVSPost2010PropOp34
 70
     1
102
RTVSPost2010Prop35
280
     0
102
RTVSPost2010PropOp35
 70
     1
102
RTVSPost2010Prop36
280
     0
102
RTVSPost2010PropOp36
 70
     1
102
RTVSPost2010Prop37
 90
       50
102
RTVSPost2010PropOp37
 70
     1
102
RTVSPost2010Prop38
140
0.0
102
RTVSPost2010PropOp38
 70
     1
102
RTVSPost2010Prop39
140
1.0
102
RTVSPost2010PropOp39
 70
     1
102
RTVSPost2010Prop40
 90
        0
102
RTVSPost2010PropOp40
 70
     1
102
RTVSPost2010Prop41ColorIndex
 90
       18
102
RTVSPost2010Prop41ColorRGB
 90
        0
102
RTVSPost2010PropOp41
 70
     1
102
RTVSPost2010Prop42
 90
       50
102
RTVSPost2010PropOp42
 70
     1
102
RTVSPost2010Prop43
 90
        3
102
RTVSPost2010PropOp43
 70
     1
102
RTVSPost2010Prop44ColorIndex
 90
        5
102
RTVSPost2010Prop44ColorRGB
 90
      255
102
RTVSPost2010PropOp44
 70
     1
102
RTVSPost2010Prop45
280
     0
102
RTVSPost2010PropOp45
 70
     1
102
RTVSPost2010Prop46
 90
       50
102
RTVSPost2010PropOp46
 70
     1
102
RTVSPost2010Prop47
 90
       50
102
RTVSPost2010PropOp47
 70
     1
102
RTVSPost2010Prop48
 90
       50
102
RTVSPost2010PropOp48
 70
     1
102
RTVSPost2010Prop49
280
     0
102
RTVSPost2010PropOp49
 70
     1
102
RTVSPost2010Prop50
 90
       50
102
RTVSPost2010PropOp50
 70
     1
102
RTVSPost2010Prop51ColorIndex
 90
      256
102
RTVSPost2010Prop51ColorRGB
 90
-16777216
102
RTVSPost2010PropOp51
 70
     0
102
RTVSPost2010Prop52
140
1.0
102
RTVSPost2010PropOp52
 70
     0
102
RTVSPost2010Prop53
 90
        2
102
RTVSPost2010PropOp53
 70
     1
102
RTVSPost2010Prop54
  1
strokes_ogs.tif
102
RTVSPost2010PropOp54
 70
     1
102
RTVSPost2010Prop55
280
     0
102
RTVSPost2010PropOp55
 70
     1
102
RTVSPost2010Prop56
140
1.0
102
RTVSPost2010PropOp56
 70
     1
102
RTVSPost2010Prop57
140
1.0
102
RTVSPost2010PropOp57
 70
     1
102
RTVSPropertyOp0
 70
     1
102
RTVSPropertyOp1
 70
     1
102
RTVSPropertyOp2
 70
     1
102
RTVSPropertyOp3
 70
     1
102
RTVSPropertyOp4
 70
     1
102
RTVSPropertyOp5
 70
     1
102
RTVSPropertyOp6
 70
     1
102
RTVSPropertyOp7
 70
     1
102
RTVSPropertyOp8
 70
     1
102
RTVSPropertyOp9
 70
     1
102
RTVSPropertyOp10
 70
     1
102
RTVSPropertyOp11
 70
     1
102
RTVSPropertyOp12
 70
     1
102
RTVSPropertyOp13
 70
     1
102
RTVSPropertyOp14
 70
     1
102
RTVSPropertyOp15
 70
     1
102
RTVSPropertyOp16
 70
     1
102
RTVSPropertyOp17
 70
     1
102
RTVSPropertyOp18
 70
     1
102
RTVSPropertyOp19
 70
     1
102
RTVSPropertyOp20
 70
     1
102
RTVSPropertyOp21
 70
     1
102
RTVSPropertyOp22
 70
     1
102
RTVSPropertyOp23
 70
     1
102
RTVSPropertyOp24
 70
     1
102
RTVSPropertyOp25
 70
     1
102
RTVSPropertyOp26
 70
     1
102
RTVSPropertyOp27
 70
     1
102
RTVSPropertyOp28
 70
     1
102
RTVSPropertyOp29
 70
     1
102
RTVSPropertyOp30
 70
     1
102
RTVSPropertyOp31
 70
     1
102
RTVSPropertyOp32
 70
     1
102
RTVSPropertyOp33
 70
     1
102
RTVSPropertyOp34
 70
     1
102
RTVSPropertyOp35
 70
     1
102
RTVSPropertyOp36
 70
     1
102
RTVSPropertyOp37
 70
     1
102
RTVSPropertyOp38
 70
     1
102
RTVSPropertyOp39
 70
     1
102
RTVSPropertyOp40
 70
     1
102
RTVSPropertyOp41
 70
     1
102
RTVSPropertyOp42
 70
     1
102
RTVSPropertyOp43
 70
     1
102
RTVSPropertyOp44
 70
     1
102
RTVSPropertyOp45
 70
     1
102
RTVSPropertyOp46
 70
     1
102
RTVSPropertyOp47
 70
     1
102
RTVSPropertyOp48
 70
     1
102
RTVSPropertyOp49
 70
     1
102
RTVSPropertyOp50
 70
     1
102
RTVSPropertyOp51
 70
     0
102
RTVSPropertyOp52
 70
     0
102
RTVSPropertyOp53
 70
     1
102
RTVSPropertyOp54
 70
     1
102
RTVSPropertyOp55
 70
     1
102
RTVSPropertyOp56
 70
     1
102
RTVSPropertyOp57
 70
     1
102
RTVSPropertyOp58
 70
     1
102
RTVSPropertyOp59
 70
     1
102
RTVSPropertyOp60
 70
     1
102
RTVSPropertyOp61
 70
     1
102
RTVSPropertyOp62
 70
     1
  0
XRECORD
  5
82F3
102
{ACAD_REACTORS
330
82F2
102
}
330
82F2
100
AcDbXrecord
280
     1
102
RTVSPost2010Prop28
280
     0
102
RTVSPost2010PropOp28
 70
     1
102
RTVSPost2010Prop29
280
     1
102
RTVSPost2010PropOp29
 70
     1
102
RTVSPost2010Prop30
280
     1
102
RTVSPost2010PropOp30
 70
     1
102
RTVSPost2010Prop31
280
     0
102
RTVSPost2010PropOp31
 70
     1
102
RTVSPost2010Prop32
280
     0
102
RTVSPost2010PropOp32
 70
     1
102
RTVSPost2010Prop33
280
     0
102
RTVSPost2010PropOp33
 70
     1
102
RTVSPost2010Prop34
280
     0
102
RTVSPost2010PropOp34
 70
     1
102
RTVSPost2010Prop35
280
     0
102
RTVSPost2010PropOp35
 70
     1
102
RTVSPost2010Prop36
280
     0
102
RTVSPost2010PropOp36
 70
     1
102
RTVSPost2010Prop37
 90
       50
102
RTVSPost2010PropOp37
 70
     0
102
RTVSPost2010Prop38
140
0.0
102
RTVSPost2010PropOp38
 70
     0
102
RTVSPost2010Prop39
140
1.0
102
RTVSPost2010PropOp39
 70
     0
102
RTVSPost2010Prop40
 90
        0
102
RTVSPost2010PropOp40
 70
     0
102
RTVSPost2010Prop41ColorIndex
 90
       18
102
RTVSPost2010Prop41ColorRGB
 90
        0
102
RTVSPost2010PropOp41
 70
     0
102
RTVSPost2010Prop42
 90
       50
102
RTVSPost2010PropOp42
 70
     0
102
RTVSPost2010Prop43
 90
        3
102
RTVSPost2010PropOp43
 70
     0
102
RTVSPost2010Prop44ColorIndex
 90
        5
102
RTVSPost2010Prop44ColorRGB
 90
      255
102
RTVSPost2010PropOp44
 70
     0
102
RTVSPost2010Prop45
280
     0
102
RTVSPost2010PropOp45
 70
     1
102
RTVSPost2010Prop46
 90
       50
102
RTVSPost2010PropOp46
 70
     0
102
RTVSPost2010Prop47
 90
       50
102
RTVSPost2010PropOp47
 70
     0
102
RTVSPost2010Prop48
 90
       50
102
RTVSPost2010PropOp48
 70
     0
102
RTVSPost2010Prop49
280
     0
102
RTVSPost2010PropOp49
 70
     1
102
RTVSPost2010Prop50
 90
       50
102
RTVSPost2010PropOp50
 70
     0
102
RTVSPost2010Prop51ColorIndex
 90
      256
102
RTVSPost2010Prop51ColorRGB
 90
-16777216
102
RTVSPost2010PropOp51
 70
     0
102
RTVSPost2010Prop52
140
1.0
102
RTVSPost2010PropOp52
 70
     0
102
RTVSPost2010Prop53
 90
        2
102
RTVSPost2010PropOp53
 70
     0
102
RTVSPost2010Prop54
  1
strokes_ogs.tif
102
RTVSPost2010PropOp54
 70
     0
102
RTVSPost2010Prop55
280
     0
102
RTVSPost2010PropOp55
 70
     1
102
RTVSPost2010Prop56
140
1.0
102
RTVSPost2010PropOp56
 70
     0
102
RTVSPost2010Prop57
140
1.0
102
RTVSPost2010PropOp57
 70
     0
102
RTVSPropertyOp0
 70
     0
102
RTVSPropertyOp1
 70
     0
102
RTVSPropertyOp2
 70
     0
102
RTVSPropertyOp3
 70
     0
102
RTVSPropertyOp4
 70
     0
102
RTVSPropertyOp5
 70
     0
102
RTVSPropertyOp6
 70
     0
102
RTVSPropertyOp7
 70
     0
102
RTVSPropertyOp8
 70
     0
102
RTVSPropertyOp9
 70
     0
102
RTVSPropertyOp10
 70
     0
102
RTVSPropertyOp11
 70
     0
102
RTVSPropertyOp12
 70
     0
102
RTVSPropertyOp13
 70
     0
102
RTVSPropertyOp14
 70
     2
102
RTVSPropertyOp15
 70
     0
102
RTVSPropertyOp16
 70
     0
102
RTVSPropertyOp17
 70
     0
102
RTVSPropertyOp18
 70
     0
102
RTVSPropertyOp19
 70
     0
102
RTVSPropertyOp20
 70
     0
102
RTVSPropertyOp21
 70
     0
102
RTVSPropertyOp22
 70
     0
102
RTVSPropertyOp23
 70
     0
102
RTVSPropertyOp24
 70
     0
102
RTVSPropertyOp25
 70
     0
102
RTVSPropertyOp26
 70
     0
102
RTVSPropertyOp27
 70
     0
102
RTVSPropertyOp28
 70
     1
102
RTVSPropertyOp29
 70
     1
102
RTVSPropertyOp30
 70
     1
102
RTVSPropertyOp31
 70
     1
102
RTVSPropertyOp32
 70
     1
102
RTVSPropertyOp33
 70
     1
102
RTVSPropertyOp34
 70
     1
102
RTVSPropertyOp35
 70
     1
102
RTVSPropertyOp36
 70
     1
102
RTVSPropertyOp37
 70
     0
102
RTVSPropertyOp38
 70
     0
102
RTVSPropertyOp39
 70
     0
102
RTVSPropertyOp40
 70
     0
102
RTVSPropertyOp41
 70
     0
102
RTVSPropertyOp42
 70
     0
102
RTVSPropertyOp43
 70
     0
102
RTVSPropertyOp44
 70
     0
102
RTVSPropertyOp45
 70
     1
102
RTVSPropertyOp46
 70
     0
102
RTVSPropertyOp47
 70
     0
102
RTVSPropertyOp48
 70
     0
102
RTVSPropertyOp49
 70
     1
102
RTVSPropertyOp50
 70
     0
102
RTVSPropertyOp51
 70
     0
102
RTVSPropertyOp52
 70
     0
102
RTVSPropertyOp53
 70
     0
102
RTVSPropertyOp54
 70
     0
102
RTVSPropertyOp55
 70
     1
102
RTVSPropertyOp56
 70
     0
102
RTVSPropertyOp57
 70
     0
102
RTVSPropertyOp58
 70
     0
102
RTVSPropertyOp59
 70
     0
102
RTVSPropertyOp60
 70
     0
102
RTVSPropertyOp61
 70
     0
102
RTVSPropertyOp62
 70
     0
  0
XRECORD
  5
82E1
102
{ACAD_REACTORS
330
82E0
102
}
330
82E0
100
AcDbXrecord
280
     1
102
RTVSPost2010Prop28
280
     0
102
RTVSPost2010PropOp28
 70
     1
102
RTVSPost2010Prop29
280
     1
102
RTVSPost2010PropOp29
 70
     1
102
RTVSPost2010Prop30
280
     1
102
RTVSPost2010PropOp30
 70
     1
102
RTVSPost2010Prop31
280
     0
102
RTVSPost2010PropOp31
 70
     1
102
RTVSPost2010Prop32
280
     0
102
RTVSPost2010PropOp32
 70
     1
102
RTVSPost2010Prop33
280
     0
102
RTVSPost2010PropOp33
 70
     1
102
RTVSPost2010Prop34
280
     0
102
RTVSPost2010PropOp34
 70
     1
102
RTVSPost2010Prop35
280
     0
102
RTVSPost2010PropOp35
 70
     1
102
RTVSPost2010Prop36
280
     0
102
RTVSPost2010PropOp36
 70
     1
102
RTVSPost2010Prop37
 90
       50
102
RTVSPost2010PropOp37
 70
     1
102
RTVSPost2010Prop38
140
0.0
102
RTVSPost2010PropOp38
 70
     1
102
RTVSPost2010Prop39
140
1.0
102
RTVSPost2010PropOp39
 70
     1
102
RTVSPost2010Prop40
 90
        0
102
RTVSPost2010PropOp40
 70
     1
102
RTVSPost2010Prop41ColorIndex
 90
       18
102
RTVSPost2010Prop41ColorRGB
 90
        0
102
RTVSPost2010PropOp41
 70
     1
102
RTVSPost2010Prop42
 90
       50
102
RTVSPost2010PropOp42
 70
     1
102
RTVSPost2010Prop43
 90
        3
102
RTVSPost2010PropOp43
 70
     1
102
RTVSPost2010Prop44ColorIndex
 90
        5
102
RTVSPost2010Prop44ColorRGB
 90
      255
102
RTVSPost2010PropOp44
 70
     1
102
RTVSPost2010Prop45
280
     0
102
RTVSPost2010PropOp45
 70
     1
102
RTVSPost2010Prop46
 90
       50
102
RTVSPost2010PropOp46
 70
     1
102
RTVSPost2010Prop47
 90
       50
102
RTVSPost2010PropOp47
 70
     1
102
RTVSPost2010Prop48
 90
       50
102
RTVSPost2010PropOp48
 70
     1
102
RTVSPost2010Prop49
280
     0
102
RTVSPost2010PropOp49
 70
     1
102
RTVSPost2010Prop50
 90
       50
102
RTVSPost2010PropOp50
 70
     1
102
RTVSPost2010Prop51ColorIndex
 90
      256
102
RTVSPost2010Prop51ColorRGB
 90
-16777216
102
RTVSPost2010PropOp51
 70
     0
102
RTVSPost2010Prop52
140
1.0
102
RTVSPost2010PropOp52
 70
     0
102
RTVSPost2010Prop53
 90
        2
102
RTVSPost2010PropOp53
 70
     1
102
RTVSPost2010Prop54
  1
strokes_ogs.tif
102
RTVSPost2010PropOp54
 70
     1
102
RTVSPost2010Prop55
280
     0
102
RTVSPost2010PropOp55
 70
     1
102
RTVSPost2010Prop56
140
1.0
102
RTVSPost2010PropOp56
 70
     1
102
RTVSPost2010Prop57
140
1.0
102
RTVSPost2010PropOp57
 70
     1
102
RTVSPropertyOp0
 70
     1
102
RTVSPropertyOp1
 70
     1
102
RTVSPropertyOp2
 70
     1
102
RTVSPropertyOp3
 70
     1
102
RTVSPropertyOp4
 70
     1
102
RTVSPropertyOp5
 70
     1
102
RTVSPropertyOp6
 70
     1
102
RTVSPropertyOp7
 70
     1
102
RTVSPropertyOp8
 70
     1
102
RTVSPropertyOp9
 70
     1
102
RTVSPropertyOp10
 70
     1
102
RTVSPropertyOp11
 70
     1
102
RTVSPropertyOp12
 70
     1
102
RTVSPropertyOp13
 70
     1
102
RTVSPropertyOp14
 70
     1
102
RTVSPropertyOp15
 70
     1
102
RTVSPropertyOp16
 70
     1
102
RTVSPropertyOp17
 70
     1
102
RTVSPropertyOp18
 70
     1
102
RTVSPropertyOp19
 70
     1
102
RTVSPropertyOp20
 70
     1
102
RTVSPropertyOp21
 70
     1
102
RTVSPropertyOp22
 70
     1
102
RTVSPropertyOp23
 70
     1
102
RTVSPropertyOp24
 70
     1
102
RTVSPropertyOp25
 70
     1
102
RTVSPropertyOp26
 70
     1
102
RTVSPropertyOp27
 70
     1
102
RTVSPropertyOp28
 70
     1
102
RTVSPropertyOp29
 70
     1
102
RTVSPropertyOp30
 70
     1
102
RTVSPropertyOp31
 70
     1
102
RTVSPropertyOp32
 70
     1
102
RTVSPropertyOp33
 70
     1
102
RTVSPropertyOp34
 70
     1
102
RTVSPropertyOp35
 70
     1
102
RTVSPropertyOp36
 70
     1
102
RTVSPropertyOp37
 70
     1
102
RTVSPropertyOp38
 70
     1
102
RTVSPropertyOp39
 70
     1
102
RTVSPropertyOp40
 70
     1
102
RTVSPropertyOp41
 70
     1
102
RTVSPropertyOp42
 70
     1
102
RTVSPropertyOp43
 70
     1
102
RTVSPropertyOp44
 70
     1
102
RTVSPropertyOp45
 70
     1
102
RTVSPropertyOp46
 70
     1
102
RTVSPropertyOp47
 70
     1
102
RTVSPropertyOp48
 70
     1
102
RTVSPropertyOp49
 70
     1
102
RTVSPropertyOp50
 70
     1
102
RTVSPropertyOp51
 70
     0
102
RTVSPropertyOp52
 70
     0
102
RTVSPropertyOp53
 70
     1
102
RTVSPropertyOp54
 70
     1
102
RTVSPropertyOp55
 70
     1
102
RTVSPropertyOp56
 70
     1
102
RTVSPropertyOp57
 70
     1
102
RTVSPropertyOp58
 70
     1
102
RTVSPropertyOp59
 70
     1
102
RTVSPropertyOp60
 70
     1
102
RTVSPropertyOp61
 70
     1
102
RTVSPropertyOp62
 70
     1
  0
XRECORD
  5
82C5
102
{ACAD_REACTORS
330
82C4
102
}
330
82C4
100
AcDbXrecord
280
     1
102
RTVSPost2010Prop28
280
     0
102
RTVSPost2010PropOp28
 70
     1
102
RTVSPost2010Prop29
280
     1
102
RTVSPost2010PropOp29
 70
     1
102
RTVSPost2010Prop30
280
     1
102
RTVSPost2010PropOp30
 70
     1
102
RTVSPost2010Prop31
280
     0
102
RTVSPost2010PropOp31
 70
     1
102
RTVSPost2010Prop32
280
     0
102
RTVSPost2010PropOp32
 70
     1
102
RTVSPost2010Prop33
280
     0
102
RTVSPost2010PropOp33
 70
     1
102
RTVSPost2010Prop34
280
     0
102
RTVSPost2010PropOp34
 70
     1
102
RTVSPost2010Prop35
280
     0
102
RTVSPost2010PropOp35
 70
     1
102
RTVSPost2010Prop36
280
     0
102
RTVSPost2010PropOp36
 70
     1
102
RTVSPost2010Prop37
 90
       50
102
RTVSPost2010PropOp37
 70
     1
102
RTVSPost2010Prop38
140
0.0
102
RTVSPost2010PropOp38
 70
     1
102
RTVSPost2010Prop39
140
1.0
102
RTVSPost2010PropOp39
 70
     1
102
RTVSPost2010Prop40
 90
        0
102
RTVSPost2010PropOp40
 70
     1
102
RTVSPost2010Prop41ColorIndex
 90
       18
102
RTVSPost2010Prop41ColorRGB
 90
        0
102
RTVSPost2010PropOp41
 70
     1
102
RTVSPost2010Prop42
 90
       50
102
RTVSPost2010PropOp42
 70
     1
102
RTVSPost2010Prop43
 90
        3
102
RTVSPost2010PropOp43
 70
     1
102
RTVSPost2010Prop44ColorIndex
 90
        5
102
RTVSPost2010Prop44ColorRGB
 90
      255
102
RTVSPost2010PropOp44
 70
     1
102
RTVSPost2010Prop45
280
     0
102
RTVSPost2010PropOp45
 70
     1
102
RTVSPost2010Prop46
 90
       50
102
RTVSPost2010PropOp46
 70
     1
102
RTVSPost2010Prop47
 90
       50
102
RTVSPost2010PropOp47
 70
     1
102
RTVSPost2010Prop48
 90
       50
102
RTVSPost2010PropOp48
 70
     1
102
RTVSPost2010Prop49
280
     0
102
RTVSPost2010PropOp49
 70
     1
102
RTVSPost2010Prop50
 90
       50
102
RTVSPost2010PropOp50
 70
     1
102
RTVSPost2010Prop51ColorIndex
 90
      256
102
RTVSPost2010Prop51ColorRGB
 90
-16777216
102
RTVSPost2010PropOp51
 70
     0
102
RTVSPost2010Prop52
140
1.0
102
RTVSPost2010PropOp52
 70
     0
102
RTVSPost2010Prop53
 90
        2
102
RTVSPost2010PropOp53
 70
     1
102
RTVSPost2010Prop54
  1
strokes_ogs.tif
102
RTVSPost2010PropOp54
 70
     1
102
RTVSPost2010Prop55
280
     0
102
RTVSPost2010PropOp55
 70
     1
102
RTVSPost2010Prop56
140
1.0
102
RTVSPost2010PropOp56
 70
     1
102
RTVSPost2010Prop57
140
1.0
102
RTVSPost2010PropOp57
 70
     1
102
RTVSPropertyOp0
 70
     1
102
RTVSPropertyOp1
 70
     1
102
RTVSPropertyOp2
 70
     1
102
RTVSPropertyOp3
 70
     1
102
RTVSPropertyOp4
 70
     1
102
RTVSPropertyOp5
 70
     1
102
RTVSPropertyOp6
 70
     1
102
RTVSPropertyOp7
 70
     1
102
RTVSPropertyOp8
 70
     1
102
RTVSPropertyOp9
 70
     1
102
RTVSPropertyOp10
 70
     1
102
RTVSPropertyOp11
 70
     1
102
RTVSPropertyOp12
 70
     1
102
RTVSPropertyOp13
 70
     1
102
RTVSPropertyOp14
 70
     1
102
RTVSPropertyOp15
 70
     1
102
RTVSPropertyOp16
 70
     1
102
RTVSPropertyOp17
 70
     1
102
RTVSPropertyOp18
 70
     1
102
RTVSPropertyOp19
 70
     1
102
RTVSPropertyOp20
 70
     1
102
RTVSPropertyOp21
 70
     1
102
RTVSPropertyOp22
 70
     1
102
RTVSPropertyOp23
 70
     1
102
RTVSPropertyOp24
 70
     1
102
RTVSPropertyOp25
 70
     1
102
RTVSPropertyOp26
 70
     1
102
RTVSPropertyOp27
 70
     1
102
RTVSPropertyOp28
 70
     1
102
RTVSPropertyOp29
 70
     1
102
RTVSPropertyOp30
 70
     1
102
RTVSPropertyOp31
 70
     1
102
RTVSPropertyOp32
 70
     1
102
RTVSPropertyOp33
 70
     1
102
RTVSPropertyOp34
 70
     1
102
RTVSPropertyOp35
 70
     1
102
RTVSPropertyOp36
 70
     1
102
RTVSPropertyOp37
 70
     1
102
RTVSPropertyOp38
 70
     1
102
RTVSPropertyOp39
 70
     1
102
RTVSPropertyOp40
 70
     1
102
RTVSPropertyOp41
 70
     1
102
RTVSPropertyOp42
 70
     1
102
RTVSPropertyOp43
 70
     1
102
RTVSPropertyOp44
 70
     1
102
RTVSPropertyOp45
 70
     1
102
RTVSPropertyOp46
 70
     1
102
RTVSPropertyOp47
 70
     1
102
RTVSPropertyOp48
 70
     1
102
RTVSPropertyOp49
 70
     1
102
RTVSPropertyOp50
 70
     1
102
RTVSPropertyOp51
 70
     0
102
RTVSPropertyOp52
 70
     0
102
RTVSPropertyOp53
 70
     1
102
RTVSPropertyOp54
 70
     1
102
RTVSPropertyOp55
 70
     1
102
RTVSPropertyOp56
 70
     1
102
RTVSPropertyOp57
 70
     1
102
RTVSPropertyOp58
 70
     1
102
RTVSPropertyOp59
 70
     1
102
RTVSPropertyOp60
 70
     1
102
RTVSPropertyOp61
 70
     1
102
RTVSPropertyOp62
 70
     1
  0
XRECORD
  5
82C7
102
{ACAD_REACTORS
330
82C6
102
}
330
82C6
100
AcDbXrecord
280
     1
102
RTVSPost2010Prop28
280
     0
102
RTVSPost2010PropOp28
 70
     1
102
RTVSPost2010Prop29
280
     1
102
RTVSPost2010PropOp29
 70
     1
102
RTVSPost2010Prop30
280
     1
102
RTVSPost2010PropOp30
 70
     1
102
RTVSPost2010Prop31
280
     0
102
RTVSPost2010PropOp31
 70
     1
102
RTVSPost2010Prop32
280
     0
102
RTVSPost2010PropOp32
 70
     1
102
RTVSPost2010Prop33
280
     0
102
RTVSPost2010PropOp33
 70
     1
102
RTVSPost2010Prop34
280
     0
102
RTVSPost2010PropOp34
 70
     1
102
RTVSPost2010Prop35
280
     0
102
RTVSPost2010PropOp35
 70
     1
102
RTVSPost2010Prop36
280
     0
102
RTVSPost2010PropOp36
 70
     1
102
RTVSPost2010Prop37
 90
       50
102
RTVSPost2010PropOp37
 70
     1
102
RTVSPost2010Prop38
140
0.0
102
RTVSPost2010PropOp38
 70
     1
102
RTVSPost2010Prop39
140
1.0
102
RTVSPost2010PropOp39
 70
     1
102
RTVSPost2010Prop40
 90
        0
102
RTVSPost2010PropOp40
 70
     1
102
RTVSPost2010Prop41ColorIndex
 90
       18
102
RTVSPost2010Prop41ColorRGB
 90
        0
102
RTVSPost2010PropOp41
 70
     1
102
RTVSPost2010Prop42
 90
       50
102
RTVSPost2010PropOp42
 70
     1
102
RTVSPost2010Prop43
 90
        3
102
RTVSPost2010PropOp43
 70
     1
102
RTVSPost2010Prop44ColorIndex
 90
        5
102
RTVSPost2010Prop44ColorRGB
 90
      255
102
RTVSPost2010PropOp44
 70
     1
102
RTVSPost2010Prop45
280
     0
102
RTVSPost2010PropOp45
 70
     1
102
RTVSPost2010Prop46
 90
       50
102
RTVSPost2010PropOp46
 70
     1
102
RTVSPost2010Prop47
 90
       50
102
RTVSPost2010PropOp47
 70
     1
102
RTVSPost2010Prop48
 90
       50
102
RTVSPost2010PropOp48
 70
     1
102
RTVSPost2010Prop49
280
     0
102
RTVSPost2010PropOp49
 70
     1
102
RTVSPost2010Prop50
 90
       50
102
RTVSPost2010PropOp50
 70
     1
102
RTVSPost2010Prop51ColorIndex
 90
      256
102
RTVSPost2010Prop51ColorRGB
 90
-16777216
102
RTVSPost2010PropOp51
 70
     0
102
RTVSPost2010Prop52
140
1.0
102
RTVSPost2010PropOp52
 70
     0
102
RTVSPost2010Prop53
 90
        2
102
RTVSPost2010PropOp53
 70
     1
102
RTVSPost2010Prop54
  1
strokes_ogs.tif
102
RTVSPost2010PropOp54
 70
     1
102
RTVSPost2010Prop55
280
     0
102
RTVSPost2010PropOp55
 70
     1
102
RTVSPost2010Prop56
140
1.0
102
RTVSPost2010PropOp56
 70
     1
102
RTVSPost2010Prop57
140
1.0
102
RTVSPost2010PropOp57
 70
     1
102
RTVSPropertyOp0
 70
     1
102
RTVSPropertyOp1
 70
     1
102
RTVSPropertyOp2
 70
     1
102
RTVSPropertyOp3
 70
     1
102
RTVSPropertyOp4
 70
     1
102
RTVSPropertyOp5
 70
     1
102
RTVSPropertyOp6
 70
     1
102
RTVSPropertyOp7
 70
     1
102
RTVSPropertyOp8
 70
     1
102
RTVSPropertyOp9
 70
     1
102
RTVSPropertyOp10
 70
     1
102
RTVSPropertyOp11
 70
     1
102
RTVSPropertyOp12
 70
     1
102
RTVSPropertyOp13
 70
     1
102
RTVSPropertyOp14
 70
     1
102
RTVSPropertyOp15
 70
     1
102
RTVSPropertyOp16
 70
     1
102
RTVSPropertyOp17
 70
     1
102
RTVSPropertyOp18
 70
     1
102
RTVSPropertyOp19
 70
     1
102
RTVSPropertyOp20
 70
     1
102
RTVSPropertyOp21
 70
     1
102
RTVSPropertyOp22
 70
     1
102
RTVSPropertyOp23
 70
     1
102
RTVSPropertyOp24
 70
     1
102
RTVSPropertyOp25
 70
     1
102
RTVSPropertyOp26
 70
     1
102
RTVSPropertyOp27
 70
     1
102
RTVSPropertyOp28
 70
     1
102
RTVSPropertyOp29
 70
     1
102
RTVSPropertyOp30
 70
     1
102
RTVSPropertyOp31
 70
     1
102
RTVSPropertyOp32
 70
     1
102
RTVSPropertyOp33
 70
     1
102
RTVSPropertyOp34
 70
     1
102
RTVSPropertyOp35
 70
     1
102
RTVSPropertyOp36
 70
     1
102
RTVSPropertyOp37
 70
     1
102
RTVSPropertyOp38
 70
     1
102
RTVSPropertyOp39
 70
     1
102
RTVSPropertyOp40
 70
     1
102
RTVSPropertyOp41
 70
     1
102
RTVSPropertyOp42
 70
     1
102
RTVSPropertyOp43
 70
     1
102
RTVSPropertyOp44
 70
     1
102
RTVSPropertyOp45
 70
     1
102
RTVSPropertyOp46
 70
     1
102
RTVSPropertyOp47
 70
     1
102
RTVSPropertyOp48
 70
     1
102
RTVSPropertyOp49
 70
     1
102
RTVSPropertyOp50
 70
     1
102
RTVSPropertyOp51
 70
     0
102
RTVSPropertyOp52
 70
     0
102
RTVSPropertyOp53
 70
     1
102
RTVSPropertyOp54
 70
     1
102
RTVSPropertyOp55
 70
     1
102
RTVSPropertyOp56
 70
     1
102
RTVSPropertyOp57
 70
     1
102
RTVSPropertyOp58
 70
     1
102
RTVSPropertyOp59
 70
     1
102
RTVSPropertyOp60
 70
     1
102
RTVSPropertyOp61
 70
     1
102
RTVSPropertyOp62
 70
     1
  0
XRECORD
  5
82C9
102
{ACAD_REACTORS
330
82C8
102
}
330
82C8
100
AcDbXrecord
280
     1
102
RTVSPost2010Prop28
280
     0
102
RTVSPost2010PropOp28
 70
     1
102
RTVSPost2010Prop29
280
     1
102
RTVSPost2010PropOp29
 70
     1
102
RTVSPost2010Prop30
280
     1
102
RTVSPost2010PropOp30
 70
     1
102
RTVSPost2010Prop31
280
     0
102
RTVSPost2010PropOp31
 70
     1
102
RTVSPost2010Prop32
280
     0
102
RTVSPost2010PropOp32
 70
     1
102
RTVSPost2010Prop33
280
     0
102
RTVSPost2010PropOp33
 70
     1
102
RTVSPost2010Prop34
280
     0
102
RTVSPost2010PropOp34
 70
     1
102
RTVSPost2010Prop35
280
     0
102
RTVSPost2010PropOp35
 70
     1
102
RTVSPost2010Prop36
280
     0
102
RTVSPost2010PropOp36
 70
     1
102
RTVSPost2010Prop37
 90
       50
102
RTVSPost2010PropOp37
 70
     1
102
RTVSPost2010Prop38
140
0.0
102
RTVSPost2010PropOp38
 70
     1
102
RTVSPost2010Prop39
140
1.0
102
RTVSPost2010PropOp39
 70
     1
102
RTVSPost2010Prop40
 90
        0
102
RTVSPost2010PropOp40
 70
     1
102
RTVSPost2010Prop41ColorIndex
 90
       18
102
RTVSPost2010Prop41ColorRGB
 90
        0
102
RTVSPost2010PropOp41
 70
     1
102
RTVSPost2010Prop42
 90
       50
102
RTVSPost2010PropOp42
 70
     1
102
RTVSPost2010Prop43
 90
        3
102
RTVSPost2010PropOp43
 70
     1
102
RTVSPost2010Prop44ColorIndex
 90
        5
102
RTVSPost2010Prop44ColorRGB
 90
      255
102
RTVSPost2010PropOp44
 70
     1
102
RTVSPost2010Prop45
280
     0
102
RTVSPost2010PropOp45
 70
     1
102
RTVSPost2010Prop46
 90
       50
102
RTVSPost2010PropOp46
 70
     1
102
RTVSPost2010Prop47
 90
       50
102
RTVSPost2010PropOp47
 70
     1
102
RTVSPost2010Prop48
 90
       50
102
RTVSPost2010PropOp48
 70
     1
102
RTVSPost2010Prop49
280
     0
102
RTVSPost2010PropOp49
 70
     1
102
RTVSPost2010Prop50
 90
       50
102
RTVSPost2010PropOp50
 70
     1
102
RTVSPost2010Prop51ColorIndex
 90
      256
102
RTVSPost2010Prop51ColorRGB
 90
-16777216
102
RTVSPost2010PropOp51
 70
     0
102
RTVSPost2010Prop52
140
1.0
102
RTVSPost2010PropOp52
 70
     0
102
RTVSPost2010Prop53
 90
        2
102
RTVSPost2010PropOp53
 70
     1
102
RTVSPost2010Prop54
  1
strokes_ogs.tif
102
RTVSPost2010PropOp54
 70
     1
102
RTVSPost2010Prop55
280
     0
102
RTVSPost2010PropOp55
 70
     1
102
RTVSPost2010Prop56
140
1.0
102
RTVSPost2010PropOp56
 70
     1
102
RTVSPost2010Prop57
140
1.0
102
RTVSPost2010PropOp57
 70
     1
102
RTVSPropertyOp0
 70
     1
102
RTVSPropertyOp1
 70
     1
102
RTVSPropertyOp2
 70
     1
102
RTVSPropertyOp3
 70
     1
102
RTVSPropertyOp4
 70
     1
102
RTVSPropertyOp5
 70
     1
102
RTVSPropertyOp6
 70
     1
102
RTVSPropertyOp7
 70
     1
102
RTVSPropertyOp8
 70
     1
102
RTVSPropertyOp9
 70
     1
102
RTVSPropertyOp10
 70
     1
102
RTVSPropertyOp11
 70
     1
102
RTVSPropertyOp12
 70
     1
102
RTVSPropertyOp13
 70
     1
102
RTVSPropertyOp14
 70
     1
102
RTVSPropertyOp15
 70
     1
102
RTVSPropertyOp16
 70
     1
102
RTVSPropertyOp17
 70
     1
102
RTVSPropertyOp18
 70
     1
102
RTVSPropertyOp19
 70
     1
102
RTVSPropertyOp20
 70
     1
102
RTVSPropertyOp21
 70
     1
102
RTVSPropertyOp22
 70
     1
102
RTVSPropertyOp23
 70
     1
102
RTVSPropertyOp24
 70
     1
102
RTVSPropertyOp25
 70
     1
102
RTVSPropertyOp26
 70
     1
102
RTVSPropertyOp27
 70
     1
102
RTVSPropertyOp28
 70
     1
102
RTVSPropertyOp29
 70
     1
102
RTVSPropertyOp30
 70
     1
102
RTVSPropertyOp31
 70
     1
102
RTVSPropertyOp32
 70
     1
102
RTVSPropertyOp33
 70
     1
102
RTVSPropertyOp34
 70
     1
102
RTVSPropertyOp35
 70
     1
102
RTVSPropertyOp36
 70
     1
102
RTVSPropertyOp37
 70
     1
102
RTVSPropertyOp38
 70
     1
102
RTVSPropertyOp39
 70
     1
102
RTVSPropertyOp40
 70
     1
102
RTVSPropertyOp41
 70
     1
102
RTVSPropertyOp42
 70
     1
102
RTVSPropertyOp43
 70
     1
102
RTVSPropertyOp44
 70
     1
102
RTVSPropertyOp45
 70
     1
102
RTVSPropertyOp46
 70
     1
102
RTVSPropertyOp47
 70
     1
102
RTVSPropertyOp48
 70
     1
102
RTVSPropertyOp49
 70
     1
102
RTVSPropertyOp50
 70
     1
102
RTVSPropertyOp51
 70
     0
102
RTVSPropertyOp52
 70
     0
102
RTVSPropertyOp53
 70
     1
102
RTVSPropertyOp54
 70
     1
102
RTVSPropertyOp55
 70
     1
102
RTVSPropertyOp56
 70
     1
102
RTVSPropertyOp57
 70
     1
102
RTVSPropertyOp58
 70
     1
102
RTVSPropertyOp59
 70
     1
102
RTVSPropertyOp60
 70
     1
102
RTVSPropertyOp61
 70
     1
102
RTVSPropertyOp62
 70
     1
  0
XRECORD
  5
82CB
102
{ACAD_REACTORS
330
82CA
102
}
330
82CA
100
AcDbXrecord
280
     1
102
RTVSPost2010Prop28
280
     0
102
RTVSPost2010PropOp28
 70
     1
102
RTVSPost2010Prop29
280
     1
102
RTVSPost2010PropOp29
 70
     1
102
RTVSPost2010Prop30
280
     1
102
RTVSPost2010PropOp30
 70
     1
102
RTVSPost2010Prop31
280
     0
102
RTVSPost2010PropOp31
 70
     1
102
RTVSPost2010Prop32
280
     0
102
RTVSPost2010PropOp32
 70
     1
102
RTVSPost2010Prop33
280
     0
102
RTVSPost2010PropOp33
 70
     1
102
RTVSPost2010Prop34
280
     0
102
RTVSPost2010PropOp34
 70
     1
102
RTVSPost2010Prop35
280
     0
102
RTVSPost2010PropOp35
 70
     1
102
RTVSPost2010Prop36
280
     0
102
RTVSPost2010PropOp36
 70
     1
102
RTVSPost2010Prop37
 90
       50
102
RTVSPost2010PropOp37
 70
     1
102
RTVSPost2010Prop38
140
0.0
102
RTVSPost2010PropOp38
 70
     1
102
RTVSPost2010Prop39
140
1.0
102
RTVSPost2010PropOp39
 70
     1
102
RTVSPost2010Prop40
 90
        0
102
RTVSPost2010PropOp40
 70
     1
102
RTVSPost2010Prop41ColorIndex
 90
       18
102
RTVSPost2010Prop41ColorRGB
 90
        0
102
RTVSPost2010PropOp41
 70
     1
102
RTVSPost2010Prop42
 90
       50
102
RTVSPost2010PropOp42
 70
     1
102
RTVSPost2010Prop43
 90
        3
102
RTVSPost2010PropOp43
 70
     1
102
RTVSPost2010Prop44ColorIndex
 90
        5
102
RTVSPost2010Prop44ColorRGB
 90
      255
102
RTVSPost2010PropOp44
 70
     1
102
RTVSPost2010Prop45
280
     0
102
RTVSPost2010PropOp45
 70
     1
102
RTVSPost2010Prop46
 90
       50
102
RTVSPost2010PropOp46
 70
     1
102
RTVSPost2010Prop47
 90
       50
102
RTVSPost2010PropOp47
 70
     1
102
RTVSPost2010Prop48
 90
       50
102
RTVSPost2010PropOp48
 70
     1
102
RTVSPost2010Prop49
280
     0
102
RTVSPost2010PropOp49
 70
     1
102
RTVSPost2010Prop50
 90
       50
102
RTVSPost2010PropOp50
 70
     1
102
RTVSPost2010Prop51ColorIndex
 90
      256
102
RTVSPost2010Prop51ColorRGB
 90
-16777216
102
RTVSPost2010PropOp51
 70
     0
102
RTVSPost2010Prop52
140
1.0
102
RTVSPost2010PropOp52
 70
     0
102
RTVSPost2010Prop53
 90
        2
102
RTVSPost2010PropOp53
 70
     1
102
RTVSPost2010Prop54
  1
strokes_ogs.tif
102
RTVSPost2010PropOp54
 70
     1
102
RTVSPost2010Prop55
280
     0
102
RTVSPost2010PropOp55
 70
     1
102
RTVSPost2010Prop56
140
1.0
102
RTVSPost2010PropOp56
 70
     1
102
RTVSPost2010Prop57
140
1.0
102
RTVSPost2010PropOp57
 70
     1
102
RTVSPropertyOp0
 70
     1
102
RTVSPropertyOp1
 70
     1
102
RTVSPropertyOp2
 70
     1
102
RTVSPropertyOp3
 70
     1
102
RTVSPropertyOp4
 70
     1
102
RTVSPropertyOp5
 70
     1
102
RTVSPropertyOp6
 70
     1
102
RTVSPropertyOp7
 70
     1
102
RTVSPropertyOp8
 70
     1
102
RTVSPropertyOp9
 70
     1
102
RTVSPropertyOp10
 70
     1
102
RTVSPropertyOp11
 70
     1
102
RTVSPropertyOp12
 70
     1
102
RTVSPropertyOp13
 70
     1
102
RTVSPropertyOp14
 70
     1
102
RTVSPropertyOp15
 70
     1
102
RTVSPropertyOp16
 70
     1
102
RTVSPropertyOp17
 70
     1
102
RTVSPropertyOp18
 70
     1
102
RTVSPropertyOp19
 70
     1
102
RTVSPropertyOp20
 70
     1
102
RTVSPropertyOp21
 70
     1
102
RTVSPropertyOp22
 70
     1
102
RTVSPropertyOp23
 70
     1
102
RTVSPropertyOp24
 70
     1
102
RTVSPropertyOp25
 70
     1
102
RTVSPropertyOp26
 70
     1
102
RTVSPropertyOp27
 70
     1
102
RTVSPropertyOp28
 70
     1
102
RTVSPropertyOp29
 70
     1
102
RTVSPropertyOp30
 70
     1
102
RTVSPropertyOp31
 70
     1
102
RTVSPropertyOp32
 70
     1
102
RTVSPropertyOp33
 70
     1
102
RTVSPropertyOp34
 70
     1
102
RTVSPropertyOp35
 70
     1
102
RTVSPropertyOp36
 70
     1
102
RTVSPropertyOp37
 70
     1
102
RTVSPropertyOp38
 70
     1
102
RTVSPropertyOp39
 70
     1
102
RTVSPropertyOp40
 70
     1
102
RTVSPropertyOp41
 70
     1
102
RTVSPropertyOp42
 70
     1
102
RTVSPropertyOp43
 70
     1
102
RTVSPropertyOp44
 70
     1
102
RTVSPropertyOp45
 70
     1
102
RTVSPropertyOp46
 70
     1
102
RTVSPropertyOp47
 70
     1
102
RTVSPropertyOp48
 70
     1
102
RTVSPropertyOp49
 70
     1
102
RTVSPropertyOp50
 70
     1
102
RTVSPropertyOp51
 70
     0
102
RTVSPropertyOp52
 70
     0
102
RTVSPropertyOp53
 70
     1
102
RTVSPropertyOp54
 70
     1
102
RTVSPropertyOp55
 70
     1
102
RTVSPropertyOp56
 70
     1
102
RTVSPropertyOp57
 70
     1
102
RTVSPropertyOp58
 70
     1
102
RTVSPropertyOp59
 70
     1
102
RTVSPropertyOp60
 70
     1
102
RTVSPropertyOp61
 70
     1
102
RTVSPropertyOp62
 70
     1
  0
XRECORD
  5
82D3
102
{ACAD_REACTORS
330
82D2
102
}
330
82D2
100
AcDbXrecord
280
     1
102
RTVSPost2010Prop28
280
     0
102
RTVSPost2010PropOp28
 70
     1
102
RTVSPost2010Prop29
280
     1
102
RTVSPost2010PropOp29
 70
     1
102
RTVSPost2010Prop30
280
     1
102
RTVSPost2010PropOp30
 70
     1
102
RTVSPost2010Prop31
280
     0
102
RTVSPost2010PropOp31
 70
     1
102
RTVSPost2010Prop32
280
     0
102
RTVSPost2010PropOp32
 70
     1
102
RTVSPost2010Prop33
280
     0
102
RTVSPost2010PropOp33
 70
     1
102
RTVSPost2010Prop34
280
     0
102
RTVSPost2010PropOp34
 70
     1
102
RTVSPost2010Prop35
280
     0
102
RTVSPost2010PropOp35
 70
     1
102
RTVSPost2010Prop36
280
     0
102
RTVSPost2010PropOp36
 70
     1
102
RTVSPost2010Prop37
 90
       50
102
RTVSPost2010PropOp37
 70
     1
102
RTVSPost2010Prop38
140
0.0
102
RTVSPost2010PropOp38
 70
     1
102
RTVSPost2010Prop39
140
1.0
102
RTVSPost2010PropOp39
 70
     1
102
RTVSPost2010Prop40
 90
        0
102
RTVSPost2010PropOp40
 70
     1
102
RTVSPost2010Prop41ColorIndex
 90
       18
102
RTVSPost2010Prop41ColorRGB
 90
        0
102
RTVSPost2010PropOp41
 70
     1
102
RTVSPost2010Prop42
 90
       50
102
RTVSPost2010PropOp42
 70
     1
102
RTVSPost2010Prop43
 90
        3
102
RTVSPost2010PropOp43
 70
     1
102
RTVSPost2010Prop44ColorIndex
 90
        5
102
RTVSPost2010Prop44ColorRGB
 90
      255
102
RTVSPost2010PropOp44
 70
     1
102
RTVSPost2010Prop45
280
     0
102
RTVSPost2010PropOp45
 70
     1
102
RTVSPost2010Prop46
 90
       50
102
RTVSPost2010PropOp46
 70
     1
102
RTVSPost2010Prop47
 90
       50
102
RTVSPost2010PropOp47
 70
     1
102
RTVSPost2010Prop48
 90
       50
102
RTVSPost2010PropOp48
 70
     1
102
RTVSPost2010Prop49
280
     0
102
RTVSPost2010PropOp49
 70
     1
102
RTVSPost2010Prop50
 90
       50
102
RTVSPost2010PropOp50
 70
     1
102
RTVSPost2010Prop51ColorIndex
 90
      256
102
RTVSPost2010Prop51ColorRGB
 90
-16777216
102
RTVSPost2010PropOp51
 70
     0
102
RTVSPost2010Prop52
140
1.0
102
RTVSPost2010PropOp52
 70
     0
102
RTVSPost2010Prop53
 90
        2
102
RTVSPost2010PropOp53
 70
     1
102
RTVSPost2010Prop54
  1
strokes_ogs.tif
102
RTVSPost2010PropOp54
 70
     1
102
RTVSPost2010Prop55
280
     0
102
RTVSPost2010PropOp55
 70
     1
102
RTVSPost2010Prop56
140
1.0
102
RTVSPost2010PropOp56
 70
     1
102
RTVSPost2010Prop57
140
1.0
102
RTVSPost2010PropOp57
 70
     1
102
RTVSPropertyOp0
 70
     1
102
RTVSPropertyOp1
 70
     1
102
RTVSPropertyOp2
 70
     1
102
RTVSPropertyOp3
 70
     1
102
RTVSPropertyOp4
 70
     1
102
RTVSPropertyOp5
 70
     1
102
RTVSPropertyOp6
 70
     1
102
RTVSPropertyOp7
 70
     1
102
RTVSPropertyOp8
 70
     1
102
RTVSPropertyOp9
 70
     1
102
RTVSPropertyOp10
 70
     1
102
RTVSPropertyOp11
 70
     1
102
RTVSPropertyOp12
 70
     1
102
RTVSPropertyOp13
 70
     1
102
RTVSPropertyOp14
 70
     1
102
RTVSPropertyOp15
 70
     1
102
RTVSPropertyOp16
 70
     1
102
RTVSPropertyOp17
 70
     1
102
RTVSPropertyOp18
 70
     1
102
RTVSPropertyOp19
 70
     1
102
RTVSPropertyOp20
 70
     1
102
RTVSPropertyOp21
 70
     1
102
RTVSPropertyOp22
 70
     1
102
RTVSPropertyOp23
 70
     1
102
RTVSPropertyOp24
 70
     1
102
RTVSPropertyOp25
 70
     1
102
RTVSPropertyOp26
 70
     1
102
RTVSPropertyOp27
 70
     1
102
RTVSPropertyOp28
 70
     1
102
RTVSPropertyOp29
 70
     1
102
RTVSPropertyOp30
 70
     1
102
RTVSPropertyOp31
 70
     1
102
RTVSPropertyOp32
 70
     1
102
RTVSPropertyOp33
 70
     1
102
RTVSPropertyOp34
 70
     1
102
RTVSPropertyOp35
 70
     1
102
RTVSPropertyOp36
 70
     1
102
RTVSPropertyOp37
 70
     1
102
RTVSPropertyOp38
 70
     1
102
RTVSPropertyOp39
 70
     1
102
RTVSPropertyOp40
 70
     1
102
RTVSPropertyOp41
 70
     1
102
RTVSPropertyOp42
 70
     1
102
RTVSPropertyOp43
 70
     1
102
RTVSPropertyOp44
 70
     1
102
RTVSPropertyOp45
 70
     1
102
RTVSPropertyOp46
 70
     1
102
RTVSPropertyOp47
 70
     1
102
RTVSPropertyOp48
 70
     1
102
RTVSPropertyOp49
 70
     1
102
RTVSPropertyOp50
 70
     1
102
RTVSPropertyOp51
 70
     0
102
RTVSPropertyOp52
 70
     0
102
RTVSPropertyOp53
 70
     1
102
RTVSPropertyOp54
 70
     1
102
RTVSPropertyOp55
 70
     1
102
RTVSPropertyOp56
 70
     1
102
RTVSPropertyOp57
 70
     1
102
RTVSPropertyOp58
 70
     1
102
RTVSPropertyOp59
 70
     1
102
RTVSPropertyOp60
 70
     1
102
RTVSPropertyOp61
 70
     1
102
RTVSPropertyOp62
 70
     1
  0
XRECORD
  5
82EF
102
{ACAD_REACTORS
330
82EE
102
}
330
82EE
100
AcDbXrecord
280
     1
102
RTVSPost2010Prop28
280
     0
102
RTVSPost2010PropOp28
 70
     1
102
RTVSPost2010Prop29
280
     1
102
RTVSPost2010PropOp29
 70
     1
102
RTVSPost2010Prop30
280
     1
102
RTVSPost2010PropOp30
 70
     1
102
RTVSPost2010Prop31
280
     0
102
RTVSPost2010PropOp31
 70
     1
102
RTVSPost2010Prop32
280
     0
102
RTVSPost2010PropOp32
 70
     1
102
RTVSPost2010Prop33
280
     0
102
RTVSPost2010PropOp33
 70
     1
102
RTVSPost2010Prop34
280
     0
102
RTVSPost2010PropOp34
 70
     1
102
RTVSPost2010Prop35
280
     0
102
RTVSPost2010PropOp35
 70
     1
102
RTVSPost2010Prop36
280
     0
102
RTVSPost2010PropOp36
 70
     1
102
RTVSPost2010Prop37
 90
       50
102
RTVSPost2010PropOp37
 70
     0
102
RTVSPost2010Prop38
140
0.0
102
RTVSPost2010PropOp38
 70
     0
102
RTVSPost2010Prop39
140
1.0
102
RTVSPost2010PropOp39
 70
     0
102
RTVSPost2010Prop40
 90
        0
102
RTVSPost2010PropOp40
 70
     0
102
RTVSPost2010Prop41ColorIndex
 90
       18
102
RTVSPost2010Prop41ColorRGB
 90
        0
102
RTVSPost2010PropOp41
 70
     0
102
RTVSPost2010Prop42
 90
       50
102
RTVSPost2010PropOp42
 70
     0
102
RTVSPost2010Prop43
 90
        3
102
RTVSPost2010PropOp43
 70
     0
102
RTVSPost2010Prop44ColorIndex
 90
        5
102
RTVSPost2010Prop44ColorRGB
 90
      255
102
RTVSPost2010PropOp44
 70
     0
102
RTVSPost2010Prop45
280
     0
102
RTVSPost2010PropOp45
 70
     1
102
RTVSPost2010Prop46
 90
       50
102
RTVSPost2010PropOp46
 70
     0
102
RTVSPost2010Prop47
 90
       50
102
RTVSPost2010PropOp47
 70
     0
102
RTVSPost2010Prop48
 90
       50
102
RTVSPost2010PropOp48
 70
     0
102
RTVSPost2010Prop49
280
     0
102
RTVSPost2010PropOp49
 70
     1
102
RTVSPost2010Prop50
 90
       50
102
RTVSPost2010PropOp50
 70
     0
102
RTVSPost2010Prop51ColorIndex
 90
      256
102
RTVSPost2010Prop51ColorRGB
 90
-16777216
102
RTVSPost2010PropOp51
 70
     0
102
RTVSPost2010Prop52
140
1.0
102
RTVSPost2010PropOp52
 70
     0
102
RTVSPost2010Prop53
 90
        2
102
RTVSPost2010PropOp53
 70
     0
102
RTVSPost2010Prop54
  1
strokes_ogs.tif
102
RTVSPost2010PropOp54
 70
     0
102
RTVSPost2010Prop55
280
     0
102
RTVSPost2010PropOp55
 70
     1
102
RTVSPost2010Prop56
140
1.0
102
RTVSPost2010PropOp56
 70
     0
102
RTVSPost2010Prop57
140
1.0
102
RTVSPost2010PropOp57
 70
     0
102
RTVSPropertyOp0
 70
     0
102
RTVSPropertyOp1
 70
     0
102
RTVSPropertyOp2
 70
     0
102
RTVSPropertyOp3
 70
     0
102
RTVSPropertyOp4
 70
     0
102
RTVSPropertyOp5
 70
     0
102
RTVSPropertyOp6
 70
     0
102
RTVSPropertyOp7
 70
     0
102
RTVSPropertyOp8
 70
     0
102
RTVSPropertyOp9
 70
     0
102
RTVSPropertyOp10
 70
     0
102
RTVSPropertyOp11
 70
     0
102
RTVSPropertyOp12
 70
     0
102
RTVSPropertyOp13
 70
     0
102
RTVSPropertyOp14
 70
     2
102
RTVSPropertyOp15
 70
     0
102
RTVSPropertyOp16
 70
     0
102
RTVSPropertyOp17
 70
     0
102
RTVSPropertyOp18
 70
     0
102
RTVSPropertyOp19
 70
     0
102
RTVSPropertyOp20
 70
     0
102
RTVSPropertyOp21
 70
     0
102
RTVSPropertyOp22
 70
     0
102
RTVSPropertyOp23
 70
     0
102
RTVSPropertyOp24
 70
     0
102
RTVSPropertyOp25
 70
     0
102
RTVSPropertyOp26
 70
     0
102
RTVSPropertyOp27
 70
     0
102
RTVSPropertyOp28
 70
     1
102
RTVSPropertyOp29
 70
     1
102
RTVSPropertyOp30
 70
     1
102
RTVSPropertyOp31
 70
     1
102
RTVSPropertyOp32
 70
     1
102
RTVSPropertyOp33
 70
     1
102
RTVSPropertyOp34
 70
     1
102
RTVSPropertyOp35
 70
     1
102
RTVSPropertyOp36
 70
     1
102
RTVSPropertyOp37
 70
     0
102
RTVSPropertyOp38
 70
     0
102
RTVSPropertyOp39
 70
     0
102
RTVSPropertyOp40
 70
     0
102
RTVSPropertyOp41
 70
     0
102
RTVSPropertyOp42
 70
     0
102
RTVSPropertyOp43
 70
     0
102
RTVSPropertyOp44
 70
     0
102
RTVSPropertyOp45
 70
     1
102
RTVSPropertyOp46
 70
     0
102
RTVSPropertyOp47
 70
     0
102
RTVSPropertyOp48
 70
     0
102
RTVSPropertyOp49
 70
     1
102
RTVSPropertyOp50
 70
     0
102
RTVSPropertyOp51
 70
     0
102
RTVSPropertyOp52
 70
     0
102
RTVSPropertyOp53
 70
     0
102
RTVSPropertyOp54
 70
     0
102
RTVSPropertyOp55
 70
     1
102
RTVSPropertyOp56
 70
     0
102
RTVSPropertyOp57
 70
     0
102
RTVSPropertyOp58
 70
     0
102
RTVSPropertyOp59
 70
     0
102
RTVSPropertyOp60
 70
     0
102
RTVSPropertyOp61
 70
     0
102
RTVSPropertyOp62
 70
     0
  0
XRECORD
  5
82DF
102
{ACAD_REACTORS
330
82DE
102
}
330
82DE
100
AcDbXrecord
280
     1
102
RTVSPost2010Prop28
280
     0
102
RTVSPost2010PropOp28
 70
     1
102
RTVSPost2010Prop29
280
     1
102
RTVSPost2010PropOp29
 70
     1
102
RTVSPost2010Prop30
280
     1
102
RTVSPost2010PropOp30
 70
     1
102
RTVSPost2010Prop31
280
     0
102
RTVSPost2010PropOp31
 70
     1
102
RTVSPost2010Prop32
280
     0
102
RTVSPost2010PropOp32
 70
     1
102
RTVSPost2010Prop33
280
     0
102
RTVSPost2010PropOp33
 70
     1
102
RTVSPost2010Prop34
280
     0
102
RTVSPost2010PropOp34
 70
     1
102
RTVSPost2010Prop35
280
     0
102
RTVSPost2010PropOp35
 70
     1
102
RTVSPost2010Prop36
280
     0
102
RTVSPost2010PropOp36
 70
     1
102
RTVSPost2010Prop37
 90
       50
102
RTVSPost2010PropOp37
 70
     1
102
RTVSPost2010Prop38
140
0.0
102
RTVSPost2010PropOp38
 70
     1
102
RTVSPost2010Prop39
140
1.0
102
RTVSPost2010PropOp39
 70
     1
102
RTVSPost2010Prop40
 90
        0
102
RTVSPost2010PropOp40
 70
     1
102
RTVSPost2010Prop41ColorIndex
 90
       18
102
RTVSPost2010Prop41ColorRGB
 90
        0
102
RTVSPost2010PropOp41
 70
     1
102
RTVSPost2010Prop42
 90
       50
102
RTVSPost2010PropOp42
 70
     1
102
RTVSPost2010Prop43
 90
        3
102
RTVSPost2010PropOp43
 70
     1
102
RTVSPost2010Prop44ColorIndex
 90
        5
102
RTVSPost2010Prop44ColorRGB
 90
      255
102
RTVSPost2010PropOp44
 70
     1
102
RTVSPost2010Prop45
280
     0
102
RTVSPost2010PropOp45
 70
     1
102
RTVSPost2010Prop46
 90
       50
102
RTVSPost2010PropOp46
 70
     1
102
RTVSPost2010Prop47
 90
       50
102
RTVSPost2010PropOp47
 70
     1
102
RTVSPost2010Prop48
 90
       50
102
RTVSPost2010PropOp48
 70
     1
102
RTVSPost2010Prop49
280
     0
102
RTVSPost2010PropOp49
 70
     1
102
RTVSPost2010Prop50
 90
       50
102
RTVSPost2010PropOp50
 70
     1
102
RTVSPost2010Prop51ColorIndex
 90
      256
102
RTVSPost2010Prop51ColorRGB
 90
-16777216
102
RTVSPost2010PropOp51
 70
     0
102
RTVSPost2010Prop52
140
1.0
102
RTVSPost2010PropOp52
 70
     0
102
RTVSPost2010Prop53
 90
        2
102
RTVSPost2010PropOp53
 70
     1
102
RTVSPost2010Prop54
  1
strokes_ogs.tif
102
RTVSPost2010PropOp54
 70
     1
102
RTVSPost2010Prop55
280
     0
102
RTVSPost2010PropOp55
 70
     1
102
RTVSPost2010Prop56
140
1.0
102
RTVSPost2010PropOp56
 70
     1
102
RTVSPost2010Prop57
140
1.0
102
RTVSPost2010PropOp57
 70
     1
102
RTVSPropertyOp0
 70
     1
102
RTVSPropertyOp1
 70
     1
102
RTVSPropertyOp2
 70
     1
102
RTVSPropertyOp3
 70
     1
102
RTVSPropertyOp4
 70
     1
102
RTVSPropertyOp5
 70
     1
102
RTVSPropertyOp6
 70
     1
102
RTVSPropertyOp7
 70
     1
102
RTVSPropertyOp8
 70
     1
102
RTVSPropertyOp9
 70
     1
102
RTVSPropertyOp10
 70
     1
102
RTVSPropertyOp11
 70
     1
102
RTVSPropertyOp12
 70
     1
102
RTVSPropertyOp13
 70
     1
102
RTVSPropertyOp14
 70
     1
102
RTVSPropertyOp15
 70
     1
102
RTVSPropertyOp16
 70
     1
102
RTVSPropertyOp17
 70
     1
102
RTVSPropertyOp18
 70
     1
102
RTVSPropertyOp19
 70
     1
102
RTVSPropertyOp20
 70
     1
102
RTVSPropertyOp21
 70
     1
102
RTVSPropertyOp22
 70
     1
102
RTVSPropertyOp23
 70
     1
102
RTVSPropertyOp24
 70
     1
102
RTVSPropertyOp25
 70
     1
102
RTVSPropertyOp26
 70
     1
102
RTVSPropertyOp27
 70
     1
102
RTVSPropertyOp28
 70
     1
102
RTVSPropertyOp29
 70
     1
102
RTVSPropertyOp30
 70
     1
102
RTVSPropertyOp31
 70
     1
102
RTVSPropertyOp32
 70
     1
102
RTVSPropertyOp33
 70
     1
102
RTVSPropertyOp34
 70
     1
102
RTVSPropertyOp35
 70
     1
102
RTVSPropertyOp36
 70
     1
102
RTVSPropertyOp37
 70
     1
102
RTVSPropertyOp38
 70
     1
102
RTVSPropertyOp39
 70
     1
102
RTVSPropertyOp40
 70
     1
102
RTVSPropertyOp41
 70
     1
102
RTVSPropertyOp42
 70
     1
102
RTVSPropertyOp43
 70
     1
102
RTVSPropertyOp44
 70
     1
102
RTVSPropertyOp45
 70
     1
102
RTVSPropertyOp46
 70
     1
102
RTVSPropertyOp47
 70
     1
102
RTVSPropertyOp48
 70
     1
102
RTVSPropertyOp49
 70
     1
102
RTVSPropertyOp50
 70
     1
102
RTVSPropertyOp51
 70
     0
102
RTVSPropertyOp52
 70
     0
102
RTVSPropertyOp53
 70
     1
102
RTVSPropertyOp54
 70
     1
102
RTVSPropertyOp55
 70
     1
102
RTVSPropertyOp56
 70
     1
102
RTVSPropertyOp57
 70
     1
102
RTVSPropertyOp58
 70
     1
102
RTVSPropertyOp59
 70
     1
102
RTVSPropertyOp60
 70
     1
102
RTVSPropertyOp61
 70
     1
102
RTVSPropertyOp62
 70
     1
  0
XRECORD
  5
82F1
102
{ACAD_REACTORS
330
82F0
102
}
330
82F0
100
AcDbXrecord
280
     1
102
RTVSPost2010Prop28
280
     0
102
RTVSPost2010PropOp28
 70
     1
102
RTVSPost2010Prop29
280
     1
102
RTVSPost2010PropOp29
 70
     1
102
RTVSPost2010Prop30
280
     1
102
RTVSPost2010PropOp30
 70
     1
102
RTVSPost2010Prop31
280
     0
102
RTVSPost2010PropOp31
 70
     1
102
RTVSPost2010Prop32
280
     0
102
RTVSPost2010PropOp32
 70
     1
102
RTVSPost2010Prop33
280
     0
102
RTVSPost2010PropOp33
 70
     1
102
RTVSPost2010Prop34
280
     0
102
RTVSPost2010PropOp34
 70
     1
102
RTVSPost2010Prop35
280
     0
102
RTVSPost2010PropOp35
 70
     1
102
RTVSPost2010Prop36
280
     0
102
RTVSPost2010PropOp36
 70
     1
102
RTVSPost2010Prop37
 90
       50
102
RTVSPost2010PropOp37
 70
     0
102
RTVSPost2010Prop38
140
0.0
102
RTVSPost2010PropOp38
 70
     0
102
RTVSPost2010Prop39
140
1.0
102
RTVSPost2010PropOp39
 70
     0
102
RTVSPost2010Prop40
 90
        0
102
RTVSPost2010PropOp40
 70
     0
102
RTVSPost2010Prop41ColorIndex
 90
       18
102
RTVSPost2010Prop41ColorRGB
 90
        0
102
RTVSPost2010PropOp41
 70
     0
102
RTVSPost2010Prop42
 90
       50
102
RTVSPost2010PropOp42
 70
     0
102
RTVSPost2010Prop43
 90
        3
102
RTVSPost2010PropOp43
 70
     0
102
RTVSPost2010Prop44ColorIndex
 90
        5
102
RTVSPost2010Prop44ColorRGB
 90
      255
102
RTVSPost2010PropOp44
 70
     0
102
RTVSPost2010Prop45
280
     0
102
RTVSPost2010PropOp45
 70
     1
102
RTVSPost2010Prop46
 90
       50
102
RTVSPost2010PropOp46
 70
     0
102
RTVSPost2010Prop47
 90
       50
102
RTVSPost2010PropOp47
 70
     0
102
RTVSPost2010Prop48
 90
       50
102
RTVSPost2010PropOp48
 70
     0
102
RTVSPost2010Prop49
280
     0
102
RTVSPost2010PropOp49
 70
     1
102
RTVSPost2010Prop50
 90
       50
102
RTVSPost2010PropOp50
 70
     0
102
RTVSPost2010Prop51ColorIndex
 90
      256
102
RTVSPost2010Prop51ColorRGB
 90
-16777216
102
RTVSPost2010PropOp51
 70
     0
102
RTVSPost2010Prop52
140
1.0
102
RTVSPost2010PropOp52
 70
     0
102
RTVSPost2010Prop53
 90
        2
102
RTVSPost2010PropOp53
 70
     0
102
RTVSPost2010Prop54
  1
strokes_ogs.tif
102
RTVSPost2010PropOp54
 70
     0
102
RTVSPost2010Prop55
280
     0
102
RTVSPost2010PropOp55
 70
     1
102
RTVSPost2010Prop56
140
1.0
102
RTVSPost2010PropOp56
 70
     0
102
RTVSPost2010Prop57
140
1.0
102
RTVSPost2010PropOp57
 70
     0
102
RTVSPropertyOp0
 70
     0
102
RTVSPropertyOp1
 70
     0
102
RTVSPropertyOp2
 70
     0
102
RTVSPropertyOp3
 70
     0
102
RTVSPropertyOp4
 70
     0
102
RTVSPropertyOp5
 70
     0
102
RTVSPropertyOp6
 70
     0
102
RTVSPropertyOp7
 70
     0
102
RTVSPropertyOp8
 70
     0
102
RTVSPropertyOp9
 70
     0
102
RTVSPropertyOp10
 70
     0
102
RTVSPropertyOp11
 70
     0
102
RTVSPropertyOp12
 70
     0
102
RTVSPropertyOp13
 70
     0
102
RTVSPropertyOp14
 70
     2
102
RTVSPropertyOp15
 70
     0
102
RTVSPropertyOp16
 70
     0
102
RTVSPropertyOp17
 70
     0
102
RTVSPropertyOp18
 70
     0
102
RTVSPropertyOp19
 70
     0
102
RTVSPropertyOp20
 70
     0
102
RTVSPropertyOp21
 70
     0
102
RTVSPropertyOp22
 70
     0
102
RTVSPropertyOp23
 70
     0
102
RTVSPropertyOp24
 70
     0
102
RTVSPropertyOp25
 70
     0
102
RTVSPropertyOp26
 70
     0
102
RTVSPropertyOp27
 70
     0
102
RTVSPropertyOp28
 70
     1
102
RTVSPropertyOp29
 70
     1
102
RTVSPropertyOp30
 70
     1
102
RTVSPropertyOp31
 70
     1
102
RTVSPropertyOp32
 70
     1
102
RTVSPropertyOp33
 70
     1
102
RTVSPropertyOp34
 70
     1
102
RTVSPropertyOp35
 70
     1
102
RTVSPropertyOp36
 70
     1
102
RTVSPropertyOp37
 70
     0
102
RTVSPropertyOp38
 70
     0
102
RTVSPropertyOp39
 70
     0
102
RTVSPropertyOp40
 70
     0
102
RTVSPropertyOp41
 70
     0
102
RTVSPropertyOp42
 70
     0
102
RTVSPropertyOp43
 70
     0
102
RTVSPropertyOp44
 70
     0
102
RTVSPropertyOp45
 70
     1
102
RTVSPropertyOp46
 70
     0
102
RTVSPropertyOp47
 70
     0
102
RTVSPropertyOp48
 70
     0
102
RTVSPropertyOp49
 70
     1
102
RTVSPropertyOp50
 70
     0
102
RTVSPropertyOp51
 70
     0
102
RTVSPropertyOp52
 70
     0
102
RTVSPropertyOp53
 70
     0
102
RTVSPropertyOp54
 70
     0
102
RTVSPropertyOp55
 70
     1
102
RTVSPropertyOp56
 70
     0
102
RTVSPropertyOp57
 70
     0
102
RTVSPropertyOp58
 70
     0
102
RTVSPropertyOp59
 70
     0
102
RTVSPropertyOp60
 70
     0
102
RTVSPropertyOp61
 70
     0
102
RTVSPropertyOp62
 70
     0
  0
XRECORD
  5
82D7
102
{ACAD_REACTORS
330
82D6
102
}
330
82D6
100
AcDbXrecord
280
     1
102
RTVSPost2010Prop28
280
     0
102
RTVSPost2010PropOp28
 70
     1
102
RTVSPost2010Prop29
280
     1
102
RTVSPost2010PropOp29
 70
     1
102
RTVSPost2010Prop30
280
     1
102
RTVSPost2010PropOp30
 70
     1
102
RTVSPost2010Prop31
280
     0
102
RTVSPost2010PropOp31
 70
     1
102
RTVSPost2010Prop32
280
     0
102
RTVSPost2010PropOp32
 70
     1
102
RTVSPost2010Prop33
280
     0
102
RTVSPost2010PropOp33
 70
     1
102
RTVSPost2010Prop34
280
     0
102
RTVSPost2010PropOp34
 70
     1
102
RTVSPost2010Prop35
280
     0
102
RTVSPost2010PropOp35
 70
     1
102
RTVSPost2010Prop36
280
     0
102
RTVSPost2010PropOp36
 70
     1
102
RTVSPost2010Prop37
 90
       50
102
RTVSPost2010PropOp37
 70
     1
102
RTVSPost2010Prop38
140
0.0
102
RTVSPost2010PropOp38
 70
     1
102
RTVSPost2010Prop39
140
1.0
102
RTVSPost2010PropOp39
 70
     1
102
RTVSPost2010Prop40
 90
        0
102
RTVSPost2010PropOp40
 70
     1
102
RTVSPost2010Prop41ColorIndex
 90
       18
102
RTVSPost2010Prop41ColorRGB
 90
        0
102
RTVSPost2010PropOp41
 70
     1
102
RTVSPost2010Prop42
 90
       50
102
RTVSPost2010PropOp42
 70
     1
102
RTVSPost2010Prop43
 90
        3
102
RTVSPost2010PropOp43
 70
     1
102
RTVSPost2010Prop44ColorIndex
 90
        5
102
RTVSPost2010Prop44ColorRGB
 90
      255
102
RTVSPost2010PropOp44
 70
     1
102
RTVSPost2010Prop45
280
     0
102
RTVSPost2010PropOp45
 70
     1
102
RTVSPost2010Prop46
 90
       50
102
RTVSPost2010PropOp46
 70
     1
102
RTVSPost2010Prop47
 90
       50
102
RTVSPost2010PropOp47
 70
     1
102
RTVSPost2010Prop48
 90
       50
102
RTVSPost2010PropOp48
 70
     1
102
RTVSPost2010Prop49
280
     0
102
RTVSPost2010PropOp49
 70
     1
102
RTVSPost2010Prop50
 90
       50
102
RTVSPost2010PropOp50
 70
     1
102
RTVSPost2010Prop51ColorIndex
 90
      256
102
RTVSPost2010Prop51ColorRGB
 90
-16777216
102
RTVSPost2010PropOp51
 70
     0
102
RTVSPost2010Prop52
140
1.0
102
RTVSPost2010PropOp52
 70
     0
102
RTVSPost2010Prop53
 90
        2
102
RTVSPost2010PropOp53
 70
     1
102
RTVSPost2010Prop54
  1
strokes_ogs.tif
102
RTVSPost2010PropOp54
 70
     1
102
RTVSPost2010Prop55
280
     0
102
RTVSPost2010PropOp55
 70
     1
102
RTVSPost2010Prop56
140
1.0
102
RTVSPost2010PropOp56
 70
     1
102
RTVSPost2010Prop57
140
1.0
102
RTVSPost2010PropOp57
 70
     1
102
RTVSPropertyOp0
 70
     1
102
RTVSPropertyOp1
 70
     1
102
RTVSPropertyOp2
 70
     1
102
RTVSPropertyOp3
 70
     1
102
RTVSPropertyOp4
 70
     1
102
RTVSPropertyOp5
 70
     1
102
RTVSPropertyOp6
 70
     1
102
RTVSPropertyOp7
 70
     1
102
RTVSPropertyOp8
 70
     1
102
RTVSPropertyOp9
 70
     1
102
RTVSPropertyOp10
 70
     1
102
RTVSPropertyOp11
 70
     1
102
RTVSPropertyOp12
 70
     1
102
RTVSPropertyOp13
 70
     1
102
RTVSPropertyOp14
 70
     1
102
RTVSPropertyOp15
 70
     1
102
RTVSPropertyOp16
 70
     1
102
RTVSPropertyOp17
 70
     1
102
RTVSPropertyOp18
 70
     1
102
RTVSPropertyOp19
 70
     1
102
RTVSPropertyOp20
 70
     1
102
RTVSPropertyOp21
 70
     1
102
RTVSPropertyOp22
 70
     1
102
RTVSPropertyOp23
 70
     1
102
RTVSPropertyOp24
 70
     1
102
RTVSPropertyOp25
 70
     1
102
RTVSPropertyOp26
 70
     1
102
RTVSPropertyOp27
 70
     1
102
RTVSPropertyOp28
 70
     1
102
RTVSPropertyOp29
 70
     1
102
RTVSPropertyOp30
 70
     1
102
RTVSPropertyOp31
 70
     1
102
RTVSPropertyOp32
 70
     1
102
RTVSPropertyOp33
 70
     1
102
RTVSPropertyOp34
 70
     1
102
RTVSPropertyOp35
 70
     1
102
RTVSPropertyOp36
 70
     1
102
RTVSPropertyOp37
 70
     1
102
RTVSPropertyOp38
 70
     1
102
RTVSPropertyOp39
 70
     1
102
RTVSPropertyOp40
 70
     1
102
RTVSPropertyOp41
 70
     1
102
RTVSPropertyOp42
 70
     1
102
RTVSPropertyOp43
 70
     1
102
RTVSPropertyOp44
 70
     1
102
RTVSPropertyOp45
 70
     1
102
RTVSPropertyOp46
 70
     1
102
RTVSPropertyOp47
 70
     1
102
RTVSPropertyOp48
 70
     1
102
RTVSPropertyOp49
 70
     1
102
RTVSPropertyOp50
 70
     1
102
RTVSPropertyOp51
 70
     0
102
RTVSPropertyOp52
 70
     0
102
RTVSPropertyOp53
 70
     1
102
RTVSPropertyOp54
 70
     1
102
RTVSPropertyOp55
 70
     1
102
RTVSPropertyOp56
 70
     1
102
RTVSPropertyOp57
 70
     1
102
RTVSPropertyOp58
 70
     1
102
RTVSPropertyOp59
 70
     1
102
RTVSPropertyOp60
 70
     1
102
RTVSPropertyOp61
 70
     1
102
RTVSPropertyOp62
 70
     1
  0
XRECORD
  5
82ED
102
{ACAD_REACTORS
330
82EC
102
}
330
82EC
100
AcDbXrecord
280
     1
102
RTVSPost2010Prop28
280
     0
102
RTVSPost2010PropOp28
 70
     1
102
RTVSPost2010Prop29
280
     1
102
RTVSPost2010PropOp29
 70
     1
102
RTVSPost2010Prop30
280
     1
102
RTVSPost2010PropOp30
 70
     1
102
RTVSPost2010Prop31
280
     0
102
RTVSPost2010PropOp31
 70
     1
102
RTVSPost2010Prop32
280
     0
102
RTVSPost2010PropOp32
 70
     1
102
RTVSPost2010Prop33
280
     0
102
RTVSPost2010PropOp33
 70
     1
102
RTVSPost2010Prop34
280
     0
102
RTVSPost2010PropOp34
 70
     1
102
RTVSPost2010Prop35
280
     0
102
RTVSPost2010PropOp35
 70
     1
102
RTVSPost2010Prop36
280
     0
102
RTVSPost2010PropOp36
 70
     1
102
RTVSPost2010Prop37
 90
       50
102
RTVSPost2010PropOp37
 70
     1
102
RTVSPost2010Prop38
140
0.0
102
RTVSPost2010PropOp38
 70
     1
102
RTVSPost2010Prop39
140
1.0
102
RTVSPost2010PropOp39
 70
     1
102
RTVSPost2010Prop40
 90
        0
102
RTVSPost2010PropOp40
 70
     1
102
RTVSPost2010Prop41ColorIndex
 90
       18
102
RTVSPost2010Prop41ColorRGB
 90
        0
102
RTVSPost2010PropOp41
 70
     1
102
RTVSPost2010Prop42
 90
       50
102
RTVSPost2010PropOp42
 70
     1
102
RTVSPost2010Prop43
 90
        3
102
RTVSPost2010PropOp43
 70
     1
102
RTVSPost2010Prop44ColorIndex
 90
        5
102
RTVSPost2010Prop44ColorRGB
 90
      255
102
RTVSPost2010PropOp44
 70
     1
102
RTVSPost2010Prop45
280
     0
102
RTVSPost2010PropOp45
 70
     1
102
RTVSPost2010Prop46
 90
       50
102
RTVSPost2010PropOp46
 70
     1
102
RTVSPost2010Prop47
 90
       50
102
RTVSPost2010PropOp47
 70
     1
102
RTVSPost2010Prop48
 90
       50
102
RTVSPost2010PropOp48
 70
     1
102
RTVSPost2010Prop49
280
     0
102
RTVSPost2010PropOp49
 70
     1
102
RTVSPost2010Prop50
 90
       50
102
RTVSPost2010PropOp50
 70
     1
102
RTVSPost2010Prop51ColorIndex
 90
      256
102
RTVSPost2010Prop51ColorRGB
 90
-16777216
102
RTVSPost2010PropOp51
 70
     0
102
RTVSPost2010Prop52
140
1.0
102
RTVSPost2010PropOp52
 70
     0
102
RTVSPost2010Prop53
 90
        2
102
RTVSPost2010PropOp53
 70
     1
102
RTVSPost2010Prop54
  1
strokes_ogs.tif
102
RTVSPost2010PropOp54
 70
     1
102
RTVSPost2010Prop55
280
     0
102
RTVSPost2010PropOp55
 70
     1
102
RTVSPost2010Prop56
140
1.0
102
RTVSPost2010PropOp56
 70
     1
102
RTVSPost2010Prop57
140
1.0
102
RTVSPost2010PropOp57
 70
     1
102
RTVSPropertyOp0
 70
     1
102
RTVSPropertyOp1
 70
     1
102
RTVSPropertyOp2
 70
     1
102
RTVSPropertyOp3
 70
     1
102
RTVSPropertyOp4
 70
     1
102
RTVSPropertyOp5
 70
     1
102
RTVSPropertyOp6
 70
     1
102
RTVSPropertyOp7
 70
     1
102
RTVSPropertyOp8
 70
     1
102
RTVSPropertyOp9
 70
     1
102
RTVSPropertyOp10
 70
     1
102
RTVSPropertyOp11
 70
     1
102
RTVSPropertyOp12
 70
     1
102
RTVSPropertyOp13
 70
     1
102
RTVSPropertyOp14
 70
     1
102
RTVSPropertyOp15
 70
     1
102
RTVSPropertyOp16
 70
     1
102
RTVSPropertyOp17
 70
     1
102
RTVSPropertyOp18
 70
     1
102
RTVSPropertyOp19
 70
     1
102
RTVSPropertyOp20
 70
     1
102
RTVSPropertyOp21
 70
     1
102
RTVSPropertyOp22
 70
     1
102
RTVSPropertyOp23
 70
     1
102
RTVSPropertyOp24
 70
     1
102
RTVSPropertyOp25
 70
     1
102
RTVSPropertyOp26
 70
     1
102
RTVSPropertyOp27
 70
     1
102
RTVSPropertyOp28
 70
     1
102
RTVSPropertyOp29
 70
     1
102
RTVSPropertyOp30
 70
     1
102
RTVSPropertyOp31
 70
     1
102
RTVSPropertyOp32
 70
     1
102
RTVSPropertyOp33
 70
     1
102
RTVSPropertyOp34
 70
     1
102
RTVSPropertyOp35
 70
     1
102
RTVSPropertyOp36
 70
     1
102
RTVSPropertyOp37
 70
     1
102
RTVSPropertyOp38
 70
     1
102
RTVSPropertyOp39
 70
     1
102
RTVSPropertyOp40
 70
     1
102
RTVSPropertyOp41
 70
     1
102
RTVSPropertyOp42
 70
     1
102
RTVSPropertyOp43
 70
     1
102
RTVSPropertyOp44
 70
     1
102
RTVSPropertyOp45
 70
     1
102
RTVSPropertyOp46
 70
     1
102
RTVSPropertyOp47
 70
     1
102
RTVSPropertyOp48
 70
     1
102
RTVSPropertyOp49
 70
     1
102
RTVSPropertyOp50
 70
     1
102
RTVSPropertyOp51
 70
     0
102
RTVSPropertyOp52
 70
     0
102
RTVSPropertyOp53
 70
     1
102
RTVSPropertyOp54
 70
     1
102
RTVSPropertyOp55
 70
     1
102
RTVSPropertyOp56
 70
     1
102
RTVSPropertyOp57
 70
     1
102
RTVSPropertyOp58
 70
     1
102
RTVSPropertyOp59
 70
     1
102
RTVSPropertyOp60
 70
     1
102
RTVSPropertyOp61
 70
     1
102
RTVSPropertyOp62
 70
     1
  0
XRECORD
  5
82EB
102
{ACAD_REACTORS
330
82EA
102
}
330
82EA
100
AcDbXrecord
280
     1
102
RTVSPost2010Prop28
280
     0
102
RTVSPost2010PropOp28
 70
     1
102
RTVSPost2010Prop29
280
     1
102
RTVSPost2010PropOp29
 70
     1
102
RTVSPost2010Prop30
280
     1
102
RTVSPost2010PropOp30
 70
     1
102
RTVSPost2010Prop31
280
     0
102
RTVSPost2010PropOp31
 70
     1
102
RTVSPost2010Prop32
280
     0
102
RTVSPost2010PropOp32
 70
     1
102
RTVSPost2010Prop33
280
     0
102
RTVSPost2010PropOp33
 70
     1
102
RTVSPost2010Prop34
280
     0
102
RTVSPost2010PropOp34
 70
     1
102
RTVSPost2010Prop35
280
     0
102
RTVSPost2010PropOp35
 70
     1
102
RTVSPost2010Prop36
280
     0
102
RTVSPost2010PropOp36
 70
     1
102
RTVSPost2010Prop37
 90
       50
102
RTVSPost2010PropOp37
 70
     1
102
RTVSPost2010Prop38
140
0.0
102
RTVSPost2010PropOp38
 70
     1
102
RTVSPost2010Prop39
140
1.0
102
RTVSPost2010PropOp39
 70
     1
102
RTVSPost2010Prop40
 90
        0
102
RTVSPost2010PropOp40
 70
     1
102
RTVSPost2010Prop41ColorIndex
 90
       18
102
RTVSPost2010Prop41ColorRGB
 90
        0
102
RTVSPost2010PropOp41
 70
     1
102
RTVSPost2010Prop42
 90
       50
102
RTVSPost2010PropOp42
 70
     1
102
RTVSPost2010Prop43
 90
        3
102
RTVSPost2010PropOp43
 70
     1
102
RTVSPost2010Prop44ColorIndex
 90
        5
102
RTVSPost2010Prop44ColorRGB
 90
      255
102
RTVSPost2010PropOp44
 70
     1
102
RTVSPost2010Prop45
280
     0
102
RTVSPost2010PropOp45
 70
     1
102
RTVSPost2010Prop46
 90
       50
102
RTVSPost2010PropOp46
 70
     1
102
RTVSPost2010Prop47
 90
       50
102
RTVSPost2010PropOp47
 70
     1
102
RTVSPost2010Prop48
 90
       50
102
RTVSPost2010PropOp48
 70
     1
102
RTVSPost2010Prop49
280
     0
102
RTVSPost2010PropOp49
 70
     1
102
RTVSPost2010Prop50
 90
       50
102
RTVSPost2010PropOp50
 70
     1
102
RTVSPost2010Prop51ColorIndex
 90
      256
102
RTVSPost2010Prop51ColorRGB
 90
-16777216
102
RTVSPost2010PropOp51
 70
     0
102
RTVSPost2010Prop52
140
1.0
102
RTVSPost2010PropOp52
 70
     0
102
RTVSPost2010Prop53
 90
        2
102
RTVSPost2010PropOp53
 70
     1
102
RTVSPost2010Prop54
  1
strokes_ogs.tif
102
RTVSPost2010PropOp54
 70
     1
102
RTVSPost2010Prop55
280
     0
102
RTVSPost2010PropOp55
 70
     1
102
RTVSPost2010Prop56
140
1.0
102
RTVSPost2010PropOp56
 70
     1
102
RTVSPost2010Prop57
140
1.0
102
RTVSPost2010PropOp57
 70
     1
102
RTVSPropertyOp0
 70
     1
102
RTVSPropertyOp1
 70
     1
102
RTVSPropertyOp2
 70
     1
102
RTVSPropertyOp3
 70
     1
102
RTVSPropertyOp4
 70
     1
102
RTVSPropertyOp5
 70
     1
102
RTVSPropertyOp6
 70
     1
102
RTVSPropertyOp7
 70
     1
102
RTVSPropertyOp8
 70
     1
102
RTVSPropertyOp9
 70
     1
102
RTVSPropertyOp10
 70
     1
102
RTVSPropertyOp11
 70
     1
102
RTVSPropertyOp12
 70
     1
102
RTVSPropertyOp13
 70
     1
102
RTVSPropertyOp14
 70
     1
102
RTVSPropertyOp15
 70
     1
102
RTVSPropertyOp16
 70
     1
102
RTVSPropertyOp17
 70
     1
102
RTVSPropertyOp18
 70
     1
102
RTVSPropertyOp19
 70
     1
102
RTVSPropertyOp20
 70
     1
102
RTVSPropertyOp21
 70
     1
102
RTVSPropertyOp22
 70
     1
102
RTVSPropertyOp23
 70
     1
102
RTVSPropertyOp24
 70
     1
102
RTVSPropertyOp25
 70
     1
102
RTVSPropertyOp26
 70
     1
102
RTVSPropertyOp27
 70
     1
102
RTVSPropertyOp28
 70
     1
102
RTVSPropertyOp29
 70
     1
102
RTVSPropertyOp30
 70
     1
102
RTVSPropertyOp31
 70
     1
102
RTVSPropertyOp32
 70
     1
102
RTVSPropertyOp33
 70
     1
102
RTVSPropertyOp34
 70
     1
102
RTVSPropertyOp35
 70
     1
102
RTVSPropertyOp36
 70
     1
102
RTVSPropertyOp37
 70
     1
102
RTVSPropertyOp38
 70
     1
102
RTVSPropertyOp39
 70
     1
102
RTVSPropertyOp40
 70
     1
102
RTVSPropertyOp41
 70
     1
102
RTVSPropertyOp42
 70
     1
102
RTVSPropertyOp43
 70
     1
102
RTVSPropertyOp44
 70
     1
102
RTVSPropertyOp45
 70
     1
102
RTVSPropertyOp46
 70
     1
102
RTVSPropertyOp47
 70
     1
102
RTVSPropertyOp48
 70
     1
102
RTVSPropertyOp49
 70
     1
102
RTVSPropertyOp50
 70
     1
102
RTVSPropertyOp51
 70
     0
102
RTVSPropertyOp52
 70
     0
102
RTVSPropertyOp53
 70
     1
102
RTVSPropertyOp54
 70
     1
102
RTVSPropertyOp55
 70
     1
102
RTVSPropertyOp56
 70
     1
102
RTVSPropertyOp57
 70
     1
102
RTVSPropertyOp58
 70
     1
102
RTVSPropertyOp59
 70
     1
102
RTVSPropertyOp60
 70
     1
102
RTVSPropertyOp61
 70
     1
102
RTVSPropertyOp62
 70
     1
  0
XRECORD
  5
82E5
102
{ACAD_REACTORS
330
82E4
102
}
330
82E4
100
AcDbXrecord
280
     1
102
RTVSPost2010Prop28
280
     0
102
RTVSPost2010PropOp28
 70
     1
102
RTVSPost2010Prop29
280
     1
102
RTVSPost2010PropOp29
 70
     1
102
RTVSPost2010Prop30
280
     1
102
RTVSPost2010PropOp30
 70
     1
102
RTVSPost2010Prop31
280
     0
102
RTVSPost2010PropOp31
 70
     1
102
RTVSPost2010Prop32
280
     0
102
RTVSPost2010PropOp32
 70
     1
102
RTVSPost2010Prop33
280
     0
102
RTVSPost2010PropOp33
 70
     1
102
RTVSPost2010Prop34
280
     0
102
RTVSPost2010PropOp34
 70
     1
102
RTVSPost2010Prop35
280
     0
102
RTVSPost2010PropOp35
 70
     1
102
RTVSPost2010Prop36
280
     0
102
RTVSPost2010PropOp36
 70
     1
102
RTVSPost2010Prop37
 90
       50
102
RTVSPost2010PropOp37
 70
     1
102
RTVSPost2010Prop38
140
0.0
102
RTVSPost2010PropOp38
 70
     1
102
RTVSPost2010Prop39
140
1.0
102
RTVSPost2010PropOp39
 70
     1
102
RTVSPost2010Prop40
 90
        0
102
RTVSPost2010PropOp40
 70
     1
102
RTVSPost2010Prop41ColorIndex
 90
       18
102
RTVSPost2010Prop41ColorRGB
 90
        0
102
RTVSPost2010PropOp41
 70
     1
102
RTVSPost2010Prop42
 90
       50
102
RTVSPost2010PropOp42
 70
     1
102
RTVSPost2010Prop43
 90
        3
102
RTVSPost2010PropOp43
 70
     1
102
RTVSPost2010Prop44ColorIndex
 90
        5
102
RTVSPost2010Prop44ColorRGB
 90
      255
102
RTVSPost2010PropOp44
 70
     1
102
RTVSPost2010Prop45
280
     0
102
RTVSPost2010PropOp45
 70
     1
102
RTVSPost2010Prop46
 90
       50
102
RTVSPost2010PropOp46
 70
     1
102
RTVSPost2010Prop47
 90
       50
102
RTVSPost2010PropOp47
 70
     1
102
RTVSPost2010Prop48
 90
       50
102
RTVSPost2010PropOp48
 70
     1
102
RTVSPost2010Prop49
280
     0
102
RTVSPost2010PropOp49
 70
     1
102
RTVSPost2010Prop50
 90
       50
102
RTVSPost2010PropOp50
 70
     1
102
RTVSPost2010Prop51ColorIndex
 90
      256
102
RTVSPost2010Prop51ColorRGB
 90
-16777216
102
RTVSPost2010PropOp51
 70
     0
102
RTVSPost2010Prop52
140
1.0
102
RTVSPost2010PropOp52
 70
     0
102
RTVSPost2010Prop53
 90
        2
102
RTVSPost2010PropOp53
 70
     1
102
RTVSPost2010Prop54
  1
strokes_ogs.tif
102
RTVSPost2010PropOp54
 70
     1
102
RTVSPost2010Prop55
280
     0
102
RTVSPost2010PropOp55
 70
     1
102
RTVSPost2010Prop56
140
1.0
102
RTVSPost2010PropOp56
 70
     1
102
RTVSPost2010Prop57
140
1.0
102
RTVSPost2010PropOp57
 70
     1
102
RTVSPropertyOp0
 70
     1
102
RTVSPropertyOp1
 70
     1
102
RTVSPropertyOp2
 70
     1
102
RTVSPropertyOp3
 70
     1
102
RTVSPropertyOp4
 70
     1
102
RTVSPropertyOp5
 70
     1
102
RTVSPropertyOp6
 70
     1
102
RTVSPropertyOp7
 70
     1
102
RTVSPropertyOp8
 70
     1
102
RTVSPropertyOp9
 70
     1
102
RTVSPropertyOp10
 70
     1
102
RTVSPropertyOp11
 70
     1
102
RTVSPropertyOp12
 70
     1
102
RTVSPropertyOp13
 70
     1
102
RTVSPropertyOp14
 70
     1
102
RTVSPropertyOp15
 70
     1
102
RTVSPropertyOp16
 70
     1
102
RTVSPropertyOp17
 70
     1
102
RTVSPropertyOp18
 70
     1
102
RTVSPropertyOp19
 70
     1
102
RTVSPropertyOp20
 70
     1
102
RTVSPropertyOp21
 70
     1
102
RTVSPropertyOp22
 70
     1
102
RTVSPropertyOp23
 70
     1
102
RTVSPropertyOp24
 70
     1
102
RTVSPropertyOp25
 70
     1
102
RTVSPropertyOp26
 70
     1
102
RTVSPropertyOp27
 70
     1
102
RTVSPropertyOp28
 70
     1
102
RTVSPropertyOp29
 70
     1
102
RTVSPropertyOp30
 70
     1
102
RTVSPropertyOp31
 70
     1
102
RTVSPropertyOp32
 70
     1
102
RTVSPropertyOp33
 70
     1
102
RTVSPropertyOp34
 70
     1
102
RTVSPropertyOp35
 70
     1
102
RTVSPropertyOp36
 70
     1
102
RTVSPropertyOp37
 70
     1
102
RTVSPropertyOp38
 70
     1
102
RTVSPropertyOp39
 70
     1
102
RTVSPropertyOp40
 70
     1
102
RTVSPropertyOp41
 70
     1
102
RTVSPropertyOp42
 70
     1
102
RTVSPropertyOp43
 70
     1
102
RTVSPropertyOp44
 70
     1
102
RTVSPropertyOp45
 70
     1
102
RTVSPropertyOp46
 70
     1
102
RTVSPropertyOp47
 70
     1
102
RTVSPropertyOp48
 70
     1
102
RTVSPropertyOp49
 70
     1
102
RTVSPropertyOp50
 70
     1
102
RTVSPropertyOp51
 70
     0
102
RTVSPropertyOp52
 70
     0
102
RTVSPropertyOp53
 70
     1
102
RTVSPropertyOp54
 70
     1
102
RTVSPropertyOp55
 70
     1
102
RTVSPropertyOp56
 70
     1
102
RTVSPropertyOp57
 70
     1
102
RTVSPropertyOp58
 70
     1
102
RTVSPropertyOp59
 70
     1
102
RTVSPropertyOp60
 70
     1
102
RTVSPropertyOp61
 70
     1
102
RTVSPropertyOp62
 70
     1
  0
XRECORD
  5
82E7
102
{ACAD_REACTORS
330
82E6
102
}
330
82E6
100
AcDbXrecord
280
     1
102
RTVSPost2010Prop28
280
     0
102
RTVSPost2010PropOp28
 70
     1
102
RTVSPost2010Prop29
280
     1
102
RTVSPost2010PropOp29
 70
     1
102
RTVSPost2010Prop30
280
     1
102
RTVSPost2010PropOp30
 70
     1
102
RTVSPost2010Prop31
280
     0
102
RTVSPost2010PropOp31
 70
     1
102
RTVSPost2010Prop32
280
     0
102
RTVSPost2010PropOp32
 70
     1
102
RTVSPost2010Prop33
280
     0
102
RTVSPost2010PropOp33
 70
     1
102
RTVSPost2010Prop34
280
     0
102
RTVSPost2010PropOp34
 70
     1
102
RTVSPost2010Prop35
280
     0
102
RTVSPost2010PropOp35
 70
     1
102
RTVSPost2010Prop36
280
     0
102
RTVSPost2010PropOp36
 70
     1
102
RTVSPost2010Prop37
 90
       50
102
RTVSPost2010PropOp37
 70
     1
102
RTVSPost2010Prop38
140
0.0
102
RTVSPost2010PropOp38
 70
     1
102
RTVSPost2010Prop39
140
1.0
102
RTVSPost2010PropOp39
 70
     1
102
RTVSPost2010Prop40
 90
        0
102
RTVSPost2010PropOp40
 70
     1
102
RTVSPost2010Prop41ColorIndex
 90
       18
102
RTVSPost2010Prop41ColorRGB
 90
        0
102
RTVSPost2010PropOp41
 70
     1
102
RTVSPost2010Prop42
 90
       50
102
RTVSPost2010PropOp42
 70
     1
102
RTVSPost2010Prop43
 90
        3
102
RTVSPost2010PropOp43
 70
     1
102
RTVSPost2010Prop44ColorIndex
 90
        5
102
RTVSPost2010Prop44ColorRGB
 90
      255
102
RTVSPost2010PropOp44
 70
     1
102
RTVSPost2010Prop45
280
     0
102
RTVSPost2010PropOp45
 70
     1
102
RTVSPost2010Prop46
 90
       50
102
RTVSPost2010PropOp46
 70
     1
102
RTVSPost2010Prop47
 90
       50
102
RTVSPost2010PropOp47
 70
     1
102
RTVSPost2010Prop48
 90
       50
102
RTVSPost2010PropOp48
 70
     1
102
RTVSPost2010Prop49
280
     0
102
RTVSPost2010PropOp49
 70
     1
102
RTVSPost2010Prop50
 90
       50
102
RTVSPost2010PropOp50
 70
     1
102
RTVSPost2010Prop51ColorIndex
 90
      256
102
RTVSPost2010Prop51ColorRGB
 90
-16777216
102
RTVSPost2010PropOp51
 70
     0
102
RTVSPost2010Prop52
140
1.0
102
RTVSPost2010PropOp52
 70
     0
102
RTVSPost2010Prop53
 90
        2
102
RTVSPost2010PropOp53
 70
     1
102
RTVSPost2010Prop54
  1
strokes_ogs.tif
102
RTVSPost2010PropOp54
 70
     1
102
RTVSPost2010Prop55
280
     0
102
RTVSPost2010PropOp55
 70
     1
102
RTVSPost2010Prop56
140
1.0
102
RTVSPost2010PropOp56
 70
     1
102
RTVSPost2010Prop57
140
1.0
102
RTVSPost2010PropOp57
 70
     1
102
RTVSPropertyOp0
 70
     1
102
RTVSPropertyOp1
 70
     1
102
RTVSPropertyOp2
 70
     1
102
RTVSPropertyOp3
 70
     1
102
RTVSPropertyOp4
 70
     1
102
RTVSPropertyOp5
 70
     1
102
RTVSPropertyOp6
 70
     1
102
RTVSPropertyOp7
 70
     1
102
RTVSPropertyOp8
 70
     1
102
RTVSPropertyOp9
 70
     1
102
RTVSPropertyOp10
 70
     1
102
RTVSPropertyOp11
 70
     1
102
RTVSPropertyOp12
 70
     1
102
RTVSPropertyOp13
 70
     1
102
RTVSPropertyOp14
 70
     1
102
RTVSPropertyOp15
 70
     1
102
RTVSPropertyOp16
 70
     1
102
RTVSPropertyOp17
 70
     1
102
RTVSPropertyOp18
 70
     1
102
RTVSPropertyOp19
 70
     1
102
RTVSPropertyOp20
 70
     1
102
RTVSPropertyOp21
 70
     1
102
RTVSPropertyOp22
 70
     1
102
RTVSPropertyOp23
 70
     1
102
RTVSPropertyOp24
 70
     1
102
RTVSPropertyOp25
 70
     1
102
RTVSPropertyOp26
 70
     1
102
RTVSPropertyOp27
 70
     1
102
RTVSPropertyOp28
 70
     1
102
RTVSPropertyOp29
 70
     1
102
RTVSPropertyOp30
 70
     1
102
RTVSPropertyOp31
 70
     1
102
RTVSPropertyOp32
 70
     1
102
RTVSPropertyOp33
 70
     1
102
RTVSPropertyOp34
 70
     1
102
RTVSPropertyOp35
 70
     1
102
RTVSPropertyOp36
 70
     1
102
RTVSPropertyOp37
 70
     1
102
RTVSPropertyOp38
 70
     1
102
RTVSPropertyOp39
 70
     1
102
RTVSPropertyOp40
 70
     1
102
RTVSPropertyOp41
 70
     1
102
RTVSPropertyOp42
 70
     1
102
RTVSPropertyOp43
 70
     1
102
RTVSPropertyOp44
 70
     1
102
RTVSPropertyOp45
 70
     1
102
RTVSPropertyOp46
 70
     1
102
RTVSPropertyOp47
 70
     1
102
RTVSPropertyOp48
 70
     1
102
RTVSPropertyOp49
 70
     1
102
RTVSPropertyOp50
 70
     1
102
RTVSPropertyOp51
 70
     0
102
RTVSPropertyOp52
 70
     0
102
RTVSPropertyOp53
 70
     1
102
RTVSPropertyOp54
 70
     1
102
RTVSPropertyOp55
 70
     1
102
RTVSPropertyOp56
 70
     1
102
RTVSPropertyOp57
 70
     1
102
RTVSPropertyOp58
 70
     1
102
RTVSPropertyOp59
 70
     1
102
RTVSPropertyOp60
 70
     1
102
RTVSPropertyOp61
 70
     1
102
RTVSPropertyOp62
 70
     1
  0
XRECORD
  5
82DD
102
{ACAD_REACTORS
330
82DC
102
}
330
82DC
100
AcDbXrecord
280
     1
102
RTVSPost2010Prop28
280
     0
102
RTVSPost2010PropOp28
 70
     1
102
RTVSPost2010Prop29
280
     1
102
RTVSPost2010PropOp29
 70
     1
102
RTVSPost2010Prop30
280
     1
102
RTVSPost2010PropOp30
 70
     1
102
RTVSPost2010Prop31
280
     0
102
RTVSPost2010PropOp31
 70
     1
102
RTVSPost2010Prop32
280
     0
102
RTVSPost2010PropOp32
 70
     1
102
RTVSPost2010Prop33
280
     0
102
RTVSPost2010PropOp33
 70
     1
102
RTVSPost2010Prop34
280
     0
102
RTVSPost2010PropOp34
 70
     1
102
RTVSPost2010Prop35
280
     0
102
RTVSPost2010PropOp35
 70
     1
102
RTVSPost2010Prop36
280
     0
102
RTVSPost2010PropOp36
 70
     1
102
RTVSPost2010Prop37
 90
       50
102
RTVSPost2010PropOp37
 70
     1
102
RTVSPost2010Prop38
140
0.0
102
RTVSPost2010PropOp38
 70
     1
102
RTVSPost2010Prop39
140
1.0
102
RTVSPost2010PropOp39
 70
     1
102
RTVSPost2010Prop40
 90
        0
102
RTVSPost2010PropOp40
 70
     1
102
RTVSPost2010Prop41ColorIndex
 90
       18
102
RTVSPost2010Prop41ColorRGB
 90
        0
102
RTVSPost2010PropOp41
 70
     1
102
RTVSPost2010Prop42
 90
       50
102
RTVSPost2010PropOp42
 70
     1
102
RTVSPost2010Prop43
 90
        3
102
RTVSPost2010PropOp43
 70
     1
102
RTVSPost2010Prop44ColorIndex
 90
        5
102
RTVSPost2010Prop44ColorRGB
 90
      255
102
RTVSPost2010PropOp44
 70
     1
102
RTVSPost2010Prop45
280
     0
102
RTVSPost2010PropOp45
 70
     1
102
RTVSPost2010Prop46
 90
       50
102
RTVSPost2010PropOp46
 70
     1
102
RTVSPost2010Prop47
 90
       50
102
RTVSPost2010PropOp47
 70
     1
102
RTVSPost2010Prop48
 90
       50
102
RTVSPost2010PropOp48
 70
     1
102
RTVSPost2010Prop49
280
     0
102
RTVSPost2010PropOp49
 70
     1
102
RTVSPost2010Prop50
 90
       50
102
RTVSPost2010PropOp50
 70
     1
102
RTVSPost2010Prop51ColorIndex
 90
      256
102
RTVSPost2010Prop51ColorRGB
 90
-16777216
102
RTVSPost2010PropOp51
 70
     0
102
RTVSPost2010Prop52
140
1.0
102
RTVSPost2010PropOp52
 70
     0
102
RTVSPost2010Prop53
 90
        2
102
RTVSPost2010PropOp53
 70
     1
102
RTVSPost2010Prop54
  1
strokes_ogs.tif
102
RTVSPost2010PropOp54
 70
     1
102
RTVSPost2010Prop55
280
     0
102
RTVSPost2010PropOp55
 70
     1
102
RTVSPost2010Prop56
140
1.0
102
RTVSPost2010PropOp56
 70
     1
102
RTVSPost2010Prop57
140
1.0
102
RTVSPost2010PropOp57
 70
     1
102
RTVSPropertyOp0
 70
     1
102
RTVSPropertyOp1
 70
     1
102
RTVSPropertyOp2
 70
     1
102
RTVSPropertyOp3
 70
     1
102
RTVSPropertyOp4
 70
     1
102
RTVSPropertyOp5
 70
     1
102
RTVSPropertyOp6
 70
     1
102
RTVSPropertyOp7
 70
     1
102
RTVSPropertyOp8
 70
     1
102
RTVSPropertyOp9
 70
     1
102
RTVSPropertyOp10
 70
     1
102
RTVSPropertyOp11
 70
     1
102
RTVSPropertyOp12
 70
     1
102
RTVSPropertyOp13
 70
     1
102
RTVSPropertyOp14
 70
     1
102
RTVSPropertyOp15
 70
     1
102
RTVSPropertyOp16
 70
     1
102
RTVSPropertyOp17
 70
     1
102
RTVSPropertyOp18
 70
     1
102
RTVSPropertyOp19
 70
     1
102
RTVSPropertyOp20
 70
     1
102
RTVSPropertyOp21
 70
     1
102
RTVSPropertyOp22
 70
     1
102
RTVSPropertyOp23
 70
     1
102
RTVSPropertyOp24
 70
     1
102
RTVSPropertyOp25
 70
     1
102
RTVSPropertyOp26
 70
     1
102
RTVSPropertyOp27
 70
     1
102
RTVSPropertyOp28
 70
     1
102
RTVSPropertyOp29
 70
     1
102
RTVSPropertyOp30
 70
     1
102
RTVSPropertyOp31
 70
     1
102
RTVSPropertyOp32
 70
     1
102
RTVSPropertyOp33
 70
     1
102
RTVSPropertyOp34
 70
     1
102
RTVSPropertyOp35
 70
     1
102
RTVSPropertyOp36
 70
     1
102
RTVSPropertyOp37
 70
     1
102
RTVSPropertyOp38
 70
     1
102
RTVSPropertyOp39
 70
     1
102
RTVSPropertyOp40
 70
     1
102
RTVSPropertyOp41
 70
     1
102
RTVSPropertyOp42
 70
     1
102
RTVSPropertyOp43
 70
     1
102
RTVSPropertyOp44
 70
     1
102
RTVSPropertyOp45
 70
     1
102
RTVSPropertyOp46
 70
     1
102
RTVSPropertyOp47
 70
     1
102
RTVSPropertyOp48
 70
     1
102
RTVSPropertyOp49
 70
     1
102
RTVSPropertyOp50
 70
     1
102
RTVSPropertyOp51
 70
     0
102
RTVSPropertyOp52
 70
     0
102
RTVSPropertyOp53
 70
     1
102
RTVSPropertyOp54
 70
     1
102
RTVSPropertyOp55
 70
     1
102
RTVSPropertyOp56
 70
     1
102
RTVSPropertyOp57
 70
     1
102
RTVSPropertyOp58
 70
     1
102
RTVSPropertyOp59
 70
     1
102
RTVSPropertyOp60
 70
     1
102
RTVSPropertyOp61
 70
     1
102
RTVSPropertyOp62
 70
     1
  0
XRECORD
  5
82D1
102
{ACAD_REACTORS
330
82D0
102
}
330
82D0
100
AcDbXrecord
280
     1
102
RTVSPost2010Prop28
280
     0
102
RTVSPost2010PropOp28
 70
     1
102
RTVSPost2010Prop29
280
     1
102
RTVSPost2010PropOp29
 70
     1
102
RTVSPost2010Prop30
280
     1
102
RTVSPost2010PropOp30
 70
     1
102
RTVSPost2010Prop31
280
     0
102
RTVSPost2010PropOp31
 70
     1
102
RTVSPost2010Prop32
280
     0
102
RTVSPost2010PropOp32
 70
     1
102
RTVSPost2010Prop33
280
     0
102
RTVSPost2010PropOp33
 70
     1
102
RTVSPost2010Prop34
280
     0
102
RTVSPost2010PropOp34
 70
     1
102
RTVSPost2010Prop35
280
     0
102
RTVSPost2010PropOp35
 70
     1
102
RTVSPost2010Prop36
280
     0
102
RTVSPost2010PropOp36
 70
     1
102
RTVSPost2010Prop37
 90
       50
102
RTVSPost2010PropOp37
 70
     1
102
RTVSPost2010Prop38
140
0.0
102
RTVSPost2010PropOp38
 70
     1
102
RTVSPost2010Prop39
140
1.0
102
RTVSPost2010PropOp39
 70
     1
102
RTVSPost2010Prop40
 90
        0
102
RTVSPost2010PropOp40
 70
     1
102
RTVSPost2010Prop41ColorIndex
 90
       18
102
RTVSPost2010Prop41ColorRGB
 90
        0
102
RTVSPost2010PropOp41
 70
     1
102
RTVSPost2010Prop42
 90
       50
102
RTVSPost2010PropOp42
 70
     1
102
RTVSPost2010Prop43
 90
        3
102
RTVSPost2010PropOp43
 70
     1
102
RTVSPost2010Prop44ColorIndex
 90
        5
102
RTVSPost2010Prop44ColorRGB
 90
      255
102
RTVSPost2010PropOp44
 70
     1
102
RTVSPost2010Prop45
280
     0
102
RTVSPost2010PropOp45
 70
     1
102
RTVSPost2010Prop46
 90
       50
102
RTVSPost2010PropOp46
 70
     1
102
RTVSPost2010Prop47
 90
       50
102
RTVSPost2010PropOp47
 70
     1
102
RTVSPost2010Prop48
 90
       50
102
RTVSPost2010PropOp48
 70
     1
102
RTVSPost2010Prop49
280
     0
102
RTVSPost2010PropOp49
 70
     1
102
RTVSPost2010Prop50
 90
       50
102
RTVSPost2010PropOp50
 70
     1
102
RTVSPost2010Prop51ColorIndex
 90
      256
102
RTVSPost2010Prop51ColorRGB
 90
-16777216
102
RTVSPost2010PropOp51
 70
     0
102
RTVSPost2010Prop52
140
1.0
102
RTVSPost2010PropOp52
 70
     0
102
RTVSPost2010Prop53
 90
        2
102
RTVSPost2010PropOp53
 70
     1
102
RTVSPost2010Prop54
  1
strokes_ogs.tif
102
RTVSPost2010PropOp54
 70
     1
102
RTVSPost2010Prop55
280
     0
102
RTVSPost2010PropOp55
 70
     1
102
RTVSPost2010Prop56
140
1.0
102
RTVSPost2010PropOp56
 70
     1
102
RTVSPost2010Prop57
140
1.0
102
RTVSPost2010PropOp57
 70
     1
102
RTVSPropertyOp0
 70
     1
102
RTVSPropertyOp1
 70
     1
102
RTVSPropertyOp2
 70
     1
102
RTVSPropertyOp3
 70
     1
102
RTVSPropertyOp4
 70
     1
102
RTVSPropertyOp5
 70
     1
102
RTVSPropertyOp6
 70
     1
102
RTVSPropertyOp7
 70
     1
102
RTVSPropertyOp8
 70
     1
102
RTVSPropertyOp9
 70
     1
102
RTVSPropertyOp10
 70
     1
102
RTVSPropertyOp11
 70
     1
102
RTVSPropertyOp12
 70
     1
102
RTVSPropertyOp13
 70
     1
102
RTVSPropertyOp14
 70
     1
102
RTVSPropertyOp15
 70
     1
102
RTVSPropertyOp16
 70
     1
102
RTVSPropertyOp17
 70
     1
102
RTVSPropertyOp18
 70
     1
102
RTVSPropertyOp19
 70
     1
102
RTVSPropertyOp20
 70
     1
102
RTVSPropertyOp21
 70
     1
102
RTVSPropertyOp22
 70
     1
102
RTVSPropertyOp23
 70
     1
102
RTVSPropertyOp24
 70
     1
102
RTVSPropertyOp25
 70
     1
102
RTVSPropertyOp26
 70
     1
102
RTVSPropertyOp27
 70
     1
102
RTVSPropertyOp28
 70
     1
102
RTVSPropertyOp29
 70
     1
102
RTVSPropertyOp30
 70
     1
102
RTVSPropertyOp31
 70
     1
102
RTVSPropertyOp32
 70
     1
102
RTVSPropertyOp33
 70
     1
102
RTVSPropertyOp34
 70
     1
102
RTVSPropertyOp35
 70
     1
102
RTVSPropertyOp36
 70
     1
102
RTVSPropertyOp37
 70
     1
102
RTVSPropertyOp38
 70
     1
102
RTVSPropertyOp39
 70
     1
102
RTVSPropertyOp40
 70
     1
102
RTVSPropertyOp41
 70
     1
102
RTVSPropertyOp42
 70
     1
102
RTVSPropertyOp43
 70
     1
102
RTVSPropertyOp44
 70
     1
102
RTVSPropertyOp45
 70
     1
102
RTVSPropertyOp46
 70
     1
102
RTVSPropertyOp47
 70
     1
102
RTVSPropertyOp48
 70
     1
102
RTVSPropertyOp49
 70
     1
102
RTVSPropertyOp50
 70
     1
102
RTVSPropertyOp51
 70
     0
102
RTVSPropertyOp52
 70
     0
102
RTVSPropertyOp53
 70
     1
102
RTVSPropertyOp54
 70
     1
102
RTVSPropertyOp55
 70
     1
102
RTVSPropertyOp56
 70
     1
102
RTVSPropertyOp57
 70
     1
102
RTVSPropertyOp58
 70
     1
102
RTVSPropertyOp59
 70
     1
102
RTVSPropertyOp60
 70
     1
102
RTVSPropertyOp61
 70
     1
102
RTVSPropertyOp62
 70
     1
  0
XRECORD
  5
82E9
102
{ACAD_REACTORS
330
82E8
102
}
330
82E8
100
AcDbXrecord
280
     1
102
RTVSPost2010Prop28
280
     0
102
RTVSPost2010PropOp28
 70
     1
102
RTVSPost2010Prop29
280
     1
102
RTVSPost2010PropOp29
 70
     1
102
RTVSPost2010Prop30
280
     1
102
RTVSPost2010PropOp30
 70
     1
102
RTVSPost2010Prop31
280
     0
102
RTVSPost2010PropOp31
 70
     1
102
RTVSPost2010Prop32
280
     0
102
RTVSPost2010PropOp32
 70
     1
102
RTVSPost2010Prop33
280
     0
102
RTVSPost2010PropOp33
 70
     1
102
RTVSPost2010Prop34
280
     0
102
RTVSPost2010PropOp34
 70
     1
102
RTVSPost2010Prop35
280
     0
102
RTVSPost2010PropOp35
 70
     1
102
RTVSPost2010Prop36
280
     0
102
RTVSPost2010PropOp36
 70
     1
102
RTVSPost2010Prop37
 90
       50
102
RTVSPost2010PropOp37
 70
     1
102
RTVSPost2010Prop38
140
0.0
102
RTVSPost2010PropOp38
 70
     1
102
RTVSPost2010Prop39
140
1.0
102
RTVSPost2010PropOp39
 70
     1
102
RTVSPost2010Prop40
 90
        0
102
RTVSPost2010PropOp40
 70
     1
102
RTVSPost2010Prop41ColorIndex
 90
       18
102
RTVSPost2010Prop41ColorRGB
 90
        0
102
RTVSPost2010PropOp41
 70
     1
102
RTVSPost2010Prop42
 90
       50
102
RTVSPost2010PropOp42
 70
     1
102
RTVSPost2010Prop43
 90
        3
102
RTVSPost2010PropOp43
 70
     1
102
RTVSPost2010Prop44ColorIndex
 90
        5
102
RTVSPost2010Prop44ColorRGB
 90
      255
102
RTVSPost2010PropOp44
 70
     1
102
RTVSPost2010Prop45
280
     0
102
RTVSPost2010PropOp45
 70
     1
102
RTVSPost2010Prop46
 90
       50
102
RTVSPost2010PropOp46
 70
     1
102
RTVSPost2010Prop47
 90
       50
102
RTVSPost2010PropOp47
 70
     1
102
RTVSPost2010Prop48
 90
       50
102
RTVSPost2010PropOp48
 70
     1
102
RTVSPost2010Prop49
280
     0
102
RTVSPost2010PropOp49
 70
     1
102
RTVSPost2010Prop50
 90
       50
102
RTVSPost2010PropOp50
 70
     1
102
RTVSPost2010Prop51ColorIndex
 90
      256
102
RTVSPost2010Prop51ColorRGB
 90
-16777216
102
RTVSPost2010PropOp51
 70
     0
102
RTVSPost2010Prop52
140
1.0
102
RTVSPost2010PropOp52
 70
     0
102
RTVSPost2010Prop53
 90
        2
102
RTVSPost2010PropOp53
 70
     1
102
RTVSPost2010Prop54
  1
strokes_ogs.tif
102
RTVSPost2010PropOp54
 70
     1
102
RTVSPost2010Prop55
280
     0
102
RTVSPost2010PropOp55
 70
     1
102
RTVSPost2010Prop56
140
1.0
102
RTVSPost2010PropOp56
 70
     1
102
RTVSPost2010Prop57
140
1.0
102
RTVSPost2010PropOp57
 70
     1
102
RTVSPropertyOp0
 70
     1
102
RTVSPropertyOp1
 70
     1
102
RTVSPropertyOp2
 70
     1
102
RTVSPropertyOp3
 70
     1
102
RTVSPropertyOp4
 70
     1
102
RTVSPropertyOp5
 70
     1
102
RTVSPropertyOp6
 70
     1
102
RTVSPropertyOp7
 70
     1
102
RTVSPropertyOp8
 70
     1
102
RTVSPropertyOp9
 70
     1
102
RTVSPropertyOp10
 70
     1
102
RTVSPropertyOp11
 70
     1
102
RTVSPropertyOp12
 70
     1
102
RTVSPropertyOp13
 70
     1
102
RTVSPropertyOp14
 70
     1
102
RTVSPropertyOp15
 70
     1
102
RTVSPropertyOp16
 70
     1
102
RTVSPropertyOp17
 70
     1
102
RTVSPropertyOp18
 70
     1
102
RTVSPropertyOp19
 70
     1
102
RTVSPropertyOp20
 70
     1
102
RTVSPropertyOp21
 70
     1
102
RTVSPropertyOp22
 70
     1
102
RTVSPropertyOp23
 70
     1
102
RTVSPropertyOp24
 70
     1
102
RTVSPropertyOp25
 70
     1
102
RTVSPropertyOp26
 70
     1
102
RTVSPropertyOp27
 70
     1
102
RTVSPropertyOp28
 70
     1
102
RTVSPropertyOp29
 70
     1
102
RTVSPropertyOp30
 70
     1
102
RTVSPropertyOp31
 70
     1
102
RTVSPropertyOp32
 70
     1
102
RTVSPropertyOp33
 70
     1
102
RTVSPropertyOp34
 70
     1
102
RTVSPropertyOp35
 70
     1
102
RTVSPropertyOp36
 70
     1
102
RTVSPropertyOp37
 70
     1
102
RTVSPropertyOp38
 70
     1
102
RTVSPropertyOp39
 70
     1
102
RTVSPropertyOp40
 70
     1
102
RTVSPropertyOp41
 70
     1
102
RTVSPropertyOp42
 70
     1
102
RTVSPropertyOp43
 70
     1
102
RTVSPropertyOp44
 70
     1
102
RTVSPropertyOp45
 70
     1
102
RTVSPropertyOp46
 70
     1
102
RTVSPropertyOp47
 70
     1
102
RTVSPropertyOp48
 70
     1
102
RTVSPropertyOp49
 70
     1
102
RTVSPropertyOp50
 70
     1
102
RTVSPropertyOp51
 70
     0
102
RTVSPropertyOp52
 70
     0
102
RTVSPropertyOp53
 70
     1
102
RTVSPropertyOp54
 70
     1
102
RTVSPropertyOp55
 70
     1
102
RTVSPropertyOp56
 70
     1
102
RTVSPropertyOp57
 70
     1
102
RTVSPropertyOp58
 70
     1
102
RTVSPropertyOp59
 70
     1
102
RTVSPropertyOp60
 70
     1
102
RTVSPropertyOp61
 70
     1
102
RTVSPropertyOp62
 70
     1
  0
ENDSEC
  0
EOF
