  0
SECTION
  2
HEADER
  9
$ACADVER
  1
AC1015
  9
$ACADMAINTVER
 70
    20
  9
$DWGCODEPAGE
  3
ANSI_932
  9
$INSBASE
 10
0.0
 20
0.0
 30
0.0
  9
$EXTMIN
 10
-0.1602050617329951
 20
-0.22504996767384
 30
-0.0015258207003583
  9
$EXTMAX
 10
5250.160229508953
 20
7375.225084310193
 30
0.0000000349246037
  9
$LIMMIN
 10
0.0
 20
0.0
  9
$LIMMAX
 10
297.0
 20
210.0
  9
$ORTHOMODE
 70
     1
  9
$REGENMODE
 70
     1
  9
$FILLMODE
 70
     0
  9
$QTEXTMODE
 70
     0
  9
$MIRRTEXT
 70
     1
  9
$LTSCALE
 40
100.0
  9
$ATTMODE
 70
     1
  9
$TEXTSIZE
 40
180.0
  9
$TRACEWID
 40
0.05
  9
$TEXTSTYLE
  7
STANDARD
  9
$CLAYER
  8
3
  9
$CELTYPE
  6
ByLayer
  9
$CECOLOR
 62
   256
  9
$CELTSCALE
 40
1.0
  9
$DISPSILH
 70
     0
  9
$DIMSCALE
 40
25.0
  9
$DIMASZ
 40
2.0
  9
$DIMEXO
 40
1.0
  9
$DIMDLI
 40
10.0
  9
$DIMRND
 40
0.0
  9
$DIMDLE
 40
0.0
  9
$DIMEXE
 40
1.0
  9
$DIMTP
 40
1.0
  9
$DIMTM
 40
1.0
  9
$DIMTXT
 40
3.0
  9
$DIMCEN
 40
0.0
  9
$DIMTSZ
 40
0.0
  9
$DIMTOL
 70
     0
  9
$DIMLIM
 70
     0
  9
$DIMTIH
 70
     0
  9
$DIMTOH
 70
     0
  9
$DIMSE1
 70
     0
  9
$DIMSE2
 70
     0
  9
$DIMTAD
 70
     1
  9
$DIMZIN
 70
     8
  9
$DIMBLK
  1

  9
$DIMASO
 70
     1
  9
$DIMSHO
 70
     1
  9
$DIMPOST
  1

  9
$DIMAPOST
  1

  9
$DIMALT
 70
     0
  9
$DIMALTD
 70
     2
  9
$DIMALTF
 40
0.039
  9
$DIMLFAC
 40
1.0
  9
$DIMTOFL
 70
     1
  9
$DIMTVP
 40
0.0
  9
$DIMTIX
 70
     0
  9
$DIMSOXD
 70
     0
  9
$DIMSAH
 70
     1
  9
$DIMBLK1
  1
OPEN
  9
$DIMBLK2
  1
OPEN
  9
$DIMSTYLE
  2
IGA
  9
$DIMCLRD
 70
     0
  9
$DIMCLRE
 70
     0
  9
$DIMCLRT
 70
     0
  9
$DIMTFAC
 40
10.0
  9
$DIMGAP
 40
1.0
  9
$DIMJUST
 70
     0
  9
$DIMSD1
 70
     0
  9
$DIMSD2
 70
     0
  9
$DIMTOLJ
 70
     1
  9
$DIMTZIN
 70
     0
  9
$DIMALTZ
 70
     0
  9
$DIMALTTZ
 70
     0
  9
$DIMUPT
 70
     0
  9
$DIMDEC
 70
     4
  9
$DIMTDEC
 70
     4
  9
$DIMALTU
 70
     2
  9
$DIMALTTD
 70
     2
  9
$DIMTXSTY
  7
STANDARD
  9
$DIMAUNIT
 70
     0
  9
$DIMADEC
 70
     0
  9
$DIMALTRND
 40
0.0
  9
$DIMAZIN
 70
     0
  9
$DIMDSEP
 70
    46
  9
$DIMATFIT
 70
     3
  9
$DIMFRAC
 70
     0
  9
$DIMLDRBLK
  1
OPEN
  9
$DIMLUNIT
 70
     2
  9
$DIMLWD
 70
    -2
  9
$DIMLWE
 70
    -2
  9
$DIMTMOVE
 70
     0
  9
$LUNITS
 70
     2
  9
$LUPREC
 70
     3
  9
$SKETCHINC
 40
0.1
  9
$FILLETRAD
 40
50.0
  9
$AUNITS
 70
     0
  9
$AUPREC
 70
     0
  9
$MENU
  1
acad
  9
$ELEVATION
 40
0.0
  9
$PELEVATION
 40
0.0
  9
$THICKNESS
 40
0.0
  9
$LIMCHECK
 70
     0
  9
$CHAMFERA
 40
0.5
  9
$CHAMFERB
 40
0.5
  9
$CHAMFERC
 40
0.0
  9
$CHAMFERD
 40
0.0
  9
$SKPOLY
 70
     0
  9
$TDCREATE
 40
2451389.438053588
  9
$TDUCREATE
 40
2451389.063053588
  9
$TDUPDATE
 40
2460265.687696899
  9
$TDUUPDATE
 40
2460265.312696899
  9
$TDINDWG
 40
0.0186266667
  9
$TDUSRTIMER
 40
0.0186264236
  9
$USRTIMER
 70
     1
  9
$ANGBASE
 50
0.0
  9
$ANGDIR
 70
     0
  9
$PDMODE
 70
     0
  9
$PDSIZE
 40
0.0
  9
$PLINEWID
 40
0.0
  9
$SPLFRAME
 70
     0
  9
$SPLINETYPE
 70
     6
  9
$SPLINESEGS
 70
     8
  9
$HANDSEED
  5
82B8
  9
$SURFTAB1
 70
     6
  9
$SURFTAB2
 70
     6
  9
$SURFTYPE
 70
     6
  9
$SURFU
 70
     6
  9
$SURFV
 70
     6
  9
$UCSBASE
  2

  9
$UCSNAME
  2

  9
$UCSORG
 10
0.0
 20
0.0
 30
0.0
  9
$UCSXDIR
 10
1.0
 20
0.0
 30
0.0
  9
$UCSYDIR
 10
0.0
 20
1.0
 30
0.0
  9
$UCSORTHOREF
  2

  9
$UCSORTHOVIEW
 70
     0
  9
$UCSORGTOP
 10
0.0
 20
0.0
 30
0.0
  9
$UCSORGBOTTOM
 10
0.0
 20
0.0
 30
0.0
  9
$UCSORGLEFT
 10
0.0
 20
0.0
 30
0.0
  9
$UCSORGRIGHT
 10
0.0
 20
0.0
 30
0.0
  9
$UCSORGFRONT
 10
0.0
 20
0.0
 30
0.0
  9
$UCSORGBACK
 10
0.0
 20
0.0
 30
0.0
  9
$PUCSBASE
  2

  9
$PUCSNAME
  2

  9
$PUCSORG
 10
0.0
 20
0.0
 30
0.0
  9
$PUCSXDIR
 10
1.0
 20
0.0
 30
0.0
  9
$PUCSYDIR
 10
0.0
 20
1.0
 30
0.0
  9
$PUCSORTHOREF
  2

  9
$PUCSORTHOVIEW
 70
     0
  9
$PUCSORGTOP
 10
0.0
 20
0.0
 30
0.0
  9
$PUCSORGBOTTOM
 10
0.0
 20
0.0
 30
0.0
  9
$PUCSORGLEFT
 10
0.0
 20
0.0
 30
0.0
  9
$PUCSORGRIGHT
 10
0.0
 20
0.0
 30
0.0
  9
$PUCSORGFRONT
 10
0.0
 20
0.0
 30
0.0
  9
$PUCSORGBACK
 10
0.0
 20
0.0
 30
0.0
  9
$USERI1
 70
     0
  9
$USERI2
 70
     0
  9
$USERI3
 70
     0
  9
$USERI4
 70
     0
  9
$USERI5
 70
     0
  9
$USERR1
 40
0.0
  9
$USERR2
 40
0.0
  9
$USERR3
 40
0.0
  9
$USERR4
 40
0.0
  9
$USERR5
 40
0.0
  9
$WORLDVIEW
 70
     1
  9
$SHADEDGE
 70
     3
  9
$SHADEDIF
 70
    70
  9
$TILEMODE
 70
     1
  9
$MAXACTVP
 70
    16
  9
$PINSBASE
 10
0.0
 20
0.0
 30
0.0
  9
$PLIMCHECK
 70
     0
  9
$PEXTMIN
 10
1.000000000000000E+20
 20
1.000000000000000E+20
 30
1.000000000000000E+20
  9
$PEXTMAX
 10
-1.000000000000000E+20
 20
-1.000000000000000E+20
 30
-1.000000000000000E+20
  9
$PLIMMIN
 10
0.0
 20
0.0
  9
$PLIMMAX
 10
12.0
 20
9.0
  9
$UNITMODE
 70
     0
  9
$VISRETAIN
 70
     0
  9
$PLINEGEN
 70
     0
  9
$PSLTSCALE
 70
     1
  9
$TREEDEPTH
 70
  3020
  9
$CMLSTYLE
  2
Standard
  9
$CMLJUST
 70
     0
  9
$CMLSCALE
 40
1.0
  9
$PROXYGRAPHICS
 70
     1
  9
$MEASUREMENT
 70
     0
  9
$CELWEIGHT
370
    -1
  9
$ENDCAPS
280
     0
  9
$JOINSTYLE
280
     0
  9
$LWDISPLAY
290
     0
  9
$INSUNITS
 70
     0
  9
$HYPERLINKBASE
  1

  9
$STYLESHEET
  1

  9
$XEDIT
290
     1
  9
$CEPSNTYPE
380
     0
  9
$PSTYLEMODE
290
     1
  9
$FINGERPRINTGUID
  2
{DB024DF4-947D-49E7-9AAF-067E47EFB6CC}
  9
$VERSIONGUID
  2
{6F3D12C3-BFE1-4120-B5CC-5C0C368E2FC6}
  9
$EXTNAMES
290
     1
  9
$PSVPSCALE
 40
0.0
  9
$OLESTARTUP
290
     0
  0
ENDSEC
  0
SECTION
  2
CLASSES
  0
CLASS
  1
ACDBDICTIONARYWDFLT
  2
AcDbDictionaryWithDefault
  3
ObjectDBX Classes
 90
        0
280
     0
281
     0
  0
CLASS
  1
MATERIAL
  2
AcDbMaterial
  3
ObjectDBX Classes
 90
     1153
280
     0
281
     0
  0
CLASS
  1
VISUALSTYLE
  2
AcDbVisualStyle
  3
ObjectDBX Classes
 90
     4095
280
     0
281
     0
  0
CLASS
  1
SCALE
  2
AcDbScale
  3
ObjectDBX Classes
 90
     1153
280
     0
281
     0
  0
CLASS
  1
TABLESTYLE
  2
AcDbTableStyle
  3
ObjectDBX Classes
 90
     4095
280
     0
281
     0
  0
CLASS
  1
MLEADERSTYLE
  2
AcDbMLeaderStyle
  3
ACDB_MLEADERSTYLE_CLASS
 90
     4095
280
     0
281
     0
  0
CLASS
  1
ACDBSECTIONVIEWSTYLE
  2
AcDbSectionViewStyle
  3
ObjectDBX Classes
 90
     1025
280
     0
281
     0
  0
CLASS
  1
ACDBDETAILVIEWSTYLE
  2
AcDbDetailViewStyle
  3
ObjectDBX Classes
 90
     1025
280
     0
281
     0
  0
CLASS
  1
DICTIONARYVAR
  2
AcDbDictionaryVar
  3
ObjectDBX Classes
 90
        0
280
     0
281
     0
  0
CLASS
  1
CELLSTYLEMAP
  2
AcDbCellStyleMap
  3
ObjectDBX Classes
 90
     1152
280
     0
281
     0
  0
CLASS
  1
ACDBPLACEHOLDER
  2
AcDbPlaceHolder
  3
ObjectDBX Classes
 90
        0
280
     0
281
     0
  0
CLASS
  1
LAYOUT
  2
AcDbLayout
  3
ObjectDBX Classes
 90
        0
280
     0
281
     0
  0
ENDSEC
  0
SECTION
  2
TABLES
  0
TABLE
  2
VPORT
  5
807E
330
0
100
AcDbSymbolTable
 70
     1
  0
VPORT
  5
80EA
330
807E
100
AcDbSymbolTableRecord
100
AcDbViewportTableRecord
  2
*ACTIVE
 70
     0
 10
0.0
 20
0.0
 11
1.0
 21
1.0
 12
2625.00001222361
 22
3687.500017171259
 13
0.0
 23
0.0
 14
10.0
 24
10.0
 15
10.0
 25
10.0
 16
0.0
 26
0.0
 36
1.0
 17
0.0
 27
0.0
 37
0.0
 40
7422.678203440799
 41
2.050213675213675
 42
50.0
 43
0.0
 44
0.0
 50
0.0
 51
0.0
 71
     0
 72
   100
 73
     1
 74
     0
 75
     0
 76
     0
 77
     0
 78
     0
281
     0
 65
     1
110
0.0
120
0.0
130
0.0
111
1.0
121
0.0
131
0.0
112
0.0
122
1.0
132
0.0
 79
     0
146
0.0
1001
ACAD_NAV_VCDISPLAY
1070
     3
  0
ENDTAB
  0
TABLE
  2
LTYPE
  5
807B
330
0
100
AcDbSymbolTable
 70
     2
  0
LTYPE
  5
80D0
330
807B
100
AcDbSymbolTableRecord
100
AcDbLinetypeTableRecord
  2
ByBlock
 70
     0
  3

 72
    65
 73
     0
 40
0.0
  0
LTYPE
  5
80D1
330
807B
100
AcDbSymbolTableRecord
100
AcDbLinetypeTableRecord
  2
ByLayer
 70
     0
  3

 72
    65
 73
     0
 40
0.0
  0
LTYPE
  5
80D2
330
807B
100
AcDbSymbolTableRecord
100
AcDbLinetypeTableRecord
  2
CONTINUOUS
 70
     0
  3
Solid line
 72
    65
 73
     0
 40
0.0
  0
LTYPE
  5
80EB
330
807B
100
AcDbSymbolTableRecord
100
AcDbLinetypeTableRecord
  2
CENTER
 70
     0
  3
____ _ ____ _ ____ _ ____ _ ____ _ ____ _ ____ 
 72
    65
 73
     4
 40
2.0
 49
1.25
 74
     0
 49
-0.25
 74
     0
 49
0.25
 74
     0
 49
-0.25
 74
     0
  0
ENDTAB
  0
TABLE
  2
LAYER
  5
8078
102
{ACAD_XDICTIONARY
360
8186
102
}
330
0
100
AcDbSymbolTable
 70
     7
  0
LAYER
  5
80CA
102
{ACAD_XDICTIONARY
360
812E
102
}
330
8078
100
AcDbSymbolTableRecord
100
AcDbLayerTableRecord
  2
0
 70
     0
 62
     7
  6
CONTINUOUS
370
    -3
390
8085
  0
LAYER
  5
80E9
102
{ACAD_XDICTIONARY
360
8130
102
}
330
8078
100
AcDbSymbolTableRecord
100
AcDbLayerTableRecord
  2
3
 70
     0
 62
     2
  6
CONTINUOUS
370
    -3
390
8085
  0
LAYER
  5
80EC
102
{ACAD_XDICTIONARY
360
8132
102
}
330
8078
100
AcDbSymbolTableRecord
100
AcDbLayerTableRecord
  2
2
 70
     0
 62
     3
  6
CENTER
370
    -3
390
8085
  0
LAYER
  5
80ED
102
{ACAD_XDICTIONARY
360
8134
102
}
330
8078
100
AcDbSymbolTableRecord
100
AcDbLayerTableRecord
  2
1
 70
     0
 62
     4
  6
CONTINUOUS
370
    -3
390
8085
  0
LAYER
  5
80EE
102
{ACAD_XDICTIONARY
360
8136
102
}
330
8078
100
AcDbSymbolTableRecord
100
AcDbLayerTableRecord
  2
4
 70
     0
 62
     7
  6
CONTINUOUS
370
    -3
390
8085
  0
LAYER
  5
80EF
330
8078
100
AcDbSymbolTableRecord
100
AcDbLayerTableRecord
  2
DEFPOINTS
 70
     0
 62
     7
  6
CONTINUOUS
290
     0
370
    -3
390
8085
  0
LAYER
  5
8184
102
{ACAD_XDICTIONARY
360
8185
102
}
330
8078
100
AcDbSymbolTableRecord
100
AcDbLayerTableRecord
  2
FUTO
 70
     0
 62
     4
  6
CONTINUOUS
370
    -3
390
8085
  0
ENDTAB
  0
TABLE
  2
STYLE
  5
8079
330
0
100
AcDbSymbolTable
 70
     2
  0
STYLE
  5
80CB
330
8079
100
AcDbSymbolTableRecord
100
AcDbTextStyleTableRecord
  2
STANDARD
 70
     0
 40
0.0
 41
1.0
 50
0.0
 71
     0
 42
180.0
  3
simplex.shx
  4
extfont.shx
  0
STYLE
  5
80CF
330
8079
100
AcDbSymbolTableRecord
100
AcDbTextStyleTableRecord
  2
Annotative
 70
     0
 40
0.0
 41
1.0
 50
0.0
 71
     0
 42
0.2
  3
txt
  4

1001
AcadAnnotative
1000
AnnotativeData
1002
{
1070
     1
1070
     1
1002
}
  0
ENDTAB
  0
TABLE
  2
VIEW
  5
807C
330
0
100
AcDbSymbolTable
 70
     0
  0
ENDTAB
  0
TABLE
  2
UCS
  5
807D
330
0
100
AcDbSymbolTable
 70
     0
  0
ENDTAB
  0
TABLE
  2
APPID
  5
807F
330
0
100
AcDbSymbolTable
 70
     6
  0
APPID
  5
80CC
330
807F
100
AcDbSymbolTableRecord
100
AcDbRegAppTableRecord
  2
ACAD
 70
     0
  0
APPID
  5
80D3
330
807F
100
AcDbSymbolTableRecord
100
AcDbRegAppTableRecord
  2
AcadAnnotative
 70
     0
  0
APPID
  5
8142
330
807F
100
AcDbSymbolTableRecord
100
AcDbRegAppTableRecord
  2
ACAD_NAV_VCDISPLAY
 70
     0
  0
APPID
  5
81EB
330
807F
100
AcDbSymbolTableRecord
100
AcDbRegAppTableRecord
  2
ACAD_DSTYLE_DIMJAG
 70
     0
  0
APPID
  5
81EC
330
807F
100
AcDbSymbolTableRecord
100
AcDbRegAppTableRecord
  2
ACAD_DSTYLE_DIMTALN
 70
     0
  0
APPID
  5
82AF
330
807F
100
AcDbSymbolTableRecord
100
AcDbRegAppTableRecord
  2
ACAD_MLEADERVER
 70
     0
  0
ENDTAB
  0
TABLE
  2
DIMSTYLE
  5
8080
330
0
100
AcDbSymbolTable
 70
     4
100
AcDbDimStyleTable
 71
     1
340
80F0
  0
DIMSTYLE
105
80CD
102
{ACAD_REACTORS
330
7C29
330
7C2A
330
7C4A
330
7C71
330
7C96
330
7C97
330
7C98
330
7CA7
330
7CAB
330
7CAC
330
7CBC
330
7FA9
330
7FB6
330
7FC3
330
7FD0
330
7FDF
330
7FEC
102
}
330
8080
100
AcDbSymbolTableRecord
100
AcDbDimStyleTableRecord
  2
Standard
 70
     0
340
80CB
  0
DIMSTYLE
105
80CE
330
8080
100
AcDbSymbolTableRecord
100
AcDbDimStyleTableRecord
  2
Annotative
 70
     0
340
80CB
1001
AcadAnnotative
1000
AnnotativeData
1002
{
1070
     1
1070
     1
1002
}
  0
DIMSTYLE
105
80F0
102
{ACAD_REACTORS
330
81AC
330
81B9
330
81ED
330
8213
330
8229
102
}
330
8080
100
AcDbSymbolTableRecord
100
AcDbDimStyleTableRecord
  2
IGA
 70
     0
 40
2.0
 41
2.0
 42
0.5
 43
10.0
 44
1.0
 47
1.0
 48
1.0
 73
     0
 74
     0
 77
     1
 78
     8
140
3.0
141
0.0
143
0.03937
146
10.0
147
1.0
173
     1
271
     3
272
     3
279
     2
284
     8
285
     8
286
     8
340
80CB
  0
DIMSTYLE
105
80F1
330
8080
100
AcDbSymbolTableRecord
100
AcDbDimStyleTableRecord
  2
MATSU
 70
     0
 41
2.0
 42
1.0
 43
10.0
 44
1.0
 73
     0
 74
     0
 77
     1
 78
     8
140
3.0
141
0.0
143
0.03937
147
0.5
172
     1
173
     1
176
   256
177
   256
178
   256
271
     3
272
     3
279
     2
284
     8
285
     8
286
     8
340
80CB
  0
ENDTAB
  0
TABLE
  2
BLOCK_RECORD
  5
8077
330
0
100
AcDbSymbolTable
 70
    34
  0
BLOCK_RECORD
  5
80E5
330
8077
100
AcDbSymbolTableRecord
100
AcDbBlockTableRecord
  2
*Model_Space
340
80E8
  0
BLOCK_RECORD
  5
80E1
330
8077
100
AcDbSymbolTableRecord
100
AcDbBlockTableRecord
  2
*Paper_Space
340
80E4
  0
BLOCK_RECORD
  5
80F5
330
8077
100
AcDbSymbolTableRecord
100
AcDbBlockTableRecord
  2
$MODEL_SPACE
340
0
  0
BLOCK_RECORD
  5
80F7
330
8077
100
AcDbSymbolTableRecord
100
AcDbBlockTableRecord
  2
$PAPER_SPACE
340
0
  0
BLOCK_RECORD
  5
80F9
330
8077
100
AcDbSymbolTableRecord
100
AcDbBlockTableRecord
  2
_OPEN
340
0
102
{BLKREFS
331
7F8E
331
7F8F
331
806A
331
806B
331
7FA2
331
7FA3
331
7FAF
331
7FB0
331
7FBC
331
7FBD
331
7FC9
331
7FCA
331
7FE5
331
7FE6
331
8223
331
8224
331
8230
331
8231
331
7DF4
331
7DF5
331
7DFF
331
7E00
331
7E0A
331
7E0B
331
7E2B
331
7E2C
331
7E41
331
7E42
331
7E4C
331
7E4D
331
7E57
331
7E58
331
7E62
331
7E63
331
7E6D
331
7E6E
331
7E78
331
7E79
331
7E83
331
7E84
331
7E8E
331
7E8F
331
805B
331
8062
331
8063
331
81DB
331
81DC
331
81E4
331
81E5
331
81FD
331
81FE
102
}
  0
BLOCK_RECORD
  5
80FB
330
8077
100
AcDbSymbolTableRecord
100
AcDbBlockTableRecord
  2
YA_N
340
0
102
{BLKREFS
331
7C04
331
7C26
331
7C3E
331
7C40
102
}
  0
BLOCK_RECORD
  5
80FD
330
8077
100
AcDbSymbolTableRecord
100
AcDbBlockTableRecord
  2
*D4
340
0
  0
BLOCK_RECORD
  5
80FF
330
8077
100
AcDbSymbolTableRecord
100
AcDbBlockTableRecord
  2
*D5
340
0
  0
BLOCK_RECORD
  5
8101
330
8077
100
AcDbSymbolTableRecord
100
AcDbBlockTableRecord
  2
*D6
340
0
  0
BLOCK_RECORD
  5
8103
330
8077
100
AcDbSymbolTableRecord
100
AcDbBlockTableRecord
  2
*D7
340
0
  0
BLOCK_RECORD
  5
8105
330
8077
100
AcDbSymbolTableRecord
100
AcDbBlockTableRecord
  2
*D8
340
0
  0
BLOCK_RECORD
  5
8107
330
8077
100
AcDbSymbolTableRecord
100
AcDbBlockTableRecord
  2
*D9
340
0
  0
BLOCK_RECORD
  5
8109
330
8077
100
AcDbSymbolTableRecord
100
AcDbBlockTableRecord
  2
*D10
340
0
  0
BLOCK_RECORD
  5
810B
330
8077
100
AcDbSymbolTableRecord
100
AcDbBlockTableRecord
  2
*D11
340
0
  0
BLOCK_RECORD
  5
810D
330
8077
100
AcDbSymbolTableRecord
100
AcDbBlockTableRecord
  2
*D12
340
0
  0
BLOCK_RECORD
  5
810F
330
8077
100
AcDbSymbolTableRecord
100
AcDbBlockTableRecord
  2
*D13
340
0
  0
BLOCK_RECORD
  5
8111
330
8077
100
AcDbSymbolTableRecord
100
AcDbBlockTableRecord
  2
*D14
340
0
  0
BLOCK_RECORD
  5
8113
330
8077
100
AcDbSymbolTableRecord
100
AcDbBlockTableRecord
  2
*D15
340
0
  0
BLOCK_RECORD
  5
8115
330
8077
100
AcDbSymbolTableRecord
100
AcDbBlockTableRecord
  2
*D16
340
0
  0
BLOCK_RECORD
  5
8117
330
8077
100
AcDbSymbolTableRecord
100
AcDbBlockTableRecord
  2
_DOT
340
0
102
{BLKREFS
331
805A
102
}
  0
BLOCK_RECORD
  5
8118
330
8077
100
AcDbSymbolTableRecord
100
AcDbBlockTableRecord
  2
*D18
340
0
  0
BLOCK_RECORD
  5
811A
330
8077
100
AcDbSymbolTableRecord
100
AcDbBlockTableRecord
  2
*D19
340
0
  0
BLOCK_RECORD
  5
811C
330
8077
100
AcDbSymbolTableRecord
100
AcDbBlockTableRecord
  2
*D20
340
0
  0
BLOCK_RECORD
  5
811F
330
8077
100
AcDbSymbolTableRecord
100
AcDbBlockTableRecord
  2
*D21
340
0
  0
BLOCK_RECORD
  5
8121
330
8077
100
AcDbSymbolTableRecord
100
AcDbBlockTableRecord
  2
*D22
340
0
  0
BLOCK_RECORD
  5
8123
330
8077
100
AcDbSymbolTableRecord
100
AcDbBlockTableRecord
  2
*D23
340
0
  0
BLOCK_RECORD
  5
8125
330
8077
100
AcDbSymbolTableRecord
100
AcDbBlockTableRecord
  2
*D24
340
0
  0
BLOCK_RECORD
  5
8127
330
8077
100
AcDbSymbolTableRecord
100
AcDbBlockTableRecord
  2
_NONE
340
0
  0
BLOCK_RECORD
  5
8129
330
8077
100
AcDbSymbolTableRecord
100
AcDbBlockTableRecord
  2
*D26
340
0
  0
BLOCK_RECORD
  5
812B
330
8077
100
AcDbSymbolTableRecord
100
AcDbBlockTableRecord
  2
*D27
340
0
  0
BLOCK_RECORD
  5
81AD
330
8077
100
AcDbSymbolTableRecord
100
AcDbBlockTableRecord
  2
*D29
340
0
  0
BLOCK_RECORD
  5
81BA
330
8077
100
AcDbSymbolTableRecord
100
AcDbBlockTableRecord
  2
*D30
340
0
  0
BLOCK_RECORD
  5
81EE
330
8077
100
AcDbSymbolTableRecord
100
AcDbBlockTableRecord
  2
*D31
340
0
  0
BLOCK_RECORD
  5
8214
330
8077
100
AcDbSymbolTableRecord
100
AcDbBlockTableRecord
  2
*D32
340
0
  0
BLOCK_RECORD
  5
822A
330
8077
100
AcDbSymbolTableRecord
100
AcDbBlockTableRecord
  2
*D33
340
0
  0
ENDTAB
  0
ENDSEC
  0
SECTION
  2
BLOCKS
  0
BLOCK
  5
80E6
330
80E5
100
AcDbEntity
  8
0
100
AcDbBlockBegin
  2
*Model_Space
 70
     0
 10
0.0
 20
0.0
 30
0.0
  3
*Model_Space
  1

  0
ENDBLK
  5
80E7
330
80E5
100
AcDbEntity
  8
0
100
AcDbBlockEnd
  0
BLOCK
  5
80E2
330
80E1
100
AcDbEntity
 67
     1
  8
0
100
AcDbBlockBegin
  2
*Paper_Space
 70
     0
 10
0.0
 20
0.0
 30
0.0
  3
*Paper_Space
  1

  0
ENDBLK
  5
80E3
330
80E1
100
AcDbEntity
 67
     1
  8
0
100
AcDbBlockEnd
  0
BLOCK
  5
80F6
330
80F5
100
AcDbEntity
  8
0
100
AcDbBlockBegin
  2
$MODEL_SPACE
 70
     0
 10
0.0
 20
0.0
 30
0.0
  3
$MODEL_SPACE
  1

  0
ENDBLK
  5
1B
330
80F5
100
AcDbEntity
  8
0
100
AcDbBlockEnd
  0
BLOCK
  5
80F8
330
80F7
100
AcDbEntity
  8
0
100
AcDbBlockBegin
  2
$PAPER_SPACE
 70
     0
 10
0.0
 20
0.0
 30
0.0
  3
$PAPER_SPACE
  1

  0
ENDBLK
  5
18
330
80F7
100
AcDbEntity
  8
0
100
AcDbBlockEnd
  0
BLOCK
  5
80FA
330
80F9
100
AcDbEntity
  8
0
100
AcDbBlockBegin
  2
_OPEN
 70
     0
 10
0.0
 20
0.0
 30
0.0
  3
_OPEN
  1

  0
LINE
  5
79FD
330
80F9
100
AcDbEntity
  8
0
  6
ByBlock
 62
     0
100
AcDbLine
 10
-1.0
 20
0.1666666666666666
 30
0.0
 11
0.0
 21
0.0
 31
0.0
  0
LINE
  5
79FE
330
80F9
100
AcDbEntity
  8
0
  6
ByBlock
 62
     0
100
AcDbLine
 10
0.0
 20
0.0
 30
0.0
 11
-1.0
 21
-0.1666666666666666
 31
0.0
  0
LINE
  5
79FF
330
80F9
100
AcDbEntity
  8
0
  6
ByBlock
 62
     0
100
AcDbLine
 10
0.0
 20
0.0
 30
0.0
 11
-1.0
 21
0.0
 31
0.0
  0
ENDBLK
  5
7A01
330
80F9
100
AcDbEntity
  8
0
100
AcDbBlockEnd
  0
BLOCK
  5
80FC
330
80FB
100
AcDbEntity
  8
0
100
AcDbBlockBegin
  2
YA_N
 70
     0
 10
0.0
 20
0.0
 30
0.0
  3
YA_N
  1

  0
ENDBLK
  5
7A0C
330
80FB
100
AcDbEntity
  8
0
100
AcDbBlockEnd
  0
BLOCK
  5
80FE
330
80FD
100
AcDbEntity
  8
0
100
AcDbBlockBegin
  2
*D4
 70
     1
 10
0.0
 20
0.0
 30
0.0
  3
*D4
  1

  0
LINE
  5
7DF1
330
80FD
100
AcDbEntity
  8
0
  6
ByBlock
100
AcDbLine
 10
2798.866167799455
 20
2409.887615409481
 30
0.0
 11
2947.211511341518
 21
2409.887615409481
 31
0.0
  0
LINE
  5
7DF2
330
80FD
100
AcDbEntity
  8
0
  6
ByBlock
100
AcDbLine
 10
2798.866167799455
 20
1584.887615409481
 30
0.0
 11
2947.211511341518
 21
1584.887615409481
 31
0.0
  0
LINE
  5
7DF3
330
80FD
100
AcDbEntity
  8
0
  6
ByBlock
100
AcDbLine
 10
2922.211511341518
 20
2359.887615409481
 30
0.0
 11
2922.211511341518
 21
1634.887615409481
 31
0.0
  0
INSERT
  5
7DF4
330
80FD
100
AcDbEntity
  8
0
  6
ByBlock
100
AcDbBlockReference
  2
_OPEN
 10
2922.211511341518
 20
2409.887615409481
 30
0.0
 41
50.0
 42
50.0
 43
50.0
 50
90.0
  0
INSERT
  5
7DF5
330
80FD
100
AcDbEntity
  8
0
  6
ByBlock
100
AcDbBlockReference
  2
_OPEN
 10
2922.211511341518
 20
1584.887615409481
 30
0.0
 41
50.0
 42
50.0
 43
50.0
 50
270.0
  0
TEXT
  5
7DF6
330
80FD
100
AcDbEntity
  8
3
100
AcDbText
 10
2909.711511341518
 20
1900.959043980909
 30
0.0
 40
75.0
  1
825
 50
90.0
100
AcDbText
  0
POINT
  5
7DF7
330
80FD
100
AcDbEntity
  8
DEFPOINTS
  6
ByBlock
 62
     0
100
AcDbPoint
 10
2773.866167799454
 20
2409.887615409481
 30
0.0
  0
POINT
  5
7DF8
330
80FD
100
AcDbEntity
  8
DEFPOINTS
  6
ByBlock
 62
     0
100
AcDbPoint
 10
2773.866167799454
 20
1584.887615409481
 30
0.0
  0
POINT
  5
7DF9
330
80FD
100
AcDbEntity
  8
DEFPOINTS
  6
ByBlock
 62
     0
100
AcDbPoint
 10
2922.211511341518
 20
1584.887615409481
 30
0.0
  0
ENDBLK
  5
7DFA
330
80FD
100
AcDbEntity
  8
0
100
AcDbBlockEnd
  0
BLOCK
  5
8100
330
80FF
100
AcDbEntity
  8
0
100
AcDbBlockBegin
  2
*D5
 70
     1
 10
0.0
 20
0.0
 30
0.0
  3
*D5
  1

  0
LINE
  5
7DFC
330
80FF
100
AcDbEntity
  8
0
  6
ByBlock
100
AcDbLine
 10
2798.866167799455
 20
2409.887615409481
 30
0.0
 11
3099.494913915321
 21
2409.887615409481
 31
0.0
  0
LINE
  5
7DFD
330
80FF
100
AcDbEntity
  8
0
  6
ByBlock
100
AcDbLine
 10
2920.337959649845
 20
1561.887615409481
 30
0.0
 11
3099.494913915321
 21
1561.887615409481
 31
0.0
  0
LINE
  5
7DFE
330
80FF
100
AcDbEntity
  8
0
  6
ByBlock
100
AcDbLine
 10
3074.494913915321
 20
2359.887615409481
 30
0.0
 11
3074.494913915321
 21
1611.887615409481
 31
0.0
  0
INSERT
  5
7DFF
330
80FF
100
AcDbEntity
  8
0
  6
ByBlock
100
AcDbBlockReference
  2
_OPEN
 10
3074.494913915321
 20
2409.887615409481
 30
0.0
 41
50.0
 42
50.0
 43
50.0
 50
90.0
  0
INSERT
  5
7E00
330
80FF
100
AcDbEntity
  8
0
  6
ByBlock
100
AcDbBlockReference
  2
_OPEN
 10
3074.494913915321
 20
1561.887615409481
 30
0.0
 41
50.0
 42
50.0
 43
50.0
 50
270.0
  0
TEXT
  5
7E01
330
80FF
100
AcDbEntity
  8
3
100
AcDbText
 10
3061.994913915321
 20
1889.459043980909
 30
0.0
 40
75.0
  1
848
 50
90.0
100
AcDbText
  0
POINT
  5
7E02
330
80FF
100
AcDbEntity
  8
DEFPOINTS
  6
ByBlock
 62
     0
100
AcDbPoint
 10
2773.866167799454
 20
2409.887615409481
 30
0.0
  0
POINT
  5
7E03
330
80FF
100
AcDbEntity
  8
DEFPOINTS
  6
ByBlock
 62
     0
100
AcDbPoint
 10
2895.337959649845
 20
1561.887615409481
 30
0.0
  0
POINT
  5
7E04
330
80FF
100
AcDbEntity
  8
DEFPOINTS
  6
ByBlock
 62
     0
100
AcDbPoint
 10
3074.494913915321
 20
1561.887615409481
 30
0.0
  0
ENDBLK
  5
7E05
330
80FF
100
AcDbEntity
  8
0
100
AcDbBlockEnd
  0
BLOCK
  5
8102
330
8101
100
AcDbEntity
  8
0
100
AcDbBlockBegin
  2
*D6
 70
     1
 10
0.0
 20
0.0
 30
0.0
  3
*D6
  1

  0
LINE
  5
7E07
330
8101
100
AcDbEntity
  8
0
  6
ByBlock
100
AcDbLine
 10
2920.337959649845
 20
1561.887615409481
 30
0.0
 11
3100.135824977384
 21
1561.887615409481
 31
0.0
  0
LINE
  5
7E08
330
8101
100
AcDbEntity
  8
0
  6
ByBlock
100
AcDbLine
 10
2753.866167799455
 20
971.8876154094807
 30
0.0
 11
3100.135824977384
 21
971.8876154094807
 31
0.0
  0
LINE
  5
7E09
330
8101
100
AcDbEntity
  8
0
  6
ByBlock
100
AcDbLine
 10
3075.135824977384
 20
1511.887615409481
 30
0.0
 11
3075.135824977384
 21
1021.88761540948
 31
0.0
  0
INSERT
  5
7E0A
330
8101
100
AcDbEntity
  8
0
  6
ByBlock
100
AcDbBlockReference
  2
_OPEN
 10
3075.135824977384
 20
1561.887615409481
 30
0.0
 41
50.0
 42
50.0
 43
50.0
 50
90.0
  0
INSERT
  5
7E0B
330
8101
100
AcDbEntity
  8
0
  6
ByBlock
100
AcDbBlockReference
  2
_OPEN
 10
3075.135824977384
 20
971.8876154094807
 30
0.0
 41
50.0
 42
50.0
 43
50.0
 50
270.0
  0
TEXT
  5
7E0C
330
8101
100
AcDbEntity
  8
3
100
AcDbText
 10
3062.635824977384
 20
1170.459043980909
 30
0.0
 40
75.0
  1
590
 50
90.0
100
AcDbText
  0
POINT
  5
7E0D
330
8101
100
AcDbEntity
  8
DEFPOINTS
  6
ByBlock
 62
     0
100
AcDbPoint
 10
2895.337959649845
 20
1561.887615409481
 30
0.0
  0
POINT
  5
7E0E
330
8101
100
AcDbEntity
  8
DEFPOINTS
  6
ByBlock
 62
     0
100
AcDbPoint
 10
2728.866167799455
 20
971.8876154094807
 30
0.0
  0
POINT
  5
7E0F
330
8101
100
AcDbEntity
  8
DEFPOINTS
  6
ByBlock
 62
     0
100
AcDbPoint
 10
3075.135824977384
 20
971.8876154094807
 30
0.0
  0
ENDBLK
  5
7E10
330
8101
100
AcDbEntity
  8
0
100
AcDbBlockEnd
  0
BLOCK
  5
8104
330
8103
100
AcDbEntity
  8
0
100
AcDbBlockBegin
  2
*D7
 70
     1
 10
0.0
 20
0.0
 30
0.0
  3
*D7
  1

  0
LINE
  5
7E28
330
8103
100
AcDbEntity
  8
0
  6
ByBlock
100
AcDbLine
 10
5441.207505112644
 20
1986.88761540948
 30
0.0
 11
5740.43091600962
 21
1986.88761540948
 31
0.0
  0
LINE
  5
7E29
330
8103
100
AcDbEntity
  8
0
  6
ByBlock
100
AcDbLine
 10
5441.207505112644
 20
1136.887615409481
 30
0.0
 11
5740.43091600962
 21
1136.887615409481
 31
0.0
  0
LINE
  5
7E2A
330
8103
100
AcDbEntity
  8
0
  6
ByBlock
100
AcDbLine
 10
5715.43091600962
 20
1936.88761540948
 30
0.0
 11
5715.43091600962
 21
1186.887615409481
 31
0.0
  0
INSERT
  5
7E2B
330
8103
100
AcDbEntity
  8
0
  6
ByBlock
100
AcDbBlockReference
  2
_OPEN
 10
5715.43091600962
 20
1986.88761540948
 30
0.0
 41
50.0
 42
50.0
 43
50.0
 50
90.0
  0
INSERT
  5
7E2C
330
8103
100
AcDbEntity
  8
0
  6
ByBlock
100
AcDbBlockReference
  2
_OPEN
 10
5715.43091600962
 20
1136.887615409481
 30
0.0
 41
50.0
 42
50.0
 43
50.0
 50
270.0
  0
TEXT
  5
7E2D
330
8103
100
AcDbEntity
  8
3
100
AcDbText
 10
5702.93091600962
 20
1427.959043980909
 30
0.0
 40
75.0
  1
\U+03C6850
 50
90.0
100
AcDbText
  0
POINT
  5
7E2E
330
8103
100
AcDbEntity
  8
DEFPOINTS
  6
ByBlock
 62
     0
100
AcDbPoint
 10
5416.207505112645
 20
1986.88761540948
 30
0.0
  0
POINT
  5
7E2F
330
8103
100
AcDbEntity
  8
DEFPOINTS
  6
ByBlock
 62
     0
100
AcDbPoint
 10
5416.207505112645
 20
1136.887615409481
 30
0.0
  0
POINT
  5
7E30
330
8103
100
AcDbEntity
  8
DEFPOINTS
  6
ByBlock
 62
     0
100
AcDbPoint
 10
5715.43091600962
 20
1136.887615409481
 30
0.0
  0
ENDBLK
  5
7E31
330
8103
100
AcDbEntity
  8
0
100
AcDbBlockEnd
  0
BLOCK
  5
8106
330
8105
100
AcDbEntity
  8
0
100
AcDbBlockBegin
  2
*D8
 70
     1
 10
0.0
 20
0.0
 30
0.0
  3
*D8
  1

  0
LINE
  5
7E3E
330
8105
100
AcDbEntity
  8
0
  6
ByBlock
100
AcDbLine
 10
1728.866167799454
 20
4579.380572240498
 30
0.0
 11
1728.866167799454
 21
4730.503855791452
 31
0.0
  0
LINE
  5
7E3F
330
8105
100
AcDbEntity
  8
0
  6
ByBlock
100
AcDbLine
 10
2728.866167799455
 20
4579.380572240498
 30
0.0
 11
2728.866167799455
 21
4730.503855791452
 31
0.0
  0
LINE
  5
7E40
330
8105
100
AcDbEntity
  8
0
  6
ByBlock
100
AcDbLine
 10
1778.866167799454
 20
4705.503855791452
 30
0.0
 11
2678.866167799455
 21
4705.503855791452
 31
0.0
  0
INSERT
  5
7E41
330
8105
100
AcDbEntity
  8
0
  6
ByBlock
100
AcDbBlockReference
  2
_OPEN
 10
1728.866167799454
 20
4705.503855791452
 30
0.0
 41
50.0
 42
50.0
 43
50.0
 50
180.0
  0
INSERT
  5
7E42
330
8105
100
AcDbEntity
  8
0
  6
ByBlock
100
AcDbBlockReference
  2
_OPEN
 10
2728.866167799455
 20
4705.503855791452
 30
0.0
 41
50.0
 42
50.0
 43
50.0
  0
TEXT
  5
7E43
330
8105
100
AcDbEntity
  8
3
100
AcDbText
 10
2103.866167799455
 20
4718.003855791452
 30
0.0
 40
75.0
  1
1000
100
AcDbText
  0
POINT
  5
7E44
330
8105
100
AcDbEntity
  8
DEFPOINTS
  6
ByBlock
 62
     0
100
AcDbPoint
 10
1728.866167799454
 20
4554.380572240497
 30
0.0
  0
POINT
  5
7E45
330
8105
100
AcDbEntity
  8
DEFPOINTS
  6
ByBlock
 62
     0
100
AcDbPoint
 10
2728.866167799455
 20
4554.380572240497
 30
0.0
  0
POINT
  5
7E46
330
8105
100
AcDbEntity
  8
DEFPOINTS
  6
ByBlock
 62
     0
100
AcDbPoint
 10
2728.866167799455
 20
4705.503855791452
 30
0.0
  0
ENDBLK
  5
7E47
330
8105
100
AcDbEntity
  8
0
100
AcDbBlockEnd
  0
BLOCK
  5
8108
330
8107
100
AcDbEntity
  8
0
100
AcDbBlockBegin
  2
*D9
 70
     1
 10
0.0
 20
0.0
 30
0.0
  3
*D9
  1

  0
LINE
  5
7E49
330
8107
100
AcDbEntity
  8
0
  6
ByBlock
100
AcDbLine
 10
2753.866167799455
 20
4554.380572240497
 30
0.0
 11
2971.802895949344
 21
4554.380572240497
 31
0.0
  0
LINE
  5
7E4A
330
8107
100
AcDbEntity
  8
0
  6
ByBlock
100
AcDbLine
 10
2753.866167799455
 20
3299.3805722405
 30
0.0
 11
2971.802895949344
 21
3299.3805722405
 31
0.0
  0
LINE
  5
7E4B
330
8107
100
AcDbEntity
  8
0
  6
ByBlock
100
AcDbLine
 10
2946.802895949344
 20
4504.380572240497
 30
0.0
 11
2946.802895949344
 21
3349.380572240499
 31
0.0
  0
INSERT
  5
7E4C
330
8107
100
AcDbEntity
  8
0
  6
ByBlock
100
AcDbBlockReference
  2
_OPEN
 10
2946.802895949344
 20
4554.380572240497
 30
0.0
 41
50.0
 42
50.0
 43
50.0
 50
90.0
  0
INSERT
  5
7E4D
330
8107
100
AcDbEntity
  8
0
  6
ByBlock
100
AcDbBlockReference
  2
_OPEN
 10
2946.802895949344
 20
3299.3805722405
 30
0.0
 41
50.0
 42
50.0
 43
50.0
 50
270.0
  0
TEXT
  5
7E4E
330
8107
100
AcDbEntity
  8
3
100
AcDbText
 10
2934.302895949344
 20
3801.8805722405
 30
0.0
 40
75.0
  1
1255
 50
90.0
100
AcDbText
  0
POINT
  5
7E4F
330
8107
100
AcDbEntity
  8
DEFPOINTS
  6
ByBlock
 62
     0
100
AcDbPoint
 10
2728.866167799455
 20
4554.380572240497
 30
0.0
  0
POINT
  5
7E50
330
8107
100
AcDbEntity
  8
DEFPOINTS
  6
ByBlock
 62
     0
100
AcDbPoint
 10
2728.866167799455
 20
3299.3805722405
 30
0.0
  0
POINT
  5
7E51
330
8107
100
AcDbEntity
  8
DEFPOINTS
  6
ByBlock
 62
     0
100
AcDbPoint
 10
2946.802895949344
 20
3299.3805722405
 30
0.0
  0
ENDBLK
  5
7E52
330
8107
100
AcDbEntity
  8
0
100
AcDbBlockEnd
  0
BLOCK
  5
810A
330
8109
100
AcDbEntity
  8
0
100
AcDbBlockBegin
  2
*D10
 70
     1
 10
0.0
 20
0.0
 30
0.0
  3
*D10
  1

  0
LINE
  5
7E54
330
8109
100
AcDbEntity
  8
0
  6
ByBlock
100
AcDbLine
 10
953.8661677994548
 20
4049.380572240499
 30
0.0
 11
801.7133386761415
 21
4049.380572240499
 31
0.0
  0
LINE
  5
7E55
330
8109
100
AcDbEntity
  8
0
  6
ByBlock
100
AcDbLine
 10
953.8661677994548
 20
3299.3805722405
 30
0.0
 11
801.7133386761415
 21
3299.3805722405
 31
0.0
  0
LINE
  5
7E56
330
8109
100
AcDbEntity
  8
0
  6
ByBlock
100
AcDbLine
 10
826.7133386761415
 20
3999.380572240499
 30
0.0
 11
826.7133386761415
 21
3349.3805722405
 31
0.0
  0
INSERT
  5
7E57
330
8109
100
AcDbEntity
  8
0
  6
ByBlock
100
AcDbBlockReference
  2
_OPEN
 10
826.7133386761415
 20
4049.380572240499
 30
0.0
 41
50.0
 42
50.0
 43
50.0
 50
90.0
  0
INSERT
  5
7E58
330
8109
100
AcDbEntity
  8
0
  6
ByBlock
100
AcDbBlockReference
  2
_OPEN
 10
826.7133386761415
 20
3299.3805722405
 30
0.0
 41
50.0
 42
50.0
 43
50.0
 50
270.0
  0
TEXT
  5
7E59
330
8109
100
AcDbEntity
  8
3
100
AcDbText
 10
814.2133386761415
 20
3577.952000811928
 30
0.0
 40
75.0
  1
750
 50
90.0
100
AcDbText
  0
POINT
  5
7E5A
330
8109
100
AcDbEntity
  8
DEFPOINTS
  6
ByBlock
 62
     0
100
AcDbPoint
 10
978.8661677994548
 20
4049.380572240499
 30
0.0
  0
POINT
  5
7E5B
330
8109
100
AcDbEntity
  8
DEFPOINTS
  6
ByBlock
 62
     0
100
AcDbPoint
 10
978.8661677994548
 20
3299.3805722405
 30
0.0
  0
POINT
  5
7E5C
330
8109
100
AcDbEntity
  8
DEFPOINTS
  6
ByBlock
 62
     0
100
AcDbPoint
 10
826.7133386761415
 20
3299.3805722405
 30
0.0
  0
ENDBLK
  5
7E5D
330
8109
100
AcDbEntity
  8
0
100
AcDbBlockEnd
  0
BLOCK
  5
810C
330
810B
100
AcDbEntity
  8
0
100
AcDbBlockBegin
  2
*D11
 70
     1
 10
0.0
 20
0.0
 30
0.0
  3
*D11
  1

  0
LINE
  5
7E5F
330
810B
100
AcDbEntity
  8
0
  6
ByBlock
100
AcDbLine
 10
978.8661677994548
 20
3274.3805722405
 30
0.0
 11
978.8661677994548
 21
3013.7147873961
 31
0.0
  0
LINE
  5
7E60
330
810B
100
AcDbEntity
  8
0
  6
ByBlock
100
AcDbLine
 10
2728.866167799455
 20
3274.380572240499
 30
0.0
 11
2728.866167799455
 21
3013.7147873961
 31
0.0
  0
LINE
  5
7E61
330
810B
100
AcDbEntity
  8
0
  6
ByBlock
100
AcDbLine
 10
1028.866167799455
 20
3038.7147873961
 30
0.0
 11
2678.866167799455
 21
3038.7147873961
 31
0.0
  0
INSERT
  5
7E62
330
810B
100
AcDbEntity
  8
0
  6
ByBlock
100
AcDbBlockReference
  2
_OPEN
 10
978.8661677994548
 20
3038.7147873961
 30
0.0
 41
50.0
 42
50.0
 43
50.0
 50
180.0
  0
INSERT
  5
7E63
330
810B
100
AcDbEntity
  8
0
  6
ByBlock
100
AcDbBlockReference
  2
_OPEN
 10
2728.866167799455
 20
3038.7147873961
 30
0.0
 41
50.0
 42
50.0
 43
50.0
  0
TEXT
  5
7E64
330
810B
100
AcDbEntity
  8
3
100
AcDbText
 10
1728.866167799455
 20
3051.2147873961
 30
0.0
 40
75.0
  1
1750
100
AcDbText
  0
POINT
  5
7E65
330
810B
100
AcDbEntity
  8
DEFPOINTS
  6
ByBlock
 62
     0
100
AcDbPoint
 10
978.8661677994548
 20
3299.3805722405
 30
0.0
  0
POINT
  5
7E66
330
810B
100
AcDbEntity
  8
DEFPOINTS
  6
ByBlock
 62
     0
100
AcDbPoint
 10
2728.866167799455
 20
3299.3805722405
 30
0.0
  0
POINT
  5
7E67
330
810B
100
AcDbEntity
  8
DEFPOINTS
  6
ByBlock
 62
     0
100
AcDbPoint
 10
2728.866167799455
 20
3038.7147873961
 30
0.0
  0
ENDBLK
  5
7E68
330
810B
100
AcDbEntity
  8
0
100
AcDbBlockEnd
  0
BLOCK
  5
810E
330
810D
100
AcDbEntity
  8
0
100
AcDbBlockBegin
  2
*D12
 70
     1
 10
0.0
 20
0.0
 30
0.0
  3
*D12
  1

  0
LINE
  5
7E6A
330
810D
100
AcDbEntity
  8
0
  6
ByBlock
100
AcDbLine
 10
4413.907505112644
 20
2434.887615409481
 30
0.0
 11
4413.907505112644
 21
2587.190522429095
 31
0.0
  0
LINE
  5
7E6B
330
810D
100
AcDbEntity
  8
0
  6
ByBlock
100
AcDbLine
 10
5413.907505112645
 20
2434.887615409481
 30
0.0
 11
5413.907505112645
 21
2587.190522429095
 31
0.0
  0
LINE
  5
7E6C
330
810D
100
AcDbEntity
  8
0
  6
ByBlock
100
AcDbLine
 10
4463.907505112644
 20
2562.190522429094
 30
0.0
 11
5363.907505112646
 21
2562.190522429094
 31
0.0
  0
INSERT
  5
7E6D
330
810D
100
AcDbEntity
  8
0
  6
ByBlock
100
AcDbBlockReference
  2
_OPEN
 10
4413.907505112644
 20
2562.190522429094
 30
0.0
 41
50.0
 42
50.0
 43
50.0
 50
180.0
  0
INSERT
  5
7E6E
330
810D
100
AcDbEntity
  8
0
  6
ByBlock
100
AcDbBlockReference
  2
_OPEN
 10
5413.907505112645
 20
2562.190522429094
 30
0.0
 41
50.0
 42
50.0
 43
50.0
  0
TEXT
  5
7E6F
330
810D
100
AcDbEntity
  8
3
100
AcDbText
 10
4788.907505112644
 20
2574.690522429095
 30
0.0
 40
75.0
  1
1000
100
AcDbText
  0
POINT
  5
7E70
330
810D
100
AcDbEntity
  8
DEFPOINTS
  6
ByBlock
 62
     0
100
AcDbPoint
 10
4413.907505112644
 20
2409.887615409481
 30
0.0
  0
POINT
  5
7E71
330
810D
100
AcDbEntity
  8
DEFPOINTS
  6
ByBlock
 62
     0
100
AcDbPoint
 10
5413.907505112645
 20
2409.887615409481
 30
0.0
  0
POINT
  5
7E72
330
810D
100
AcDbEntity
  8
DEFPOINTS
  6
ByBlock
 62
     0
100
AcDbPoint
 10
5413.907505112645
 20
2562.190522429094
 30
0.0
  0
ENDBLK
  5
7E73
330
810D
100
AcDbEntity
  8
0
100
AcDbBlockEnd
  0
BLOCK
  5
8110
330
810F
100
AcDbEntity
  8
0
100
AcDbBlockBegin
  2
*D13
 70
     1
 10
0.0
 20
0.0
 30
0.0
  3
*D13
  1

  0
LINE
  5
7E75
330
810F
100
AcDbEntity
  8
0
  6
ByBlock
100
AcDbLine
 10
1545.206084046463
 20
1586.887615409481
 30
0.0
 11
1545.206084046463
 21
2589.20679631228
 31
0.0
  0
LINE
  5
7E76
330
810F
100
AcDbEntity
  8
0
  6
ByBlock
100
AcDbLine
 10
2228.866167799455
 20
2445.570948036724
 30
0.0
 11
2228.866167799455
 21
2589.20679631228
 31
0.0
  0
LINE
  5
7E77
330
810F
100
AcDbEntity
  8
0
  6
ByBlock
100
AcDbLine
 10
1595.206084046463
 20
2564.20679631228
 30
0.0
 11
2178.866167799455
 21
2564.20679631228
 31
0.0
  0
INSERT
  5
7E78
330
810F
100
AcDbEntity
  8
0
  6
ByBlock
100
AcDbBlockReference
  2
_OPEN
 10
1545.206084046463
 20
2564.20679631228
 30
0.0
 41
50.0
 42
50.0
 43
50.0
 50
180.0
  0
INSERT
  5
7E79
330
810F
100
AcDbEntity
  8
0
  6
ByBlock
100
AcDbBlockReference
  2
_OPEN
 10
2228.866167799455
 20
2564.20679631228
 30
0.0
 41
50.0
 42
50.0
 43
50.0
  0
TEXT
  5
7E7A
330
810F
100
AcDbEntity
  8
3
100
AcDbText
 10
1792.393268780102
 20
2576.706796312281
 30
0.0
 40
75.0
  1
686
100
AcDbText
  0
POINT
  5
7E7B
330
810F
100
AcDbEntity
  8
DEFPOINTS
  6
ByBlock
 62
     0
100
AcDbPoint
 10
1545.206084046463
 20
1561.887615409481
 30
0.0
  0
POINT
  5
7E7C
330
810F
100
AcDbEntity
  8
DEFPOINTS
  6
ByBlock
 62
     0
100
AcDbPoint
 10
2228.866167799455
 20
2420.570948036724
 30
0.0
  0
POINT
  5
7E7D
330
810F
100
AcDbEntity
  8
DEFPOINTS
  6
ByBlock
 62
     0
100
AcDbPoint
 10
2228.866167799455
 20
2564.20679631228
 30
0.0
  0
ENDBLK
  5
7E7E
330
810F
100
AcDbEntity
  8
0
100
AcDbBlockEnd
  0
BLOCK
  5
8112
330
8111
100
AcDbEntity
  8
0
100
AcDbBlockBegin
  2
*D14
 70
     1
 10
0.0
 20
0.0
 30
0.0
  3
*D14
  1

  0
LINE
  5
7E80
330
8111
100
AcDbEntity
  8
0
  6
ByBlock
100
AcDbLine
 10
2228.866167799455
 20
2445.570948036724
 30
0.0
 11
2228.866167799455
 21
2589.20679631228
 31
0.0
  0
LINE
  5
7E81
330
8111
100
AcDbEntity
  8
0
  6
ByBlock
100
AcDbLine
 10
2773.866167799454
 20
2477.387615409481
 30
0.0
 11
2773.866167799454
 21
2589.20679631228
 31
0.0
  0
LINE
  5
7E82
330
8111
100
AcDbEntity
  8
0
  6
ByBlock
100
AcDbLine
 10
2278.866167799455
 20
2564.20679631228
 30
0.0
 11
2723.866167799455
 21
2564.20679631228
 31
0.0
  0
INSERT
  5
7E83
330
8111
100
AcDbEntity
  8
0
  6
ByBlock
100
AcDbBlockReference
  2
_OPEN
 10
2228.866167799455
 20
2564.20679631228
 30
0.0
 41
50.0
 42
50.0
 43
50.0
 50
180.0
  0
INSERT
  5
7E84
330
8111
100
AcDbEntity
  8
0
  6
ByBlock
100
AcDbBlockReference
  2
_OPEN
 10
2773.866167799454
 20
2564.20679631228
 30
0.0
 41
50.0
 42
50.0
 43
50.0
  0
TEXT
  5
7E85
330
8111
100
AcDbEntity
  8
3
100
AcDbText
 10
2404.937596370883
 20
2576.706796312281
 30
0.0
 40
75.0
  1
545
100
AcDbText
  0
POINT
  5
7E86
330
8111
100
AcDbEntity
  8
DEFPOINTS
  6
ByBlock
 62
     0
100
AcDbPoint
 10
2228.866167799455
 20
2420.570948036724
 30
0.0
  0
POINT
  5
7E87
330
8111
100
AcDbEntity
  8
DEFPOINTS
  6
ByBlock
 62
     0
100
AcDbPoint
 10
2773.866167799454
 20
2452.387615409481
 30
0.0
  0
POINT
  5
7E88
330
8111
100
AcDbEntity
  8
DEFPOINTS
  6
ByBlock
 62
     0
100
AcDbPoint
 10
2773.866167799454
 20
2564.20679631228
 30
0.0
  0
ENDBLK
  5
7E89
330
8111
100
AcDbEntity
  8
0
100
AcDbBlockEnd
  0
BLOCK
  5
8114
330
8113
100
AcDbEntity
  8
0
100
AcDbBlockBegin
  2
*D15
 70
     1
 10
0.0
 20
0.0
 30
0.0
  3
*D15
  1

  0
LINE
  5
7E8B
330
8113
100
AcDbEntity
  8
0
  6
ByBlock
100
AcDbLine
 10
978.8661677994548
 20
1096.887615409481
 30
0.0
 11
978.8661677994548
 21
2736.143709729451
 31
0.0
  0
LINE
  5
7E8C
330
8113
100
AcDbEntity
  8
0
  6
ByBlock
100
AcDbLine
 10
2773.866167799454
 20
2477.387615409481
 30
0.0
 11
2773.866167799454
 21
2736.143709729451
 31
0.0
  0
LINE
  5
7E8D
330
8113
100
AcDbEntity
  8
0
  6
ByBlock
100
AcDbLine
 10
1028.866167799454
 20
2711.143709729451
 30
0.0
 11
2723.866167799455
 21
2711.143709729451
 31
0.0
  0
INSERT
  5
7E8E
330
8113
100
AcDbEntity
  8
0
  6
ByBlock
100
AcDbBlockReference
  2
_OPEN
 10
978.8661677994548
 20
2711.143709729451
 30
0.0
 41
50.0
 42
50.0
 43
50.0
 50
180.0
  0
INSERT
  5
7E8F
330
8113
100
AcDbEntity
  8
0
  6
ByBlock
100
AcDbBlockReference
  2
_OPEN
 10
2773.866167799454
 20
2711.143709729451
 30
0.0
 41
50.0
 42
50.0
 43
50.0
  0
TEXT
  5
7E90
330
8113
100
AcDbEntity
  8
3
100
AcDbText
 10
1751.366167799454
 20
2723.643709729451
 30
0.0
 40
75.0
  1
1795
100
AcDbText
  0
POINT
  5
7E91
330
8113
100
AcDbEntity
  8
DEFPOINTS
  6
ByBlock
 62
     0
100
AcDbPoint
 10
978.8661677994548
 20
1071.88761540948
 30
0.0
  0
POINT
  5
7E92
330
8113
100
AcDbEntity
  8
DEFPOINTS
  6
ByBlock
 62
     0
100
AcDbPoint
 10
2773.866167799454
 20
2452.387615409481
 30
0.0
  0
POINT
  5
7E93
330
8113
100
AcDbEntity
  8
DEFPOINTS
  6
ByBlock
 62
     0
100
AcDbPoint
 10
2773.866167799454
 20
2711.143709729451
 30
0.0
  0
ENDBLK
  5
7E94
330
8113
100
AcDbEntity
  8
0
100
AcDbBlockEnd
  0
BLOCK
  5
8116
330
8115
100
AcDbEntity
  8
0
100
AcDbBlockBegin
  2
*D16
 70
     1
 10
0.0
 20
0.0
 30
0.0
  3
*D16
  1

  0
LINE
  5
8055
330
8115
100
AcDbEntity
  8
3
 62
     0
100
AcDbLine
 10
2371.735556307825
 20
1789.252558363745
 30
0.0
 11
2730.505213485754
 21
1789.252558363745
 31
0.0
  0
LINE
  5
8056
330
8115
100
AcDbEntity
  8
3
 62
     0
100
AcDbLine
 10
2371.735556307825
 20
1689.252558363745
 30
0.0
 11
2730.505213485754
 21
1689.252558363745
 31
0.0
  0
LINE
  5
8057
330
8115
100
AcDbEntity
  8
3
 62
     0
100
AcDbLine
 10
2705.505213485754
 20
1839.252558363745
 30
0.0
 11
2705.505213485754
 21
1889.252558363745
 31
0.0
  0
LINE
  5
8058
330
8115
100
AcDbEntity
  8
3
 62
     0
100
AcDbLine
 10
2705.505213485754
 20
1639.252558363745
 30
0.0
 11
2705.505213485754
 21
1360.681129792316
 31
0.0
  0
LINE
  5
8059
330
8115
100
AcDbEntity
  8
3
 62
     0
100
AcDbLine
 10
2705.505213485754
 20
1789.252558363745
 30
0.0
 11
2705.505213485754
 21
1689.252558363745
 31
0.0
  0
INSERT
  5
805A
330
8115
100
AcDbEntity
  8
3
 62
     0
100
AcDbBlockReference
  2
_DOT
 10
2705.505213485754
 20
1789.252558363745
 30
0.0
 41
50.0
 42
50.0
 43
50.0
 50
270.0
  0
INSERT
  5
805B
330
8115
100
AcDbEntity
  8
3
 62
     0
100
AcDbBlockReference
  2
_OPEN
 10
2705.505213485754
 20
1689.252558363745
 30
0.0
 41
50.0
 42
50.0
 43
50.0
 50
90.0
  0
TEXT
  5
8073
330
8115
100
AcDbEntity
  8
3
 62
     0
100
AcDbText
 10
2493.01
 20
1342.22
 30
0.0
 40
75.0
  1
100
100
AcDbText
  0
POINT
  5
805D
330
8115
100
AcDbEntity
  8
DEFPOINTS
 62
     0
100
AcDbPoint
 10
2359.235556307825
 20
1789.252558363745
 30
0.0
  0
POINT
  5
805E
330
8115
100
AcDbEntity
  8
DEFPOINTS
 62
     0
100
AcDbPoint
 10
2359.235556307825
 20
1689.252558363745
 30
0.0
  0
POINT
  5
805F
330
8115
100
AcDbEntity
  8
DEFPOINTS
 62
     0
100
AcDbPoint
 10
2705.505213485754
 20
1689.252558363745
 30
0.0
  0
ENDBLK
  5
7F70
330
8115
100
AcDbEntity
  8
0
100
AcDbBlockEnd
  0
BLOCK
  5
811E
330
8117
100
AcDbEntity
  8
0
100
AcDbBlockBegin
  2
_DOT
 70
     0
 10
0.0
 20
0.0
 30
0.0
  3
_DOT
  1

  0
LWPOLYLINE
  5
7F73
330
8117
100
AcDbEntity
  8
0
  6
ByBlock
 62
     0
100
AcDbPolyline
 90
        2
 70
     1
 43
0.25
 10
-0.125
 20
0.0
 42
1.0
 10
0.125
 20
0.0
 42
1.0
  0
LINE
  5
7F77
330
8117
100
AcDbEntity
  8
0
  6
ByBlock
 62
     0
100
AcDbLine
 10
-0.25
 20
0.0
 30
0.0
 11
-1.0
 21
0.0
 31
0.0
  0
ENDBLK
  5
7F3C
330
8117
100
AcDbEntity
  8
0
100
AcDbBlockEnd
  0
BLOCK
  5
8119
330
8118
100
AcDbEntity
  8
0
100
AcDbBlockBegin
  2
*D18
 70
     1
 10
0.0
 20
0.0
 30
0.0
  3
*D18
  1

  0
LINE
  5
8060
330
8118
100
AcDbEntity
  8
3
100
AcDbLine
 10
609.2355563078252
 20
4918.745515194763
 30
0.0
 11
609.2355563078252
 21
5574.868798745717
 31
0.0
  0
LINE
  5
8061
330
8118
100
AcDbEntity
  8
3
100
AcDbLine
 10
1309.235556307824
 20
5549.868798745717
 30
0.0
 11
659.2355563078252
 21
5549.868798745717
 31
0.0
  0
INSERT
  5
8062
330
8118
100
AcDbEntity
  8
3
100
AcDbBlockReference
  2
_OPEN
 10
1359.235556307824
 20
5549.868798745717
 30
0.0
 41
50.0
 42
50.0
 43
50.0
  0
INSERT
  5
8063
330
8118
100
AcDbEntity
  8
3
100
AcDbBlockReference
  2
_OPEN
 10
609.2355563078252
 20
5549.868798745717
 30
0.0
 41
50.0
 42
50.0
 43
50.0
 50
180.0
  0
TEXT
  5
8074
330
8118
100
AcDbEntity
  8
3
100
AcDbText
 10
834.2360000000001
 20
5467.12
 30
0.0
 40
75.0
  1
750
100
AcDbText
  0
POINT
  5
8065
330
8118
100
AcDbEntity
  8
DEFPOINTS
 62
     0
100
AcDbPoint
 10
1359.235556307824
 20
5398.745515194764
 30
0.0
  0
POINT
  5
8066
330
8118
100
AcDbEntity
  8
DEFPOINTS
 62
     0
100
AcDbPoint
 10
609.2355563078252
 20
4893.745515194763
 30
0.0
  0
POINT
  5
8067
330
8118
100
AcDbEntity
  8
DEFPOINTS
 62
     0
100
AcDbPoint
 10
609.2355563078252
 20
5549.868798745717
 30
0.0
  0
ENDBLK
  5
7ED9
330
8118
100
AcDbEntity
  8
0
100
AcDbBlockEnd
  0
BLOCK
  5
811B
330
811A
100
AcDbEntity
  8
0
100
AcDbBlockBegin
  2
*D19
 70
     1
 10
0.0
 20
0.0
 30
0.0
  3
*D19
  1

  0
LINE
  5
7F8B
330
811A
100
AcDbEntity
  8
0
  6
ByBlock
100
AcDbLine
 10
4682.238642150313
 20
2391.752558363744
 30
0.0
 11
4682.238642150313
 21
3568.235904942719
 31
0.0
  0
LINE
  5
7F8C
330
811A
100
AcDbEntity
  8
0
  6
ByBlock
100
AcDbLine
 10
4082.238642150311
 20
3501.860932132735
 30
0.0
 11
4082.238642150311
 21
3568.235904942719
 31
0.0
  0
LINE
  5
7F8D
330
811A
100
AcDbEntity
  8
0
  6
ByBlock
100
AcDbLine
 10
4632.238642150313
 20
3543.235904942721
 30
0.0
 11
4132.238642150311
 21
3543.235904942721
 31
0.0
  0
INSERT
  5
7F8E
330
811A
100
AcDbEntity
  8
0
  6
ByBlock
100
AcDbBlockReference
  2
_OPEN
 10
4682.238642150313
 20
3543.235904942721
 30
0.0
 41
50.0
 42
50.0
 43
50.0
  0
INSERT
  5
7F8F
330
811A
100
AcDbEntity
  8
0
  6
ByBlock
100
AcDbBlockReference
  2
_OPEN
 10
4082.238642150311
 20
3543.235904942721
 30
0.0
 41
50.0
 42
50.0
 43
50.0
 50
180.0
  0
TEXT
  5
7F90
330
811A
100
AcDbEntity
  8
3
100
AcDbText
 10
4244.738642150312
 20
3587.878762085576
 30
0.0
 40
75.0
  1
(610)
100
AcDbText
  0
POINT
  5
7F91
330
811A
100
AcDbEntity
  8
DEFPOINTS
  6
ByBlock
 62
     0
100
AcDbPoint
 10
4682.238642150313
 20
2366.752558363744
 30
0.0
  0
POINT
  5
7F92
330
811A
100
AcDbEntity
  8
DEFPOINTS
  6
ByBlock
 62
     0
100
AcDbPoint
 10
4082.238642150311
 20
3476.860932132735
 30
0.0
  0
POINT
  5
7F93
330
811A
100
AcDbEntity
  8
DEFPOINTS
  6
ByBlock
 62
     0
100
AcDbPoint
 10
4082.238642150311
 20
3543.235904942721
 30
0.0
  0
ENDBLK
  5
7F94
330
811A
100
AcDbEntity
  8
0
100
AcDbBlockEnd
  0
BLOCK
  5
811D
330
811C
100
AcDbEntity
  8
0
100
AcDbBlockBegin
  2
*D20
 70
     1
 10
0.0
 20
0.0
 30
0.0
  3
*D20
  1

  0
LINE
  5
8068
330
811C
100
AcDbEntity
  8
3
100
AcDbLine
 10
3272.238642150312
 20
2651.252558363744
 30
0.0
 11
3272.238642150312
 21
3568.235904942719
 31
0.0
  0
LINE
  5
8069
330
811C
100
AcDbEntity
  8
3
100
AcDbLine
 10
4032.238642150312
 20
3543.235904942721
 30
0.0
 11
3322.238642150312
 21
3543.235904942721
 31
0.0
  0
INSERT
  5
806A
330
811C
100
AcDbEntity
  8
3
100
AcDbBlockReference
  2
_OPEN
 10
4082.238642150311
 20
3543.235904942721
 30
0.0
 41
50.0
 42
50.0
 43
50.0
  0
INSERT
  5
806B
330
811C
100
AcDbEntity
  8
3
100
AcDbBlockReference
  2
_OPEN
 10
3272.238642150312
 20
3543.235904942721
 30
0.0
 41
50.0
 42
50.0
 43
50.0
 50
180.0
  0
TEXT
  5
8075
330
811C
100
AcDbEntity
  8
3
100
AcDbText
 10
3527.24
 20
3522.99
 30
0.0
 40
75.0
  1
MAX
100
AcDbText
  0
TEXT
  5
8076
330
811C
100
AcDbEntity
  8
3
100
AcDbText
 10
3527.24
 20
3425.49
 30
0.0
 40
75.0
  1
860
100
AcDbText
  0
POINT
  5
806D
330
811C
100
AcDbEntity
  8
DEFPOINTS
 62
     0
100
AcDbPoint
 10
4082.238642150311
 20
3476.860932132735
 30
0.0
  0
POINT
  5
806E
330
811C
100
AcDbEntity
  8
DEFPOINTS
 62
     0
100
AcDbPoint
 10
3272.238642150312
 20
2626.252558363745
 30
0.0
  0
POINT
  5
806F
330
811C
100
AcDbEntity
  8
DEFPOINTS
 62
     0
100
AcDbPoint
 10
3272.238642150312
 20
3543.235904942721
 30
0.0
  0
ENDBLK
  5
7F89
330
811C
100
AcDbEntity
  8
0
100
AcDbBlockEnd
  0
BLOCK
  5
8120
330
811F
100
AcDbEntity
  8
0
100
AcDbBlockBegin
  2
*D21
 70
     1
 10
0.0
 20
0.0
 30
0.0
  3
*D21
  1

  0
LINE
  5
7F9F
330
811F
100
AcDbEntity
  8
0
  6
ByBlock
 62
     0
100
AcDbLine
 10
609.2355563078252
 20
1664.252558363745
 30
0.0
 11
609.2355563078252
 21
1490.379441479799
 31
0.0
  0
LINE
  5
7FA0
330
811F
100
AcDbEntity
  8
0
  6
ByBlock
 62
     0
100
AcDbLine
 10
1859.235556307824
 20
1664.252558363745
 30
0.0
 11
1859.235556307824
 21
1490.379441479799
 31
0.0
  0
LINE
  5
7FA1
330
811F
100
AcDbEntity
  8
0
  6
ByBlock
 62
     0
100
AcDbLine
 10
659.2355563078252
 20
1515.379441479799
 30
0.0
 11
1809.235556307825
 21
1515.379441479799
 31
0.0
  0
INSERT
  5
7FA2
330
811F
100
AcDbEntity
  8
0
  6
ByBlock
 62
     0
100
AcDbBlockReference
  2
_OPEN
 10
609.2355563078252
 20
1515.379441479799
 30
0.0
 41
50.0
 42
50.0
 43
50.0
 50
180.0
  0
INSERT
  5
7FA3
330
811F
100
AcDbEntity
  8
0
  6
ByBlock
 62
     0
100
AcDbBlockReference
  2
_OPEN
 10
1859.235556307824
 20
1515.379441479799
 30
0.0
 41
50.0
 42
50.0
 43
50.0
  0
TEXT
  5
7FA4
330
811F
100
AcDbEntity
  8
3
 62
     0
100
AcDbText
 10
1109.235556307824
 20
1540.379441479799
 30
0.0
 40
75.0
  1
1250
100
AcDbText
  0
POINT
  5
7FA5
330
811F
100
AcDbEntity
  8
DEFPOINTS
  6
ByBlock
 62
     0
100
AcDbPoint
 10
609.2355563078252
 20
1689.252558363745
 30
0.0
  0
POINT
  5
7FA6
330
811F
100
AcDbEntity
  8
DEFPOINTS
  6
ByBlock
 62
     0
100
AcDbPoint
 10
1859.235556307824
 20
1689.252558363745
 30
0.0
  0
POINT
  5
7FA7
330
811F
100
AcDbEntity
  8
DEFPOINTS
  6
ByBlock
 62
     0
100
AcDbPoint
 10
1859.235556307824
 20
1515.379441479799
 30
0.0
  0
ENDBLK
  5
7FA8
330
811F
100
AcDbEntity
  8
0
100
AcDbBlockEnd
  0
BLOCK
  5
8122
330
8121
100
AcDbEntity
  8
0
100
AcDbBlockBegin
  2
*D22
 70
     1
 10
0.0
 20
0.0
 30
0.0
  3
*D22
  1

  0
LINE
  5
7FAC
330
8121
100
AcDbEntity
  8
0
  6
ByBlock
 62
     0
100
AcDbLine
 10
1859.235556307824
 20
1664.252558363745
 30
0.0
 11
1859.235556307824
 21
1490.379441479799
 31
0.0
  0
LINE
  5
7FAD
330
8121
100
AcDbEntity
  8
0
  6
ByBlock
 62
     0
100
AcDbLine
 10
2359.235556307825
 20
1664.252558363745
 30
0.0
 11
2359.235556307825
 21
1490.379441479799
 31
0.0
  0
LINE
  5
7FAE
330
8121
100
AcDbEntity
  8
0
  6
ByBlock
 62
     0
100
AcDbLine
 10
1909.235556307825
 20
1515.379441479799
 30
0.0
 11
2309.235556307825
 21
1515.379441479799
 31
0.0
  0
INSERT
  5
7FAF
330
8121
100
AcDbEntity
  8
0
  6
ByBlock
 62
     0
100
AcDbBlockReference
  2
_OPEN
 10
1859.235556307824
 20
1515.379441479799
 30
0.0
 41
50.0
 42
50.0
 43
50.0
 50
180.0
  0
INSERT
  5
7FB0
330
8121
100
AcDbEntity
  8
0
  6
ByBlock
 62
     0
100
AcDbBlockReference
  2
_OPEN
 10
2359.235556307825
 20
1515.379441479799
 30
0.0
 41
50.0
 42
50.0
 43
50.0
  0
TEXT
  5
7FB1
330
8121
100
AcDbEntity
  8
3
 62
     0
100
AcDbText
 10
2012.806984879254
 20
1540.379441479799
 30
0.0
 40
75.0
  1
500
100
AcDbText
  0
POINT
  5
7FB2
330
8121
100
AcDbEntity
  8
DEFPOINTS
  6
ByBlock
 62
     0
100
AcDbPoint
 10
1859.235556307824
 20
1689.252558363745
 30
0.0
  0
POINT
  5
7FB3
330
8121
100
AcDbEntity
  8
DEFPOINTS
  6
ByBlock
 62
     0
100
AcDbPoint
 10
2359.235556307825
 20
1689.252558363745
 30
0.0
  0
POINT
  5
7FB4
330
8121
100
AcDbEntity
  8
DEFPOINTS
  6
ByBlock
 62
     0
100
AcDbPoint
 10
2359.235556307825
 20
1515.379441479799
 30
0.0
  0
ENDBLK
  5
7FB5
330
8121
100
AcDbEntity
  8
0
100
AcDbBlockEnd
  0
BLOCK
  5
8124
330
8123
100
AcDbEntity
  8
0
100
AcDbBlockBegin
  2
*D23
 70
     1
 10
0.0
 20
0.0
 30
0.0
  3
*D23
  1

  0
LINE
  5
7FB9
330
8123
100
AcDbEntity
  8
0
  6
ByBlock
 62
     0
100
AcDbLine
 10
3380.238642150312
 20
1664.252558363745
 30
0.0
 11
3380.238642150312
 21
1490.379441479799
 31
0.0
  0
LINE
  5
7FBA
330
8123
100
AcDbEntity
  8
0
  6
ByBlock
 62
     0
100
AcDbLine
 10
4082.238642150313
 20
1664.252558363745
 30
0.0
 11
4082.238642150313
 21
1490.379441479799
 31
0.0
  0
LINE
  5
7FBB
330
8123
100
AcDbEntity
  8
0
  6
ByBlock
 62
     0
100
AcDbLine
 10
3430.238642150313
 20
1515.379441479799
 30
0.0
 11
4032.238642150313
 21
1515.379441479799
 31
0.0
  0
INSERT
  5
7FBC
330
8123
100
AcDbEntity
  8
0
  6
ByBlock
 62
     0
100
AcDbBlockReference
  2
_OPEN
 10
3380.238642150312
 20
1515.379441479799
 30
0.0
 41
50.0
 42
50.0
 43
50.0
 50
180.0
  0
INSERT
  5
7FBD
330
8123
100
AcDbEntity
  8
0
  6
ByBlock
 62
     0
100
AcDbBlockReference
  2
_OPEN
 10
4082.238642150313
 20
1515.379441479799
 30
0.0
 41
50.0
 42
50.0
 43
50.0
  0
TEXT
  5
7FBE
330
8123
100
AcDbEntity
  8
3
 62
     0
100
AcDbText
 10
3634.810070721741
 20
1540.379441479799
 30
0.0
 40
75.0
  1
702
100
AcDbText
  0
POINT
  5
7FBF
330
8123
100
AcDbEntity
  8
DEFPOINTS
  6
ByBlock
 62
     0
100
AcDbPoint
 10
3380.238642150312
 20
1689.252558363745
 30
0.0
  0
POINT
  5
7FC0
330
8123
100
AcDbEntity
  8
DEFPOINTS
  6
ByBlock
 62
     0
100
AcDbPoint
 10
4082.238642150313
 20
1689.252558363745
 30
0.0
  0
POINT
  5
7FC1
330
8123
100
AcDbEntity
  8
DEFPOINTS
  6
ByBlock
 62
     0
100
AcDbPoint
 10
4082.238642150313
 20
1515.379441479799
 30
0.0
  0
ENDBLK
  5
7FC2
330
8123
100
AcDbEntity
  8
0
100
AcDbBlockEnd
  0
BLOCK
  5
8126
330
8125
100
AcDbEntity
  8
0
100
AcDbBlockBegin
  2
*D24
 70
     1
 10
0.0
 20
0.0
 30
0.0
  3
*D24
  1

  0
LINE
  5
7FC6
330
8125
100
AcDbEntity
  8
0
  6
ByBlock
 62
     0
100
AcDbLine
 10
4082.238642150313
 20
1664.252558363745
 30
0.0
 11
4082.238642150313
 21
1490.379441479799
 31
0.0
  0
LINE
  5
7FC7
330
8125
100
AcDbEntity
  8
0
  6
ByBlock
 62
     0
100
AcDbLine
 10
4635.238642150313
 20
1664.252558363745
 30
0.0
 11
4635.238642150313
 21
1490.379441479799
 31
0.0
  0
LINE
  5
7FC8
330
8125
100
AcDbEntity
  8
0
  6
ByBlock
 62
     0
100
AcDbLine
 10
4132.238642150313
 20
1515.379441479799
 30
0.0
 11
4585.238642150313
 21
1515.379441479799
 31
0.0
  0
INSERT
  5
7FC9
330
8125
100
AcDbEntity
  8
0
  6
ByBlock
 62
     0
100
AcDbBlockReference
  2
_OPEN
 10
4082.238642150313
 20
1515.379441479799
 30
0.0
 41
50.0
 42
50.0
 43
50.0
 50
180.0
  0
INSERT
  5
7FCA
330
8125
100
AcDbEntity
  8
0
  6
ByBlock
 62
     0
100
AcDbBlockReference
  2
_OPEN
 10
4635.238642150313
 20
1515.379441479799
 30
0.0
 41
50.0
 42
50.0
 43
50.0
  0
TEXT
  5
7FCB
330
8125
100
AcDbEntity
  8
3
 62
     0
100
AcDbText
 10
4262.310070721741
 20
1540.379441479799
 30
0.0
 40
75.0
  1
553
100
AcDbText
  0
POINT
  5
7FCC
330
8125
100
AcDbEntity
  8
DEFPOINTS
  6
ByBlock
 62
     0
100
AcDbPoint
 10
4082.238642150313
 20
1689.252558363745
 30
0.0
  0
POINT
  5
7FCD
330
8125
100
AcDbEntity
  8
DEFPOINTS
  6
ByBlock
 62
     0
100
AcDbPoint
 10
4635.238642150313
 20
1689.252558363745
 30
0.0
  0
POINT
  5
7FCE
330
8125
100
AcDbEntity
  8
DEFPOINTS
  6
ByBlock
 62
     0
100
AcDbPoint
 10
4635.238642150313
 20
1515.379441479799
 30
0.0
  0
ENDBLK
  5
7FCF
330
8125
100
AcDbEntity
  8
0
100
AcDbBlockEnd
  0
BLOCK
  5
8128
330
8127
100
AcDbEntity
  8
0
100
AcDbBlockBegin
  2
_NONE
 70
     0
 10
0.0
 20
0.0
 30
0.0
  3
_NONE
  1

  0
CIRCLE
  5
7FD3
330
8127
100
AcDbEntity
  8
0
  6
ByBlock
 62
     0
100
AcDbCircle
 10
0.0
 20
0.0
 30
0.0
 40
0.25
  0
ENDBLK
  5
7FD4
330
8127
100
AcDbEntity
  8
0
100
AcDbBlockEnd
  0
BLOCK
  5
812A
330
8129
100
AcDbEntity
  8
0
100
AcDbBlockBegin
  2
*D26
 70
     1
 10
0.0
 20
0.0
 30
0.0
  3
*D26
  1

  0
LINE
  5
7FD7
330
8129
100
AcDbEntity
  8
0
  6
ByBlock
 62
     0
100
AcDbLine
 10
2705.51178283629
 20
1789.252558363745
 30
0.0
 11
2705.51178283629
 21
1789.252558363745
 31
0.0
  0
LINE
  5
7FD8
330
8129
100
AcDbEntity
  8
0
  6
ByBlock
 62
     0
100
AcDbLine
 10
2705.51178283629
 20
1816.252558363744
 30
0.0
 11
2705.51178283629
 21
1916.252558363744
 31
0.0
  0
TEXT
  5
7FD9
330
8129
100
AcDbEntity
  8
3
 62
     0
100
AcDbText
 10
2850.154639979145
 20
1693.823986935173
 30
0.0
 40
75.0
  1
(27)
 50
90.0
100
AcDbText
  0
LINE
  5
7FDA
330
8129
100
AcDbEntity
  8
0
  6
ByBlock
 62
     0
100
AcDbLine
 10
2705.51178283629
 20
1789.252558363745
 30
0.0
 11
2705.51178283629
 21
1816.252558363744
 31
0.0
  0
POINT
  5
7FDB
330
8129
100
AcDbEntity
  8
DEFPOINTS
  6
ByBlock
 62
     0
100
AcDbPoint
 10
2359.235556307825
 20
1789.252558363745
 30
0.0
  0
POINT
  5
7FDC
330
8129
100
AcDbEntity
  8
DEFPOINTS
  6
ByBlock
 62
     0
100
AcDbPoint
 10
2359.235556307825
 20
1816.252558363744
 30
0.0
  0
POINT
  5
7FDD
330
8129
100
AcDbEntity
  8
DEFPOINTS
  6
ByBlock
 62
     0
100
AcDbPoint
 10
2705.51178283629
 20
1816.252558363744
 30
0.0
  0
ENDBLK
  5
7FDE
330
8129
100
AcDbEntity
  8
0
100
AcDbBlockEnd
  0
BLOCK
  5
812C
330
812B
100
AcDbEntity
  8
0
100
AcDbBlockBegin
  2
*D27
 70
     1
 10
0.0
 20
0.0
 30
0.0
  3
*D27
  1

  0
LINE
  5
7FE2
330
812B
100
AcDbEntity
  8
0
  6
ByBlock
 62
     0
100
AcDbLine
 10
2384.235556307825
 20
1689.252558363745
 30
0.0
 11
2937.586802046487
 21
1689.252558363745
 31
0.0
  0
LINE
  5
7FE3
330
812B
100
AcDbEntity
  8
0
  6
ByBlock
 62
     0
100
AcDbLine
 10
2429.235556307825
 20
3254.252558363746
 30
0.0
 11
2937.586802046487
 21
3254.252558363746
 31
0.0
  0
LINE
  5
7FE4
330
812B
100
AcDbEntity
  8
0
  6
ByBlock
 62
     0
100
AcDbLine
 10
2912.586802046488
 20
1739.252558363745
 30
0.0
 11
2912.586802046488
 21
3204.252558363746
 31
0.0
  0
INSERT
  5
7FE5
330
812B
100
AcDbEntity
  8
0
  6
ByBlock
 62
     0
100
AcDbBlockReference
  2
_OPEN
 10
2912.586802046488
 20
1689.252558363745
 30
0.0
 41
50.0
 42
50.0
 43
50.0
 50
270.0
  0
INSERT
  5
7FE6
330
812B
100
AcDbEntity
  8
0
  6
ByBlock
 62
     0
100
AcDbBlockReference
  2
_OPEN
 10
2912.586802046488
 20
3254.252558363746
 30
0.0
 41
50.0
 42
50.0
 43
50.0
 50
90.0
  0
TEXT
  5
7FE7
330
812B
100
AcDbEntity
  8
3
 62
     0
100
AcDbText
 10
2855.44394490363
 20
2298.538272649459
 30
0.0
 40
75.0
  1
(1565)
 50
90.0
100
AcDbText
  0
POINT
  5
7FE8
330
812B
100
AcDbEntity
  8
DEFPOINTS
  6
ByBlock
 62
     0
100
AcDbPoint
 10
2359.235556307825
 20
1689.252558363745
 30
0.0
  0
POINT
  5
7FE9
330
812B
100
AcDbEntity
  8
DEFPOINTS
  6
ByBlock
 62
     0
100
AcDbPoint
 10
2404.235556307825
 20
3254.252558363746
 30
0.0
  0
POINT
  5
7FEA
330
812B
100
AcDbEntity
  8
DEFPOINTS
  6
ByBlock
 62
     0
100
AcDbPoint
 10
2912.586802046488
 20
3254.252558363746
 30
0.0
  0
ENDBLK
  5
7FEB
330
812B
100
AcDbEntity
  8
0
100
AcDbBlockEnd
  0
BLOCK
  5
81AE
330
81AD
100
AcDbEntity
  8
0
100
AcDbBlockBegin
  2
*D29
 70
     1
 10
0.0
 20
0.0
 30
0.0
  3
*D29
  1

  0
LINE
  5
81D8
330
81AD
100
AcDbEntity
  8
3
 62
     0
370
    -2
100
AcDbLine
 10
3182.238642150312
 20
2651.252558363746
 30
0.0
 11
3182.238642150312
 21
3607.701555757362
 31
0.0
  0
LINE
  5
81D9
330
81AD
100
AcDbEntity
  8
3
 62
     0
370
    -2
100
AcDbLine
 10
4082.238642150311
 20
3519.055465383359
 30
0.0
 11
4082.238642150311
 21
3607.701555757362
 31
0.0
  0
LINE
  5
81DA
330
81AD
100
AcDbEntity
  8
3
 62
     0
370
    -2
100
AcDbLine
 10
3232.238642150312
 20
3582.701555757362
 30
0.0
 11
4032.238642150312
 21
3582.701555757362
 31
0.0
  0
INSERT
  5
81DB
330
81AD
100
AcDbEntity
  8
3
 62
     0
370
    -2
100
AcDbBlockReference
  2
_OPEN
 10
3182.238642150312
 20
3582.701555757362
 30
0.0
 41
50.0
 42
50.0
 43
50.0
 50
180.0
  0
INSERT
  5
81DC
330
81AD
100
AcDbEntity
  8
3
 62
     0
370
    -2
100
AcDbBlockReference
  2
_OPEN
 10
4082.238642150311
 20
3582.701555757362
 30
0.0
 41
50.0
 42
50.0
 43
50.0
  0
MTEXT
  5
81DD
330
81AD
100
AcDbEntity
  8
3
 62
     0
100
AcDbMText
 10
3632.238642150312
 20
3664.844412900219
 30
0.0
 40
75.0
 41
0.0
 71
     5
 72
     1
  1
\A1;(900)
 73
     1
 44
1.0
1001
ACAD
1000
MTEXTBEGIN
1070
    73
1070
     1
1070
    44
1040
1.0
1070
    74
1070
     0
1000
MTEXTEND
  0
POINT
  5
81DE
330
81AD
100
AcDbEntity
  8
DEFPOINTS
 62
     0
100
AcDbPoint
 10
3182.238642150312
 20
2626.252558363745
 30
0.0
  0
POINT
  5
81DF
330
81AD
100
AcDbEntity
  8
DEFPOINTS
 62
     0
100
AcDbPoint
 10
4082.238642150311
 20
3494.055465383359
 30
0.0
  0
POINT
  5
81E0
330
81AD
100
AcDbEntity
  8
DEFPOINTS
 62
     0
100
AcDbPoint
 10
4082.238642150311
 20
3582.701555757362
 30
0.0
  0
ENDBLK
  5
81AF
330
81AD
100
AcDbEntity
  8
0
100
AcDbBlockEnd
  0
BLOCK
  5
81BB
330
81BA
100
AcDbEntity
  8
0
100
AcDbBlockBegin
  2
*D30
 70
     1
 10
0.0
 20
0.0
 30
0.0
  3
*D30
  1

  0
LINE
  5
81E1
330
81BA
100
AcDbEntity
  8
3
 62
     0
370
    -2
100
AcDbLine
 10
4082.238642150311
 20
3519.055465383359
 30
0.0
 11
4082.238642150311
 21
3607.701555757362
 31
0.0
  0
LINE
  5
81E2
330
81BA
100
AcDbEntity
  8
3
 62
     0
370
    -2
100
AcDbLine
 10
4692.238642150313
 20
2391.752558363744
 30
0.0
 11
4692.238642150313
 21
3607.701555757362
 31
0.0
  0
LINE
  5
81E3
330
81BA
100
AcDbEntity
  8
3
 62
     0
370
    -2
100
AcDbLine
 10
4132.238642150312
 20
3582.701555757362
 30
0.0
 11
4642.238642150313
 21
3582.701555757362
 31
0.0
  0
INSERT
  5
81E4
330
81BA
100
AcDbEntity
  8
3
 62
     0
370
    -2
100
AcDbBlockReference
  2
_OPEN
 10
4082.238642150311
 20
3582.701555757362
 30
0.0
 41
50.0
 42
50.0
 43
50.0
 50
180.0
  0
INSERT
  5
81E5
330
81BA
100
AcDbEntity
  8
3
 62
     0
370
    -2
100
AcDbBlockReference
  2
_OPEN
 10
4692.238642150313
 20
3582.701555757362
 30
0.0
 41
50.0
 42
50.0
 43
50.0
  0
MTEXT
  5
81E6
330
81BA
100
AcDbEntity
  8
3
 62
     0
100
AcDbMText
 10
4387.238642150312
 20
3664.844412900219
 30
0.0
 40
75.0
 41
0.0
 71
     5
 72
     1
  1
\A1;(610)
 73
     1
 44
1.0
1001
ACAD
1000
MTEXTBEGIN
1070
    73
1070
     1
1070
    44
1040
1.0
1070
    74
1070
     0
1000
MTEXTEND
  0
POINT
  5
81E7
330
81BA
100
AcDbEntity
  8
DEFPOINTS
 62
     0
100
AcDbPoint
 10
4082.238642150311
 20
3494.055465383359
 30
0.0
  0
POINT
  5
81E8
330
81BA
100
AcDbEntity
  8
DEFPOINTS
 62
     0
100
AcDbPoint
 10
4692.238642150313
 20
2366.752558363744
 30
0.0
  0
POINT
  5
81E9
330
81BA
100
AcDbEntity
  8
DEFPOINTS
 62
     0
100
AcDbPoint
 10
4692.238642150313
 20
3582.701555757362
 30
0.0
  0
ENDBLK
  5
81BC
330
81BA
100
AcDbEntity
  8
0
100
AcDbBlockEnd
  0
BLOCK
  5
81EF
330
81EE
100
AcDbEntity
  8
0
100
AcDbBlockBegin
  2
*D31
 70
     1
 10
0.0
 20
0.0
 30
0.0
  3
*D31
  1

  0
LINE
  5
81FA
330
81EE
100
AcDbEntity
  8
3
 62
     0
370
    -2
100
AcDbLine
 10
1359.235556307824
 20
5423.745515194763
 30
0.0
 11
1359.235556307824
 21
5574.868798745716
 31
0.0
  0
LINE
  5
81FB
330
81EE
100
AcDbEntity
  8
3
 62
     0
370
    -2
100
AcDbLine
 10
609.2355563078252
 20
4918.745515194763
 30
0.0
 11
609.2355563078252
 21
5574.868798745716
 31
0.0
  0
LINE
  5
81FC
330
81EE
100
AcDbEntity
  8
3
 62
     0
370
    -2
100
AcDbLine
 10
1309.235556307825
 20
5549.868798745716
 30
0.0
 11
659.2355563078252
 21
5549.868798745716
 31
0.0
  0
INSERT
  5
81FD
330
81EE
100
AcDbEntity
  8
3
 62
     0
370
    -2
100
AcDbBlockReference
  2
_OPEN
 10
1359.235556307824
 20
5549.868798745716
 30
0.0
 41
50.0
 42
50.0
 43
50.0
  0
INSERT
  5
81FE
330
81EE
100
AcDbEntity
  8
3
 62
     0
370
    -2
100
AcDbBlockReference
  2
_OPEN
 10
609.2355563078252
 20
5549.868798745716
 30
0.0
 41
50.0
 42
50.0
 43
50.0
 50
180.0
  0
MTEXT
  5
81FF
330
81EE
100
AcDbEntity
  8
3
 62
     0
100
AcDbMText
 10
984.235556307825
 20
5612.368798745716
 30
0.0
 40
75.0
 41
0.0
 71
     5
 72
     1
  1
\A1;750
 73
     1
 44
1.0
1001
ACAD
1000
MTEXTBEGIN
1070
    73
1070
     1
1070
    44
1040
1.0
1070
    74
1070
     0
1000
MTEXTEND
  0
POINT
  5
8200
330
81EE
100
AcDbEntity
  8
DEFPOINTS
 62
     0
100
AcDbPoint
 10
1359.235556307824
 20
5398.745515194764
 30
0.0
  0
POINT
  5
8201
330
81EE
100
AcDbEntity
  8
DEFPOINTS
 62
     0
100
AcDbPoint
 10
609.2355563078252
 20
4893.745515194763
 30
0.0
  0
POINT
  5
8202
330
81EE
100
AcDbEntity
  8
DEFPOINTS
 62
     0
100
AcDbPoint
 10
609.2355563078252
 20
5549.868798745716
 30
0.0
  0
ENDBLK
  5
81F0
330
81EE
100
AcDbEntity
  8
0
100
AcDbBlockEnd
  0
BLOCK
  5
8215
330
8214
100
AcDbEntity
  8
0
100
AcDbBlockBegin
  2
*D32
 70
     1
 10
0.0
 20
0.0
 30
0.0
  3
*D32
  1

  0
LINE
  5
8220
330
8214
100
AcDbEntity
  8
3
 62
     0
370
    -2
100
AcDbLine
 10
1859.235556307824
 20
3289.935890990989
 30
0.0
 11
1859.235556307824
 21
3433.571739266544
 31
0.0
  0
LINE
  5
8221
330
8214
100
AcDbEntity
  8
3
 62
     0
370
    -2
100
AcDbLine
 10
1183.235556307824
 20
2490.252558363744
 30
0.0
 11
1183.235556307824
 21
3433.571739266544
 31
0.0
  0
LINE
  5
8222
330
8214
100
AcDbEntity
  8
3
 62
     0
370
    -2
100
AcDbLine
 10
1809.235556307825
 20
3408.571739266544
 30
0.0
 11
1233.235556307824
 21
3408.571739266544
 31
0.0
  0
INSERT
  5
8223
330
8214
100
AcDbEntity
  8
3
 62
     0
370
    -2
100
AcDbBlockReference
  2
_OPEN
 10
1859.235556307824
 20
3408.571739266544
 30
0.0
 41
50.0
 42
50.0
 43
50.0
  0
INSERT
  5
8224
330
8214
100
AcDbEntity
  8
3
 62
     0
370
    -2
100
AcDbBlockReference
  2
_OPEN
 10
1183.235556307824
 20
3408.571739266544
 30
0.0
 41
50.0
 42
50.0
 43
50.0
 50
180.0
  0
MTEXT
  5
8225
330
8214
100
AcDbEntity
  8
3
 62
     0
100
AcDbMText
 10
1521.235556307824
 20
3471.071739266544
 30
0.0
 40
75.0
 41
0.0
 71
     5
 72
     1
  1
\A1;676
 73
     1
 44
1.0
1001
ACAD
1000
MTEXTBEGIN
1070
    73
1070
     1
1070
    44
1040
1.0
1070
    74
1070
     0
1000
MTEXTEND
  0
POINT
  5
8226
330
8214
100
AcDbEntity
  8
DEFPOINTS
 62
     0
100
AcDbPoint
 10
1859.235556307824
 20
3264.935890990989
 30
0.0
  0
POINT
  5
8227
330
8214
100
AcDbEntity
  8
DEFPOINTS
 62
     0
100
AcDbPoint
 10
1183.235556307824
 20
2465.252558363744
 30
0.0
  0
POINT
  5
8228
330
8214
100
AcDbEntity
  8
DEFPOINTS
 62
     0
100
AcDbPoint
 10
1183.235556307824
 20
3408.571739266544
 30
0.0
  0
ENDBLK
  5
8216
330
8214
100
AcDbEntity
  8
0
100
AcDbBlockEnd
  0
BLOCK
  5
822B
330
822A
100
AcDbEntity
  8
0
100
AcDbBlockBegin
  2
*D33
 70
     1
 10
0.0
 20
0.0
 30
0.0
  3
*D33
  1

  0
LINE
  5
822D
330
822A
100
AcDbEntity
  8
3
 62
     0
370
    -2
100
AcDbLine
 10
609.2355563078252
 20
4118.745515194762
 30
0.0
 11
609.2355563078252
 21
3750.479420863423
 31
0.0
  0
LINE
  5
822E
330
822A
100
AcDbEntity
  8
3
 62
     0
370
    -2
100
AcDbLine
 10
2359.235556307825
 20
4118.745515194762
 30
0.0
 11
2359.235556307825
 21
3750.479420863423
 31
0.0
  0
LINE
  5
822F
330
822A
100
AcDbEntity
  8
3
 62
     0
370
    -2
100
AcDbLine
 10
659.2355563078252
 20
3775.479420863423
 30
0.0
 11
2309.235556307825
 21
3775.479420863423
 31
0.0
  0
INSERT
  5
8230
330
822A
100
AcDbEntity
  8
3
 62
     0
370
    -2
100
AcDbBlockReference
  2
_OPEN
 10
609.2355563078252
 20
3775.479420863423
 30
0.0
 41
50.0
 42
50.0
 43
50.0
 50
180.0
  0
INSERT
  5
8231
330
822A
100
AcDbEntity
  8
3
 62
     0
370
    -2
100
AcDbBlockReference
  2
_OPEN
 10
2359.235556307825
 20
3775.479420863423
 30
0.0
 41
50.0
 42
50.0
 43
50.0
  0
MTEXT
  5
8232
330
822A
100
AcDbEntity
  8
3
 62
     0
100
AcDbMText
 10
1484.235556307825
 20
3837.979420863423
 30
0.0
 40
75.0
 41
0.0
 71
     5
 72
     1
  1
\A1;1750
 73
     1
 44
1.0
1001
ACAD
1000
MTEXTBEGIN
1070
    73
1070
     1
1070
    44
1040
1.0
1070
    74
1070
     0
1000
MTEXTEND
  0
POINT
  5
8233
330
822A
100
AcDbEntity
  8
DEFPOINTS
 62
     0
100
AcDbPoint
 10
609.2355563078252
 20
4143.745515194763
 30
0.0
  0
POINT
  5
8234
330
822A
100
AcDbEntity
  8
DEFPOINTS
 62
     0
100
AcDbPoint
 10
2359.235556307825
 20
4143.745515194763
 30
0.0
  0
POINT
  5
8235
330
822A
100
AcDbEntity
  8
DEFPOINTS
 62
     0
100
AcDbPoint
 10
2359.235556307825
 20
3775.479420863423
 30
0.0
  0
ENDBLK
  5
822C
330
822A
100
AcDbEntity
  8
0
100
AcDbBlockEnd
  0
ENDSEC
  0
SECTION
  2
ENTITIES
  0
INSERT
  5
7C04
330
80E5
100
AcDbEntity
  8
0
100
AcDbBlockReference
  2
YA_N
 10
6.0
 20
5.0
 30
0.0
  0
LINE
  5
7C06
330
80E5
100
AcDbEntity
  8
2
100
AcDbLine
 10
1859.235556307824
 20
3264.935890990989
 30
0.0
 11
1859.235556307824
 21
1689.252558363745
 31
0.0
  0
LINE
  5
7C07
330
80E5
100
AcDbEntity
  8
2
100
AcDbLine
 10
2525.707348158216
 20
2406.252558363744
 30
0.0
 11
1101.331979117788
 21
2406.252558363744
 31
0.0
  0
LINE
  5
7C12
330
80E5
100
AcDbEntity
  8
1
100
AcDbLine
 10
609.2355563078252
 20
1689.252558363745
 30
0.0
 11
2359.235556307825
 21
1689.252558363745
 31
0.0
  0
LINE
  5
7C13
330
80E5
100
AcDbEntity
  8
1
100
AcDbLine
 10
2359.235556307825
 20
1789.252558363745
 30
0.0
 11
2359.235556307825
 21
1689.252558363745
 31
0.0
  0
LINE
  5
7C14
330
80E5
100
AcDbEntity
  8
1
100
AcDbLine
 10
609.2355563078252
 20
1789.252558363745
 30
0.0
 11
609.2355563078252
 21
1689.252558363745
 31
0.0
  0
LINE
  5
7C15
330
80E5
100
AcDbEntity
  8
1
100
AcDbLine
 10
1059.235556307824
 20
1956.252558363743
 30
0.0
 11
1059.235556307824
 21
1916.252558363744
 31
0.0
  0
LINE
  5
7C16
330
80E5
100
AcDbEntity
  8
1
100
AcDbLine
 10
4582.238642150313
 20
3254.252558363746
 30
0.0
 11
4582.238642150311
 21
2429.252558363745
 31
0.0
  0
LINE
  5
7C17
330
80E5
100
AcDbEntity
  8
1
100
AcDbLine
 10
3380.238642150312
 20
1689.252558363745
 30
0.0
 11
4585.238642150313
 21
1689.252558363745
 31
0.0
  0
LINE
  5
7C18
330
80E5
100
AcDbEntity
  8
1
100
AcDbLine
 10
3380.238642150312
 20
1789.252558363745
 30
0.0
 11
3380.238642150312
 21
1689.252558363745
 31
0.0
  0
LINE
  5
7C19
330
80E5
100
AcDbEntity
  8
2
100
AcDbLine
 10
3192.92071159702
 20
2406.252558363744
 30
0.0
 11
4733.288488729509
 21
2406.252558363744
 31
0.0
  0
LINE
  5
7C1A
330
80E5
100
AcDbEntity
  8
2
100
AcDbLine
 10
3192.92071159702
 20
2166.252558363745
 30
0.0
 11
3582.238642150312
 21
2166.252558363744
 31
0.0
  0
LINE
  5
7C1B
330
80E5
100
AcDbEntity
  8
1
100
AcDbLine
 10
3314.238642150312
 20
2533.252558363745
 30
0.0
 11
3314.238642150312
 21
2279.252558363745
 31
0.0
  0
LINE
  5
7C1C
330
80E5
100
AcDbEntity
  8
1
100
AcDbLine
 10
3182.238642150312
 20
2626.252558363745
 30
0.0
 11
3182.238642150312
 21
1946.252558363744
 31
0.0
  0
LINE
  5
7C1D
330
80E5
100
AcDbEntity
  8
1
100
AcDbLine
 10
3182.238642150312
 20
2626.252558363745
 30
0.0
 11
3432.238642150312
 21
2626.252558363745
 31
0.0
  0
LINE
  5
7C1E
330
80E5
100
AcDbEntity
  8
1
100
AcDbLine
 10
3432.238642150312
 20
2626.252558363745
 30
0.0
 11
3432.238642150312
 21
2576.252558363744
 31
0.0
  0
LINE
  5
7C1F
330
80E5
100
AcDbEntity
  8
1
100
AcDbLine
 10
3432.238642150313
 20
1988.748335755082
 30
0.0
 11
3432.238642150313
 21
1946.252558363744
 31
0.0
  0
LINE
  5
7C20
330
80E5
100
AcDbEntity
  8
2
100
AcDbLine
 10
4082.238642150311
 20
3390.025930532419
 30
0.0
 11
4082.238642150313
 21
1689.252558363745
 31
0.0
  0
POINT
  5
7C21
330
80E5
100
AcDbEntity
  8
1
100
AcDbPoint
 10
2359.235556307825
 20
1816.252558363744
 30
0.0
  0
POINT
  5
7C22
330
80E5
100
AcDbEntity
  8
1
100
AcDbPoint
 10
2359.235556307825
 20
1816.252558363744
 30
0.0
  0
POINT
  5
7C23
330
80E5
100
AcDbEntity
  8
1
100
AcDbPoint
 10
2359.235556307825
 20
1816.252558363744
 30
0.0
  0
INSERT
  5
7C26
330
80E5
100
AcDbEntity
  8
0
100
AcDbBlockReference
  2
YA_N
 10
-733.6448571667497
 20
-271.0302667023643
 30
0.0
 41
20.0
 42
20.0
 43
20.0
  0
DIMENSION
  5
7C29
330
80E5
100
AcDbEntity
  8
3
100
AcDbDimension
  2
*D4
 10
2552.580899849889
 20
2429.252558363745
 30
0.0
 11
2502.580899849888
 21
2841.752558363745
 31
0.0
 12
-369.6306114916296
 22
844.364942954264
 32
0.0
 71
     5
 42
-1.0
  3
Standard
100
AcDbAlignedDimension
 13
2404.235556307825
 23
3254.252558363746
 33
0.0
 14
2404.235556307825
 24
2429.252558363745
 34
0.0
 50
270.0
100
AcDbRotatedDimension
1001
ACAD
1000
DSTYLE
1002
{
1070
    40
1040
25.0
1002
}
  0
DIMENSION
  5
7C2A
330
80E5
100
AcDbEntity
  8
3
100
AcDbDimension
  2
*D5
 10
2704.864302423692
 20
2406.252558363744
 30
0.0
 11
2654.864302423691
 21
2830.252558363746
 31
0.0
 12
-369.6306114916296
 22
844.364942954264
 32
0.0
 71
     5
 42
-1.0
  3
Standard
100
AcDbAlignedDimension
 13
2404.235556307825
 23
3254.252558363746
 33
0.0
 14
2525.707348158216
 24
2406.252558363744
 34
0.0
 50
270.0
100
AcDbRotatedDimension
1001
ACAD
1000
DSTYLE
1002
{
1070
    40
1040
25.0
1002
}
  0
LINE
  5
7C2B
330
80E5
100
AcDbEntity
  8
1
100
AcDbLine
 10
724.7766563078258
 20
2075.940558363745
 30
0.0
 11
705.2355563078252
 21
2022.252558363744
 31
0.0
  0
LINE
  5
7C2C
330
80E5
100
AcDbEntity
  8
1
100
AcDbLine
 10
993.6823563078252
 20
2075.973558363744
 30
0.0
 11
1013.235556307825
 21
2022.252558363744
 31
0.0
  0
ARC
  5
7C2D
330
80E5
100
AcDbEntity
  8
1
100
AcDbCircle
 10
859.2355563078253
 20
2166.252558363745
 30
0.0
 40
162.0
100
AcDbArc
 50
180.0
 51
213.894877047198
  0
ARC
  5
7C2E
330
80E5
100
AcDbEntity
  8
1
100
AcDbCircle
 10
859.2355563078253
 20
2166.252558363745
 30
0.0
 40
162.0
100
AcDbArc
 50
326.1050864604068
 51
180.0
  0
LINE
  5
7C2F
330
80E5
100
AcDbEntity
  8
2
100
AcDbLine
 10
859.2355563078253
 20
2344.702326450931
 30
0.0
 11
859.2355563078234
 21
1689.252558363745
 31
0.0
  0
LINE
  5
7C30
330
80E5
100
AcDbEntity
  8
1
100
AcDbLine
 10
1013.235556307825
 20
2006.252558363744
 30
0.0
 11
1013.235556307825
 21
2022.252558363744
 31
0.0
  0
LINE
  5
7C31
330
80E5
100
AcDbEntity
  8
1
100
AcDbLine
 10
705.2355563078252
 20
2006.252558363744
 30
0.0
 11
705.2355563078252
 21
2022.252558363744
 31
0.0
  0
LINE
  5
7C32
330
80E5
100
AcDbEntity
  8
2
100
AcDbLine
 10
1047.346000370496
 20
2166.252558363745
 30
0.0
 11
672.2671953404677
 21
2166.252558363744
 31
0.0
  0
LINE
  5
7C33
330
80E5
100
AcDbEntity
  8
1
100
AcDbLine
 10
670.720913041785
 20
2006.252558363744
 30
0.0
 11
1047.990423922636
 21
2006.252558363743
 31
0.0
  0
LINE
  5
7C34
330
80E5
100
AcDbEntity
  8
1
100
AcDbLine
 10
1061.235556307822
 20
1956.252558363743
 30
0.0
 11
1047.990423922636
 21
2006.252558363744
 31
0.0
  0
LINE
  5
7C35
330
80E5
100
AcDbEntity
  8
1
100
AcDbLine
 10
657.2355563078234
 20
1956.252558363743
 30
0.0
 11
670.720913041785
 21
2006.252558363744
 31
0.0
  0
CIRCLE
  5
7C36
330
80E5
100
AcDbEntity
  8
1
100
AcDbCircle
 10
859.2355563078253
 20
2166.252558363745
 30
0.0
 40
110.0
  0
CIRCLE
  5
7C37
330
80E5
100
AcDbEntity
  8
1
100
AcDbCircle
 10
1859.235556307824
 20
2406.252558363744
 30
0.0
 40
127.0
  0
LINE
  5
7C38
330
80E5
100
AcDbEntity
  8
1
100
AcDbLine
 10
3314.238642150312
 20
2533.252558363745
 30
0.0
 11
3399.238642150312
 21
2533.252558363745
 31
0.0
  0
LINE
  5
7C39
330
80E5
100
AcDbEntity
  8
1
100
AcDbLine
 10
3314.238642150312
 20
2279.252558363745
 30
0.0
 11
3399.238642150313
 21
2279.252558363745
 31
0.0
  0
LINE
  5
7C3A
330
80E5
100
AcDbEntity
  8
1
100
AcDbLine
 10
3314.238642150313
 20
2276.252558363744
 30
0.0
 11
3399.238642150312
 21
2276.252558363744
 31
0.0
  0
LINE
  5
7C3B
330
80E5
100
AcDbEntity
  8
1
100
AcDbLine
 10
3314.238642150312
 20
2056.252558363744
 30
0.0
 11
3399.238642150312
 21
2056.252558363744
 31
0.0
  0
LINE
  5
7C3C
330
80E5
100
AcDbEntity
  8
1
100
AcDbLine
 10
3182.238642150312
 20
1946.252558363744
 30
0.0
 11
3432.238642150312
 21
1946.252558363744
 31
0.0
  0
LINE
  5
7C3D
330
80E5
100
AcDbEntity
  8
1
100
AcDbLine
 10
3399.238642150312
 20
2533.252558363745
 30
0.0
 11
3399.238642150312
 21
2279.252558363745
 31
0.0
  0
INSERT
  5
7C3E
330
80E5
100
AcDbEntity
  8
0
100
AcDbBlockReference
  2
YA_N
 10
-36.73462870802178
 20
301.6536876033205
 30
0.0
 41
20.0
 42
20.0
 43
20.0
  0
INSERT
  5
7C40
330
80E5
100
AcDbEntity
  8
0
100
AcDbBlockReference
  2
YA_N
 10
77.48489664613955
 20
225.3119777640749
 30
0.0
 41
20.0
 42
20.0
 43
20.0
  0
LINE
  5
7C42
330
80E5
100
AcDbEntity
  8
1
100
AcDbLine
 10
3380.238642150311
 20
1789.252558363744
 30
0.0
 11
4635.238642150311
 21
1789.252558363745
 31
0.0
1001
ACAD
1000
ASC_BOUNDS
1002
{
1070
    19
1002
}
  0
LINE
  5
7C43
330
80E5
100
AcDbEntity
  8
1
100
AcDbLine
 10
2359.235556307825
 20
1789.252558363745
 30
0.0
 11
609.2355563078252
 21
1789.252558363744
 31
0.0
1001
ACAD
1000
ASC_BOUNDS
1002
{
1070
    19
1005
0
1005
0
1002
}
  0
POINT
  5
7C44
330
80E5
100
AcDbEntity
  8
1
100
AcDbPoint
 10
2359.235556307825
 20
1789.252558363745
 30
0.0
  0
POINT
  5
7C45
330
80E5
100
AcDbEntity
  8
1
100
AcDbPoint
 10
2359.235556307825
 20
1689.252558363745
 30
0.0
  0
POINT
  5
7C46
330
80E5
100
AcDbEntity
  8
1
100
AcDbPoint
 10
2359.235556307825
 20
1789.252558363745
 30
0.0
  0
POINT
  5
7C47
330
80E5
100
AcDbEntity
  8
1
100
AcDbPoint
 10
2359.235556307825
 20
1816.252558363744
 30
0.0
  0
LINE
  5
7C48
330
80E5
100
AcDbEntity
  8
1
100
AcDbLine
 10
4635.238642150311
 20
1789.252558363745
 30
0.0
 11
4635.238642150311
 21
1689.252558363745
 31
0.0
  0
LINE
  5
7C49
330
80E5
100
AcDbEntity
  8
1
100
AcDbLine
 10
4585.238642150311
 20
1689.252558363745
 30
0.0
 11
4635.238642150313
 21
1689.252558363745
 31
0.0
  0
DIMENSION
  5
7C4A
330
80E5
100
AcDbEntity
  8
3
100
AcDbDimension
  2
*D6
 10
2705.505213485754
 20
1816.252558363744
 30
0.0
 11
2655.505213485755
 21
2111.252558363744
 31
0.0
 12
-369.6306114916296
 22
844.364942954264
 32
0.0
 71
     5
 42
-1.0
  3
Standard
100
AcDbAlignedDimension
 13
2525.707348158216
 23
2406.252558363744
 33
0.0
 14
2359.235556307825
 24
1816.252558363744
 34
0.0
 50
270.0
100
AcDbRotatedDimension
1001
ACAD
1000
DSTYLE
1002
{
1070
    40
1040
25.0
1002
}
  0
POINT
  5
7C4B
330
80E5
100
AcDbEntity
  8
1
100
AcDbPoint
 10
2359.235556307825
 20
1789.252558363745
 30
0.0
  0
POINT
  5
7C4C
330
80E5
100
AcDbEntity
  8
1
100
AcDbPoint
 10
2359.235556307825
 20
1689.252558363745
 30
0.0
  0
POINT
  5
7C4D
330
80E5
100
AcDbEntity
  8
1
100
AcDbPoint
 10
2359.235556307825
 20
1789.252558363745
 30
0.0
  0
POINT
  5
7C4E
330
80E5
100
AcDbEntity
  8
1
100
AcDbPoint
 10
2359.235556307825
 20
1816.252558363744
 30
0.0
  0
LINE
  5
7C4F
330
80E5
100
AcDbEntity
  8
1
100
AcDbLine
 10
4082.238642150311
 20
3254.252558363746
 30
0.0
 11
4582.238642150311
 21
3254.252558363746
 31
0.0
  0
LINE
  5
7C50
330
80E5
100
AcDbEntity
  8
1
100
AcDbLine
 10
4082.238642150313
 20
2429.252558363745
 30
0.0
 11
4582.238642150311
 21
2429.252558363745
 31
0.0
  0
LINE
  5
7C51
330
80E5
100
AcDbEntity
  8
1
100
AcDbLine
 10
4582.238642150311
 20
2429.252558363745
 30
0.0
 11
4582.238642150311
 21
1916.252558363744
 31
0.0
  0
LINE
  5
7C52
330
80E5
100
AcDbEntity
  8
1
100
AcDbLine
 10
4082.23864215031
 20
2429.252558363745
 30
0.0
 11
3582.238642150314
 21
2429.252558363745
 31
0.0
  0
LINE
  5
7C53
330
80E5
100
AcDbEntity
  8
1
100
AcDbLine
 10
3582.238642150312
 20
2429.252558363745
 30
0.0
 11
3582.238642150312
 21
1916.252558363744
 31
0.0
  0
LINE
  5
7C54
330
80E5
100
AcDbEntity
  8
1
100
AcDbLine
 10
3582.238642150312
 20
3254.252558363746
 30
0.0
 11
3582.238642150314
 21
2429.252558363745
 31
0.0
  0
LINE
  5
7C55
330
80E5
100
AcDbEntity
  8
1
100
AcDbLine
 10
4082.238642150311
 20
3254.252558363746
 30
0.0
 11
3582.238642150312
 21
3254.252558363746
 31
0.0
  0
LINE
  5
7C56
330
80E5
100
AcDbEntity
  8
1
100
AcDbLine
 10
3444.238642150312
 20
2370.452558363744
 30
0.0
 11
3444.238642150312
 21
2240.452558363745
 31
0.0
  0
LINE
  5
7C57
330
80E5
100
AcDbEntity
  8
1
100
AcDbLine
 10
3454.238642150312
 20
2380.452558363745
 30
0.0
 11
3582.238642150312
 21
2380.452558363744
 31
0.0
  0
LINE
  5
7C58
330
80E5
100
AcDbEntity
  8
1
100
AcDbLine
 10
3454.238642150312
 20
2230.452558363745
 30
0.0
 11
3582.238642150312
 21
2230.452558363744
 31
0.0
  0
ARC
  5
7C59
330
80E5
100
AcDbEntity
  8
1
100
AcDbCircle
 10
3454.238642150312
 20
2370.452558363744
 30
0.0
 40
10.0
100
AcDbArc
 50
90.0
 51
180.0
  0
ARC
  5
7C5A
330
80E5
100
AcDbEntity
  8
1
100
AcDbCircle
 10
3454.238642150312
 20
2240.452558363745
 30
0.0
 40
10.0
100
AcDbArc
 50
180.0
 51
270.0
  0
LINE
  5
7C5B
330
80E5
100
AcDbEntity
  8
1
100
AcDbLine
 10
4692.238642150313
 20
2366.752558363744
 30
0.0
 11
4692.238642150313
 21
2266.752558363744
 31
0.0
  0
ARC
  5
7C5C
330
80E5
100
AcDbEntity
  8
1
100
AcDbCircle
 10
4682.238642150313
 20
2266.752558363744
 30
0.0
 40
10.0
100
AcDbArc
 50
270.0
 51
0.0
  0
ARC
  5
7C5D
330
80E5
100
AcDbEntity
  8
1
100
AcDbCircle
 10
4682.238642150313
 20
2366.752558363744
 30
0.0
 40
10.0
100
AcDbArc
 50
0.0
 51
90.0
  0
LINE
  5
7C5E
330
80E5
100
AcDbEntity
  8
1
100
AcDbLine
 10
4582.238642150311
 20
2256.752558363744
 30
0.0
 11
4682.238642150313
 21
2256.752558363744
 31
0.0
  0
LINE
  5
7C5F
330
80E5
100
AcDbEntity
  8
1
100
AcDbLine
 10
4582.238642150311
 20
2376.752558363747
 30
0.0
 11
4682.238642150313
 21
2376.752558363744
 31
0.0
  0
LINE
  5
7C60
330
80E5
100
AcDbEntity
  8
1
100
AcDbLine
 10
659.2355563078236
 20
1956.252558363743
 30
0.0
 11
659.2355563078236
 21
1916.252558363744
 31
0.0
  0
POINT
  5
7C61
330
80E5
100
AcDbEntity
  8
1
100
AcDbPoint
 10
4692.238642150313
 20
2366.752558363744
 30
0.0
  0
LINE
  5
7C62
330
80E5
100
AcDbEntity
  8
1
100
AcDbLine
 10
609.2355563078252
 20
4143.745515194763
 30
0.0
 11
2359.235556307825
 21
4143.745515194763
 31
0.0
  0
LINE
  5
7C63
330
80E5
100
AcDbEntity
  8
1
100
AcDbLine
 10
1359.235556307824
 20
5398.745515194764
 30
0.0
 11
2359.235556307825
 21
5398.745515194764
 31
0.0
  0
LINE
  5
7C64
330
80E5
100
AcDbEntity
  8
1
100
AcDbLine
 10
2359.235556307825
 20
5398.745515194764
 30
0.0
 11
2359.235556307825
 21
5345.74551519476
 31
0.0
  0
LINE
  5
7C65
330
80E5
100
AcDbEntity
  8
1
100
AcDbLine
 10
609.2355563078252
 20
4893.745515194763
 30
0.0
 11
609.2355563078252
 21
4143.745515194763
 31
0.0
  0
LINE
  5
7C66
330
80E5
100
AcDbEntity
  8
1
100
AcDbLine
 10
1359.235556307824
 20
5398.745515194764
 30
0.0
 11
1359.235556307824
 21
5345.745515194764
 31
0.0
  0
LINE
  5
7C67
330
80E5
100
AcDbEntity
  8
1
100
AcDbLine
 10
609.2355563078252
 20
4893.745515194763
 30
0.0
 11
1175.575472554834
 21
4893.745515194763
 31
0.0
  0
LINE
  5
7C68
330
80E5
100
AcDbEntity
  8
2
100
AcDbLine
 10
1125.509671165549
 20
4845.745515194764
 30
0.0
 11
2439.627924716257
 21
4845.745515194764
 31
0.0
  0
LINE
  5
7C69
330
80E5
100
AcDbEntity
  8
2
100
AcDbLine
 10
1859.235556307823
 20
5431.72943073169
 30
0.0
 11
1859.235556307824
 21
3908.881864044626
 31
0.0
  0
LINE
  5
7C6A
330
80E5
100
AcDbEntity
  8
2
100
AcDbLine
 10
859.2355563078253
 20
4760.235504678708
 30
0.0
 11
859.2355563078253
 21
3908.881864044626
 31
0.0
  0
LINE
  5
7C6D
330
80E5
100
AcDbEntity
  8
1
100
AcDbLine
 10
4635.238642150311
 20
1916.252558363744
 30
0.0
 11
4635.238642150311
 21
1816.252558363744
 31
0.0
  0
LINE
  5
7C6E
330
80E5
100
AcDbEntity
  8
1
100
AcDbLine
 10
3380.238642150311
 20
1916.252558363744
 30
0.0
 11
4635.238642150311
 21
1916.252558363745
 31
0.0
1001
ACAD
1000
ASC_BOUNDS
1002
{
1070
    19
1002
}
  0
LINE
  5
7C6F
330
80E5
100
AcDbEntity
  8
1
100
AcDbLine
 10
3380.238642150312
 20
1816.252558363744
 30
0.0
 11
4635.238642150311
 21
1816.252558363744
 31
0.0
  0
LINE
  5
7C70
330
80E5
100
AcDbEntity
  8
1
100
AcDbLine
 10
3380.238642150312
 20
1916.252558363744
 30
0.0
 11
3380.238642150312
 21
1816.252558363744
 31
0.0
  0
DIMENSION
  5
7C71
330
80E5
100
AcDbEntity
  8
3
100
AcDbDimension
  2
*D7
 10
4883.762053047289
 20
1981.252558363745
 30
0.0
 11
4833.762053047289
 21
2406.252558363744
 31
0.0
 12
-831.6688629623312
 22
844.364942954264
 32
0.0
 71
     5
 42
-1.0
  3
Standard
100
AcDbAlignedDimension
 13
4584.538642150311
 23
2831.252558363744
 33
0.0
 14
4584.538642150311
 24
1981.252558363745
 34
0.0
 50
90.0
100
AcDbRotatedDimension
1001
ACAD
1000
DSTYLE
1002
{
1070
    40
1040
25.0
1070
     3
1000
\U+03C6<>
1002
}
  0
LINE
  5
7C72
330
80E5
100
AcDbEntity
  8
1
100
AcDbLine
 10
3399.238642150312
 20
2436.252558363745
 30
0.0
 11
3582.238642150314
 21
2436.252558363745
 31
0.0
  0
LINE
  5
7C73
330
80E5
100
AcDbEntity
  8
1
100
AcDbLine
 10
3399.238642150312
 20
2376.252558363745
 30
0.0
 11
3446.092477408547
 21
2376.252558363745
 31
0.0
  0
ARC
  5
7C75
330
80E5
100
AcDbEntity
  8
1
100
AcDbCircle
 10
1859.235556307824
 20
2406.252558363744
 30
0.0
 40
220.0
100
AcDbArc
 50
283.4957332807956
 51
103.4957332807957
  0
ARC
  5
7C76
330
80E5
100
AcDbEntity
  8
1
100
AcDbCircle
 10
859.2355563078253
 20
2166.252558363745
 30
0.0
 40
220.0
100
AcDbArc
 50
103.4957332807958
 51
283.4957332807956
  0
LINE
  5
7C77
330
80E5
100
AcDbEntity
  8
1
100
AcDbLine
 10
1807.893506763253
 20
2620.177764799458
 30
0.0
 11
807.8935067632537
 21
2380.177764799458
 31
0.0
  0
LINE
  5
7C78
330
80E5
100
AcDbEntity
  8
1
100
AcDbLine
 10
1827.559826589633
 20
2529.238932189547
 30
0.0
 11
831.7998848983661
 21
2272.776189236487
 31
0.0
  0
LINE
  5
7C79
330
80E5
100
AcDbEntity
  8
1
100
AcDbLine
 10
1886.828456979119
 20
2282.286305566687
 30
0.0
 11
883.1349190939855
 21
2058.880213421411
 31
0.0
  0
LINE
  5
7C7A
330
80E5
100
AcDbEntity
  8
1
100
AcDbLine
 10
1910.577605852395
 20
2192.327351928031
 30
0.0
 11
910.5776058523954
 21
1952.327351928031
 31
0.0
  0
LINE
  5
7C7B
330
80E5
100
AcDbEntity
  8
1
100
AcDbLine
 10
609.2355563078252
 20
1816.252558363744
 30
0.0
 11
2359.235556307825
 21
1816.252558363744
 31
0.0
  0
LINE
  5
7C7C
330
80E5
100
AcDbEntity
  8
1
100
AcDbLine
 10
2359.235556307825
 20
1916.252558363744
 30
0.0
 11
609.2355563078252
 21
1916.252558363744
 31
0.0
1001
ACAD
1000
ASC_BOUNDS
1002
{
1070
    19
1005
0
1005
0
1002
}
  0
LINE
  5
7C7D
330
80E5
100
AcDbEntity
  8
1
100
AcDbLine
 10
609.2355563078252
 20
1916.252558363744
 30
0.0
 11
609.2355563078252
 21
1816.252558363744
 31
0.0
  0
LINE
  5
7C7E
330
80E5
100
AcDbEntity
  8
1
100
AcDbLine
 10
2359.235556307825
 20
1916.252558363744
 30
0.0
 11
2359.235556307825
 21
1816.252558363744
 31
0.0
  0
CIRCLE
  5
7C80
330
80E5
100
AcDbEntity
  8
1
100
AcDbCircle
 10
1859.235556307824
 20
2406.252558363744
 30
0.0
 40
425.0
  0
CIRCLE
  5
7C81
330
80E5
100
AcDbEntity
  8
1
100
AcDbCircle
 10
1859.235556307824
 20
2406.252558363744
 30
0.0
 40
465.0
  0
LINE
  5
7C83
330
80E5
100
AcDbEntity
  8
1
100
AcDbLine
 10
657.2355563078234
 20
1956.252558363743
 30
0.0
 11
1061.235556307822
 21
1956.252558363743
 31
0.0
  0
LINE
  5
7C84
330
80E5
100
AcDbEntity
  8
1
100
AcDbLine
 10
4582.238642150311
 20
3254.252558363746
 30
0.0
 11
3582.238642150314
 21
2429.252558363745
 31
0.0
  0
LINE
  5
7C85
330
80E5
100
AcDbEntity
  8
1
100
AcDbLine
 10
3582.238642150312
 20
3254.252558363746
 30
0.0
 11
4582.238642150311
 21
2429.252558363745
 31
0.0
  0
POINT
  5
7C86
330
80E5
100
AcDbEntity
  8
1
100
AcDbPoint
 10
2359.235556307825
 20
1789.252558363745
 30
0.0
  0
POINT
  5
7C87
330
80E5
100
AcDbEntity
  8
1
100
AcDbPoint
 10
2359.235556307825
 20
1816.252558363744
 30
0.0
  0
LINE
  5
7C88
330
80E5
100
AcDbEntity
  8
1
100
AcDbLine
 10
1175.575472554834
 20
5345.745515194764
 30
0.0
 11
2404.235556307823
 21
5345.745515194764
 31
0.0
  0
LINE
  5
7C89
330
80E5
100
AcDbEntity
  8
1
100
AcDbLine
 10
1175.575472554834
 20
4345.745515194763
 30
0.0
 11
2404.235556307825
 21
4345.74551519476
 31
0.0
  0
LINE
  5
7C8A
330
80E5
100
AcDbEntity
  8
1
100
AcDbLine
 10
2404.235556307823
 20
5388.745515194763
 30
0.0
 11
2404.235556307825
 21
4302.745515194764
 31
0.0
  0
LINE
  5
7C8B
330
80E5
100
AcDbEntity
  8
1
100
AcDbLine
 10
1175.575472554834
 20
4345.745515194763
 30
0.0
 11
1175.575472554834
 21
5345.745515194764
 31
0.0
  0
LINE
  5
7C8C
330
80E5
100
AcDbEntity
  8
1
100
AcDbLine
 10
2401.235556307824
 20
5388.745515194763
 30
0.0
 11
2404.235556307823
 21
5388.745515194763
 31
0.0
  0
LINE
  5
7C8D
330
80E5
100
AcDbEntity
  8
1
100
AcDbLine
 10
2401.235556307825
 20
4302.745515194764
 30
0.0
 11
2404.235556307825
 21
4302.745515194764
 31
0.0
  0
LINE
  5
7C8E
330
80E5
100
AcDbEntity
  8
1
100
AcDbLine
 10
2364.235556307823
 20
5345.745515194764
 30
0.0
 11
2364.235556307825
 21
4345.74551519476
 31
0.0
  0
LINE
  5
7C8F
330
80E5
100
AcDbEntity
  8
1
100
AcDbLine
 10
2401.235556307824
 20
5388.745515194763
 30
0.0
 11
2401.235556307825
 21
4302.745515194764
 31
0.0
  0
LINE
  5
7C90
330
80E5
100
AcDbEntity
  8
1
100
AcDbLine
 10
2359.235556307825
 20
4345.74551519476
 30
0.0
 11
2359.235556307825
 21
4143.745515194763
 31
0.0
  0
DIMENSION
  5
7C96
330
80E5
100
AcDbEntity
  8
3
100
AcDbDimension
  2
*D8
 10
2359.235556307825
 20
5549.868798745717
 30
0.0
 11
1859.235556307824
 21
5599.868798745717
 31
0.0
 12
-369.6306114916296
 22
844.364942954264
 32
0.0
 71
     5
 42
-1.0
  3
Standard
100
AcDbAlignedDimension
 13
1359.235556307824
 23
5398.745515194764
 33
0.0
 14
2359.235556307825
 24
5398.745515194764
 34
0.0
100
AcDbRotatedDimension
1001
ACAD
1000
DSTYLE
1002
{
1070
    40
1040
25.0
1002
}
  0
DIMENSION
  5
7C97
330
80E5
100
AcDbEntity
  8
3
100
AcDbDimension
  2
*D9
 10
2577.172284457713
 20
4143.745515194763
 30
0.0
 11
2577.172284457713
 21
4771.245515194763
 31
0.0
 12
-369.6306114916296
 22
844.364942954264
 32
0.0
 70
   128
 71
     5
 42
-1.0
  3
Standard
100
AcDbAlignedDimension
 13
2359.235556307825
 23
5398.745515194764
 33
0.0
 14
2359.235556307825
 24
4143.745515194763
 34
0.0
 50
90.0
100
AcDbRotatedDimension
1001
ACAD
1000
DSTYLE
1002
{
1070
    40
1040
25.0
1002
}
  0
DIMENSION
  5
7C98
330
80E5
100
AcDbEntity
  8
3
100
AcDbDimension
  2
*D10
 10
457.0827271845119
 20
4143.745515194763
 30
0.0
 11
407.0827271845119
 21
4518.745515194763
 31
0.0
 12
-369.6306114916296
 22
844.364942954264
 32
0.0
 71
     5
 42
-1.0
  3
Standard
100
AcDbAlignedDimension
 13
609.2355563078252
 23
4893.745515194763
 33
0.0
 14
609.2355563078252
 24
4143.745515194763
 34
0.0
 50
90.0
100
AcDbRotatedDimension
1001
ACAD
1000
DSTYLE
1002
{
1070
    40
1040
25.0
1002
}
  0
LINE
  5
7C99
330
80E5
100
AcDbEntity
  8
1
100
AcDbLine
 10
749.2355563078255
 20
4077.745515194766
 30
0.0
 11
969.2355563078253
 21
4077.745515194764
 31
0.0
  0
LINE
  5
7C9A
330
80E5
100
AcDbEntity
  8
1
100
AcDbLine
 10
749.2355563078255
 20
4162.745515194765
 30
0.0
 11
969.2355563078233
 21
4162.745515194765
 31
0.0
  0
LINE
  5
7C9B
330
80E5
100
AcDbEntity
  8
1
100
AcDbLine
 10
1986.235556307824
 20
4162.745515194763
 30
0.0
 11
1986.235556307824
 21
4077.745515194762
 31
0.0
  0
LINE
  5
7C9C
330
80E5
100
AcDbEntity
  8
1
100
AcDbLine
 10
1732.235556307825
 20
4162.745515194765
 30
0.0
 11
1732.235556307825
 21
4077.745515194764
 31
0.0
  0
LINE
  5
7C9D
330
80E5
100
AcDbEntity
  8
1
100
AcDbLine
 10
969.2355563078253
 20
4162.745515194765
 30
0.0
 11
969.2355563078253
 21
4077.745515194766
 31
0.0
  0
LINE
  5
7C9E
330
80E5
100
AcDbEntity
  8
1
100
AcDbLine
 10
749.2355563078255
 20
4162.745515194766
 30
0.0
 11
749.2355563078255
 21
4077.745515194766
 31
0.0
  0
LINE
  5
7C9F
330
80E5
100
AcDbEntity
  8
1
100
AcDbLine
 10
1732.235556307825
 20
4077.745515194762
 30
0.0
 11
1986.235556307824
 21
4077.745515194762
 31
0.0
  0
LINE
  5
7CA0
330
80E5
100
AcDbEntity
  8
1
100
AcDbLine
 10
1732.235556307825
 20
4162.745515194763
 30
0.0
 11
1986.235556307824
 21
4162.745515194763
 31
0.0
  0
LINE
  5
7CA1
330
80E5
100
AcDbEntity
  8
1
100
AcDbLine
 10
639.2355563078254
 20
3945.745515194765
 30
0.0
 11
2079.235556307825
 21
3945.745515194763
 31
0.0
  0
LINE
  5
7CA2
330
80E5
100
AcDbEntity
  8
1
100
AcDbLine
 10
2079.235556307825
 20
4192.745515194763
 30
0.0
 11
2079.235556307825
 21
3945.745515194763
 31
0.0
  0
LINE
  5
7CA3
330
80E5
100
AcDbEntity
  8
1
100
AcDbLine
 10
639.2355563078254
 20
4192.745515194765
 30
0.0
 11
639.2355563078254
 21
3945.745515194765
 31
0.0
  0
LINE
  5
7CA4
330
80E5
100
AcDbEntity
  8
1
100
AcDbLine
 10
639.2355563078254
 20
4192.745515194765
 30
0.0
 11
2079.235556307826
 21
4192.745515194763
 31
0.0
  0
POINT
  5
7CA6
330
80E5
100
AcDbEntity
  8
1
100
AcDbPoint
 10
4692.238642150313
 20
2366.752558363744
 30
0.0
  0
DIMENSION
  5
7CA7
330
80E5
100
AcDbEntity
  8
3
100
AcDbDimension
  2
*D12
 10
4582.238642150313
 20
3406.555465383358
 30
0.0
 11
4082.238642150311
 21
3456.555465383357
 31
0.0
 12
-831.6688629623312
 22
844.364942954264
 32
0.0
 71
     5
 42
-1.0
  3
Standard
100
AcDbAlignedDimension
 13
3582.238642150312
 23
3254.252558363746
 33
0.0
 14
4582.238642150313
 24
3254.252558363746
 34
0.0
100
AcDbRotatedDimension
1001
ACAD
1000
DSTYLE
1002
{
1070
    40
1040
25.0
1002
}
  0
POINT
  5
7CA8
330
80E5
100
AcDbEntity
  8
1
100
AcDbPoint
 10
4692.238642150313
 20
2366.752558363744
 30
0.0
  0
POINT
  5
7CA9
330
80E5
100
AcDbEntity
  8
1
100
AcDbPoint
 10
3182.238642150312
 20
2626.252558363745
 30
0.0
  0
DIMENSION
  5
7CAB
330
80E5
100
AcDbEntity
  8
3
100
AcDbDimension
  2
*D14
 10
2404.235556307825
 20
3408.571739266545
 30
0.0
 11
2131.735556307825
 21
3458.571739266545
 31
0.0
 12
-369.6306114916296
 22
844.364942954264
 32
0.0
 71
     5
 42
-1.0
  3
Standard
100
AcDbAlignedDimension
 13
1859.235556307824
 23
3264.935890990989
 33
0.0
 14
2404.235556307825
 24
3296.752558363746
 34
0.0
100
AcDbRotatedDimension
1001
ACAD
1000
DSTYLE
1002
{
1070
    40
1040
25.0
1002
}
  0
DIMENSION
  5
7CAC
330
80E5
100
AcDbEntity
  8
3
100
AcDbDimension
  2
*D15
 10
2404.235556307825
 20
3555.508652683715
 30
0.0
 11
1506.735556307825
 21
3605.508652683715
 31
0.0
 12
-369.6306114916296
 22
844.364942954264
 32
0.0
 71
     5
 42
-1.0
  3
Standard
100
AcDbAlignedDimension
 13
609.2355563078252
 23
1916.252558363744
 33
0.0
 14
2404.235556307825
 24
3296.752558363746
 34
0.0
100
AcDbRotatedDimension
1001
ACAD
1000
DSTYLE
1002
{
1070
    40
1040
25.0
1002
}
  0
LINE
  5
7CAD
330
80E5
100
AcDbEntity
  8
1
100
AcDbLine
 10
697.2355563078252
 20
4732.245515194766
 30
0.0
 11
1021.235556307825
 21
4732.245515194763
 31
0.0
  0
LINE
  5
7CAE
330
80E5
100
AcDbEntity
  8
1
100
AcDbLine
 10
697.2355563078252
 20
4203.245515194764
 30
0.0
 11
1021.235556307825
 21
4203.245515194764
 31
0.0
  0
LINE
  5
7CAF
330
80E5
100
AcDbEntity
  8
1
100
AcDbLine
 10
880.2355563078254
 20
4203.245515194764
 30
0.0
 11
880.2355563078254
 21
4162.745515194765
 31
0.0
  0
LINE
  5
7CB0
330
80E5
100
AcDbEntity
  8
1
100
AcDbLine
 10
838.2355563078254
 20
4203.245515194764
 30
0.0
 11
838.2355563078254
 21
4162.745515194765
 31
0.0
  0
LINE
  5
7CB1
330
80E5
100
AcDbEntity
  8
1
100
AcDbLine
 10
697.2355563078252
 20
4732.245515194767
 30
0.0
 11
697.2355563078252
 21
4203.245515194764
 31
0.0
  0
LINE
  5
7CB2
330
80E5
100
AcDbEntity
  8
1
100
AcDbLine
 10
1021.235556307825
 20
4732.245515194763
 30
0.0
 11
1021.235556307825
 21
4203.245515194764
 31
0.0
  0
LINE
  5
7CB4
330
80E5
100
AcDbEntity
  8
1
100
AcDbLine
 10
3582.238642150312
 20
2004.252558363745
 30
0.0
 11
3439.738642150312
 21
2004.252558363745
 31
0.0
  0
LINE
  5
7CB5
330
80E5
100
AcDbEntity
  8
1
100
AcDbLine
 10
3444.238642150311
 20
2328.252558363745
 30
0.0
 11
3439.738642150313
 21
2328.252558363745
 31
0.0
  0
LINE
  5
7CB6
330
80E5
100
AcDbEntity
  8
1
100
AcDbLine
 10
3439.738642150313
 20
2328.252558363745
 30
0.0
 11
3439.738642150311
 21
2004.252558363745
 31
0.0
  0
LINE
  5
7CB7
330
80E5
100
AcDbEntity
  8
1
100
AcDbLine
 10
3439.738642150313
 20
2187.252558363744
 30
0.0
 11
3399.238642150313
 21
2187.252558363744
 31
0.0
  0
LINE
  5
7CB8
330
80E5
100
AcDbEntity
  8
1
100
AcDbLine
 10
3439.738642150313
 20
2145.252558363745
 30
0.0
 11
3399.238642150313
 21
2145.252558363745
 31
0.0
  0
LINE
  5
7CB9
330
80E5
100
AcDbEntity
  8
1
100
AcDbLine
 10
3399.238642150312
 20
2276.252558363744
 30
0.0
 11
3399.238642150312
 21
2056.252558363744
 31
0.0
  0
LINE
  5
7CBA
330
80E5
100
AcDbEntity
  8
1
100
AcDbLine
 10
3314.238642150312
 20
2276.252558363744
 30
0.0
 11
3314.238642150312
 21
2056.252558363744
 31
0.0
  0
DIMENSION
  5
7CBC
330
80E5
100
AcDbEntity
  8
3
100
AcDbDimension
  2
*D16
 10
2705.505213485754
 20
1689.252558363745
 30
0.0
 11
2643.005213485754
 21
1474.966844078031
 31
0.0
 71
     5
 42
-1.0
  3
Standard
100
AcDbAlignedDimension
 13
2359.235556307825
 23
1789.252558363745
 33
0.0
 14
2359.235556307825
 24
1689.252558363745
 34
0.0
 50
90.0
100
AcDbRotatedDimension
1001
ACAD
1000
DSTYLE
1002
{
1070
   287
1070
     3
1070
   287
1070
     3
1070
    40
1040
25.0
1070
   143
1040
0.039
1070
   172
1070
     1
1070
   271
1070
     0
1070
   279
1070
     0
1070
   288
1070
     1
1070
     6
1000
DOT
1002
}
  0
LINE
  5
7EEF
330
80E5
100
AcDbEntity
  8
4
100
AcDbLine
 10
4625.0
 20
1250.0
 30
0.0
 11
4625.0
 21
750.0
 31
0.0
  0
LINE
  5
7EF0
330
80E5
100
AcDbEntity
  8
4
100
AcDbLine
 10
2875.0
 20
1250.0
 30
0.0
 11
2875.0
 21
750.0
 31
0.0
  0
LINE
  5
7EF1
330
80E5
100
AcDbEntity
  8
4
100
AcDbLine
 10
1625.0
 20
1250.0
 30
0.0
 11
1625.0
 21
750.0
 31
0.0
  0
LINE
  5
7EF4
330
80E5
100
AcDbEntity
  8
4
100
AcDbLine
 10
1625.0
 20
750.0
 30
0.0
 11
4625.0
 21
750.0
 31
0.0
  0
LINE
  5
7EF5
330
80E5
100
AcDbEntity
  8
4
100
AcDbLine
 10
1625.0
 20
1000.0
 30
0.0
 11
4625.0
 21
1000.0
 31
0.0
  0
TEXT
  5
7EF6
330
80E5
100
AcDbEntity
  8
4
100
AcDbText
 10
1721.255202117253
 20
1078.857564666532
 30
0.0
 40
125.0
  1
機器名称
100
AcDbText
  0
TEXT
  5
7EF7
330
80E5
100
AcDbEntity
  8
4
100
AcDbText
 10
1715.645265061993
 20
804.1128918300273
 30
0.0
 40
125.0
  1
機器型番
100
AcDbText
  0
TEXT
  5
7EF8
330
80E5
100
AcDbEntity
  8
4
100
AcDbText
 10
2944.196863719162
 20
1056.429422393921
 30
0.0
 40
125.0
  1
ミツヤ多翼送風機
100
AcDbText
  0
TEXT
  5
7EF9
330
80E5
100
AcDbEntity
  8
4
100
AcDbText
 10
2966.636238963701
 20
792.8989606998584
 30
0.0
 40
125.0
  1
MF#5-5
100
AcDbText
  0
TEXT
  5
7EFB
330
80E5
100
AcDbEntity
  8
4
100
AcDbText
 10
1931.937102237789
 20
5958.572103331289
 30
0.0
 40
135.0
  1
床置防振ベット
100
AcDbText
  0
TEXT
  5
7EFC
330
80E5
100
AcDbEntity
  8
4
100
AcDbText
 10
790.4189833236158
 20
6334.702440498245
 30
0.0
 40
180.0
  1
遠心式両吸込両持多翼ファン
100
AcDbText
  0
LINE
  5
7EFD
330
80E5
100
AcDbEntity
  8
4
100
AcDbLine
 10
625.0
 20
6173.521885662012
 30
0.0
 11
4625.0
 21
6173.521885662012
 31
0.0
  0
LINE
  5
7EFE
330
80E5
100
AcDbEntity
  8
4
100
AcDbLine
 10
625.0
 20
6673.521885662011
 30
0.0
 11
4625.0
 21
6673.521885662011
 31
0.0
  0
LINE
  5
7EFF
330
80E5
100
AcDbEntity
  8
4
100
AcDbLine
 10
1625.0
 20
1250.0
 30
0.0
 11
4625.0
 21
1250.0
 31
0.0
  0
LINE
  5
7F00
330
80E5
100
AcDbEntity
  8
4
100
AcDbLine
 10
625.0
 20
6673.521885662011
 30
0.0
 11
625.0
 21
6173.521885662012
 31
0.0
  0
TEXT
  5
7F01
330
80E5
100
AcDbEntity
  8
4
100
AcDbText
 10
842.2900216310335
 20
5955.798693865858
 30
0.0
 40
135.0
  1
右回転右横向
100
AcDbText
  0
TEXT
  5
7F02
330
80E5
100
AcDbEntity
  8
4
100
AcDbText
 10
3672.423898123224
 20
6765.15270373827
 30
0.0
 40
140.0
  1
No.
100
AcDbText
  0
TEXT
  5
7F03
330
80E5
100
AcDbEntity
  8
4
100
AcDbText
 10
3278.240156500032
 20
5958.572103331289
 30
0.0
 40
135.0
  1
縮尺：1/25
100
AcDbText
  0
LINE
  5
7F04
330
80E5
100
AcDbEntity
  8
4
100
AcDbLine
 10
4625.0
 20
6673.521885662011
 30
0.0
 11
4625.0
 21
6173.521885662012
 31
0.0
  0
LINE
  5
7F05
330
80E5
100
AcDbEntity
  8
4
100
AcDbLine
 10
5250.0
 20
7375.0
 30
0.0
 11
5250.0
 21
7375.0
 31
0.0
  0
LINE
  5
7F06
330
80E5
100
AcDbEntity
  8
4
100
AcDbLine
 10
3601.543555899662
 20
6703.158957813504
 30
0.0
 11
3601.543555899662
 21
6966.630653874381
 31
0.0
  0
LINE
  5
7F07
330
80E5
100
AcDbEntity
  8
4
100
AcDbLine
 10
3601.543555899662
 20
6966.630653874381
 30
0.0
 11
4625.0
 21
6966.630653874381
 31
0.0
  0
LINE
  5
7F08
330
80E5
100
AcDbEntity
  8
4
100
AcDbLine
 10
4625.0
 20
6966.630653874381
 30
0.0
 11
4625.0
 21
6703.158957813504
 31
0.0
  0
LINE
  5
7F09
330
80E5
100
AcDbEntity
  8
4
100
AcDbLine
 10
4625.0
 20
6703.158957813504
 30
0.0
 11
3601.543555899662
 21
6703.158957813504
 31
0.0
  0
LINE
  5
7F0A
330
80E5
100
AcDbEntity
  8
4
100
AcDbLine
 10
0.0
 20
0.0
 30
0.0
 11
0.0
 21
7375.0
 31
0.0
  0
LINE
  5
7F0B
330
80E5
100
AcDbEntity
  8
4
100
AcDbLine
 10
0.0
 20
7375.0
 30
0.0
 11
5250.0
 21
7375.0
 31
0.0
  0
LINE
  5
7F0C
330
80E5
100
AcDbEntity
  8
4
100
AcDbLine
 10
5250.0
 20
7375.0
 30
0.0
 11
5250.0
 21
0.0
 31
0.0
  0
LINE
  5
7F0D
330
80E5
100
AcDbEntity
  8
4
100
AcDbLine
 10
5250.0
 20
0.0
 30
0.0
 11
0.0
 21
0.0
 31
0.0
  0
DIMENSION
  5
7FA9
330
80E5
100
AcDbEntity
  8
3
100
AcDbDimension
  2
*D21
 10
1859.235556307824
 20
1515.379441479799
 30
0.0
 11
1234.235556307824
 21
1577.879441479799
 31
0.0
 71
     5
 42
-1.0
  3
Standard
100
AcDbAlignedDimension
 13
609.2355563078252
 23
1689.252558363745
 33
0.0
 14
1859.235556307824
 24
1689.252558363745
 34
0.0
100
AcDbRotatedDimension
1001
ACAD
1000
DSTYLE
1002
{
1070
   172
1070
     1
1070
    40
1040
25.0
1070
    42
1040
1.0
1070
   271
1070
     0
1070
   143
1040
0.039
1002
}
  0
DIMENSION
  5
7FB6
330
80E5
100
AcDbEntity
  8
3
100
AcDbDimension
  2
*D22
 10
2359.235556307825
 20
1515.379441479799
 30
0.0
 11
2109.235556307825
 21
1577.879441479799
 31
0.0
 71
     5
 42
-1.0
  3
Standard
100
AcDbAlignedDimension
 13
1859.235556307824
 23
1689.252558363745
 33
0.0
 14
2359.235556307825
 24
1689.252558363745
 34
0.0
100
AcDbRotatedDimension
1001
ACAD
1000
DSTYLE
1002
{
1070
   172
1070
     1
1070
    40
1040
25.0
1070
    42
1040
1.0
1070
   271
1070
     0
1070
   143
1040
0.039
1002
}
  0
DIMENSION
  5
7FC3
330
80E5
100
AcDbEntity
  8
3
100
AcDbDimension
  2
*D23
 10
4082.238642150313
 20
1515.379441479799
 30
0.0
 11
3731.238642150312
 21
1577.879441479799
 31
0.0
 71
     5
 42
-1.0
  3
Standard
100
AcDbAlignedDimension
 13
3380.238642150312
 23
1689.252558363745
 33
0.0
 14
4082.238642150313
 24
1689.252558363745
 34
0.0
100
AcDbRotatedDimension
1001
ACAD
1000
DSTYLE
1002
{
1070
   172
1070
     1
1070
    40
1040
25.0
1070
    42
1040
1.0
1070
   271
1070
     0
1070
   143
1040
0.039
1002
}
  0
DIMENSION
  5
7FD0
330
80E5
100
AcDbEntity
  8
3
100
AcDbDimension
  2
*D24
 10
4635.238642150313
 20
1515.379441479799
 30
0.0
 11
4358.738642150313
 21
1577.879441479799
 31
0.0
 71
     5
 42
-1.0
  3
Standard
100
AcDbAlignedDimension
 13
4082.238642150313
 23
1689.252558363745
 33
0.0
 14
4635.238642150313
 24
1689.252558363745
 34
0.0
100
AcDbRotatedDimension
1001
ACAD
1000
DSTYLE
1002
{
1070
   172
1070
     1
1070
    40
1040
25.0
1070
    42
1040
1.0
1070
   271
1070
     0
1070
   143
1040
0.039
1002
}
  0
DIMENSION
  5
7FDF
330
80E5
100
AcDbEntity
  8
3
100
AcDbDimension
  2
*D26
 10
2705.51178283629
 20
1816.252558363744
 30
0.0
 11
2825.154639979146
 21
1802.752558363745
 31
0.0
 71
     5
 42
-1.0
  3
Standard
100
AcDbAlignedDimension
 13
2359.235556307825
 23
1789.252558363745
 33
0.0
 14
2359.235556307825
 24
1816.252558363744
 34
0.0
 50
90.0
100
AcDbRotatedDimension
1001
ACAD
1000
DSTYLE
1002
{
1070
   172
1070
     1
1070
    76
1070
     1
1070
    75
1070
     1
1070
    40
1040
25.0
1070
     3
1000
(<>)
1070
    42
1040
1.0
1070
   271
1070
     0
1070
     7
1000
_NONE
1070
     6
1000
_NONE
1070
   143
1040
0.039
1002
}
  0
DIMENSION
  5
7FEC
330
80E5
100
AcDbEntity
  8
3
100
AcDbDimension
  2
*D27
 10
2912.586802046488
 20
3254.252558363746
 30
0.0
 11
2830.44394490363
 21
2471.752558363745
 31
0.0
 71
     5
 42
-1.0
  3
Standard
100
AcDbAlignedDimension
 13
2359.235556307825
 23
1689.252558363745
 33
0.0
 14
2404.235556307825
 24
3254.252558363746
 34
0.0
 50
90.0
100
AcDbRotatedDimension
1001
ACAD
1000
DSTYLE
1002
{
1070
   172
1070
     1
1070
    40
1040
25.0
1070
     3
1000
(<>)
1070
    42
1040
1.0
1070
   271
1070
     0
1070
   143
1040
0.039
1002
}
  0
DIMENSION
  5
81AC
330
80E5
100
AcDbEntity
  8
3
100
AcDbDimension
  2
*D29
 10
4082.238642150311
 20
3582.701555757362
 30
0.0
 11
3632.238642150312
 21
3664.844412900219
 31
0.0
 70
    32
 71
     5
 42
900.0
  3
IGA
100
AcDbAlignedDimension
 13
3182.238642150312
 23
2626.252558363745
 33
0.0
 14
4082.238642150311
 24
3494.055465383359
 34
0.0
100
AcDbRotatedDimension
1001
ACAD
1000
DSTYLE
1002
{
1070
     3
1000
(<>)
1070
    40
1040
25.0
1070
    42
1040
1.0
1070
   143
1040
0.039
1070
   172
1070
     1
1070
   271
1070
     4
1070
   272
1070
     4
1070
   279
1070
     0
1070
   284
1070
     0
1070
   285
1070
     0
1070
   286
1070
     0
1070
   341
1005
80F9
1070
   343
1005
80F9
1070
   344
1005
80F9
1002
}
  0
DIMENSION
  5
81B9
330
80E5
100
AcDbEntity
  8
3
100
AcDbDimension
  2
*D30
 10
4692.238642150313
 20
3582.701555757362
 30
0.0
 11
4387.238642150312
 21
3664.844412900219
 31
0.0
 70
    32
 71
     5
 42
610.0000000000013
  3
IGA
100
AcDbAlignedDimension
 13
4082.238642150311
 23
3494.055465383359
 33
0.0
 14
4692.238642150313
 24
2366.752558363744
 34
0.0
100
AcDbRotatedDimension
1001
ACAD
1000
DSTYLE
1002
{
1070
     3
1000
(<>)
1070
    40
1040
25.0
1070
    42
1040
1.0
1070
   143
1040
0.039
1070
   172
1070
     1
1070
   271
1070
     4
1070
   272
1070
     4
1070
   279
1070
     1
1070
   284
1070
     0
1070
   285
1070
     0
1070
   286
1070
     0
1070
   341
1005
80F9
1070
   343
1005
80F9
1070
   344
1005
80F9
1002
}
  0
DIMENSION
  5
81ED
330
80E5
100
AcDbEntity
  8
3
100
AcDbDimension
  2
*D31
 10
609.2355563078252
 20
5549.868798745716
 30
0.0
 11
984.235556307825
 21
5612.368798745716
 31
0.0
 70
    32
 71
     5
 42
749.9999999999994
  3
IGA
100
AcDbAlignedDimension
 13
1359.235556307824
 23
5398.745515194764
 33
0.0
 14
609.2355563078252
 24
4893.745515194763
 34
0.0
100
AcDbRotatedDimension
1001
ACAD
1000
DSTYLE
1002
{
1070
    40
1040
25.0
1070
    42
1040
1.0
1070
   143
1040
0.039
1070
   172
1070
     1
1070
   271
1070
     4
1070
   272
1070
     4
1070
   279
1070
     0
1070
   284
1070
     0
1070
   285
1070
     0
1070
   286
1070
     0
1070
   341
1005
80F9
1070
   343
1005
80F9
1070
   344
1005
80F9
1002
}
  0
ARC
  5
8205
330
80E5
100
AcDbEntity
  8
FUTO
100
AcDbCircle
 10
1811.735556307824
 20
2358.752558363744
 30
0.0
 40
510.5
100
AcDbArc
 50
299.911433471293
 51
0.0
  0
LINE
  5
8206
330
80E5
100
AcDbEntity
  8
FUTO
100
AcDbLine
 10
2404.235556307825
 20
3254.252558363744
 30
0.0
 11
1859.235556307824
 21
3197.880704151224
 31
0.0
  0
ARC
  5
8207
330
80E5
100
AcDbEntity
  8
FUTO
100
AcDbCircle
 10
1800.235556307825
 20
2465.252558363744
 30
0.0
 40
617.0
100
AcDbArc
 50
180.0
 51
242.8467827380087
  0
ARC
  5
8208
330
80E5
100
AcDbEntity
  8
FUTO
100
AcDbCircle
 10
1918.235556307825
 20
2465.252558363744
 30
0.0
 40
735.0
100
AcDbArc
 50
94.60420672650149
 51
180.0
  0
ARC
  5
8209
330
80E5
100
AcDbEntity
  8
FUTO
100
AcDbCircle
 10
1889.735556307824
 20
2375.752558363744
 30
0.0
 40
432.5
100
AcDbArc
 50
0.0
 51
7.105655247296745
  0
LINE
  5
820A
330
80E5
100
AcDbEntity
  8
FUTO
100
AcDbLine
 10
2318.913840940214
 20
2429.252558363744
 30
0.0
 11
2404.235556307825
 21
2429.252558363744
 31
0.0
  0
LINE
  5
820B
330
80E5
100
AcDbEntity
  8
FUTO
100
AcDbLine
 10
2322.235556307825
 20
2358.752558363744
 30
0.0
 11
2322.235556307825
 21
2375.752558363744
 31
0.0
  0
LINE
  5
820C
330
80E5
100
AcDbEntity
  8
1
100
AcDbLine
 10
2404.235556307825
 20
3296.752558363744
 30
0.0
 11
2404.235556307823
 21
2386.752558363744
 31
0.0
  0
LINE
  5
820D
330
80E5
100
AcDbEntity
  8
1
100
AcDbLine
 10
2404.235556307825
 20
3296.752558363744
 30
0.0
 11
2401.235556307824
 21
3296.752558363744
 31
0.0
  0
LINE
  5
820E
330
80E5
100
AcDbEntity
  8
1
100
AcDbLine
 10
2404.235556307823
 20
2386.752558363744
 30
0.0
 11
2401.235556307823
 21
2386.752558363744
 31
0.0
  0
LINE
  5
820F
330
80E5
100
AcDbEntity
  8
1
100
AcDbLine
 10
2364.235556307825
 20
3250.851463593321
 30
0.0
 11
2364.235556307823
 21
2429.252558363744
 31
0.0
  0
LINE
  5
8210
330
80E5
100
AcDbEntity
  8
1
100
AcDbLine
 10
2401.235556307824
 20
3296.752558363744
 30
0.0
 11
2401.235556307823
 21
2386.752558363744
 31
0.0
  0
POINT
  5
8211
330
80E5
100
AcDbEntity
  8
1
100
AcDbPoint
 10
2424.453466976846
 20
2406.252558363744
 30
0.0
 50
180.0
  0
POINT
  5
8212
330
80E5
100
AcDbEntity
  8
1
100
AcDbPoint
 10
2424.453466976846
 20
2406.252558363744
 30
0.0
 50
180.0
  0
DIMENSION
  5
8213
330
80E5
100
AcDbEntity
  8
3
100
AcDbDimension
  2
*D32
 10
1183.235556307824
 20
3408.571739266544
 30
0.0
 11
1521.235556307824
 21
3471.071739266544
 31
0.0
 70
    32
 71
     5
 42
676.0000000000002
  3
IGA
100
AcDbAlignedDimension
 13
1859.235556307824
 23
3264.935890990989
 33
0.0
 14
1183.235556307824
 24
2465.252558363744
 34
0.0
100
AcDbRotatedDimension
1001
ACAD
1000
DSTYLE
1002
{
1070
    40
1040
25.0
1070
    42
1040
1.0
1070
   143
1040
0.039
1070
   172
1070
     1
1070
   271
1070
     4
1070
   272
1070
     4
1070
   279
1070
     0
1070
   284
1070
     0
1070
   285
1070
     0
1070
   286
1070
     0
1070
   341
1005
80F9
1070
   343
1005
80F9
1070
   344
1005
80F9
1002
}
  0
DIMENSION
  5
8229
330
80E5
100
AcDbEntity
  8
3
100
AcDbDimension
  2
*D33
 10
2359.235556307825
 20
3775.479420863423
 30
0.0
 11
1484.235556307825
 21
3837.979420863423
 31
0.0
 70
    32
 71
     5
 42
1750.0
  3
IGA
100
AcDbAlignedDimension
 13
609.2355563078252
 23
4143.745515194763
 33
0.0
 14
2359.235556307825
 24
4143.745515194763
 34
0.0
100
AcDbRotatedDimension
1001
ACAD
1000
DSTYLE
1002
{
1070
    40
1040
25.0
1070
    42
1040
1.0
1070
   143
1040
0.039
1070
   172
1070
     1
1070
   271
1070
     4
1070
   272
1070
     4
1070
   279
1070
     0
1070
   284
1070
     0
1070
   285
1070
     0
1070
   286
1070
     0
1070
   341
1005
80F9
1070
   343
1005
80F9
1070
   344
1005
80F9
1002
}
  0
ENDSEC
  0
SECTION
  2
OBJECTS
  0
DICTIONARY
  5
8082
330
0
100
AcDbDictionary
281
     1
  3
ACAD_CIP_PREVIOUS_PRODUCT_INFO
350
812D
  3
ACAD_COLOR
350
80D8
  3
ACAD_DETAILVIEWSTYLE
350
80DF
  3
ACAD_GROUP
350
8083
  3
ACAD_LAYOUT
350
80D7
  3
ACAD_MATERIAL
350
8086
  3
ACAD_MLEADERSTYLE
350
80DB
  3
ACAD_MLINESTYLE
350
80D4
  3
ACAD_PLOTSETTINGS
350
80D6
  3
ACAD_PLOTSTYLENAME
350
8084
  3
ACAD_SCALELIST
350
80B8
  3
ACAD_SECTIONVIEWSTYLE
350
80DD
  3
ACAD_TABLESTYLE
350
80D9
  3
ACAD_VISUALSTYLE
350
809F
  3
ACDB_RECOMPOSE_DATA
350
8279
  3
AcDbVariableDictionary
350
8138
  3
DWGPROPS
350
827A
  0
DICTIONARY
  5
8186
330
8078
100
AcDbDictionary
280
     1
281
     1
  3
ACAD_LAYERSTATES
360
8187
  0
DICTIONARY
  5
812E
330
80CA
100
AcDbDictionary
280
     1
281
     1
  3
ADSK_XREC_LAYER_RECONCILED
360
812F
  0
DICTIONARY
  5
8130
330
80E9
100
AcDbDictionary
280
     1
281
     1
  3
ADSK_XREC_LAYER_RECONCILED
360
8131
  0
DICTIONARY
  5
8132
330
80EC
100
AcDbDictionary
280
     1
281
     1
  3
ADSK_XREC_LAYER_RECONCILED
360
8133
  0
DICTIONARY
  5
8134
330
80ED
100
AcDbDictionary
280
     1
281
     1
  3
ADSK_XREC_LAYER_RECONCILED
360
8135
  0
DICTIONARY
  5
8136
330
80EE
100
AcDbDictionary
280
     1
281
     1
  3
ADSK_XREC_LAYER_RECONCILED
360
8137
  0
DICTIONARY
  5
8185
330
8184
100
AcDbDictionary
280
     1
281
     1
  0
XRECORD
  5
812D
102
{ACAD_REACTORS
330
8082
102
}
330
8082
100
AcDbXrecord
280
     1
300
ACDLT
300
2015
300
INVLTS_F_S
  0
DICTIONARY
  5
80D8
102
{ACAD_REACTORS
330
8082
102
}
330
8082
100
AcDbDictionary
281
     1
  0
DICTIONARY
  5
80DF
102
{ACAD_REACTORS
330
8082
102
}
330
8082
100
AcDbDictionary
281
     1
  3
Imperial24
350
80E0
  0
DICTIONARY
  5
8083
102
{ACAD_REACTORS
330
8082
102
}
330
8082
100
AcDbDictionary
281
     1
  0
DICTIONARY
  5
80D7
102
{ACAD_REACTORS
330
8082
102
}
330
8082
100
AcDbDictionary
281
     1
  3
Model
350
80E8
  3
レイアウト1
350
80E4
  0
DICTIONARY
  5
8086
102
{ACAD_REACTORS
330
8082
102
}
330
8082
100
AcDbDictionary
281
     1
  3
ByBlock
350
808F
  3
ByLayer
350
8087
  3
Global
350
8097
  0
DICTIONARY
  5
80DB
102
{ACAD_REACTORS
330
8082
102
}
330
8082
100
AcDbDictionary
281
     1
  3
Standard
350
80DC
  0
DICTIONARY
  5
80D4
102
{ACAD_REACTORS
330
8082
102
}
330
8082
100
AcDbDictionary
281
     1
  3
Standard
350
80D5
  0
DICTIONARY
  5
80D6
102
{ACAD_REACTORS
330
8082
102
}
330
8082
100
AcDbDictionary
281
     1
  0
ACDBDICTIONARYWDFLT
  5
8084
102
{ACAD_REACTORS
330
8082
102
}
330
8082
100
AcDbDictionary
281
     1
  3
Normal
350
8085
100
AcDbDictionaryWithDefault
340
8085
  0
DICTIONARY
  5
80B8
102
{ACAD_REACTORS
330
8082
102
}
330
8082
100
AcDbDictionary
281
     1
  3
A0
350
80B9
  3
A1
350
80BA
  3
A2
350
80BB
  3
A3
350
80BC
  3
A4
350
80BD
  3
A5
350
80BE
  3
A6
350
80BF
  3
A7
350
80C0
  3
A8
350
80C1
  3
A9
350
80C2
  3
B0
350
80C3
  3
B1
350
80C4
  3
B2
350
80C5
  3
B3
350
80C6
  3
B4
350
80C7
  3
B5
350
80C8
  3
B6
350
80C9
  0
DICTIONARY
  5
80DD
102
{ACAD_REACTORS
330
8082
102
}
330
8082
100
AcDbDictionary
281
     1
  3
Imperial24
350
80DE
  0
DICTIONARY
  5
80D9
102
{ACAD_REACTORS
330
8082
102
}
330
8082
100
AcDbDictionary
281
     1
  3
Standard
350
80DA
  0
DICTIONARY
  5
809F
102
{ACAD_REACTORS
330
8082
102
}
330
8082
100
AcDbDictionary
281
     1
  3
2dWireframe
350
80A5
  3
Basic
350
80A4
  3
Brighten
350
80AB
  3
ColorChange
350
80AF
  3
Conceptual
350
80A8
  3
Dim
350
80AA
  3
EdgeColorOff
350
80B7
  3
Facepattern
350
80AE
  3
Flat
350
80A0
  3
FlatWithEdges
350
80A1
  3
Gouraud
350
80A2
  3
GouraudWithEdges
350
80A3
  3
Hidden
350
80A7
  3
JitterOff
350
80B5
  3
Linepattern
350
80AD
  3
OverhangOff
350
80B6
  3
Realistic
350
80A9
  3
Shaded
350
80B4
  3
Shaded with edges
350
80B3
  3
Shades of Gray
350
80B0
  3
Sketchy
350
80B1
  3
Thicken
350
80AC
  3
Wireframe
350
80A6
  3
X-Ray
350
80B2
  0
XRECORD
  5
8279
102
{ACAD_REACTORS
330
8082
102
}
330
8082
100
AcDbXrecord
280
     1
 90
        1
330
80DA
  0
DICTIONARY
  5
8138
102
{ACAD_REACTORS
330
8082
102
}
330
8082
100
AcDbDictionary
281
     1
  3
CANNOSCALE
350
813D
  3
CMLEADERSTYLE
350
813A
  3
CTABLESTYLE
350
8139
  3
CVIEWDETAILSTYLE
350
813B
  3
CVIEWSECTIONSTYLE
350
813C
  3
DIMASSOC
350
8140
  3
INDEXCTL
350
813F
  3
SORTENTS
350
813E
  3
XCLIPFRAME
350
8141
  0
XRECORD
  5
827A
102
{ACAD_REACTORS
330
8082
102
}
330
8082
100
AcDbXrecord
280
     1
  1
DWGPROPS COOKIE
  2

  3

  4

  6

  7

  8
yasukiyo.ogawa
  9

300
=
301
=
302
=
303
=
304
=
305
=
306
=
307
=
308
=
309
=
 40
0.0186257407407408
 41
2451389.438053588
 42
2460265.687696899
  1

 90
        0
  0
DICTIONARY
  5
8187
102
{ACAD_REACTORS
330
8186
102
}
330
8186
100
AcDbDictionary
281
     1
  0
XRECORD
  5
812F
102
{ACAD_REACTORS
330
812E
102
}
330
812E
100
AcDbXrecord
280
     1
290
     1
  0
XRECORD
  5
8131
102
{ACAD_REACTORS
330
8130
102
}
330
8130
100
AcDbXrecord
280
     1
290
     1
  0
XRECORD
  5
8133
102
{ACAD_REACTORS
330
8132
102
}
330
8132
100
AcDbXrecord
280
     1
290
     1
  0
XRECORD
  5
8135
102
{ACAD_REACTORS
330
8134
102
}
330
8134
100
AcDbXrecord
280
     1
290
     1
  0
XRECORD
  5
8137
102
{ACAD_REACTORS
330
8136
102
}
330
8136
100
AcDbXrecord
280
     1
290
     1
  0
ACDBDETAILVIEWSTYLE
  5
80E0
102
{ACAD_XDICTIONARY
360
82B2
102
}
102
{ACAD_REACTORS
330
80DF
102
}
330
80DF
100
AcDbModelDocViewStyle
 70
     0
  3
Imperial24
290
     0
100
AcDbDetailViewStyle
 70
     0
 71
     0
 90
        3
 71
     1
340
80CB
 40
0.24
340
0
 40
0.24
300

 40
0.36
280
     3
 71
     2
340
80D2
 90
       25
 71
     3
340
80CB
 40
0.24
 90
        1
 40
0.75
 90
        1
300
%<\AcVar ViewType \f "%tc1">% %<\AcVar ViewDetailId>%\PSCALE %<\AcVar ViewScale \f "%sn">%
 71
     4
340
80D2
 90
       25
340
80D2
 90
       25
280
     0
  0
LAYOUT
  5
80E8
102
{ACAD_XDICTIONARY
360
82B6
102
}
102
{ACAD_REACTORS
330
80D7
102
}
330
80D7
100
AcDbPlotSettings
  1

  2
RICOH imagio MP W3600 RPCS
  4

  6

 40
0.0
 41
0.0
 42
0.0
 43
0.0
 44
0.0
 45
0.0
 46
0.0
 47
0.0
 48
0.0
 49
0.0
140
0.0
141
0.0
142
1.0
143
1.0
 70
  1712
 72
     0
 73
     0
 74
     0
  7

 75
     0
147
1.0
148
0.0
149
0.0
100
AcDbLayout
  1
Model
 70
     1
 71
     0
 10
0.0
 20
0.0
 11
12.0
 21
9.0
 12
0.0
 22
0.0
 32
0.0
 14
0.0
 24
0.0
 34
0.0
 15
0.0
 25
0.0
 35
0.0
146
0.0
 13
0.0
 23
0.0
 33
0.0
 16
1.0
 26
0.0
 36
0.0
 17
0.0
 27
1.0
 37
0.0
 76
     0
330
80E5
331
80EA
  0
LAYOUT
  5
80E4
102
{ACAD_XDICTIONARY
360
82B4
102
}
102
{ACAD_REACTORS
330
80D7
102
}
330
80D7
100
AcDbPlotSettings
  1

  2
RICOH imagio MP W3600 RPCS
  4

  6

 40
0.0
 41
0.0
 42
0.0
 43
0.0
 44
0.0
 45
0.0
 46
0.0
 47
0.0
 48
0.0
 49
0.0
140
0.0
141
0.0
142
1.0
143
1.0
 70
   688
 72
     0
 73
     0
 74
     5
  7

 75
    16
147
1.0
148
0.0
149
0.0
100
AcDbLayout
  1
レイアウト1
 70
     1
 71
     1
 10
0.0
 20
0.0
 11
12.0
 21
9.0
 12
0.0
 22
0.0
 32
0.0
 14
1.000000000000000E+20
 24
1.000000000000000E+20
 34
1.000000000000000E+20
 15
-1.000000000000000E+20
 25
-1.000000000000000E+20
 35
-1.000000000000000E+20
146
0.0
 13
0.0
 23
0.0
 33
0.0
 16
1.0
 26
0.0
 36
0.0
 17
0.0
 27
1.0
 37
0.0
 76
     0
330
80E1
  0
MATERIAL
  5
808F
102
{ACAD_XDICTIONARY
360
8090
102
}
102
{ACAD_REACTORS
330
8086
102
}
330
8086
100
AcDbMaterial
  1
ByBlock
 72
     0
 43
0.0208333333333333
 43
0.0
 43
0.0
 43
0.0
 43
0.0
 43
0.0208333333333333
 43
0.0
 43
0.0
 43
0.0
 43
0.0
 43
1.0
 43
0.0
 43
0.0
 43
0.0
 43
0.0
 43
1.0
 77
     0
 47
0.0208333333333333
 47
0.0
 47
0.0
 47
0.0
 47
0.0
 47
0.0208333333333333
 47
0.0
 47
0.0
 47
0.0
 47
0.0
 47
1.0
 47
0.0
 47
0.0
 47
0.0
 47
0.0
 47
1.0
171
     0
 49
0.0208333333333333
 49
0.0
 49
0.0
 49
0.0
 49
0.0
 49
0.0208333333333333
 49
0.0
 49
0.0
 49
0.0
 49
0.0
 49
1.0
 49
0.0
 49
0.0
 49
0.0
 49
0.0
 49
1.0
175
     0
142
0.0208333333333333
142
0.0
142
0.0
142
0.0
142
0.0
142
0.0208333333333333
142
0.0
142
0.0
142
0.0
142
0.0
142
1.0
142
0.0
142
0.0
142
0.0
142
0.0
142
1.0
179
     0
144
0.0208333333333333
144
0.0
144
0.0
144
0.0
144
0.0
144
0.0208333333333333
144
0.0
144
0.0
144
0.0
144
0.0
144
1.0
144
0.0
144
0.0
144
0.0
144
0.0
144
1.0
147
0.0208333333333333
147
0.0
147
0.0
147
0.0
147
0.0
147
0.0208333333333333
147
0.0
147
0.0
147
0.0
147
0.0
147
1.0
147
0.0
147
0.0
147
0.0
147
0.0
147
1.0
  0
MATERIAL
  5
8087
102
{ACAD_XDICTIONARY
360
8088
102
}
102
{ACAD_REACTORS
330
8086
102
}
330
8086
100
AcDbMaterial
  1
ByLayer
 72
     0
 43
0.0208333333333333
 43
0.0
 43
0.0
 43
0.0
 43
0.0
 43
0.0208333333333333
 43
0.0
 43
0.0
 43
0.0
 43
0.0
 43
1.0
 43
0.0
 43
0.0
 43
0.0
 43
0.0
 43
1.0
 77
     0
 47
0.0208333333333333
 47
0.0
 47
0.0
 47
0.0
 47
0.0
 47
0.0208333333333333
 47
0.0
 47
0.0
 47
0.0
 47
0.0
 47
1.0
 47
0.0
 47
0.0
 47
0.0
 47
0.0
 47
1.0
171
     0
 49
0.0208333333333333
 49
0.0
 49
0.0
 49
0.0
 49
0.0
 49
0.0208333333333333
 49
0.0
 49
0.0
 49
0.0
 49
0.0
 49
1.0
 49
0.0
 49
0.0
 49
0.0
 49
0.0
 49
1.0
175
     0
142
0.0208333333333333
142
0.0
142
0.0
142
0.0
142
0.0
142
0.0208333333333333
142
0.0
142
0.0
142
0.0
142
0.0
142
1.0
142
0.0
142
0.0
142
0.0
142
0.0
142
1.0
179
     0
144
0.0208333333333333
144
0.0
144
0.0
144
0.0
144
0.0
144
0.0208333333333333
144
0.0
144
0.0
144
0.0
144
0.0
144
1.0
144
0.0
144
0.0
144
0.0
144
0.0
144
1.0
147
0.0208333333333333
147
0.0
147
0.0
147
0.0
147
0.0
147
0.0208333333333333
147
0.0
147
0.0
147
0.0
147
0.0
147
1.0
147
0.0
147
0.0
147
0.0
147
0.0
147
1.0
  0
MATERIAL
  5
8097
102
{ACAD_XDICTIONARY
360
8098
102
}
102
{ACAD_REACTORS
330
8086
102
}
330
8086
100
AcDbMaterial
  1
Global
 72
     0
 43
0.0208333333333333
 43
0.0
 43
0.0
 43
0.0
 43
0.0
 43
0.0208333333333333
 43
0.0
 43
0.0
 43
0.0
 43
0.0
 43
1.0
 43
0.0
 43
0.0
 43
0.0
 43
0.0
 43
1.0
 77
     0
 47
0.0208333333333333
 47
0.0
 47
0.0
 47
0.0
 47
0.0
 47
0.0208333333333333
 47
0.0
 47
0.0
 47
0.0
 47
0.0
 47
1.0
 47
0.0
 47
0.0
 47
0.0
 47
0.0
 47
1.0
171
     0
 49
0.0208333333333333
 49
0.0
 49
0.0
 49
0.0
 49
0.0
 49
0.0208333333333333
 49
0.0
 49
0.0
 49
0.0
 49
0.0
 49
1.0
 49
0.0
 49
0.0
 49
0.0
 49
0.0
 49
1.0
175
     0
142
0.0208333333333333
142
0.0
142
0.0
142
0.0
142
0.0
142
0.0208333333333333
142
0.0
142
0.0
142
0.0
142
0.0
142
1.0
142
0.0
142
0.0
142
0.0
142
0.0
142
1.0
179
     0
144
0.0208333333333333
144
0.0
144
0.0
144
0.0
144
0.0
144
0.0208333333333333
144
0.0
144
0.0
144
0.0
144
0.0
144
1.0
144
0.0
144
0.0
144
0.0
144
0.0
144
1.0
147
0.0208333333333333
147
0.0
147
0.0
147
0.0
147
0.0
147
0.0208333333333333
147
0.0
147
0.0
147
0.0
147
0.0
147
1.0
147
0.0
147
0.0
147
0.0
147
0.0
147
1.0
  0
MLEADERSTYLE
  5
80DC
102
{ACAD_REACTORS
330
80DB
102
}
330
80DB
100
AcDbMLeaderStyle
170
     2
171
     1
172
     0
 90
        2
 40
0.0
 41
0.0
173
     1
 91
-1056964608
340
80D0
 92
       -2
290
     1
 42
0.09
291
     1
 43
0.36
  3
Standard
 44
0.18
300

342
80CB
174
     1
178
     6
175
     1
176
     0
 93
-1056964608
 45
0.18
292
     0
297
     0
 46
0.18
 94
-1056964608
 47
1.0
 49
1.0
140
1.0
293
     1
141
0.0
294
     1
177
     0
142
1.0
295
     0
296
     0
143
0.125
1001
ACAD_MLEADERVER
1070
     2
  0
MLINESTYLE
  5
80D5
102
{ACAD_REACTORS
330
80D4
102
}
330
80D4
100
AcDbMlineStyle
  2
STANDARD
 70
     0
  3

 62
   256
 51
90.0
 52
90.0
 71
     2
 49
0.5
 62
   256
  6
BYLAYER
 49
-0.5
 62
   256
  6
BYLAYER
  0
ACDBPLACEHOLDER
  5
8085
102
{ACAD_REACTORS
330
8084
102
}
330
8084
  0
SCALE
  5
80B9
102
{ACAD_REACTORS
330
80B8
102
}
330
80B8
100
AcDbScale
 70
     0
300
1:1
140
1.0
141
1.0
290
     1
  0
SCALE
  5
80BA
102
{ACAD_REACTORS
330
80B8
102
}
330
80B8
100
AcDbScale
 70
     0
300
1/128" = 1'-0"
140
0.0078125
141
12.0
290
     0
  0
SCALE
  5
80BB
102
{ACAD_REACTORS
330
80B8
102
}
330
80B8
100
AcDbScale
 70
     0
300
1/64" = 1'-0"
140
0.015625
141
12.0
290
     0
  0
SCALE
  5
80BC
102
{ACAD_REACTORS
330
80B8
102
}
330
80B8
100
AcDbScale
 70
     0
300
1/32" = 1'-0"
140
0.03125
141
12.0
290
     0
  0
SCALE
  5
80BD
102
{ACAD_REACTORS
330
80B8
102
}
330
80B8
100
AcDbScale
 70
     0
300
1/16" = 1'-0"
140
0.0625
141
12.0
290
     0
  0
SCALE
  5
80BE
102
{ACAD_REACTORS
330
80B8
102
}
330
80B8
100
AcDbScale
 70
     0
300
3/32" = 1'-0"
140
0.09375
141
12.0
290
     0
  0
SCALE
  5
80BF
102
{ACAD_REACTORS
330
80B8
102
}
330
80B8
100
AcDbScale
 70
     0
300
1/8" = 1'-0"
140
0.125
141
12.0
290
     0
  0
SCALE
  5
80C0
102
{ACAD_REACTORS
330
80B8
102
}
330
80B8
100
AcDbScale
 70
     0
300
3/16" = 1'-0"
140
0.1875
141
12.0
290
     0
  0
SCALE
  5
80C1
102
{ACAD_REACTORS
330
80B8
102
}
330
80B8
100
AcDbScale
 70
     0
300
1/4" = 1'-0"
140
0.25
141
12.0
290
     0
  0
SCALE
  5
80C2
102
{ACAD_REACTORS
330
80B8
102
}
330
80B8
100
AcDbScale
 70
     0
300
3/8" = 1'-0"
140
0.375
141
12.0
290
     0
  0
SCALE
  5
80C3
102
{ACAD_REACTORS
330
80B8
102
}
330
80B8
100
AcDbScale
 70
     0
300
1/2" = 1'-0"
140
0.5
141
12.0
290
     0
  0
SCALE
  5
80C4
102
{ACAD_REACTORS
330
80B8
102
}
330
80B8
100
AcDbScale
 70
     0
300
3/4" = 1'-0"
140
0.75
141
12.0
290
     0
  0
SCALE
  5
80C5
102
{ACAD_REACTORS
330
80B8
102
}
330
80B8
100
AcDbScale
 70
     0
300
1" = 1'-0"
140
1.0
141
12.0
290
     0
  0
SCALE
  5
80C6
102
{ACAD_REACTORS
330
80B8
102
}
330
80B8
100
AcDbScale
 70
     0
300
1-1/2" = 1'-0"
140
1.5
141
12.0
290
     0
  0
SCALE
  5
80C7
102
{ACAD_REACTORS
330
80B8
102
}
330
80B8
100
AcDbScale
 70
     0
300
3" = 1'-0"
140
3.0
141
12.0
290
     0
  0
SCALE
  5
80C8
102
{ACAD_REACTORS
330
80B8
102
}
330
80B8
100
AcDbScale
 70
     0
300
6" = 1'-0"
140
6.0
141
12.0
290
     0
  0
SCALE
  5
80C9
102
{ACAD_REACTORS
330
80B8
102
}
330
80B8
100
AcDbScale
 70
     0
300
1'-0" = 1'-0"
140
12.0
141
12.0
290
     0
  0
ACDBSECTIONVIEWSTYLE
  5
80DE
102
{ACAD_XDICTIONARY
360
82B0
102
}
102
{ACAD_REACTORS
330
80DD
102
}
330
80DD
100
AcDbModelDocViewStyle
 70
     0
  3
Imperial24
290
     0
100
AcDbSectionViewStyle
 70
     0
 71
     0
 90
       78
 71
     1
340
80CB
 40
0.24
340
0
340
0
 40
0.24
300
I, O, Q, S, X, Z
 40
0.48
 90
        3
 40
0.18
 90
        1
 71
     2
340
80D2
 90
       25
340
80D2
 90
       50
 40
0.24
 40
0.0
 40
0.24
 71
     3
340
80CB
 40
0.24
 90
        1
 40
0.75
 90
        1
300
%<\AcVar ViewType \f "%tc1">% %<\AcVar ViewSectionStartId>%-%<\AcVar ViewSectionEndId>%\PSCALE %<\AcVar ViewScale \f "%sn">%
 71
     4
300
ANSI31
 40
1.0
 90
        0
290
     0
290
     0
 90
        6
 40
0.0
 40
1.570796326794896
 40
0.2617993877991494
 40
1.308996938995747
 40
-0.2617993877991494
 40
1.832595714594046
  0
TABLESTYLE
  5
80DA
102
{ACAD_XDICTIONARY
360
8277
102
}
102
{ACAD_REACTORS
330
80D9
102
}
330
80D9
100
AcDbTableStyle
  3
Standard
 70
     0
 71
     0
 40
0.06
 41
0.06
280
     0
281
     0
  7
STANDARD
140
0.18
170
     2
 62
     0
 63
     7
283
     0
274
    -2
284
     1
 64
     0
275
    -2
285
     1
 65
     0
276
    -2
286
     1
 66
     0
277
    -2
287
     1
 67
     0
278
    -2
288
     1
 68
     0
279
    -2
289
     1
 69
     0
  7
STANDARD
140
0.25
170
     5
 62
     0
 63
     7
283
     0
274
    -2
284
     1
 64
     0
275
    -2
285
     1
 65
     0
276
    -2
286
     1
 66
     0
277
    -2
287
     1
 67
     0
278
    -2
288
     1
 68
     0
279
    -2
289
     1
 69
     0
  7
STANDARD
140
0.18
170
     5
 62
     0
 63
     7
283
     0
274
    -2
284
     1
 64
     0
275
    -2
285
     1
 65
     0
276
    -2
286
     1
 66
     0
277
    -2
287
     1
 67
     0
278
    -2
288
     1
 68
     0
279
    -2
289
     1
 69
     0
  0
VISUALSTYLE
  5
80A5
102
{ACAD_XDICTIONARY
360
8288
102
}
102
{ACAD_REACTORS
330
809F
102
}
330
809F
100
AcDbVisualStyle
  2
2dWireframe
 70
     4
 71
     0
 72
     2
 73
     0
 90
        0
 40
-0.6
 41
-30.0
 62
     5
 63
     7
 74
     1
 91
        4
 64
     7
 65
   257
 75
     1
175
     1
 42
1.0
 92
        0
 66
   257
 43
1.0
 76
     1
 77
     6
 78
     2
 67
     7
 79
     5
170
     0
171
     0
290
     0
174
     0
 93
        1
 44
0.0
173
     0
291
     0
 45
0.0
1001
ACAD
1000
AcDbSavedByObjectVersion
1070
     0
  0
VISUALSTYLE
  5
80A4
102
{ACAD_XDICTIONARY
360
8286
102
}
102
{ACAD_REACTORS
330
809F
102
}
330
809F
100
AcDbVisualStyle
  2
Basic
 70
     7
 71
     1
 72
     0
 73
     1
 90
        0
 40
-0.6
 41
-30.0
 62
     5
 63
     7
 74
     0
 91
        4
 64
     7
 65
   257
 75
     1
175
     1
 42
1.0
 92
        8
 66
     7
 43
1.0
 76
     1
 77
     6
 78
     2
 67
     7
 79
     5
170
     0
171
     0
290
     0
174
     0
 93
        1
 44
0.0
173
     0
291
     1
 45
0.0
1001
ACAD
1000
AcDbSavedByObjectVersion
1070
     0
  0
VISUALSTYLE
  5
80AB
102
{ACAD_XDICTIONARY
360
8294
102
}
102
{ACAD_REACTORS
330
809F
102
}
330
809F
100
AcDbVisualStyle
  2
Brighten
 70
    12
 71
     2
 72
     2
 73
     0
 90
        0
 40
-0.6
 41
-30.0
 62
     5
 63
     7
 74
     1
 91
        4
 64
     7
 65
   257
 75
     1
175
     1
 42
1.0
 92
        8
 66
     7
 43
1.0
 76
     1
 77
     6
 78
     2
 67
     7
 79
     5
170
     0
171
     0
290
     0
174
     0
 93
        1
 44
50.0
173
     0
291
     1
 45
0.0
1001
ACAD
1000
AcDbSavedByObjectVersion
1070
     0
  0
VISUALSTYLE
  5
80AF
102
{ACAD_XDICTIONARY
360
829C
102
}
102
{ACAD_REACTORS
330
809F
102
}
330
809F
100
AcDbVisualStyle
  2
ColorChange
 70
    16
 71
     2
 72
     2
 73
     3
 90
        0
 40
-0.6
 41
-30.0
 62
     5
 63
     8
 74
     1
 91
        4
 64
     7
 65
   257
 75
     1
175
     1
 42
1.0
 92
        8
 66
     8
 43
1.0
 76
     1
 77
     6
 78
     2
 67
     7
 79
     5
170
     0
171
     0
290
     0
174
     0
 93
        1
 44
0.0
173
     0
291
     1
 45
0.0
1001
ACAD
1000
AcDbSavedByObjectVersion
1070
     0
  0
VISUALSTYLE
  5
80A8
102
{ACAD_XDICTIONARY
360
828E
102
}
102
{ACAD_REACTORS
330
809F
102
}
330
809F
100
AcDbVisualStyle
  2
Conceptual
 70
     9
 71
     3
 72
     2
 73
     0
 90
        0
 40
-0.6
 41
-30.0
 62
     5
 63
     7
 74
     2
 91
        2
 64
     7
 65
   257
 75
     1
175
     1
 42
179.0
 92
        8
 66
     7
 43
1.0
 76
     1
 77
     6
 78
     2
 67
     7
 79
     3
170
     0
171
     0
290
     0
174
     0
 93
        1
 44
0.0
173
     0
291
     0
 45
0.0
1001
ACAD
1000
AcDbSavedByObjectVersion
1070
     0
  0
VISUALSTYLE
  5
80AA
102
{ACAD_XDICTIONARY
360
8292
102
}
102
{ACAD_REACTORS
330
809F
102
}
330
809F
100
AcDbVisualStyle
  2
Dim
 70
    11
 71
     2
 72
     2
 73
     0
 90
        0
 40
-0.6
 41
-30.0
 62
     5
 63
     7
 74
     1
 91
        4
 64
     7
 65
   257
 75
     1
175
     1
 42
1.0
 92
        8
 66
     7
 43
1.0
 76
     1
 77
     6
 78
     2
 67
     7
 79
     5
170
     0
171
     0
290
     0
174
     0
 93
        1
 44
-50.0
173
     0
291
     1
 45
0.0
1001
ACAD
1000
AcDbSavedByObjectVersion
1070
     0
  0
VISUALSTYLE
  5
80B7
102
{ACAD_XDICTIONARY
360
82AC
102
}
102
{ACAD_REACTORS
330
809F
102
}
330
809F
100
AcDbVisualStyle
  2
EdgeColorOff
 70
    22
 71
     2
 72
     2
 73
     0
 90
        0
 40
-0.6
 41
-30.0
 62
     5
 63
     7
 74
     1
 91
        4
 64
     7
 65
   257
 75
     1
175
     1
 42
1.0
 92
        8
 66
     7
 43
1.0
 76
     1
 77
     6
 78
     2
 67
     7
 79
     5
170
     0
171
     0
290
     0
174
     0
 93
        1
 44
0.0
173
     0
291
     1
 45
0.0
1001
ACAD
1000
AcDbSavedByObjectVersion
1070
     0
  0
VISUALSTYLE
  5
80AE
102
{ACAD_XDICTIONARY
360
829A
102
}
102
{ACAD_REACTORS
330
809F
102
}
330
809F
100
AcDbVisualStyle
  2
Facepattern
 70
    15
 71
     2
 72
     2
 73
     0
 90
        0
 40
-0.6
 41
-30.0
 62
     5
 63
     7
 74
     1
 91
        4
 64
     7
 65
   257
 75
     1
175
     1
 42
1.0
 92
        8
 66
     7
 43
1.0
 76
     1
 77
     6
 78
     2
 67
     7
 79
     5
170
     0
171
     0
290
     0
174
     0
 93
        1
 44
0.0
173
     0
291
     1
 45
0.0
1001
ACAD
1000
AcDbSavedByObjectVersion
1070
     0
  0
VISUALSTYLE
  5
80A0
102
{ACAD_XDICTIONARY
360
827E
102
}
102
{ACAD_REACTORS
330
809F
102
}
330
809F
100
AcDbVisualStyle
  2
Flat
 70
     0
 71
     2
 72
     1
 73
     1
 90
        2
 40
-0.6
 41
30.0
 62
     5
 63
     7
 74
     0
 91
        0
 64
     7
 65
   257
 75
     1
175
     1
 42
1.0
 92
        8
 66
     7
 43
1.0
 76
     1
 77
     6
 78
     2
 67
     7
 79
     5
170
     0
171
     0
290
     0
174
     0
 93
       13
 44
0.0
173
     0
291
     1
 45
0.0
1001
ACAD
1000
AcDbSavedByObjectVersion
1070
     0
  0
VISUALSTYLE
  5
80A1
102
{ACAD_XDICTIONARY
360
8280
102
}
102
{ACAD_REACTORS
330
809F
102
}
330
809F
100
AcDbVisualStyle
  2
FlatWithEdges
 70
     1
 71
     2
 72
     1
 73
     1
 90
        2
 40
-0.6
 41
30.0
 62
     5
 63
     7
 74
     1
 91
        0
 64
     7
 65
   257
 75
     1
175
     1
 42
1.0
 92
        0
 66
   257
 43
1.0
 76
     1
 77
     6
 78
     2
 67
     7
 79
     5
170
     0
171
     0
290
     0
174
     0
 93
       13
 44
0.0
173
     0
291
     1
 45
0.0
1001
ACAD
1000
AcDbSavedByObjectVersion
1070
     0
  0
VISUALSTYLE
  5
80A2
102
{ACAD_XDICTIONARY
360
8282
102
}
102
{ACAD_REACTORS
330
809F
102
}
330
809F
100
AcDbVisualStyle
  2
Gouraud
 70
     2
 71
     2
 72
     2
 73
     1
 90
        2
 40
-0.6
 41
30.0
 62
     5
 63
     7
 74
     0
 91
        0
 64
     7
 65
   257
 75
     1
175
     1
 42
1.0
 92
        0
 66
     7
 43
1.0
 76
     1
 77
     6
 78
     2
 67
     7
 79
     5
170
     0
171
     0
290
     0
174
     0
 93
       13
 44
0.0
173
     0
291
     1
 45
0.0
1001
ACAD
1000
AcDbSavedByObjectVersion
1070
     0
  0
VISUALSTYLE
  5
80A3
102
{ACAD_XDICTIONARY
360
8284
102
}
102
{ACAD_REACTORS
330
809F
102
}
330
809F
100
AcDbVisualStyle
  2
GouraudWithEdges
 70
     3
 71
     2
 72
     2
 73
     1
 90
        2
 40
-0.6
 41
30.0
 62
     5
 63
     7
 74
     1
 91
        0
 64
     7
 65
   257
 75
     1
175
     1
 42
1.0
 92
        0
 66
   257
 43
1.0
 76
     1
 77
     6
 78
     2
 67
     7
 79
     5
170
     0
171
     0
290
     0
174
     0
 93
       13
 44
0.0
173
     0
291
     1
 45
0.0
1001
ACAD
1000
AcDbSavedByObjectVersion
1070
     0
  0
VISUALSTYLE
  5
80A7
102
{ACAD_XDICTIONARY
360
828C
102
}
102
{ACAD_REACTORS
330
809F
102
}
330
809F
100
AcDbVisualStyle
  2
Hidden
 70
     6
 71
     1
 72
     2
 73
     2
 90
        0
 40
-0.6
 41
-30.0
 62
     5
 63
     7
 74
     2
 91
        2
 64
     7
 65
   257
 75
     2
175
     1
 42
40.0
 92
        0
 66
   257
 43
1.0
 76
     1
 77
     6
 78
     2
 67
     7
 79
     3
170
     0
171
     0
290
     0
174
     0
 93
        1
 44
0.0
173
     0
291
     0
 45
0.0
1001
ACAD
1000
AcDbSavedByObjectVersion
1070
     0
  0
VISUALSTYLE
  5
80B5
102
{ACAD_XDICTIONARY
360
82A8
102
}
102
{ACAD_REACTORS
330
809F
102
}
330
809F
100
AcDbVisualStyle
  2
JitterOff
 70
    20
 71
     2
 72
     2
 73
     0
 90
        0
 40
-0.6
 41
-30.0
 62
     5
 63
     7
 74
     1
 91
        4
 64
     7
 65
   257
 75
     1
175
     1
 42
1.0
 92
       10
 66
     7
 43
1.0
 76
     1
 77
     6
 78
     2
 67
     7
 79
     5
170
     0
171
     0
290
     0
174
     0
 93
        1
 44
0.0
173
     0
291
     1
 45
0.0
1001
ACAD
1000
AcDbSavedByObjectVersion
1070
     0
  0
VISUALSTYLE
  5
80AD
102
{ACAD_XDICTIONARY
360
8298
102
}
102
{ACAD_REACTORS
330
809F
102
}
330
809F
100
AcDbVisualStyle
  2
Linepattern
 70
    14
 71
     2
 72
     2
 73
     0
 90
        0
 40
-0.6
 41
-30.0
 62
     5
 63
     7
 74
     1
 91
        4
 64
     7
 65
   257
 75
     7
175
     7
 42
1.0
 92
        8
 66
     7
 43
1.0
 76
     1
 77
     6
 78
     2
 67
     7
 79
     5
170
     0
171
     0
290
     0
174
     0
 93
        1
 44
0.0
173
     0
291
     1
 45
0.0
1001
ACAD
1000
AcDbSavedByObjectVersion
1070
     0
  0
VISUALSTYLE
  5
80B6
102
{ACAD_XDICTIONARY
360
82AA
102
}
102
{ACAD_REACTORS
330
809F
102
}
330
809F
100
AcDbVisualStyle
  2
OverhangOff
 70
    21
 71
     2
 72
     2
 73
     0
 90
        0
 40
-0.6
 41
-30.0
 62
     5
 63
     7
 74
     1
 91
        4
 64
     7
 65
   257
 75
     1
175
     1
 42
1.0
 92
        9
 66
     7
 43
1.0
 76
     1
 77
     6
 78
     2
 67
     7
 79
     5
170
     0
171
     0
290
     0
174
     0
 93
        1
 44
0.0
173
     0
291
     1
 45
0.0
1001
ACAD
1000
AcDbSavedByObjectVersion
1070
     0
  0
VISUALSTYLE
  5
80A9
102
{ACAD_XDICTIONARY
360
8290
102
}
102
{ACAD_REACTORS
330
809F
102
}
330
809F
100
AcDbVisualStyle
  2
Realistic
 70
     8
 71
     2
 72
     3
 73
     0
 90
        2
 40
-0.6
 41
30.0
 62
     5
 63
     7
 74
     0
 91
        0
 64
     7
 65
   257
 75
     1
175
     1
 42
1.0
 92
        8
 66
   257
 43
1.0
 76
     1
 77
     6
 78
     2
 67
     7
 79
     3
170
     0
171
     0
290
     0
174
     0
 93
       13
 44
0.0
173
     0
291
     0
 45
0.0
1001
ACAD
1000
AcDbSavedByObjectVersion
1070
     0
  0
VISUALSTYLE
  5
80B4
102
{ACAD_XDICTIONARY
360
82A6
102
}
102
{ACAD_REACTORS
330
809F
102
}
330
809F
100
AcDbVisualStyle
  2
Shaded
 70
    27
 71
     2
 72
     2
 73
     1
 90
        2
 40
-0.6
 41
30.0
 62
     5
 63
     7
 74
     0
 91
        4
 64
     7
 65
   257
 75
     1
175
     1
 42
1.0
 92
        8
 66
   257
 43
1.0
 76
     1
 77
     6
 78
     2
 67
     8
 79
     3
170
     0
171
     0
290
     0
174
     0
 93
        5
 44
0.0
173
     0
291
     0
 45
0.0
1001
ACAD
1000
AcDbSavedByObjectVersion
1070
     0
  0
VISUALSTYLE
  5
80B3
102
{ACAD_XDICTIONARY
360
82A4
102
}
102
{ACAD_REACTORS
330
809F
102
}
330
809F
100
AcDbVisualStyle
  2
Shaded with edges
 70
    26
 71
     2
 72
     2
 73
     1
 90
        2
 40
-0.6
 41
30.0
 62
     5
 63
     7
 74
     1
 91
       10
 64
     7
 65
   257
 75
     2
175
     1
 42
1.0
 92
        8
 66
   257
 43
1.0
 76
     1
 77
     6
 78
     2
 67
     7
 79
     3
170
     0
171
     0
290
     0
174
     0
 93
        5
 44
0.0
173
     0
291
     0
 45
0.0
1001
ACAD
1000
AcDbSavedByObjectVersion
1070
     0
  0
VISUALSTYLE
  5
80B0
102
{ACAD_XDICTIONARY
360
829E
102
}
102
{ACAD_REACTORS
330
809F
102
}
330
809F
100
AcDbVisualStyle
  2
Shades of Gray
 70
    23
 71
     2
 72
     2
 73
     3
 90
        0
 40
-0.6
 41
-30.0
 62
     5
 63
     7
 74
     2
 91
        2
 64
     7
 65
     7
 75
     1
175
     1
 42
40.0
 92
        8
 66
     7
 43
1.0
 76
     1
 77
     6
 78
     2
 67
     7
 79
     3
170
     0
171
     0
290
     0
174
     0
 93
        1
 44
0.0
173
     0
291
     0
 45
0.0
1001
ACAD
1000
AcDbSavedByObjectVersion
1070
     0
  0
VISUALSTYLE
  5
80B1
102
{ACAD_XDICTIONARY
360
82A0
102
}
102
{ACAD_REACTORS
330
809F
102
}
330
809F
100
AcDbVisualStyle
  2
Sketchy
 70
    24
 71
     1
 72
     2
 73
     2
 90
        0
 40
-0.6
 41
-30.0
 62
     5
 63
     7
 74
     2
 91
        2
 64
     7
 65
     7
 75
     1
175
     1
 42
40.0
 92
       11
 66
     7
 43
1.0
 76
     1
 77
     6
 78
     2
 67
     7
 79
     6
170
     0
171
     0
290
     0
174
     0
 93
        1
 44
0.0
173
     0
291
     0
 45
0.0
1001
ACAD
1000
AcDbSavedByObjectVersion
1070
     0
  0
VISUALSTYLE
  5
80AC
102
{ACAD_XDICTIONARY
360
8296
102
}
102
{ACAD_REACTORS
330
809F
102
}
330
809F
100
AcDbVisualStyle
  2
Thicken
 70
    13
 71
     2
 72
     2
 73
     0
 90
        0
 40
-0.6
 41
-30.0
 62
     5
 63
     7
 74
     1
 91
        4
 64
     7
 65
   257
 75
     1
175
     1
 42
1.0
 92
       12
 66
     7
 43
1.0
 76
     1
 77
     6
 78
     2
 67
     7
 79
     5
170
     0
171
     0
290
     0
174
     0
 93
        1
 44
0.0
173
     0
291
     1
 45
0.0
1001
ACAD
1000
AcDbSavedByObjectVersion
1070
     0
  0
VISUALSTYLE
  5
80A6
102
{ACAD_XDICTIONARY
360
828A
102
}
102
{ACAD_REACTORS
330
809F
102
}
330
809F
100
AcDbVisualStyle
  2
Wireframe
 70
     5
 71
     0
 72
     2
 73
     0
 90
        0
 40
-0.6
 41
-30.0
 62
     5
 63
     7
 74
     1
 91
        4
 64
     7
 65
   257
 75
     1
175
     1
 42
1.0
 92
        0
 66
   257
 43
1.0
 76
     1
 77
     6
 78
     2
 67
     7
 79
     3
170
     0
171
     0
290
     0
174
     0
 93
        1
 44
0.0
173
     0
291
     0
 45
0.0
1001
ACAD
1000
AcDbSavedByObjectVersion
1070
     0
  0
VISUALSTYLE
  5
80B2
102
{ACAD_XDICTIONARY
360
82A2
102
}
102
{ACAD_REACTORS
330
809F
102
}
330
809F
100
AcDbVisualStyle
  2
X-Ray
 70
    25
 71
     2
 72
     2
 73
     1
 90
        1
 40
0.5
 41
-30.0
 62
     5
 63
     7
 74
     1
 91
        0
 64
     7
 65
   257
 75
     1
175
     1
 42
1.0
 92
        8
 66
     7
 43
1.0
 76
     1
 77
     6
 78
     2
 67
     7
 79
     3
170
     0
171
     0
290
     0
174
     0
 93
       13
 44
0.0
173
     0
291
     0
 45
0.0
1001
ACAD
1000
AcDbSavedByObjectVersion
1070
     0
  0
DICTIONARYVAR
  5
813D
102
{ACAD_REACTORS
330
8138
102
}
330
8138
100
DictionaryVariables
280
     0
  1
1:1
  0
DICTIONARYVAR
  5
813A
102
{ACAD_REACTORS
330
8138
102
}
330
8138
100
DictionaryVariables
280
     0
  1
STANDARD
  0
DICTIONARYVAR
  5
8139
102
{ACAD_REACTORS
330
8138
102
}
330
8138
100
DictionaryVariables
280
     0
  1
STANDARD
  0
DICTIONARYVAR
  5
813B
102
{ACAD_REACTORS
330
8138
102
}
330
8138
100
DictionaryVariables
280
     0
  1
Imperial24
  0
DICTIONARYVAR
  5
813C
102
{ACAD_REACTORS
330
8138
102
}
330
8138
100
DictionaryVariables
280
     0
  1
Imperial24
  0
DICTIONARYVAR
  5
8140
102
{ACAD_REACTORS
330
8138
102
}
330
8138
100
DictionaryVariables
280
     0
  1
1
  0
DICTIONARYVAR
  5
813F
102
{ACAD_REACTORS
330
8138
102
}
330
8138
100
DictionaryVariables
280
     0
  1
0
  0
DICTIONARYVAR
  5
813E
102
{ACAD_REACTORS
330
8138
102
}
330
8138
100
DictionaryVariables
280
     0
  1
127
  0
DICTIONARYVAR
  5
8141
102
{ACAD_REACTORS
330
8138
102
}
330
8138
100
DictionaryVariables
280
     0
  1
2
  0
DICTIONARY
  5
82B2
330
80E0
100
AcDbDictionary
280
     1
281
     1
  3
ACAD_XREC_ROUNDTRIP
360
82B3
  0
DICTIONARY
  5
82B6
330
80E8
100
AcDbDictionary
280
     1
281
     1
  3
ACAD_XREC_ROUNDTRIP
360
82B7
  0
DICTIONARY
  5
82B4
330
80E4
100
AcDbDictionary
280
     1
281
     1
  3
ACAD_XREC_ROUNDTRIP
360
82B5
  0
DICTIONARY
  5
8090
330
808F
100
AcDbDictionary
280
     1
281
     1
  3
ACAD_XREC_ROUNDTRIP
360
827C
  3
BUMPTILE
360
8092
  3
DIFFUSETILE
360
8091
  3
OPACITYTILE
360
8095
  3
REFLECTIONTILE
360
8094
  3
REFRACTIONTILE
360
8096
  3
SPECULARTILE
360
8093
  0
DICTIONARY
  5
8088
330
8087
100
AcDbDictionary
280
     1
281
     1
  3
ACAD_XREC_ROUNDTRIP
360
827B
  3
BUMPTILE
360
808A
  3
DIFFUSETILE
360
8089
  3
OPACITYTILE
360
808D
  3
REFLECTIONTILE
360
808C
  3
REFRACTIONTILE
360
808E
  3
SPECULARTILE
360
808B
  0
DICTIONARY
  5
8098
330
8097
100
AcDbDictionary
280
     1
281
     1
  3
ACAD_XREC_ROUNDTRIP
360
827D
  3
BUMPTILE
360
809A
  3
DIFFUSETILE
360
8099
  3
FBXASSET
360
81EA
  3
OPACITYTILE
360
809D
  3
REFLECTIONTILE
360
809C
  3
REFRACTIONTILE
360
809E
  3
SPECULARTILE
360
809B
  0
DICTIONARY
  5
82B0
330
80DE
100
AcDbDictionary
280
     1
281
     1
  3
ACAD_XREC_ROUNDTRIP
360
82B1
  0
DICTIONARY
  5
8277
330
80DA
100
AcDbDictionary
280
     1
281
     1
  3
ACAD_ROUNDTRIP_2008_TABLESTYLE_CELLSTYLEMAP
360
8278
  3
ACAD_XREC_ROUNDTRIP
360
82AE
  0
DICTIONARY
  5
8288
330
80A5
100
AcDbDictionary
280
     1
281
     1
  3
ACAD_XREC_ROUNDTRIP
360
8289
  0
DICTIONARY
  5
8286
330
80A4
100
AcDbDictionary
280
     1
281
     1
  3
ACAD_XREC_ROUNDTRIP
360
8287
  0
DICTIONARY
  5
8294
330
80AB
100
AcDbDictionary
280
     1
281
     1
  3
ACAD_XREC_ROUNDTRIP
360
8295
  0
DICTIONARY
  5
829C
330
80AF
100
AcDbDictionary
280
     1
281
     1
  3
ACAD_XREC_ROUNDTRIP
360
829D
  0
DICTIONARY
  5
828E
330
80A8
100
AcDbDictionary
280
     1
281
     1
  3
ACAD_XREC_ROUNDTRIP
360
828F
  0
DICTIONARY
  5
8292
330
80AA
100
AcDbDictionary
280
     1
281
     1
  3
ACAD_XREC_ROUNDTRIP
360
8293
  0
DICTIONARY
  5
82AC
330
80B7
100
AcDbDictionary
280
     1
281
     1
  3
ACAD_XREC_ROUNDTRIP
360
82AD
  0
DICTIONARY
  5
829A
330
80AE
100
AcDbDictionary
280
     1
281
     1
  3
ACAD_XREC_ROUNDTRIP
360
829B
  0
DICTIONARY
  5
827E
330
80A0
100
AcDbDictionary
280
     1
281
     1
  3
ACAD_XREC_ROUNDTRIP
360
827F
  0
DICTIONARY
  5
8280
330
80A1
100
AcDbDictionary
280
     1
281
     1
  3
ACAD_XREC_ROUNDTRIP
360
8281
  0
DICTIONARY
  5
8282
330
80A2
100
AcDbDictionary
280
     1
281
     1
  3
ACAD_XREC_ROUNDTRIP
360
8283
  0
DICTIONARY
  5
8284
330
80A3
100
AcDbDictionary
280
     1
281
     1
  3
ACAD_XREC_ROUNDTRIP
360
8285
  0
DICTIONARY
  5
828C
330
80A7
100
AcDbDictionary
280
     1
281
     1
  3
ACAD_XREC_ROUNDTRIP
360
828D
  0
DICTIONARY
  5
82A8
330
80B5
100
AcDbDictionary
280
     1
281
     1
  3
ACAD_XREC_ROUNDTRIP
360
82A9
  0
DICTIONARY
  5
8298
330
80AD
100
AcDbDictionary
280
     1
281
     1
  3
ACAD_XREC_ROUNDTRIP
360
8299
  0
DICTIONARY
  5
82AA
330
80B6
100
AcDbDictionary
280
     1
281
     1
  3
ACAD_XREC_ROUNDTRIP
360
82AB
  0
DICTIONARY
  5
8290
330
80A9
100
AcDbDictionary
280
     1
281
     1
  3
ACAD_XREC_ROUNDTRIP
360
8291
  0
DICTIONARY
  5
82A6
330
80B4
100
AcDbDictionary
280
     1
281
     1
  3
ACAD_XREC_ROUNDTRIP
360
82A7
  0
DICTIONARY
  5
82A4
330
80B3
100
AcDbDictionary
280
     1
281
     1
  3
ACAD_XREC_ROUNDTRIP
360
82A5
  0
DICTIONARY
  5
829E
330
80B0
100
AcDbDictionary
280
     1
281
     1
  3
ACAD_XREC_ROUNDTRIP
360
829F
  0
DICTIONARY
  5
82A0
330
80B1
100
AcDbDictionary
280
     1
281
     1
  3
ACAD_XREC_ROUNDTRIP
360
82A1
  0
DICTIONARY
  5
8296
330
80AC
100
AcDbDictionary
280
     1
281
     1
  3
ACAD_XREC_ROUNDTRIP
360
8297
  0
DICTIONARY
  5
828A
330
80A6
100
AcDbDictionary
280
     1
281
     1
  3
ACAD_XREC_ROUNDTRIP
360
828B
  0
DICTIONARY
  5
82A2
330
80B2
100
AcDbDictionary
280
     1
281
     1
  3
ACAD_XREC_ROUNDTRIP
360
82A3
  0
XRECORD
  5
82B3
102
{ACAD_REACTORS
330
82B2
102
}
330
82B2
100
AcDbXrecord
280
     1
102
DISPLAYNAME
  1
Imperial24
102
FLAGS
 90
        0
  0
XRECORD
  5
82B7
102
{ACAD_REACTORS
330
82B6
102
}
330
82B6
100
AcDbXrecord
280
     1
102
SHADEPLOT
 70
     0
102
SHADEPLOTRESLEVEL
 70
     2
102
SHADEPLOTCUSTOMDPI
 70
   300
  0
XRECORD
  5
82B5
102
{ACAD_REACTORS
330
82B4
102
}
330
82B4
100
AcDbXrecord
280
     1
102
SHADEPLOT
 70
     0
102
SHADEPLOTRESLEVEL
 70
     2
102
SHADEPLOTCUSTOMDPI
 70
   300
  0
XRECORD
  5
827C
102
{ACAD_REACTORS
330
8090
102
}
330
8090
100
AcDbXrecord
280
     1
102
MATERIAL
148
0.0
149
0.0
149
0.0
 93
        0
 94
      127
282
     0
 72
     0
 77
     0
171
     0
175
     0
179
     0
273
     0
  0
XRECORD
  5
8092
102
{ACAD_REACTORS
330
8090
102
}
330
8090
100
AcDbXrecord
280
     1
270
     1
271
     1
  0
XRECORD
  5
8091
102
{ACAD_REACTORS
330
8090
102
}
330
8090
100
AcDbXrecord
280
     1
270
     1
271
     1
  0
XRECORD
  5
8095
102
{ACAD_REACTORS
330
8090
102
}
330
8090
100
AcDbXrecord
280
     1
270
     1
271
     1
  0
XRECORD
  5
8094
102
{ACAD_REACTORS
330
8090
102
}
330
8090
100
AcDbXrecord
280
     1
270
     1
271
     1
  0
XRECORD
  5
8096
102
{ACAD_REACTORS
330
8090
102
}
330
8090
100
AcDbXrecord
280
     1
270
     1
271
     1
  0
XRECORD
  5
8093
102
{ACAD_REACTORS
330
8090
102
}
330
8090
100
AcDbXrecord
280
     1
270
     1
271
     1
  0
XRECORD
  5
827B
102
{ACAD_REACTORS
330
8088
102
}
330
8088
100
AcDbXrecord
280
     1
102
MATERIAL
148
0.0
149
0.0
149
0.0
 93
        0
 94
      127
282
     0
 72
     0
 77
     0
171
     0
175
     0
179
     0
273
     0
  0
XRECORD
  5
808A
102
{ACAD_REACTORS
330
8088
102
}
330
8088
100
AcDbXrecord
280
     1
270
     1
271
     1
  0
XRECORD
  5
8089
102
{ACAD_REACTORS
330
8088
102
}
330
8088
100
AcDbXrecord
280
     1
270
     1
271
     1
  0
XRECORD
  5
808D
102
{ACAD_REACTORS
330
8088
102
}
330
8088
100
AcDbXrecord
280
     1
270
     1
271
     1
  0
XRECORD
  5
808C
102
{ACAD_REACTORS
330
8088
102
}
330
8088
100
AcDbXrecord
280
     1
270
     1
271
     1
  0
XRECORD
  5
808E
102
{ACAD_REACTORS
330
8088
102
}
330
8088
100
AcDbXrecord
280
     1
270
     1
271
     1
  0
XRECORD
  5
808B
102
{ACAD_REACTORS
330
8088
102
}
330
8088
100
AcDbXrecord
280
     1
270
     1
271
     1
  0
XRECORD
  5
827D
102
{ACAD_REACTORS
330
8098
102
}
330
8098
100
AcDbXrecord
280
     1
102
MATERIAL
148
0.0
149
0.0
149
0.0
 93
        0
 94
      127
282
     0
 72
     0
 77
     0
171
     0
175
     0
179
     0
273
     0
  0
XRECORD
  5
809A
102
{ACAD_REACTORS
330
8098
102
}
330
8098
100
AcDbXrecord
280
     1
270
     1
271
     1
  0
XRECORD
  5
8099
102
{ACAD_REACTORS
330
8098
102
}
330
8098
100
AcDbXrecord
280
     1
270
     1
271
     1
  0
XRECORD
  5
81EA
102
{ACAD_REACTORS
330
8098
102
}
330
8098
100
AcDbXrecord
280
     1
 70
     1
 90
1959938040
 71
     1
  1
4E1D9B2B-E1C7-4FD3-B497-86F5FD3CFF9C
311
504B0304140006080800F7827057ECABF3C9D8000000200100004F00000033443734363137372D413137392D343431372D423842442D3142304333364246453030382F4173736574446174612F446566696E6974696F6E4974657261746F7250726F706572746965732E62696E454E3D4FC33010350C200686FE83AABBF127
311
0E8DDA222094A92C30B15457E75A2239491527122323FF9AFA44514F7AF7EEF3DDFD30C67E8F96427696F09DFC75E2176CB0ABFC9BFFC41AD8055542BB817079EA9DA790D202B730849EB65655F4180234D80E71741A1DD7D027390837B47495F05F88A4B0FB3B46F75F13E8256228F7F93DC488FD5C6C375FC23CD8E5A3D6
311
1977329B72AB9E0B7E275DC6ED749949F354DC5A634487B11D3A8F516821D747E5F5BED955E562D657358E1BA8713EF11DA69FCAC9424B6DB8525CB977E5726D72EB3E6682260F504B0304140006080800F7827057F861D17AEB000000300200004500000033443734363137372D413137392D343431372D423842442D3142
311
304333364246453030382F4173736574446174612F496E7374616E636550726F706572746965732E62696EEB606060F80F0540260323103700495E20ED9E9A975A94991C9C9C919A9BA8021430713574B1743272D275357436D735717331D67532B134D7B530733305729CDDDC2C9DD9111A415A8C0D4D5C5C8D4C2D754D4D
311
4C8C754DCC8C0C759DDC9C5C740DCD8D0D9CCD9C9D2D1D5D2D81CAC0F63268C6F41FFAAA71C51E483301C51A8018C607D3403E107CB087A8666010706010000B81091507041B2B0BA81102E00CACCA808270051F9881BC0620866A7D00A57980429800148E0819B821180A53763A6088A108606A0519AD81A4E6833D0B9007
311
8A2D3E200E2E4F2C49CED0752A4ACC4B494D01C9D00A0000504B0304140006080800F782705728BB58AF800100009E0500003D00000033443734363137372D413137392D343431372D423842442D3142304333364246453030382F536368656D61732F436F6D6D6F6E536368656D612E786D6CBD544D4FC23018BEFB2B96DE
311
15493C78601010A34B880709DEDFB52FD0D8B54BD70DF6EFED3AC0B12E6442E2716BFB3CEFF3D18E26FB440405EA8C2B1992E1C323095052C5B8DC842437EBFB673219DF8DA659866649B798C078B48AE6410122242F2A4994AC7F93815DF85C049C8564CA0A901499DD886B2EB9B1E02448F358701A9235880C49A0119892
311
A20C89D1B9FD768815CAD268CB5E0355B40B1E47F3E37A2020464BED06AA57CE8FCC20C3C3446D46761A2632A8C1283D07031EFF2AE7CCB1BFEEE916E406DFAC8E36FFD99A9D60A6944090EEDC3B670C7DC13DE86B6B2C5C240D6E503BB85ACD579D513F1B9F9A69DC9CC22AFA80C426D40AF0B21EA168559156B6276F0F72
311
6A6BFF04DCD513A87A62CAD41FB24FCB2858B3952E3D852084DA25B9303C15687973CC8E8AAE11DF2836C38C6A9E765E8C1BA1BFB1DC29CDFE518C8B5A7655A4ED7E77291ABEB80DBD82EC866ADE1B8D05AF9E35CF09D7A061F38A986D9EC412B8F0F65E5D81534D9B231D1E5A8FE577A241F3A5FD01504B03041400060808
311
00F78270572CCEBD668A040000E01200003E00000033443734363137372D413137392D343431372D423842442D3142304333364246453030382F536368656D61732F47656E65726963536368656D612E786D6CD5586D6FDB380CFE7EBF42F0F7A649B70E1B90744856B4970F450FCD7A5F05459613EDE4174872DADCAF3F52
311
2F8ED3B88D2F1D06AC4050DBA2493EE4438AF2F8EB73AEC8466823CB62928C06C384888297A92C5693A4B6D9D9E7E4EBD51FE3A931C22EF85AE4EC6AFC38BF261BA626C9AD288496DC3F4FCEAFC63366845F7A10452AF41DB320C0D44EC26EAB20918735565582695670811A6A49643A49A6E9069FA4604A64B29016DC4B48
311
552F95E4932463CA888468C1D2B250DB4962750DF7CE273069CE8363F1FF4EDB00E0A21999574AE4A2B00C353B93F3BD4777B8A61ED8F604ABFEDD79CE56A2B7BDFBDBC50996E0ADDE16FED26223C5D30956C29BDF4A55EA686E5E58B112DA45CE67F76F4FA27EFA3FB672FD7372FC388FAECDCA5209E693CAD167BADCD272
311
F943701B3812F8A3D852008B1D2E32DB927B2F833C6EA95879925356D254582695095A3CE982924720BE5774A3CB9CDCDB350427D2DF20DA1B5532EBE2D5D6288D75D4F7E4FD9890A0EF8E3D93EBB8F8BA4758158EF6FB90A6F9520281C93DE7AAC6D24607DA296BB96018123F821A7D6A5C5884050C475DA4865442732C8B
311
95684A50165CBB3A32F25F783A4A480ED59AD7F924B968AEA50131F46303223E6A397B0E52976030DC1DCA81D7E7C1EDEEA42C19FF27635C505E2BD5198A599020DF50A2330FCB3AAF28CB0124108429553EF1B228802E2265D8F7CC2401042B155BCC7070F1E5C55F13B4A9577362CCCE46C32174E010C3C378C44841A4BD
311
A00FE3A12006CE11EE6AEC59894D3526DDE1CD59D503ECC324017F8061B7F162162FA62EDD81AE3308617770796DCBDAD2B2625C5AE8A63DE20B2C8AA5E95E76E5730823955956E33E705425A2187C185D36489A1B44D3DCEC2172F6BA2105C3546287A7194B2331768EBBE64F6E70A9930ABE0ADEA89E9E2C38523B810287
311
AD67A54A039C1606EAFE68F8304610BB9093DBDDABC0B2AE4E290DCDA15376D7E39F72B556F0B32EAB5D3D498B4C41ABADEC3A1434C422D87E8025A84BDCB2B1417ED750FAE4DA8976863974C577C7F902D3F156AD354DEA3540DE6BEAE2BEA52F7A2EB4CA43802ECE5BF2CE2EDC9347179FFB023CE412E60BE16DA0BE29B3
311
74988A553F561DC04615DD35F7D2C8979F60E5955CE93DF29DED8AFA1EE6642D53418086C03C47C377910F75F7E8F5EF665F70B60FFB22AEDF897D119E8423C773E819A3C1E55E550599EE6EDCA34D0C86FD72057DF2CD46F16A470682471C164E4346D5306BF12D7D12D82CFF673D41636C347443FEB51B50D72EA171A8E4
311
A58623A4A16E0FA2B8B10A0D23268D87C33896EE8FB73305A74BF224EDBADFA0BD674AB354D63DB7BD5D83426761C077DE767728235446A552754EB93B755891C3C4CC6CADE37CF0E912A7BB38DBA010F9DE1282EDF470CA69A9CDA482E334C4A6EA4107987980B17E72F31730EBF88BBD39E7C629F56797A3C0009C2C5AE7
311
951D9A05A02773440F02EEB4DE396A3B6A570C72CCFBCD823B0B8ED3F1D5CEDDFED772FA70236C83FB7D86C385D570B87107535572A60A96035F8F7C6A7192F13007246BBE0521855E6AC46F3E27689CEE7D186A6FD679D98CDCAD13333E04EBE7ED6F55FF01504B0304140006080800F78270576180134D5F0100006B0300
311
004500000033443734363137372D413137392D343431372D423842442D3142304333364246453030382F536368656D61732F52656E6465724D6174657269616C536368656D612E786D6CA5934D6FC2300C86EFFB1551EEE343DBA41D1A103009551ADAD40EAE28A4A68D9426284961FCFBE5A340113B2071746D3F765EBF4D
311
C6BFB5407BD0862B49F0B037C0082453059725C18DDD3EBFE3F1E829991803366715D474942CD30FB4A782E00C64017A412D684E454CE3FE28995203B162A6EA5AC94B66997D225E109CD63B0135484BAD1B3C07E9080CA35DB3119C11BCA5C200461A68A1A438126C75E3E230D40FF81FB3F03C91D1E3A3A0AF79FE28E25B
311
C39EC3E17E4C2A2D94A0833A51AF55BCCA7D88572FCBAC529C4140B020FC3AAFA886621DCED7EAD7664CC86024E806DC297DA1BB393E4156543457A4537DB8817349A70F8ACBF09B3EEE2CB2F33E91B65D60786E4E3B39B77E3FEEEF5650424525DA657FB8B46BE6BF064646F0A0F7327C0BC1BC1B4CBBC1C419FA3CCB2350
311
0007872A2580CAAE5461865565294E4EDB4617B62FF579DF9A5B2F54E834076A597573A020912FED777F9B3F504B0304140006080800F7827057514C723F4F000000570000004700000033443734363137372D413137392D343431372D423842442D3142304333364246453030382F4173736574446174612F417373657454
311
61626C654F66436F6E74656E74732E62696E5361606030713574B1743272D275357436D735717331D67532B134D7B530733305729CDDDC2C9D8580EA72134B528B321373120B0A52138B12F39253818260C00B24DD53F380B2C9C1C919A9B98900504B0304140006080800F7827057F8658340580000006800000045000000
311
33443734363137372D413137392D343431372D423842442D3142304333364246453030382F4173736574446174612F53747265616D56657273696F6E5461626C652E696E66558CBD0A80300C06F73E4B117FB66E451741D041DC5BF98480A492E4FDD18EAEC7DD4555D89EF28DF51A0B1BD8340C4DE7DD848B988C0ACF0649
311
566493F2408C508DDEBB99D5129FF8F1AF8CF5B9503E20FAE5A16B5AF702504B0304140006080800F7827057DCDA0531350100009A0400003600000033443734363137372D413137392D343431372D423842442D3142304333364246453030382F4173736574446174612F636E782E786D6CCD94314FC3301085FF4AE43D76
311
D2A20A558E2B044B2790A818D8AECEA5B5EAD8917D41F0EFB1D30CA022A60E5DCFEFCECF9FFC4E6E3E7B5B7C6088C6BB86D5BC62053AED5BE30E0D1BA92BEF59B15132784F3F64AC70D063C372992979087E1CE6528B1D8C3657AD71A7B9F81023D20EF6169FBB47EF081D4556680B31362CEA23F6C06124DF623CF1160878
311
CD03463F068D6912991EE7493A2010B64C2DAAC5B2ACEBB25EEDEAD57AB15CDFADDEA5C84A25F7DEDB596FD265C10F853EDFCA5425453E56720C66D6E4B730F59747BE374E8AA4543252484CE60EFA1A52070C83351A28A1135E1352994408BD1467B1922233F845E2093BE34C6ED92663403EBC247B18C8E0CD11F9CFEBF5
311
C96C5D24701A6F97C7A5C3EB53789D7ED0DB399053626E2D27970EB971DD155222A635924293B78AFA06504B0304140006080800F782705711E08925090100004F0300003400000033443734363137372D413137392D343431372D423842442D3142304333364246453030382F536368656D61732F636E782E786D6CCD93BD
311
6EC32014855F05B1C7364E6555112643874E5DDA4EDD28DC2428C0B5F8A9DAB72FB80C89D4AD1DB2C1E1133AE770E1FB4F67C9078468D0CF94750325E0156AE38F33CDE9B0B9A7642F78404C1718255E3A986995A9E0C7807969928683CCB6AAD6F873131FD039F42FEA044E52A2AC8C71A671DD763227D410CF9D964976AC
311
0B10310705E586641CB41B5400994053310EE376C3D8864DAF6CDA8DDBDDDDF4C6FB4A0AFE8E681B6F7C82800B515816BED819785F8F05CFC134A666A0E2D25B57DAE07D21048F29940E1A99BE9642CA65B146C954AAEA57F08711BCAF51AF023F828760D46D26BE32F76F919FC16B084FE5958291F63693FFE6F16F05F4EB
311
EC9711A85F417C03504B0304140006080800F7827057410A3D5871000000A40000002C00000033443734363137372D413137392D343431372D423842442D3142304333364246453030382F636E782E786D6C55CC4D0E82301086E1AB34B31774E7A22D31F1069E60020334B633A63FC6E34B0909B07DDE2F9FEE7EC1AB2FC5
311
E4840DDC9A2B28E25E06C7938192C7CB1D54677514C9871928C640062A83D55394F2D968A0118BAFEA1DBF377CA444F98919176EAB9FEAAB9F2960DA5BBB1E2ED3FA6FFF504B0304140006080800F782705738F3ABE17E000000A300000007000000636E782E786D6C4D8CD10AC22018465F45FE7B4B994C0375E456EF319A
311
1B92D3B0397AFC3476D1D50787EF1CD97D568F769BDE2E0605F44400D9F088930B8B82BCCD5800EAB44C316E7F3740615CAD828A41CB25C5FC3AD064E731FB4ABD0BCF033603672DE51C5F29BF60C628C74698015343FAA635F71B21A218E7AA94F9F5CAD6BCFE02504B0304140006080800F782705716E99B5DA600000035
311
010000130000005B436F6E74656E745F54797065735D2E786D6C9590410E82301045AFD2740F4517C6180A0BF5065E60AC53688469D30E066F6F91AD9AB89CF9FFFD3F99BA9DC7413C3026E749CB4D59498164FCCD51A7E5C4B6D84BD136F5E5193089ECA5A465CF1C0E4A25D3E308A9F401292BD6C711388FB15301CC1D3A
311
54DBAADA29E38991B8E0254336F5092D4C038BF39CD76B6FC6A538AEBEA54A4B08617006389FA516557DE4AE8E7E70DE30729138228C5F021CD93F02D4FB0DCD0B504B0304140006080800F78270573DEE336E64000000790000001B0000006175746F6465736B2D64657369676E2D7061636B6167652E786D6C35CBC10E83
311
200C00D05F21DCA56CA76D41FC96062B120735B69A7DBE268BB7777961F8D5AF396893C2ADB70FE7ADA196782C2DF776D7A97B5933C430F15651E5469C55D70F80A4992A3ADC954792C525AE70A1E4D6AD9816CC044FEFDF01FE3FDE907802504B0304140006080800F7827057E62AF4C3FA00000096010000370000003344
311
3734363137372D413137392D343431372D423842442D3142304333364246453030382F4173736574446174612F636F72652E786D6C8550CB6E833010FC15B477436CC04923E38884E60B7AEACD320EB5126CE447D5CFAF1DA8D49E7ADAD5ECCCECEEB0D3D7FC283E95F3DA9A0E70B983421969476DA60E62B8A1031427CE9C
311
B5E1170D0A2366D5418681B3C9D9B86C90B4262893516347B581C27B15A0908FD474E0E5879A452962480C7F2F1721EF6252252E571E6731EA7193EA31B9E99B560EF819B7FDF04A281A5E0E3D6AF6578ACE6D5DA366E8096D2FD7FE72DDB32A8B390B7AFED92E9D12418DC0C98ED4086384E91BA647521F1BFACEAACCE4CC
311
07977EDE96E6EF80F7F9EA4104C1AA75FAC7352EE3FFAE519B5093CD755578E0381DF91C7056E594527946986A4E947F03504B0304140006080800F7827057A9B3D52FF8000000940100003500000033443734363137372D413137392D343431372D423842442D3142304333364246453030382F536368656D61732F636F72
311
652E786D6C8550CB6EC32010FC156BEFD8C1AFA4112672E2FA07DA536F0888831283C5A3EAE7171C576A4F3DED6A76667677C8E96B7E649FD23A65740738DF4126353742E9A983E0AFE800D989126B8CFF45834CB359769060A064B2262C1BC48DF65227541B21379039273D64FC119B0E1CBFC999E52CF8C870F77C61FCCE
311
2699E3FCC9A324042536A912D14D5D95B440CFB8E987D7B245C3CBA147F57E6CD1B9A92A540F7DD93697B1BF8C7B522431255ECD3FDBB995CC4B01B4DC9515C218E1F61DB7C7B23AD6ED0729129312E76DFC795B9ABE03FAB6DEE948F19CFDF10C8BF8DF3328EDAB72F37C2A1C501C4F5C07941429A358D600634D79D26F50
311
4B0304140006080800F78270570DC2CF0401010000D70100002D00000033443734363137372D413137392D343431372D423842442D3142304333364246453030382F636F72652E786D6C9591C14EC42010865F85CC9DB6B4B5AD1BCAC6BAFA049EBC21CC56B25B68801A1F5F6A6BD49B9E203FDF3FC33FC38FEFD395BCA10F
311
C6D91E58560041AB9C3676EC618967DA01390AEE9D8B3F3020564ED8C32A83E0A377CBBC4BCAD9887655ADD3B88B32048C40D4355D7A08EA152799C92526225CB259AA8B1C3163D9C6091ECDF465551E65440DA22CCA8A324659F3C49A43591DEAE699E72B29F8626CACCABD194E2FA8899B638A04E286E7DB6BA216A377C6
311
E8F4477336E84154A7B66E58DBD23BD6DED2BA662D1DBAE144D950DC57CDF0F850145D2A92CC8287E8D364F622EB0CFE6ADF8CBF922DB3FE67B2CD1140B0EF50F93A66C1F3CF1DA4735D89F800504B0304140006080800F782705751ACA24009010000B201000008000000636F72652E786D6C8D50CB6EC32010FC15B4776C
311
E30749234CE424F517F4D41B35C441B1C132386AFFBE10BB527BEB69D1CCECCE30ECF8390EE8A166A7ADA981241920653A2BB5E96B58FC15EF011D399BADF5BF64808C18550D1106CEFAD92ED30675D67865226AAC541B289C531E503784470DAEBBA9512462F141E1EEC924BABBE855429255C799D7E3CF6A372BE195049E
311
67798109C184BE117AC88B4349DF591A959C2D8B969B9596C15D5FB59A819F48D55C5E738A2F2FFB0697BB96E2535514B8BC3439ADCE6D736E772C8DCB9C393F873F6F47424E8F9C78445F96AE14671FD60E9B208492C89AE10B78C6D248FC09BD4CF21FA1B5F145BE1D5C371C7012023D89601C1B0CE3596F98B16DFE0D50
311
4B01021400140006080800F7827057ECABF3C9D8000000200100004F000000000000000000000000000000000033443734363137372D413137392D343431372D423842442D3142304333364246453030382F4173736574446174612F446566696E6974696F6E4974657261746F7250726F706572746965732E62696E504B01
311
021400140006080800F7827057F861D17AEB0000003002000045000000000000000000000000004501000033443734363137372D413137392D343431372D423842442D3142304333364246453030382F4173736574446174612F496E7374616E636550726F706572746965732E62696E504B01021400140006080800F78270
311
5728BB58AF800100009E0500003D000000000000000000000000009302000033443734363137372D413137392D343431372D423842442D3142304333364246453030382F536368656D61732F436F6D6D6F6E536368656D612E786D6C504B01021400140006080800F78270572CCEBD668A040000E01200003E000000000000
311
000000000000006E04000033443734363137372D413137392D343431372D423842442D3142304333364246453030382F536368656D61732F47656E65726963536368656D612E786D6C504B01021400140006080800F78270576180134D5F0100006B0300004500000000000000000000000000540900003344373436313737
311
2D413137392D343431372D423842442D3142304333364246453030382F536368656D61732F52656E6465724D6174657269616C536368656D612E786D6C504B01021400140006080800F7827057514C723F4F000000570000004700000000000000000000000000160B000033443734363137372D413137392D343431372D42
311
3842442D3142304333364246453030382F4173736574446174612F41737365745461626C654F66436F6E74656E74732E62696E504B01021400140006080800F7827057F865834058000000680000004500000000000000000000000000CA0B000033443734363137372D413137392D343431372D423842442D314230433336
311
4246453030382F4173736574446174612F53747265616D56657273696F6E5461626C652E696E66504B01021400140006080800F7827057DCDA0531350100009A0400003600000000000000000000000000850C000033443734363137372D413137392D343431372D423842442D3142304333364246453030382F4173736574
311
446174612F636E782E786D6C504B01021400140006080800F782705711E08925090100004F03000034000000000000000000000000000E0E000033443734363137372D413137392D343431372D423842442D3142304333364246453030382F536368656D61732F636E782E786D6C504B01021400140006080800F782705741
311
0A3D5871000000A40000002C00000000000000000000000000690F000033443734363137372D413137392D343431372D423842442D3142304333364246453030382F636E782E786D6C504B01021400140006080800F782705738F3ABE17E000000A3000000070000000000000000000000000024100000636E782E786D6C50
311
4B01021400140006080800F782705716E99B5DA6000000350100001300000000000000000000000000C71000005B436F6E74656E745F54797065735D2E786D6C504B01021400140006080800F78270573DEE336E64000000790000001B000000000000000000000000009E1100006175746F6465736B2D64657369676E2D70
311
61636B6167652E786D6C504B01021400140006080800F7827057E62AF4C3FA0000009601000037000000000000000000000000003B12000033443734363137372D413137392D343431372D423842442D3142304333364246453030382F4173736574446174612F636F72652E786D6C504B01021400140006080800F7827057
311
A9B3D52FF80000009401000035000000000000000000000000008A13000033443734363137372D413137392D343431372D423842442D3142304333364246453030382F536368656D61732F636F72652E786D6C504B01021400140006080800F78270570DC2CF0401010000D70100002D00000000000000000000000000D514
311
000033443734363137372D413137392D343431372D423842442D3142304333364246453030382F636F72652E786D6C504B01021400140006080800F782705751ACA24009010000B2010000080000000000000000000000000021160000636F72652E786D6C504B050600000000110011005A060000501700000000
310
504B0304140006080800F7827057000000000000000000000000370000006662782F46463730313133422D394644332D343538372D394339442D3936394246373032383635392F617474726962757465732E62696E504B0304140006080800F7827057000000000000000000000000350000006662782F4646373031313342
310
2D394644332D343538372D394339442D3936394246373032383635392F76657274696365732E62696E504B0304140006080800F7827057F270F1330600000004000000360000006662782F46463730313133422D394644332D343538372D394339442D3936394246373032383635392F747269616E676C65732E62696E6366
310
60600000504B0304140006080800F782705751464CB48900000043010000360000006662782F46463730313133422D394644332D343538372D394339442D3936394246373032383635392F6469726563746F72792E786D6C9D8F310EC2300C45AF127987122606C71DD918B841D4B851A43646695A717C52A85029031293A5
310
A76FBF6FACEF7DA7264E43906840EF0FA03836E242F406C6DCEE4EA06AC22492573150D1F66C60C640E8938CB705396EEDD86DE9B5042FE27813D640EA63BB001C722AF6E55CB61E4863F58284D5D3F53DD715CE1C3985E63FD7F1B7EBDD617E9F1E504B0304140006080800F782705714443CCF41070000201C0000340000
310
006662782F46463730313133422D394644332D343538372D394339442D3936394246373032383635392F6F626A656374732E786D6CDD595B6FE23814FE2B56F665F7815C08D032A28C0A94111A7566346856FB169960A8B7CE454ED2D2FDF57BECD8214E03A4739156DB4A101CE7F89CEFDC4F26EF0F11434F846734896F2C
310
CF762D44E230D9D2787F6315F9AE776DA1F75334E14992D7F65928C611B9B1C4B2359DEC7952A46A694B76B860CDD5E5EC2F94852426160A19CEB21B2B0B1F48846D5CE4C996648FF616E7D8DEEF0EB667971B4DB27B8ED387C65129E624CE8155588F818AE2C0337F8248CE74E2880DC636BFDBB6FE996D8E14DC6494C659
310
8EE3F015578DE3FA27B86A1CE77B83C55D7F38EE0D0703BF3718F5BDDE6C395BF4BC2BDF9D8FE6F3F1EDDDD842D3C9264958A58094C45BD0E28B35F5268EB85389AF5068E33B4CE298840ACDB60D5BA2E8529235313180F5A468358594B2D616FC8EC29FD8D609148325036D2D9CFEAE5B6FB2F91B40C8BA5829CF88B0F22C
310
E7A06B857DE90FEEC429570DBDD00C4538279C628618DD70CC4141B0B554904146788B20850466528B9A5E9D5730ECCBBED4C6E5AE604CF8AF35959E16803F923C939CD17F083F725F3F0D7802690B1AE7D74AD8FC250512E3892317CB7B7E5FDD2C81443B86F7602D20A6D8E4F71B78CD452C582DACE9C7E5E6B016F1A1FD
310
F0942729E1B9B03CE9CCCAEFB4066BA605C6D70194125753774754BE02F49F00F98A173401CD717A181C065A768EE36C97F008B4835CD473E1C345E2F2D5D5C4A91E9E2264C4CA539882DBFE244C0D318CB36B904E274F60F409F79570EB1033B0E97B1A0B3F0743412C812588F7BBCDC19AAE2098C2223C8519480FFF1347
310
5C22F82AE940BC6968A82DFC7650947698A69F1D75F5016C86D3B0529521E3297C873F05DFDBC5FAE3BAE03B1C927BE5D80BB2A331CD2199B63364806EB8FCB7D527E9911F58B2C1ECF8B4B1298463F689881B2D6A592BB520A917E044A4E1523372E59E82B73386639214995A6F8B5361C2121E6C5E82D2855BCFFA53DB40
310
79983280D65806C93DE43415985853A5AD2A10DA3541C1C2305716B82FB51A6C8A280D709414B108B5AF4DB1C907C4196189405552D386ADBD5693DDD2DDAEC82078B5929C1B402A7FD6844B0B1F401C6BE397931DC790449338A09083C1595A4F300EA8C03BCF7346D82EA08C1551B0A30CF24810E1F404FD8E12D433D723
310
79794EF8B695A06959DA27B50D09C015B01A249DADCA98AF74CAC9131565A6CC673A1B183B541D6A4D0727D285C8142D806A6394663EB8F316E3597FD6BBF3E657BDC172E1F76683F155EF7AB41CC28FF972390678949548048ED1AA9EEF4095A2CC31FC2F7F28A24D8C29831B8202DEA6EFDECBEC79E3406874FCDBC172D6
310
EF5FF546EED5B837F0EE16BD6B77045C8C9757AE3F5F0C07BEEF709225050F49E6F41D37D02699C6FB535C55B154642D901F3E15A450D65C4E765A5F4D61FEC731B499130C25FE57836815BB5A0AC2AE41543CDA0CA1387C14292A08A1EA6B759F46106DF2D116E7DE18975DDB77E59FE78DFBEEB87F3D1E55C67E3650CB73
310
7E38CEB5491042DF59E44192E290E6ED09B5814BC738FDA6DC62FBDE10013AD56775C8F93CA30E096884F724D861D125B404C64B12B4E6B03D4BB28CC624935DDEABEAAF41D3B5A19832736E8B11D22C88488EBFC7FE64DBD0B06988CD2C807E341713818B554165D0AA0339455174BF90B8A5FC2F4186A394959DEE250CBC
310
BE8640F7386D16279816473C81BD05380FDC2D91838B4BD42BF6757DD0AAB526F5F177933F018FAE6B7E213CFA88EEA5933DF4C6E2EF1A82CA68E8F9575A1197B0D247E5A28F6305749EE14BF04CE8FEA153A1D94D27B592AD2CAA7312411B8BF38277F2D7D1D07D75908A0B0D87A89DF4C6E250F66FBA8303F4640377AABC
310
AD1D0375288D61CED549905752B49AB0D4859CE989D1D51BFCFAACB2EB547F385EFEF28AB9EE7C11147A5D70806AB90CC02AFA1835756BD56DD443D933CE4308A46BF9DD9B81476CC9F6D89819E4DA4A745D9F5EAA9E5722A04630B1C522CEDE8B0BF61583AAA17BCE9C0F65D1E694EB2B91D86C184E1FF9309836697DFEB0
310
6E508195CE4F7F111891E70605B53A17DDF01952DF56C79EBF414149F46D75E6F1FF4447A11558EB2C601A9C258CC2509E6CD19E2490BD61ECD0A1DBE011C964563E7629FA8D4087A79FCA996A8E374CF738E10386C13453BD5811C2501432E68DA5D6D16F3006159348399CB21FA10D5331CC4205A73716586C4EA1DBB237
310
30CE92C34349BD31AE04C7C6F15EE4FBF2A9EAF7F1B157DD57B5A70B2E4A32C399A0B04DE57B02A8FACA1BD3C9F78BAED9413887CB4D9157C21C178ED22810F40B81523898FA3D2A780F50509C97CBB3E51EA321ED34993F6B0725D55E8EF95E8ED76B3679BBF8E288C9F8EA334A59B117EA3CD7FD1A947AA2EB664539859A
310
80612831532C6AC8F93BE70B4FE015538496148C00FD7EB81EFDE1CC93284AE272C9B9552FAAD0FA015E3B6D1D3DF28336DEF5868E9C02A8B17EB0C119B1F1367B8405502DA762365A426C1840154D6B06A0352274018F19FB570BA46AA3DA84A41E76053C72A68FC091C4BB1CE136F50DB50124F80270256F1E2FF4C2C4E1
310
30049FFE0B504B0304140006080800F7827057718B2C893E01000046050000300000006662782F46463730313133422D394644332D343538372D394339442D3936394246373032383635392F636E782E786D6CCD94C16A032110865F45BCAF1B93124A700DF4D027E8A1F4E6BA93AD89AB8B8EA579FB6ABA495B4A4A0F81E4
310
26E33FF07F333F23D6EF83256F10A2F1AEA19CCD2801A77D675CDFD0849BEA9E92B514C17BFC26A3C4A9011A5ACA548A3EF8344EA50E362AD952B5C6EDA6A2420CA64D0891126D558C0D8DFA1506C55442DF41DCB14EA1629C05883E050DB91FCD0053BF0EA0103A2AE7B3F9A2E2BCE2CB27BE5CCD17ABBBE58BA88B528AD6
310
7B3BE98D43087E24DAE787CB6666A22EDF52A460264D21A0F2CB196B8D1375FE972266B7AE9F74B81F8B6E1CADD10AF3986AAF11B0CA225083A83FC552D485F707F5E3C3F3D101E94C008D3EECAF34007E6E0027632C27E17FFC07E1DFD8BEDD66DC6B6DFB2CEC64EB62A8C7B4C61CD7DFFBCF2952AEB7B717FA93B1CB673E
310
9F1234FAF6908FBE2E445C1F4E5E5E7AB980F203504B0304140006080800F7827057CFBDADBE7E000000A30000000B0000006662782F636E782E786D6C4D8C410E83201444AF42FE9E566A557E029858C33D4C45438AD050697AFC42E3A2AB49DECC3CD17F3647DE26BE6CF012D8A90262FC3DCCD6AF12D2BE500EA4572286
310
B0FFCD80F86933120A0625D618D2F340B359A6E40A75D63F0EA8755731560F14F558D36BC33B8A371C29B638E4EAC2DB06F3E35C2E397EBE9C45AFBE504B0304140006080800F7827057A6D797065F0000008200000007000000636E782E786D6C4DCB3B0E80201045D1AD90E9FD7516806B51190811670C8A61F982B1B0BA
310
C9C97B72CA7B1037C6D3332918DA1E04D2CAC69353902EDB8C20262D23F3F59B81A079470595414B17391D1F19B4730A5583A7ED43BBE4025D9592775E5ADFFA01504B0304140006080800F78270574FEB6A7CA0000000F4000000130000005B436F6E74656E745F54797065735D2E786D6C7D8F4B0EC2300C44AF1279DFA6
310
B0400835ED02B8011730C16D239A8F121795DB93D02D6269CFBC19BBED573B8B17C564BC53B0AB1B10E4B47F18372A5878A88E20FAAEBDBD032591BD2E299898C349CAA427B2986A1FC86565F0D122E7318E32A07EE24872DF3407A9BD63725C71C980AEBDD080CBCCE2BAE6F5D69B7110E7CD57AA146008B3D1C8F92C5954
310
F993BB1BF787F39A89ABC491D09600F9FDA2FB00504B0304140006080800F78270573DEE336E64000000790000001B0000006175746F6465736B2D64657369676E2D7061636B6167652E786D6C35CBC10E83200C00D05F21DCA56CA76D41FC96062B120735B69A7DBE268BB7777961F8D5AF396893C2ADB70FE7ADA196782C
310
2DF776D7A97B5933C430F15651E5469C55D70F80A4992A3ADC954792C525AE70A1E4D6AD9816CC044FEFDF01FE3FDE907802504B0304140006080800F7827057B821C484F8000000960100003B0000006662782F46463730313133422D394644332D343538372D394339442D3936394246373032383635392F7265736F7572
310
6365732F636F72652E786D6C8550CB6E833010FC15B4770306873C641C29B4F9829E7AB3CC865A0936F2A3EAE7D70E546A4F3DED6A76667677F8F96B7E149FE8BCB6A6075AD650A05176D466EA21861B39407116DC591B7ED1A03072C61E320C824FCEC665839435014D468D1D7103A5F718A0508FD4F4E0D507CEB2943124
310
86BF978B5477396149CB9527788C7ADCA47A4C6EFAA6D18118BAEB8EB12B25975DBD278CB12175870B698EFBD781D5477678E97895C582073DFF6C570E65C0114453372DA194D0EE8D76A7A63DB1EE9D579929B80F2EFDBC2DCDDF8170E86D740A3DAFD6E91FD7B88CFFBB466D42DB6CAEABC283A0E9C8E740F02AA794CA33
310
C25473A2E21B504B0304140006080800F78270570DEE383CF1000000B1010000310000006662782F46463730313133422D394644332D343538372D394339442D3936394246373032383635392F636F72652E786D6C8D50CB6EC32010FC156BEFD8C64E1C1361222591BFA0A7DE10101725068B4795CF2FC4AED4DE725A343B
310
C3CC0E3D3DE747F1AD9CD7D60C80CB1A0A658495DA4C03C470433D1427469DB5E10F0D0AC36735408681D1C9D9B86C90B02628935163A5DA40EEBD0A5088477A0CE0C5979A79C963480C7F2F172EEE7C52252E571EA341CFBF52E1140F4A026BEAA6451823DC7DE0EED8B4C75DF749ABCC6434462D372B2D93BBBE69E5808D
310
E3A1C6B83D23325E5BB4DBF707442EE48A4847CE69D5F4DD9ED02A8B19F5C1A59BB74FF275EFCA57E1BFCC71916F64D626B4CD66B82A3C309CF2BC168C56B9C0345EEDA699CB663F504B0304140006080800F78270570F17357B53010000DD0200000C0000006662782F636F72652E786D6C8D52CB6E833010FC15E43B0F13
310
873C641C2969F3053DF5E68043AD808D8C8DF2F95DF310E5D0B44282D5ECEECCCE087A7A3675D00BD349AD7284A304054215BA94AACA91B3F7708F8213A3466BFB630C058A3722471E468C5646BB76820AADAC501E55BA1413C8BB4E581414351439EA8A2FD1F0883B0B13DD236A79F1E095887034CE31EA9C2CA75559029B
310
BC4B6110BB64D72D21571C9EB7C92E24845CA0DA9FC3F4B07BBF90E440F66F198DFD32A35636B37A6104B7A2442C4DD24D887188B30F9C1DD3CD91649F34F6938C76D680E749D4BB43EC7E7BD278C4577CAE2DFFE67352D94D3AF18D1B1D6218CE1B1A8CC63E1FF80CE1AD330461C8CFF25B3D5B7800D48BC26A43A0536AB7
310
B47A5E3B01D449303C341EBBC03C10FCC693BEE079CD01417155C169DC427973D6ABAF6F6A85097BFB0C94360DAF97E3C61397F722B4B234AF17BAD6E63FDBB3D539CCD8FF98EC1B504B0304140006080800F78270574A80AB7808010000B201000008000000636F72652E786D6C8D50CB6E833010FC156BEF3C0C0E219171
310
A4D0E60B7AEACDC50EB10236F2236AFFBE76A0527BEB695733B33BB34B4F9FF3841ED23A657407382F01493D18A1F4D841F0D7AC057462D41AE37FC900693ECB0E120C8C8ED684658306A3BDD409D546C80DE4CE490F689862D3811B6E72E6390F3E2ADC3D5FF870E7A3CC71BEEA18F56AFE191DACE45E0A605559D519C619
310
6EDE7073ACEA2369DE6991948C86A0C466A544745757252DB0BEB9EC08B9E0ECBC2BF71921A48F5D7BCEAAC3FEB527E581B42F0D2DD230A3CEDB78F3B624E6F4C8F147F2A5C54A31FA61CCB4096228818C9EBE8095B448C49FD06111FF08ADB4AFAB6DE13AE180E118E84944E3F4C1589EEF8D357D9B7D03504B0102140014
310
0006080800F78270570000000000000000000000003700000000000000000000000000000000006662782F46463730313133422D394644332D343538372D394339442D3936394246373032383635392F617474726962757465732E62696E504B01021400140006080800F78270570000000000000000000000003500000000
310
000000000000000000550000006662782F46463730313133422D394644332D343538372D394339442D3936394246373032383635392F76657274696365732E62696E504B01021400140006080800F7827057F270F13306000000040000003600000000000000000000000000A80000006662782F46463730313133422D3946
310
44332D343538372D394339442D3936394246373032383635392F747269616E676C65732E62696E504B01021400140006080800F782705751464CB489000000430100003600000000000000000000000000020100006662782F46463730313133422D394644332D343538372D394339442D3936394246373032383635392F64
310
69726563746F72792E786D6C504B01021400140006080800F782705714443CCF41070000201C00003400000000000000000000000000DF0100006662782F46463730313133422D394644332D343538372D394339442D3936394246373032383635392F6F626A656374732E786D6C504B01021400140006080800F782705771
310
8B2C893E010000460500003000000000000000000000000000720900006662782F46463730313133422D394644332D343538372D394339442D3936394246373032383635392F636E782E786D6C504B01021400140006080800F7827057CFBDADBE7E000000A30000000B00000000000000000000000000FE0A00006662782F
310
636E782E786D6C504B01021400140006080800F7827057A6D797065F000000820000000700000000000000000000000000A50B0000636E782E786D6C504B01021400140006080800F78270574FEB6A7CA0000000F40000001300000000000000000000000000290C00005B436F6E74656E745F54797065735D2E786D6C504B
310
01021400140006080800F78270573DEE336E64000000790000001B00000000000000000000000000FA0C00006175746F6465736B2D64657369676E2D7061636B6167652E786D6C504B01021400140006080800F7827057B821C484F8000000960100003B00000000000000000000000000970D00006662782F464637303131
310
33422D394644332D343538372D394339442D3936394246373032383635392F7265736F75726365732F636F72652E786D6C504B01021400140006080800F78270570DEE383CF1000000B10100003100000000000000000000000000E80E00006662782F46463730313133422D394644332D343538372D394339442D39363942
310
46373032383635392F636F72652E786D6C504B01021400140006080800F78270570F17357B53010000DD0200000C00000000000000000000000000281000006662782F636F72652E786D6C504B01021400140006080800F78270574A80AB7808010000B20100000800000000000000000000000000A5110000636F72652E78
310
6D6C504B0506000000000E000E0080040000D31200000000
  0
XRECORD
  5
809D
102
{ACAD_REACTORS
330
8098
102
}
330
8098
100
AcDbXrecord
280
     1
270
     1
271
     1
  0
XRECORD
  5
809C
102
{ACAD_REACTORS
330
8098
102
}
330
8098
100
AcDbXrecord
280
     1
270
     1
271
     1
  0
XRECORD
  5
809E
102
{ACAD_REACTORS
330
8098
102
}
330
8098
100
AcDbXrecord
280
     1
270
     1
271
     1
  0
XRECORD
  5
809B
102
{ACAD_REACTORS
330
8098
102
}
330
8098
100
AcDbXrecord
280
     1
270
     1
271
     1
  0
XRECORD
  5
82B1
102
{ACAD_REACTORS
330
82B0
102
}
330
82B0
100
AcDbXrecord
280
     1
102
DISPLAYNAME
  1
Imperial24
102
FLAGS
 90
        0
  0
CELLSTYLEMAP
  5
8278
102
{ACAD_REACTORS
330
8277
102
}
330
8277
100
AcDbCellStyleMap
 90
        3
300
CELLSTYLE
  1
TABLEFORMAT_BEGIN
 90
        5
170
     1
 91
        0
 92
    32768
 62
   257
 93
        1
300
CONTENTFORMAT
  1
CONTENTFORMAT_BEGIN
 90
        0
 91
        0
 92
      512
 93
        0
300

 40
0.0
140
1.0
 94
        5
 62
     0
340
80CB
144
0.25
309
CONTENTFORMAT_END
171
     0
 94
        0
309
TABLEFORMAT_END
  1
CELLSTYLE_BEGIN
 90
        1
 91
        1
300
_TITLE
309
CELLSTYLE_END
300
CELLSTYLE
  1
TABLEFORMAT_BEGIN
 90
        5
170
     1
 91
        0
 92
        0
 62
   257
 93
        1
300
CONTENTFORMAT
  1
CONTENTFORMAT_BEGIN
 90
        0
 91
        0
 92
      512
 93
        0
300

 40
0.0
140
1.0
 94
        5
 62
     0
340
80CB
144
0.18
309
CONTENTFORMAT_END
171
     0
 94
        0
309
TABLEFORMAT_END
  1
CELLSTYLE_BEGIN
 90
        2
 91
        1
300
_HEADER
309
CELLSTYLE_END
300
CELLSTYLE
  1
TABLEFORMAT_BEGIN
 90
        5
170
     1
 91
        0
 92
        0
 62
   257
 93
        1
300
CONTENTFORMAT
  1
CONTENTFORMAT_BEGIN
 90
        0
 91
        0
 92
      512
 93
        0
300

 40
0.0
140
1.0
 94
        2
 62
     0
340
80CB
144
0.18
309
CONTENTFORMAT_END
171
     0
 94
        0
309
TABLEFORMAT_END
  1
CELLSTYLE_BEGIN
 90
        3
 91
        2
300
_DATA
309
CELLSTYLE_END
  0
XRECORD
  5
82AE
102
{ACAD_REACTORS
330
8277
102
}
330
8277
100
AcDbXrecord
280
     1
102
ACAD_ROUNDTRIP_PRE2007_TABLESTYLE
 90
      512
 91
        0
  1

 92
      512
 93
        0
  2

 94
      512
 95
        0
  3

  0
XRECORD
  5
8289
102
{ACAD_REACTORS
330
8288
102
}
330
8288
100
AcDbXrecord
280
     1
102
RTVSPost2010Prop28
280
     1
102
RTVSPost2010PropOp28
 70
     1
102
RTVSPost2010Prop29
280
     1
102
RTVSPost2010PropOp29
 70
     1
102
RTVSPost2010Prop30
280
     0
102
RTVSPost2010PropOp30
 70
     1
102
RTVSPost2010Prop31
280
     0
102
RTVSPost2010PropOp31
 70
     1
102
RTVSPost2010Prop32
280
     0
102
RTVSPost2010PropOp32
 70
     1
102
RTVSPost2010Prop33
280
     0
102
RTVSPost2010PropOp33
 70
     1
102
RTVSPost2010Prop34
280
     0
102
RTVSPost2010PropOp34
 70
     1
102
RTVSPost2010Prop35
280
     0
102
RTVSPost2010PropOp35
 70
     1
102
RTVSPost2010Prop36
280
     0
102
RTVSPost2010PropOp36
 70
     1
102
RTVSPost2010Prop37
 90
       50
102
RTVSPost2010PropOp37
 70
     1
102
RTVSPost2010Prop38
140
0.0
102
RTVSPost2010PropOp38
 70
     1
102
RTVSPost2010Prop39
140
1.0
102
RTVSPost2010PropOp39
 70
     1
102
RTVSPost2010Prop40
 90
        0
102
RTVSPost2010PropOp40
 70
     1
102
RTVSPost2010Prop41ColorIndex
 90
       18
102
RTVSPost2010Prop41ColorRGB
 90
        0
102
RTVSPost2010PropOp41
 70
     1
102
RTVSPost2010Prop42
 90
       50
102
RTVSPost2010PropOp42
 70
     1
102
RTVSPost2010Prop43
 90
        3
102
RTVSPost2010PropOp43
 70
     1
102
RTVSPost2010Prop44ColorIndex
 90
        5
102
RTVSPost2010Prop44ColorRGB
 90
      255
102
RTVSPost2010PropOp44
 70
     1
102
RTVSPost2010Prop45
280
     0
102
RTVSPost2010PropOp45
 70
     1
102
RTVSPost2010Prop46
 90
       50
102
RTVSPost2010PropOp46
 70
     1
102
RTVSPost2010Prop47
 90
       50
102
RTVSPost2010PropOp47
 70
     1
102
RTVSPost2010Prop48
 90
       50
102
RTVSPost2010PropOp48
 70
     1
102
RTVSPost2010Prop49
280
     0
102
RTVSPost2010PropOp49
 70
     1
102
RTVSPost2010Prop50
 90
       50
102
RTVSPost2010PropOp50
 70
     1
102
RTVSPost2010Prop51ColorIndex
 90
      256
102
RTVSPost2010Prop51ColorRGB
 90
-16777216
102
RTVSPost2010PropOp51
 70
     0
102
RTVSPost2010Prop52
140
1.0
102
RTVSPost2010PropOp52
 70
     0
102
RTVSPost2010Prop53
 90
        2
102
RTVSPost2010PropOp53
 70
     1
102
RTVSPost2010Prop54
  1
strokes_ogs.tif
102
RTVSPost2010PropOp54
 70
     1
102
RTVSPost2010Prop55
280
     0
102
RTVSPost2010PropOp55
 70
     1
102
RTVSPost2010Prop56
140
1.0
102
RTVSPost2010PropOp56
 70
     1
102
RTVSPost2010Prop57
140
1.0
102
RTVSPost2010PropOp57
 70
     1
102
RTVSPropertyOp0
 70
     1
102
RTVSPropertyOp1
 70
     1
102
RTVSPropertyOp2
 70
     1
102
RTVSPropertyOp3
 70
     1
102
RTVSPropertyOp4
 70
     1
102
RTVSPropertyOp5
 70
     1
102
RTVSPropertyOp6
 70
     1
102
RTVSPropertyOp7
 70
     1
102
RTVSPropertyOp8
 70
     1
102
RTVSPropertyOp9
 70
     1
102
RTVSPropertyOp10
 70
     1
102
RTVSPropertyOp11
 70
     1
102
RTVSPropertyOp12
 70
     1
102
RTVSPropertyOp13
 70
     1
102
RTVSPropertyOp14
 70
     1
102
RTVSPropertyOp15
 70
     1
102
RTVSPropertyOp16
 70
     1
102
RTVSPropertyOp17
 70
     1
102
RTVSPropertyOp18
 70
     1
102
RTVSPropertyOp19
 70
     1
102
RTVSPropertyOp20
 70
     1
102
RTVSPropertyOp21
 70
     1
102
RTVSPropertyOp22
 70
     1
102
RTVSPropertyOp23
 70
     1
102
RTVSPropertyOp24
 70
     1
102
RTVSPropertyOp25
 70
     1
102
RTVSPropertyOp26
 70
     1
102
RTVSPropertyOp27
 70
     1
102
RTVSPropertyOp28
 70
     1
102
RTVSPropertyOp29
 70
     1
102
RTVSPropertyOp30
 70
     1
102
RTVSPropertyOp31
 70
     1
102
RTVSPropertyOp32
 70
     1
102
RTVSPropertyOp33
 70
     1
102
RTVSPropertyOp34
 70
     1
102
RTVSPropertyOp35
 70
     1
102
RTVSPropertyOp36
 70
     1
102
RTVSPropertyOp37
 70
     1
102
RTVSPropertyOp38
 70
     1
102
RTVSPropertyOp39
 70
     1
102
RTVSPropertyOp40
 70
     1
102
RTVSPropertyOp41
 70
     1
102
RTVSPropertyOp42
 70
     1
102
RTVSPropertyOp43
 70
     1
102
RTVSPropertyOp44
 70
     1
102
RTVSPropertyOp45
 70
     1
102
RTVSPropertyOp46
 70
     1
102
RTVSPropertyOp47
 70
     1
102
RTVSPropertyOp48
 70
     1
102
RTVSPropertyOp49
 70
     1
102
RTVSPropertyOp50
 70
     1
102
RTVSPropertyOp51
 70
     0
102
RTVSPropertyOp52
 70
     0
102
RTVSPropertyOp53
 70
     1
102
RTVSPropertyOp54
 70
     1
102
RTVSPropertyOp55
 70
     1
102
RTVSPropertyOp56
 70
     1
102
RTVSPropertyOp57
 70
     1
102
RTVSPropertyOp58
 70
     1
102
RTVSPropertyOp59
 70
     1
102
RTVSPropertyOp60
 70
     1
102
RTVSPropertyOp61
 70
     1
102
RTVSPropertyOp62
 70
     1
  0
XRECORD
  5
8287
102
{ACAD_REACTORS
330
8286
102
}
330
8286
100
AcDbXrecord
280
     1
102
RTVSPost2010Prop28
280
     0
102
RTVSPost2010PropOp28
 70
     1
102
RTVSPost2010Prop29
280
     1
102
RTVSPost2010PropOp29
 70
     1
102
RTVSPost2010Prop30
280
     1
102
RTVSPost2010PropOp30
 70
     1
102
RTVSPost2010Prop31
280
     0
102
RTVSPost2010PropOp31
 70
     1
102
RTVSPost2010Prop32
280
     0
102
RTVSPost2010PropOp32
 70
     1
102
RTVSPost2010Prop33
280
     0
102
RTVSPost2010PropOp33
 70
     1
102
RTVSPost2010Prop34
280
     0
102
RTVSPost2010PropOp34
 70
     1
102
RTVSPost2010Prop35
280
     0
102
RTVSPost2010PropOp35
 70
     1
102
RTVSPost2010Prop36
280
     0
102
RTVSPost2010PropOp36
 70
     1
102
RTVSPost2010Prop37
 90
       50
102
RTVSPost2010PropOp37
 70
     1
102
RTVSPost2010Prop38
140
0.0
102
RTVSPost2010PropOp38
 70
     1
102
RTVSPost2010Prop39
140
1.0
102
RTVSPost2010PropOp39
 70
     1
102
RTVSPost2010Prop40
 90
        0
102
RTVSPost2010PropOp40
 70
     1
102
RTVSPost2010Prop41ColorIndex
 90
       18
102
RTVSPost2010Prop41ColorRGB
 90
        0
102
RTVSPost2010PropOp41
 70
     1
102
RTVSPost2010Prop42
 90
       50
102
RTVSPost2010PropOp42
 70
     1
102
RTVSPost2010Prop43
 90
        3
102
RTVSPost2010PropOp43
 70
     1
102
RTVSPost2010Prop44ColorIndex
 90
        5
102
RTVSPost2010Prop44ColorRGB
 90
      255
102
RTVSPost2010PropOp44
 70
     1
102
RTVSPost2010Prop45
280
     0
102
RTVSPost2010PropOp45
 70
     1
102
RTVSPost2010Prop46
 90
       50
102
RTVSPost2010PropOp46
 70
     1
102
RTVSPost2010Prop47
 90
       50
102
RTVSPost2010PropOp47
 70
     1
102
RTVSPost2010Prop48
 90
       50
102
RTVSPost2010PropOp48
 70
     1
102
RTVSPost2010Prop49
280
     0
102
RTVSPost2010PropOp49
 70
     1
102
RTVSPost2010Prop50
 90
       50
102
RTVSPost2010PropOp50
 70
     1
102
RTVSPost2010Prop51ColorIndex
 90
      256
102
RTVSPost2010Prop51ColorRGB
 90
-16777216
102
RTVSPost2010PropOp51
 70
     0
102
RTVSPost2010Prop52
140
1.0
102
RTVSPost2010PropOp52
 70
     0
102
RTVSPost2010Prop53
 90
        2
102
RTVSPost2010PropOp53
 70
     1
102
RTVSPost2010Prop54
  1
strokes_ogs.tif
102
RTVSPost2010PropOp54
 70
     1
102
RTVSPost2010Prop55
280
     0
102
RTVSPost2010PropOp55
 70
     1
102
RTVSPost2010Prop56
140
1.0
102
RTVSPost2010PropOp56
 70
     1
102
RTVSPost2010Prop57
140
1.0
102
RTVSPost2010PropOp57
 70
     1
102
RTVSPropertyOp0
 70
     1
102
RTVSPropertyOp1
 70
     1
102
RTVSPropertyOp2
 70
     1
102
RTVSPropertyOp3
 70
     1
102
RTVSPropertyOp4
 70
     1
102
RTVSPropertyOp5
 70
     1
102
RTVSPropertyOp6
 70
     1
102
RTVSPropertyOp7
 70
     1
102
RTVSPropertyOp8
 70
     1
102
RTVSPropertyOp9
 70
     1
102
RTVSPropertyOp10
 70
     1
102
RTVSPropertyOp11
 70
     1
102
RTVSPropertyOp12
 70
     1
102
RTVSPropertyOp13
 70
     1
102
RTVSPropertyOp14
 70
     1
102
RTVSPropertyOp15
 70
     1
102
RTVSPropertyOp16
 70
     1
102
RTVSPropertyOp17
 70
     1
102
RTVSPropertyOp18
 70
     1
102
RTVSPropertyOp19
 70
     1
102
RTVSPropertyOp20
 70
     1
102
RTVSPropertyOp21
 70
     1
102
RTVSPropertyOp22
 70
     1
102
RTVSPropertyOp23
 70
     1
102
RTVSPropertyOp24
 70
     1
102
RTVSPropertyOp25
 70
     1
102
RTVSPropertyOp26
 70
     1
102
RTVSPropertyOp27
 70
     1
102
RTVSPropertyOp28
 70
     1
102
RTVSPropertyOp29
 70
     1
102
RTVSPropertyOp30
 70
     1
102
RTVSPropertyOp31
 70
     1
102
RTVSPropertyOp32
 70
     1
102
RTVSPropertyOp33
 70
     1
102
RTVSPropertyOp34
 70
     1
102
RTVSPropertyOp35
 70
     1
102
RTVSPropertyOp36
 70
     1
102
RTVSPropertyOp37
 70
     1
102
RTVSPropertyOp38
 70
     1
102
RTVSPropertyOp39
 70
     1
102
RTVSPropertyOp40
 70
     1
102
RTVSPropertyOp41
 70
     1
102
RTVSPropertyOp42
 70
     1
102
RTVSPropertyOp43
 70
     1
102
RTVSPropertyOp44
 70
     1
102
RTVSPropertyOp45
 70
     1
102
RTVSPropertyOp46
 70
     1
102
RTVSPropertyOp47
 70
     1
102
RTVSPropertyOp48
 70
     1
102
RTVSPropertyOp49
 70
     1
102
RTVSPropertyOp50
 70
     1
102
RTVSPropertyOp51
 70
     0
102
RTVSPropertyOp52
 70
     0
102
RTVSPropertyOp53
 70
     1
102
RTVSPropertyOp54
 70
     1
102
RTVSPropertyOp55
 70
     1
102
RTVSPropertyOp56
 70
     1
102
RTVSPropertyOp57
 70
     1
102
RTVSPropertyOp58
 70
     1
102
RTVSPropertyOp59
 70
     1
102
RTVSPropertyOp60
 70
     1
102
RTVSPropertyOp61
 70
     1
102
RTVSPropertyOp62
 70
     1
  0
XRECORD
  5
8295
102
{ACAD_REACTORS
330
8294
102
}
330
8294
100
AcDbXrecord
280
     1
102
RTVSPost2010Prop28
280
     0
102
RTVSPost2010PropOp28
 70
     1
102
RTVSPost2010Prop29
280
     1
102
RTVSPost2010PropOp29
 70
     1
102
RTVSPost2010Prop30
280
     1
102
RTVSPost2010PropOp30
 70
     1
102
RTVSPost2010Prop31
280
     0
102
RTVSPost2010PropOp31
 70
     1
102
RTVSPost2010Prop32
280
     0
102
RTVSPost2010PropOp32
 70
     1
102
RTVSPost2010Prop33
280
     0
102
RTVSPost2010PropOp33
 70
     1
102
RTVSPost2010Prop34
280
     0
102
RTVSPost2010PropOp34
 70
     1
102
RTVSPost2010Prop35
280
     0
102
RTVSPost2010PropOp35
 70
     1
102
RTVSPost2010Prop36
280
     0
102
RTVSPost2010PropOp36
 70
     1
102
RTVSPost2010Prop37
 90
       50
102
RTVSPost2010PropOp37
 70
     1
102
RTVSPost2010Prop38
140
0.0
102
RTVSPost2010PropOp38
 70
     1
102
RTVSPost2010Prop39
140
1.0
102
RTVSPost2010PropOp39
 70
     1
102
RTVSPost2010Prop40
 90
        0
102
RTVSPost2010PropOp40
 70
     1
102
RTVSPost2010Prop41ColorIndex
 90
       18
102
RTVSPost2010Prop41ColorRGB
 90
        0
102
RTVSPost2010PropOp41
 70
     1
102
RTVSPost2010Prop42
 90
       50
102
RTVSPost2010PropOp42
 70
     1
102
RTVSPost2010Prop43
 90
        3
102
RTVSPost2010PropOp43
 70
     1
102
RTVSPost2010Prop44ColorIndex
 90
        5
102
RTVSPost2010Prop44ColorRGB
 90
      255
102
RTVSPost2010PropOp44
 70
     1
102
RTVSPost2010Prop45
280
     0
102
RTVSPost2010PropOp45
 70
     1
102
RTVSPost2010Prop46
 90
       50
102
RTVSPost2010PropOp46
 70
     1
102
RTVSPost2010Prop47
 90
       50
102
RTVSPost2010PropOp47
 70
     1
102
RTVSPost2010Prop48
 90
       50
102
RTVSPost2010PropOp48
 70
     1
102
RTVSPost2010Prop49
280
     0
102
RTVSPost2010PropOp49
 70
     1
102
RTVSPost2010Prop50
 90
       50
102
RTVSPost2010PropOp50
 70
     1
102
RTVSPost2010Prop51ColorIndex
 90
      256
102
RTVSPost2010Prop51ColorRGB
 90
-16777216
102
RTVSPost2010PropOp51
 70
     0
102
RTVSPost2010Prop52
140
1.0
102
RTVSPost2010PropOp52
 70
     0
102
RTVSPost2010Prop53
 90
        2
102
RTVSPost2010PropOp53
 70
     1
102
RTVSPost2010Prop54
  1
strokes_ogs.tif
102
RTVSPost2010PropOp54
 70
     1
102
RTVSPost2010Prop55
280
     0
102
RTVSPost2010PropOp55
 70
     1
102
RTVSPost2010Prop56
140
1.0
102
RTVSPost2010PropOp56
 70
     1
102
RTVSPost2010Prop57
140
1.0
102
RTVSPost2010PropOp57
 70
     1
102
RTVSPropertyOp0
 70
     1
102
RTVSPropertyOp1
 70
     1
102
RTVSPropertyOp2
 70
     1
102
RTVSPropertyOp3
 70
     1
102
RTVSPropertyOp4
 70
     1
102
RTVSPropertyOp5
 70
     1
102
RTVSPropertyOp6
 70
     1
102
RTVSPropertyOp7
 70
     1
102
RTVSPropertyOp8
 70
     1
102
RTVSPropertyOp9
 70
     1
102
RTVSPropertyOp10
 70
     1
102
RTVSPropertyOp11
 70
     1
102
RTVSPropertyOp12
 70
     1
102
RTVSPropertyOp13
 70
     1
102
RTVSPropertyOp14
 70
     1
102
RTVSPropertyOp15
 70
     1
102
RTVSPropertyOp16
 70
     1
102
RTVSPropertyOp17
 70
     1
102
RTVSPropertyOp18
 70
     1
102
RTVSPropertyOp19
 70
     1
102
RTVSPropertyOp20
 70
     1
102
RTVSPropertyOp21
 70
     1
102
RTVSPropertyOp22
 70
     1
102
RTVSPropertyOp23
 70
     1
102
RTVSPropertyOp24
 70
     1
102
RTVSPropertyOp25
 70
     1
102
RTVSPropertyOp26
 70
     1
102
RTVSPropertyOp27
 70
     1
102
RTVSPropertyOp28
 70
     1
102
RTVSPropertyOp29
 70
     1
102
RTVSPropertyOp30
 70
     1
102
RTVSPropertyOp31
 70
     1
102
RTVSPropertyOp32
 70
     1
102
RTVSPropertyOp33
 70
     1
102
RTVSPropertyOp34
 70
     1
102
RTVSPropertyOp35
 70
     1
102
RTVSPropertyOp36
 70
     1
102
RTVSPropertyOp37
 70
     1
102
RTVSPropertyOp38
 70
     1
102
RTVSPropertyOp39
 70
     1
102
RTVSPropertyOp40
 70
     1
102
RTVSPropertyOp41
 70
     1
102
RTVSPropertyOp42
 70
     1
102
RTVSPropertyOp43
 70
     1
102
RTVSPropertyOp44
 70
     1
102
RTVSPropertyOp45
 70
     1
102
RTVSPropertyOp46
 70
     1
102
RTVSPropertyOp47
 70
     1
102
RTVSPropertyOp48
 70
     1
102
RTVSPropertyOp49
 70
     1
102
RTVSPropertyOp50
 70
     1
102
RTVSPropertyOp51
 70
     0
102
RTVSPropertyOp52
 70
     0
102
RTVSPropertyOp53
 70
     1
102
RTVSPropertyOp54
 70
     1
102
RTVSPropertyOp55
 70
     1
102
RTVSPropertyOp56
 70
     1
102
RTVSPropertyOp57
 70
     1
102
RTVSPropertyOp58
 70
     1
102
RTVSPropertyOp59
 70
     1
102
RTVSPropertyOp60
 70
     1
102
RTVSPropertyOp61
 70
     1
102
RTVSPropertyOp62
 70
     1
  0
XRECORD
  5
829D
102
{ACAD_REACTORS
330
829C
102
}
330
829C
100
AcDbXrecord
280
     1
102
RTVSPost2010Prop28
280
     0
102
RTVSPost2010PropOp28
 70
     1
102
RTVSPost2010Prop29
280
     1
102
RTVSPost2010PropOp29
 70
     1
102
RTVSPost2010Prop30
280
     1
102
RTVSPost2010PropOp30
 70
     1
102
RTVSPost2010Prop31
280
     0
102
RTVSPost2010PropOp31
 70
     1
102
RTVSPost2010Prop32
280
     0
102
RTVSPost2010PropOp32
 70
     1
102
RTVSPost2010Prop33
280
     0
102
RTVSPost2010PropOp33
 70
     1
102
RTVSPost2010Prop34
280
     0
102
RTVSPost2010PropOp34
 70
     1
102
RTVSPost2010Prop35
280
     0
102
RTVSPost2010PropOp35
 70
     1
102
RTVSPost2010Prop36
280
     0
102
RTVSPost2010PropOp36
 70
     1
102
RTVSPost2010Prop37
 90
       50
102
RTVSPost2010PropOp37
 70
     1
102
RTVSPost2010Prop38
140
0.0
102
RTVSPost2010PropOp38
 70
     1
102
RTVSPost2010Prop39
140
1.0
102
RTVSPost2010PropOp39
 70
     1
102
RTVSPost2010Prop40
 90
        0
102
RTVSPost2010PropOp40
 70
     1
102
RTVSPost2010Prop41ColorIndex
 90
       18
102
RTVSPost2010Prop41ColorRGB
 90
        0
102
RTVSPost2010PropOp41
 70
     1
102
RTVSPost2010Prop42
 90
       50
102
RTVSPost2010PropOp42
 70
     1
102
RTVSPost2010Prop43
 90
        3
102
RTVSPost2010PropOp43
 70
     1
102
RTVSPost2010Prop44ColorIndex
 90
        5
102
RTVSPost2010Prop44ColorRGB
 90
      255
102
RTVSPost2010PropOp44
 70
     1
102
RTVSPost2010Prop45
280
     0
102
RTVSPost2010PropOp45
 70
     1
102
RTVSPost2010Prop46
 90
       50
102
RTVSPost2010PropOp46
 70
     1
102
RTVSPost2010Prop47
 90
       50
102
RTVSPost2010PropOp47
 70
     1
102
RTVSPost2010Prop48
 90
       50
102
RTVSPost2010PropOp48
 70
     1
102
RTVSPost2010Prop49
280
     0
102
RTVSPost2010PropOp49
 70
     1
102
RTVSPost2010Prop50
 90
       50
102
RTVSPost2010PropOp50
 70
     1
102
RTVSPost2010Prop51ColorIndex
 90
      256
102
RTVSPost2010Prop51ColorRGB
 90
-16777216
102
RTVSPost2010PropOp51
 70
     0
102
RTVSPost2010Prop52
140
1.0
102
RTVSPost2010PropOp52
 70
     0
102
RTVSPost2010Prop53
 90
        2
102
RTVSPost2010PropOp53
 70
     1
102
RTVSPost2010Prop54
  1
strokes_ogs.tif
102
RTVSPost2010PropOp54
 70
     1
102
RTVSPost2010Prop55
280
     0
102
RTVSPost2010PropOp55
 70
     1
102
RTVSPost2010Prop56
140
1.0
102
RTVSPost2010PropOp56
 70
     1
102
RTVSPost2010Prop57
140
1.0
102
RTVSPost2010PropOp57
 70
     1
102
RTVSPropertyOp0
 70
     1
102
RTVSPropertyOp1
 70
     1
102
RTVSPropertyOp2
 70
     1
102
RTVSPropertyOp3
 70
     1
102
RTVSPropertyOp4
 70
     1
102
RTVSPropertyOp5
 70
     1
102
RTVSPropertyOp6
 70
     1
102
RTVSPropertyOp7
 70
     1
102
RTVSPropertyOp8
 70
     1
102
RTVSPropertyOp9
 70
     1
102
RTVSPropertyOp10
 70
     1
102
RTVSPropertyOp11
 70
     1
102
RTVSPropertyOp12
 70
     1
102
RTVSPropertyOp13
 70
     1
102
RTVSPropertyOp14
 70
     1
102
RTVSPropertyOp15
 70
     1
102
RTVSPropertyOp16
 70
     1
102
RTVSPropertyOp17
 70
     1
102
RTVSPropertyOp18
 70
     1
102
RTVSPropertyOp19
 70
     1
102
RTVSPropertyOp20
 70
     1
102
RTVSPropertyOp21
 70
     1
102
RTVSPropertyOp22
 70
     1
102
RTVSPropertyOp23
 70
     1
102
RTVSPropertyOp24
 70
     1
102
RTVSPropertyOp25
 70
     1
102
RTVSPropertyOp26
 70
     1
102
RTVSPropertyOp27
 70
     1
102
RTVSPropertyOp28
 70
     1
102
RTVSPropertyOp29
 70
     1
102
RTVSPropertyOp30
 70
     1
102
RTVSPropertyOp31
 70
     1
102
RTVSPropertyOp32
 70
     1
102
RTVSPropertyOp33
 70
     1
102
RTVSPropertyOp34
 70
     1
102
RTVSPropertyOp35
 70
     1
102
RTVSPropertyOp36
 70
     1
102
RTVSPropertyOp37
 70
     1
102
RTVSPropertyOp38
 70
     1
102
RTVSPropertyOp39
 70
     1
102
RTVSPropertyOp40
 70
     1
102
RTVSPropertyOp41
 70
     1
102
RTVSPropertyOp42
 70
     1
102
RTVSPropertyOp43
 70
     1
102
RTVSPropertyOp44
 70
     1
102
RTVSPropertyOp45
 70
     1
102
RTVSPropertyOp46
 70
     1
102
RTVSPropertyOp47
 70
     1
102
RTVSPropertyOp48
 70
     1
102
RTVSPropertyOp49
 70
     1
102
RTVSPropertyOp50
 70
     1
102
RTVSPropertyOp51
 70
     0
102
RTVSPropertyOp52
 70
     0
102
RTVSPropertyOp53
 70
     1
102
RTVSPropertyOp54
 70
     1
102
RTVSPropertyOp55
 70
     1
102
RTVSPropertyOp56
 70
     1
102
RTVSPropertyOp57
 70
     1
102
RTVSPropertyOp58
 70
     1
102
RTVSPropertyOp59
 70
     1
102
RTVSPropertyOp60
 70
     1
102
RTVSPropertyOp61
 70
     1
102
RTVSPropertyOp62
 70
     1
  0
XRECORD
  5
828F
102
{ACAD_REACTORS
330
828E
102
}
330
828E
100
AcDbXrecord
280
     1
102
RTVSPost2010Prop28
280
     0
102
RTVSPost2010PropOp28
 70
     1
102
RTVSPost2010Prop29
280
     1
102
RTVSPost2010PropOp29
 70
     1
102
RTVSPost2010Prop30
280
     1
102
RTVSPost2010PropOp30
 70
     1
102
RTVSPost2010Prop31
280
     0
102
RTVSPost2010PropOp31
 70
     1
102
RTVSPost2010Prop32
280
     0
102
RTVSPost2010PropOp32
 70
     1
102
RTVSPost2010Prop33
280
     0
102
RTVSPost2010PropOp33
 70
     1
102
RTVSPost2010Prop34
280
     0
102
RTVSPost2010PropOp34
 70
     1
102
RTVSPost2010Prop35
280
     0
102
RTVSPost2010PropOp35
 70
     1
102
RTVSPost2010Prop36
280
     0
102
RTVSPost2010PropOp36
 70
     1
102
RTVSPost2010Prop37
 90
       50
102
RTVSPost2010PropOp37
 70
     1
102
RTVSPost2010Prop38
140
0.0
102
RTVSPost2010PropOp38
 70
     1
102
RTVSPost2010Prop39
140
1.0
102
RTVSPost2010PropOp39
 70
     1
102
RTVSPost2010Prop40
 90
        0
102
RTVSPost2010PropOp40
 70
     1
102
RTVSPost2010Prop41ColorIndex
 90
       18
102
RTVSPost2010Prop41ColorRGB
 90
        0
102
RTVSPost2010PropOp41
 70
     1
102
RTVSPost2010Prop42
 90
       50
102
RTVSPost2010PropOp42
 70
     1
102
RTVSPost2010Prop43
 90
        3
102
RTVSPost2010PropOp43
 70
     1
102
RTVSPost2010Prop44ColorIndex
 90
        5
102
RTVSPost2010Prop44ColorRGB
 90
      255
102
RTVSPost2010PropOp44
 70
     1
102
RTVSPost2010Prop45
280
     0
102
RTVSPost2010PropOp45
 70
     1
102
RTVSPost2010Prop46
 90
       50
102
RTVSPost2010PropOp46
 70
     1
102
RTVSPost2010Prop47
 90
       50
102
RTVSPost2010PropOp47
 70
     1
102
RTVSPost2010Prop48
 90
       50
102
RTVSPost2010PropOp48
 70
     1
102
RTVSPost2010Prop49
280
     0
102
RTVSPost2010PropOp49
 70
     1
102
RTVSPost2010Prop50
 90
       50
102
RTVSPost2010PropOp50
 70
     1
102
RTVSPost2010Prop51ColorIndex
 90
      256
102
RTVSPost2010Prop51ColorRGB
 90
-16777216
102
RTVSPost2010PropOp51
 70
     0
102
RTVSPost2010Prop52
140
1.0
102
RTVSPost2010PropOp52
 70
     0
102
RTVSPost2010Prop53
 90
        2
102
RTVSPost2010PropOp53
 70
     1
102
RTVSPost2010Prop54
  1
strokes_ogs.tif
102
RTVSPost2010PropOp54
 70
     1
102
RTVSPost2010Prop55
280
     0
102
RTVSPost2010PropOp55
 70
     1
102
RTVSPost2010Prop56
140
1.0
102
RTVSPost2010PropOp56
 70
     1
102
RTVSPost2010Prop57
140
1.0
102
RTVSPost2010PropOp57
 70
     1
102
RTVSPropertyOp0
 70
     1
102
RTVSPropertyOp1
 70
     1
102
RTVSPropertyOp2
 70
     1
102
RTVSPropertyOp3
 70
     1
102
RTVSPropertyOp4
 70
     1
102
RTVSPropertyOp5
 70
     1
102
RTVSPropertyOp6
 70
     1
102
RTVSPropertyOp7
 70
     1
102
RTVSPropertyOp8
 70
     1
102
RTVSPropertyOp9
 70
     1
102
RTVSPropertyOp10
 70
     1
102
RTVSPropertyOp11
 70
     1
102
RTVSPropertyOp12
 70
     1
102
RTVSPropertyOp13
 70
     1
102
RTVSPropertyOp14
 70
     1
102
RTVSPropertyOp15
 70
     1
102
RTVSPropertyOp16
 70
     1
102
RTVSPropertyOp17
 70
     1
102
RTVSPropertyOp18
 70
     1
102
RTVSPropertyOp19
 70
     1
102
RTVSPropertyOp20
 70
     1
102
RTVSPropertyOp21
 70
     1
102
RTVSPropertyOp22
 70
     1
102
RTVSPropertyOp23
 70
     1
102
RTVSPropertyOp24
 70
     1
102
RTVSPropertyOp25
 70
     1
102
RTVSPropertyOp26
 70
     1
102
RTVSPropertyOp27
 70
     1
102
RTVSPropertyOp28
 70
     1
102
RTVSPropertyOp29
 70
     1
102
RTVSPropertyOp30
 70
     1
102
RTVSPropertyOp31
 70
     1
102
RTVSPropertyOp32
 70
     1
102
RTVSPropertyOp33
 70
     1
102
RTVSPropertyOp34
 70
     1
102
RTVSPropertyOp35
 70
     1
102
RTVSPropertyOp36
 70
     1
102
RTVSPropertyOp37
 70
     1
102
RTVSPropertyOp38
 70
     1
102
RTVSPropertyOp39
 70
     1
102
RTVSPropertyOp40
 70
     1
102
RTVSPropertyOp41
 70
     1
102
RTVSPropertyOp42
 70
     1
102
RTVSPropertyOp43
 70
     1
102
RTVSPropertyOp44
 70
     1
102
RTVSPropertyOp45
 70
     1
102
RTVSPropertyOp46
 70
     1
102
RTVSPropertyOp47
 70
     1
102
RTVSPropertyOp48
 70
     1
102
RTVSPropertyOp49
 70
     1
102
RTVSPropertyOp50
 70
     1
102
RTVSPropertyOp51
 70
     0
102
RTVSPropertyOp52
 70
     0
102
RTVSPropertyOp53
 70
     1
102
RTVSPropertyOp54
 70
     1
102
RTVSPropertyOp55
 70
     1
102
RTVSPropertyOp56
 70
     1
102
RTVSPropertyOp57
 70
     1
102
RTVSPropertyOp58
 70
     1
102
RTVSPropertyOp59
 70
     1
102
RTVSPropertyOp60
 70
     1
102
RTVSPropertyOp61
 70
     1
102
RTVSPropertyOp62
 70
     1
  0
XRECORD
  5
8293
102
{ACAD_REACTORS
330
8292
102
}
330
8292
100
AcDbXrecord
280
     1
102
RTVSPost2010Prop28
280
     0
102
RTVSPost2010PropOp28
 70
     1
102
RTVSPost2010Prop29
280
     1
102
RTVSPost2010PropOp29
 70
     1
102
RTVSPost2010Prop30
280
     1
102
RTVSPost2010PropOp30
 70
     1
102
RTVSPost2010Prop31
280
     0
102
RTVSPost2010PropOp31
 70
     1
102
RTVSPost2010Prop32
280
     0
102
RTVSPost2010PropOp32
 70
     1
102
RTVSPost2010Prop33
280
     0
102
RTVSPost2010PropOp33
 70
     1
102
RTVSPost2010Prop34
280
     0
102
RTVSPost2010PropOp34
 70
     1
102
RTVSPost2010Prop35
280
     0
102
RTVSPost2010PropOp35
 70
     1
102
RTVSPost2010Prop36
280
     0
102
RTVSPost2010PropOp36
 70
     1
102
RTVSPost2010Prop37
 90
       50
102
RTVSPost2010PropOp37
 70
     1
102
RTVSPost2010Prop38
140
0.0
102
RTVSPost2010PropOp38
 70
     1
102
RTVSPost2010Prop39
140
1.0
102
RTVSPost2010PropOp39
 70
     1
102
RTVSPost2010Prop40
 90
        0
102
RTVSPost2010PropOp40
 70
     1
102
RTVSPost2010Prop41ColorIndex
 90
       18
102
RTVSPost2010Prop41ColorRGB
 90
        0
102
RTVSPost2010PropOp41
 70
     1
102
RTVSPost2010Prop42
 90
       50
102
RTVSPost2010PropOp42
 70
     1
102
RTVSPost2010Prop43
 90
        3
102
RTVSPost2010PropOp43
 70
     1
102
RTVSPost2010Prop44ColorIndex
 90
        5
102
RTVSPost2010Prop44ColorRGB
 90
      255
102
RTVSPost2010PropOp44
 70
     1
102
RTVSPost2010Prop45
280
     0
102
RTVSPost2010PropOp45
 70
     1
102
RTVSPost2010Prop46
 90
       50
102
RTVSPost2010PropOp46
 70
     1
102
RTVSPost2010Prop47
 90
       50
102
RTVSPost2010PropOp47
 70
     1
102
RTVSPost2010Prop48
 90
       50
102
RTVSPost2010PropOp48
 70
     1
102
RTVSPost2010Prop49
280
     0
102
RTVSPost2010PropOp49
 70
     1
102
RTVSPost2010Prop50
 90
       50
102
RTVSPost2010PropOp50
 70
     1
102
RTVSPost2010Prop51ColorIndex
 90
      256
102
RTVSPost2010Prop51ColorRGB
 90
-16777216
102
RTVSPost2010PropOp51
 70
     0
102
RTVSPost2010Prop52
140
1.0
102
RTVSPost2010PropOp52
 70
     0
102
RTVSPost2010Prop53
 90
        2
102
RTVSPost2010PropOp53
 70
     1
102
RTVSPost2010Prop54
  1
strokes_ogs.tif
102
RTVSPost2010PropOp54
 70
     1
102
RTVSPost2010Prop55
280
     0
102
RTVSPost2010PropOp55
 70
     1
102
RTVSPost2010Prop56
140
1.0
102
RTVSPost2010PropOp56
 70
     1
102
RTVSPost2010Prop57
140
1.0
102
RTVSPost2010PropOp57
 70
     1
102
RTVSPropertyOp0
 70
     1
102
RTVSPropertyOp1
 70
     1
102
RTVSPropertyOp2
 70
     1
102
RTVSPropertyOp3
 70
     1
102
RTVSPropertyOp4
 70
     1
102
RTVSPropertyOp5
 70
     1
102
RTVSPropertyOp6
 70
     1
102
RTVSPropertyOp7
 70
     1
102
RTVSPropertyOp8
 70
     1
102
RTVSPropertyOp9
 70
     1
102
RTVSPropertyOp10
 70
     1
102
RTVSPropertyOp11
 70
     1
102
RTVSPropertyOp12
 70
     1
102
RTVSPropertyOp13
 70
     1
102
RTVSPropertyOp14
 70
     1
102
RTVSPropertyOp15
 70
     1
102
RTVSPropertyOp16
 70
     1
102
RTVSPropertyOp17
 70
     1
102
RTVSPropertyOp18
 70
     1
102
RTVSPropertyOp19
 70
     1
102
RTVSPropertyOp20
 70
     1
102
RTVSPropertyOp21
 70
     1
102
RTVSPropertyOp22
 70
     1
102
RTVSPropertyOp23
 70
     1
102
RTVSPropertyOp24
 70
     1
102
RTVSPropertyOp25
 70
     1
102
RTVSPropertyOp26
 70
     1
102
RTVSPropertyOp27
 70
     1
102
RTVSPropertyOp28
 70
     1
102
RTVSPropertyOp29
 70
     1
102
RTVSPropertyOp30
 70
     1
102
RTVSPropertyOp31
 70
     1
102
RTVSPropertyOp32
 70
     1
102
RTVSPropertyOp33
 70
     1
102
RTVSPropertyOp34
 70
     1
102
RTVSPropertyOp35
 70
     1
102
RTVSPropertyOp36
 70
     1
102
RTVSPropertyOp37
 70
     1
102
RTVSPropertyOp38
 70
     1
102
RTVSPropertyOp39
 70
     1
102
RTVSPropertyOp40
 70
     1
102
RTVSPropertyOp41
 70
     1
102
RTVSPropertyOp42
 70
     1
102
RTVSPropertyOp43
 70
     1
102
RTVSPropertyOp44
 70
     1
102
RTVSPropertyOp45
 70
     1
102
RTVSPropertyOp46
 70
     1
102
RTVSPropertyOp47
 70
     1
102
RTVSPropertyOp48
 70
     1
102
RTVSPropertyOp49
 70
     1
102
RTVSPropertyOp50
 70
     1
102
RTVSPropertyOp51
 70
     0
102
RTVSPropertyOp52
 70
     0
102
RTVSPropertyOp53
 70
     1
102
RTVSPropertyOp54
 70
     1
102
RTVSPropertyOp55
 70
     1
102
RTVSPropertyOp56
 70
     1
102
RTVSPropertyOp57
 70
     1
102
RTVSPropertyOp58
 70
     1
102
RTVSPropertyOp59
 70
     1
102
RTVSPropertyOp60
 70
     1
102
RTVSPropertyOp61
 70
     1
102
RTVSPropertyOp62
 70
     1
  0
XRECORD
  5
82AD
102
{ACAD_REACTORS
330
82AC
102
}
330
82AC
100
AcDbXrecord
280
     1
102
RTVSPost2010Prop28
280
     0
102
RTVSPost2010PropOp28
 70
     1
102
RTVSPost2010Prop29
280
     1
102
RTVSPost2010PropOp29
 70
     1
102
RTVSPost2010Prop30
280
     1
102
RTVSPost2010PropOp30
 70
     1
102
RTVSPost2010Prop31
280
     0
102
RTVSPost2010PropOp31
 70
     1
102
RTVSPost2010Prop32
280
     0
102
RTVSPost2010PropOp32
 70
     1
102
RTVSPost2010Prop33
280
     0
102
RTVSPost2010PropOp33
 70
     1
102
RTVSPost2010Prop34
280
     0
102
RTVSPost2010PropOp34
 70
     1
102
RTVSPost2010Prop35
280
     0
102
RTVSPost2010PropOp35
 70
     1
102
RTVSPost2010Prop36
280
     0
102
RTVSPost2010PropOp36
 70
     1
102
RTVSPost2010Prop37
 90
       50
102
RTVSPost2010PropOp37
 70
     0
102
RTVSPost2010Prop38
140
0.0
102
RTVSPost2010PropOp38
 70
     0
102
RTVSPost2010Prop39
140
1.0
102
RTVSPost2010PropOp39
 70
     0
102
RTVSPost2010Prop40
 90
        0
102
RTVSPost2010PropOp40
 70
     0
102
RTVSPost2010Prop41ColorIndex
 90
       18
102
RTVSPost2010Prop41ColorRGB
 90
        0
102
RTVSPost2010PropOp41
 70
     0
102
RTVSPost2010Prop42
 90
       50
102
RTVSPost2010PropOp42
 70
     0
102
RTVSPost2010Prop43
 90
        3
102
RTVSPost2010PropOp43
 70
     0
102
RTVSPost2010Prop44ColorIndex
 90
        5
102
RTVSPost2010Prop44ColorRGB
 90
      255
102
RTVSPost2010PropOp44
 70
     0
102
RTVSPost2010Prop45
280
     0
102
RTVSPost2010PropOp45
 70
     1
102
RTVSPost2010Prop46
 90
       50
102
RTVSPost2010PropOp46
 70
     0
102
RTVSPost2010Prop47
 90
       50
102
RTVSPost2010PropOp47
 70
     0
102
RTVSPost2010Prop48
 90
       50
102
RTVSPost2010PropOp48
 70
     0
102
RTVSPost2010Prop49
280
     0
102
RTVSPost2010PropOp49
 70
     1
102
RTVSPost2010Prop50
 90
       50
102
RTVSPost2010PropOp50
 70
     0
102
RTVSPost2010Prop51ColorIndex
 90
      256
102
RTVSPost2010Prop51ColorRGB
 90
-16777216
102
RTVSPost2010PropOp51
 70
     0
102
RTVSPost2010Prop52
140
1.0
102
RTVSPost2010PropOp52
 70
     0
102
RTVSPost2010Prop53
 90
        2
102
RTVSPost2010PropOp53
 70
     0
102
RTVSPost2010Prop54
  1
strokes_ogs.tif
102
RTVSPost2010PropOp54
 70
     0
102
RTVSPost2010Prop55
280
     0
102
RTVSPost2010PropOp55
 70
     1
102
RTVSPost2010Prop56
140
1.0
102
RTVSPost2010PropOp56
 70
     0
102
RTVSPost2010Prop57
140
1.0
102
RTVSPost2010PropOp57
 70
     0
102
RTVSPropertyOp0
 70
     0
102
RTVSPropertyOp1
 70
     0
102
RTVSPropertyOp2
 70
     0
102
RTVSPropertyOp3
 70
     0
102
RTVSPropertyOp4
 70
     0
102
RTVSPropertyOp5
 70
     0
102
RTVSPropertyOp6
 70
     0
102
RTVSPropertyOp7
 70
     0
102
RTVSPropertyOp8
 70
     0
102
RTVSPropertyOp9
 70
     0
102
RTVSPropertyOp10
 70
     0
102
RTVSPropertyOp11
 70
     0
102
RTVSPropertyOp12
 70
     0
102
RTVSPropertyOp13
 70
     0
102
RTVSPropertyOp14
 70
     2
102
RTVSPropertyOp15
 70
     0
102
RTVSPropertyOp16
 70
     0
102
RTVSPropertyOp17
 70
     0
102
RTVSPropertyOp18
 70
     0
102
RTVSPropertyOp19
 70
     0
102
RTVSPropertyOp20
 70
     0
102
RTVSPropertyOp21
 70
     0
102
RTVSPropertyOp22
 70
     0
102
RTVSPropertyOp23
 70
     0
102
RTVSPropertyOp24
 70
     0
102
RTVSPropertyOp25
 70
     0
102
RTVSPropertyOp26
 70
     0
102
RTVSPropertyOp27
 70
     0
102
RTVSPropertyOp28
 70
     1
102
RTVSPropertyOp29
 70
     1
102
RTVSPropertyOp30
 70
     1
102
RTVSPropertyOp31
 70
     1
102
RTVSPropertyOp32
 70
     1
102
RTVSPropertyOp33
 70
     1
102
RTVSPropertyOp34
 70
     1
102
RTVSPropertyOp35
 70
     1
102
RTVSPropertyOp36
 70
     1
102
RTVSPropertyOp37
 70
     0
102
RTVSPropertyOp38
 70
     0
102
RTVSPropertyOp39
 70
     0
102
RTVSPropertyOp40
 70
     0
102
RTVSPropertyOp41
 70
     0
102
RTVSPropertyOp42
 70
     0
102
RTVSPropertyOp43
 70
     0
102
RTVSPropertyOp44
 70
     0
102
RTVSPropertyOp45
 70
     1
102
RTVSPropertyOp46
 70
     0
102
RTVSPropertyOp47
 70
     0
102
RTVSPropertyOp48
 70
     0
102
RTVSPropertyOp49
 70
     1
102
RTVSPropertyOp50
 70
     0
102
RTVSPropertyOp51
 70
     0
102
RTVSPropertyOp52
 70
     0
102
RTVSPropertyOp53
 70
     0
102
RTVSPropertyOp54
 70
     0
102
RTVSPropertyOp55
 70
     1
102
RTVSPropertyOp56
 70
     0
102
RTVSPropertyOp57
 70
     0
102
RTVSPropertyOp58
 70
     0
102
RTVSPropertyOp59
 70
     0
102
RTVSPropertyOp60
 70
     0
102
RTVSPropertyOp61
 70
     0
102
RTVSPropertyOp62
 70
     0
  0
XRECORD
  5
829B
102
{ACAD_REACTORS
330
829A
102
}
330
829A
100
AcDbXrecord
280
     1
102
RTVSPost2010Prop28
280
     0
102
RTVSPost2010PropOp28
 70
     1
102
RTVSPost2010Prop29
280
     1
102
RTVSPost2010PropOp29
 70
     1
102
RTVSPost2010Prop30
280
     1
102
RTVSPost2010PropOp30
 70
     1
102
RTVSPost2010Prop31
280
     0
102
RTVSPost2010PropOp31
 70
     1
102
RTVSPost2010Prop32
280
     0
102
RTVSPost2010PropOp32
 70
     1
102
RTVSPost2010Prop33
280
     0
102
RTVSPost2010PropOp33
 70
     1
102
RTVSPost2010Prop34
280
     0
102
RTVSPost2010PropOp34
 70
     1
102
RTVSPost2010Prop35
280
     0
102
RTVSPost2010PropOp35
 70
     1
102
RTVSPost2010Prop36
280
     0
102
RTVSPost2010PropOp36
 70
     1
102
RTVSPost2010Prop37
 90
       50
102
RTVSPost2010PropOp37
 70
     1
102
RTVSPost2010Prop38
140
0.0
102
RTVSPost2010PropOp38
 70
     1
102
RTVSPost2010Prop39
140
1.0
102
RTVSPost2010PropOp39
 70
     1
102
RTVSPost2010Prop40
 90
        0
102
RTVSPost2010PropOp40
 70
     1
102
RTVSPost2010Prop41ColorIndex
 90
       18
102
RTVSPost2010Prop41ColorRGB
 90
        0
102
RTVSPost2010PropOp41
 70
     1
102
RTVSPost2010Prop42
 90
       50
102
RTVSPost2010PropOp42
 70
     1
102
RTVSPost2010Prop43
 90
        3
102
RTVSPost2010PropOp43
 70
     1
102
RTVSPost2010Prop44ColorIndex
 90
        5
102
RTVSPost2010Prop44ColorRGB
 90
      255
102
RTVSPost2010PropOp44
 70
     1
102
RTVSPost2010Prop45
280
     0
102
RTVSPost2010PropOp45
 70
     1
102
RTVSPost2010Prop46
 90
       50
102
RTVSPost2010PropOp46
 70
     1
102
RTVSPost2010Prop47
 90
       50
102
RTVSPost2010PropOp47
 70
     1
102
RTVSPost2010Prop48
 90
       50
102
RTVSPost2010PropOp48
 70
     1
102
RTVSPost2010Prop49
280
     0
102
RTVSPost2010PropOp49
 70
     1
102
RTVSPost2010Prop50
 90
       50
102
RTVSPost2010PropOp50
 70
     1
102
RTVSPost2010Prop51ColorIndex
 90
      256
102
RTVSPost2010Prop51ColorRGB
 90
-16777216
102
RTVSPost2010PropOp51
 70
     0
102
RTVSPost2010Prop52
140
1.0
102
RTVSPost2010PropOp52
 70
     0
102
RTVSPost2010Prop53
 90
        2
102
RTVSPost2010PropOp53
 70
     1
102
RTVSPost2010Prop54
  1
strokes_ogs.tif
102
RTVSPost2010PropOp54
 70
     1
102
RTVSPost2010Prop55
280
     0
102
RTVSPost2010PropOp55
 70
     1
102
RTVSPost2010Prop56
140
1.0
102
RTVSPost2010PropOp56
 70
     1
102
RTVSPost2010Prop57
140
1.0
102
RTVSPost2010PropOp57
 70
     1
102
RTVSPropertyOp0
 70
     1
102
RTVSPropertyOp1
 70
     1
102
RTVSPropertyOp2
 70
     1
102
RTVSPropertyOp3
 70
     1
102
RTVSPropertyOp4
 70
     1
102
RTVSPropertyOp5
 70
     1
102
RTVSPropertyOp6
 70
     1
102
RTVSPropertyOp7
 70
     1
102
RTVSPropertyOp8
 70
     1
102
RTVSPropertyOp9
 70
     1
102
RTVSPropertyOp10
 70
     1
102
RTVSPropertyOp11
 70
     1
102
RTVSPropertyOp12
 70
     1
102
RTVSPropertyOp13
 70
     1
102
RTVSPropertyOp14
 70
     1
102
RTVSPropertyOp15
 70
     1
102
RTVSPropertyOp16
 70
     1
102
RTVSPropertyOp17
 70
     1
102
RTVSPropertyOp18
 70
     1
102
RTVSPropertyOp19
 70
     1
102
RTVSPropertyOp20
 70
     1
102
RTVSPropertyOp21
 70
     1
102
RTVSPropertyOp22
 70
     1
102
RTVSPropertyOp23
 70
     1
102
RTVSPropertyOp24
 70
     1
102
RTVSPropertyOp25
 70
     1
102
RTVSPropertyOp26
 70
     1
102
RTVSPropertyOp27
 70
     1
102
RTVSPropertyOp28
 70
     1
102
RTVSPropertyOp29
 70
     1
102
RTVSPropertyOp30
 70
     1
102
RTVSPropertyOp31
 70
     1
102
RTVSPropertyOp32
 70
     1
102
RTVSPropertyOp33
 70
     1
102
RTVSPropertyOp34
 70
     1
102
RTVSPropertyOp35
 70
     1
102
RTVSPropertyOp36
 70
     1
102
RTVSPropertyOp37
 70
     1
102
RTVSPropertyOp38
 70
     1
102
RTVSPropertyOp39
 70
     1
102
RTVSPropertyOp40
 70
     1
102
RTVSPropertyOp41
 70
     1
102
RTVSPropertyOp42
 70
     1
102
RTVSPropertyOp43
 70
     1
102
RTVSPropertyOp44
 70
     1
102
RTVSPropertyOp45
 70
     1
102
RTVSPropertyOp46
 70
     1
102
RTVSPropertyOp47
 70
     1
102
RTVSPropertyOp48
 70
     1
102
RTVSPropertyOp49
 70
     1
102
RTVSPropertyOp50
 70
     1
102
RTVSPropertyOp51
 70
     0
102
RTVSPropertyOp52
 70
     0
102
RTVSPropertyOp53
 70
     1
102
RTVSPropertyOp54
 70
     1
102
RTVSPropertyOp55
 70
     1
102
RTVSPropertyOp56
 70
     1
102
RTVSPropertyOp57
 70
     1
102
RTVSPropertyOp58
 70
     1
102
RTVSPropertyOp59
 70
     1
102
RTVSPropertyOp60
 70
     1
102
RTVSPropertyOp61
 70
     1
102
RTVSPropertyOp62
 70
     1
  0
XRECORD
  5
827F
102
{ACAD_REACTORS
330
827E
102
}
330
827E
100
AcDbXrecord
280
     1
102
RTVSPost2010Prop28
280
     0
102
RTVSPost2010PropOp28
 70
     1
102
RTVSPost2010Prop29
280
     1
102
RTVSPost2010PropOp29
 70
     1
102
RTVSPost2010Prop30
280
     1
102
RTVSPost2010PropOp30
 70
     1
102
RTVSPost2010Prop31
280
     0
102
RTVSPost2010PropOp31
 70
     1
102
RTVSPost2010Prop32
280
     0
102
RTVSPost2010PropOp32
 70
     1
102
RTVSPost2010Prop33
280
     0
102
RTVSPost2010PropOp33
 70
     1
102
RTVSPost2010Prop34
280
     0
102
RTVSPost2010PropOp34
 70
     1
102
RTVSPost2010Prop35
280
     0
102
RTVSPost2010PropOp35
 70
     1
102
RTVSPost2010Prop36
280
     0
102
RTVSPost2010PropOp36
 70
     1
102
RTVSPost2010Prop37
 90
       50
102
RTVSPost2010PropOp37
 70
     1
102
RTVSPost2010Prop38
140
0.0
102
RTVSPost2010PropOp38
 70
     1
102
RTVSPost2010Prop39
140
1.0
102
RTVSPost2010PropOp39
 70
     1
102
RTVSPost2010Prop40
 90
        0
102
RTVSPost2010PropOp40
 70
     1
102
RTVSPost2010Prop41ColorIndex
 90
       18
102
RTVSPost2010Prop41ColorRGB
 90
        0
102
RTVSPost2010PropOp41
 70
     1
102
RTVSPost2010Prop42
 90
       50
102
RTVSPost2010PropOp42
 70
     1
102
RTVSPost2010Prop43
 90
        3
102
RTVSPost2010PropOp43
 70
     1
102
RTVSPost2010Prop44ColorIndex
 90
        5
102
RTVSPost2010Prop44ColorRGB
 90
      255
102
RTVSPost2010PropOp44
 70
     1
102
RTVSPost2010Prop45
280
     0
102
RTVSPost2010PropOp45
 70
     1
102
RTVSPost2010Prop46
 90
       50
102
RTVSPost2010PropOp46
 70
     1
102
RTVSPost2010Prop47
 90
       50
102
RTVSPost2010PropOp47
 70
     1
102
RTVSPost2010Prop48
 90
       50
102
RTVSPost2010PropOp48
 70
     1
102
RTVSPost2010Prop49
280
     0
102
RTVSPost2010PropOp49
 70
     1
102
RTVSPost2010Prop50
 90
       50
102
RTVSPost2010PropOp50
 70
     1
102
RTVSPost2010Prop51ColorIndex
 90
      256
102
RTVSPost2010Prop51ColorRGB
 90
-16777216
102
RTVSPost2010PropOp51
 70
     0
102
RTVSPost2010Prop52
140
1.0
102
RTVSPost2010PropOp52
 70
     0
102
RTVSPost2010Prop53
 90
        2
102
RTVSPost2010PropOp53
 70
     1
102
RTVSPost2010Prop54
  1
strokes_ogs.tif
102
RTVSPost2010PropOp54
 70
     1
102
RTVSPost2010Prop55
280
     0
102
RTVSPost2010PropOp55
 70
     1
102
RTVSPost2010Prop56
140
1.0
102
RTVSPost2010PropOp56
 70
     1
102
RTVSPost2010Prop57
140
1.0
102
RTVSPost2010PropOp57
 70
     1
102
RTVSPropertyOp0
 70
     1
102
RTVSPropertyOp1
 70
     1
102
RTVSPropertyOp2
 70
     1
102
RTVSPropertyOp3
 70
     1
102
RTVSPropertyOp4
 70
     1
102
RTVSPropertyOp5
 70
     1
102
RTVSPropertyOp6
 70
     1
102
RTVSPropertyOp7
 70
     1
102
RTVSPropertyOp8
 70
     1
102
RTVSPropertyOp9
 70
     1
102
RTVSPropertyOp10
 70
     1
102
RTVSPropertyOp11
 70
     1
102
RTVSPropertyOp12
 70
     1
102
RTVSPropertyOp13
 70
     1
102
RTVSPropertyOp14
 70
     1
102
RTVSPropertyOp15
 70
     1
102
RTVSPropertyOp16
 70
     1
102
RTVSPropertyOp17
 70
     1
102
RTVSPropertyOp18
 70
     1
102
RTVSPropertyOp19
 70
     1
102
RTVSPropertyOp20
 70
     1
102
RTVSPropertyOp21
 70
     1
102
RTVSPropertyOp22
 70
     1
102
RTVSPropertyOp23
 70
     1
102
RTVSPropertyOp24
 70
     1
102
RTVSPropertyOp25
 70
     1
102
RTVSPropertyOp26
 70
     1
102
RTVSPropertyOp27
 70
     1
102
RTVSPropertyOp28
 70
     1
102
RTVSPropertyOp29
 70
     1
102
RTVSPropertyOp30
 70
     1
102
RTVSPropertyOp31
 70
     1
102
RTVSPropertyOp32
 70
     1
102
RTVSPropertyOp33
 70
     1
102
RTVSPropertyOp34
 70
     1
102
RTVSPropertyOp35
 70
     1
102
RTVSPropertyOp36
 70
     1
102
RTVSPropertyOp37
 70
     1
102
RTVSPropertyOp38
 70
     1
102
RTVSPropertyOp39
 70
     1
102
RTVSPropertyOp40
 70
     1
102
RTVSPropertyOp41
 70
     1
102
RTVSPropertyOp42
 70
     1
102
RTVSPropertyOp43
 70
     1
102
RTVSPropertyOp44
 70
     1
102
RTVSPropertyOp45
 70
     1
102
RTVSPropertyOp46
 70
     1
102
RTVSPropertyOp47
 70
     1
102
RTVSPropertyOp48
 70
     1
102
RTVSPropertyOp49
 70
     1
102
RTVSPropertyOp50
 70
     1
102
RTVSPropertyOp51
 70
     0
102
RTVSPropertyOp52
 70
     0
102
RTVSPropertyOp53
 70
     1
102
RTVSPropertyOp54
 70
     1
102
RTVSPropertyOp55
 70
     1
102
RTVSPropertyOp56
 70
     1
102
RTVSPropertyOp57
 70
     1
102
RTVSPropertyOp58
 70
     1
102
RTVSPropertyOp59
 70
     1
102
RTVSPropertyOp60
 70
     1
102
RTVSPropertyOp61
 70
     1
102
RTVSPropertyOp62
 70
     1
  0
XRECORD
  5
8281
102
{ACAD_REACTORS
330
8280
102
}
330
8280
100
AcDbXrecord
280
     1
102
RTVSPost2010Prop28
280
     0
102
RTVSPost2010PropOp28
 70
     1
102
RTVSPost2010Prop29
280
     1
102
RTVSPost2010PropOp29
 70
     1
102
RTVSPost2010Prop30
280
     1
102
RTVSPost2010PropOp30
 70
     1
102
RTVSPost2010Prop31
280
     0
102
RTVSPost2010PropOp31
 70
     1
102
RTVSPost2010Prop32
280
     0
102
RTVSPost2010PropOp32
 70
     1
102
RTVSPost2010Prop33
280
     0
102
RTVSPost2010PropOp33
 70
     1
102
RTVSPost2010Prop34
280
     0
102
RTVSPost2010PropOp34
 70
     1
102
RTVSPost2010Prop35
280
     0
102
RTVSPost2010PropOp35
 70
     1
102
RTVSPost2010Prop36
280
     0
102
RTVSPost2010PropOp36
 70
     1
102
RTVSPost2010Prop37
 90
       50
102
RTVSPost2010PropOp37
 70
     1
102
RTVSPost2010Prop38
140
0.0
102
RTVSPost2010PropOp38
 70
     1
102
RTVSPost2010Prop39
140
1.0
102
RTVSPost2010PropOp39
 70
     1
102
RTVSPost2010Prop40
 90
        0
102
RTVSPost2010PropOp40
 70
     1
102
RTVSPost2010Prop41ColorIndex
 90
       18
102
RTVSPost2010Prop41ColorRGB
 90
        0
102
RTVSPost2010PropOp41
 70
     1
102
RTVSPost2010Prop42
 90
       50
102
RTVSPost2010PropOp42
 70
     1
102
RTVSPost2010Prop43
 90
        3
102
RTVSPost2010PropOp43
 70
     1
102
RTVSPost2010Prop44ColorIndex
 90
        5
102
RTVSPost2010Prop44ColorRGB
 90
      255
102
RTVSPost2010PropOp44
 70
     1
102
RTVSPost2010Prop45
280
     0
102
RTVSPost2010PropOp45
 70
     1
102
RTVSPost2010Prop46
 90
       50
102
RTVSPost2010PropOp46
 70
     1
102
RTVSPost2010Prop47
 90
       50
102
RTVSPost2010PropOp47
 70
     1
102
RTVSPost2010Prop48
 90
       50
102
RTVSPost2010PropOp48
 70
     1
102
RTVSPost2010Prop49
280
     0
102
RTVSPost2010PropOp49
 70
     1
102
RTVSPost2010Prop50
 90
       50
102
RTVSPost2010PropOp50
 70
     1
102
RTVSPost2010Prop51ColorIndex
 90
      256
102
RTVSPost2010Prop51ColorRGB
 90
-16777216
102
RTVSPost2010PropOp51
 70
     0
102
RTVSPost2010Prop52
140
1.0
102
RTVSPost2010PropOp52
 70
     0
102
RTVSPost2010Prop53
 90
        2
102
RTVSPost2010PropOp53
 70
     1
102
RTVSPost2010Prop54
  1
strokes_ogs.tif
102
RTVSPost2010PropOp54
 70
     1
102
RTVSPost2010Prop55
280
     0
102
RTVSPost2010PropOp55
 70
     1
102
RTVSPost2010Prop56
140
1.0
102
RTVSPost2010PropOp56
 70
     1
102
RTVSPost2010Prop57
140
1.0
102
RTVSPost2010PropOp57
 70
     1
102
RTVSPropertyOp0
 70
     1
102
RTVSPropertyOp1
 70
     1
102
RTVSPropertyOp2
 70
     1
102
RTVSPropertyOp3
 70
     1
102
RTVSPropertyOp4
 70
     1
102
RTVSPropertyOp5
 70
     1
102
RTVSPropertyOp6
 70
     1
102
RTVSPropertyOp7
 70
     1
102
RTVSPropertyOp8
 70
     1
102
RTVSPropertyOp9
 70
     1
102
RTVSPropertyOp10
 70
     1
102
RTVSPropertyOp11
 70
     1
102
RTVSPropertyOp12
 70
     1
102
RTVSPropertyOp13
 70
     1
102
RTVSPropertyOp14
 70
     1
102
RTVSPropertyOp15
 70
     1
102
RTVSPropertyOp16
 70
     1
102
RTVSPropertyOp17
 70
     1
102
RTVSPropertyOp18
 70
     1
102
RTVSPropertyOp19
 70
     1
102
RTVSPropertyOp20
 70
     1
102
RTVSPropertyOp21
 70
     1
102
RTVSPropertyOp22
 70
     1
102
RTVSPropertyOp23
 70
     1
102
RTVSPropertyOp24
 70
     1
102
RTVSPropertyOp25
 70
     1
102
RTVSPropertyOp26
 70
     1
102
RTVSPropertyOp27
 70
     1
102
RTVSPropertyOp28
 70
     1
102
RTVSPropertyOp29
 70
     1
102
RTVSPropertyOp30
 70
     1
102
RTVSPropertyOp31
 70
     1
102
RTVSPropertyOp32
 70
     1
102
RTVSPropertyOp33
 70
     1
102
RTVSPropertyOp34
 70
     1
102
RTVSPropertyOp35
 70
     1
102
RTVSPropertyOp36
 70
     1
102
RTVSPropertyOp37
 70
     1
102
RTVSPropertyOp38
 70
     1
102
RTVSPropertyOp39
 70
     1
102
RTVSPropertyOp40
 70
     1
102
RTVSPropertyOp41
 70
     1
102
RTVSPropertyOp42
 70
     1
102
RTVSPropertyOp43
 70
     1
102
RTVSPropertyOp44
 70
     1
102
RTVSPropertyOp45
 70
     1
102
RTVSPropertyOp46
 70
     1
102
RTVSPropertyOp47
 70
     1
102
RTVSPropertyOp48
 70
     1
102
RTVSPropertyOp49
 70
     1
102
RTVSPropertyOp50
 70
     1
102
RTVSPropertyOp51
 70
     0
102
RTVSPropertyOp52
 70
     0
102
RTVSPropertyOp53
 70
     1
102
RTVSPropertyOp54
 70
     1
102
RTVSPropertyOp55
 70
     1
102
RTVSPropertyOp56
 70
     1
102
RTVSPropertyOp57
 70
     1
102
RTVSPropertyOp58
 70
     1
102
RTVSPropertyOp59
 70
     1
102
RTVSPropertyOp60
 70
     1
102
RTVSPropertyOp61
 70
     1
102
RTVSPropertyOp62
 70
     1
  0
XRECORD
  5
8283
102
{ACAD_REACTORS
330
8282
102
}
330
8282
100
AcDbXrecord
280
     1
102
RTVSPost2010Prop28
280
     0
102
RTVSPost2010PropOp28
 70
     1
102
RTVSPost2010Prop29
280
     1
102
RTVSPost2010PropOp29
 70
     1
102
RTVSPost2010Prop30
280
     1
102
RTVSPost2010PropOp30
 70
     1
102
RTVSPost2010Prop31
280
     0
102
RTVSPost2010PropOp31
 70
     1
102
RTVSPost2010Prop32
280
     0
102
RTVSPost2010PropOp32
 70
     1
102
RTVSPost2010Prop33
280
     0
102
RTVSPost2010PropOp33
 70
     1
102
RTVSPost2010Prop34
280
     0
102
RTVSPost2010PropOp34
 70
     1
102
RTVSPost2010Prop35
280
     0
102
RTVSPost2010PropOp35
 70
     1
102
RTVSPost2010Prop36
280
     0
102
RTVSPost2010PropOp36
 70
     1
102
RTVSPost2010Prop37
 90
       50
102
RTVSPost2010PropOp37
 70
     1
102
RTVSPost2010Prop38
140
0.0
102
RTVSPost2010PropOp38
 70
     1
102
RTVSPost2010Prop39
140
1.0
102
RTVSPost2010PropOp39
 70
     1
102
RTVSPost2010Prop40
 90
        0
102
RTVSPost2010PropOp40
 70
     1
102
RTVSPost2010Prop41ColorIndex
 90
       18
102
RTVSPost2010Prop41ColorRGB
 90
        0
102
RTVSPost2010PropOp41
 70
     1
102
RTVSPost2010Prop42
 90
       50
102
RTVSPost2010PropOp42
 70
     1
102
RTVSPost2010Prop43
 90
        3
102
RTVSPost2010PropOp43
 70
     1
102
RTVSPost2010Prop44ColorIndex
 90
        5
102
RTVSPost2010Prop44ColorRGB
 90
      255
102
RTVSPost2010PropOp44
 70
     1
102
RTVSPost2010Prop45
280
     0
102
RTVSPost2010PropOp45
 70
     1
102
RTVSPost2010Prop46
 90
       50
102
RTVSPost2010PropOp46
 70
     1
102
RTVSPost2010Prop47
 90
       50
102
RTVSPost2010PropOp47
 70
     1
102
RTVSPost2010Prop48
 90
       50
102
RTVSPost2010PropOp48
 70
     1
102
RTVSPost2010Prop49
280
     0
102
RTVSPost2010PropOp49
 70
     1
102
RTVSPost2010Prop50
 90
       50
102
RTVSPost2010PropOp50
 70
     1
102
RTVSPost2010Prop51ColorIndex
 90
      256
102
RTVSPost2010Prop51ColorRGB
 90
-16777216
102
RTVSPost2010PropOp51
 70
     0
102
RTVSPost2010Prop52
140
1.0
102
RTVSPost2010PropOp52
 70
     0
102
RTVSPost2010Prop53
 90
        2
102
RTVSPost2010PropOp53
 70
     1
102
RTVSPost2010Prop54
  1
strokes_ogs.tif
102
RTVSPost2010PropOp54
 70
     1
102
RTVSPost2010Prop55
280
     0
102
RTVSPost2010PropOp55
 70
     1
102
RTVSPost2010Prop56
140
1.0
102
RTVSPost2010PropOp56
 70
     1
102
RTVSPost2010Prop57
140
1.0
102
RTVSPost2010PropOp57
 70
     1
102
RTVSPropertyOp0
 70
     1
102
RTVSPropertyOp1
 70
     1
102
RTVSPropertyOp2
 70
     1
102
RTVSPropertyOp3
 70
     1
102
RTVSPropertyOp4
 70
     1
102
RTVSPropertyOp5
 70
     1
102
RTVSPropertyOp6
 70
     1
102
RTVSPropertyOp7
 70
     1
102
RTVSPropertyOp8
 70
     1
102
RTVSPropertyOp9
 70
     1
102
RTVSPropertyOp10
 70
     1
102
RTVSPropertyOp11
 70
     1
102
RTVSPropertyOp12
 70
     1
102
RTVSPropertyOp13
 70
     1
102
RTVSPropertyOp14
 70
     1
102
RTVSPropertyOp15
 70
     1
102
RTVSPropertyOp16
 70
     1
102
RTVSPropertyOp17
 70
     1
102
RTVSPropertyOp18
 70
     1
102
RTVSPropertyOp19
 70
     1
102
RTVSPropertyOp20
 70
     1
102
RTVSPropertyOp21
 70
     1
102
RTVSPropertyOp22
 70
     1
102
RTVSPropertyOp23
 70
     1
102
RTVSPropertyOp24
 70
     1
102
RTVSPropertyOp25
 70
     1
102
RTVSPropertyOp26
 70
     1
102
RTVSPropertyOp27
 70
     1
102
RTVSPropertyOp28
 70
     1
102
RTVSPropertyOp29
 70
     1
102
RTVSPropertyOp30
 70
     1
102
RTVSPropertyOp31
 70
     1
102
RTVSPropertyOp32
 70
     1
102
RTVSPropertyOp33
 70
     1
102
RTVSPropertyOp34
 70
     1
102
RTVSPropertyOp35
 70
     1
102
RTVSPropertyOp36
 70
     1
102
RTVSPropertyOp37
 70
     1
102
RTVSPropertyOp38
 70
     1
102
RTVSPropertyOp39
 70
     1
102
RTVSPropertyOp40
 70
     1
102
RTVSPropertyOp41
 70
     1
102
RTVSPropertyOp42
 70
     1
102
RTVSPropertyOp43
 70
     1
102
RTVSPropertyOp44
 70
     1
102
RTVSPropertyOp45
 70
     1
102
RTVSPropertyOp46
 70
     1
102
RTVSPropertyOp47
 70
     1
102
RTVSPropertyOp48
 70
     1
102
RTVSPropertyOp49
 70
     1
102
RTVSPropertyOp50
 70
     1
102
RTVSPropertyOp51
 70
     0
102
RTVSPropertyOp52
 70
     0
102
RTVSPropertyOp53
 70
     1
102
RTVSPropertyOp54
 70
     1
102
RTVSPropertyOp55
 70
     1
102
RTVSPropertyOp56
 70
     1
102
RTVSPropertyOp57
 70
     1
102
RTVSPropertyOp58
 70
     1
102
RTVSPropertyOp59
 70
     1
102
RTVSPropertyOp60
 70
     1
102
RTVSPropertyOp61
 70
     1
102
RTVSPropertyOp62
 70
     1
  0
XRECORD
  5
8285
102
{ACAD_REACTORS
330
8284
102
}
330
8284
100
AcDbXrecord
280
     1
102
RTVSPost2010Prop28
280
     0
102
RTVSPost2010PropOp28
 70
     1
102
RTVSPost2010Prop29
280
     1
102
RTVSPost2010PropOp29
 70
     1
102
RTVSPost2010Prop30
280
     1
102
RTVSPost2010PropOp30
 70
     1
102
RTVSPost2010Prop31
280
     0
102
RTVSPost2010PropOp31
 70
     1
102
RTVSPost2010Prop32
280
     0
102
RTVSPost2010PropOp32
 70
     1
102
RTVSPost2010Prop33
280
     0
102
RTVSPost2010PropOp33
 70
     1
102
RTVSPost2010Prop34
280
     0
102
RTVSPost2010PropOp34
 70
     1
102
RTVSPost2010Prop35
280
     0
102
RTVSPost2010PropOp35
 70
     1
102
RTVSPost2010Prop36
280
     0
102
RTVSPost2010PropOp36
 70
     1
102
RTVSPost2010Prop37
 90
       50
102
RTVSPost2010PropOp37
 70
     1
102
RTVSPost2010Prop38
140
0.0
102
RTVSPost2010PropOp38
 70
     1
102
RTVSPost2010Prop39
140
1.0
102
RTVSPost2010PropOp39
 70
     1
102
RTVSPost2010Prop40
 90
        0
102
RTVSPost2010PropOp40
 70
     1
102
RTVSPost2010Prop41ColorIndex
 90
       18
102
RTVSPost2010Prop41ColorRGB
 90
        0
102
RTVSPost2010PropOp41
 70
     1
102
RTVSPost2010Prop42
 90
       50
102
RTVSPost2010PropOp42
 70
     1
102
RTVSPost2010Prop43
 90
        3
102
RTVSPost2010PropOp43
 70
     1
102
RTVSPost2010Prop44ColorIndex
 90
        5
102
RTVSPost2010Prop44ColorRGB
 90
      255
102
RTVSPost2010PropOp44
 70
     1
102
RTVSPost2010Prop45
280
     0
102
RTVSPost2010PropOp45
 70
     1
102
RTVSPost2010Prop46
 90
       50
102
RTVSPost2010PropOp46
 70
     1
102
RTVSPost2010Prop47
 90
       50
102
RTVSPost2010PropOp47
 70
     1
102
RTVSPost2010Prop48
 90
       50
102
RTVSPost2010PropOp48
 70
     1
102
RTVSPost2010Prop49
280
     0
102
RTVSPost2010PropOp49
 70
     1
102
RTVSPost2010Prop50
 90
       50
102
RTVSPost2010PropOp50
 70
     1
102
RTVSPost2010Prop51ColorIndex
 90
      256
102
RTVSPost2010Prop51ColorRGB
 90
-16777216
102
RTVSPost2010PropOp51
 70
     0
102
RTVSPost2010Prop52
140
1.0
102
RTVSPost2010PropOp52
 70
     0
102
RTVSPost2010Prop53
 90
        2
102
RTVSPost2010PropOp53
 70
     1
102
RTVSPost2010Prop54
  1
strokes_ogs.tif
102
RTVSPost2010PropOp54
 70
     1
102
RTVSPost2010Prop55
280
     0
102
RTVSPost2010PropOp55
 70
     1
102
RTVSPost2010Prop56
140
1.0
102
RTVSPost2010PropOp56
 70
     1
102
RTVSPost2010Prop57
140
1.0
102
RTVSPost2010PropOp57
 70
     1
102
RTVSPropertyOp0
 70
     1
102
RTVSPropertyOp1
 70
     1
102
RTVSPropertyOp2
 70
     1
102
RTVSPropertyOp3
 70
     1
102
RTVSPropertyOp4
 70
     1
102
RTVSPropertyOp5
 70
     1
102
RTVSPropertyOp6
 70
     1
102
RTVSPropertyOp7
 70
     1
102
RTVSPropertyOp8
 70
     1
102
RTVSPropertyOp9
 70
     1
102
RTVSPropertyOp10
 70
     1
102
RTVSPropertyOp11
 70
     1
102
RTVSPropertyOp12
 70
     1
102
RTVSPropertyOp13
 70
     1
102
RTVSPropertyOp14
 70
     1
102
RTVSPropertyOp15
 70
     1
102
RTVSPropertyOp16
 70
     1
102
RTVSPropertyOp17
 70
     1
102
RTVSPropertyOp18
 70
     1
102
RTVSPropertyOp19
 70
     1
102
RTVSPropertyOp20
 70
     1
102
RTVSPropertyOp21
 70
     1
102
RTVSPropertyOp22
 70
     1
102
RTVSPropertyOp23
 70
     1
102
RTVSPropertyOp24
 70
     1
102
RTVSPropertyOp25
 70
     1
102
RTVSPropertyOp26
 70
     1
102
RTVSPropertyOp27
 70
     1
102
RTVSPropertyOp28
 70
     1
102
RTVSPropertyOp29
 70
     1
102
RTVSPropertyOp30
 70
     1
102
RTVSPropertyOp31
 70
     1
102
RTVSPropertyOp32
 70
     1
102
RTVSPropertyOp33
 70
     1
102
RTVSPropertyOp34
 70
     1
102
RTVSPropertyOp35
 70
     1
102
RTVSPropertyOp36
 70
     1
102
RTVSPropertyOp37
 70
     1
102
RTVSPropertyOp38
 70
     1
102
RTVSPropertyOp39
 70
     1
102
RTVSPropertyOp40
 70
     1
102
RTVSPropertyOp41
 70
     1
102
RTVSPropertyOp42
 70
     1
102
RTVSPropertyOp43
 70
     1
102
RTVSPropertyOp44
 70
     1
102
RTVSPropertyOp45
 70
     1
102
RTVSPropertyOp46
 70
     1
102
RTVSPropertyOp47
 70
     1
102
RTVSPropertyOp48
 70
     1
102
RTVSPropertyOp49
 70
     1
102
RTVSPropertyOp50
 70
     1
102
RTVSPropertyOp51
 70
     0
102
RTVSPropertyOp52
 70
     0
102
RTVSPropertyOp53
 70
     1
102
RTVSPropertyOp54
 70
     1
102
RTVSPropertyOp55
 70
     1
102
RTVSPropertyOp56
 70
     1
102
RTVSPropertyOp57
 70
     1
102
RTVSPropertyOp58
 70
     1
102
RTVSPropertyOp59
 70
     1
102
RTVSPropertyOp60
 70
     1
102
RTVSPropertyOp61
 70
     1
102
RTVSPropertyOp62
 70
     1
  0
XRECORD
  5
828D
102
{ACAD_REACTORS
330
828C
102
}
330
828C
100
AcDbXrecord
280
     1
102
RTVSPost2010Prop28
280
     0
102
RTVSPost2010PropOp28
 70
     1
102
RTVSPost2010Prop29
280
     1
102
RTVSPost2010PropOp29
 70
     1
102
RTVSPost2010Prop30
280
     1
102
RTVSPost2010PropOp30
 70
     1
102
RTVSPost2010Prop31
280
     0
102
RTVSPost2010PropOp31
 70
     1
102
RTVSPost2010Prop32
280
     0
102
RTVSPost2010PropOp32
 70
     1
102
RTVSPost2010Prop33
280
     0
102
RTVSPost2010PropOp33
 70
     1
102
RTVSPost2010Prop34
280
     0
102
RTVSPost2010PropOp34
 70
     1
102
RTVSPost2010Prop35
280
     0
102
RTVSPost2010PropOp35
 70
     1
102
RTVSPost2010Prop36
280
     0
102
RTVSPost2010PropOp36
 70
     1
102
RTVSPost2010Prop37
 90
       50
102
RTVSPost2010PropOp37
 70
     1
102
RTVSPost2010Prop38
140
0.0
102
RTVSPost2010PropOp38
 70
     1
102
RTVSPost2010Prop39
140
1.0
102
RTVSPost2010PropOp39
 70
     1
102
RTVSPost2010Prop40
 90
        0
102
RTVSPost2010PropOp40
 70
     1
102
RTVSPost2010Prop41ColorIndex
 90
       18
102
RTVSPost2010Prop41ColorRGB
 90
        0
102
RTVSPost2010PropOp41
 70
     1
102
RTVSPost2010Prop42
 90
       50
102
RTVSPost2010PropOp42
 70
     1
102
RTVSPost2010Prop43
 90
        3
102
RTVSPost2010PropOp43
 70
     1
102
RTVSPost2010Prop44ColorIndex
 90
        5
102
RTVSPost2010Prop44ColorRGB
 90
      255
102
RTVSPost2010PropOp44
 70
     1
102
RTVSPost2010Prop45
280
     0
102
RTVSPost2010PropOp45
 70
     1
102
RTVSPost2010Prop46
 90
       50
102
RTVSPost2010PropOp46
 70
     1
102
RTVSPost2010Prop47
 90
       50
102
RTVSPost2010PropOp47
 70
     1
102
RTVSPost2010Prop48
 90
       50
102
RTVSPost2010PropOp48
 70
     1
102
RTVSPost2010Prop49
280
     0
102
RTVSPost2010PropOp49
 70
     1
102
RTVSPost2010Prop50
 90
       50
102
RTVSPost2010PropOp50
 70
     1
102
RTVSPost2010Prop51ColorIndex
 90
      256
102
RTVSPost2010Prop51ColorRGB
 90
-16777216
102
RTVSPost2010PropOp51
 70
     0
102
RTVSPost2010Prop52
140
1.0
102
RTVSPost2010PropOp52
 70
     0
102
RTVSPost2010Prop53
 90
        2
102
RTVSPost2010PropOp53
 70
     1
102
RTVSPost2010Prop54
  1
strokes_ogs.tif
102
RTVSPost2010PropOp54
 70
     1
102
RTVSPost2010Prop55
280
     0
102
RTVSPost2010PropOp55
 70
     1
102
RTVSPost2010Prop56
140
1.0
102
RTVSPost2010PropOp56
 70
     1
102
RTVSPost2010Prop57
140
1.0
102
RTVSPost2010PropOp57
 70
     1
102
RTVSPropertyOp0
 70
     1
102
RTVSPropertyOp1
 70
     1
102
RTVSPropertyOp2
 70
     1
102
RTVSPropertyOp3
 70
     1
102
RTVSPropertyOp4
 70
     1
102
RTVSPropertyOp5
 70
     1
102
RTVSPropertyOp6
 70
     1
102
RTVSPropertyOp7
 70
     1
102
RTVSPropertyOp8
 70
     1
102
RTVSPropertyOp9
 70
     1
102
RTVSPropertyOp10
 70
     1
102
RTVSPropertyOp11
 70
     1
102
RTVSPropertyOp12
 70
     1
102
RTVSPropertyOp13
 70
     1
102
RTVSPropertyOp14
 70
     1
102
RTVSPropertyOp15
 70
     1
102
RTVSPropertyOp16
 70
     1
102
RTVSPropertyOp17
 70
     1
102
RTVSPropertyOp18
 70
     1
102
RTVSPropertyOp19
 70
     1
102
RTVSPropertyOp20
 70
     1
102
RTVSPropertyOp21
 70
     1
102
RTVSPropertyOp22
 70
     1
102
RTVSPropertyOp23
 70
     1
102
RTVSPropertyOp24
 70
     1
102
RTVSPropertyOp25
 70
     1
102
RTVSPropertyOp26
 70
     1
102
RTVSPropertyOp27
 70
     1
102
RTVSPropertyOp28
 70
     1
102
RTVSPropertyOp29
 70
     1
102
RTVSPropertyOp30
 70
     1
102
RTVSPropertyOp31
 70
     1
102
RTVSPropertyOp32
 70
     1
102
RTVSPropertyOp33
 70
     1
102
RTVSPropertyOp34
 70
     1
102
RTVSPropertyOp35
 70
     1
102
RTVSPropertyOp36
 70
     1
102
RTVSPropertyOp37
 70
     1
102
RTVSPropertyOp38
 70
     1
102
RTVSPropertyOp39
 70
     1
102
RTVSPropertyOp40
 70
     1
102
RTVSPropertyOp41
 70
     1
102
RTVSPropertyOp42
 70
     1
102
RTVSPropertyOp43
 70
     1
102
RTVSPropertyOp44
 70
     1
102
RTVSPropertyOp45
 70
     1
102
RTVSPropertyOp46
 70
     1
102
RTVSPropertyOp47
 70
     1
102
RTVSPropertyOp48
 70
     1
102
RTVSPropertyOp49
 70
     1
102
RTVSPropertyOp50
 70
     1
102
RTVSPropertyOp51
 70
     0
102
RTVSPropertyOp52
 70
     0
102
RTVSPropertyOp53
 70
     1
102
RTVSPropertyOp54
 70
     1
102
RTVSPropertyOp55
 70
     1
102
RTVSPropertyOp56
 70
     1
102
RTVSPropertyOp57
 70
     1
102
RTVSPropertyOp58
 70
     1
102
RTVSPropertyOp59
 70
     1
102
RTVSPropertyOp60
 70
     1
102
RTVSPropertyOp61
 70
     1
102
RTVSPropertyOp62
 70
     1
  0
XRECORD
  5
82A9
102
{ACAD_REACTORS
330
82A8
102
}
330
82A8
100
AcDbXrecord
280
     1
102
RTVSPost2010Prop28
280
     0
102
RTVSPost2010PropOp28
 70
     1
102
RTVSPost2010Prop29
280
     1
102
RTVSPost2010PropOp29
 70
     1
102
RTVSPost2010Prop30
280
     1
102
RTVSPost2010PropOp30
 70
     1
102
RTVSPost2010Prop31
280
     0
102
RTVSPost2010PropOp31
 70
     1
102
RTVSPost2010Prop32
280
     0
102
RTVSPost2010PropOp32
 70
     1
102
RTVSPost2010Prop33
280
     0
102
RTVSPost2010PropOp33
 70
     1
102
RTVSPost2010Prop34
280
     0
102
RTVSPost2010PropOp34
 70
     1
102
RTVSPost2010Prop35
280
     0
102
RTVSPost2010PropOp35
 70
     1
102
RTVSPost2010Prop36
280
     0
102
RTVSPost2010PropOp36
 70
     1
102
RTVSPost2010Prop37
 90
       50
102
RTVSPost2010PropOp37
 70
     0
102
RTVSPost2010Prop38
140
0.0
102
RTVSPost2010PropOp38
 70
     0
102
RTVSPost2010Prop39
140
1.0
102
RTVSPost2010PropOp39
 70
     0
102
RTVSPost2010Prop40
 90
        0
102
RTVSPost2010PropOp40
 70
     0
102
RTVSPost2010Prop41ColorIndex
 90
       18
102
RTVSPost2010Prop41ColorRGB
 90
        0
102
RTVSPost2010PropOp41
 70
     0
102
RTVSPost2010Prop42
 90
       50
102
RTVSPost2010PropOp42
 70
     0
102
RTVSPost2010Prop43
 90
        3
102
RTVSPost2010PropOp43
 70
     0
102
RTVSPost2010Prop44ColorIndex
 90
        5
102
RTVSPost2010Prop44ColorRGB
 90
      255
102
RTVSPost2010PropOp44
 70
     0
102
RTVSPost2010Prop45
280
     0
102
RTVSPost2010PropOp45
 70
     1
102
RTVSPost2010Prop46
 90
       50
102
RTVSPost2010PropOp46
 70
     0
102
RTVSPost2010Prop47
 90
       50
102
RTVSPost2010PropOp47
 70
     0
102
RTVSPost2010Prop48
 90
       50
102
RTVSPost2010PropOp48
 70
     0
102
RTVSPost2010Prop49
280
     0
102
RTVSPost2010PropOp49
 70
     1
102
RTVSPost2010Prop50
 90
       50
102
RTVSPost2010PropOp50
 70
     0
102
RTVSPost2010Prop51ColorIndex
 90
      256
102
RTVSPost2010Prop51ColorRGB
 90
-16777216
102
RTVSPost2010PropOp51
 70
     0
102
RTVSPost2010Prop52
140
1.0
102
RTVSPost2010PropOp52
 70
     0
102
RTVSPost2010Prop53
 90
        2
102
RTVSPost2010PropOp53
 70
     0
102
RTVSPost2010Prop54
  1
strokes_ogs.tif
102
RTVSPost2010PropOp54
 70
     0
102
RTVSPost2010Prop55
280
     0
102
RTVSPost2010PropOp55
 70
     1
102
RTVSPost2010Prop56
140
1.0
102
RTVSPost2010PropOp56
 70
     0
102
RTVSPost2010Prop57
140
1.0
102
RTVSPost2010PropOp57
 70
     0
102
RTVSPropertyOp0
 70
     0
102
RTVSPropertyOp1
 70
     0
102
RTVSPropertyOp2
 70
     0
102
RTVSPropertyOp3
 70
     0
102
RTVSPropertyOp4
 70
     0
102
RTVSPropertyOp5
 70
     0
102
RTVSPropertyOp6
 70
     0
102
RTVSPropertyOp7
 70
     0
102
RTVSPropertyOp8
 70
     0
102
RTVSPropertyOp9
 70
     0
102
RTVSPropertyOp10
 70
     0
102
RTVSPropertyOp11
 70
     0
102
RTVSPropertyOp12
 70
     0
102
RTVSPropertyOp13
 70
     0
102
RTVSPropertyOp14
 70
     2
102
RTVSPropertyOp15
 70
     0
102
RTVSPropertyOp16
 70
     0
102
RTVSPropertyOp17
 70
     0
102
RTVSPropertyOp18
 70
     0
102
RTVSPropertyOp19
 70
     0
102
RTVSPropertyOp20
 70
     0
102
RTVSPropertyOp21
 70
     0
102
RTVSPropertyOp22
 70
     0
102
RTVSPropertyOp23
 70
     0
102
RTVSPropertyOp24
 70
     0
102
RTVSPropertyOp25
 70
     0
102
RTVSPropertyOp26
 70
     0
102
RTVSPropertyOp27
 70
     0
102
RTVSPropertyOp28
 70
     1
102
RTVSPropertyOp29
 70
     1
102
RTVSPropertyOp30
 70
     1
102
RTVSPropertyOp31
 70
     1
102
RTVSPropertyOp32
 70
     1
102
RTVSPropertyOp33
 70
     1
102
RTVSPropertyOp34
 70
     1
102
RTVSPropertyOp35
 70
     1
102
RTVSPropertyOp36
 70
     1
102
RTVSPropertyOp37
 70
     0
102
RTVSPropertyOp38
 70
     0
102
RTVSPropertyOp39
 70
     0
102
RTVSPropertyOp40
 70
     0
102
RTVSPropertyOp41
 70
     0
102
RTVSPropertyOp42
 70
     0
102
RTVSPropertyOp43
 70
     0
102
RTVSPropertyOp44
 70
     0
102
RTVSPropertyOp45
 70
     1
102
RTVSPropertyOp46
 70
     0
102
RTVSPropertyOp47
 70
     0
102
RTVSPropertyOp48
 70
     0
102
RTVSPropertyOp49
 70
     1
102
RTVSPropertyOp50
 70
     0
102
RTVSPropertyOp51
 70
     0
102
RTVSPropertyOp52
 70
     0
102
RTVSPropertyOp53
 70
     0
102
RTVSPropertyOp54
 70
     0
102
RTVSPropertyOp55
 70
     1
102
RTVSPropertyOp56
 70
     0
102
RTVSPropertyOp57
 70
     0
102
RTVSPropertyOp58
 70
     0
102
RTVSPropertyOp59
 70
     0
102
RTVSPropertyOp60
 70
     0
102
RTVSPropertyOp61
 70
     0
102
RTVSPropertyOp62
 70
     0
  0
XRECORD
  5
8299
102
{ACAD_REACTORS
330
8298
102
}
330
8298
100
AcDbXrecord
280
     1
102
RTVSPost2010Prop28
280
     0
102
RTVSPost2010PropOp28
 70
     1
102
RTVSPost2010Prop29
280
     1
102
RTVSPost2010PropOp29
 70
     1
102
RTVSPost2010Prop30
280
     1
102
RTVSPost2010PropOp30
 70
     1
102
RTVSPost2010Prop31
280
     0
102
RTVSPost2010PropOp31
 70
     1
102
RTVSPost2010Prop32
280
     0
102
RTVSPost2010PropOp32
 70
     1
102
RTVSPost2010Prop33
280
     0
102
RTVSPost2010PropOp33
 70
     1
102
RTVSPost2010Prop34
280
     0
102
RTVSPost2010PropOp34
 70
     1
102
RTVSPost2010Prop35
280
     0
102
RTVSPost2010PropOp35
 70
     1
102
RTVSPost2010Prop36
280
     0
102
RTVSPost2010PropOp36
 70
     1
102
RTVSPost2010Prop37
 90
       50
102
RTVSPost2010PropOp37
 70
     1
102
RTVSPost2010Prop38
140
0.0
102
RTVSPost2010PropOp38
 70
     1
102
RTVSPost2010Prop39
140
1.0
102
RTVSPost2010PropOp39
 70
     1
102
RTVSPost2010Prop40
 90
        0
102
RTVSPost2010PropOp40
 70
     1
102
RTVSPost2010Prop41ColorIndex
 90
       18
102
RTVSPost2010Prop41ColorRGB
 90
        0
102
RTVSPost2010PropOp41
 70
     1
102
RTVSPost2010Prop42
 90
       50
102
RTVSPost2010PropOp42
 70
     1
102
RTVSPost2010Prop43
 90
        3
102
RTVSPost2010PropOp43
 70
     1
102
RTVSPost2010Prop44ColorIndex
 90
        5
102
RTVSPost2010Prop44ColorRGB
 90
      255
102
RTVSPost2010PropOp44
 70
     1
102
RTVSPost2010Prop45
280
     0
102
RTVSPost2010PropOp45
 70
     1
102
RTVSPost2010Prop46
 90
       50
102
RTVSPost2010PropOp46
 70
     1
102
RTVSPost2010Prop47
 90
       50
102
RTVSPost2010PropOp47
 70
     1
102
RTVSPost2010Prop48
 90
       50
102
RTVSPost2010PropOp48
 70
     1
102
RTVSPost2010Prop49
280
     0
102
RTVSPost2010PropOp49
 70
     1
102
RTVSPost2010Prop50
 90
       50
102
RTVSPost2010PropOp50
 70
     1
102
RTVSPost2010Prop51ColorIndex
 90
      256
102
RTVSPost2010Prop51ColorRGB
 90
-16777216
102
RTVSPost2010PropOp51
 70
     0
102
RTVSPost2010Prop52
140
1.0
102
RTVSPost2010PropOp52
 70
     0
102
RTVSPost2010Prop53
 90
        2
102
RTVSPost2010PropOp53
 70
     1
102
RTVSPost2010Prop54
  1
strokes_ogs.tif
102
RTVSPost2010PropOp54
 70
     1
102
RTVSPost2010Prop55
280
     0
102
RTVSPost2010PropOp55
 70
     1
102
RTVSPost2010Prop56
140
1.0
102
RTVSPost2010PropOp56
 70
     1
102
RTVSPost2010Prop57
140
1.0
102
RTVSPost2010PropOp57
 70
     1
102
RTVSPropertyOp0
 70
     1
102
RTVSPropertyOp1
 70
     1
102
RTVSPropertyOp2
 70
     1
102
RTVSPropertyOp3
 70
     1
102
RTVSPropertyOp4
 70
     1
102
RTVSPropertyOp5
 70
     1
102
RTVSPropertyOp6
 70
     1
102
RTVSPropertyOp7
 70
     1
102
RTVSPropertyOp8
 70
     1
102
RTVSPropertyOp9
 70
     1
102
RTVSPropertyOp10
 70
     1
102
RTVSPropertyOp11
 70
     1
102
RTVSPropertyOp12
 70
     1
102
RTVSPropertyOp13
 70
     1
102
RTVSPropertyOp14
 70
     1
102
RTVSPropertyOp15
 70
     1
102
RTVSPropertyOp16
 70
     1
102
RTVSPropertyOp17
 70
     1
102
RTVSPropertyOp18
 70
     1
102
RTVSPropertyOp19
 70
     1
102
RTVSPropertyOp20
 70
     1
102
RTVSPropertyOp21
 70
     1
102
RTVSPropertyOp22
 70
     1
102
RTVSPropertyOp23
 70
     1
102
RTVSPropertyOp24
 70
     1
102
RTVSPropertyOp25
 70
     1
102
RTVSPropertyOp26
 70
     1
102
RTVSPropertyOp27
 70
     1
102
RTVSPropertyOp28
 70
     1
102
RTVSPropertyOp29
 70
     1
102
RTVSPropertyOp30
 70
     1
102
RTVSPropertyOp31
 70
     1
102
RTVSPropertyOp32
 70
     1
102
RTVSPropertyOp33
 70
     1
102
RTVSPropertyOp34
 70
     1
102
RTVSPropertyOp35
 70
     1
102
RTVSPropertyOp36
 70
     1
102
RTVSPropertyOp37
 70
     1
102
RTVSPropertyOp38
 70
     1
102
RTVSPropertyOp39
 70
     1
102
RTVSPropertyOp40
 70
     1
102
RTVSPropertyOp41
 70
     1
102
RTVSPropertyOp42
 70
     1
102
RTVSPropertyOp43
 70
     1
102
RTVSPropertyOp44
 70
     1
102
RTVSPropertyOp45
 70
     1
102
RTVSPropertyOp46
 70
     1
102
RTVSPropertyOp47
 70
     1
102
RTVSPropertyOp48
 70
     1
102
RTVSPropertyOp49
 70
     1
102
RTVSPropertyOp50
 70
     1
102
RTVSPropertyOp51
 70
     0
102
RTVSPropertyOp52
 70
     0
102
RTVSPropertyOp53
 70
     1
102
RTVSPropertyOp54
 70
     1
102
RTVSPropertyOp55
 70
     1
102
RTVSPropertyOp56
 70
     1
102
RTVSPropertyOp57
 70
     1
102
RTVSPropertyOp58
 70
     1
102
RTVSPropertyOp59
 70
     1
102
RTVSPropertyOp60
 70
     1
102
RTVSPropertyOp61
 70
     1
102
RTVSPropertyOp62
 70
     1
  0
XRECORD
  5
82AB
102
{ACAD_REACTORS
330
82AA
102
}
330
82AA
100
AcDbXrecord
280
     1
102
RTVSPost2010Prop28
280
     0
102
RTVSPost2010PropOp28
 70
     1
102
RTVSPost2010Prop29
280
     1
102
RTVSPost2010PropOp29
 70
     1
102
RTVSPost2010Prop30
280
     1
102
RTVSPost2010PropOp30
 70
     1
102
RTVSPost2010Prop31
280
     0
102
RTVSPost2010PropOp31
 70
     1
102
RTVSPost2010Prop32
280
     0
102
RTVSPost2010PropOp32
 70
     1
102
RTVSPost2010Prop33
280
     0
102
RTVSPost2010PropOp33
 70
     1
102
RTVSPost2010Prop34
280
     0
102
RTVSPost2010PropOp34
 70
     1
102
RTVSPost2010Prop35
280
     0
102
RTVSPost2010PropOp35
 70
     1
102
RTVSPost2010Prop36
280
     0
102
RTVSPost2010PropOp36
 70
     1
102
RTVSPost2010Prop37
 90
       50
102
RTVSPost2010PropOp37
 70
     0
102
RTVSPost2010Prop38
140
0.0
102
RTVSPost2010PropOp38
 70
     0
102
RTVSPost2010Prop39
140
1.0
102
RTVSPost2010PropOp39
 70
     0
102
RTVSPost2010Prop40
 90
        0
102
RTVSPost2010PropOp40
 70
     0
102
RTVSPost2010Prop41ColorIndex
 90
       18
102
RTVSPost2010Prop41ColorRGB
 90
        0
102
RTVSPost2010PropOp41
 70
     0
102
RTVSPost2010Prop42
 90
       50
102
RTVSPost2010PropOp42
 70
     0
102
RTVSPost2010Prop43
 90
        3
102
RTVSPost2010PropOp43
 70
     0
102
RTVSPost2010Prop44ColorIndex
 90
        5
102
RTVSPost2010Prop44ColorRGB
 90
      255
102
RTVSPost2010PropOp44
 70
     0
102
RTVSPost2010Prop45
280
     0
102
RTVSPost2010PropOp45
 70
     1
102
RTVSPost2010Prop46
 90
       50
102
RTVSPost2010PropOp46
 70
     0
102
RTVSPost2010Prop47
 90
       50
102
RTVSPost2010PropOp47
 70
     0
102
RTVSPost2010Prop48
 90
       50
102
RTVSPost2010PropOp48
 70
     0
102
RTVSPost2010Prop49
280
     0
102
RTVSPost2010PropOp49
 70
     1
102
RTVSPost2010Prop50
 90
       50
102
RTVSPost2010PropOp50
 70
     0
102
RTVSPost2010Prop51ColorIndex
 90
      256
102
RTVSPost2010Prop51ColorRGB
 90
-16777216
102
RTVSPost2010PropOp51
 70
     0
102
RTVSPost2010Prop52
140
1.0
102
RTVSPost2010PropOp52
 70
     0
102
RTVSPost2010Prop53
 90
        2
102
RTVSPost2010PropOp53
 70
     0
102
RTVSPost2010Prop54
  1
strokes_ogs.tif
102
RTVSPost2010PropOp54
 70
     0
102
RTVSPost2010Prop55
280
     0
102
RTVSPost2010PropOp55
 70
     1
102
RTVSPost2010Prop56
140
1.0
102
RTVSPost2010PropOp56
 70
     0
102
RTVSPost2010Prop57
140
1.0
102
RTVSPost2010PropOp57
 70
     0
102
RTVSPropertyOp0
 70
     0
102
RTVSPropertyOp1
 70
     0
102
RTVSPropertyOp2
 70
     0
102
RTVSPropertyOp3
 70
     0
102
RTVSPropertyOp4
 70
     0
102
RTVSPropertyOp5
 70
     0
102
RTVSPropertyOp6
 70
     0
102
RTVSPropertyOp7
 70
     0
102
RTVSPropertyOp8
 70
     0
102
RTVSPropertyOp9
 70
     0
102
RTVSPropertyOp10
 70
     0
102
RTVSPropertyOp11
 70
     0
102
RTVSPropertyOp12
 70
     0
102
RTVSPropertyOp13
 70
     0
102
RTVSPropertyOp14
 70
     2
102
RTVSPropertyOp15
 70
     0
102
RTVSPropertyOp16
 70
     0
102
RTVSPropertyOp17
 70
     0
102
RTVSPropertyOp18
 70
     0
102
RTVSPropertyOp19
 70
     0
102
RTVSPropertyOp20
 70
     0
102
RTVSPropertyOp21
 70
     0
102
RTVSPropertyOp22
 70
     0
102
RTVSPropertyOp23
 70
     0
102
RTVSPropertyOp24
 70
     0
102
RTVSPropertyOp25
 70
     0
102
RTVSPropertyOp26
 70
     0
102
RTVSPropertyOp27
 70
     0
102
RTVSPropertyOp28
 70
     1
102
RTVSPropertyOp29
 70
     1
102
RTVSPropertyOp30
 70
     1
102
RTVSPropertyOp31
 70
     1
102
RTVSPropertyOp32
 70
     1
102
RTVSPropertyOp33
 70
     1
102
RTVSPropertyOp34
 70
     1
102
RTVSPropertyOp35
 70
     1
102
RTVSPropertyOp36
 70
     1
102
RTVSPropertyOp37
 70
     0
102
RTVSPropertyOp38
 70
     0
102
RTVSPropertyOp39
 70
     0
102
RTVSPropertyOp40
 70
     0
102
RTVSPropertyOp41
 70
     0
102
RTVSPropertyOp42
 70
     0
102
RTVSPropertyOp43
 70
     0
102
RTVSPropertyOp44
 70
     0
102
RTVSPropertyOp45
 70
     1
102
RTVSPropertyOp46
 70
     0
102
RTVSPropertyOp47
 70
     0
102
RTVSPropertyOp48
 70
     0
102
RTVSPropertyOp49
 70
     1
102
RTVSPropertyOp50
 70
     0
102
RTVSPropertyOp51
 70
     0
102
RTVSPropertyOp52
 70
     0
102
RTVSPropertyOp53
 70
     0
102
RTVSPropertyOp54
 70
     0
102
RTVSPropertyOp55
 70
     1
102
RTVSPropertyOp56
 70
     0
102
RTVSPropertyOp57
 70
     0
102
RTVSPropertyOp58
 70
     0
102
RTVSPropertyOp59
 70
     0
102
RTVSPropertyOp60
 70
     0
102
RTVSPropertyOp61
 70
     0
102
RTVSPropertyOp62
 70
     0
  0
XRECORD
  5
8291
102
{ACAD_REACTORS
330
8290
102
}
330
8290
100
AcDbXrecord
280
     1
102
RTVSPost2010Prop28
280
     0
102
RTVSPost2010PropOp28
 70
     1
102
RTVSPost2010Prop29
280
     1
102
RTVSPost2010PropOp29
 70
     1
102
RTVSPost2010Prop30
280
     1
102
RTVSPost2010PropOp30
 70
     1
102
RTVSPost2010Prop31
280
     0
102
RTVSPost2010PropOp31
 70
     1
102
RTVSPost2010Prop32
280
     0
102
RTVSPost2010PropOp32
 70
     1
102
RTVSPost2010Prop33
280
     0
102
RTVSPost2010PropOp33
 70
     1
102
RTVSPost2010Prop34
280
     0
102
RTVSPost2010PropOp34
 70
     1
102
RTVSPost2010Prop35
280
     0
102
RTVSPost2010PropOp35
 70
     1
102
RTVSPost2010Prop36
280
     0
102
RTVSPost2010PropOp36
 70
     1
102
RTVSPost2010Prop37
 90
       50
102
RTVSPost2010PropOp37
 70
     1
102
RTVSPost2010Prop38
140
0.0
102
RTVSPost2010PropOp38
 70
     1
102
RTVSPost2010Prop39
140
1.0
102
RTVSPost2010PropOp39
 70
     1
102
RTVSPost2010Prop40
 90
        0
102
RTVSPost2010PropOp40
 70
     1
102
RTVSPost2010Prop41ColorIndex
 90
       18
102
RTVSPost2010Prop41ColorRGB
 90
        0
102
RTVSPost2010PropOp41
 70
     1
102
RTVSPost2010Prop42
 90
       50
102
RTVSPost2010PropOp42
 70
     1
102
RTVSPost2010Prop43
 90
        3
102
RTVSPost2010PropOp43
 70
     1
102
RTVSPost2010Prop44ColorIndex
 90
        5
102
RTVSPost2010Prop44ColorRGB
 90
      255
102
RTVSPost2010PropOp44
 70
     1
102
RTVSPost2010Prop45
280
     0
102
RTVSPost2010PropOp45
 70
     1
102
RTVSPost2010Prop46
 90
       50
102
RTVSPost2010PropOp46
 70
     1
102
RTVSPost2010Prop47
 90
       50
102
RTVSPost2010PropOp47
 70
     1
102
RTVSPost2010Prop48
 90
       50
102
RTVSPost2010PropOp48
 70
     1
102
RTVSPost2010Prop49
280
     0
102
RTVSPost2010PropOp49
 70
     1
102
RTVSPost2010Prop50
 90
       50
102
RTVSPost2010PropOp50
 70
     1
102
RTVSPost2010Prop51ColorIndex
 90
      256
102
RTVSPost2010Prop51ColorRGB
 90
-16777216
102
RTVSPost2010PropOp51
 70
     0
102
RTVSPost2010Prop52
140
1.0
102
RTVSPost2010PropOp52
 70
     0
102
RTVSPost2010Prop53
 90
        2
102
RTVSPost2010PropOp53
 70
     1
102
RTVSPost2010Prop54
  1
strokes_ogs.tif
102
RTVSPost2010PropOp54
 70
     1
102
RTVSPost2010Prop55
280
     0
102
RTVSPost2010PropOp55
 70
     1
102
RTVSPost2010Prop56
140
1.0
102
RTVSPost2010PropOp56
 70
     1
102
RTVSPost2010Prop57
140
1.0
102
RTVSPost2010PropOp57
 70
     1
102
RTVSPropertyOp0
 70
     1
102
RTVSPropertyOp1
 70
     1
102
RTVSPropertyOp2
 70
     1
102
RTVSPropertyOp3
 70
     1
102
RTVSPropertyOp4
 70
     1
102
RTVSPropertyOp5
 70
     1
102
RTVSPropertyOp6
 70
     1
102
RTVSPropertyOp7
 70
     1
102
RTVSPropertyOp8
 70
     1
102
RTVSPropertyOp9
 70
     1
102
RTVSPropertyOp10
 70
     1
102
RTVSPropertyOp11
 70
     1
102
RTVSPropertyOp12
 70
     1
102
RTVSPropertyOp13
 70
     1
102
RTVSPropertyOp14
 70
     1
102
RTVSPropertyOp15
 70
     1
102
RTVSPropertyOp16
 70
     1
102
RTVSPropertyOp17
 70
     1
102
RTVSPropertyOp18
 70
     1
102
RTVSPropertyOp19
 70
     1
102
RTVSPropertyOp20
 70
     1
102
RTVSPropertyOp21
 70
     1
102
RTVSPropertyOp22
 70
     1
102
RTVSPropertyOp23
 70
     1
102
RTVSPropertyOp24
 70
     1
102
RTVSPropertyOp25
 70
     1
102
RTVSPropertyOp26
 70
     1
102
RTVSPropertyOp27
 70
     1
102
RTVSPropertyOp28
 70
     1
102
RTVSPropertyOp29
 70
     1
102
RTVSPropertyOp30
 70
     1
102
RTVSPropertyOp31
 70
     1
102
RTVSPropertyOp32
 70
     1
102
RTVSPropertyOp33
 70
     1
102
RTVSPropertyOp34
 70
     1
102
RTVSPropertyOp35
 70
     1
102
RTVSPropertyOp36
 70
     1
102
RTVSPropertyOp37
 70
     1
102
RTVSPropertyOp38
 70
     1
102
RTVSPropertyOp39
 70
     1
102
RTVSPropertyOp40
 70
     1
102
RTVSPropertyOp41
 70
     1
102
RTVSPropertyOp42
 70
     1
102
RTVSPropertyOp43
 70
     1
102
RTVSPropertyOp44
 70
     1
102
RTVSPropertyOp45
 70
     1
102
RTVSPropertyOp46
 70
     1
102
RTVSPropertyOp47
 70
     1
102
RTVSPropertyOp48
 70
     1
102
RTVSPropertyOp49
 70
     1
102
RTVSPropertyOp50
 70
     1
102
RTVSPropertyOp51
 70
     0
102
RTVSPropertyOp52
 70
     0
102
RTVSPropertyOp53
 70
     1
102
RTVSPropertyOp54
 70
     1
102
RTVSPropertyOp55
 70
     1
102
RTVSPropertyOp56
 70
     1
102
RTVSPropertyOp57
 70
     1
102
RTVSPropertyOp58
 70
     1
102
RTVSPropertyOp59
 70
     1
102
RTVSPropertyOp60
 70
     1
102
RTVSPropertyOp61
 70
     1
102
RTVSPropertyOp62
 70
     1
  0
XRECORD
  5
82A7
102
{ACAD_REACTORS
330
82A6
102
}
330
82A6
100
AcDbXrecord
280
     1
102
RTVSPost2010Prop28
280
     0
102
RTVSPost2010PropOp28
 70
     1
102
RTVSPost2010Prop29
280
     1
102
RTVSPost2010PropOp29
 70
     1
102
RTVSPost2010Prop30
280
     1
102
RTVSPost2010PropOp30
 70
     1
102
RTVSPost2010Prop31
280
     0
102
RTVSPost2010PropOp31
 70
     1
102
RTVSPost2010Prop32
280
     0
102
RTVSPost2010PropOp32
 70
     1
102
RTVSPost2010Prop33
280
     0
102
RTVSPost2010PropOp33
 70
     1
102
RTVSPost2010Prop34
280
     0
102
RTVSPost2010PropOp34
 70
     1
102
RTVSPost2010Prop35
280
     0
102
RTVSPost2010PropOp35
 70
     1
102
RTVSPost2010Prop36
280
     0
102
RTVSPost2010PropOp36
 70
     1
102
RTVSPost2010Prop37
 90
       50
102
RTVSPost2010PropOp37
 70
     1
102
RTVSPost2010Prop38
140
0.0
102
RTVSPost2010PropOp38
 70
     1
102
RTVSPost2010Prop39
140
1.0
102
RTVSPost2010PropOp39
 70
     1
102
RTVSPost2010Prop40
 90
        0
102
RTVSPost2010PropOp40
 70
     1
102
RTVSPost2010Prop41ColorIndex
 90
       18
102
RTVSPost2010Prop41ColorRGB
 90
        0
102
RTVSPost2010PropOp41
 70
     1
102
RTVSPost2010Prop42
 90
       50
102
RTVSPost2010PropOp42
 70
     1
102
RTVSPost2010Prop43
 90
        3
102
RTVSPost2010PropOp43
 70
     1
102
RTVSPost2010Prop44ColorIndex
 90
        5
102
RTVSPost2010Prop44ColorRGB
 90
      255
102
RTVSPost2010PropOp44
 70
     1
102
RTVSPost2010Prop45
280
     0
102
RTVSPost2010PropOp45
 70
     1
102
RTVSPost2010Prop46
 90
       50
102
RTVSPost2010PropOp46
 70
     1
102
RTVSPost2010Prop47
 90
       50
102
RTVSPost2010PropOp47
 70
     1
102
RTVSPost2010Prop48
 90
       50
102
RTVSPost2010PropOp48
 70
     1
102
RTVSPost2010Prop49
280
     0
102
RTVSPost2010PropOp49
 70
     1
102
RTVSPost2010Prop50
 90
       50
102
RTVSPost2010PropOp50
 70
     1
102
RTVSPost2010Prop51ColorIndex
 90
      256
102
RTVSPost2010Prop51ColorRGB
 90
-16777216
102
RTVSPost2010PropOp51
 70
     0
102
RTVSPost2010Prop52
140
1.0
102
RTVSPost2010PropOp52
 70
     0
102
RTVSPost2010Prop53
 90
        2
102
RTVSPost2010PropOp53
 70
     1
102
RTVSPost2010Prop54
  1
strokes_ogs.tif
102
RTVSPost2010PropOp54
 70
     1
102
RTVSPost2010Prop55
280
     0
102
RTVSPost2010PropOp55
 70
     1
102
RTVSPost2010Prop56
140
1.0
102
RTVSPost2010PropOp56
 70
     1
102
RTVSPost2010Prop57
140
1.0
102
RTVSPost2010PropOp57
 70
     1
102
RTVSPropertyOp0
 70
     1
102
RTVSPropertyOp1
 70
     1
102
RTVSPropertyOp2
 70
     1
102
RTVSPropertyOp3
 70
     1
102
RTVSPropertyOp4
 70
     1
102
RTVSPropertyOp5
 70
     1
102
RTVSPropertyOp6
 70
     1
102
RTVSPropertyOp7
 70
     1
102
RTVSPropertyOp8
 70
     1
102
RTVSPropertyOp9
 70
     1
102
RTVSPropertyOp10
 70
     1
102
RTVSPropertyOp11
 70
     1
102
RTVSPropertyOp12
 70
     1
102
RTVSPropertyOp13
 70
     1
102
RTVSPropertyOp14
 70
     1
102
RTVSPropertyOp15
 70
     1
102
RTVSPropertyOp16
 70
     1
102
RTVSPropertyOp17
 70
     1
102
RTVSPropertyOp18
 70
     1
102
RTVSPropertyOp19
 70
     1
102
RTVSPropertyOp20
 70
     1
102
RTVSPropertyOp21
 70
     1
102
RTVSPropertyOp22
 70
     1
102
RTVSPropertyOp23
 70
     1
102
RTVSPropertyOp24
 70
     1
102
RTVSPropertyOp25
 70
     1
102
RTVSPropertyOp26
 70
     1
102
RTVSPropertyOp27
 70
     1
102
RTVSPropertyOp28
 70
     1
102
RTVSPropertyOp29
 70
     1
102
RTVSPropertyOp30
 70
     1
102
RTVSPropertyOp31
 70
     1
102
RTVSPropertyOp32
 70
     1
102
RTVSPropertyOp33
 70
     1
102
RTVSPropertyOp34
 70
     1
102
RTVSPropertyOp35
 70
     1
102
RTVSPropertyOp36
 70
     1
102
RTVSPropertyOp37
 70
     1
102
RTVSPropertyOp38
 70
     1
102
RTVSPropertyOp39
 70
     1
102
RTVSPropertyOp40
 70
     1
102
RTVSPropertyOp41
 70
     1
102
RTVSPropertyOp42
 70
     1
102
RTVSPropertyOp43
 70
     1
102
RTVSPropertyOp44
 70
     1
102
RTVSPropertyOp45
 70
     1
102
RTVSPropertyOp46
 70
     1
102
RTVSPropertyOp47
 70
     1
102
RTVSPropertyOp48
 70
     1
102
RTVSPropertyOp49
 70
     1
102
RTVSPropertyOp50
 70
     1
102
RTVSPropertyOp51
 70
     0
102
RTVSPropertyOp52
 70
     0
102
RTVSPropertyOp53
 70
     1
102
RTVSPropertyOp54
 70
     1
102
RTVSPropertyOp55
 70
     1
102
RTVSPropertyOp56
 70
     1
102
RTVSPropertyOp57
 70
     1
102
RTVSPropertyOp58
 70
     1
102
RTVSPropertyOp59
 70
     1
102
RTVSPropertyOp60
 70
     1
102
RTVSPropertyOp61
 70
     1
102
RTVSPropertyOp62
 70
     1
  0
XRECORD
  5
82A5
102
{ACAD_REACTORS
330
82A4
102
}
330
82A4
100
AcDbXrecord
280
     1
102
RTVSPost2010Prop28
280
     0
102
RTVSPost2010PropOp28
 70
     1
102
RTVSPost2010Prop29
280
     1
102
RTVSPost2010PropOp29
 70
     1
102
RTVSPost2010Prop30
280
     1
102
RTVSPost2010PropOp30
 70
     1
102
RTVSPost2010Prop31
280
     0
102
RTVSPost2010PropOp31
 70
     1
102
RTVSPost2010Prop32
280
     0
102
RTVSPost2010PropOp32
 70
     1
102
RTVSPost2010Prop33
280
     0
102
RTVSPost2010PropOp33
 70
     1
102
RTVSPost2010Prop34
280
     0
102
RTVSPost2010PropOp34
 70
     1
102
RTVSPost2010Prop35
280
     0
102
RTVSPost2010PropOp35
 70
     1
102
RTVSPost2010Prop36
280
     0
102
RTVSPost2010PropOp36
 70
     1
102
RTVSPost2010Prop37
 90
       50
102
RTVSPost2010PropOp37
 70
     1
102
RTVSPost2010Prop38
140
0.0
102
RTVSPost2010PropOp38
 70
     1
102
RTVSPost2010Prop39
140
1.0
102
RTVSPost2010PropOp39
 70
     1
102
RTVSPost2010Prop40
 90
        0
102
RTVSPost2010PropOp40
 70
     1
102
RTVSPost2010Prop41ColorIndex
 90
       18
102
RTVSPost2010Prop41ColorRGB
 90
        0
102
RTVSPost2010PropOp41
 70
     1
102
RTVSPost2010Prop42
 90
       50
102
RTVSPost2010PropOp42
 70
     1
102
RTVSPost2010Prop43
 90
        3
102
RTVSPost2010PropOp43
 70
     1
102
RTVSPost2010Prop44ColorIndex
 90
        5
102
RTVSPost2010Prop44ColorRGB
 90
      255
102
RTVSPost2010PropOp44
 70
     1
102
RTVSPost2010Prop45
280
     0
102
RTVSPost2010PropOp45
 70
     1
102
RTVSPost2010Prop46
 90
       50
102
RTVSPost2010PropOp46
 70
     1
102
RTVSPost2010Prop47
 90
       50
102
RTVSPost2010PropOp47
 70
     1
102
RTVSPost2010Prop48
 90
       50
102
RTVSPost2010PropOp48
 70
     1
102
RTVSPost2010Prop49
280
     0
102
RTVSPost2010PropOp49
 70
     1
102
RTVSPost2010Prop50
 90
       50
102
RTVSPost2010PropOp50
 70
     1
102
RTVSPost2010Prop51ColorIndex
 90
      256
102
RTVSPost2010Prop51ColorRGB
 90
-16777216
102
RTVSPost2010PropOp51
 70
     0
102
RTVSPost2010Prop52
140
1.0
102
RTVSPost2010PropOp52
 70
     0
102
RTVSPost2010Prop53
 90
        2
102
RTVSPost2010PropOp53
 70
     1
102
RTVSPost2010Prop54
  1
strokes_ogs.tif
102
RTVSPost2010PropOp54
 70
     1
102
RTVSPost2010Prop55
280
     0
102
RTVSPost2010PropOp55
 70
     1
102
RTVSPost2010Prop56
140
1.0
102
RTVSPost2010PropOp56
 70
     1
102
RTVSPost2010Prop57
140
1.0
102
RTVSPost2010PropOp57
 70
     1
102
RTVSPropertyOp0
 70
     1
102
RTVSPropertyOp1
 70
     1
102
RTVSPropertyOp2
 70
     1
102
RTVSPropertyOp3
 70
     1
102
RTVSPropertyOp4
 70
     1
102
RTVSPropertyOp5
 70
     1
102
RTVSPropertyOp6
 70
     1
102
RTVSPropertyOp7
 70
     1
102
RTVSPropertyOp8
 70
     1
102
RTVSPropertyOp9
 70
     1
102
RTVSPropertyOp10
 70
     1
102
RTVSPropertyOp11
 70
     1
102
RTVSPropertyOp12
 70
     1
102
RTVSPropertyOp13
 70
     1
102
RTVSPropertyOp14
 70
     1
102
RTVSPropertyOp15
 70
     1
102
RTVSPropertyOp16
 70
     1
102
RTVSPropertyOp17
 70
     1
102
RTVSPropertyOp18
 70
     1
102
RTVSPropertyOp19
 70
     1
102
RTVSPropertyOp20
 70
     1
102
RTVSPropertyOp21
 70
     1
102
RTVSPropertyOp22
 70
     1
102
RTVSPropertyOp23
 70
     1
102
RTVSPropertyOp24
 70
     1
102
RTVSPropertyOp25
 70
     1
102
RTVSPropertyOp26
 70
     1
102
RTVSPropertyOp27
 70
     1
102
RTVSPropertyOp28
 70
     1
102
RTVSPropertyOp29
 70
     1
102
RTVSPropertyOp30
 70
     1
102
RTVSPropertyOp31
 70
     1
102
RTVSPropertyOp32
 70
     1
102
RTVSPropertyOp33
 70
     1
102
RTVSPropertyOp34
 70
     1
102
RTVSPropertyOp35
 70
     1
102
RTVSPropertyOp36
 70
     1
102
RTVSPropertyOp37
 70
     1
102
RTVSPropertyOp38
 70
     1
102
RTVSPropertyOp39
 70
     1
102
RTVSPropertyOp40
 70
     1
102
RTVSPropertyOp41
 70
     1
102
RTVSPropertyOp42
 70
     1
102
RTVSPropertyOp43
 70
     1
102
RTVSPropertyOp44
 70
     1
102
RTVSPropertyOp45
 70
     1
102
RTVSPropertyOp46
 70
     1
102
RTVSPropertyOp47
 70
     1
102
RTVSPropertyOp48
 70
     1
102
RTVSPropertyOp49
 70
     1
102
RTVSPropertyOp50
 70
     1
102
RTVSPropertyOp51
 70
     0
102
RTVSPropertyOp52
 70
     0
102
RTVSPropertyOp53
 70
     1
102
RTVSPropertyOp54
 70
     1
102
RTVSPropertyOp55
 70
     1
102
RTVSPropertyOp56
 70
     1
102
RTVSPropertyOp57
 70
     1
102
RTVSPropertyOp58
 70
     1
102
RTVSPropertyOp59
 70
     1
102
RTVSPropertyOp60
 70
     1
102
RTVSPropertyOp61
 70
     1
102
RTVSPropertyOp62
 70
     1
  0
XRECORD
  5
829F
102
{ACAD_REACTORS
330
829E
102
}
330
829E
100
AcDbXrecord
280
     1
102
RTVSPost2010Prop28
280
     0
102
RTVSPost2010PropOp28
 70
     1
102
RTVSPost2010Prop29
280
     1
102
RTVSPost2010PropOp29
 70
     1
102
RTVSPost2010Prop30
280
     1
102
RTVSPost2010PropOp30
 70
     1
102
RTVSPost2010Prop31
280
     0
102
RTVSPost2010PropOp31
 70
     1
102
RTVSPost2010Prop32
280
     0
102
RTVSPost2010PropOp32
 70
     1
102
RTVSPost2010Prop33
280
     0
102
RTVSPost2010PropOp33
 70
     1
102
RTVSPost2010Prop34
280
     0
102
RTVSPost2010PropOp34
 70
     1
102
RTVSPost2010Prop35
280
     0
102
RTVSPost2010PropOp35
 70
     1
102
RTVSPost2010Prop36
280
     0
102
RTVSPost2010PropOp36
 70
     1
102
RTVSPost2010Prop37
 90
       50
102
RTVSPost2010PropOp37
 70
     1
102
RTVSPost2010Prop38
140
0.0
102
RTVSPost2010PropOp38
 70
     1
102
RTVSPost2010Prop39
140
1.0
102
RTVSPost2010PropOp39
 70
     1
102
RTVSPost2010Prop40
 90
        0
102
RTVSPost2010PropOp40
 70
     1
102
RTVSPost2010Prop41ColorIndex
 90
       18
102
RTVSPost2010Prop41ColorRGB
 90
        0
102
RTVSPost2010PropOp41
 70
     1
102
RTVSPost2010Prop42
 90
       50
102
RTVSPost2010PropOp42
 70
     1
102
RTVSPost2010Prop43
 90
        3
102
RTVSPost2010PropOp43
 70
     1
102
RTVSPost2010Prop44ColorIndex
 90
        5
102
RTVSPost2010Prop44ColorRGB
 90
      255
102
RTVSPost2010PropOp44
 70
     1
102
RTVSPost2010Prop45
280
     0
102
RTVSPost2010PropOp45
 70
     1
102
RTVSPost2010Prop46
 90
       50
102
RTVSPost2010PropOp46
 70
     1
102
RTVSPost2010Prop47
 90
       50
102
RTVSPost2010PropOp47
 70
     1
102
RTVSPost2010Prop48
 90
       50
102
RTVSPost2010PropOp48
 70
     1
102
RTVSPost2010Prop49
280
     0
102
RTVSPost2010PropOp49
 70
     1
102
RTVSPost2010Prop50
 90
       50
102
RTVSPost2010PropOp50
 70
     1
102
RTVSPost2010Prop51ColorIndex
 90
      256
102
RTVSPost2010Prop51ColorRGB
 90
-16777216
102
RTVSPost2010PropOp51
 70
     0
102
RTVSPost2010Prop52
140
1.0
102
RTVSPost2010PropOp52
 70
     0
102
RTVSPost2010Prop53
 90
        2
102
RTVSPost2010PropOp53
 70
     1
102
RTVSPost2010Prop54
  1
strokes_ogs.tif
102
RTVSPost2010PropOp54
 70
     1
102
RTVSPost2010Prop55
280
     0
102
RTVSPost2010PropOp55
 70
     1
102
RTVSPost2010Prop56
140
1.0
102
RTVSPost2010PropOp56
 70
     1
102
RTVSPost2010Prop57
140
1.0
102
RTVSPost2010PropOp57
 70
     1
102
RTVSPropertyOp0
 70
     1
102
RTVSPropertyOp1
 70
     1
102
RTVSPropertyOp2
 70
     1
102
RTVSPropertyOp3
 70
     1
102
RTVSPropertyOp4
 70
     1
102
RTVSPropertyOp5
 70
     1
102
RTVSPropertyOp6
 70
     1
102
RTVSPropertyOp7
 70
     1
102
RTVSPropertyOp8
 70
     1
102
RTVSPropertyOp9
 70
     1
102
RTVSPropertyOp10
 70
     1
102
RTVSPropertyOp11
 70
     1
102
RTVSPropertyOp12
 70
     1
102
RTVSPropertyOp13
 70
     1
102
RTVSPropertyOp14
 70
     1
102
RTVSPropertyOp15
 70
     1
102
RTVSPropertyOp16
 70
     1
102
RTVSPropertyOp17
 70
     1
102
RTVSPropertyOp18
 70
     1
102
RTVSPropertyOp19
 70
     1
102
RTVSPropertyOp20
 70
     1
102
RTVSPropertyOp21
 70
     1
102
RTVSPropertyOp22
 70
     1
102
RTVSPropertyOp23
 70
     1
102
RTVSPropertyOp24
 70
     1
102
RTVSPropertyOp25
 70
     1
102
RTVSPropertyOp26
 70
     1
102
RTVSPropertyOp27
 70
     1
102
RTVSPropertyOp28
 70
     1
102
RTVSPropertyOp29
 70
     1
102
RTVSPropertyOp30
 70
     1
102
RTVSPropertyOp31
 70
     1
102
RTVSPropertyOp32
 70
     1
102
RTVSPropertyOp33
 70
     1
102
RTVSPropertyOp34
 70
     1
102
RTVSPropertyOp35
 70
     1
102
RTVSPropertyOp36
 70
     1
102
RTVSPropertyOp37
 70
     1
102
RTVSPropertyOp38
 70
     1
102
RTVSPropertyOp39
 70
     1
102
RTVSPropertyOp40
 70
     1
102
RTVSPropertyOp41
 70
     1
102
RTVSPropertyOp42
 70
     1
102
RTVSPropertyOp43
 70
     1
102
RTVSPropertyOp44
 70
     1
102
RTVSPropertyOp45
 70
     1
102
RTVSPropertyOp46
 70
     1
102
RTVSPropertyOp47
 70
     1
102
RTVSPropertyOp48
 70
     1
102
RTVSPropertyOp49
 70
     1
102
RTVSPropertyOp50
 70
     1
102
RTVSPropertyOp51
 70
     0
102
RTVSPropertyOp52
 70
     0
102
RTVSPropertyOp53
 70
     1
102
RTVSPropertyOp54
 70
     1
102
RTVSPropertyOp55
 70
     1
102
RTVSPropertyOp56
 70
     1
102
RTVSPropertyOp57
 70
     1
102
RTVSPropertyOp58
 70
     1
102
RTVSPropertyOp59
 70
     1
102
RTVSPropertyOp60
 70
     1
102
RTVSPropertyOp61
 70
     1
102
RTVSPropertyOp62
 70
     1
  0
XRECORD
  5
82A1
102
{ACAD_REACTORS
330
82A0
102
}
330
82A0
100
AcDbXrecord
280
     1
102
RTVSPost2010Prop28
280
     0
102
RTVSPost2010PropOp28
 70
     1
102
RTVSPost2010Prop29
280
     1
102
RTVSPost2010PropOp29
 70
     1
102
RTVSPost2010Prop30
280
     1
102
RTVSPost2010PropOp30
 70
     1
102
RTVSPost2010Prop31
280
     0
102
RTVSPost2010PropOp31
 70
     1
102
RTVSPost2010Prop32
280
     0
102
RTVSPost2010PropOp32
 70
     1
102
RTVSPost2010Prop33
280
     0
102
RTVSPost2010PropOp33
 70
     1
102
RTVSPost2010Prop34
280
     0
102
RTVSPost2010PropOp34
 70
     1
102
RTVSPost2010Prop35
280
     0
102
RTVSPost2010PropOp35
 70
     1
102
RTVSPost2010Prop36
280
     0
102
RTVSPost2010PropOp36
 70
     1
102
RTVSPost2010Prop37
 90
       50
102
RTVSPost2010PropOp37
 70
     1
102
RTVSPost2010Prop38
140
0.0
102
RTVSPost2010PropOp38
 70
     1
102
RTVSPost2010Prop39
140
1.0
102
RTVSPost2010PropOp39
 70
     1
102
RTVSPost2010Prop40
 90
        0
102
RTVSPost2010PropOp40
 70
     1
102
RTVSPost2010Prop41ColorIndex
 90
       18
102
RTVSPost2010Prop41ColorRGB
 90
        0
102
RTVSPost2010PropOp41
 70
     1
102
RTVSPost2010Prop42
 90
       50
102
RTVSPost2010PropOp42
 70
     1
102
RTVSPost2010Prop43
 90
        3
102
RTVSPost2010PropOp43
 70
     1
102
RTVSPost2010Prop44ColorIndex
 90
        5
102
RTVSPost2010Prop44ColorRGB
 90
      255
102
RTVSPost2010PropOp44
 70
     1
102
RTVSPost2010Prop45
280
     0
102
RTVSPost2010PropOp45
 70
     1
102
RTVSPost2010Prop46
 90
       50
102
RTVSPost2010PropOp46
 70
     1
102
RTVSPost2010Prop47
 90
       50
102
RTVSPost2010PropOp47
 70
     1
102
RTVSPost2010Prop48
 90
       50
102
RTVSPost2010PropOp48
 70
     1
102
RTVSPost2010Prop49
280
     0
102
RTVSPost2010PropOp49
 70
     1
102
RTVSPost2010Prop50
 90
       50
102
RTVSPost2010PropOp50
 70
     1
102
RTVSPost2010Prop51ColorIndex
 90
      256
102
RTVSPost2010Prop51ColorRGB
 90
-16777216
102
RTVSPost2010PropOp51
 70
     0
102
RTVSPost2010Prop52
140
1.0
102
RTVSPost2010PropOp52
 70
     0
102
RTVSPost2010Prop53
 90
        2
102
RTVSPost2010PropOp53
 70
     1
102
RTVSPost2010Prop54
  1
strokes_ogs.tif
102
RTVSPost2010PropOp54
 70
     1
102
RTVSPost2010Prop55
280
     0
102
RTVSPost2010PropOp55
 70
     1
102
RTVSPost2010Prop56
140
1.0
102
RTVSPost2010PropOp56
 70
     1
102
RTVSPost2010Prop57
140
1.0
102
RTVSPost2010PropOp57
 70
     1
102
RTVSPropertyOp0
 70
     1
102
RTVSPropertyOp1
 70
     1
102
RTVSPropertyOp2
 70
     1
102
RTVSPropertyOp3
 70
     1
102
RTVSPropertyOp4
 70
     1
102
RTVSPropertyOp5
 70
     1
102
RTVSPropertyOp6
 70
     1
102
RTVSPropertyOp7
 70
     1
102
RTVSPropertyOp8
 70
     1
102
RTVSPropertyOp9
 70
     1
102
RTVSPropertyOp10
 70
     1
102
RTVSPropertyOp11
 70
     1
102
RTVSPropertyOp12
 70
     1
102
RTVSPropertyOp13
 70
     1
102
RTVSPropertyOp14
 70
     1
102
RTVSPropertyOp15
 70
     1
102
RTVSPropertyOp16
 70
     1
102
RTVSPropertyOp17
 70
     1
102
RTVSPropertyOp18
 70
     1
102
RTVSPropertyOp19
 70
     1
102
RTVSPropertyOp20
 70
     1
102
RTVSPropertyOp21
 70
     1
102
RTVSPropertyOp22
 70
     1
102
RTVSPropertyOp23
 70
     1
102
RTVSPropertyOp24
 70
     1
102
RTVSPropertyOp25
 70
     1
102
RTVSPropertyOp26
 70
     1
102
RTVSPropertyOp27
 70
     1
102
RTVSPropertyOp28
 70
     1
102
RTVSPropertyOp29
 70
     1
102
RTVSPropertyOp30
 70
     1
102
RTVSPropertyOp31
 70
     1
102
RTVSPropertyOp32
 70
     1
102
RTVSPropertyOp33
 70
     1
102
RTVSPropertyOp34
 70
     1
102
RTVSPropertyOp35
 70
     1
102
RTVSPropertyOp36
 70
     1
102
RTVSPropertyOp37
 70
     1
102
RTVSPropertyOp38
 70
     1
102
RTVSPropertyOp39
 70
     1
102
RTVSPropertyOp40
 70
     1
102
RTVSPropertyOp41
 70
     1
102
RTVSPropertyOp42
 70
     1
102
RTVSPropertyOp43
 70
     1
102
RTVSPropertyOp44
 70
     1
102
RTVSPropertyOp45
 70
     1
102
RTVSPropertyOp46
 70
     1
102
RTVSPropertyOp47
 70
     1
102
RTVSPropertyOp48
 70
     1
102
RTVSPropertyOp49
 70
     1
102
RTVSPropertyOp50
 70
     1
102
RTVSPropertyOp51
 70
     0
102
RTVSPropertyOp52
 70
     0
102
RTVSPropertyOp53
 70
     1
102
RTVSPropertyOp54
 70
     1
102
RTVSPropertyOp55
 70
     1
102
RTVSPropertyOp56
 70
     1
102
RTVSPropertyOp57
 70
     1
102
RTVSPropertyOp58
 70
     1
102
RTVSPropertyOp59
 70
     1
102
RTVSPropertyOp60
 70
     1
102
RTVSPropertyOp61
 70
     1
102
RTVSPropertyOp62
 70
     1
  0
XRECORD
  5
8297
102
{ACAD_REACTORS
330
8296
102
}
330
8296
100
AcDbXrecord
280
     1
102
RTVSPost2010Prop28
280
     0
102
RTVSPost2010PropOp28
 70
     1
102
RTVSPost2010Prop29
280
     1
102
RTVSPost2010PropOp29
 70
     1
102
RTVSPost2010Prop30
280
     1
102
RTVSPost2010PropOp30
 70
     1
102
RTVSPost2010Prop31
280
     0
102
RTVSPost2010PropOp31
 70
     1
102
RTVSPost2010Prop32
280
     0
102
RTVSPost2010PropOp32
 70
     1
102
RTVSPost2010Prop33
280
     0
102
RTVSPost2010PropOp33
 70
     1
102
RTVSPost2010Prop34
280
     0
102
RTVSPost2010PropOp34
 70
     1
102
RTVSPost2010Prop35
280
     0
102
RTVSPost2010PropOp35
 70
     1
102
RTVSPost2010Prop36
280
     0
102
RTVSPost2010PropOp36
 70
     1
102
RTVSPost2010Prop37
 90
       50
102
RTVSPost2010PropOp37
 70
     1
102
RTVSPost2010Prop38
140
0.0
102
RTVSPost2010PropOp38
 70
     1
102
RTVSPost2010Prop39
140
1.0
102
RTVSPost2010PropOp39
 70
     1
102
RTVSPost2010Prop40
 90
        0
102
RTVSPost2010PropOp40
 70
     1
102
RTVSPost2010Prop41ColorIndex
 90
       18
102
RTVSPost2010Prop41ColorRGB
 90
        0
102
RTVSPost2010PropOp41
 70
     1
102
RTVSPost2010Prop42
 90
       50
102
RTVSPost2010PropOp42
 70
     1
102
RTVSPost2010Prop43
 90
        3
102
RTVSPost2010PropOp43
 70
     1
102
RTVSPost2010Prop44ColorIndex
 90
        5
102
RTVSPost2010Prop44ColorRGB
 90
      255
102
RTVSPost2010PropOp44
 70
     1
102
RTVSPost2010Prop45
280
     0
102
RTVSPost2010PropOp45
 70
     1
102
RTVSPost2010Prop46
 90
       50
102
RTVSPost2010PropOp46
 70
     1
102
RTVSPost2010Prop47
 90
       50
102
RTVSPost2010PropOp47
 70
     1
102
RTVSPost2010Prop48
 90
       50
102
RTVSPost2010PropOp48
 70
     1
102
RTVSPost2010Prop49
280
     0
102
RTVSPost2010PropOp49
 70
     1
102
RTVSPost2010Prop50
 90
       50
102
RTVSPost2010PropOp50
 70
     1
102
RTVSPost2010Prop51ColorIndex
 90
      256
102
RTVSPost2010Prop51ColorRGB
 90
-16777216
102
RTVSPost2010PropOp51
 70
     0
102
RTVSPost2010Prop52
140
1.0
102
RTVSPost2010PropOp52
 70
     0
102
RTVSPost2010Prop53
 90
        2
102
RTVSPost2010PropOp53
 70
     1
102
RTVSPost2010Prop54
  1
strokes_ogs.tif
102
RTVSPost2010PropOp54
 70
     1
102
RTVSPost2010Prop55
280
     0
102
RTVSPost2010PropOp55
 70
     1
102
RTVSPost2010Prop56
140
1.0
102
RTVSPost2010PropOp56
 70
     1
102
RTVSPost2010Prop57
140
1.0
102
RTVSPost2010PropOp57
 70
     1
102
RTVSPropertyOp0
 70
     1
102
RTVSPropertyOp1
 70
     1
102
RTVSPropertyOp2
 70
     1
102
RTVSPropertyOp3
 70
     1
102
RTVSPropertyOp4
 70
     1
102
RTVSPropertyOp5
 70
     1
102
RTVSPropertyOp6
 70
     1
102
RTVSPropertyOp7
 70
     1
102
RTVSPropertyOp8
 70
     1
102
RTVSPropertyOp9
 70
     1
102
RTVSPropertyOp10
 70
     1
102
RTVSPropertyOp11
 70
     1
102
RTVSPropertyOp12
 70
     1
102
RTVSPropertyOp13
 70
     1
102
RTVSPropertyOp14
 70
     1
102
RTVSPropertyOp15
 70
     1
102
RTVSPropertyOp16
 70
     1
102
RTVSPropertyOp17
 70
     1
102
RTVSPropertyOp18
 70
     1
102
RTVSPropertyOp19
 70
     1
102
RTVSPropertyOp20
 70
     1
102
RTVSPropertyOp21
 70
     1
102
RTVSPropertyOp22
 70
     1
102
RTVSPropertyOp23
 70
     1
102
RTVSPropertyOp24
 70
     1
102
RTVSPropertyOp25
 70
     1
102
RTVSPropertyOp26
 70
     1
102
RTVSPropertyOp27
 70
     1
102
RTVSPropertyOp28
 70
     1
102
RTVSPropertyOp29
 70
     1
102
RTVSPropertyOp30
 70
     1
102
RTVSPropertyOp31
 70
     1
102
RTVSPropertyOp32
 70
     1
102
RTVSPropertyOp33
 70
     1
102
RTVSPropertyOp34
 70
     1
102
RTVSPropertyOp35
 70
     1
102
RTVSPropertyOp36
 70
     1
102
RTVSPropertyOp37
 70
     1
102
RTVSPropertyOp38
 70
     1
102
RTVSPropertyOp39
 70
     1
102
RTVSPropertyOp40
 70
     1
102
RTVSPropertyOp41
 70
     1
102
RTVSPropertyOp42
 70
     1
102
RTVSPropertyOp43
 70
     1
102
RTVSPropertyOp44
 70
     1
102
RTVSPropertyOp45
 70
     1
102
RTVSPropertyOp46
 70
     1
102
RTVSPropertyOp47
 70
     1
102
RTVSPropertyOp48
 70
     1
102
RTVSPropertyOp49
 70
     1
102
RTVSPropertyOp50
 70
     1
102
RTVSPropertyOp51
 70
     0
102
RTVSPropertyOp52
 70
     0
102
RTVSPropertyOp53
 70
     1
102
RTVSPropertyOp54
 70
     1
102
RTVSPropertyOp55
 70
     1
102
RTVSPropertyOp56
 70
     1
102
RTVSPropertyOp57
 70
     1
102
RTVSPropertyOp58
 70
     1
102
RTVSPropertyOp59
 70
     1
102
RTVSPropertyOp60
 70
     1
102
RTVSPropertyOp61
 70
     1
102
RTVSPropertyOp62
 70
     1
  0
XRECORD
  5
828B
102
{ACAD_REACTORS
330
828A
102
}
330
828A
100
AcDbXrecord
280
     1
102
RTVSPost2010Prop28
280
     0
102
RTVSPost2010PropOp28
 70
     1
102
RTVSPost2010Prop29
280
     1
102
RTVSPost2010PropOp29
 70
     1
102
RTVSPost2010Prop30
280
     1
102
RTVSPost2010PropOp30
 70
     1
102
RTVSPost2010Prop31
280
     0
102
RTVSPost2010PropOp31
 70
     1
102
RTVSPost2010Prop32
280
     0
102
RTVSPost2010PropOp32
 70
     1
102
RTVSPost2010Prop33
280
     0
102
RTVSPost2010PropOp33
 70
     1
102
RTVSPost2010Prop34
280
     0
102
RTVSPost2010PropOp34
 70
     1
102
RTVSPost2010Prop35
280
     0
102
RTVSPost2010PropOp35
 70
     1
102
RTVSPost2010Prop36
280
     0
102
RTVSPost2010PropOp36
 70
     1
102
RTVSPost2010Prop37
 90
       50
102
RTVSPost2010PropOp37
 70
     1
102
RTVSPost2010Prop38
140
0.0
102
RTVSPost2010PropOp38
 70
     1
102
RTVSPost2010Prop39
140
1.0
102
RTVSPost2010PropOp39
 70
     1
102
RTVSPost2010Prop40
 90
        0
102
RTVSPost2010PropOp40
 70
     1
102
RTVSPost2010Prop41ColorIndex
 90
       18
102
RTVSPost2010Prop41ColorRGB
 90
        0
102
RTVSPost2010PropOp41
 70
     1
102
RTVSPost2010Prop42
 90
       50
102
RTVSPost2010PropOp42
 70
     1
102
RTVSPost2010Prop43
 90
        3
102
RTVSPost2010PropOp43
 70
     1
102
RTVSPost2010Prop44ColorIndex
 90
        5
102
RTVSPost2010Prop44ColorRGB
 90
      255
102
RTVSPost2010PropOp44
 70
     1
102
RTVSPost2010Prop45
280
     0
102
RTVSPost2010PropOp45
 70
     1
102
RTVSPost2010Prop46
 90
       50
102
RTVSPost2010PropOp46
 70
     1
102
RTVSPost2010Prop47
 90
       50
102
RTVSPost2010PropOp47
 70
     1
102
RTVSPost2010Prop48
 90
       50
102
RTVSPost2010PropOp48
 70
     1
102
RTVSPost2010Prop49
280
     0
102
RTVSPost2010PropOp49
 70
     1
102
RTVSPost2010Prop50
 90
       50
102
RTVSPost2010PropOp50
 70
     1
102
RTVSPost2010Prop51ColorIndex
 90
      256
102
RTVSPost2010Prop51ColorRGB
 90
-16777216
102
RTVSPost2010PropOp51
 70
     0
102
RTVSPost2010Prop52
140
1.0
102
RTVSPost2010PropOp52
 70
     0
102
RTVSPost2010Prop53
 90
        2
102
RTVSPost2010PropOp53
 70
     1
102
RTVSPost2010Prop54
  1
strokes_ogs.tif
102
RTVSPost2010PropOp54
 70
     1
102
RTVSPost2010Prop55
280
     0
102
RTVSPost2010PropOp55
 70
     1
102
RTVSPost2010Prop56
140
1.0
102
RTVSPost2010PropOp56
 70
     1
102
RTVSPost2010Prop57
140
1.0
102
RTVSPost2010PropOp57
 70
     1
102
RTVSPropertyOp0
 70
     1
102
RTVSPropertyOp1
 70
     1
102
RTVSPropertyOp2
 70
     1
102
RTVSPropertyOp3
 70
     1
102
RTVSPropertyOp4
 70
     1
102
RTVSPropertyOp5
 70
     1
102
RTVSPropertyOp6
 70
     1
102
RTVSPropertyOp7
 70
     1
102
RTVSPropertyOp8
 70
     1
102
RTVSPropertyOp9
 70
     1
102
RTVSPropertyOp10
 70
     1
102
RTVSPropertyOp11
 70
     1
102
RTVSPropertyOp12
 70
     1
102
RTVSPropertyOp13
 70
     1
102
RTVSPropertyOp14
 70
     1
102
RTVSPropertyOp15
 70
     1
102
RTVSPropertyOp16
 70
     1
102
RTVSPropertyOp17
 70
     1
102
RTVSPropertyOp18
 70
     1
102
RTVSPropertyOp19
 70
     1
102
RTVSPropertyOp20
 70
     1
102
RTVSPropertyOp21
 70
     1
102
RTVSPropertyOp22
 70
     1
102
RTVSPropertyOp23
 70
     1
102
RTVSPropertyOp24
 70
     1
102
RTVSPropertyOp25
 70
     1
102
RTVSPropertyOp26
 70
     1
102
RTVSPropertyOp27
 70
     1
102
RTVSPropertyOp28
 70
     1
102
RTVSPropertyOp29
 70
     1
102
RTVSPropertyOp30
 70
     1
102
RTVSPropertyOp31
 70
     1
102
RTVSPropertyOp32
 70
     1
102
RTVSPropertyOp33
 70
     1
102
RTVSPropertyOp34
 70
     1
102
RTVSPropertyOp35
 70
     1
102
RTVSPropertyOp36
 70
     1
102
RTVSPropertyOp37
 70
     1
102
RTVSPropertyOp38
 70
     1
102
RTVSPropertyOp39
 70
     1
102
RTVSPropertyOp40
 70
     1
102
RTVSPropertyOp41
 70
     1
102
RTVSPropertyOp42
 70
     1
102
RTVSPropertyOp43
 70
     1
102
RTVSPropertyOp44
 70
     1
102
RTVSPropertyOp45
 70
     1
102
RTVSPropertyOp46
 70
     1
102
RTVSPropertyOp47
 70
     1
102
RTVSPropertyOp48
 70
     1
102
RTVSPropertyOp49
 70
     1
102
RTVSPropertyOp50
 70
     1
102
RTVSPropertyOp51
 70
     0
102
RTVSPropertyOp52
 70
     0
102
RTVSPropertyOp53
 70
     1
102
RTVSPropertyOp54
 70
     1
102
RTVSPropertyOp55
 70
     1
102
RTVSPropertyOp56
 70
     1
102
RTVSPropertyOp57
 70
     1
102
RTVSPropertyOp58
 70
     1
102
RTVSPropertyOp59
 70
     1
102
RTVSPropertyOp60
 70
     1
102
RTVSPropertyOp61
 70
     1
102
RTVSPropertyOp62
 70
     1
  0
XRECORD
  5
82A3
102
{ACAD_REACTORS
330
82A2
102
}
330
82A2
100
AcDbXrecord
280
     1
102
RTVSPost2010Prop28
280
     0
102
RTVSPost2010PropOp28
 70
     1
102
RTVSPost2010Prop29
280
     1
102
RTVSPost2010PropOp29
 70
     1
102
RTVSPost2010Prop30
280
     1
102
RTVSPost2010PropOp30
 70
     1
102
RTVSPost2010Prop31
280
     0
102
RTVSPost2010PropOp31
 70
     1
102
RTVSPost2010Prop32
280
     0
102
RTVSPost2010PropOp32
 70
     1
102
RTVSPost2010Prop33
280
     0
102
RTVSPost2010PropOp33
 70
     1
102
RTVSPost2010Prop34
280
     0
102
RTVSPost2010PropOp34
 70
     1
102
RTVSPost2010Prop35
280
     0
102
RTVSPost2010PropOp35
 70
     1
102
RTVSPost2010Prop36
280
     0
102
RTVSPost2010PropOp36
 70
     1
102
RTVSPost2010Prop37
 90
       50
102
RTVSPost2010PropOp37
 70
     1
102
RTVSPost2010Prop38
140
0.0
102
RTVSPost2010PropOp38
 70
     1
102
RTVSPost2010Prop39
140
1.0
102
RTVSPost2010PropOp39
 70
     1
102
RTVSPost2010Prop40
 90
        0
102
RTVSPost2010PropOp40
 70
     1
102
RTVSPost2010Prop41ColorIndex
 90
       18
102
RTVSPost2010Prop41ColorRGB
 90
        0
102
RTVSPost2010PropOp41
 70
     1
102
RTVSPost2010Prop42
 90
       50
102
RTVSPost2010PropOp42
 70
     1
102
RTVSPost2010Prop43
 90
        3
102
RTVSPost2010PropOp43
 70
     1
102
RTVSPost2010Prop44ColorIndex
 90
        5
102
RTVSPost2010Prop44ColorRGB
 90
      255
102
RTVSPost2010PropOp44
 70
     1
102
RTVSPost2010Prop45
280
     0
102
RTVSPost2010PropOp45
 70
     1
102
RTVSPost2010Prop46
 90
       50
102
RTVSPost2010PropOp46
 70
     1
102
RTVSPost2010Prop47
 90
       50
102
RTVSPost2010PropOp47
 70
     1
102
RTVSPost2010Prop48
 90
       50
102
RTVSPost2010PropOp48
 70
     1
102
RTVSPost2010Prop49
280
     0
102
RTVSPost2010PropOp49
 70
     1
102
RTVSPost2010Prop50
 90
       50
102
RTVSPost2010PropOp50
 70
     1
102
RTVSPost2010Prop51ColorIndex
 90
      256
102
RTVSPost2010Prop51ColorRGB
 90
-16777216
102
RTVSPost2010PropOp51
 70
     0
102
RTVSPost2010Prop52
140
1.0
102
RTVSPost2010PropOp52
 70
     0
102
RTVSPost2010Prop53
 90
        2
102
RTVSPost2010PropOp53
 70
     1
102
RTVSPost2010Prop54
  1
strokes_ogs.tif
102
RTVSPost2010PropOp54
 70
     1
102
RTVSPost2010Prop55
280
     0
102
RTVSPost2010PropOp55
 70
     1
102
RTVSPost2010Prop56
140
1.0
102
RTVSPost2010PropOp56
 70
     1
102
RTVSPost2010Prop57
140
1.0
102
RTVSPost2010PropOp57
 70
     1
102
RTVSPropertyOp0
 70
     1
102
RTVSPropertyOp1
 70
     1
102
RTVSPropertyOp2
 70
     1
102
RTVSPropertyOp3
 70
     1
102
RTVSPropertyOp4
 70
     1
102
RTVSPropertyOp5
 70
     1
102
RTVSPropertyOp6
 70
     1
102
RTVSPropertyOp7
 70
     1
102
RTVSPropertyOp8
 70
     1
102
RTVSPropertyOp9
 70
     1
102
RTVSPropertyOp10
 70
     1
102
RTVSPropertyOp11
 70
     1
102
RTVSPropertyOp12
 70
     1
102
RTVSPropertyOp13
 70
     1
102
RTVSPropertyOp14
 70
     1
102
RTVSPropertyOp15
 70
     1
102
RTVSPropertyOp16
 70
     1
102
RTVSPropertyOp17
 70
     1
102
RTVSPropertyOp18
 70
     1
102
RTVSPropertyOp19
 70
     1
102
RTVSPropertyOp20
 70
     1
102
RTVSPropertyOp21
 70
     1
102
RTVSPropertyOp22
 70
     1
102
RTVSPropertyOp23
 70
     1
102
RTVSPropertyOp24
 70
     1
102
RTVSPropertyOp25
 70
     1
102
RTVSPropertyOp26
 70
     1
102
RTVSPropertyOp27
 70
     1
102
RTVSPropertyOp28
 70
     1
102
RTVSPropertyOp29
 70
     1
102
RTVSPropertyOp30
 70
     1
102
RTVSPropertyOp31
 70
     1
102
RTVSPropertyOp32
 70
     1
102
RTVSPropertyOp33
 70
     1
102
RTVSPropertyOp34
 70
     1
102
RTVSPropertyOp35
 70
     1
102
RTVSPropertyOp36
 70
     1
102
RTVSPropertyOp37
 70
     1
102
RTVSPropertyOp38
 70
     1
102
RTVSPropertyOp39
 70
     1
102
RTVSPropertyOp40
 70
     1
102
RTVSPropertyOp41
 70
     1
102
RTVSPropertyOp42
 70
     1
102
RTVSPropertyOp43
 70
     1
102
RTVSPropertyOp44
 70
     1
102
RTVSPropertyOp45
 70
     1
102
RTVSPropertyOp46
 70
     1
102
RTVSPropertyOp47
 70
     1
102
RTVSPropertyOp48
 70
     1
102
RTVSPropertyOp49
 70
     1
102
RTVSPropertyOp50
 70
     1
102
RTVSPropertyOp51
 70
     0
102
RTVSPropertyOp52
 70
     0
102
RTVSPropertyOp53
 70
     1
102
RTVSPropertyOp54
 70
     1
102
RTVSPropertyOp55
 70
     1
102
RTVSPropertyOp56
 70
     1
102
RTVSPropertyOp57
 70
     1
102
RTVSPropertyOp58
 70
     1
102
RTVSPropertyOp59
 70
     1
102
RTVSPropertyOp60
 70
     1
102
RTVSPropertyOp61
 70
     1
102
RTVSPropertyOp62
 70
     1
  0
ENDSEC
  0
EOF
