  0
SECTION
  2
HEADER
  9
$ACADVER
  1
AC1015
  9
$ACADMAINTVER
 70
    20
  9
$DWGCODEPAGE
  3
ANSI_932
  9
$INSBASE
 10
0.0
 20
0.0
 30
0.0
  9
$EXTMIN
 10
-0.1602050617329951
 20
-0.22504996767384
 30
-0.0015258207003583
  9
$EXTMAX
 10
5250.160229508953
 20
7375.225084310193
 30
0.0000000349246037
  9
$LIMMIN
 10
0.0
 20
0.0
  9
$LIMMAX
 10
297.0
 20
210.0
  9
$ORTHOMODE
 70
     1
  9
$REGENMODE
 70
     1
  9
$FILLMODE
 70
     0
  9
$QTEXTMODE
 70
     0
  9
$MIRRTEXT
 70
     1
  9
$LTSCALE
 40
100.0
  9
$ATTMODE
 70
     1
  9
$TEXTSIZE
 40
180.0
  9
$TRACEWID
 40
0.05
  9
$TEXTSTYLE
  7
STANDARD
  9
$CLAYER
  8
3
  9
$CELTYPE
  6
ByLayer
  9
$CECOLOR
 62
   256
  9
$CELTSCALE
 40
1.0
  9
$DISPSILH
 70
     0
  9
$DIMSCALE
 40
25.0
  9
$DIMASZ
 40
2.0
  9
$DIMEXO
 40
1.0
  9
$DIMDLI
 40
10.0
  9
$DIMRND
 40
0.0
  9
$DIMDLE
 40
0.0
  9
$DIMEXE
 40
1.0
  9
$DIMTP
 40
1.0
  9
$DIMTM
 40
1.0
  9
$DIMTXT
 40
3.0
  9
$DIMCEN
 40
0.0
  9
$DIMTSZ
 40
0.0
  9
$DIMTOL
 70
     0
  9
$DIMLIM
 70
     0
  9
$DIMTIH
 70
     0
  9
$DIMTOH
 70
     0
  9
$DIMSE1
 70
     0
  9
$DIMSE2
 70
     0
  9
$DIMTAD
 70
     1
  9
$DIMZIN
 70
     8
  9
$DIMBLK
  1

  9
$DIMASO
 70
     1
  9
$DIMSHO
 70
     1
  9
$DIMPOST
  1

  9
$DIMAPOST
  1

  9
$DIMALT
 70
     0
  9
$DIMALTD
 70
     2
  9
$DIMALTF
 40
0.039
  9
$DIMLFAC
 40
1.0
  9
$DIMTOFL
 70
     1
  9
$DIMTVP
 40
0.0
  9
$DIMTIX
 70
     0
  9
$DIMSOXD
 70
     0
  9
$DIMSAH
 70
     1
  9
$DIMBLK1
  1
OPEN
  9
$DIMBLK2
  1
OPEN
  9
$DIMSTYLE
  2
IGA
  9
$DIMCLRD
 70
     0
  9
$DIMCLRE
 70
     0
  9
$DIMCLRT
 70
     0
  9
$DIMTFAC
 40
10.0
  9
$DIMGAP
 40
1.0
  9
$DIMJUST
 70
     0
  9
$DIMSD1
 70
     0
  9
$DIMSD2
 70
     0
  9
$DIMTOLJ
 70
     1
  9
$DIMTZIN
 70
     0
  9
$DIMALTZ
 70
     0
  9
$DIMALTTZ
 70
     0
  9
$DIMUPT
 70
     0
  9
$DIMDEC
 70
     4
  9
$DIMTDEC
 70
     4
  9
$DIMALTU
 70
     2
  9
$DIMALTTD
 70
     2
  9
$DIMTXSTY
  7
STANDARD
  9
$DIMAUNIT
 70
     0
  9
$DIMADEC
 70
     0
  9
$DIMALTRND
 40
0.0
  9
$DIMAZIN
 70
     0
  9
$DIMDSEP
 70
    46
  9
$DIMATFIT
 70
     3
  9
$DIMFRAC
 70
     0
  9
$DIMLDRBLK
  1
OPEN
  9
$DIMLUNIT
 70
     2
  9
$DIMLWD
 70
    -2
  9
$DIMLWE
 70
    -2
  9
$DIMTMOVE
 70
     0
  9
$LUNITS
 70
     2
  9
$LUPREC
 70
     3
  9
$SKETCHINC
 40
0.1
  9
$FILLETRAD
 40
50.0
  9
$AUNITS
 70
     0
  9
$AUPREC
 70
     0
  9
$MENU
  1
acad
  9
$ELEVATION
 40
0.0
  9
$PELEVATION
 40
0.0
  9
$THICKNESS
 40
0.0
  9
$LIMCHECK
 70
     0
  9
$CHAMFERA
 40
0.5
  9
$CHAMFERB
 40
0.5
  9
$CHAMFERC
 40
0.0
  9
$CHAMFERD
 40
0.0
  9
$SKPOLY
 70
     0
  9
$TDCREATE
 40
2451389.462286342
  9
$TDUCREATE
 40
2451389.087286342
  9
$TDUPDATE
 40
2460265.610729607
  9
$TDUUPDATE
 40
2460265.235729607
  9
$TDINDWG
 40
0.0158634259
  9
$TDUSRTIMER
 40
0.0158631944
  9
$USRTIMER
 70
     1
  9
$ANGBASE
 50
0.0
  9
$ANGDIR
 70
     0
  9
$PDMODE
 70
     0
  9
$PDSIZE
 40
0.0
  9
$PLINEWID
 40
0.0
  9
$SPLFRAME
 70
     0
  9
$SPLINETYPE
 70
     6
  9
$SPLINESEGS
 70
     8
  9
$HANDSEED
  5
8378
  9
$SURFTAB1
 70
     6
  9
$SURFTAB2
 70
     6
  9
$SURFTYPE
 70
     6
  9
$SURFU
 70
     6
  9
$SURFV
 70
     6
  9
$UCSBASE
  2

  9
$UCSNAME
  2

  9
$UCSORG
 10
0.0
 20
0.0
 30
0.0
  9
$UCSXDIR
 10
1.0
 20
0.0
 30
0.0
  9
$UCSYDIR
 10
0.0
 20
1.0
 30
0.0
  9
$UCSORTHOREF
  2

  9
$UCSORTHOVIEW
 70
     0
  9
$UCSORGTOP
 10
0.0
 20
0.0
 30
0.0
  9
$UCSORGBOTTOM
 10
0.0
 20
0.0
 30
0.0
  9
$UCSORGLEFT
 10
0.0
 20
0.0
 30
0.0
  9
$UCSORGRIGHT
 10
0.0
 20
0.0
 30
0.0
  9
$UCSORGFRONT
 10
0.0
 20
0.0
 30
0.0
  9
$UCSORGBACK
 10
0.0
 20
0.0
 30
0.0
  9
$PUCSBASE
  2

  9
$PUCSNAME
  2

  9
$PUCSORG
 10
0.0
 20
0.0
 30
0.0
  9
$PUCSXDIR
 10
1.0
 20
0.0
 30
0.0
  9
$PUCSYDIR
 10
0.0
 20
1.0
 30
0.0
  9
$PUCSORTHOREF
  2

  9
$PUCSORTHOVIEW
 70
     0
  9
$PUCSORGTOP
 10
0.0
 20
0.0
 30
0.0
  9
$PUCSORGBOTTOM
 10
0.0
 20
0.0
 30
0.0
  9
$PUCSORGLEFT
 10
0.0
 20
0.0
 30
0.0
  9
$PUCSORGRIGHT
 10
0.0
 20
0.0
 30
0.0
  9
$PUCSORGFRONT
 10
0.0
 20
0.0
 30
0.0
  9
$PUCSORGBACK
 10
0.0
 20
0.0
 30
0.0
  9
$USERI1
 70
     0
  9
$USERI2
 70
     0
  9
$USERI3
 70
     0
  9
$USERI4
 70
     0
  9
$USERI5
 70
     0
  9
$USERR1
 40
0.0
  9
$USERR2
 40
0.0
  9
$USERR3
 40
0.0
  9
$USERR4
 40
0.0
  9
$USERR5
 40
0.0
  9
$WORLDVIEW
 70
     1
  9
$SHADEDGE
 70
     3
  9
$SHADEDIF
 70
    70
  9
$TILEMODE
 70
     1
  9
$MAXACTVP
 70
    16
  9
$PINSBASE
 10
0.0
 20
0.0
 30
0.0
  9
$PLIMCHECK
 70
     0
  9
$PEXTMIN
 10
1.000000000000000E+20
 20
1.000000000000000E+20
 30
1.000000000000000E+20
  9
$PEXTMAX
 10
-1.000000000000000E+20
 20
-1.000000000000000E+20
 30
-1.000000000000000E+20
  9
$PLIMMIN
 10
0.0
 20
0.0
  9
$PLIMMAX
 10
12.0
 20
9.0
  9
$UNITMODE
 70
     0
  9
$VISRETAIN
 70
     0
  9
$PLINEGEN
 70
     0
  9
$PSLTSCALE
 70
     1
  9
$TREEDEPTH
 70
  3020
  9
$CMLSTYLE
  2
Standard
  9
$CMLJUST
 70
     0
  9
$CMLSCALE
 40
1.0
  9
$PROXYGRAPHICS
 70
     1
  9
$MEASUREMENT
 70
     0
  9
$CELWEIGHT
370
    -1
  9
$ENDCAPS
280
     0
  9
$JOINSTYLE
280
     0
  9
$LWDISPLAY
290
     0
  9
$INSUNITS
 70
     0
  9
$HYPERLINKBASE
  1

  9
$STYLESHEET
  1

  9
$XEDIT
290
     1
  9
$CEPSNTYPE
380
     0
  9
$PSTYLEMODE
290
     1
  9
$FINGERPRINTGUID
  2
{2651839E-E2E1-4CDC-A14E-4007F2C38FF8}
  9
$VERSIONGUID
  2
{40920207-289D-4B29-87E7-E00BDBAD6470}
  9
$EXTNAMES
290
     1
  9
$PSVPSCALE
 40
0.0
  9
$OLESTARTUP
290
     0
  0
ENDSEC
  0
SECTION
  2
CLASSES
  0
CLASS
  1
ACDBDICTIONARYWDFLT
  2
AcDbDictionaryWithDefault
  3
ObjectDBX Classes
 90
        0
280
     0
281
     0
  0
CLASS
  1
MATERIAL
  2
AcDbMaterial
  3
ObjectDBX Classes
 90
     1153
280
     0
281
     0
  0
CLASS
  1
VISUALSTYLE
  2
AcDbVisualStyle
  3
ObjectDBX Classes
 90
     4095
280
     0
281
     0
  0
CLASS
  1
SCALE
  2
AcDbScale
  3
ObjectDBX Classes
 90
     1153
280
     0
281
     0
  0
CLASS
  1
TABLESTYLE
  2
AcDbTableStyle
  3
ObjectDBX Classes
 90
     4095
280
     0
281
     0
  0
CLASS
  1
MLEADERSTYLE
  2
AcDbMLeaderStyle
  3
ACDB_MLEADERSTYLE_CLASS
 90
     4095
280
     0
281
     0
  0
CLASS
  1
ACDBSECTIONVIEWSTYLE
  2
AcDbSectionViewStyle
  3
ObjectDBX Classes
 90
     1025
280
     0
281
     0
  0
CLASS
  1
ACDBDETAILVIEWSTYLE
  2
AcDbDetailViewStyle
  3
ObjectDBX Classes
 90
     1025
280
     0
281
     0
  0
CLASS
  1
DICTIONARYVAR
  2
AcDbDictionaryVar
  3
ObjectDBX Classes
 90
        0
280
     0
281
     0
  0
CLASS
  1
CELLSTYLEMAP
  2
AcDbCellStyleMap
  3
ObjectDBX Classes
 90
     1152
280
     0
281
     0
  0
CLASS
  1
ACDBPLACEHOLDER
  2
AcDbPlaceHolder
  3
ObjectDBX Classes
 90
        0
280
     0
281
     0
  0
CLASS
  1
LAYOUT
  2
AcDbLayout
  3
ObjectDBX Classes
 90
        0
280
     0
281
     0
  0
ENDSEC
  0
SECTION
  2
TABLES
  0
TABLE
  2
VPORT
  5
8147
330
0
100
AcDbSymbolTable
 70
     1
  0
VPORT
  5
81B3
330
8147
100
AcDbSymbolTableRecord
100
AcDbViewportTableRecord
  2
*ACTIVE
 70
     0
 10
0.0
 20
0.0
 11
1.0
 21
1.0
 12
2625.00001222361
 22
3687.500017171259
 13
0.0
 23
0.0
 14
10.0
 24
10.0
 15
10.0
 25
10.0
 16
0.0
 26
0.0
 36
1.0
 17
0.0
 27
0.0
 37
0.0
 40
7422.678203440799
 41
2.050213675213675
 42
50.0
 43
0.0
 44
0.0
 50
0.0
 51
0.0
 71
     0
 72
   100
 73
     1
 74
     0
 75
     0
 76
     0
 77
     0
 78
     0
281
     0
 65
     1
110
0.0
120
0.0
130
0.0
111
1.0
121
0.0
131
0.0
112
0.0
122
1.0
132
0.0
 79
     0
146
0.0
1001
ACAD_NAV_VCDISPLAY
1070
     3
  0
ENDTAB
  0
TABLE
  2
LTYPE
  5
8144
330
0
100
AcDbSymbolTable
 70
     3
  0
LTYPE
  5
8199
330
8144
100
AcDbSymbolTableRecord
100
AcDbLinetypeTableRecord
  2
ByBlock
 70
     0
  3

 72
    65
 73
     0
 40
0.0
  0
LTYPE
  5
819A
330
8144
100
AcDbSymbolTableRecord
100
AcDbLinetypeTableRecord
  2
ByLayer
 70
     0
  3

 72
    65
 73
     0
 40
0.0
  0
LTYPE
  5
819B
330
8144
100
AcDbSymbolTableRecord
100
AcDbLinetypeTableRecord
  2
CONTINUOUS
 70
     0
  3
Solid line
 72
    65
 73
     0
 40
0.0
  0
LTYPE
  5
81B4
330
8144
100
AcDbSymbolTableRecord
100
AcDbLinetypeTableRecord
  2
CENTER
 70
     0
  3
____ _ ____ _ ____ _ ____ _ ____ _ ____ _ ____ 
 72
    65
 73
     4
 40
2.0
 49
1.25
 74
     0
 49
-0.25
 74
     0
 49
0.25
 74
     0
 49
-0.25
 74
     0
  0
ENDTAB
  0
TABLE
  2
LAYER
  5
8141
102
{ACAD_XDICTIONARY
360
824D
102
}
330
0
100
AcDbSymbolTable
 70
     7
  0
LAYER
  5
8193
102
{ACAD_XDICTIONARY
360
81F5
102
}
330
8141
100
AcDbSymbolTableRecord
100
AcDbLayerTableRecord
  2
0
 70
     0
 62
     7
  6
CONTINUOUS
370
    -3
390
814E
  0
LAYER
  5
81B2
102
{ACAD_XDICTIONARY
360
81F7
102
}
330
8141
100
AcDbSymbolTableRecord
100
AcDbLayerTableRecord
  2
3
 70
     0
 62
     2
  6
CONTINUOUS
370
    -3
390
814E
  0
LAYER
  5
81B5
102
{ACAD_XDICTIONARY
360
81F9
102
}
330
8141
100
AcDbSymbolTableRecord
100
AcDbLayerTableRecord
  2
2
 70
     0
 62
     3
  6
CENTER
370
    -3
390
814E
  0
LAYER
  5
81B6
102
{ACAD_XDICTIONARY
360
81FB
102
}
330
8141
100
AcDbSymbolTableRecord
100
AcDbLayerTableRecord
  2
1
 70
     0
 62
     4
  6
CONTINUOUS
370
    -3
390
814E
  0
LAYER
  5
81B7
102
{ACAD_XDICTIONARY
360
81FD
102
}
330
8141
100
AcDbSymbolTableRecord
100
AcDbLayerTableRecord
  2
4
 70
     0
 62
     7
  6
CONTINUOUS
370
    -3
390
814E
  0
LAYER
  5
81B8
330
8141
100
AcDbSymbolTableRecord
100
AcDbLayerTableRecord
  2
DEFPOINTS
 70
     0
 62
     7
  6
CONTINUOUS
290
     0
370
    -3
390
814E
  0
LAYER
  5
824B
102
{ACAD_XDICTIONARY
360
824C
102
}
330
8141
100
AcDbSymbolTableRecord
100
AcDbLayerTableRecord
  2
FUTO
 70
     0
 62
     4
  6
CONTINUOUS
370
    -3
390
814E
  0
ENDTAB
  0
TABLE
  2
STYLE
  5
8142
330
0
100
AcDbSymbolTable
 70
     2
  0
STYLE
  5
8194
330
8142
100
AcDbSymbolTableRecord
100
AcDbTextStyleTableRecord
  2
STANDARD
 70
     0
 40
0.0
 41
1.0
 50
0.0
 71
     0
 42
180.0
  3
simplex.shx
  4
extfont.shx
  0
STYLE
  5
8198
330
8142
100
AcDbSymbolTableRecord
100
AcDbTextStyleTableRecord
  2
Annotative
 70
     0
 40
0.0
 41
1.0
 50
0.0
 71
     0
 42
0.2
  3
txt
  4

1001
AcadAnnotative
1000
AnnotativeData
1002
{
1070
     1
1070
     1
1002
}
  0
ENDTAB
  0
TABLE
  2
VIEW
  5
8145
330
0
100
AcDbSymbolTable
 70
     0
  0
ENDTAB
  0
TABLE
  2
UCS
  5
8146
330
0
100
AcDbSymbolTable
 70
     0
  0
ENDTAB
  0
TABLE
  2
APPID
  5
8148
330
0
100
AcDbSymbolTable
 70
     8
  0
APPID
  5
8195
330
8148
100
AcDbSymbolTableRecord
100
AcDbRegAppTableRecord
  2
ACAD
 70
     0
  0
APPID
  5
819C
330
8148
100
AcDbSymbolTableRecord
100
AcDbRegAppTableRecord
  2
AcadAnnotative
 70
     0
  0
APPID
  5
8209
330
8148
100
AcDbSymbolTableRecord
100
AcDbRegAppTableRecord
  2
ACAD_NAV_VCDISPLAY
 70
     0
  0
APPID
  5
8274
330
8148
100
AcDbSymbolTableRecord
100
AcDbRegAppTableRecord
  2
ACAD_DSTYLE_DIMJAG
 70
     0
  0
APPID
  5
8275
330
8148
100
AcDbSymbolTableRecord
100
AcDbRegAppTableRecord
  2
ACAD_DSTYLE_DIMTALN
 70
     0
  0
APPID
  5
8290
330
8148
100
AcDbSymbolTableRecord
100
AcDbRegAppTableRecord
  2
AcadAnnoMonitorAlertIconDisabled
 70
     0
  0
APPID
  5
8291
330
8148
100
AcDbSymbolTableRecord
100
AcDbRegAppTableRecord
  2
ACAD_EXEMPT_FROM_CAD_STANDARDS
 70
     0
  0
APPID
  5
836F
330
8148
100
AcDbSymbolTableRecord
100
AcDbRegAppTableRecord
  2
ACAD_MLEADERVER
 70
     0
  0
ENDTAB
  0
TABLE
  2
DIMSTYLE
  5
8149
330
0
100
AcDbSymbolTable
 70
     4
100
AcDbDimStyleTable
 71
     1
340
81B9
  0
DIMSTYLE
105
8196
102
{ACAD_REACTORS
330
7C25
330
7C26
330
7C6C
330
7C89
330
7C8A
330
7C8B
330
7C9A
330
7CB1
330
7CB3
330
7CB4
330
8060
330
806D
330
807A
330
8087
330
8094
102
}
330
8149
100
AcDbSymbolTableRecord
100
AcDbDimStyleTableRecord
  2
Standard
 70
     0
340
8194
  0
DIMSTYLE
105
8197
330
8149
100
AcDbSymbolTableRecord
100
AcDbDimStyleTableRecord
  2
Annotative
 70
     0
340
8194
1001
AcadAnnotative
1000
AnnotativeData
1002
{
1070
     1
1070
     1
1002
}
  0
DIMSTYLE
105
81B9
102
{ACAD_REACTORS
330
8276
330
8283
330
82DB
330
82E8
330
82FE
330
8314
330
8321
102
}
330
8149
100
AcDbSymbolTableRecord
100
AcDbDimStyleTableRecord
  2
IGA
 70
     0
 40
2.0
 41
2.0
 42
0.5
 43
10.0
 44
1.0
 47
1.0
 48
1.0
 73
     0
 74
     0
 77
     1
 78
     8
140
3.0
141
0.0
143
0.03937
146
10.0
147
1.0
173
     1
271
     3
272
     3
279
     2
284
     8
285
     8
286
     8
340
8194
  0
DIMSTYLE
105
81BA
330
8149
100
AcDbSymbolTableRecord
100
AcDbDimStyleTableRecord
  2
MATSU
 70
     0
 41
2.0
 42
1.0
 43
10.0
 44
1.0
 73
     0
 74
     0
 77
     1
 78
     8
140
3.0
141
0.0
143
0.03937
147
0.5
172
     1
173
     1
176
   256
177
   256
178
   256
271
     3
272
     3
279
     2
284
     8
285
     8
286
     8
340
8194
  0
ENDTAB
  0
TABLE
  2
BLOCK_RECORD
  5
8140
330
0
100
AcDbSymbolTable
 70
    35
  0
BLOCK_RECORD
  5
81AE
330
8140
100
AcDbSymbolTableRecord
100
AcDbBlockTableRecord
  2
*Model_Space
340
81B1
  0
BLOCK_RECORD
  5
81AA
330
8140
100
AcDbSymbolTableRecord
100
AcDbBlockTableRecord
  2
*Paper_Space
340
81AD
  0
BLOCK_RECORD
  5
81BE
330
8140
100
AcDbSymbolTableRecord
100
AcDbBlockTableRecord
  2
$MODEL_SPACE
340
0
  0
BLOCK_RECORD
  5
81C0
330
8140
100
AcDbSymbolTableRecord
100
AcDbBlockTableRecord
  2
$PAPER_SPACE
340
0
  0
BLOCK_RECORD
  5
81C2
330
8140
100
AcDbSymbolTableRecord
100
AcDbBlockTableRecord
  2
_OPEN
340
0
102
{BLKREFS
331
8059
331
805A
331
8066
331
8067
331
8073
331
8074
331
8080
331
8081
331
808D
331
808E
331
82CC
331
82CD
331
82D5
331
82D6
331
82E2
331
82E3
331
82F8
331
82F9
331
830E
331
830F
331
831B
331
831C
331
8331
331
8332
331
7DF2
331
7DF3
331
7DFD
331
7DFE
331
7E1E
331
7E1F
331
7E34
331
7E35
331
7E3F
331
7E40
331
7E4A
331
7E4B
331
7E55
331
7E56
331
7FB1
331
7FB2
331
810E
331
810F
331
8116
331
8117
331
7F7A
331
7F7B
331
811E
331
811F
331
8126
331
8127
331
7EAA
331
7EAB
331
803C
331
8132
331
7EE3
331
7EE4
102
}
  0
BLOCK_RECORD
  5
81C4
330
8140
100
AcDbSymbolTableRecord
100
AcDbBlockTableRecord
  2
YA_N
340
0
102
{BLKREFS
331
7C00
331
7C22
331
7C3A
331
7C3C
102
}
  0
BLOCK_RECORD
  5
81C6
330
8140
100
AcDbSymbolTableRecord
100
AcDbBlockTableRecord
  2
*D4
340
0
  0
BLOCK_RECORD
  5
81C8
330
8140
100
AcDbSymbolTableRecord
100
AcDbBlockTableRecord
  2
*D5
340
0
  0
BLOCK_RECORD
  5
81CA
330
8140
100
AcDbSymbolTableRecord
100
AcDbBlockTableRecord
  2
*D6
340
0
  0
BLOCK_RECORD
  5
81CC
330
8140
100
AcDbSymbolTableRecord
100
AcDbBlockTableRecord
  2
*D7
340
0
  0
BLOCK_RECORD
  5
81CE
330
8140
100
AcDbSymbolTableRecord
100
AcDbBlockTableRecord
  2
*D8
340
0
  0
BLOCK_RECORD
  5
81D0
330
8140
100
AcDbSymbolTableRecord
100
AcDbBlockTableRecord
  2
*D9
340
0
  0
BLOCK_RECORD
  5
81D2
330
8140
100
AcDbSymbolTableRecord
100
AcDbBlockTableRecord
  2
*D10
340
0
  0
BLOCK_RECORD
  5
81D4
330
8140
100
AcDbSymbolTableRecord
100
AcDbBlockTableRecord
  2
*D11
340
0
  0
BLOCK_RECORD
  5
81D6
330
8140
100
AcDbSymbolTableRecord
100
AcDbBlockTableRecord
  2
*D12
340
0
  0
BLOCK_RECORD
  5
81D8
330
8140
100
AcDbSymbolTableRecord
100
AcDbBlockTableRecord
  2
*D13
340
0
  0
BLOCK_RECORD
  5
81DA
330
8140
100
AcDbSymbolTableRecord
100
AcDbBlockTableRecord
  2
*D14
340
0
  0
BLOCK_RECORD
  5
81DC
330
8140
100
AcDbSymbolTableRecord
100
AcDbBlockTableRecord
  2
*D15
340
0
  0
BLOCK_RECORD
  5
81DE
330
8140
100
AcDbSymbolTableRecord
100
AcDbBlockTableRecord
  2
*D16
340
0
  0
BLOCK_RECORD
  5
81E0
330
8140
100
AcDbSymbolTableRecord
100
AcDbBlockTableRecord
  2
*D17
340
0
  0
BLOCK_RECORD
  5
81E2
330
8140
100
AcDbSymbolTableRecord
100
AcDbBlockTableRecord
  2
*D18
340
0
  0
BLOCK_RECORD
  5
81E4
330
8140
100
AcDbSymbolTableRecord
100
AcDbBlockTableRecord
  2
_DOT
340
0
102
{BLKREFS
331
803D
331
8131
102
}
  0
BLOCK_RECORD
  5
81E5
330
8140
100
AcDbSymbolTableRecord
100
AcDbBlockTableRecord
  2
*D20
340
0
  0
BLOCK_RECORD
  5
81E7
330
8140
100
AcDbSymbolTableRecord
100
AcDbBlockTableRecord
  2
*D21
340
0
  0
BLOCK_RECORD
  5
81EA
330
8140
100
AcDbSymbolTableRecord
100
AcDbBlockTableRecord
  2
*D22
340
0
  0
BLOCK_RECORD
  5
81EC
330
8140
100
AcDbSymbolTableRecord
100
AcDbBlockTableRecord
  2
*D23
340
0
  0
BLOCK_RECORD
  5
81EE
330
8140
100
AcDbSymbolTableRecord
100
AcDbBlockTableRecord
  2
*D24
340
0
  0
BLOCK_RECORD
  5
81F0
330
8140
100
AcDbSymbolTableRecord
100
AcDbBlockTableRecord
  2
*D25
340
0
  0
BLOCK_RECORD
  5
81F2
330
8140
100
AcDbSymbolTableRecord
100
AcDbBlockTableRecord
  2
*D26
340
0
  0
BLOCK_RECORD
  5
8277
330
8140
100
AcDbSymbolTableRecord
100
AcDbBlockTableRecord
  2
*D28
340
0
  0
BLOCK_RECORD
  5
8284
330
8140
100
AcDbSymbolTableRecord
100
AcDbBlockTableRecord
  2
*D29
340
0
  0
BLOCK_RECORD
  5
82DC
330
8140
100
AcDbSymbolTableRecord
100
AcDbBlockTableRecord
  2
*D30
340
0
  0
BLOCK_RECORD
  5
82E9
330
8140
100
AcDbSymbolTableRecord
100
AcDbBlockTableRecord
  2
*D31
340
0
  0
BLOCK_RECORD
  5
82FF
330
8140
100
AcDbSymbolTableRecord
100
AcDbBlockTableRecord
  2
*D32
340
0
  0
BLOCK_RECORD
  5
8315
330
8140
100
AcDbSymbolTableRecord
100
AcDbBlockTableRecord
  2
*D33
340
0
  0
BLOCK_RECORD
  5
8322
330
8140
100
AcDbSymbolTableRecord
100
AcDbBlockTableRecord
  2
*D34
340
0
  0
ENDTAB
  0
ENDSEC
  0
SECTION
  2
BLOCKS
  0
BLOCK
  5
81AF
330
81AE
100
AcDbEntity
  8
0
100
AcDbBlockBegin
  2
*Model_Space
 70
     0
 10
0.0
 20
0.0
 30
0.0
  3
*Model_Space
  1

  0
ENDBLK
  5
81B0
330
81AE
100
AcDbEntity
  8
0
100
AcDbBlockEnd
  0
BLOCK
  5
81AB
330
81AA
100
AcDbEntity
 67
     1
  8
0
100
AcDbBlockBegin
  2
*Paper_Space
 70
     0
 10
0.0
 20
0.0
 30
0.0
  3
*Paper_Space
  1

  0
ENDBLK
  5
81AC
330
81AA
100
AcDbEntity
 67
     1
  8
0
100
AcDbBlockEnd
  0
BLOCK
  5
81BF
330
81BE
100
AcDbEntity
  8
0
100
AcDbBlockBegin
  2
$MODEL_SPACE
 70
     0
 10
0.0
 20
0.0
 30
0.0
  3
$MODEL_SPACE
  1

  0
ENDBLK
  5
1B
330
81BE
100
AcDbEntity
  8
0
100
AcDbBlockEnd
  0
BLOCK
  5
81C1
330
81C0
100
AcDbEntity
  8
0
100
AcDbBlockBegin
  2
$PAPER_SPACE
 70
     0
 10
0.0
 20
0.0
 30
0.0
  3
$PAPER_SPACE
  1

  0
ENDBLK
  5
18
330
81C0
100
AcDbEntity
  8
0
100
AcDbBlockEnd
  0
BLOCK
  5
81C3
330
81C2
100
AcDbEntity
  8
0
100
AcDbBlockBegin
  2
_OPEN
 70
     0
 10
0.0
 20
0.0
 30
0.0
  3
_OPEN
  1

  0
LINE
  5
79FD
330
81C2
100
AcDbEntity
  8
0
  6
ByBlock
 62
     0
100
AcDbLine
 10
-1.0
 20
0.1666666666666666
 30
0.0
 11
0.0
 21
0.0
 31
0.0
  0
LINE
  5
79FE
330
81C2
100
AcDbEntity
  8
0
  6
ByBlock
 62
     0
100
AcDbLine
 10
0.0
 20
0.0
 30
0.0
 11
-1.0
 21
-0.1666666666666666
 31
0.0
  0
LINE
  5
79FF
330
81C2
100
AcDbEntity
  8
0
  6
ByBlock
 62
     0
100
AcDbLine
 10
0.0
 20
0.0
 30
0.0
 11
-1.0
 21
0.0
 31
0.0
  0
ENDBLK
  5
7A01
330
81C2
100
AcDbEntity
  8
0
100
AcDbBlockEnd
  0
BLOCK
  5
81C5
330
81C4
100
AcDbEntity
  8
0
100
AcDbBlockBegin
  2
YA_N
 70
     0
 10
0.0
 20
0.0
 30
0.0
  3
YA_N
  1

  0
ENDBLK
  5
7A0C
330
81C4
100
AcDbEntity
  8
0
100
AcDbBlockEnd
  0
BLOCK
  5
81C7
330
81C6
100
AcDbEntity
  8
0
100
AcDbBlockBegin
  2
*D4
 70
     1
 10
0.0
 20
0.0
 30
0.0
  3
*D4
  1

  0
LINE
  5
7DEF
330
81C6
100
AcDbEntity
  8
0
  6
ByBlock
100
AcDbLine
 10
2975.439030888301
 20
2131.887615409481
 30
0.0
 11
2975.439030888301
 21
2280.232958951545
 31
0.0
  0
LINE
  5
7DF0
330
81C6
100
AcDbEntity
  8
0
  6
ByBlock
100
AcDbLine
 10
2150.4390308883
 20
2131.887615409481
 30
0.0
 11
2150.4390308883
 21
2280.232958951545
 31
0.0
  0
LINE
  5
7DF1
330
81C6
100
AcDbEntity
  8
0
  6
ByBlock
100
AcDbLine
 10
2925.439030888301
 20
2255.232958951544
 30
0.0
 11
2200.4390308883
 21
2255.232958951544
 31
0.0
  0
INSERT
  5
7DF2
330
81C6
100
AcDbEntity
  8
0
  6
ByBlock
100
AcDbBlockReference
  2
_OPEN
 10
2975.439030888301
 20
2255.232958951544
 30
0.0
 41
50.0
 42
50.0
 43
50.0
  0
INSERT
  5
7DF3
330
81C6
100
AcDbEntity
  8
0
  6
ByBlock
100
AcDbBlockReference
  2
_OPEN
 10
2150.4390308883
 20
2255.232958951544
 30
0.0
 41
50.0
 42
50.0
 43
50.0
 50
180.0
  0
TEXT
  5
7DF4
330
81C6
100
AcDbEntity
  8
3
100
AcDbText
 10
2466.510459459728
 20
2267.732958951544
 30
0.0
 40
75.0
  1
825
100
AcDbText
  0
POINT
  5
7DF5
330
81C6
100
AcDbEntity
  8
DEFPOINTS
  6
ByBlock
 62
     0
100
AcDbPoint
 10
2975.439030888301
 20
2106.887615409481
 30
0.0
  0
POINT
  5
7DF6
330
81C6
100
AcDbEntity
  8
DEFPOINTS
  6
ByBlock
 62
     0
100
AcDbPoint
 10
2150.4390308883
 20
2106.887615409481
 30
0.0
  0
POINT
  5
7DF7
330
81C6
100
AcDbEntity
  8
DEFPOINTS
  6
ByBlock
 62
     0
100
AcDbPoint
 10
2150.4390308883
 20
2255.232958951544
 30
0.0
  0
ENDBLK
  5
7DF8
330
81C6
100
AcDbEntity
  8
0
100
AcDbBlockEnd
  0
BLOCK
  5
81C9
330
81C8
100
AcDbEntity
  8
0
100
AcDbBlockBegin
  2
*D5
 70
     1
 10
0.0
 20
0.0
 30
0.0
  3
*D5
  1

  0
LINE
  5
7DFA
330
81C8
100
AcDbEntity
  8
0
  6
ByBlock
100
AcDbLine
 10
2975.439030888301
 20
2131.887615409481
 30
0.0
 11
2975.439030888301
 21
2432.516361525348
 31
0.0
  0
LINE
  5
7DFB
330
81C8
100
AcDbEntity
  8
0
  6
ByBlock
100
AcDbLine
 10
2127.4390308883
 20
2253.359407259871
 30
0.0
 11
2127.4390308883
 21
2432.516361525348
 31
0.0
  0
LINE
  5
7DFC
330
81C8
100
AcDbEntity
  8
0
  6
ByBlock
100
AcDbLine
 10
2925.439030888301
 20
2407.516361525347
 30
0.0
 11
2177.4390308883
 21
2407.516361525347
 31
0.0
  0
INSERT
  5
7DFD
330
81C8
100
AcDbEntity
  8
0
  6
ByBlock
100
AcDbBlockReference
  2
_OPEN
 10
2975.439030888301
 20
2407.516361525347
 30
0.0
 41
50.0
 42
50.0
 43
50.0
  0
INSERT
  5
7DFE
330
81C8
100
AcDbEntity
  8
0
  6
ByBlock
100
AcDbBlockReference
  2
_OPEN
 10
2127.4390308883
 20
2407.516361525347
 30
0.0
 41
50.0
 42
50.0
 43
50.0
 50
180.0
  0
TEXT
  5
7DFF
330
81C8
100
AcDbEntity
  8
3
100
AcDbText
 10
2455.010459459729
 20
2420.016361525347
 30
0.0
 40
75.0
  1
848
100
AcDbText
  0
POINT
  5
7E00
330
81C8
100
AcDbEntity
  8
DEFPOINTS
  6
ByBlock
 62
     0
100
AcDbPoint
 10
2975.439030888301
 20
2106.887615409481
 30
0.0
  0
POINT
  5
7E01
330
81C8
100
AcDbEntity
  8
DEFPOINTS
  6
ByBlock
 62
     0
100
AcDbPoint
 10
2127.4390308883
 20
2228.359407259871
 30
0.0
  0
POINT
  5
7E02
330
81C8
100
AcDbEntity
  8
DEFPOINTS
  6
ByBlock
 62
     0
100
AcDbPoint
 10
2127.4390308883
 20
2407.516361525347
 30
0.0
  0
ENDBLK
  5
7E03
330
81C8
100
AcDbEntity
  8
0
100
AcDbBlockEnd
  0
BLOCK
  5
81CB
330
81CA
100
AcDbEntity
  8
0
100
AcDbBlockBegin
  2
*D6
 70
     1
 10
0.0
 20
0.0
 30
0.0
  3
*D6
  1

  0
LINE
  5
7E1B
330
81CA
100
AcDbEntity
  8
0
  6
ByBlock
100
AcDbLine
 10
5441.207505112644
 20
1986.88761540948
 30
0.0
 11
5740.43091600962
 21
1986.88761540948
 31
0.0
  0
LINE
  5
7E1C
330
81CA
100
AcDbEntity
  8
0
  6
ByBlock
100
AcDbLine
 10
5441.207505112644
 20
1136.887615409481
 30
0.0
 11
5740.43091600962
 21
1136.887615409481
 31
0.0
  0
LINE
  5
7E1D
330
81CA
100
AcDbEntity
  8
0
  6
ByBlock
100
AcDbLine
 10
5715.43091600962
 20
1936.88761540948
 30
0.0
 11
5715.43091600962
 21
1186.887615409481
 31
0.0
  0
INSERT
  5
7E1E
330
81CA
100
AcDbEntity
  8
0
  6
ByBlock
100
AcDbBlockReference
  2
_OPEN
 10
5715.43091600962
 20
1986.88761540948
 30
0.0
 41
50.0
 42
50.0
 43
50.0
 50
90.0
  0
INSERT
  5
7E1F
330
81CA
100
AcDbEntity
  8
0
  6
ByBlock
100
AcDbBlockReference
  2
_OPEN
 10
5715.43091600962
 20
1136.887615409481
 30
0.0
 41
50.0
 42
50.0
 43
50.0
 50
270.0
  0
TEXT
  5
7E20
330
81CA
100
AcDbEntity
  8
3
100
AcDbText
 10
5702.93091600962
 20
1427.959043980909
 30
0.0
 40
75.0
  1
\U+03C6850
 50
90.0
100
AcDbText
  0
POINT
  5
7E21
330
81CA
100
AcDbEntity
  8
DEFPOINTS
  6
ByBlock
 62
     0
100
AcDbPoint
 10
5416.207505112645
 20
1986.88761540948
 30
0.0
  0
POINT
  5
7E22
330
81CA
100
AcDbEntity
  8
DEFPOINTS
  6
ByBlock
 62
     0
100
AcDbPoint
 10
5416.207505112645
 20
1136.887615409481
 30
0.0
  0
POINT
  5
7E23
330
81CA
100
AcDbEntity
  8
DEFPOINTS
  6
ByBlock
 62
     0
100
AcDbPoint
 10
5715.43091600962
 20
1136.887615409481
 30
0.0
  0
ENDBLK
  5
7E24
330
81CA
100
AcDbEntity
  8
0
100
AcDbBlockEnd
  0
BLOCK
  5
81CD
330
81CC
100
AcDbEntity
  8
0
100
AcDbBlockBegin
  2
*D7
 70
     1
 10
0.0
 20
0.0
 30
0.0
  3
*D7
  1

  0
LINE
  5
7E31
330
81CC
100
AcDbEntity
  8
0
  6
ByBlock
100
AcDbLine
 10
2627.4390308883
 20
4579.380572240498
 30
0.0
 11
2627.4390308883
 21
4730.503855791452
 31
0.0
  0
LINE
  5
7E32
330
81CC
100
AcDbEntity
  8
0
  6
ByBlock
100
AcDbLine
 10
1627.439030888299
 20
4579.380572240498
 30
0.0
 11
1627.439030888299
 21
4730.503855791452
 31
0.0
  0
LINE
  5
7E33
330
81CC
100
AcDbEntity
  8
0
  6
ByBlock
100
AcDbLine
 10
2577.4390308883
 20
4705.503855791452
 30
0.0
 11
1677.4390308883
 21
4705.503855791452
 31
0.0
  0
INSERT
  5
7E34
330
81CC
100
AcDbEntity
  8
0
  6
ByBlock
100
AcDbBlockReference
  2
_OPEN
 10
2627.4390308883
 20
4705.503855791452
 30
0.0
 41
50.0
 42
50.0
 43
50.0
  0
INSERT
  5
7E35
330
81CC
100
AcDbEntity
  8
0
  6
ByBlock
100
AcDbBlockReference
  2
_OPEN
 10
1627.439030888299
 20
4705.503855791452
 30
0.0
 41
50.0
 42
50.0
 43
50.0
 50
180.0
  0
TEXT
  5
7E36
330
81CC
100
AcDbEntity
  8
3
100
AcDbText
 10
2002.4390308883
 20
4718.003855791452
 30
0.0
 40
75.0
  1
1000
100
AcDbText
  0
POINT
  5
7E37
330
81CC
100
AcDbEntity
  8
DEFPOINTS
  6
ByBlock
 62
     0
100
AcDbPoint
 10
2627.4390308883
 20
4554.380572240497
 30
0.0
  0
POINT
  5
7E38
330
81CC
100
AcDbEntity
  8
DEFPOINTS
  6
ByBlock
 62
     0
100
AcDbPoint
 10
1627.439030888299
 20
4554.380572240497
 30
0.0
  0
POINT
  5
7E39
330
81CC
100
AcDbEntity
  8
DEFPOINTS
  6
ByBlock
 62
     0
100
AcDbPoint
 10
1627.439030888299
 20
4705.503855791452
 30
0.0
  0
ENDBLK
  5
7E3A
330
81CC
100
AcDbEntity
  8
0
100
AcDbBlockEnd
  0
BLOCK
  5
81CF
330
81CE
100
AcDbEntity
  8
0
100
AcDbBlockBegin
  2
*D8
 70
     1
 10
0.0
 20
0.0
 30
0.0
  3
*D8
  1

  0
LINE
  5
7E3C
330
81CE
100
AcDbEntity
  8
0
  6
ByBlock
100
AcDbLine
 10
1602.4390308883
 20
4554.380572240497
 30
0.0
 11
1384.50230273841
 21
4554.380572240497
 31
0.0
  0
LINE
  5
7E3D
330
81CE
100
AcDbEntity
  8
0
  6
ByBlock
100
AcDbLine
 10
1602.4390308883
 20
3299.3805722405
 30
0.0
 11
1384.50230273841
 21
3299.3805722405
 31
0.0
  0
LINE
  5
7E3E
330
81CE
100
AcDbEntity
  8
0
  6
ByBlock
100
AcDbLine
 10
1409.50230273841
 20
4504.380572240497
 30
0.0
 11
1409.50230273841
 21
3349.380572240499
 31
0.0
  0
INSERT
  5
7E3F
330
81CE
100
AcDbEntity
  8
0
  6
ByBlock
100
AcDbBlockReference
  2
_OPEN
 10
1409.50230273841
 20
4554.380572240497
 30
0.0
 41
50.0
 42
50.0
 43
50.0
 50
90.0
  0
INSERT
  5
7E40
330
81CE
100
AcDbEntity
  8
0
  6
ByBlock
100
AcDbBlockReference
  2
_OPEN
 10
1409.50230273841
 20
3299.3805722405
 30
0.0
 41
50.0
 42
50.0
 43
50.0
 50
270.0
  0
TEXT
  5
7E41
330
81CE
100
AcDbEntity
  8
3
100
AcDbText
 10
1397.00230273841
 20
3801.8805722405
 30
0.0
 40
75.0
  1
1255
 50
90.0
100
AcDbText
  0
POINT
  5
7E42
330
81CE
100
AcDbEntity
  8
DEFPOINTS
  6
ByBlock
 62
     0
100
AcDbPoint
 10
1627.439030888299
 20
4554.380572240497
 30
0.0
  0
POINT
  5
7E43
330
81CE
100
AcDbEntity
  8
DEFPOINTS
  6
ByBlock
 62
     0
100
AcDbPoint
 10
1627.439030888299
 20
3299.3805722405
 30
0.0
  0
POINT
  5
7E44
330
81CE
100
AcDbEntity
  8
DEFPOINTS
  6
ByBlock
 62
     0
100
AcDbPoint
 10
1409.50230273841
 20
3299.3805722405
 30
0.0
  0
ENDBLK
  5
7E45
330
81CE
100
AcDbEntity
  8
0
100
AcDbBlockEnd
  0
BLOCK
  5
81D1
330
81D0
100
AcDbEntity
  8
0
100
AcDbBlockBegin
  2
*D9
 70
     1
 10
0.0
 20
0.0
 30
0.0
  3
*D9
  1

  0
LINE
  5
7E47
330
81D0
100
AcDbEntity
  8
0
  6
ByBlock
100
AcDbLine
 10
3402.439030888299
 20
4049.380572240499
 30
0.0
 11
3554.591860011613
 21
4049.380572240499
 31
0.0
  0
LINE
  5
7E48
330
81D0
100
AcDbEntity
  8
0
  6
ByBlock
100
AcDbLine
 10
3402.439030888299
 20
3299.3805722405
 30
0.0
 11
3554.591860011613
 21
3299.3805722405
 31
0.0
  0
LINE
  5
7E49
330
81D0
100
AcDbEntity
  8
0
  6
ByBlock
100
AcDbLine
 10
3529.591860011613
 20
3999.380572240499
 30
0.0
 11
3529.591860011613
 21
3349.3805722405
 31
0.0
  0
INSERT
  5
7E4A
330
81D0
100
AcDbEntity
  8
0
  6
ByBlock
100
AcDbBlockReference
  2
_OPEN
 10
3529.591860011613
 20
4049.380572240499
 30
0.0
 41
50.0
 42
50.0
 43
50.0
 50
90.0
  0
INSERT
  5
7E4B
330
81D0
100
AcDbEntity
  8
0
  6
ByBlock
100
AcDbBlockReference
  2
_OPEN
 10
3529.591860011613
 20
3299.3805722405
 30
0.0
 41
50.0
 42
50.0
 43
50.0
 50
270.0
  0
TEXT
  5
7E4C
330
81D0
100
AcDbEntity
  8
3
100
AcDbText
 10
3517.091860011613
 20
3577.952000811928
 30
0.0
 40
75.0
  1
750
 50
90.0
100
AcDbText
  0
POINT
  5
7E4D
330
81D0
100
AcDbEntity
  8
DEFPOINTS
  6
ByBlock
 62
     0
100
AcDbPoint
 10
3377.439030888299
 20
4049.380572240499
 30
0.0
  0
POINT
  5
7E4E
330
81D0
100
AcDbEntity
  8
DEFPOINTS
  6
ByBlock
 62
     0
100
AcDbPoint
 10
3377.439030888299
 20
3299.3805722405
 30
0.0
  0
POINT
  5
7E4F
330
81D0
100
AcDbEntity
  8
DEFPOINTS
  6
ByBlock
 62
     0
100
AcDbPoint
 10
3529.591860011613
 20
3299.3805722405
 30
0.0
  0
ENDBLK
  5
7E50
330
81D0
100
AcDbEntity
  8
0
100
AcDbBlockEnd
  0
BLOCK
  5
81D3
330
81D2
100
AcDbEntity
  8
0
100
AcDbBlockBegin
  2
*D10
 70
     1
 10
0.0
 20
0.0
 30
0.0
  3
*D10
  1

  0
LINE
  5
7E52
330
81D2
100
AcDbEntity
  8
0
  6
ByBlock
100
AcDbLine
 10
3377.439030888299
 20
3274.3805722405
 30
0.0
 11
3377.439030888299
 21
3013.7147873961
 31
0.0
  0
LINE
  5
7E53
330
81D2
100
AcDbEntity
  8
0
  6
ByBlock
100
AcDbLine
 10
1627.439030888299
 20
3274.380572240499
 30
0.0
 11
1627.439030888299
 21
3013.7147873961
 31
0.0
  0
LINE
  5
7E54
330
81D2
100
AcDbEntity
  8
0
  6
ByBlock
100
AcDbLine
 10
3327.439030888299
 20
3038.7147873961
 30
0.0
 11
1677.4390308883
 21
3038.7147873961
 31
0.0
  0
INSERT
  5
7E55
330
81D2
100
AcDbEntity
  8
0
  6
ByBlock
100
AcDbBlockReference
  2
_OPEN
 10
3377.439030888299
 20
3038.7147873961
 30
0.0
 41
50.0
 42
50.0
 43
50.0
  0
INSERT
  5
7E56
330
81D2
100
AcDbEntity
  8
0
  6
ByBlock
100
AcDbBlockReference
  2
_OPEN
 10
1627.439030888299
 20
3038.7147873961
 30
0.0
 41
50.0
 42
50.0
 43
50.0
 50
180.0
  0
TEXT
  5
7E57
330
81D2
100
AcDbEntity
  8
3
100
AcDbText
 10
2377.439030888299
 20
3051.2147873961
 30
0.0
 40
75.0
  1
1750
100
AcDbText
  0
POINT
  5
7E58
330
81D2
100
AcDbEntity
  8
DEFPOINTS
  6
ByBlock
 62
     0
100
AcDbPoint
 10
3377.439030888299
 20
3299.3805722405
 30
0.0
  0
POINT
  5
7E59
330
81D2
100
AcDbEntity
  8
DEFPOINTS
  6
ByBlock
 62
     0
100
AcDbPoint
 10
1627.439030888299
 20
3299.3805722405
 30
0.0
  0
POINT
  5
7E5A
330
81D2
100
AcDbEntity
  8
DEFPOINTS
  6
ByBlock
 62
     0
100
AcDbPoint
 10
1627.439030888299
 20
3038.7147873961
 30
0.0
  0
ENDBLK
  5
7E5B
330
81D2
100
AcDbEntity
  8
0
100
AcDbBlockEnd
  0
BLOCK
  5
81D5
330
81D4
100
AcDbEntity
  8
0
100
AcDbBlockBegin
  2
*D11
 70
     1
 10
0.0
 20
0.0
 30
0.0
  3
*D11
  1

  0
LINE
  5
7FAE
330
81D4
100
AcDbEntity
  8
0
  6
ByBlock
100
AcDbLine
 10
3569.037576512395
 20
3108.184586066368
 30
0.0
 11
3569.037576512395
 21
3209.073169067424
 31
0.0
  0
LINE
  5
7FAF
330
81D4
100
AcDbEntity
  8
0
  6
ByBlock
100
AcDbLine
 10
4569.037576512396
 20
3108.184586066368
 30
0.0
 11
4569.037576512396
 21
3209.073169067424
 31
0.0
  0
LINE
  5
7FB0
330
81D4
100
AcDbEntity
  8
0
  6
ByBlock
100
AcDbLine
 10
3619.037576512395
 20
3184.073169067424
 30
0.0
 11
4519.037576512396
 21
3184.073169067424
 31
0.0
  0
INSERT
  5
7FB1
330
81D4
100
AcDbEntity
  8
0
  6
ByBlock
100
AcDbBlockReference
  2
_OPEN
 10
3569.037576512395
 20
3184.073169067424
 30
0.0
 41
50.0
 42
50.0
 43
50.0
 50
180.0
  0
INSERT
  5
7FB2
330
81D4
100
AcDbEntity
  8
0
  6
ByBlock
100
AcDbBlockReference
  2
_OPEN
 10
4569.037576512396
 20
3184.073169067424
 30
0.0
 41
50.0
 42
50.0
 43
50.0
  0
TEXT
  5
7FB3
330
81D4
100
AcDbEntity
  8
3
100
AcDbText
 10
3944.037576512397
 20
3196.573169067423
 30
0.0
 40
75.0
  1
1000
100
AcDbText
  0
POINT
  5
7FB4
330
81D4
100
AcDbEntity
  8
DEFPOINTS
  6
ByBlock
 62
     0
100
AcDbPoint
 10
3569.037576512395
 20
3083.184586066368
 30
0.0
  0
POINT
  5
7FB5
330
81D4
100
AcDbEntity
  8
DEFPOINTS
  6
ByBlock
 62
     0
100
AcDbPoint
 10
4569.037576512396
 20
3083.184586066368
 30
0.0
  0
POINT
  5
7FB6
330
81D4
100
AcDbEntity
  8
DEFPOINTS
  6
ByBlock
 62
     0
100
AcDbPoint
 10
4569.037576512396
 20
3184.073169067424
 30
0.0
  0
ENDBLK
  5
7FB7
330
81D4
100
AcDbEntity
  8
0
100
AcDbBlockEnd
  0
BLOCK
  5
81D7
330
81D6
100
AcDbEntity
  8
0
100
AcDbBlockBegin
  2
*D12
 70
     1
 10
0.0
 20
0.0
 30
0.0
  3
*D12
  1

  0
LINE
  5
810C
330
81D6
100
AcDbEntity
  8
3
100
AcDbLine
 10
2822.993139438522
 20
5050.677542897386
 30
0.0
 11
2822.993139438522
 21
5706.80082644834
 31
0.0
  0
LINE
  5
810D
330
81D6
100
AcDbEntity
  8
3
100
AcDbLine
 10
2122.993139438523
 20
5681.800826448338
 30
0.0
 11
2772.993139438522
 21
5681.800826448338
 31
0.0
  0
INSERT
  5
810E
330
81D6
100
AcDbEntity
  8
3
100
AcDbBlockReference
  2
_OPEN
 10
2072.993139438522
 20
5681.800826448338
 30
0.0
 41
50.0
 42
50.0
 43
50.0
 50
180.0
  0
INSERT
  5
810F
330
81D6
100
AcDbEntity
  8
3
100
AcDbBlockReference
  2
_OPEN
 10
2822.993139438522
 20
5681.800826448338
 30
0.0
 41
50.0
 42
50.0
 43
50.0
  0
TEXT
  5
813A
330
81D6
100
AcDbEntity
  8
3
100
AcDbText
 10
2297.99
 20
5599.05
 30
0.0
 40
75.0
  1
750
100
AcDbText
  0
POINT
  5
8111
330
81D6
100
AcDbEntity
  8
DEFPOINTS
 62
     0
100
AcDbPoint
 10
2072.993139438522
 20
5530.677542897386
 30
0.0
  0
POINT
  5
8112
330
81D6
100
AcDbEntity
  8
DEFPOINTS
 62
     0
100
AcDbPoint
 10
2822.993139438522
 20
5025.677542897387
 30
0.0
  0
POINT
  5
8113
330
81D6
100
AcDbEntity
  8
DEFPOINTS
 62
     0
100
AcDbPoint
 10
2822.993139438522
 20
5681.800826448338
 30
0.0
  0
ENDBLK
  5
7E86
330
81D6
100
AcDbEntity
  8
0
100
AcDbBlockEnd
  0
BLOCK
  5
81D9
330
81D8
100
AcDbEntity
  8
0
100
AcDbBlockBegin
  2
*D13
 70
     1
 10
0.0
 20
0.0
 30
0.0
  3
*D13
  1

  0
LINE
  5
7F77
330
81D8
100
AcDbEntity
  8
0
  6
ByBlock
100
AcDbLine
 10
4669.037576512397
 20
2523.684586066368
 30
0.0
 11
4669.037576512397
 21
3397.167932645344
 31
0.0
  0
LINE
  5
7F78
330
81D8
100
AcDbEntity
  8
0
  6
ByBlock
100
AcDbLine
 10
4069.037576512394
 20
3330.792959835359
 30
0.0
 11
4069.037576512394
 21
3397.167932645344
 31
0.0
  0
LINE
  5
7F79
330
81D8
100
AcDbEntity
  8
0
  6
ByBlock
100
AcDbLine
 10
4619.037576512396
 20
3372.167932645343
 30
0.0
 11
4119.037576512395
 21
3372.167932645343
 31
0.0
  0
INSERT
  5
7F7A
330
81D8
100
AcDbEntity
  8
0
  6
ByBlock
100
AcDbBlockReference
  2
_OPEN
 10
4669.037576512397
 20
3372.167932645343
 30
0.0
 41
50.0
 42
50.0
 43
50.0
  0
INSERT
  5
7F7B
330
81D8
100
AcDbEntity
  8
0
  6
ByBlock
100
AcDbBlockReference
  2
_OPEN
 10
4069.037576512394
 20
3372.167932645343
 30
0.0
 41
50.0
 42
50.0
 43
50.0
 50
180.0
  0
TEXT
  5
7F7C
330
81D8
100
AcDbEntity
  8
3
100
AcDbText
 10
4231.537576512395
 20
3416.8107897882
 30
0.0
 40
75.0
  1
(610)
100
AcDbText
  0
POINT
  5
7F7D
330
81D8
100
AcDbEntity
  8
DEFPOINTS
  6
ByBlock
 62
     0
100
AcDbPoint
 10
4669.037576512397
 20
2498.684586066368
 30
0.0
  0
POINT
  5
7F7E
330
81D8
100
AcDbEntity
  8
DEFPOINTS
  6
ByBlock
 62
     0
100
AcDbPoint
 10
4069.037576512394
 20
3305.792959835359
 30
0.0
  0
POINT
  5
7F7F
330
81D8
100
AcDbEntity
  8
DEFPOINTS
  6
ByBlock
 62
     0
100
AcDbPoint
 10
4069.037576512394
 20
3372.167932645343
 30
0.0
  0
ENDBLK
  5
7F80
330
81D8
100
AcDbEntity
  8
0
100
AcDbBlockEnd
  0
BLOCK
  5
81DB
330
81DA
100
AcDbEntity
  8
0
100
AcDbBlockBegin
  2
*D14
 70
     1
 10
0.0
 20
0.0
 30
0.0
  3
*D14
  1

  0
LINE
  5
8114
330
81DA
100
AcDbEntity
  8
3
100
AcDbLine
 10
3259.037576512395
 20
2783.184586066368
 30
0.0
 11
3259.037576512395
 21
3397.167932645344
 31
0.0
  0
LINE
  5
8115
330
81DA
100
AcDbEntity
  8
3
100
AcDbLine
 10
4019.037576512395
 20
3372.167932645343
 30
0.0
 11
3309.037576512395
 21
3372.167932645343
 31
0.0
  0
INSERT
  5
8116
330
81DA
100
AcDbEntity
  8
3
100
AcDbBlockReference
  2
_OPEN
 10
4069.037576512394
 20
3372.167932645343
 30
0.0
 41
50.0
 42
50.0
 43
50.0
  0
INSERT
  5
8117
330
81DA
100
AcDbEntity
  8
3
100
AcDbBlockReference
  2
_OPEN
 10
3259.037576512395
 20
3372.167932645343
 30
0.0
 41
50.0
 42
50.0
 43
50.0
 50
180.0
  0
TEXT
  5
813B
330
81DA
100
AcDbEntity
  8
3
100
AcDbText
 10
3514.04
 20
3351.92
 30
0.0
 40
75.0
  1
MAX
100
AcDbText
  0
TEXT
  5
813C
330
81DA
100
AcDbEntity
  8
3
100
AcDbText
 10
3514.04
 20
3254.42
 30
0.0
 40
75.0
  1
860
100
AcDbText
  0
POINT
  5
8119
330
81DA
100
AcDbEntity
  8
DEFPOINTS
 62
     0
100
AcDbPoint
 10
4069.037576512394
 20
3305.792959835359
 30
0.0
  0
POINT
  5
811A
330
81DA
100
AcDbEntity
  8
DEFPOINTS
 62
     0
100
AcDbPoint
 10
3259.037576512395
 20
2758.184586066368
 30
0.0
  0
POINT
  5
811B
330
81DA
100
AcDbEntity
  8
DEFPOINTS
 62
     0
100
AcDbPoint
 10
3259.037576512395
 20
3372.167932645343
 30
0.0
  0
ENDBLK
  5
7F75
330
81DA
100
AcDbEntity
  8
0
100
AcDbBlockEnd
  0
BLOCK
  5
81DD
330
81DC
100
AcDbEntity
  8
0
100
AcDbBlockBegin
  2
*D15
 70
     1
 10
0.0
 20
0.0
 30
0.0
  3
*D15
  1

  0
LINE
  5
811C
330
81DC
100
AcDbEntity
  8
3
100
AcDbLine
 10
1004.993139438523
 20
2504.184586066369
 30
0.0
 11
1004.993139438523
 21
3408.813332182236
 31
0.0
  0
LINE
  5
811D
330
81DC
100
AcDbEntity
  8
3
100
AcDbLine
 10
1522.993139438522
 20
3383.813332182235
 30
0.0
 11
1054.993139438523
 21
3383.813332182235
 31
0.0
  0
INSERT
  5
811E
330
81DC
100
AcDbEntity
  8
3
100
AcDbBlockReference
  2
_OPEN
 10
1572.993139438522
 20
3383.813332182235
 30
0.0
 41
50.0
 42
50.0
 43
50.0
  0
INSERT
  5
811F
330
81DC
100
AcDbEntity
  8
3
100
AcDbBlockReference
  2
_OPEN
 10
1004.993139438523
 20
3383.813332182235
 30
0.0
 41
50.0
 42
50.0
 43
50.0
 50
180.0
  0
TEXT
  5
813D
330
81DC
100
AcDbEntity
  8
3
100
AcDbText
 10
1138.99
 20
3301.06
 30
0.0
 40
75.0
  1
568
100
AcDbText
  0
POINT
  5
8121
330
81DC
100
AcDbEntity
  8
DEFPOINTS
 62
     0
100
AcDbPoint
 10
1572.993139438522
 20
3204.656377916759
 30
0.0
  0
POINT
  5
8122
330
81DC
100
AcDbEntity
  8
DEFPOINTS
 62
     0
100
AcDbPoint
 10
1004.993139438523
 20
2479.184586066368
 30
0.0
  0
POINT
  5
8123
330
81DC
100
AcDbEntity
  8
DEFPOINTS
 62
     0
100
AcDbPoint
 10
1004.993139438523
 20
3383.813332182235
 30
0.0
  0
ENDBLK
  5
7EA5
330
81DC
100
AcDbEntity
  8
0
100
AcDbBlockEnd
  0
BLOCK
  5
81DF
330
81DE
100
AcDbEntity
  8
0
100
AcDbBlockBegin
  2
*D16
 70
     1
 10
0.0
 20
0.0
 30
0.0
  3
*D16
  1

  0
LINE
  5
7EA7
330
81DE
100
AcDbEntity
  8
0
  6
ByBlock
100
AcDbLine
 10
2082.9390308883
 20
2106.88761540948
 30
0.0
 11
1300.965888986877
 21
2106.88761540948
 31
0.0
  0
LINE
  5
7EA8
330
81DE
100
AcDbEntity
  8
0
  6
ByBlock
100
AcDbLine
 10
1435.967239037909
 20
1561.887615409481
 30
0.0
 11
1300.965888986877
 21
1561.887615409481
 31
0.0
  0
LINE
  5
7EA9
330
81DE
100
AcDbEntity
  8
0
  6
ByBlock
100
AcDbLine
 10
1325.965888986877
 20
2056.88761540948
 30
0.0
 11
1325.965888986877
 21
1611.887615409481
 31
0.0
  0
INSERT
  5
7EAA
330
81DE
100
AcDbEntity
  8
0
  6
ByBlock
100
AcDbBlockReference
  2
_OPEN
 10
1325.965888986877
 20
2106.88761540948
 30
0.0
 41
50.0
 42
50.0
 43
50.0
 50
90.0
  0
INSERT
  5
7EAB
330
81DE
100
AcDbEntity
  8
0
  6
ByBlock
100
AcDbBlockReference
  2
_OPEN
 10
1325.965888986877
 20
1561.887615409481
 30
0.0
 41
50.0
 42
50.0
 43
50.0
 50
270.0
  0
TEXT
  5
7EAC
330
81DE
100
AcDbEntity
  8
3
100
AcDbText
 10
1313.465888986877
 20
1737.959043980909
 30
0.0
 40
75.0
  1
545
 50
90.0
100
AcDbText
  0
POINT
  5
7EAD
330
81DE
100
AcDbEntity
  8
DEFPOINTS
  6
ByBlock
 62
     0
100
AcDbPoint
 10
2107.9390308883
 20
2106.88761540948
 30
0.0
  0
POINT
  5
7EAE
330
81DE
100
AcDbEntity
  8
DEFPOINTS
  6
ByBlock
 62
     0
100
AcDbPoint
 10
1460.967239037908
 20
1561.887615409481
 30
0.0
  0
POINT
  5
7EAF
330
81DE
100
AcDbEntity
  8
DEFPOINTS
  6
ByBlock
 62
     0
100
AcDbPoint
 10
1325.965888986877
 20
1561.887615409481
 30
0.0
  0
ENDBLK
  5
7EB0
330
81DE
100
AcDbEntity
  8
0
100
AcDbBlockEnd
  0
BLOCK
  5
81E1
330
81E0
100
AcDbEntity
  8
0
100
AcDbBlockBegin
  2
*D17
 70
     1
 10
0.0
 20
0.0
 30
0.0
  3
*D17
  1

  0
LINE
  5
8124
330
81E0
100
AcDbEntity
  8
3
100
AcDbLine
 10
1047.993139438522
 20
1838.184586066368
 30
0.0
 11
746.5199975370998
 21
1838.184586066368
 31
0.0
  0
LINE
  5
8125
330
81E0
100
AcDbEntity
  8
3
100
AcDbLine
 10
771.5199975370999
 20
2488.184586066369
 30
0.0
 11
771.5199975370998
 21
1888.184586066368
 31
0.0
  0
INSERT
  5
8126
330
81E0
100
AcDbEntity
  8
3
100
AcDbBlockReference
  2
_OPEN
 10
771.5199975370999
 20
2538.184586066368
 30
0.0
 41
50.0
 42
50.0
 43
50.0
 50
90.0
  0
INSERT
  5
8127
330
81E0
100
AcDbEntity
  8
3
100
AcDbBlockReference
  2
_OPEN
 10
771.5199975370998
 20
1838.184586066368
 30
0.0
 41
50.0
 42
50.0
 43
50.0
 50
270.0
  0
TEXT
  5
813E
330
81E0
100
AcDbEntity
  8
3
100
AcDbText
 10
571.52
 20
2055.43
 30
0.0
 40
75.0
  1
700
100
AcDbText
  0
POINT
  5
8129
330
81E0
100
AcDbEntity
  8
DEFPOINTS
 62
     0
100
AcDbPoint
 10
906.521347588132
 20
2538.184586066368
 30
0.0
  0
POINT
  5
812A
330
81E0
100
AcDbEntity
  8
DEFPOINTS
 62
     0
100
AcDbPoint
 10
1072.993139438522
 20
1838.184586066368
 30
0.0
  0
POINT
  5
812B
330
81E0
100
AcDbEntity
  8
DEFPOINTS
 62
     0
100
AcDbPoint
 10
771.5199975370998
 20
1838.184586066368
 30
0.0
  0
ENDBLK
  5
7EBA
330
81E0
100
AcDbEntity
  8
0
100
AcDbBlockEnd
  0
BLOCK
  5
81E3
330
81E2
100
AcDbEntity
  8
0
100
AcDbBlockBegin
  2
*D18
 70
     1
 10
0.0
 20
0.0
 30
0.0
  3
*D18
  1

  0
LINE
  5
8036
330
81E2
100
AcDbEntity
  8
0
  6
ByBlock
 62
     0
100
AcDbLine
 10
1060.493139438522
 20
1838.184586066368
 30
0.0
 11
746.5199975370998
 21
1838.184586066368
 31
0.0
  0
LINE
  5
8037
330
81E2
100
AcDbEntity
  8
0
  6
ByBlock
 62
     0
100
AcDbLine
 10
1060.493139438522
 20
1811.184586066368
 30
0.0
 11
746.5199975370998
 21
1811.184586066368
 31
0.0
  0
LINE
  5
8038
330
81E2
100
AcDbEntity
  8
0
  6
ByBlock
 62
     0
100
AcDbLine
 10
771.5199975370998
 20
1888.184586066368
 30
0.0
 11
771.5199975370998
 21
1938.184586066368
 31
0.0
  0
LINE
  5
8039
330
81E2
100
AcDbEntity
  8
0
  6
ByBlock
 62
     0
100
AcDbLine
 10
771.5199975370998
 20
1761.184586066368
 30
0.0
 11
771.5199975370998
 21
1711.184586066369
 31
0.0
  0
TEXT
  5
803A
330
81E2
100
AcDbEntity
  8
3
 62
     0
100
AcDbText
 10
676.8771403942424
 20
1715.756014637797
 30
0.0
 40
75.0
  1
(27) 
 50
90.0
100
AcDbText
  0
LINE
  5
803B
330
81E2
100
AcDbEntity
  8
0
  6
ByBlock
 62
     0
100
AcDbLine
 10
771.5199975370998
 20
1838.184586066368
 30
0.0
 11
771.5199975370998
 21
1811.184586066368
 31
0.0
  0
INSERT
  5
803C
330
81E2
100
AcDbEntity
  8
0
  6
ByBlock
 62
     0
100
AcDbBlockReference
  2
_OPEN
 10
771.5199975370998
 20
1838.184586066368
 30
0.0
 41
50.0
 42
50.0
 43
50.0
 50
270.0
  0
INSERT
  5
803D
330
81E2
100
AcDbEntity
  8
0
  6
ByBlock
 62
     0
100
AcDbBlockReference
  2
_DOT
 10
771.5199975370998
 20
1811.184586066368
 30
0.0
 41
50.0
 42
50.0
 43
50.0
 50
90.0
  0
POINT
  5
803E
330
81E2
100
AcDbEntity
  8
DEFPOINTS
  6
ByBlock
 62
     0
100
AcDbPoint
 10
1072.993139438522
 20
1838.184586066368
 30
0.0
  0
POINT
  5
803F
330
81E2
100
AcDbEntity
  8
DEFPOINTS
  6
ByBlock
 62
     0
100
AcDbPoint
 10
1072.993139438522
 20
1811.184586066368
 30
0.0
  0
POINT
  5
8040
330
81E2
100
AcDbEntity
  8
DEFPOINTS
  6
ByBlock
 62
     0
100
AcDbPoint
 10
771.5199975370998
 20
1811.184586066368
 30
0.0
  0
ENDBLK
  5
8041
330
81E2
100
AcDbEntity
  8
0
100
AcDbBlockEnd
  0
BLOCK
  5
81E9
330
81E4
100
AcDbEntity
  8
0
100
AcDbBlockBegin
  2
_DOT
 70
     0
 10
0.0
 20
0.0
 30
0.0
  3
_DOT
  1

  0
LWPOLYLINE
  5
7F61
330
81E4
100
AcDbEntity
  8
0
  6
ByBlock
 62
     0
100
AcDbPolyline
 90
        2
 70
     1
 43
0.25
 10
-0.125
 20
0.0
 42
1.0
 10
0.125
 20
0.0
 42
1.0
  0
LINE
  5
7F65
330
81E4
100
AcDbEntity
  8
0
  6
ByBlock
 62
     0
100
AcDbLine
 10
-0.25
 20
0.0
 30
0.0
 11
-1.0
 21
0.0
 31
0.0
  0
ENDBLK
  5
7F37
330
81E4
100
AcDbEntity
  8
0
100
AcDbBlockEnd
  0
BLOCK
  5
81E6
330
81E5
100
AcDbEntity
  8
0
100
AcDbBlockBegin
  2
*D20
 70
     1
 10
0.0
 20
0.0
 30
0.0
  3
*D20
  1

  0
LINE
  5
812C
330
81E5
100
AcDbEntity
  8
3
 62
     0
100
AcDbLine
 10
1060.493139438522
 20
1811.184586066368
 30
0.0
 11
746.5199975370999
 21
1811.184586066368
 31
0.0
  0
LINE
  5
812D
330
81E5
100
AcDbEntity
  8
3
 62
     0
100
AcDbLine
 10
1060.493139438522
 20
1711.184586066369
 30
0.0
 11
746.5199975370998
 21
1711.184586066369
 31
0.0
  0
LINE
  5
812E
330
81E5
100
AcDbEntity
  8
3
 62
     0
100
AcDbLine
 10
771.5199975370999
 20
1861.184586066368
 30
0.0
 11
771.5199975370999
 21
1911.184586066369
 31
0.0
  0
LINE
  5
812F
330
81E5
100
AcDbEntity
  8
3
 62
     0
100
AcDbLine
 10
771.5199975370998
 20
1661.184586066369
 30
0.0
 11
771.5199975370998
 21
1382.61315749494
 31
0.0
  0
LINE
  5
8130
330
81E5
100
AcDbEntity
  8
3
 62
     0
100
AcDbLine
 10
771.5199975370999
 20
1811.184586066368
 30
0.0
 11
771.5199975370998
 21
1711.184586066369
 31
0.0
  0
INSERT
  5
8131
330
81E5
100
AcDbEntity
  8
3
 62
     0
100
AcDbBlockReference
  2
_DOT
 10
771.5199975370999
 20
1811.184586066368
 30
0.0
 41
50.0
 42
50.0
 43
50.0
 50
270.0
  0
INSERT
  5
8132
330
81E5
100
AcDbEntity
  8
3
 62
     0
100
AcDbBlockReference
  2
_OPEN
 10
771.5199975370998
 20
1711.184586066369
 30
0.0
 41
50.0
 42
50.0
 43
50.0
 50
90.0
  0
TEXT
  5
813F
330
81E5
100
AcDbEntity
  8
3
 62
     0
100
AcDbText
 10
559.02
 20
1364.15
 30
0.0
 40
75.0
  1
100
100
AcDbText
  0
POINT
  5
8134
330
81E5
100
AcDbEntity
  8
DEFPOINTS
 62
     0
100
AcDbPoint
 10
1072.993139438522
 20
1811.184586066368
 30
0.0
  0
POINT
  5
8135
330
81E5
100
AcDbEntity
  8
DEFPOINTS
 62
     0
100
AcDbPoint
 10
1072.993139438522
 20
1711.184586066369
 30
0.0
  0
POINT
  5
8136
330
81E5
100
AcDbEntity
  8
DEFPOINTS
 62
     0
100
AcDbPoint
 10
771.5199975370998
 20
1711.184586066369
 30
0.0
  0
ENDBLK
  5
7F5E
330
81E5
100
AcDbEntity
  8
0
100
AcDbBlockEnd
  0
BLOCK
  5
81E8
330
81E7
100
AcDbEntity
  8
0
100
AcDbBlockBegin
  2
*D21
 70
     1
 10
0.0
 20
0.0
 30
0.0
  3
*D21
  1

  0
LINE
  5
7EE0
330
81E7
100
AcDbEntity
  8
0
  6
ByBlock
100
AcDbLine
 10
1559.4390308883
 20
1527.887615409481
 30
0.0
 11
1559.4390308883
 21
2580.097017149203
 31
0.0
  0
LINE
  5
7EE1
330
81E7
100
AcDbEntity
  8
0
  6
ByBlock
100
AcDbLine
 10
3377.439030888301
 20
986.8876154094804
 30
0.0
 11
3377.439030888301
 21
2580.097017149203
 31
0.0
  0
LINE
  5
7EE2
330
81E7
100
AcDbEntity
  8
0
  6
ByBlock
100
AcDbLine
 10
1609.4390308883
 20
2555.097017149203
 30
0.0
 11
3327.439030888299
 21
2555.097017149203
 31
0.0
  0
INSERT
  5
7EE3
330
81E7
100
AcDbEntity
  8
0
  6
ByBlock
100
AcDbBlockReference
  2
_OPEN
 10
1559.4390308883
 20
2555.097017149203
 30
0.0
 41
50.0
 42
50.0
 43
50.0
 50
180.0
  0
INSERT
  5
7EE4
330
81E7
100
AcDbEntity
  8
0
  6
ByBlock
100
AcDbBlockReference
  2
_OPEN
 10
3377.439030888301
 20
2555.097017149203
 30
0.0
 41
50.0
 42
50.0
 43
50.0
  0
TEXT
  5
7EE5
330
81E7
100
AcDbEntity
  8
3
100
AcDbText
 10
2350.581888031157
 20
2567.597017149203
 30
0.0
 40
75.0
  1
1818
100
AcDbText
  0
POINT
  5
7EE6
330
81E7
100
AcDbEntity
  8
DEFPOINTS
  6
ByBlock
 62
     0
100
AcDbPoint
 10
1559.4390308883
 20
1502.887615409481
 30
0.0
  0
POINT
  5
7EE7
330
81E7
100
AcDbEntity
  8
DEFPOINTS
  6
ByBlock
 62
     0
100
AcDbPoint
 10
3377.439030888301
 20
961.8876154094804
 30
0.0
  0
POINT
  5
7EE8
330
81E7
100
AcDbEntity
  8
DEFPOINTS
  6
ByBlock
 62
     0
100
AcDbPoint
 10
3377.439030888301
 20
2555.097017149203
 30
0.0
  0
ENDBLK
  5
7EE9
330
81E7
100
AcDbEntity
  8
0
100
AcDbBlockEnd
  0
BLOCK
  5
81EB
330
81EA
100
AcDbEntity
  8
0
100
AcDbBlockBegin
  2
*D22
 70
     1
 10
0.0
 20
0.0
 30
0.0
  3
*D22
  1

  0
LINE
  5
8056
330
81EA
100
AcDbEntity
  8
0
  6
ByBlock
 62
     0
100
AcDbLine
 10
1072.993139438522
 20
1686.184586066368
 30
0.0
 11
1072.993139438522
 21
1512.564655594709
 31
0.0
  0
LINE
  5
8057
330
81EA
100
AcDbEntity
  8
0
  6
ByBlock
 62
     0
100
AcDbLine
 10
1572.993139438522
 20
1686.184586066368
 30
0.0
 11
1572.993139438522
 21
1512.564655594709
 31
0.0
  0
LINE
  5
8058
330
81EA
100
AcDbEntity
  8
0
  6
ByBlock
 62
     0
100
AcDbLine
 10
1122.993139438522
 20
1537.564655594709
 30
0.0
 11
1522.993139438522
 21
1537.564655594709
 31
0.0
  0
INSERT
  5
8059
330
81EA
100
AcDbEntity
  8
0
  6
ByBlock
 62
     0
100
AcDbBlockReference
  2
_OPEN
 10
1072.993139438522
 20
1537.564655594709
 30
0.0
 41
50.0
 42
50.0
 43
50.0
 50
180.0
  0
INSERT
  5
805A
330
81EA
100
AcDbEntity
  8
0
  6
ByBlock
 62
     0
100
AcDbBlockReference
  2
_OPEN
 10
1572.993139438522
 20
1537.564655594709
 30
0.0
 41
50.0
 42
50.0
 43
50.0
  0
TEXT
  5
805B
330
81EA
100
AcDbEntity
  8
3
 62
     0
100
AcDbText
 10
1226.564568009951
 20
1562.564655594709
 30
0.0
 40
75.0
  1
500
100
AcDbText
  0
POINT
  5
805C
330
81EA
100
AcDbEntity
  8
DEFPOINTS
  6
ByBlock
 62
     0
100
AcDbPoint
 10
1072.993139438522
 20
1711.184586066369
 30
0.0
  0
POINT
  5
805D
330
81EA
100
AcDbEntity
  8
DEFPOINTS
  6
ByBlock
 62
     0
100
AcDbPoint
 10
1572.993139438522
 20
1711.184586066369
 30
0.0
  0
POINT
  5
805E
330
81EA
100
AcDbEntity
  8
DEFPOINTS
  6
ByBlock
 62
     0
100
AcDbPoint
 10
1572.993139438522
 20
1537.564655594709
 30
0.0
  0
ENDBLK
  5
805F
330
81EA
100
AcDbEntity
  8
0
100
AcDbBlockEnd
  0
BLOCK
  5
81ED
330
81EC
100
AcDbEntity
  8
0
100
AcDbBlockBegin
  2
*D23
 70
     1
 10
0.0
 20
0.0
 30
0.0
  3
*D23
  1

  0
LINE
  5
8063
330
81EC
100
AcDbEntity
  8
0
  6
ByBlock
 62
     0
100
AcDbLine
 10
1572.993139438522
 20
1686.184586066368
 30
0.0
 11
1572.993139438522
 21
1512.564655594709
 31
0.0
  0
LINE
  5
8064
330
81EC
100
AcDbEntity
  8
0
  6
ByBlock
 62
     0
100
AcDbLine
 10
2822.993139438522
 20
1686.184586066368
 30
0.0
 11
2822.993139438522
 21
1512.564655594709
 31
0.0
  0
LINE
  5
8065
330
81EC
100
AcDbEntity
  8
0
  6
ByBlock
 62
     0
100
AcDbLine
 10
1622.993139438522
 20
1537.564655594709
 30
0.0
 11
2772.993139438522
 21
1537.564655594709
 31
0.0
  0
INSERT
  5
8066
330
81EC
100
AcDbEntity
  8
0
  6
ByBlock
 62
     0
100
AcDbBlockReference
  2
_OPEN
 10
1572.993139438522
 20
1537.564655594709
 30
0.0
 41
50.0
 42
50.0
 43
50.0
 50
180.0
  0
INSERT
  5
8067
330
81EC
100
AcDbEntity
  8
0
  6
ByBlock
 62
     0
100
AcDbBlockReference
  2
_OPEN
 10
2822.993139438522
 20
1537.564655594709
 30
0.0
 41
50.0
 42
50.0
 43
50.0
  0
TEXT
  5
8068
330
81EC
100
AcDbEntity
  8
3
 62
     0
100
AcDbText
 10
2072.993139438522
 20
1562.564655594709
 30
0.0
 40
75.0
  1
1250
100
AcDbText
  0
POINT
  5
8069
330
81EC
100
AcDbEntity
  8
DEFPOINTS
  6
ByBlock
 62
     0
100
AcDbPoint
 10
1572.993139438522
 20
1711.184586066369
 30
0.0
  0
POINT
  5
806A
330
81EC
100
AcDbEntity
  8
DEFPOINTS
  6
ByBlock
 62
     0
100
AcDbPoint
 10
2822.993139438522
 20
1711.184586066369
 30
0.0
  0
POINT
  5
806B
330
81EC
100
AcDbEntity
  8
DEFPOINTS
  6
ByBlock
 62
     0
100
AcDbPoint
 10
2822.993139438522
 20
1537.564655594709
 30
0.0
  0
ENDBLK
  5
806C
330
81EC
100
AcDbEntity
  8
0
100
AcDbBlockEnd
  0
BLOCK
  5
81EF
330
81EE
100
AcDbEntity
  8
0
100
AcDbBlockBegin
  2
*D24
 70
     1
 10
0.0
 20
0.0
 30
0.0
  3
*D24
  1

  0
LINE
  5
8070
330
81EE
100
AcDbEntity
  8
0
  6
ByBlock
 62
     0
100
AcDbLine
 10
3367.037576512395
 20
1686.184586066368
 30
0.0
 11
3367.037576512395
 21
1512.564655594709
 31
0.0
  0
LINE
  5
8071
330
81EE
100
AcDbEntity
  8
0
  6
ByBlock
 62
     0
100
AcDbLine
 10
4069.037576512396
 20
1686.184586066368
 30
0.0
 11
4069.037576512396
 21
1512.564655594709
 31
0.0
  0
LINE
  5
8072
330
81EE
100
AcDbEntity
  8
0
  6
ByBlock
 62
     0
100
AcDbLine
 10
3417.037576512395
 20
1537.564655594709
 30
0.0
 11
4019.037576512396
 21
1537.564655594709
 31
0.0
  0
INSERT
  5
8073
330
81EE
100
AcDbEntity
  8
0
  6
ByBlock
 62
     0
100
AcDbBlockReference
  2
_OPEN
 10
3367.037576512395
 20
1537.564655594709
 30
0.0
 41
50.0
 42
50.0
 43
50.0
 50
180.0
  0
INSERT
  5
8074
330
81EE
100
AcDbEntity
  8
0
  6
ByBlock
 62
     0
100
AcDbBlockReference
  2
_OPEN
 10
4069.037576512396
 20
1537.564655594709
 30
0.0
 41
50.0
 42
50.0
 43
50.0
  0
TEXT
  5
8075
330
81EE
100
AcDbEntity
  8
3
 62
     0
100
AcDbText
 10
3621.609005083824
 20
1562.564655594709
 30
0.0
 40
75.0
  1
702
100
AcDbText
  0
POINT
  5
8076
330
81EE
100
AcDbEntity
  8
DEFPOINTS
  6
ByBlock
 62
     0
100
AcDbPoint
 10
3367.037576512395
 20
1711.184586066369
 30
0.0
  0
POINT
  5
8077
330
81EE
100
AcDbEntity
  8
DEFPOINTS
  6
ByBlock
 62
     0
100
AcDbPoint
 10
4069.037576512396
 20
1711.184586066369
 30
0.0
  0
POINT
  5
8078
330
81EE
100
AcDbEntity
  8
DEFPOINTS
  6
ByBlock
 62
     0
100
AcDbPoint
 10
4069.037576512396
 20
1537.564655594709
 30
0.0
  0
ENDBLK
  5
8079
330
81EE
100
AcDbEntity
  8
0
100
AcDbBlockEnd
  0
BLOCK
  5
81F1
330
81F0
100
AcDbEntity
  8
0
100
AcDbBlockBegin
  2
*D25
 70
     1
 10
0.0
 20
0.0
 30
0.0
  3
*D25
  1

  0
LINE
  5
807D
330
81F0
100
AcDbEntity
  8
0
  6
ByBlock
 62
     0
100
AcDbLine
 10
4069.037576512396
 20
1686.184586066368
 30
0.0
 11
4069.037576512396
 21
1512.564655594709
 31
0.0
  0
LINE
  5
807E
330
81F0
100
AcDbEntity
  8
0
  6
ByBlock
 62
     0
100
AcDbLine
 10
4622.037576512396
 20
1686.184586066368
 30
0.0
 11
4622.037576512396
 21
1512.564655594709
 31
0.0
  0
LINE
  5
807F
330
81F0
100
AcDbEntity
  8
0
  6
ByBlock
 62
     0
100
AcDbLine
 10
4119.037576512396
 20
1537.564655594709
 30
0.0
 11
4572.037576512395
 21
1537.564655594709
 31
0.0
  0
INSERT
  5
8080
330
81F0
100
AcDbEntity
  8
0
  6
ByBlock
 62
     0
100
AcDbBlockReference
  2
_OPEN
 10
4069.037576512396
 20
1537.564655594709
 30
0.0
 41
50.0
 42
50.0
 43
50.0
 50
180.0
  0
INSERT
  5
8081
330
81F0
100
AcDbEntity
  8
0
  6
ByBlock
 62
     0
100
AcDbBlockReference
  2
_OPEN
 10
4622.037576512396
 20
1537.564655594709
 30
0.0
 41
50.0
 42
50.0
 43
50.0
  0
TEXT
  5
8082
330
81F0
100
AcDbEntity
  8
3
 62
     0
100
AcDbText
 10
4249.109005083823
 20
1562.564655594709
 30
0.0
 40
75.0
  1
553
100
AcDbText
  0
POINT
  5
8083
330
81F0
100
AcDbEntity
  8
DEFPOINTS
  6
ByBlock
 62
     0
100
AcDbPoint
 10
4069.037576512396
 20
1711.184586066369
 30
0.0
  0
POINT
  5
8084
330
81F0
100
AcDbEntity
  8
DEFPOINTS
  6
ByBlock
 62
     0
100
AcDbPoint
 10
4622.037576512396
 20
1711.184586066369
 30
0.0
  0
POINT
  5
8085
330
81F0
100
AcDbEntity
  8
DEFPOINTS
  6
ByBlock
 62
     0
100
AcDbPoint
 10
4622.037576512396
 20
1537.564655594709
 30
0.0
  0
ENDBLK
  5
8086
330
81F0
100
AcDbEntity
  8
0
100
AcDbBlockEnd
  0
BLOCK
  5
81F3
330
81F2
100
AcDbEntity
  8
0
100
AcDbBlockBegin
  2
*D26
 70
     1
 10
0.0
 20
0.0
 30
0.0
  3
*D26
  1

  0
LINE
  5
808A
330
81F2
100
AcDbEntity
  8
0
  6
ByBlock
 62
     0
100
AcDbLine
 10
1047.993139438522
 20
1711.184586066369
 30
0.0
 11
532.0501492209258
 21
1711.184586066369
 31
0.0
  0
LINE
  5
808B
330
81F2
100
AcDbEntity
  8
0
  6
ByBlock
 62
     0
100
AcDbLine
 10
1528.493139438523
 20
3083.184586066368
 30
0.0
 11
532.0501492209258
 21
3083.184586066368
 31
0.0
  0
LINE
  5
808C
330
81F2
100
AcDbEntity
  8
0
  6
ByBlock
 62
     0
100
AcDbLine
 10
557.0501492209258
 20
1761.184586066368
 30
0.0
 11
557.0501492209258
 21
3033.184586066368
 31
0.0
  0
INSERT
  5
808D
330
81F2
100
AcDbEntity
  8
0
  6
ByBlock
 62
     0
100
AcDbBlockReference
  2
_OPEN
 10
557.0501492209258
 20
1711.184586066369
 30
0.0
 41
50.0
 42
50.0
 43
50.0
 50
270.0
  0
INSERT
  5
808E
330
81F2
100
AcDbEntity
  8
0
  6
ByBlock
 62
     0
100
AcDbBlockReference
  2
_OPEN
 10
557.0501492209258
 20
3083.184586066368
 30
0.0
 41
50.0
 42
50.0
 43
50.0
 50
90.0
  0
TEXT
  5
808F
330
81F2
100
AcDbEntity
  8
3
 62
     0
100
AcDbText
 10
499.9072920780688
 20
2223.970300352083
 30
0.0
 40
75.0
  1
(1372)
 50
90.0
100
AcDbText
  0
POINT
  5
8090
330
81F2
100
AcDbEntity
  8
DEFPOINTS
  6
ByBlock
 62
     0
100
AcDbPoint
 10
1072.993139438522
 20
1711.184586066369
 30
0.0
  0
POINT
  5
8091
330
81F2
100
AcDbEntity
  8
DEFPOINTS
  6
ByBlock
 62
     0
100
AcDbPoint
 10
1553.493139438523
 20
3083.184586066368
 30
0.0
  0
POINT
  5
8092
330
81F2
100
AcDbEntity
  8
DEFPOINTS
  6
ByBlock
 62
     0
100
AcDbPoint
 10
557.0501492209258
 20
3083.184586066368
 30
0.0
  0
ENDBLK
  5
8093
330
81F2
100
AcDbEntity
  8
0
100
AcDbBlockEnd
  0
BLOCK
  5
8278
330
8277
100
AcDbEntity
  8
0
100
AcDbBlockBegin
  2
*D28
 70
     1
 10
0.0
 20
0.0
 30
0.0
  3
*D28
  1

  0
LINE
  5
82C9
330
8277
100
AcDbEntity
  8
3
 62
     0
370
    -2
100
AcDbLine
 10
3169.037576512395
 20
2783.184586066368
 30
0.0
 11
3169.037576512395
 21
3550.95501357763
 31
0.0
  0
LINE
  5
82CA
330
8277
100
AcDbEntity
  8
3
 62
     0
370
    -2
100
AcDbLine
 10
4069.037576512394
 20
3296.573169067424
 30
0.0
 11
4069.037576512394
 21
3550.95501357763
 31
0.0
  0
LINE
  5
82CB
330
8277
100
AcDbEntity
  8
3
 62
     0
370
    -2
100
AcDbLine
 10
3219.037576512395
 20
3525.95501357763
 30
0.0
 11
4019.037576512395
 21
3525.95501357763
 31
0.0
  0
INSERT
  5
82CC
330
8277
100
AcDbEntity
  8
3
 62
     0
370
    -2
100
AcDbBlockReference
  2
_OPEN
 10
3169.037576512395
 20
3525.95501357763
 30
0.0
 41
50.0
 42
50.0
 43
50.0
 50
180.0
  0
INSERT
  5
82CD
330
8277
100
AcDbEntity
  8
3
 62
     0
370
    -2
100
AcDbBlockReference
  2
_OPEN
 10
4069.037576512394
 20
3525.95501357763
 30
0.0
 41
50.0
 42
50.0
 43
50.0
  0
MTEXT
  5
82CE
330
8277
100
AcDbEntity
  8
3
 62
     0
100
AcDbMText
 10
3619.037576512395
 20
3608.097870720487
 30
0.0
 40
75.0
 41
0.0
 71
     5
 72
     1
  1
\A1;(900)
 73
     1
 44
1.0
1001
ACAD
1000
MTEXTBEGIN
1070
    73
1070
     1
1070
    44
1040
1.0
1070
    74
1070
     0
1000
MTEXTEND
  0
POINT
  5
82CF
330
8277
100
AcDbEntity
  8
DEFPOINTS
 62
     0
100
AcDbPoint
 10
3169.037576512395
 20
2758.184586066368
 30
0.0
  0
POINT
  5
82D0
330
8277
100
AcDbEntity
  8
DEFPOINTS
 62
     0
100
AcDbPoint
 10
4069.037576512394
 20
3271.573169067423
 30
0.0
  0
POINT
  5
82D1
330
8277
100
AcDbEntity
  8
DEFPOINTS
 62
     0
100
AcDbPoint
 10
4069.037576512394
 20
3525.95501357763
 30
0.0
  0
ENDBLK
  5
8279
330
8277
100
AcDbEntity
  8
0
100
AcDbBlockEnd
  0
BLOCK
  5
8285
330
8284
100
AcDbEntity
  8
0
100
AcDbBlockBegin
  2
*D29
 70
     1
 10
0.0
 20
0.0
 30
0.0
  3
*D29
  1

  0
LINE
  5
82D2
330
8284
100
AcDbEntity
  8
3
 62
     0
370
    -2
100
AcDbLine
 10
4069.037576512394
 20
3296.573169067424
 30
0.0
 11
4069.037576512394
 21
3550.95501357763
 31
0.0
  0
LINE
  5
82D3
330
8284
100
AcDbEntity
  8
3
 62
     0
370
    -2
100
AcDbLine
 10
4679.037576512397
 20
2523.684586066368
 30
0.0
 11
4679.037576512397
 21
3550.95501357763
 31
0.0
  0
LINE
  5
82D4
330
8284
100
AcDbEntity
  8
3
 62
     0
370
    -2
100
AcDbLine
 10
4119.037576512394
 20
3525.95501357763
 30
0.0
 11
4629.037576512398
 21
3525.95501357763
 31
0.0
  0
INSERT
  5
82D5
330
8284
100
AcDbEntity
  8
3
 62
     0
370
    -2
100
AcDbBlockReference
  2
_OPEN
 10
4069.037576512394
 20
3525.95501357763
 30
0.0
 41
50.0
 42
50.0
 43
50.0
 50
180.0
  0
INSERT
  5
82D6
330
8284
100
AcDbEntity
  8
3
 62
     0
370
    -2
100
AcDbBlockReference
  2
_OPEN
 10
4679.037576512397
 20
3525.95501357763
 30
0.0
 41
50.0
 42
50.0
 43
50.0
  0
MTEXT
  5
82D7
330
8284
100
AcDbEntity
  8
3
 62
     0
100
AcDbMText
 10
4374.037576512395
 20
3608.097870720487
 30
0.0
 40
75.0
 41
0.0
 71
     5
 72
     1
  1
\A1;(610)
 73
     1
 44
1.0
1001
ACAD
1000
MTEXTBEGIN
1070
    73
1070
     1
1070
    44
1040
1.0
1070
    74
1070
     0
1000
MTEXTEND
  0
POINT
  5
82D8
330
8284
100
AcDbEntity
  8
DEFPOINTS
 62
     0
100
AcDbPoint
 10
4069.037576512394
 20
3271.573169067423
 30
0.0
  0
POINT
  5
82D9
330
8284
100
AcDbEntity
  8
DEFPOINTS
 62
     0
100
AcDbPoint
 10
4679.037576512397
 20
2498.684586066368
 30
0.0
  0
POINT
  5
82DA
330
8284
100
AcDbEntity
  8
DEFPOINTS
 62
     0
100
AcDbPoint
 10
4679.037576512397
 20
3525.95501357763
 30
0.0
  0
ENDBLK
  5
8286
330
8284
100
AcDbEntity
  8
0
100
AcDbBlockEnd
  0
BLOCK
  5
82DD
330
82DC
100
AcDbEntity
  8
0
100
AcDbBlockBegin
  2
*D30
 70
     1
 10
0.0
 20
0.0
 30
0.0
  3
*D30
  1

  0
LINE
  5
82DF
330
82DC
100
AcDbEntity
  8
3
 62
     0
370
    -2
100
AcDbLine
 10
1072.993139438522
 20
4250.677542897386
 30
0.0
 11
1072.993139438522
 21
3887.547551905861
 31
0.0
  0
LINE
  5
82E0
330
82DC
100
AcDbEntity
  8
3
 62
     0
370
    -2
100
AcDbLine
 10
2822.993139438522
 20
4250.677542897386
 30
0.0
 11
2822.993139438522
 21
3887.547551905861
 31
0.0
  0
LINE
  5
82E1
330
82DC
100
AcDbEntity
  8
3
 62
     0
370
    -2
100
AcDbLine
 10
1122.993139438522
 20
3912.547551905861
 30
0.0
 11
2772.993139438522
 21
3912.547551905861
 31
0.0
  0
INSERT
  5
82E2
330
82DC
100
AcDbEntity
  8
3
 62
     0
370
    -2
100
AcDbBlockReference
  2
_OPEN
 10
1072.993139438522
 20
3912.547551905861
 30
0.0
 41
50.0
 42
50.0
 43
50.0
 50
180.0
  0
INSERT
  5
82E3
330
82DC
100
AcDbEntity
  8
3
 62
     0
370
    -2
100
AcDbBlockReference
  2
_OPEN
 10
2822.993139438522
 20
3912.547551905861
 30
0.0
 41
50.0
 42
50.0
 43
50.0
  0
MTEXT
  5
82E4
330
82DC
100
AcDbEntity
  8
3
 62
     0
100
AcDbMText
 10
1947.993139438522
 20
3975.047551905861
 30
0.0
 40
75.0
 41
0.0
 71
     5
 72
     1
  1
\A1;1750
 73
     1
 44
1.0
1001
ACAD
1000
MTEXTBEGIN
1070
    73
1070
     1
1070
    44
1040
1.0
1070
    74
1070
     0
1000
MTEXTEND
  0
POINT
  5
82E5
330
82DC
100
AcDbEntity
  8
DEFPOINTS
 62
     0
100
AcDbPoint
 10
1072.993139438522
 20
4275.677542897386
 30
0.0
  0
POINT
  5
82E6
330
82DC
100
AcDbEntity
  8
DEFPOINTS
 62
     0
100
AcDbPoint
 10
2822.993139438522
 20
4275.677542897386
 30
0.0
  0
POINT
  5
82E7
330
82DC
100
AcDbEntity
  8
DEFPOINTS
 62
     0
100
AcDbPoint
 10
2822.993139438522
 20
3912.547551905861
 30
0.0
  0
ENDBLK
  5
82DE
330
82DC
100
AcDbEntity
  8
0
100
AcDbBlockEnd
  0
BLOCK
  5
82EA
330
82E9
100
AcDbEntity
  8
0
100
AcDbBlockBegin
  2
*D31
 70
     1
 10
0.0
 20
0.0
 30
0.0
  3
*D31
  1

  0
LINE
  5
82F5
330
82E9
100
AcDbEntity
  8
3
 62
     0
370
    -2
100
AcDbLine
 10
2072.993139438522
 20
5555.677542897386
 30
0.0
 11
2072.993139438522
 21
5706.80082644834
 31
0.0
  0
LINE
  5
82F6
330
82E9
100
AcDbEntity
  8
3
 62
     0
370
    -2
100
AcDbLine
 10
2822.993139438522
 20
5050.677542897386
 30
0.0
 11
2822.993139438522
 21
5706.80082644834
 31
0.0
  0
LINE
  5
82F7
330
82E9
100
AcDbEntity
  8
3
 62
     0
370
    -2
100
AcDbLine
 10
2122.993139438522
 20
5681.800826448339
 30
0.0
 11
2772.993139438522
 21
5681.800826448339
 31
0.0
  0
INSERT
  5
82F8
330
82E9
100
AcDbEntity
  8
3
 62
     0
370
    -2
100
AcDbBlockReference
  2
_OPEN
 10
2072.993139438522
 20
5681.800826448339
 30
0.0
 41
50.0
 42
50.0
 43
50.0
 50
180.0
  0
INSERT
  5
82F9
330
82E9
100
AcDbEntity
  8
3
 62
     0
370
    -2
100
AcDbBlockReference
  2
_OPEN
 10
2822.993139438522
 20
5681.800826448339
 30
0.0
 41
50.0
 42
50.0
 43
50.0
  0
MTEXT
  5
82FA
330
82E9
100
AcDbEntity
  8
3
 62
     0
100
AcDbMText
 10
2447.993139438522
 20
5744.300826448339
 30
0.0
 40
75.0
 41
0.0
 71
     5
 72
     1
  1
\A1;750
 73
     1
 44
1.0
1001
ACAD
1000
MTEXTBEGIN
1070
    73
1070
     1
1070
    44
1040
1.0
1070
    74
1070
     0
1000
MTEXTEND
  0
POINT
  5
82FB
330
82E9
100
AcDbEntity
  8
DEFPOINTS
 62
     0
100
AcDbPoint
 10
2072.993139438522
 20
5530.677542897386
 30
0.0
  0
POINT
  5
82FC
330
82E9
100
AcDbEntity
  8
DEFPOINTS
 62
     0
100
AcDbPoint
 10
2822.993139438522
 20
5025.677542897387
 30
0.0
  0
POINT
  5
82FD
330
82E9
100
AcDbEntity
  8
DEFPOINTS
 62
     0
100
AcDbPoint
 10
2822.993139438522
 20
5681.800826448339
 30
0.0
  0
ENDBLK
  5
82EB
330
82E9
100
AcDbEntity
  8
0
100
AcDbBlockEnd
  0
BLOCK
  5
8300
330
82FF
100
AcDbEntity
  8
0
100
AcDbBlockBegin
  2
*D32
 70
     1
 10
0.0
 20
0.0
 30
0.0
  3
*D32
  1

  0
LINE
  5
830B
330
82FF
100
AcDbEntity
  8
3
 62
     0
370
    -2
100
AcDbLine
 10
1572.993139438522
 20
3371.867918693612
 30
0.0
 11
1572.993139438522
 21
3358.813332182234
 31
0.0
  0
LINE
  5
830C
330
82FF
100
AcDbEntity
  8
3
 62
     0
370
    -2
100
AcDbLine
 10
1014.993139438522
 20
2504.184586066368
 30
0.0
 11
1014.993139438522
 21
3408.813332182234
 31
0.0
  0
LINE
  5
830D
330
82FF
100
AcDbEntity
  8
3
 62
     0
370
    -2
100
AcDbLine
 10
1522.993139438522
 20
3383.813332182234
 30
0.0
 11
1064.993139438522
 21
3383.813332182234
 31
0.0
  0
INSERT
  5
830E
330
82FF
100
AcDbEntity
  8
3
 62
     0
370
    -2
100
AcDbBlockReference
  2
_OPEN
 10
1572.993139438522
 20
3383.813332182234
 30
0.0
 41
50.0
 42
50.0
 43
50.0
  0
INSERT
  5
830F
330
82FF
100
AcDbEntity
  8
3
 62
     0
370
    -2
100
AcDbBlockReference
  2
_OPEN
 10
1014.993139438522
 20
3383.813332182234
 30
0.0
 41
50.0
 42
50.0
 43
50.0
 50
180.0
  0
MTEXT
  5
8310
330
82FF
100
AcDbEntity
  8
3
 62
     0
100
AcDbMText
 10
1293.993139438522
 20
3446.313332182234
 30
0.0
 40
75.0
 41
0.0
 71
     5
 72
     1
  1
\A1;558
 73
     1
 44
1.0
1001
ACAD
1000
MTEXTBEGIN
1070
    73
1070
     1
1070
    44
1040
1.0
1070
    74
1070
     0
1000
MTEXTEND
  0
POINT
  5
8311
330
82FF
100
AcDbEntity
  8
DEFPOINTS
 62
     0
100
AcDbPoint
 10
1572.993139438522
 20
3396.867918693612
 30
0.0
  0
POINT
  5
8312
330
82FF
100
AcDbEntity
  8
DEFPOINTS
 62
     0
100
AcDbPoint
 10
1014.993139438522
 20
2479.184586066368
 30
0.0
  0
POINT
  5
8313
330
82FF
100
AcDbEntity
  8
DEFPOINTS
 62
     0
100
AcDbPoint
 10
1014.993139438522
 20
3383.813332182234
 30
0.0
  0
ENDBLK
  5
8301
330
82FF
100
AcDbEntity
  8
0
100
AcDbBlockEnd
  0
BLOCK
  5
8316
330
8315
100
AcDbEntity
  8
0
100
AcDbBlockBegin
  2
*D33
 70
     1
 10
0.0
 20
0.0
 30
0.0
  3
*D33
  1

  0
LINE
  5
8318
330
8315
100
AcDbEntity
  8
3
 62
     0
370
    -2
100
AcDbLine
 10
2822.993139438522
 20
1963.184586066368
 30
0.0
 11
2822.993139438522
 21
3570.239714473563
 31
0.0
  0
LINE
  5
8319
330
8315
100
AcDbEntity
  8
3
 62
     0
370
    -2
100
AcDbLine
 10
1014.993139438522
 20
2504.184586066368
 30
0.0
 11
1014.993139438522
 21
3570.239714473563
 31
0.0
  0
LINE
  5
831A
330
8315
100
AcDbEntity
  8
3
 62
     0
370
    -2
100
AcDbLine
 10
2772.993139438522
 20
3545.239714473563
 30
0.0
 11
1064.993139438522
 21
3545.239714473563
 31
0.0
  0
INSERT
  5
831B
330
8315
100
AcDbEntity
  8
3
 62
     0
370
    -2
100
AcDbBlockReference
  2
_OPEN
 10
2822.993139438522
 20
3545.239714473563
 30
0.0
 41
50.0
 42
50.0
 43
50.0
  0
INSERT
  5
831C
330
8315
100
AcDbEntity
  8
3
 62
     0
370
    -2
100
AcDbBlockReference
  2
_OPEN
 10
1014.993139438522
 20
3545.239714473563
 30
0.0
 41
50.0
 42
50.0
 43
50.0
 50
180.0
  0
MTEXT
  5
831D
330
8315
100
AcDbEntity
  8
3
 62
     0
100
AcDbMText
 10
1918.993139438522
 20
3607.739714473563
 30
0.0
 40
75.0
 41
0.0
 71
     5
 72
     1
  1
\A1;1808
 73
     1
 44
1.0
1001
ACAD
1000
MTEXTBEGIN
1070
    73
1070
     1
1070
    44
1040
1.0
1070
    74
1070
     0
1000
MTEXTEND
  0
POINT
  5
831E
330
8315
100
AcDbEntity
  8
DEFPOINTS
 62
     0
100
AcDbPoint
 10
2822.993139438522
 20
1938.184586066368
 30
0.0
  0
POINT
  5
831F
330
8315
100
AcDbEntity
  8
DEFPOINTS
 62
     0
100
AcDbPoint
 10
1014.993139438522
 20
2479.184586066368
 30
0.0
  0
POINT
  5
8320
330
8315
100
AcDbEntity
  8
DEFPOINTS
 62
     0
100
AcDbPoint
 10
1014.993139438522
 20
3545.239714473563
 30
0.0
  0
ENDBLK
  5
8317
330
8315
100
AcDbEntity
  8
0
100
AcDbBlockEnd
  0
BLOCK
  5
8323
330
8322
100
AcDbEntity
  8
0
100
AcDbBlockBegin
  2
*D34
 70
     1
 10
0.0
 20
0.0
 30
0.0
  3
*D34
  1

  0
LINE
  5
832E
330
8322
100
AcDbEntity
  8
3
 62
     0
370
    -2
100
AcDbLine
 10
881.521347588132
 20
2538.184586066368
 30
0.0
 11
746.5199975370999
 21
2538.184586066368
 31
0.0
  0
LINE
  5
832F
330
8322
100
AcDbEntity
  8
3
 62
     0
370
    -2
100
AcDbLine
 10
1047.993139438522
 20
1838.184586066368
 30
0.0
 11
746.5199975370998
 21
1838.184586066368
 31
0.0
  0
LINE
  5
8330
330
8322
100
AcDbEntity
  8
3
 62
     0
370
    -2
100
AcDbLine
 10
771.5199975370999
 20
2488.184586066368
 30
0.0
 11
771.5199975370998
 21
1888.184586066368
 31
0.0
  0
INSERT
  5
8331
330
8322
100
AcDbEntity
  8
3
 62
     0
370
    -2
100
AcDbBlockReference
  2
_OPEN
 10
771.5199975370999
 20
2538.184586066368
 30
0.0
 41
50.0
 42
50.0
 43
50.0
 50
90.0
  0
INSERT
  5
8332
330
8322
100
AcDbEntity
  8
3
 62
     0
370
    -2
100
AcDbBlockReference
  2
_OPEN
 10
771.5199975370998
 20
1838.184586066368
 30
0.0
 41
50.0
 42
50.0
 43
50.0
 50
270.0
  0
MTEXT
  5
8333
330
8322
100
AcDbEntity
  8
3
 62
     0
100
AcDbMText
 10
709.0199975370994
 20
2188.184586066368
 30
0.0
 40
75.0
 41
0.0
 71
     5
 72
     1
  1
\A1;700
 11
0.0000000000000001
 21
1.0
 31
0.0
 73
     1
 44
1.0
1001
ACAD
1000
MTEXTBEGIN
1070
    73
1070
     1
1070
    44
1040
1.0
1070
    74
1070
     0
1000
MTEXTEND
  0
POINT
  5
8334
330
8322
100
AcDbEntity
  8
DEFPOINTS
 62
     0
100
AcDbPoint
 10
906.521347588132
 20
2538.184586066368
 30
0.0
  0
POINT
  5
8335
330
8322
100
AcDbEntity
  8
DEFPOINTS
 62
     0
100
AcDbPoint
 10
1072.993139438522
 20
1838.184586066368
 30
0.0
  0
POINT
  5
8336
330
8322
100
AcDbEntity
  8
DEFPOINTS
 62
     0
100
AcDbPoint
 10
771.5199975370998
 20
1838.184586066368
 30
0.0
  0
ENDBLK
  5
8324
330
8322
100
AcDbEntity
  8
0
100
AcDbBlockEnd
  0
ENDSEC
  0
SECTION
  2
ENTITIES
  0
INSERT
  5
7C00
330
81AE
100
AcDbEntity
  8
0
100
AcDbBlockReference
  2
YA_N
 10
6.0
 20
5.0
 30
0.0
  0
LINE
  5
7C02
330
81AE
100
AcDbEntity
  8
2
100
AcDbLine
 10
1572.993139438522
 20
3396.867918693612
 30
0.0
 11
1572.993139438522
 21
1711.184586066369
 31
0.0
  0
LINE
  5
7C03
330
81AE
100
AcDbEntity
  8
2
100
AcDbLine
 10
906.521347588132
 20
2538.184586066368
 30
0.0
 11
2437.37468309255
 21
2538.184586066368
 31
0.0
  0
LINE
  5
7C0E
330
81AE
100
AcDbEntity
  8
1
100
AcDbLine
 10
2822.993139438522
 20
1711.184586066369
 30
0.0
 11
1072.993139438522
 21
1711.184586066369
 31
0.0
  0
LINE
  5
7C0F
330
81AE
100
AcDbEntity
  8
1
100
AcDbLine
 10
1072.993139438522
 20
1811.184586066368
 30
0.0
 11
1072.993139438522
 21
1711.184586066369
 31
0.0
  0
LINE
  5
7C10
330
81AE
100
AcDbEntity
  8
1
100
AcDbLine
 10
2822.993139438522
 20
1811.184586066368
 30
0.0
 11
2822.993139438522
 21
1711.184586066369
 31
0.0
  0
LINE
  5
7C11
330
81AE
100
AcDbEntity
  8
1
100
AcDbLine
 10
2372.993139438522
 20
1978.184586066367
 30
0.0
 11
2372.993139438522
 21
1938.184586066368
 31
0.0
  0
LINE
  5
7C12
330
81AE
100
AcDbEntity
  8
1
100
AcDbLine
 10
4569.037576512396
 20
3083.184586066368
 30
0.0
 11
4569.037576512394
 21
2561.184586066369
 31
0.0
  0
LINE
  5
7C13
330
81AE
100
AcDbEntity
  8
1
100
AcDbLine
 10
3367.037576512395
 20
1711.184586066369
 30
0.0
 11
4572.037576512395
 21
1711.184586066369
 31
0.0
  0
LINE
  5
7C14
330
81AE
100
AcDbEntity
  8
1
100
AcDbLine
 10
3367.037576512395
 20
1811.184586066368
 30
0.0
 11
3367.037576512395
 21
1711.184586066369
 31
0.0
  0
LINE
  5
7C15
330
81AE
100
AcDbEntity
  8
2
100
AcDbLine
 10
3179.719645959103
 20
2538.184586066368
 30
0.0
 11
4720.087423091591
 21
2538.184586066368
 31
0.0
  0
LINE
  5
7C16
330
81AE
100
AcDbEntity
  8
2
100
AcDbLine
 10
3179.719645959103
 20
2188.184586066368
 30
0.0
 11
4019.605865391677
 21
2188.184586066368
 31
0.0
  0
LINE
  5
7C17
330
81AE
100
AcDbEntity
  8
1
100
AcDbLine
 10
3301.037576512396
 20
2665.184586066368
 30
0.0
 11
3301.037576512396
 21
2411.184586066368
 31
0.0
  0
LINE
  5
7C18
330
81AE
100
AcDbEntity
  8
1
100
AcDbLine
 10
3169.037576512395
 20
2758.184586066368
 30
0.0
 11
3169.037576512395
 21
1968.184586066368
 31
0.0
  0
LINE
  5
7C19
330
81AE
100
AcDbEntity
  8
1
100
AcDbLine
 10
3169.037576512395
 20
2758.184586066368
 30
0.0
 11
3419.037576512395
 21
2758.184586066368
 31
0.0
  0
LINE
  5
7C1A
330
81AE
100
AcDbEntity
  8
1
100
AcDbLine
 10
3419.037576512395
 20
2758.184586066368
 30
0.0
 11
3419.037576512395
 21
2708.184586066368
 31
0.0
  0
LINE
  5
7C1B
330
81AE
100
AcDbEntity
  8
1
100
AcDbLine
 10
3419.037576512395
 20
2010.680363457705
 30
0.0
 11
3419.037576512395
 21
1968.184586066368
 31
0.0
  0
LINE
  5
7C1C
330
81AE
100
AcDbEntity
  8
2
100
AcDbLine
 10
4069.037576512394
 20
3167.543634216483
 30
0.0
 11
4069.037576512396
 21
1711.184586066369
 31
0.0
  0
POINT
  5
7C1D
330
81AE
100
AcDbEntity
  8
1
100
AcDbPoint
 10
1072.993139438522
 20
1838.184586066368
 30
0.0
  0
POINT
  5
7C1E
330
81AE
100
AcDbEntity
  8
1
100
AcDbPoint
 10
1072.993139438522
 20
1838.184586066368
 30
0.0
  0
POINT
  5
7C1F
330
81AE
100
AcDbEntity
  8
1
100
AcDbPoint
 10
1072.993139438522
 20
1838.184586066368
 30
0.0
  0
INSERT
  5
7C22
330
81AE
100
AcDbEntity
  8
0
100
AcDbBlockReference
  2
YA_N
 10
-733.6448571667497
 20
-271.0302667023643
 30
0.0
 41
20.0
 42
20.0
 43
20.0
  0
DIMENSION
  5
7C25
330
81AE
100
AcDbEntity
  8
3
100
AcDbDimension
  2
*D4
 10
1595.993139438523
 20
3231.529929608432
 30
0.0
 11
2008.493139438523
 21
3281.529929608431
 31
0.0
 12
-554.4458914497773
 22
976.2969706568872
 32
0.0
 71
     5
 42
-1.0
  3
Standard
100
AcDbAlignedDimension
 13
2420.993139438523
 23
3083.184586066368
 33
0.0
 14
1595.993139438523
 24
3083.184586066368
 34
0.0
100
AcDbRotatedDimension
1001
ACAD
1000
DSTYLE
1002
{
1070
    40
1040
25.0
1002
}
  0
DIMENSION
  5
7C26
330
81AE
100
AcDbEntity
  8
3
100
AcDbDimension
  2
*D5
 10
1572.993139438522
 20
3383.813332182235
 30
0.0
 11
1996.993139438523
 21
3433.813332182236
 31
0.0
 12
-554.4458914497773
 22
976.2969706568872
 32
0.0
 71
     5
 42
-1.0
  3
Standard
100
AcDbAlignedDimension
 13
2420.993139438523
 23
3083.184586066368
 33
0.0
 14
1572.993139438522
 24
3204.656377916759
 34
0.0
100
AcDbRotatedDimension
1001
ACAD
1000
DSTYLE
1002
{
1070
    40
1040
25.0
1002
}
  0
LINE
  5
7C27
330
81AE
100
AcDbEntity
  8
1
100
AcDbLine
 10
2707.452039438523
 20
2097.872586066368
 30
0.0
 11
2726.993139438522
 21
2044.184586066367
 31
0.0
  0
LINE
  5
7C28
330
81AE
100
AcDbEntity
  8
1
100
AcDbLine
 10
2438.546339438522
 20
2097.905586066368
 30
0.0
 11
2418.993139438522
 21
2044.184586066367
 31
0.0
  0
ARC
  5
7C29
330
81AE
100
AcDbEntity
  8
1
100
AcDbCircle
 10
2572.993139438522
 20
2188.184586066368
 30
0.0
 40
162.0
100
AcDbArc
 50
326.1051229528019
 51
0.0
  0
ARC
  5
7C2A
330
81AE
100
AcDbEntity
  8
1
100
AcDbCircle
 10
2572.993139438522
 20
2188.184586066368
 30
0.0
 40
162.0
100
AcDbArc
 50
0.0
 51
213.8949135395933
  0
LINE
  5
7C2B
330
81AE
100
AcDbEntity
  8
2
100
AcDbLine
 10
2572.993139438522
 20
2366.634354153555
 30
0.0
 11
2572.993139438523
 21
1711.184586066369
 31
0.0
  0
LINE
  5
7C2C
330
81AE
100
AcDbEntity
  8
1
100
AcDbLine
 10
2418.993139438522
 20
2028.184586066367
 30
0.0
 11
2418.993139438522
 21
2044.184586066367
 31
0.0
  0
LINE
  5
7C2D
330
81AE
100
AcDbEntity
  8
1
100
AcDbLine
 10
2726.993139438522
 20
2028.184586066367
 30
0.0
 11
2726.993139438522
 21
2044.184586066367
 31
0.0
  0
LINE
  5
7C2E
330
81AE
100
AcDbEntity
  8
2
100
AcDbLine
 10
2384.88269537585
 20
2188.184586066368
 30
0.0
 11
2759.961500405879
 21
2188.184586066367
 31
0.0
  0
LINE
  5
7C2F
330
81AE
100
AcDbEntity
  8
1
100
AcDbLine
 10
2761.507782704563
 20
2028.184586066367
 30
0.0
 11
2384.238271823711
 21
2028.184586066367
 31
0.0
  0
LINE
  5
7C30
330
81AE
100
AcDbEntity
  8
1
100
AcDbLine
 10
2370.993139438522
 20
1978.184586066367
 30
0.0
 11
2384.238271823711
 21
2028.184586066367
 31
0.0
  0
LINE
  5
7C31
330
81AE
100
AcDbEntity
  8
1
100
AcDbLine
 10
2774.993139438523
 20
1978.184586066367
 30
0.0
 11
2761.507782704562
 21
2028.184586066367
 31
0.0
  0
CIRCLE
  5
7C32
330
81AE
100
AcDbEntity
  8
1
100
AcDbCircle
 10
2572.993139438522
 20
2188.184586066368
 30
0.0
 40
110.0
  0
CIRCLE
  5
7C33
330
81AE
100
AcDbEntity
  8
1
100
AcDbCircle
 10
1572.993139438522
 20
2538.184586066368
 30
0.0
 40
127.0
  0
LINE
  5
7C34
330
81AE
100
AcDbEntity
  8
1
100
AcDbLine
 10
3301.037576512396
 20
2665.184586066368
 30
0.0
 11
3386.037576512395
 21
2665.184586066368
 31
0.0
  0
LINE
  5
7C35
330
81AE
100
AcDbEntity
  8
1
100
AcDbLine
 10
3301.037576512396
 20
2411.184586066368
 30
0.0
 11
3386.037576512396
 21
2411.184586066368
 31
0.0
  0
LINE
  5
7C36
330
81AE
100
AcDbEntity
  8
1
100
AcDbLine
 10
3301.037576512396
 20
2298.184586066368
 30
0.0
 11
3386.037576512395
 21
2298.184586066368
 31
0.0
  0
LINE
  5
7C37
330
81AE
100
AcDbEntity
  8
1
100
AcDbLine
 10
3301.037576512396
 20
2078.184586066368
 30
0.0
 11
3386.037576512395
 21
2078.184586066368
 31
0.0
  0
LINE
  5
7C38
330
81AE
100
AcDbEntity
  8
1
100
AcDbLine
 10
3169.037576512395
 20
1968.184586066368
 30
0.0
 11
3419.037576512395
 21
1968.184586066368
 31
0.0
  0
LINE
  5
7C39
330
81AE
100
AcDbEntity
  8
1
100
AcDbLine
 10
3386.037576512395
 20
2665.184586066368
 30
0.0
 11
3386.037576512395
 21
2411.184586066368
 31
0.0
  0
INSERT
  5
7C3A
330
81AE
100
AcDbEntity
  8
0
100
AcDbBlockReference
  2
YA_N
 10
-36.73462870802178
 20
301.6536876033205
 30
0.0
 41
20.0
 42
20.0
 43
20.0
  0
INSERT
  5
7C3C
330
81AE
100
AcDbEntity
  8
0
100
AcDbBlockReference
  2
YA_N
 10
77.48489664613955
 20
225.3119777640749
 30
0.0
 41
20.0
 42
20.0
 43
20.0
  0
LINE
  5
7C3E
330
81AE
100
AcDbEntity
  8
1
100
AcDbLine
 10
3367.037576512394
 20
1811.184586066368
 30
0.0
 11
4622.037576512395
 21
1811.184586066368
 31
0.0
1001
ACAD
1000
ASC_BOUNDS
1002
{
1070
    19
1002
}
  0
LINE
  5
7C3F
330
81AE
100
AcDbEntity
  8
1
100
AcDbLine
 10
1072.993139438522
 20
1811.184586066368
 30
0.0
 11
2822.993139438522
 21
1811.184586066368
 31
0.0
1001
ACAD
1000
ASC_BOUNDS
1002
{
1070
    19
1005
0
1005
0
1002
}
  0
POINT
  5
7C40
330
81AE
100
AcDbEntity
  8
1
100
AcDbPoint
 10
1072.993139438522
 20
1811.184586066368
 30
0.0
  0
POINT
  5
7C41
330
81AE
100
AcDbEntity
  8
1
100
AcDbPoint
 10
1072.993139438522
 20
1711.184586066369
 30
0.0
  0
POINT
  5
7C42
330
81AE
100
AcDbEntity
  8
1
100
AcDbPoint
 10
1072.993139438522
 20
1811.184586066368
 30
0.0
  0
POINT
  5
7C43
330
81AE
100
AcDbEntity
  8
1
100
AcDbPoint
 10
1072.993139438522
 20
1838.184586066368
 30
0.0
  0
LINE
  5
7C44
330
81AE
100
AcDbEntity
  8
1
100
AcDbLine
 10
4622.037576512395
 20
1811.184586066368
 30
0.0
 11
4622.037576512395
 21
1711.184586066369
 31
0.0
  0
LINE
  5
7C45
330
81AE
100
AcDbEntity
  8
1
100
AcDbLine
 10
4572.037576512395
 20
1711.184586066369
 30
0.0
 11
4622.037576512396
 21
1711.184586066369
 31
0.0
  0
POINT
  5
7C46
330
81AE
100
AcDbEntity
  8
1
100
AcDbPoint
 10
1072.993139438522
 20
1811.184586066368
 30
0.0
  0
POINT
  5
7C47
330
81AE
100
AcDbEntity
  8
1
100
AcDbPoint
 10
1072.993139438522
 20
1711.184586066369
 30
0.0
  0
POINT
  5
7C48
330
81AE
100
AcDbEntity
  8
1
100
AcDbPoint
 10
1072.993139438522
 20
1811.184586066368
 30
0.0
  0
POINT
  5
7C49
330
81AE
100
AcDbEntity
  8
1
100
AcDbPoint
 10
1072.993139438522
 20
1838.184586066368
 30
0.0
  0
LINE
  5
7C4A
330
81AE
100
AcDbEntity
  8
1
100
AcDbLine
 10
4069.037576512394
 20
3083.184586066368
 30
0.0
 11
4609.037576512396
 21
3083.184586066368
 31
0.0
  0
LINE
  5
7C4C
330
81AE
100
AcDbEntity
  8
1
100
AcDbLine
 10
4569.037576512395
 20
2561.184586066369
 30
0.0
 11
4569.037576512395
 21
1938.184586066368
 31
0.0
  0
LINE
  5
7C4E
330
81AE
100
AcDbEntity
  8
1
100
AcDbLine
 10
3569.037576512395
 20
2561.184586066369
 30
0.0
 11
3569.037576512395
 21
2350.184586066368
 31
0.0
  0
LINE
  5
7C4F
330
81AE
100
AcDbEntity
  8
1
100
AcDbLine
 10
3569.037576512395
 20
3083.184586066368
 30
0.0
 11
3569.037576512397
 21
2561.184586066369
 31
0.0
  0
LINE
  5
7C50
330
81AE
100
AcDbEntity
  8
1
100
AcDbLine
 10
4069.037576512394
 20
3083.184586066368
 30
0.0
 11
3529.037576512396
 21
3083.184586066368
 31
0.0
  0
LINE
  5
7C51
330
81AE
100
AcDbEntity
  8
1
100
AcDbLine
 10
3431.037576512395
 20
2502.384586066368
 30
0.0
 11
3431.037576512395
 21
2372.384586066369
 31
0.0
  0
LINE
  5
7C52
330
81AE
100
AcDbEntity
  8
1
100
AcDbLine
 10
3441.037576512395
 20
2512.38458606637
 30
0.0
 11
3569.037576512395
 21
2512.384586066367
 31
0.0
  0
LINE
  5
7C53
330
81AE
100
AcDbEntity
  8
1
100
AcDbLine
 10
3441.037576512395
 20
2362.384586066368
 30
0.0
 11
3569.037576512395
 21
2362.384586066368
 31
0.0
  0
ARC
  5
7C54
330
81AE
100
AcDbEntity
  8
1
100
AcDbCircle
 10
3441.037576512395
 20
2502.384586066368
 30
0.0
 40
10.0
100
AcDbArc
 50
90.0
 51
180.0
  0
ARC
  5
7C55
330
81AE
100
AcDbEntity
  8
1
100
AcDbCircle
 10
3441.037576512395
 20
2372.384586066369
 30
0.0
 40
10.0
100
AcDbArc
 50
180.0
 51
270.0
  0
LINE
  5
7C56
330
81AE
100
AcDbEntity
  8
1
100
AcDbLine
 10
4679.037576512397
 20
2498.684586066368
 30
0.0
 11
4679.037576512397
 21
2398.684586066368
 31
0.0
  0
ARC
  5
7C57
330
81AE
100
AcDbEntity
  8
1
100
AcDbCircle
 10
4669.037576512397
 20
2398.684586066368
 30
0.0
 40
10.0
100
AcDbArc
 50
270.0
 51
0.0
  0
ARC
  5
7C58
330
81AE
100
AcDbEntity
  8
1
100
AcDbCircle
 10
4669.037576512397
 20
2498.684586066368
 30
0.0
 40
10.0
100
AcDbArc
 50
0.0
 51
90.0
  0
LINE
  5
7C59
330
81AE
100
AcDbEntity
  8
1
100
AcDbLine
 10
4569.037576512395
 20
2388.684586066368
 30
0.0
 11
4669.037576512397
 21
2388.684586066367
 31
0.0
  0
LINE
  5
7C5A
330
81AE
100
AcDbEntity
  8
1
100
AcDbLine
 10
4569.037576512395
 20
2508.684586066369
 30
0.0
 11
4669.037576512397
 21
2508.684586066368
 31
0.0
  0
LINE
  5
7C5B
330
81AE
100
AcDbEntity
  8
1
100
AcDbLine
 10
2772.993139438523
 20
1978.184586066367
 30
0.0
 11
2772.993139438523
 21
1938.184586066368
 31
0.0
  0
POINT
  5
7C5C
330
81AE
100
AcDbEntity
  8
1
100
AcDbPoint
 10
4679.037576512397
 20
2498.684586066368
 30
0.0
  0
LINE
  5
7C5D
330
81AE
100
AcDbEntity
  8
1
100
AcDbLine
 10
2822.993139438522
 20
4275.677542897386
 30
0.0
 11
1072.993139438522
 21
4275.677542897386
 31
0.0
  0
LINE
  5
7C5E
330
81AE
100
AcDbEntity
  8
1
100
AcDbLine
 10
2072.993139438522
 20
5530.677542897386
 30
0.0
 11
1072.993139438522
 21
5530.677542897386
 31
0.0
  0
LINE
  5
7C5F
330
81AE
100
AcDbEntity
  8
1
100
AcDbLine
 10
1072.993139438522
 20
5530.677542897386
 30
0.0
 11
1072.993139438522
 21
5477.677542897385
 31
0.0
  0
LINE
  5
7C60
330
81AE
100
AcDbEntity
  8
1
100
AcDbLine
 10
2822.993139438522
 20
5025.677542897387
 30
0.0
 11
2822.993139438522
 21
4275.677542897386
 31
0.0
  0
LINE
  5
7C61
330
81AE
100
AcDbEntity
  8
1
100
AcDbLine
 10
2072.993139438522
 20
5530.677542897386
 30
0.0
 11
2072.993139438522
 21
5477.677542897388
 31
0.0
  0
LINE
  5
7C62
330
81AE
100
AcDbEntity
  8
1
100
AcDbLine
 10
2822.993139438522
 20
5025.677542897387
 30
0.0
 11
2420.993139438523
 21
5025.677542897387
 31
0.0
  0
LINE
  5
7C63
330
81AE
100
AcDbEntity
  8
2
100
AcDbLine
 10
2306.719024580798
 20
4977.677542897388
 30
0.0
 11
992.6007710300915
 21
4977.677542897386
 31
0.0
  0
LINE
  5
7C64
330
81AE
100
AcDbEntity
  8
2
100
AcDbLine
 10
1572.993139438523
 20
5563.661458434314
 30
0.0
 11
1572.993139438522
 21
4040.813891747249
 31
0.0
  0
LINE
  5
7C65
330
81AE
100
AcDbEntity
  8
2
100
AcDbLine
 10
2572.993139438522
 20
4892.167532381333
 30
0.0
 11
2572.993139438522
 21
4040.813891747249
 31
0.0
  0
LINE
  5
7C68
330
81AE
100
AcDbEntity
  8
1
100
AcDbLine
 10
4622.037576512395
 20
1938.184586066368
 30
0.0
 11
4622.037576512395
 21
1838.184586066368
 31
0.0
  0
LINE
  5
7C69
330
81AE
100
AcDbEntity
  8
1
100
AcDbLine
 10
3367.037576512394
 20
1938.184586066368
 30
0.0
 11
4622.037576512393
 21
1938.184586066368
 31
0.0
1001
ACAD
1000
ASC_BOUNDS
1002
{
1070
    19
1002
}
  0
LINE
  5
7C6A
330
81AE
100
AcDbEntity
  8
1
100
AcDbLine
 10
3367.037576512395
 20
1838.184586066368
 30
0.0
 11
4622.037576512395
 21
1838.184586066368
 31
0.0
  0
LINE
  5
7C6B
330
81AE
100
AcDbEntity
  8
1
100
AcDbLine
 10
3367.037576512395
 20
1938.184586066368
 30
0.0
 11
3367.037576512395
 21
1838.184586066368
 31
0.0
  0
DIMENSION
  5
7C6C
330
81AE
100
AcDbEntity
  8
3
100
AcDbDimension
  2
*D6
 10
4870.560987409372
 20
2113.184586066368
 30
0.0
 11
4820.560987409372
 21
2538.184586066368
 31
0.0
 12
-844.8699286002481
 22
976.2969706568872
 32
0.0
 71
     5
 42
-1.0
  3
Standard
100
AcDbAlignedDimension
 13
4571.337576512394
 23
2963.184586066368
 33
0.0
 14
4571.337576512394
 24
2113.184586066368
 34
0.0
 50
90.0
100
AcDbRotatedDimension
1001
ACAD
1000
DSTYLE
1002
{
1070
    40
1040
25.0
1070
     3
1000
\U+03C6<>
1002
}
  0
LINE
  5
7C6D
330
81AE
100
AcDbEntity
  8
1
100
AcDbLine
 10
3386.037576512395
 20
2568.184586066368
 30
0.0
 11
3569.037576512397
 21
2568.184586066368
 31
0.0
  0
LINE
  5
7C6E
330
81AE
100
AcDbEntity
  8
1
100
AcDbLine
 10
3386.037576512395
 20
2508.184586066369
 30
0.0
 11
3432.89141177063
 21
2508.184586066368
 31
0.0
  0
ARC
  5
7C70
330
81AE
100
AcDbEntity
  8
1
100
AcDbCircle
 10
1572.993139438522
 20
2538.184586066368
 30
0.0
 40
220.0
100
AcDbArc
 50
76.50426671920421
 51
256.5042667192043
  0
ARC
  5
7C71
330
81AE
100
AcDbEntity
  8
1
100
AcDbCircle
 10
2572.993139438523
 20
2188.184586066368
 30
0.0
 40
220.0
100
AcDbArc
 50
256.5042667192043
 51
76.50426671920415
  0
LINE
  5
7C72
330
81AE
100
AcDbEntity
  8
1
100
AcDbLine
 10
1624.335188983093
 20
2752.109792502082
 30
0.0
 11
2624.335188983093
 21
2402.109792502083
 31
0.0
  0
LINE
  5
7C73
330
81AE
100
AcDbEntity
  8
1
100
AcDbLine
 10
1604.668869156714
 20
2661.17095989217
 30
0.0
 11
2600.42881084798
 21
2294.70821693911
 31
0.0
  0
LINE
  5
7C74
330
81AE
100
AcDbEntity
  8
1
100
AcDbLine
 10
1545.400238767228
 20
2414.218333269309
 30
0.0
 11
2549.093776652362
 21
2080.812241124033
 31
0.0
  0
LINE
  5
7C75
330
81AE
100
AcDbEntity
  8
1
100
AcDbLine
 10
1521.651089893951
 20
2324.259379630655
 30
0.0
 11
2521.651089893951
 21
1974.259379630653
 31
0.0
  0
LINE
  5
7C76
330
81AE
100
AcDbEntity
  8
1
100
AcDbLine
 10
2822.993139438522
 20
1838.184586066368
 30
0.0
 11
1072.993139438522
 21
1838.184586066368
 31
0.0
  0
LINE
  5
7C77
330
81AE
100
AcDbEntity
  8
1
100
AcDbLine
 10
1072.993139438522
 20
1938.184586066368
 30
0.0
 11
2822.993139438522
 21
1938.184586066368
 31
0.0
1001
ACAD
1000
ASC_BOUNDS
1002
{
1070
    19
1005
0
1005
0
1002
}
  0
LINE
  5
7C78
330
81AE
100
AcDbEntity
  8
1
100
AcDbLine
 10
2822.993139438522
 20
1938.184586066368
 30
0.0
 11
2822.993139438522
 21
1838.184586066368
 31
0.0
  0
LINE
  5
7C79
330
81AE
100
AcDbEntity
  8
1
100
AcDbLine
 10
1072.993139438522
 20
1938.184586066368
 30
0.0
 11
1072.993139438522
 21
1838.184586066368
 31
0.0
  0
CIRCLE
  5
7C7B
330
81AE
100
AcDbEntity
  8
1
100
AcDbCircle
 10
1572.993139438522
 20
2538.184586066368
 30
0.0
 40
425.0
  0
CIRCLE
  5
7C7C
330
81AE
100
AcDbEntity
  8
1
100
AcDbCircle
 10
1572.993139438522
 20
2538.184586066368
 30
0.0
 40
465.0
  0
LINE
  5
7C7D
330
81AE
100
AcDbEntity
  8
1
100
AcDbLine
 10
2370.993139438522
 20
1978.184586066367
 30
0.0
 11
2774.993139438523
 21
1978.184586066367
 31
0.0
  0
POINT
  5
7C7F
330
81AE
100
AcDbEntity
  8
1
100
AcDbPoint
 10
1072.993139438522
 20
1811.184586066368
 30
0.0
  0
POINT
  5
7C80
330
81AE
100
AcDbEntity
  8
1
100
AcDbPoint
 10
1072.993139438522
 20
1838.184586066368
 30
0.0
  0
LINE
  5
7C81
330
81AE
100
AcDbEntity
  8
1
100
AcDbLine
 10
2420.993139438523
 20
5477.677542897389
 30
0.0
 11
1004.993139438523
 21
5477.677542897386
 31
0.0
  0
LINE
  5
7C82
330
81AE
100
AcDbEntity
  8
1
100
AcDbLine
 10
2420.993139438522
 20
4477.677542897387
 30
0.0
 11
1004.993139438522
 21
4477.677542897384
 31
0.0
  0
LINE
  5
7C83
330
81AE
100
AcDbEntity
  8
1
100
AcDbLine
 10
1072.993139438522
 20
4477.677542897384
 30
0.0
 11
1072.993139438522
 21
4275.677542897386
 31
0.0
  0
DIMENSION
  5
7C89
330
81AE
100
AcDbEntity
  8
3
100
AcDbDimension
  2
*D7
 10
1072.993139438522
 20
5681.800826448338
 30
0.0
 11
1572.993139438523
 21
5731.800826448338
 31
0.0
 12
-554.4458914497773
 22
976.2969706568872
 32
0.0
 71
     5
 42
-1.0
  3
Standard
100
AcDbAlignedDimension
 13
2072.993139438522
 23
5530.677542897386
 33
0.0
 14
1072.993139438522
 24
5530.677542897386
 34
0.0
100
AcDbRotatedDimension
1001
ACAD
1000
DSTYLE
1002
{
1070
    40
1040
25.0
1002
}
  0
DIMENSION
  5
7C8A
330
81AE
100
AcDbEntity
  8
3
100
AcDbDimension
  2
*D8
 10
855.0564112886332
 20
4275.677542897386
 30
0.0
 11
855.0564112886332
 21
4903.177542897387
 31
0.0
 12
-554.4458914497773
 22
976.2969706568872
 32
0.0
 70
   128
 71
     5
 42
-1.0
  3
Standard
100
AcDbAlignedDimension
 13
1072.993139438522
 23
5530.677542897386
 33
0.0
 14
1072.993139438522
 24
4275.677542897386
 34
0.0
 50
270.0
100
AcDbRotatedDimension
1001
ACAD
1000
DSTYLE
1002
{
1070
    40
1040
25.0
1002
}
  0
DIMENSION
  5
7C8B
330
81AE
100
AcDbEntity
  8
3
100
AcDbDimension
  2
*D9
 10
2975.145968561836
 20
4275.677542897386
 30
0.0
 11
2925.145968561835
 21
4650.677542897386
 31
0.0
 12
-554.4458914497773
 22
976.2969706568872
 32
0.0
 71
     5
 42
-1.0
  3
Standard
100
AcDbAlignedDimension
 13
2822.993139438522
 23
5025.677542897387
 33
0.0
 14
2822.993139438522
 24
4275.677542897386
 34
0.0
 50
270.0
100
AcDbRotatedDimension
1001
ACAD
1000
DSTYLE
1002
{
1070
    40
1040
25.0
1002
}
  0
LINE
  5
7C8C
330
81AE
100
AcDbEntity
  8
1
100
AcDbLine
 10
2682.993139438523
 20
4209.677542897389
 30
0.0
 11
2462.993139438522
 21
4209.677542897387
 31
0.0
  0
LINE
  5
7C8D
330
81AE
100
AcDbEntity
  8
1
100
AcDbLine
 10
2682.993139438523
 20
4294.677542897388
 30
0.0
 11
2462.993139438523
 21
4294.677542897388
 31
0.0
  0
LINE
  5
7C8E
330
81AE
100
AcDbEntity
  8
1
100
AcDbLine
 10
1445.993139438522
 20
4294.677542897387
 30
0.0
 11
1445.993139438522
 21
4209.677542897387
 31
0.0
  0
LINE
  5
7C8F
330
81AE
100
AcDbEntity
  8
1
100
AcDbLine
 10
1699.993139438522
 20
4294.677542897388
 30
0.0
 11
1699.993139438522
 21
4209.677542897387
 31
0.0
  0
LINE
  5
7C90
330
81AE
100
AcDbEntity
  8
1
100
AcDbLine
 10
2462.993139438522
 20
4294.677542897388
 30
0.0
 11
2462.993139438522
 21
4209.677542897389
 31
0.0
  0
LINE
  5
7C91
330
81AE
100
AcDbEntity
  8
1
100
AcDbLine
 10
2682.993139438523
 20
4294.67754289739
 30
0.0
 11
2682.993139438523
 21
4209.677542897389
 31
0.0
  0
LINE
  5
7C92
330
81AE
100
AcDbEntity
  8
1
100
AcDbLine
 10
1699.993139438522
 20
4209.677542897387
 30
0.0
 11
1445.993139438522
 21
4209.677542897387
 31
0.0
  0
LINE
  5
7C93
330
81AE
100
AcDbEntity
  8
1
100
AcDbLine
 10
1699.993139438522
 20
4294.677542897388
 30
0.0
 11
1445.993139438522
 21
4294.677542897387
 31
0.0
  0
LINE
  5
7C94
330
81AE
100
AcDbEntity
  8
1
100
AcDbLine
 10
2792.993139438522
 20
4077.677542897389
 30
0.0
 11
1352.993139438521
 21
4077.677542897386
 31
0.0
  0
LINE
  5
7C95
330
81AE
100
AcDbEntity
  8
1
100
AcDbLine
 10
1352.993139438522
 20
4324.677542897386
 30
0.0
 11
1352.993139438522
 21
4077.677542897386
 31
0.0
  0
LINE
  5
7C96
330
81AE
100
AcDbEntity
  8
1
100
AcDbLine
 10
2792.993139438522
 20
4324.677542897389
 30
0.0
 11
2792.993139438522
 21
4077.677542897389
 31
0.0
  0
LINE
  5
7C97
330
81AE
100
AcDbEntity
  8
1
100
AcDbLine
 10
2792.993139438522
 20
4324.677542897389
 30
0.0
 11
1352.993139438521
 21
4324.677542897386
 31
0.0
  0
POINT
  5
7C99
330
81AE
100
AcDbEntity
  8
1
100
AcDbPoint
 10
4679.037576512397
 20
2498.684586066368
 30
0.0
  0
DIMENSION
  5
7C9A
330
81AE
100
AcDbEntity
  8
3
100
AcDbDimension
  2
*D11
 10
4569.037576512396
 20
3184.073169067424
 30
0.0
 11
4069.037576512394
 21
3234.073169067424
 31
0.0
 71
     5
 42
-1.0
  3
Standard
100
AcDbAlignedDimension
 13
3569.037576512395
 23
3083.184586066368
 33
0.0
 14
4569.037576512396
 24
3083.184586066368
 34
0.0
100
AcDbRotatedDimension
1001
ACAD
1000
DSTYLE
1002
{
1070
    40
1040
25.0
1002
}
  0
POINT
  5
7C9B
330
81AE
100
AcDbEntity
  8
1
100
AcDbPoint
 10
4679.037576512397
 20
2498.684586066368
 30
0.0
  0
POINT
  5
7C9C
330
81AE
100
AcDbEntity
  8
1
100
AcDbPoint
 10
3169.037576512395
 20
2758.184586066368
 30
0.0
  0
LINE
  5
7C9D
330
81AE
100
AcDbEntity
  8
1
100
AcDbLine
 10
2734.993139438522
 20
4864.17754289739
 30
0.0
 11
2420.993139438523
 21
4864.177542897387
 31
0.0
  0
LINE
  5
7C9E
330
81AE
100
AcDbEntity
  8
1
100
AcDbLine
 10
2734.993139438522
 20
4335.177542897389
 30
0.0
 11
2410.993139438522
 21
4335.177542897387
 31
0.0
  0
LINE
  5
7C9F
330
81AE
100
AcDbEntity
  8
1
100
AcDbLine
 10
2551.993139438522
 20
4335.177542897389
 30
0.0
 11
2551.993139438522
 21
4294.677542897388
 31
0.0
  0
LINE
  5
7CA0
330
81AE
100
AcDbEntity
  8
1
100
AcDbLine
 10
2593.993139438522
 20
4335.177542897389
 30
0.0
 11
2593.993139438522
 21
4294.677542897388
 31
0.0
  0
LINE
  5
7CA1
330
81AE
100
AcDbEntity
  8
1
100
AcDbLine
 10
2734.993139438522
 20
4864.17754289739
 30
0.0
 11
2734.993139438522
 21
4335.177542897389
 31
0.0
  0
LINE
  5
7CA2
330
81AE
100
AcDbEntity
  8
1
100
AcDbLine
 10
2410.993139438522
 20
4477.677542897387
 30
0.0
 11
2410.993139438522
 21
4335.177542897387
 31
0.0
  0
LINE
  5
7CA3
330
81AE
100
AcDbEntity
  8
1
100
AcDbLine
 10
3955.537576512394
 20
2026.184586066368
 30
0.0
 11
3426.537576512394
 21
2026.184586066368
 31
0.0
  0
LINE
  5
7CA4
330
81AE
100
AcDbEntity
  8
1
100
AcDbLine
 10
3955.537576512396
 20
2350.184586066368
 30
0.0
 11
3426.537576512397
 21
2350.184586066368
 31
0.0
  0
LINE
  5
7CA5
330
81AE
100
AcDbEntity
  8
1
100
AcDbLine
 10
3426.537576512397
 20
2350.184586066368
 30
0.0
 11
3426.537576512393
 21
2026.184586066368
 31
0.0
  0
LINE
  5
7CA6
330
81AE
100
AcDbEntity
  8
1
100
AcDbLine
 10
3426.537576512395
 20
2209.184586066368
 30
0.0
 11
3386.037576512396
 21
2209.184586066368
 31
0.0
  0
LINE
  5
7CA7
330
81AE
100
AcDbEntity
  8
1
100
AcDbLine
 10
3426.537576512395
 20
2167.184586066368
 30
0.0
 11
3386.037576512396
 21
2167.184586066368
 31
0.0
  0
LINE
  5
7CA8
330
81AE
100
AcDbEntity
  8
1
100
AcDbLine
 10
3386.037576512395
 20
2298.184586066368
 30
0.0
 11
3386.037576512395
 21
2078.184586066368
 31
0.0
  0
LINE
  5
7CA9
330
81AE
100
AcDbEntity
  8
1
100
AcDbLine
 10
3301.037576512396
 20
2298.184586066368
 30
0.0
 11
3301.037576512396
 21
2078.184586066368
 31
0.0
  0
DIMENSION
  5
7CB1
330
81AE
100
AcDbEntity
  8
3
100
AcDbDimension
  2
*D16
 10
771.5199975370998
 20
2538.184586066368
 30
0.0
 11
721.5199975370998
 21
2810.684586066368
 31
0.0
 12
-554.4458914497773
 22
976.2969706568872
 32
0.0
 71
     5
 42
-1.0
  3
Standard
100
AcDbAlignedDimension
 13
1553.493139438523
 23
3083.184586066368
 33
0.0
 14
906.521347588132
 24
2538.184586066368
 34
0.0
 50
270.0
100
AcDbRotatedDimension
1001
ACAD
1000
DSTYLE
1002
{
1070
    40
1040
25.0
1002
}
  0
DIMENSION
  5
7CB3
330
81AE
100
AcDbEntity
  8
3
100
AcDbDimension
  2
*D18
 10
771.5199975370998
 20
1811.184586066368
 30
0.0
 11
651.8771403942424
 21
1824.684586066369
 31
0.0
  1
(<>) 
 71
     5
 42
-1.0
  3
Standard
100
AcDbAlignedDimension
 13
1072.993139438522
 23
1838.184586066368
 33
0.0
 14
1072.993139438522
 24
1811.184586066368
 34
0.0
 50
270.0
100
AcDbRotatedDimension
1001
ACAD
1000
DSTYLE
1002
{
1070
   288
1070
     1
1070
   172
1070
     1
1070
    40
1040
25.0
1070
   271
1070
     0
1070
     7
1000
_DOT
1070
   143
1040
0.039
1002
}
  0
DIMENSION
  5
7CB4
330
81AE
100
AcDbEntity
  8
3
100
AcDbDimension
  2
*D20
 10
771.5199975370998
 20
1711.184586066369
 30
0.0
 11
709.0199975370993
 21
1496.898871780655
 31
0.0
 71
     5
 42
-1.0
  3
Standard
100
AcDbAlignedDimension
 13
1072.993139438522
 23
1811.184586066368
 33
0.0
 14
1072.993139438522
 24
1711.184586066369
 34
0.0
 50
270.0
100
AcDbRotatedDimension
1001
ACAD
1000
DSTYLE
1002
{
1070
   287
1070
     3
1070
   287
1070
     3
1070
    40
1040
25.0
1070
   143
1040
0.039
1070
   172
1070
     1
1070
   271
1070
     0
1070
   279
1070
     0
1070
   288
1070
     1
1070
     6
1000
DOT
1002
}
  0
LINE
  5
7CB7
330
81AE
100
AcDbEntity
  8
1
100
AcDbLine
 10
4069.037576512394
 20
3080.184586066368
 30
0.0
 11
3529.037576512396
 21
3080.184586066367
 31
0.0
  0
LINE
  5
7CB8
330
81AE
100
AcDbEntity
  8
1
100
AcDbLine
 10
4069.037576512394
 20
3080.184586066368
 30
0.0
 11
4609.037576512396
 21
3080.184586066367
 31
0.0
  0
LINE
  5
7CB9
330
81AE
100
AcDbEntity
  8
1
100
AcDbLine
 10
3529.037576512395
 20
3083.184586066368
 30
0.0
 11
3529.037576512396
 21
3080.184586066367
 31
0.0
  0
LINE
  5
7CBA
330
81AE
100
AcDbEntity
  8
1
100
AcDbLine
 10
4609.037576512396
 20
3083.184586066368
 30
0.0
 11
4609.037576512397
 21
3080.184586066367
 31
0.0
  0
LINE
  5
7CBB
330
81AE
100
AcDbEntity
  8
1
100
AcDbLine
 10
2420.993139438524
 20
5477.677542897389
 30
0.0
 11
2420.993139438522
 21
4477.677542897387
 31
0.0
  0
LINE
  5
7CBC
330
81AE
100
AcDbEntity
  8
1
100
AcDbLine
 10
1004.993139438523
 20
5477.677542897386
 30
0.0
 11
1004.993139438522
 21
4477.677542897384
 31
0.0
  0
LINE
  5
7CBD
330
81AE
100
AcDbEntity
  8
1
100
AcDbLine
 10
1595.993139438523
 20
5477.67754289739
 30
0.0
 11
1595.993139438522
 21
4477.677542897389
 31
0.0
  0
LINE
  5
7CBE
330
81AE
100
AcDbEntity
  8
1
100
AcDbLine
 10
1595.993139438523
 20
5477.677542897387
 30
0.0
 11
2420.993139438522
 21
4477.677542897387
 31
0.0
  0
LINE
  5
7CBF
330
81AE
100
AcDbEntity
  8
1
100
AcDbLine
 10
2420.993139438524
 20
5477.677542897389
 30
0.0
 11
1595.993139438522
 21
4477.677542897386
 31
0.0
  0
LINE
  5
7CC0
330
81AE
100
AcDbEntity
  8
1
100
AcDbLine
 10
3955.537576512396
 20
2350.184586066363
 30
0.0
 11
3955.537576512393
 21
2026.184586066363
 31
0.0
  0
LINE
  5
7CC1
330
81AE
100
AcDbEntity
  8
1
100
AcDbLine
 10
3860.89370406778
 20
2026.184586066368
 30
0.0
 11
3860.89370406778
 21
1938.184586066368
 31
0.0
  0
LINE
  5
7CC2
330
81AE
100
AcDbEntity
  8
1
100
AcDbLine
 10
3508.05388812473
 20
2026.184586066368
 30
0.0
 11
3508.05388812473
 21
1938.184586066368
 31
0.0
  0
LINE
  5
7CC3
330
81AE
100
AcDbEntity
  8
1
100
AcDbLine
 10
3508.05388812473
 20
1978.184586066367
 30
0.0
 11
3860.89370406778
 21
1978.184586066367
 31
0.0
  0
LINE
  5
7EEA
330
81AE
100
AcDbEntity
  8
4
100
AcDbLine
 10
4625.0
 20
1250.0
 30
0.0
 11
4625.0
 21
750.0
 31
0.0
  0
LINE
  5
7EEB
330
81AE
100
AcDbEntity
  8
4
100
AcDbLine
 10
2875.0
 20
1250.0
 30
0.0
 11
2875.0
 21
750.0
 31
0.0
  0
LINE
  5
7EEC
330
81AE
100
AcDbEntity
  8
4
100
AcDbLine
 10
1625.0
 20
1250.0
 30
0.0
 11
1625.0
 21
750.0
 31
0.0
  0
LINE
  5
7EEF
330
81AE
100
AcDbEntity
  8
4
100
AcDbLine
 10
1625.0
 20
750.0
 30
0.0
 11
4625.0
 21
750.0
 31
0.0
  0
LINE
  5
7EF0
330
81AE
100
AcDbEntity
  8
4
100
AcDbLine
 10
1625.0
 20
1000.0
 30
0.0
 11
4625.0
 21
1000.0
 31
0.0
  0
TEXT
  5
7EF1
330
81AE
100
AcDbEntity
  8
4
100
AcDbText
 10
1721.255202117253
 20
1078.857564666532
 30
0.0
 40
125.0
  1
機器名称
100
AcDbText
  0
TEXT
  5
7EF2
330
81AE
100
AcDbEntity
  8
4
100
AcDbText
 10
1715.645265061993
 20
804.1128918300273
 30
0.0
 40
125.0
  1
機器型番
100
AcDbText
  0
TEXT
  5
7EF3
330
81AE
100
AcDbEntity
  8
4
100
AcDbText
 10
2944.196863719162
 20
1056.429422393921
 30
0.0
 40
125.0
  1
ミツヤ多翼送風機
100
AcDbText
  0
TEXT
  5
7EF4
330
81AE
100
AcDbEntity
  8
4
100
AcDbText
 10
2966.636238963701
 20
792.8989606998584
 30
0.0
 40
125.0
  1
MF#5-5
100
AcDbText
  0
TEXT
  5
7EF6
330
81AE
100
AcDbEntity
  8
4
100
AcDbText
 10
1945.138167875713
 20
5958.572103331289
 30
0.0
 40
135.0
  1
床置防振ベット
100
AcDbText
  0
TEXT
  5
7EF7
330
81AE
100
AcDbEntity
  8
4
100
AcDbText
 10
790.4189833236158
 20
6334.702440498245
 30
0.0
 40
180.0
  1
遠心式両吸込両持多翼ファン
100
AcDbText
  0
LINE
  5
7EF8
330
81AE
100
AcDbEntity
  8
4
100
AcDbLine
 10
625.0
 20
6173.521885662012
 30
0.0
 11
4625.0
 21
6173.521885662012
 31
0.0
  0
LINE
  5
7EF9
330
81AE
100
AcDbEntity
  8
4
100
AcDbLine
 10
625.0
 20
6673.521885662011
 30
0.0
 11
4625.0
 21
6673.521885662011
 31
0.0
  0
LINE
  5
7EFA
330
81AE
100
AcDbEntity
  8
4
100
AcDbLine
 10
1625.0
 20
1250.0
 30
0.0
 11
4625.0
 21
1250.0
 31
0.0
  0
LINE
  5
7EFB
330
81AE
100
AcDbEntity
  8
4
100
AcDbLine
 10
625.0
 20
6673.521885662011
 30
0.0
 11
625.0
 21
6173.521885662012
 31
0.0
  0
TEXT
  5
7EFC
330
81AE
100
AcDbEntity
  8
4
100
AcDbText
 10
855.4910872689578
 20
5955.798693865858
 30
0.0
 40
135.0
  1
左回転上向
100
AcDbText
  0
TEXT
  5
7EFD
330
81AE
100
AcDbEntity
  8
4
100
AcDbText
 10
3672.423898123224
 20
6765.15270373827
 30
0.0
 40
140.0
  1
No.
100
AcDbText
  0
TEXT
  5
7EFE
330
81AE
100
AcDbEntity
  8
4
100
AcDbText
 10
3278.240156500032
 20
5958.572103331289
 30
0.0
 40
135.0
  1
縮尺：1/25
100
AcDbText
  0
LINE
  5
7EFF
330
81AE
100
AcDbEntity
  8
4
100
AcDbLine
 10
4625.0
 20
6673.521885662011
 30
0.0
 11
4625.0
 21
6173.521885662012
 31
0.0
  0
LINE
  5
7F00
330
81AE
100
AcDbEntity
  8
4
100
AcDbLine
 10
5250.0
 20
7375.0
 30
0.0
 11
5250.0
 21
7375.0
 31
0.0
  0
LINE
  5
7F01
330
81AE
100
AcDbEntity
  8
4
100
AcDbLine
 10
3601.543555899662
 20
6703.158957813504
 30
0.0
 11
3601.543555899662
 21
6966.630653874381
 31
0.0
  0
LINE
  5
7F02
330
81AE
100
AcDbEntity
  8
4
100
AcDbLine
 10
3601.543555899662
 20
6966.630653874381
 30
0.0
 11
4625.0
 21
6966.630653874381
 31
0.0
  0
LINE
  5
7F03
330
81AE
100
AcDbEntity
  8
4
100
AcDbLine
 10
4625.0
 20
6966.630653874381
 30
0.0
 11
4625.0
 21
6703.158957813504
 31
0.0
  0
LINE
  5
7F04
330
81AE
100
AcDbEntity
  8
4
100
AcDbLine
 10
4625.0
 20
6703.158957813504
 30
0.0
 11
3601.543555899662
 21
6703.158957813504
 31
0.0
  0
LINE
  5
7F05
330
81AE
100
AcDbEntity
  8
4
100
AcDbLine
 10
0.0
 20
0.0
 30
0.0
 11
0.0
 21
7375.0
 31
0.0
  0
LINE
  5
7F06
330
81AE
100
AcDbEntity
  8
4
100
AcDbLine
 10
0.0
 20
7375.0
 30
0.0
 11
5250.0
 21
7375.0
 31
0.0
  0
LINE
  5
7F07
330
81AE
100
AcDbEntity
  8
4
100
AcDbLine
 10
5250.0
 20
7375.0
 30
0.0
 11
5250.0
 21
0.0
 31
0.0
  0
LINE
  5
7F08
330
81AE
100
AcDbEntity
  8
4
100
AcDbLine
 10
5250.0
 20
0.0
 30
0.0
 11
0.0
 21
0.0
 31
0.0
  0
DIMENSION
  5
8060
330
81AE
100
AcDbEntity
  8
3
100
AcDbDimension
  2
*D22
 10
1572.993139438522
 20
1537.564655594709
 30
0.0
 11
1322.993139438522
 21
1600.064655594709
 31
0.0
 71
     5
 42
-1.0
  3
Standard
100
AcDbAlignedDimension
 13
1072.993139438522
 23
1711.184586066369
 33
0.0
 14
1572.993139438522
 24
1711.184586066369
 34
0.0
100
AcDbRotatedDimension
1001
ACAD
1000
DSTYLE
1002
{
1070
   172
1070
     1
1070
    40
1040
25.0
1070
    42
1040
1.0
1070
   271
1070
     0
1070
   143
1040
0.039
1002
}
  0
DIMENSION
  5
806D
330
81AE
100
AcDbEntity
  8
3
100
AcDbDimension
  2
*D23
 10
2822.993139438522
 20
1537.564655594709
 30
0.0
 11
2197.993139438522
 21
1600.064655594709
 31
0.0
 71
     5
 42
-1.0
  3
Standard
100
AcDbAlignedDimension
 13
1572.993139438522
 23
1711.184586066369
 33
0.0
 14
2822.993139438522
 24
1711.184586066369
 34
0.0
100
AcDbRotatedDimension
1001
ACAD
1000
DSTYLE
1002
{
1070
   172
1070
     1
1070
    40
1040
25.0
1070
    42
1040
1.0
1070
   271
1070
     0
1070
   143
1040
0.039
1002
}
  0
DIMENSION
  5
807A
330
81AE
100
AcDbEntity
  8
3
100
AcDbDimension
  2
*D24
 10
4069.037576512396
 20
1537.564655594709
 30
0.0
 11
3718.037576512396
 21
1600.064655594709
 31
0.0
 71
     5
 42
-1.0
  3
Standard
100
AcDbAlignedDimension
 13
3367.037576512395
 23
1711.184586066369
 33
0.0
 14
4069.037576512396
 24
1711.184586066369
 34
0.0
100
AcDbRotatedDimension
1001
ACAD
1000
DSTYLE
1002
{
1070
   172
1070
     1
1070
    40
1040
25.0
1070
    42
1040
1.0
1070
   271
1070
     0
1070
   143
1040
0.039
1002
}
  0
DIMENSION
  5
8087
330
81AE
100
AcDbEntity
  8
3
100
AcDbDimension
  2
*D25
 10
4622.037576512396
 20
1537.564655594709
 30
0.0
 11
4345.537576512396
 21
1600.064655594709
 31
0.0
 71
     5
 42
-1.0
  3
Standard
100
AcDbAlignedDimension
 13
4069.037576512396
 23
1711.184586066369
 33
0.0
 14
4622.037576512396
 24
1711.184586066369
 34
0.0
100
AcDbRotatedDimension
1001
ACAD
1000
DSTYLE
1002
{
1070
   172
1070
     1
1070
    40
1040
25.0
1070
    42
1040
1.0
1070
   271
1070
     0
1070
   143
1040
0.039
1002
}
  0
DIMENSION
  5
8094
330
81AE
100
AcDbEntity
  8
3
100
AcDbDimension
  2
*D26
 10
557.0501492209258
 20
3083.184586066368
 30
0.0
 11
474.9072920780688
 21
2397.184586066368
 31
0.0
 71
     5
 42
-1.0
  3
Standard
100
AcDbAlignedDimension
 13
1072.993139438522
 23
1711.184586066369
 33
0.0
 14
1553.493139438523
 24
3083.184586066368
 34
0.0
 50
90.0
100
AcDbRotatedDimension
1001
ACAD
1000
DSTYLE
1002
{
1070
   172
1070
     1
1070
    40
1040
25.0
1070
     3
1000
(<>)
1070
    42
1040
1.0
1070
   271
1070
     0
1070
   143
1040
0.039
1002
}
  0
ARC
  5
8265
330
81AE
100
AcDbEntity
  8
FUTO
100
AcDbCircle
 10
1525.493139438522
 20
2490.684586066368
 30
0.0
 40
510.5
100
AcDbArc
 50
90.0
 51
174.6611324118604
  0
LINE
  5
8266
330
81AE
100
AcDbEntity
  8
FUTO
100
AcDbLine
 10
2420.993139438523
 20
3083.184586066368
 30
0.0
 11
2364.621285226002
 21
2538.184586066368
 31
0.0
  0
ARC
  5
8267
330
81AE
100
AcDbEntity
  8
FUTO
100
AcDbCircle
 10
1631.993139438522
 20
2479.184586066368
 30
0.0
 40
617.0
100
AcDbArc
 50
174.5127648570996
 51
241.2615071564635
  0
ARC
  5
8268
330
81AE
100
AcDbEntity
  8
FUTO
100
AcDbCircle
 10
1631.993139438522
 20
2597.184586066368
 30
0.0
 40
735.0
100
AcDbArc
 50
296.2854859568602
 51
355.395793273499
  0
ARC
  5
8269
330
81AE
100
AcDbEntity
  8
FUTO
100
AcDbCircle
 10
1542.493139438522
 20
2568.684586066368
 30
0.0
 40
432.5
100
AcDbArc
 50
82.89434475270288
 51
90.0
  0
LINE
  5
826A
330
81AE
100
AcDbEntity
  8
FUTO
100
AcDbLine
 10
1595.993139438522
 20
2997.862870698758
 30
0.0
 11
1595.993139438522
 21
3083.184586066368
 31
0.0
  0
LINE
  5
826B
330
81AE
100
AcDbEntity
  8
FUTO
100
AcDbLine
 10
1525.493139438522
 20
3001.184586066368
 30
0.0
 11
1542.493139438522
 21
3001.184586066368
 31
0.0
  0
LINE
  5
826C
330
81AE
100
AcDbEntity
  8
1
100
AcDbLine
 10
2463.493139438523
 20
3083.184586066368
 30
0.0
 11
1553.493139438522
 21
3083.184586066366
 31
0.0
  0
LINE
  5
826D
330
81AE
100
AcDbEntity
  8
1
100
AcDbLine
 10
2463.493139438523
 20
3083.184586066368
 30
0.0
 11
2463.493139438523
 21
3080.184586066368
 31
0.0
  0
LINE
  5
826E
330
81AE
100
AcDbEntity
  8
1
100
AcDbLine
 10
1553.493139438522
 20
3083.184586066366
 30
0.0
 11
1553.493139438522
 21
3080.184586066366
 31
0.0
  0
LINE
  5
826F
330
81AE
100
AcDbEntity
  8
1
100
AcDbLine
 10
2417.5920446681
 20
3043.184586066368
 30
0.0
 11
1595.993139438522
 21
3043.184586066366
 31
0.0
  0
LINE
  5
8270
330
81AE
100
AcDbEntity
  8
1
100
AcDbLine
 10
2463.493139438523
 20
3080.184586066368
 30
0.0
 11
1553.493139438522
 21
3080.184586066366
 31
0.0
  0
POINT
  5
8271
330
81AE
100
AcDbEntity
  8
1
100
AcDbPoint
 10
1572.993139438522
 20
3103.40249673539
 30
0.0
 50
270.0
  0
POINT
  5
8272
330
81AE
100
AcDbEntity
  8
1
100
AcDbPoint
 10
1572.993139438522
 20
3103.40249673539
 30
0.0
 50
270.0
  0
DIMENSION
  5
8276
330
81AE
100
AcDbEntity
  8
3
100
AcDbDimension
  2
*D28
 10
4069.037576512394
 20
3525.95501357763
 30
0.0
 11
3619.037576512395
 21
3608.097870720487
 31
0.0
 70
    32
  1
(<>)
 71
     5
 42
899.9999999999996
  3
IGA
100
AcDbAlignedDimension
 13
3169.037576512395
 23
2758.184586066368
 33
0.0
 14
4069.037576512394
 24
3271.573169067423
 34
0.0
100
AcDbRotatedDimension
1001
ACAD
1000
DSTYLE
1002
{
1070
    40
1040
25.0
1070
    42
1040
1.0
1070
   143
1040
0.039
1070
   172
1070
     1
1070
   271
1070
     4
1070
   272
1070
     4
1070
   279
1070
     0
1070
   284
1070
     0
1070
   285
1070
     0
1070
   286
1070
     0
1070
   341
1005
81C2
1070
   343
1005
81C2
1070
   344
1005
81C2
1002
}
  0
DIMENSION
  5
8283
330
81AE
100
AcDbEntity
  8
3
100
AcDbDimension
  2
*D29
 10
4679.037576512397
 20
3525.95501357763
 30
0.0
 11
4374.037576512395
 21
3608.097870720487
 31
0.0
 70
    32
  1
(<>)
 71
     5
 42
610.0000000000027
  3
IGA
100
AcDbAlignedDimension
 13
4069.037576512394
 23
3271.573169067423
 33
0.0
 14
4679.037576512397
 24
2498.684586066368
 34
0.0
100
AcDbRotatedDimension
1001
ACAD
1000
DSTYLE
1002
{
1070
    40
1040
25.0
1070
    42
1040
1.0
1070
   143
1040
0.039
1070
   172
1070
     1
1070
   271
1070
     4
1070
   272
1070
     4
1070
   279
1070
     1
1070
   284
1070
     0
1070
   285
1070
     0
1070
   286
1070
     0
1070
   341
1005
81C2
1070
   343
1005
81C2
1070
   344
1005
81C2
1002
}
  0
DIMENSION
  5
82DB
330
81AE
100
AcDbEntity
  8
3
100
AcDbDimension
  2
*D30
 10
2822.993139438522
 20
3912.547551905861
 30
0.0
 11
1947.993139438522
 21
3975.047551905861
 31
0.0
 70
    32
 71
     5
 42
1750.0
  3
IGA
100
AcDbAlignedDimension
 13
1072.993139438522
 23
4275.677542897386
 33
0.0
 14
2822.993139438522
 24
4275.677542897386
 34
0.0
100
AcDbRotatedDimension
1001
ACAD
1000
DSTYLE
1002
{
1070
    40
1040
25.0
1070
    42
1040
1.0
1070
   143
1040
0.039
1070
   172
1070
     1
1070
   271
1070
     4
1070
   272
1070
     4
1070
   279
1070
     0
1070
   284
1070
     0
1070
   285
1070
     0
1070
   286
1070
     0
1070
   341
1005
81C2
1070
   343
1005
81C2
1070
   344
1005
81C2
1002
}
  0
DIMENSION
  5
82E8
330
81AE
100
AcDbEntity
  8
3
100
AcDbDimension
  2
*D31
 10
2822.993139438522
 20
5681.800826448339
 30
0.0
 11
2447.993139438522
 21
5744.300826448339
 31
0.0
 70
    32
 71
     5
 42
749.9999999999995
  3
IGA
100
AcDbAlignedDimension
 13
2072.993139438522
 23
5530.677542897386
 33
0.0
 14
2822.993139438522
 24
5025.677542897387
 34
0.0
100
AcDbRotatedDimension
1001
ACAD
1000
DSTYLE
1002
{
1070
    40
1040
25.0
1070
    42
1040
1.0
1070
   143
1040
0.039
1070
   172
1070
     1
1070
   271
1070
     4
1070
   272
1070
     4
1070
   279
1070
     0
1070
   284
1070
     0
1070
   285
1070
     0
1070
   286
1070
     0
1070
   341
1005
81C2
1070
   343
1005
81C2
1070
   344
1005
81C2
1002
}
  0
DIMENSION
  5
82FE
330
81AE
100
AcDbEntity
  8
3
100
AcDbDimension
  2
*D32
 10
1014.993139438522
 20
3383.813332182234
 30
0.0
 11
1293.993139438522
 21
3446.313332182234
 31
0.0
 70
    32
 71
     5
 42
557.9999999999995
  3
IGA
100
AcDbAlignedDimension
 13
1572.993139438522
 23
3396.867918693612
 33
0.0
 14
1014.993139438522
 24
2479.184586066368
 34
0.0
100
AcDbRotatedDimension
1001
ACAD
1000
DSTYLE
1002
{
1070
    40
1040
25.0
1070
    42
1040
1.0
1070
   143
1040
0.039
1070
   172
1070
     1
1070
   271
1070
     4
1070
   272
1070
     4
1070
   279
1070
     0
1070
   284
1070
     0
1070
   285
1070
     0
1070
   286
1070
     0
1070
   341
1005
81C2
1070
   343
1005
81C2
1070
   344
1005
81C2
1002
}
  0
DIMENSION
  5
8314
330
81AE
100
AcDbEntity
  8
3
100
AcDbDimension
  2
*D33
 10
1014.993139438522
 20
3545.239714473563
 30
0.0
 11
1918.993139438522
 21
3607.739714473563
 31
0.0
 70
    32
 71
     5
 42
1807.999999999999
  3
IGA
100
AcDbAlignedDimension
 13
2822.993139438522
 23
1938.184586066368
 33
0.0
 14
1014.993139438522
 24
2479.184586066368
 34
0.0
100
AcDbRotatedDimension
1001
ACAD
1000
DSTYLE
1002
{
1070
    40
1040
25.0
1070
    42
1040
1.0
1070
   143
1040
0.039
1070
   172
1070
     1
1070
   271
1070
     4
1070
   272
1070
     4
1070
   279
1070
     0
1070
   284
1070
     0
1070
   285
1070
     0
1070
   286
1070
     0
1070
   341
1005
81C2
1070
   343
1005
81C2
1070
   344
1005
81C2
1002
}
  0
DIMENSION
  5
8321
330
81AE
100
AcDbEntity
  8
3
100
AcDbDimension
  2
*D34
 10
771.5199975370998
 20
1838.184586066368
 30
0.0
 11
709.0199975370994
 21
2188.184586066368
 31
0.0
 70
    32
 71
     5
 42
699.9999999999995
  3
IGA
100
AcDbAlignedDimension
 13
906.521347588132
 23
2538.184586066368
 33
0.0
 14
1072.993139438522
 24
1838.184586066368
 34
0.0
 50
90.0
100
AcDbRotatedDimension
1001
ACAD
1000
DSTYLE
1002
{
1070
    40
1040
25.0
1070
    42
1040
1.0
1070
   143
1040
0.039
1070
   172
1070
     1
1070
   271
1070
     4
1070
   272
1070
     4
1070
   279
1070
     0
1070
   284
1070
     0
1070
   285
1070
     0
1070
   286
1070
     0
1070
   341
1005
81C2
1070
   343
1005
81C2
1070
   344
1005
81C2
1002
}
  0
ENDSEC
  0
SECTION
  2
OBJECTS
  0
DICTIONARY
  5
814B
330
0
100
AcDbDictionary
281
     1
  3
ACAD_CIP_PREVIOUS_PRODUCT_INFO
350
81F4
  3
ACAD_COLOR
350
81A1
  3
ACAD_DETAILVIEWSTYLE
350
81A8
  3
ACAD_GROUP
350
814C
  3
ACAD_LAYOUT
350
81A0
  3
ACAD_MATERIAL
350
814F
  3
ACAD_MLEADERSTYLE
350
81A4
  3
ACAD_MLINESTYLE
350
819D
  3
ACAD_PLOTSETTINGS
350
819F
  3
ACAD_PLOTSTYLENAME
350
814D
  3
ACAD_SCALELIST
350
8181
  3
ACAD_SECTIONVIEWSTYLE
350
81A6
  3
ACAD_TABLESTYLE
350
81A2
  3
ACAD_VISUALSTYLE
350
8168
  3
ACDB_RECOMPOSE_DATA
350
8339
  3
AcDbVariableDictionary
350
81FF
  3
DWGPROPS
350
833A
  0
DICTIONARY
  5
824D
330
8141
100
AcDbDictionary
280
     1
281
     1
  3
ACAD_LAYERSTATES
360
824E
  0
DICTIONARY
  5
81F5
330
8193
100
AcDbDictionary
280
     1
281
     1
  3
ADSK_XREC_LAYER_RECONCILED
360
81F6
  0
DICTIONARY
  5
81F7
330
81B2
100
AcDbDictionary
280
     1
281
     1
  3
ADSK_XREC_LAYER_RECONCILED
360
81F8
  0
DICTIONARY
  5
81F9
330
81B5
100
AcDbDictionary
280
     1
281
     1
  3
ADSK_XREC_LAYER_RECONCILED
360
81FA
  0
DICTIONARY
  5
81FB
330
81B6
100
AcDbDictionary
280
     1
281
     1
  3
ADSK_XREC_LAYER_RECONCILED
360
81FC
  0
DICTIONARY
  5
81FD
330
81B7
100
AcDbDictionary
280
     1
281
     1
  3
ADSK_XREC_LAYER_RECONCILED
360
81FE
  0
DICTIONARY
  5
824C
330
824B
100
AcDbDictionary
280
     1
281
     1
  0
XRECORD
  5
81F4
102
{ACAD_REACTORS
330
814B
102
}
330
814B
100
AcDbXrecord
280
     1
300
ACDLT
300
2015
300
INVLTS_F_S
  0
DICTIONARY
  5
81A1
102
{ACAD_REACTORS
330
814B
102
}
330
814B
100
AcDbDictionary
281
     1
  0
DICTIONARY
  5
81A8
102
{ACAD_REACTORS
330
814B
102
}
330
814B
100
AcDbDictionary
281
     1
  3
Imperial24
350
81A9
  0
DICTIONARY
  5
814C
102
{ACAD_REACTORS
330
814B
102
}
330
814B
100
AcDbDictionary
281
     1
  0
DICTIONARY
  5
81A0
102
{ACAD_REACTORS
330
814B
102
}
330
814B
100
AcDbDictionary
281
     1
  3
Model
350
81B1
  3
レイアウト1
350
81AD
  0
DICTIONARY
  5
814F
102
{ACAD_REACTORS
330
814B
102
}
330
814B
100
AcDbDictionary
281
     1
  3
ByBlock
350
8158
  3
ByLayer
350
8150
  3
Global
350
8160
  0
DICTIONARY
  5
81A4
102
{ACAD_REACTORS
330
814B
102
}
330
814B
100
AcDbDictionary
281
     1
  3
Standard
350
81A5
  0
DICTIONARY
  5
819D
102
{ACAD_REACTORS
330
814B
102
}
330
814B
100
AcDbDictionary
281
     1
  3
Standard
350
819E
  0
DICTIONARY
  5
819F
102
{ACAD_REACTORS
330
814B
102
}
330
814B
100
AcDbDictionary
281
     1
  0
ACDBDICTIONARYWDFLT
  5
814D
102
{ACAD_REACTORS
330
814B
102
}
330
814B
100
AcDbDictionary
281
     1
  3
Normal
350
814E
100
AcDbDictionaryWithDefault
340
814E
  0
DICTIONARY
  5
8181
102
{ACAD_REACTORS
330
814B
102
}
330
814B
100
AcDbDictionary
281
     1
  3
A0
350
8182
  3
A1
350
8183
  3
A2
350
8184
  3
A3
350
8185
  3
A4
350
8186
  3
A5
350
8187
  3
A6
350
8188
  3
A7
350
8189
  3
A8
350
818A
  3
A9
350
818B
  3
B0
350
818C
  3
B1
350
818D
  3
B2
350
818E
  3
B3
350
818F
  3
B4
350
8190
  3
B5
350
8191
  3
B6
350
8192
  0
DICTIONARY
  5
81A6
102
{ACAD_REACTORS
330
814B
102
}
330
814B
100
AcDbDictionary
281
     1
  3
Imperial24
350
81A7
  0
DICTIONARY
  5
81A2
102
{ACAD_REACTORS
330
814B
102
}
330
814B
100
AcDbDictionary
281
     1
  3
Standard
350
81A3
  0
DICTIONARY
  5
8168
102
{ACAD_REACTORS
330
814B
102
}
330
814B
100
AcDbDictionary
281
     1
  3
2dWireframe
350
816E
  3
Basic
350
816D
  3
Brighten
350
8174
  3
ColorChange
350
8178
  3
Conceptual
350
8171
  3
Dim
350
8173
  3
EdgeColorOff
350
8180
  3
Facepattern
350
8177
  3
Flat
350
8169
  3
FlatWithEdges
350
816A
  3
Gouraud
350
816B
  3
GouraudWithEdges
350
816C
  3
Hidden
350
8170
  3
JitterOff
350
817E
  3
Linepattern
350
8176
  3
OverhangOff
350
817F
  3
Realistic
350
8172
  3
Shaded
350
817D
  3
Shaded with edges
350
817C
  3
Shades of Gray
350
8179
  3
Sketchy
350
817A
  3
Thicken
350
8175
  3
Wireframe
350
816F
  3
X-Ray
350
817B
  0
XRECORD
  5
8339
102
{ACAD_REACTORS
330
814B
102
}
330
814B
100
AcDbXrecord
280
     1
 90
        1
330
81A3
  0
DICTIONARY
  5
81FF
102
{ACAD_REACTORS
330
814B
102
}
330
814B
100
AcDbDictionary
281
     1
  3
CANNOSCALE
350
8204
  3
CMLEADERSTYLE
350
8201
  3
CTABLESTYLE
350
8200
  3
CVIEWDETAILSTYLE
350
8202
  3
CVIEWSECTIONSTYLE
350
8203
  3
DIMASSOC
350
8207
  3
INDEXCTL
350
8206
  3
SORTENTS
350
8205
  3
XCLIPFRAME
350
8208
  0
XRECORD
  5
833A
102
{ACAD_REACTORS
330
814B
102
}
330
814B
100
AcDbXrecord
280
     1
  1
DWGPROPS COOKIE
  2

  3

  4

  6

  7

  8
yasukiyo.ogawa
  9

300
=
301
=
302
=
303
=
304
=
305
=
306
=
307
=
308
=
309
=
 40
0.0158625231481482
 41
2451389.462286342
 42
2460265.610729607
  1

 90
        0
  0
DICTIONARY
  5
824E
102
{ACAD_REACTORS
330
824D
102
}
330
824D
100
AcDbDictionary
281
     1
  0
XRECORD
  5
81F6
102
{ACAD_REACTORS
330
81F5
102
}
330
81F5
100
AcDbXrecord
280
     1
290
     1
  0
XRECORD
  5
81F8
102
{ACAD_REACTORS
330
81F7
102
}
330
81F7
100
AcDbXrecord
280
     1
290
     1
  0
XRECORD
  5
81FA
102
{ACAD_REACTORS
330
81F9
102
}
330
81F9
100
AcDbXrecord
280
     1
290
     1
  0
XRECORD
  5
81FC
102
{ACAD_REACTORS
330
81FB
102
}
330
81FB
100
AcDbXrecord
280
     1
290
     1
  0
XRECORD
  5
81FE
102
{ACAD_REACTORS
330
81FD
102
}
330
81FD
100
AcDbXrecord
280
     1
290
     1
  0
ACDBDETAILVIEWSTYLE
  5
81A9
102
{ACAD_XDICTIONARY
360
8372
102
}
102
{ACAD_REACTORS
330
81A8
102
}
330
81A8
100
AcDbModelDocViewStyle
 70
     0
  3
Imperial24
290
     0
100
AcDbDetailViewStyle
 70
     0
 71
     0
 90
        3
 71
     1
340
8194
 40
0.24
340
0
 40
0.24
300

 40
0.36
280
     3
 71
     2
340
819B
 90
       25
 71
     3
340
8194
 40
0.24
 90
        1
 40
0.75
 90
        1
300
%<\AcVar ViewType \f "%tc1">% %<\AcVar ViewDetailId>%\PSCALE %<\AcVar ViewScale \f "%sn">%
 71
     4
340
819B
 90
       25
340
819B
 90
       25
280
     0
  0
LAYOUT
  5
81B1
102
{ACAD_XDICTIONARY
360
8376
102
}
102
{ACAD_REACTORS
330
81A0
102
}
330
81A0
100
AcDbPlotSettings
  1

  2
RICOH imagio MP W3600 RPCS
  4

  6

 40
0.0
 41
0.0
 42
0.0
 43
0.0
 44
0.0
 45
0.0
 46
0.0
 47
0.0
 48
0.0
 49
0.0
140
0.0
141
0.0
142
1.0
143
1.0
 70
  1712
 72
     0
 73
     0
 74
     0
  7

 75
     0
147
1.0
148
0.0
149
0.0
100
AcDbLayout
  1
Model
 70
     1
 71
     0
 10
0.0
 20
0.0
 11
12.0
 21
9.0
 12
0.0
 22
0.0
 32
0.0
 14
0.0
 24
0.0
 34
0.0
 15
0.0
 25
0.0
 35
0.0
146
0.0
 13
0.0
 23
0.0
 33
0.0
 16
1.0
 26
0.0
 36
0.0
 17
0.0
 27
1.0
 37
0.0
 76
     0
330
81AE
331
81B3
  0
LAYOUT
  5
81AD
102
{ACAD_XDICTIONARY
360
8374
102
}
102
{ACAD_REACTORS
330
81A0
102
}
330
81A0
100
AcDbPlotSettings
  1

  2
RICOH imagio MP W3600 RPCS
  4

  6

 40
0.0
 41
0.0
 42
0.0
 43
0.0
 44
0.0
 45
0.0
 46
0.0
 47
0.0
 48
0.0
 49
0.0
140
0.0
141
0.0
142
1.0
143
1.0
 70
   688
 72
     0
 73
     0
 74
     5
  7

 75
    16
147
1.0
148
0.0
149
0.0
100
AcDbLayout
  1
レイアウト1
 70
     1
 71
     1
 10
0.0
 20
0.0
 11
12.0
 21
9.0
 12
0.0
 22
0.0
 32
0.0
 14
1.000000000000000E+20
 24
1.000000000000000E+20
 34
1.000000000000000E+20
 15
-1.000000000000000E+20
 25
-1.000000000000000E+20
 35
-1.000000000000000E+20
146
0.0
 13
0.0
 23
0.0
 33
0.0
 16
1.0
 26
0.0
 36
0.0
 17
0.0
 27
1.0
 37
0.0
 76
     0
330
81AA
  0
MATERIAL
  5
8158
102
{ACAD_XDICTIONARY
360
8159
102
}
102
{ACAD_REACTORS
330
814F
102
}
330
814F
100
AcDbMaterial
  1
ByBlock
 72
     0
 43
0.0208333333333333
 43
0.0
 43
0.0
 43
0.0
 43
0.0
 43
0.0208333333333333
 43
0.0
 43
0.0
 43
0.0
 43
0.0
 43
1.0
 43
0.0
 43
0.0
 43
0.0
 43
0.0
 43
1.0
 77
     0
 47
0.0208333333333333
 47
0.0
 47
0.0
 47
0.0
 47
0.0
 47
0.0208333333333333
 47
0.0
 47
0.0
 47
0.0
 47
0.0
 47
1.0
 47
0.0
 47
0.0
 47
0.0
 47
0.0
 47
1.0
171
     0
 49
0.0208333333333333
 49
0.0
 49
0.0
 49
0.0
 49
0.0
 49
0.0208333333333333
 49
0.0
 49
0.0
 49
0.0
 49
0.0
 49
1.0
 49
0.0
 49
0.0
 49
0.0
 49
0.0
 49
1.0
175
     0
142
0.0208333333333333
142
0.0
142
0.0
142
0.0
142
0.0
142
0.0208333333333333
142
0.0
142
0.0
142
0.0
142
0.0
142
1.0
142
0.0
142
0.0
142
0.0
142
0.0
142
1.0
179
     0
144
0.0208333333333333
144
0.0
144
0.0
144
0.0
144
0.0
144
0.0208333333333333
144
0.0
144
0.0
144
0.0
144
0.0
144
1.0
144
0.0
144
0.0
144
0.0
144
0.0
144
1.0
147
0.0208333333333333
147
0.0
147
0.0
147
0.0
147
0.0
147
0.0208333333333333
147
0.0
147
0.0
147
0.0
147
0.0
147
1.0
147
0.0
147
0.0
147
0.0
147
0.0
147
1.0
  0
MATERIAL
  5
8150
102
{ACAD_XDICTIONARY
360
8151
102
}
102
{ACAD_REACTORS
330
814F
102
}
330
814F
100
AcDbMaterial
  1
ByLayer
 72
     0
 43
0.0208333333333333
 43
0.0
 43
0.0
 43
0.0
 43
0.0
 43
0.0208333333333333
 43
0.0
 43
0.0
 43
0.0
 43
0.0
 43
1.0
 43
0.0
 43
0.0
 43
0.0
 43
0.0
 43
1.0
 77
     0
 47
0.0208333333333333
 47
0.0
 47
0.0
 47
0.0
 47
0.0
 47
0.0208333333333333
 47
0.0
 47
0.0
 47
0.0
 47
0.0
 47
1.0
 47
0.0
 47
0.0
 47
0.0
 47
0.0
 47
1.0
171
     0
 49
0.0208333333333333
 49
0.0
 49
0.0
 49
0.0
 49
0.0
 49
0.0208333333333333
 49
0.0
 49
0.0
 49
0.0
 49
0.0
 49
1.0
 49
0.0
 49
0.0
 49
0.0
 49
0.0
 49
1.0
175
     0
142
0.0208333333333333
142
0.0
142
0.0
142
0.0
142
0.0
142
0.0208333333333333
142
0.0
142
0.0
142
0.0
142
0.0
142
1.0
142
0.0
142
0.0
142
0.0
142
0.0
142
1.0
179
     0
144
0.0208333333333333
144
0.0
144
0.0
144
0.0
144
0.0
144
0.0208333333333333
144
0.0
144
0.0
144
0.0
144
0.0
144
1.0
144
0.0
144
0.0
144
0.0
144
0.0
144
1.0
147
0.0208333333333333
147
0.0
147
0.0
147
0.0
147
0.0
147
0.0208333333333333
147
0.0
147
0.0
147
0.0
147
0.0
147
1.0
147
0.0
147
0.0
147
0.0
147
0.0
147
1.0
  0
MATERIAL
  5
8160
102
{ACAD_XDICTIONARY
360
8161
102
}
102
{ACAD_REACTORS
330
814F
102
}
330
814F
100
AcDbMaterial
  1
Global
 72
     0
 43
0.0208333333333333
 43
0.0
 43
0.0
 43
0.0
 43
0.0
 43
0.0208333333333333
 43
0.0
 43
0.0
 43
0.0
 43
0.0
 43
1.0
 43
0.0
 43
0.0
 43
0.0
 43
0.0
 43
1.0
 77
     0
 47
0.0208333333333333
 47
0.0
 47
0.0
 47
0.0
 47
0.0
 47
0.0208333333333333
 47
0.0
 47
0.0
 47
0.0
 47
0.0
 47
1.0
 47
0.0
 47
0.0
 47
0.0
 47
0.0
 47
1.0
171
     0
 49
0.0208333333333333
 49
0.0
 49
0.0
 49
0.0
 49
0.0
 49
0.0208333333333333
 49
0.0
 49
0.0
 49
0.0
 49
0.0
 49
1.0
 49
0.0
 49
0.0
 49
0.0
 49
0.0
 49
1.0
175
     0
142
0.0208333333333333
142
0.0
142
0.0
142
0.0
142
0.0
142
0.0208333333333333
142
0.0
142
0.0
142
0.0
142
0.0
142
1.0
142
0.0
142
0.0
142
0.0
142
0.0
142
1.0
179
     0
144
0.0208333333333333
144
0.0
144
0.0
144
0.0
144
0.0
144
0.0208333333333333
144
0.0
144
0.0
144
0.0
144
0.0
144
1.0
144
0.0
144
0.0
144
0.0
144
0.0
144
1.0
147
0.0208333333333333
147
0.0
147
0.0
147
0.0
147
0.0
147
0.0208333333333333
147
0.0
147
0.0
147
0.0
147
0.0
147
1.0
147
0.0
147
0.0
147
0.0
147
0.0
147
1.0
  0
MLEADERSTYLE
  5
81A5
102
{ACAD_REACTORS
330
81A4
102
}
330
81A4
100
AcDbMLeaderStyle
170
     2
171
     1
172
     0
 90
        2
 40
0.0
 41
0.0
173
     1
 91
-1056964608
340
8199
 92
       -2
290
     1
 42
0.09
291
     1
 43
0.36
  3
Standard
 44
0.18
300

342
8194
174
     1
178
     6
175
     1
176
     0
 93
-1056964608
 45
0.18
292
     0
297
     0
 46
0.18
 94
-1056964608
 47
1.0
 49
1.0
140
1.0
293
     1
141
0.0
294
     1
177
     0
142
1.0
295
     0
296
     0
143
0.125
1001
ACAD_MLEADERVER
1070
     2
  0
MLINESTYLE
  5
819E
102
{ACAD_REACTORS
330
819D
102
}
330
819D
100
AcDbMlineStyle
  2
STANDARD
 70
     0
  3

 62
   256
 51
90.0
 52
90.0
 71
     2
 49
0.5
 62
   256
  6
BYLAYER
 49
-0.5
 62
   256
  6
BYLAYER
  0
ACDBPLACEHOLDER
  5
814E
102
{ACAD_REACTORS
330
814D
102
}
330
814D
  0
SCALE
  5
8182
102
{ACAD_REACTORS
330
8181
102
}
330
8181
100
AcDbScale
 70
     0
300
1:1
140
1.0
141
1.0
290
     1
  0
SCALE
  5
8183
102
{ACAD_REACTORS
330
8181
102
}
330
8181
100
AcDbScale
 70
     0
300
1/128" = 1'-0"
140
0.0078125
141
12.0
290
     0
  0
SCALE
  5
8184
102
{ACAD_REACTORS
330
8181
102
}
330
8181
100
AcDbScale
 70
     0
300
1/64" = 1'-0"
140
0.015625
141
12.0
290
     0
  0
SCALE
  5
8185
102
{ACAD_REACTORS
330
8181
102
}
330
8181
100
AcDbScale
 70
     0
300
1/32" = 1'-0"
140
0.03125
141
12.0
290
     0
  0
SCALE
  5
8186
102
{ACAD_REACTORS
330
8181
102
}
330
8181
100
AcDbScale
 70
     0
300
1/16" = 1'-0"
140
0.0625
141
12.0
290
     0
  0
SCALE
  5
8187
102
{ACAD_REACTORS
330
8181
102
}
330
8181
100
AcDbScale
 70
     0
300
3/32" = 1'-0"
140
0.09375
141
12.0
290
     0
  0
SCALE
  5
8188
102
{ACAD_REACTORS
330
8181
102
}
330
8181
100
AcDbScale
 70
     0
300
1/8" = 1'-0"
140
0.125
141
12.0
290
     0
  0
SCALE
  5
8189
102
{ACAD_REACTORS
330
8181
102
}
330
8181
100
AcDbScale
 70
     0
300
3/16" = 1'-0"
140
0.1875
141
12.0
290
     0
  0
SCALE
  5
818A
102
{ACAD_REACTORS
330
8181
102
}
330
8181
100
AcDbScale
 70
     0
300
1/4" = 1'-0"
140
0.25
141
12.0
290
     0
  0
SCALE
  5
818B
102
{ACAD_REACTORS
330
8181
102
}
330
8181
100
AcDbScale
 70
     0
300
3/8" = 1'-0"
140
0.375
141
12.0
290
     0
  0
SCALE
  5
818C
102
{ACAD_REACTORS
330
8181
102
}
330
8181
100
AcDbScale
 70
     0
300
1/2" = 1'-0"
140
0.5
141
12.0
290
     0
  0
SCALE
  5
818D
102
{ACAD_REACTORS
330
8181
102
}
330
8181
100
AcDbScale
 70
     0
300
3/4" = 1'-0"
140
0.75
141
12.0
290
     0
  0
SCALE
  5
818E
102
{ACAD_REACTORS
330
8181
102
}
330
8181
100
AcDbScale
 70
     0
300
1" = 1'-0"
140
1.0
141
12.0
290
     0
  0
SCALE
  5
818F
102
{ACAD_REACTORS
330
8181
102
}
330
8181
100
AcDbScale
 70
     0
300
1-1/2" = 1'-0"
140
1.5
141
12.0
290
     0
  0
SCALE
  5
8190
102
{ACAD_REACTORS
330
8181
102
}
330
8181
100
AcDbScale
 70
     0
300
3" = 1'-0"
140
3.0
141
12.0
290
     0
  0
SCALE
  5
8191
102
{ACAD_REACTORS
330
8181
102
}
330
8181
100
AcDbScale
 70
     0
300
6" = 1'-0"
140
6.0
141
12.0
290
     0
  0
SCALE
  5
8192
102
{ACAD_REACTORS
330
8181
102
}
330
8181
100
AcDbScale
 70
     0
300
1'-0" = 1'-0"
140
12.0
141
12.0
290
     0
  0
ACDBSECTIONVIEWSTYLE
  5
81A7
102
{ACAD_XDICTIONARY
360
8370
102
}
102
{ACAD_REACTORS
330
81A6
102
}
330
81A6
100
AcDbModelDocViewStyle
 70
     0
  3
Imperial24
290
     0
100
AcDbSectionViewStyle
 70
     0
 71
     0
 90
       78
 71
     1
340
8194
 40
0.24
340
0
340
0
 40
0.24
300
I, O, Q, S, X, Z
 40
0.48
 90
        3
 40
0.18
 90
        1
 71
     2
340
819B
 90
       25
340
819B
 90
       50
 40
0.24
 40
0.0
 40
0.24
 71
     3
340
8194
 40
0.24
 90
        1
 40
0.75
 90
        1
300
%<\AcVar ViewType \f "%tc1">% %<\AcVar ViewSectionStartId>%-%<\AcVar ViewSectionEndId>%\PSCALE %<\AcVar ViewScale \f "%sn">%
 71
     4
300
ANSI31
 40
1.0
 90
        0
290
     0
290
     0
 90
        6
 40
0.0
 40
1.570796326794896
 40
0.2617993877991494
 40
1.308996938995747
 40
-0.2617993877991494
 40
1.832595714594046
  0
TABLESTYLE
  5
81A3
102
{ACAD_XDICTIONARY
360
8337
102
}
102
{ACAD_REACTORS
330
81A2
102
}
330
81A2
100
AcDbTableStyle
  3
Standard
 70
     0
 71
     0
 40
0.06
 41
0.06
280
     0
281
     0
  7
STANDARD
140
0.18
170
     2
 62
     0
 63
     7
283
     0
274
    -2
284
     1
 64
     0
275
    -2
285
     1
 65
     0
276
    -2
286
     1
 66
     0
277
    -2
287
     1
 67
     0
278
    -2
288
     1
 68
     0
279
    -2
289
     1
 69
     0
  7
STANDARD
140
0.25
170
     5
 62
     0
 63
     7
283
     0
274
    -2
284
     1
 64
     0
275
    -2
285
     1
 65
     0
276
    -2
286
     1
 66
     0
277
    -2
287
     1
 67
     0
278
    -2
288
     1
 68
     0
279
    -2
289
     1
 69
     0
  7
STANDARD
140
0.18
170
     5
 62
     0
 63
     7
283
     0
274
    -2
284
     1
 64
     0
275
    -2
285
     1
 65
     0
276
    -2
286
     1
 66
     0
277
    -2
287
     1
 67
     0
278
    -2
288
     1
 68
     0
279
    -2
289
     1
 69
     0
  0
VISUALSTYLE
  5
816E
102
{ACAD_XDICTIONARY
360
8348
102
}
102
{ACAD_REACTORS
330
8168
102
}
330
8168
100
AcDbVisualStyle
  2
2dWireframe
 70
     4
 71
     0
 72
     2
 73
     0
 90
        0
 40
-0.6
 41
-30.0
 62
     5
 63
     7
 74
     1
 91
        4
 64
     7
 65
   257
 75
     1
175
     1
 42
1.0
 92
        0
 66
   257
 43
1.0
 76
     1
 77
     6
 78
     2
 67
     7
 79
     5
170
     0
171
     0
290
     0
174
     0
 93
        1
 44
0.0
173
     0
291
     0
 45
0.0
1001
ACAD
1000
AcDbSavedByObjectVersion
1070
     0
  0
VISUALSTYLE
  5
816D
102
{ACAD_XDICTIONARY
360
8346
102
}
102
{ACAD_REACTORS
330
8168
102
}
330
8168
100
AcDbVisualStyle
  2
Basic
 70
     7
 71
     1
 72
     0
 73
     1
 90
        0
 40
-0.6
 41
-30.0
 62
     5
 63
     7
 74
     0
 91
        4
 64
     7
 65
   257
 75
     1
175
     1
 42
1.0
 92
        8
 66
     7
 43
1.0
 76
     1
 77
     6
 78
     2
 67
     7
 79
     5
170
     0
171
     0
290
     0
174
     0
 93
        1
 44
0.0
173
     0
291
     1
 45
0.0
1001
ACAD
1000
AcDbSavedByObjectVersion
1070
     0
  0
VISUALSTYLE
  5
8174
102
{ACAD_XDICTIONARY
360
8354
102
}
102
{ACAD_REACTORS
330
8168
102
}
330
8168
100
AcDbVisualStyle
  2
Brighten
 70
    12
 71
     2
 72
     2
 73
     0
 90
        0
 40
-0.6
 41
-30.0
 62
     5
 63
     7
 74
     1
 91
        4
 64
     7
 65
   257
 75
     1
175
     1
 42
1.0
 92
        8
 66
     7
 43
1.0
 76
     1
 77
     6
 78
     2
 67
     7
 79
     5
170
     0
171
     0
290
     0
174
     0
 93
        1
 44
50.0
173
     0
291
     1
 45
0.0
1001
ACAD
1000
AcDbSavedByObjectVersion
1070
     0
  0
VISUALSTYLE
  5
8178
102
{ACAD_XDICTIONARY
360
835C
102
}
102
{ACAD_REACTORS
330
8168
102
}
330
8168
100
AcDbVisualStyle
  2
ColorChange
 70
    16
 71
     2
 72
     2
 73
     3
 90
        0
 40
-0.6
 41
-30.0
 62
     5
 63
     8
 74
     1
 91
        4
 64
     7
 65
   257
 75
     1
175
     1
 42
1.0
 92
        8
 66
     8
 43
1.0
 76
     1
 77
     6
 78
     2
 67
     7
 79
     5
170
     0
171
     0
290
     0
174
     0
 93
        1
 44
0.0
173
     0
291
     1
 45
0.0
1001
ACAD
1000
AcDbSavedByObjectVersion
1070
     0
  0
VISUALSTYLE
  5
8171
102
{ACAD_XDICTIONARY
360
834E
102
}
102
{ACAD_REACTORS
330
8168
102
}
330
8168
100
AcDbVisualStyle
  2
Conceptual
 70
     9
 71
     3
 72
     2
 73
     0
 90
        0
 40
-0.6
 41
-30.0
 62
     5
 63
     7
 74
     2
 91
        2
 64
     7
 65
   257
 75
     1
175
     1
 42
179.0
 92
        8
 66
     7
 43
1.0
 76
     1
 77
     6
 78
     2
 67
     7
 79
     3
170
     0
171
     0
290
     0
174
     0
 93
        1
 44
0.0
173
     0
291
     0
 45
0.0
1001
ACAD
1000
AcDbSavedByObjectVersion
1070
     0
  0
VISUALSTYLE
  5
8173
102
{ACAD_XDICTIONARY
360
8352
102
}
102
{ACAD_REACTORS
330
8168
102
}
330
8168
100
AcDbVisualStyle
  2
Dim
 70
    11
 71
     2
 72
     2
 73
     0
 90
        0
 40
-0.6
 41
-30.0
 62
     5
 63
     7
 74
     1
 91
        4
 64
     7
 65
   257
 75
     1
175
     1
 42
1.0
 92
        8
 66
     7
 43
1.0
 76
     1
 77
     6
 78
     2
 67
     7
 79
     5
170
     0
171
     0
290
     0
174
     0
 93
        1
 44
-50.0
173
     0
291
     1
 45
0.0
1001
ACAD
1000
AcDbSavedByObjectVersion
1070
     0
  0
VISUALSTYLE
  5
8180
102
{ACAD_XDICTIONARY
360
836C
102
}
102
{ACAD_REACTORS
330
8168
102
}
330
8168
100
AcDbVisualStyle
  2
EdgeColorOff
 70
    22
 71
     2
 72
     2
 73
     0
 90
        0
 40
-0.6
 41
-30.0
 62
     5
 63
     7
 74
     1
 91
        4
 64
     7
 65
   257
 75
     1
175
     1
 42
1.0
 92
        8
 66
     7
 43
1.0
 76
     1
 77
     6
 78
     2
 67
     7
 79
     5
170
     0
171
     0
290
     0
174
     0
 93
        1
 44
0.0
173
     0
291
     1
 45
0.0
1001
ACAD
1000
AcDbSavedByObjectVersion
1070
     0
  0
VISUALSTYLE
  5
8177
102
{ACAD_XDICTIONARY
360
835A
102
}
102
{ACAD_REACTORS
330
8168
102
}
330
8168
100
AcDbVisualStyle
  2
Facepattern
 70
    15
 71
     2
 72
     2
 73
     0
 90
        0
 40
-0.6
 41
-30.0
 62
     5
 63
     7
 74
     1
 91
        4
 64
     7
 65
   257
 75
     1
175
     1
 42
1.0
 92
        8
 66
     7
 43
1.0
 76
     1
 77
     6
 78
     2
 67
     7
 79
     5
170
     0
171
     0
290
     0
174
     0
 93
        1
 44
0.0
173
     0
291
     1
 45
0.0
1001
ACAD
1000
AcDbSavedByObjectVersion
1070
     0
  0
VISUALSTYLE
  5
8169
102
{ACAD_XDICTIONARY
360
833E
102
}
102
{ACAD_REACTORS
330
8168
102
}
330
8168
100
AcDbVisualStyle
  2
Flat
 70
     0
 71
     2
 72
     1
 73
     1
 90
        2
 40
-0.6
 41
30.0
 62
     5
 63
     7
 74
     0
 91
        0
 64
     7
 65
   257
 75
     1
175
     1
 42
1.0
 92
        8
 66
     7
 43
1.0
 76
     1
 77
     6
 78
     2
 67
     7
 79
     5
170
     0
171
     0
290
     0
174
     0
 93
       13
 44
0.0
173
     0
291
     1
 45
0.0
1001
ACAD
1000
AcDbSavedByObjectVersion
1070
     0
  0
VISUALSTYLE
  5
816A
102
{ACAD_XDICTIONARY
360
8340
102
}
102
{ACAD_REACTORS
330
8168
102
}
330
8168
100
AcDbVisualStyle
  2
FlatWithEdges
 70
     1
 71
     2
 72
     1
 73
     1
 90
        2
 40
-0.6
 41
30.0
 62
     5
 63
     7
 74
     1
 91
        0
 64
     7
 65
   257
 75
     1
175
     1
 42
1.0
 92
        0
 66
   257
 43
1.0
 76
     1
 77
     6
 78
     2
 67
     7
 79
     5
170
     0
171
     0
290
     0
174
     0
 93
       13
 44
0.0
173
     0
291
     1
 45
0.0
1001
ACAD
1000
AcDbSavedByObjectVersion
1070
     0
  0
VISUALSTYLE
  5
816B
102
{ACAD_XDICTIONARY
360
8342
102
}
102
{ACAD_REACTORS
330
8168
102
}
330
8168
100
AcDbVisualStyle
  2
Gouraud
 70
     2
 71
     2
 72
     2
 73
     1
 90
        2
 40
-0.6
 41
30.0
 62
     5
 63
     7
 74
     0
 91
        0
 64
     7
 65
   257
 75
     1
175
     1
 42
1.0
 92
        0
 66
     7
 43
1.0
 76
     1
 77
     6
 78
     2
 67
     7
 79
     5
170
     0
171
     0
290
     0
174
     0
 93
       13
 44
0.0
173
     0
291
     1
 45
0.0
1001
ACAD
1000
AcDbSavedByObjectVersion
1070
     0
  0
VISUALSTYLE
  5
816C
102
{ACAD_XDICTIONARY
360
8344
102
}
102
{ACAD_REACTORS
330
8168
102
}
330
8168
100
AcDbVisualStyle
  2
GouraudWithEdges
 70
     3
 71
     2
 72
     2
 73
     1
 90
        2
 40
-0.6
 41
30.0
 62
     5
 63
     7
 74
     1
 91
        0
 64
     7
 65
   257
 75
     1
175
     1
 42
1.0
 92
        0
 66
   257
 43
1.0
 76
     1
 77
     6
 78
     2
 67
     7
 79
     5
170
     0
171
     0
290
     0
174
     0
 93
       13
 44
0.0
173
     0
291
     1
 45
0.0
1001
ACAD
1000
AcDbSavedByObjectVersion
1070
     0
  0
VISUALSTYLE
  5
8170
102
{ACAD_XDICTIONARY
360
834C
102
}
102
{ACAD_REACTORS
330
8168
102
}
330
8168
100
AcDbVisualStyle
  2
Hidden
 70
     6
 71
     1
 72
     2
 73
     2
 90
        0
 40
-0.6
 41
-30.0
 62
     5
 63
     7
 74
     2
 91
        2
 64
     7
 65
   257
 75
     2
175
     1
 42
40.0
 92
        0
 66
   257
 43
1.0
 76
     1
 77
     6
 78
     2
 67
     7
 79
     3
170
     0
171
     0
290
     0
174
     0
 93
        1
 44
0.0
173
     0
291
     0
 45
0.0
1001
ACAD
1000
AcDbSavedByObjectVersion
1070
     0
  0
VISUALSTYLE
  5
817E
102
{ACAD_XDICTIONARY
360
8368
102
}
102
{ACAD_REACTORS
330
8168
102
}
330
8168
100
AcDbVisualStyle
  2
JitterOff
 70
    20
 71
     2
 72
     2
 73
     0
 90
        0
 40
-0.6
 41
-30.0
 62
     5
 63
     7
 74
     1
 91
        4
 64
     7
 65
   257
 75
     1
175
     1
 42
1.0
 92
       10
 66
     7
 43
1.0
 76
     1
 77
     6
 78
     2
 67
     7
 79
     5
170
     0
171
     0
290
     0
174
     0
 93
        1
 44
0.0
173
     0
291
     1
 45
0.0
1001
ACAD
1000
AcDbSavedByObjectVersion
1070
     0
  0
VISUALSTYLE
  5
8176
102
{ACAD_XDICTIONARY
360
8358
102
}
102
{ACAD_REACTORS
330
8168
102
}
330
8168
100
AcDbVisualStyle
  2
Linepattern
 70
    14
 71
     2
 72
     2
 73
     0
 90
        0
 40
-0.6
 41
-30.0
 62
     5
 63
     7
 74
     1
 91
        4
 64
     7
 65
   257
 75
     7
175
     7
 42
1.0
 92
        8
 66
     7
 43
1.0
 76
     1
 77
     6
 78
     2
 67
     7
 79
     5
170
     0
171
     0
290
     0
174
     0
 93
        1
 44
0.0
173
     0
291
     1
 45
0.0
1001
ACAD
1000
AcDbSavedByObjectVersion
1070
     0
  0
VISUALSTYLE
  5
817F
102
{ACAD_XDICTIONARY
360
836A
102
}
102
{ACAD_REACTORS
330
8168
102
}
330
8168
100
AcDbVisualStyle
  2
OverhangOff
 70
    21
 71
     2
 72
     2
 73
     0
 90
        0
 40
-0.6
 41
-30.0
 62
     5
 63
     7
 74
     1
 91
        4
 64
     7
 65
   257
 75
     1
175
     1
 42
1.0
 92
        9
 66
     7
 43
1.0
 76
     1
 77
     6
 78
     2
 67
     7
 79
     5
170
     0
171
     0
290
     0
174
     0
 93
        1
 44
0.0
173
     0
291
     1
 45
0.0
1001
ACAD
1000
AcDbSavedByObjectVersion
1070
     0
  0
VISUALSTYLE
  5
8172
102
{ACAD_XDICTIONARY
360
8350
102
}
102
{ACAD_REACTORS
330
8168
102
}
330
8168
100
AcDbVisualStyle
  2
Realistic
 70
     8
 71
     2
 72
     3
 73
     0
 90
        2
 40
-0.6
 41
30.0
 62
     5
 63
     7
 74
     0
 91
        0
 64
     7
 65
   257
 75
     1
175
     1
 42
1.0
 92
        8
 66
   257
 43
1.0
 76
     1
 77
     6
 78
     2
 67
     7
 79
     3
170
     0
171
     0
290
     0
174
     0
 93
       13
 44
0.0
173
     0
291
     0
 45
0.0
1001
ACAD
1000
AcDbSavedByObjectVersion
1070
     0
  0
VISUALSTYLE
  5
817D
102
{ACAD_XDICTIONARY
360
8366
102
}
102
{ACAD_REACTORS
330
8168
102
}
330
8168
100
AcDbVisualStyle
  2
Shaded
 70
    27
 71
     2
 72
     2
 73
     1
 90
        2
 40
-0.6
 41
30.0
 62
     5
 63
     7
 74
     0
 91
        4
 64
     7
 65
   257
 75
     1
175
     1
 42
1.0
 92
        8
 66
   257
 43
1.0
 76
     1
 77
     6
 78
     2
 67
     8
 79
     3
170
     0
171
     0
290
     0
174
     0
 93
        5
 44
0.0
173
     0
291
     0
 45
0.0
1001
ACAD
1000
AcDbSavedByObjectVersion
1070
     0
  0
VISUALSTYLE
  5
817C
102
{ACAD_XDICTIONARY
360
8364
102
}
102
{ACAD_REACTORS
330
8168
102
}
330
8168
100
AcDbVisualStyle
  2
Shaded with edges
 70
    26
 71
     2
 72
     2
 73
     1
 90
        2
 40
-0.6
 41
30.0
 62
     5
 63
     7
 74
     1
 91
       10
 64
     7
 65
   257
 75
     2
175
     1
 42
1.0
 92
        8
 66
   257
 43
1.0
 76
     1
 77
     6
 78
     2
 67
     7
 79
     3
170
     0
171
     0
290
     0
174
     0
 93
        5
 44
0.0
173
     0
291
     0
 45
0.0
1001
ACAD
1000
AcDbSavedByObjectVersion
1070
     0
  0
VISUALSTYLE
  5
8179
102
{ACAD_XDICTIONARY
360
835E
102
}
102
{ACAD_REACTORS
330
8168
102
}
330
8168
100
AcDbVisualStyle
  2
Shades of Gray
 70
    23
 71
     2
 72
     2
 73
     3
 90
        0
 40
-0.6
 41
-30.0
 62
     5
 63
     7
 74
     2
 91
        2
 64
     7
 65
     7
 75
     1
175
     1
 42
40.0
 92
        8
 66
     7
 43
1.0
 76
     1
 77
     6
 78
     2
 67
     7
 79
     3
170
     0
171
     0
290
     0
174
     0
 93
        1
 44
0.0
173
     0
291
     0
 45
0.0
1001
ACAD
1000
AcDbSavedByObjectVersion
1070
     0
  0
VISUALSTYLE
  5
817A
102
{ACAD_XDICTIONARY
360
8360
102
}
102
{ACAD_REACTORS
330
8168
102
}
330
8168
100
AcDbVisualStyle
  2
Sketchy
 70
    24
 71
     1
 72
     2
 73
     2
 90
        0
 40
-0.6
 41
-30.0
 62
     5
 63
     7
 74
     2
 91
        2
 64
     7
 65
     7
 75
     1
175
     1
 42
40.0
 92
       11
 66
     7
 43
1.0
 76
     1
 77
     6
 78
     2
 67
     7
 79
     6
170
     0
171
     0
290
     0
174
     0
 93
        1
 44
0.0
173
     0
291
     0
 45
0.0
1001
ACAD
1000
AcDbSavedByObjectVersion
1070
     0
  0
VISUALSTYLE
  5
8175
102
{ACAD_XDICTIONARY
360
8356
102
}
102
{ACAD_REACTORS
330
8168
102
}
330
8168
100
AcDbVisualStyle
  2
Thicken
 70
    13
 71
     2
 72
     2
 73
     0
 90
        0
 40
-0.6
 41
-30.0
 62
     5
 63
     7
 74
     1
 91
        4
 64
     7
 65
   257
 75
     1
175
     1
 42
1.0
 92
       12
 66
     7
 43
1.0
 76
     1
 77
     6
 78
     2
 67
     7
 79
     5
170
     0
171
     0
290
     0
174
     0
 93
        1
 44
0.0
173
     0
291
     1
 45
0.0
1001
ACAD
1000
AcDbSavedByObjectVersion
1070
     0
  0
VISUALSTYLE
  5
816F
102
{ACAD_XDICTIONARY
360
834A
102
}
102
{ACAD_REACTORS
330
8168
102
}
330
8168
100
AcDbVisualStyle
  2
Wireframe
 70
     5
 71
     0
 72
     2
 73
     0
 90
        0
 40
-0.6
 41
-30.0
 62
     5
 63
     7
 74
     1
 91
        4
 64
     7
 65
   257
 75
     1
175
     1
 42
1.0
 92
        0
 66
   257
 43
1.0
 76
     1
 77
     6
 78
     2
 67
     7
 79
     3
170
     0
171
     0
290
     0
174
     0
 93
        1
 44
0.0
173
     0
291
     0
 45
0.0
1001
ACAD
1000
AcDbSavedByObjectVersion
1070
     0
  0
VISUALSTYLE
  5
817B
102
{ACAD_XDICTIONARY
360
8362
102
}
102
{ACAD_REACTORS
330
8168
102
}
330
8168
100
AcDbVisualStyle
  2
X-Ray
 70
    25
 71
     2
 72
     2
 73
     1
 90
        1
 40
0.5
 41
-30.0
 62
     5
 63
     7
 74
     1
 91
        0
 64
     7
 65
   257
 75
     1
175
     1
 42
1.0
 92
        8
 66
     7
 43
1.0
 76
     1
 77
     6
 78
     2
 67
     7
 79
     3
170
     0
171
     0
290
     0
174
     0
 93
       13
 44
0.0
173
     0
291
     0
 45
0.0
1001
ACAD
1000
AcDbSavedByObjectVersion
1070
     0
  0
DICTIONARYVAR
  5
8204
102
{ACAD_REACTORS
330
81FF
102
}
330
81FF
100
DictionaryVariables
280
     0
  1
1:1
  0
DICTIONARYVAR
  5
8201
102
{ACAD_REACTORS
330
81FF
102
}
330
81FF
100
DictionaryVariables
280
     0
  1
STANDARD
  0
DICTIONARYVAR
  5
8200
102
{ACAD_REACTORS
330
81FF
102
}
330
81FF
100
DictionaryVariables
280
     0
  1
STANDARD
  0
DICTIONARYVAR
  5
8202
102
{ACAD_REACTORS
330
81FF
102
}
330
81FF
100
DictionaryVariables
280
     0
  1
Imperial24
  0
DICTIONARYVAR
  5
8203
102
{ACAD_REACTORS
330
81FF
102
}
330
81FF
100
DictionaryVariables
280
     0
  1
Imperial24
  0
DICTIONARYVAR
  5
8207
102
{ACAD_REACTORS
330
81FF
102
}
330
81FF
100
DictionaryVariables
280
     0
  1
1
  0
DICTIONARYVAR
  5
8206
102
{ACAD_REACTORS
330
81FF
102
}
330
81FF
100
DictionaryVariables
280
     0
  1
0
  0
DICTIONARYVAR
  5
8205
102
{ACAD_REACTORS
330
81FF
102
}
330
81FF
100
DictionaryVariables
280
     0
  1
127
  0
DICTIONARYVAR
  5
8208
102
{ACAD_REACTORS
330
81FF
102
}
330
81FF
100
DictionaryVariables
280
     0
  1
2
  0
DICTIONARY
  5
8372
330
81A9
100
AcDbDictionary
280
     1
281
     1
  3
ACAD_XREC_ROUNDTRIP
360
8373
  0
DICTIONARY
  5
8376
330
81B1
100
AcDbDictionary
280
     1
281
     1
  3
ACAD_XREC_ROUNDTRIP
360
8377
  0
DICTIONARY
  5
8374
330
81AD
100
AcDbDictionary
280
     1
281
     1
  3
ACAD_XREC_ROUNDTRIP
360
8375
  0
DICTIONARY
  5
8159
330
8158
100
AcDbDictionary
280
     1
281
     1
  3
ACAD_XREC_ROUNDTRIP
360
833C
  3
BUMPTILE
360
815B
  3
DIFFUSETILE
360
815A
  3
OPACITYTILE
360
815E
  3
REFLECTIONTILE
360
815D
  3
REFRACTIONTILE
360
815F
  3
SPECULARTILE
360
815C
  0
DICTIONARY
  5
8151
330
8150
100
AcDbDictionary
280
     1
281
     1
  3
ACAD_XREC_ROUNDTRIP
360
833B
  3
BUMPTILE
360
8153
  3
DIFFUSETILE
360
8152
  3
OPACITYTILE
360
8156
  3
REFLECTIONTILE
360
8155
  3
REFRACTIONTILE
360
8157
  3
SPECULARTILE
360
8154
  0
DICTIONARY
  5
8161
330
8160
100
AcDbDictionary
280
     1
281
     1
  3
ACAD_XREC_ROUNDTRIP
360
833D
  3
BUMPTILE
360
8163
  3
DIFFUSETILE
360
8162
  3
FBXASSET
360
8273
  3
OPACITYTILE
360
8166
  3
REFLECTIONTILE
360
8165
  3
REFRACTIONTILE
360
8167
  3
SPECULARTILE
360
8164
  0
DICTIONARY
  5
8370
330
81A7
100
AcDbDictionary
280
     1
281
     1
  3
ACAD_XREC_ROUNDTRIP
360
8371
  0
DICTIONARY
  5
8337
330
81A3
100
AcDbDictionary
280
     1
281
     1
  3
ACAD_ROUNDTRIP_2008_TABLESTYLE_CELLSTYLEMAP
360
8338
  3
ACAD_XREC_ROUNDTRIP
360
836E
  0
DICTIONARY
  5
8348
330
816E
100
AcDbDictionary
280
     1
281
     1
  3
ACAD_XREC_ROUNDTRIP
360
8349
  0
DICTIONARY
  5
8346
330
816D
100
AcDbDictionary
280
     1
281
     1
  3
ACAD_XREC_ROUNDTRIP
360
8347
  0
DICTIONARY
  5
8354
330
8174
100
AcDbDictionary
280
     1
281
     1
  3
ACAD_XREC_ROUNDTRIP
360
8355
  0
DICTIONARY
  5
835C
330
8178
100
AcDbDictionary
280
     1
281
     1
  3
ACAD_XREC_ROUNDTRIP
360
835D
  0
DICTIONARY
  5
834E
330
8171
100
AcDbDictionary
280
     1
281
     1
  3
ACAD_XREC_ROUNDTRIP
360
834F
  0
DICTIONARY
  5
8352
330
8173
100
AcDbDictionary
280
     1
281
     1
  3
ACAD_XREC_ROUNDTRIP
360
8353
  0
DICTIONARY
  5
836C
330
8180
100
AcDbDictionary
280
     1
281
     1
  3
ACAD_XREC_ROUNDTRIP
360
836D
  0
DICTIONARY
  5
835A
330
8177
100
AcDbDictionary
280
     1
281
     1
  3
ACAD_XREC_ROUNDTRIP
360
835B
  0
DICTIONARY
  5
833E
330
8169
100
AcDbDictionary
280
     1
281
     1
  3
ACAD_XREC_ROUNDTRIP
360
833F
  0
DICTIONARY
  5
8340
330
816A
100
AcDbDictionary
280
     1
281
     1
  3
ACAD_XREC_ROUNDTRIP
360
8341
  0
DICTIONARY
  5
8342
330
816B
100
AcDbDictionary
280
     1
281
     1
  3
ACAD_XREC_ROUNDTRIP
360
8343
  0
DICTIONARY
  5
8344
330
816C
100
AcDbDictionary
280
     1
281
     1
  3
ACAD_XREC_ROUNDTRIP
360
8345
  0
DICTIONARY
  5
834C
330
8170
100
AcDbDictionary
280
     1
281
     1
  3
ACAD_XREC_ROUNDTRIP
360
834D
  0
DICTIONARY
  5
8368
330
817E
100
AcDbDictionary
280
     1
281
     1
  3
ACAD_XREC_ROUNDTRIP
360
8369
  0
DICTIONARY
  5
8358
330
8176
100
AcDbDictionary
280
     1
281
     1
  3
ACAD_XREC_ROUNDTRIP
360
8359
  0
DICTIONARY
  5
836A
330
817F
100
AcDbDictionary
280
     1
281
     1
  3
ACAD_XREC_ROUNDTRIP
360
836B
  0
DICTIONARY
  5
8350
330
8172
100
AcDbDictionary
280
     1
281
     1
  3
ACAD_XREC_ROUNDTRIP
360
8351
  0
DICTIONARY
  5
8366
330
817D
100
AcDbDictionary
280
     1
281
     1
  3
ACAD_XREC_ROUNDTRIP
360
8367
  0
DICTIONARY
  5
8364
330
817C
100
AcDbDictionary
280
     1
281
     1
  3
ACAD_XREC_ROUNDTRIP
360
8365
  0
DICTIONARY
  5
835E
330
8179
100
AcDbDictionary
280
     1
281
     1
  3
ACAD_XREC_ROUNDTRIP
360
835F
  0
DICTIONARY
  5
8360
330
817A
100
AcDbDictionary
280
     1
281
     1
  3
ACAD_XREC_ROUNDTRIP
360
8361
  0
DICTIONARY
  5
8356
330
8175
100
AcDbDictionary
280
     1
281
     1
  3
ACAD_XREC_ROUNDTRIP
360
8357
  0
DICTIONARY
  5
834A
330
816F
100
AcDbDictionary
280
     1
281
     1
  3
ACAD_XREC_ROUNDTRIP
360
834B
  0
DICTIONARY
  5
8362
330
817B
100
AcDbDictionary
280
     1
281
     1
  3
ACAD_XREC_ROUNDTRIP
360
8363
  0
XRECORD
  5
8373
102
{ACAD_REACTORS
330
8372
102
}
330
8372
100
AcDbXrecord
280
     1
102
DISPLAYNAME
  1
Imperial24
102
FLAGS
 90
        0
  0
XRECORD
  5
8377
102
{ACAD_REACTORS
330
8376
102
}
330
8376
100
AcDbXrecord
280
     1
102
SHADEPLOT
 70
     0
102
SHADEPLOTRESLEVEL
 70
     2
102
SHADEPLOTCUSTOMDPI
 70
   300
  0
XRECORD
  5
8375
102
{ACAD_REACTORS
330
8374
102
}
330
8374
100
AcDbXrecord
280
     1
102
SHADEPLOT
 70
     0
102
SHADEPLOTRESLEVEL
 70
     2
102
SHADEPLOTCUSTOMDPI
 70
   300
  0
XRECORD
  5
833C
102
{ACAD_REACTORS
330
8159
102
}
330
8159
100
AcDbXrecord
280
     1
102
MATERIAL
148
0.0
149
0.0
149
0.0
 93
        0
 94
      127
282
     0
 72
     0
 77
     0
171
     0
175
     0
179
     0
273
     0
  0
XRECORD
  5
815B
102
{ACAD_REACTORS
330
8159
102
}
330
8159
100
AcDbXrecord
280
     1
270
     1
271
     1
  0
XRECORD
  5
815A
102
{ACAD_REACTORS
330
8159
102
}
330
8159
100
AcDbXrecord
280
     1
270
     1
271
     1
  0
XRECORD
  5
815E
102
{ACAD_REACTORS
330
8159
102
}
330
8159
100
AcDbXrecord
280
     1
270
     1
271
     1
  0
XRECORD
  5
815D
102
{ACAD_REACTORS
330
8159
102
}
330
8159
100
AcDbXrecord
280
     1
270
     1
271
     1
  0
XRECORD
  5
815F
102
{ACAD_REACTORS
330
8159
102
}
330
8159
100
AcDbXrecord
280
     1
270
     1
271
     1
  0
XRECORD
  5
815C
102
{ACAD_REACTORS
330
8159
102
}
330
8159
100
AcDbXrecord
280
     1
270
     1
271
     1
  0
XRECORD
  5
833B
102
{ACAD_REACTORS
330
8151
102
}
330
8151
100
AcDbXrecord
280
     1
102
MATERIAL
148
0.0
149
0.0
149
0.0
 93
        0
 94
      127
282
     0
 72
     0
 77
     0
171
     0
175
     0
179
     0
273
     0
  0
XRECORD
  5
8153
102
{ACAD_REACTORS
330
8151
102
}
330
8151
100
AcDbXrecord
280
     1
270
     1
271
     1
  0
XRECORD
  5
8152
102
{ACAD_REACTORS
330
8151
102
}
330
8151
100
AcDbXrecord
280
     1
270
     1
271
     1
  0
XRECORD
  5
8156
102
{ACAD_REACTORS
330
8151
102
}
330
8151
100
AcDbXrecord
280
     1
270
     1
271
     1
  0
XRECORD
  5
8155
102
{ACAD_REACTORS
330
8151
102
}
330
8151
100
AcDbXrecord
280
     1
270
     1
271
     1
  0
XRECORD
  5
8157
102
{ACAD_REACTORS
330
8151
102
}
330
8151
100
AcDbXrecord
280
     1
270
     1
271
     1
  0
XRECORD
  5
8154
102
{ACAD_REACTORS
330
8151
102
}
330
8151
100
AcDbXrecord
280
     1
270
     1
271
     1
  0
XRECORD
  5
833D
102
{ACAD_REACTORS
330
8161
102
}
330
8161
100
AcDbXrecord
280
     1
102
MATERIAL
148
0.0
149
0.0
149
0.0
 93
        0
 94
      127
282
     0
 72
     0
 77
     0
171
     0
175
     0
179
     0
273
     0
  0
XRECORD
  5
8163
102
{ACAD_REACTORS
330
8161
102
}
330
8161
100
AcDbXrecord
280
     1
270
     1
271
     1
  0
XRECORD
  5
8162
102
{ACAD_REACTORS
330
8161
102
}
330
8161
100
AcDbXrecord
280
     1
270
     1
271
     1
  0
XRECORD
  5
8273
102
{ACAD_REACTORS
330
8161
102
}
330
8161
100
AcDbXrecord
280
     1
 70
     1
 90
1959938040
 71
     1
  1
190A3E6B-6B98-42F8-9FF0-2FA5A6C6E374
311
504B03041400060808005274705749C9DDBABF000000200100004F00000038463635344636362D373333442D343833422D413533392D3346303846313031313343382F4173736574446174612F446566696E6974696F6E4974657261746F7250726F706572746965732E62696EEB606060F80F0540260323103700495E20ED
311
9E9A975A94991C9C9C919A9BC8C00612C9C94F4ACC6147C831019920AE4B6A5A62694E0948976F6671726A4E4E625E6A7E69B12042A9426E6209D0B8C41C3D90264E20860914834C48875806B2DF0F88414E02D189290556F689C5C5A925B6FA694915FAC68E266E4E4646E6BA6606E696BA2686AE2EBA160666E6BA26966E
311
E606C6CE2EA626C6C6FA45A9C5F9A545C9A9C5FA46FA06F15093E30BF2D219182A3CD674BD065A02720308130200504B030414000608080052747057C28E46BC0D010000300200004500000038463635344636362D373333442D343833422D413533392D3346303846313031313343382F4173736574446174612F496E7374
311
616E636550726F706572746965732E62696EEB606060F80F0540260323103700495E20ED9E9A975A94991C9C9C919A9BA8021430B4347034763573D23573B2B4D0353172B3D0B5747333D0357273347534733673353637614768046931363471713532B5D435353131D635313332D475727372D13534373670367376B67474
311
B5042A03DBCBA019D37FE8ABC6157B20CD04146B0062181F4C03F940F0C11EA29A8141C08141002C0426541C106CAC2CA046088033B02A030AC2157C6006F21A8018AAF50194E6010A610250382264E08660284CD9E98021862280A91564B406929A0FF62C401E28B6F88038B83CB1243943D7A928312F25350524C3C0A0DD
311
70F5FFFF55A160369C0F32E6FFD5066D983C84095703D1842608372874D5FFFF00504B03041400060808005274705728BB58AF800100009E0500003D00000038463635344636362D373333442D343833422D413533392D3346303846313031313343382F536368656D61732F436F6D6D6F6E536368656D612E786D6CBD544D
311
4FC23018BEFB2B96DE15493C78601010A34B880709DEDFB52FD0D8B54BD70DF6EFED3AC0B12E6442E2716BFB3CEFF3D18E26FB440405EA8C2B1992E1C323095052C5B8DC842437EBFB673219DF8DA659866649B798C078B48AE6410122242F2A4994AC7F93815DF85C049C8564CA0A901499DD886B2EB9B1E02448F358701A
311
9235880C49A0119892A20C89D1B9FD768815CAD268CB5E0355B40B1E47F3E37A2020464BED06AA57CE8FCC20C3C3446D46761A2632A8C1283D07031EFF2AE7CCB1BFEEE916E406DFAC8E36FFD99A9D60A6944090EEDC3B670C7DC13DE86B6B2C5C240D6E503BB85ACD579D513F1B9F9A69DC9CC22AFA80C426D40AF0B21EA1
311
68559156B6276F0F726A6BFF04DCD513A87A62CAD41FB24FCB2858B3952E3D852084DA25B9303C15687973CC8E8AAE11DF2836C38C6A9E765E8C1BA1BFB1DC29CDFE518C8B5A7655A4ED7E77291ABEB80DBD82EC866ADE1B8D05AF9E35CF09D7A061F38A986D9EC412B8F0F65E5D81534D9B231D1E5A8FE577A241F3A5FD01
311
504B0304140006080800527470572CCEBD668A040000E01200003E00000038463635344636362D373333442D343833422D413533392D3346303846313031313343382F536368656D61732F47656E65726963536368656D612E786D6CD5586D6FDB380CFE7EBF42F0F7A649B70E1B90744856B4970F450FCD7A5F05459613ED
311
E4174872DADCAF3F522F8ED3B88D2F1D06AC4050DBA2493EE4438AF2F8EB73AEC8466823CB62928C06C384888297A92C5693A4B6D9D9E7E4EBD51FE3A931C22EF85AE4EC6AFC38BF261BA626C9AD288496DC3F4FCEAFC63366845F7A10452AF41DB320C0D44EC26EAB20918735565582695670811A6A49643A49A6E9069FA4
311
604A64B29016DC4B48552F95E4932463CA888468C1D2B250DB4962750DF7CE273069CE8363F1FF4EDB00E0A21999574AE4A2B00C353B93F3BD4777B8A61ED8F604ABFEDD79CE56A2B7BDFBDBC50996E0ADDE16FED26223C5D30956C29BDF4A55EA686E5E58B112DA45CE67F76F4FA27EFA3FB672FD7372FC388FAECDCA5209
311
E693CAD167BADCD272F943701B3812F8A3D852008B1D2E32DB927B2F833C6EA95879925356D254582695095A3CE982924720BE5774A3CB9CDCDB350427D2DF20DA1B5532EBE2D5D6288D75D4F7E4FD9890A0EF8E3D93EBB8F8BA4758158EF6FB90A6F9520281C93DE7AAC6D24607DA296BB96018123F821A7D6A5C5884050C
311
475DA4865442732C8B95684A50165CBB3A32F25F783A4A480ED59AD7F924B968AEA50131F46303223E6A397B0E52976030DC1DCA81D7E7C1EDEEA42C19FF27635C505E2BD5198A599020DF50A2330FCB3AAF28CB0124108429553EF1B228802E2265D8F7CC2401042B155BCC7070F1E5C55F13B4A9577362CCCE46C32174E0
311
10C3C378C44841A4BDA00FE3A12006CE11EE6AEC59894D3526DDE1CD59D503ECC324017F8061B7F162162FA62EDD81AE3308617770796DCBDAD2B2625C5AE8A63DE20B2C8AA5E95E76E5730823955956E33E705425A2187C185D36489A1B44D3DCEC2172F6BA2105C3546287A7194B2331768EBBE64F6E70A9930ABE0ADEA8
311
9E9E2C38523B810287AD67A54A039C1606EAFE68F8304610BB9093DBDDABC0B2AE4E290DCDA15376D7E39F72B556F0B32EAB5D3D498B4C41ABADEC3A1434C422D87E8025A84BDCB2B1417ED750FAE4DA8976863974C577C7F902D3F156AD354DEA3540DE6BEAE2BEA52F7A2EB4CA43802ECE5BF2CE2EDC9347179FFB023CE4
311
12E60BE16DA0BE29B374988A553F561DC04615DD35F7D2C8979F60E5955CE93DF29DED8AFA1EE6642D53418086C03C47C377910F75F7E8F5EF665F70B60FFB22AEDF897D119E8423C773E819A3C1E55E550599EE6EDCA34D0C86FD72057DF2CD46F16A470682471C164E4346D5306BF12D7D12D82CFF673D41636C347443FE
311
B51B50D72EA171A8E4A58623A4A16E0FA2B8B10A0D23268D87C33896EE8FB73305A74BF224EDBADFA0BD674AB354D63DB7BD5D83426761C077DE767728235446A552754EB93B755891C3C4CC6CADE37CF0E912A7BB38DBA010F9DE1282EDF470CA69A9CDA482E334C4A6EA4107987980B17E72F31730EBF88BBD39E7C629F5
311
6797A3C0009C2C5AE7951D9A05A02773440F02EEB4DE396A3B6A570C72CCFBCD823B0B8ED3F1D5CEDDFED772FA70236C83FB7D86C385D570B87107535572A60A96035F8F7C6A7192F13007246BBE0521855E6AC46F3E27689CEE7D186A6FD679D98CDCAD13333E04EBE7ED6F55FF01504B0304140006080800527470576180
311
134D5F0100006B0300004500000038463635344636362D373333442D343833422D413533392D3346303846313031313343382F536368656D61732F52656E6465724D6174657269616C536368656D612E786D6CA5934D6FC2300C86EFFB1551EEE343DBA41D1A103009551ADAD40EAE28A4A68D9426284961FCFBE5A340113B
311
2071746D3F765EBF4DC6BFB5407BD0862B49F0B037C0082453059725C18DDD3EBFE3F1E829991803366715D474942CD30FB4A782E00C64017A412D684E454CE3FE28995203B162A6EA5AC94B66997D225E109CD63B0135484BAD1B3C07E9080CA35DB3119C11BCA5C200461A68A1A438126C75E3E230D40FF81FB3F03C91D1
311
E3A3A0AF79FE28E25BC39EC3E17E4C2A2D94A0833A51AF55BCCA7D88572FCBAC529C4140B020FC3AAFA886621DCED7EAD7664CC86024E806DC297DA1BB393E4156543457A4537DB8817349A70F8ACBF09B3EEE2CB2F33E91B65D60786E4E3B39B77E3FEEEF5650424525DA657FB8B46BE6BF064646F0A0F7327C0BC1BC1B4C
311
BBC1C419FA3CCB23500007872A2580CAAE5461865565294E4EDB4617B62FF579DF9A5B2F54E834076A597573A020912FED777F9B3F504B0304140006080800527470570C93C1B351000000570000004700000038463635344636362D373333442D343833422D413533392D3346303846313031313343382F41737365744461
311
74612F41737365745461626C654F66436F6E74656E74732E62696E5361606030B4347034763573D23573B2B4D0353172B3D0B5747333D03572733475347336733536371102AACB4D2C492DCA4CCC492C28484D2C4ACC4B4E050A82012F90744FCD03CA26072767A4E6260200504B030414000608080052747057F865834058
311
000000680000004500000038463635344636362D373333442D343833422D413533392D3346303846313031313343382F4173736574446174612F53747265616D56657273696F6E5461626C652E696E66558CBD0A80300C06F73E4B117FB66E451741D041DC5BF98480A492E4FDD18EAEC7DD4555D89EF28DF51A0B1BD8340C
311
4DE7DD848B988C0ACF0649566493F2408C508DDEBB99D5129FF8F1AF8CF5B9503E20FAE5A16B5AF702504B030414000608080052747057317550EF340100009A0400003600000038463635344636362D373333442D343833422D413533392D3346303846313031313343382F4173736574446174612F636E782E786D6CCD54
311
B14EC33010FD95C87BECA4458090E30AC1D209242A06B6AB7329561D3BB22F08FE1E3BC9002A62EA50C9D3F3BBBBE727BF939BCFDE161F18A2F1AE6135AF58814EFBD6B843C346EACA5B566C940CDED30F1A2B1CF4D8B00C33250FC18FC302B5D8C168336A8D3B2EE07D8C483BD85B7CEA1EBC23741459A12DC4D8B0A8DFB1
311
070E23F916E391B740C06B1E30FA31684C9DC8F4B874D20181B0656A55ADD6655D97F5F5AEBEBA5BA773F32645662AB9F7DE2E7C9386053F147A9ECA542545BE56720C66E1E4B730F59746BE374E8AC4543252489E2C15F435A40A18066B3450B24E784D48652221F452CC642545F6E097138FD8196772C9360903F2E139C9
311
C340062FCE91FFB49EDF99AD8B044EE3E5FA71AAF0FC2EBC4C3FE8750EE494984BCBC9A9426E5C77869488698DA4D0E4ADA2BE01504B030414000608080052747057CE130DFF080100004F0300003400000038463635344636362D373333442D343833422D413533392D3346303846313031313343382F536368656D61732F
311
636E782E786D6CCD933F4F042110C5BF0AA15F76B9336A0CCB151656366A65873077920366C31FA3DF5E5829EE123B2D2EA180C72F93798F41EC3EBD231F1093C53053CE264A206834361C665AF27EB8A564274544CC2718254179986993A914878865E99281BD2AAEA9CE866317EFD17B0CCFFA1DBCA2443B95D24CD37A64
311
AA6434908ECCA8AC1867111296A8A156C8D643AFA023A80C86CACDB4D90E9C0FFCFA855FDD6DEBBA79156323A57843749DB72143C48568AC9B50DB99C4D8AEA528D176A679A0F2B43756D3106325A44839D60C3A99BF964AAA657156AB5CA31A57F08791626C56CF0C3F408068F5653A3E6BEEDF2C3F4130101FEB2B45ABDC
311
653AFFADC7BF0530AEB35F47A07D05F90D504B030414000608080052747057410A3D5871000000A40000002C00000038463635344636362D373333442D343833422D413533392D3346303846313031313343382F636E782E786D6C55CC4D0E82301086E1AB34B31774E7A22D31F1069E60020334B633A63FC6E34B0909B07D
311
DE2F9FEE7EC1AB2FC5E4840DDC9A2B28E25E06C7938192C7CB1D54677514C9871928C640062A83D55394F2D968A0118BAFEA1DBF377CA444F98919176EAB9FEAAB9F2960DA5BBB1E2ED3FA6FFF504B0304140006080800527470576FD972B97E000000A300000007000000636E782E786D6C4D8CCB0AC32014057F45EEDE56
311
B989B5100D7DE07F84C604A9D16063E9E7574B165D1D18CE4CD77F164FDE36BD5C0C0AF88101B1E11147176605799BA804D2EB2EC5B8FDDD808461B10A2A06DDCD29E67547A39D86EC2BF52E3C77288D681B23043D21DE6923F14A2F2D9E291A260D679CE34D16E3589532BF5ED99AD75F504B030414000608080052747057
311
16E99B5DA600000035010000130000005B436F6E74656E745F54797065735D2E786D6C9590410E82301045AFD2740F4517C6180A0BF5065E60AC53688469D30E066F6F91AD9AB89CF9FFFD3F99BA9DC7413C3026E749CB4D59498164FCCD51A7E5C4B6D84BD136F5E5193089ECA5A465CF1C0E4A25D3E308A9F401292BD6C7
311
11388FB15301CC1D3A54DBAADA29E38991B8E0254336F5092D4C038BF39CD76B6FC6A538AEBEA54A4B08617006389FA516557DE4AE8E7E70DE30729138228C5F021CD93F02D4FB0DCD0B504B0304140006080800527470573DEE336E64000000790000001B0000006175746F6465736B2D64657369676E2D7061636B616765
311
2E786D6C35CBC10E83200C00D05F21DCA56CA76D41FC96062B120735B69A7DBE268BB7777961F8D5AF396893C2ADB70FE7ADA196782C2DF776D7A97B5933C430F15651E5469C55D70F80A4992A3ADC954792C525AE70A1E4D6AD9816CC044FEFDF01FE3FDE907802504B030414000608080052747057746BD571F800000096
311
0100003700000038463635344636362D373333442D343833422D413533392D3346303846313031313343382F4173736574446174612F636F72652E786D6C8550CB6E833010FC15B4770336A481CA38E2913FE8A937CB38D44AB0911F553FBF76A0527BAA6469ADD999D9DDA197AFF5917D4AEB94D11DE0BC844C6A6166A597
311
0E82BFA106B20BA3D618FF8B0699E6ABEC20C1C0E8624DD80E4818EDA54EA836B33C40EE9CF4908947FC74E0C4875C79CE838F0C77CF372EEE7C9139CE771EA321A8F990AA39BAA99B9216D838F4E43C9518D5ED89A07AB85668184983CA5333F6B86DCB6B3FD1228919F56AFD992EACE45ECEC048492A8431C22F6FB87EAD
311
E23BBFD322311975DEC69B8FA1E93A607DDA7AE29ED362EFFE710DDBFCBF6B50DA57E470DD150E188E4B3E1B8C1629A5589E11C69A1265DF504B03041400060808005274705778B86A7DF7000000940100003500000038463635344636362D373333442D343833422D413533392D3346303846313031313343382F53636865
311
6D61732F636F72652E786D6C8550CB6E833010FC15B4770336A421917104245FD09E7AB38C43AD041BF951F5F36B0395DA53254B6BCDCECCEE0EBD7CCDCFEC535AA78C6E01E72564520B332A3DB510FC1D35905D18B5C6F85F34C8349F650B090646276BC2B243C2682F7542B519E50E72E7A4874C3CE3A705273EE4CC731E
311
7C64B847BE70F1E093CC71BEF1180D418DBB548DD14DDD95B4C086BE23C76B89517D3A1054F7B70AF50369507968860E9F4EE5ADBBD2228919F56AFE992EACE45E8EC048492A8431C22F6FB83E57F11DDF6991988C3A6FE3CDFBD0741DB0D7754F478BADF7C7332CE3FF9E41695F91DD7353386038AEB836182D5246B1AC01
311
C69AF264DF504B030414000608080052747057D045040D00010000D70100002D00000038463635344636362D373333442D343833422D413533392D3346303846313031313343382F636F72652E786D6C9591DD4EC42010855F85CC3D6D29DD6E35948D3FE91378E51DC26C25BB8506A8F1F1A5B646BDD3840472F8CEC09911
311
A7F7E94ADE3044EB5D0FACA880A0D3DE5837F6B0A433ED809CA408DEA71F1810A726EC6195418A31F865DE25ED5D42B7AACE1BDC4515232620FA9A0F3D44FD8A932AD49232112FC5ACF4458D58B062E3A44876FAB2EA802AA101595735A78C51D63EB1E696E7757C16E54A4AB1589778BD3F86D30B1AE2E79423813C8872BB
311
CDD462CDCE5893FF68CF1603C86E680FCDD0B6F4C8F9236D3A7E4FEF0EFC86F2A1EA065631C61FBA5C249BA58829E4CEEC45D61EFCD5BE197F255B66F3CF649B238264DFA1CAB5CD52949F33C8FB3A12F901504B03041400060808005274705784D2482A08010000B201000008000000636F72652E786D6C8D50D16E842010
311
FC15B2EFA8A0D7D30B7251EFFEA04F7DA3C259720A46F0D2FE7DE1B449FBD68464C9CCECCEECB2F3E734A2875A9CB6A60692648094E9ADD466A861F5375C023A73B658EB7FC9001931A91A220C9C0D8B5DE71DEAADF1CA44D458A9765038A73CA07E0C9F1A5CFFA1269188D50785BB27B3E8EF62500949361D675E4F3FADFD
311
A284571238CD688E09C1E4E59514A73CBCE31B4BA392B375D572B7D232B8EB9B560BF0AE6DE8F192115C54078A8BF69AE3B6A325CE0E65D790AACAAECD85A5B19933E797B0F33E24E4F4C88947F465E94671F66EEDB80B422889AC19BF80672C8DC49FD0EB2CFF115A1B9FD37DE0D6E1809310E84904E378C1509EE70D355E
311
9B7F03504B010214001400060808005274705749C9DDBABF000000200100004F000000000000000000000000000000000038463635344636362D373333442D343833422D413533392D3346303846313031313343382F4173736574446174612F446566696E6974696F6E4974657261746F7250726F706572746965732E6269
311
6E504B0102140014000608080052747057C28E46BC0D0100003002000045000000000000000000000000002C01000038463635344636362D373333442D343833422D413533392D3346303846313031313343382F4173736574446174612F496E7374616E636550726F706572746965732E62696E504B010214001400060808
311
005274705728BB58AF800100009E0500003D000000000000000000000000009C02000038463635344636362D373333442D343833422D413533392D3346303846313031313343382F536368656D61732F436F6D6D6F6E536368656D612E786D6C504B01021400140006080800527470572CCEBD668A040000E01200003E0000
311
00000000000000000000007704000038463635344636362D373333442D343833422D413533392D3346303846313031313343382F536368656D61732F47656E65726963536368656D612E786D6C504B01021400140006080800527470576180134D5F0100006B03000045000000000000000000000000005D09000038463635
311
344636362D373333442D343833422D413533392D3346303846313031313343382F536368656D61732F52656E6465724D6174657269616C536368656D612E786D6C504B01021400140006080800527470570C93C1B3510000005700000047000000000000000000000000001F0B000038463635344636362D373333442D3438
311
33422D413533392D3346303846313031313343382F4173736574446174612F41737365745461626C654F66436F6E74656E74732E62696E504B0102140014000608080052747057F865834058000000680000004500000000000000000000000000D50B000038463635344636362D373333442D343833422D413533392D3346
311
303846313031313343382F4173736574446174612F53747265616D56657273696F6E5461626C652E696E66504B0102140014000608080052747057317550EF340100009A0400003600000000000000000000000000900C000038463635344636362D373333442D343833422D413533392D3346303846313031313343382F41
311
73736574446174612F636E782E786D6C504B0102140014000608080052747057CE130DFF080100004F0300003400000000000000000000000000180E000038463635344636362D373333442D343833422D413533392D3346303846313031313343382F536368656D61732F636E782E786D6C504B0102140014000608080052
311
747057410A3D5871000000A40000002C00000000000000000000000000720F000038463635344636362D373333442D343833422D413533392D3346303846313031313343382F636E782E786D6C504B01021400140006080800527470576FD972B97E000000A300000007000000000000000000000000002D100000636E782E
311
786D6C504B010214001400060808005274705716E99B5DA6000000350100001300000000000000000000000000D01000005B436F6E74656E745F54797065735D2E786D6C504B01021400140006080800527470573DEE336E64000000790000001B00000000000000000000000000A71100006175746F6465736B2D64657369
311
676E2D7061636B6167652E786D6C504B0102140014000608080052747057746BD571F80000009601000037000000000000000000000000004412000038463635344636362D373333442D343833422D413533392D3346303846313031313343382F4173736574446174612F636F72652E786D6C504B01021400140006080800
311
5274705778B86A7DF70000009401000035000000000000000000000000009113000038463635344636362D373333442D343833422D413533392D3346303846313031313343382F536368656D61732F636F72652E786D6C504B0102140014000608080052747057D045040D00010000D70100002D0000000000000000000000
311
0000DB14000038463635344636362D373333442D343833422D413533392D3346303846313031313343382F636F72652E786D6C504B010214001400060808005274705784D2482A08010000B2010000080000000000000000000000000026160000636F72652E786D6C504B050600000000110011005A060000541700000000
310
504B030414000608080052747057000000000000000000000000370000006662782F43444536364544382D413930412D344336452D384241332D4342394346424339333733362F617474726962757465732E62696E504B030414000608080052747057000000000000000000000000350000006662782F4344453636454438
310
2D413930412D344336452D384241332D4342394346424339333733362F76657274696365732E62696E504B030414000608080052747057F270F1330600000004000000360000006662782F43444536364544382D413930412D344336452D384241332D4342394346424339333733362F747269616E676C65732E62696E6366
310
60600000504B03041400060808005274705751464CB48900000043010000360000006662782F43444536364544382D413930412D344336452D384241332D4342394346424339333733362F6469726563746F72792E786D6C9D8F310EC2300C45AF127987122606C71DD918B841D4B851A43646695A717C52A85029031293A5
310
A76FBF6FACEF7DA7264E43906840EF0FA03836E242F406C6DCEE4EA06AC22492573150D1F66C60C640E8938CB705396EEDD86DE9B5042FE27813D640EA63BB001C722AF6E55CB61E4863F58284D5D3F53DD715CE1C3985E63FD7F1B7EBDD617E9F1E504B03041400060808005274705792041AC240070000201C0000340000
310
006662782F43444536364544382D413930412D344336452D384241332D4342394346424339333733362F6F626A656374732E786D6CDD595B6FE23814FE2B56F665F721242140614419B5504668D499D1A059ED5B6482A1DE3A1739494BF7D7EFB16387380D90CE455A2D9520759CE373BE733F99BE3F440C3D119ED124BEB6
310
BC9E6B211287C996C6FB6BABC877F6D842EF6768CA9324AFEDB3508C23726D89656B36DDF3A448D5D296EC70C19AABCBDBBF5016929858286438CBAEAD2C7C2011EEE1224FB6247BEC6D718E7BFBDDA1E7F5CA8D26D93DC7E943E3A8147312E7C02AACC7404571E099FF8248CE6CEA880DC636BFDBB6FE996D8E14DC6494C6
310
598EE3F015578DE3FA27B86A1CE77B83C55D7F38B18783816F0F467DCFBE5DDE2E6CEFCA77E7A3F97C727337B1D06CBA491256292025F116B4F862CDBCA923EE54E22B14DAF80E933826A142B36DC39628BA94644D4C0C603D295A4D21A5ACB505BFA3F027B67502C560C9405B0BA77FEBD69B6CFE0610B22E56CA3322AC3C
310
CB39E85A615FFA833B75CA55432F344311CE09A7982146371C7350106C2D15649011DE2248218199D4A2A657E7150CFBB22FB571B92B1813FE6BCDA4A705E08F24CF2467F41FC28FDCD74F039E40DA82C6F958099BBFA440623275E46279CFEFAB9B259068C7F01EAC05C4149BFC7E03AFB98805AB8535FBB8DC1CD6223EB4
310
1F9EF224253C1796279D59F99DD660CDB4C0F83A8052E26AEAEE88CA5780FE13205FF182A6A0394E0F83C340CBCE719CED121E8176908B6C17BE5C242E5F5D4D9DEAE1194246AC3C8529B8ED4FC2D410C338BB06E96CFA04469F705F09B70E31039BBEA7B1F0733014C412588278BFDB1CACD90A82292CC2539881F4F03775
310
C425829F920EC49B8686DAC26F0745698769FAD951571FC066380D2B5519329EC277F853F0BD59AC3FAE0BBEC321B9578EBD203B1AD31C92693B4306E886CB7F5B7D921EF981251BCC8E4F1B9B4238669F88B8D1A296B5520B927A014E441A2E352357EE29783B6338264991A9F5B63815262CE1C1E625285DB8F5AC3FB50D
310
94872903688D6590DC434E5381893553DAAA0261AF26285818E6CA02F7A556834D11A5018E922216A1F6B52936F98038232C11A84A6ADAB0B5D76AB25BBADB151904AF5692730348E5CF9A7069E10388636DFC72B2E31892681207147230384BEB09C6011578E779CE08DB0594B1220A7694411E09229C9EA0DF51827AE67A
310
242FCF09DFB612342D4BFBA4B62101B8025683A4B35519F3954E3979A2A2CC94F94C67036387AA43ADD9E044BA1099A205506D8C65409AB837FEDDE8D61EDD4EC6F6A0BF1CDB93E5D2B5FBCB9BE1CD683EBAF3AF80BCB21289C0315AD5F31DA852943986FFE50F45B4893165704350C0DBF4DD7B993DAF1D088D8E7F3358DE
310
F6FB57F6C8BD9AD803EF6E618FDDD1953D982CAF5C7FBE180E7CDFE1244B0A1E92CCE93B6EA04D328DF7A7B8AA62A9C85A203F7C2B48A1ACB99CECB4BE9AC2FC8F63683327184AFCAF06D12A76B514845D83A878B4194271F82852541042D5D7EA3E8D20DAE4A32DCEBD312EBB3DDF951FCF9BF4DD497F3C1955C67E3650CB
310
737E38CEB5491042DF59E44192E290E6ED09B5814BC738FDA6DCD2F3BD210274AAEFEA90F379461D12D008EF49B0C3A24B68098C972468CD617B9664198D4926BBBC57D55F83A6DB8362CACCB92D4648B3202239FE1EFB936D43C3A62136B300FAD15C4C042E56059541AB0EE41445D1FD42E296F2BF04198E525676BA9730
310
F0FA1A02DDE3B4599C605A1CF104F616E03C70B7440E2E2E51AFD8D7F541ABD69AD427DF4DFE043CBAAEF985F0E823BA974EBDA137119F310495D1D0F3AFB4222E61A58FCA451FC70AE83CC397E099D0FD43A742B39B4E6A255B5954E724823616E705EFE4AFA3A1FBEA2015171A0E513BE98DC5A1ECDF740707E8C906EE54
310
795B3B06EA501AC39CAB9320AFA4683561A90B39D313A3AB37F8F55965D7A9FE70BCFCE51573DDF92228F4BAE05095B32AFA1835756BD56DD443D933CE4308A46BF96BDF82476CC9F6D89819E4DA4A745D9F5EAA9E5722A04630B1C522CEDE8B0BF61583AAA17BCE9C0F65D1E694EB2B91D87A309C3EF261306DD2FAFC61DD
310
A0022B9D9FFE223022CF0D0A6A752EBAE133A4BEAD8E3D7F838292E8DBEACCE3FF898E422BB0D659C034384B1885A13CD9A23D49207BC3D8A143B7C12392C9AC7CEC52F41B810E4F3F9533D51C6F98EE71C2070C8369A67AB12284A12864CC6B4BADA3DF600C2A26917238D57B84364CC5300B159C5E5B60B139856EABB781
310
71961C1E4AEA8D712538368EF722DF974F55FF1F1F7BD57D557BBAE0A224339C090ADB54BE2780AAAFBC319B7EBFE89A1D8473B8DC147925CC71E1288D0241BF10288583A9DFA382F70005C579B9BC9EDC6334A49D26F367EDA0A46AE798EFE578BD6693378B2F8E988CAF3EA394157BA1CE73DDAF41C9165D372BCA29D414
310
0C438999625143CEDF395F7802AF9822B4A46004E8F7C378F487334FA22889CB25E746BDA842EB0778EDB475F4C80FDA78D71B3A720AA0C6FAC10667A487B7D9232C806A3915B3D11262C300AA685A3300AD11A10B78CCD8BF5A20551BD52624F5B02BE091337D048E24DEE508B7A96FA80D20C117802B79F378A117A60E87
310
21F8EC5F504B030414000608080052747057FDB79FD53E01000046050000300000006662782F43444536364544382D413930412D344336452D384241332D4342394346424339333733362F636E782E786D6CCD94C14A033110865F65C97DB3DD5654249B82079FC08378CB66A76B6C36B32413B16F6F5277AB22150F851672
310
08933FF07F333F23D6EF832DDEC00783AE61355FB0029CC6CEB8BE619136E52D2BD6527844FA2663855303342C979914BDC7384EA50E362ADA5CB5C66DA7A222F2A68D048115DAAA101A16F40B0C8AAB48D841D8F24E91E235F710307A0DE93F9901A6FFDA8322E8985C2E96ABB2AECBFAFAB1BEBA5BA573F32CAAAC94A245
310
B493DE38028F63A1315D5C32B310557E96227A33693201935FCE786B9CA8D2BB1421B975FDA4A3DD9875E3688D5694DA54A126A03289400DA2FA144B5165DE1FD40FF74FB383A2331E34A1DF9DA901F5B1061C8CF19484FFF1EF857F6363FB9A70CF35EDA3B093AD93A1CE690D29AEBFE79F52A45C6F2F2FF40763A7CF7C5A
310
2564F4E521CFBE4E445CED575E1A7ADE80F203504B030414000608080052747057D0BF7F9F7E000000A30000000B0000006662782F636E782E786D6C4D8CD10AC22018465F45FE7B6B619883E95067EF319A1B92D361337AFC3476D1D50787EF9CAEFFAC1EBD6D7AB918385C4E0D201B1E717261E190F7193340BDE8528CFB
310
DF0D501857CBA16210DD9262DE0E34D979CCBE52EFC2F3807A30949A8161D936125F3535982949B056ADBE2BDD921BA1C53857A5CCAF57B6E6C517504B030414000608080052747057A6D797065F0000008200000007000000636E782E786D6C4DCB3B0E80201045D1AD90E9FD7516806B51190811670C8A61F982B1B0BAC9
310
C97B72CA7B1037C6D3332918DA1E04D2CAC69353902EDB8C20262D23F3F59B81A079470595414B17391D1F19B4730A5583A7ED43BBE4025D9592775E5ADFFA01504B0304140006080800527470574FEB6A7CA0000000F4000000130000005B436F6E74656E745F54797065735D2E786D6C7D8F4B0EC2300C44AF1279DFA6B0
310
400835ED02B8011730C16D239A8F121795DB93D02D6269CFBC19BBED573B8B17C564BC53B0AB1B10E4B47F18372A5878A88E20FAAEBDBD032591BD2E299898C349CAA427B2986A1FC86565F0D122E7318E32A07EE24872DF3407A9BD63725C71C980AEBDD080CBCCE2BAE6F5D69B7110E7CD57AA146008B3D1C8F92C5954F9
310
93BB1BF787F39A89ABC491D09600F9FDA2FB00504B0304140006080800527470573DEE336E64000000790000001B0000006175746F6465736B2D64657369676E2D7061636B6167652E786D6C35CBC10E83200C00D05F21DCA56CA76D41FC96062B120735B69A7DBE268BB7777961F8D5AF396893C2ADB70FE7ADA196782C2D
310
F776D7A97B5933C430F15651E5469C55D70F80A4992A3ADC954792C525AE70A1E4D6AD9816CC044FEFDF01FE3FDE907802504B030414000608080052747057106B72A8F9000000960100003B0000006662782F43444536364544382D413930412D344336452D384241332D4342394346424339333733362F7265736F757263
310
65732F636F72652E786D6C8550CB6E833010FC15B477033624692BE32884F2053DF566990DB5126CE447D5CFAF9D50A93D55B2B4D6ECECECCEF0E3D7722B3ED1796D4D07B4ACA140A3ECA4CDDC410C17F204C55170676DF84583C2C8053BC830083E3B1BD70D52D60434193576C20D94DE638042DDD2A703AF3E7091A58C21
310
31FCB55CA5BACA194B5A3E7882C7A8A76D544F494D5F343A10F4B46B47761EC8B9A63D694F754F9EDBC38E8C94F574CFC6617C1D789587050F7AF9D9AE1CCA80130856B386504AE8FE8DB62F4D7A87775E65A6E03EB8E4795B9ADD8170E86D740A3DAF1EDD3FAA719DFE578DDA84866DAA8F099F7CA423EF0DC1AB9C522AF7
310
0853CD898A6F504B0304140006080800527470571BE16CE2F3000000B1010000310000006662782F43444536364544382D413930412D344336452D384241332D4342394346424339333733362F636F72652E786D6C8D50DB8E832014FC1573DED1228DD50DD2A875BF609FF68D20B5A4150C97CD7EFE427593DDB72624870C
310
33CC9CA1E7EFE5917D49EB94D12DE0FC0099D4C24C4ACF2D047F4535646746AD31FE0F0D32CD17D9428281D1D99AB0EE9030DA4B9D506D26B983DC39E921138F7869C1899B5C78CE838F0C77CF572EEE7C9639CE371EA35E2DBF526125F77202561E4A823046B8FAC0C73712CFE9931689C968086ADAADD414DDD555490B6C
310
B88C55355E6AD435870E1D876A4475DF1134F4CDF0DE0F0D39918A1649CCA8F336EEBC7F92B67B55BE09FF650EEBF44266A53D2977C34DE180E198E7F9C068910A8CE3D96E9CA96CF603504B03041400060808005274705713D47A5553010000DD0200000C0000006662782F636F72652E786D6C8D52CB6E833010FC15E4BB
310
011392B495719447F9829E7A738C4351C046C646F9FCAE798872685A81B035BB33BB33821E1E4D1DF4D27495561922618C02A9842E2A5566C8D91B7E41C18151A3B5FDD18602C51B99210F23464BA35D3B41422B2B9547952EE404F2AE931605A2864B863AF1251B1E7267A1A3BB872D17775ECA9084631FA3CE55C544AD0A
310
50AB6E95348891E336CD93F3059F6372C2E9313EE1D774BFC539494E6497E497FCFD42234F66D456CD3C5D18C9AD2C104BE2648309C164F741D2B70DBCFB4F1AF94E463B6BC0F334D4BB43EC767DD068C4577AAE2DFED67395B29B64D21B191D3880F58602A391CF078E21BC75863018F2B3FC5ACF16EE00F552586D52A814
310
DA2DA59ED74E82741C0C0F8DC62A280F02BFE9244F749E6B40505C95B01AB770BD3AEBA7AF776AA5C1BD7D044A9B86D7CB72E38ACB7719B4B234D385AEB5F90F7BB63A8719F91F937D03504B0304140006080800527470571C42B9CE08010000B201000008000000636F72652E786D6C8D50CB6EC32010FC15C41DDB602769
310
234C14C7F517F4D41B35C445B1C1E211B57F5F88A9D4DE2A212D9A99DD995D7AFA5C667097D629A35B888B0A02A94723949E5A18FC153D417062D41AE37FC920D07C912D4C306474B226AC191A8DF65227541B2133C89D931E82718E9F16BAF1432EBCE0C14785BB152B1F6F7C92052E361DA35E2D3FADA395DC4B0119A948
310
8D304678FF8A9B631DDFE18D9649C968084A642B25A2BBBA2A6921C3E75D33904B8F2E15EE5073AE3AF4DC1C7668C0A4C37B32F4C34B4FCBD4CCA8F336EE9C87C49C1E387E4FBEB4DC2846DF8D99B3208612C0E8F90BB28A9689F8133AACE21FA195F635C903B70E1733C7400F221AA70BC6F2386FACE9DAEC1B504B010214
310
00140006080800527470570000000000000000000000003700000000000000000000000000000000006662782F43444536364544382D413930412D344336452D384241332D4342394346424339333733362F617474726962757465732E62696E504B0102140014000608080052747057000000000000000000000000350000
310
0000000000000000000000550000006662782F43444536364544382D413930412D344336452D384241332D4342394346424339333733362F76657274696365732E62696E504B0102140014000608080052747057F270F13306000000040000003600000000000000000000000000A80000006662782F43444536364544382D
310
413930412D344336452D384241332D4342394346424339333733362F747269616E676C65732E62696E504B010214001400060808005274705751464CB489000000430100003600000000000000000000000000020100006662782F43444536364544382D413930412D344336452D384241332D434239434642433933373336
310
2F6469726563746F72792E786D6C504B010214001400060808005274705792041AC240070000201C00003400000000000000000000000000DF0100006662782F43444536364544382D413930412D344336452D384241332D4342394346424339333733362F6F626A656374732E786D6C504B01021400140006080800527470
310
57FDB79FD53E010000460500003000000000000000000000000000710900006662782F43444536364544382D413930412D344336452D384241332D4342394346424339333733362F636E782E786D6C504B0102140014000608080052747057D0BF7F9F7E000000A30000000B00000000000000000000000000FD0A00006662
310
782F636E782E786D6C504B0102140014000608080052747057A6D797065F000000820000000700000000000000000000000000A40B0000636E782E786D6C504B01021400140006080800527470574FEB6A7CA0000000F40000001300000000000000000000000000280C00005B436F6E74656E745F54797065735D2E786D6C
310
504B01021400140006080800527470573DEE336E64000000790000001B00000000000000000000000000F90C00006175746F6465736B2D64657369676E2D7061636B6167652E786D6C504B0102140014000608080052747057106B72A8F9000000960100003B00000000000000000000000000960D00006662782F43444536
310
364544382D413930412D344336452D384241332D4342394346424339333733362F7265736F75726365732F636F72652E786D6C504B01021400140006080800527470571BE16CE2F3000000B10100003100000000000000000000000000E80E00006662782F43444536364544382D413930412D344336452D384241332D4342
310
394346424339333733362F636F72652E786D6C504B010214001400060808005274705713D47A5553010000DD0200000C000000000000000000000000002A1000006662782F636F72652E786D6C504B01021400140006080800527470571C42B9CE08010000B20100000800000000000000000000000000A7110000636F7265
310
2E786D6C504B0506000000000E000E0080040000D51200000000
  0
XRECORD
  5
8166
102
{ACAD_REACTORS
330
8161
102
}
330
8161
100
AcDbXrecord
280
     1
270
     1
271
     1
  0
XRECORD
  5
8165
102
{ACAD_REACTORS
330
8161
102
}
330
8161
100
AcDbXrecord
280
     1
270
     1
271
     1
  0
XRECORD
  5
8167
102
{ACAD_REACTORS
330
8161
102
}
330
8161
100
AcDbXrecord
280
     1
270
     1
271
     1
  0
XRECORD
  5
8164
102
{ACAD_REACTORS
330
8161
102
}
330
8161
100
AcDbXrecord
280
     1
270
     1
271
     1
  0
XRECORD
  5
8371
102
{ACAD_REACTORS
330
8370
102
}
330
8370
100
AcDbXrecord
280
     1
102
DISPLAYNAME
  1
Imperial24
102
FLAGS
 90
        0
  0
CELLSTYLEMAP
  5
8338
102
{ACAD_REACTORS
330
8337
102
}
330
8337
100
AcDbCellStyleMap
 90
        3
300
CELLSTYLE
  1
TABLEFORMAT_BEGIN
 90
        5
170
     1
 91
        0
 92
    32768
 62
   257
 93
        1
300
CONTENTFORMAT
  1
CONTENTFORMAT_BEGIN
 90
        0
 91
        0
 92
      512
 93
        0
300

 40
0.0
140
1.0
 94
        5
 62
     0
340
8194
144
0.25
309
CONTENTFORMAT_END
171
     0
 94
        0
309
TABLEFORMAT_END
  1
CELLSTYLE_BEGIN
 90
        1
 91
        1
300
_TITLE
309
CELLSTYLE_END
300
CELLSTYLE
  1
TABLEFORMAT_BEGIN
 90
        5
170
     1
 91
        0
 92
        0
 62
   257
 93
        1
300
CONTENTFORMAT
  1
CONTENTFORMAT_BEGIN
 90
        0
 91
        0
 92
      512
 93
        0
300

 40
0.0
140
1.0
 94
        5
 62
     0
340
8194
144
0.18
309
CONTENTFORMAT_END
171
     0
 94
        0
309
TABLEFORMAT_END
  1
CELLSTYLE_BEGIN
 90
        2
 91
        1
300
_HEADER
309
CELLSTYLE_END
300
CELLSTYLE
  1
TABLEFORMAT_BEGIN
 90
        5
170
     1
 91
        0
 92
        0
 62
   257
 93
        1
300
CONTENTFORMAT
  1
CONTENTFORMAT_BEGIN
 90
        0
 91
        0
 92
      512
 93
        0
300

 40
0.0
140
1.0
 94
        2
 62
     0
340
8194
144
0.18
309
CONTENTFORMAT_END
171
     0
 94
        0
309
TABLEFORMAT_END
  1
CELLSTYLE_BEGIN
 90
        3
 91
        2
300
_DATA
309
CELLSTYLE_END
  0
XRECORD
  5
836E
102
{ACAD_REACTORS
330
8337
102
}
330
8337
100
AcDbXrecord
280
     1
102
ACAD_ROUNDTRIP_PRE2007_TABLESTYLE
 90
      512
 91
        0
  1

 92
      512
 93
        0
  2

 94
      512
 95
        0
  3

  0
XRECORD
  5
8349
102
{ACAD_REACTORS
330
8348
102
}
330
8348
100
AcDbXrecord
280
     1
102
RTVSPost2010Prop28
280
     1
102
RTVSPost2010PropOp28
 70
     1
102
RTVSPost2010Prop29
280
     1
102
RTVSPost2010PropOp29
 70
     1
102
RTVSPost2010Prop30
280
     0
102
RTVSPost2010PropOp30
 70
     1
102
RTVSPost2010Prop31
280
     0
102
RTVSPost2010PropOp31
 70
     1
102
RTVSPost2010Prop32
280
     0
102
RTVSPost2010PropOp32
 70
     1
102
RTVSPost2010Prop33
280
     0
102
RTVSPost2010PropOp33
 70
     1
102
RTVSPost2010Prop34
280
     0
102
RTVSPost2010PropOp34
 70
     1
102
RTVSPost2010Prop35
280
     0
102
RTVSPost2010PropOp35
 70
     1
102
RTVSPost2010Prop36
280
     0
102
RTVSPost2010PropOp36
 70
     1
102
RTVSPost2010Prop37
 90
       50
102
RTVSPost2010PropOp37
 70
     1
102
RTVSPost2010Prop38
140
0.0
102
RTVSPost2010PropOp38
 70
     1
102
RTVSPost2010Prop39
140
1.0
102
RTVSPost2010PropOp39
 70
     1
102
RTVSPost2010Prop40
 90
        0
102
RTVSPost2010PropOp40
 70
     1
102
RTVSPost2010Prop41ColorIndex
 90
       18
102
RTVSPost2010Prop41ColorRGB
 90
        0
102
RTVSPost2010PropOp41
 70
     1
102
RTVSPost2010Prop42
 90
       50
102
RTVSPost2010PropOp42
 70
     1
102
RTVSPost2010Prop43
 90
        3
102
RTVSPost2010PropOp43
 70
     1
102
RTVSPost2010Prop44ColorIndex
 90
        5
102
RTVSPost2010Prop44ColorRGB
 90
      255
102
RTVSPost2010PropOp44
 70
     1
102
RTVSPost2010Prop45
280
     0
102
RTVSPost2010PropOp45
 70
     1
102
RTVSPost2010Prop46
 90
       50
102
RTVSPost2010PropOp46
 70
     1
102
RTVSPost2010Prop47
 90
       50
102
RTVSPost2010PropOp47
 70
     1
102
RTVSPost2010Prop48
 90
       50
102
RTVSPost2010PropOp48
 70
     1
102
RTVSPost2010Prop49
280
     0
102
RTVSPost2010PropOp49
 70
     1
102
RTVSPost2010Prop50
 90
       50
102
RTVSPost2010PropOp50
 70
     1
102
RTVSPost2010Prop51ColorIndex
 90
      256
102
RTVSPost2010Prop51ColorRGB
 90
-16777216
102
RTVSPost2010PropOp51
 70
     0
102
RTVSPost2010Prop52
140
1.0
102
RTVSPost2010PropOp52
 70
     0
102
RTVSPost2010Prop53
 90
        2
102
RTVSPost2010PropOp53
 70
     1
102
RTVSPost2010Prop54
  1
strokes_ogs.tif
102
RTVSPost2010PropOp54
 70
     1
102
RTVSPost2010Prop55
280
     0
102
RTVSPost2010PropOp55
 70
     1
102
RTVSPost2010Prop56
140
1.0
102
RTVSPost2010PropOp56
 70
     1
102
RTVSPost2010Prop57
140
1.0
102
RTVSPost2010PropOp57
 70
     1
102
RTVSPropertyOp0
 70
     1
102
RTVSPropertyOp1
 70
     1
102
RTVSPropertyOp2
 70
     1
102
RTVSPropertyOp3
 70
     1
102
RTVSPropertyOp4
 70
     1
102
RTVSPropertyOp5
 70
     1
102
RTVSPropertyOp6
 70
     1
102
RTVSPropertyOp7
 70
     1
102
RTVSPropertyOp8
 70
     1
102
RTVSPropertyOp9
 70
     1
102
RTVSPropertyOp10
 70
     1
102
RTVSPropertyOp11
 70
     1
102
RTVSPropertyOp12
 70
     1
102
RTVSPropertyOp13
 70
     1
102
RTVSPropertyOp14
 70
     1
102
RTVSPropertyOp15
 70
     1
102
RTVSPropertyOp16
 70
     1
102
RTVSPropertyOp17
 70
     1
102
RTVSPropertyOp18
 70
     1
102
RTVSPropertyOp19
 70
     1
102
RTVSPropertyOp20
 70
     1
102
RTVSPropertyOp21
 70
     1
102
RTVSPropertyOp22
 70
     1
102
RTVSPropertyOp23
 70
     1
102
RTVSPropertyOp24
 70
     1
102
RTVSPropertyOp25
 70
     1
102
RTVSPropertyOp26
 70
     1
102
RTVSPropertyOp27
 70
     1
102
RTVSPropertyOp28
 70
     1
102
RTVSPropertyOp29
 70
     1
102
RTVSPropertyOp30
 70
     1
102
RTVSPropertyOp31
 70
     1
102
RTVSPropertyOp32
 70
     1
102
RTVSPropertyOp33
 70
     1
102
RTVSPropertyOp34
 70
     1
102
RTVSPropertyOp35
 70
     1
102
RTVSPropertyOp36
 70
     1
102
RTVSPropertyOp37
 70
     1
102
RTVSPropertyOp38
 70
     1
102
RTVSPropertyOp39
 70
     1
102
RTVSPropertyOp40
 70
     1
102
RTVSPropertyOp41
 70
     1
102
RTVSPropertyOp42
 70
     1
102
RTVSPropertyOp43
 70
     1
102
RTVSPropertyOp44
 70
     1
102
RTVSPropertyOp45
 70
     1
102
RTVSPropertyOp46
 70
     1
102
RTVSPropertyOp47
 70
     1
102
RTVSPropertyOp48
 70
     1
102
RTVSPropertyOp49
 70
     1
102
RTVSPropertyOp50
 70
     1
102
RTVSPropertyOp51
 70
     0
102
RTVSPropertyOp52
 70
     0
102
RTVSPropertyOp53
 70
     1
102
RTVSPropertyOp54
 70
     1
102
RTVSPropertyOp55
 70
     1
102
RTVSPropertyOp56
 70
     1
102
RTVSPropertyOp57
 70
     1
102
RTVSPropertyOp58
 70
     1
102
RTVSPropertyOp59
 70
     1
102
RTVSPropertyOp60
 70
     1
102
RTVSPropertyOp61
 70
     1
102
RTVSPropertyOp62
 70
     1
  0
XRECORD
  5
8347
102
{ACAD_REACTORS
330
8346
102
}
330
8346
100
AcDbXrecord
280
     1
102
RTVSPost2010Prop28
280
     0
102
RTVSPost2010PropOp28
 70
     1
102
RTVSPost2010Prop29
280
     1
102
RTVSPost2010PropOp29
 70
     1
102
RTVSPost2010Prop30
280
     1
102
RTVSPost2010PropOp30
 70
     1
102
RTVSPost2010Prop31
280
     0
102
RTVSPost2010PropOp31
 70
     1
102
RTVSPost2010Prop32
280
     0
102
RTVSPost2010PropOp32
 70
     1
102
RTVSPost2010Prop33
280
     0
102
RTVSPost2010PropOp33
 70
     1
102
RTVSPost2010Prop34
280
     0
102
RTVSPost2010PropOp34
 70
     1
102
RTVSPost2010Prop35
280
     0
102
RTVSPost2010PropOp35
 70
     1
102
RTVSPost2010Prop36
280
     0
102
RTVSPost2010PropOp36
 70
     1
102
RTVSPost2010Prop37
 90
       50
102
RTVSPost2010PropOp37
 70
     1
102
RTVSPost2010Prop38
140
0.0
102
RTVSPost2010PropOp38
 70
     1
102
RTVSPost2010Prop39
140
1.0
102
RTVSPost2010PropOp39
 70
     1
102
RTVSPost2010Prop40
 90
        0
102
RTVSPost2010PropOp40
 70
     1
102
RTVSPost2010Prop41ColorIndex
 90
       18
102
RTVSPost2010Prop41ColorRGB
 90
        0
102
RTVSPost2010PropOp41
 70
     1
102
RTVSPost2010Prop42
 90
       50
102
RTVSPost2010PropOp42
 70
     1
102
RTVSPost2010Prop43
 90
        3
102
RTVSPost2010PropOp43
 70
     1
102
RTVSPost2010Prop44ColorIndex
 90
        5
102
RTVSPost2010Prop44ColorRGB
 90
      255
102
RTVSPost2010PropOp44
 70
     1
102
RTVSPost2010Prop45
280
     0
102
RTVSPost2010PropOp45
 70
     1
102
RTVSPost2010Prop46
 90
       50
102
RTVSPost2010PropOp46
 70
     1
102
RTVSPost2010Prop47
 90
       50
102
RTVSPost2010PropOp47
 70
     1
102
RTVSPost2010Prop48
 90
       50
102
RTVSPost2010PropOp48
 70
     1
102
RTVSPost2010Prop49
280
     0
102
RTVSPost2010PropOp49
 70
     1
102
RTVSPost2010Prop50
 90
       50
102
RTVSPost2010PropOp50
 70
     1
102
RTVSPost2010Prop51ColorIndex
 90
      256
102
RTVSPost2010Prop51ColorRGB
 90
-16777216
102
RTVSPost2010PropOp51
 70
     0
102
RTVSPost2010Prop52
140
1.0
102
RTVSPost2010PropOp52
 70
     0
102
RTVSPost2010Prop53
 90
        2
102
RTVSPost2010PropOp53
 70
     1
102
RTVSPost2010Prop54
  1
strokes_ogs.tif
102
RTVSPost2010PropOp54
 70
     1
102
RTVSPost2010Prop55
280
     0
102
RTVSPost2010PropOp55
 70
     1
102
RTVSPost2010Prop56
140
1.0
102
RTVSPost2010PropOp56
 70
     1
102
RTVSPost2010Prop57
140
1.0
102
RTVSPost2010PropOp57
 70
     1
102
RTVSPropertyOp0
 70
     1
102
RTVSPropertyOp1
 70
     1
102
RTVSPropertyOp2
 70
     1
102
RTVSPropertyOp3
 70
     1
102
RTVSPropertyOp4
 70
     1
102
RTVSPropertyOp5
 70
     1
102
RTVSPropertyOp6
 70
     1
102
RTVSPropertyOp7
 70
     1
102
RTVSPropertyOp8
 70
     1
102
RTVSPropertyOp9
 70
     1
102
RTVSPropertyOp10
 70
     1
102
RTVSPropertyOp11
 70
     1
102
RTVSPropertyOp12
 70
     1
102
RTVSPropertyOp13
 70
     1
102
RTVSPropertyOp14
 70
     1
102
RTVSPropertyOp15
 70
     1
102
RTVSPropertyOp16
 70
     1
102
RTVSPropertyOp17
 70
     1
102
RTVSPropertyOp18
 70
     1
102
RTVSPropertyOp19
 70
     1
102
RTVSPropertyOp20
 70
     1
102
RTVSPropertyOp21
 70
     1
102
RTVSPropertyOp22
 70
     1
102
RTVSPropertyOp23
 70
     1
102
RTVSPropertyOp24
 70
     1
102
RTVSPropertyOp25
 70
     1
102
RTVSPropertyOp26
 70
     1
102
RTVSPropertyOp27
 70
     1
102
RTVSPropertyOp28
 70
     1
102
RTVSPropertyOp29
 70
     1
102
RTVSPropertyOp30
 70
     1
102
RTVSPropertyOp31
 70
     1
102
RTVSPropertyOp32
 70
     1
102
RTVSPropertyOp33
 70
     1
102
RTVSPropertyOp34
 70
     1
102
RTVSPropertyOp35
 70
     1
102
RTVSPropertyOp36
 70
     1
102
RTVSPropertyOp37
 70
     1
102
RTVSPropertyOp38
 70
     1
102
RTVSPropertyOp39
 70
     1
102
RTVSPropertyOp40
 70
     1
102
RTVSPropertyOp41
 70
     1
102
RTVSPropertyOp42
 70
     1
102
RTVSPropertyOp43
 70
     1
102
RTVSPropertyOp44
 70
     1
102
RTVSPropertyOp45
 70
     1
102
RTVSPropertyOp46
 70
     1
102
RTVSPropertyOp47
 70
     1
102
RTVSPropertyOp48
 70
     1
102
RTVSPropertyOp49
 70
     1
102
RTVSPropertyOp50
 70
     1
102
RTVSPropertyOp51
 70
     0
102
RTVSPropertyOp52
 70
     0
102
RTVSPropertyOp53
 70
     1
102
RTVSPropertyOp54
 70
     1
102
RTVSPropertyOp55
 70
     1
102
RTVSPropertyOp56
 70
     1
102
RTVSPropertyOp57
 70
     1
102
RTVSPropertyOp58
 70
     1
102
RTVSPropertyOp59
 70
     1
102
RTVSPropertyOp60
 70
     1
102
RTVSPropertyOp61
 70
     1
102
RTVSPropertyOp62
 70
     1
  0
XRECORD
  5
8355
102
{ACAD_REACTORS
330
8354
102
}
330
8354
100
AcDbXrecord
280
     1
102
RTVSPost2010Prop28
280
     0
102
RTVSPost2010PropOp28
 70
     1
102
RTVSPost2010Prop29
280
     1
102
RTVSPost2010PropOp29
 70
     1
102
RTVSPost2010Prop30
280
     1
102
RTVSPost2010PropOp30
 70
     1
102
RTVSPost2010Prop31
280
     0
102
RTVSPost2010PropOp31
 70
     1
102
RTVSPost2010Prop32
280
     0
102
RTVSPost2010PropOp32
 70
     1
102
RTVSPost2010Prop33
280
     0
102
RTVSPost2010PropOp33
 70
     1
102
RTVSPost2010Prop34
280
     0
102
RTVSPost2010PropOp34
 70
     1
102
RTVSPost2010Prop35
280
     0
102
RTVSPost2010PropOp35
 70
     1
102
RTVSPost2010Prop36
280
     0
102
RTVSPost2010PropOp36
 70
     1
102
RTVSPost2010Prop37
 90
       50
102
RTVSPost2010PropOp37
 70
     1
102
RTVSPost2010Prop38
140
0.0
102
RTVSPost2010PropOp38
 70
     1
102
RTVSPost2010Prop39
140
1.0
102
RTVSPost2010PropOp39
 70
     1
102
RTVSPost2010Prop40
 90
        0
102
RTVSPost2010PropOp40
 70
     1
102
RTVSPost2010Prop41ColorIndex
 90
       18
102
RTVSPost2010Prop41ColorRGB
 90
        0
102
RTVSPost2010PropOp41
 70
     1
102
RTVSPost2010Prop42
 90
       50
102
RTVSPost2010PropOp42
 70
     1
102
RTVSPost2010Prop43
 90
        3
102
RTVSPost2010PropOp43
 70
     1
102
RTVSPost2010Prop44ColorIndex
 90
        5
102
RTVSPost2010Prop44ColorRGB
 90
      255
102
RTVSPost2010PropOp44
 70
     1
102
RTVSPost2010Prop45
280
     0
102
RTVSPost2010PropOp45
 70
     1
102
RTVSPost2010Prop46
 90
       50
102
RTVSPost2010PropOp46
 70
     1
102
RTVSPost2010Prop47
 90
       50
102
RTVSPost2010PropOp47
 70
     1
102
RTVSPost2010Prop48
 90
       50
102
RTVSPost2010PropOp48
 70
     1
102
RTVSPost2010Prop49
280
     0
102
RTVSPost2010PropOp49
 70
     1
102
RTVSPost2010Prop50
 90
       50
102
RTVSPost2010PropOp50
 70
     1
102
RTVSPost2010Prop51ColorIndex
 90
      256
102
RTVSPost2010Prop51ColorRGB
 90
-16777216
102
RTVSPost2010PropOp51
 70
     0
102
RTVSPost2010Prop52
140
1.0
102
RTVSPost2010PropOp52
 70
     0
102
RTVSPost2010Prop53
 90
        2
102
RTVSPost2010PropOp53
 70
     1
102
RTVSPost2010Prop54
  1
strokes_ogs.tif
102
RTVSPost2010PropOp54
 70
     1
102
RTVSPost2010Prop55
280
     0
102
RTVSPost2010PropOp55
 70
     1
102
RTVSPost2010Prop56
140
1.0
102
RTVSPost2010PropOp56
 70
     1
102
RTVSPost2010Prop57
140
1.0
102
RTVSPost2010PropOp57
 70
     1
102
RTVSPropertyOp0
 70
     1
102
RTVSPropertyOp1
 70
     1
102
RTVSPropertyOp2
 70
     1
102
RTVSPropertyOp3
 70
     1
102
RTVSPropertyOp4
 70
     1
102
RTVSPropertyOp5
 70
     1
102
RTVSPropertyOp6
 70
     1
102
RTVSPropertyOp7
 70
     1
102
RTVSPropertyOp8
 70
     1
102
RTVSPropertyOp9
 70
     1
102
RTVSPropertyOp10
 70
     1
102
RTVSPropertyOp11
 70
     1
102
RTVSPropertyOp12
 70
     1
102
RTVSPropertyOp13
 70
     1
102
RTVSPropertyOp14
 70
     1
102
RTVSPropertyOp15
 70
     1
102
RTVSPropertyOp16
 70
     1
102
RTVSPropertyOp17
 70
     1
102
RTVSPropertyOp18
 70
     1
102
RTVSPropertyOp19
 70
     1
102
RTVSPropertyOp20
 70
     1
102
RTVSPropertyOp21
 70
     1
102
RTVSPropertyOp22
 70
     1
102
RTVSPropertyOp23
 70
     1
102
RTVSPropertyOp24
 70
     1
102
RTVSPropertyOp25
 70
     1
102
RTVSPropertyOp26
 70
     1
102
RTVSPropertyOp27
 70
     1
102
RTVSPropertyOp28
 70
     1
102
RTVSPropertyOp29
 70
     1
102
RTVSPropertyOp30
 70
     1
102
RTVSPropertyOp31
 70
     1
102
RTVSPropertyOp32
 70
     1
102
RTVSPropertyOp33
 70
     1
102
RTVSPropertyOp34
 70
     1
102
RTVSPropertyOp35
 70
     1
102
RTVSPropertyOp36
 70
     1
102
RTVSPropertyOp37
 70
     1
102
RTVSPropertyOp38
 70
     1
102
RTVSPropertyOp39
 70
     1
102
RTVSPropertyOp40
 70
     1
102
RTVSPropertyOp41
 70
     1
102
RTVSPropertyOp42
 70
     1
102
RTVSPropertyOp43
 70
     1
102
RTVSPropertyOp44
 70
     1
102
RTVSPropertyOp45
 70
     1
102
RTVSPropertyOp46
 70
     1
102
RTVSPropertyOp47
 70
     1
102
RTVSPropertyOp48
 70
     1
102
RTVSPropertyOp49
 70
     1
102
RTVSPropertyOp50
 70
     1
102
RTVSPropertyOp51
 70
     0
102
RTVSPropertyOp52
 70
     0
102
RTVSPropertyOp53
 70
     1
102
RTVSPropertyOp54
 70
     1
102
RTVSPropertyOp55
 70
     1
102
RTVSPropertyOp56
 70
     1
102
RTVSPropertyOp57
 70
     1
102
RTVSPropertyOp58
 70
     1
102
RTVSPropertyOp59
 70
     1
102
RTVSPropertyOp60
 70
     1
102
RTVSPropertyOp61
 70
     1
102
RTVSPropertyOp62
 70
     1
  0
XRECORD
  5
835D
102
{ACAD_REACTORS
330
835C
102
}
330
835C
100
AcDbXrecord
280
     1
102
RTVSPost2010Prop28
280
     0
102
RTVSPost2010PropOp28
 70
     1
102
RTVSPost2010Prop29
280
     1
102
RTVSPost2010PropOp29
 70
     1
102
RTVSPost2010Prop30
280
     1
102
RTVSPost2010PropOp30
 70
     1
102
RTVSPost2010Prop31
280
     0
102
RTVSPost2010PropOp31
 70
     1
102
RTVSPost2010Prop32
280
     0
102
RTVSPost2010PropOp32
 70
     1
102
RTVSPost2010Prop33
280
     0
102
RTVSPost2010PropOp33
 70
     1
102
RTVSPost2010Prop34
280
     0
102
RTVSPost2010PropOp34
 70
     1
102
RTVSPost2010Prop35
280
     0
102
RTVSPost2010PropOp35
 70
     1
102
RTVSPost2010Prop36
280
     0
102
RTVSPost2010PropOp36
 70
     1
102
RTVSPost2010Prop37
 90
       50
102
RTVSPost2010PropOp37
 70
     1
102
RTVSPost2010Prop38
140
0.0
102
RTVSPost2010PropOp38
 70
     1
102
RTVSPost2010Prop39
140
1.0
102
RTVSPost2010PropOp39
 70
     1
102
RTVSPost2010Prop40
 90
        0
102
RTVSPost2010PropOp40
 70
     1
102
RTVSPost2010Prop41ColorIndex
 90
       18
102
RTVSPost2010Prop41ColorRGB
 90
        0
102
RTVSPost2010PropOp41
 70
     1
102
RTVSPost2010Prop42
 90
       50
102
RTVSPost2010PropOp42
 70
     1
102
RTVSPost2010Prop43
 90
        3
102
RTVSPost2010PropOp43
 70
     1
102
RTVSPost2010Prop44ColorIndex
 90
        5
102
RTVSPost2010Prop44ColorRGB
 90
      255
102
RTVSPost2010PropOp44
 70
     1
102
RTVSPost2010Prop45
280
     0
102
RTVSPost2010PropOp45
 70
     1
102
RTVSPost2010Prop46
 90
       50
102
RTVSPost2010PropOp46
 70
     1
102
RTVSPost2010Prop47
 90
       50
102
RTVSPost2010PropOp47
 70
     1
102
RTVSPost2010Prop48
 90
       50
102
RTVSPost2010PropOp48
 70
     1
102
RTVSPost2010Prop49
280
     0
102
RTVSPost2010PropOp49
 70
     1
102
RTVSPost2010Prop50
 90
       50
102
RTVSPost2010PropOp50
 70
     1
102
RTVSPost2010Prop51ColorIndex
 90
      256
102
RTVSPost2010Prop51ColorRGB
 90
-16777216
102
RTVSPost2010PropOp51
 70
     0
102
RTVSPost2010Prop52
140
1.0
102
RTVSPost2010PropOp52
 70
     0
102
RTVSPost2010Prop53
 90
        2
102
RTVSPost2010PropOp53
 70
     1
102
RTVSPost2010Prop54
  1
strokes_ogs.tif
102
RTVSPost2010PropOp54
 70
     1
102
RTVSPost2010Prop55
280
     0
102
RTVSPost2010PropOp55
 70
     1
102
RTVSPost2010Prop56
140
1.0
102
RTVSPost2010PropOp56
 70
     1
102
RTVSPost2010Prop57
140
1.0
102
RTVSPost2010PropOp57
 70
     1
102
RTVSPropertyOp0
 70
     1
102
RTVSPropertyOp1
 70
     1
102
RTVSPropertyOp2
 70
     1
102
RTVSPropertyOp3
 70
     1
102
RTVSPropertyOp4
 70
     1
102
RTVSPropertyOp5
 70
     1
102
RTVSPropertyOp6
 70
     1
102
RTVSPropertyOp7
 70
     1
102
RTVSPropertyOp8
 70
     1
102
RTVSPropertyOp9
 70
     1
102
RTVSPropertyOp10
 70
     1
102
RTVSPropertyOp11
 70
     1
102
RTVSPropertyOp12
 70
     1
102
RTVSPropertyOp13
 70
     1
102
RTVSPropertyOp14
 70
     1
102
RTVSPropertyOp15
 70
     1
102
RTVSPropertyOp16
 70
     1
102
RTVSPropertyOp17
 70
     1
102
RTVSPropertyOp18
 70
     1
102
RTVSPropertyOp19
 70
     1
102
RTVSPropertyOp20
 70
     1
102
RTVSPropertyOp21
 70
     1
102
RTVSPropertyOp22
 70
     1
102
RTVSPropertyOp23
 70
     1
102
RTVSPropertyOp24
 70
     1
102
RTVSPropertyOp25
 70
     1
102
RTVSPropertyOp26
 70
     1
102
RTVSPropertyOp27
 70
     1
102
RTVSPropertyOp28
 70
     1
102
RTVSPropertyOp29
 70
     1
102
RTVSPropertyOp30
 70
     1
102
RTVSPropertyOp31
 70
     1
102
RTVSPropertyOp32
 70
     1
102
RTVSPropertyOp33
 70
     1
102
RTVSPropertyOp34
 70
     1
102
RTVSPropertyOp35
 70
     1
102
RTVSPropertyOp36
 70
     1
102
RTVSPropertyOp37
 70
     1
102
RTVSPropertyOp38
 70
     1
102
RTVSPropertyOp39
 70
     1
102
RTVSPropertyOp40
 70
     1
102
RTVSPropertyOp41
 70
     1
102
RTVSPropertyOp42
 70
     1
102
RTVSPropertyOp43
 70
     1
102
RTVSPropertyOp44
 70
     1
102
RTVSPropertyOp45
 70
     1
102
RTVSPropertyOp46
 70
     1
102
RTVSPropertyOp47
 70
     1
102
RTVSPropertyOp48
 70
     1
102
RTVSPropertyOp49
 70
     1
102
RTVSPropertyOp50
 70
     1
102
RTVSPropertyOp51
 70
     0
102
RTVSPropertyOp52
 70
     0
102
RTVSPropertyOp53
 70
     1
102
RTVSPropertyOp54
 70
     1
102
RTVSPropertyOp55
 70
     1
102
RTVSPropertyOp56
 70
     1
102
RTVSPropertyOp57
 70
     1
102
RTVSPropertyOp58
 70
     1
102
RTVSPropertyOp59
 70
     1
102
RTVSPropertyOp60
 70
     1
102
RTVSPropertyOp61
 70
     1
102
RTVSPropertyOp62
 70
     1
  0
XRECORD
  5
834F
102
{ACAD_REACTORS
330
834E
102
}
330
834E
100
AcDbXrecord
280
     1
102
RTVSPost2010Prop28
280
     0
102
RTVSPost2010PropOp28
 70
     1
102
RTVSPost2010Prop29
280
     1
102
RTVSPost2010PropOp29
 70
     1
102
RTVSPost2010Prop30
280
     1
102
RTVSPost2010PropOp30
 70
     1
102
RTVSPost2010Prop31
280
     0
102
RTVSPost2010PropOp31
 70
     1
102
RTVSPost2010Prop32
280
     0
102
RTVSPost2010PropOp32
 70
     1
102
RTVSPost2010Prop33
280
     0
102
RTVSPost2010PropOp33
 70
     1
102
RTVSPost2010Prop34
280
     0
102
RTVSPost2010PropOp34
 70
     1
102
RTVSPost2010Prop35
280
     0
102
RTVSPost2010PropOp35
 70
     1
102
RTVSPost2010Prop36
280
     0
102
RTVSPost2010PropOp36
 70
     1
102
RTVSPost2010Prop37
 90
       50
102
RTVSPost2010PropOp37
 70
     1
102
RTVSPost2010Prop38
140
0.0
102
RTVSPost2010PropOp38
 70
     1
102
RTVSPost2010Prop39
140
1.0
102
RTVSPost2010PropOp39
 70
     1
102
RTVSPost2010Prop40
 90
        0
102
RTVSPost2010PropOp40
 70
     1
102
RTVSPost2010Prop41ColorIndex
 90
       18
102
RTVSPost2010Prop41ColorRGB
 90
        0
102
RTVSPost2010PropOp41
 70
     1
102
RTVSPost2010Prop42
 90
       50
102
RTVSPost2010PropOp42
 70
     1
102
RTVSPost2010Prop43
 90
        3
102
RTVSPost2010PropOp43
 70
     1
102
RTVSPost2010Prop44ColorIndex
 90
        5
102
RTVSPost2010Prop44ColorRGB
 90
      255
102
RTVSPost2010PropOp44
 70
     1
102
RTVSPost2010Prop45
280
     0
102
RTVSPost2010PropOp45
 70
     1
102
RTVSPost2010Prop46
 90
       50
102
RTVSPost2010PropOp46
 70
     1
102
RTVSPost2010Prop47
 90
       50
102
RTVSPost2010PropOp47
 70
     1
102
RTVSPost2010Prop48
 90
       50
102
RTVSPost2010PropOp48
 70
     1
102
RTVSPost2010Prop49
280
     0
102
RTVSPost2010PropOp49
 70
     1
102
RTVSPost2010Prop50
 90
       50
102
RTVSPost2010PropOp50
 70
     1
102
RTVSPost2010Prop51ColorIndex
 90
      256
102
RTVSPost2010Prop51ColorRGB
 90
-16777216
102
RTVSPost2010PropOp51
 70
     0
102
RTVSPost2010Prop52
140
1.0
102
RTVSPost2010PropOp52
 70
     0
102
RTVSPost2010Prop53
 90
        2
102
RTVSPost2010PropOp53
 70
     1
102
RTVSPost2010Prop54
  1
strokes_ogs.tif
102
RTVSPost2010PropOp54
 70
     1
102
RTVSPost2010Prop55
280
     0
102
RTVSPost2010PropOp55
 70
     1
102
RTVSPost2010Prop56
140
1.0
102
RTVSPost2010PropOp56
 70
     1
102
RTVSPost2010Prop57
140
1.0
102
RTVSPost2010PropOp57
 70
     1
102
RTVSPropertyOp0
 70
     1
102
RTVSPropertyOp1
 70
     1
102
RTVSPropertyOp2
 70
     1
102
RTVSPropertyOp3
 70
     1
102
RTVSPropertyOp4
 70
     1
102
RTVSPropertyOp5
 70
     1
102
RTVSPropertyOp6
 70
     1
102
RTVSPropertyOp7
 70
     1
102
RTVSPropertyOp8
 70
     1
102
RTVSPropertyOp9
 70
     1
102
RTVSPropertyOp10
 70
     1
102
RTVSPropertyOp11
 70
     1
102
RTVSPropertyOp12
 70
     1
102
RTVSPropertyOp13
 70
     1
102
RTVSPropertyOp14
 70
     1
102
RTVSPropertyOp15
 70
     1
102
RTVSPropertyOp16
 70
     1
102
RTVSPropertyOp17
 70
     1
102
RTVSPropertyOp18
 70
     1
102
RTVSPropertyOp19
 70
     1
102
RTVSPropertyOp20
 70
     1
102
RTVSPropertyOp21
 70
     1
102
RTVSPropertyOp22
 70
     1
102
RTVSPropertyOp23
 70
     1
102
RTVSPropertyOp24
 70
     1
102
RTVSPropertyOp25
 70
     1
102
RTVSPropertyOp26
 70
     1
102
RTVSPropertyOp27
 70
     1
102
RTVSPropertyOp28
 70
     1
102
RTVSPropertyOp29
 70
     1
102
RTVSPropertyOp30
 70
     1
102
RTVSPropertyOp31
 70
     1
102
RTVSPropertyOp32
 70
     1
102
RTVSPropertyOp33
 70
     1
102
RTVSPropertyOp34
 70
     1
102
RTVSPropertyOp35
 70
     1
102
RTVSPropertyOp36
 70
     1
102
RTVSPropertyOp37
 70
     1
102
RTVSPropertyOp38
 70
     1
102
RTVSPropertyOp39
 70
     1
102
RTVSPropertyOp40
 70
     1
102
RTVSPropertyOp41
 70
     1
102
RTVSPropertyOp42
 70
     1
102
RTVSPropertyOp43
 70
     1
102
RTVSPropertyOp44
 70
     1
102
RTVSPropertyOp45
 70
     1
102
RTVSPropertyOp46
 70
     1
102
RTVSPropertyOp47
 70
     1
102
RTVSPropertyOp48
 70
     1
102
RTVSPropertyOp49
 70
     1
102
RTVSPropertyOp50
 70
     1
102
RTVSPropertyOp51
 70
     0
102
RTVSPropertyOp52
 70
     0
102
RTVSPropertyOp53
 70
     1
102
RTVSPropertyOp54
 70
     1
102
RTVSPropertyOp55
 70
     1
102
RTVSPropertyOp56
 70
     1
102
RTVSPropertyOp57
 70
     1
102
RTVSPropertyOp58
 70
     1
102
RTVSPropertyOp59
 70
     1
102
RTVSPropertyOp60
 70
     1
102
RTVSPropertyOp61
 70
     1
102
RTVSPropertyOp62
 70
     1
  0
XRECORD
  5
8353
102
{ACAD_REACTORS
330
8352
102
}
330
8352
100
AcDbXrecord
280
     1
102
RTVSPost2010Prop28
280
     0
102
RTVSPost2010PropOp28
 70
     1
102
RTVSPost2010Prop29
280
     1
102
RTVSPost2010PropOp29
 70
     1
102
RTVSPost2010Prop30
280
     1
102
RTVSPost2010PropOp30
 70
     1
102
RTVSPost2010Prop31
280
     0
102
RTVSPost2010PropOp31
 70
     1
102
RTVSPost2010Prop32
280
     0
102
RTVSPost2010PropOp32
 70
     1
102
RTVSPost2010Prop33
280
     0
102
RTVSPost2010PropOp33
 70
     1
102
RTVSPost2010Prop34
280
     0
102
RTVSPost2010PropOp34
 70
     1
102
RTVSPost2010Prop35
280
     0
102
RTVSPost2010PropOp35
 70
     1
102
RTVSPost2010Prop36
280
     0
102
RTVSPost2010PropOp36
 70
     1
102
RTVSPost2010Prop37
 90
       50
102
RTVSPost2010PropOp37
 70
     1
102
RTVSPost2010Prop38
140
0.0
102
RTVSPost2010PropOp38
 70
     1
102
RTVSPost2010Prop39
140
1.0
102
RTVSPost2010PropOp39
 70
     1
102
RTVSPost2010Prop40
 90
        0
102
RTVSPost2010PropOp40
 70
     1
102
RTVSPost2010Prop41ColorIndex
 90
       18
102
RTVSPost2010Prop41ColorRGB
 90
        0
102
RTVSPost2010PropOp41
 70
     1
102
RTVSPost2010Prop42
 90
       50
102
RTVSPost2010PropOp42
 70
     1
102
RTVSPost2010Prop43
 90
        3
102
RTVSPost2010PropOp43
 70
     1
102
RTVSPost2010Prop44ColorIndex
 90
        5
102
RTVSPost2010Prop44ColorRGB
 90
      255
102
RTVSPost2010PropOp44
 70
     1
102
RTVSPost2010Prop45
280
     0
102
RTVSPost2010PropOp45
 70
     1
102
RTVSPost2010Prop46
 90
       50
102
RTVSPost2010PropOp46
 70
     1
102
RTVSPost2010Prop47
 90
       50
102
RTVSPost2010PropOp47
 70
     1
102
RTVSPost2010Prop48
 90
       50
102
RTVSPost2010PropOp48
 70
     1
102
RTVSPost2010Prop49
280
     0
102
RTVSPost2010PropOp49
 70
     1
102
RTVSPost2010Prop50
 90
       50
102
RTVSPost2010PropOp50
 70
     1
102
RTVSPost2010Prop51ColorIndex
 90
      256
102
RTVSPost2010Prop51ColorRGB
 90
-16777216
102
RTVSPost2010PropOp51
 70
     0
102
RTVSPost2010Prop52
140
1.0
102
RTVSPost2010PropOp52
 70
     0
102
RTVSPost2010Prop53
 90
        2
102
RTVSPost2010PropOp53
 70
     1
102
RTVSPost2010Prop54
  1
strokes_ogs.tif
102
RTVSPost2010PropOp54
 70
     1
102
RTVSPost2010Prop55
280
     0
102
RTVSPost2010PropOp55
 70
     1
102
RTVSPost2010Prop56
140
1.0
102
RTVSPost2010PropOp56
 70
     1
102
RTVSPost2010Prop57
140
1.0
102
RTVSPost2010PropOp57
 70
     1
102
RTVSPropertyOp0
 70
     1
102
RTVSPropertyOp1
 70
     1
102
RTVSPropertyOp2
 70
     1
102
RTVSPropertyOp3
 70
     1
102
RTVSPropertyOp4
 70
     1
102
RTVSPropertyOp5
 70
     1
102
RTVSPropertyOp6
 70
     1
102
RTVSPropertyOp7
 70
     1
102
RTVSPropertyOp8
 70
     1
102
RTVSPropertyOp9
 70
     1
102
RTVSPropertyOp10
 70
     1
102
RTVSPropertyOp11
 70
     1
102
RTVSPropertyOp12
 70
     1
102
RTVSPropertyOp13
 70
     1
102
RTVSPropertyOp14
 70
     1
102
RTVSPropertyOp15
 70
     1
102
RTVSPropertyOp16
 70
     1
102
RTVSPropertyOp17
 70
     1
102
RTVSPropertyOp18
 70
     1
102
RTVSPropertyOp19
 70
     1
102
RTVSPropertyOp20
 70
     1
102
RTVSPropertyOp21
 70
     1
102
RTVSPropertyOp22
 70
     1
102
RTVSPropertyOp23
 70
     1
102
RTVSPropertyOp24
 70
     1
102
RTVSPropertyOp25
 70
     1
102
RTVSPropertyOp26
 70
     1
102
RTVSPropertyOp27
 70
     1
102
RTVSPropertyOp28
 70
     1
102
RTVSPropertyOp29
 70
     1
102
RTVSPropertyOp30
 70
     1
102
RTVSPropertyOp31
 70
     1
102
RTVSPropertyOp32
 70
     1
102
RTVSPropertyOp33
 70
     1
102
RTVSPropertyOp34
 70
     1
102
RTVSPropertyOp35
 70
     1
102
RTVSPropertyOp36
 70
     1
102
RTVSPropertyOp37
 70
     1
102
RTVSPropertyOp38
 70
     1
102
RTVSPropertyOp39
 70
     1
102
RTVSPropertyOp40
 70
     1
102
RTVSPropertyOp41
 70
     1
102
RTVSPropertyOp42
 70
     1
102
RTVSPropertyOp43
 70
     1
102
RTVSPropertyOp44
 70
     1
102
RTVSPropertyOp45
 70
     1
102
RTVSPropertyOp46
 70
     1
102
RTVSPropertyOp47
 70
     1
102
RTVSPropertyOp48
 70
     1
102
RTVSPropertyOp49
 70
     1
102
RTVSPropertyOp50
 70
     1
102
RTVSPropertyOp51
 70
     0
102
RTVSPropertyOp52
 70
     0
102
RTVSPropertyOp53
 70
     1
102
RTVSPropertyOp54
 70
     1
102
RTVSPropertyOp55
 70
     1
102
RTVSPropertyOp56
 70
     1
102
RTVSPropertyOp57
 70
     1
102
RTVSPropertyOp58
 70
     1
102
RTVSPropertyOp59
 70
     1
102
RTVSPropertyOp60
 70
     1
102
RTVSPropertyOp61
 70
     1
102
RTVSPropertyOp62
 70
     1
  0
XRECORD
  5
836D
102
{ACAD_REACTORS
330
836C
102
}
330
836C
100
AcDbXrecord
280
     1
102
RTVSPost2010Prop28
280
     0
102
RTVSPost2010PropOp28
 70
     1
102
RTVSPost2010Prop29
280
     1
102
RTVSPost2010PropOp29
 70
     1
102
RTVSPost2010Prop30
280
     1
102
RTVSPost2010PropOp30
 70
     1
102
RTVSPost2010Prop31
280
     0
102
RTVSPost2010PropOp31
 70
     1
102
RTVSPost2010Prop32
280
     0
102
RTVSPost2010PropOp32
 70
     1
102
RTVSPost2010Prop33
280
     0
102
RTVSPost2010PropOp33
 70
     1
102
RTVSPost2010Prop34
280
     0
102
RTVSPost2010PropOp34
 70
     1
102
RTVSPost2010Prop35
280
     0
102
RTVSPost2010PropOp35
 70
     1
102
RTVSPost2010Prop36
280
     0
102
RTVSPost2010PropOp36
 70
     1
102
RTVSPost2010Prop37
 90
       50
102
RTVSPost2010PropOp37
 70
     0
102
RTVSPost2010Prop38
140
0.0
102
RTVSPost2010PropOp38
 70
     0
102
RTVSPost2010Prop39
140
1.0
102
RTVSPost2010PropOp39
 70
     0
102
RTVSPost2010Prop40
 90
        0
102
RTVSPost2010PropOp40
 70
     0
102
RTVSPost2010Prop41ColorIndex
 90
       18
102
RTVSPost2010Prop41ColorRGB
 90
        0
102
RTVSPost2010PropOp41
 70
     0
102
RTVSPost2010Prop42
 90
       50
102
RTVSPost2010PropOp42
 70
     0
102
RTVSPost2010Prop43
 90
        3
102
RTVSPost2010PropOp43
 70
     0
102
RTVSPost2010Prop44ColorIndex
 90
        5
102
RTVSPost2010Prop44ColorRGB
 90
      255
102
RTVSPost2010PropOp44
 70
     0
102
RTVSPost2010Prop45
280
     0
102
RTVSPost2010PropOp45
 70
     1
102
RTVSPost2010Prop46
 90
       50
102
RTVSPost2010PropOp46
 70
     0
102
RTVSPost2010Prop47
 90
       50
102
RTVSPost2010PropOp47
 70
     0
102
RTVSPost2010Prop48
 90
       50
102
RTVSPost2010PropOp48
 70
     0
102
RTVSPost2010Prop49
280
     0
102
RTVSPost2010PropOp49
 70
     1
102
RTVSPost2010Prop50
 90
       50
102
RTVSPost2010PropOp50
 70
     0
102
RTVSPost2010Prop51ColorIndex
 90
      256
102
RTVSPost2010Prop51ColorRGB
 90
-16777216
102
RTVSPost2010PropOp51
 70
     0
102
RTVSPost2010Prop52
140
1.0
102
RTVSPost2010PropOp52
 70
     0
102
RTVSPost2010Prop53
 90
        2
102
RTVSPost2010PropOp53
 70
     0
102
RTVSPost2010Prop54
  1
strokes_ogs.tif
102
RTVSPost2010PropOp54
 70
     0
102
RTVSPost2010Prop55
280
     0
102
RTVSPost2010PropOp55
 70
     1
102
RTVSPost2010Prop56
140
1.0
102
RTVSPost2010PropOp56
 70
     0
102
RTVSPost2010Prop57
140
1.0
102
RTVSPost2010PropOp57
 70
     0
102
RTVSPropertyOp0
 70
     0
102
RTVSPropertyOp1
 70
     0
102
RTVSPropertyOp2
 70
     0
102
RTVSPropertyOp3
 70
     0
102
RTVSPropertyOp4
 70
     0
102
RTVSPropertyOp5
 70
     0
102
RTVSPropertyOp6
 70
     0
102
RTVSPropertyOp7
 70
     0
102
RTVSPropertyOp8
 70
     0
102
RTVSPropertyOp9
 70
     0
102
RTVSPropertyOp10
 70
     0
102
RTVSPropertyOp11
 70
     0
102
RTVSPropertyOp12
 70
     0
102
RTVSPropertyOp13
 70
     0
102
RTVSPropertyOp14
 70
     2
102
RTVSPropertyOp15
 70
     0
102
RTVSPropertyOp16
 70
     0
102
RTVSPropertyOp17
 70
     0
102
RTVSPropertyOp18
 70
     0
102
RTVSPropertyOp19
 70
     0
102
RTVSPropertyOp20
 70
     0
102
RTVSPropertyOp21
 70
     0
102
RTVSPropertyOp22
 70
     0
102
RTVSPropertyOp23
 70
     0
102
RTVSPropertyOp24
 70
     0
102
RTVSPropertyOp25
 70
     0
102
RTVSPropertyOp26
 70
     0
102
RTVSPropertyOp27
 70
     0
102
RTVSPropertyOp28
 70
     1
102
RTVSPropertyOp29
 70
     1
102
RTVSPropertyOp30
 70
     1
102
RTVSPropertyOp31
 70
     1
102
RTVSPropertyOp32
 70
     1
102
RTVSPropertyOp33
 70
     1
102
RTVSPropertyOp34
 70
     1
102
RTVSPropertyOp35
 70
     1
102
RTVSPropertyOp36
 70
     1
102
RTVSPropertyOp37
 70
     0
102
RTVSPropertyOp38
 70
     0
102
RTVSPropertyOp39
 70
     0
102
RTVSPropertyOp40
 70
     0
102
RTVSPropertyOp41
 70
     0
102
RTVSPropertyOp42
 70
     0
102
RTVSPropertyOp43
 70
     0
102
RTVSPropertyOp44
 70
     0
102
RTVSPropertyOp45
 70
     1
102
RTVSPropertyOp46
 70
     0
102
RTVSPropertyOp47
 70
     0
102
RTVSPropertyOp48
 70
     0
102
RTVSPropertyOp49
 70
     1
102
RTVSPropertyOp50
 70
     0
102
RTVSPropertyOp51
 70
     0
102
RTVSPropertyOp52
 70
     0
102
RTVSPropertyOp53
 70
     0
102
RTVSPropertyOp54
 70
     0
102
RTVSPropertyOp55
 70
     1
102
RTVSPropertyOp56
 70
     0
102
RTVSPropertyOp57
 70
     0
102
RTVSPropertyOp58
 70
     0
102
RTVSPropertyOp59
 70
     0
102
RTVSPropertyOp60
 70
     0
102
RTVSPropertyOp61
 70
     0
102
RTVSPropertyOp62
 70
     0
  0
XRECORD
  5
835B
102
{ACAD_REACTORS
330
835A
102
}
330
835A
100
AcDbXrecord
280
     1
102
RTVSPost2010Prop28
280
     0
102
RTVSPost2010PropOp28
 70
     1
102
RTVSPost2010Prop29
280
     1
102
RTVSPost2010PropOp29
 70
     1
102
RTVSPost2010Prop30
280
     1
102
RTVSPost2010PropOp30
 70
     1
102
RTVSPost2010Prop31
280
     0
102
RTVSPost2010PropOp31
 70
     1
102
RTVSPost2010Prop32
280
     0
102
RTVSPost2010PropOp32
 70
     1
102
RTVSPost2010Prop33
280
     0
102
RTVSPost2010PropOp33
 70
     1
102
RTVSPost2010Prop34
280
     0
102
RTVSPost2010PropOp34
 70
     1
102
RTVSPost2010Prop35
280
     0
102
RTVSPost2010PropOp35
 70
     1
102
RTVSPost2010Prop36
280
     0
102
RTVSPost2010PropOp36
 70
     1
102
RTVSPost2010Prop37
 90
       50
102
RTVSPost2010PropOp37
 70
     1
102
RTVSPost2010Prop38
140
0.0
102
RTVSPost2010PropOp38
 70
     1
102
RTVSPost2010Prop39
140
1.0
102
RTVSPost2010PropOp39
 70
     1
102
RTVSPost2010Prop40
 90
        0
102
RTVSPost2010PropOp40
 70
     1
102
RTVSPost2010Prop41ColorIndex
 90
       18
102
RTVSPost2010Prop41ColorRGB
 90
        0
102
RTVSPost2010PropOp41
 70
     1
102
RTVSPost2010Prop42
 90
       50
102
RTVSPost2010PropOp42
 70
     1
102
RTVSPost2010Prop43
 90
        3
102
RTVSPost2010PropOp43
 70
     1
102
RTVSPost2010Prop44ColorIndex
 90
        5
102
RTVSPost2010Prop44ColorRGB
 90
      255
102
RTVSPost2010PropOp44
 70
     1
102
RTVSPost2010Prop45
280
     0
102
RTVSPost2010PropOp45
 70
     1
102
RTVSPost2010Prop46
 90
       50
102
RTVSPost2010PropOp46
 70
     1
102
RTVSPost2010Prop47
 90
       50
102
RTVSPost2010PropOp47
 70
     1
102
RTVSPost2010Prop48
 90
       50
102
RTVSPost2010PropOp48
 70
     1
102
RTVSPost2010Prop49
280
     0
102
RTVSPost2010PropOp49
 70
     1
102
RTVSPost2010Prop50
 90
       50
102
RTVSPost2010PropOp50
 70
     1
102
RTVSPost2010Prop51ColorIndex
 90
      256
102
RTVSPost2010Prop51ColorRGB
 90
-16777216
102
RTVSPost2010PropOp51
 70
     0
102
RTVSPost2010Prop52
140
1.0
102
RTVSPost2010PropOp52
 70
     0
102
RTVSPost2010Prop53
 90
        2
102
RTVSPost2010PropOp53
 70
     1
102
RTVSPost2010Prop54
  1
strokes_ogs.tif
102
RTVSPost2010PropOp54
 70
     1
102
RTVSPost2010Prop55
280
     0
102
RTVSPost2010PropOp55
 70
     1
102
RTVSPost2010Prop56
140
1.0
102
RTVSPost2010PropOp56
 70
     1
102
RTVSPost2010Prop57
140
1.0
102
RTVSPost2010PropOp57
 70
     1
102
RTVSPropertyOp0
 70
     1
102
RTVSPropertyOp1
 70
     1
102
RTVSPropertyOp2
 70
     1
102
RTVSPropertyOp3
 70
     1
102
RTVSPropertyOp4
 70
     1
102
RTVSPropertyOp5
 70
     1
102
RTVSPropertyOp6
 70
     1
102
RTVSPropertyOp7
 70
     1
102
RTVSPropertyOp8
 70
     1
102
RTVSPropertyOp9
 70
     1
102
RTVSPropertyOp10
 70
     1
102
RTVSPropertyOp11
 70
     1
102
RTVSPropertyOp12
 70
     1
102
RTVSPropertyOp13
 70
     1
102
RTVSPropertyOp14
 70
     1
102
RTVSPropertyOp15
 70
     1
102
RTVSPropertyOp16
 70
     1
102
RTVSPropertyOp17
 70
     1
102
RTVSPropertyOp18
 70
     1
102
RTVSPropertyOp19
 70
     1
102
RTVSPropertyOp20
 70
     1
102
RTVSPropertyOp21
 70
     1
102
RTVSPropertyOp22
 70
     1
102
RTVSPropertyOp23
 70
     1
102
RTVSPropertyOp24
 70
     1
102
RTVSPropertyOp25
 70
     1
102
RTVSPropertyOp26
 70
     1
102
RTVSPropertyOp27
 70
     1
102
RTVSPropertyOp28
 70
     1
102
RTVSPropertyOp29
 70
     1
102
RTVSPropertyOp30
 70
     1
102
RTVSPropertyOp31
 70
     1
102
RTVSPropertyOp32
 70
     1
102
RTVSPropertyOp33
 70
     1
102
RTVSPropertyOp34
 70
     1
102
RTVSPropertyOp35
 70
     1
102
RTVSPropertyOp36
 70
     1
102
RTVSPropertyOp37
 70
     1
102
RTVSPropertyOp38
 70
     1
102
RTVSPropertyOp39
 70
     1
102
RTVSPropertyOp40
 70
     1
102
RTVSPropertyOp41
 70
     1
102
RTVSPropertyOp42
 70
     1
102
RTVSPropertyOp43
 70
     1
102
RTVSPropertyOp44
 70
     1
102
RTVSPropertyOp45
 70
     1
102
RTVSPropertyOp46
 70
     1
102
RTVSPropertyOp47
 70
     1
102
RTVSPropertyOp48
 70
     1
102
RTVSPropertyOp49
 70
     1
102
RTVSPropertyOp50
 70
     1
102
RTVSPropertyOp51
 70
     0
102
RTVSPropertyOp52
 70
     0
102
RTVSPropertyOp53
 70
     1
102
RTVSPropertyOp54
 70
     1
102
RTVSPropertyOp55
 70
     1
102
RTVSPropertyOp56
 70
     1
102
RTVSPropertyOp57
 70
     1
102
RTVSPropertyOp58
 70
     1
102
RTVSPropertyOp59
 70
     1
102
RTVSPropertyOp60
 70
     1
102
RTVSPropertyOp61
 70
     1
102
RTVSPropertyOp62
 70
     1
  0
XRECORD
  5
833F
102
{ACAD_REACTORS
330
833E
102
}
330
833E
100
AcDbXrecord
280
     1
102
RTVSPost2010Prop28
280
     0
102
RTVSPost2010PropOp28
 70
     1
102
RTVSPost2010Prop29
280
     1
102
RTVSPost2010PropOp29
 70
     1
102
RTVSPost2010Prop30
280
     1
102
RTVSPost2010PropOp30
 70
     1
102
RTVSPost2010Prop31
280
     0
102
RTVSPost2010PropOp31
 70
     1
102
RTVSPost2010Prop32
280
     0
102
RTVSPost2010PropOp32
 70
     1
102
RTVSPost2010Prop33
280
     0
102
RTVSPost2010PropOp33
 70
     1
102
RTVSPost2010Prop34
280
     0
102
RTVSPost2010PropOp34
 70
     1
102
RTVSPost2010Prop35
280
     0
102
RTVSPost2010PropOp35
 70
     1
102
RTVSPost2010Prop36
280
     0
102
RTVSPost2010PropOp36
 70
     1
102
RTVSPost2010Prop37
 90
       50
102
RTVSPost2010PropOp37
 70
     1
102
RTVSPost2010Prop38
140
0.0
102
RTVSPost2010PropOp38
 70
     1
102
RTVSPost2010Prop39
140
1.0
102
RTVSPost2010PropOp39
 70
     1
102
RTVSPost2010Prop40
 90
        0
102
RTVSPost2010PropOp40
 70
     1
102
RTVSPost2010Prop41ColorIndex
 90
       18
102
RTVSPost2010Prop41ColorRGB
 90
        0
102
RTVSPost2010PropOp41
 70
     1
102
RTVSPost2010Prop42
 90
       50
102
RTVSPost2010PropOp42
 70
     1
102
RTVSPost2010Prop43
 90
        3
102
RTVSPost2010PropOp43
 70
     1
102
RTVSPost2010Prop44ColorIndex
 90
        5
102
RTVSPost2010Prop44ColorRGB
 90
      255
102
RTVSPost2010PropOp44
 70
     1
102
RTVSPost2010Prop45
280
     0
102
RTVSPost2010PropOp45
 70
     1
102
RTVSPost2010Prop46
 90
       50
102
RTVSPost2010PropOp46
 70
     1
102
RTVSPost2010Prop47
 90
       50
102
RTVSPost2010PropOp47
 70
     1
102
RTVSPost2010Prop48
 90
       50
102
RTVSPost2010PropOp48
 70
     1
102
RTVSPost2010Prop49
280
     0
102
RTVSPost2010PropOp49
 70
     1
102
RTVSPost2010Prop50
 90
       50
102
RTVSPost2010PropOp50
 70
     1
102
RTVSPost2010Prop51ColorIndex
 90
      256
102
RTVSPost2010Prop51ColorRGB
 90
-16777216
102
RTVSPost2010PropOp51
 70
     0
102
RTVSPost2010Prop52
140
1.0
102
RTVSPost2010PropOp52
 70
     0
102
RTVSPost2010Prop53
 90
        2
102
RTVSPost2010PropOp53
 70
     1
102
RTVSPost2010Prop54
  1
strokes_ogs.tif
102
RTVSPost2010PropOp54
 70
     1
102
RTVSPost2010Prop55
280
     0
102
RTVSPost2010PropOp55
 70
     1
102
RTVSPost2010Prop56
140
1.0
102
RTVSPost2010PropOp56
 70
     1
102
RTVSPost2010Prop57
140
1.0
102
RTVSPost2010PropOp57
 70
     1
102
RTVSPropertyOp0
 70
     1
102
RTVSPropertyOp1
 70
     1
102
RTVSPropertyOp2
 70
     1
102
RTVSPropertyOp3
 70
     1
102
RTVSPropertyOp4
 70
     1
102
RTVSPropertyOp5
 70
     1
102
RTVSPropertyOp6
 70
     1
102
RTVSPropertyOp7
 70
     1
102
RTVSPropertyOp8
 70
     1
102
RTVSPropertyOp9
 70
     1
102
RTVSPropertyOp10
 70
     1
102
RTVSPropertyOp11
 70
     1
102
RTVSPropertyOp12
 70
     1
102
RTVSPropertyOp13
 70
     1
102
RTVSPropertyOp14
 70
     1
102
RTVSPropertyOp15
 70
     1
102
RTVSPropertyOp16
 70
     1
102
RTVSPropertyOp17
 70
     1
102
RTVSPropertyOp18
 70
     1
102
RTVSPropertyOp19
 70
     1
102
RTVSPropertyOp20
 70
     1
102
RTVSPropertyOp21
 70
     1
102
RTVSPropertyOp22
 70
     1
102
RTVSPropertyOp23
 70
     1
102
RTVSPropertyOp24
 70
     1
102
RTVSPropertyOp25
 70
     1
102
RTVSPropertyOp26
 70
     1
102
RTVSPropertyOp27
 70
     1
102
RTVSPropertyOp28
 70
     1
102
RTVSPropertyOp29
 70
     1
102
RTVSPropertyOp30
 70
     1
102
RTVSPropertyOp31
 70
     1
102
RTVSPropertyOp32
 70
     1
102
RTVSPropertyOp33
 70
     1
102
RTVSPropertyOp34
 70
     1
102
RTVSPropertyOp35
 70
     1
102
RTVSPropertyOp36
 70
     1
102
RTVSPropertyOp37
 70
     1
102
RTVSPropertyOp38
 70
     1
102
RTVSPropertyOp39
 70
     1
102
RTVSPropertyOp40
 70
     1
102
RTVSPropertyOp41
 70
     1
102
RTVSPropertyOp42
 70
     1
102
RTVSPropertyOp43
 70
     1
102
RTVSPropertyOp44
 70
     1
102
RTVSPropertyOp45
 70
     1
102
RTVSPropertyOp46
 70
     1
102
RTVSPropertyOp47
 70
     1
102
RTVSPropertyOp48
 70
     1
102
RTVSPropertyOp49
 70
     1
102
RTVSPropertyOp50
 70
     1
102
RTVSPropertyOp51
 70
     0
102
RTVSPropertyOp52
 70
     0
102
RTVSPropertyOp53
 70
     1
102
RTVSPropertyOp54
 70
     1
102
RTVSPropertyOp55
 70
     1
102
RTVSPropertyOp56
 70
     1
102
RTVSPropertyOp57
 70
     1
102
RTVSPropertyOp58
 70
     1
102
RTVSPropertyOp59
 70
     1
102
RTVSPropertyOp60
 70
     1
102
RTVSPropertyOp61
 70
     1
102
RTVSPropertyOp62
 70
     1
  0
XRECORD
  5
8341
102
{ACAD_REACTORS
330
8340
102
}
330
8340
100
AcDbXrecord
280
     1
102
RTVSPost2010Prop28
280
     0
102
RTVSPost2010PropOp28
 70
     1
102
RTVSPost2010Prop29
280
     1
102
RTVSPost2010PropOp29
 70
     1
102
RTVSPost2010Prop30
280
     1
102
RTVSPost2010PropOp30
 70
     1
102
RTVSPost2010Prop31
280
     0
102
RTVSPost2010PropOp31
 70
     1
102
RTVSPost2010Prop32
280
     0
102
RTVSPost2010PropOp32
 70
     1
102
RTVSPost2010Prop33
280
     0
102
RTVSPost2010PropOp33
 70
     1
102
RTVSPost2010Prop34
280
     0
102
RTVSPost2010PropOp34
 70
     1
102
RTVSPost2010Prop35
280
     0
102
RTVSPost2010PropOp35
 70
     1
102
RTVSPost2010Prop36
280
     0
102
RTVSPost2010PropOp36
 70
     1
102
RTVSPost2010Prop37
 90
       50
102
RTVSPost2010PropOp37
 70
     1
102
RTVSPost2010Prop38
140
0.0
102
RTVSPost2010PropOp38
 70
     1
102
RTVSPost2010Prop39
140
1.0
102
RTVSPost2010PropOp39
 70
     1
102
RTVSPost2010Prop40
 90
        0
102
RTVSPost2010PropOp40
 70
     1
102
RTVSPost2010Prop41ColorIndex
 90
       18
102
RTVSPost2010Prop41ColorRGB
 90
        0
102
RTVSPost2010PropOp41
 70
     1
102
RTVSPost2010Prop42
 90
       50
102
RTVSPost2010PropOp42
 70
     1
102
RTVSPost2010Prop43
 90
        3
102
RTVSPost2010PropOp43
 70
     1
102
RTVSPost2010Prop44ColorIndex
 90
        5
102
RTVSPost2010Prop44ColorRGB
 90
      255
102
RTVSPost2010PropOp44
 70
     1
102
RTVSPost2010Prop45
280
     0
102
RTVSPost2010PropOp45
 70
     1
102
RTVSPost2010Prop46
 90
       50
102
RTVSPost2010PropOp46
 70
     1
102
RTVSPost2010Prop47
 90
       50
102
RTVSPost2010PropOp47
 70
     1
102
RTVSPost2010Prop48
 90
       50
102
RTVSPost2010PropOp48
 70
     1
102
RTVSPost2010Prop49
280
     0
102
RTVSPost2010PropOp49
 70
     1
102
RTVSPost2010Prop50
 90
       50
102
RTVSPost2010PropOp50
 70
     1
102
RTVSPost2010Prop51ColorIndex
 90
      256
102
RTVSPost2010Prop51ColorRGB
 90
-16777216
102
RTVSPost2010PropOp51
 70
     0
102
RTVSPost2010Prop52
140
1.0
102
RTVSPost2010PropOp52
 70
     0
102
RTVSPost2010Prop53
 90
        2
102
RTVSPost2010PropOp53
 70
     1
102
RTVSPost2010Prop54
  1
strokes_ogs.tif
102
RTVSPost2010PropOp54
 70
     1
102
RTVSPost2010Prop55
280
     0
102
RTVSPost2010PropOp55
 70
     1
102
RTVSPost2010Prop56
140
1.0
102
RTVSPost2010PropOp56
 70
     1
102
RTVSPost2010Prop57
140
1.0
102
RTVSPost2010PropOp57
 70
     1
102
RTVSPropertyOp0
 70
     1
102
RTVSPropertyOp1
 70
     1
102
RTVSPropertyOp2
 70
     1
102
RTVSPropertyOp3
 70
     1
102
RTVSPropertyOp4
 70
     1
102
RTVSPropertyOp5
 70
     1
102
RTVSPropertyOp6
 70
     1
102
RTVSPropertyOp7
 70
     1
102
RTVSPropertyOp8
 70
     1
102
RTVSPropertyOp9
 70
     1
102
RTVSPropertyOp10
 70
     1
102
RTVSPropertyOp11
 70
     1
102
RTVSPropertyOp12
 70
     1
102
RTVSPropertyOp13
 70
     1
102
RTVSPropertyOp14
 70
     1
102
RTVSPropertyOp15
 70
     1
102
RTVSPropertyOp16
 70
     1
102
RTVSPropertyOp17
 70
     1
102
RTVSPropertyOp18
 70
     1
102
RTVSPropertyOp19
 70
     1
102
RTVSPropertyOp20
 70
     1
102
RTVSPropertyOp21
 70
     1
102
RTVSPropertyOp22
 70
     1
102
RTVSPropertyOp23
 70
     1
102
RTVSPropertyOp24
 70
     1
102
RTVSPropertyOp25
 70
     1
102
RTVSPropertyOp26
 70
     1
102
RTVSPropertyOp27
 70
     1
102
RTVSPropertyOp28
 70
     1
102
RTVSPropertyOp29
 70
     1
102
RTVSPropertyOp30
 70
     1
102
RTVSPropertyOp31
 70
     1
102
RTVSPropertyOp32
 70
     1
102
RTVSPropertyOp33
 70
     1
102
RTVSPropertyOp34
 70
     1
102
RTVSPropertyOp35
 70
     1
102
RTVSPropertyOp36
 70
     1
102
RTVSPropertyOp37
 70
     1
102
RTVSPropertyOp38
 70
     1
102
RTVSPropertyOp39
 70
     1
102
RTVSPropertyOp40
 70
     1
102
RTVSPropertyOp41
 70
     1
102
RTVSPropertyOp42
 70
     1
102
RTVSPropertyOp43
 70
     1
102
RTVSPropertyOp44
 70
     1
102
RTVSPropertyOp45
 70
     1
102
RTVSPropertyOp46
 70
     1
102
RTVSPropertyOp47
 70
     1
102
RTVSPropertyOp48
 70
     1
102
RTVSPropertyOp49
 70
     1
102
RTVSPropertyOp50
 70
     1
102
RTVSPropertyOp51
 70
     0
102
RTVSPropertyOp52
 70
     0
102
RTVSPropertyOp53
 70
     1
102
RTVSPropertyOp54
 70
     1
102
RTVSPropertyOp55
 70
     1
102
RTVSPropertyOp56
 70
     1
102
RTVSPropertyOp57
 70
     1
102
RTVSPropertyOp58
 70
     1
102
RTVSPropertyOp59
 70
     1
102
RTVSPropertyOp60
 70
     1
102
RTVSPropertyOp61
 70
     1
102
RTVSPropertyOp62
 70
     1
  0
XRECORD
  5
8343
102
{ACAD_REACTORS
330
8342
102
}
330
8342
100
AcDbXrecord
280
     1
102
RTVSPost2010Prop28
280
     0
102
RTVSPost2010PropOp28
 70
     1
102
RTVSPost2010Prop29
280
     1
102
RTVSPost2010PropOp29
 70
     1
102
RTVSPost2010Prop30
280
     1
102
RTVSPost2010PropOp30
 70
     1
102
RTVSPost2010Prop31
280
     0
102
RTVSPost2010PropOp31
 70
     1
102
RTVSPost2010Prop32
280
     0
102
RTVSPost2010PropOp32
 70
     1
102
RTVSPost2010Prop33
280
     0
102
RTVSPost2010PropOp33
 70
     1
102
RTVSPost2010Prop34
280
     0
102
RTVSPost2010PropOp34
 70
     1
102
RTVSPost2010Prop35
280
     0
102
RTVSPost2010PropOp35
 70
     1
102
RTVSPost2010Prop36
280
     0
102
RTVSPost2010PropOp36
 70
     1
102
RTVSPost2010Prop37
 90
       50
102
RTVSPost2010PropOp37
 70
     1
102
RTVSPost2010Prop38
140
0.0
102
RTVSPost2010PropOp38
 70
     1
102
RTVSPost2010Prop39
140
1.0
102
RTVSPost2010PropOp39
 70
     1
102
RTVSPost2010Prop40
 90
        0
102
RTVSPost2010PropOp40
 70
     1
102
RTVSPost2010Prop41ColorIndex
 90
       18
102
RTVSPost2010Prop41ColorRGB
 90
        0
102
RTVSPost2010PropOp41
 70
     1
102
RTVSPost2010Prop42
 90
       50
102
RTVSPost2010PropOp42
 70
     1
102
RTVSPost2010Prop43
 90
        3
102
RTVSPost2010PropOp43
 70
     1
102
RTVSPost2010Prop44ColorIndex
 90
        5
102
RTVSPost2010Prop44ColorRGB
 90
      255
102
RTVSPost2010PropOp44
 70
     1
102
RTVSPost2010Prop45
280
     0
102
RTVSPost2010PropOp45
 70
     1
102
RTVSPost2010Prop46
 90
       50
102
RTVSPost2010PropOp46
 70
     1
102
RTVSPost2010Prop47
 90
       50
102
RTVSPost2010PropOp47
 70
     1
102
RTVSPost2010Prop48
 90
       50
102
RTVSPost2010PropOp48
 70
     1
102
RTVSPost2010Prop49
280
     0
102
RTVSPost2010PropOp49
 70
     1
102
RTVSPost2010Prop50
 90
       50
102
RTVSPost2010PropOp50
 70
     1
102
RTVSPost2010Prop51ColorIndex
 90
      256
102
RTVSPost2010Prop51ColorRGB
 90
-16777216
102
RTVSPost2010PropOp51
 70
     0
102
RTVSPost2010Prop52
140
1.0
102
RTVSPost2010PropOp52
 70
     0
102
RTVSPost2010Prop53
 90
        2
102
RTVSPost2010PropOp53
 70
     1
102
RTVSPost2010Prop54
  1
strokes_ogs.tif
102
RTVSPost2010PropOp54
 70
     1
102
RTVSPost2010Prop55
280
     0
102
RTVSPost2010PropOp55
 70
     1
102
RTVSPost2010Prop56
140
1.0
102
RTVSPost2010PropOp56
 70
     1
102
RTVSPost2010Prop57
140
1.0
102
RTVSPost2010PropOp57
 70
     1
102
RTVSPropertyOp0
 70
     1
102
RTVSPropertyOp1
 70
     1
102
RTVSPropertyOp2
 70
     1
102
RTVSPropertyOp3
 70
     1
102
RTVSPropertyOp4
 70
     1
102
RTVSPropertyOp5
 70
     1
102
RTVSPropertyOp6
 70
     1
102
RTVSPropertyOp7
 70
     1
102
RTVSPropertyOp8
 70
     1
102
RTVSPropertyOp9
 70
     1
102
RTVSPropertyOp10
 70
     1
102
RTVSPropertyOp11
 70
     1
102
RTVSPropertyOp12
 70
     1
102
RTVSPropertyOp13
 70
     1
102
RTVSPropertyOp14
 70
     1
102
RTVSPropertyOp15
 70
     1
102
RTVSPropertyOp16
 70
     1
102
RTVSPropertyOp17
 70
     1
102
RTVSPropertyOp18
 70
     1
102
RTVSPropertyOp19
 70
     1
102
RTVSPropertyOp20
 70
     1
102
RTVSPropertyOp21
 70
     1
102
RTVSPropertyOp22
 70
     1
102
RTVSPropertyOp23
 70
     1
102
RTVSPropertyOp24
 70
     1
102
RTVSPropertyOp25
 70
     1
102
RTVSPropertyOp26
 70
     1
102
RTVSPropertyOp27
 70
     1
102
RTVSPropertyOp28
 70
     1
102
RTVSPropertyOp29
 70
     1
102
RTVSPropertyOp30
 70
     1
102
RTVSPropertyOp31
 70
     1
102
RTVSPropertyOp32
 70
     1
102
RTVSPropertyOp33
 70
     1
102
RTVSPropertyOp34
 70
     1
102
RTVSPropertyOp35
 70
     1
102
RTVSPropertyOp36
 70
     1
102
RTVSPropertyOp37
 70
     1
102
RTVSPropertyOp38
 70
     1
102
RTVSPropertyOp39
 70
     1
102
RTVSPropertyOp40
 70
     1
102
RTVSPropertyOp41
 70
     1
102
RTVSPropertyOp42
 70
     1
102
RTVSPropertyOp43
 70
     1
102
RTVSPropertyOp44
 70
     1
102
RTVSPropertyOp45
 70
     1
102
RTVSPropertyOp46
 70
     1
102
RTVSPropertyOp47
 70
     1
102
RTVSPropertyOp48
 70
     1
102
RTVSPropertyOp49
 70
     1
102
RTVSPropertyOp50
 70
     1
102
RTVSPropertyOp51
 70
     0
102
RTVSPropertyOp52
 70
     0
102
RTVSPropertyOp53
 70
     1
102
RTVSPropertyOp54
 70
     1
102
RTVSPropertyOp55
 70
     1
102
RTVSPropertyOp56
 70
     1
102
RTVSPropertyOp57
 70
     1
102
RTVSPropertyOp58
 70
     1
102
RTVSPropertyOp59
 70
     1
102
RTVSPropertyOp60
 70
     1
102
RTVSPropertyOp61
 70
     1
102
RTVSPropertyOp62
 70
     1
  0
XRECORD
  5
8345
102
{ACAD_REACTORS
330
8344
102
}
330
8344
100
AcDbXrecord
280
     1
102
RTVSPost2010Prop28
280
     0
102
RTVSPost2010PropOp28
 70
     1
102
RTVSPost2010Prop29
280
     1
102
RTVSPost2010PropOp29
 70
     1
102
RTVSPost2010Prop30
280
     1
102
RTVSPost2010PropOp30
 70
     1
102
RTVSPost2010Prop31
280
     0
102
RTVSPost2010PropOp31
 70
     1
102
RTVSPost2010Prop32
280
     0
102
RTVSPost2010PropOp32
 70
     1
102
RTVSPost2010Prop33
280
     0
102
RTVSPost2010PropOp33
 70
     1
102
RTVSPost2010Prop34
280
     0
102
RTVSPost2010PropOp34
 70
     1
102
RTVSPost2010Prop35
280
     0
102
RTVSPost2010PropOp35
 70
     1
102
RTVSPost2010Prop36
280
     0
102
RTVSPost2010PropOp36
 70
     1
102
RTVSPost2010Prop37
 90
       50
102
RTVSPost2010PropOp37
 70
     1
102
RTVSPost2010Prop38
140
0.0
102
RTVSPost2010PropOp38
 70
     1
102
RTVSPost2010Prop39
140
1.0
102
RTVSPost2010PropOp39
 70
     1
102
RTVSPost2010Prop40
 90
        0
102
RTVSPost2010PropOp40
 70
     1
102
RTVSPost2010Prop41ColorIndex
 90
       18
102
RTVSPost2010Prop41ColorRGB
 90
        0
102
RTVSPost2010PropOp41
 70
     1
102
RTVSPost2010Prop42
 90
       50
102
RTVSPost2010PropOp42
 70
     1
102
RTVSPost2010Prop43
 90
        3
102
RTVSPost2010PropOp43
 70
     1
102
RTVSPost2010Prop44ColorIndex
 90
        5
102
RTVSPost2010Prop44ColorRGB
 90
      255
102
RTVSPost2010PropOp44
 70
     1
102
RTVSPost2010Prop45
280
     0
102
RTVSPost2010PropOp45
 70
     1
102
RTVSPost2010Prop46
 90
       50
102
RTVSPost2010PropOp46
 70
     1
102
RTVSPost2010Prop47
 90
       50
102
RTVSPost2010PropOp47
 70
     1
102
RTVSPost2010Prop48
 90
       50
102
RTVSPost2010PropOp48
 70
     1
102
RTVSPost2010Prop49
280
     0
102
RTVSPost2010PropOp49
 70
     1
102
RTVSPost2010Prop50
 90
       50
102
RTVSPost2010PropOp50
 70
     1
102
RTVSPost2010Prop51ColorIndex
 90
      256
102
RTVSPost2010Prop51ColorRGB
 90
-16777216
102
RTVSPost2010PropOp51
 70
     0
102
RTVSPost2010Prop52
140
1.0
102
RTVSPost2010PropOp52
 70
     0
102
RTVSPost2010Prop53
 90
        2
102
RTVSPost2010PropOp53
 70
     1
102
RTVSPost2010Prop54
  1
strokes_ogs.tif
102
RTVSPost2010PropOp54
 70
     1
102
RTVSPost2010Prop55
280
     0
102
RTVSPost2010PropOp55
 70
     1
102
RTVSPost2010Prop56
140
1.0
102
RTVSPost2010PropOp56
 70
     1
102
RTVSPost2010Prop57
140
1.0
102
RTVSPost2010PropOp57
 70
     1
102
RTVSPropertyOp0
 70
     1
102
RTVSPropertyOp1
 70
     1
102
RTVSPropertyOp2
 70
     1
102
RTVSPropertyOp3
 70
     1
102
RTVSPropertyOp4
 70
     1
102
RTVSPropertyOp5
 70
     1
102
RTVSPropertyOp6
 70
     1
102
RTVSPropertyOp7
 70
     1
102
RTVSPropertyOp8
 70
     1
102
RTVSPropertyOp9
 70
     1
102
RTVSPropertyOp10
 70
     1
102
RTVSPropertyOp11
 70
     1
102
RTVSPropertyOp12
 70
     1
102
RTVSPropertyOp13
 70
     1
102
RTVSPropertyOp14
 70
     1
102
RTVSPropertyOp15
 70
     1
102
RTVSPropertyOp16
 70
     1
102
RTVSPropertyOp17
 70
     1
102
RTVSPropertyOp18
 70
     1
102
RTVSPropertyOp19
 70
     1
102
RTVSPropertyOp20
 70
     1
102
RTVSPropertyOp21
 70
     1
102
RTVSPropertyOp22
 70
     1
102
RTVSPropertyOp23
 70
     1
102
RTVSPropertyOp24
 70
     1
102
RTVSPropertyOp25
 70
     1
102
RTVSPropertyOp26
 70
     1
102
RTVSPropertyOp27
 70
     1
102
RTVSPropertyOp28
 70
     1
102
RTVSPropertyOp29
 70
     1
102
RTVSPropertyOp30
 70
     1
102
RTVSPropertyOp31
 70
     1
102
RTVSPropertyOp32
 70
     1
102
RTVSPropertyOp33
 70
     1
102
RTVSPropertyOp34
 70
     1
102
RTVSPropertyOp35
 70
     1
102
RTVSPropertyOp36
 70
     1
102
RTVSPropertyOp37
 70
     1
102
RTVSPropertyOp38
 70
     1
102
RTVSPropertyOp39
 70
     1
102
RTVSPropertyOp40
 70
     1
102
RTVSPropertyOp41
 70
     1
102
RTVSPropertyOp42
 70
     1
102
RTVSPropertyOp43
 70
     1
102
RTVSPropertyOp44
 70
     1
102
RTVSPropertyOp45
 70
     1
102
RTVSPropertyOp46
 70
     1
102
RTVSPropertyOp47
 70
     1
102
RTVSPropertyOp48
 70
     1
102
RTVSPropertyOp49
 70
     1
102
RTVSPropertyOp50
 70
     1
102
RTVSPropertyOp51
 70
     0
102
RTVSPropertyOp52
 70
     0
102
RTVSPropertyOp53
 70
     1
102
RTVSPropertyOp54
 70
     1
102
RTVSPropertyOp55
 70
     1
102
RTVSPropertyOp56
 70
     1
102
RTVSPropertyOp57
 70
     1
102
RTVSPropertyOp58
 70
     1
102
RTVSPropertyOp59
 70
     1
102
RTVSPropertyOp60
 70
     1
102
RTVSPropertyOp61
 70
     1
102
RTVSPropertyOp62
 70
     1
  0
XRECORD
  5
834D
102
{ACAD_REACTORS
330
834C
102
}
330
834C
100
AcDbXrecord
280
     1
102
RTVSPost2010Prop28
280
     0
102
RTVSPost2010PropOp28
 70
     1
102
RTVSPost2010Prop29
280
     1
102
RTVSPost2010PropOp29
 70
     1
102
RTVSPost2010Prop30
280
     1
102
RTVSPost2010PropOp30
 70
     1
102
RTVSPost2010Prop31
280
     0
102
RTVSPost2010PropOp31
 70
     1
102
RTVSPost2010Prop32
280
     0
102
RTVSPost2010PropOp32
 70
     1
102
RTVSPost2010Prop33
280
     0
102
RTVSPost2010PropOp33
 70
     1
102
RTVSPost2010Prop34
280
     0
102
RTVSPost2010PropOp34
 70
     1
102
RTVSPost2010Prop35
280
     0
102
RTVSPost2010PropOp35
 70
     1
102
RTVSPost2010Prop36
280
     0
102
RTVSPost2010PropOp36
 70
     1
102
RTVSPost2010Prop37
 90
       50
102
RTVSPost2010PropOp37
 70
     1
102
RTVSPost2010Prop38
140
0.0
102
RTVSPost2010PropOp38
 70
     1
102
RTVSPost2010Prop39
140
1.0
102
RTVSPost2010PropOp39
 70
     1
102
RTVSPost2010Prop40
 90
        0
102
RTVSPost2010PropOp40
 70
     1
102
RTVSPost2010Prop41ColorIndex
 90
       18
102
RTVSPost2010Prop41ColorRGB
 90
        0
102
RTVSPost2010PropOp41
 70
     1
102
RTVSPost2010Prop42
 90
       50
102
RTVSPost2010PropOp42
 70
     1
102
RTVSPost2010Prop43
 90
        3
102
RTVSPost2010PropOp43
 70
     1
102
RTVSPost2010Prop44ColorIndex
 90
        5
102
RTVSPost2010Prop44ColorRGB
 90
      255
102
RTVSPost2010PropOp44
 70
     1
102
RTVSPost2010Prop45
280
     0
102
RTVSPost2010PropOp45
 70
     1
102
RTVSPost2010Prop46
 90
       50
102
RTVSPost2010PropOp46
 70
     1
102
RTVSPost2010Prop47
 90
       50
102
RTVSPost2010PropOp47
 70
     1
102
RTVSPost2010Prop48
 90
       50
102
RTVSPost2010PropOp48
 70
     1
102
RTVSPost2010Prop49
280
     0
102
RTVSPost2010PropOp49
 70
     1
102
RTVSPost2010Prop50
 90
       50
102
RTVSPost2010PropOp50
 70
     1
102
RTVSPost2010Prop51ColorIndex
 90
      256
102
RTVSPost2010Prop51ColorRGB
 90
-16777216
102
RTVSPost2010PropOp51
 70
     0
102
RTVSPost2010Prop52
140
1.0
102
RTVSPost2010PropOp52
 70
     0
102
RTVSPost2010Prop53
 90
        2
102
RTVSPost2010PropOp53
 70
     1
102
RTVSPost2010Prop54
  1
strokes_ogs.tif
102
RTVSPost2010PropOp54
 70
     1
102
RTVSPost2010Prop55
280
     0
102
RTVSPost2010PropOp55
 70
     1
102
RTVSPost2010Prop56
140
1.0
102
RTVSPost2010PropOp56
 70
     1
102
RTVSPost2010Prop57
140
1.0
102
RTVSPost2010PropOp57
 70
     1
102
RTVSPropertyOp0
 70
     1
102
RTVSPropertyOp1
 70
     1
102
RTVSPropertyOp2
 70
     1
102
RTVSPropertyOp3
 70
     1
102
RTVSPropertyOp4
 70
     1
102
RTVSPropertyOp5
 70
     1
102
RTVSPropertyOp6
 70
     1
102
RTVSPropertyOp7
 70
     1
102
RTVSPropertyOp8
 70
     1
102
RTVSPropertyOp9
 70
     1
102
RTVSPropertyOp10
 70
     1
102
RTVSPropertyOp11
 70
     1
102
RTVSPropertyOp12
 70
     1
102
RTVSPropertyOp13
 70
     1
102
RTVSPropertyOp14
 70
     1
102
RTVSPropertyOp15
 70
     1
102
RTVSPropertyOp16
 70
     1
102
RTVSPropertyOp17
 70
     1
102
RTVSPropertyOp18
 70
     1
102
RTVSPropertyOp19
 70
     1
102
RTVSPropertyOp20
 70
     1
102
RTVSPropertyOp21
 70
     1
102
RTVSPropertyOp22
 70
     1
102
RTVSPropertyOp23
 70
     1
102
RTVSPropertyOp24
 70
     1
102
RTVSPropertyOp25
 70
     1
102
RTVSPropertyOp26
 70
     1
102
RTVSPropertyOp27
 70
     1
102
RTVSPropertyOp28
 70
     1
102
RTVSPropertyOp29
 70
     1
102
RTVSPropertyOp30
 70
     1
102
RTVSPropertyOp31
 70
     1
102
RTVSPropertyOp32
 70
     1
102
RTVSPropertyOp33
 70
     1
102
RTVSPropertyOp34
 70
     1
102
RTVSPropertyOp35
 70
     1
102
RTVSPropertyOp36
 70
     1
102
RTVSPropertyOp37
 70
     1
102
RTVSPropertyOp38
 70
     1
102
RTVSPropertyOp39
 70
     1
102
RTVSPropertyOp40
 70
     1
102
RTVSPropertyOp41
 70
     1
102
RTVSPropertyOp42
 70
     1
102
RTVSPropertyOp43
 70
     1
102
RTVSPropertyOp44
 70
     1
102
RTVSPropertyOp45
 70
     1
102
RTVSPropertyOp46
 70
     1
102
RTVSPropertyOp47
 70
     1
102
RTVSPropertyOp48
 70
     1
102
RTVSPropertyOp49
 70
     1
102
RTVSPropertyOp50
 70
     1
102
RTVSPropertyOp51
 70
     0
102
RTVSPropertyOp52
 70
     0
102
RTVSPropertyOp53
 70
     1
102
RTVSPropertyOp54
 70
     1
102
RTVSPropertyOp55
 70
     1
102
RTVSPropertyOp56
 70
     1
102
RTVSPropertyOp57
 70
     1
102
RTVSPropertyOp58
 70
     1
102
RTVSPropertyOp59
 70
     1
102
RTVSPropertyOp60
 70
     1
102
RTVSPropertyOp61
 70
     1
102
RTVSPropertyOp62
 70
     1
  0
XRECORD
  5
8369
102
{ACAD_REACTORS
330
8368
102
}
330
8368
100
AcDbXrecord
280
     1
102
RTVSPost2010Prop28
280
     0
102
RTVSPost2010PropOp28
 70
     1
102
RTVSPost2010Prop29
280
     1
102
RTVSPost2010PropOp29
 70
     1
102
RTVSPost2010Prop30
280
     1
102
RTVSPost2010PropOp30
 70
     1
102
RTVSPost2010Prop31
280
     0
102
RTVSPost2010PropOp31
 70
     1
102
RTVSPost2010Prop32
280
     0
102
RTVSPost2010PropOp32
 70
     1
102
RTVSPost2010Prop33
280
     0
102
RTVSPost2010PropOp33
 70
     1
102
RTVSPost2010Prop34
280
     0
102
RTVSPost2010PropOp34
 70
     1
102
RTVSPost2010Prop35
280
     0
102
RTVSPost2010PropOp35
 70
     1
102
RTVSPost2010Prop36
280
     0
102
RTVSPost2010PropOp36
 70
     1
102
RTVSPost2010Prop37
 90
       50
102
RTVSPost2010PropOp37
 70
     0
102
RTVSPost2010Prop38
140
0.0
102
RTVSPost2010PropOp38
 70
     0
102
RTVSPost2010Prop39
140
1.0
102
RTVSPost2010PropOp39
 70
     0
102
RTVSPost2010Prop40
 90
        0
102
RTVSPost2010PropOp40
 70
     0
102
RTVSPost2010Prop41ColorIndex
 90
       18
102
RTVSPost2010Prop41ColorRGB
 90
        0
102
RTVSPost2010PropOp41
 70
     0
102
RTVSPost2010Prop42
 90
       50
102
RTVSPost2010PropOp42
 70
     0
102
RTVSPost2010Prop43
 90
        3
102
RTVSPost2010PropOp43
 70
     0
102
RTVSPost2010Prop44ColorIndex
 90
        5
102
RTVSPost2010Prop44ColorRGB
 90
      255
102
RTVSPost2010PropOp44
 70
     0
102
RTVSPost2010Prop45
280
     0
102
RTVSPost2010PropOp45
 70
     1
102
RTVSPost2010Prop46
 90
       50
102
RTVSPost2010PropOp46
 70
     0
102
RTVSPost2010Prop47
 90
       50
102
RTVSPost2010PropOp47
 70
     0
102
RTVSPost2010Prop48
 90
       50
102
RTVSPost2010PropOp48
 70
     0
102
RTVSPost2010Prop49
280
     0
102
RTVSPost2010PropOp49
 70
     1
102
RTVSPost2010Prop50
 90
       50
102
RTVSPost2010PropOp50
 70
     0
102
RTVSPost2010Prop51ColorIndex
 90
      256
102
RTVSPost2010Prop51ColorRGB
 90
-16777216
102
RTVSPost2010PropOp51
 70
     0
102
RTVSPost2010Prop52
140
1.0
102
RTVSPost2010PropOp52
 70
     0
102
RTVSPost2010Prop53
 90
        2
102
RTVSPost2010PropOp53
 70
     0
102
RTVSPost2010Prop54
  1
strokes_ogs.tif
102
RTVSPost2010PropOp54
 70
     0
102
RTVSPost2010Prop55
280
     0
102
RTVSPost2010PropOp55
 70
     1
102
RTVSPost2010Prop56
140
1.0
102
RTVSPost2010PropOp56
 70
     0
102
RTVSPost2010Prop57
140
1.0
102
RTVSPost2010PropOp57
 70
     0
102
RTVSPropertyOp0
 70
     0
102
RTVSPropertyOp1
 70
     0
102
RTVSPropertyOp2
 70
     0
102
RTVSPropertyOp3
 70
     0
102
RTVSPropertyOp4
 70
     0
102
RTVSPropertyOp5
 70
     0
102
RTVSPropertyOp6
 70
     0
102
RTVSPropertyOp7
 70
     0
102
RTVSPropertyOp8
 70
     0
102
RTVSPropertyOp9
 70
     0
102
RTVSPropertyOp10
 70
     0
102
RTVSPropertyOp11
 70
     0
102
RTVSPropertyOp12
 70
     0
102
RTVSPropertyOp13
 70
     0
102
RTVSPropertyOp14
 70
     2
102
RTVSPropertyOp15
 70
     0
102
RTVSPropertyOp16
 70
     0
102
RTVSPropertyOp17
 70
     0
102
RTVSPropertyOp18
 70
     0
102
RTVSPropertyOp19
 70
     0
102
RTVSPropertyOp20
 70
     0
102
RTVSPropertyOp21
 70
     0
102
RTVSPropertyOp22
 70
     0
102
RTVSPropertyOp23
 70
     0
102
RTVSPropertyOp24
 70
     0
102
RTVSPropertyOp25
 70
     0
102
RTVSPropertyOp26
 70
     0
102
RTVSPropertyOp27
 70
     0
102
RTVSPropertyOp28
 70
     1
102
RTVSPropertyOp29
 70
     1
102
RTVSPropertyOp30
 70
     1
102
RTVSPropertyOp31
 70
     1
102
RTVSPropertyOp32
 70
     1
102
RTVSPropertyOp33
 70
     1
102
RTVSPropertyOp34
 70
     1
102
RTVSPropertyOp35
 70
     1
102
RTVSPropertyOp36
 70
     1
102
RTVSPropertyOp37
 70
     0
102
RTVSPropertyOp38
 70
     0
102
RTVSPropertyOp39
 70
     0
102
RTVSPropertyOp40
 70
     0
102
RTVSPropertyOp41
 70
     0
102
RTVSPropertyOp42
 70
     0
102
RTVSPropertyOp43
 70
     0
102
RTVSPropertyOp44
 70
     0
102
RTVSPropertyOp45
 70
     1
102
RTVSPropertyOp46
 70
     0
102
RTVSPropertyOp47
 70
     0
102
RTVSPropertyOp48
 70
     0
102
RTVSPropertyOp49
 70
     1
102
RTVSPropertyOp50
 70
     0
102
RTVSPropertyOp51
 70
     0
102
RTVSPropertyOp52
 70
     0
102
RTVSPropertyOp53
 70
     0
102
RTVSPropertyOp54
 70
     0
102
RTVSPropertyOp55
 70
     1
102
RTVSPropertyOp56
 70
     0
102
RTVSPropertyOp57
 70
     0
102
RTVSPropertyOp58
 70
     0
102
RTVSPropertyOp59
 70
     0
102
RTVSPropertyOp60
 70
     0
102
RTVSPropertyOp61
 70
     0
102
RTVSPropertyOp62
 70
     0
  0
XRECORD
  5
8359
102
{ACAD_REACTORS
330
8358
102
}
330
8358
100
AcDbXrecord
280
     1
102
RTVSPost2010Prop28
280
     0
102
RTVSPost2010PropOp28
 70
     1
102
RTVSPost2010Prop29
280
     1
102
RTVSPost2010PropOp29
 70
     1
102
RTVSPost2010Prop30
280
     1
102
RTVSPost2010PropOp30
 70
     1
102
RTVSPost2010Prop31
280
     0
102
RTVSPost2010PropOp31
 70
     1
102
RTVSPost2010Prop32
280
     0
102
RTVSPost2010PropOp32
 70
     1
102
RTVSPost2010Prop33
280
     0
102
RTVSPost2010PropOp33
 70
     1
102
RTVSPost2010Prop34
280
     0
102
RTVSPost2010PropOp34
 70
     1
102
RTVSPost2010Prop35
280
     0
102
RTVSPost2010PropOp35
 70
     1
102
RTVSPost2010Prop36
280
     0
102
RTVSPost2010PropOp36
 70
     1
102
RTVSPost2010Prop37
 90
       50
102
RTVSPost2010PropOp37
 70
     1
102
RTVSPost2010Prop38
140
0.0
102
RTVSPost2010PropOp38
 70
     1
102
RTVSPost2010Prop39
140
1.0
102
RTVSPost2010PropOp39
 70
     1
102
RTVSPost2010Prop40
 90
        0
102
RTVSPost2010PropOp40
 70
     1
102
RTVSPost2010Prop41ColorIndex
 90
       18
102
RTVSPost2010Prop41ColorRGB
 90
        0
102
RTVSPost2010PropOp41
 70
     1
102
RTVSPost2010Prop42
 90
       50
102
RTVSPost2010PropOp42
 70
     1
102
RTVSPost2010Prop43
 90
        3
102
RTVSPost2010PropOp43
 70
     1
102
RTVSPost2010Prop44ColorIndex
 90
        5
102
RTVSPost2010Prop44ColorRGB
 90
      255
102
RTVSPost2010PropOp44
 70
     1
102
RTVSPost2010Prop45
280
     0
102
RTVSPost2010PropOp45
 70
     1
102
RTVSPost2010Prop46
 90
       50
102
RTVSPost2010PropOp46
 70
     1
102
RTVSPost2010Prop47
 90
       50
102
RTVSPost2010PropOp47
 70
     1
102
RTVSPost2010Prop48
 90
       50
102
RTVSPost2010PropOp48
 70
     1
102
RTVSPost2010Prop49
280
     0
102
RTVSPost2010PropOp49
 70
     1
102
RTVSPost2010Prop50
 90
       50
102
RTVSPost2010PropOp50
 70
     1
102
RTVSPost2010Prop51ColorIndex
 90
      256
102
RTVSPost2010Prop51ColorRGB
 90
-16777216
102
RTVSPost2010PropOp51
 70
     0
102
RTVSPost2010Prop52
140
1.0
102
RTVSPost2010PropOp52
 70
     0
102
RTVSPost2010Prop53
 90
        2
102
RTVSPost2010PropOp53
 70
     1
102
RTVSPost2010Prop54
  1
strokes_ogs.tif
102
RTVSPost2010PropOp54
 70
     1
102
RTVSPost2010Prop55
280
     0
102
RTVSPost2010PropOp55
 70
     1
102
RTVSPost2010Prop56
140
1.0
102
RTVSPost2010PropOp56
 70
     1
102
RTVSPost2010Prop57
140
1.0
102
RTVSPost2010PropOp57
 70
     1
102
RTVSPropertyOp0
 70
     1
102
RTVSPropertyOp1
 70
     1
102
RTVSPropertyOp2
 70
     1
102
RTVSPropertyOp3
 70
     1
102
RTVSPropertyOp4
 70
     1
102
RTVSPropertyOp5
 70
     1
102
RTVSPropertyOp6
 70
     1
102
RTVSPropertyOp7
 70
     1
102
RTVSPropertyOp8
 70
     1
102
RTVSPropertyOp9
 70
     1
102
RTVSPropertyOp10
 70
     1
102
RTVSPropertyOp11
 70
     1
102
RTVSPropertyOp12
 70
     1
102
RTVSPropertyOp13
 70
     1
102
RTVSPropertyOp14
 70
     1
102
RTVSPropertyOp15
 70
     1
102
RTVSPropertyOp16
 70
     1
102
RTVSPropertyOp17
 70
     1
102
RTVSPropertyOp18
 70
     1
102
RTVSPropertyOp19
 70
     1
102
RTVSPropertyOp20
 70
     1
102
RTVSPropertyOp21
 70
     1
102
RTVSPropertyOp22
 70
     1
102
RTVSPropertyOp23
 70
     1
102
RTVSPropertyOp24
 70
     1
102
RTVSPropertyOp25
 70
     1
102
RTVSPropertyOp26
 70
     1
102
RTVSPropertyOp27
 70
     1
102
RTVSPropertyOp28
 70
     1
102
RTVSPropertyOp29
 70
     1
102
RTVSPropertyOp30
 70
     1
102
RTVSPropertyOp31
 70
     1
102
RTVSPropertyOp32
 70
     1
102
RTVSPropertyOp33
 70
     1
102
RTVSPropertyOp34
 70
     1
102
RTVSPropertyOp35
 70
     1
102
RTVSPropertyOp36
 70
     1
102
RTVSPropertyOp37
 70
     1
102
RTVSPropertyOp38
 70
     1
102
RTVSPropertyOp39
 70
     1
102
RTVSPropertyOp40
 70
     1
102
RTVSPropertyOp41
 70
     1
102
RTVSPropertyOp42
 70
     1
102
RTVSPropertyOp43
 70
     1
102
RTVSPropertyOp44
 70
     1
102
RTVSPropertyOp45
 70
     1
102
RTVSPropertyOp46
 70
     1
102
RTVSPropertyOp47
 70
     1
102
RTVSPropertyOp48
 70
     1
102
RTVSPropertyOp49
 70
     1
102
RTVSPropertyOp50
 70
     1
102
RTVSPropertyOp51
 70
     0
102
RTVSPropertyOp52
 70
     0
102
RTVSPropertyOp53
 70
     1
102
RTVSPropertyOp54
 70
     1
102
RTVSPropertyOp55
 70
     1
102
RTVSPropertyOp56
 70
     1
102
RTVSPropertyOp57
 70
     1
102
RTVSPropertyOp58
 70
     1
102
RTVSPropertyOp59
 70
     1
102
RTVSPropertyOp60
 70
     1
102
RTVSPropertyOp61
 70
     1
102
RTVSPropertyOp62
 70
     1
  0
XRECORD
  5
836B
102
{ACAD_REACTORS
330
836A
102
}
330
836A
100
AcDbXrecord
280
     1
102
RTVSPost2010Prop28
280
     0
102
RTVSPost2010PropOp28
 70
     1
102
RTVSPost2010Prop29
280
     1
102
RTVSPost2010PropOp29
 70
     1
102
RTVSPost2010Prop30
280
     1
102
RTVSPost2010PropOp30
 70
     1
102
RTVSPost2010Prop31
280
     0
102
RTVSPost2010PropOp31
 70
     1
102
RTVSPost2010Prop32
280
     0
102
RTVSPost2010PropOp32
 70
     1
102
RTVSPost2010Prop33
280
     0
102
RTVSPost2010PropOp33
 70
     1
102
RTVSPost2010Prop34
280
     0
102
RTVSPost2010PropOp34
 70
     1
102
RTVSPost2010Prop35
280
     0
102
RTVSPost2010PropOp35
 70
     1
102
RTVSPost2010Prop36
280
     0
102
RTVSPost2010PropOp36
 70
     1
102
RTVSPost2010Prop37
 90
       50
102
RTVSPost2010PropOp37
 70
     0
102
RTVSPost2010Prop38
140
0.0
102
RTVSPost2010PropOp38
 70
     0
102
RTVSPost2010Prop39
140
1.0
102
RTVSPost2010PropOp39
 70
     0
102
RTVSPost2010Prop40
 90
        0
102
RTVSPost2010PropOp40
 70
     0
102
RTVSPost2010Prop41ColorIndex
 90
       18
102
RTVSPost2010Prop41ColorRGB
 90
        0
102
RTVSPost2010PropOp41
 70
     0
102
RTVSPost2010Prop42
 90
       50
102
RTVSPost2010PropOp42
 70
     0
102
RTVSPost2010Prop43
 90
        3
102
RTVSPost2010PropOp43
 70
     0
102
RTVSPost2010Prop44ColorIndex
 90
        5
102
RTVSPost2010Prop44ColorRGB
 90
      255
102
RTVSPost2010PropOp44
 70
     0
102
RTVSPost2010Prop45
280
     0
102
RTVSPost2010PropOp45
 70
     1
102
RTVSPost2010Prop46
 90
       50
102
RTVSPost2010PropOp46
 70
     0
102
RTVSPost2010Prop47
 90
       50
102
RTVSPost2010PropOp47
 70
     0
102
RTVSPost2010Prop48
 90
       50
102
RTVSPost2010PropOp48
 70
     0
102
RTVSPost2010Prop49
280
     0
102
RTVSPost2010PropOp49
 70
     1
102
RTVSPost2010Prop50
 90
       50
102
RTVSPost2010PropOp50
 70
     0
102
RTVSPost2010Prop51ColorIndex
 90
      256
102
RTVSPost2010Prop51ColorRGB
 90
-16777216
102
RTVSPost2010PropOp51
 70
     0
102
RTVSPost2010Prop52
140
1.0
102
RTVSPost2010PropOp52
 70
     0
102
RTVSPost2010Prop53
 90
        2
102
RTVSPost2010PropOp53
 70
     0
102
RTVSPost2010Prop54
  1
strokes_ogs.tif
102
RTVSPost2010PropOp54
 70
     0
102
RTVSPost2010Prop55
280
     0
102
RTVSPost2010PropOp55
 70
     1
102
RTVSPost2010Prop56
140
1.0
102
RTVSPost2010PropOp56
 70
     0
102
RTVSPost2010Prop57
140
1.0
102
RTVSPost2010PropOp57
 70
     0
102
RTVSPropertyOp0
 70
     0
102
RTVSPropertyOp1
 70
     0
102
RTVSPropertyOp2
 70
     0
102
RTVSPropertyOp3
 70
     0
102
RTVSPropertyOp4
 70
     0
102
RTVSPropertyOp5
 70
     0
102
RTVSPropertyOp6
 70
     0
102
RTVSPropertyOp7
 70
     0
102
RTVSPropertyOp8
 70
     0
102
RTVSPropertyOp9
 70
     0
102
RTVSPropertyOp10
 70
     0
102
RTVSPropertyOp11
 70
     0
102
RTVSPropertyOp12
 70
     0
102
RTVSPropertyOp13
 70
     0
102
RTVSPropertyOp14
 70
     2
102
RTVSPropertyOp15
 70
     0
102
RTVSPropertyOp16
 70
     0
102
RTVSPropertyOp17
 70
     0
102
RTVSPropertyOp18
 70
     0
102
RTVSPropertyOp19
 70
     0
102
RTVSPropertyOp20
 70
     0
102
RTVSPropertyOp21
 70
     0
102
RTVSPropertyOp22
 70
     0
102
RTVSPropertyOp23
 70
     0
102
RTVSPropertyOp24
 70
     0
102
RTVSPropertyOp25
 70
     0
102
RTVSPropertyOp26
 70
     0
102
RTVSPropertyOp27
 70
     0
102
RTVSPropertyOp28
 70
     1
102
RTVSPropertyOp29
 70
     1
102
RTVSPropertyOp30
 70
     1
102
RTVSPropertyOp31
 70
     1
102
RTVSPropertyOp32
 70
     1
102
RTVSPropertyOp33
 70
     1
102
RTVSPropertyOp34
 70
     1
102
RTVSPropertyOp35
 70
     1
102
RTVSPropertyOp36
 70
     1
102
RTVSPropertyOp37
 70
     0
102
RTVSPropertyOp38
 70
     0
102
RTVSPropertyOp39
 70
     0
102
RTVSPropertyOp40
 70
     0
102
RTVSPropertyOp41
 70
     0
102
RTVSPropertyOp42
 70
     0
102
RTVSPropertyOp43
 70
     0
102
RTVSPropertyOp44
 70
     0
102
RTVSPropertyOp45
 70
     1
102
RTVSPropertyOp46
 70
     0
102
RTVSPropertyOp47
 70
     0
102
RTVSPropertyOp48
 70
     0
102
RTVSPropertyOp49
 70
     1
102
RTVSPropertyOp50
 70
     0
102
RTVSPropertyOp51
 70
     0
102
RTVSPropertyOp52
 70
     0
102
RTVSPropertyOp53
 70
     0
102
RTVSPropertyOp54
 70
     0
102
RTVSPropertyOp55
 70
     1
102
RTVSPropertyOp56
 70
     0
102
RTVSPropertyOp57
 70
     0
102
RTVSPropertyOp58
 70
     0
102
RTVSPropertyOp59
 70
     0
102
RTVSPropertyOp60
 70
     0
102
RTVSPropertyOp61
 70
     0
102
RTVSPropertyOp62
 70
     0
  0
XRECORD
  5
8351
102
{ACAD_REACTORS
330
8350
102
}
330
8350
100
AcDbXrecord
280
     1
102
RTVSPost2010Prop28
280
     0
102
RTVSPost2010PropOp28
 70
     1
102
RTVSPost2010Prop29
280
     1
102
RTVSPost2010PropOp29
 70
     1
102
RTVSPost2010Prop30
280
     1
102
RTVSPost2010PropOp30
 70
     1
102
RTVSPost2010Prop31
280
     0
102
RTVSPost2010PropOp31
 70
     1
102
RTVSPost2010Prop32
280
     0
102
RTVSPost2010PropOp32
 70
     1
102
RTVSPost2010Prop33
280
     0
102
RTVSPost2010PropOp33
 70
     1
102
RTVSPost2010Prop34
280
     0
102
RTVSPost2010PropOp34
 70
     1
102
RTVSPost2010Prop35
280
     0
102
RTVSPost2010PropOp35
 70
     1
102
RTVSPost2010Prop36
280
     0
102
RTVSPost2010PropOp36
 70
     1
102
RTVSPost2010Prop37
 90
       50
102
RTVSPost2010PropOp37
 70
     1
102
RTVSPost2010Prop38
140
0.0
102
RTVSPost2010PropOp38
 70
     1
102
RTVSPost2010Prop39
140
1.0
102
RTVSPost2010PropOp39
 70
     1
102
RTVSPost2010Prop40
 90
        0
102
RTVSPost2010PropOp40
 70
     1
102
RTVSPost2010Prop41ColorIndex
 90
       18
102
RTVSPost2010Prop41ColorRGB
 90
        0
102
RTVSPost2010PropOp41
 70
     1
102
RTVSPost2010Prop42
 90
       50
102
RTVSPost2010PropOp42
 70
     1
102
RTVSPost2010Prop43
 90
        3
102
RTVSPost2010PropOp43
 70
     1
102
RTVSPost2010Prop44ColorIndex
 90
        5
102
RTVSPost2010Prop44ColorRGB
 90
      255
102
RTVSPost2010PropOp44
 70
     1
102
RTVSPost2010Prop45
280
     0
102
RTVSPost2010PropOp45
 70
     1
102
RTVSPost2010Prop46
 90
       50
102
RTVSPost2010PropOp46
 70
     1
102
RTVSPost2010Prop47
 90
       50
102
RTVSPost2010PropOp47
 70
     1
102
RTVSPost2010Prop48
 90
       50
102
RTVSPost2010PropOp48
 70
     1
102
RTVSPost2010Prop49
280
     0
102
RTVSPost2010PropOp49
 70
     1
102
RTVSPost2010Prop50
 90
       50
102
RTVSPost2010PropOp50
 70
     1
102
RTVSPost2010Prop51ColorIndex
 90
      256
102
RTVSPost2010Prop51ColorRGB
 90
-16777216
102
RTVSPost2010PropOp51
 70
     0
102
RTVSPost2010Prop52
140
1.0
102
RTVSPost2010PropOp52
 70
     0
102
RTVSPost2010Prop53
 90
        2
102
RTVSPost2010PropOp53
 70
     1
102
RTVSPost2010Prop54
  1
strokes_ogs.tif
102
RTVSPost2010PropOp54
 70
     1
102
RTVSPost2010Prop55
280
     0
102
RTVSPost2010PropOp55
 70
     1
102
RTVSPost2010Prop56
140
1.0
102
RTVSPost2010PropOp56
 70
     1
102
RTVSPost2010Prop57
140
1.0
102
RTVSPost2010PropOp57
 70
     1
102
RTVSPropertyOp0
 70
     1
102
RTVSPropertyOp1
 70
     1
102
RTVSPropertyOp2
 70
     1
102
RTVSPropertyOp3
 70
     1
102
RTVSPropertyOp4
 70
     1
102
RTVSPropertyOp5
 70
     1
102
RTVSPropertyOp6
 70
     1
102
RTVSPropertyOp7
 70
     1
102
RTVSPropertyOp8
 70
     1
102
RTVSPropertyOp9
 70
     1
102
RTVSPropertyOp10
 70
     1
102
RTVSPropertyOp11
 70
     1
102
RTVSPropertyOp12
 70
     1
102
RTVSPropertyOp13
 70
     1
102
RTVSPropertyOp14
 70
     1
102
RTVSPropertyOp15
 70
     1
102
RTVSPropertyOp16
 70
     1
102
RTVSPropertyOp17
 70
     1
102
RTVSPropertyOp18
 70
     1
102
RTVSPropertyOp19
 70
     1
102
RTVSPropertyOp20
 70
     1
102
RTVSPropertyOp21
 70
     1
102
RTVSPropertyOp22
 70
     1
102
RTVSPropertyOp23
 70
     1
102
RTVSPropertyOp24
 70
     1
102
RTVSPropertyOp25
 70
     1
102
RTVSPropertyOp26
 70
     1
102
RTVSPropertyOp27
 70
     1
102
RTVSPropertyOp28
 70
     1
102
RTVSPropertyOp29
 70
     1
102
RTVSPropertyOp30
 70
     1
102
RTVSPropertyOp31
 70
     1
102
RTVSPropertyOp32
 70
     1
102
RTVSPropertyOp33
 70
     1
102
RTVSPropertyOp34
 70
     1
102
RTVSPropertyOp35
 70
     1
102
RTVSPropertyOp36
 70
     1
102
RTVSPropertyOp37
 70
     1
102
RTVSPropertyOp38
 70
     1
102
RTVSPropertyOp39
 70
     1
102
RTVSPropertyOp40
 70
     1
102
RTVSPropertyOp41
 70
     1
102
RTVSPropertyOp42
 70
     1
102
RTVSPropertyOp43
 70
     1
102
RTVSPropertyOp44
 70
     1
102
RTVSPropertyOp45
 70
     1
102
RTVSPropertyOp46
 70
     1
102
RTVSPropertyOp47
 70
     1
102
RTVSPropertyOp48
 70
     1
102
RTVSPropertyOp49
 70
     1
102
RTVSPropertyOp50
 70
     1
102
RTVSPropertyOp51
 70
     0
102
RTVSPropertyOp52
 70
     0
102
RTVSPropertyOp53
 70
     1
102
RTVSPropertyOp54
 70
     1
102
RTVSPropertyOp55
 70
     1
102
RTVSPropertyOp56
 70
     1
102
RTVSPropertyOp57
 70
     1
102
RTVSPropertyOp58
 70
     1
102
RTVSPropertyOp59
 70
     1
102
RTVSPropertyOp60
 70
     1
102
RTVSPropertyOp61
 70
     1
102
RTVSPropertyOp62
 70
     1
  0
XRECORD
  5
8367
102
{ACAD_REACTORS
330
8366
102
}
330
8366
100
AcDbXrecord
280
     1
102
RTVSPost2010Prop28
280
     0
102
RTVSPost2010PropOp28
 70
     1
102
RTVSPost2010Prop29
280
     1
102
RTVSPost2010PropOp29
 70
     1
102
RTVSPost2010Prop30
280
     1
102
RTVSPost2010PropOp30
 70
     1
102
RTVSPost2010Prop31
280
     0
102
RTVSPost2010PropOp31
 70
     1
102
RTVSPost2010Prop32
280
     0
102
RTVSPost2010PropOp32
 70
     1
102
RTVSPost2010Prop33
280
     0
102
RTVSPost2010PropOp33
 70
     1
102
RTVSPost2010Prop34
280
     0
102
RTVSPost2010PropOp34
 70
     1
102
RTVSPost2010Prop35
280
     0
102
RTVSPost2010PropOp35
 70
     1
102
RTVSPost2010Prop36
280
     0
102
RTVSPost2010PropOp36
 70
     1
102
RTVSPost2010Prop37
 90
       50
102
RTVSPost2010PropOp37
 70
     1
102
RTVSPost2010Prop38
140
0.0
102
RTVSPost2010PropOp38
 70
     1
102
RTVSPost2010Prop39
140
1.0
102
RTVSPost2010PropOp39
 70
     1
102
RTVSPost2010Prop40
 90
        0
102
RTVSPost2010PropOp40
 70
     1
102
RTVSPost2010Prop41ColorIndex
 90
       18
102
RTVSPost2010Prop41ColorRGB
 90
        0
102
RTVSPost2010PropOp41
 70
     1
102
RTVSPost2010Prop42
 90
       50
102
RTVSPost2010PropOp42
 70
     1
102
RTVSPost2010Prop43
 90
        3
102
RTVSPost2010PropOp43
 70
     1
102
RTVSPost2010Prop44ColorIndex
 90
        5
102
RTVSPost2010Prop44ColorRGB
 90
      255
102
RTVSPost2010PropOp44
 70
     1
102
RTVSPost2010Prop45
280
     0
102
RTVSPost2010PropOp45
 70
     1
102
RTVSPost2010Prop46
 90
       50
102
RTVSPost2010PropOp46
 70
     1
102
RTVSPost2010Prop47
 90
       50
102
RTVSPost2010PropOp47
 70
     1
102
RTVSPost2010Prop48
 90
       50
102
RTVSPost2010PropOp48
 70
     1
102
RTVSPost2010Prop49
280
     0
102
RTVSPost2010PropOp49
 70
     1
102
RTVSPost2010Prop50
 90
       50
102
RTVSPost2010PropOp50
 70
     1
102
RTVSPost2010Prop51ColorIndex
 90
      256
102
RTVSPost2010Prop51ColorRGB
 90
-16777216
102
RTVSPost2010PropOp51
 70
     0
102
RTVSPost2010Prop52
140
1.0
102
RTVSPost2010PropOp52
 70
     0
102
RTVSPost2010Prop53
 90
        2
102
RTVSPost2010PropOp53
 70
     1
102
RTVSPost2010Prop54
  1
strokes_ogs.tif
102
RTVSPost2010PropOp54
 70
     1
102
RTVSPost2010Prop55
280
     0
102
RTVSPost2010PropOp55
 70
     1
102
RTVSPost2010Prop56
140
1.0
102
RTVSPost2010PropOp56
 70
     1
102
RTVSPost2010Prop57
140
1.0
102
RTVSPost2010PropOp57
 70
     1
102
RTVSPropertyOp0
 70
     1
102
RTVSPropertyOp1
 70
     1
102
RTVSPropertyOp2
 70
     1
102
RTVSPropertyOp3
 70
     1
102
RTVSPropertyOp4
 70
     1
102
RTVSPropertyOp5
 70
     1
102
RTVSPropertyOp6
 70
     1
102
RTVSPropertyOp7
 70
     1
102
RTVSPropertyOp8
 70
     1
102
RTVSPropertyOp9
 70
     1
102
RTVSPropertyOp10
 70
     1
102
RTVSPropertyOp11
 70
     1
102
RTVSPropertyOp12
 70
     1
102
RTVSPropertyOp13
 70
     1
102
RTVSPropertyOp14
 70
     1
102
RTVSPropertyOp15
 70
     1
102
RTVSPropertyOp16
 70
     1
102
RTVSPropertyOp17
 70
     1
102
RTVSPropertyOp18
 70
     1
102
RTVSPropertyOp19
 70
     1
102
RTVSPropertyOp20
 70
     1
102
RTVSPropertyOp21
 70
     1
102
RTVSPropertyOp22
 70
     1
102
RTVSPropertyOp23
 70
     1
102
RTVSPropertyOp24
 70
     1
102
RTVSPropertyOp25
 70
     1
102
RTVSPropertyOp26
 70
     1
102
RTVSPropertyOp27
 70
     1
102
RTVSPropertyOp28
 70
     1
102
RTVSPropertyOp29
 70
     1
102
RTVSPropertyOp30
 70
     1
102
RTVSPropertyOp31
 70
     1
102
RTVSPropertyOp32
 70
     1
102
RTVSPropertyOp33
 70
     1
102
RTVSPropertyOp34
 70
     1
102
RTVSPropertyOp35
 70
     1
102
RTVSPropertyOp36
 70
     1
102
RTVSPropertyOp37
 70
     1
102
RTVSPropertyOp38
 70
     1
102
RTVSPropertyOp39
 70
     1
102
RTVSPropertyOp40
 70
     1
102
RTVSPropertyOp41
 70
     1
102
RTVSPropertyOp42
 70
     1
102
RTVSPropertyOp43
 70
     1
102
RTVSPropertyOp44
 70
     1
102
RTVSPropertyOp45
 70
     1
102
RTVSPropertyOp46
 70
     1
102
RTVSPropertyOp47
 70
     1
102
RTVSPropertyOp48
 70
     1
102
RTVSPropertyOp49
 70
     1
102
RTVSPropertyOp50
 70
     1
102
RTVSPropertyOp51
 70
     0
102
RTVSPropertyOp52
 70
     0
102
RTVSPropertyOp53
 70
     1
102
RTVSPropertyOp54
 70
     1
102
RTVSPropertyOp55
 70
     1
102
RTVSPropertyOp56
 70
     1
102
RTVSPropertyOp57
 70
     1
102
RTVSPropertyOp58
 70
     1
102
RTVSPropertyOp59
 70
     1
102
RTVSPropertyOp60
 70
     1
102
RTVSPropertyOp61
 70
     1
102
RTVSPropertyOp62
 70
     1
  0
XRECORD
  5
8365
102
{ACAD_REACTORS
330
8364
102
}
330
8364
100
AcDbXrecord
280
     1
102
RTVSPost2010Prop28
280
     0
102
RTVSPost2010PropOp28
 70
     1
102
RTVSPost2010Prop29
280
     1
102
RTVSPost2010PropOp29
 70
     1
102
RTVSPost2010Prop30
280
     1
102
RTVSPost2010PropOp30
 70
     1
102
RTVSPost2010Prop31
280
     0
102
RTVSPost2010PropOp31
 70
     1
102
RTVSPost2010Prop32
280
     0
102
RTVSPost2010PropOp32
 70
     1
102
RTVSPost2010Prop33
280
     0
102
RTVSPost2010PropOp33
 70
     1
102
RTVSPost2010Prop34
280
     0
102
RTVSPost2010PropOp34
 70
     1
102
RTVSPost2010Prop35
280
     0
102
RTVSPost2010PropOp35
 70
     1
102
RTVSPost2010Prop36
280
     0
102
RTVSPost2010PropOp36
 70
     1
102
RTVSPost2010Prop37
 90
       50
102
RTVSPost2010PropOp37
 70
     1
102
RTVSPost2010Prop38
140
0.0
102
RTVSPost2010PropOp38
 70
     1
102
RTVSPost2010Prop39
140
1.0
102
RTVSPost2010PropOp39
 70
     1
102
RTVSPost2010Prop40
 90
        0
102
RTVSPost2010PropOp40
 70
     1
102
RTVSPost2010Prop41ColorIndex
 90
       18
102
RTVSPost2010Prop41ColorRGB
 90
        0
102
RTVSPost2010PropOp41
 70
     1
102
RTVSPost2010Prop42
 90
       50
102
RTVSPost2010PropOp42
 70
     1
102
RTVSPost2010Prop43
 90
        3
102
RTVSPost2010PropOp43
 70
     1
102
RTVSPost2010Prop44ColorIndex
 90
        5
102
RTVSPost2010Prop44ColorRGB
 90
      255
102
RTVSPost2010PropOp44
 70
     1
102
RTVSPost2010Prop45
280
     0
102
RTVSPost2010PropOp45
 70
     1
102
RTVSPost2010Prop46
 90
       50
102
RTVSPost2010PropOp46
 70
     1
102
RTVSPost2010Prop47
 90
       50
102
RTVSPost2010PropOp47
 70
     1
102
RTVSPost2010Prop48
 90
       50
102
RTVSPost2010PropOp48
 70
     1
102
RTVSPost2010Prop49
280
     0
102
RTVSPost2010PropOp49
 70
     1
102
RTVSPost2010Prop50
 90
       50
102
RTVSPost2010PropOp50
 70
     1
102
RTVSPost2010Prop51ColorIndex
 90
      256
102
RTVSPost2010Prop51ColorRGB
 90
-16777216
102
RTVSPost2010PropOp51
 70
     0
102
RTVSPost2010Prop52
140
1.0
102
RTVSPost2010PropOp52
 70
     0
102
RTVSPost2010Prop53
 90
        2
102
RTVSPost2010PropOp53
 70
     1
102
RTVSPost2010Prop54
  1
strokes_ogs.tif
102
RTVSPost2010PropOp54
 70
     1
102
RTVSPost2010Prop55
280
     0
102
RTVSPost2010PropOp55
 70
     1
102
RTVSPost2010Prop56
140
1.0
102
RTVSPost2010PropOp56
 70
     1
102
RTVSPost2010Prop57
140
1.0
102
RTVSPost2010PropOp57
 70
     1
102
RTVSPropertyOp0
 70
     1
102
RTVSPropertyOp1
 70
     1
102
RTVSPropertyOp2
 70
     1
102
RTVSPropertyOp3
 70
     1
102
RTVSPropertyOp4
 70
     1
102
RTVSPropertyOp5
 70
     1
102
RTVSPropertyOp6
 70
     1
102
RTVSPropertyOp7
 70
     1
102
RTVSPropertyOp8
 70
     1
102
RTVSPropertyOp9
 70
     1
102
RTVSPropertyOp10
 70
     1
102
RTVSPropertyOp11
 70
     1
102
RTVSPropertyOp12
 70
     1
102
RTVSPropertyOp13
 70
     1
102
RTVSPropertyOp14
 70
     1
102
RTVSPropertyOp15
 70
     1
102
RTVSPropertyOp16
 70
     1
102
RTVSPropertyOp17
 70
     1
102
RTVSPropertyOp18
 70
     1
102
RTVSPropertyOp19
 70
     1
102
RTVSPropertyOp20
 70
     1
102
RTVSPropertyOp21
 70
     1
102
RTVSPropertyOp22
 70
     1
102
RTVSPropertyOp23
 70
     1
102
RTVSPropertyOp24
 70
     1
102
RTVSPropertyOp25
 70
     1
102
RTVSPropertyOp26
 70
     1
102
RTVSPropertyOp27
 70
     1
102
RTVSPropertyOp28
 70
     1
102
RTVSPropertyOp29
 70
     1
102
RTVSPropertyOp30
 70
     1
102
RTVSPropertyOp31
 70
     1
102
RTVSPropertyOp32
 70
     1
102
RTVSPropertyOp33
 70
     1
102
RTVSPropertyOp34
 70
     1
102
RTVSPropertyOp35
 70
     1
102
RTVSPropertyOp36
 70
     1
102
RTVSPropertyOp37
 70
     1
102
RTVSPropertyOp38
 70
     1
102
RTVSPropertyOp39
 70
     1
102
RTVSPropertyOp40
 70
     1
102
RTVSPropertyOp41
 70
     1
102
RTVSPropertyOp42
 70
     1
102
RTVSPropertyOp43
 70
     1
102
RTVSPropertyOp44
 70
     1
102
RTVSPropertyOp45
 70
     1
102
RTVSPropertyOp46
 70
     1
102
RTVSPropertyOp47
 70
     1
102
RTVSPropertyOp48
 70
     1
102
RTVSPropertyOp49
 70
     1
102
RTVSPropertyOp50
 70
     1
102
RTVSPropertyOp51
 70
     0
102
RTVSPropertyOp52
 70
     0
102
RTVSPropertyOp53
 70
     1
102
RTVSPropertyOp54
 70
     1
102
RTVSPropertyOp55
 70
     1
102
RTVSPropertyOp56
 70
     1
102
RTVSPropertyOp57
 70
     1
102
RTVSPropertyOp58
 70
     1
102
RTVSPropertyOp59
 70
     1
102
RTVSPropertyOp60
 70
     1
102
RTVSPropertyOp61
 70
     1
102
RTVSPropertyOp62
 70
     1
  0
XRECORD
  5
835F
102
{ACAD_REACTORS
330
835E
102
}
330
835E
100
AcDbXrecord
280
     1
102
RTVSPost2010Prop28
280
     0
102
RTVSPost2010PropOp28
 70
     1
102
RTVSPost2010Prop29
280
     1
102
RTVSPost2010PropOp29
 70
     1
102
RTVSPost2010Prop30
280
     1
102
RTVSPost2010PropOp30
 70
     1
102
RTVSPost2010Prop31
280
     0
102
RTVSPost2010PropOp31
 70
     1
102
RTVSPost2010Prop32
280
     0
102
RTVSPost2010PropOp32
 70
     1
102
RTVSPost2010Prop33
280
     0
102
RTVSPost2010PropOp33
 70
     1
102
RTVSPost2010Prop34
280
     0
102
RTVSPost2010PropOp34
 70
     1
102
RTVSPost2010Prop35
280
     0
102
RTVSPost2010PropOp35
 70
     1
102
RTVSPost2010Prop36
280
     0
102
RTVSPost2010PropOp36
 70
     1
102
RTVSPost2010Prop37
 90
       50
102
RTVSPost2010PropOp37
 70
     1
102
RTVSPost2010Prop38
140
0.0
102
RTVSPost2010PropOp38
 70
     1
102
RTVSPost2010Prop39
140
1.0
102
RTVSPost2010PropOp39
 70
     1
102
RTVSPost2010Prop40
 90
        0
102
RTVSPost2010PropOp40
 70
     1
102
RTVSPost2010Prop41ColorIndex
 90
       18
102
RTVSPost2010Prop41ColorRGB
 90
        0
102
RTVSPost2010PropOp41
 70
     1
102
RTVSPost2010Prop42
 90
       50
102
RTVSPost2010PropOp42
 70
     1
102
RTVSPost2010Prop43
 90
        3
102
RTVSPost2010PropOp43
 70
     1
102
RTVSPost2010Prop44ColorIndex
 90
        5
102
RTVSPost2010Prop44ColorRGB
 90
      255
102
RTVSPost2010PropOp44
 70
     1
102
RTVSPost2010Prop45
280
     0
102
RTVSPost2010PropOp45
 70
     1
102
RTVSPost2010Prop46
 90
       50
102
RTVSPost2010PropOp46
 70
     1
102
RTVSPost2010Prop47
 90
       50
102
RTVSPost2010PropOp47
 70
     1
102
RTVSPost2010Prop48
 90
       50
102
RTVSPost2010PropOp48
 70
     1
102
RTVSPost2010Prop49
280
     0
102
RTVSPost2010PropOp49
 70
     1
102
RTVSPost2010Prop50
 90
       50
102
RTVSPost2010PropOp50
 70
     1
102
RTVSPost2010Prop51ColorIndex
 90
      256
102
RTVSPost2010Prop51ColorRGB
 90
-16777216
102
RTVSPost2010PropOp51
 70
     0
102
RTVSPost2010Prop52
140
1.0
102
RTVSPost2010PropOp52
 70
     0
102
RTVSPost2010Prop53
 90
        2
102
RTVSPost2010PropOp53
 70
     1
102
RTVSPost2010Prop54
  1
strokes_ogs.tif
102
RTVSPost2010PropOp54
 70
     1
102
RTVSPost2010Prop55
280
     0
102
RTVSPost2010PropOp55
 70
     1
102
RTVSPost2010Prop56
140
1.0
102
RTVSPost2010PropOp56
 70
     1
102
RTVSPost2010Prop57
140
1.0
102
RTVSPost2010PropOp57
 70
     1
102
RTVSPropertyOp0
 70
     1
102
RTVSPropertyOp1
 70
     1
102
RTVSPropertyOp2
 70
     1
102
RTVSPropertyOp3
 70
     1
102
RTVSPropertyOp4
 70
     1
102
RTVSPropertyOp5
 70
     1
102
RTVSPropertyOp6
 70
     1
102
RTVSPropertyOp7
 70
     1
102
RTVSPropertyOp8
 70
     1
102
RTVSPropertyOp9
 70
     1
102
RTVSPropertyOp10
 70
     1
102
RTVSPropertyOp11
 70
     1
102
RTVSPropertyOp12
 70
     1
102
RTVSPropertyOp13
 70
     1
102
RTVSPropertyOp14
 70
     1
102
RTVSPropertyOp15
 70
     1
102
RTVSPropertyOp16
 70
     1
102
RTVSPropertyOp17
 70
     1
102
RTVSPropertyOp18
 70
     1
102
RTVSPropertyOp19
 70
     1
102
RTVSPropertyOp20
 70
     1
102
RTVSPropertyOp21
 70
     1
102
RTVSPropertyOp22
 70
     1
102
RTVSPropertyOp23
 70
     1
102
RTVSPropertyOp24
 70
     1
102
RTVSPropertyOp25
 70
     1
102
RTVSPropertyOp26
 70
     1
102
RTVSPropertyOp27
 70
     1
102
RTVSPropertyOp28
 70
     1
102
RTVSPropertyOp29
 70
     1
102
RTVSPropertyOp30
 70
     1
102
RTVSPropertyOp31
 70
     1
102
RTVSPropertyOp32
 70
     1
102
RTVSPropertyOp33
 70
     1
102
RTVSPropertyOp34
 70
     1
102
RTVSPropertyOp35
 70
     1
102
RTVSPropertyOp36
 70
     1
102
RTVSPropertyOp37
 70
     1
102
RTVSPropertyOp38
 70
     1
102
RTVSPropertyOp39
 70
     1
102
RTVSPropertyOp40
 70
     1
102
RTVSPropertyOp41
 70
     1
102
RTVSPropertyOp42
 70
     1
102
RTVSPropertyOp43
 70
     1
102
RTVSPropertyOp44
 70
     1
102
RTVSPropertyOp45
 70
     1
102
RTVSPropertyOp46
 70
     1
102
RTVSPropertyOp47
 70
     1
102
RTVSPropertyOp48
 70
     1
102
RTVSPropertyOp49
 70
     1
102
RTVSPropertyOp50
 70
     1
102
RTVSPropertyOp51
 70
     0
102
RTVSPropertyOp52
 70
     0
102
RTVSPropertyOp53
 70
     1
102
RTVSPropertyOp54
 70
     1
102
RTVSPropertyOp55
 70
     1
102
RTVSPropertyOp56
 70
     1
102
RTVSPropertyOp57
 70
     1
102
RTVSPropertyOp58
 70
     1
102
RTVSPropertyOp59
 70
     1
102
RTVSPropertyOp60
 70
     1
102
RTVSPropertyOp61
 70
     1
102
RTVSPropertyOp62
 70
     1
  0
XRECORD
  5
8361
102
{ACAD_REACTORS
330
8360
102
}
330
8360
100
AcDbXrecord
280
     1
102
RTVSPost2010Prop28
280
     0
102
RTVSPost2010PropOp28
 70
     1
102
RTVSPost2010Prop29
280
     1
102
RTVSPost2010PropOp29
 70
     1
102
RTVSPost2010Prop30
280
     1
102
RTVSPost2010PropOp30
 70
     1
102
RTVSPost2010Prop31
280
     0
102
RTVSPost2010PropOp31
 70
     1
102
RTVSPost2010Prop32
280
     0
102
RTVSPost2010PropOp32
 70
     1
102
RTVSPost2010Prop33
280
     0
102
RTVSPost2010PropOp33
 70
     1
102
RTVSPost2010Prop34
280
     0
102
RTVSPost2010PropOp34
 70
     1
102
RTVSPost2010Prop35
280
     0
102
RTVSPost2010PropOp35
 70
     1
102
RTVSPost2010Prop36
280
     0
102
RTVSPost2010PropOp36
 70
     1
102
RTVSPost2010Prop37
 90
       50
102
RTVSPost2010PropOp37
 70
     1
102
RTVSPost2010Prop38
140
0.0
102
RTVSPost2010PropOp38
 70
     1
102
RTVSPost2010Prop39
140
1.0
102
RTVSPost2010PropOp39
 70
     1
102
RTVSPost2010Prop40
 90
        0
102
RTVSPost2010PropOp40
 70
     1
102
RTVSPost2010Prop41ColorIndex
 90
       18
102
RTVSPost2010Prop41ColorRGB
 90
        0
102
RTVSPost2010PropOp41
 70
     1
102
RTVSPost2010Prop42
 90
       50
102
RTVSPost2010PropOp42
 70
     1
102
RTVSPost2010Prop43
 90
        3
102
RTVSPost2010PropOp43
 70
     1
102
RTVSPost2010Prop44ColorIndex
 90
        5
102
RTVSPost2010Prop44ColorRGB
 90
      255
102
RTVSPost2010PropOp44
 70
     1
102
RTVSPost2010Prop45
280
     0
102
RTVSPost2010PropOp45
 70
     1
102
RTVSPost2010Prop46
 90
       50
102
RTVSPost2010PropOp46
 70
     1
102
RTVSPost2010Prop47
 90
       50
102
RTVSPost2010PropOp47
 70
     1
102
RTVSPost2010Prop48
 90
       50
102
RTVSPost2010PropOp48
 70
     1
102
RTVSPost2010Prop49
280
     0
102
RTVSPost2010PropOp49
 70
     1
102
RTVSPost2010Prop50
 90
       50
102
RTVSPost2010PropOp50
 70
     1
102
RTVSPost2010Prop51ColorIndex
 90
      256
102
RTVSPost2010Prop51ColorRGB
 90
-16777216
102
RTVSPost2010PropOp51
 70
     0
102
RTVSPost2010Prop52
140
1.0
102
RTVSPost2010PropOp52
 70
     0
102
RTVSPost2010Prop53
 90
        2
102
RTVSPost2010PropOp53
 70
     1
102
RTVSPost2010Prop54
  1
strokes_ogs.tif
102
RTVSPost2010PropOp54
 70
     1
102
RTVSPost2010Prop55
280
     0
102
RTVSPost2010PropOp55
 70
     1
102
RTVSPost2010Prop56
140
1.0
102
RTVSPost2010PropOp56
 70
     1
102
RTVSPost2010Prop57
140
1.0
102
RTVSPost2010PropOp57
 70
     1
102
RTVSPropertyOp0
 70
     1
102
RTVSPropertyOp1
 70
     1
102
RTVSPropertyOp2
 70
     1
102
RTVSPropertyOp3
 70
     1
102
RTVSPropertyOp4
 70
     1
102
RTVSPropertyOp5
 70
     1
102
RTVSPropertyOp6
 70
     1
102
RTVSPropertyOp7
 70
     1
102
RTVSPropertyOp8
 70
     1
102
RTVSPropertyOp9
 70
     1
102
RTVSPropertyOp10
 70
     1
102
RTVSPropertyOp11
 70
     1
102
RTVSPropertyOp12
 70
     1
102
RTVSPropertyOp13
 70
     1
102
RTVSPropertyOp14
 70
     1
102
RTVSPropertyOp15
 70
     1
102
RTVSPropertyOp16
 70
     1
102
RTVSPropertyOp17
 70
     1
102
RTVSPropertyOp18
 70
     1
102
RTVSPropertyOp19
 70
     1
102
RTVSPropertyOp20
 70
     1
102
RTVSPropertyOp21
 70
     1
102
RTVSPropertyOp22
 70
     1
102
RTVSPropertyOp23
 70
     1
102
RTVSPropertyOp24
 70
     1
102
RTVSPropertyOp25
 70
     1
102
RTVSPropertyOp26
 70
     1
102
RTVSPropertyOp27
 70
     1
102
RTVSPropertyOp28
 70
     1
102
RTVSPropertyOp29
 70
     1
102
RTVSPropertyOp30
 70
     1
102
RTVSPropertyOp31
 70
     1
102
RTVSPropertyOp32
 70
     1
102
RTVSPropertyOp33
 70
     1
102
RTVSPropertyOp34
 70
     1
102
RTVSPropertyOp35
 70
     1
102
RTVSPropertyOp36
 70
     1
102
RTVSPropertyOp37
 70
     1
102
RTVSPropertyOp38
 70
     1
102
RTVSPropertyOp39
 70
     1
102
RTVSPropertyOp40
 70
     1
102
RTVSPropertyOp41
 70
     1
102
RTVSPropertyOp42
 70
     1
102
RTVSPropertyOp43
 70
     1
102
RTVSPropertyOp44
 70
     1
102
RTVSPropertyOp45
 70
     1
102
RTVSPropertyOp46
 70
     1
102
RTVSPropertyOp47
 70
     1
102
RTVSPropertyOp48
 70
     1
102
RTVSPropertyOp49
 70
     1
102
RTVSPropertyOp50
 70
     1
102
RTVSPropertyOp51
 70
     0
102
RTVSPropertyOp52
 70
     0
102
RTVSPropertyOp53
 70
     1
102
RTVSPropertyOp54
 70
     1
102
RTVSPropertyOp55
 70
     1
102
RTVSPropertyOp56
 70
     1
102
RTVSPropertyOp57
 70
     1
102
RTVSPropertyOp58
 70
     1
102
RTVSPropertyOp59
 70
     1
102
RTVSPropertyOp60
 70
     1
102
RTVSPropertyOp61
 70
     1
102
RTVSPropertyOp62
 70
     1
  0
XRECORD
  5
8357
102
{ACAD_REACTORS
330
8356
102
}
330
8356
100
AcDbXrecord
280
     1
102
RTVSPost2010Prop28
280
     0
102
RTVSPost2010PropOp28
 70
     1
102
RTVSPost2010Prop29
280
     1
102
RTVSPost2010PropOp29
 70
     1
102
RTVSPost2010Prop30
280
     1
102
RTVSPost2010PropOp30
 70
     1
102
RTVSPost2010Prop31
280
     0
102
RTVSPost2010PropOp31
 70
     1
102
RTVSPost2010Prop32
280
     0
102
RTVSPost2010PropOp32
 70
     1
102
RTVSPost2010Prop33
280
     0
102
RTVSPost2010PropOp33
 70
     1
102
RTVSPost2010Prop34
280
     0
102
RTVSPost2010PropOp34
 70
     1
102
RTVSPost2010Prop35
280
     0
102
RTVSPost2010PropOp35
 70
     1
102
RTVSPost2010Prop36
280
     0
102
RTVSPost2010PropOp36
 70
     1
102
RTVSPost2010Prop37
 90
       50
102
RTVSPost2010PropOp37
 70
     1
102
RTVSPost2010Prop38
140
0.0
102
RTVSPost2010PropOp38
 70
     1
102
RTVSPost2010Prop39
140
1.0
102
RTVSPost2010PropOp39
 70
     1
102
RTVSPost2010Prop40
 90
        0
102
RTVSPost2010PropOp40
 70
     1
102
RTVSPost2010Prop41ColorIndex
 90
       18
102
RTVSPost2010Prop41ColorRGB
 90
        0
102
RTVSPost2010PropOp41
 70
     1
102
RTVSPost2010Prop42
 90
       50
102
RTVSPost2010PropOp42
 70
     1
102
RTVSPost2010Prop43
 90
        3
102
RTVSPost2010PropOp43
 70
     1
102
RTVSPost2010Prop44ColorIndex
 90
        5
102
RTVSPost2010Prop44ColorRGB
 90
      255
102
RTVSPost2010PropOp44
 70
     1
102
RTVSPost2010Prop45
280
     0
102
RTVSPost2010PropOp45
 70
     1
102
RTVSPost2010Prop46
 90
       50
102
RTVSPost2010PropOp46
 70
     1
102
RTVSPost2010Prop47
 90
       50
102
RTVSPost2010PropOp47
 70
     1
102
RTVSPost2010Prop48
 90
       50
102
RTVSPost2010PropOp48
 70
     1
102
RTVSPost2010Prop49
280
     0
102
RTVSPost2010PropOp49
 70
     1
102
RTVSPost2010Prop50
 90
       50
102
RTVSPost2010PropOp50
 70
     1
102
RTVSPost2010Prop51ColorIndex
 90
      256
102
RTVSPost2010Prop51ColorRGB
 90
-16777216
102
RTVSPost2010PropOp51
 70
     0
102
RTVSPost2010Prop52
140
1.0
102
RTVSPost2010PropOp52
 70
     0
102
RTVSPost2010Prop53
 90
        2
102
RTVSPost2010PropOp53
 70
     1
102
RTVSPost2010Prop54
  1
strokes_ogs.tif
102
RTVSPost2010PropOp54
 70
     1
102
RTVSPost2010Prop55
280
     0
102
RTVSPost2010PropOp55
 70
     1
102
RTVSPost2010Prop56
140
1.0
102
RTVSPost2010PropOp56
 70
     1
102
RTVSPost2010Prop57
140
1.0
102
RTVSPost2010PropOp57
 70
     1
102
RTVSPropertyOp0
 70
     1
102
RTVSPropertyOp1
 70
     1
102
RTVSPropertyOp2
 70
     1
102
RTVSPropertyOp3
 70
     1
102
RTVSPropertyOp4
 70
     1
102
RTVSPropertyOp5
 70
     1
102
RTVSPropertyOp6
 70
     1
102
RTVSPropertyOp7
 70
     1
102
RTVSPropertyOp8
 70
     1
102
RTVSPropertyOp9
 70
     1
102
RTVSPropertyOp10
 70
     1
102
RTVSPropertyOp11
 70
     1
102
RTVSPropertyOp12
 70
     1
102
RTVSPropertyOp13
 70
     1
102
RTVSPropertyOp14
 70
     1
102
RTVSPropertyOp15
 70
     1
102
RTVSPropertyOp16
 70
     1
102
RTVSPropertyOp17
 70
     1
102
RTVSPropertyOp18
 70
     1
102
RTVSPropertyOp19
 70
     1
102
RTVSPropertyOp20
 70
     1
102
RTVSPropertyOp21
 70
     1
102
RTVSPropertyOp22
 70
     1
102
RTVSPropertyOp23
 70
     1
102
RTVSPropertyOp24
 70
     1
102
RTVSPropertyOp25
 70
     1
102
RTVSPropertyOp26
 70
     1
102
RTVSPropertyOp27
 70
     1
102
RTVSPropertyOp28
 70
     1
102
RTVSPropertyOp29
 70
     1
102
RTVSPropertyOp30
 70
     1
102
RTVSPropertyOp31
 70
     1
102
RTVSPropertyOp32
 70
     1
102
RTVSPropertyOp33
 70
     1
102
RTVSPropertyOp34
 70
     1
102
RTVSPropertyOp35
 70
     1
102
RTVSPropertyOp36
 70
     1
102
RTVSPropertyOp37
 70
     1
102
RTVSPropertyOp38
 70
     1
102
RTVSPropertyOp39
 70
     1
102
RTVSPropertyOp40
 70
     1
102
RTVSPropertyOp41
 70
     1
102
RTVSPropertyOp42
 70
     1
102
RTVSPropertyOp43
 70
     1
102
RTVSPropertyOp44
 70
     1
102
RTVSPropertyOp45
 70
     1
102
RTVSPropertyOp46
 70
     1
102
RTVSPropertyOp47
 70
     1
102
RTVSPropertyOp48
 70
     1
102
RTVSPropertyOp49
 70
     1
102
RTVSPropertyOp50
 70
     1
102
RTVSPropertyOp51
 70
     0
102
RTVSPropertyOp52
 70
     0
102
RTVSPropertyOp53
 70
     1
102
RTVSPropertyOp54
 70
     1
102
RTVSPropertyOp55
 70
     1
102
RTVSPropertyOp56
 70
     1
102
RTVSPropertyOp57
 70
     1
102
RTVSPropertyOp58
 70
     1
102
RTVSPropertyOp59
 70
     1
102
RTVSPropertyOp60
 70
     1
102
RTVSPropertyOp61
 70
     1
102
RTVSPropertyOp62
 70
     1
  0
XRECORD
  5
834B
102
{ACAD_REACTORS
330
834A
102
}
330
834A
100
AcDbXrecord
280
     1
102
RTVSPost2010Prop28
280
     0
102
RTVSPost2010PropOp28
 70
     1
102
RTVSPost2010Prop29
280
     1
102
RTVSPost2010PropOp29
 70
     1
102
RTVSPost2010Prop30
280
     1
102
RTVSPost2010PropOp30
 70
     1
102
RTVSPost2010Prop31
280
     0
102
RTVSPost2010PropOp31
 70
     1
102
RTVSPost2010Prop32
280
     0
102
RTVSPost2010PropOp32
 70
     1
102
RTVSPost2010Prop33
280
     0
102
RTVSPost2010PropOp33
 70
     1
102
RTVSPost2010Prop34
280
     0
102
RTVSPost2010PropOp34
 70
     1
102
RTVSPost2010Prop35
280
     0
102
RTVSPost2010PropOp35
 70
     1
102
RTVSPost2010Prop36
280
     0
102
RTVSPost2010PropOp36
 70
     1
102
RTVSPost2010Prop37
 90
       50
102
RTVSPost2010PropOp37
 70
     1
102
RTVSPost2010Prop38
140
0.0
102
RTVSPost2010PropOp38
 70
     1
102
RTVSPost2010Prop39
140
1.0
102
RTVSPost2010PropOp39
 70
     1
102
RTVSPost2010Prop40
 90
        0
102
RTVSPost2010PropOp40
 70
     1
102
RTVSPost2010Prop41ColorIndex
 90
       18
102
RTVSPost2010Prop41ColorRGB
 90
        0
102
RTVSPost2010PropOp41
 70
     1
102
RTVSPost2010Prop42
 90
       50
102
RTVSPost2010PropOp42
 70
     1
102
RTVSPost2010Prop43
 90
        3
102
RTVSPost2010PropOp43
 70
     1
102
RTVSPost2010Prop44ColorIndex
 90
        5
102
RTVSPost2010Prop44ColorRGB
 90
      255
102
RTVSPost2010PropOp44
 70
     1
102
RTVSPost2010Prop45
280
     0
102
RTVSPost2010PropOp45
 70
     1
102
RTVSPost2010Prop46
 90
       50
102
RTVSPost2010PropOp46
 70
     1
102
RTVSPost2010Prop47
 90
       50
102
RTVSPost2010PropOp47
 70
     1
102
RTVSPost2010Prop48
 90
       50
102
RTVSPost2010PropOp48
 70
     1
102
RTVSPost2010Prop49
280
     0
102
RTVSPost2010PropOp49
 70
     1
102
RTVSPost2010Prop50
 90
       50
102
RTVSPost2010PropOp50
 70
     1
102
RTVSPost2010Prop51ColorIndex
 90
      256
102
RTVSPost2010Prop51ColorRGB
 90
-16777216
102
RTVSPost2010PropOp51
 70
     0
102
RTVSPost2010Prop52
140
1.0
102
RTVSPost2010PropOp52
 70
     0
102
RTVSPost2010Prop53
 90
        2
102
RTVSPost2010PropOp53
 70
     1
102
RTVSPost2010Prop54
  1
strokes_ogs.tif
102
RTVSPost2010PropOp54
 70
     1
102
RTVSPost2010Prop55
280
     0
102
RTVSPost2010PropOp55
 70
     1
102
RTVSPost2010Prop56
140
1.0
102
RTVSPost2010PropOp56
 70
     1
102
RTVSPost2010Prop57
140
1.0
102
RTVSPost2010PropOp57
 70
     1
102
RTVSPropertyOp0
 70
     1
102
RTVSPropertyOp1
 70
     1
102
RTVSPropertyOp2
 70
     1
102
RTVSPropertyOp3
 70
     1
102
RTVSPropertyOp4
 70
     1
102
RTVSPropertyOp5
 70
     1
102
RTVSPropertyOp6
 70
     1
102
RTVSPropertyOp7
 70
     1
102
RTVSPropertyOp8
 70
     1
102
RTVSPropertyOp9
 70
     1
102
RTVSPropertyOp10
 70
     1
102
RTVSPropertyOp11
 70
     1
102
RTVSPropertyOp12
 70
     1
102
RTVSPropertyOp13
 70
     1
102
RTVSPropertyOp14
 70
     1
102
RTVSPropertyOp15
 70
     1
102
RTVSPropertyOp16
 70
     1
102
RTVSPropertyOp17
 70
     1
102
RTVSPropertyOp18
 70
     1
102
RTVSPropertyOp19
 70
     1
102
RTVSPropertyOp20
 70
     1
102
RTVSPropertyOp21
 70
     1
102
RTVSPropertyOp22
 70
     1
102
RTVSPropertyOp23
 70
     1
102
RTVSPropertyOp24
 70
     1
102
RTVSPropertyOp25
 70
     1
102
RTVSPropertyOp26
 70
     1
102
RTVSPropertyOp27
 70
     1
102
RTVSPropertyOp28
 70
     1
102
RTVSPropertyOp29
 70
     1
102
RTVSPropertyOp30
 70
     1
102
RTVSPropertyOp31
 70
     1
102
RTVSPropertyOp32
 70
     1
102
RTVSPropertyOp33
 70
     1
102
RTVSPropertyOp34
 70
     1
102
RTVSPropertyOp35
 70
     1
102
RTVSPropertyOp36
 70
     1
102
RTVSPropertyOp37
 70
     1
102
RTVSPropertyOp38
 70
     1
102
RTVSPropertyOp39
 70
     1
102
RTVSPropertyOp40
 70
     1
102
RTVSPropertyOp41
 70
     1
102
RTVSPropertyOp42
 70
     1
102
RTVSPropertyOp43
 70
     1
102
RTVSPropertyOp44
 70
     1
102
RTVSPropertyOp45
 70
     1
102
RTVSPropertyOp46
 70
     1
102
RTVSPropertyOp47
 70
     1
102
RTVSPropertyOp48
 70
     1
102
RTVSPropertyOp49
 70
     1
102
RTVSPropertyOp50
 70
     1
102
RTVSPropertyOp51
 70
     0
102
RTVSPropertyOp52
 70
     0
102
RTVSPropertyOp53
 70
     1
102
RTVSPropertyOp54
 70
     1
102
RTVSPropertyOp55
 70
     1
102
RTVSPropertyOp56
 70
     1
102
RTVSPropertyOp57
 70
     1
102
RTVSPropertyOp58
 70
     1
102
RTVSPropertyOp59
 70
     1
102
RTVSPropertyOp60
 70
     1
102
RTVSPropertyOp61
 70
     1
102
RTVSPropertyOp62
 70
     1
  0
XRECORD
  5
8363
102
{ACAD_REACTORS
330
8362
102
}
330
8362
100
AcDbXrecord
280
     1
102
RTVSPost2010Prop28
280
     0
102
RTVSPost2010PropOp28
 70
     1
102
RTVSPost2010Prop29
280
     1
102
RTVSPost2010PropOp29
 70
     1
102
RTVSPost2010Prop30
280
     1
102
RTVSPost2010PropOp30
 70
     1
102
RTVSPost2010Prop31
280
     0
102
RTVSPost2010PropOp31
 70
     1
102
RTVSPost2010Prop32
280
     0
102
RTVSPost2010PropOp32
 70
     1
102
RTVSPost2010Prop33
280
     0
102
RTVSPost2010PropOp33
 70
     1
102
RTVSPost2010Prop34
280
     0
102
RTVSPost2010PropOp34
 70
     1
102
RTVSPost2010Prop35
280
     0
102
RTVSPost2010PropOp35
 70
     1
102
RTVSPost2010Prop36
280
     0
102
RTVSPost2010PropOp36
 70
     1
102
RTVSPost2010Prop37
 90
       50
102
RTVSPost2010PropOp37
 70
     1
102
RTVSPost2010Prop38
140
0.0
102
RTVSPost2010PropOp38
 70
     1
102
RTVSPost2010Prop39
140
1.0
102
RTVSPost2010PropOp39
 70
     1
102
RTVSPost2010Prop40
 90
        0
102
RTVSPost2010PropOp40
 70
     1
102
RTVSPost2010Prop41ColorIndex
 90
       18
102
RTVSPost2010Prop41ColorRGB
 90
        0
102
RTVSPost2010PropOp41
 70
     1
102
RTVSPost2010Prop42
 90
       50
102
RTVSPost2010PropOp42
 70
     1
102
RTVSPost2010Prop43
 90
        3
102
RTVSPost2010PropOp43
 70
     1
102
RTVSPost2010Prop44ColorIndex
 90
        5
102
RTVSPost2010Prop44ColorRGB
 90
      255
102
RTVSPost2010PropOp44
 70
     1
102
RTVSPost2010Prop45
280
     0
102
RTVSPost2010PropOp45
 70
     1
102
RTVSPost2010Prop46
 90
       50
102
RTVSPost2010PropOp46
 70
     1
102
RTVSPost2010Prop47
 90
       50
102
RTVSPost2010PropOp47
 70
     1
102
RTVSPost2010Prop48
 90
       50
102
RTVSPost2010PropOp48
 70
     1
102
RTVSPost2010Prop49
280
     0
102
RTVSPost2010PropOp49
 70
     1
102
RTVSPost2010Prop50
 90
       50
102
RTVSPost2010PropOp50
 70
     1
102
RTVSPost2010Prop51ColorIndex
 90
      256
102
RTVSPost2010Prop51ColorRGB
 90
-16777216
102
RTVSPost2010PropOp51
 70
     0
102
RTVSPost2010Prop52
140
1.0
102
RTVSPost2010PropOp52
 70
     0
102
RTVSPost2010Prop53
 90
        2
102
RTVSPost2010PropOp53
 70
     1
102
RTVSPost2010Prop54
  1
strokes_ogs.tif
102
RTVSPost2010PropOp54
 70
     1
102
RTVSPost2010Prop55
280
     0
102
RTVSPost2010PropOp55
 70
     1
102
RTVSPost2010Prop56
140
1.0
102
RTVSPost2010PropOp56
 70
     1
102
RTVSPost2010Prop57
140
1.0
102
RTVSPost2010PropOp57
 70
     1
102
RTVSPropertyOp0
 70
     1
102
RTVSPropertyOp1
 70
     1
102
RTVSPropertyOp2
 70
     1
102
RTVSPropertyOp3
 70
     1
102
RTVSPropertyOp4
 70
     1
102
RTVSPropertyOp5
 70
     1
102
RTVSPropertyOp6
 70
     1
102
RTVSPropertyOp7
 70
     1
102
RTVSPropertyOp8
 70
     1
102
RTVSPropertyOp9
 70
     1
102
RTVSPropertyOp10
 70
     1
102
RTVSPropertyOp11
 70
     1
102
RTVSPropertyOp12
 70
     1
102
RTVSPropertyOp13
 70
     1
102
RTVSPropertyOp14
 70
     1
102
RTVSPropertyOp15
 70
     1
102
RTVSPropertyOp16
 70
     1
102
RTVSPropertyOp17
 70
     1
102
RTVSPropertyOp18
 70
     1
102
RTVSPropertyOp19
 70
     1
102
RTVSPropertyOp20
 70
     1
102
RTVSPropertyOp21
 70
     1
102
RTVSPropertyOp22
 70
     1
102
RTVSPropertyOp23
 70
     1
102
RTVSPropertyOp24
 70
     1
102
RTVSPropertyOp25
 70
     1
102
RTVSPropertyOp26
 70
     1
102
RTVSPropertyOp27
 70
     1
102
RTVSPropertyOp28
 70
     1
102
RTVSPropertyOp29
 70
     1
102
RTVSPropertyOp30
 70
     1
102
RTVSPropertyOp31
 70
     1
102
RTVSPropertyOp32
 70
     1
102
RTVSPropertyOp33
 70
     1
102
RTVSPropertyOp34
 70
     1
102
RTVSPropertyOp35
 70
     1
102
RTVSPropertyOp36
 70
     1
102
RTVSPropertyOp37
 70
     1
102
RTVSPropertyOp38
 70
     1
102
RTVSPropertyOp39
 70
     1
102
RTVSPropertyOp40
 70
     1
102
RTVSPropertyOp41
 70
     1
102
RTVSPropertyOp42
 70
     1
102
RTVSPropertyOp43
 70
     1
102
RTVSPropertyOp44
 70
     1
102
RTVSPropertyOp45
 70
     1
102
RTVSPropertyOp46
 70
     1
102
RTVSPropertyOp47
 70
     1
102
RTVSPropertyOp48
 70
     1
102
RTVSPropertyOp49
 70
     1
102
RTVSPropertyOp50
 70
     1
102
RTVSPropertyOp51
 70
     0
102
RTVSPropertyOp52
 70
     0
102
RTVSPropertyOp53
 70
     1
102
RTVSPropertyOp54
 70
     1
102
RTVSPropertyOp55
 70
     1
102
RTVSPropertyOp56
 70
     1
102
RTVSPropertyOp57
 70
     1
102
RTVSPropertyOp58
 70
     1
102
RTVSPropertyOp59
 70
     1
102
RTVSPropertyOp60
 70
     1
102
RTVSPropertyOp61
 70
     1
102
RTVSPropertyOp62
 70
     1
  0
ENDSEC
  0
EOF
