  0
SECTION
  2
HEADER
  9
$ACADVER
  1
AC1015
  9
$ACADMAINTVER
 70
    20
  9
$DWGCODEPAGE
  3
ANSI_932
  9
$INSBASE
 10
0.0
 20
0.0
 30
0.0
  9
$EXTMIN
 10
-0.1602050617329951
 20
-0.22504996767384
 30
-0.0015258207003583
  9
$EXTMAX
 10
5250.160229508953
 20
7375.225084310193
 30
0.0000000349246037
  9
$LIMMIN
 10
0.0
 20
0.0
  9
$LIMMAX
 10
297.0
 20
210.0
  9
$ORTHOMODE
 70
     1
  9
$REGENMODE
 70
     1
  9
$FILLMODE
 70
     0
  9
$QTEXTMODE
 70
     0
  9
$MIRRTEXT
 70
     1
  9
$LTSCALE
 40
100.0
  9
$ATTMODE
 70
     1
  9
$TEXTSIZE
 40
180.0
  9
$TRACEWID
 40
0.05
  9
$TEXTSTYLE
  7
STANDARD
  9
$CLAYER
  8
3
  9
$CELTYPE
  6
ByLayer
  9
$CECOLOR
 62
   256
  9
$CELTSCALE
 40
1.0
  9
$DISPSILH
 70
     0
  9
$DIMSCALE
 40
25.0
  9
$DIMASZ
 40
2.0
  9
$DIMEXO
 40
1.0
  9
$DIMDLI
 40
10.0
  9
$DIMRND
 40
0.0
  9
$DIMDLE
 40
0.0
  9
$DIMEXE
 40
1.0
  9
$DIMTP
 40
1.0
  9
$DIMTM
 40
1.0
  9
$DIMTXT
 40
3.0
  9
$DIMCEN
 40
0.0
  9
$DIMTSZ
 40
0.0
  9
$DIMTOL
 70
     0
  9
$DIMLIM
 70
     0
  9
$DIMTIH
 70
     0
  9
$DIMTOH
 70
     0
  9
$DIMSE1
 70
     0
  9
$DIMSE2
 70
     0
  9
$DIMTAD
 70
     1
  9
$DIMZIN
 70
     8
  9
$DIMBLK
  1

  9
$DIMASO
 70
     1
  9
$DIMSHO
 70
     1
  9
$DIMPOST
  1

  9
$DIMAPOST
  1

  9
$DIMALT
 70
     0
  9
$DIMALTD
 70
     2
  9
$DIMALTF
 40
0.039
  9
$DIMLFAC
 40
1.0
  9
$DIMTOFL
 70
     1
  9
$DIMTVP
 40
0.0
  9
$DIMTIX
 70
     0
  9
$DIMSOXD
 70
     0
  9
$DIMSAH
 70
     1
  9
$DIMBLK1
  1
OPEN
  9
$DIMBLK2
  1
OPEN
  9
$DIMSTYLE
  2
IGA
  9
$DIMCLRD
 70
     0
  9
$DIMCLRE
 70
     0
  9
$DIMCLRT
 70
     0
  9
$DIMTFAC
 40
10.0
  9
$DIMGAP
 40
1.0
  9
$DIMJUST
 70
     0
  9
$DIMSD1
 70
     0
  9
$DIMSD2
 70
     0
  9
$DIMTOLJ
 70
     1
  9
$DIMTZIN
 70
     0
  9
$DIMALTZ
 70
     0
  9
$DIMALTTZ
 70
     0
  9
$DIMUPT
 70
     0
  9
$DIMDEC
 70
     4
  9
$DIMTDEC
 70
     4
  9
$DIMALTU
 70
     2
  9
$DIMALTTD
 70
     2
  9
$DIMTXSTY
  7
STANDARD
  9
$DIMAUNIT
 70
     0
  9
$DIMADEC
 70
     0
  9
$DIMALTRND
 40
0.0
  9
$DIMAZIN
 70
     0
  9
$DIMDSEP
 70
    46
  9
$DIMATFIT
 70
     3
  9
$DIMFRAC
 70
     0
  9
$DIMLDRBLK
  1
OPEN
  9
$DIMLUNIT
 70
     2
  9
$DIMLWD
 70
    -2
  9
$DIMLWE
 70
    -2
  9
$DIMTMOVE
 70
     0
  9
$LUNITS
 70
     2
  9
$LUPREC
 70
     3
  9
$SKETCHINC
 40
0.1
  9
$FILLETRAD
 40
50.0
  9
$AUNITS
 70
     0
  9
$AUPREC
 70
     0
  9
$MENU
  1
acad
  9
$ELEVATION
 40
0.0
  9
$PELEVATION
 40
0.0
  9
$THICKNESS
 40
0.0
  9
$LIMCHECK
 70
     0
  9
$CHAMFERA
 40
0.5
  9
$CHAMFERB
 40
0.5
  9
$CHAMFERC
 40
0.0
  9
$CHAMFERD
 40
0.0
  9
$SKPOLY
 70
     0
  9
$TDCREATE
 40
2451389.438053588
  9
$TDUCREATE
 40
2451389.063053588
  9
$TDUPDATE
 40
2460265.596508091
  9
$TDUUPDATE
 40
2460265.221508091
  9
$TDINDWG
 40
0.0173987269
  9
$TDUSRTIMER
 40
0.0173987037
  9
$USRTIMER
 70
     1
  9
$ANGBASE
 50
0.0
  9
$ANGDIR
 70
     0
  9
$PDMODE
 70
     0
  9
$PDSIZE
 40
0.0
  9
$PLINEWID
 40
0.0
  9
$SPLFRAME
 70
     0
  9
$SPLINETYPE
 70
     6
  9
$SPLINESEGS
 70
     8
  9
$HANDSEED
  5
8299
  9
$SURFTAB1
 70
     6
  9
$SURFTAB2
 70
     6
  9
$SURFTYPE
 70
     6
  9
$SURFU
 70
     6
  9
$SURFV
 70
     6
  9
$UCSBASE
  2

  9
$UCSNAME
  2

  9
$UCSORG
 10
0.0
 20
0.0
 30
0.0
  9
$UCSXDIR
 10
1.0
 20
0.0
 30
0.0
  9
$UCSYDIR
 10
0.0
 20
1.0
 30
0.0
  9
$UCSORTHOREF
  2

  9
$UCSORTHOVIEW
 70
     0
  9
$UCSORGTOP
 10
0.0
 20
0.0
 30
0.0
  9
$UCSORGBOTTOM
 10
0.0
 20
0.0
 30
0.0
  9
$UCSORGLEFT
 10
0.0
 20
0.0
 30
0.0
  9
$UCSORGRIGHT
 10
0.0
 20
0.0
 30
0.0
  9
$UCSORGFRONT
 10
0.0
 20
0.0
 30
0.0
  9
$UCSORGBACK
 10
0.0
 20
0.0
 30
0.0
  9
$PUCSBASE
  2

  9
$PUCSNAME
  2

  9
$PUCSORG
 10
0.0
 20
0.0
 30
0.0
  9
$PUCSXDIR
 10
1.0
 20
0.0
 30
0.0
  9
$PUCSYDIR
 10
0.0
 20
1.0
 30
0.0
  9
$PUCSORTHOREF
  2

  9
$PUCSORTHOVIEW
 70
     0
  9
$PUCSORGTOP
 10
0.0
 20
0.0
 30
0.0
  9
$PUCSORGBOTTOM
 10
0.0
 20
0.0
 30
0.0
  9
$PUCSORGLEFT
 10
0.0
 20
0.0
 30
0.0
  9
$PUCSORGRIGHT
 10
0.0
 20
0.0
 30
0.0
  9
$PUCSORGFRONT
 10
0.0
 20
0.0
 30
0.0
  9
$PUCSORGBACK
 10
0.0
 20
0.0
 30
0.0
  9
$USERI1
 70
     0
  9
$USERI2
 70
     0
  9
$USERI3
 70
     0
  9
$USERI4
 70
     0
  9
$USERI5
 70
     0
  9
$USERR1
 40
0.0
  9
$USERR2
 40
0.0
  9
$USERR3
 40
0.0
  9
$USERR4
 40
0.0
  9
$USERR5
 40
0.0
  9
$WORLDVIEW
 70
     1
  9
$SHADEDGE
 70
     3
  9
$SHADEDIF
 70
    70
  9
$TILEMODE
 70
     1
  9
$MAXACTVP
 70
    16
  9
$PINSBASE
 10
0.0
 20
0.0
 30
0.0
  9
$PLIMCHECK
 70
     0
  9
$PEXTMIN
 10
1.000000000000000E+20
 20
1.000000000000000E+20
 30
1.000000000000000E+20
  9
$PEXTMAX
 10
-1.000000000000000E+20
 20
-1.000000000000000E+20
 30
-1.000000000000000E+20
  9
$PLIMMIN
 10
0.0
 20
0.0
  9
$PLIMMAX
 10
12.0
 20
9.0
  9
$UNITMODE
 70
     0
  9
$VISRETAIN
 70
     0
  9
$PLINEGEN
 70
     0
  9
$PSLTSCALE
 70
     1
  9
$TREEDEPTH
 70
  3020
  9
$CMLSTYLE
  2
Standard
  9
$CMLJUST
 70
     0
  9
$CMLSCALE
 40
1.0
  9
$PROXYGRAPHICS
 70
     1
  9
$MEASUREMENT
 70
     0
  9
$CELWEIGHT
370
    -1
  9
$ENDCAPS
280
     0
  9
$JOINSTYLE
280
     0
  9
$LWDISPLAY
290
     0
  9
$INSUNITS
 70
     0
  9
$HYPERLINKBASE
  1

  9
$STYLESHEET
  1

  9
$XEDIT
290
     1
  9
$CEPSNTYPE
380
     0
  9
$PSTYLEMODE
290
     1
  9
$FINGERPRINTGUID
  2
{36045912-12FB-4A79-9CCC-5C1ECC3653F8}
  9
$VERSIONGUID
  2
{F969D872-6E82-4E0E-8794-D9DC0D4B0E25}
  9
$EXTNAMES
290
     1
  9
$PSVPSCALE
 40
0.0
  9
$OLESTARTUP
290
     0
  0
ENDSEC
  0
SECTION
  2
CLASSES
  0
CLASS
  1
ACDBDICTIONARYWDFLT
  2
AcDbDictionaryWithDefault
  3
ObjectDBX Classes
 90
        0
280
     0
281
     0
  0
CLASS
  1
MATERIAL
  2
AcDbMaterial
  3
ObjectDBX Classes
 90
     1153
280
     0
281
     0
  0
CLASS
  1
VISUALSTYLE
  2
AcDbVisualStyle
  3
ObjectDBX Classes
 90
     4095
280
     0
281
     0
  0
CLASS
  1
SCALE
  2
AcDbScale
  3
ObjectDBX Classes
 90
     1153
280
     0
281
     0
  0
CLASS
  1
TABLESTYLE
  2
AcDbTableStyle
  3
ObjectDBX Classes
 90
     4095
280
     0
281
     0
  0
CLASS
  1
MLEADERSTYLE
  2
AcDbMLeaderStyle
  3
ACDB_MLEADERSTYLE_CLASS
 90
     4095
280
     0
281
     0
  0
CLASS
  1
ACDBSECTIONVIEWSTYLE
  2
AcDbSectionViewStyle
  3
ObjectDBX Classes
 90
     1025
280
     0
281
     0
  0
CLASS
  1
ACDBDETAILVIEWSTYLE
  2
AcDbDetailViewStyle
  3
ObjectDBX Classes
 90
     1025
280
     0
281
     0
  0
CLASS
  1
DICTIONARYVAR
  2
AcDbDictionaryVar
  3
ObjectDBX Classes
 90
        0
280
     0
281
     0
  0
CLASS
  1
CELLSTYLEMAP
  2
AcDbCellStyleMap
  3
ObjectDBX Classes
 90
     1152
280
     0
281
     0
  0
CLASS
  1
ACDBPLACEHOLDER
  2
AcDbPlaceHolder
  3
ObjectDBX Classes
 90
        0
280
     0
281
     0
  0
CLASS
  1
LAYOUT
  2
AcDbLayout
  3
ObjectDBX Classes
 90
        0
280
     0
281
     0
  0
ENDSEC
  0
SECTION
  2
TABLES
  0
TABLE
  2
VPORT
  5
80C0
330
0
100
AcDbSymbolTable
 70
     1
  0
VPORT
  5
812C
330
80C0
100
AcDbSymbolTableRecord
100
AcDbViewportTableRecord
  2
*ACTIVE
 70
     0
 10
0.0
 20
0.0
 11
1.0
 21
1.0
 12
2625.00001222361
 22
3687.500017171259
 13
0.0
 23
0.0
 14
10.0
 24
10.0
 15
10.0
 25
10.0
 16
0.0
 26
0.0
 36
1.0
 17
0.0
 27
0.0
 37
0.0
 40
7422.678203440799
 41
2.050213675213675
 42
50.0
 43
0.0
 44
0.0
 50
0.0
 51
0.0
 71
     0
 72
   100
 73
     1
 74
     0
 75
     0
 76
     0
 77
     0
 78
     0
281
     0
 65
     1
110
0.0
120
0.0
130
0.0
111
1.0
121
0.0
131
0.0
112
0.0
122
1.0
132
0.0
 79
     0
146
0.0
1001
ACAD_NAV_VCDISPLAY
1070
     3
  0
ENDTAB
  0
TABLE
  2
LTYPE
  5
80BD
330
0
100
AcDbSymbolTable
 70
     3
  0
LTYPE
  5
8112
330
80BD
100
AcDbSymbolTableRecord
100
AcDbLinetypeTableRecord
  2
ByBlock
 70
     0
  3

 72
    65
 73
     0
 40
0.0
  0
LTYPE
  5
8113
330
80BD
100
AcDbSymbolTableRecord
100
AcDbLinetypeTableRecord
  2
ByLayer
 70
     0
  3

 72
    65
 73
     0
 40
0.0
  0
LTYPE
  5
8114
330
80BD
100
AcDbSymbolTableRecord
100
AcDbLinetypeTableRecord
  2
CONTINUOUS
 70
     0
  3
Solid line
 72
    65
 73
     0
 40
0.0
  0
LTYPE
  5
812D
330
80BD
100
AcDbSymbolTableRecord
100
AcDbLinetypeTableRecord
  2
CENTER
 70
     0
  3
____ _ ____ _ ____ _ ____ _ ____ _ ____ _ ____ 
 72
    65
 73
     4
 40
2.0
 49
1.25
 74
     0
 49
-0.25
 74
     0
 49
0.25
 74
     0
 49
-0.25
 74
     0
  0
ENDTAB
  0
TABLE
  2
LAYER
  5
80BA
102
{ACAD_XDICTIONARY
360
816F
102
}
330
0
100
AcDbSymbolTable
 70
     7
  0
LAYER
  5
810C
102
{ACAD_XDICTIONARY
360
8243
102
}
330
80BA
100
AcDbSymbolTableRecord
100
AcDbLayerTableRecord
  2
0
 70
     0
 62
     7
  6
CONTINUOUS
370
    -3
390
80C7
  0
LAYER
  5
812B
102
{ACAD_XDICTIONARY
360
8245
102
}
330
80BA
100
AcDbSymbolTableRecord
100
AcDbLayerTableRecord
  2
3
 70
     0
 62
     2
  6
CONTINUOUS
370
    -3
390
80C7
  0
LAYER
  5
812E
102
{ACAD_XDICTIONARY
360
8247
102
}
330
80BA
100
AcDbSymbolTableRecord
100
AcDbLayerTableRecord
  2
2
 70
     0
 62
     3
  6
CENTER
370
    -3
390
80C7
  0
LAYER
  5
812F
102
{ACAD_XDICTIONARY
360
8249
102
}
330
80BA
100
AcDbSymbolTableRecord
100
AcDbLayerTableRecord
  2
1
 70
     0
 62
     4
  6
CONTINUOUS
370
    -3
390
80C7
  0
LAYER
  5
8130
102
{ACAD_XDICTIONARY
360
824B
102
}
330
80BA
100
AcDbSymbolTableRecord
100
AcDbLayerTableRecord
  2
4
 70
     0
 62
     7
  6
CONTINUOUS
370
    -3
390
80C7
  0
LAYER
  5
8131
330
80BA
100
AcDbSymbolTableRecord
100
AcDbLayerTableRecord
  2
DEFPOINTS
 70
     0
 62
     7
  6
CONTINUOUS
290
     0
370
    -3
390
80C7
  0
LAYER
  5
816C
102
{ACAD_XDICTIONARY
360
816D
102
}
330
80BA
100
AcDbSymbolTableRecord
100
AcDbLayerTableRecord
  2
FUTO
 70
     0
 62
     4
  6
CONTINUOUS
370
    -3
390
80C7
  0
ENDTAB
  0
TABLE
  2
STYLE
  5
80BB
330
0
100
AcDbSymbolTable
 70
     2
  0
STYLE
  5
810D
330
80BB
100
AcDbSymbolTableRecord
100
AcDbTextStyleTableRecord
  2
STANDARD
 70
     0
 40
0.0
 41
1.0
 50
0.0
 71
     0
 42
180.0
  3
simplex.shx
  4
extfont.shx
  0
STYLE
  5
8111
330
80BB
100
AcDbSymbolTableRecord
100
AcDbTextStyleTableRecord
  2
Annotative
 70
     0
 40
0.0
 41
1.0
 50
0.0
 71
     0
 42
0.2
  3
txt
  4

1001
AcadAnnotative
1000
AnnotativeData
1002
{
1070
     1
1070
     1
1002
}
  0
ENDTAB
  0
TABLE
  2
VIEW
  5
80BE
330
0
100
AcDbSymbolTable
 70
     0
  0
ENDTAB
  0
TABLE
  2
UCS
  5
80BF
330
0
100
AcDbSymbolTable
 70
     0
  0
ENDTAB
  0
TABLE
  2
APPID
  5
80C1
330
0
100
AcDbSymbolTable
 70
     6
  0
APPID
  5
810E
330
80C1
100
AcDbSymbolTableRecord
100
AcDbRegAppTableRecord
  2
ACAD
 70
     0
  0
APPID
  5
8115
330
80C1
100
AcDbSymbolTableRecord
100
AcDbRegAppTableRecord
  2
AcadAnnotative
 70
     0
  0
APPID
  5
816E
330
80C1
100
AcDbSymbolTableRecord
100
AcDbRegAppTableRecord
  2
ACAD_NAV_VCDISPLAY
 70
     0
  0
APPID
  5
81D1
330
80C1
100
AcDbSymbolTableRecord
100
AcDbRegAppTableRecord
  2
AcadAnnoMonitorAlertIconDisabled
 70
     0
  0
APPID
  5
81D2
330
80C1
100
AcDbSymbolTableRecord
100
AcDbRegAppTableRecord
  2
ACAD_EXEMPT_FROM_CAD_STANDARDS
 70
     0
  0
APPID
  5
8290
330
80C1
100
AcDbSymbolTableRecord
100
AcDbRegAppTableRecord
  2
ACAD_MLEADERVER
 70
     0
  0
ENDTAB
  0
TABLE
  2
DIMSTYLE
  5
80C2
330
0
100
AcDbSymbolTable
 70
     4
100
AcDbDimStyleTable
 71
     1
340
8132
  0
DIMSTYLE
105
810F
102
{ACAD_REACTORS
330
7C29
330
7C2A
330
7C4A
330
7C71
330
7C96
330
7C97
330
7C98
330
7CA7
330
7CAB
330
7CAC
330
8012
330
801F
330
802C
330
8039
330
8046
102
}
330
80C2
100
AcDbSymbolTableRecord
100
AcDbDimStyleTableRecord
  2
Standard
 70
     0
340
810D
  0
DIMSTYLE
105
8110
330
80C2
100
AcDbSymbolTableRecord
100
AcDbDimStyleTableRecord
  2
Annotative
 70
     0
340
810D
1001
AcadAnnotative
1000
AnnotativeData
1002
{
1070
     1
1070
     1
1002
}
  0
DIMSTYLE
105
8132
102
{ACAD_REACTORS
330
81A5
330
81B2
330
820A
330
8217
330
822D
102
}
330
80C2
100
AcDbSymbolTableRecord
100
AcDbDimStyleTableRecord
  2
IGA
 70
     0
 40
2.0
 41
2.0
 42
0.5
 43
10.0
 44
1.0
 47
1.0
 48
1.0
 73
     0
 74
     0
 77
     1
 78
     8
140
3.0
141
0.0
143
0.03937
146
10.0
147
1.0
173
     1
271
     3
272
     3
279
     2
284
     8
285
     8
286
     8
340
810D
  0
DIMSTYLE
105
8133
330
80C2
100
AcDbSymbolTableRecord
100
AcDbDimStyleTableRecord
  2
MATSU
 70
     0
 41
2.0
 42
1.0
 43
10.0
 44
1.0
 73
     0
 74
     0
 77
     1
 78
     8
140
3.0
141
0.0
143
0.03937
147
0.5
172
     1
173
     1
176
   256
177
   256
178
   256
271
     3
272
     3
279
     2
284
     8
285
     8
286
     8
340
810D
  0
ENDTAB
  0
TABLE
  2
BLOCK_RECORD
  5
80B9
330
0
100
AcDbSymbolTable
 70
    32
  0
BLOCK_RECORD
  5
8127
330
80B9
100
AcDbSymbolTableRecord
100
AcDbBlockTableRecord
  2
*Model_Space
340
812A
  0
BLOCK_RECORD
  5
8123
330
80B9
100
AcDbSymbolTableRecord
100
AcDbBlockTableRecord
  2
*Paper_Space
340
8126
  0
BLOCK_RECORD
  5
8137
330
80B9
100
AcDbSymbolTableRecord
100
AcDbBlockTableRecord
  2
$MODEL_SPACE
340
0
  0
BLOCK_RECORD
  5
8139
330
80B9
100
AcDbSymbolTableRecord
100
AcDbBlockTableRecord
  2
$PAPER_SPACE
340
0
  0
BLOCK_RECORD
  5
813B
330
80B9
100
AcDbSymbolTableRecord
100
AcDbBlockTableRecord
  2
_OPEN
340
0
102
{BLKREFS
331
7E4C
331
7E4D
331
7E57
331
7E58
331
7E62
331
7E63
331
7E6D
331
7E6E
331
7E78
331
7E79
331
7E83
331
7E84
331
7E8E
331
7E8F
331
80A5
331
80A6
331
80AD
331
80AE
331
7F8E
331
7F8F
331
800B
331
800C
331
8018
331
8019
331
8025
331
8026
331
8032
331
8033
331
803F
331
81FB
331
81FC
331
8204
331
8205
331
8211
331
8212
331
8227
331
8228
331
823D
331
823E
331
7DF4
331
7DF5
331
7DFF
331
7E00
331
7E0A
331
7E0B
331
7E2B
331
7E2C
331
7E41
331
7E42
331
8040
102
}
  0
BLOCK_RECORD
  5
813D
330
80B9
100
AcDbSymbolTableRecord
100
AcDbBlockTableRecord
  2
YA_N
340
0
102
{BLKREFS
331
7C04
331
7C26
331
7C3E
331
7C40
102
}
  0
BLOCK_RECORD
  5
813F
330
80B9
100
AcDbSymbolTableRecord
100
AcDbBlockTableRecord
  2
*D4
340
0
  0
BLOCK_RECORD
  5
8141
330
80B9
100
AcDbSymbolTableRecord
100
AcDbBlockTableRecord
  2
*D5
340
0
  0
BLOCK_RECORD
  5
8143
330
80B9
100
AcDbSymbolTableRecord
100
AcDbBlockTableRecord
  2
*D6
340
0
  0
BLOCK_RECORD
  5
8145
330
80B9
100
AcDbSymbolTableRecord
100
AcDbBlockTableRecord
  2
*D7
340
0
  0
BLOCK_RECORD
  5
8147
330
80B9
100
AcDbSymbolTableRecord
100
AcDbBlockTableRecord
  2
*D8
340
0
  0
BLOCK_RECORD
  5
8149
330
80B9
100
AcDbSymbolTableRecord
100
AcDbBlockTableRecord
  2
*D9
340
0
  0
BLOCK_RECORD
  5
814B
330
80B9
100
AcDbSymbolTableRecord
100
AcDbBlockTableRecord
  2
*D10
340
0
  0
BLOCK_RECORD
  5
814D
330
80B9
100
AcDbSymbolTableRecord
100
AcDbBlockTableRecord
  2
*D11
340
0
  0
BLOCK_RECORD
  5
814F
330
80B9
100
AcDbSymbolTableRecord
100
AcDbBlockTableRecord
  2
*D12
340
0
  0
BLOCK_RECORD
  5
8151
330
80B9
100
AcDbSymbolTableRecord
100
AcDbBlockTableRecord
  2
*D13
340
0
  0
BLOCK_RECORD
  5
8153
330
80B9
100
AcDbSymbolTableRecord
100
AcDbBlockTableRecord
  2
*D14
340
0
  0
BLOCK_RECORD
  5
8155
330
80B9
100
AcDbSymbolTableRecord
100
AcDbBlockTableRecord
  2
*D15
340
0
  0
BLOCK_RECORD
  5
8157
330
80B9
100
AcDbSymbolTableRecord
100
AcDbBlockTableRecord
  2
*D16
340
0
  0
BLOCK_RECORD
  5
8159
330
80B9
100
AcDbSymbolTableRecord
100
AcDbBlockTableRecord
  2
*D17
340
0
  0
BLOCK_RECORD
  5
815B
330
80B9
100
AcDbSymbolTableRecord
100
AcDbBlockTableRecord
  2
*D18
340
0
  0
BLOCK_RECORD
  5
815D
330
80B9
100
AcDbSymbolTableRecord
100
AcDbBlockTableRecord
  2
_DOT
340
0
  0
BLOCK_RECORD
  5
815F
330
80B9
100
AcDbSymbolTableRecord
100
AcDbBlockTableRecord
  2
_NONE
340
0
  0
BLOCK_RECORD
  5
8161
330
80B9
100
AcDbSymbolTableRecord
100
AcDbBlockTableRecord
  2
*D21
340
0
  0
BLOCK_RECORD
  5
8163
330
80B9
100
AcDbSymbolTableRecord
100
AcDbBlockTableRecord
  2
*D22
340
0
  0
BLOCK_RECORD
  5
8165
330
80B9
100
AcDbSymbolTableRecord
100
AcDbBlockTableRecord
  2
*D23
340
0
  0
BLOCK_RECORD
  5
8167
330
80B9
100
AcDbSymbolTableRecord
100
AcDbBlockTableRecord
  2
*D24
340
0
  0
BLOCK_RECORD
  5
8169
330
80B9
100
AcDbSymbolTableRecord
100
AcDbBlockTableRecord
  2
*D25
340
0
  0
BLOCK_RECORD
  5
81A6
330
80B9
100
AcDbSymbolTableRecord
100
AcDbBlockTableRecord
  2
*D27
340
0
  0
BLOCK_RECORD
  5
81B3
330
80B9
100
AcDbSymbolTableRecord
100
AcDbBlockTableRecord
  2
*D28
340
0
  0
BLOCK_RECORD
  5
820B
330
80B9
100
AcDbSymbolTableRecord
100
AcDbBlockTableRecord
  2
*D29
340
0
  0
BLOCK_RECORD
  5
8218
330
80B9
100
AcDbSymbolTableRecord
100
AcDbBlockTableRecord
  2
*D30
340
0
  0
BLOCK_RECORD
  5
822E
330
80B9
100
AcDbSymbolTableRecord
100
AcDbBlockTableRecord
  2
*D31
340
0
  0
ENDTAB
  0
ENDSEC
  0
SECTION
  2
BLOCKS
  0
BLOCK
  5
8128
330
8127
100
AcDbEntity
  8
0
100
AcDbBlockBegin
  2
*Model_Space
 70
     0
 10
0.0
 20
0.0
 30
0.0
  3
*Model_Space
  1

  0
ENDBLK
  5
8129
330
8127
100
AcDbEntity
  8
0
100
AcDbBlockEnd
  0
BLOCK
  5
8124
330
8123
100
AcDbEntity
 67
     1
  8
0
100
AcDbBlockBegin
  2
*Paper_Space
 70
     0
 10
0.0
 20
0.0
 30
0.0
  3
*Paper_Space
  1

  0
ENDBLK
  5
8125
330
8123
100
AcDbEntity
 67
     1
  8
0
100
AcDbBlockEnd
  0
BLOCK
  5
8138
330
8137
100
AcDbEntity
  8
0
100
AcDbBlockBegin
  2
$MODEL_SPACE
 70
     0
 10
0.0
 20
0.0
 30
0.0
  3
$MODEL_SPACE
  1

  0
ENDBLK
  5
1B
330
8137
100
AcDbEntity
  8
0
100
AcDbBlockEnd
  0
BLOCK
  5
813A
330
8139
100
AcDbEntity
  8
0
100
AcDbBlockBegin
  2
$PAPER_SPACE
 70
     0
 10
0.0
 20
0.0
 30
0.0
  3
$PAPER_SPACE
  1

  0
ENDBLK
  5
18
330
8139
100
AcDbEntity
  8
0
100
AcDbBlockEnd
  0
BLOCK
  5
813C
330
813B
100
AcDbEntity
  8
0
100
AcDbBlockBegin
  2
_OPEN
 70
     0
 10
0.0
 20
0.0
 30
0.0
  3
_OPEN
  1

  0
LINE
  5
79FD
330
813B
100
AcDbEntity
  8
0
  6
ByBlock
 62
     0
100
AcDbLine
 10
-1.0
 20
0.1666666666666666
 30
0.0
 11
0.0
 21
0.0
 31
0.0
  0
LINE
  5
79FE
330
813B
100
AcDbEntity
  8
0
  6
ByBlock
 62
     0
100
AcDbLine
 10
0.0
 20
0.0
 30
0.0
 11
-1.0
 21
-0.1666666666666666
 31
0.0
  0
LINE
  5
79FF
330
813B
100
AcDbEntity
  8
0
  6
ByBlock
 62
     0
100
AcDbLine
 10
0.0
 20
0.0
 30
0.0
 11
-1.0
 21
0.0
 31
0.0
  0
ENDBLK
  5
7A01
330
813B
100
AcDbEntity
  8
0
100
AcDbBlockEnd
  0
BLOCK
  5
813E
330
813D
100
AcDbEntity
  8
0
100
AcDbBlockBegin
  2
YA_N
 70
     0
 10
0.0
 20
0.0
 30
0.0
  3
YA_N
  1

  0
ENDBLK
  5
7A0C
330
813D
100
AcDbEntity
  8
0
100
AcDbBlockEnd
  0
BLOCK
  5
8140
330
813F
100
AcDbEntity
  8
0
100
AcDbBlockBegin
  2
*D4
 70
     1
 10
0.0
 20
0.0
 30
0.0
  3
*D4
  1

  0
LINE
  5
7DF1
330
813F
100
AcDbEntity
  8
0
  6
ByBlock
100
AcDbLine
 10
2798.866167799455
 20
2409.887615409481
 30
0.0
 11
2947.211511341518
 21
2409.887615409481
 31
0.0
  0
LINE
  5
7DF2
330
813F
100
AcDbEntity
  8
0
  6
ByBlock
100
AcDbLine
 10
2798.866167799455
 20
1584.887615409481
 30
0.0
 11
2947.211511341518
 21
1584.887615409481
 31
0.0
  0
LINE
  5
7DF3
330
813F
100
AcDbEntity
  8
0
  6
ByBlock
100
AcDbLine
 10
2922.211511341518
 20
2359.887615409481
 30
0.0
 11
2922.211511341518
 21
1634.887615409481
 31
0.0
  0
INSERT
  5
7DF4
330
813F
100
AcDbEntity
  8
0
  6
ByBlock
100
AcDbBlockReference
  2
_OPEN
 10
2922.211511341518
 20
2409.887615409481
 30
0.0
 41
50.0
 42
50.0
 43
50.0
 50
90.0
  0
INSERT
  5
7DF5
330
813F
100
AcDbEntity
  8
0
  6
ByBlock
100
AcDbBlockReference
  2
_OPEN
 10
2922.211511341518
 20
1584.887615409481
 30
0.0
 41
50.0
 42
50.0
 43
50.0
 50
270.0
  0
TEXT
  5
7DF6
330
813F
100
AcDbEntity
  8
3
100
AcDbText
 10
2909.711511341518
 20
1900.959043980909
 30
0.0
 40
75.0
  1
825
 50
90.0
100
AcDbText
  0
POINT
  5
7DF7
330
813F
100
AcDbEntity
  8
DEFPOINTS
  6
ByBlock
 62
     0
100
AcDbPoint
 10
2773.866167799454
 20
2409.887615409481
 30
0.0
  0
POINT
  5
7DF8
330
813F
100
AcDbEntity
  8
DEFPOINTS
  6
ByBlock
 62
     0
100
AcDbPoint
 10
2773.866167799454
 20
1584.887615409481
 30
0.0
  0
POINT
  5
7DF9
330
813F
100
AcDbEntity
  8
DEFPOINTS
  6
ByBlock
 62
     0
100
AcDbPoint
 10
2922.211511341518
 20
1584.887615409481
 30
0.0
  0
ENDBLK
  5
7DFA
330
813F
100
AcDbEntity
  8
0
100
AcDbBlockEnd
  0
BLOCK
  5
8142
330
8141
100
AcDbEntity
  8
0
100
AcDbBlockBegin
  2
*D5
 70
     1
 10
0.0
 20
0.0
 30
0.0
  3
*D5
  1

  0
LINE
  5
7DFC
330
8141
100
AcDbEntity
  8
0
  6
ByBlock
100
AcDbLine
 10
2798.866167799455
 20
2409.887615409481
 30
0.0
 11
3099.494913915321
 21
2409.887615409481
 31
0.0
  0
LINE
  5
7DFD
330
8141
100
AcDbEntity
  8
0
  6
ByBlock
100
AcDbLine
 10
2920.337959649845
 20
1561.887615409481
 30
0.0
 11
3099.494913915321
 21
1561.887615409481
 31
0.0
  0
LINE
  5
7DFE
330
8141
100
AcDbEntity
  8
0
  6
ByBlock
100
AcDbLine
 10
3074.494913915321
 20
2359.887615409481
 30
0.0
 11
3074.494913915321
 21
1611.887615409481
 31
0.0
  0
INSERT
  5
7DFF
330
8141
100
AcDbEntity
  8
0
  6
ByBlock
100
AcDbBlockReference
  2
_OPEN
 10
3074.494913915321
 20
2409.887615409481
 30
0.0
 41
50.0
 42
50.0
 43
50.0
 50
90.0
  0
INSERT
  5
7E00
330
8141
100
AcDbEntity
  8
0
  6
ByBlock
100
AcDbBlockReference
  2
_OPEN
 10
3074.494913915321
 20
1561.887615409481
 30
0.0
 41
50.0
 42
50.0
 43
50.0
 50
270.0
  0
TEXT
  5
7E01
330
8141
100
AcDbEntity
  8
3
100
AcDbText
 10
3061.994913915321
 20
1889.459043980909
 30
0.0
 40
75.0
  1
848
 50
90.0
100
AcDbText
  0
POINT
  5
7E02
330
8141
100
AcDbEntity
  8
DEFPOINTS
  6
ByBlock
 62
     0
100
AcDbPoint
 10
2773.866167799454
 20
2409.887615409481
 30
0.0
  0
POINT
  5
7E03
330
8141
100
AcDbEntity
  8
DEFPOINTS
  6
ByBlock
 62
     0
100
AcDbPoint
 10
2895.337959649845
 20
1561.887615409481
 30
0.0
  0
POINT
  5
7E04
330
8141
100
AcDbEntity
  8
DEFPOINTS
  6
ByBlock
 62
     0
100
AcDbPoint
 10
3074.494913915321
 20
1561.887615409481
 30
0.0
  0
ENDBLK
  5
7E05
330
8141
100
AcDbEntity
  8
0
100
AcDbBlockEnd
  0
BLOCK
  5
8144
330
8143
100
AcDbEntity
  8
0
100
AcDbBlockBegin
  2
*D6
 70
     1
 10
0.0
 20
0.0
 30
0.0
  3
*D6
  1

  0
LINE
  5
7E07
330
8143
100
AcDbEntity
  8
0
  6
ByBlock
100
AcDbLine
 10
2920.337959649845
 20
1561.887615409481
 30
0.0
 11
3100.135824977384
 21
1561.887615409481
 31
0.0
  0
LINE
  5
7E08
330
8143
100
AcDbEntity
  8
0
  6
ByBlock
100
AcDbLine
 10
2753.866167799455
 20
971.8876154094807
 30
0.0
 11
3100.135824977384
 21
971.8876154094807
 31
0.0
  0
LINE
  5
7E09
330
8143
100
AcDbEntity
  8
0
  6
ByBlock
100
AcDbLine
 10
3075.135824977384
 20
1511.887615409481
 30
0.0
 11
3075.135824977384
 21
1021.88761540948
 31
0.0
  0
INSERT
  5
7E0A
330
8143
100
AcDbEntity
  8
0
  6
ByBlock
100
AcDbBlockReference
  2
_OPEN
 10
3075.135824977384
 20
1561.887615409481
 30
0.0
 41
50.0
 42
50.0
 43
50.0
 50
90.0
  0
INSERT
  5
7E0B
330
8143
100
AcDbEntity
  8
0
  6
ByBlock
100
AcDbBlockReference
  2
_OPEN
 10
3075.135824977384
 20
971.8876154094807
 30
0.0
 41
50.0
 42
50.0
 43
50.0
 50
270.0
  0
TEXT
  5
7E0C
330
8143
100
AcDbEntity
  8
3
100
AcDbText
 10
3062.635824977384
 20
1170.459043980909
 30
0.0
 40
75.0
  1
590
 50
90.0
100
AcDbText
  0
POINT
  5
7E0D
330
8143
100
AcDbEntity
  8
DEFPOINTS
  6
ByBlock
 62
     0
100
AcDbPoint
 10
2895.337959649845
 20
1561.887615409481
 30
0.0
  0
POINT
  5
7E0E
330
8143
100
AcDbEntity
  8
DEFPOINTS
  6
ByBlock
 62
     0
100
AcDbPoint
 10
2728.866167799455
 20
971.8876154094807
 30
0.0
  0
POINT
  5
7E0F
330
8143
100
AcDbEntity
  8
DEFPOINTS
  6
ByBlock
 62
     0
100
AcDbPoint
 10
3075.135824977384
 20
971.8876154094807
 30
0.0
  0
ENDBLK
  5
7E10
330
8143
100
AcDbEntity
  8
0
100
AcDbBlockEnd
  0
BLOCK
  5
8146
330
8145
100
AcDbEntity
  8
0
100
AcDbBlockBegin
  2
*D7
 70
     1
 10
0.0
 20
0.0
 30
0.0
  3
*D7
  1

  0
LINE
  5
7E28
330
8145
100
AcDbEntity
  8
0
  6
ByBlock
100
AcDbLine
 10
5441.207505112644
 20
1986.88761540948
 30
0.0
 11
5740.43091600962
 21
1986.88761540948
 31
0.0
  0
LINE
  5
7E29
330
8145
100
AcDbEntity
  8
0
  6
ByBlock
100
AcDbLine
 10
5441.207505112644
 20
1136.887615409481
 30
0.0
 11
5740.43091600962
 21
1136.887615409481
 31
0.0
  0
LINE
  5
7E2A
330
8145
100
AcDbEntity
  8
0
  6
ByBlock
100
AcDbLine
 10
5715.43091600962
 20
1936.88761540948
 30
0.0
 11
5715.43091600962
 21
1186.887615409481
 31
0.0
  0
INSERT
  5
7E2B
330
8145
100
AcDbEntity
  8
0
  6
ByBlock
100
AcDbBlockReference
  2
_OPEN
 10
5715.43091600962
 20
1986.88761540948
 30
0.0
 41
50.0
 42
50.0
 43
50.0
 50
90.0
  0
INSERT
  5
7E2C
330
8145
100
AcDbEntity
  8
0
  6
ByBlock
100
AcDbBlockReference
  2
_OPEN
 10
5715.43091600962
 20
1136.887615409481
 30
0.0
 41
50.0
 42
50.0
 43
50.0
 50
270.0
  0
TEXT
  5
7E2D
330
8145
100
AcDbEntity
  8
3
100
AcDbText
 10
5702.93091600962
 20
1427.959043980909
 30
0.0
 40
75.0
  1
\U+03C6850
 50
90.0
100
AcDbText
  0
POINT
  5
7E2E
330
8145
100
AcDbEntity
  8
DEFPOINTS
  6
ByBlock
 62
     0
100
AcDbPoint
 10
5416.207505112645
 20
1986.88761540948
 30
0.0
  0
POINT
  5
7E2F
330
8145
100
AcDbEntity
  8
DEFPOINTS
  6
ByBlock
 62
     0
100
AcDbPoint
 10
5416.207505112645
 20
1136.887615409481
 30
0.0
  0
POINT
  5
7E30
330
8145
100
AcDbEntity
  8
DEFPOINTS
  6
ByBlock
 62
     0
100
AcDbPoint
 10
5715.43091600962
 20
1136.887615409481
 30
0.0
  0
ENDBLK
  5
7E31
330
8145
100
AcDbEntity
  8
0
100
AcDbBlockEnd
  0
BLOCK
  5
8148
330
8147
100
AcDbEntity
  8
0
100
AcDbBlockBegin
  2
*D8
 70
     1
 10
0.0
 20
0.0
 30
0.0
  3
*D8
  1

  0
LINE
  5
7E3E
330
8147
100
AcDbEntity
  8
0
  6
ByBlock
100
AcDbLine
 10
1728.866167799454
 20
4579.380572240498
 30
0.0
 11
1728.866167799454
 21
4730.503855791452
 31
0.0
  0
LINE
  5
7E3F
330
8147
100
AcDbEntity
  8
0
  6
ByBlock
100
AcDbLine
 10
2728.866167799455
 20
4579.380572240498
 30
0.0
 11
2728.866167799455
 21
4730.503855791452
 31
0.0
  0
LINE
  5
7E40
330
8147
100
AcDbEntity
  8
0
  6
ByBlock
100
AcDbLine
 10
1778.866167799454
 20
4705.503855791452
 30
0.0
 11
2678.866167799455
 21
4705.503855791452
 31
0.0
  0
INSERT
  5
7E41
330
8147
100
AcDbEntity
  8
0
  6
ByBlock
100
AcDbBlockReference
  2
_OPEN
 10
1728.866167799454
 20
4705.503855791452
 30
0.0
 41
50.0
 42
50.0
 43
50.0
 50
180.0
  0
INSERT
  5
7E42
330
8147
100
AcDbEntity
  8
0
  6
ByBlock
100
AcDbBlockReference
  2
_OPEN
 10
2728.866167799455
 20
4705.503855791452
 30
0.0
 41
50.0
 42
50.0
 43
50.0
  0
TEXT
  5
7E43
330
8147
100
AcDbEntity
  8
3
100
AcDbText
 10
2103.866167799455
 20
4718.003855791452
 30
0.0
 40
75.0
  1
1000
100
AcDbText
  0
POINT
  5
7E44
330
8147
100
AcDbEntity
  8
DEFPOINTS
  6
ByBlock
 62
     0
100
AcDbPoint
 10
1728.866167799454
 20
4554.380572240497
 30
0.0
  0
POINT
  5
7E45
330
8147
100
AcDbEntity
  8
DEFPOINTS
  6
ByBlock
 62
     0
100
AcDbPoint
 10
2728.866167799455
 20
4554.380572240497
 30
0.0
  0
POINT
  5
7E46
330
8147
100
AcDbEntity
  8
DEFPOINTS
  6
ByBlock
 62
     0
100
AcDbPoint
 10
2728.866167799455
 20
4705.503855791452
 30
0.0
  0
ENDBLK
  5
7E47
330
8147
100
AcDbEntity
  8
0
100
AcDbBlockEnd
  0
BLOCK
  5
814A
330
8149
100
AcDbEntity
  8
0
100
AcDbBlockBegin
  2
*D9
 70
     1
 10
0.0
 20
0.0
 30
0.0
  3
*D9
  1

  0
LINE
  5
7E49
330
8149
100
AcDbEntity
  8
0
  6
ByBlock
100
AcDbLine
 10
2753.866167799455
 20
4554.380572240497
 30
0.0
 11
2971.802895949344
 21
4554.380572240497
 31
0.0
  0
LINE
  5
7E4A
330
8149
100
AcDbEntity
  8
0
  6
ByBlock
100
AcDbLine
 10
2753.866167799455
 20
3299.3805722405
 30
0.0
 11
2971.802895949344
 21
3299.3805722405
 31
0.0
  0
LINE
  5
7E4B
330
8149
100
AcDbEntity
  8
0
  6
ByBlock
100
AcDbLine
 10
2946.802895949344
 20
4504.380572240497
 30
0.0
 11
2946.802895949344
 21
3349.380572240499
 31
0.0
  0
INSERT
  5
7E4C
330
8149
100
AcDbEntity
  8
0
  6
ByBlock
100
AcDbBlockReference
  2
_OPEN
 10
2946.802895949344
 20
4554.380572240497
 30
0.0
 41
50.0
 42
50.0
 43
50.0
 50
90.0
  0
INSERT
  5
7E4D
330
8149
100
AcDbEntity
  8
0
  6
ByBlock
100
AcDbBlockReference
  2
_OPEN
 10
2946.802895949344
 20
3299.3805722405
 30
0.0
 41
50.0
 42
50.0
 43
50.0
 50
270.0
  0
TEXT
  5
7E4E
330
8149
100
AcDbEntity
  8
3
100
AcDbText
 10
2934.302895949344
 20
3801.8805722405
 30
0.0
 40
75.0
  1
1255
 50
90.0
100
AcDbText
  0
POINT
  5
7E4F
330
8149
100
AcDbEntity
  8
DEFPOINTS
  6
ByBlock
 62
     0
100
AcDbPoint
 10
2728.866167799455
 20
4554.380572240497
 30
0.0
  0
POINT
  5
7E50
330
8149
100
AcDbEntity
  8
DEFPOINTS
  6
ByBlock
 62
     0
100
AcDbPoint
 10
2728.866167799455
 20
3299.3805722405
 30
0.0
  0
POINT
  5
7E51
330
8149
100
AcDbEntity
  8
DEFPOINTS
  6
ByBlock
 62
     0
100
AcDbPoint
 10
2946.802895949344
 20
3299.3805722405
 30
0.0
  0
ENDBLK
  5
7E52
330
8149
100
AcDbEntity
  8
0
100
AcDbBlockEnd
  0
BLOCK
  5
814C
330
814B
100
AcDbEntity
  8
0
100
AcDbBlockBegin
  2
*D10
 70
     1
 10
0.0
 20
0.0
 30
0.0
  3
*D10
  1

  0
LINE
  5
7E54
330
814B
100
AcDbEntity
  8
0
  6
ByBlock
100
AcDbLine
 10
953.8661677994548
 20
4049.380572240499
 30
0.0
 11
801.7133386761415
 21
4049.380572240499
 31
0.0
  0
LINE
  5
7E55
330
814B
100
AcDbEntity
  8
0
  6
ByBlock
100
AcDbLine
 10
953.8661677994548
 20
3299.3805722405
 30
0.0
 11
801.7133386761415
 21
3299.3805722405
 31
0.0
  0
LINE
  5
7E56
330
814B
100
AcDbEntity
  8
0
  6
ByBlock
100
AcDbLine
 10
826.7133386761415
 20
3999.380572240499
 30
0.0
 11
826.7133386761415
 21
3349.3805722405
 31
0.0
  0
INSERT
  5
7E57
330
814B
100
AcDbEntity
  8
0
  6
ByBlock
100
AcDbBlockReference
  2
_OPEN
 10
826.7133386761415
 20
4049.380572240499
 30
0.0
 41
50.0
 42
50.0
 43
50.0
 50
90.0
  0
INSERT
  5
7E58
330
814B
100
AcDbEntity
  8
0
  6
ByBlock
100
AcDbBlockReference
  2
_OPEN
 10
826.7133386761415
 20
3299.3805722405
 30
0.0
 41
50.0
 42
50.0
 43
50.0
 50
270.0
  0
TEXT
  5
7E59
330
814B
100
AcDbEntity
  8
3
100
AcDbText
 10
814.2133386761415
 20
3577.952000811928
 30
0.0
 40
75.0
  1
750
 50
90.0
100
AcDbText
  0
POINT
  5
7E5A
330
814B
100
AcDbEntity
  8
DEFPOINTS
  6
ByBlock
 62
     0
100
AcDbPoint
 10
978.8661677994548
 20
4049.380572240499
 30
0.0
  0
POINT
  5
7E5B
330
814B
100
AcDbEntity
  8
DEFPOINTS
  6
ByBlock
 62
     0
100
AcDbPoint
 10
978.8661677994548
 20
3299.3805722405
 30
0.0
  0
POINT
  5
7E5C
330
814B
100
AcDbEntity
  8
DEFPOINTS
  6
ByBlock
 62
     0
100
AcDbPoint
 10
826.7133386761415
 20
3299.3805722405
 30
0.0
  0
ENDBLK
  5
7E5D
330
814B
100
AcDbEntity
  8
0
100
AcDbBlockEnd
  0
BLOCK
  5
814E
330
814D
100
AcDbEntity
  8
0
100
AcDbBlockBegin
  2
*D11
 70
     1
 10
0.0
 20
0.0
 30
0.0
  3
*D11
  1

  0
LINE
  5
7E5F
330
814D
100
AcDbEntity
  8
0
  6
ByBlock
100
AcDbLine
 10
978.8661677994548
 20
3274.3805722405
 30
0.0
 11
978.8661677994548
 21
3013.7147873961
 31
0.0
  0
LINE
  5
7E60
330
814D
100
AcDbEntity
  8
0
  6
ByBlock
100
AcDbLine
 10
2728.866167799455
 20
3274.380572240499
 30
0.0
 11
2728.866167799455
 21
3013.7147873961
 31
0.0
  0
LINE
  5
7E61
330
814D
100
AcDbEntity
  8
0
  6
ByBlock
100
AcDbLine
 10
1028.866167799455
 20
3038.7147873961
 30
0.0
 11
2678.866167799455
 21
3038.7147873961
 31
0.0
  0
INSERT
  5
7E62
330
814D
100
AcDbEntity
  8
0
  6
ByBlock
100
AcDbBlockReference
  2
_OPEN
 10
978.8661677994548
 20
3038.7147873961
 30
0.0
 41
50.0
 42
50.0
 43
50.0
 50
180.0
  0
INSERT
  5
7E63
330
814D
100
AcDbEntity
  8
0
  6
ByBlock
100
AcDbBlockReference
  2
_OPEN
 10
2728.866167799455
 20
3038.7147873961
 30
0.0
 41
50.0
 42
50.0
 43
50.0
  0
TEXT
  5
7E64
330
814D
100
AcDbEntity
  8
3
100
AcDbText
 10
1728.866167799455
 20
3051.2147873961
 30
0.0
 40
75.0
  1
1750
100
AcDbText
  0
POINT
  5
7E65
330
814D
100
AcDbEntity
  8
DEFPOINTS
  6
ByBlock
 62
     0
100
AcDbPoint
 10
978.8661677994548
 20
3299.3805722405
 30
0.0
  0
POINT
  5
7E66
330
814D
100
AcDbEntity
  8
DEFPOINTS
  6
ByBlock
 62
     0
100
AcDbPoint
 10
2728.866167799455
 20
3299.3805722405
 30
0.0
  0
POINT
  5
7E67
330
814D
100
AcDbEntity
  8
DEFPOINTS
  6
ByBlock
 62
     0
100
AcDbPoint
 10
2728.866167799455
 20
3038.7147873961
 30
0.0
  0
ENDBLK
  5
7E68
330
814D
100
AcDbEntity
  8
0
100
AcDbBlockEnd
  0
BLOCK
  5
8150
330
814F
100
AcDbEntity
  8
0
100
AcDbBlockBegin
  2
*D12
 70
     1
 10
0.0
 20
0.0
 30
0.0
  3
*D12
  1

  0
LINE
  5
7E6A
330
814F
100
AcDbEntity
  8
0
  6
ByBlock
100
AcDbLine
 10
4413.907505112644
 20
2434.887615409481
 30
0.0
 11
4413.907505112644
 21
2587.190522429095
 31
0.0
  0
LINE
  5
7E6B
330
814F
100
AcDbEntity
  8
0
  6
ByBlock
100
AcDbLine
 10
5413.907505112645
 20
2434.887615409481
 30
0.0
 11
5413.907505112645
 21
2587.190522429095
 31
0.0
  0
LINE
  5
7E6C
330
814F
100
AcDbEntity
  8
0
  6
ByBlock
100
AcDbLine
 10
4463.907505112644
 20
2562.190522429094
 30
0.0
 11
5363.907505112646
 21
2562.190522429094
 31
0.0
  0
INSERT
  5
7E6D
330
814F
100
AcDbEntity
  8
0
  6
ByBlock
100
AcDbBlockReference
  2
_OPEN
 10
4413.907505112644
 20
2562.190522429094
 30
0.0
 41
50.0
 42
50.0
 43
50.0
 50
180.0
  0
INSERT
  5
7E6E
330
814F
100
AcDbEntity
  8
0
  6
ByBlock
100
AcDbBlockReference
  2
_OPEN
 10
5413.907505112645
 20
2562.190522429094
 30
0.0
 41
50.0
 42
50.0
 43
50.0
  0
TEXT
  5
7E6F
330
814F
100
AcDbEntity
  8
3
100
AcDbText
 10
4788.907505112644
 20
2574.690522429095
 30
0.0
 40
75.0
  1
1000
100
AcDbText
  0
POINT
  5
7E70
330
814F
100
AcDbEntity
  8
DEFPOINTS
  6
ByBlock
 62
     0
100
AcDbPoint
 10
4413.907505112644
 20
2409.887615409481
 30
0.0
  0
POINT
  5
7E71
330
814F
100
AcDbEntity
  8
DEFPOINTS
  6
ByBlock
 62
     0
100
AcDbPoint
 10
5413.907505112645
 20
2409.887615409481
 30
0.0
  0
POINT
  5
7E72
330
814F
100
AcDbEntity
  8
DEFPOINTS
  6
ByBlock
 62
     0
100
AcDbPoint
 10
5413.907505112645
 20
2562.190522429094
 30
0.0
  0
ENDBLK
  5
7E73
330
814F
100
AcDbEntity
  8
0
100
AcDbBlockEnd
  0
BLOCK
  5
8152
330
8151
100
AcDbEntity
  8
0
100
AcDbBlockBegin
  2
*D13
 70
     1
 10
0.0
 20
0.0
 30
0.0
  3
*D13
  1

  0
LINE
  5
7E75
330
8151
100
AcDbEntity
  8
0
  6
ByBlock
100
AcDbLine
 10
1545.206084046463
 20
1586.887615409481
 30
0.0
 11
1545.206084046463
 21
2589.20679631228
 31
0.0
  0
LINE
  5
7E76
330
8151
100
AcDbEntity
  8
0
  6
ByBlock
100
AcDbLine
 10
2228.866167799455
 20
2445.570948036724
 30
0.0
 11
2228.866167799455
 21
2589.20679631228
 31
0.0
  0
LINE
  5
7E77
330
8151
100
AcDbEntity
  8
0
  6
ByBlock
100
AcDbLine
 10
1595.206084046463
 20
2564.20679631228
 30
0.0
 11
2178.866167799455
 21
2564.20679631228
 31
0.0
  0
INSERT
  5
7E78
330
8151
100
AcDbEntity
  8
0
  6
ByBlock
100
AcDbBlockReference
  2
_OPEN
 10
1545.206084046463
 20
2564.20679631228
 30
0.0
 41
50.0
 42
50.0
 43
50.0
 50
180.0
  0
INSERT
  5
7E79
330
8151
100
AcDbEntity
  8
0
  6
ByBlock
100
AcDbBlockReference
  2
_OPEN
 10
2228.866167799455
 20
2564.20679631228
 30
0.0
 41
50.0
 42
50.0
 43
50.0
  0
TEXT
  5
7E7A
330
8151
100
AcDbEntity
  8
3
100
AcDbText
 10
1792.393268780102
 20
2576.706796312281
 30
0.0
 40
75.0
  1
686
100
AcDbText
  0
POINT
  5
7E7B
330
8151
100
AcDbEntity
  8
DEFPOINTS
  6
ByBlock
 62
     0
100
AcDbPoint
 10
1545.206084046463
 20
1561.887615409481
 30
0.0
  0
POINT
  5
7E7C
330
8151
100
AcDbEntity
  8
DEFPOINTS
  6
ByBlock
 62
     0
100
AcDbPoint
 10
2228.866167799455
 20
2420.570948036724
 30
0.0
  0
POINT
  5
7E7D
330
8151
100
AcDbEntity
  8
DEFPOINTS
  6
ByBlock
 62
     0
100
AcDbPoint
 10
2228.866167799455
 20
2564.20679631228
 30
0.0
  0
ENDBLK
  5
7E7E
330
8151
100
AcDbEntity
  8
0
100
AcDbBlockEnd
  0
BLOCK
  5
8154
330
8153
100
AcDbEntity
  8
0
100
AcDbBlockBegin
  2
*D14
 70
     1
 10
0.0
 20
0.0
 30
0.0
  3
*D14
  1

  0
LINE
  5
7E80
330
8153
100
AcDbEntity
  8
0
  6
ByBlock
100
AcDbLine
 10
2228.866167799455
 20
2445.570948036724
 30
0.0
 11
2228.866167799455
 21
2589.20679631228
 31
0.0
  0
LINE
  5
7E81
330
8153
100
AcDbEntity
  8
0
  6
ByBlock
100
AcDbLine
 10
2773.866167799454
 20
2477.387615409481
 30
0.0
 11
2773.866167799454
 21
2589.20679631228
 31
0.0
  0
LINE
  5
7E82
330
8153
100
AcDbEntity
  8
0
  6
ByBlock
100
AcDbLine
 10
2278.866167799455
 20
2564.20679631228
 30
0.0
 11
2723.866167799455
 21
2564.20679631228
 31
0.0
  0
INSERT
  5
7E83
330
8153
100
AcDbEntity
  8
0
  6
ByBlock
100
AcDbBlockReference
  2
_OPEN
 10
2228.866167799455
 20
2564.20679631228
 30
0.0
 41
50.0
 42
50.0
 43
50.0
 50
180.0
  0
INSERT
  5
7E84
330
8153
100
AcDbEntity
  8
0
  6
ByBlock
100
AcDbBlockReference
  2
_OPEN
 10
2773.866167799454
 20
2564.20679631228
 30
0.0
 41
50.0
 42
50.0
 43
50.0
  0
TEXT
  5
7E85
330
8153
100
AcDbEntity
  8
3
100
AcDbText
 10
2404.937596370883
 20
2576.706796312281
 30
0.0
 40
75.0
  1
545
100
AcDbText
  0
POINT
  5
7E86
330
8153
100
AcDbEntity
  8
DEFPOINTS
  6
ByBlock
 62
     0
100
AcDbPoint
 10
2228.866167799455
 20
2420.570948036724
 30
0.0
  0
POINT
  5
7E87
330
8153
100
AcDbEntity
  8
DEFPOINTS
  6
ByBlock
 62
     0
100
AcDbPoint
 10
2773.866167799454
 20
2452.387615409481
 30
0.0
  0
POINT
  5
7E88
330
8153
100
AcDbEntity
  8
DEFPOINTS
  6
ByBlock
 62
     0
100
AcDbPoint
 10
2773.866167799454
 20
2564.20679631228
 30
0.0
  0
ENDBLK
  5
7E89
330
8153
100
AcDbEntity
  8
0
100
AcDbBlockEnd
  0
BLOCK
  5
8156
330
8155
100
AcDbEntity
  8
0
100
AcDbBlockBegin
  2
*D15
 70
     1
 10
0.0
 20
0.0
 30
0.0
  3
*D15
  1

  0
LINE
  5
7E8B
330
8155
100
AcDbEntity
  8
0
  6
ByBlock
100
AcDbLine
 10
978.8661677994548
 20
1096.887615409481
 30
0.0
 11
978.8661677994548
 21
2736.143709729451
 31
0.0
  0
LINE
  5
7E8C
330
8155
100
AcDbEntity
  8
0
  6
ByBlock
100
AcDbLine
 10
2773.866167799454
 20
2477.387615409481
 30
0.0
 11
2773.866167799454
 21
2736.143709729451
 31
0.0
  0
LINE
  5
7E8D
330
8155
100
AcDbEntity
  8
0
  6
ByBlock
100
AcDbLine
 10
1028.866167799454
 20
2711.143709729451
 30
0.0
 11
2723.866167799455
 21
2711.143709729451
 31
0.0
  0
INSERT
  5
7E8E
330
8155
100
AcDbEntity
  8
0
  6
ByBlock
100
AcDbBlockReference
  2
_OPEN
 10
978.8661677994548
 20
2711.143709729451
 30
0.0
 41
50.0
 42
50.0
 43
50.0
 50
180.0
  0
INSERT
  5
7E8F
330
8155
100
AcDbEntity
  8
0
  6
ByBlock
100
AcDbBlockReference
  2
_OPEN
 10
2773.866167799454
 20
2711.143709729451
 30
0.0
 41
50.0
 42
50.0
 43
50.0
  0
TEXT
  5
7E90
330
8155
100
AcDbEntity
  8
3
100
AcDbText
 10
1751.366167799454
 20
2723.643709729451
 30
0.0
 40
75.0
  1
1795
100
AcDbText
  0
POINT
  5
7E91
330
8155
100
AcDbEntity
  8
DEFPOINTS
  6
ByBlock
 62
     0
100
AcDbPoint
 10
978.8661677994548
 20
1071.88761540948
 30
0.0
  0
POINT
  5
7E92
330
8155
100
AcDbEntity
  8
DEFPOINTS
  6
ByBlock
 62
     0
100
AcDbPoint
 10
2773.866167799454
 20
2452.387615409481
 30
0.0
  0
POINT
  5
7E93
330
8155
100
AcDbEntity
  8
DEFPOINTS
  6
ByBlock
 62
     0
100
AcDbPoint
 10
2773.866167799454
 20
2711.143709729451
 30
0.0
  0
ENDBLK
  5
7E94
330
8155
100
AcDbEntity
  8
0
100
AcDbBlockEnd
  0
BLOCK
  5
8158
330
8157
100
AcDbEntity
  8
0
100
AcDbBlockBegin
  2
*D16
 70
     1
 10
0.0
 20
0.0
 30
0.0
  3
*D16
  1

  0
LINE
  5
80A3
330
8157
100
AcDbEntity
  8
3
100
AcDbLine
 10
609.2355563078252
 20
4918.745515194763
 30
0.0
 11
609.2355563078252
 21
5574.868798745717
 31
0.0
  0
LINE
  5
80A4
330
8157
100
AcDbEntity
  8
3
100
AcDbLine
 10
1309.235556307824
 20
5549.868798745717
 30
0.0
 11
659.2355563078252
 21
5549.868798745717
 31
0.0
  0
INSERT
  5
80A5
330
8157
100
AcDbEntity
  8
3
100
AcDbBlockReference
  2
_OPEN
 10
1359.235556307824
 20
5549.868798745717
 30
0.0
 41
50.0
 42
50.0
 43
50.0
  0
INSERT
  5
80A6
330
8157
100
AcDbEntity
  8
3
100
AcDbBlockReference
  2
_OPEN
 10
609.2355563078252
 20
5549.868798745717
 30
0.0
 41
50.0
 42
50.0
 43
50.0
 50
180.0
  0
TEXT
  5
80B6
330
8157
100
AcDbEntity
  8
3
100
AcDbText
 10
834.2360000000001
 20
5467.12
 30
0.0
 40
75.0
  1
750
100
AcDbText
  0
POINT
  5
80A8
330
8157
100
AcDbEntity
  8
DEFPOINTS
 62
     0
100
AcDbPoint
 10
1359.235556307824
 20
5398.745515194764
 30
0.0
  0
POINT
  5
80A9
330
8157
100
AcDbEntity
  8
DEFPOINTS
 62
     0
100
AcDbPoint
 10
609.2355563078252
 20
4893.745515194763
 30
0.0
  0
POINT
  5
80AA
330
8157
100
AcDbEntity
  8
DEFPOINTS
 62
     0
100
AcDbPoint
 10
609.2355563078252
 20
5549.868798745717
 30
0.0
  0
ENDBLK
  5
7ED9
330
8157
100
AcDbEntity
  8
0
100
AcDbBlockEnd
  0
BLOCK
  5
815A
330
8159
100
AcDbEntity
  8
0
100
AcDbBlockBegin
  2
*D17
 70
     1
 10
0.0
 20
0.0
 30
0.0
  3
*D17
  1

  0
LINE
  5
7F8B
330
8159
100
AcDbEntity
  8
0
  6
ByBlock
100
AcDbLine
 10
4682.238642150313
 20
2391.752558363744
 30
0.0
 11
4682.238642150313
 21
3568.235904942719
 31
0.0
  0
LINE
  5
7F8C
330
8159
100
AcDbEntity
  8
0
  6
ByBlock
100
AcDbLine
 10
4082.238642150311
 20
3501.860932132735
 30
0.0
 11
4082.238642150311
 21
3568.235904942719
 31
0.0
  0
LINE
  5
7F8D
330
8159
100
AcDbEntity
  8
0
  6
ByBlock
100
AcDbLine
 10
4632.238642150313
 20
3543.235904942721
 30
0.0
 11
4132.238642150311
 21
3543.235904942721
 31
0.0
  0
INSERT
  5
7F8E
330
8159
100
AcDbEntity
  8
0
  6
ByBlock
100
AcDbBlockReference
  2
_OPEN
 10
4682.238642150313
 20
3543.235904942721
 30
0.0
 41
50.0
 42
50.0
 43
50.0
  0
INSERT
  5
7F8F
330
8159
100
AcDbEntity
  8
0
  6
ByBlock
100
AcDbBlockReference
  2
_OPEN
 10
4082.238642150311
 20
3543.235904942721
 30
0.0
 41
50.0
 42
50.0
 43
50.0
 50
180.0
  0
TEXT
  5
7F90
330
8159
100
AcDbEntity
  8
3
100
AcDbText
 10
4244.738642150312
 20
3587.878762085576
 30
0.0
 40
75.0
  1
(610)
100
AcDbText
  0
POINT
  5
7F91
330
8159
100
AcDbEntity
  8
DEFPOINTS
  6
ByBlock
 62
     0
100
AcDbPoint
 10
4682.238642150313
 20
2366.752558363744
 30
0.0
  0
POINT
  5
7F92
330
8159
100
AcDbEntity
  8
DEFPOINTS
  6
ByBlock
 62
     0
100
AcDbPoint
 10
4082.238642150311
 20
3476.860932132735
 30
0.0
  0
POINT
  5
7F93
330
8159
100
AcDbEntity
  8
DEFPOINTS
  6
ByBlock
 62
     0
100
AcDbPoint
 10
4082.238642150311
 20
3543.235904942721
 30
0.0
  0
ENDBLK
  5
7F94
330
8159
100
AcDbEntity
  8
0
100
AcDbBlockEnd
  0
BLOCK
  5
815C
330
815B
100
AcDbEntity
  8
0
100
AcDbBlockBegin
  2
*D18
 70
     1
 10
0.0
 20
0.0
 30
0.0
  3
*D18
  1

  0
LINE
  5
80AB
330
815B
100
AcDbEntity
  8
3
100
AcDbLine
 10
3272.238642150312
 20
2651.252558363744
 30
0.0
 11
3272.238642150312
 21
3568.235904942719
 31
0.0
  0
LINE
  5
80AC
330
815B
100
AcDbEntity
  8
3
100
AcDbLine
 10
4032.238642150312
 20
3543.235904942721
 30
0.0
 11
3322.238642150312
 21
3543.235904942721
 31
0.0
  0
INSERT
  5
80AD
330
815B
100
AcDbEntity
  8
3
100
AcDbBlockReference
  2
_OPEN
 10
4082.238642150311
 20
3543.235904942721
 30
0.0
 41
50.0
 42
50.0
 43
50.0
  0
INSERT
  5
80AE
330
815B
100
AcDbEntity
  8
3
100
AcDbBlockReference
  2
_OPEN
 10
3272.238642150312
 20
3543.235904942721
 30
0.0
 41
50.0
 42
50.0
 43
50.0
 50
180.0
  0
TEXT
  5
80B7
330
815B
100
AcDbEntity
  8
3
100
AcDbText
 10
3527.24
 20
3522.99
 30
0.0
 40
75.0
  1
MAX
100
AcDbText
  0
TEXT
  5
80B8
330
815B
100
AcDbEntity
  8
3
100
AcDbText
 10
3527.24
 20
3425.49
 30
0.0
 40
75.0
  1
860
100
AcDbText
  0
POINT
  5
80B0
330
815B
100
AcDbEntity
  8
DEFPOINTS
 62
     0
100
AcDbPoint
 10
4082.238642150311
 20
3476.860932132735
 30
0.0
  0
POINT
  5
80B1
330
815B
100
AcDbEntity
  8
DEFPOINTS
 62
     0
100
AcDbPoint
 10
3272.238642150312
 20
2626.252558363745
 30
0.0
  0
POINT
  5
80B2
330
815B
100
AcDbEntity
  8
DEFPOINTS
 62
     0
100
AcDbPoint
 10
3272.238642150312
 20
3543.235904942721
 30
0.0
  0
ENDBLK
  5
7F89
330
815B
100
AcDbEntity
  8
0
100
AcDbBlockEnd
  0
BLOCK
  5
815E
330
815D
100
AcDbEntity
  8
0
100
AcDbBlockBegin
  2
_DOT
 70
     0
 10
0.0
 20
0.0
 30
0.0
  3
_DOT
  1

  0
LWPOLYLINE
  5
7F73
330
815D
100
AcDbEntity
  8
0
  6
ByBlock
 62
     0
100
AcDbPolyline
 90
        2
 70
     1
 43
0.25
 10
-0.125
 20
0.0
 42
1.0
 10
0.125
 20
0.0
 42
1.0
  0
LINE
  5
7F77
330
815D
100
AcDbEntity
  8
0
  6
ByBlock
 62
     0
100
AcDbLine
 10
-0.25
 20
0.0
 30
0.0
 11
-1.0
 21
0.0
 31
0.0
  0
ENDBLK
  5
7F3C
330
815D
100
AcDbEntity
  8
0
100
AcDbBlockEnd
  0
BLOCK
  5
8160
330
815F
100
AcDbEntity
  8
0
100
AcDbBlockBegin
  2
_NONE
 70
     0
 10
0.0
 20
0.0
 30
0.0
  3
_NONE
  1

  0
CIRCLE
  5
7FD3
330
815F
100
AcDbEntity
  8
0
  6
ByBlock
 62
     0
100
AcDbCircle
 10
0.0
 20
0.0
 30
0.0
 40
0.25
  0
ENDBLK
  5
7FD4
330
815F
100
AcDbEntity
  8
0
100
AcDbBlockEnd
  0
BLOCK
  5
8162
330
8161
100
AcDbEntity
  8
0
100
AcDbBlockBegin
  2
*D21
 70
     1
 10
0.0
 20
0.0
 30
0.0
  3
*D21
  1

  0
LINE
  5
8008
330
8161
100
AcDbEntity
  8
0
  6
ByBlock
 62
     0
100
AcDbLine
 10
609.2355563078252
 20
1791.252558363745
 30
0.0
 11
609.2355563078252
 21
1619.501701568478
 31
0.0
  0
LINE
  5
8009
330
8161
100
AcDbEntity
  8
0
  6
ByBlock
 62
     0
100
AcDbLine
 10
1859.235556307824
 20
1791.252558363744
 30
0.0
 11
1859.235556307824
 21
1619.501701568478
 31
0.0
  0
LINE
  5
800A
330
8161
100
AcDbEntity
  8
0
  6
ByBlock
 62
     0
100
AcDbLine
 10
659.2355563078252
 20
1644.501701568479
 30
0.0
 11
1809.235556307825
 21
1644.501701568479
 31
0.0
  0
INSERT
  5
800B
330
8161
100
AcDbEntity
  8
0
  6
ByBlock
 62
     0
100
AcDbBlockReference
  2
_OPEN
 10
609.2355563078252
 20
1644.501701568479
 30
0.0
 41
50.0
 42
50.0
 43
50.0
 50
180.0
  0
INSERT
  5
800C
330
8161
100
AcDbEntity
  8
0
  6
ByBlock
 62
     0
100
AcDbBlockReference
  2
_OPEN
 10
1859.235556307824
 20
1644.501701568479
 30
0.0
 41
50.0
 42
50.0
 43
50.0
  0
TEXT
  5
800D
330
8161
100
AcDbEntity
  8
3
 62
     0
100
AcDbText
 10
1109.235556307824
 20
1669.501701568479
 30
0.0
 40
75.0
  1
1250
100
AcDbText
  0
POINT
  5
800E
330
8161
100
AcDbEntity
  8
DEFPOINTS
  6
ByBlock
 62
     0
100
AcDbPoint
 10
609.2355563078252
 20
1816.252558363744
 30
0.0
  0
POINT
  5
800F
330
8161
100
AcDbEntity
  8
DEFPOINTS
  6
ByBlock
 62
     0
100
AcDbPoint
 10
1859.235556307824
 20
1816.252558363744
 30
0.0
  0
POINT
  5
8010
330
8161
100
AcDbEntity
  8
DEFPOINTS
  6
ByBlock
 62
     0
100
AcDbPoint
 10
1859.235556307824
 20
1644.501701568479
 30
0.0
  0
ENDBLK
  5
8011
330
8161
100
AcDbEntity
  8
0
100
AcDbBlockEnd
  0
BLOCK
  5
8164
330
8163
100
AcDbEntity
  8
0
100
AcDbBlockBegin
  2
*D22
 70
     1
 10
0.0
 20
0.0
 30
0.0
  3
*D22
  1

  0
LINE
  5
8015
330
8163
100
AcDbEntity
  8
0
  6
ByBlock
 62
     0
100
AcDbLine
 10
1859.235556307824
 20
1791.252558363744
 30
0.0
 11
1859.235556307824
 21
1619.501701568478
 31
0.0
  0
LINE
  5
8016
330
8163
100
AcDbEntity
  8
0
  6
ByBlock
 62
     0
100
AcDbLine
 10
2359.235556307825
 20
1791.252558363745
 30
0.0
 11
2359.235556307825
 21
1619.501701568478
 31
0.0
  0
LINE
  5
8017
330
8163
100
AcDbEntity
  8
0
  6
ByBlock
 62
     0
100
AcDbLine
 10
1909.235556307825
 20
1644.501701568479
 30
0.0
 11
2309.235556307825
 21
1644.501701568479
 31
0.0
  0
INSERT
  5
8018
330
8163
100
AcDbEntity
  8
0
  6
ByBlock
 62
     0
100
AcDbBlockReference
  2
_OPEN
 10
1859.235556307824
 20
1644.501701568479
 30
0.0
 41
50.0
 42
50.0
 43
50.0
 50
180.0
  0
INSERT
  5
8019
330
8163
100
AcDbEntity
  8
0
  6
ByBlock
 62
     0
100
AcDbBlockReference
  2
_OPEN
 10
2359.235556307825
 20
1644.501701568479
 30
0.0
 41
50.0
 42
50.0
 43
50.0
  0
TEXT
  5
801A
330
8163
100
AcDbEntity
  8
3
 62
     0
100
AcDbText
 10
2012.806984879254
 20
1669.501701568479
 30
0.0
 40
75.0
  1
500
100
AcDbText
  0
POINT
  5
801B
330
8163
100
AcDbEntity
  8
DEFPOINTS
  6
ByBlock
 62
     0
100
AcDbPoint
 10
1859.235556307824
 20
1816.252558363744
 30
0.0
  0
POINT
  5
801C
330
8163
100
AcDbEntity
  8
DEFPOINTS
  6
ByBlock
 62
     0
100
AcDbPoint
 10
2359.235556307825
 20
1816.252558363744
 30
0.0
  0
POINT
  5
801D
330
8163
100
AcDbEntity
  8
DEFPOINTS
  6
ByBlock
 62
     0
100
AcDbPoint
 10
2359.235556307825
 20
1644.501701568479
 30
0.0
  0
ENDBLK
  5
801E
330
8163
100
AcDbEntity
  8
0
100
AcDbBlockEnd
  0
BLOCK
  5
8166
330
8165
100
AcDbEntity
  8
0
100
AcDbBlockBegin
  2
*D23
 70
     1
 10
0.0
 20
0.0
 30
0.0
  3
*D23
  1

  0
LINE
  5
8022
330
8165
100
AcDbEntity
  8
0
  6
ByBlock
 62
     0
100
AcDbLine
 10
3380.238642150312
 20
1791.252558363745
 30
0.0
 11
3380.238642150312
 21
1619.501701568478
 31
0.0
  0
LINE
  5
8023
330
8165
100
AcDbEntity
  8
0
  6
ByBlock
 62
     0
100
AcDbLine
 10
4082.238642150311
 20
1791.252558363744
 30
0.0
 11
4082.238642150311
 21
1619.501701568478
 31
0.0
  0
LINE
  5
8024
330
8165
100
AcDbEntity
  8
0
  6
ByBlock
 62
     0
100
AcDbLine
 10
3430.238642150313
 20
1644.501701568479
 30
0.0
 11
4032.238642150312
 21
1644.501701568479
 31
0.0
  0
INSERT
  5
8025
330
8165
100
AcDbEntity
  8
0
  6
ByBlock
 62
     0
100
AcDbBlockReference
  2
_OPEN
 10
3380.238642150312
 20
1644.501701568479
 30
0.0
 41
50.0
 42
50.0
 43
50.0
 50
180.0
  0
INSERT
  5
8026
330
8165
100
AcDbEntity
  8
0
  6
ByBlock
 62
     0
100
AcDbBlockReference
  2
_OPEN
 10
4082.238642150311
 20
1644.501701568479
 30
0.0
 41
50.0
 42
50.0
 43
50.0
  0
TEXT
  5
8027
330
8165
100
AcDbEntity
  8
3
 62
     0
100
AcDbText
 10
3634.810070721741
 20
1669.501701568479
 30
0.0
 40
75.0
  1
702
100
AcDbText
  0
POINT
  5
8028
330
8165
100
AcDbEntity
  8
DEFPOINTS
  6
ByBlock
 62
     0
100
AcDbPoint
 10
3380.238642150312
 20
1816.252558363744
 30
0.0
  0
POINT
  5
8029
330
8165
100
AcDbEntity
  8
DEFPOINTS
  6
ByBlock
 62
     0
100
AcDbPoint
 10
4082.238642150311
 20
1816.252558363744
 30
0.0
  0
POINT
  5
802A
330
8165
100
AcDbEntity
  8
DEFPOINTS
  6
ByBlock
 62
     0
100
AcDbPoint
 10
4082.238642150311
 20
1644.501701568479
 30
0.0
  0
ENDBLK
  5
802B
330
8165
100
AcDbEntity
  8
0
100
AcDbBlockEnd
  0
BLOCK
  5
8168
330
8167
100
AcDbEntity
  8
0
100
AcDbBlockBegin
  2
*D24
 70
     1
 10
0.0
 20
0.0
 30
0.0
  3
*D24
  1

  0
LINE
  5
802F
330
8167
100
AcDbEntity
  8
0
  6
ByBlock
 62
     0
100
AcDbLine
 10
4082.238642150311
 20
1791.252558363744
 30
0.0
 11
4082.238642150311
 21
1619.501701568478
 31
0.0
  0
LINE
  5
8030
330
8167
100
AcDbEntity
  8
0
  6
ByBlock
 62
     0
100
AcDbLine
 10
4635.238642150311
 20
1791.252558363745
 30
0.0
 11
4635.238642150311
 21
1619.501701568478
 31
0.0
  0
LINE
  5
8031
330
8167
100
AcDbEntity
  8
0
  6
ByBlock
 62
     0
100
AcDbLine
 10
4132.238642150311
 20
1644.501701568479
 30
0.0
 11
4585.238642150311
 21
1644.501701568479
 31
0.0
  0
INSERT
  5
8032
330
8167
100
AcDbEntity
  8
0
  6
ByBlock
 62
     0
100
AcDbBlockReference
  2
_OPEN
 10
4082.238642150311
 20
1644.501701568479
 30
0.0
 41
50.0
 42
50.0
 43
50.0
 50
180.0
  0
INSERT
  5
8033
330
8167
100
AcDbEntity
  8
0
  6
ByBlock
 62
     0
100
AcDbBlockReference
  2
_OPEN
 10
4635.238642150311
 20
1644.501701568479
 30
0.0
 41
50.0
 42
50.0
 43
50.0
  0
TEXT
  5
8034
330
8167
100
AcDbEntity
  8
3
 62
     0
100
AcDbText
 10
4262.310070721741
 20
1669.501701568479
 30
0.0
 40
75.0
  1
553
100
AcDbText
  0
POINT
  5
8035
330
8167
100
AcDbEntity
  8
DEFPOINTS
  6
ByBlock
 62
     0
100
AcDbPoint
 10
4082.238642150311
 20
1816.252558363744
 30
0.0
  0
POINT
  5
8036
330
8167
100
AcDbEntity
  8
DEFPOINTS
  6
ByBlock
 62
     0
100
AcDbPoint
 10
4635.238642150311
 20
1816.252558363744
 30
0.0
  0
POINT
  5
8037
330
8167
100
AcDbEntity
  8
DEFPOINTS
  6
ByBlock
 62
     0
100
AcDbPoint
 10
4635.238642150311
 20
1644.501701568479
 30
0.0
  0
ENDBLK
  5
8038
330
8167
100
AcDbEntity
  8
0
100
AcDbBlockEnd
  0
BLOCK
  5
816A
330
8169
100
AcDbEntity
  8
0
100
AcDbBlockBegin
  2
*D25
 70
     1
 10
0.0
 20
0.0
 30
0.0
  3
*D25
  1

  0
LINE
  5
803C
330
8169
100
AcDbEntity
  8
0
  6
ByBlock
 62
     0
100
AcDbLine
 10
2384.235556307825
 20
1816.252558363744
 30
0.0
 11
2878.179816592743
 21
1816.252558363744
 31
0.0
  0
LINE
  5
803D
330
8169
100
AcDbEntity
  8
0
  6
ByBlock
 62
     0
100
AcDbLine
 10
2454.235556307825
 20
3254.252558363746
 30
0.0
 11
2878.179816592743
 21
3254.252558363746
 31
0.0
  0
LINE
  5
803E
330
8169
100
AcDbEntity
  8
0
  6
ByBlock
 62
     0
100
AcDbLine
 10
2853.179816592743
 20
1866.252558363744
 30
0.0
 11
2853.179816592743
 21
3204.252558363746
 31
0.0
  0
INSERT
  5
803F
330
8169
100
AcDbEntity
  8
0
  6
ByBlock
 62
     0
100
AcDbBlockReference
  2
_OPEN
 10
2853.179816592743
 20
1816.252558363744
 30
0.0
 41
50.0
 42
50.0
 43
50.0
 50
270.0
  0
INSERT
  5
8040
330
8169
100
AcDbEntity
  8
0
  6
ByBlock
 62
     0
100
AcDbBlockReference
  2
_OPEN
 10
2853.179816592743
 20
3254.252558363746
 30
0.0
 41
50.0
 42
50.0
 43
50.0
 50
90.0
  0
TEXT
  5
8041
330
8169
100
AcDbEntity
  8
3
 62
     0
100
AcDbText
 10
2828.179816592743
 20
2410.252558363746
 30
0.0
 40
75.0
  1
1438
 50
90.0
100
AcDbText
  0
POINT
  5
8042
330
8169
100
AcDbEntity
  8
DEFPOINTS
  6
ByBlock
 62
     0
100
AcDbPoint
 10
2359.235556307825
 20
1816.252558363744
 30
0.0
  0
POINT
  5
8043
330
8169
100
AcDbEntity
  8
DEFPOINTS
  6
ByBlock
 62
     0
100
AcDbPoint
 10
2429.235556307824
 20
3254.252558363746
 30
0.0
  0
POINT
  5
8044
330
8169
100
AcDbEntity
  8
DEFPOINTS
  6
ByBlock
 62
     0
100
AcDbPoint
 10
2853.179816592743
 20
3254.252558363746
 30
0.0
  0
ENDBLK
  5
8045
330
8169
100
AcDbEntity
  8
0
100
AcDbBlockEnd
  0
BLOCK
  5
81A7
330
81A6
100
AcDbEntity
  8
0
100
AcDbBlockBegin
  2
*D27
 70
     1
 10
0.0
 20
0.0
 30
0.0
  3
*D27
  1

  0
LINE
  5
81F8
330
81A6
100
AcDbEntity
  8
3
 62
     0
370
    -2
100
AcDbLine
 10
3182.238642150312
 20
2651.252558363746
 30
0.0
 11
3182.238642150312
 21
3596.83366171689
 31
0.0
  0
LINE
  5
81F9
330
81A6
100
AcDbEntity
  8
3
 62
     0
370
    -2
100
AcDbLine
 10
4082.238642150311
 20
3519.510255448099
 30
0.0
 11
4082.238642150311
 21
3596.83366171689
 31
0.0
  0
LINE
  5
81FA
330
81A6
100
AcDbEntity
  8
3
 62
     0
370
    -2
100
AcDbLine
 10
3232.238642150312
 20
3571.83366171689
 30
0.0
 11
4032.238642150312
 21
3571.83366171689
 31
0.0
  0
INSERT
  5
81FB
330
81A6
100
AcDbEntity
  8
3
 62
     0
370
    -2
100
AcDbBlockReference
  2
_OPEN
 10
3182.238642150312
 20
3571.83366171689
 30
0.0
 41
50.0
 42
50.0
 43
50.0
 50
180.0
  0
INSERT
  5
81FC
330
81A6
100
AcDbEntity
  8
3
 62
     0
370
    -2
100
AcDbBlockReference
  2
_OPEN
 10
4082.238642150311
 20
3571.83366171689
 30
0.0
 41
50.0
 42
50.0
 43
50.0
  0
MTEXT
  5
81FD
330
81A6
100
AcDbEntity
  8
3
 62
     0
100
AcDbMText
 10
3632.238642150312
 20
3653.976518859747
 30
0.0
 40
75.0
 41
0.0
 71
     5
 72
     1
  1
\A1;(900)
 73
     1
 44
1.0
1001
ACAD
1000
MTEXTBEGIN
1070
    73
1070
     1
1070
    44
1040
1.0
1070
    74
1070
     0
1000
MTEXTEND
  0
POINT
  5
81FE
330
81A6
100
AcDbEntity
  8
DEFPOINTS
 62
     0
100
AcDbPoint
 10
3182.238642150312
 20
2626.252558363745
 30
0.0
  0
POINT
  5
81FF
330
81A6
100
AcDbEntity
  8
DEFPOINTS
 62
     0
100
AcDbPoint
 10
4082.238642150311
 20
3494.510255448098
 30
0.0
  0
POINT
  5
8200
330
81A6
100
AcDbEntity
  8
DEFPOINTS
 62
     0
100
AcDbPoint
 10
4082.238642150311
 20
3571.83366171689
 30
0.0
  0
ENDBLK
  5
81A8
330
81A6
100
AcDbEntity
  8
0
100
AcDbBlockEnd
  0
BLOCK
  5
81B4
330
81B3
100
AcDbEntity
  8
0
100
AcDbBlockBegin
  2
*D28
 70
     1
 10
0.0
 20
0.0
 30
0.0
  3
*D28
  1

  0
LINE
  5
8201
330
81B3
100
AcDbEntity
  8
3
 62
     0
370
    -2
100
AcDbLine
 10
4082.238642150311
 20
3519.510255448099
 30
0.0
 11
4082.238642150311
 21
3596.83366171689
 31
0.0
  0
LINE
  5
8202
330
81B3
100
AcDbEntity
  8
3
 62
     0
370
    -2
100
AcDbLine
 10
4692.238642150313
 20
2391.752558363744
 30
0.0
 11
4692.238642150313
 21
3596.83366171689
 31
0.0
  0
LINE
  5
8203
330
81B3
100
AcDbEntity
  8
3
 62
     0
370
    -2
100
AcDbLine
 10
4132.238642150312
 20
3571.83366171689
 30
0.0
 11
4642.238642150313
 21
3571.83366171689
 31
0.0
  0
INSERT
  5
8204
330
81B3
100
AcDbEntity
  8
3
 62
     0
370
    -2
100
AcDbBlockReference
  2
_OPEN
 10
4082.238642150311
 20
3571.83366171689
 30
0.0
 41
50.0
 42
50.0
 43
50.0
 50
180.0
  0
INSERT
  5
8205
330
81B3
100
AcDbEntity
  8
3
 62
     0
370
    -2
100
AcDbBlockReference
  2
_OPEN
 10
4692.238642150313
 20
3571.83366171689
 30
0.0
 41
50.0
 42
50.0
 43
50.0
  0
MTEXT
  5
8206
330
81B3
100
AcDbEntity
  8
3
 62
     0
100
AcDbMText
 10
4387.238642150312
 20
3653.976518859747
 30
0.0
 40
75.0
 41
0.0
 71
     5
 72
     1
  1
\A1;(610)
 73
     1
 44
1.0
1001
ACAD
1000
MTEXTBEGIN
1070
    73
1070
     1
1070
    44
1040
1.0
1070
    74
1070
     0
1000
MTEXTEND
  0
POINT
  5
8207
330
81B3
100
AcDbEntity
  8
DEFPOINTS
 62
     0
100
AcDbPoint
 10
4082.238642150311
 20
3494.510255448098
 30
0.0
  0
POINT
  5
8208
330
81B3
100
AcDbEntity
  8
DEFPOINTS
 62
     0
100
AcDbPoint
 10
4692.238642150313
 20
2366.752558363744
 30
0.0
  0
POINT
  5
8209
330
81B3
100
AcDbEntity
  8
DEFPOINTS
 62
     0
100
AcDbPoint
 10
4692.238642150313
 20
3571.83366171689
 30
0.0
  0
ENDBLK
  5
81B5
330
81B3
100
AcDbEntity
  8
0
100
AcDbBlockEnd
  0
BLOCK
  5
820C
330
820B
100
AcDbEntity
  8
0
100
AcDbBlockBegin
  2
*D29
 70
     1
 10
0.0
 20
0.0
 30
0.0
  3
*D29
  1

  0
LINE
  5
820E
330
820B
100
AcDbEntity
  8
3
 62
     0
370
    -2
100
AcDbLine
 10
609.2355563078252
 20
4118.745515194762
 30
0.0
 11
609.2355563078252
 21
3748.466176699756
 31
0.0
  0
LINE
  5
820F
330
820B
100
AcDbEntity
  8
3
 62
     0
370
    -2
100
AcDbLine
 10
2359.235556307825
 20
4118.745515194762
 30
0.0
 11
2359.235556307825
 21
3748.466176699756
 31
0.0
  0
LINE
  5
8210
330
820B
100
AcDbEntity
  8
3
 62
     0
370
    -2
100
AcDbLine
 10
659.2355563078252
 20
3773.466176699756
 30
0.0
 11
2309.235556307825
 21
3773.466176699756
 31
0.0
  0
INSERT
  5
8211
330
820B
100
AcDbEntity
  8
3
 62
     0
370
    -2
100
AcDbBlockReference
  2
_OPEN
 10
609.2355563078252
 20
3773.466176699756
 30
0.0
 41
50.0
 42
50.0
 43
50.0
 50
180.0
  0
INSERT
  5
8212
330
820B
100
AcDbEntity
  8
3
 62
     0
370
    -2
100
AcDbBlockReference
  2
_OPEN
 10
2359.235556307825
 20
3773.466176699756
 30
0.0
 41
50.0
 42
50.0
 43
50.0
  0
MTEXT
  5
8213
330
820B
100
AcDbEntity
  8
3
 62
     0
100
AcDbMText
 10
1484.235556307825
 20
3835.966176699756
 30
0.0
 40
75.0
 41
0.0
 71
     5
 72
     1
  1
\A1;1750
 73
     1
 44
1.0
1001
ACAD
1000
MTEXTBEGIN
1070
    73
1070
     1
1070
    44
1040
1.0
1070
    74
1070
     0
1000
MTEXTEND
  0
POINT
  5
8214
330
820B
100
AcDbEntity
  8
DEFPOINTS
 62
     0
100
AcDbPoint
 10
609.2355563078252
 20
4143.745515194763
 30
0.0
  0
POINT
  5
8215
330
820B
100
AcDbEntity
  8
DEFPOINTS
 62
     0
100
AcDbPoint
 10
2359.235556307825
 20
4143.745515194763
 30
0.0
  0
POINT
  5
8216
330
820B
100
AcDbEntity
  8
DEFPOINTS
 62
     0
100
AcDbPoint
 10
2359.235556307825
 20
3773.466176699756
 30
0.0
  0
ENDBLK
  5
820D
330
820B
100
AcDbEntity
  8
0
100
AcDbBlockEnd
  0
BLOCK
  5
8219
330
8218
100
AcDbEntity
  8
0
100
AcDbBlockBegin
  2
*D30
 70
     1
 10
0.0
 20
0.0
 30
0.0
  3
*D30
  1

  0
LINE
  5
8224
330
8218
100
AcDbEntity
  8
3
 62
     0
370
    -2
100
AcDbLine
 10
1859.235556307824
 20
3289.935890990989
 30
0.0
 11
1859.235556307824
 21
3433.571739266544
 31
0.0
  0
LINE
  5
8225
330
8218
100
AcDbEntity
  8
3
 62
     0
370
    -2
100
AcDbLine
 10
1183.235556307824
 20
2490.252558363744
 30
0.0
 11
1183.235556307824
 21
3433.571739266544
 31
0.0
  0
LINE
  5
8226
330
8218
100
AcDbEntity
  8
3
 62
     0
370
    -2
100
AcDbLine
 10
1809.235556307825
 20
3408.571739266544
 30
0.0
 11
1233.235556307824
 21
3408.571739266544
 31
0.0
  0
INSERT
  5
8227
330
8218
100
AcDbEntity
  8
3
 62
     0
370
    -2
100
AcDbBlockReference
  2
_OPEN
 10
1859.235556307824
 20
3408.571739266544
 30
0.0
 41
50.0
 42
50.0
 43
50.0
  0
INSERT
  5
8228
330
8218
100
AcDbEntity
  8
3
 62
     0
370
    -2
100
AcDbBlockReference
  2
_OPEN
 10
1183.235556307824
 20
3408.571739266544
 30
0.0
 41
50.0
 42
50.0
 43
50.0
 50
180.0
  0
MTEXT
  5
8229
330
8218
100
AcDbEntity
  8
3
 62
     0
100
AcDbMText
 10
1521.235556307824
 20
3471.071739266544
 30
0.0
 40
75.0
 41
0.0
 71
     5
 72
     1
  1
\A1;676
 73
     1
 44
1.0
1001
ACAD
1000
MTEXTBEGIN
1070
    73
1070
     1
1070
    44
1040
1.0
1070
    74
1070
     0
1000
MTEXTEND
  0
POINT
  5
822A
330
8218
100
AcDbEntity
  8
DEFPOINTS
 62
     0
100
AcDbPoint
 10
1859.235556307824
 20
3264.935890990989
 30
0.0
  0
POINT
  5
822B
330
8218
100
AcDbEntity
  8
DEFPOINTS
 62
     0
100
AcDbPoint
 10
1183.235556307824
 20
2465.252558363744
 30
0.0
  0
POINT
  5
822C
330
8218
100
AcDbEntity
  8
DEFPOINTS
 62
     0
100
AcDbPoint
 10
1183.235556307824
 20
3408.571739266544
 30
0.0
  0
ENDBLK
  5
821A
330
8218
100
AcDbEntity
  8
0
100
AcDbBlockEnd
  0
BLOCK
  5
822F
330
822E
100
AcDbEntity
  8
0
100
AcDbBlockBegin
  2
*D31
 70
     1
 10
0.0
 20
0.0
 30
0.0
  3
*D31
  1

  0
LINE
  5
823A
330
822E
100
AcDbEntity
  8
3
 62
     0
370
    -2
100
AcDbLine
 10
1359.235556307824
 20
5423.745515194763
 30
0.0
 11
1359.235556307824
 21
5574.868798745716
 31
0.0
  0
LINE
  5
823B
330
822E
100
AcDbEntity
  8
3
 62
     0
370
    -2
100
AcDbLine
 10
609.2355563078252
 20
4918.745515194763
 30
0.0
 11
609.2355563078252
 21
5574.868798745716
 31
0.0
  0
LINE
  5
823C
330
822E
100
AcDbEntity
  8
3
 62
     0
370
    -2
100
AcDbLine
 10
1309.235556307824
 20
5549.868798745716
 30
0.0
 11
659.2355563078252
 21
5549.868798745716
 31
0.0
  0
INSERT
  5
823D
330
822E
100
AcDbEntity
  8
3
 62
     0
370
    -2
100
AcDbBlockReference
  2
_OPEN
 10
1359.235556307824
 20
5549.868798745716
 30
0.0
 41
50.0
 42
50.0
 43
50.0
  0
INSERT
  5
823E
330
822E
100
AcDbEntity
  8
3
 62
     0
370
    -2
100
AcDbBlockReference
  2
_OPEN
 10
609.2355563078252
 20
5549.868798745716
 30
0.0
 41
50.0
 42
50.0
 43
50.0
 50
180.0
  0
MTEXT
  5
823F
330
822E
100
AcDbEntity
  8
3
 62
     0
100
AcDbMText
 10
984.2355563078246
 20
5612.368798745716
 30
0.0
 40
75.0
 41
0.0
 71
     5
 72
     1
  1
\A1;750
 73
     1
 44
1.0
1001
ACAD
1000
MTEXTBEGIN
1070
    73
1070
     1
1070
    44
1040
1.0
1070
    74
1070
     0
1000
MTEXTEND
  0
POINT
  5
8240
330
822E
100
AcDbEntity
  8
DEFPOINTS
 62
     0
100
AcDbPoint
 10
1359.235556307824
 20
5398.745515194764
 30
0.0
  0
POINT
  5
8241
330
822E
100
AcDbEntity
  8
DEFPOINTS
 62
     0
100
AcDbPoint
 10
609.2355563078252
 20
4893.745515194763
 30
0.0
  0
POINT
  5
8242
330
822E
100
AcDbEntity
  8
DEFPOINTS
 62
     0
100
AcDbPoint
 10
609.2355563078252
 20
5549.868798745716
 30
0.0
  0
ENDBLK
  5
8230
330
822E
100
AcDbEntity
  8
0
100
AcDbBlockEnd
  0
ENDSEC
  0
SECTION
  2
ENTITIES
  0
INSERT
  5
7C04
330
8127
100
AcDbEntity
  8
0
100
AcDbBlockReference
  2
YA_N
 10
6.0
 20
5.0
 30
0.0
  0
LINE
  5
7C06
330
8127
100
AcDbEntity
  8
2
100
AcDbLine
 10
1859.235556307824
 20
3264.935890990989
 30
0.0
 11
1859.235556307824
 21
1816.252558363744
 31
0.0
  0
LINE
  5
7C07
330
8127
100
AcDbEntity
  8
2
100
AcDbLine
 10
2525.707348158216
 20
2406.252558363744
 30
0.0
 11
1101.331979117788
 21
2406.252558363744
 31
0.0
  0
LINE
  5
7C15
330
8127
100
AcDbEntity
  8
1
100
AcDbLine
 10
1059.235556307824
 20
1956.252558363743
 30
0.0
 11
1059.235556307824
 21
1916.252558363744
 31
0.0
  0
LINE
  5
7C16
330
8127
100
AcDbEntity
  8
1
100
AcDbLine
 10
4582.238642150313
 20
3254.252558363746
 30
0.0
 11
4582.238642150311
 21
2429.252558363745
 31
0.0
  0
LINE
  5
7C19
330
8127
100
AcDbEntity
  8
2
100
AcDbLine
 10
3192.92071159702
 20
2406.252558363744
 30
0.0
 11
4733.288488729509
 21
2406.252558363744
 31
0.0
  0
LINE
  5
7C1A
330
8127
100
AcDbEntity
  8
2
100
AcDbLine
 10
3192.92071159702
 20
2166.252558363745
 30
0.0
 11
3582.238642150312
 21
2166.252558363744
 31
0.0
  0
LINE
  5
7C1B
330
8127
100
AcDbEntity
  8
1
100
AcDbLine
 10
3314.238642150312
 20
2533.252558363745
 30
0.0
 11
3314.238642150312
 21
2279.252558363745
 31
0.0
  0
LINE
  5
7C1C
330
8127
100
AcDbEntity
  8
1
100
AcDbLine
 10
3182.238642150312
 20
2626.252558363745
 30
0.0
 11
3182.238642150312
 21
1946.252558363744
 31
0.0
  0
LINE
  5
7C1D
330
8127
100
AcDbEntity
  8
1
100
AcDbLine
 10
3182.238642150312
 20
2626.252558363745
 30
0.0
 11
3432.238642150312
 21
2626.252558363745
 31
0.0
  0
LINE
  5
7C1E
330
8127
100
AcDbEntity
  8
1
100
AcDbLine
 10
3432.238642150312
 20
2626.252558363745
 30
0.0
 11
3432.238642150312
 21
2576.252558363744
 31
0.0
  0
LINE
  5
7C1F
330
8127
100
AcDbEntity
  8
1
100
AcDbLine
 10
3432.238642150313
 20
1988.748335755082
 30
0.0
 11
3432.238642150313
 21
1946.252558363744
 31
0.0
  0
LINE
  5
7C20
330
8127
100
AcDbEntity
  8
2
100
AcDbLine
 10
4082.238642150311
 20
3390.025930532419
 30
0.0
 11
4082.238642150311
 21
1816.252558363744
 31
0.0
  0
POINT
  5
7C21
330
8127
100
AcDbEntity
  8
1
100
AcDbPoint
 10
2359.235556307825
 20
1816.252558363744
 30
0.0
  0
POINT
  5
7C22
330
8127
100
AcDbEntity
  8
1
100
AcDbPoint
 10
2359.235556307825
 20
1816.252558363744
 30
0.0
  0
POINT
  5
7C23
330
8127
100
AcDbEntity
  8
1
100
AcDbPoint
 10
2359.235556307825
 20
1816.252558363744
 30
0.0
  0
INSERT
  5
7C26
330
8127
100
AcDbEntity
  8
0
100
AcDbBlockReference
  2
YA_N
 10
-733.6448571667497
 20
-271.0302667023643
 30
0.0
 41
20.0
 42
20.0
 43
20.0
  0
DIMENSION
  5
7C29
330
8127
100
AcDbEntity
  8
3
100
AcDbDimension
  2
*D4
 10
2552.580899849889
 20
2429.252558363745
 30
0.0
 11
2502.580899849888
 21
2841.752558363745
 31
0.0
 12
-369.6306114916296
 22
844.364942954264
 32
0.0
 71
     5
 42
-1.0
  3
Standard
100
AcDbAlignedDimension
 13
2404.235556307825
 23
3254.252558363746
 33
0.0
 14
2404.235556307825
 24
2429.252558363745
 34
0.0
 50
270.0
100
AcDbRotatedDimension
1001
ACAD
1000
DSTYLE
1002
{
1070
    40
1040
25.0
1002
}
  0
DIMENSION
  5
7C2A
330
8127
100
AcDbEntity
  8
3
100
AcDbDimension
  2
*D5
 10
2704.864302423692
 20
2406.252558363744
 30
0.0
 11
2654.864302423691
 21
2830.252558363746
 31
0.0
 12
-369.6306114916296
 22
844.364942954264
 32
0.0
 71
     5
 42
-1.0
  3
Standard
100
AcDbAlignedDimension
 13
2404.235556307825
 23
3254.252558363746
 33
0.0
 14
2525.707348158216
 24
2406.252558363744
 34
0.0
 50
270.0
100
AcDbRotatedDimension
1001
ACAD
1000
DSTYLE
1002
{
1070
    40
1040
25.0
1002
}
  0
LINE
  5
7C2B
330
8127
100
AcDbEntity
  8
1
100
AcDbLine
 10
724.7766563078258
 20
2075.940558363745
 30
0.0
 11
705.2355563078252
 21
2022.252558363744
 31
0.0
  0
LINE
  5
7C2C
330
8127
100
AcDbEntity
  8
1
100
AcDbLine
 10
993.6823563078252
 20
2075.973558363744
 30
0.0
 11
1013.235556307825
 21
2022.252558363744
 31
0.0
  0
ARC
  5
7C2D
330
8127
100
AcDbEntity
  8
1
100
AcDbCircle
 10
859.2355563078253
 20
2166.252558363745
 30
0.0
 40
162.0
100
AcDbArc
 50
180.0
 51
213.894877047198
  0
ARC
  5
7C2E
330
8127
100
AcDbEntity
  8
1
100
AcDbCircle
 10
859.2355563078253
 20
2166.252558363745
 30
0.0
 40
162.0
100
AcDbArc
 50
326.1050864604068
 51
180.0
  0
LINE
  5
7C2F
330
8127
100
AcDbEntity
  8
2
100
AcDbLine
 10
859.2355563078253
 20
2344.702326450931
 30
0.0
 11
859.2355563078239
 21
1816.252558363744
 31
0.0
  0
LINE
  5
7C30
330
8127
100
AcDbEntity
  8
1
100
AcDbLine
 10
1013.235556307825
 20
2006.252558363744
 30
0.0
 11
1013.235556307825
 21
2022.252558363744
 31
0.0
  0
LINE
  5
7C31
330
8127
100
AcDbEntity
  8
1
100
AcDbLine
 10
705.2355563078252
 20
2006.252558363744
 30
0.0
 11
705.2355563078252
 21
2022.252558363744
 31
0.0
  0
LINE
  5
7C32
330
8127
100
AcDbEntity
  8
2
100
AcDbLine
 10
1047.346000370496
 20
2166.252558363745
 30
0.0
 11
672.2671953404677
 21
2166.252558363744
 31
0.0
  0
LINE
  5
7C33
330
8127
100
AcDbEntity
  8
1
100
AcDbLine
 10
670.720913041785
 20
2006.252558363744
 30
0.0
 11
1047.990423922636
 21
2006.252558363743
 31
0.0
  0
LINE
  5
7C34
330
8127
100
AcDbEntity
  8
1
100
AcDbLine
 10
1061.235556307822
 20
1956.252558363743
 30
0.0
 11
1047.990423922636
 21
2006.252558363744
 31
0.0
  0
LINE
  5
7C35
330
8127
100
AcDbEntity
  8
1
100
AcDbLine
 10
657.2355563078234
 20
1956.252558363743
 30
0.0
 11
670.720913041785
 21
2006.252558363744
 31
0.0
  0
CIRCLE
  5
7C36
330
8127
100
AcDbEntity
  8
1
100
AcDbCircle
 10
859.2355563078253
 20
2166.252558363745
 30
0.0
 40
110.0
  0
CIRCLE
  5
7C37
330
8127
100
AcDbEntity
  8
1
100
AcDbCircle
 10
1859.235556307824
 20
2406.252558363744
 30
0.0
 40
127.0
  0
LINE
  5
7C38
330
8127
100
AcDbEntity
  8
1
100
AcDbLine
 10
3314.238642150312
 20
2533.252558363745
 30
0.0
 11
3399.238642150312
 21
2533.252558363745
 31
0.0
  0
LINE
  5
7C39
330
8127
100
AcDbEntity
  8
1
100
AcDbLine
 10
3314.238642150312
 20
2279.252558363745
 30
0.0
 11
3399.238642150313
 21
2279.252558363745
 31
0.0
  0
LINE
  5
7C3A
330
8127
100
AcDbEntity
  8
1
100
AcDbLine
 10
3314.238642150313
 20
2276.252558363744
 30
0.0
 11
3399.238642150312
 21
2276.252558363744
 31
0.0
  0
LINE
  5
7C3B
330
8127
100
AcDbEntity
  8
1
100
AcDbLine
 10
3314.238642150312
 20
2056.252558363744
 30
0.0
 11
3399.238642150312
 21
2056.252558363744
 31
0.0
  0
LINE
  5
7C3C
330
8127
100
AcDbEntity
  8
1
100
AcDbLine
 10
3182.238642150312
 20
1946.252558363744
 30
0.0
 11
3432.238642150312
 21
1946.252558363744
 31
0.0
  0
LINE
  5
7C3D
330
8127
100
AcDbEntity
  8
1
100
AcDbLine
 10
3399.238642150312
 20
2533.252558363745
 30
0.0
 11
3399.238642150312
 21
2279.252558363745
 31
0.0
  0
INSERT
  5
7C3E
330
8127
100
AcDbEntity
  8
0
100
AcDbBlockReference
  2
YA_N
 10
-36.73462870802178
 20
301.6536876033205
 30
0.0
 41
20.0
 42
20.0
 43
20.0
  0
INSERT
  5
7C40
330
8127
100
AcDbEntity
  8
0
100
AcDbBlockReference
  2
YA_N
 10
77.48489664613955
 20
225.3119777640749
 30
0.0
 41
20.0
 42
20.0
 43
20.0
  0
POINT
  5
7C47
330
8127
100
AcDbEntity
  8
1
100
AcDbPoint
 10
2359.235556307825
 20
1816.252558363744
 30
0.0
  0
DIMENSION
  5
7C4A
330
8127
100
AcDbEntity
  8
3
100
AcDbDimension
  2
*D6
 10
2705.505213485754
 20
1816.252558363744
 30
0.0
 11
2655.505213485755
 21
2111.252558363744
 31
0.0
 12
-369.6306114916296
 22
844.364942954264
 32
0.0
 71
     5
 42
-1.0
  3
Standard
100
AcDbAlignedDimension
 13
2525.707348158216
 23
2406.252558363744
 33
0.0
 14
2359.235556307825
 24
1816.252558363744
 34
0.0
 50
270.0
100
AcDbRotatedDimension
1001
ACAD
1000
DSTYLE
1002
{
1070
    40
1040
25.0
1002
}
  0
POINT
  5
7C4E
330
8127
100
AcDbEntity
  8
1
100
AcDbPoint
 10
2359.235556307825
 20
1816.252558363744
 30
0.0
  0
LINE
  5
7C4F
330
8127
100
AcDbEntity
  8
1
100
AcDbLine
 10
4082.238642150311
 20
3254.252558363746
 30
0.0
 11
4582.238642150311
 21
3254.252558363746
 31
0.0
  0
LINE
  5
7C50
330
8127
100
AcDbEntity
  8
1
100
AcDbLine
 10
4082.238642150313
 20
2429.252558363745
 30
0.0
 11
4582.238642150311
 21
2429.252558363745
 31
0.0
  0
LINE
  5
7C51
330
8127
100
AcDbEntity
  8
1
100
AcDbLine
 10
4582.238642150311
 20
2429.252558363745
 30
0.0
 11
4582.238642150311
 21
1916.252558363744
 31
0.0
  0
LINE
  5
7C52
330
8127
100
AcDbEntity
  8
1
100
AcDbLine
 10
4082.23864215031
 20
2429.252558363745
 30
0.0
 11
3582.238642150314
 21
2429.252558363745
 31
0.0
  0
LINE
  5
7C53
330
8127
100
AcDbEntity
  8
1
100
AcDbLine
 10
3582.238642150312
 20
2429.252558363745
 30
0.0
 11
3582.238642150312
 21
1916.252558363744
 31
0.0
  0
LINE
  5
7C54
330
8127
100
AcDbEntity
  8
1
100
AcDbLine
 10
3582.238642150312
 20
3254.252558363746
 30
0.0
 11
3582.238642150314
 21
2429.252558363745
 31
0.0
  0
LINE
  5
7C55
330
8127
100
AcDbEntity
  8
1
100
AcDbLine
 10
4082.238642150311
 20
3254.252558363746
 30
0.0
 11
3582.238642150312
 21
3254.252558363746
 31
0.0
  0
LINE
  5
7C56
330
8127
100
AcDbEntity
  8
1
100
AcDbLine
 10
3444.238642150312
 20
2370.452558363744
 30
0.0
 11
3444.238642150312
 21
2240.452558363745
 31
0.0
  0
LINE
  5
7C57
330
8127
100
AcDbEntity
  8
1
100
AcDbLine
 10
3454.238642150312
 20
2380.452558363745
 30
0.0
 11
3582.238642150312
 21
2380.452558363744
 31
0.0
  0
LINE
  5
7C58
330
8127
100
AcDbEntity
  8
1
100
AcDbLine
 10
3454.238642150312
 20
2230.452558363745
 30
0.0
 11
3582.238642150312
 21
2230.452558363744
 31
0.0
  0
ARC
  5
7C59
330
8127
100
AcDbEntity
  8
1
100
AcDbCircle
 10
3454.238642150312
 20
2370.452558363744
 30
0.0
 40
10.0
100
AcDbArc
 50
90.0
 51
180.0
  0
ARC
  5
7C5A
330
8127
100
AcDbEntity
  8
1
100
AcDbCircle
 10
3454.238642150312
 20
2240.452558363745
 30
0.0
 40
10.0
100
AcDbArc
 50
180.0
 51
270.0
  0
LINE
  5
7C5B
330
8127
100
AcDbEntity
  8
1
100
AcDbLine
 10
4692.238642150313
 20
2366.752558363744
 30
0.0
 11
4692.238642150313
 21
2266.752558363744
 31
0.0
  0
ARC
  5
7C5C
330
8127
100
AcDbEntity
  8
1
100
AcDbCircle
 10
4682.238642150313
 20
2266.752558363744
 30
0.0
 40
10.0
100
AcDbArc
 50
270.0
 51
0.0
  0
ARC
  5
7C5D
330
8127
100
AcDbEntity
  8
1
100
AcDbCircle
 10
4682.238642150313
 20
2366.752558363744
 30
0.0
 40
10.0
100
AcDbArc
 50
0.0
 51
90.0
  0
LINE
  5
7C5E
330
8127
100
AcDbEntity
  8
1
100
AcDbLine
 10
4582.238642150311
 20
2256.752558363744
 30
0.0
 11
4682.238642150313
 21
2256.752558363744
 31
0.0
  0
LINE
  5
7C5F
330
8127
100
AcDbEntity
  8
1
100
AcDbLine
 10
4582.238642150311
 20
2376.752558363747
 30
0.0
 11
4682.238642150313
 21
2376.752558363744
 31
0.0
  0
LINE
  5
7C60
330
8127
100
AcDbEntity
  8
1
100
AcDbLine
 10
659.2355563078236
 20
1956.252558363743
 30
0.0
 11
659.2355563078236
 21
1916.252558363744
 31
0.0
  0
POINT
  5
7C61
330
8127
100
AcDbEntity
  8
1
100
AcDbPoint
 10
4692.238642150313
 20
2366.752558363744
 30
0.0
  0
LINE
  5
7C62
330
8127
100
AcDbEntity
  8
1
100
AcDbLine
 10
609.2355563078252
 20
4143.745515194763
 30
0.0
 11
2359.235556307825
 21
4143.745515194763
 31
0.0
  0
LINE
  5
7C63
330
8127
100
AcDbEntity
  8
1
100
AcDbLine
 10
1359.235556307824
 20
5398.745515194764
 30
0.0
 11
2359.235556307825
 21
5398.745515194764
 31
0.0
  0
LINE
  5
7C64
330
8127
100
AcDbEntity
  8
1
100
AcDbLine
 10
2359.235556307825
 20
5398.745515194764
 30
0.0
 11
2359.235556307825
 21
5345.74551519476
 31
0.0
  0
LINE
  5
7C65
330
8127
100
AcDbEntity
  8
1
100
AcDbLine
 10
609.2355563078252
 20
4893.745515194763
 30
0.0
 11
609.2355563078252
 21
4143.745515194763
 31
0.0
  0
LINE
  5
7C66
330
8127
100
AcDbEntity
  8
1
100
AcDbLine
 10
1359.235556307824
 20
5398.745515194764
 30
0.0
 11
1359.235556307824
 21
5345.745515194764
 31
0.0
  0
LINE
  5
7C67
330
8127
100
AcDbEntity
  8
1
100
AcDbLine
 10
609.2355563078252
 20
4893.745515194763
 30
0.0
 11
1175.575472554834
 21
4893.745515194763
 31
0.0
  0
LINE
  5
7C68
330
8127
100
AcDbEntity
  8
2
100
AcDbLine
 10
1125.509671165549
 20
4845.745515194764
 30
0.0
 11
2439.627924716257
 21
4845.745515194764
 31
0.0
  0
LINE
  5
7C69
330
8127
100
AcDbEntity
  8
2
100
AcDbLine
 10
1859.235556307823
 20
5431.72943073169
 30
0.0
 11
1859.235556307824
 21
3908.881864044626
 31
0.0
  0
LINE
  5
7C6A
330
8127
100
AcDbEntity
  8
2
100
AcDbLine
 10
859.2355563078253
 20
4760.235504678708
 30
0.0
 11
859.2355563078253
 21
3908.881864044626
 31
0.0
  0
LINE
  5
7C6D
330
8127
100
AcDbEntity
  8
1
100
AcDbLine
 10
4635.238642150311
 20
1916.252558363744
 30
0.0
 11
4635.238642150311
 21
1816.252558363744
 31
0.0
  0
LINE
  5
7C6E
330
8127
100
AcDbEntity
  8
1
100
AcDbLine
 10
3380.238642150311
 20
1916.252558363744
 30
0.0
 11
4635.238642150311
 21
1916.252558363745
 31
0.0
1001
ACAD
1000
ASC_BOUNDS
1002
{
1070
    19
1002
}
  0
LINE
  5
7C6F
330
8127
100
AcDbEntity
  8
1
100
AcDbLine
 10
3380.238642150312
 20
1816.252558363744
 30
0.0
 11
4635.238642150311
 21
1816.252558363744
 31
0.0
  0
LINE
  5
7C70
330
8127
100
AcDbEntity
  8
1
100
AcDbLine
 10
3380.238642150312
 20
1916.252558363744
 30
0.0
 11
3380.238642150312
 21
1816.252558363744
 31
0.0
  0
DIMENSION
  5
7C71
330
8127
100
AcDbEntity
  8
3
100
AcDbDimension
  2
*D7
 10
4883.762053047289
 20
1981.252558363745
 30
0.0
 11
4833.762053047289
 21
2406.252558363744
 31
0.0
 12
-831.6688629623312
 22
844.364942954264
 32
0.0
 71
     5
 42
-1.0
  3
Standard
100
AcDbAlignedDimension
 13
4584.538642150311
 23
2831.252558363744
 33
0.0
 14
4584.538642150311
 24
1981.252558363745
 34
0.0
 50
90.0
100
AcDbRotatedDimension
1001
ACAD
1000
DSTYLE
1002
{
1070
    40
1040
25.0
1070
     3
1000
\U+03C6<>
1002
}
  0
LINE
  5
7C72
330
8127
100
AcDbEntity
  8
1
100
AcDbLine
 10
3399.238642150312
 20
2436.252558363745
 30
0.0
 11
3582.238642150314
 21
2436.252558363745
 31
0.0
  0
LINE
  5
7C73
330
8127
100
AcDbEntity
  8
1
100
AcDbLine
 10
3399.238642150312
 20
2376.252558363745
 30
0.0
 11
3446.092477408547
 21
2376.252558363745
 31
0.0
  0
ARC
  5
7C75
330
8127
100
AcDbEntity
  8
1
100
AcDbCircle
 10
1859.235556307824
 20
2406.252558363744
 30
0.0
 40
220.0
100
AcDbArc
 50
283.4957332807956
 51
103.4957332807957
  0
ARC
  5
7C76
330
8127
100
AcDbEntity
  8
1
100
AcDbCircle
 10
859.2355563078253
 20
2166.252558363745
 30
0.0
 40
220.0
100
AcDbArc
 50
103.4957332807958
 51
283.4957332807956
  0
LINE
  5
7C77
330
8127
100
AcDbEntity
  8
1
100
AcDbLine
 10
1807.893506763253
 20
2620.177764799458
 30
0.0
 11
807.8935067632537
 21
2380.177764799458
 31
0.0
  0
LINE
  5
7C78
330
8127
100
AcDbEntity
  8
1
100
AcDbLine
 10
1827.559826589633
 20
2529.238932189547
 30
0.0
 11
831.7998848983661
 21
2272.776189236487
 31
0.0
  0
LINE
  5
7C79
330
8127
100
AcDbEntity
  8
1
100
AcDbLine
 10
1886.828456979119
 20
2282.286305566687
 30
0.0
 11
883.1349190939855
 21
2058.880213421411
 31
0.0
  0
LINE
  5
7C7A
330
8127
100
AcDbEntity
  8
1
100
AcDbLine
 10
1910.577605852395
 20
2192.327351928031
 30
0.0
 11
910.5776058523954
 21
1952.327351928031
 31
0.0
  0
LINE
  5
7C7B
330
8127
100
AcDbEntity
  8
1
100
AcDbLine
 10
609.2355563078252
 20
1816.252558363744
 30
0.0
 11
2359.235556307825
 21
1816.252558363744
 31
0.0
  0
LINE
  5
7C7C
330
8127
100
AcDbEntity
  8
1
100
AcDbLine
 10
2359.235556307825
 20
1916.252558363744
 30
0.0
 11
609.2355563078252
 21
1916.252558363744
 31
0.0
1001
ACAD
1000
ASC_BOUNDS
1002
{
1070
    19
1005
0
1005
0
1002
}
  0
LINE
  5
7C7D
330
8127
100
AcDbEntity
  8
1
100
AcDbLine
 10
609.2355563078252
 20
1916.252558363744
 30
0.0
 11
609.2355563078252
 21
1816.252558363744
 31
0.0
  0
LINE
  5
7C7E
330
8127
100
AcDbEntity
  8
1
100
AcDbLine
 10
2359.235556307825
 20
1916.252558363744
 30
0.0
 11
2359.235556307825
 21
1816.252558363744
 31
0.0
  0
CIRCLE
  5
7C80
330
8127
100
AcDbEntity
  8
1
100
AcDbCircle
 10
1859.235556307824
 20
2406.252558363744
 30
0.0
 40
425.0
  0
CIRCLE
  5
7C81
330
8127
100
AcDbEntity
  8
1
100
AcDbCircle
 10
1859.235556307824
 20
2406.252558363744
 30
0.0
 40
465.0
  0
LINE
  5
7C83
330
8127
100
AcDbEntity
  8
1
100
AcDbLine
 10
657.2355563078234
 20
1956.252558363743
 30
0.0
 11
1061.235556307822
 21
1956.252558363743
 31
0.0
  0
LINE
  5
7C84
330
8127
100
AcDbEntity
  8
1
100
AcDbLine
 10
4582.238642150311
 20
3254.252558363746
 30
0.0
 11
3582.238642150314
 21
2429.252558363745
 31
0.0
  0
LINE
  5
7C85
330
8127
100
AcDbEntity
  8
1
100
AcDbLine
 10
3582.238642150312
 20
3254.252558363746
 30
0.0
 11
4582.238642150311
 21
2429.252558363745
 31
0.0
  0
POINT
  5
7C87
330
8127
100
AcDbEntity
  8
1
100
AcDbPoint
 10
2359.235556307825
 20
1816.252558363744
 30
0.0
  0
LINE
  5
7C88
330
8127
100
AcDbEntity
  8
1
100
AcDbLine
 10
1175.575472554834
 20
5345.745515194764
 30
0.0
 11
2404.235556307823
 21
5345.745515194764
 31
0.0
  0
LINE
  5
7C89
330
8127
100
AcDbEntity
  8
1
100
AcDbLine
 10
1175.575472554834
 20
4345.745515194763
 30
0.0
 11
2404.235556307825
 21
4345.74551519476
 31
0.0
  0
LINE
  5
7C8A
330
8127
100
AcDbEntity
  8
1
100
AcDbLine
 10
2404.235556307823
 20
5388.745515194763
 30
0.0
 11
2404.235556307825
 21
4302.745515194764
 31
0.0
  0
LINE
  5
7C8B
330
8127
100
AcDbEntity
  8
1
100
AcDbLine
 10
1175.575472554834
 20
4345.745515194763
 30
0.0
 11
1175.575472554834
 21
5345.745515194764
 31
0.0
  0
LINE
  5
7C8C
330
8127
100
AcDbEntity
  8
1
100
AcDbLine
 10
2401.235556307824
 20
5388.745515194763
 30
0.0
 11
2404.235556307823
 21
5388.745515194763
 31
0.0
  0
LINE
  5
7C8D
330
8127
100
AcDbEntity
  8
1
100
AcDbLine
 10
2401.235556307825
 20
4302.745515194764
 30
0.0
 11
2404.235556307825
 21
4302.745515194764
 31
0.0
  0
LINE
  5
7C8E
330
8127
100
AcDbEntity
  8
1
100
AcDbLine
 10
2364.235556307823
 20
5345.745515194764
 30
0.0
 11
2364.235556307825
 21
4345.74551519476
 31
0.0
  0
LINE
  5
7C8F
330
8127
100
AcDbEntity
  8
1
100
AcDbLine
 10
2401.235556307824
 20
5388.745515194763
 30
0.0
 11
2401.235556307825
 21
4302.745515194764
 31
0.0
  0
LINE
  5
7C90
330
8127
100
AcDbEntity
  8
1
100
AcDbLine
 10
2359.235556307825
 20
4345.74551519476
 30
0.0
 11
2359.235556307825
 21
4143.745515194763
 31
0.0
  0
DIMENSION
  5
7C96
330
8127
100
AcDbEntity
  8
3
100
AcDbDimension
  2
*D8
 10
2359.235556307825
 20
5549.868798745717
 30
0.0
 11
1859.235556307824
 21
5599.868798745717
 31
0.0
 12
-369.6306114916296
 22
844.364942954264
 32
0.0
 71
     5
 42
-1.0
  3
Standard
100
AcDbAlignedDimension
 13
1359.235556307824
 23
5398.745515194764
 33
0.0
 14
2359.235556307825
 24
5398.745515194764
 34
0.0
100
AcDbRotatedDimension
1001
ACAD
1000
DSTYLE
1002
{
1070
    40
1040
25.0
1002
}
  0
DIMENSION
  5
7C97
330
8127
100
AcDbEntity
  8
3
100
AcDbDimension
  2
*D9
 10
2577.172284457713
 20
4143.745515194763
 30
0.0
 11
2577.172284457713
 21
4771.245515194763
 31
0.0
 12
-369.6306114916296
 22
844.364942954264
 32
0.0
 70
   128
 71
     5
 42
-1.0
  3
Standard
100
AcDbAlignedDimension
 13
2359.235556307825
 23
5398.745515194764
 33
0.0
 14
2359.235556307825
 24
4143.745515194763
 34
0.0
 50
90.0
100
AcDbRotatedDimension
1001
ACAD
1000
DSTYLE
1002
{
1070
    40
1040
25.0
1002
}
  0
DIMENSION
  5
7C98
330
8127
100
AcDbEntity
  8
3
100
AcDbDimension
  2
*D10
 10
457.0827271845119
 20
4143.745515194763
 30
0.0
 11
407.0827271845119
 21
4518.745515194763
 31
0.0
 12
-369.6306114916296
 22
844.364942954264
 32
0.0
 71
     5
 42
-1.0
  3
Standard
100
AcDbAlignedDimension
 13
609.2355563078252
 23
4893.745515194763
 33
0.0
 14
609.2355563078252
 24
4143.745515194763
 34
0.0
 50
90.0
100
AcDbRotatedDimension
1001
ACAD
1000
DSTYLE
1002
{
1070
    40
1040
25.0
1002
}
  0
LINE
  5
7C99
330
8127
100
AcDbEntity
  8
1
100
AcDbLine
 10
749.2355563078255
 20
4077.745515194766
 30
0.0
 11
969.2355563078253
 21
4077.745515194764
 31
0.0
  0
LINE
  5
7C9A
330
8127
100
AcDbEntity
  8
1
100
AcDbLine
 10
749.2355563078255
 20
4162.745515194765
 30
0.0
 11
969.2355563078233
 21
4162.745515194765
 31
0.0
  0
LINE
  5
7C9B
330
8127
100
AcDbEntity
  8
1
100
AcDbLine
 10
1986.235556307824
 20
4162.745515194763
 30
0.0
 11
1986.235556307824
 21
4077.745515194762
 31
0.0
  0
LINE
  5
7C9C
330
8127
100
AcDbEntity
  8
1
100
AcDbLine
 10
1732.235556307825
 20
4162.745515194765
 30
0.0
 11
1732.235556307825
 21
4077.745515194764
 31
0.0
  0
LINE
  5
7C9D
330
8127
100
AcDbEntity
  8
1
100
AcDbLine
 10
969.2355563078253
 20
4162.745515194765
 30
0.0
 11
969.2355563078253
 21
4077.745515194766
 31
0.0
  0
LINE
  5
7C9E
330
8127
100
AcDbEntity
  8
1
100
AcDbLine
 10
749.2355563078255
 20
4162.745515194766
 30
0.0
 11
749.2355563078255
 21
4077.745515194766
 31
0.0
  0
LINE
  5
7C9F
330
8127
100
AcDbEntity
  8
1
100
AcDbLine
 10
1732.235556307825
 20
4077.745515194762
 30
0.0
 11
1986.235556307824
 21
4077.745515194762
 31
0.0
  0
LINE
  5
7CA0
330
8127
100
AcDbEntity
  8
1
100
AcDbLine
 10
1732.235556307825
 20
4162.745515194763
 30
0.0
 11
1986.235556307824
 21
4162.745515194763
 31
0.0
  0
LINE
  5
7CA1
330
8127
100
AcDbEntity
  8
1
100
AcDbLine
 10
639.2355563078254
 20
3945.745515194765
 30
0.0
 11
2079.235556307825
 21
3945.745515194763
 31
0.0
  0
LINE
  5
7CA2
330
8127
100
AcDbEntity
  8
1
100
AcDbLine
 10
2079.235556307825
 20
4192.745515194763
 30
0.0
 11
2079.235556307825
 21
3945.745515194763
 31
0.0
  0
LINE
  5
7CA3
330
8127
100
AcDbEntity
  8
1
100
AcDbLine
 10
639.2355563078254
 20
4192.745515194765
 30
0.0
 11
639.2355563078254
 21
3945.745515194765
 31
0.0
  0
LINE
  5
7CA4
330
8127
100
AcDbEntity
  8
1
100
AcDbLine
 10
639.2355563078254
 20
4192.745515194765
 30
0.0
 11
2079.235556307826
 21
4192.745515194763
 31
0.0
  0
POINT
  5
7CA6
330
8127
100
AcDbEntity
  8
1
100
AcDbPoint
 10
4692.238642150313
 20
2366.752558363744
 30
0.0
  0
DIMENSION
  5
7CA7
330
8127
100
AcDbEntity
  8
3
100
AcDbDimension
  2
*D12
 10
4582.238642150313
 20
3406.555465383358
 30
0.0
 11
4082.238642150311
 21
3456.555465383357
 31
0.0
 12
-831.6688629623312
 22
844.364942954264
 32
0.0
 71
     5
 42
-1.0
  3
Standard
100
AcDbAlignedDimension
 13
3582.238642150312
 23
3254.252558363746
 33
0.0
 14
4582.238642150313
 24
3254.252558363746
 34
0.0
100
AcDbRotatedDimension
1001
ACAD
1000
DSTYLE
1002
{
1070
    40
1040
25.0
1002
}
  0
POINT
  5
7CA8
330
8127
100
AcDbEntity
  8
1
100
AcDbPoint
 10
4692.238642150313
 20
2366.752558363744
 30
0.0
  0
POINT
  5
7CA9
330
8127
100
AcDbEntity
  8
1
100
AcDbPoint
 10
3182.238642150312
 20
2626.252558363745
 30
0.0
  0
DIMENSION
  5
7CAB
330
8127
100
AcDbEntity
  8
3
100
AcDbDimension
  2
*D14
 10
2404.235556307825
 20
3408.571739266545
 30
0.0
 11
2131.735556307825
 21
3458.571739266545
 31
0.0
 12
-369.6306114916296
 22
844.364942954264
 32
0.0
 71
     5
 42
-1.0
  3
Standard
100
AcDbAlignedDimension
 13
1859.235556307824
 23
3264.935890990989
 33
0.0
 14
2404.235556307825
 24
3296.752558363746
 34
0.0
100
AcDbRotatedDimension
1001
ACAD
1000
DSTYLE
1002
{
1070
    40
1040
25.0
1002
}
  0
DIMENSION
  5
7CAC
330
8127
100
AcDbEntity
  8
3
100
AcDbDimension
  2
*D15
 10
2404.235556307825
 20
3555.508652683715
 30
0.0
 11
1506.735556307825
 21
3605.508652683715
 31
0.0
 12
-369.6306114916296
 22
844.364942954264
 32
0.0
 71
     5
 42
-1.0
  3
Standard
100
AcDbAlignedDimension
 13
609.2355563078252
 23
1916.252558363744
 33
0.0
 14
2404.235556307825
 24
3296.752558363746
 34
0.0
100
AcDbRotatedDimension
1001
ACAD
1000
DSTYLE
1002
{
1070
    40
1040
25.0
1002
}
  0
LINE
  5
7CAD
330
8127
100
AcDbEntity
  8
1
100
AcDbLine
 10
697.2355563078252
 20
4732.245515194766
 30
0.0
 11
1021.235556307825
 21
4732.245515194763
 31
0.0
  0
LINE
  5
7CAE
330
8127
100
AcDbEntity
  8
1
100
AcDbLine
 10
697.2355563078252
 20
4203.245515194764
 30
0.0
 11
1021.235556307825
 21
4203.245515194764
 31
0.0
  0
LINE
  5
7CAF
330
8127
100
AcDbEntity
  8
1
100
AcDbLine
 10
880.2355563078254
 20
4203.245515194764
 30
0.0
 11
880.2355563078254
 21
4162.745515194765
 31
0.0
  0
LINE
  5
7CB0
330
8127
100
AcDbEntity
  8
1
100
AcDbLine
 10
838.2355563078254
 20
4203.245515194764
 30
0.0
 11
838.2355563078254
 21
4162.745515194765
 31
0.0
  0
LINE
  5
7CB1
330
8127
100
AcDbEntity
  8
1
100
AcDbLine
 10
697.2355563078252
 20
4732.245515194767
 30
0.0
 11
697.2355563078252
 21
4203.245515194764
 31
0.0
  0
LINE
  5
7CB2
330
8127
100
AcDbEntity
  8
1
100
AcDbLine
 10
1021.235556307825
 20
4732.245515194763
 30
0.0
 11
1021.235556307825
 21
4203.245515194764
 31
0.0
  0
LINE
  5
7CB4
330
8127
100
AcDbEntity
  8
1
100
AcDbLine
 10
3582.238642150312
 20
2004.252558363745
 30
0.0
 11
3439.738642150312
 21
2004.252558363745
 31
0.0
  0
LINE
  5
7CB5
330
8127
100
AcDbEntity
  8
1
100
AcDbLine
 10
3444.238642150311
 20
2328.252558363745
 30
0.0
 11
3439.738642150313
 21
2328.252558363745
 31
0.0
  0
LINE
  5
7CB6
330
8127
100
AcDbEntity
  8
1
100
AcDbLine
 10
3439.738642150313
 20
2328.252558363745
 30
0.0
 11
3439.738642150311
 21
2004.252558363745
 31
0.0
  0
LINE
  5
7CB7
330
8127
100
AcDbEntity
  8
1
100
AcDbLine
 10
3439.738642150313
 20
2187.252558363744
 30
0.0
 11
3399.238642150313
 21
2187.252558363744
 31
0.0
  0
LINE
  5
7CB8
330
8127
100
AcDbEntity
  8
1
100
AcDbLine
 10
3439.738642150313
 20
2145.252558363745
 30
0.0
 11
3399.238642150313
 21
2145.252558363745
 31
0.0
  0
LINE
  5
7CB9
330
8127
100
AcDbEntity
  8
1
100
AcDbLine
 10
3399.238642150312
 20
2276.252558363744
 30
0.0
 11
3399.238642150312
 21
2056.252558363744
 31
0.0
  0
LINE
  5
7CBA
330
8127
100
AcDbEntity
  8
1
100
AcDbLine
 10
3314.238642150312
 20
2276.252558363744
 30
0.0
 11
3314.238642150312
 21
2056.252558363744
 31
0.0
  0
LINE
  5
7EEF
330
8127
100
AcDbEntity
  8
4
100
AcDbLine
 10
4625.0
 20
1250.0
 30
0.0
 11
4625.0
 21
750.0
 31
0.0
  0
LINE
  5
7EF0
330
8127
100
AcDbEntity
  8
4
100
AcDbLine
 10
2875.0
 20
1250.0
 30
0.0
 11
2875.0
 21
750.0
 31
0.0
  0
LINE
  5
7EF1
330
8127
100
AcDbEntity
  8
4
100
AcDbLine
 10
1625.0
 20
1250.0
 30
0.0
 11
1625.0
 21
750.0
 31
0.0
  0
LINE
  5
7EF4
330
8127
100
AcDbEntity
  8
4
100
AcDbLine
 10
1625.0
 20
750.0
 30
0.0
 11
4625.0
 21
750.0
 31
0.0
  0
LINE
  5
7EF5
330
8127
100
AcDbEntity
  8
4
100
AcDbLine
 10
1625.0
 20
1000.0
 30
0.0
 11
4625.0
 21
1000.0
 31
0.0
  0
TEXT
  5
7EF6
330
8127
100
AcDbEntity
  8
4
100
AcDbText
 10
1721.255202117253
 20
1078.857564666532
 30
0.0
 40
125.0
  1
機器名称
100
AcDbText
  0
TEXT
  5
7EF7
330
8127
100
AcDbEntity
  8
4
100
AcDbText
 10
1715.645265061993
 20
804.1128918300273
 30
0.0
 40
125.0
  1
機器型番
100
AcDbText
  0
TEXT
  5
7EF8
330
8127
100
AcDbEntity
  8
4
100
AcDbText
 10
2944.196863719162
 20
1056.429422393921
 30
0.0
 40
125.0
  1
ミツヤ多翼送風機
100
AcDbText
  0
TEXT
  5
7EF9
330
8127
100
AcDbEntity
  8
4
100
AcDbText
 10
2966.636238963701
 20
792.8989606998584
 30
0.0
 40
125.0
  1
MF#5-5
100
AcDbText
  0
TEXT
  5
7EFB
330
8127
100
AcDbEntity
  8
4
100
AcDbText
 10
1931.937102237789
 20
5958.572103331289
 30
0.0
 40
135.0
  1
床置ベット
100
AcDbText
  0
TEXT
  5
7EFC
330
8127
100
AcDbEntity
  8
4
100
AcDbText
 10
790.4189833236158
 20
6334.702440498245
 30
0.0
 40
180.0
  1
遠心式両吸込両持多翼ファン
100
AcDbText
  0
LINE
  5
7EFD
330
8127
100
AcDbEntity
  8
4
100
AcDbLine
 10
625.0
 20
6173.521885662012
 30
0.0
 11
4625.0
 21
6173.521885662012
 31
0.0
  0
LINE
  5
7EFE
330
8127
100
AcDbEntity
  8
4
100
AcDbLine
 10
625.0
 20
6673.521885662011
 30
0.0
 11
4625.0
 21
6673.521885662011
 31
0.0
  0
LINE
  5
7EFF
330
8127
100
AcDbEntity
  8
4
100
AcDbLine
 10
1625.0
 20
1250.0
 30
0.0
 11
4625.0
 21
1250.0
 31
0.0
  0
LINE
  5
7F00
330
8127
100
AcDbEntity
  8
4
100
AcDbLine
 10
625.0
 20
6673.521885662011
 30
0.0
 11
625.0
 21
6173.521885662012
 31
0.0
  0
TEXT
  5
7F01
330
8127
100
AcDbEntity
  8
4
100
AcDbText
 10
842.2900216310335
 20
5955.798693865858
 30
0.0
 40
135.0
  1
右回転右横向
100
AcDbText
  0
TEXT
  5
7F02
330
8127
100
AcDbEntity
  8
4
100
AcDbText
 10
3672.423898123224
 20
6765.15270373827
 30
0.0
 40
140.0
  1
No.
100
AcDbText
  0
TEXT
  5
7F03
330
8127
100
AcDbEntity
  8
4
100
AcDbText
 10
3278.240156500032
 20
5958.572103331289
 30
0.0
 40
135.0
  1
縮尺：1/25
100
AcDbText
  0
LINE
  5
7F04
330
8127
100
AcDbEntity
  8
4
100
AcDbLine
 10
4625.0
 20
6673.521885662011
 30
0.0
 11
4625.0
 21
6173.521885662012
 31
0.0
  0
LINE
  5
7F05
330
8127
100
AcDbEntity
  8
4
100
AcDbLine
 10
5250.0
 20
7375.0
 30
0.0
 11
5250.0
 21
7375.0
 31
0.0
  0
LINE
  5
7F06
330
8127
100
AcDbEntity
  8
4
100
AcDbLine
 10
3601.543555899662
 20
6703.158957813504
 30
0.0
 11
3601.543555899662
 21
6966.630653874381
 31
0.0
  0
LINE
  5
7F07
330
8127
100
AcDbEntity
  8
4
100
AcDbLine
 10
3601.543555899662
 20
6966.630653874381
 30
0.0
 11
4625.0
 21
6966.630653874381
 31
0.0
  0
LINE
  5
7F08
330
8127
100
AcDbEntity
  8
4
100
AcDbLine
 10
4625.0
 20
6966.630653874381
 30
0.0
 11
4625.0
 21
6703.158957813504
 31
0.0
  0
LINE
  5
7F09
330
8127
100
AcDbEntity
  8
4
100
AcDbLine
 10
4625.0
 20
6703.158957813504
 30
0.0
 11
3601.543555899662
 21
6703.158957813504
 31
0.0
  0
LINE
  5
7F0A
330
8127
100
AcDbEntity
  8
4
100
AcDbLine
 10
0.0
 20
0.0
 30
0.0
 11
0.0
 21
7375.0
 31
0.0
  0
LINE
  5
7F0B
330
8127
100
AcDbEntity
  8
4
100
AcDbLine
 10
0.0
 20
7375.0
 30
0.0
 11
5250.0
 21
7375.0
 31
0.0
  0
LINE
  5
7F0C
330
8127
100
AcDbEntity
  8
4
100
AcDbLine
 10
5250.0
 20
7375.0
 30
0.0
 11
5250.0
 21
0.0
 31
0.0
  0
LINE
  5
7F0D
330
8127
100
AcDbEntity
  8
4
100
AcDbLine
 10
5250.0
 20
0.0
 30
0.0
 11
0.0
 21
0.0
 31
0.0
  0
DIMENSION
  5
8012
330
8127
100
AcDbEntity
  8
3
100
AcDbDimension
  2
*D21
 10
1859.235556307824
 20
1644.501701568479
 30
0.0
 11
1234.235556307824
 21
1707.001701568479
 31
0.0
 71
     5
 42
-1.0
  3
Standard
100
AcDbAlignedDimension
 13
609.2355563078252
 23
1816.252558363744
 33
0.0
 14
1859.235556307824
 24
1816.252558363744
 34
0.0
100
AcDbRotatedDimension
1001
ACAD
1000
DSTYLE
1002
{
1070
   172
1070
     1
1070
    40
1040
25.0
1070
    42
1040
1.0
1070
   271
1070
     0
1070
   143
1040
0.039
1002
}
  0
DIMENSION
  5
801F
330
8127
100
AcDbEntity
  8
3
100
AcDbDimension
  2
*D22
 10
2359.235556307825
 20
1644.501701568479
 30
0.0
 11
2109.235556307825
 21
1707.001701568479
 31
0.0
 71
     5
 42
-1.0
  3
Standard
100
AcDbAlignedDimension
 13
1859.235556307824
 23
1816.252558363744
 33
0.0
 14
2359.235556307825
 24
1816.252558363744
 34
0.0
100
AcDbRotatedDimension
1001
ACAD
1000
DSTYLE
1002
{
1070
   172
1070
     1
1070
    40
1040
25.0
1070
    42
1040
1.0
1070
   271
1070
     0
1070
   143
1040
0.039
1002
}
  0
DIMENSION
  5
802C
330
8127
100
AcDbEntity
  8
3
100
AcDbDimension
  2
*D23
 10
4082.238642150311
 20
1644.501701568479
 30
0.0
 11
3731.238642150312
 21
1707.001701568479
 31
0.0
 71
     5
 42
-1.0
  3
Standard
100
AcDbAlignedDimension
 13
3380.238642150312
 23
1816.252558363744
 33
0.0
 14
4082.238642150311
 24
1816.252558363744
 34
0.0
100
AcDbRotatedDimension
1001
ACAD
1000
DSTYLE
1002
{
1070
   172
1070
     1
1070
    40
1040
25.0
1070
    42
1040
1.0
1070
   271
1070
     0
1070
   143
1040
0.039
1002
}
  0
DIMENSION
  5
8039
330
8127
100
AcDbEntity
  8
3
100
AcDbDimension
  2
*D24
 10
4635.238642150311
 20
1644.501701568479
 30
0.0
 11
4358.738642150313
 21
1707.001701568479
 31
0.0
 71
     5
 42
-1.0
  3
Standard
100
AcDbAlignedDimension
 13
4082.238642150311
 23
1816.252558363744
 33
0.0
 14
4635.238642150311
 24
1816.252558363744
 34
0.0
100
AcDbRotatedDimension
1001
ACAD
1000
DSTYLE
1002
{
1070
   172
1070
     1
1070
    40
1040
25.0
1070
    42
1040
1.0
1070
   271
1070
     0
1070
   143
1040
0.039
1002
}
  0
DIMENSION
  5
8046
330
8127
100
AcDbEntity
  8
3
100
AcDbDimension
  2
*D25
 10
2853.179816592743
 20
3254.252558363746
 30
0.0
 11
2790.679816592743
 21
2535.252558363746
 31
0.0
 71
     5
 42
-1.0
  3
Standard
100
AcDbAlignedDimension
 13
2359.235556307825
 23
1816.252558363744
 33
0.0
 14
2429.235556307824
 24
3254.252558363746
 34
0.0
 50
90.0
100
AcDbRotatedDimension
1001
ACAD
1000
DSTYLE
1002
{
1070
   172
1070
     1
1070
    40
1040
25.0
1070
    42
1040
1.0
1070
   271
1070
     0
1070
   143
1040
0.039
1002
}
  0
ARC
  5
8197
330
8127
100
AcDbEntity
  8
FUTO
100
AcDbCircle
 10
1811.735556307824
 20
2358.752558363744
 30
0.0
 40
510.5
100
AcDbArc
 50
299.911433471293
 51
0.0
  0
LINE
  5
8198
330
8127
100
AcDbEntity
  8
FUTO
100
AcDbLine
 10
2404.235556307825
 20
3254.252558363744
 30
0.0
 11
1859.235556307824
 21
3197.880704151224
 31
0.0
  0
ARC
  5
8199
330
8127
100
AcDbEntity
  8
FUTO
100
AcDbCircle
 10
1800.235556307825
 20
2465.252558363744
 30
0.0
 40
617.0
100
AcDbArc
 50
180.0
 51
242.8467827380087
  0
ARC
  5
819A
330
8127
100
AcDbEntity
  8
FUTO
100
AcDbCircle
 10
1918.235556307825
 20
2465.252558363744
 30
0.0
 40
735.0
100
AcDbArc
 50
94.60420672650135
 51
180.0
  0
ARC
  5
819B
330
8127
100
AcDbEntity
  8
FUTO
100
AcDbCircle
 10
1889.735556307824
 20
2375.752558363744
 30
0.0
 40
432.5
100
AcDbArc
 50
0.0
 51
7.105655247302393
  0
LINE
  5
819C
330
8127
100
AcDbEntity
  8
FUTO
100
AcDbLine
 10
2318.913840940214
 20
2429.252558363744
 30
0.0
 11
2404.235556307825
 21
2429.252558363744
 31
0.0
  0
LINE
  5
819D
330
8127
100
AcDbEntity
  8
FUTO
100
AcDbLine
 10
2322.235556307825
 20
2358.752558363744
 30
0.0
 11
2322.235556307825
 21
2375.752558363744
 31
0.0
  0
LINE
  5
819E
330
8127
100
AcDbEntity
  8
1
100
AcDbLine
 10
2404.235556307825
 20
3296.752558363744
 30
0.0
 11
2404.235556307823
 21
2386.752558363744
 31
0.0
  0
LINE
  5
819F
330
8127
100
AcDbEntity
  8
1
100
AcDbLine
 10
2404.235556307825
 20
3296.752558363744
 30
0.0
 11
2401.235556307824
 21
3296.752558363744
 31
0.0
  0
LINE
  5
81A0
330
8127
100
AcDbEntity
  8
1
100
AcDbLine
 10
2404.235556307823
 20
2386.752558363744
 30
0.0
 11
2401.235556307823
 21
2386.752558363744
 31
0.0
  0
LINE
  5
81A1
330
8127
100
AcDbEntity
  8
1
100
AcDbLine
 10
2364.235556307825
 20
3250.851463593321
 30
0.0
 11
2364.235556307823
 21
2429.252558363744
 31
0.0
  0
LINE
  5
81A2
330
8127
100
AcDbEntity
  8
1
100
AcDbLine
 10
2401.235556307824
 20
3296.752558363744
 30
0.0
 11
2401.235556307823
 21
2386.752558363744
 31
0.0
  0
POINT
  5
81A3
330
8127
100
AcDbEntity
  8
1
100
AcDbPoint
 10
2424.453466976846
 20
2406.252558363744
 30
0.0
 50
180.0
  0
POINT
  5
81A4
330
8127
100
AcDbEntity
  8
1
100
AcDbPoint
 10
2424.453466976846
 20
2406.252558363744
 30
0.0
 50
180.0
  0
DIMENSION
  5
81A5
330
8127
100
AcDbEntity
  8
3
100
AcDbDimension
  2
*D27
 10
4082.238642150311
 20
3571.83366171689
 30
0.0
 11
3632.238642150312
 21
3653.976518859747
 31
0.0
 70
    32
  1
(<>)
 71
     5
 42
900.0
  3
IGA
100
AcDbAlignedDimension
 13
3182.238642150312
 23
2626.252558363745
 33
0.0
 14
4082.238642150311
 24
3494.510255448098
 34
0.0
100
AcDbRotatedDimension
1001
ACAD
1000
DSTYLE
1002
{
1070
    40
1040
25.0
1070
    42
1040
1.0
1070
   143
1040
0.039
1070
   172
1070
     1
1070
   271
1070
     4
1070
   272
1070
     4
1070
   279
1070
     0
1070
   284
1070
     0
1070
   285
1070
     0
1070
   286
1070
     0
1070
   341
1005
813B
1070
   343
1005
813B
1070
   344
1005
813B
1002
}
  0
DIMENSION
  5
81B2
330
8127
100
AcDbEntity
  8
3
100
AcDbDimension
  2
*D28
 10
4692.238642150313
 20
3571.83366171689
 30
0.0
 11
4387.238642150312
 21
3653.976518859747
 31
0.0
 70
    32
  1
(<>)
 71
     5
 42
610.0000000000013
  3
IGA
100
AcDbAlignedDimension
 13
4082.238642150311
 23
3494.510255448098
 33
0.0
 14
4692.238642150313
 24
2366.752558363744
 34
0.0
100
AcDbRotatedDimension
1001
ACAD
1000
DSTYLE
1002
{
1070
    40
1040
25.0
1070
    42
1040
1.0
1070
   143
1040
0.039
1070
   172
1070
     1
1070
   271
1070
     4
1070
   272
1070
     4
1070
   279
1070
     1
1070
   284
1070
     0
1070
   285
1070
     0
1070
   286
1070
     0
1070
   341
1005
813B
1070
   343
1005
813B
1070
   344
1005
813B
1002
}
  0
DIMENSION
  5
820A
330
8127
100
AcDbEntity
  8
3
100
AcDbDimension
  2
*D29
 10
2359.235556307825
 20
3773.466176699756
 30
0.0
 11
1484.235556307825
 21
3835.966176699756
 31
0.0
 70
    32
 71
     5
 42
1750.0
  3
IGA
100
AcDbAlignedDimension
 13
609.2355563078252
 23
4143.745515194763
 33
0.0
 14
2359.235556307825
 24
4143.745515194763
 34
0.0
100
AcDbRotatedDimension
1001
ACAD
1000
DSTYLE
1002
{
1070
    40
1040
25.0
1070
    42
1040
1.0
1070
   143
1040
0.039
1070
   172
1070
     1
1070
   271
1070
     4
1070
   272
1070
     4
1070
   279
1070
     0
1070
   284
1070
     0
1070
   285
1070
     0
1070
   286
1070
     0
1070
   341
1005
813B
1070
   343
1005
813B
1070
   344
1005
813B
1002
}
  0
DIMENSION
  5
8217
330
8127
100
AcDbEntity
  8
3
100
AcDbDimension
  2
*D30
 10
1183.235556307824
 20
3408.571739266544
 30
0.0
 11
1521.235556307824
 21
3471.071739266544
 31
0.0
 70
    32
 71
     5
 42
676.0000000000002
  3
IGA
100
AcDbAlignedDimension
 13
1859.235556307824
 23
3264.935890990989
 33
0.0
 14
1183.235556307824
 24
2465.252558363744
 34
0.0
100
AcDbRotatedDimension
1001
ACAD
1000
DSTYLE
1002
{
1070
    40
1040
25.0
1070
    42
1040
1.0
1070
   143
1040
0.039
1070
   172
1070
     1
1070
   271
1070
     4
1070
   272
1070
     4
1070
   279
1070
     0
1070
   284
1070
     0
1070
   285
1070
     0
1070
   286
1070
     0
1070
   341
1005
813B
1070
   343
1005
813B
1070
   344
1005
813B
1002
}
  0
DIMENSION
  5
822D
330
8127
100
AcDbEntity
  8
3
100
AcDbDimension
  2
*D31
 10
609.2355563078252
 20
5549.868798745716
 30
0.0
 11
984.2355563078246
 21
5612.368798745716
 31
0.0
 70
    32
 71
     5
 42
749.9999999999987
  3
IGA
100
AcDbAlignedDimension
 13
1359.235556307824
 23
5398.745515194764
 33
0.0
 14
609.2355563078252
 24
4893.745515194763
 34
0.0
100
AcDbRotatedDimension
1001
ACAD
1000
DSTYLE
1002
{
1070
    40
1040
25.0
1070
    42
1040
1.0
1070
   143
1040
0.039
1070
   172
1070
     1
1070
   271
1070
     4
1070
   272
1070
     4
1070
   279
1070
     0
1070
   284
1070
     0
1070
   285
1070
     0
1070
   286
1070
     0
1070
   341
1005
813B
1070
   343
1005
813B
1070
   344
1005
813B
1002
}
  0
ENDSEC
  0
SECTION
  2
OBJECTS
  0
DICTIONARY
  5
80C4
330
0
100
AcDbDictionary
281
     1
  3
ACAD_CIP_PREVIOUS_PRODUCT_INFO
350
816B
  3
ACAD_COLOR
350
811A
  3
ACAD_DETAILVIEWSTYLE
350
8121
  3
ACAD_GROUP
350
80C5
  3
ACAD_LAYOUT
350
8119
  3
ACAD_MATERIAL
350
80C8
  3
ACAD_MLEADERSTYLE
350
811D
  3
ACAD_MLINESTYLE
350
8116
  3
ACAD_PLOTSETTINGS
350
8118
  3
ACAD_PLOTSTYLENAME
350
80C6
  3
ACAD_SCALELIST
350
80FA
  3
ACAD_SECTIONVIEWSTYLE
350
811F
  3
ACAD_TABLESTYLE
350
811B
  3
ACAD_VISUALSTYLE
350
80E1
  3
ACDB_RECOMPOSE_DATA
350
825A
  3
AcDbVariableDictionary
350
824E
  3
DWGPROPS
350
825B
  0
DICTIONARY
  5
816F
330
80BA
100
AcDbDictionary
280
     1
281
     1
  3
ACAD_LAYERSTATES
360
8170
  0
DICTIONARY
  5
8243
330
810C
100
AcDbDictionary
280
     1
281
     1
  3
ADSK_XREC_LAYER_RECONCILED
360
8244
  0
DICTIONARY
  5
8245
330
812B
100
AcDbDictionary
280
     1
281
     1
  3
ADSK_XREC_LAYER_RECONCILED
360
8246
  0
DICTIONARY
  5
8247
330
812E
100
AcDbDictionary
280
     1
281
     1
  3
ADSK_XREC_LAYER_RECONCILED
360
8248
  0
DICTIONARY
  5
8249
330
812F
100
AcDbDictionary
280
     1
281
     1
  3
ADSK_XREC_LAYER_RECONCILED
360
824A
  0
DICTIONARY
  5
824B
330
8130
100
AcDbDictionary
280
     1
281
     1
  3
ADSK_XREC_LAYER_RECONCILED
360
824C
  0
DICTIONARY
  5
816D
330
816C
100
AcDbDictionary
280
     1
281
     1
  3
ADSK_XREC_LAYER_RECONCILED
360
824D
  0
XRECORD
  5
816B
102
{ACAD_REACTORS
330
80C4
102
}
330
80C4
100
AcDbXrecord
280
     1
300
ACDLT
300
2015
300
INVLTS_F_S
  0
DICTIONARY
  5
811A
102
{ACAD_REACTORS
330
80C4
102
}
330
80C4
100
AcDbDictionary
281
     1
  0
DICTIONARY
  5
8121
102
{ACAD_REACTORS
330
80C4
102
}
330
80C4
100
AcDbDictionary
281
     1
  3
Imperial24
350
8122
  0
DICTIONARY
  5
80C5
102
{ACAD_REACTORS
330
80C4
102
}
330
80C4
100
AcDbDictionary
281
     1
  0
DICTIONARY
  5
8119
102
{ACAD_REACTORS
330
80C4
102
}
330
80C4
100
AcDbDictionary
281
     1
  3
Model
350
812A
  3
レイアウト1
350
8126
  0
DICTIONARY
  5
80C8
102
{ACAD_REACTORS
330
80C4
102
}
330
80C4
100
AcDbDictionary
281
     1
  3
ByBlock
350
80D1
  3
ByLayer
350
80C9
  3
Global
350
80D9
  0
DICTIONARY
  5
811D
102
{ACAD_REACTORS
330
80C4
102
}
330
80C4
100
AcDbDictionary
281
     1
  3
Standard
350
811E
  0
DICTIONARY
  5
8116
102
{ACAD_REACTORS
330
80C4
102
}
330
80C4
100
AcDbDictionary
281
     1
  3
Standard
350
8117
  0
DICTIONARY
  5
8118
102
{ACAD_REACTORS
330
80C4
102
}
330
80C4
100
AcDbDictionary
281
     1
  0
ACDBDICTIONARYWDFLT
  5
80C6
102
{ACAD_REACTORS
330
80C4
102
}
330
80C4
100
AcDbDictionary
281
     1
  3
Normal
350
80C7
100
AcDbDictionaryWithDefault
340
80C7
  0
DICTIONARY
  5
80FA
102
{ACAD_REACTORS
330
80C4
102
}
330
80C4
100
AcDbDictionary
281
     1
  3
A0
350
80FB
  3
A1
350
80FC
  3
A2
350
80FD
  3
A3
350
80FE
  3
A4
350
80FF
  3
A5
350
8100
  3
A6
350
8101
  3
A7
350
8102
  3
A8
350
8103
  3
A9
350
8104
  3
B0
350
8105
  3
B1
350
8106
  3
B2
350
8107
  3
B3
350
8108
  3
B4
350
8109
  3
B5
350
810A
  3
B6
350
810B
  0
DICTIONARY
  5
811F
102
{ACAD_REACTORS
330
80C4
102
}
330
80C4
100
AcDbDictionary
281
     1
  3
Imperial24
350
8120
  0
DICTIONARY
  5
811B
102
{ACAD_REACTORS
330
80C4
102
}
330
80C4
100
AcDbDictionary
281
     1
  3
Standard
350
811C
  0
DICTIONARY
  5
80E1
102
{ACAD_REACTORS
330
80C4
102
}
330
80C4
100
AcDbDictionary
281
     1
  3
2dWireframe
350
80E7
  3
Basic
350
80E6
  3
Brighten
350
80ED
  3
ColorChange
350
80F1
  3
Conceptual
350
80EA
  3
Dim
350
80EC
  3
EdgeColorOff
350
80F9
  3
Facepattern
350
80F0
  3
Flat
350
80E2
  3
FlatWithEdges
350
80E3
  3
Gouraud
350
80E4
  3
GouraudWithEdges
350
80E5
  3
Hidden
350
80E9
  3
JitterOff
350
80F7
  3
Linepattern
350
80EF
  3
OverhangOff
350
80F8
  3
Realistic
350
80EB
  3
Shaded
350
80F6
  3
Shaded with edges
350
80F5
  3
Shades of Gray
350
80F2
  3
Sketchy
350
80F3
  3
Thicken
350
80EE
  3
Wireframe
350
80E8
  3
X-Ray
350
80F4
  0
XRECORD
  5
825A
102
{ACAD_REACTORS
330
80C4
102
}
330
80C4
100
AcDbXrecord
280
     1
 90
        1
330
811C
  0
DICTIONARY
  5
824E
102
{ACAD_REACTORS
330
80C4
102
}
330
80C4
100
AcDbDictionary
281
     1
  3
CANNOSCALE
350
8253
  3
CMLEADERSTYLE
350
8250
  3
CTABLESTYLE
350
824F
  3
CVIEWDETAILSTYLE
350
8251
  3
CVIEWSECTIONSTYLE
350
8252
  3
DIMASSOC
350
8256
  3
INDEXCTL
350
8255
  3
SORTENTS
350
8254
  3
XCLIPFRAME
350
8257
  0
XRECORD
  5
825B
102
{ACAD_REACTORS
330
80C4
102
}
330
80C4
100
AcDbXrecord
280
     1
  1
DWGPROPS COOKIE
  2

  3

  4

  6

  7

  8
yasukiyo.ogawa
  9

300
=
301
=
302
=
303
=
304
=
305
=
306
=
307
=
308
=
309
=
 40
0.0173978819444445
 41
2451389.438053588
 42
2460265.596508091
  1

 90
        0
  0
DICTIONARY
  5
8170
102
{ACAD_REACTORS
330
816F
102
}
330
816F
100
AcDbDictionary
281
     1
  0
XRECORD
  5
8244
102
{ACAD_REACTORS
330
8243
102
}
330
8243
100
AcDbXrecord
280
     1
290
     1
  0
XRECORD
  5
8246
102
{ACAD_REACTORS
330
8245
102
}
330
8245
100
AcDbXrecord
280
     1
290
     1
  0
XRECORD
  5
8248
102
{ACAD_REACTORS
330
8247
102
}
330
8247
100
AcDbXrecord
280
     1
290
     1
  0
XRECORD
  5
824A
102
{ACAD_REACTORS
330
8249
102
}
330
8249
100
AcDbXrecord
280
     1
290
     1
  0
XRECORD
  5
824C
102
{ACAD_REACTORS
330
824B
102
}
330
824B
100
AcDbXrecord
280
     1
290
     1
  0
XRECORD
  5
824D
102
{ACAD_REACTORS
330
816D
102
}
330
816D
100
AcDbXrecord
280
     1
290
     1
  0
ACDBDETAILVIEWSTYLE
  5
8122
102
{ACAD_XDICTIONARY
360
8293
102
}
102
{ACAD_REACTORS
330
8121
102
}
330
8121
100
AcDbModelDocViewStyle
 70
     0
  3
Imperial24
290
     0
100
AcDbDetailViewStyle
 70
     0
 71
     0
 90
        3
 71
     1
340
810D
 40
0.24
340
0
 40
0.24
300

 40
0.36
280
     3
 71
     2
340
8114
 90
       25
 71
     3
340
810D
 40
0.24
 90
        1
 40
0.75
 90
        1
300
%<\AcVar ViewType \f "%tc1">% %<\AcVar ViewDetailId>%\PSCALE %<\AcVar ViewScale \f "%sn">%
 71
     4
340
8114
 90
       25
340
8114
 90
       25
280
     0
  0
LAYOUT
  5
812A
102
{ACAD_XDICTIONARY
360
8297
102
}
102
{ACAD_REACTORS
330
8119
102
}
330
8119
100
AcDbPlotSettings
  1

  2
RICOH imagio MP W3600 RPCS
  4

  6

 40
0.0
 41
0.0
 42
0.0
 43
0.0
 44
0.0
 45
0.0
 46
0.0
 47
0.0
 48
0.0
 49
0.0
140
0.0
141
0.0
142
1.0
143
1.0
 70
  1712
 72
     0
 73
     0
 74
     0
  7

 75
     0
147
1.0
148
0.0
149
0.0
100
AcDbLayout
  1
Model
 70
     1
 71
     0
 10
0.0
 20
0.0
 11
12.0
 21
9.0
 12
0.0
 22
0.0
 32
0.0
 14
0.0
 24
0.0
 34
0.0
 15
0.0
 25
0.0
 35
0.0
146
0.0
 13
0.0
 23
0.0
 33
0.0
 16
1.0
 26
0.0
 36
0.0
 17
0.0
 27
1.0
 37
0.0
 76
     0
330
8127
331
812C
  0
LAYOUT
  5
8126
102
{ACAD_XDICTIONARY
360
8295
102
}
102
{ACAD_REACTORS
330
8119
102
}
330
8119
100
AcDbPlotSettings
  1

  2
RICOH imagio MP W3600 RPCS
  4

  6

 40
0.0
 41
0.0
 42
0.0
 43
0.0
 44
0.0
 45
0.0
 46
0.0
 47
0.0
 48
0.0
 49
0.0
140
0.0
141
0.0
142
1.0
143
1.0
 70
   688
 72
     0
 73
     0
 74
     5
  7

 75
    16
147
1.0
148
0.0
149
0.0
100
AcDbLayout
  1
レイアウト1
 70
     1
 71
     1
 10
0.0
 20
0.0
 11
12.0
 21
9.0
 12
0.0
 22
0.0
 32
0.0
 14
1.000000000000000E+20
 24
1.000000000000000E+20
 34
1.000000000000000E+20
 15
-1.000000000000000E+20
 25
-1.000000000000000E+20
 35
-1.000000000000000E+20
146
0.0
 13
0.0
 23
0.0
 33
0.0
 16
1.0
 26
0.0
 36
0.0
 17
0.0
 27
1.0
 37
0.0
 76
     0
330
8123
  0
MATERIAL
  5
80D1
102
{ACAD_XDICTIONARY
360
80D2
102
}
102
{ACAD_REACTORS
330
80C8
102
}
330
80C8
100
AcDbMaterial
  1
ByBlock
 72
     0
 43
0.0208333333333333
 43
0.0
 43
0.0
 43
0.0
 43
0.0
 43
0.0208333333333333
 43
0.0
 43
0.0
 43
0.0
 43
0.0
 43
1.0
 43
0.0
 43
0.0
 43
0.0
 43
0.0
 43
1.0
 77
     0
 47
0.0208333333333333
 47
0.0
 47
0.0
 47
0.0
 47
0.0
 47
0.0208333333333333
 47
0.0
 47
0.0
 47
0.0
 47
0.0
 47
1.0
 47
0.0
 47
0.0
 47
0.0
 47
0.0
 47
1.0
171
     0
 49
0.0208333333333333
 49
0.0
 49
0.0
 49
0.0
 49
0.0
 49
0.0208333333333333
 49
0.0
 49
0.0
 49
0.0
 49
0.0
 49
1.0
 49
0.0
 49
0.0
 49
0.0
 49
0.0
 49
1.0
175
     0
142
0.0208333333333333
142
0.0
142
0.0
142
0.0
142
0.0
142
0.0208333333333333
142
0.0
142
0.0
142
0.0
142
0.0
142
1.0
142
0.0
142
0.0
142
0.0
142
0.0
142
1.0
179
     0
144
0.0208333333333333
144
0.0
144
0.0
144
0.0
144
0.0
144
0.0208333333333333
144
0.0
144
0.0
144
0.0
144
0.0
144
1.0
144
0.0
144
0.0
144
0.0
144
0.0
144
1.0
147
0.0208333333333333
147
0.0
147
0.0
147
0.0
147
0.0
147
0.0208333333333333
147
0.0
147
0.0
147
0.0
147
0.0
147
1.0
147
0.0
147
0.0
147
0.0
147
0.0
147
1.0
  0
MATERIAL
  5
80C9
102
{ACAD_XDICTIONARY
360
80CA
102
}
102
{ACAD_REACTORS
330
80C8
102
}
330
80C8
100
AcDbMaterial
  1
ByLayer
 72
     0
 43
0.0208333333333333
 43
0.0
 43
0.0
 43
0.0
 43
0.0
 43
0.0208333333333333
 43
0.0
 43
0.0
 43
0.0
 43
0.0
 43
1.0
 43
0.0
 43
0.0
 43
0.0
 43
0.0
 43
1.0
 77
     0
 47
0.0208333333333333
 47
0.0
 47
0.0
 47
0.0
 47
0.0
 47
0.0208333333333333
 47
0.0
 47
0.0
 47
0.0
 47
0.0
 47
1.0
 47
0.0
 47
0.0
 47
0.0
 47
0.0
 47
1.0
171
     0
 49
0.0208333333333333
 49
0.0
 49
0.0
 49
0.0
 49
0.0
 49
0.0208333333333333
 49
0.0
 49
0.0
 49
0.0
 49
0.0
 49
1.0
 49
0.0
 49
0.0
 49
0.0
 49
0.0
 49
1.0
175
     0
142
0.0208333333333333
142
0.0
142
0.0
142
0.0
142
0.0
142
0.0208333333333333
142
0.0
142
0.0
142
0.0
142
0.0
142
1.0
142
0.0
142
0.0
142
0.0
142
0.0
142
1.0
179
     0
144
0.0208333333333333
144
0.0
144
0.0
144
0.0
144
0.0
144
0.0208333333333333
144
0.0
144
0.0
144
0.0
144
0.0
144
1.0
144
0.0
144
0.0
144
0.0
144
0.0
144
1.0
147
0.0208333333333333
147
0.0
147
0.0
147
0.0
147
0.0
147
0.0208333333333333
147
0.0
147
0.0
147
0.0
147
0.0
147
1.0
147
0.0
147
0.0
147
0.0
147
0.0
147
1.0
  0
MATERIAL
  5
80D9
102
{ACAD_XDICTIONARY
360
80DA
102
}
102
{ACAD_REACTORS
330
80C8
102
}
330
80C8
100
AcDbMaterial
  1
Global
 72
     0
 43
0.0208333333333333
 43
0.0
 43
0.0
 43
0.0
 43
0.0
 43
0.0208333333333333
 43
0.0
 43
0.0
 43
0.0
 43
0.0
 43
1.0
 43
0.0
 43
0.0
 43
0.0
 43
0.0
 43
1.0
 77
     0
 47
0.0208333333333333
 47
0.0
 47
0.0
 47
0.0
 47
0.0
 47
0.0208333333333333
 47
0.0
 47
0.0
 47
0.0
 47
0.0
 47
1.0
 47
0.0
 47
0.0
 47
0.0
 47
0.0
 47
1.0
171
     0
 49
0.0208333333333333
 49
0.0
 49
0.0
 49
0.0
 49
0.0
 49
0.0208333333333333
 49
0.0
 49
0.0
 49
0.0
 49
0.0
 49
1.0
 49
0.0
 49
0.0
 49
0.0
 49
0.0
 49
1.0
175
     0
142
0.0208333333333333
142
0.0
142
0.0
142
0.0
142
0.0
142
0.0208333333333333
142
0.0
142
0.0
142
0.0
142
0.0
142
1.0
142
0.0
142
0.0
142
0.0
142
0.0
142
1.0
179
     0
144
0.0208333333333333
144
0.0
144
0.0
144
0.0
144
0.0
144
0.0208333333333333
144
0.0
144
0.0
144
0.0
144
0.0
144
1.0
144
0.0
144
0.0
144
0.0
144
0.0
144
1.0
147
0.0208333333333333
147
0.0
147
0.0
147
0.0
147
0.0
147
0.0208333333333333
147
0.0
147
0.0
147
0.0
147
0.0
147
1.0
147
0.0
147
0.0
147
0.0
147
0.0
147
1.0
  0
MLEADERSTYLE
  5
811E
102
{ACAD_REACTORS
330
811D
102
}
330
811D
100
AcDbMLeaderStyle
170
     2
171
     1
172
     0
 90
        2
 40
0.0
 41
0.0
173
     1
 91
-1056964608
340
8112
 92
       -2
290
     1
 42
0.09
291
     1
 43
0.36
  3
Standard
 44
0.18
300

342
810D
174
     1
178
     6
175
     1
176
     0
 93
-1056964608
 45
0.18
292
     0
297
     0
 46
0.18
 94
-1056964608
 47
1.0
 49
1.0
140
1.0
293
     1
141
0.0
294
     1
177
     0
142
1.0
295
     0
296
     0
143
0.125
1001
ACAD_MLEADERVER
1070
     2
  0
MLINESTYLE
  5
8117
102
{ACAD_REACTORS
330
8116
102
}
330
8116
100
AcDbMlineStyle
  2
STANDARD
 70
     0
  3

 62
   256
 51
90.0
 52
90.0
 71
     2
 49
0.5
 62
   256
  6
BYLAYER
 49
-0.5
 62
   256
  6
BYLAYER
  0
ACDBPLACEHOLDER
  5
80C7
102
{ACAD_REACTORS
330
80C6
102
}
330
80C6
  0
SCALE
  5
80FB
102
{ACAD_REACTORS
330
80FA
102
}
330
80FA
100
AcDbScale
 70
     0
300
1:1
140
1.0
141
1.0
290
     1
  0
SCALE
  5
80FC
102
{ACAD_REACTORS
330
80FA
102
}
330
80FA
100
AcDbScale
 70
     0
300
1/128" = 1'-0"
140
0.0078125
141
12.0
290
     0
  0
SCALE
  5
80FD
102
{ACAD_REACTORS
330
80FA
102
}
330
80FA
100
AcDbScale
 70
     0
300
1/64" = 1'-0"
140
0.015625
141
12.0
290
     0
  0
SCALE
  5
80FE
102
{ACAD_REACTORS
330
80FA
102
}
330
80FA
100
AcDbScale
 70
     0
300
1/32" = 1'-0"
140
0.03125
141
12.0
290
     0
  0
SCALE
  5
80FF
102
{ACAD_REACTORS
330
80FA
102
}
330
80FA
100
AcDbScale
 70
     0
300
1/16" = 1'-0"
140
0.0625
141
12.0
290
     0
  0
SCALE
  5
8100
102
{ACAD_REACTORS
330
80FA
102
}
330
80FA
100
AcDbScale
 70
     0
300
3/32" = 1'-0"
140
0.09375
141
12.0
290
     0
  0
SCALE
  5
8101
102
{ACAD_REACTORS
330
80FA
102
}
330
80FA
100
AcDbScale
 70
     0
300
1/8" = 1'-0"
140
0.125
141
12.0
290
     0
  0
SCALE
  5
8102
102
{ACAD_REACTORS
330
80FA
102
}
330
80FA
100
AcDbScale
 70
     0
300
3/16" = 1'-0"
140
0.1875
141
12.0
290
     0
  0
SCALE
  5
8103
102
{ACAD_REACTORS
330
80FA
102
}
330
80FA
100
AcDbScale
 70
     0
300
1/4" = 1'-0"
140
0.25
141
12.0
290
     0
  0
SCALE
  5
8104
102
{ACAD_REACTORS
330
80FA
102
}
330
80FA
100
AcDbScale
 70
     0
300
3/8" = 1'-0"
140
0.375
141
12.0
290
     0
  0
SCALE
  5
8105
102
{ACAD_REACTORS
330
80FA
102
}
330
80FA
100
AcDbScale
 70
     0
300
1/2" = 1'-0"
140
0.5
141
12.0
290
     0
  0
SCALE
  5
8106
102
{ACAD_REACTORS
330
80FA
102
}
330
80FA
100
AcDbScale
 70
     0
300
3/4" = 1'-0"
140
0.75
141
12.0
290
     0
  0
SCALE
  5
8107
102
{ACAD_REACTORS
330
80FA
102
}
330
80FA
100
AcDbScale
 70
     0
300
1" = 1'-0"
140
1.0
141
12.0
290
     0
  0
SCALE
  5
8108
102
{ACAD_REACTORS
330
80FA
102
}
330
80FA
100
AcDbScale
 70
     0
300
1-1/2" = 1'-0"
140
1.5
141
12.0
290
     0
  0
SCALE
  5
8109
102
{ACAD_REACTORS
330
80FA
102
}
330
80FA
100
AcDbScale
 70
     0
300
3" = 1'-0"
140
3.0
141
12.0
290
     0
  0
SCALE
  5
810A
102
{ACAD_REACTORS
330
80FA
102
}
330
80FA
100
AcDbScale
 70
     0
300
6" = 1'-0"
140
6.0
141
12.0
290
     0
  0
SCALE
  5
810B
102
{ACAD_REACTORS
330
80FA
102
}
330
80FA
100
AcDbScale
 70
     0
300
1'-0" = 1'-0"
140
12.0
141
12.0
290
     0
  0
ACDBSECTIONVIEWSTYLE
  5
8120
102
{ACAD_XDICTIONARY
360
8291
102
}
102
{ACAD_REACTORS
330
811F
102
}
330
811F
100
AcDbModelDocViewStyle
 70
     0
  3
Imperial24
290
     0
100
AcDbSectionViewStyle
 70
     0
 71
     0
 90
       78
 71
     1
340
810D
 40
0.24
340
0
340
0
 40
0.24
300
I, O, Q, S, X, Z
 40
0.48
 90
        3
 40
0.18
 90
        1
 71
     2
340
8114
 90
       25
340
8114
 90
       50
 40
0.24
 40
0.0
 40
0.24
 71
     3
340
810D
 40
0.24
 90
        1
 40
0.75
 90
        1
300
%<\AcVar ViewType \f "%tc1">% %<\AcVar ViewSectionStartId>%-%<\AcVar ViewSectionEndId>%\PSCALE %<\AcVar ViewScale \f "%sn">%
 71
     4
300
ANSI31
 40
1.0
 90
        0
290
     0
290
     0
 90
        6
 40
0.0
 40
1.570796326794896
 40
0.2617993877991494
 40
1.308996938995747
 40
-0.2617993877991494
 40
1.832595714594046
  0
TABLESTYLE
  5
811C
102
{ACAD_XDICTIONARY
360
8258
102
}
102
{ACAD_REACTORS
330
811B
102
}
330
811B
100
AcDbTableStyle
  3
Standard
 70
     0
 71
     0
 40
0.06
 41
0.06
280
     0
281
     0
  7
STANDARD
140
0.18
170
     2
 62
     0
 63
     7
283
     0
274
    -2
284
     1
 64
     0
275
    -2
285
     1
 65
     0
276
    -2
286
     1
 66
     0
277
    -2
287
     1
 67
     0
278
    -2
288
     1
 68
     0
279
    -2
289
     1
 69
     0
  7
STANDARD
140
0.25
170
     5
 62
     0
 63
     7
283
     0
274
    -2
284
     1
 64
     0
275
    -2
285
     1
 65
     0
276
    -2
286
     1
 66
     0
277
    -2
287
     1
 67
     0
278
    -2
288
     1
 68
     0
279
    -2
289
     1
 69
     0
  7
STANDARD
140
0.18
170
     5
 62
     0
 63
     7
283
     0
274
    -2
284
     1
 64
     0
275
    -2
285
     1
 65
     0
276
    -2
286
     1
 66
     0
277
    -2
287
     1
 67
     0
278
    -2
288
     1
 68
     0
279
    -2
289
     1
 69
     0
  0
VISUALSTYLE
  5
80E7
102
{ACAD_XDICTIONARY
360
8269
102
}
102
{ACAD_REACTORS
330
80E1
102
}
330
80E1
100
AcDbVisualStyle
  2
2dWireframe
 70
     4
 71
     0
 72
     2
 73
     0
 90
        0
 40
-0.6
 41
-30.0
 62
     5
 63
     7
 74
     1
 91
        4
 64
     7
 65
   257
 75
     1
175
     1
 42
1.0
 92
        0
 66
   257
 43
1.0
 76
     1
 77
     6
 78
     2
 67
     7
 79
     5
170
     0
171
     0
290
     0
174
     0
 93
        1
 44
0.0
173
     0
291
     0
 45
0.0
1001
ACAD
1000
AcDbSavedByObjectVersion
1070
     0
  0
VISUALSTYLE
  5
80E6
102
{ACAD_XDICTIONARY
360
8267
102
}
102
{ACAD_REACTORS
330
80E1
102
}
330
80E1
100
AcDbVisualStyle
  2
Basic
 70
     7
 71
     1
 72
     0
 73
     1
 90
        0
 40
-0.6
 41
-30.0
 62
     5
 63
     7
 74
     0
 91
        4
 64
     7
 65
   257
 75
     1
175
     1
 42
1.0
 92
        8
 66
     7
 43
1.0
 76
     1
 77
     6
 78
     2
 67
     7
 79
     5
170
     0
171
     0
290
     0
174
     0
 93
        1
 44
0.0
173
     0
291
     1
 45
0.0
1001
ACAD
1000
AcDbSavedByObjectVersion
1070
     0
  0
VISUALSTYLE
  5
80ED
102
{ACAD_XDICTIONARY
360
8275
102
}
102
{ACAD_REACTORS
330
80E1
102
}
330
80E1
100
AcDbVisualStyle
  2
Brighten
 70
    12
 71
     2
 72
     2
 73
     0
 90
        0
 40
-0.6
 41
-30.0
 62
     5
 63
     7
 74
     1
 91
        4
 64
     7
 65
   257
 75
     1
175
     1
 42
1.0
 92
        8
 66
     7
 43
1.0
 76
     1
 77
     6
 78
     2
 67
     7
 79
     5
170
     0
171
     0
290
     0
174
     0
 93
        1
 44
50.0
173
     0
291
     1
 45
0.0
1001
ACAD
1000
AcDbSavedByObjectVersion
1070
     0
  0
VISUALSTYLE
  5
80F1
102
{ACAD_XDICTIONARY
360
827D
102
}
102
{ACAD_REACTORS
330
80E1
102
}
330
80E1
100
AcDbVisualStyle
  2
ColorChange
 70
    16
 71
     2
 72
     2
 73
     3
 90
        0
 40
-0.6
 41
-30.0
 62
     5
 63
     8
 74
     1
 91
        4
 64
     7
 65
   257
 75
     1
175
     1
 42
1.0
 92
        8
 66
     8
 43
1.0
 76
     1
 77
     6
 78
     2
 67
     7
 79
     5
170
     0
171
     0
290
     0
174
     0
 93
        1
 44
0.0
173
     0
291
     1
 45
0.0
1001
ACAD
1000
AcDbSavedByObjectVersion
1070
     0
  0
VISUALSTYLE
  5
80EA
102
{ACAD_XDICTIONARY
360
826F
102
}
102
{ACAD_REACTORS
330
80E1
102
}
330
80E1
100
AcDbVisualStyle
  2
Conceptual
 70
     9
 71
     3
 72
     2
 73
     0
 90
        0
 40
-0.6
 41
-30.0
 62
     5
 63
     7
 74
     2
 91
        2
 64
     7
 65
   257
 75
     1
175
     1
 42
179.0
 92
        8
 66
     7
 43
1.0
 76
     1
 77
     6
 78
     2
 67
     7
 79
     3
170
     0
171
     0
290
     0
174
     0
 93
        1
 44
0.0
173
     0
291
     0
 45
0.0
1001
ACAD
1000
AcDbSavedByObjectVersion
1070
     0
  0
VISUALSTYLE
  5
80EC
102
{ACAD_XDICTIONARY
360
8273
102
}
102
{ACAD_REACTORS
330
80E1
102
}
330
80E1
100
AcDbVisualStyle
  2
Dim
 70
    11
 71
     2
 72
     2
 73
     0
 90
        0
 40
-0.6
 41
-30.0
 62
     5
 63
     7
 74
     1
 91
        4
 64
     7
 65
   257
 75
     1
175
     1
 42
1.0
 92
        8
 66
     7
 43
1.0
 76
     1
 77
     6
 78
     2
 67
     7
 79
     5
170
     0
171
     0
290
     0
174
     0
 93
        1
 44
-50.0
173
     0
291
     1
 45
0.0
1001
ACAD
1000
AcDbSavedByObjectVersion
1070
     0
  0
VISUALSTYLE
  5
80F9
102
{ACAD_XDICTIONARY
360
828D
102
}
102
{ACAD_REACTORS
330
80E1
102
}
330
80E1
100
AcDbVisualStyle
  2
EdgeColorOff
 70
    22
 71
     2
 72
     2
 73
     0
 90
        0
 40
-0.6
 41
-30.0
 62
     5
 63
     7
 74
     1
 91
        4
 64
     7
 65
   257
 75
     1
175
     1
 42
1.0
 92
        8
 66
     7
 43
1.0
 76
     1
 77
     6
 78
     2
 67
     7
 79
     5
170
     0
171
     0
290
     0
174
     0
 93
        1
 44
0.0
173
     0
291
     1
 45
0.0
1001
ACAD
1000
AcDbSavedByObjectVersion
1070
     0
  0
VISUALSTYLE
  5
80F0
102
{ACAD_XDICTIONARY
360
827B
102
}
102
{ACAD_REACTORS
330
80E1
102
}
330
80E1
100
AcDbVisualStyle
  2
Facepattern
 70
    15
 71
     2
 72
     2
 73
     0
 90
        0
 40
-0.6
 41
-30.0
 62
     5
 63
     7
 74
     1
 91
        4
 64
     7
 65
   257
 75
     1
175
     1
 42
1.0
 92
        8
 66
     7
 43
1.0
 76
     1
 77
     6
 78
     2
 67
     7
 79
     5
170
     0
171
     0
290
     0
174
     0
 93
        1
 44
0.0
173
     0
291
     1
 45
0.0
1001
ACAD
1000
AcDbSavedByObjectVersion
1070
     0
  0
VISUALSTYLE
  5
80E2
102
{ACAD_XDICTIONARY
360
825F
102
}
102
{ACAD_REACTORS
330
80E1
102
}
330
80E1
100
AcDbVisualStyle
  2
Flat
 70
     0
 71
     2
 72
     1
 73
     1
 90
        2
 40
-0.6
 41
30.0
 62
     5
 63
     7
 74
     0
 91
        0
 64
     7
 65
   257
 75
     1
175
     1
 42
1.0
 92
        8
 66
     7
 43
1.0
 76
     1
 77
     6
 78
     2
 67
     7
 79
     5
170
     0
171
     0
290
     0
174
     0
 93
       13
 44
0.0
173
     0
291
     1
 45
0.0
1001
ACAD
1000
AcDbSavedByObjectVersion
1070
     0
  0
VISUALSTYLE
  5
80E3
102
{ACAD_XDICTIONARY
360
8261
102
}
102
{ACAD_REACTORS
330
80E1
102
}
330
80E1
100
AcDbVisualStyle
  2
FlatWithEdges
 70
     1
 71
     2
 72
     1
 73
     1
 90
        2
 40
-0.6
 41
30.0
 62
     5
 63
     7
 74
     1
 91
        0
 64
     7
 65
   257
 75
     1
175
     1
 42
1.0
 92
        0
 66
   257
 43
1.0
 76
     1
 77
     6
 78
     2
 67
     7
 79
     5
170
     0
171
     0
290
     0
174
     0
 93
       13
 44
0.0
173
     0
291
     1
 45
0.0
1001
ACAD
1000
AcDbSavedByObjectVersion
1070
     0
  0
VISUALSTYLE
  5
80E4
102
{ACAD_XDICTIONARY
360
8263
102
}
102
{ACAD_REACTORS
330
80E1
102
}
330
80E1
100
AcDbVisualStyle
  2
Gouraud
 70
     2
 71
     2
 72
     2
 73
     1
 90
        2
 40
-0.6
 41
30.0
 62
     5
 63
     7
 74
     0
 91
        0
 64
     7
 65
   257
 75
     1
175
     1
 42
1.0
 92
        0
 66
     7
 43
1.0
 76
     1
 77
     6
 78
     2
 67
     7
 79
     5
170
     0
171
     0
290
     0
174
     0
 93
       13
 44
0.0
173
     0
291
     1
 45
0.0
1001
ACAD
1000
AcDbSavedByObjectVersion
1070
     0
  0
VISUALSTYLE
  5
80E5
102
{ACAD_XDICTIONARY
360
8265
102
}
102
{ACAD_REACTORS
330
80E1
102
}
330
80E1
100
AcDbVisualStyle
  2
GouraudWithEdges
 70
     3
 71
     2
 72
     2
 73
     1
 90
        2
 40
-0.6
 41
30.0
 62
     5
 63
     7
 74
     1
 91
        0
 64
     7
 65
   257
 75
     1
175
     1
 42
1.0
 92
        0
 66
   257
 43
1.0
 76
     1
 77
     6
 78
     2
 67
     7
 79
     5
170
     0
171
     0
290
     0
174
     0
 93
       13
 44
0.0
173
     0
291
     1
 45
0.0
1001
ACAD
1000
AcDbSavedByObjectVersion
1070
     0
  0
VISUALSTYLE
  5
80E9
102
{ACAD_XDICTIONARY
360
826D
102
}
102
{ACAD_REACTORS
330
80E1
102
}
330
80E1
100
AcDbVisualStyle
  2
Hidden
 70
     6
 71
     1
 72
     2
 73
     2
 90
        0
 40
-0.6
 41
-30.0
 62
     5
 63
     7
 74
     2
 91
        2
 64
     7
 65
   257
 75
     2
175
     1
 42
40.0
 92
        0
 66
   257
 43
1.0
 76
     1
 77
     6
 78
     2
 67
     7
 79
     3
170
     0
171
     0
290
     0
174
     0
 93
        1
 44
0.0
173
     0
291
     0
 45
0.0
1001
ACAD
1000
AcDbSavedByObjectVersion
1070
     0
  0
VISUALSTYLE
  5
80F7
102
{ACAD_XDICTIONARY
360
8289
102
}
102
{ACAD_REACTORS
330
80E1
102
}
330
80E1
100
AcDbVisualStyle
  2
JitterOff
 70
    20
 71
     2
 72
     2
 73
     0
 90
        0
 40
-0.6
 41
-30.0
 62
     5
 63
     7
 74
     1
 91
        4
 64
     7
 65
   257
 75
     1
175
     1
 42
1.0
 92
       10
 66
     7
 43
1.0
 76
     1
 77
     6
 78
     2
 67
     7
 79
     5
170
     0
171
     0
290
     0
174
     0
 93
        1
 44
0.0
173
     0
291
     1
 45
0.0
1001
ACAD
1000
AcDbSavedByObjectVersion
1070
     0
  0
VISUALSTYLE
  5
80EF
102
{ACAD_XDICTIONARY
360
8279
102
}
102
{ACAD_REACTORS
330
80E1
102
}
330
80E1
100
AcDbVisualStyle
  2
Linepattern
 70
    14
 71
     2
 72
     2
 73
     0
 90
        0
 40
-0.6
 41
-30.0
 62
     5
 63
     7
 74
     1
 91
        4
 64
     7
 65
   257
 75
     7
175
     7
 42
1.0
 92
        8
 66
     7
 43
1.0
 76
     1
 77
     6
 78
     2
 67
     7
 79
     5
170
     0
171
     0
290
     0
174
     0
 93
        1
 44
0.0
173
     0
291
     1
 45
0.0
1001
ACAD
1000
AcDbSavedByObjectVersion
1070
     0
  0
VISUALSTYLE
  5
80F8
102
{ACAD_XDICTIONARY
360
828B
102
}
102
{ACAD_REACTORS
330
80E1
102
}
330
80E1
100
AcDbVisualStyle
  2
OverhangOff
 70
    21
 71
     2
 72
     2
 73
     0
 90
        0
 40
-0.6
 41
-30.0
 62
     5
 63
     7
 74
     1
 91
        4
 64
     7
 65
   257
 75
     1
175
     1
 42
1.0
 92
        9
 66
     7
 43
1.0
 76
     1
 77
     6
 78
     2
 67
     7
 79
     5
170
     0
171
     0
290
     0
174
     0
 93
        1
 44
0.0
173
     0
291
     1
 45
0.0
1001
ACAD
1000
AcDbSavedByObjectVersion
1070
     0
  0
VISUALSTYLE
  5
80EB
102
{ACAD_XDICTIONARY
360
8271
102
}
102
{ACAD_REACTORS
330
80E1
102
}
330
80E1
100
AcDbVisualStyle
  2
Realistic
 70
     8
 71
     2
 72
     3
 73
     0
 90
        2
 40
-0.6
 41
30.0
 62
     5
 63
     7
 74
     0
 91
        0
 64
     7
 65
   257
 75
     1
175
     1
 42
1.0
 92
        8
 66
   257
 43
1.0
 76
     1
 77
     6
 78
     2
 67
     7
 79
     3
170
     0
171
     0
290
     0
174
     0
 93
       13
 44
0.0
173
     0
291
     0
 45
0.0
1001
ACAD
1000
AcDbSavedByObjectVersion
1070
     0
  0
VISUALSTYLE
  5
80F6
102
{ACAD_XDICTIONARY
360
8287
102
}
102
{ACAD_REACTORS
330
80E1
102
}
330
80E1
100
AcDbVisualStyle
  2
Shaded
 70
    27
 71
     2
 72
     2
 73
     1
 90
        2
 40
-0.6
 41
30.0
 62
     5
 63
     7
 74
     0
 91
        4
 64
     7
 65
   257
 75
     1
175
     1
 42
1.0
 92
        8
 66
   257
 43
1.0
 76
     1
 77
     6
 78
     2
 67
     8
 79
     3
170
     0
171
     0
290
     0
174
     0
 93
        5
 44
0.0
173
     0
291
     0
 45
0.0
1001
ACAD
1000
AcDbSavedByObjectVersion
1070
     0
  0
VISUALSTYLE
  5
80F5
102
{ACAD_XDICTIONARY
360
8285
102
}
102
{ACAD_REACTORS
330
80E1
102
}
330
80E1
100
AcDbVisualStyle
  2
Shaded with edges
 70
    26
 71
     2
 72
     2
 73
     1
 90
        2
 40
-0.6
 41
30.0
 62
     5
 63
     7
 74
     1
 91
       10
 64
     7
 65
   257
 75
     2
175
     1
 42
1.0
 92
        8
 66
   257
 43
1.0
 76
     1
 77
     6
 78
     2
 67
     7
 79
     3
170
     0
171
     0
290
     0
174
     0
 93
        5
 44
0.0
173
     0
291
     0
 45
0.0
1001
ACAD
1000
AcDbSavedByObjectVersion
1070
     0
  0
VISUALSTYLE
  5
80F2
102
{ACAD_XDICTIONARY
360
827F
102
}
102
{ACAD_REACTORS
330
80E1
102
}
330
80E1
100
AcDbVisualStyle
  2
Shades of Gray
 70
    23
 71
     2
 72
     2
 73
     3
 90
        0
 40
-0.6
 41
-30.0
 62
     5
 63
     7
 74
     2
 91
        2
 64
     7
 65
     7
 75
     1
175
     1
 42
40.0
 92
        8
 66
     7
 43
1.0
 76
     1
 77
     6
 78
     2
 67
     7
 79
     3
170
     0
171
     0
290
     0
174
     0
 93
        1
 44
0.0
173
     0
291
     0
 45
0.0
1001
ACAD
1000
AcDbSavedByObjectVersion
1070
     0
  0
VISUALSTYLE
  5
80F3
102
{ACAD_XDICTIONARY
360
8281
102
}
102
{ACAD_REACTORS
330
80E1
102
}
330
80E1
100
AcDbVisualStyle
  2
Sketchy
 70
    24
 71
     1
 72
     2
 73
     2
 90
        0
 40
-0.6
 41
-30.0
 62
     5
 63
     7
 74
     2
 91
        2
 64
     7
 65
     7
 75
     1
175
     1
 42
40.0
 92
       11
 66
     7
 43
1.0
 76
     1
 77
     6
 78
     2
 67
     7
 79
     6
170
     0
171
     0
290
     0
174
     0
 93
        1
 44
0.0
173
     0
291
     0
 45
0.0
1001
ACAD
1000
AcDbSavedByObjectVersion
1070
     0
  0
VISUALSTYLE
  5
80EE
102
{ACAD_XDICTIONARY
360
8277
102
}
102
{ACAD_REACTORS
330
80E1
102
}
330
80E1
100
AcDbVisualStyle
  2
Thicken
 70
    13
 71
     2
 72
     2
 73
     0
 90
        0
 40
-0.6
 41
-30.0
 62
     5
 63
     7
 74
     1
 91
        4
 64
     7
 65
   257
 75
     1
175
     1
 42
1.0
 92
       12
 66
     7
 43
1.0
 76
     1
 77
     6
 78
     2
 67
     7
 79
     5
170
     0
171
     0
290
     0
174
     0
 93
        1
 44
0.0
173
     0
291
     1
 45
0.0
1001
ACAD
1000
AcDbSavedByObjectVersion
1070
     0
  0
VISUALSTYLE
  5
80E8
102
{ACAD_XDICTIONARY
360
826B
102
}
102
{ACAD_REACTORS
330
80E1
102
}
330
80E1
100
AcDbVisualStyle
  2
Wireframe
 70
     5
 71
     0
 72
     2
 73
     0
 90
        0
 40
-0.6
 41
-30.0
 62
     5
 63
     7
 74
     1
 91
        4
 64
     7
 65
   257
 75
     1
175
     1
 42
1.0
 92
        0
 66
   257
 43
1.0
 76
     1
 77
     6
 78
     2
 67
     7
 79
     3
170
     0
171
     0
290
     0
174
     0
 93
        1
 44
0.0
173
     0
291
     0
 45
0.0
1001
ACAD
1000
AcDbSavedByObjectVersion
1070
     0
  0
VISUALSTYLE
  5
80F4
102
{ACAD_XDICTIONARY
360
8283
102
}
102
{ACAD_REACTORS
330
80E1
102
}
330
80E1
100
AcDbVisualStyle
  2
X-Ray
 70
    25
 71
     2
 72
     2
 73
     1
 90
        1
 40
0.5
 41
-30.0
 62
     5
 63
     7
 74
     1
 91
        0
 64
     7
 65
   257
 75
     1
175
     1
 42
1.0
 92
        8
 66
     7
 43
1.0
 76
     1
 77
     6
 78
     2
 67
     7
 79
     3
170
     0
171
     0
290
     0
174
     0
 93
       13
 44
0.0
173
     0
291
     0
 45
0.0
1001
ACAD
1000
AcDbSavedByObjectVersion
1070
     0
  0
DICTIONARYVAR
  5
8253
102
{ACAD_REACTORS
330
824E
102
}
330
824E
100
DictionaryVariables
280
     0
  1
1:1
  0
DICTIONARYVAR
  5
8250
102
{ACAD_REACTORS
330
824E
102
}
330
824E
100
DictionaryVariables
280
     0
  1
STANDARD
  0
DICTIONARYVAR
  5
824F
102
{ACAD_REACTORS
330
824E
102
}
330
824E
100
DictionaryVariables
280
     0
  1
STANDARD
  0
DICTIONARYVAR
  5
8251
102
{ACAD_REACTORS
330
824E
102
}
330
824E
100
DictionaryVariables
280
     0
  1
Imperial24
  0
DICTIONARYVAR
  5
8252
102
{ACAD_REACTORS
330
824E
102
}
330
824E
100
DictionaryVariables
280
     0
  1
Imperial24
  0
DICTIONARYVAR
  5
8256
102
{ACAD_REACTORS
330
824E
102
}
330
824E
100
DictionaryVariables
280
     0
  1
1
  0
DICTIONARYVAR
  5
8255
102
{ACAD_REACTORS
330
824E
102
}
330
824E
100
DictionaryVariables
280
     0
  1
0
  0
DICTIONARYVAR
  5
8254
102
{ACAD_REACTORS
330
824E
102
}
330
824E
100
DictionaryVariables
280
     0
  1
127
  0
DICTIONARYVAR
  5
8257
102
{ACAD_REACTORS
330
824E
102
}
330
824E
100
DictionaryVariables
280
     0
  1
2
  0
DICTIONARY
  5
8293
330
8122
100
AcDbDictionary
280
     1
281
     1
  3
ACAD_XREC_ROUNDTRIP
360
8294
  0
DICTIONARY
  5
8297
330
812A
100
AcDbDictionary
280
     1
281
     1
  3
ACAD_XREC_ROUNDTRIP
360
8298
  0
DICTIONARY
  5
8295
330
8126
100
AcDbDictionary
280
     1
281
     1
  3
ACAD_XREC_ROUNDTRIP
360
8296
  0
DICTIONARY
  5
80D2
330
80D1
100
AcDbDictionary
280
     1
281
     1
  3
ACAD_XREC_ROUNDTRIP
360
825D
  3
BUMPTILE
360
80D4
  3
DIFFUSETILE
360
80D3
  3
OPACITYTILE
360
80D7
  3
REFLECTIONTILE
360
80D6
  3
REFRACTIONTILE
360
80D8
  3
SPECULARTILE
360
80D5
  0
DICTIONARY
  5
80CA
330
80C9
100
AcDbDictionary
280
     1
281
     1
  3
ACAD_XREC_ROUNDTRIP
360
825C
  3
BUMPTILE
360
80CC
  3
DIFFUSETILE
360
80CB
  3
OPACITYTILE
360
80CF
  3
REFLECTIONTILE
360
80CE
  3
REFRACTIONTILE
360
80D0
  3
SPECULARTILE
360
80CD
  0
DICTIONARY
  5
80DA
330
80D9
100
AcDbDictionary
280
     1
281
     1
  3
ACAD_XREC_ROUNDTRIP
360
825E
  3
BUMPTILE
360
80DC
  3
DIFFUSETILE
360
80DB
  3
OPACITYTILE
360
80DF
  3
REFLECTIONTILE
360
80DE
  3
REFRACTIONTILE
360
80E0
  3
SPECULARTILE
360
80DD
  0
DICTIONARY
  5
8291
330
8120
100
AcDbDictionary
280
     1
281
     1
  3
ACAD_XREC_ROUNDTRIP
360
8292
  0
DICTIONARY
  5
8258
330
811C
100
AcDbDictionary
280
     1
281
     1
  3
ACAD_ROUNDTRIP_2008_TABLESTYLE_CELLSTYLEMAP
360
8259
  3
ACAD_XREC_ROUNDTRIP
360
828F
  0
DICTIONARY
  5
8269
330
80E7
100
AcDbDictionary
280
     1
281
     1
  3
ACAD_XREC_ROUNDTRIP
360
826A
  0
DICTIONARY
  5
8267
330
80E6
100
AcDbDictionary
280
     1
281
     1
  3
ACAD_XREC_ROUNDTRIP
360
8268
  0
DICTIONARY
  5
8275
330
80ED
100
AcDbDictionary
280
     1
281
     1
  3
ACAD_XREC_ROUNDTRIP
360
8276
  0
DICTIONARY
  5
827D
330
80F1
100
AcDbDictionary
280
     1
281
     1
  3
ACAD_XREC_ROUNDTRIP
360
827E
  0
DICTIONARY
  5
826F
330
80EA
100
AcDbDictionary
280
     1
281
     1
  3
ACAD_XREC_ROUNDTRIP
360
8270
  0
DICTIONARY
  5
8273
330
80EC
100
AcDbDictionary
280
     1
281
     1
  3
ACAD_XREC_ROUNDTRIP
360
8274
  0
DICTIONARY
  5
828D
330
80F9
100
AcDbDictionary
280
     1
281
     1
  3
ACAD_XREC_ROUNDTRIP
360
828E
  0
DICTIONARY
  5
827B
330
80F0
100
AcDbDictionary
280
     1
281
     1
  3
ACAD_XREC_ROUNDTRIP
360
827C
  0
DICTIONARY
  5
825F
330
80E2
100
AcDbDictionary
280
     1
281
     1
  3
ACAD_XREC_ROUNDTRIP
360
8260
  0
DICTIONARY
  5
8261
330
80E3
100
AcDbDictionary
280
     1
281
     1
  3
ACAD_XREC_ROUNDTRIP
360
8262
  0
DICTIONARY
  5
8263
330
80E4
100
AcDbDictionary
280
     1
281
     1
  3
ACAD_XREC_ROUNDTRIP
360
8264
  0
DICTIONARY
  5
8265
330
80E5
100
AcDbDictionary
280
     1
281
     1
  3
ACAD_XREC_ROUNDTRIP
360
8266
  0
DICTIONARY
  5
826D
330
80E9
100
AcDbDictionary
280
     1
281
     1
  3
ACAD_XREC_ROUNDTRIP
360
826E
  0
DICTIONARY
  5
8289
330
80F7
100
AcDbDictionary
280
     1
281
     1
  3
ACAD_XREC_ROUNDTRIP
360
828A
  0
DICTIONARY
  5
8279
330
80EF
100
AcDbDictionary
280
     1
281
     1
  3
ACAD_XREC_ROUNDTRIP
360
827A
  0
DICTIONARY
  5
828B
330
80F8
100
AcDbDictionary
280
     1
281
     1
  3
ACAD_XREC_ROUNDTRIP
360
828C
  0
DICTIONARY
  5
8271
330
80EB
100
AcDbDictionary
280
     1
281
     1
  3
ACAD_XREC_ROUNDTRIP
360
8272
  0
DICTIONARY
  5
8287
330
80F6
100
AcDbDictionary
280
     1
281
     1
  3
ACAD_XREC_ROUNDTRIP
360
8288
  0
DICTIONARY
  5
8285
330
80F5
100
AcDbDictionary
280
     1
281
     1
  3
ACAD_XREC_ROUNDTRIP
360
8286
  0
DICTIONARY
  5
827F
330
80F2
100
AcDbDictionary
280
     1
281
     1
  3
ACAD_XREC_ROUNDTRIP
360
8280
  0
DICTIONARY
  5
8281
330
80F3
100
AcDbDictionary
280
     1
281
     1
  3
ACAD_XREC_ROUNDTRIP
360
8282
  0
DICTIONARY
  5
8277
330
80EE
100
AcDbDictionary
280
     1
281
     1
  3
ACAD_XREC_ROUNDTRIP
360
8278
  0
DICTIONARY
  5
826B
330
80E8
100
AcDbDictionary
280
     1
281
     1
  3
ACAD_XREC_ROUNDTRIP
360
826C
  0
DICTIONARY
  5
8283
330
80F4
100
AcDbDictionary
280
     1
281
     1
  3
ACAD_XREC_ROUNDTRIP
360
8284
  0
XRECORD
  5
8294
102
{ACAD_REACTORS
330
8293
102
}
330
8293
100
AcDbXrecord
280
     1
102
DISPLAYNAME
  1
Imperial24
102
FLAGS
 90
        0
  0
XRECORD
  5
8298
102
{ACAD_REACTORS
330
8297
102
}
330
8297
100
AcDbXrecord
280
     1
102
SHADEPLOT
 70
     0
102
SHADEPLOTRESLEVEL
 70
     2
102
SHADEPLOTCUSTOMDPI
 70
   300
  0
XRECORD
  5
8296
102
{ACAD_REACTORS
330
8295
102
}
330
8295
100
AcDbXrecord
280
     1
102
SHADEPLOT
 70
     0
102
SHADEPLOTRESLEVEL
 70
     2
102
SHADEPLOTCUSTOMDPI
 70
   300
  0
XRECORD
  5
825D
102
{ACAD_REACTORS
330
80D2
102
}
330
80D2
100
AcDbXrecord
280
     1
102
MATERIAL
148
0.0
149
0.0
149
0.0
 93
        0
 94
      127
282
     0
 72
     0
 77
     0
171
     0
175
     0
179
     0
273
     0
  0
XRECORD
  5
80D4
102
{ACAD_REACTORS
330
80D2
102
}
330
80D2
100
AcDbXrecord
280
     1
270
     1
271
     1
  0
XRECORD
  5
80D3
102
{ACAD_REACTORS
330
80D2
102
}
330
80D2
100
AcDbXrecord
280
     1
270
     1
271
     1
  0
XRECORD
  5
80D7
102
{ACAD_REACTORS
330
80D2
102
}
330
80D2
100
AcDbXrecord
280
     1
270
     1
271
     1
  0
XRECORD
  5
80D6
102
{ACAD_REACTORS
330
80D2
102
}
330
80D2
100
AcDbXrecord
280
     1
270
     1
271
     1
  0
XRECORD
  5
80D8
102
{ACAD_REACTORS
330
80D2
102
}
330
80D2
100
AcDbXrecord
280
     1
270
     1
271
     1
  0
XRECORD
  5
80D5
102
{ACAD_REACTORS
330
80D2
102
}
330
80D2
100
AcDbXrecord
280
     1
270
     1
271
     1
  0
XRECORD
  5
825C
102
{ACAD_REACTORS
330
80CA
102
}
330
80CA
100
AcDbXrecord
280
     1
102
MATERIAL
148
0.0
149
0.0
149
0.0
 93
        0
 94
      127
282
     0
 72
     0
 77
     0
171
     0
175
     0
179
     0
273
     0
  0
XRECORD
  5
80CC
102
{ACAD_REACTORS
330
80CA
102
}
330
80CA
100
AcDbXrecord
280
     1
270
     1
271
     1
  0
XRECORD
  5
80CB
102
{ACAD_REACTORS
330
80CA
102
}
330
80CA
100
AcDbXrecord
280
     1
270
     1
271
     1
  0
XRECORD
  5
80CF
102
{ACAD_REACTORS
330
80CA
102
}
330
80CA
100
AcDbXrecord
280
     1
270
     1
271
     1
  0
XRECORD
  5
80CE
102
{ACAD_REACTORS
330
80CA
102
}
330
80CA
100
AcDbXrecord
280
     1
270
     1
271
     1
  0
XRECORD
  5
80D0
102
{ACAD_REACTORS
330
80CA
102
}
330
80CA
100
AcDbXrecord
280
     1
270
     1
271
     1
  0
XRECORD
  5
80CD
102
{ACAD_REACTORS
330
80CA
102
}
330
80CA
100
AcDbXrecord
280
     1
270
     1
271
     1
  0
XRECORD
  5
825E
102
{ACAD_REACTORS
330
80DA
102
}
330
80DA
100
AcDbXrecord
280
     1
102
MATERIAL
148
0.0
149
0.0
149
0.0
 93
        0
 94
      127
282
     0
 72
     0
 77
     0
171
     0
175
     0
179
     0
273
     0
  0
XRECORD
  5
80DC
102
{ACAD_REACTORS
330
80DA
102
}
330
80DA
100
AcDbXrecord
280
     1
270
     1
271
     1
  0
XRECORD
  5
80DB
102
{ACAD_REACTORS
330
80DA
102
}
330
80DA
100
AcDbXrecord
280
     1
270
     1
271
     1
  0
XRECORD
  5
80DF
102
{ACAD_REACTORS
330
80DA
102
}
330
80DA
100
AcDbXrecord
280
     1
270
     1
271
     1
  0
XRECORD
  5
80DE
102
{ACAD_REACTORS
330
80DA
102
}
330
80DA
100
AcDbXrecord
280
     1
270
     1
271
     1
  0
XRECORD
  5
80E0
102
{ACAD_REACTORS
330
80DA
102
}
330
80DA
100
AcDbXrecord
280
     1
270
     1
271
     1
  0
XRECORD
  5
80DD
102
{ACAD_REACTORS
330
80DA
102
}
330
80DA
100
AcDbXrecord
280
     1
270
     1
271
     1
  0
XRECORD
  5
8292
102
{ACAD_REACTORS
330
8291
102
}
330
8291
100
AcDbXrecord
280
     1
102
DISPLAYNAME
  1
Imperial24
102
FLAGS
 90
        0
  0
CELLSTYLEMAP
  5
8259
102
{ACAD_REACTORS
330
8258
102
}
330
8258
100
AcDbCellStyleMap
 90
        3
300
CELLSTYLE
  1
TABLEFORMAT_BEGIN
 90
        5
170
     1
 91
        0
 92
    32768
 62
   257
 93
        1
300
CONTENTFORMAT
  1
CONTENTFORMAT_BEGIN
 90
        0
 91
        0
 92
      512
 93
        0
300

 40
0.0
140
1.0
 94
        5
 62
     0
340
810D
144
0.25
309
CONTENTFORMAT_END
171
     0
 94
        0
309
TABLEFORMAT_END
  1
CELLSTYLE_BEGIN
 90
        1
 91
        1
300
_TITLE
309
CELLSTYLE_END
300
CELLSTYLE
  1
TABLEFORMAT_BEGIN
 90
        5
170
     1
 91
        0
 92
        0
 62
   257
 93
        1
300
CONTENTFORMAT
  1
CONTENTFORMAT_BEGIN
 90
        0
 91
        0
 92
      512
 93
        0
300

 40
0.0
140
1.0
 94
        5
 62
     0
340
810D
144
0.18
309
CONTENTFORMAT_END
171
     0
 94
        0
309
TABLEFORMAT_END
  1
CELLSTYLE_BEGIN
 90
        2
 91
        1
300
_HEADER
309
CELLSTYLE_END
300
CELLSTYLE
  1
TABLEFORMAT_BEGIN
 90
        5
170
     1
 91
        0
 92
        0
 62
   257
 93
        1
300
CONTENTFORMAT
  1
CONTENTFORMAT_BEGIN
 90
        0
 91
        0
 92
      512
 93
        0
300

 40
0.0
140
1.0
 94
        2
 62
     0
340
810D
144
0.18
309
CONTENTFORMAT_END
171
     0
 94
        0
309
TABLEFORMAT_END
  1
CELLSTYLE_BEGIN
 90
        3
 91
        2
300
_DATA
309
CELLSTYLE_END
  0
XRECORD
  5
828F
102
{ACAD_REACTORS
330
8258
102
}
330
8258
100
AcDbXrecord
280
     1
102
ACAD_ROUNDTRIP_PRE2007_TABLESTYLE
 90
      512
 91
        0
  1

 92
      512
 93
        0
  2

 94
      512
 95
        0
  3

  0
XRECORD
  5
826A
102
{ACAD_REACTORS
330
8269
102
}
330
8269
100
AcDbXrecord
280
     1
102
RTVSPost2010Prop28
280
     1
102
RTVSPost2010PropOp28
 70
     1
102
RTVSPost2010Prop29
280
     1
102
RTVSPost2010PropOp29
 70
     1
102
RTVSPost2010Prop30
280
     0
102
RTVSPost2010PropOp30
 70
     1
102
RTVSPost2010Prop31
280
     0
102
RTVSPost2010PropOp31
 70
     1
102
RTVSPost2010Prop32
280
     0
102
RTVSPost2010PropOp32
 70
     1
102
RTVSPost2010Prop33
280
     0
102
RTVSPost2010PropOp33
 70
     1
102
RTVSPost2010Prop34
280
     0
102
RTVSPost2010PropOp34
 70
     1
102
RTVSPost2010Prop35
280
     0
102
RTVSPost2010PropOp35
 70
     1
102
RTVSPost2010Prop36
280
     0
102
RTVSPost2010PropOp36
 70
     1
102
RTVSPost2010Prop37
 90
       50
102
RTVSPost2010PropOp37
 70
     1
102
RTVSPost2010Prop38
140
0.0
102
RTVSPost2010PropOp38
 70
     1
102
RTVSPost2010Prop39
140
1.0
102
RTVSPost2010PropOp39
 70
     1
102
RTVSPost2010Prop40
 90
        0
102
RTVSPost2010PropOp40
 70
     1
102
RTVSPost2010Prop41ColorIndex
 90
       18
102
RTVSPost2010Prop41ColorRGB
 90
        0
102
RTVSPost2010PropOp41
 70
     1
102
RTVSPost2010Prop42
 90
       50
102
RTVSPost2010PropOp42
 70
     1
102
RTVSPost2010Prop43
 90
        3
102
RTVSPost2010PropOp43
 70
     1
102
RTVSPost2010Prop44ColorIndex
 90
        5
102
RTVSPost2010Prop44ColorRGB
 90
      255
102
RTVSPost2010PropOp44
 70
     1
102
RTVSPost2010Prop45
280
     0
102
RTVSPost2010PropOp45
 70
     1
102
RTVSPost2010Prop46
 90
       50
102
RTVSPost2010PropOp46
 70
     1
102
RTVSPost2010Prop47
 90
       50
102
RTVSPost2010PropOp47
 70
     1
102
RTVSPost2010Prop48
 90
       50
102
RTVSPost2010PropOp48
 70
     1
102
RTVSPost2010Prop49
280
     0
102
RTVSPost2010PropOp49
 70
     1
102
RTVSPost2010Prop50
 90
       50
102
RTVSPost2010PropOp50
 70
     1
102
RTVSPost2010Prop51ColorIndex
 90
      256
102
RTVSPost2010Prop51ColorRGB
 90
-16777216
102
RTVSPost2010PropOp51
 70
     0
102
RTVSPost2010Prop52
140
1.0
102
RTVSPost2010PropOp52
 70
     0
102
RTVSPost2010Prop53
 90
        2
102
RTVSPost2010PropOp53
 70
     1
102
RTVSPost2010Prop54
  1
strokes_ogs.tif
102
RTVSPost2010PropOp54
 70
     1
102
RTVSPost2010Prop55
280
     0
102
RTVSPost2010PropOp55
 70
     1
102
RTVSPost2010Prop56
140
1.0
102
RTVSPost2010PropOp56
 70
     1
102
RTVSPost2010Prop57
140
1.0
102
RTVSPost2010PropOp57
 70
     1
102
RTVSPropertyOp0
 70
     1
102
RTVSPropertyOp1
 70
     1
102
RTVSPropertyOp2
 70
     1
102
RTVSPropertyOp3
 70
     1
102
RTVSPropertyOp4
 70
     1
102
RTVSPropertyOp5
 70
     1
102
RTVSPropertyOp6
 70
     1
102
RTVSPropertyOp7
 70
     1
102
RTVSPropertyOp8
 70
     1
102
RTVSPropertyOp9
 70
     1
102
RTVSPropertyOp10
 70
     1
102
RTVSPropertyOp11
 70
     1
102
RTVSPropertyOp12
 70
     1
102
RTVSPropertyOp13
 70
     1
102
RTVSPropertyOp14
 70
     1
102
RTVSPropertyOp15
 70
     1
102
RTVSPropertyOp16
 70
     1
102
RTVSPropertyOp17
 70
     1
102
RTVSPropertyOp18
 70
     1
102
RTVSPropertyOp19
 70
     1
102
RTVSPropertyOp20
 70
     1
102
RTVSPropertyOp21
 70
     1
102
RTVSPropertyOp22
 70
     1
102
RTVSPropertyOp23
 70
     1
102
RTVSPropertyOp24
 70
     1
102
RTVSPropertyOp25
 70
     1
102
RTVSPropertyOp26
 70
     1
102
RTVSPropertyOp27
 70
     1
102
RTVSPropertyOp28
 70
     1
102
RTVSPropertyOp29
 70
     1
102
RTVSPropertyOp30
 70
     1
102
RTVSPropertyOp31
 70
     1
102
RTVSPropertyOp32
 70
     1
102
RTVSPropertyOp33
 70
     1
102
RTVSPropertyOp34
 70
     1
102
RTVSPropertyOp35
 70
     1
102
RTVSPropertyOp36
 70
     1
102
RTVSPropertyOp37
 70
     1
102
RTVSPropertyOp38
 70
     1
102
RTVSPropertyOp39
 70
     1
102
RTVSPropertyOp40
 70
     1
102
RTVSPropertyOp41
 70
     1
102
RTVSPropertyOp42
 70
     1
102
RTVSPropertyOp43
 70
     1
102
RTVSPropertyOp44
 70
     1
102
RTVSPropertyOp45
 70
     1
102
RTVSPropertyOp46
 70
     1
102
RTVSPropertyOp47
 70
     1
102
RTVSPropertyOp48
 70
     1
102
RTVSPropertyOp49
 70
     1
102
RTVSPropertyOp50
 70
     1
102
RTVSPropertyOp51
 70
     0
102
RTVSPropertyOp52
 70
     0
102
RTVSPropertyOp53
 70
     1
102
RTVSPropertyOp54
 70
     1
102
RTVSPropertyOp55
 70
     1
102
RTVSPropertyOp56
 70
     1
102
RTVSPropertyOp57
 70
     1
102
RTVSPropertyOp58
 70
     1
102
RTVSPropertyOp59
 70
     1
102
RTVSPropertyOp60
 70
     1
102
RTVSPropertyOp61
 70
     1
102
RTVSPropertyOp62
 70
     1
  0
XRECORD
  5
8268
102
{ACAD_REACTORS
330
8267
102
}
330
8267
100
AcDbXrecord
280
     1
102
RTVSPost2010Prop28
280
     0
102
RTVSPost2010PropOp28
 70
     1
102
RTVSPost2010Prop29
280
     1
102
RTVSPost2010PropOp29
 70
     1
102
RTVSPost2010Prop30
280
     1
102
RTVSPost2010PropOp30
 70
     1
102
RTVSPost2010Prop31
280
     0
102
RTVSPost2010PropOp31
 70
     1
102
RTVSPost2010Prop32
280
     0
102
RTVSPost2010PropOp32
 70
     1
102
RTVSPost2010Prop33
280
     0
102
RTVSPost2010PropOp33
 70
     1
102
RTVSPost2010Prop34
280
     0
102
RTVSPost2010PropOp34
 70
     1
102
RTVSPost2010Prop35
280
     0
102
RTVSPost2010PropOp35
 70
     1
102
RTVSPost2010Prop36
280
     0
102
RTVSPost2010PropOp36
 70
     1
102
RTVSPost2010Prop37
 90
       50
102
RTVSPost2010PropOp37
 70
     1
102
RTVSPost2010Prop38
140
0.0
102
RTVSPost2010PropOp38
 70
     1
102
RTVSPost2010Prop39
140
1.0
102
RTVSPost2010PropOp39
 70
     1
102
RTVSPost2010Prop40
 90
        0
102
RTVSPost2010PropOp40
 70
     1
102
RTVSPost2010Prop41ColorIndex
 90
       18
102
RTVSPost2010Prop41ColorRGB
 90
        0
102
RTVSPost2010PropOp41
 70
     1
102
RTVSPost2010Prop42
 90
       50
102
RTVSPost2010PropOp42
 70
     1
102
RTVSPost2010Prop43
 90
        3
102
RTVSPost2010PropOp43
 70
     1
102
RTVSPost2010Prop44ColorIndex
 90
        5
102
RTVSPost2010Prop44ColorRGB
 90
      255
102
RTVSPost2010PropOp44
 70
     1
102
RTVSPost2010Prop45
280
     0
102
RTVSPost2010PropOp45
 70
     1
102
RTVSPost2010Prop46
 90
       50
102
RTVSPost2010PropOp46
 70
     1
102
RTVSPost2010Prop47
 90
       50
102
RTVSPost2010PropOp47
 70
     1
102
RTVSPost2010Prop48
 90
       50
102
RTVSPost2010PropOp48
 70
     1
102
RTVSPost2010Prop49
280
     0
102
RTVSPost2010PropOp49
 70
     1
102
RTVSPost2010Prop50
 90
       50
102
RTVSPost2010PropOp50
 70
     1
102
RTVSPost2010Prop51ColorIndex
 90
      256
102
RTVSPost2010Prop51ColorRGB
 90
-16777216
102
RTVSPost2010PropOp51
 70
     0
102
RTVSPost2010Prop52
140
1.0
102
RTVSPost2010PropOp52
 70
     0
102
RTVSPost2010Prop53
 90
        2
102
RTVSPost2010PropOp53
 70
     1
102
RTVSPost2010Prop54
  1
strokes_ogs.tif
102
RTVSPost2010PropOp54
 70
     1
102
RTVSPost2010Prop55
280
     0
102
RTVSPost2010PropOp55
 70
     1
102
RTVSPost2010Prop56
140
1.0
102
RTVSPost2010PropOp56
 70
     1
102
RTVSPost2010Prop57
140
1.0
102
RTVSPost2010PropOp57
 70
     1
102
RTVSPropertyOp0
 70
     1
102
RTVSPropertyOp1
 70
     1
102
RTVSPropertyOp2
 70
     1
102
RTVSPropertyOp3
 70
     1
102
RTVSPropertyOp4
 70
     1
102
RTVSPropertyOp5
 70
     1
102
RTVSPropertyOp6
 70
     1
102
RTVSPropertyOp7
 70
     1
102
RTVSPropertyOp8
 70
     1
102
RTVSPropertyOp9
 70
     1
102
RTVSPropertyOp10
 70
     1
102
RTVSPropertyOp11
 70
     1
102
RTVSPropertyOp12
 70
     1
102
RTVSPropertyOp13
 70
     1
102
RTVSPropertyOp14
 70
     1
102
RTVSPropertyOp15
 70
     1
102
RTVSPropertyOp16
 70
     1
102
RTVSPropertyOp17
 70
     1
102
RTVSPropertyOp18
 70
     1
102
RTVSPropertyOp19
 70
     1
102
RTVSPropertyOp20
 70
     1
102
RTVSPropertyOp21
 70
     1
102
RTVSPropertyOp22
 70
     1
102
RTVSPropertyOp23
 70
     1
102
RTVSPropertyOp24
 70
     1
102
RTVSPropertyOp25
 70
     1
102
RTVSPropertyOp26
 70
     1
102
RTVSPropertyOp27
 70
     1
102
RTVSPropertyOp28
 70
     1
102
RTVSPropertyOp29
 70
     1
102
RTVSPropertyOp30
 70
     1
102
RTVSPropertyOp31
 70
     1
102
RTVSPropertyOp32
 70
     1
102
RTVSPropertyOp33
 70
     1
102
RTVSPropertyOp34
 70
     1
102
RTVSPropertyOp35
 70
     1
102
RTVSPropertyOp36
 70
     1
102
RTVSPropertyOp37
 70
     1
102
RTVSPropertyOp38
 70
     1
102
RTVSPropertyOp39
 70
     1
102
RTVSPropertyOp40
 70
     1
102
RTVSPropertyOp41
 70
     1
102
RTVSPropertyOp42
 70
     1
102
RTVSPropertyOp43
 70
     1
102
RTVSPropertyOp44
 70
     1
102
RTVSPropertyOp45
 70
     1
102
RTVSPropertyOp46
 70
     1
102
RTVSPropertyOp47
 70
     1
102
RTVSPropertyOp48
 70
     1
102
RTVSPropertyOp49
 70
     1
102
RTVSPropertyOp50
 70
     1
102
RTVSPropertyOp51
 70
     0
102
RTVSPropertyOp52
 70
     0
102
RTVSPropertyOp53
 70
     1
102
RTVSPropertyOp54
 70
     1
102
RTVSPropertyOp55
 70
     1
102
RTVSPropertyOp56
 70
     1
102
RTVSPropertyOp57
 70
     1
102
RTVSPropertyOp58
 70
     1
102
RTVSPropertyOp59
 70
     1
102
RTVSPropertyOp60
 70
     1
102
RTVSPropertyOp61
 70
     1
102
RTVSPropertyOp62
 70
     1
  0
XRECORD
  5
8276
102
{ACAD_REACTORS
330
8275
102
}
330
8275
100
AcDbXrecord
280
     1
102
RTVSPost2010Prop28
280
     0
102
RTVSPost2010PropOp28
 70
     1
102
RTVSPost2010Prop29
280
     1
102
RTVSPost2010PropOp29
 70
     1
102
RTVSPost2010Prop30
280
     1
102
RTVSPost2010PropOp30
 70
     1
102
RTVSPost2010Prop31
280
     0
102
RTVSPost2010PropOp31
 70
     1
102
RTVSPost2010Prop32
280
     0
102
RTVSPost2010PropOp32
 70
     1
102
RTVSPost2010Prop33
280
     0
102
RTVSPost2010PropOp33
 70
     1
102
RTVSPost2010Prop34
280
     0
102
RTVSPost2010PropOp34
 70
     1
102
RTVSPost2010Prop35
280
     0
102
RTVSPost2010PropOp35
 70
     1
102
RTVSPost2010Prop36
280
     0
102
RTVSPost2010PropOp36
 70
     1
102
RTVSPost2010Prop37
 90
       50
102
RTVSPost2010PropOp37
 70
     1
102
RTVSPost2010Prop38
140
0.0
102
RTVSPost2010PropOp38
 70
     1
102
RTVSPost2010Prop39
140
1.0
102
RTVSPost2010PropOp39
 70
     1
102
RTVSPost2010Prop40
 90
        0
102
RTVSPost2010PropOp40
 70
     1
102
RTVSPost2010Prop41ColorIndex
 90
       18
102
RTVSPost2010Prop41ColorRGB
 90
        0
102
RTVSPost2010PropOp41
 70
     1
102
RTVSPost2010Prop42
 90
       50
102
RTVSPost2010PropOp42
 70
     1
102
RTVSPost2010Prop43
 90
        3
102
RTVSPost2010PropOp43
 70
     1
102
RTVSPost2010Prop44ColorIndex
 90
        5
102
RTVSPost2010Prop44ColorRGB
 90
      255
102
RTVSPost2010PropOp44
 70
     1
102
RTVSPost2010Prop45
280
     0
102
RTVSPost2010PropOp45
 70
     1
102
RTVSPost2010Prop46
 90
       50
102
RTVSPost2010PropOp46
 70
     1
102
RTVSPost2010Prop47
 90
       50
102
RTVSPost2010PropOp47
 70
     1
102
RTVSPost2010Prop48
 90
       50
102
RTVSPost2010PropOp48
 70
     1
102
RTVSPost2010Prop49
280
     0
102
RTVSPost2010PropOp49
 70
     1
102
RTVSPost2010Prop50
 90
       50
102
RTVSPost2010PropOp50
 70
     1
102
RTVSPost2010Prop51ColorIndex
 90
      256
102
RTVSPost2010Prop51ColorRGB
 90
-16777216
102
RTVSPost2010PropOp51
 70
     0
102
RTVSPost2010Prop52
140
1.0
102
RTVSPost2010PropOp52
 70
     0
102
RTVSPost2010Prop53
 90
        2
102
RTVSPost2010PropOp53
 70
     1
102
RTVSPost2010Prop54
  1
strokes_ogs.tif
102
RTVSPost2010PropOp54
 70
     1
102
RTVSPost2010Prop55
280
     0
102
RTVSPost2010PropOp55
 70
     1
102
RTVSPost2010Prop56
140
1.0
102
RTVSPost2010PropOp56
 70
     1
102
RTVSPost2010Prop57
140
1.0
102
RTVSPost2010PropOp57
 70
     1
102
RTVSPropertyOp0
 70
     1
102
RTVSPropertyOp1
 70
     1
102
RTVSPropertyOp2
 70
     1
102
RTVSPropertyOp3
 70
     1
102
RTVSPropertyOp4
 70
     1
102
RTVSPropertyOp5
 70
     1
102
RTVSPropertyOp6
 70
     1
102
RTVSPropertyOp7
 70
     1
102
RTVSPropertyOp8
 70
     1
102
RTVSPropertyOp9
 70
     1
102
RTVSPropertyOp10
 70
     1
102
RTVSPropertyOp11
 70
     1
102
RTVSPropertyOp12
 70
     1
102
RTVSPropertyOp13
 70
     1
102
RTVSPropertyOp14
 70
     1
102
RTVSPropertyOp15
 70
     1
102
RTVSPropertyOp16
 70
     1
102
RTVSPropertyOp17
 70
     1
102
RTVSPropertyOp18
 70
     1
102
RTVSPropertyOp19
 70
     1
102
RTVSPropertyOp20
 70
     1
102
RTVSPropertyOp21
 70
     1
102
RTVSPropertyOp22
 70
     1
102
RTVSPropertyOp23
 70
     1
102
RTVSPropertyOp24
 70
     1
102
RTVSPropertyOp25
 70
     1
102
RTVSPropertyOp26
 70
     1
102
RTVSPropertyOp27
 70
     1
102
RTVSPropertyOp28
 70
     1
102
RTVSPropertyOp29
 70
     1
102
RTVSPropertyOp30
 70
     1
102
RTVSPropertyOp31
 70
     1
102
RTVSPropertyOp32
 70
     1
102
RTVSPropertyOp33
 70
     1
102
RTVSPropertyOp34
 70
     1
102
RTVSPropertyOp35
 70
     1
102
RTVSPropertyOp36
 70
     1
102
RTVSPropertyOp37
 70
     1
102
RTVSPropertyOp38
 70
     1
102
RTVSPropertyOp39
 70
     1
102
RTVSPropertyOp40
 70
     1
102
RTVSPropertyOp41
 70
     1
102
RTVSPropertyOp42
 70
     1
102
RTVSPropertyOp43
 70
     1
102
RTVSPropertyOp44
 70
     1
102
RTVSPropertyOp45
 70
     1
102
RTVSPropertyOp46
 70
     1
102
RTVSPropertyOp47
 70
     1
102
RTVSPropertyOp48
 70
     1
102
RTVSPropertyOp49
 70
     1
102
RTVSPropertyOp50
 70
     1
102
RTVSPropertyOp51
 70
     0
102
RTVSPropertyOp52
 70
     0
102
RTVSPropertyOp53
 70
     1
102
RTVSPropertyOp54
 70
     1
102
RTVSPropertyOp55
 70
     1
102
RTVSPropertyOp56
 70
     1
102
RTVSPropertyOp57
 70
     1
102
RTVSPropertyOp58
 70
     1
102
RTVSPropertyOp59
 70
     1
102
RTVSPropertyOp60
 70
     1
102
RTVSPropertyOp61
 70
     1
102
RTVSPropertyOp62
 70
     1
  0
XRECORD
  5
827E
102
{ACAD_REACTORS
330
827D
102
}
330
827D
100
AcDbXrecord
280
     1
102
RTVSPost2010Prop28
280
     0
102
RTVSPost2010PropOp28
 70
     1
102
RTVSPost2010Prop29
280
     1
102
RTVSPost2010PropOp29
 70
     1
102
RTVSPost2010Prop30
280
     1
102
RTVSPost2010PropOp30
 70
     1
102
RTVSPost2010Prop31
280
     0
102
RTVSPost2010PropOp31
 70
     1
102
RTVSPost2010Prop32
280
     0
102
RTVSPost2010PropOp32
 70
     1
102
RTVSPost2010Prop33
280
     0
102
RTVSPost2010PropOp33
 70
     1
102
RTVSPost2010Prop34
280
     0
102
RTVSPost2010PropOp34
 70
     1
102
RTVSPost2010Prop35
280
     0
102
RTVSPost2010PropOp35
 70
     1
102
RTVSPost2010Prop36
280
     0
102
RTVSPost2010PropOp36
 70
     1
102
RTVSPost2010Prop37
 90
       50
102
RTVSPost2010PropOp37
 70
     1
102
RTVSPost2010Prop38
140
0.0
102
RTVSPost2010PropOp38
 70
     1
102
RTVSPost2010Prop39
140
1.0
102
RTVSPost2010PropOp39
 70
     1
102
RTVSPost2010Prop40
 90
        0
102
RTVSPost2010PropOp40
 70
     1
102
RTVSPost2010Prop41ColorIndex
 90
       18
102
RTVSPost2010Prop41ColorRGB
 90
        0
102
RTVSPost2010PropOp41
 70
     1
102
RTVSPost2010Prop42
 90
       50
102
RTVSPost2010PropOp42
 70
     1
102
RTVSPost2010Prop43
 90
        3
102
RTVSPost2010PropOp43
 70
     1
102
RTVSPost2010Prop44ColorIndex
 90
        5
102
RTVSPost2010Prop44ColorRGB
 90
      255
102
RTVSPost2010PropOp44
 70
     1
102
RTVSPost2010Prop45
280
     0
102
RTVSPost2010PropOp45
 70
     1
102
RTVSPost2010Prop46
 90
       50
102
RTVSPost2010PropOp46
 70
     1
102
RTVSPost2010Prop47
 90
       50
102
RTVSPost2010PropOp47
 70
     1
102
RTVSPost2010Prop48
 90
       50
102
RTVSPost2010PropOp48
 70
     1
102
RTVSPost2010Prop49
280
     0
102
RTVSPost2010PropOp49
 70
     1
102
RTVSPost2010Prop50
 90
       50
102
RTVSPost2010PropOp50
 70
     1
102
RTVSPost2010Prop51ColorIndex
 90
      256
102
RTVSPost2010Prop51ColorRGB
 90
-16777216
102
RTVSPost2010PropOp51
 70
     0
102
RTVSPost2010Prop52
140
1.0
102
RTVSPost2010PropOp52
 70
     0
102
RTVSPost2010Prop53
 90
        2
102
RTVSPost2010PropOp53
 70
     1
102
RTVSPost2010Prop54
  1
strokes_ogs.tif
102
RTVSPost2010PropOp54
 70
     1
102
RTVSPost2010Prop55
280
     0
102
RTVSPost2010PropOp55
 70
     1
102
RTVSPost2010Prop56
140
1.0
102
RTVSPost2010PropOp56
 70
     1
102
RTVSPost2010Prop57
140
1.0
102
RTVSPost2010PropOp57
 70
     1
102
RTVSPropertyOp0
 70
     1
102
RTVSPropertyOp1
 70
     1
102
RTVSPropertyOp2
 70
     1
102
RTVSPropertyOp3
 70
     1
102
RTVSPropertyOp4
 70
     1
102
RTVSPropertyOp5
 70
     1
102
RTVSPropertyOp6
 70
     1
102
RTVSPropertyOp7
 70
     1
102
RTVSPropertyOp8
 70
     1
102
RTVSPropertyOp9
 70
     1
102
RTVSPropertyOp10
 70
     1
102
RTVSPropertyOp11
 70
     1
102
RTVSPropertyOp12
 70
     1
102
RTVSPropertyOp13
 70
     1
102
RTVSPropertyOp14
 70
     1
102
RTVSPropertyOp15
 70
     1
102
RTVSPropertyOp16
 70
     1
102
RTVSPropertyOp17
 70
     1
102
RTVSPropertyOp18
 70
     1
102
RTVSPropertyOp19
 70
     1
102
RTVSPropertyOp20
 70
     1
102
RTVSPropertyOp21
 70
     1
102
RTVSPropertyOp22
 70
     1
102
RTVSPropertyOp23
 70
     1
102
RTVSPropertyOp24
 70
     1
102
RTVSPropertyOp25
 70
     1
102
RTVSPropertyOp26
 70
     1
102
RTVSPropertyOp27
 70
     1
102
RTVSPropertyOp28
 70
     1
102
RTVSPropertyOp29
 70
     1
102
RTVSPropertyOp30
 70
     1
102
RTVSPropertyOp31
 70
     1
102
RTVSPropertyOp32
 70
     1
102
RTVSPropertyOp33
 70
     1
102
RTVSPropertyOp34
 70
     1
102
RTVSPropertyOp35
 70
     1
102
RTVSPropertyOp36
 70
     1
102
RTVSPropertyOp37
 70
     1
102
RTVSPropertyOp38
 70
     1
102
RTVSPropertyOp39
 70
     1
102
RTVSPropertyOp40
 70
     1
102
RTVSPropertyOp41
 70
     1
102
RTVSPropertyOp42
 70
     1
102
RTVSPropertyOp43
 70
     1
102
RTVSPropertyOp44
 70
     1
102
RTVSPropertyOp45
 70
     1
102
RTVSPropertyOp46
 70
     1
102
RTVSPropertyOp47
 70
     1
102
RTVSPropertyOp48
 70
     1
102
RTVSPropertyOp49
 70
     1
102
RTVSPropertyOp50
 70
     1
102
RTVSPropertyOp51
 70
     0
102
RTVSPropertyOp52
 70
     0
102
RTVSPropertyOp53
 70
     1
102
RTVSPropertyOp54
 70
     1
102
RTVSPropertyOp55
 70
     1
102
RTVSPropertyOp56
 70
     1
102
RTVSPropertyOp57
 70
     1
102
RTVSPropertyOp58
 70
     1
102
RTVSPropertyOp59
 70
     1
102
RTVSPropertyOp60
 70
     1
102
RTVSPropertyOp61
 70
     1
102
RTVSPropertyOp62
 70
     1
  0
XRECORD
  5
8270
102
{ACAD_REACTORS
330
826F
102
}
330
826F
100
AcDbXrecord
280
     1
102
RTVSPost2010Prop28
280
     0
102
RTVSPost2010PropOp28
 70
     1
102
RTVSPost2010Prop29
280
     1
102
RTVSPost2010PropOp29
 70
     1
102
RTVSPost2010Prop30
280
     1
102
RTVSPost2010PropOp30
 70
     1
102
RTVSPost2010Prop31
280
     0
102
RTVSPost2010PropOp31
 70
     1
102
RTVSPost2010Prop32
280
     0
102
RTVSPost2010PropOp32
 70
     1
102
RTVSPost2010Prop33
280
     0
102
RTVSPost2010PropOp33
 70
     1
102
RTVSPost2010Prop34
280
     0
102
RTVSPost2010PropOp34
 70
     1
102
RTVSPost2010Prop35
280
     0
102
RTVSPost2010PropOp35
 70
     1
102
RTVSPost2010Prop36
280
     0
102
RTVSPost2010PropOp36
 70
     1
102
RTVSPost2010Prop37
 90
       50
102
RTVSPost2010PropOp37
 70
     1
102
RTVSPost2010Prop38
140
0.0
102
RTVSPost2010PropOp38
 70
     1
102
RTVSPost2010Prop39
140
1.0
102
RTVSPost2010PropOp39
 70
     1
102
RTVSPost2010Prop40
 90
        0
102
RTVSPost2010PropOp40
 70
     1
102
RTVSPost2010Prop41ColorIndex
 90
       18
102
RTVSPost2010Prop41ColorRGB
 90
        0
102
RTVSPost2010PropOp41
 70
     1
102
RTVSPost2010Prop42
 90
       50
102
RTVSPost2010PropOp42
 70
     1
102
RTVSPost2010Prop43
 90
        3
102
RTVSPost2010PropOp43
 70
     1
102
RTVSPost2010Prop44ColorIndex
 90
        5
102
RTVSPost2010Prop44ColorRGB
 90
      255
102
RTVSPost2010PropOp44
 70
     1
102
RTVSPost2010Prop45
280
     0
102
RTVSPost2010PropOp45
 70
     1
102
RTVSPost2010Prop46
 90
       50
102
RTVSPost2010PropOp46
 70
     1
102
RTVSPost2010Prop47
 90
       50
102
RTVSPost2010PropOp47
 70
     1
102
RTVSPost2010Prop48
 90
       50
102
RTVSPost2010PropOp48
 70
     1
102
RTVSPost2010Prop49
280
     0
102
RTVSPost2010PropOp49
 70
     1
102
RTVSPost2010Prop50
 90
       50
102
RTVSPost2010PropOp50
 70
     1
102
RTVSPost2010Prop51ColorIndex
 90
      256
102
RTVSPost2010Prop51ColorRGB
 90
-16777216
102
RTVSPost2010PropOp51
 70
     0
102
RTVSPost2010Prop52
140
1.0
102
RTVSPost2010PropOp52
 70
     0
102
RTVSPost2010Prop53
 90
        2
102
RTVSPost2010PropOp53
 70
     1
102
RTVSPost2010Prop54
  1
strokes_ogs.tif
102
RTVSPost2010PropOp54
 70
     1
102
RTVSPost2010Prop55
280
     0
102
RTVSPost2010PropOp55
 70
     1
102
RTVSPost2010Prop56
140
1.0
102
RTVSPost2010PropOp56
 70
     1
102
RTVSPost2010Prop57
140
1.0
102
RTVSPost2010PropOp57
 70
     1
102
RTVSPropertyOp0
 70
     1
102
RTVSPropertyOp1
 70
     1
102
RTVSPropertyOp2
 70
     1
102
RTVSPropertyOp3
 70
     1
102
RTVSPropertyOp4
 70
     1
102
RTVSPropertyOp5
 70
     1
102
RTVSPropertyOp6
 70
     1
102
RTVSPropertyOp7
 70
     1
102
RTVSPropertyOp8
 70
     1
102
RTVSPropertyOp9
 70
     1
102
RTVSPropertyOp10
 70
     1
102
RTVSPropertyOp11
 70
     1
102
RTVSPropertyOp12
 70
     1
102
RTVSPropertyOp13
 70
     1
102
RTVSPropertyOp14
 70
     1
102
RTVSPropertyOp15
 70
     1
102
RTVSPropertyOp16
 70
     1
102
RTVSPropertyOp17
 70
     1
102
RTVSPropertyOp18
 70
     1
102
RTVSPropertyOp19
 70
     1
102
RTVSPropertyOp20
 70
     1
102
RTVSPropertyOp21
 70
     1
102
RTVSPropertyOp22
 70
     1
102
RTVSPropertyOp23
 70
     1
102
RTVSPropertyOp24
 70
     1
102
RTVSPropertyOp25
 70
     1
102
RTVSPropertyOp26
 70
     1
102
RTVSPropertyOp27
 70
     1
102
RTVSPropertyOp28
 70
     1
102
RTVSPropertyOp29
 70
     1
102
RTVSPropertyOp30
 70
     1
102
RTVSPropertyOp31
 70
     1
102
RTVSPropertyOp32
 70
     1
102
RTVSPropertyOp33
 70
     1
102
RTVSPropertyOp34
 70
     1
102
RTVSPropertyOp35
 70
     1
102
RTVSPropertyOp36
 70
     1
102
RTVSPropertyOp37
 70
     1
102
RTVSPropertyOp38
 70
     1
102
RTVSPropertyOp39
 70
     1
102
RTVSPropertyOp40
 70
     1
102
RTVSPropertyOp41
 70
     1
102
RTVSPropertyOp42
 70
     1
102
RTVSPropertyOp43
 70
     1
102
RTVSPropertyOp44
 70
     1
102
RTVSPropertyOp45
 70
     1
102
RTVSPropertyOp46
 70
     1
102
RTVSPropertyOp47
 70
     1
102
RTVSPropertyOp48
 70
     1
102
RTVSPropertyOp49
 70
     1
102
RTVSPropertyOp50
 70
     1
102
RTVSPropertyOp51
 70
     0
102
RTVSPropertyOp52
 70
     0
102
RTVSPropertyOp53
 70
     1
102
RTVSPropertyOp54
 70
     1
102
RTVSPropertyOp55
 70
     1
102
RTVSPropertyOp56
 70
     1
102
RTVSPropertyOp57
 70
     1
102
RTVSPropertyOp58
 70
     1
102
RTVSPropertyOp59
 70
     1
102
RTVSPropertyOp60
 70
     1
102
RTVSPropertyOp61
 70
     1
102
RTVSPropertyOp62
 70
     1
  0
XRECORD
  5
8274
102
{ACAD_REACTORS
330
8273
102
}
330
8273
100
AcDbXrecord
280
     1
102
RTVSPost2010Prop28
280
     0
102
RTVSPost2010PropOp28
 70
     1
102
RTVSPost2010Prop29
280
     1
102
RTVSPost2010PropOp29
 70
     1
102
RTVSPost2010Prop30
280
     1
102
RTVSPost2010PropOp30
 70
     1
102
RTVSPost2010Prop31
280
     0
102
RTVSPost2010PropOp31
 70
     1
102
RTVSPost2010Prop32
280
     0
102
RTVSPost2010PropOp32
 70
     1
102
RTVSPost2010Prop33
280
     0
102
RTVSPost2010PropOp33
 70
     1
102
RTVSPost2010Prop34
280
     0
102
RTVSPost2010PropOp34
 70
     1
102
RTVSPost2010Prop35
280
     0
102
RTVSPost2010PropOp35
 70
     1
102
RTVSPost2010Prop36
280
     0
102
RTVSPost2010PropOp36
 70
     1
102
RTVSPost2010Prop37
 90
       50
102
RTVSPost2010PropOp37
 70
     1
102
RTVSPost2010Prop38
140
0.0
102
RTVSPost2010PropOp38
 70
     1
102
RTVSPost2010Prop39
140
1.0
102
RTVSPost2010PropOp39
 70
     1
102
RTVSPost2010Prop40
 90
        0
102
RTVSPost2010PropOp40
 70
     1
102
RTVSPost2010Prop41ColorIndex
 90
       18
102
RTVSPost2010Prop41ColorRGB
 90
        0
102
RTVSPost2010PropOp41
 70
     1
102
RTVSPost2010Prop42
 90
       50
102
RTVSPost2010PropOp42
 70
     1
102
RTVSPost2010Prop43
 90
        3
102
RTVSPost2010PropOp43
 70
     1
102
RTVSPost2010Prop44ColorIndex
 90
        5
102
RTVSPost2010Prop44ColorRGB
 90
      255
102
RTVSPost2010PropOp44
 70
     1
102
RTVSPost2010Prop45
280
     0
102
RTVSPost2010PropOp45
 70
     1
102
RTVSPost2010Prop46
 90
       50
102
RTVSPost2010PropOp46
 70
     1
102
RTVSPost2010Prop47
 90
       50
102
RTVSPost2010PropOp47
 70
     1
102
RTVSPost2010Prop48
 90
       50
102
RTVSPost2010PropOp48
 70
     1
102
RTVSPost2010Prop49
280
     0
102
RTVSPost2010PropOp49
 70
     1
102
RTVSPost2010Prop50
 90
       50
102
RTVSPost2010PropOp50
 70
     1
102
RTVSPost2010Prop51ColorIndex
 90
      256
102
RTVSPost2010Prop51ColorRGB
 90
-16777216
102
RTVSPost2010PropOp51
 70
     0
102
RTVSPost2010Prop52
140
1.0
102
RTVSPost2010PropOp52
 70
     0
102
RTVSPost2010Prop53
 90
        2
102
RTVSPost2010PropOp53
 70
     1
102
RTVSPost2010Prop54
  1
strokes_ogs.tif
102
RTVSPost2010PropOp54
 70
     1
102
RTVSPost2010Prop55
280
     0
102
RTVSPost2010PropOp55
 70
     1
102
RTVSPost2010Prop56
140
1.0
102
RTVSPost2010PropOp56
 70
     1
102
RTVSPost2010Prop57
140
1.0
102
RTVSPost2010PropOp57
 70
     1
102
RTVSPropertyOp0
 70
     1
102
RTVSPropertyOp1
 70
     1
102
RTVSPropertyOp2
 70
     1
102
RTVSPropertyOp3
 70
     1
102
RTVSPropertyOp4
 70
     1
102
RTVSPropertyOp5
 70
     1
102
RTVSPropertyOp6
 70
     1
102
RTVSPropertyOp7
 70
     1
102
RTVSPropertyOp8
 70
     1
102
RTVSPropertyOp9
 70
     1
102
RTVSPropertyOp10
 70
     1
102
RTVSPropertyOp11
 70
     1
102
RTVSPropertyOp12
 70
     1
102
RTVSPropertyOp13
 70
     1
102
RTVSPropertyOp14
 70
     1
102
RTVSPropertyOp15
 70
     1
102
RTVSPropertyOp16
 70
     1
102
RTVSPropertyOp17
 70
     1
102
RTVSPropertyOp18
 70
     1
102
RTVSPropertyOp19
 70
     1
102
RTVSPropertyOp20
 70
     1
102
RTVSPropertyOp21
 70
     1
102
RTVSPropertyOp22
 70
     1
102
RTVSPropertyOp23
 70
     1
102
RTVSPropertyOp24
 70
     1
102
RTVSPropertyOp25
 70
     1
102
RTVSPropertyOp26
 70
     1
102
RTVSPropertyOp27
 70
     1
102
RTVSPropertyOp28
 70
     1
102
RTVSPropertyOp29
 70
     1
102
RTVSPropertyOp30
 70
     1
102
RTVSPropertyOp31
 70
     1
102
RTVSPropertyOp32
 70
     1
102
RTVSPropertyOp33
 70
     1
102
RTVSPropertyOp34
 70
     1
102
RTVSPropertyOp35
 70
     1
102
RTVSPropertyOp36
 70
     1
102
RTVSPropertyOp37
 70
     1
102
RTVSPropertyOp38
 70
     1
102
RTVSPropertyOp39
 70
     1
102
RTVSPropertyOp40
 70
     1
102
RTVSPropertyOp41
 70
     1
102
RTVSPropertyOp42
 70
     1
102
RTVSPropertyOp43
 70
     1
102
RTVSPropertyOp44
 70
     1
102
RTVSPropertyOp45
 70
     1
102
RTVSPropertyOp46
 70
     1
102
RTVSPropertyOp47
 70
     1
102
RTVSPropertyOp48
 70
     1
102
RTVSPropertyOp49
 70
     1
102
RTVSPropertyOp50
 70
     1
102
RTVSPropertyOp51
 70
     0
102
RTVSPropertyOp52
 70
     0
102
RTVSPropertyOp53
 70
     1
102
RTVSPropertyOp54
 70
     1
102
RTVSPropertyOp55
 70
     1
102
RTVSPropertyOp56
 70
     1
102
RTVSPropertyOp57
 70
     1
102
RTVSPropertyOp58
 70
     1
102
RTVSPropertyOp59
 70
     1
102
RTVSPropertyOp60
 70
     1
102
RTVSPropertyOp61
 70
     1
102
RTVSPropertyOp62
 70
     1
  0
XRECORD
  5
828E
102
{ACAD_REACTORS
330
828D
102
}
330
828D
100
AcDbXrecord
280
     1
102
RTVSPost2010Prop28
280
     0
102
RTVSPost2010PropOp28
 70
     1
102
RTVSPost2010Prop29
280
     1
102
RTVSPost2010PropOp29
 70
     1
102
RTVSPost2010Prop30
280
     1
102
RTVSPost2010PropOp30
 70
     1
102
RTVSPost2010Prop31
280
     0
102
RTVSPost2010PropOp31
 70
     1
102
RTVSPost2010Prop32
280
     0
102
RTVSPost2010PropOp32
 70
     1
102
RTVSPost2010Prop33
280
     0
102
RTVSPost2010PropOp33
 70
     1
102
RTVSPost2010Prop34
280
     0
102
RTVSPost2010PropOp34
 70
     1
102
RTVSPost2010Prop35
280
     0
102
RTVSPost2010PropOp35
 70
     1
102
RTVSPost2010Prop36
280
     0
102
RTVSPost2010PropOp36
 70
     1
102
RTVSPost2010Prop37
 90
       50
102
RTVSPost2010PropOp37
 70
     0
102
RTVSPost2010Prop38
140
0.0
102
RTVSPost2010PropOp38
 70
     0
102
RTVSPost2010Prop39
140
1.0
102
RTVSPost2010PropOp39
 70
     0
102
RTVSPost2010Prop40
 90
        0
102
RTVSPost2010PropOp40
 70
     0
102
RTVSPost2010Prop41ColorIndex
 90
       18
102
RTVSPost2010Prop41ColorRGB
 90
        0
102
RTVSPost2010PropOp41
 70
     0
102
RTVSPost2010Prop42
 90
       50
102
RTVSPost2010PropOp42
 70
     0
102
RTVSPost2010Prop43
 90
        3
102
RTVSPost2010PropOp43
 70
     0
102
RTVSPost2010Prop44ColorIndex
 90
        5
102
RTVSPost2010Prop44ColorRGB
 90
      255
102
RTVSPost2010PropOp44
 70
     0
102
RTVSPost2010Prop45
280
     0
102
RTVSPost2010PropOp45
 70
     1
102
RTVSPost2010Prop46
 90
       50
102
RTVSPost2010PropOp46
 70
     0
102
RTVSPost2010Prop47
 90
       50
102
RTVSPost2010PropOp47
 70
     0
102
RTVSPost2010Prop48
 90
       50
102
RTVSPost2010PropOp48
 70
     0
102
RTVSPost2010Prop49
280
     0
102
RTVSPost2010PropOp49
 70
     1
102
RTVSPost2010Prop50
 90
       50
102
RTVSPost2010PropOp50
 70
     0
102
RTVSPost2010Prop51ColorIndex
 90
      256
102
RTVSPost2010Prop51ColorRGB
 90
-16777216
102
RTVSPost2010PropOp51
 70
     0
102
RTVSPost2010Prop52
140
1.0
102
RTVSPost2010PropOp52
 70
     0
102
RTVSPost2010Prop53
 90
        2
102
RTVSPost2010PropOp53
 70
     0
102
RTVSPost2010Prop54
  1
strokes_ogs.tif
102
RTVSPost2010PropOp54
 70
     0
102
RTVSPost2010Prop55
280
     0
102
RTVSPost2010PropOp55
 70
     1
102
RTVSPost2010Prop56
140
1.0
102
RTVSPost2010PropOp56
 70
     0
102
RTVSPost2010Prop57
140
1.0
102
RTVSPost2010PropOp57
 70
     0
102
RTVSPropertyOp0
 70
     0
102
RTVSPropertyOp1
 70
     0
102
RTVSPropertyOp2
 70
     0
102
RTVSPropertyOp3
 70
     0
102
RTVSPropertyOp4
 70
     0
102
RTVSPropertyOp5
 70
     0
102
RTVSPropertyOp6
 70
     0
102
RTVSPropertyOp7
 70
     0
102
RTVSPropertyOp8
 70
     0
102
RTVSPropertyOp9
 70
     0
102
RTVSPropertyOp10
 70
     0
102
RTVSPropertyOp11
 70
     0
102
RTVSPropertyOp12
 70
     0
102
RTVSPropertyOp13
 70
     0
102
RTVSPropertyOp14
 70
     2
102
RTVSPropertyOp15
 70
     0
102
RTVSPropertyOp16
 70
     0
102
RTVSPropertyOp17
 70
     0
102
RTVSPropertyOp18
 70
     0
102
RTVSPropertyOp19
 70
     0
102
RTVSPropertyOp20
 70
     0
102
RTVSPropertyOp21
 70
     0
102
RTVSPropertyOp22
 70
     0
102
RTVSPropertyOp23
 70
     0
102
RTVSPropertyOp24
 70
     0
102
RTVSPropertyOp25
 70
     0
102
RTVSPropertyOp26
 70
     0
102
RTVSPropertyOp27
 70
     0
102
RTVSPropertyOp28
 70
     1
102
RTVSPropertyOp29
 70
     1
102
RTVSPropertyOp30
 70
     1
102
RTVSPropertyOp31
 70
     1
102
RTVSPropertyOp32
 70
     1
102
RTVSPropertyOp33
 70
     1
102
RTVSPropertyOp34
 70
     1
102
RTVSPropertyOp35
 70
     1
102
RTVSPropertyOp36
 70
     1
102
RTVSPropertyOp37
 70
     0
102
RTVSPropertyOp38
 70
     0
102
RTVSPropertyOp39
 70
     0
102
RTVSPropertyOp40
 70
     0
102
RTVSPropertyOp41
 70
     0
102
RTVSPropertyOp42
 70
     0
102
RTVSPropertyOp43
 70
     0
102
RTVSPropertyOp44
 70
     0
102
RTVSPropertyOp45
 70
     1
102
RTVSPropertyOp46
 70
     0
102
RTVSPropertyOp47
 70
     0
102
RTVSPropertyOp48
 70
     0
102
RTVSPropertyOp49
 70
     1
102
RTVSPropertyOp50
 70
     0
102
RTVSPropertyOp51
 70
     0
102
RTVSPropertyOp52
 70
     0
102
RTVSPropertyOp53
 70
     0
102
RTVSPropertyOp54
 70
     0
102
RTVSPropertyOp55
 70
     1
102
RTVSPropertyOp56
 70
     0
102
RTVSPropertyOp57
 70
     0
102
RTVSPropertyOp58
 70
     0
102
RTVSPropertyOp59
 70
     0
102
RTVSPropertyOp60
 70
     0
102
RTVSPropertyOp61
 70
     0
102
RTVSPropertyOp62
 70
     0
  0
XRECORD
  5
827C
102
{ACAD_REACTORS
330
827B
102
}
330
827B
100
AcDbXrecord
280
     1
102
RTVSPost2010Prop28
280
     0
102
RTVSPost2010PropOp28
 70
     1
102
RTVSPost2010Prop29
280
     1
102
RTVSPost2010PropOp29
 70
     1
102
RTVSPost2010Prop30
280
     1
102
RTVSPost2010PropOp30
 70
     1
102
RTVSPost2010Prop31
280
     0
102
RTVSPost2010PropOp31
 70
     1
102
RTVSPost2010Prop32
280
     0
102
RTVSPost2010PropOp32
 70
     1
102
RTVSPost2010Prop33
280
     0
102
RTVSPost2010PropOp33
 70
     1
102
RTVSPost2010Prop34
280
     0
102
RTVSPost2010PropOp34
 70
     1
102
RTVSPost2010Prop35
280
     0
102
RTVSPost2010PropOp35
 70
     1
102
RTVSPost2010Prop36
280
     0
102
RTVSPost2010PropOp36
 70
     1
102
RTVSPost2010Prop37
 90
       50
102
RTVSPost2010PropOp37
 70
     1
102
RTVSPost2010Prop38
140
0.0
102
RTVSPost2010PropOp38
 70
     1
102
RTVSPost2010Prop39
140
1.0
102
RTVSPost2010PropOp39
 70
     1
102
RTVSPost2010Prop40
 90
        0
102
RTVSPost2010PropOp40
 70
     1
102
RTVSPost2010Prop41ColorIndex
 90
       18
102
RTVSPost2010Prop41ColorRGB
 90
        0
102
RTVSPost2010PropOp41
 70
     1
102
RTVSPost2010Prop42
 90
       50
102
RTVSPost2010PropOp42
 70
     1
102
RTVSPost2010Prop43
 90
        3
102
RTVSPost2010PropOp43
 70
     1
102
RTVSPost2010Prop44ColorIndex
 90
        5
102
RTVSPost2010Prop44ColorRGB
 90
      255
102
RTVSPost2010PropOp44
 70
     1
102
RTVSPost2010Prop45
280
     0
102
RTVSPost2010PropOp45
 70
     1
102
RTVSPost2010Prop46
 90
       50
102
RTVSPost2010PropOp46
 70
     1
102
RTVSPost2010Prop47
 90
       50
102
RTVSPost2010PropOp47
 70
     1
102
RTVSPost2010Prop48
 90
       50
102
RTVSPost2010PropOp48
 70
     1
102
RTVSPost2010Prop49
280
     0
102
RTVSPost2010PropOp49
 70
     1
102
RTVSPost2010Prop50
 90
       50
102
RTVSPost2010PropOp50
 70
     1
102
RTVSPost2010Prop51ColorIndex
 90
      256
102
RTVSPost2010Prop51ColorRGB
 90
-16777216
102
RTVSPost2010PropOp51
 70
     0
102
RTVSPost2010Prop52
140
1.0
102
RTVSPost2010PropOp52
 70
     0
102
RTVSPost2010Prop53
 90
        2
102
RTVSPost2010PropOp53
 70
     1
102
RTVSPost2010Prop54
  1
strokes_ogs.tif
102
RTVSPost2010PropOp54
 70
     1
102
RTVSPost2010Prop55
280
     0
102
RTVSPost2010PropOp55
 70
     1
102
RTVSPost2010Prop56
140
1.0
102
RTVSPost2010PropOp56
 70
     1
102
RTVSPost2010Prop57
140
1.0
102
RTVSPost2010PropOp57
 70
     1
102
RTVSPropertyOp0
 70
     1
102
RTVSPropertyOp1
 70
     1
102
RTVSPropertyOp2
 70
     1
102
RTVSPropertyOp3
 70
     1
102
RTVSPropertyOp4
 70
     1
102
RTVSPropertyOp5
 70
     1
102
RTVSPropertyOp6
 70
     1
102
RTVSPropertyOp7
 70
     1
102
RTVSPropertyOp8
 70
     1
102
RTVSPropertyOp9
 70
     1
102
RTVSPropertyOp10
 70
     1
102
RTVSPropertyOp11
 70
     1
102
RTVSPropertyOp12
 70
     1
102
RTVSPropertyOp13
 70
     1
102
RTVSPropertyOp14
 70
     1
102
RTVSPropertyOp15
 70
     1
102
RTVSPropertyOp16
 70
     1
102
RTVSPropertyOp17
 70
     1
102
RTVSPropertyOp18
 70
     1
102
RTVSPropertyOp19
 70
     1
102
RTVSPropertyOp20
 70
     1
102
RTVSPropertyOp21
 70
     1
102
RTVSPropertyOp22
 70
     1
102
RTVSPropertyOp23
 70
     1
102
RTVSPropertyOp24
 70
     1
102
RTVSPropertyOp25
 70
     1
102
RTVSPropertyOp26
 70
     1
102
RTVSPropertyOp27
 70
     1
102
RTVSPropertyOp28
 70
     1
102
RTVSPropertyOp29
 70
     1
102
RTVSPropertyOp30
 70
     1
102
RTVSPropertyOp31
 70
     1
102
RTVSPropertyOp32
 70
     1
102
RTVSPropertyOp33
 70
     1
102
RTVSPropertyOp34
 70
     1
102
RTVSPropertyOp35
 70
     1
102
RTVSPropertyOp36
 70
     1
102
RTVSPropertyOp37
 70
     1
102
RTVSPropertyOp38
 70
     1
102
RTVSPropertyOp39
 70
     1
102
RTVSPropertyOp40
 70
     1
102
RTVSPropertyOp41
 70
     1
102
RTVSPropertyOp42
 70
     1
102
RTVSPropertyOp43
 70
     1
102
RTVSPropertyOp44
 70
     1
102
RTVSPropertyOp45
 70
     1
102
RTVSPropertyOp46
 70
     1
102
RTVSPropertyOp47
 70
     1
102
RTVSPropertyOp48
 70
     1
102
RTVSPropertyOp49
 70
     1
102
RTVSPropertyOp50
 70
     1
102
RTVSPropertyOp51
 70
     0
102
RTVSPropertyOp52
 70
     0
102
RTVSPropertyOp53
 70
     1
102
RTVSPropertyOp54
 70
     1
102
RTVSPropertyOp55
 70
     1
102
RTVSPropertyOp56
 70
     1
102
RTVSPropertyOp57
 70
     1
102
RTVSPropertyOp58
 70
     1
102
RTVSPropertyOp59
 70
     1
102
RTVSPropertyOp60
 70
     1
102
RTVSPropertyOp61
 70
     1
102
RTVSPropertyOp62
 70
     1
  0
XRECORD
  5
8260
102
{ACAD_REACTORS
330
825F
102
}
330
825F
100
AcDbXrecord
280
     1
102
RTVSPost2010Prop28
280
     0
102
RTVSPost2010PropOp28
 70
     1
102
RTVSPost2010Prop29
280
     1
102
RTVSPost2010PropOp29
 70
     1
102
RTVSPost2010Prop30
280
     1
102
RTVSPost2010PropOp30
 70
     1
102
RTVSPost2010Prop31
280
     0
102
RTVSPost2010PropOp31
 70
     1
102
RTVSPost2010Prop32
280
     0
102
RTVSPost2010PropOp32
 70
     1
102
RTVSPost2010Prop33
280
     0
102
RTVSPost2010PropOp33
 70
     1
102
RTVSPost2010Prop34
280
     0
102
RTVSPost2010PropOp34
 70
     1
102
RTVSPost2010Prop35
280
     0
102
RTVSPost2010PropOp35
 70
     1
102
RTVSPost2010Prop36
280
     0
102
RTVSPost2010PropOp36
 70
     1
102
RTVSPost2010Prop37
 90
       50
102
RTVSPost2010PropOp37
 70
     1
102
RTVSPost2010Prop38
140
0.0
102
RTVSPost2010PropOp38
 70
     1
102
RTVSPost2010Prop39
140
1.0
102
RTVSPost2010PropOp39
 70
     1
102
RTVSPost2010Prop40
 90
        0
102
RTVSPost2010PropOp40
 70
     1
102
RTVSPost2010Prop41ColorIndex
 90
       18
102
RTVSPost2010Prop41ColorRGB
 90
        0
102
RTVSPost2010PropOp41
 70
     1
102
RTVSPost2010Prop42
 90
       50
102
RTVSPost2010PropOp42
 70
     1
102
RTVSPost2010Prop43
 90
        3
102
RTVSPost2010PropOp43
 70
     1
102
RTVSPost2010Prop44ColorIndex
 90
        5
102
RTVSPost2010Prop44ColorRGB
 90
      255
102
RTVSPost2010PropOp44
 70
     1
102
RTVSPost2010Prop45
280
     0
102
RTVSPost2010PropOp45
 70
     1
102
RTVSPost2010Prop46
 90
       50
102
RTVSPost2010PropOp46
 70
     1
102
RTVSPost2010Prop47
 90
       50
102
RTVSPost2010PropOp47
 70
     1
102
RTVSPost2010Prop48
 90
       50
102
RTVSPost2010PropOp48
 70
     1
102
RTVSPost2010Prop49
280
     0
102
RTVSPost2010PropOp49
 70
     1
102
RTVSPost2010Prop50
 90
       50
102
RTVSPost2010PropOp50
 70
     1
102
RTVSPost2010Prop51ColorIndex
 90
      256
102
RTVSPost2010Prop51ColorRGB
 90
-16777216
102
RTVSPost2010PropOp51
 70
     0
102
RTVSPost2010Prop52
140
1.0
102
RTVSPost2010PropOp52
 70
     0
102
RTVSPost2010Prop53
 90
        2
102
RTVSPost2010PropOp53
 70
     1
102
RTVSPost2010Prop54
  1
strokes_ogs.tif
102
RTVSPost2010PropOp54
 70
     1
102
RTVSPost2010Prop55
280
     0
102
RTVSPost2010PropOp55
 70
     1
102
RTVSPost2010Prop56
140
1.0
102
RTVSPost2010PropOp56
 70
     1
102
RTVSPost2010Prop57
140
1.0
102
RTVSPost2010PropOp57
 70
     1
102
RTVSPropertyOp0
 70
     1
102
RTVSPropertyOp1
 70
     1
102
RTVSPropertyOp2
 70
     1
102
RTVSPropertyOp3
 70
     1
102
RTVSPropertyOp4
 70
     1
102
RTVSPropertyOp5
 70
     1
102
RTVSPropertyOp6
 70
     1
102
RTVSPropertyOp7
 70
     1
102
RTVSPropertyOp8
 70
     1
102
RTVSPropertyOp9
 70
     1
102
RTVSPropertyOp10
 70
     1
102
RTVSPropertyOp11
 70
     1
102
RTVSPropertyOp12
 70
     1
102
RTVSPropertyOp13
 70
     1
102
RTVSPropertyOp14
 70
     1
102
RTVSPropertyOp15
 70
     1
102
RTVSPropertyOp16
 70
     1
102
RTVSPropertyOp17
 70
     1
102
RTVSPropertyOp18
 70
     1
102
RTVSPropertyOp19
 70
     1
102
RTVSPropertyOp20
 70
     1
102
RTVSPropertyOp21
 70
     1
102
RTVSPropertyOp22
 70
     1
102
RTVSPropertyOp23
 70
     1
102
RTVSPropertyOp24
 70
     1
102
RTVSPropertyOp25
 70
     1
102
RTVSPropertyOp26
 70
     1
102
RTVSPropertyOp27
 70
     1
102
RTVSPropertyOp28
 70
     1
102
RTVSPropertyOp29
 70
     1
102
RTVSPropertyOp30
 70
     1
102
RTVSPropertyOp31
 70
     1
102
RTVSPropertyOp32
 70
     1
102
RTVSPropertyOp33
 70
     1
102
RTVSPropertyOp34
 70
     1
102
RTVSPropertyOp35
 70
     1
102
RTVSPropertyOp36
 70
     1
102
RTVSPropertyOp37
 70
     1
102
RTVSPropertyOp38
 70
     1
102
RTVSPropertyOp39
 70
     1
102
RTVSPropertyOp40
 70
     1
102
RTVSPropertyOp41
 70
     1
102
RTVSPropertyOp42
 70
     1
102
RTVSPropertyOp43
 70
     1
102
RTVSPropertyOp44
 70
     1
102
RTVSPropertyOp45
 70
     1
102
RTVSPropertyOp46
 70
     1
102
RTVSPropertyOp47
 70
     1
102
RTVSPropertyOp48
 70
     1
102
RTVSPropertyOp49
 70
     1
102
RTVSPropertyOp50
 70
     1
102
RTVSPropertyOp51
 70
     0
102
RTVSPropertyOp52
 70
     0
102
RTVSPropertyOp53
 70
     1
102
RTVSPropertyOp54
 70
     1
102
RTVSPropertyOp55
 70
     1
102
RTVSPropertyOp56
 70
     1
102
RTVSPropertyOp57
 70
     1
102
RTVSPropertyOp58
 70
     1
102
RTVSPropertyOp59
 70
     1
102
RTVSPropertyOp60
 70
     1
102
RTVSPropertyOp61
 70
     1
102
RTVSPropertyOp62
 70
     1
  0
XRECORD
  5
8262
102
{ACAD_REACTORS
330
8261
102
}
330
8261
100
AcDbXrecord
280
     1
102
RTVSPost2010Prop28
280
     0
102
RTVSPost2010PropOp28
 70
     1
102
RTVSPost2010Prop29
280
     1
102
RTVSPost2010PropOp29
 70
     1
102
RTVSPost2010Prop30
280
     1
102
RTVSPost2010PropOp30
 70
     1
102
RTVSPost2010Prop31
280
     0
102
RTVSPost2010PropOp31
 70
     1
102
RTVSPost2010Prop32
280
     0
102
RTVSPost2010PropOp32
 70
     1
102
RTVSPost2010Prop33
280
     0
102
RTVSPost2010PropOp33
 70
     1
102
RTVSPost2010Prop34
280
     0
102
RTVSPost2010PropOp34
 70
     1
102
RTVSPost2010Prop35
280
     0
102
RTVSPost2010PropOp35
 70
     1
102
RTVSPost2010Prop36
280
     0
102
RTVSPost2010PropOp36
 70
     1
102
RTVSPost2010Prop37
 90
       50
102
RTVSPost2010PropOp37
 70
     1
102
RTVSPost2010Prop38
140
0.0
102
RTVSPost2010PropOp38
 70
     1
102
RTVSPost2010Prop39
140
1.0
102
RTVSPost2010PropOp39
 70
     1
102
RTVSPost2010Prop40
 90
        0
102
RTVSPost2010PropOp40
 70
     1
102
RTVSPost2010Prop41ColorIndex
 90
       18
102
RTVSPost2010Prop41ColorRGB
 90
        0
102
RTVSPost2010PropOp41
 70
     1
102
RTVSPost2010Prop42
 90
       50
102
RTVSPost2010PropOp42
 70
     1
102
RTVSPost2010Prop43
 90
        3
102
RTVSPost2010PropOp43
 70
     1
102
RTVSPost2010Prop44ColorIndex
 90
        5
102
RTVSPost2010Prop44ColorRGB
 90
      255
102
RTVSPost2010PropOp44
 70
     1
102
RTVSPost2010Prop45
280
     0
102
RTVSPost2010PropOp45
 70
     1
102
RTVSPost2010Prop46
 90
       50
102
RTVSPost2010PropOp46
 70
     1
102
RTVSPost2010Prop47
 90
       50
102
RTVSPost2010PropOp47
 70
     1
102
RTVSPost2010Prop48
 90
       50
102
RTVSPost2010PropOp48
 70
     1
102
RTVSPost2010Prop49
280
     0
102
RTVSPost2010PropOp49
 70
     1
102
RTVSPost2010Prop50
 90
       50
102
RTVSPost2010PropOp50
 70
     1
102
RTVSPost2010Prop51ColorIndex
 90
      256
102
RTVSPost2010Prop51ColorRGB
 90
-16777216
102
RTVSPost2010PropOp51
 70
     0
102
RTVSPost2010Prop52
140
1.0
102
RTVSPost2010PropOp52
 70
     0
102
RTVSPost2010Prop53
 90
        2
102
RTVSPost2010PropOp53
 70
     1
102
RTVSPost2010Prop54
  1
strokes_ogs.tif
102
RTVSPost2010PropOp54
 70
     1
102
RTVSPost2010Prop55
280
     0
102
RTVSPost2010PropOp55
 70
     1
102
RTVSPost2010Prop56
140
1.0
102
RTVSPost2010PropOp56
 70
     1
102
RTVSPost2010Prop57
140
1.0
102
RTVSPost2010PropOp57
 70
     1
102
RTVSPropertyOp0
 70
     1
102
RTVSPropertyOp1
 70
     1
102
RTVSPropertyOp2
 70
     1
102
RTVSPropertyOp3
 70
     1
102
RTVSPropertyOp4
 70
     1
102
RTVSPropertyOp5
 70
     1
102
RTVSPropertyOp6
 70
     1
102
RTVSPropertyOp7
 70
     1
102
RTVSPropertyOp8
 70
     1
102
RTVSPropertyOp9
 70
     1
102
RTVSPropertyOp10
 70
     1
102
RTVSPropertyOp11
 70
     1
102
RTVSPropertyOp12
 70
     1
102
RTVSPropertyOp13
 70
     1
102
RTVSPropertyOp14
 70
     1
102
RTVSPropertyOp15
 70
     1
102
RTVSPropertyOp16
 70
     1
102
RTVSPropertyOp17
 70
     1
102
RTVSPropertyOp18
 70
     1
102
RTVSPropertyOp19
 70
     1
102
RTVSPropertyOp20
 70
     1
102
RTVSPropertyOp21
 70
     1
102
RTVSPropertyOp22
 70
     1
102
RTVSPropertyOp23
 70
     1
102
RTVSPropertyOp24
 70
     1
102
RTVSPropertyOp25
 70
     1
102
RTVSPropertyOp26
 70
     1
102
RTVSPropertyOp27
 70
     1
102
RTVSPropertyOp28
 70
     1
102
RTVSPropertyOp29
 70
     1
102
RTVSPropertyOp30
 70
     1
102
RTVSPropertyOp31
 70
     1
102
RTVSPropertyOp32
 70
     1
102
RTVSPropertyOp33
 70
     1
102
RTVSPropertyOp34
 70
     1
102
RTVSPropertyOp35
 70
     1
102
RTVSPropertyOp36
 70
     1
102
RTVSPropertyOp37
 70
     1
102
RTVSPropertyOp38
 70
     1
102
RTVSPropertyOp39
 70
     1
102
RTVSPropertyOp40
 70
     1
102
RTVSPropertyOp41
 70
     1
102
RTVSPropertyOp42
 70
     1
102
RTVSPropertyOp43
 70
     1
102
RTVSPropertyOp44
 70
     1
102
RTVSPropertyOp45
 70
     1
102
RTVSPropertyOp46
 70
     1
102
RTVSPropertyOp47
 70
     1
102
RTVSPropertyOp48
 70
     1
102
RTVSPropertyOp49
 70
     1
102
RTVSPropertyOp50
 70
     1
102
RTVSPropertyOp51
 70
     0
102
RTVSPropertyOp52
 70
     0
102
RTVSPropertyOp53
 70
     1
102
RTVSPropertyOp54
 70
     1
102
RTVSPropertyOp55
 70
     1
102
RTVSPropertyOp56
 70
     1
102
RTVSPropertyOp57
 70
     1
102
RTVSPropertyOp58
 70
     1
102
RTVSPropertyOp59
 70
     1
102
RTVSPropertyOp60
 70
     1
102
RTVSPropertyOp61
 70
     1
102
RTVSPropertyOp62
 70
     1
  0
XRECORD
  5
8264
102
{ACAD_REACTORS
330
8263
102
}
330
8263
100
AcDbXrecord
280
     1
102
RTVSPost2010Prop28
280
     0
102
RTVSPost2010PropOp28
 70
     1
102
RTVSPost2010Prop29
280
     1
102
RTVSPost2010PropOp29
 70
     1
102
RTVSPost2010Prop30
280
     1
102
RTVSPost2010PropOp30
 70
     1
102
RTVSPost2010Prop31
280
     0
102
RTVSPost2010PropOp31
 70
     1
102
RTVSPost2010Prop32
280
     0
102
RTVSPost2010PropOp32
 70
     1
102
RTVSPost2010Prop33
280
     0
102
RTVSPost2010PropOp33
 70
     1
102
RTVSPost2010Prop34
280
     0
102
RTVSPost2010PropOp34
 70
     1
102
RTVSPost2010Prop35
280
     0
102
RTVSPost2010PropOp35
 70
     1
102
RTVSPost2010Prop36
280
     0
102
RTVSPost2010PropOp36
 70
     1
102
RTVSPost2010Prop37
 90
       50
102
RTVSPost2010PropOp37
 70
     1
102
RTVSPost2010Prop38
140
0.0
102
RTVSPost2010PropOp38
 70
     1
102
RTVSPost2010Prop39
140
1.0
102
RTVSPost2010PropOp39
 70
     1
102
RTVSPost2010Prop40
 90
        0
102
RTVSPost2010PropOp40
 70
     1
102
RTVSPost2010Prop41ColorIndex
 90
       18
102
RTVSPost2010Prop41ColorRGB
 90
        0
102
RTVSPost2010PropOp41
 70
     1
102
RTVSPost2010Prop42
 90
       50
102
RTVSPost2010PropOp42
 70
     1
102
RTVSPost2010Prop43
 90
        3
102
RTVSPost2010PropOp43
 70
     1
102
RTVSPost2010Prop44ColorIndex
 90
        5
102
RTVSPost2010Prop44ColorRGB
 90
      255
102
RTVSPost2010PropOp44
 70
     1
102
RTVSPost2010Prop45
280
     0
102
RTVSPost2010PropOp45
 70
     1
102
RTVSPost2010Prop46
 90
       50
102
RTVSPost2010PropOp46
 70
     1
102
RTVSPost2010Prop47
 90
       50
102
RTVSPost2010PropOp47
 70
     1
102
RTVSPost2010Prop48
 90
       50
102
RTVSPost2010PropOp48
 70
     1
102
RTVSPost2010Prop49
280
     0
102
RTVSPost2010PropOp49
 70
     1
102
RTVSPost2010Prop50
 90
       50
102
RTVSPost2010PropOp50
 70
     1
102
RTVSPost2010Prop51ColorIndex
 90
      256
102
RTVSPost2010Prop51ColorRGB
 90
-16777216
102
RTVSPost2010PropOp51
 70
     0
102
RTVSPost2010Prop52
140
1.0
102
RTVSPost2010PropOp52
 70
     0
102
RTVSPost2010Prop53
 90
        2
102
RTVSPost2010PropOp53
 70
     1
102
RTVSPost2010Prop54
  1
strokes_ogs.tif
102
RTVSPost2010PropOp54
 70
     1
102
RTVSPost2010Prop55
280
     0
102
RTVSPost2010PropOp55
 70
     1
102
RTVSPost2010Prop56
140
1.0
102
RTVSPost2010PropOp56
 70
     1
102
RTVSPost2010Prop57
140
1.0
102
RTVSPost2010PropOp57
 70
     1
102
RTVSPropertyOp0
 70
     1
102
RTVSPropertyOp1
 70
     1
102
RTVSPropertyOp2
 70
     1
102
RTVSPropertyOp3
 70
     1
102
RTVSPropertyOp4
 70
     1
102
RTVSPropertyOp5
 70
     1
102
RTVSPropertyOp6
 70
     1
102
RTVSPropertyOp7
 70
     1
102
RTVSPropertyOp8
 70
     1
102
RTVSPropertyOp9
 70
     1
102
RTVSPropertyOp10
 70
     1
102
RTVSPropertyOp11
 70
     1
102
RTVSPropertyOp12
 70
     1
102
RTVSPropertyOp13
 70
     1
102
RTVSPropertyOp14
 70
     1
102
RTVSPropertyOp15
 70
     1
102
RTVSPropertyOp16
 70
     1
102
RTVSPropertyOp17
 70
     1
102
RTVSPropertyOp18
 70
     1
102
RTVSPropertyOp19
 70
     1
102
RTVSPropertyOp20
 70
     1
102
RTVSPropertyOp21
 70
     1
102
RTVSPropertyOp22
 70
     1
102
RTVSPropertyOp23
 70
     1
102
RTVSPropertyOp24
 70
     1
102
RTVSPropertyOp25
 70
     1
102
RTVSPropertyOp26
 70
     1
102
RTVSPropertyOp27
 70
     1
102
RTVSPropertyOp28
 70
     1
102
RTVSPropertyOp29
 70
     1
102
RTVSPropertyOp30
 70
     1
102
RTVSPropertyOp31
 70
     1
102
RTVSPropertyOp32
 70
     1
102
RTVSPropertyOp33
 70
     1
102
RTVSPropertyOp34
 70
     1
102
RTVSPropertyOp35
 70
     1
102
RTVSPropertyOp36
 70
     1
102
RTVSPropertyOp37
 70
     1
102
RTVSPropertyOp38
 70
     1
102
RTVSPropertyOp39
 70
     1
102
RTVSPropertyOp40
 70
     1
102
RTVSPropertyOp41
 70
     1
102
RTVSPropertyOp42
 70
     1
102
RTVSPropertyOp43
 70
     1
102
RTVSPropertyOp44
 70
     1
102
RTVSPropertyOp45
 70
     1
102
RTVSPropertyOp46
 70
     1
102
RTVSPropertyOp47
 70
     1
102
RTVSPropertyOp48
 70
     1
102
RTVSPropertyOp49
 70
     1
102
RTVSPropertyOp50
 70
     1
102
RTVSPropertyOp51
 70
     0
102
RTVSPropertyOp52
 70
     0
102
RTVSPropertyOp53
 70
     1
102
RTVSPropertyOp54
 70
     1
102
RTVSPropertyOp55
 70
     1
102
RTVSPropertyOp56
 70
     1
102
RTVSPropertyOp57
 70
     1
102
RTVSPropertyOp58
 70
     1
102
RTVSPropertyOp59
 70
     1
102
RTVSPropertyOp60
 70
     1
102
RTVSPropertyOp61
 70
     1
102
RTVSPropertyOp62
 70
     1
  0
XRECORD
  5
8266
102
{ACAD_REACTORS
330
8265
102
}
330
8265
100
AcDbXrecord
280
     1
102
RTVSPost2010Prop28
280
     0
102
RTVSPost2010PropOp28
 70
     1
102
RTVSPost2010Prop29
280
     1
102
RTVSPost2010PropOp29
 70
     1
102
RTVSPost2010Prop30
280
     1
102
RTVSPost2010PropOp30
 70
     1
102
RTVSPost2010Prop31
280
     0
102
RTVSPost2010PropOp31
 70
     1
102
RTVSPost2010Prop32
280
     0
102
RTVSPost2010PropOp32
 70
     1
102
RTVSPost2010Prop33
280
     0
102
RTVSPost2010PropOp33
 70
     1
102
RTVSPost2010Prop34
280
     0
102
RTVSPost2010PropOp34
 70
     1
102
RTVSPost2010Prop35
280
     0
102
RTVSPost2010PropOp35
 70
     1
102
RTVSPost2010Prop36
280
     0
102
RTVSPost2010PropOp36
 70
     1
102
RTVSPost2010Prop37
 90
       50
102
RTVSPost2010PropOp37
 70
     1
102
RTVSPost2010Prop38
140
0.0
102
RTVSPost2010PropOp38
 70
     1
102
RTVSPost2010Prop39
140
1.0
102
RTVSPost2010PropOp39
 70
     1
102
RTVSPost2010Prop40
 90
        0
102
RTVSPost2010PropOp40
 70
     1
102
RTVSPost2010Prop41ColorIndex
 90
       18
102
RTVSPost2010Prop41ColorRGB
 90
        0
102
RTVSPost2010PropOp41
 70
     1
102
RTVSPost2010Prop42
 90
       50
102
RTVSPost2010PropOp42
 70
     1
102
RTVSPost2010Prop43
 90
        3
102
RTVSPost2010PropOp43
 70
     1
102
RTVSPost2010Prop44ColorIndex
 90
        5
102
RTVSPost2010Prop44ColorRGB
 90
      255
102
RTVSPost2010PropOp44
 70
     1
102
RTVSPost2010Prop45
280
     0
102
RTVSPost2010PropOp45
 70
     1
102
RTVSPost2010Prop46
 90
       50
102
RTVSPost2010PropOp46
 70
     1
102
RTVSPost2010Prop47
 90
       50
102
RTVSPost2010PropOp47
 70
     1
102
RTVSPost2010Prop48
 90
       50
102
RTVSPost2010PropOp48
 70
     1
102
RTVSPost2010Prop49
280
     0
102
RTVSPost2010PropOp49
 70
     1
102
RTVSPost2010Prop50
 90
       50
102
RTVSPost2010PropOp50
 70
     1
102
RTVSPost2010Prop51ColorIndex
 90
      256
102
RTVSPost2010Prop51ColorRGB
 90
-16777216
102
RTVSPost2010PropOp51
 70
     0
102
RTVSPost2010Prop52
140
1.0
102
RTVSPost2010PropOp52
 70
     0
102
RTVSPost2010Prop53
 90
        2
102
RTVSPost2010PropOp53
 70
     1
102
RTVSPost2010Prop54
  1
strokes_ogs.tif
102
RTVSPost2010PropOp54
 70
     1
102
RTVSPost2010Prop55
280
     0
102
RTVSPost2010PropOp55
 70
     1
102
RTVSPost2010Prop56
140
1.0
102
RTVSPost2010PropOp56
 70
     1
102
RTVSPost2010Prop57
140
1.0
102
RTVSPost2010PropOp57
 70
     1
102
RTVSPropertyOp0
 70
     1
102
RTVSPropertyOp1
 70
     1
102
RTVSPropertyOp2
 70
     1
102
RTVSPropertyOp3
 70
     1
102
RTVSPropertyOp4
 70
     1
102
RTVSPropertyOp5
 70
     1
102
RTVSPropertyOp6
 70
     1
102
RTVSPropertyOp7
 70
     1
102
RTVSPropertyOp8
 70
     1
102
RTVSPropertyOp9
 70
     1
102
RTVSPropertyOp10
 70
     1
102
RTVSPropertyOp11
 70
     1
102
RTVSPropertyOp12
 70
     1
102
RTVSPropertyOp13
 70
     1
102
RTVSPropertyOp14
 70
     1
102
RTVSPropertyOp15
 70
     1
102
RTVSPropertyOp16
 70
     1
102
RTVSPropertyOp17
 70
     1
102
RTVSPropertyOp18
 70
     1
102
RTVSPropertyOp19
 70
     1
102
RTVSPropertyOp20
 70
     1
102
RTVSPropertyOp21
 70
     1
102
RTVSPropertyOp22
 70
     1
102
RTVSPropertyOp23
 70
     1
102
RTVSPropertyOp24
 70
     1
102
RTVSPropertyOp25
 70
     1
102
RTVSPropertyOp26
 70
     1
102
RTVSPropertyOp27
 70
     1
102
RTVSPropertyOp28
 70
     1
102
RTVSPropertyOp29
 70
     1
102
RTVSPropertyOp30
 70
     1
102
RTVSPropertyOp31
 70
     1
102
RTVSPropertyOp32
 70
     1
102
RTVSPropertyOp33
 70
     1
102
RTVSPropertyOp34
 70
     1
102
RTVSPropertyOp35
 70
     1
102
RTVSPropertyOp36
 70
     1
102
RTVSPropertyOp37
 70
     1
102
RTVSPropertyOp38
 70
     1
102
RTVSPropertyOp39
 70
     1
102
RTVSPropertyOp40
 70
     1
102
RTVSPropertyOp41
 70
     1
102
RTVSPropertyOp42
 70
     1
102
RTVSPropertyOp43
 70
     1
102
RTVSPropertyOp44
 70
     1
102
RTVSPropertyOp45
 70
     1
102
RTVSPropertyOp46
 70
     1
102
RTVSPropertyOp47
 70
     1
102
RTVSPropertyOp48
 70
     1
102
RTVSPropertyOp49
 70
     1
102
RTVSPropertyOp50
 70
     1
102
RTVSPropertyOp51
 70
     0
102
RTVSPropertyOp52
 70
     0
102
RTVSPropertyOp53
 70
     1
102
RTVSPropertyOp54
 70
     1
102
RTVSPropertyOp55
 70
     1
102
RTVSPropertyOp56
 70
     1
102
RTVSPropertyOp57
 70
     1
102
RTVSPropertyOp58
 70
     1
102
RTVSPropertyOp59
 70
     1
102
RTVSPropertyOp60
 70
     1
102
RTVSPropertyOp61
 70
     1
102
RTVSPropertyOp62
 70
     1
  0
XRECORD
  5
826E
102
{ACAD_REACTORS
330
826D
102
}
330
826D
100
AcDbXrecord
280
     1
102
RTVSPost2010Prop28
280
     0
102
RTVSPost2010PropOp28
 70
     1
102
RTVSPost2010Prop29
280
     1
102
RTVSPost2010PropOp29
 70
     1
102
RTVSPost2010Prop30
280
     1
102
RTVSPost2010PropOp30
 70
     1
102
RTVSPost2010Prop31
280
     0
102
RTVSPost2010PropOp31
 70
     1
102
RTVSPost2010Prop32
280
     0
102
RTVSPost2010PropOp32
 70
     1
102
RTVSPost2010Prop33
280
     0
102
RTVSPost2010PropOp33
 70
     1
102
RTVSPost2010Prop34
280
     0
102
RTVSPost2010PropOp34
 70
     1
102
RTVSPost2010Prop35
280
     0
102
RTVSPost2010PropOp35
 70
     1
102
RTVSPost2010Prop36
280
     0
102
RTVSPost2010PropOp36
 70
     1
102
RTVSPost2010Prop37
 90
       50
102
RTVSPost2010PropOp37
 70
     1
102
RTVSPost2010Prop38
140
0.0
102
RTVSPost2010PropOp38
 70
     1
102
RTVSPost2010Prop39
140
1.0
102
RTVSPost2010PropOp39
 70
     1
102
RTVSPost2010Prop40
 90
        0
102
RTVSPost2010PropOp40
 70
     1
102
RTVSPost2010Prop41ColorIndex
 90
       18
102
RTVSPost2010Prop41ColorRGB
 90
        0
102
RTVSPost2010PropOp41
 70
     1
102
RTVSPost2010Prop42
 90
       50
102
RTVSPost2010PropOp42
 70
     1
102
RTVSPost2010Prop43
 90
        3
102
RTVSPost2010PropOp43
 70
     1
102
RTVSPost2010Prop44ColorIndex
 90
        5
102
RTVSPost2010Prop44ColorRGB
 90
      255
102
RTVSPost2010PropOp44
 70
     1
102
RTVSPost2010Prop45
280
     0
102
RTVSPost2010PropOp45
 70
     1
102
RTVSPost2010Prop46
 90
       50
102
RTVSPost2010PropOp46
 70
     1
102
RTVSPost2010Prop47
 90
       50
102
RTVSPost2010PropOp47
 70
     1
102
RTVSPost2010Prop48
 90
       50
102
RTVSPost2010PropOp48
 70
     1
102
RTVSPost2010Prop49
280
     0
102
RTVSPost2010PropOp49
 70
     1
102
RTVSPost2010Prop50
 90
       50
102
RTVSPost2010PropOp50
 70
     1
102
RTVSPost2010Prop51ColorIndex
 90
      256
102
RTVSPost2010Prop51ColorRGB
 90
-16777216
102
RTVSPost2010PropOp51
 70
     0
102
RTVSPost2010Prop52
140
1.0
102
RTVSPost2010PropOp52
 70
     0
102
RTVSPost2010Prop53
 90
        2
102
RTVSPost2010PropOp53
 70
     1
102
RTVSPost2010Prop54
  1
strokes_ogs.tif
102
RTVSPost2010PropOp54
 70
     1
102
RTVSPost2010Prop55
280
     0
102
RTVSPost2010PropOp55
 70
     1
102
RTVSPost2010Prop56
140
1.0
102
RTVSPost2010PropOp56
 70
     1
102
RTVSPost2010Prop57
140
1.0
102
RTVSPost2010PropOp57
 70
     1
102
RTVSPropertyOp0
 70
     1
102
RTVSPropertyOp1
 70
     1
102
RTVSPropertyOp2
 70
     1
102
RTVSPropertyOp3
 70
     1
102
RTVSPropertyOp4
 70
     1
102
RTVSPropertyOp5
 70
     1
102
RTVSPropertyOp6
 70
     1
102
RTVSPropertyOp7
 70
     1
102
RTVSPropertyOp8
 70
     1
102
RTVSPropertyOp9
 70
     1
102
RTVSPropertyOp10
 70
     1
102
RTVSPropertyOp11
 70
     1
102
RTVSPropertyOp12
 70
     1
102
RTVSPropertyOp13
 70
     1
102
RTVSPropertyOp14
 70
     1
102
RTVSPropertyOp15
 70
     1
102
RTVSPropertyOp16
 70
     1
102
RTVSPropertyOp17
 70
     1
102
RTVSPropertyOp18
 70
     1
102
RTVSPropertyOp19
 70
     1
102
RTVSPropertyOp20
 70
     1
102
RTVSPropertyOp21
 70
     1
102
RTVSPropertyOp22
 70
     1
102
RTVSPropertyOp23
 70
     1
102
RTVSPropertyOp24
 70
     1
102
RTVSPropertyOp25
 70
     1
102
RTVSPropertyOp26
 70
     1
102
RTVSPropertyOp27
 70
     1
102
RTVSPropertyOp28
 70
     1
102
RTVSPropertyOp29
 70
     1
102
RTVSPropertyOp30
 70
     1
102
RTVSPropertyOp31
 70
     1
102
RTVSPropertyOp32
 70
     1
102
RTVSPropertyOp33
 70
     1
102
RTVSPropertyOp34
 70
     1
102
RTVSPropertyOp35
 70
     1
102
RTVSPropertyOp36
 70
     1
102
RTVSPropertyOp37
 70
     1
102
RTVSPropertyOp38
 70
     1
102
RTVSPropertyOp39
 70
     1
102
RTVSPropertyOp40
 70
     1
102
RTVSPropertyOp41
 70
     1
102
RTVSPropertyOp42
 70
     1
102
RTVSPropertyOp43
 70
     1
102
RTVSPropertyOp44
 70
     1
102
RTVSPropertyOp45
 70
     1
102
RTVSPropertyOp46
 70
     1
102
RTVSPropertyOp47
 70
     1
102
RTVSPropertyOp48
 70
     1
102
RTVSPropertyOp49
 70
     1
102
RTVSPropertyOp50
 70
     1
102
RTVSPropertyOp51
 70
     0
102
RTVSPropertyOp52
 70
     0
102
RTVSPropertyOp53
 70
     1
102
RTVSPropertyOp54
 70
     1
102
RTVSPropertyOp55
 70
     1
102
RTVSPropertyOp56
 70
     1
102
RTVSPropertyOp57
 70
     1
102
RTVSPropertyOp58
 70
     1
102
RTVSPropertyOp59
 70
     1
102
RTVSPropertyOp60
 70
     1
102
RTVSPropertyOp61
 70
     1
102
RTVSPropertyOp62
 70
     1
  0
XRECORD
  5
828A
102
{ACAD_REACTORS
330
8289
102
}
330
8289
100
AcDbXrecord
280
     1
102
RTVSPost2010Prop28
280
     0
102
RTVSPost2010PropOp28
 70
     1
102
RTVSPost2010Prop29
280
     1
102
RTVSPost2010PropOp29
 70
     1
102
RTVSPost2010Prop30
280
     1
102
RTVSPost2010PropOp30
 70
     1
102
RTVSPost2010Prop31
280
     0
102
RTVSPost2010PropOp31
 70
     1
102
RTVSPost2010Prop32
280
     0
102
RTVSPost2010PropOp32
 70
     1
102
RTVSPost2010Prop33
280
     0
102
RTVSPost2010PropOp33
 70
     1
102
RTVSPost2010Prop34
280
     0
102
RTVSPost2010PropOp34
 70
     1
102
RTVSPost2010Prop35
280
     0
102
RTVSPost2010PropOp35
 70
     1
102
RTVSPost2010Prop36
280
     0
102
RTVSPost2010PropOp36
 70
     1
102
RTVSPost2010Prop37
 90
       50
102
RTVSPost2010PropOp37
 70
     0
102
RTVSPost2010Prop38
140
0.0
102
RTVSPost2010PropOp38
 70
     0
102
RTVSPost2010Prop39
140
1.0
102
RTVSPost2010PropOp39
 70
     0
102
RTVSPost2010Prop40
 90
        0
102
RTVSPost2010PropOp40
 70
     0
102
RTVSPost2010Prop41ColorIndex
 90
       18
102
RTVSPost2010Prop41ColorRGB
 90
        0
102
RTVSPost2010PropOp41
 70
     0
102
RTVSPost2010Prop42
 90
       50
102
RTVSPost2010PropOp42
 70
     0
102
RTVSPost2010Prop43
 90
        3
102
RTVSPost2010PropOp43
 70
     0
102
RTVSPost2010Prop44ColorIndex
 90
        5
102
RTVSPost2010Prop44ColorRGB
 90
      255
102
RTVSPost2010PropOp44
 70
     0
102
RTVSPost2010Prop45
280
     0
102
RTVSPost2010PropOp45
 70
     1
102
RTVSPost2010Prop46
 90
       50
102
RTVSPost2010PropOp46
 70
     0
102
RTVSPost2010Prop47
 90
       50
102
RTVSPost2010PropOp47
 70
     0
102
RTVSPost2010Prop48
 90
       50
102
RTVSPost2010PropOp48
 70
     0
102
RTVSPost2010Prop49
280
     0
102
RTVSPost2010PropOp49
 70
     1
102
RTVSPost2010Prop50
 90
       50
102
RTVSPost2010PropOp50
 70
     0
102
RTVSPost2010Prop51ColorIndex
 90
      256
102
RTVSPost2010Prop51ColorRGB
 90
-16777216
102
RTVSPost2010PropOp51
 70
     0
102
RTVSPost2010Prop52
140
1.0
102
RTVSPost2010PropOp52
 70
     0
102
RTVSPost2010Prop53
 90
        2
102
RTVSPost2010PropOp53
 70
     0
102
RTVSPost2010Prop54
  1
strokes_ogs.tif
102
RTVSPost2010PropOp54
 70
     0
102
RTVSPost2010Prop55
280
     0
102
RTVSPost2010PropOp55
 70
     1
102
RTVSPost2010Prop56
140
1.0
102
RTVSPost2010PropOp56
 70
     0
102
RTVSPost2010Prop57
140
1.0
102
RTVSPost2010PropOp57
 70
     0
102
RTVSPropertyOp0
 70
     0
102
RTVSPropertyOp1
 70
     0
102
RTVSPropertyOp2
 70
     0
102
RTVSPropertyOp3
 70
     0
102
RTVSPropertyOp4
 70
     0
102
RTVSPropertyOp5
 70
     0
102
RTVSPropertyOp6
 70
     0
102
RTVSPropertyOp7
 70
     0
102
RTVSPropertyOp8
 70
     0
102
RTVSPropertyOp9
 70
     0
102
RTVSPropertyOp10
 70
     0
102
RTVSPropertyOp11
 70
     0
102
RTVSPropertyOp12
 70
     0
102
RTVSPropertyOp13
 70
     0
102
RTVSPropertyOp14
 70
     2
102
RTVSPropertyOp15
 70
     0
102
RTVSPropertyOp16
 70
     0
102
RTVSPropertyOp17
 70
     0
102
RTVSPropertyOp18
 70
     0
102
RTVSPropertyOp19
 70
     0
102
RTVSPropertyOp20
 70
     0
102
RTVSPropertyOp21
 70
     0
102
RTVSPropertyOp22
 70
     0
102
RTVSPropertyOp23
 70
     0
102
RTVSPropertyOp24
 70
     0
102
RTVSPropertyOp25
 70
     0
102
RTVSPropertyOp26
 70
     0
102
RTVSPropertyOp27
 70
     0
102
RTVSPropertyOp28
 70
     1
102
RTVSPropertyOp29
 70
     1
102
RTVSPropertyOp30
 70
     1
102
RTVSPropertyOp31
 70
     1
102
RTVSPropertyOp32
 70
     1
102
RTVSPropertyOp33
 70
     1
102
RTVSPropertyOp34
 70
     1
102
RTVSPropertyOp35
 70
     1
102
RTVSPropertyOp36
 70
     1
102
RTVSPropertyOp37
 70
     0
102
RTVSPropertyOp38
 70
     0
102
RTVSPropertyOp39
 70
     0
102
RTVSPropertyOp40
 70
     0
102
RTVSPropertyOp41
 70
     0
102
RTVSPropertyOp42
 70
     0
102
RTVSPropertyOp43
 70
     0
102
RTVSPropertyOp44
 70
     0
102
RTVSPropertyOp45
 70
     1
102
RTVSPropertyOp46
 70
     0
102
RTVSPropertyOp47
 70
     0
102
RTVSPropertyOp48
 70
     0
102
RTVSPropertyOp49
 70
     1
102
RTVSPropertyOp50
 70
     0
102
RTVSPropertyOp51
 70
     0
102
RTVSPropertyOp52
 70
     0
102
RTVSPropertyOp53
 70
     0
102
RTVSPropertyOp54
 70
     0
102
RTVSPropertyOp55
 70
     1
102
RTVSPropertyOp56
 70
     0
102
RTVSPropertyOp57
 70
     0
102
RTVSPropertyOp58
 70
     0
102
RTVSPropertyOp59
 70
     0
102
RTVSPropertyOp60
 70
     0
102
RTVSPropertyOp61
 70
     0
102
RTVSPropertyOp62
 70
     0
  0
XRECORD
  5
827A
102
{ACAD_REACTORS
330
8279
102
}
330
8279
100
AcDbXrecord
280
     1
102
RTVSPost2010Prop28
280
     0
102
RTVSPost2010PropOp28
 70
     1
102
RTVSPost2010Prop29
280
     1
102
RTVSPost2010PropOp29
 70
     1
102
RTVSPost2010Prop30
280
     1
102
RTVSPost2010PropOp30
 70
     1
102
RTVSPost2010Prop31
280
     0
102
RTVSPost2010PropOp31
 70
     1
102
RTVSPost2010Prop32
280
     0
102
RTVSPost2010PropOp32
 70
     1
102
RTVSPost2010Prop33
280
     0
102
RTVSPost2010PropOp33
 70
     1
102
RTVSPost2010Prop34
280
     0
102
RTVSPost2010PropOp34
 70
     1
102
RTVSPost2010Prop35
280
     0
102
RTVSPost2010PropOp35
 70
     1
102
RTVSPost2010Prop36
280
     0
102
RTVSPost2010PropOp36
 70
     1
102
RTVSPost2010Prop37
 90
       50
102
RTVSPost2010PropOp37
 70
     1
102
RTVSPost2010Prop38
140
0.0
102
RTVSPost2010PropOp38
 70
     1
102
RTVSPost2010Prop39
140
1.0
102
RTVSPost2010PropOp39
 70
     1
102
RTVSPost2010Prop40
 90
        0
102
RTVSPost2010PropOp40
 70
     1
102
RTVSPost2010Prop41ColorIndex
 90
       18
102
RTVSPost2010Prop41ColorRGB
 90
        0
102
RTVSPost2010PropOp41
 70
     1
102
RTVSPost2010Prop42
 90
       50
102
RTVSPost2010PropOp42
 70
     1
102
RTVSPost2010Prop43
 90
        3
102
RTVSPost2010PropOp43
 70
     1
102
RTVSPost2010Prop44ColorIndex
 90
        5
102
RTVSPost2010Prop44ColorRGB
 90
      255
102
RTVSPost2010PropOp44
 70
     1
102
RTVSPost2010Prop45
280
     0
102
RTVSPost2010PropOp45
 70
     1
102
RTVSPost2010Prop46
 90
       50
102
RTVSPost2010PropOp46
 70
     1
102
RTVSPost2010Prop47
 90
       50
102
RTVSPost2010PropOp47
 70
     1
102
RTVSPost2010Prop48
 90
       50
102
RTVSPost2010PropOp48
 70
     1
102
RTVSPost2010Prop49
280
     0
102
RTVSPost2010PropOp49
 70
     1
102
RTVSPost2010Prop50
 90
       50
102
RTVSPost2010PropOp50
 70
     1
102
RTVSPost2010Prop51ColorIndex
 90
      256
102
RTVSPost2010Prop51ColorRGB
 90
-16777216
102
RTVSPost2010PropOp51
 70
     0
102
RTVSPost2010Prop52
140
1.0
102
RTVSPost2010PropOp52
 70
     0
102
RTVSPost2010Prop53
 90
        2
102
RTVSPost2010PropOp53
 70
     1
102
RTVSPost2010Prop54
  1
strokes_ogs.tif
102
RTVSPost2010PropOp54
 70
     1
102
RTVSPost2010Prop55
280
     0
102
RTVSPost2010PropOp55
 70
     1
102
RTVSPost2010Prop56
140
1.0
102
RTVSPost2010PropOp56
 70
     1
102
RTVSPost2010Prop57
140
1.0
102
RTVSPost2010PropOp57
 70
     1
102
RTVSPropertyOp0
 70
     1
102
RTVSPropertyOp1
 70
     1
102
RTVSPropertyOp2
 70
     1
102
RTVSPropertyOp3
 70
     1
102
RTVSPropertyOp4
 70
     1
102
RTVSPropertyOp5
 70
     1
102
RTVSPropertyOp6
 70
     1
102
RTVSPropertyOp7
 70
     1
102
RTVSPropertyOp8
 70
     1
102
RTVSPropertyOp9
 70
     1
102
RTVSPropertyOp10
 70
     1
102
RTVSPropertyOp11
 70
     1
102
RTVSPropertyOp12
 70
     1
102
RTVSPropertyOp13
 70
     1
102
RTVSPropertyOp14
 70
     1
102
RTVSPropertyOp15
 70
     1
102
RTVSPropertyOp16
 70
     1
102
RTVSPropertyOp17
 70
     1
102
RTVSPropertyOp18
 70
     1
102
RTVSPropertyOp19
 70
     1
102
RTVSPropertyOp20
 70
     1
102
RTVSPropertyOp21
 70
     1
102
RTVSPropertyOp22
 70
     1
102
RTVSPropertyOp23
 70
     1
102
RTVSPropertyOp24
 70
     1
102
RTVSPropertyOp25
 70
     1
102
RTVSPropertyOp26
 70
     1
102
RTVSPropertyOp27
 70
     1
102
RTVSPropertyOp28
 70
     1
102
RTVSPropertyOp29
 70
     1
102
RTVSPropertyOp30
 70
     1
102
RTVSPropertyOp31
 70
     1
102
RTVSPropertyOp32
 70
     1
102
RTVSPropertyOp33
 70
     1
102
RTVSPropertyOp34
 70
     1
102
RTVSPropertyOp35
 70
     1
102
RTVSPropertyOp36
 70
     1
102
RTVSPropertyOp37
 70
     1
102
RTVSPropertyOp38
 70
     1
102
RTVSPropertyOp39
 70
     1
102
RTVSPropertyOp40
 70
     1
102
RTVSPropertyOp41
 70
     1
102
RTVSPropertyOp42
 70
     1
102
RTVSPropertyOp43
 70
     1
102
RTVSPropertyOp44
 70
     1
102
RTVSPropertyOp45
 70
     1
102
RTVSPropertyOp46
 70
     1
102
RTVSPropertyOp47
 70
     1
102
RTVSPropertyOp48
 70
     1
102
RTVSPropertyOp49
 70
     1
102
RTVSPropertyOp50
 70
     1
102
RTVSPropertyOp51
 70
     0
102
RTVSPropertyOp52
 70
     0
102
RTVSPropertyOp53
 70
     1
102
RTVSPropertyOp54
 70
     1
102
RTVSPropertyOp55
 70
     1
102
RTVSPropertyOp56
 70
     1
102
RTVSPropertyOp57
 70
     1
102
RTVSPropertyOp58
 70
     1
102
RTVSPropertyOp59
 70
     1
102
RTVSPropertyOp60
 70
     1
102
RTVSPropertyOp61
 70
     1
102
RTVSPropertyOp62
 70
     1
  0
XRECORD
  5
828C
102
{ACAD_REACTORS
330
828B
102
}
330
828B
100
AcDbXrecord
280
     1
102
RTVSPost2010Prop28
280
     0
102
RTVSPost2010PropOp28
 70
     1
102
RTVSPost2010Prop29
280
     1
102
RTVSPost2010PropOp29
 70
     1
102
RTVSPost2010Prop30
280
     1
102
RTVSPost2010PropOp30
 70
     1
102
RTVSPost2010Prop31
280
     0
102
RTVSPost2010PropOp31
 70
     1
102
RTVSPost2010Prop32
280
     0
102
RTVSPost2010PropOp32
 70
     1
102
RTVSPost2010Prop33
280
     0
102
RTVSPost2010PropOp33
 70
     1
102
RTVSPost2010Prop34
280
     0
102
RTVSPost2010PropOp34
 70
     1
102
RTVSPost2010Prop35
280
     0
102
RTVSPost2010PropOp35
 70
     1
102
RTVSPost2010Prop36
280
     0
102
RTVSPost2010PropOp36
 70
     1
102
RTVSPost2010Prop37
 90
       50
102
RTVSPost2010PropOp37
 70
     0
102
RTVSPost2010Prop38
140
0.0
102
RTVSPost2010PropOp38
 70
     0
102
RTVSPost2010Prop39
140
1.0
102
RTVSPost2010PropOp39
 70
     0
102
RTVSPost2010Prop40
 90
        0
102
RTVSPost2010PropOp40
 70
     0
102
RTVSPost2010Prop41ColorIndex
 90
       18
102
RTVSPost2010Prop41ColorRGB
 90
        0
102
RTVSPost2010PropOp41
 70
     0
102
RTVSPost2010Prop42
 90
       50
102
RTVSPost2010PropOp42
 70
     0
102
RTVSPost2010Prop43
 90
        3
102
RTVSPost2010PropOp43
 70
     0
102
RTVSPost2010Prop44ColorIndex
 90
        5
102
RTVSPost2010Prop44ColorRGB
 90
      255
102
RTVSPost2010PropOp44
 70
     0
102
RTVSPost2010Prop45
280
     0
102
RTVSPost2010PropOp45
 70
     1
102
RTVSPost2010Prop46
 90
       50
102
RTVSPost2010PropOp46
 70
     0
102
RTVSPost2010Prop47
 90
       50
102
RTVSPost2010PropOp47
 70
     0
102
RTVSPost2010Prop48
 90
       50
102
RTVSPost2010PropOp48
 70
     0
102
RTVSPost2010Prop49
280
     0
102
RTVSPost2010PropOp49
 70
     1
102
RTVSPost2010Prop50
 90
       50
102
RTVSPost2010PropOp50
 70
     0
102
RTVSPost2010Prop51ColorIndex
 90
      256
102
RTVSPost2010Prop51ColorRGB
 90
-16777216
102
RTVSPost2010PropOp51
 70
     0
102
RTVSPost2010Prop52
140
1.0
102
RTVSPost2010PropOp52
 70
     0
102
RTVSPost2010Prop53
 90
        2
102
RTVSPost2010PropOp53
 70
     0
102
RTVSPost2010Prop54
  1
strokes_ogs.tif
102
RTVSPost2010PropOp54
 70
     0
102
RTVSPost2010Prop55
280
     0
102
RTVSPost2010PropOp55
 70
     1
102
RTVSPost2010Prop56
140
1.0
102
RTVSPost2010PropOp56
 70
     0
102
RTVSPost2010Prop57
140
1.0
102
RTVSPost2010PropOp57
 70
     0
102
RTVSPropertyOp0
 70
     0
102
RTVSPropertyOp1
 70
     0
102
RTVSPropertyOp2
 70
     0
102
RTVSPropertyOp3
 70
     0
102
RTVSPropertyOp4
 70
     0
102
RTVSPropertyOp5
 70
     0
102
RTVSPropertyOp6
 70
     0
102
RTVSPropertyOp7
 70
     0
102
RTVSPropertyOp8
 70
     0
102
RTVSPropertyOp9
 70
     0
102
RTVSPropertyOp10
 70
     0
102
RTVSPropertyOp11
 70
     0
102
RTVSPropertyOp12
 70
     0
102
RTVSPropertyOp13
 70
     0
102
RTVSPropertyOp14
 70
     2
102
RTVSPropertyOp15
 70
     0
102
RTVSPropertyOp16
 70
     0
102
RTVSPropertyOp17
 70
     0
102
RTVSPropertyOp18
 70
     0
102
RTVSPropertyOp19
 70
     0
102
RTVSPropertyOp20
 70
     0
102
RTVSPropertyOp21
 70
     0
102
RTVSPropertyOp22
 70
     0
102
RTVSPropertyOp23
 70
     0
102
RTVSPropertyOp24
 70
     0
102
RTVSPropertyOp25
 70
     0
102
RTVSPropertyOp26
 70
     0
102
RTVSPropertyOp27
 70
     0
102
RTVSPropertyOp28
 70
     1
102
RTVSPropertyOp29
 70
     1
102
RTVSPropertyOp30
 70
     1
102
RTVSPropertyOp31
 70
     1
102
RTVSPropertyOp32
 70
     1
102
RTVSPropertyOp33
 70
     1
102
RTVSPropertyOp34
 70
     1
102
RTVSPropertyOp35
 70
     1
102
RTVSPropertyOp36
 70
     1
102
RTVSPropertyOp37
 70
     0
102
RTVSPropertyOp38
 70
     0
102
RTVSPropertyOp39
 70
     0
102
RTVSPropertyOp40
 70
     0
102
RTVSPropertyOp41
 70
     0
102
RTVSPropertyOp42
 70
     0
102
RTVSPropertyOp43
 70
     0
102
RTVSPropertyOp44
 70
     0
102
RTVSPropertyOp45
 70
     1
102
RTVSPropertyOp46
 70
     0
102
RTVSPropertyOp47
 70
     0
102
RTVSPropertyOp48
 70
     0
102
RTVSPropertyOp49
 70
     1
102
RTVSPropertyOp50
 70
     0
102
RTVSPropertyOp51
 70
     0
102
RTVSPropertyOp52
 70
     0
102
RTVSPropertyOp53
 70
     0
102
RTVSPropertyOp54
 70
     0
102
RTVSPropertyOp55
 70
     1
102
RTVSPropertyOp56
 70
     0
102
RTVSPropertyOp57
 70
     0
102
RTVSPropertyOp58
 70
     0
102
RTVSPropertyOp59
 70
     0
102
RTVSPropertyOp60
 70
     0
102
RTVSPropertyOp61
 70
     0
102
RTVSPropertyOp62
 70
     0
  0
XRECORD
  5
8272
102
{ACAD_REACTORS
330
8271
102
}
330
8271
100
AcDbXrecord
280
     1
102
RTVSPost2010Prop28
280
     0
102
RTVSPost2010PropOp28
 70
     1
102
RTVSPost2010Prop29
280
     1
102
RTVSPost2010PropOp29
 70
     1
102
RTVSPost2010Prop30
280
     1
102
RTVSPost2010PropOp30
 70
     1
102
RTVSPost2010Prop31
280
     0
102
RTVSPost2010PropOp31
 70
     1
102
RTVSPost2010Prop32
280
     0
102
RTVSPost2010PropOp32
 70
     1
102
RTVSPost2010Prop33
280
     0
102
RTVSPost2010PropOp33
 70
     1
102
RTVSPost2010Prop34
280
     0
102
RTVSPost2010PropOp34
 70
     1
102
RTVSPost2010Prop35
280
     0
102
RTVSPost2010PropOp35
 70
     1
102
RTVSPost2010Prop36
280
     0
102
RTVSPost2010PropOp36
 70
     1
102
RTVSPost2010Prop37
 90
       50
102
RTVSPost2010PropOp37
 70
     1
102
RTVSPost2010Prop38
140
0.0
102
RTVSPost2010PropOp38
 70
     1
102
RTVSPost2010Prop39
140
1.0
102
RTVSPost2010PropOp39
 70
     1
102
RTVSPost2010Prop40
 90
        0
102
RTVSPost2010PropOp40
 70
     1
102
RTVSPost2010Prop41ColorIndex
 90
       18
102
RTVSPost2010Prop41ColorRGB
 90
        0
102
RTVSPost2010PropOp41
 70
     1
102
RTVSPost2010Prop42
 90
       50
102
RTVSPost2010PropOp42
 70
     1
102
RTVSPost2010Prop43
 90
        3
102
RTVSPost2010PropOp43
 70
     1
102
RTVSPost2010Prop44ColorIndex
 90
        5
102
RTVSPost2010Prop44ColorRGB
 90
      255
102
RTVSPost2010PropOp44
 70
     1
102
RTVSPost2010Prop45
280
     0
102
RTVSPost2010PropOp45
 70
     1
102
RTVSPost2010Prop46
 90
       50
102
RTVSPost2010PropOp46
 70
     1
102
RTVSPost2010Prop47
 90
       50
102
RTVSPost2010PropOp47
 70
     1
102
RTVSPost2010Prop48
 90
       50
102
RTVSPost2010PropOp48
 70
     1
102
RTVSPost2010Prop49
280
     0
102
RTVSPost2010PropOp49
 70
     1
102
RTVSPost2010Prop50
 90
       50
102
RTVSPost2010PropOp50
 70
     1
102
RTVSPost2010Prop51ColorIndex
 90
      256
102
RTVSPost2010Prop51ColorRGB
 90
-16777216
102
RTVSPost2010PropOp51
 70
     0
102
RTVSPost2010Prop52
140
1.0
102
RTVSPost2010PropOp52
 70
     0
102
RTVSPost2010Prop53
 90
        2
102
RTVSPost2010PropOp53
 70
     1
102
RTVSPost2010Prop54
  1
strokes_ogs.tif
102
RTVSPost2010PropOp54
 70
     1
102
RTVSPost2010Prop55
280
     0
102
RTVSPost2010PropOp55
 70
     1
102
RTVSPost2010Prop56
140
1.0
102
RTVSPost2010PropOp56
 70
     1
102
RTVSPost2010Prop57
140
1.0
102
RTVSPost2010PropOp57
 70
     1
102
RTVSPropertyOp0
 70
     1
102
RTVSPropertyOp1
 70
     1
102
RTVSPropertyOp2
 70
     1
102
RTVSPropertyOp3
 70
     1
102
RTVSPropertyOp4
 70
     1
102
RTVSPropertyOp5
 70
     1
102
RTVSPropertyOp6
 70
     1
102
RTVSPropertyOp7
 70
     1
102
RTVSPropertyOp8
 70
     1
102
RTVSPropertyOp9
 70
     1
102
RTVSPropertyOp10
 70
     1
102
RTVSPropertyOp11
 70
     1
102
RTVSPropertyOp12
 70
     1
102
RTVSPropertyOp13
 70
     1
102
RTVSPropertyOp14
 70
     1
102
RTVSPropertyOp15
 70
     1
102
RTVSPropertyOp16
 70
     1
102
RTVSPropertyOp17
 70
     1
102
RTVSPropertyOp18
 70
     1
102
RTVSPropertyOp19
 70
     1
102
RTVSPropertyOp20
 70
     1
102
RTVSPropertyOp21
 70
     1
102
RTVSPropertyOp22
 70
     1
102
RTVSPropertyOp23
 70
     1
102
RTVSPropertyOp24
 70
     1
102
RTVSPropertyOp25
 70
     1
102
RTVSPropertyOp26
 70
     1
102
RTVSPropertyOp27
 70
     1
102
RTVSPropertyOp28
 70
     1
102
RTVSPropertyOp29
 70
     1
102
RTVSPropertyOp30
 70
     1
102
RTVSPropertyOp31
 70
     1
102
RTVSPropertyOp32
 70
     1
102
RTVSPropertyOp33
 70
     1
102
RTVSPropertyOp34
 70
     1
102
RTVSPropertyOp35
 70
     1
102
RTVSPropertyOp36
 70
     1
102
RTVSPropertyOp37
 70
     1
102
RTVSPropertyOp38
 70
     1
102
RTVSPropertyOp39
 70
     1
102
RTVSPropertyOp40
 70
     1
102
RTVSPropertyOp41
 70
     1
102
RTVSPropertyOp42
 70
     1
102
RTVSPropertyOp43
 70
     1
102
RTVSPropertyOp44
 70
     1
102
RTVSPropertyOp45
 70
     1
102
RTVSPropertyOp46
 70
     1
102
RTVSPropertyOp47
 70
     1
102
RTVSPropertyOp48
 70
     1
102
RTVSPropertyOp49
 70
     1
102
RTVSPropertyOp50
 70
     1
102
RTVSPropertyOp51
 70
     0
102
RTVSPropertyOp52
 70
     0
102
RTVSPropertyOp53
 70
     1
102
RTVSPropertyOp54
 70
     1
102
RTVSPropertyOp55
 70
     1
102
RTVSPropertyOp56
 70
     1
102
RTVSPropertyOp57
 70
     1
102
RTVSPropertyOp58
 70
     1
102
RTVSPropertyOp59
 70
     1
102
RTVSPropertyOp60
 70
     1
102
RTVSPropertyOp61
 70
     1
102
RTVSPropertyOp62
 70
     1
  0
XRECORD
  5
8288
102
{ACAD_REACTORS
330
8287
102
}
330
8287
100
AcDbXrecord
280
     1
102
RTVSPost2010Prop28
280
     0
102
RTVSPost2010PropOp28
 70
     1
102
RTVSPost2010Prop29
280
     1
102
RTVSPost2010PropOp29
 70
     1
102
RTVSPost2010Prop30
280
     1
102
RTVSPost2010PropOp30
 70
     1
102
RTVSPost2010Prop31
280
     0
102
RTVSPost2010PropOp31
 70
     1
102
RTVSPost2010Prop32
280
     0
102
RTVSPost2010PropOp32
 70
     1
102
RTVSPost2010Prop33
280
     0
102
RTVSPost2010PropOp33
 70
     1
102
RTVSPost2010Prop34
280
     0
102
RTVSPost2010PropOp34
 70
     1
102
RTVSPost2010Prop35
280
     0
102
RTVSPost2010PropOp35
 70
     1
102
RTVSPost2010Prop36
280
     0
102
RTVSPost2010PropOp36
 70
     1
102
RTVSPost2010Prop37
 90
       50
102
RTVSPost2010PropOp37
 70
     1
102
RTVSPost2010Prop38
140
0.0
102
RTVSPost2010PropOp38
 70
     1
102
RTVSPost2010Prop39
140
1.0
102
RTVSPost2010PropOp39
 70
     1
102
RTVSPost2010Prop40
 90
        0
102
RTVSPost2010PropOp40
 70
     1
102
RTVSPost2010Prop41ColorIndex
 90
       18
102
RTVSPost2010Prop41ColorRGB
 90
        0
102
RTVSPost2010PropOp41
 70
     1
102
RTVSPost2010Prop42
 90
       50
102
RTVSPost2010PropOp42
 70
     1
102
RTVSPost2010Prop43
 90
        3
102
RTVSPost2010PropOp43
 70
     1
102
RTVSPost2010Prop44ColorIndex
 90
        5
102
RTVSPost2010Prop44ColorRGB
 90
      255
102
RTVSPost2010PropOp44
 70
     1
102
RTVSPost2010Prop45
280
     0
102
RTVSPost2010PropOp45
 70
     1
102
RTVSPost2010Prop46
 90
       50
102
RTVSPost2010PropOp46
 70
     1
102
RTVSPost2010Prop47
 90
       50
102
RTVSPost2010PropOp47
 70
     1
102
RTVSPost2010Prop48
 90
       50
102
RTVSPost2010PropOp48
 70
     1
102
RTVSPost2010Prop49
280
     0
102
RTVSPost2010PropOp49
 70
     1
102
RTVSPost2010Prop50
 90
       50
102
RTVSPost2010PropOp50
 70
     1
102
RTVSPost2010Prop51ColorIndex
 90
      256
102
RTVSPost2010Prop51ColorRGB
 90
-16777216
102
RTVSPost2010PropOp51
 70
     0
102
RTVSPost2010Prop52
140
1.0
102
RTVSPost2010PropOp52
 70
     0
102
RTVSPost2010Prop53
 90
        2
102
RTVSPost2010PropOp53
 70
     1
102
RTVSPost2010Prop54
  1
strokes_ogs.tif
102
RTVSPost2010PropOp54
 70
     1
102
RTVSPost2010Prop55
280
     0
102
RTVSPost2010PropOp55
 70
     1
102
RTVSPost2010Prop56
140
1.0
102
RTVSPost2010PropOp56
 70
     1
102
RTVSPost2010Prop57
140
1.0
102
RTVSPost2010PropOp57
 70
     1
102
RTVSPropertyOp0
 70
     1
102
RTVSPropertyOp1
 70
     1
102
RTVSPropertyOp2
 70
     1
102
RTVSPropertyOp3
 70
     1
102
RTVSPropertyOp4
 70
     1
102
RTVSPropertyOp5
 70
     1
102
RTVSPropertyOp6
 70
     1
102
RTVSPropertyOp7
 70
     1
102
RTVSPropertyOp8
 70
     1
102
RTVSPropertyOp9
 70
     1
102
RTVSPropertyOp10
 70
     1
102
RTVSPropertyOp11
 70
     1
102
RTVSPropertyOp12
 70
     1
102
RTVSPropertyOp13
 70
     1
102
RTVSPropertyOp14
 70
     1
102
RTVSPropertyOp15
 70
     1
102
RTVSPropertyOp16
 70
     1
102
RTVSPropertyOp17
 70
     1
102
RTVSPropertyOp18
 70
     1
102
RTVSPropertyOp19
 70
     1
102
RTVSPropertyOp20
 70
     1
102
RTVSPropertyOp21
 70
     1
102
RTVSPropertyOp22
 70
     1
102
RTVSPropertyOp23
 70
     1
102
RTVSPropertyOp24
 70
     1
102
RTVSPropertyOp25
 70
     1
102
RTVSPropertyOp26
 70
     1
102
RTVSPropertyOp27
 70
     1
102
RTVSPropertyOp28
 70
     1
102
RTVSPropertyOp29
 70
     1
102
RTVSPropertyOp30
 70
     1
102
RTVSPropertyOp31
 70
     1
102
RTVSPropertyOp32
 70
     1
102
RTVSPropertyOp33
 70
     1
102
RTVSPropertyOp34
 70
     1
102
RTVSPropertyOp35
 70
     1
102
RTVSPropertyOp36
 70
     1
102
RTVSPropertyOp37
 70
     1
102
RTVSPropertyOp38
 70
     1
102
RTVSPropertyOp39
 70
     1
102
RTVSPropertyOp40
 70
     1
102
RTVSPropertyOp41
 70
     1
102
RTVSPropertyOp42
 70
     1
102
RTVSPropertyOp43
 70
     1
102
RTVSPropertyOp44
 70
     1
102
RTVSPropertyOp45
 70
     1
102
RTVSPropertyOp46
 70
     1
102
RTVSPropertyOp47
 70
     1
102
RTVSPropertyOp48
 70
     1
102
RTVSPropertyOp49
 70
     1
102
RTVSPropertyOp50
 70
     1
102
RTVSPropertyOp51
 70
     0
102
RTVSPropertyOp52
 70
     0
102
RTVSPropertyOp53
 70
     1
102
RTVSPropertyOp54
 70
     1
102
RTVSPropertyOp55
 70
     1
102
RTVSPropertyOp56
 70
     1
102
RTVSPropertyOp57
 70
     1
102
RTVSPropertyOp58
 70
     1
102
RTVSPropertyOp59
 70
     1
102
RTVSPropertyOp60
 70
     1
102
RTVSPropertyOp61
 70
     1
102
RTVSPropertyOp62
 70
     1
  0
XRECORD
  5
8286
102
{ACAD_REACTORS
330
8285
102
}
330
8285
100
AcDbXrecord
280
     1
102
RTVSPost2010Prop28
280
     0
102
RTVSPost2010PropOp28
 70
     1
102
RTVSPost2010Prop29
280
     1
102
RTVSPost2010PropOp29
 70
     1
102
RTVSPost2010Prop30
280
     1
102
RTVSPost2010PropOp30
 70
     1
102
RTVSPost2010Prop31
280
     0
102
RTVSPost2010PropOp31
 70
     1
102
RTVSPost2010Prop32
280
     0
102
RTVSPost2010PropOp32
 70
     1
102
RTVSPost2010Prop33
280
     0
102
RTVSPost2010PropOp33
 70
     1
102
RTVSPost2010Prop34
280
     0
102
RTVSPost2010PropOp34
 70
     1
102
RTVSPost2010Prop35
280
     0
102
RTVSPost2010PropOp35
 70
     1
102
RTVSPost2010Prop36
280
     0
102
RTVSPost2010PropOp36
 70
     1
102
RTVSPost2010Prop37
 90
       50
102
RTVSPost2010PropOp37
 70
     1
102
RTVSPost2010Prop38
140
0.0
102
RTVSPost2010PropOp38
 70
     1
102
RTVSPost2010Prop39
140
1.0
102
RTVSPost2010PropOp39
 70
     1
102
RTVSPost2010Prop40
 90
        0
102
RTVSPost2010PropOp40
 70
     1
102
RTVSPost2010Prop41ColorIndex
 90
       18
102
RTVSPost2010Prop41ColorRGB
 90
        0
102
RTVSPost2010PropOp41
 70
     1
102
RTVSPost2010Prop42
 90
       50
102
RTVSPost2010PropOp42
 70
     1
102
RTVSPost2010Prop43
 90
        3
102
RTVSPost2010PropOp43
 70
     1
102
RTVSPost2010Prop44ColorIndex
 90
        5
102
RTVSPost2010Prop44ColorRGB
 90
      255
102
RTVSPost2010PropOp44
 70
     1
102
RTVSPost2010Prop45
280
     0
102
RTVSPost2010PropOp45
 70
     1
102
RTVSPost2010Prop46
 90
       50
102
RTVSPost2010PropOp46
 70
     1
102
RTVSPost2010Prop47
 90
       50
102
RTVSPost2010PropOp47
 70
     1
102
RTVSPost2010Prop48
 90
       50
102
RTVSPost2010PropOp48
 70
     1
102
RTVSPost2010Prop49
280
     0
102
RTVSPost2010PropOp49
 70
     1
102
RTVSPost2010Prop50
 90
       50
102
RTVSPost2010PropOp50
 70
     1
102
RTVSPost2010Prop51ColorIndex
 90
      256
102
RTVSPost2010Prop51ColorRGB
 90
-16777216
102
RTVSPost2010PropOp51
 70
     0
102
RTVSPost2010Prop52
140
1.0
102
RTVSPost2010PropOp52
 70
     0
102
RTVSPost2010Prop53
 90
        2
102
RTVSPost2010PropOp53
 70
     1
102
RTVSPost2010Prop54
  1
strokes_ogs.tif
102
RTVSPost2010PropOp54
 70
     1
102
RTVSPost2010Prop55
280
     0
102
RTVSPost2010PropOp55
 70
     1
102
RTVSPost2010Prop56
140
1.0
102
RTVSPost2010PropOp56
 70
     1
102
RTVSPost2010Prop57
140
1.0
102
RTVSPost2010PropOp57
 70
     1
102
RTVSPropertyOp0
 70
     1
102
RTVSPropertyOp1
 70
     1
102
RTVSPropertyOp2
 70
     1
102
RTVSPropertyOp3
 70
     1
102
RTVSPropertyOp4
 70
     1
102
RTVSPropertyOp5
 70
     1
102
RTVSPropertyOp6
 70
     1
102
RTVSPropertyOp7
 70
     1
102
RTVSPropertyOp8
 70
     1
102
RTVSPropertyOp9
 70
     1
102
RTVSPropertyOp10
 70
     1
102
RTVSPropertyOp11
 70
     1
102
RTVSPropertyOp12
 70
     1
102
RTVSPropertyOp13
 70
     1
102
RTVSPropertyOp14
 70
     1
102
RTVSPropertyOp15
 70
     1
102
RTVSPropertyOp16
 70
     1
102
RTVSPropertyOp17
 70
     1
102
RTVSPropertyOp18
 70
     1
102
RTVSPropertyOp19
 70
     1
102
RTVSPropertyOp20
 70
     1
102
RTVSPropertyOp21
 70
     1
102
RTVSPropertyOp22
 70
     1
102
RTVSPropertyOp23
 70
     1
102
RTVSPropertyOp24
 70
     1
102
RTVSPropertyOp25
 70
     1
102
RTVSPropertyOp26
 70
     1
102
RTVSPropertyOp27
 70
     1
102
RTVSPropertyOp28
 70
     1
102
RTVSPropertyOp29
 70
     1
102
RTVSPropertyOp30
 70
     1
102
RTVSPropertyOp31
 70
     1
102
RTVSPropertyOp32
 70
     1
102
RTVSPropertyOp33
 70
     1
102
RTVSPropertyOp34
 70
     1
102
RTVSPropertyOp35
 70
     1
102
RTVSPropertyOp36
 70
     1
102
RTVSPropertyOp37
 70
     1
102
RTVSPropertyOp38
 70
     1
102
RTVSPropertyOp39
 70
     1
102
RTVSPropertyOp40
 70
     1
102
RTVSPropertyOp41
 70
     1
102
RTVSPropertyOp42
 70
     1
102
RTVSPropertyOp43
 70
     1
102
RTVSPropertyOp44
 70
     1
102
RTVSPropertyOp45
 70
     1
102
RTVSPropertyOp46
 70
     1
102
RTVSPropertyOp47
 70
     1
102
RTVSPropertyOp48
 70
     1
102
RTVSPropertyOp49
 70
     1
102
RTVSPropertyOp50
 70
     1
102
RTVSPropertyOp51
 70
     0
102
RTVSPropertyOp52
 70
     0
102
RTVSPropertyOp53
 70
     1
102
RTVSPropertyOp54
 70
     1
102
RTVSPropertyOp55
 70
     1
102
RTVSPropertyOp56
 70
     1
102
RTVSPropertyOp57
 70
     1
102
RTVSPropertyOp58
 70
     1
102
RTVSPropertyOp59
 70
     1
102
RTVSPropertyOp60
 70
     1
102
RTVSPropertyOp61
 70
     1
102
RTVSPropertyOp62
 70
     1
  0
XRECORD
  5
8280
102
{ACAD_REACTORS
330
827F
102
}
330
827F
100
AcDbXrecord
280
     1
102
RTVSPost2010Prop28
280
     0
102
RTVSPost2010PropOp28
 70
     1
102
RTVSPost2010Prop29
280
     1
102
RTVSPost2010PropOp29
 70
     1
102
RTVSPost2010Prop30
280
     1
102
RTVSPost2010PropOp30
 70
     1
102
RTVSPost2010Prop31
280
     0
102
RTVSPost2010PropOp31
 70
     1
102
RTVSPost2010Prop32
280
     0
102
RTVSPost2010PropOp32
 70
     1
102
RTVSPost2010Prop33
280
     0
102
RTVSPost2010PropOp33
 70
     1
102
RTVSPost2010Prop34
280
     0
102
RTVSPost2010PropOp34
 70
     1
102
RTVSPost2010Prop35
280
     0
102
RTVSPost2010PropOp35
 70
     1
102
RTVSPost2010Prop36
280
     0
102
RTVSPost2010PropOp36
 70
     1
102
RTVSPost2010Prop37
 90
       50
102
RTVSPost2010PropOp37
 70
     1
102
RTVSPost2010Prop38
140
0.0
102
RTVSPost2010PropOp38
 70
     1
102
RTVSPost2010Prop39
140
1.0
102
RTVSPost2010PropOp39
 70
     1
102
RTVSPost2010Prop40
 90
        0
102
RTVSPost2010PropOp40
 70
     1
102
RTVSPost2010Prop41ColorIndex
 90
       18
102
RTVSPost2010Prop41ColorRGB
 90
        0
102
RTVSPost2010PropOp41
 70
     1
102
RTVSPost2010Prop42
 90
       50
102
RTVSPost2010PropOp42
 70
     1
102
RTVSPost2010Prop43
 90
        3
102
RTVSPost2010PropOp43
 70
     1
102
RTVSPost2010Prop44ColorIndex
 90
        5
102
RTVSPost2010Prop44ColorRGB
 90
      255
102
RTVSPost2010PropOp44
 70
     1
102
RTVSPost2010Prop45
280
     0
102
RTVSPost2010PropOp45
 70
     1
102
RTVSPost2010Prop46
 90
       50
102
RTVSPost2010PropOp46
 70
     1
102
RTVSPost2010Prop47
 90
       50
102
RTVSPost2010PropOp47
 70
     1
102
RTVSPost2010Prop48
 90
       50
102
RTVSPost2010PropOp48
 70
     1
102
RTVSPost2010Prop49
280
     0
102
RTVSPost2010PropOp49
 70
     1
102
RTVSPost2010Prop50
 90
       50
102
RTVSPost2010PropOp50
 70
     1
102
RTVSPost2010Prop51ColorIndex
 90
      256
102
RTVSPost2010Prop51ColorRGB
 90
-16777216
102
RTVSPost2010PropOp51
 70
     0
102
RTVSPost2010Prop52
140
1.0
102
RTVSPost2010PropOp52
 70
     0
102
RTVSPost2010Prop53
 90
        2
102
RTVSPost2010PropOp53
 70
     1
102
RTVSPost2010Prop54
  1
strokes_ogs.tif
102
RTVSPost2010PropOp54
 70
     1
102
RTVSPost2010Prop55
280
     0
102
RTVSPost2010PropOp55
 70
     1
102
RTVSPost2010Prop56
140
1.0
102
RTVSPost2010PropOp56
 70
     1
102
RTVSPost2010Prop57
140
1.0
102
RTVSPost2010PropOp57
 70
     1
102
RTVSPropertyOp0
 70
     1
102
RTVSPropertyOp1
 70
     1
102
RTVSPropertyOp2
 70
     1
102
RTVSPropertyOp3
 70
     1
102
RTVSPropertyOp4
 70
     1
102
RTVSPropertyOp5
 70
     1
102
RTVSPropertyOp6
 70
     1
102
RTVSPropertyOp7
 70
     1
102
RTVSPropertyOp8
 70
     1
102
RTVSPropertyOp9
 70
     1
102
RTVSPropertyOp10
 70
     1
102
RTVSPropertyOp11
 70
     1
102
RTVSPropertyOp12
 70
     1
102
RTVSPropertyOp13
 70
     1
102
RTVSPropertyOp14
 70
     1
102
RTVSPropertyOp15
 70
     1
102
RTVSPropertyOp16
 70
     1
102
RTVSPropertyOp17
 70
     1
102
RTVSPropertyOp18
 70
     1
102
RTVSPropertyOp19
 70
     1
102
RTVSPropertyOp20
 70
     1
102
RTVSPropertyOp21
 70
     1
102
RTVSPropertyOp22
 70
     1
102
RTVSPropertyOp23
 70
     1
102
RTVSPropertyOp24
 70
     1
102
RTVSPropertyOp25
 70
     1
102
RTVSPropertyOp26
 70
     1
102
RTVSPropertyOp27
 70
     1
102
RTVSPropertyOp28
 70
     1
102
RTVSPropertyOp29
 70
     1
102
RTVSPropertyOp30
 70
     1
102
RTVSPropertyOp31
 70
     1
102
RTVSPropertyOp32
 70
     1
102
RTVSPropertyOp33
 70
     1
102
RTVSPropertyOp34
 70
     1
102
RTVSPropertyOp35
 70
     1
102
RTVSPropertyOp36
 70
     1
102
RTVSPropertyOp37
 70
     1
102
RTVSPropertyOp38
 70
     1
102
RTVSPropertyOp39
 70
     1
102
RTVSPropertyOp40
 70
     1
102
RTVSPropertyOp41
 70
     1
102
RTVSPropertyOp42
 70
     1
102
RTVSPropertyOp43
 70
     1
102
RTVSPropertyOp44
 70
     1
102
RTVSPropertyOp45
 70
     1
102
RTVSPropertyOp46
 70
     1
102
RTVSPropertyOp47
 70
     1
102
RTVSPropertyOp48
 70
     1
102
RTVSPropertyOp49
 70
     1
102
RTVSPropertyOp50
 70
     1
102
RTVSPropertyOp51
 70
     0
102
RTVSPropertyOp52
 70
     0
102
RTVSPropertyOp53
 70
     1
102
RTVSPropertyOp54
 70
     1
102
RTVSPropertyOp55
 70
     1
102
RTVSPropertyOp56
 70
     1
102
RTVSPropertyOp57
 70
     1
102
RTVSPropertyOp58
 70
     1
102
RTVSPropertyOp59
 70
     1
102
RTVSPropertyOp60
 70
     1
102
RTVSPropertyOp61
 70
     1
102
RTVSPropertyOp62
 70
     1
  0
XRECORD
  5
8282
102
{ACAD_REACTORS
330
8281
102
}
330
8281
100
AcDbXrecord
280
     1
102
RTVSPost2010Prop28
280
     0
102
RTVSPost2010PropOp28
 70
     1
102
RTVSPost2010Prop29
280
     1
102
RTVSPost2010PropOp29
 70
     1
102
RTVSPost2010Prop30
280
     1
102
RTVSPost2010PropOp30
 70
     1
102
RTVSPost2010Prop31
280
     0
102
RTVSPost2010PropOp31
 70
     1
102
RTVSPost2010Prop32
280
     0
102
RTVSPost2010PropOp32
 70
     1
102
RTVSPost2010Prop33
280
     0
102
RTVSPost2010PropOp33
 70
     1
102
RTVSPost2010Prop34
280
     0
102
RTVSPost2010PropOp34
 70
     1
102
RTVSPost2010Prop35
280
     0
102
RTVSPost2010PropOp35
 70
     1
102
RTVSPost2010Prop36
280
     0
102
RTVSPost2010PropOp36
 70
     1
102
RTVSPost2010Prop37
 90
       50
102
RTVSPost2010PropOp37
 70
     1
102
RTVSPost2010Prop38
140
0.0
102
RTVSPost2010PropOp38
 70
     1
102
RTVSPost2010Prop39
140
1.0
102
RTVSPost2010PropOp39
 70
     1
102
RTVSPost2010Prop40
 90
        0
102
RTVSPost2010PropOp40
 70
     1
102
RTVSPost2010Prop41ColorIndex
 90
       18
102
RTVSPost2010Prop41ColorRGB
 90
        0
102
RTVSPost2010PropOp41
 70
     1
102
RTVSPost2010Prop42
 90
       50
102
RTVSPost2010PropOp42
 70
     1
102
RTVSPost2010Prop43
 90
        3
102
RTVSPost2010PropOp43
 70
     1
102
RTVSPost2010Prop44ColorIndex
 90
        5
102
RTVSPost2010Prop44ColorRGB
 90
      255
102
RTVSPost2010PropOp44
 70
     1
102
RTVSPost2010Prop45
280
     0
102
RTVSPost2010PropOp45
 70
     1
102
RTVSPost2010Prop46
 90
       50
102
RTVSPost2010PropOp46
 70
     1
102
RTVSPost2010Prop47
 90
       50
102
RTVSPost2010PropOp47
 70
     1
102
RTVSPost2010Prop48
 90
       50
102
RTVSPost2010PropOp48
 70
     1
102
RTVSPost2010Prop49
280
     0
102
RTVSPost2010PropOp49
 70
     1
102
RTVSPost2010Prop50
 90
       50
102
RTVSPost2010PropOp50
 70
     1
102
RTVSPost2010Prop51ColorIndex
 90
      256
102
RTVSPost2010Prop51ColorRGB
 90
-16777216
102
RTVSPost2010PropOp51
 70
     0
102
RTVSPost2010Prop52
140
1.0
102
RTVSPost2010PropOp52
 70
     0
102
RTVSPost2010Prop53
 90
        2
102
RTVSPost2010PropOp53
 70
     1
102
RTVSPost2010Prop54
  1
strokes_ogs.tif
102
RTVSPost2010PropOp54
 70
     1
102
RTVSPost2010Prop55
280
     0
102
RTVSPost2010PropOp55
 70
     1
102
RTVSPost2010Prop56
140
1.0
102
RTVSPost2010PropOp56
 70
     1
102
RTVSPost2010Prop57
140
1.0
102
RTVSPost2010PropOp57
 70
     1
102
RTVSPropertyOp0
 70
     1
102
RTVSPropertyOp1
 70
     1
102
RTVSPropertyOp2
 70
     1
102
RTVSPropertyOp3
 70
     1
102
RTVSPropertyOp4
 70
     1
102
RTVSPropertyOp5
 70
     1
102
RTVSPropertyOp6
 70
     1
102
RTVSPropertyOp7
 70
     1
102
RTVSPropertyOp8
 70
     1
102
RTVSPropertyOp9
 70
     1
102
RTVSPropertyOp10
 70
     1
102
RTVSPropertyOp11
 70
     1
102
RTVSPropertyOp12
 70
     1
102
RTVSPropertyOp13
 70
     1
102
RTVSPropertyOp14
 70
     1
102
RTVSPropertyOp15
 70
     1
102
RTVSPropertyOp16
 70
     1
102
RTVSPropertyOp17
 70
     1
102
RTVSPropertyOp18
 70
     1
102
RTVSPropertyOp19
 70
     1
102
RTVSPropertyOp20
 70
     1
102
RTVSPropertyOp21
 70
     1
102
RTVSPropertyOp22
 70
     1
102
RTVSPropertyOp23
 70
     1
102
RTVSPropertyOp24
 70
     1
102
RTVSPropertyOp25
 70
     1
102
RTVSPropertyOp26
 70
     1
102
RTVSPropertyOp27
 70
     1
102
RTVSPropertyOp28
 70
     1
102
RTVSPropertyOp29
 70
     1
102
RTVSPropertyOp30
 70
     1
102
RTVSPropertyOp31
 70
     1
102
RTVSPropertyOp32
 70
     1
102
RTVSPropertyOp33
 70
     1
102
RTVSPropertyOp34
 70
     1
102
RTVSPropertyOp35
 70
     1
102
RTVSPropertyOp36
 70
     1
102
RTVSPropertyOp37
 70
     1
102
RTVSPropertyOp38
 70
     1
102
RTVSPropertyOp39
 70
     1
102
RTVSPropertyOp40
 70
     1
102
RTVSPropertyOp41
 70
     1
102
RTVSPropertyOp42
 70
     1
102
RTVSPropertyOp43
 70
     1
102
RTVSPropertyOp44
 70
     1
102
RTVSPropertyOp45
 70
     1
102
RTVSPropertyOp46
 70
     1
102
RTVSPropertyOp47
 70
     1
102
RTVSPropertyOp48
 70
     1
102
RTVSPropertyOp49
 70
     1
102
RTVSPropertyOp50
 70
     1
102
RTVSPropertyOp51
 70
     0
102
RTVSPropertyOp52
 70
     0
102
RTVSPropertyOp53
 70
     1
102
RTVSPropertyOp54
 70
     1
102
RTVSPropertyOp55
 70
     1
102
RTVSPropertyOp56
 70
     1
102
RTVSPropertyOp57
 70
     1
102
RTVSPropertyOp58
 70
     1
102
RTVSPropertyOp59
 70
     1
102
RTVSPropertyOp60
 70
     1
102
RTVSPropertyOp61
 70
     1
102
RTVSPropertyOp62
 70
     1
  0
XRECORD
  5
8278
102
{ACAD_REACTORS
330
8277
102
}
330
8277
100
AcDbXrecord
280
     1
102
RTVSPost2010Prop28
280
     0
102
RTVSPost2010PropOp28
 70
     1
102
RTVSPost2010Prop29
280
     1
102
RTVSPost2010PropOp29
 70
     1
102
RTVSPost2010Prop30
280
     1
102
RTVSPost2010PropOp30
 70
     1
102
RTVSPost2010Prop31
280
     0
102
RTVSPost2010PropOp31
 70
     1
102
RTVSPost2010Prop32
280
     0
102
RTVSPost2010PropOp32
 70
     1
102
RTVSPost2010Prop33
280
     0
102
RTVSPost2010PropOp33
 70
     1
102
RTVSPost2010Prop34
280
     0
102
RTVSPost2010PropOp34
 70
     1
102
RTVSPost2010Prop35
280
     0
102
RTVSPost2010PropOp35
 70
     1
102
RTVSPost2010Prop36
280
     0
102
RTVSPost2010PropOp36
 70
     1
102
RTVSPost2010Prop37
 90
       50
102
RTVSPost2010PropOp37
 70
     1
102
RTVSPost2010Prop38
140
0.0
102
RTVSPost2010PropOp38
 70
     1
102
RTVSPost2010Prop39
140
1.0
102
RTVSPost2010PropOp39
 70
     1
102
RTVSPost2010Prop40
 90
        0
102
RTVSPost2010PropOp40
 70
     1
102
RTVSPost2010Prop41ColorIndex
 90
       18
102
RTVSPost2010Prop41ColorRGB
 90
        0
102
RTVSPost2010PropOp41
 70
     1
102
RTVSPost2010Prop42
 90
       50
102
RTVSPost2010PropOp42
 70
     1
102
RTVSPost2010Prop43
 90
        3
102
RTVSPost2010PropOp43
 70
     1
102
RTVSPost2010Prop44ColorIndex
 90
        5
102
RTVSPost2010Prop44ColorRGB
 90
      255
102
RTVSPost2010PropOp44
 70
     1
102
RTVSPost2010Prop45
280
     0
102
RTVSPost2010PropOp45
 70
     1
102
RTVSPost2010Prop46
 90
       50
102
RTVSPost2010PropOp46
 70
     1
102
RTVSPost2010Prop47
 90
       50
102
RTVSPost2010PropOp47
 70
     1
102
RTVSPost2010Prop48
 90
       50
102
RTVSPost2010PropOp48
 70
     1
102
RTVSPost2010Prop49
280
     0
102
RTVSPost2010PropOp49
 70
     1
102
RTVSPost2010Prop50
 90
       50
102
RTVSPost2010PropOp50
 70
     1
102
RTVSPost2010Prop51ColorIndex
 90
      256
102
RTVSPost2010Prop51ColorRGB
 90
-16777216
102
RTVSPost2010PropOp51
 70
     0
102
RTVSPost2010Prop52
140
1.0
102
RTVSPost2010PropOp52
 70
     0
102
RTVSPost2010Prop53
 90
        2
102
RTVSPost2010PropOp53
 70
     1
102
RTVSPost2010Prop54
  1
strokes_ogs.tif
102
RTVSPost2010PropOp54
 70
     1
102
RTVSPost2010Prop55
280
     0
102
RTVSPost2010PropOp55
 70
     1
102
RTVSPost2010Prop56
140
1.0
102
RTVSPost2010PropOp56
 70
     1
102
RTVSPost2010Prop57
140
1.0
102
RTVSPost2010PropOp57
 70
     1
102
RTVSPropertyOp0
 70
     1
102
RTVSPropertyOp1
 70
     1
102
RTVSPropertyOp2
 70
     1
102
RTVSPropertyOp3
 70
     1
102
RTVSPropertyOp4
 70
     1
102
RTVSPropertyOp5
 70
     1
102
RTVSPropertyOp6
 70
     1
102
RTVSPropertyOp7
 70
     1
102
RTVSPropertyOp8
 70
     1
102
RTVSPropertyOp9
 70
     1
102
RTVSPropertyOp10
 70
     1
102
RTVSPropertyOp11
 70
     1
102
RTVSPropertyOp12
 70
     1
102
RTVSPropertyOp13
 70
     1
102
RTVSPropertyOp14
 70
     1
102
RTVSPropertyOp15
 70
     1
102
RTVSPropertyOp16
 70
     1
102
RTVSPropertyOp17
 70
     1
102
RTVSPropertyOp18
 70
     1
102
RTVSPropertyOp19
 70
     1
102
RTVSPropertyOp20
 70
     1
102
RTVSPropertyOp21
 70
     1
102
RTVSPropertyOp22
 70
     1
102
RTVSPropertyOp23
 70
     1
102
RTVSPropertyOp24
 70
     1
102
RTVSPropertyOp25
 70
     1
102
RTVSPropertyOp26
 70
     1
102
RTVSPropertyOp27
 70
     1
102
RTVSPropertyOp28
 70
     1
102
RTVSPropertyOp29
 70
     1
102
RTVSPropertyOp30
 70
     1
102
RTVSPropertyOp31
 70
     1
102
RTVSPropertyOp32
 70
     1
102
RTVSPropertyOp33
 70
     1
102
RTVSPropertyOp34
 70
     1
102
RTVSPropertyOp35
 70
     1
102
RTVSPropertyOp36
 70
     1
102
RTVSPropertyOp37
 70
     1
102
RTVSPropertyOp38
 70
     1
102
RTVSPropertyOp39
 70
     1
102
RTVSPropertyOp40
 70
     1
102
RTVSPropertyOp41
 70
     1
102
RTVSPropertyOp42
 70
     1
102
RTVSPropertyOp43
 70
     1
102
RTVSPropertyOp44
 70
     1
102
RTVSPropertyOp45
 70
     1
102
RTVSPropertyOp46
 70
     1
102
RTVSPropertyOp47
 70
     1
102
RTVSPropertyOp48
 70
     1
102
RTVSPropertyOp49
 70
     1
102
RTVSPropertyOp50
 70
     1
102
RTVSPropertyOp51
 70
     0
102
RTVSPropertyOp52
 70
     0
102
RTVSPropertyOp53
 70
     1
102
RTVSPropertyOp54
 70
     1
102
RTVSPropertyOp55
 70
     1
102
RTVSPropertyOp56
 70
     1
102
RTVSPropertyOp57
 70
     1
102
RTVSPropertyOp58
 70
     1
102
RTVSPropertyOp59
 70
     1
102
RTVSPropertyOp60
 70
     1
102
RTVSPropertyOp61
 70
     1
102
RTVSPropertyOp62
 70
     1
  0
XRECORD
  5
826C
102
{ACAD_REACTORS
330
826B
102
}
330
826B
100
AcDbXrecord
280
     1
102
RTVSPost2010Prop28
280
     0
102
RTVSPost2010PropOp28
 70
     1
102
RTVSPost2010Prop29
280
     1
102
RTVSPost2010PropOp29
 70
     1
102
RTVSPost2010Prop30
280
     1
102
RTVSPost2010PropOp30
 70
     1
102
RTVSPost2010Prop31
280
     0
102
RTVSPost2010PropOp31
 70
     1
102
RTVSPost2010Prop32
280
     0
102
RTVSPost2010PropOp32
 70
     1
102
RTVSPost2010Prop33
280
     0
102
RTVSPost2010PropOp33
 70
     1
102
RTVSPost2010Prop34
280
     0
102
RTVSPost2010PropOp34
 70
     1
102
RTVSPost2010Prop35
280
     0
102
RTVSPost2010PropOp35
 70
     1
102
RTVSPost2010Prop36
280
     0
102
RTVSPost2010PropOp36
 70
     1
102
RTVSPost2010Prop37
 90
       50
102
RTVSPost2010PropOp37
 70
     1
102
RTVSPost2010Prop38
140
0.0
102
RTVSPost2010PropOp38
 70
     1
102
RTVSPost2010Prop39
140
1.0
102
RTVSPost2010PropOp39
 70
     1
102
RTVSPost2010Prop40
 90
        0
102
RTVSPost2010PropOp40
 70
     1
102
RTVSPost2010Prop41ColorIndex
 90
       18
102
RTVSPost2010Prop41ColorRGB
 90
        0
102
RTVSPost2010PropOp41
 70
     1
102
RTVSPost2010Prop42
 90
       50
102
RTVSPost2010PropOp42
 70
     1
102
RTVSPost2010Prop43
 90
        3
102
RTVSPost2010PropOp43
 70
     1
102
RTVSPost2010Prop44ColorIndex
 90
        5
102
RTVSPost2010Prop44ColorRGB
 90
      255
102
RTVSPost2010PropOp44
 70
     1
102
RTVSPost2010Prop45
280
     0
102
RTVSPost2010PropOp45
 70
     1
102
RTVSPost2010Prop46
 90
       50
102
RTVSPost2010PropOp46
 70
     1
102
RTVSPost2010Prop47
 90
       50
102
RTVSPost2010PropOp47
 70
     1
102
RTVSPost2010Prop48
 90
       50
102
RTVSPost2010PropOp48
 70
     1
102
RTVSPost2010Prop49
280
     0
102
RTVSPost2010PropOp49
 70
     1
102
RTVSPost2010Prop50
 90
       50
102
RTVSPost2010PropOp50
 70
     1
102
RTVSPost2010Prop51ColorIndex
 90
      256
102
RTVSPost2010Prop51ColorRGB
 90
-16777216
102
RTVSPost2010PropOp51
 70
     0
102
RTVSPost2010Prop52
140
1.0
102
RTVSPost2010PropOp52
 70
     0
102
RTVSPost2010Prop53
 90
        2
102
RTVSPost2010PropOp53
 70
     1
102
RTVSPost2010Prop54
  1
strokes_ogs.tif
102
RTVSPost2010PropOp54
 70
     1
102
RTVSPost2010Prop55
280
     0
102
RTVSPost2010PropOp55
 70
     1
102
RTVSPost2010Prop56
140
1.0
102
RTVSPost2010PropOp56
 70
     1
102
RTVSPost2010Prop57
140
1.0
102
RTVSPost2010PropOp57
 70
     1
102
RTVSPropertyOp0
 70
     1
102
RTVSPropertyOp1
 70
     1
102
RTVSPropertyOp2
 70
     1
102
RTVSPropertyOp3
 70
     1
102
RTVSPropertyOp4
 70
     1
102
RTVSPropertyOp5
 70
     1
102
RTVSPropertyOp6
 70
     1
102
RTVSPropertyOp7
 70
     1
102
RTVSPropertyOp8
 70
     1
102
RTVSPropertyOp9
 70
     1
102
RTVSPropertyOp10
 70
     1
102
RTVSPropertyOp11
 70
     1
102
RTVSPropertyOp12
 70
     1
102
RTVSPropertyOp13
 70
     1
102
RTVSPropertyOp14
 70
     1
102
RTVSPropertyOp15
 70
     1
102
RTVSPropertyOp16
 70
     1
102
RTVSPropertyOp17
 70
     1
102
RTVSPropertyOp18
 70
     1
102
RTVSPropertyOp19
 70
     1
102
RTVSPropertyOp20
 70
     1
102
RTVSPropertyOp21
 70
     1
102
RTVSPropertyOp22
 70
     1
102
RTVSPropertyOp23
 70
     1
102
RTVSPropertyOp24
 70
     1
102
RTVSPropertyOp25
 70
     1
102
RTVSPropertyOp26
 70
     1
102
RTVSPropertyOp27
 70
     1
102
RTVSPropertyOp28
 70
     1
102
RTVSPropertyOp29
 70
     1
102
RTVSPropertyOp30
 70
     1
102
RTVSPropertyOp31
 70
     1
102
RTVSPropertyOp32
 70
     1
102
RTVSPropertyOp33
 70
     1
102
RTVSPropertyOp34
 70
     1
102
RTVSPropertyOp35
 70
     1
102
RTVSPropertyOp36
 70
     1
102
RTVSPropertyOp37
 70
     1
102
RTVSPropertyOp38
 70
     1
102
RTVSPropertyOp39
 70
     1
102
RTVSPropertyOp40
 70
     1
102
RTVSPropertyOp41
 70
     1
102
RTVSPropertyOp42
 70
     1
102
RTVSPropertyOp43
 70
     1
102
RTVSPropertyOp44
 70
     1
102
RTVSPropertyOp45
 70
     1
102
RTVSPropertyOp46
 70
     1
102
RTVSPropertyOp47
 70
     1
102
RTVSPropertyOp48
 70
     1
102
RTVSPropertyOp49
 70
     1
102
RTVSPropertyOp50
 70
     1
102
RTVSPropertyOp51
 70
     0
102
RTVSPropertyOp52
 70
     0
102
RTVSPropertyOp53
 70
     1
102
RTVSPropertyOp54
 70
     1
102
RTVSPropertyOp55
 70
     1
102
RTVSPropertyOp56
 70
     1
102
RTVSPropertyOp57
 70
     1
102
RTVSPropertyOp58
 70
     1
102
RTVSPropertyOp59
 70
     1
102
RTVSPropertyOp60
 70
     1
102
RTVSPropertyOp61
 70
     1
102
RTVSPropertyOp62
 70
     1
  0
XRECORD
  5
8284
102
{ACAD_REACTORS
330
8283
102
}
330
8283
100
AcDbXrecord
280
     1
102
RTVSPost2010Prop28
280
     0
102
RTVSPost2010PropOp28
 70
     1
102
RTVSPost2010Prop29
280
     1
102
RTVSPost2010PropOp29
 70
     1
102
RTVSPost2010Prop30
280
     1
102
RTVSPost2010PropOp30
 70
     1
102
RTVSPost2010Prop31
280
     0
102
RTVSPost2010PropOp31
 70
     1
102
RTVSPost2010Prop32
280
     0
102
RTVSPost2010PropOp32
 70
     1
102
RTVSPost2010Prop33
280
     0
102
RTVSPost2010PropOp33
 70
     1
102
RTVSPost2010Prop34
280
     0
102
RTVSPost2010PropOp34
 70
     1
102
RTVSPost2010Prop35
280
     0
102
RTVSPost2010PropOp35
 70
     1
102
RTVSPost2010Prop36
280
     0
102
RTVSPost2010PropOp36
 70
     1
102
RTVSPost2010Prop37
 90
       50
102
RTVSPost2010PropOp37
 70
     1
102
RTVSPost2010Prop38
140
0.0
102
RTVSPost2010PropOp38
 70
     1
102
RTVSPost2010Prop39
140
1.0
102
RTVSPost2010PropOp39
 70
     1
102
RTVSPost2010Prop40
 90
        0
102
RTVSPost2010PropOp40
 70
     1
102
RTVSPost2010Prop41ColorIndex
 90
       18
102
RTVSPost2010Prop41ColorRGB
 90
        0
102
RTVSPost2010PropOp41
 70
     1
102
RTVSPost2010Prop42
 90
       50
102
RTVSPost2010PropOp42
 70
     1
102
RTVSPost2010Prop43
 90
        3
102
RTVSPost2010PropOp43
 70
     1
102
RTVSPost2010Prop44ColorIndex
 90
        5
102
RTVSPost2010Prop44ColorRGB
 90
      255
102
RTVSPost2010PropOp44
 70
     1
102
RTVSPost2010Prop45
280
     0
102
RTVSPost2010PropOp45
 70
     1
102
RTVSPost2010Prop46
 90
       50
102
RTVSPost2010PropOp46
 70
     1
102
RTVSPost2010Prop47
 90
       50
102
RTVSPost2010PropOp47
 70
     1
102
RTVSPost2010Prop48
 90
       50
102
RTVSPost2010PropOp48
 70
     1
102
RTVSPost2010Prop49
280
     0
102
RTVSPost2010PropOp49
 70
     1
102
RTVSPost2010Prop50
 90
       50
102
RTVSPost2010PropOp50
 70
     1
102
RTVSPost2010Prop51ColorIndex
 90
      256
102
RTVSPost2010Prop51ColorRGB
 90
-16777216
102
RTVSPost2010PropOp51
 70
     0
102
RTVSPost2010Prop52
140
1.0
102
RTVSPost2010PropOp52
 70
     0
102
RTVSPost2010Prop53
 90
        2
102
RTVSPost2010PropOp53
 70
     1
102
RTVSPost2010Prop54
  1
strokes_ogs.tif
102
RTVSPost2010PropOp54
 70
     1
102
RTVSPost2010Prop55
280
     0
102
RTVSPost2010PropOp55
 70
     1
102
RTVSPost2010Prop56
140
1.0
102
RTVSPost2010PropOp56
 70
     1
102
RTVSPost2010Prop57
140
1.0
102
RTVSPost2010PropOp57
 70
     1
102
RTVSPropertyOp0
 70
     1
102
RTVSPropertyOp1
 70
     1
102
RTVSPropertyOp2
 70
     1
102
RTVSPropertyOp3
 70
     1
102
RTVSPropertyOp4
 70
     1
102
RTVSPropertyOp5
 70
     1
102
RTVSPropertyOp6
 70
     1
102
RTVSPropertyOp7
 70
     1
102
RTVSPropertyOp8
 70
     1
102
RTVSPropertyOp9
 70
     1
102
RTVSPropertyOp10
 70
     1
102
RTVSPropertyOp11
 70
     1
102
RTVSPropertyOp12
 70
     1
102
RTVSPropertyOp13
 70
     1
102
RTVSPropertyOp14
 70
     1
102
RTVSPropertyOp15
 70
     1
102
RTVSPropertyOp16
 70
     1
102
RTVSPropertyOp17
 70
     1
102
RTVSPropertyOp18
 70
     1
102
RTVSPropertyOp19
 70
     1
102
RTVSPropertyOp20
 70
     1
102
RTVSPropertyOp21
 70
     1
102
RTVSPropertyOp22
 70
     1
102
RTVSPropertyOp23
 70
     1
102
RTVSPropertyOp24
 70
     1
102
RTVSPropertyOp25
 70
     1
102
RTVSPropertyOp26
 70
     1
102
RTVSPropertyOp27
 70
     1
102
RTVSPropertyOp28
 70
     1
102
RTVSPropertyOp29
 70
     1
102
RTVSPropertyOp30
 70
     1
102
RTVSPropertyOp31
 70
     1
102
RTVSPropertyOp32
 70
     1
102
RTVSPropertyOp33
 70
     1
102
RTVSPropertyOp34
 70
     1
102
RTVSPropertyOp35
 70
     1
102
RTVSPropertyOp36
 70
     1
102
RTVSPropertyOp37
 70
     1
102
RTVSPropertyOp38
 70
     1
102
RTVSPropertyOp39
 70
     1
102
RTVSPropertyOp40
 70
     1
102
RTVSPropertyOp41
 70
     1
102
RTVSPropertyOp42
 70
     1
102
RTVSPropertyOp43
 70
     1
102
RTVSPropertyOp44
 70
     1
102
RTVSPropertyOp45
 70
     1
102
RTVSPropertyOp46
 70
     1
102
RTVSPropertyOp47
 70
     1
102
RTVSPropertyOp48
 70
     1
102
RTVSPropertyOp49
 70
     1
102
RTVSPropertyOp50
 70
     1
102
RTVSPropertyOp51
 70
     0
102
RTVSPropertyOp52
 70
     0
102
RTVSPropertyOp53
 70
     1
102
RTVSPropertyOp54
 70
     1
102
RTVSPropertyOp55
 70
     1
102
RTVSPropertyOp56
 70
     1
102
RTVSPropertyOp57
 70
     1
102
RTVSPropertyOp58
 70
     1
102
RTVSPropertyOp59
 70
     1
102
RTVSPropertyOp60
 70
     1
102
RTVSPropertyOp61
 70
     1
102
RTVSPropertyOp62
 70
     1
  0
ENDSEC
  0
EOF
