  0
SECTION
  2
HEADER
  9
$ACADVER
  1
AC1015
  9
$ACADMAINTVER
 70
    20
  9
$DWGCODEPAGE
  3
ANSI_932
  9
$INSBASE
 10
0.0
 20
0.0
 30
0.0
  9
$EXTMIN
 10
-0.1602050617329951
 20
-0.22504996767384
 30
-0.0015258207003583
  9
$EXTMAX
 10
5250.160229508953
 20
7375.225084310193
 30
0.0000000349246037
  9
$LIMMIN
 10
0.0
 20
0.0
  9
$LIMMAX
 10
297.0
 20
210.0
  9
$ORTHOMODE
 70
     1
  9
$REGENMODE
 70
     1
  9
$FILLMODE
 70
     0
  9
$QTEXTMODE
 70
     0
  9
$MIRRTEXT
 70
     1
  9
$LTSCALE
 40
100.0
  9
$ATTMODE
 70
     1
  9
$TEXTSIZE
 40
180.0
  9
$TRACEWID
 40
0.05
  9
$TEXTSTYLE
  7
STANDARD
  9
$CLAYER
  8
3
  9
$CELTYPE
  6
ByLayer
  9
$CECOLOR
 62
   256
  9
$CELTSCALE
 40
1.0
  9
$DISPSILH
 70
     0
  9
$DIMSCALE
 40
25.0
  9
$DIMASZ
 40
2.0
  9
$DIMEXO
 40
1.0
  9
$DIMDLI
 40
10.0
  9
$DIMRND
 40
0.0
  9
$DIMDLE
 40
0.0
  9
$DIMEXE
 40
1.0
  9
$DIMTP
 40
1.0
  9
$DIMTM
 40
1.0
  9
$DIMTXT
 40
3.0
  9
$DIMCEN
 40
0.0
  9
$DIMTSZ
 40
0.0
  9
$DIMTOL
 70
     0
  9
$DIMLIM
 70
     0
  9
$DIMTIH
 70
     0
  9
$DIMTOH
 70
     0
  9
$DIMSE1
 70
     0
  9
$DIMSE2
 70
     0
  9
$DIMTAD
 70
     1
  9
$DIMZIN
 70
     8
  9
$DIMBLK
  1

  9
$DIMASO
 70
     1
  9
$DIMSHO
 70
     1
  9
$DIMPOST
  1

  9
$DIMAPOST
  1

  9
$DIMALT
 70
     0
  9
$DIMALTD
 70
     2
  9
$DIMALTF
 40
0.039
  9
$DIMLFAC
 40
1.0
  9
$DIMTOFL
 70
     1
  9
$DIMTVP
 40
0.0
  9
$DIMTIX
 70
     0
  9
$DIMSOXD
 70
     0
  9
$DIMSAH
 70
     1
  9
$DIMBLK1
  1
OPEN
  9
$DIMBLK2
  1
OPEN
  9
$DIMSTYLE
  2
IGA
  9
$DIMCLRD
 70
     0
  9
$DIMCLRE
 70
     0
  9
$DIMCLRT
 70
     0
  9
$DIMTFAC
 40
10.0
  9
$DIMGAP
 40
1.0
  9
$DIMJUST
 70
     0
  9
$DIMSD1
 70
     0
  9
$DIMSD2
 70
     0
  9
$DIMTOLJ
 70
     1
  9
$DIMTZIN
 70
     0
  9
$DIMALTZ
 70
     0
  9
$DIMALTTZ
 70
     0
  9
$DIMUPT
 70
     0
  9
$DIMDEC
 70
     4
  9
$DIMTDEC
 70
     4
  9
$DIMALTU
 70
     2
  9
$DIMALTTD
 70
     2
  9
$DIMTXSTY
  7
STANDARD
  9
$DIMAUNIT
 70
     0
  9
$DIMADEC
 70
     0
  9
$DIMALTRND
 40
0.0
  9
$DIMAZIN
 70
     0
  9
$DIMDSEP
 70
    46
  9
$DIMATFIT
 70
     3
  9
$DIMFRAC
 70
     0
  9
$DIMLDRBLK
  1
OPEN
  9
$DIMLUNIT
 70
     2
  9
$DIMLWD
 70
    -2
  9
$DIMLWE
 70
    -2
  9
$DIMTMOVE
 70
     0
  9
$LUNITS
 70
     2
  9
$LUPREC
 70
     3
  9
$SKETCHINC
 40
0.1
  9
$FILLETRAD
 40
50.0
  9
$AUNITS
 70
     0
  9
$AUPREC
 70
     0
  9
$MENU
  1
acad
  9
$ELEVATION
 40
0.0
  9
$PELEVATION
 40
0.0
  9
$THICKNESS
 40
0.0
  9
$LIMCHECK
 70
     0
  9
$CHAMFERA
 40
0.5
  9
$CHAMFERB
 40
0.5
  9
$CHAMFERC
 40
0.0
  9
$CHAMFERD
 40
0.0
  9
$SKPOLY
 70
     0
  9
$TDCREATE
 40
2451389.462286342
  9
$TDUCREATE
 40
2451389.087286342
  9
$TDUPDATE
 40
2460265.590449364
  9
$TDUUPDATE
 40
2460265.215449363
  9
$TDINDWG
 40
0.0208457292
  9
$TDUSRTIMER
 40
0.0208457060
  9
$USRTIMER
 70
     1
  9
$ANGBASE
 50
0.0
  9
$ANGDIR
 70
     0
  9
$PDMODE
 70
     0
  9
$PDSIZE
 40
0.0
  9
$PLINEWID
 40
0.0
  9
$SPLFRAME
 70
     0
  9
$SPLINETYPE
 70
     6
  9
$SPLINESEGS
 70
     8
  9
$HANDSEED
  5
840D
  9
$SURFTAB1
 70
     6
  9
$SURFTAB2
 70
     6
  9
$SURFTYPE
 70
     6
  9
$SURFU
 70
     6
  9
$SURFV
 70
     6
  9
$UCSBASE
  2

  9
$UCSNAME
  2

  9
$UCSORG
 10
0.0
 20
0.0
 30
0.0
  9
$UCSXDIR
 10
1.0
 20
0.0
 30
0.0
  9
$UCSYDIR
 10
0.0
 20
1.0
 30
0.0
  9
$UCSORTHOREF
  2

  9
$UCSORTHOVIEW
 70
     0
  9
$UCSORGTOP
 10
0.0
 20
0.0
 30
0.0
  9
$UCSORGBOTTOM
 10
0.0
 20
0.0
 30
0.0
  9
$UCSORGLEFT
 10
0.0
 20
0.0
 30
0.0
  9
$UCSORGRIGHT
 10
0.0
 20
0.0
 30
0.0
  9
$UCSORGFRONT
 10
0.0
 20
0.0
 30
0.0
  9
$UCSORGBACK
 10
0.0
 20
0.0
 30
0.0
  9
$PUCSBASE
  2

  9
$PUCSNAME
  2

  9
$PUCSORG
 10
0.0
 20
0.0
 30
0.0
  9
$PUCSXDIR
 10
1.0
 20
0.0
 30
0.0
  9
$PUCSYDIR
 10
0.0
 20
1.0
 30
0.0
  9
$PUCSORTHOREF
  2

  9
$PUCSORTHOVIEW
 70
     0
  9
$PUCSORGTOP
 10
0.0
 20
0.0
 30
0.0
  9
$PUCSORGBOTTOM
 10
0.0
 20
0.0
 30
0.0
  9
$PUCSORGLEFT
 10
0.0
 20
0.0
 30
0.0
  9
$PUCSORGRIGHT
 10
0.0
 20
0.0
 30
0.0
  9
$PUCSORGFRONT
 10
0.0
 20
0.0
 30
0.0
  9
$PUCSORGBACK
 10
0.0
 20
0.0
 30
0.0
  9
$USERI1
 70
     0
  9
$USERI2
 70
     0
  9
$USERI3
 70
     0
  9
$USERI4
 70
     0
  9
$USERI5
 70
     0
  9
$USERR1
 40
0.0
  9
$USERR2
 40
0.0
  9
$USERR3
 40
0.0
  9
$USERR4
 40
0.0
  9
$USERR5
 40
0.0
  9
$WORLDVIEW
 70
     1
  9
$SHADEDGE
 70
     3
  9
$SHADEDIF
 70
    70
  9
$TILEMODE
 70
     1
  9
$MAXACTVP
 70
    16
  9
$PINSBASE
 10
0.0
 20
0.0
 30
0.0
  9
$PLIMCHECK
 70
     0
  9
$PEXTMIN
 10
1.000000000000000E+20
 20
1.000000000000000E+20
 30
1.000000000000000E+20
  9
$PEXTMAX
 10
-1.000000000000000E+20
 20
-1.000000000000000E+20
 30
-1.000000000000000E+20
  9
$PLIMMIN
 10
0.0
 20
0.0
  9
$PLIMMAX
 10
12.0
 20
9.0
  9
$UNITMODE
 70
     0
  9
$VISRETAIN
 70
     0
  9
$PLINEGEN
 70
     0
  9
$PSLTSCALE
 70
     1
  9
$TREEDEPTH
 70
  3020
  9
$CMLSTYLE
  2
Standard
  9
$CMLJUST
 70
     0
  9
$CMLSCALE
 40
1.0
  9
$PROXYGRAPHICS
 70
     1
  9
$MEASUREMENT
 70
     0
  9
$CELWEIGHT
370
    -1
  9
$ENDCAPS
280
     0
  9
$JOINSTYLE
280
     0
  9
$LWDISPLAY
290
     0
  9
$INSUNITS
 70
     0
  9
$HYPERLINKBASE
  1

  9
$STYLESHEET
  1

  9
$XEDIT
290
     1
  9
$CEPSNTYPE
380
     0
  9
$PSTYLEMODE
290
     1
  9
$FINGERPRINTGUID
  2
{4EDDB446-D18F-4BFD-93FE-8BCFE85F0EBC}
  9
$VERSIONGUID
  2
{720ABFDD-1DF8-40E2-8F8D-8DD22C018FD9}
  9
$EXTNAMES
290
     1
  9
$PSVPSCALE
 40
0.0
  9
$OLESTARTUP
290
     0
  0
ENDSEC
  0
SECTION
  2
CLASSES
  0
CLASS
  1
ACDBDICTIONARYWDFLT
  2
AcDbDictionaryWithDefault
  3
ObjectDBX Classes
 90
        0
280
     0
281
     0
  0
CLASS
  1
MATERIAL
  2
AcDbMaterial
  3
ObjectDBX Classes
 90
     1153
280
     0
281
     0
  0
CLASS
  1
VISUALSTYLE
  2
AcDbVisualStyle
  3
ObjectDBX Classes
 90
     4095
280
     0
281
     0
  0
CLASS
  1
SCALE
  2
AcDbScale
  3
ObjectDBX Classes
 90
     1153
280
     0
281
     0
  0
CLASS
  1
TABLESTYLE
  2
AcDbTableStyle
  3
ObjectDBX Classes
 90
     4095
280
     0
281
     0
  0
CLASS
  1
MLEADERSTYLE
  2
AcDbMLeaderStyle
  3
ACDB_MLEADERSTYLE_CLASS
 90
     4095
280
     0
281
     0
  0
CLASS
  1
ACDBSECTIONVIEWSTYLE
  2
AcDbSectionViewStyle
  3
ObjectDBX Classes
 90
     1025
280
     0
281
     0
  0
CLASS
  1
ACDBDETAILVIEWSTYLE
  2
AcDbDetailViewStyle
  3
ObjectDBX Classes
 90
     1025
280
     0
281
     0
  0
CLASS
  1
DICTIONARYVAR
  2
AcDbDictionaryVar
  3
ObjectDBX Classes
 90
        0
280
     0
281
     0
  0
CLASS
  1
CELLSTYLEMAP
  2
AcDbCellStyleMap
  3
ObjectDBX Classes
 90
     1152
280
     0
281
     0
  0
CLASS
  1
ACDBPLACEHOLDER
  2
AcDbPlaceHolder
  3
ObjectDBX Classes
 90
        0
280
     0
281
     0
  0
CLASS
  1
LAYOUT
  2
AcDbLayout
  3
ObjectDBX Classes
 90
        0
280
     0
281
     0
  0
ENDSEC
  0
SECTION
  2
TABLES
  0
TABLE
  2
VPORT
  5
818D
330
0
100
AcDbSymbolTable
 70
     1
  0
VPORT
  5
81F9
330
818D
100
AcDbSymbolTableRecord
100
AcDbViewportTableRecord
  2
*ACTIVE
 70
     0
 10
0.0
 20
0.0
 11
1.0
 21
1.0
 12
2625.00001222361
 22
3687.500017171259
 13
0.0
 23
0.0
 14
10.0
 24
10.0
 15
10.0
 25
10.0
 16
0.0
 26
0.0
 36
1.0
 17
0.0
 27
0.0
 37
0.0
 40
7422.678203440799
 41
2.050213675213675
 42
50.0
 43
0.0
 44
0.0
 50
0.0
 51
0.0
 71
     0
 72
   100
 73
     1
 74
     0
 75
     0
 76
     0
 77
     0
 78
     0
281
     0
 65
     1
110
0.0
120
0.0
130
0.0
111
1.0
121
0.0
131
0.0
112
0.0
122
1.0
132
0.0
 79
     0
146
0.0
1001
ACAD_NAV_VCDISPLAY
1070
     3
  0
ENDTAB
  0
TABLE
  2
LTYPE
  5
818A
330
0
100
AcDbSymbolTable
 70
     4
  0
LTYPE
  5
81DF
330
818A
100
AcDbSymbolTableRecord
100
AcDbLinetypeTableRecord
  2
ByBlock
 70
     0
  3

 72
    65
 73
     0
 40
0.0
  0
LTYPE
  5
81E0
330
818A
100
AcDbSymbolTableRecord
100
AcDbLinetypeTableRecord
  2
ByLayer
 70
     0
  3

 72
    65
 73
     0
 40
0.0
  0
LTYPE
  5
81E1
330
818A
100
AcDbSymbolTableRecord
100
AcDbLinetypeTableRecord
  2
CONTINUOUS
 70
     0
  3
Solid line
 72
    65
 73
     0
 40
0.0
  0
LTYPE
  5
81FA
330
818A
100
AcDbSymbolTableRecord
100
AcDbLinetypeTableRecord
  2
CENTER
 70
     0
  3
____ _ ____ _ ____ _ ____ _ ____ _ ____ _ ____ 
 72
    65
 73
     4
 40
2.0
 49
1.25
 74
     0
 49
-0.25
 74
     0
 49
0.25
 74
     0
 49
-0.25
 74
     0
  0
ENDTAB
  0
TABLE
  2
LAYER
  5
8187
102
{ACAD_XDICTIONARY
360
8291
102
}
330
0
100
AcDbSymbolTable
 70
     7
  0
LAYER
  5
81D9
102
{ACAD_XDICTIONARY
360
8239
102
}
330
8187
100
AcDbSymbolTableRecord
100
AcDbLayerTableRecord
  2
0
 70
     0
 62
     7
  6
CONTINUOUS
370
    -3
390
8194
  0
LAYER
  5
81F8
102
{ACAD_XDICTIONARY
360
823B
102
}
330
8187
100
AcDbSymbolTableRecord
100
AcDbLayerTableRecord
  2
3
 70
     0
 62
     2
  6
CONTINUOUS
370
    -3
390
8194
  0
LAYER
  5
81FB
102
{ACAD_XDICTIONARY
360
823D
102
}
330
8187
100
AcDbSymbolTableRecord
100
AcDbLayerTableRecord
  2
2
 70
     0
 62
     3
  6
CENTER
370
    -3
390
8194
  0
LAYER
  5
81FC
102
{ACAD_XDICTIONARY
360
823F
102
}
330
8187
100
AcDbSymbolTableRecord
100
AcDbLayerTableRecord
  2
1
 70
     0
 62
     4
  6
CONTINUOUS
370
    -3
390
8194
  0
LAYER
  5
81FD
102
{ACAD_XDICTIONARY
360
8241
102
}
330
8187
100
AcDbSymbolTableRecord
100
AcDbLayerTableRecord
  2
4
 70
     0
 62
     7
  6
CONTINUOUS
370
    -3
390
8194
  0
LAYER
  5
81FE
330
8187
100
AcDbSymbolTableRecord
100
AcDbLayerTableRecord
  2
DEFPOINTS
 70
     0
 62
     7
  6
CONTINUOUS
290
     0
370
    -3
390
8194
  0
LAYER
  5
828F
102
{ACAD_XDICTIONARY
360
8290
102
}
330
8187
100
AcDbSymbolTableRecord
100
AcDbLayerTableRecord
  2
FUTO
 70
     0
 62
     4
  6
CONTINUOUS
370
    -3
390
8194
  0
ENDTAB
  0
TABLE
  2
STYLE
  5
8188
330
0
100
AcDbSymbolTable
 70
     2
  0
STYLE
  5
81DA
330
8188
100
AcDbSymbolTableRecord
100
AcDbTextStyleTableRecord
  2
STANDARD
 70
     0
 40
0.0
 41
1.0
 50
0.0
 71
     0
 42
180.0
  3
simplex.shx
  4
extfont.shx
  0
STYLE
  5
81DE
330
8188
100
AcDbSymbolTableRecord
100
AcDbTextStyleTableRecord
  2
Annotative
 70
     0
 40
0.0
 41
1.0
 50
0.0
 71
     0
 42
0.2
  3
txt
  4

1001
AcadAnnotative
1000
AnnotativeData
1002
{
1070
     1
1070
     1
1002
}
  0
ENDTAB
  0
TABLE
  2
VIEW
  5
818B
330
0
100
AcDbSymbolTable
 70
     0
  0
ENDTAB
  0
TABLE
  2
UCS
  5
818C
330
0
100
AcDbSymbolTable
 70
     0
  0
ENDTAB
  0
TABLE
  2
APPID
  5
818E
330
0
100
AcDbSymbolTable
 70
     6
  0
APPID
  5
81DB
330
818E
100
AcDbSymbolTableRecord
100
AcDbRegAppTableRecord
  2
ACAD
 70
     0
  0
APPID
  5
81E2
330
818E
100
AcDbSymbolTableRecord
100
AcDbRegAppTableRecord
  2
AcadAnnotative
 70
     0
  0
APPID
  5
824D
330
818E
100
AcDbSymbolTableRecord
100
AcDbRegAppTableRecord
  2
ACAD_NAV_VCDISPLAY
 70
     0
  0
APPID
  5
82D1
330
818E
100
AcDbSymbolTableRecord
100
AcDbRegAppTableRecord
  2
AcadAnnoMonitorAlertIconDisabled
 70
     0
  0
APPID
  5
82D2
330
818E
100
AcDbSymbolTableRecord
100
AcDbRegAppTableRecord
  2
ACAD_EXEMPT_FROM_CAD_STANDARDS
 70
     0
  0
APPID
  5
8404
330
818E
100
AcDbSymbolTableRecord
100
AcDbRegAppTableRecord
  2
ACAD_MLEADERVER
 70
     0
  0
ENDTAB
  0
TABLE
  2
DIMSTYLE
  5
818F
330
0
100
AcDbSymbolTable
 70
     5
100
AcDbDimStyleTable
 71
     2
340
81FF
340
81DC
  0
DIMSTYLE
105
81DC
102
{ACAD_REACTORS
330
7C25
330
7C26
330
7C6C
330
7C89
330
7C8A
330
7C8B
330
7C9A
330
7CB1
330
80BD
330
80CA
330
80D7
330
80E4
330
80F1
102
}
330
818F
100
AcDbSymbolTableRecord
100
AcDbDimStyleTableRecord
  2
Standard
 70
     0
340
81DA
  0
DIMSTYLE
105
81DD
330
818F
100
AcDbSymbolTableRecord
100
AcDbDimStyleTableRecord
  2
Annotative
 70
     0
340
81DA
1001
AcadAnnotative
1000
AnnotativeData
1002
{
1070
     1
1070
     1
1002
}
  0
DIMSTYLE
105
81FF
102
{ACAD_REACTORS
330
82B7
330
82C4
330
8329
330
833C
330
8352
330
835F
330
8375
102
}
330
818F
100
AcDbSymbolTableRecord
100
AcDbDimStyleTableRecord
  2
IGA
 70
     0
 40
2.0
 41
2.0
 42
0.5
 43
10.0
 44
1.0
 47
1.0
 48
1.0
 73
     0
 74
     0
 77
     1
 78
     8
140
3.0
141
0.0
143
0.03937
146
10.0
147
1.0
173
     1
271
     3
272
     3
279
     2
284
     8
285
     8
286
     8
340
81DA
  0
DIMSTYLE
105
8200
330
818F
100
AcDbSymbolTableRecord
100
AcDbDimStyleTableRecord
  2
MATSU
 70
     0
 41
2.0
 42
1.0
 43
10.0
 44
1.0
 73
     0
 74
     0
 77
     1
 78
     8
140
3.0
141
0.0
143
0.03937
147
0.5
172
     1
173
     1
176
   256
177
   256
178
   256
271
     3
272
     3
279
     2
284
     8
285
     8
286
     8
340
81DA
  0
ENDTAB
  0
TABLE
  2
BLOCK_RECORD
  5
8186
330
0
100
AcDbSymbolTable
 70
    36
  0
BLOCK_RECORD
  5
81F4
330
8186
100
AcDbSymbolTableRecord
100
AcDbBlockTableRecord
  2
*Model_Space
340
81F7
  0
BLOCK_RECORD
  5
81F0
330
8186
100
AcDbSymbolTableRecord
100
AcDbBlockTableRecord
  2
*Paper_Space
340
81F3
  0
BLOCK_RECORD
  5
8204
330
8186
100
AcDbSymbolTableRecord
100
AcDbBlockTableRecord
  2
$MODEL_SPACE
340
0
  0
BLOCK_RECORD
  5
8206
330
8186
100
AcDbSymbolTableRecord
100
AcDbBlockTableRecord
  2
$PAPER_SPACE
340
0
  0
BLOCK_RECORD
  5
8208
330
8186
100
AcDbSymbolTableRecord
100
AcDbBlockTableRecord
  2
_OPEN
340
0
102
{BLKREFS
331
830D
331
830E
331
8316
331
8317
331
8330
331
8331
331
834C
331
834D
331
8359
331
835A
331
7E4A
331
7E4B
331
7E55
331
7E56
331
7FB1
331
7FB2
331
8160
331
8161
331
7F7A
331
7F7B
331
8168
331
8169
331
8170
331
8171
331
7EAA
331
7EAB
331
8178
331
8179
331
7EE3
331
7EE4
331
80B6
331
80B7
331
80C3
331
80C4
331
836F
331
8370
331
8385
331
8386
331
80D0
331
80D1
331
80DD
331
80DE
331
80EA
331
80EB
331
7DF2
331
7DF3
331
7DFD
331
7DFE
331
7E1E
331
7E1F
331
7E34
331
7E35
331
7E3F
331
7E40
102
}
  0
BLOCK_RECORD
  5
820A
330
8186
100
AcDbSymbolTableRecord
100
AcDbBlockTableRecord
  2
YA_N
340
0
102
{BLKREFS
331
7C00
331
7C22
331
7C3A
331
7C3C
102
}
  0
BLOCK_RECORD
  5
820C
330
8186
100
AcDbSymbolTableRecord
100
AcDbBlockTableRecord
  2
*D4
340
0
  0
BLOCK_RECORD
  5
820E
330
8186
100
AcDbSymbolTableRecord
100
AcDbBlockTableRecord
  2
*D5
340
0
  0
BLOCK_RECORD
  5
8210
330
8186
100
AcDbSymbolTableRecord
100
AcDbBlockTableRecord
  2
*D6
340
0
  0
BLOCK_RECORD
  5
8212
330
8186
100
AcDbSymbolTableRecord
100
AcDbBlockTableRecord
  2
*D7
340
0
  0
BLOCK_RECORD
  5
8214
330
8186
100
AcDbSymbolTableRecord
100
AcDbBlockTableRecord
  2
*D8
340
0
  0
BLOCK_RECORD
  5
8216
330
8186
100
AcDbSymbolTableRecord
100
AcDbBlockTableRecord
  2
*D9
340
0
  0
BLOCK_RECORD
  5
8218
330
8186
100
AcDbSymbolTableRecord
100
AcDbBlockTableRecord
  2
*D10
340
0
  0
BLOCK_RECORD
  5
821A
330
8186
100
AcDbSymbolTableRecord
100
AcDbBlockTableRecord
  2
*D11
340
0
  0
BLOCK_RECORD
  5
821C
330
8186
100
AcDbSymbolTableRecord
100
AcDbBlockTableRecord
  2
*D12
340
0
  0
BLOCK_RECORD
  5
821E
330
8186
100
AcDbSymbolTableRecord
100
AcDbBlockTableRecord
  2
*D13
340
0
  0
BLOCK_RECORD
  5
8220
330
8186
100
AcDbSymbolTableRecord
100
AcDbBlockTableRecord
  2
*D14
340
0
  0
BLOCK_RECORD
  5
8222
330
8186
100
AcDbSymbolTableRecord
100
AcDbBlockTableRecord
  2
*D15
340
0
  0
BLOCK_RECORD
  5
8224
330
8186
100
AcDbSymbolTableRecord
100
AcDbBlockTableRecord
  2
*D16
340
0
  0
BLOCK_RECORD
  5
8226
330
8186
100
AcDbSymbolTableRecord
100
AcDbBlockTableRecord
  2
*D17
340
0
  0
BLOCK_RECORD
  5
8228
330
8186
100
AcDbSymbolTableRecord
100
AcDbBlockTableRecord
  2
*D18
340
0
  0
BLOCK_RECORD
  5
822A
330
8186
100
AcDbSymbolTableRecord
100
AcDbBlockTableRecord
  2
_DOT
340
0
  0
BLOCK_RECORD
  5
822C
330
8186
100
AcDbSymbolTableRecord
100
AcDbBlockTableRecord
  2
_NONE
340
0
  0
BLOCK_RECORD
  5
822E
330
8186
100
AcDbSymbolTableRecord
100
AcDbBlockTableRecord
  2
*D21
340
0
  0
BLOCK_RECORD
  5
8230
330
8186
100
AcDbSymbolTableRecord
100
AcDbBlockTableRecord
  2
*D22
340
0
  0
BLOCK_RECORD
  5
8232
330
8186
100
AcDbSymbolTableRecord
100
AcDbBlockTableRecord
  2
*D23
340
0
  0
BLOCK_RECORD
  5
8234
330
8186
100
AcDbSymbolTableRecord
100
AcDbBlockTableRecord
  2
*D24
340
0
  0
BLOCK_RECORD
  5
8236
330
8186
100
AcDbSymbolTableRecord
100
AcDbBlockTableRecord
  2
*D25
340
0
  0
BLOCK_RECORD
  5
82B8
330
8186
100
AcDbSymbolTableRecord
100
AcDbBlockTableRecord
  2
*D27
340
0
  0
BLOCK_RECORD
  5
82C5
330
8186
100
AcDbSymbolTableRecord
100
AcDbBlockTableRecord
  2
*D28
340
0
  0
BLOCK_RECORD
  5
831C
330
8186
100
AcDbSymbolTableRecord
100
AcDbBlockTableRecord
  2
*D29
340
0
  0
BLOCK_RECORD
  5
832A
330
8186
100
AcDbSymbolTableRecord
100
AcDbBlockTableRecord
  2
*D30
340
0
  0
BLOCK_RECORD
  5
833D
330
8186
100
AcDbSymbolTableRecord
100
AcDbBlockTableRecord
  2
*D32
340
0
  0
BLOCK_RECORD
  5
8353
330
8186
100
AcDbSymbolTableRecord
100
AcDbBlockTableRecord
  2
*D33
340
0
  0
BLOCK_RECORD
  5
8360
330
8186
100
AcDbSymbolTableRecord
100
AcDbBlockTableRecord
  2
*D34
340
0
  0
BLOCK_RECORD
  5
8376
330
8186
100
AcDbSymbolTableRecord
100
AcDbBlockTableRecord
  2
*D35
340
0
  0
ENDTAB
  0
ENDSEC
  0
SECTION
  2
BLOCKS
  0
BLOCK
  5
81F5
330
81F4
100
AcDbEntity
  8
0
100
AcDbBlockBegin
  2
*Model_Space
 70
     0
 10
0.0
 20
0.0
 30
0.0
  3
*Model_Space
  1

  0
ENDBLK
  5
81F6
330
81F4
100
AcDbEntity
  8
0
100
AcDbBlockEnd
  0
BLOCK
  5
81F1
330
81F0
100
AcDbEntity
 67
     1
  8
0
100
AcDbBlockBegin
  2
*Paper_Space
 70
     0
 10
0.0
 20
0.0
 30
0.0
  3
*Paper_Space
  1

  0
ENDBLK
  5
81F2
330
81F0
100
AcDbEntity
 67
     1
  8
0
100
AcDbBlockEnd
  0
BLOCK
  5
8205
330
8204
100
AcDbEntity
  8
0
100
AcDbBlockBegin
  2
$MODEL_SPACE
 70
     0
 10
0.0
 20
0.0
 30
0.0
  3
$MODEL_SPACE
  1

  0
ENDBLK
  5
1B
330
8204
100
AcDbEntity
  8
0
100
AcDbBlockEnd
  0
BLOCK
  5
8207
330
8206
100
AcDbEntity
  8
0
100
AcDbBlockBegin
  2
$PAPER_SPACE
 70
     0
 10
0.0
 20
0.0
 30
0.0
  3
$PAPER_SPACE
  1

  0
ENDBLK
  5
18
330
8206
100
AcDbEntity
  8
0
100
AcDbBlockEnd
  0
BLOCK
  5
8209
330
8208
100
AcDbEntity
  8
0
100
AcDbBlockBegin
  2
_OPEN
 70
     0
 10
0.0
 20
0.0
 30
0.0
  3
_OPEN
  1

  0
LINE
  5
79FD
330
8208
100
AcDbEntity
  8
0
  6
ByBlock
 62
     0
100
AcDbLine
 10
-1.0
 20
0.1666666666666666
 30
0.0
 11
0.0
 21
0.0
 31
0.0
  0
LINE
  5
79FE
330
8208
100
AcDbEntity
  8
0
  6
ByBlock
 62
     0
100
AcDbLine
 10
0.0
 20
0.0
 30
0.0
 11
-1.0
 21
-0.1666666666666666
 31
0.0
  0
LINE
  5
79FF
330
8208
100
AcDbEntity
  8
0
  6
ByBlock
 62
     0
100
AcDbLine
 10
0.0
 20
0.0
 30
0.0
 11
-1.0
 21
0.0
 31
0.0
  0
ENDBLK
  5
7A01
330
8208
100
AcDbEntity
  8
0
100
AcDbBlockEnd
  0
BLOCK
  5
820B
330
820A
100
AcDbEntity
  8
0
100
AcDbBlockBegin
  2
YA_N
 70
     0
 10
0.0
 20
0.0
 30
0.0
  3
YA_N
  1

  0
ENDBLK
  5
7A0C
330
820A
100
AcDbEntity
  8
0
100
AcDbBlockEnd
  0
BLOCK
  5
820D
330
820C
100
AcDbEntity
  8
0
100
AcDbBlockBegin
  2
*D4
 70
     1
 10
0.0
 20
0.0
 30
0.0
  3
*D4
  1

  0
LINE
  5
7DEF
330
820C
100
AcDbEntity
  8
0
  6
ByBlock
100
AcDbLine
 10
2975.439030888301
 20
2131.887615409481
 30
0.0
 11
2975.439030888301
 21
2280.232958951545
 31
0.0
  0
LINE
  5
7DF0
330
820C
100
AcDbEntity
  8
0
  6
ByBlock
100
AcDbLine
 10
2150.4390308883
 20
2131.887615409481
 30
0.0
 11
2150.4390308883
 21
2280.232958951545
 31
0.0
  0
LINE
  5
7DF1
330
820C
100
AcDbEntity
  8
0
  6
ByBlock
100
AcDbLine
 10
2925.439030888301
 20
2255.232958951544
 30
0.0
 11
2200.4390308883
 21
2255.232958951544
 31
0.0
  0
INSERT
  5
7DF2
330
820C
100
AcDbEntity
  8
0
  6
ByBlock
100
AcDbBlockReference
  2
_OPEN
 10
2975.439030888301
 20
2255.232958951544
 30
0.0
 41
50.0
 42
50.0
 43
50.0
  0
INSERT
  5
7DF3
330
820C
100
AcDbEntity
  8
0
  6
ByBlock
100
AcDbBlockReference
  2
_OPEN
 10
2150.4390308883
 20
2255.232958951544
 30
0.0
 41
50.0
 42
50.0
 43
50.0
 50
180.0
  0
TEXT
  5
7DF4
330
820C
100
AcDbEntity
  8
3
100
AcDbText
 10
2466.510459459728
 20
2267.732958951544
 30
0.0
 40
75.0
  1
825
100
AcDbText
  0
POINT
  5
7DF5
330
820C
100
AcDbEntity
  8
DEFPOINTS
  6
ByBlock
 62
     0
100
AcDbPoint
 10
2975.439030888301
 20
2106.887615409481
 30
0.0
  0
POINT
  5
7DF6
330
820C
100
AcDbEntity
  8
DEFPOINTS
  6
ByBlock
 62
     0
100
AcDbPoint
 10
2150.4390308883
 20
2106.887615409481
 30
0.0
  0
POINT
  5
7DF7
330
820C
100
AcDbEntity
  8
DEFPOINTS
  6
ByBlock
 62
     0
100
AcDbPoint
 10
2150.4390308883
 20
2255.232958951544
 30
0.0
  0
ENDBLK
  5
7DF8
330
820C
100
AcDbEntity
  8
0
100
AcDbBlockEnd
  0
BLOCK
  5
820F
330
820E
100
AcDbEntity
  8
0
100
AcDbBlockBegin
  2
*D5
 70
     1
 10
0.0
 20
0.0
 30
0.0
  3
*D5
  1

  0
LINE
  5
7DFA
330
820E
100
AcDbEntity
  8
0
  6
ByBlock
100
AcDbLine
 10
2975.439030888301
 20
2131.887615409481
 30
0.0
 11
2975.439030888301
 21
2432.516361525348
 31
0.0
  0
LINE
  5
7DFB
330
820E
100
AcDbEntity
  8
0
  6
ByBlock
100
AcDbLine
 10
2127.4390308883
 20
2253.359407259871
 30
0.0
 11
2127.4390308883
 21
2432.516361525348
 31
0.0
  0
LINE
  5
7DFC
330
820E
100
AcDbEntity
  8
0
  6
ByBlock
100
AcDbLine
 10
2925.439030888301
 20
2407.516361525347
 30
0.0
 11
2177.4390308883
 21
2407.516361525347
 31
0.0
  0
INSERT
  5
7DFD
330
820E
100
AcDbEntity
  8
0
  6
ByBlock
100
AcDbBlockReference
  2
_OPEN
 10
2975.439030888301
 20
2407.516361525347
 30
0.0
 41
50.0
 42
50.0
 43
50.0
  0
INSERT
  5
7DFE
330
820E
100
AcDbEntity
  8
0
  6
ByBlock
100
AcDbBlockReference
  2
_OPEN
 10
2127.4390308883
 20
2407.516361525347
 30
0.0
 41
50.0
 42
50.0
 43
50.0
 50
180.0
  0
TEXT
  5
7DFF
330
820E
100
AcDbEntity
  8
3
100
AcDbText
 10
2455.010459459729
 20
2420.016361525347
 30
0.0
 40
75.0
  1
848
100
AcDbText
  0
POINT
  5
7E00
330
820E
100
AcDbEntity
  8
DEFPOINTS
  6
ByBlock
 62
     0
100
AcDbPoint
 10
2975.439030888301
 20
2106.887615409481
 30
0.0
  0
POINT
  5
7E01
330
820E
100
AcDbEntity
  8
DEFPOINTS
  6
ByBlock
 62
     0
100
AcDbPoint
 10
2127.4390308883
 20
2228.359407259871
 30
0.0
  0
POINT
  5
7E02
330
820E
100
AcDbEntity
  8
DEFPOINTS
  6
ByBlock
 62
     0
100
AcDbPoint
 10
2127.4390308883
 20
2407.516361525347
 30
0.0
  0
ENDBLK
  5
7E03
330
820E
100
AcDbEntity
  8
0
100
AcDbBlockEnd
  0
BLOCK
  5
8211
330
8210
100
AcDbEntity
  8
0
100
AcDbBlockBegin
  2
*D6
 70
     1
 10
0.0
 20
0.0
 30
0.0
  3
*D6
  1

  0
LINE
  5
7E1B
330
8210
100
AcDbEntity
  8
0
  6
ByBlock
100
AcDbLine
 10
5441.207505112644
 20
1986.88761540948
 30
0.0
 11
5740.43091600962
 21
1986.88761540948
 31
0.0
  0
LINE
  5
7E1C
330
8210
100
AcDbEntity
  8
0
  6
ByBlock
100
AcDbLine
 10
5441.207505112644
 20
1136.887615409481
 30
0.0
 11
5740.43091600962
 21
1136.887615409481
 31
0.0
  0
LINE
  5
7E1D
330
8210
100
AcDbEntity
  8
0
  6
ByBlock
100
AcDbLine
 10
5715.43091600962
 20
1936.88761540948
 30
0.0
 11
5715.43091600962
 21
1186.887615409481
 31
0.0
  0
INSERT
  5
7E1E
330
8210
100
AcDbEntity
  8
0
  6
ByBlock
100
AcDbBlockReference
  2
_OPEN
 10
5715.43091600962
 20
1986.88761540948
 30
0.0
 41
50.0
 42
50.0
 43
50.0
 50
90.0
  0
INSERT
  5
7E1F
330
8210
100
AcDbEntity
  8
0
  6
ByBlock
100
AcDbBlockReference
  2
_OPEN
 10
5715.43091600962
 20
1136.887615409481
 30
0.0
 41
50.0
 42
50.0
 43
50.0
 50
270.0
  0
TEXT
  5
7E20
330
8210
100
AcDbEntity
  8
3
100
AcDbText
 10
5702.93091600962
 20
1427.959043980909
 30
0.0
 40
75.0
  1
\U+03C6850
 50
90.0
100
AcDbText
  0
POINT
  5
7E21
330
8210
100
AcDbEntity
  8
DEFPOINTS
  6
ByBlock
 62
     0
100
AcDbPoint
 10
5416.207505112645
 20
1986.88761540948
 30
0.0
  0
POINT
  5
7E22
330
8210
100
AcDbEntity
  8
DEFPOINTS
  6
ByBlock
 62
     0
100
AcDbPoint
 10
5416.207505112645
 20
1136.887615409481
 30
0.0
  0
POINT
  5
7E23
330
8210
100
AcDbEntity
  8
DEFPOINTS
  6
ByBlock
 62
     0
100
AcDbPoint
 10
5715.43091600962
 20
1136.887615409481
 30
0.0
  0
ENDBLK
  5
7E24
330
8210
100
AcDbEntity
  8
0
100
AcDbBlockEnd
  0
BLOCK
  5
8213
330
8212
100
AcDbEntity
  8
0
100
AcDbBlockBegin
  2
*D7
 70
     1
 10
0.0
 20
0.0
 30
0.0
  3
*D7
  1

  0
LINE
  5
7E31
330
8212
100
AcDbEntity
  8
0
  6
ByBlock
100
AcDbLine
 10
2627.4390308883
 20
4579.380572240498
 30
0.0
 11
2627.4390308883
 21
4730.503855791452
 31
0.0
  0
LINE
  5
7E32
330
8212
100
AcDbEntity
  8
0
  6
ByBlock
100
AcDbLine
 10
1627.439030888299
 20
4579.380572240498
 30
0.0
 11
1627.439030888299
 21
4730.503855791452
 31
0.0
  0
LINE
  5
7E33
330
8212
100
AcDbEntity
  8
0
  6
ByBlock
100
AcDbLine
 10
2577.4390308883
 20
4705.503855791452
 30
0.0
 11
1677.4390308883
 21
4705.503855791452
 31
0.0
  0
INSERT
  5
7E34
330
8212
100
AcDbEntity
  8
0
  6
ByBlock
100
AcDbBlockReference
  2
_OPEN
 10
2627.4390308883
 20
4705.503855791452
 30
0.0
 41
50.0
 42
50.0
 43
50.0
  0
INSERT
  5
7E35
330
8212
100
AcDbEntity
  8
0
  6
ByBlock
100
AcDbBlockReference
  2
_OPEN
 10
1627.439030888299
 20
4705.503855791452
 30
0.0
 41
50.0
 42
50.0
 43
50.0
 50
180.0
  0
TEXT
  5
7E36
330
8212
100
AcDbEntity
  8
3
100
AcDbText
 10
2002.4390308883
 20
4718.003855791452
 30
0.0
 40
75.0
  1
1000
100
AcDbText
  0
POINT
  5
7E37
330
8212
100
AcDbEntity
  8
DEFPOINTS
  6
ByBlock
 62
     0
100
AcDbPoint
 10
2627.4390308883
 20
4554.380572240497
 30
0.0
  0
POINT
  5
7E38
330
8212
100
AcDbEntity
  8
DEFPOINTS
  6
ByBlock
 62
     0
100
AcDbPoint
 10
1627.439030888299
 20
4554.380572240497
 30
0.0
  0
POINT
  5
7E39
330
8212
100
AcDbEntity
  8
DEFPOINTS
  6
ByBlock
 62
     0
100
AcDbPoint
 10
1627.439030888299
 20
4705.503855791452
 30
0.0
  0
ENDBLK
  5
7E3A
330
8212
100
AcDbEntity
  8
0
100
AcDbBlockEnd
  0
BLOCK
  5
8215
330
8214
100
AcDbEntity
  8
0
100
AcDbBlockBegin
  2
*D8
 70
     1
 10
0.0
 20
0.0
 30
0.0
  3
*D8
  1

  0
LINE
  5
7E3C
330
8214
100
AcDbEntity
  8
0
  6
ByBlock
100
AcDbLine
 10
1602.4390308883
 20
4554.380572240497
 30
0.0
 11
1384.50230273841
 21
4554.380572240497
 31
0.0
  0
LINE
  5
7E3D
330
8214
100
AcDbEntity
  8
0
  6
ByBlock
100
AcDbLine
 10
1602.4390308883
 20
3299.3805722405
 30
0.0
 11
1384.50230273841
 21
3299.3805722405
 31
0.0
  0
LINE
  5
7E3E
330
8214
100
AcDbEntity
  8
0
  6
ByBlock
100
AcDbLine
 10
1409.50230273841
 20
4504.380572240497
 30
0.0
 11
1409.50230273841
 21
3349.380572240499
 31
0.0
  0
INSERT
  5
7E3F
330
8214
100
AcDbEntity
  8
0
  6
ByBlock
100
AcDbBlockReference
  2
_OPEN
 10
1409.50230273841
 20
4554.380572240497
 30
0.0
 41
50.0
 42
50.0
 43
50.0
 50
90.0
  0
INSERT
  5
7E40
330
8214
100
AcDbEntity
  8
0
  6
ByBlock
100
AcDbBlockReference
  2
_OPEN
 10
1409.50230273841
 20
3299.3805722405
 30
0.0
 41
50.0
 42
50.0
 43
50.0
 50
270.0
  0
TEXT
  5
7E41
330
8214
100
AcDbEntity
  8
3
100
AcDbText
 10
1397.00230273841
 20
3801.8805722405
 30
0.0
 40
75.0
  1
1255
 50
90.0
100
AcDbText
  0
POINT
  5
7E42
330
8214
100
AcDbEntity
  8
DEFPOINTS
  6
ByBlock
 62
     0
100
AcDbPoint
 10
1627.439030888299
 20
4554.380572240497
 30
0.0
  0
POINT
  5
7E43
330
8214
100
AcDbEntity
  8
DEFPOINTS
  6
ByBlock
 62
     0
100
AcDbPoint
 10
1627.439030888299
 20
3299.3805722405
 30
0.0
  0
POINT
  5
7E44
330
8214
100
AcDbEntity
  8
DEFPOINTS
  6
ByBlock
 62
     0
100
AcDbPoint
 10
1409.50230273841
 20
3299.3805722405
 30
0.0
  0
ENDBLK
  5
7E45
330
8214
100
AcDbEntity
  8
0
100
AcDbBlockEnd
  0
BLOCK
  5
8217
330
8216
100
AcDbEntity
  8
0
100
AcDbBlockBegin
  2
*D9
 70
     1
 10
0.0
 20
0.0
 30
0.0
  3
*D9
  1

  0
LINE
  5
7E47
330
8216
100
AcDbEntity
  8
0
  6
ByBlock
100
AcDbLine
 10
3402.439030888299
 20
4049.380572240499
 30
0.0
 11
3554.591860011613
 21
4049.380572240499
 31
0.0
  0
LINE
  5
7E48
330
8216
100
AcDbEntity
  8
0
  6
ByBlock
100
AcDbLine
 10
3402.439030888299
 20
3299.3805722405
 30
0.0
 11
3554.591860011613
 21
3299.3805722405
 31
0.0
  0
LINE
  5
7E49
330
8216
100
AcDbEntity
  8
0
  6
ByBlock
100
AcDbLine
 10
3529.591860011613
 20
3999.380572240499
 30
0.0
 11
3529.591860011613
 21
3349.3805722405
 31
0.0
  0
INSERT
  5
7E4A
330
8216
100
AcDbEntity
  8
0
  6
ByBlock
100
AcDbBlockReference
  2
_OPEN
 10
3529.591860011613
 20
4049.380572240499
 30
0.0
 41
50.0
 42
50.0
 43
50.0
 50
90.0
  0
INSERT
  5
7E4B
330
8216
100
AcDbEntity
  8
0
  6
ByBlock
100
AcDbBlockReference
  2
_OPEN
 10
3529.591860011613
 20
3299.3805722405
 30
0.0
 41
50.0
 42
50.0
 43
50.0
 50
270.0
  0
TEXT
  5
7E4C
330
8216
100
AcDbEntity
  8
3
100
AcDbText
 10
3517.091860011613
 20
3577.952000811928
 30
0.0
 40
75.0
  1
750
 50
90.0
100
AcDbText
  0
POINT
  5
7E4D
330
8216
100
AcDbEntity
  8
DEFPOINTS
  6
ByBlock
 62
     0
100
AcDbPoint
 10
3377.439030888299
 20
4049.380572240499
 30
0.0
  0
POINT
  5
7E4E
330
8216
100
AcDbEntity
  8
DEFPOINTS
  6
ByBlock
 62
     0
100
AcDbPoint
 10
3377.439030888299
 20
3299.3805722405
 30
0.0
  0
POINT
  5
7E4F
330
8216
100
AcDbEntity
  8
DEFPOINTS
  6
ByBlock
 62
     0
100
AcDbPoint
 10
3529.591860011613
 20
3299.3805722405
 30
0.0
  0
ENDBLK
  5
7E50
330
8216
100
AcDbEntity
  8
0
100
AcDbBlockEnd
  0
BLOCK
  5
8219
330
8218
100
AcDbEntity
  8
0
100
AcDbBlockBegin
  2
*D10
 70
     1
 10
0.0
 20
0.0
 30
0.0
  3
*D10
  1

  0
LINE
  5
7E52
330
8218
100
AcDbEntity
  8
0
  6
ByBlock
100
AcDbLine
 10
3377.439030888299
 20
3274.3805722405
 30
0.0
 11
3377.439030888299
 21
3013.7147873961
 31
0.0
  0
LINE
  5
7E53
330
8218
100
AcDbEntity
  8
0
  6
ByBlock
100
AcDbLine
 10
1627.439030888299
 20
3274.380572240499
 30
0.0
 11
1627.439030888299
 21
3013.7147873961
 31
0.0
  0
LINE
  5
7E54
330
8218
100
AcDbEntity
  8
0
  6
ByBlock
100
AcDbLine
 10
3327.439030888299
 20
3038.7147873961
 30
0.0
 11
1677.4390308883
 21
3038.7147873961
 31
0.0
  0
INSERT
  5
7E55
330
8218
100
AcDbEntity
  8
0
  6
ByBlock
100
AcDbBlockReference
  2
_OPEN
 10
3377.439030888299
 20
3038.7147873961
 30
0.0
 41
50.0
 42
50.0
 43
50.0
  0
INSERT
  5
7E56
330
8218
100
AcDbEntity
  8
0
  6
ByBlock
100
AcDbBlockReference
  2
_OPEN
 10
1627.439030888299
 20
3038.7147873961
 30
0.0
 41
50.0
 42
50.0
 43
50.0
 50
180.0
  0
TEXT
  5
7E57
330
8218
100
AcDbEntity
  8
3
100
AcDbText
 10
2377.439030888299
 20
3051.2147873961
 30
0.0
 40
75.0
  1
1750
100
AcDbText
  0
POINT
  5
7E58
330
8218
100
AcDbEntity
  8
DEFPOINTS
  6
ByBlock
 62
     0
100
AcDbPoint
 10
3377.439030888299
 20
3299.3805722405
 30
0.0
  0
POINT
  5
7E59
330
8218
100
AcDbEntity
  8
DEFPOINTS
  6
ByBlock
 62
     0
100
AcDbPoint
 10
1627.439030888299
 20
3299.3805722405
 30
0.0
  0
POINT
  5
7E5A
330
8218
100
AcDbEntity
  8
DEFPOINTS
  6
ByBlock
 62
     0
100
AcDbPoint
 10
1627.439030888299
 20
3038.7147873961
 30
0.0
  0
ENDBLK
  5
7E5B
330
8218
100
AcDbEntity
  8
0
100
AcDbBlockEnd
  0
BLOCK
  5
821B
330
821A
100
AcDbEntity
  8
0
100
AcDbBlockBegin
  2
*D11
 70
     1
 10
0.0
 20
0.0
 30
0.0
  3
*D11
  1

  0
LINE
  5
7FAE
330
821A
100
AcDbEntity
  8
0
  6
ByBlock
100
AcDbLine
 10
3569.037576512395
 20
3108.184586066368
 30
0.0
 11
3569.037576512395
 21
3209.073169067424
 31
0.0
  0
LINE
  5
7FAF
330
821A
100
AcDbEntity
  8
0
  6
ByBlock
100
AcDbLine
 10
4569.037576512396
 20
3108.184586066368
 30
0.0
 11
4569.037576512396
 21
3209.073169067424
 31
0.0
  0
LINE
  5
7FB0
330
821A
100
AcDbEntity
  8
0
  6
ByBlock
100
AcDbLine
 10
3619.037576512395
 20
3184.073169067424
 30
0.0
 11
4519.037576512396
 21
3184.073169067424
 31
0.0
  0
INSERT
  5
7FB1
330
821A
100
AcDbEntity
  8
0
  6
ByBlock
100
AcDbBlockReference
  2
_OPEN
 10
3569.037576512395
 20
3184.073169067424
 30
0.0
 41
50.0
 42
50.0
 43
50.0
 50
180.0
  0
INSERT
  5
7FB2
330
821A
100
AcDbEntity
  8
0
  6
ByBlock
100
AcDbBlockReference
  2
_OPEN
 10
4569.037576512396
 20
3184.073169067424
 30
0.0
 41
50.0
 42
50.0
 43
50.0
  0
TEXT
  5
7FB3
330
821A
100
AcDbEntity
  8
3
100
AcDbText
 10
3944.037576512397
 20
3196.573169067423
 30
0.0
 40
75.0
  1
1000
100
AcDbText
  0
POINT
  5
7FB4
330
821A
100
AcDbEntity
  8
DEFPOINTS
  6
ByBlock
 62
     0
100
AcDbPoint
 10
3569.037576512395
 20
3083.184586066368
 30
0.0
  0
POINT
  5
7FB5
330
821A
100
AcDbEntity
  8
DEFPOINTS
  6
ByBlock
 62
     0
100
AcDbPoint
 10
4569.037576512396
 20
3083.184586066368
 30
0.0
  0
POINT
  5
7FB6
330
821A
100
AcDbEntity
  8
DEFPOINTS
  6
ByBlock
 62
     0
100
AcDbPoint
 10
4569.037576512396
 20
3184.073169067424
 30
0.0
  0
ENDBLK
  5
7FB7
330
821A
100
AcDbEntity
  8
0
100
AcDbBlockEnd
  0
BLOCK
  5
821D
330
821C
100
AcDbEntity
  8
0
100
AcDbBlockBegin
  2
*D12
 70
     1
 10
0.0
 20
0.0
 30
0.0
  3
*D12
  1

  0
LINE
  5
815E
330
821C
100
AcDbEntity
  8
3
100
AcDbLine
 10
2822.993139438522
 20
5050.677542897386
 30
0.0
 11
2822.993139438522
 21
5706.80082644834
 31
0.0
  0
LINE
  5
815F
330
821C
100
AcDbEntity
  8
3
100
AcDbLine
 10
2122.993139438523
 20
5681.800826448338
 30
0.0
 11
2772.993139438522
 21
5681.800826448338
 31
0.0
  0
INSERT
  5
8160
330
821C
100
AcDbEntity
  8
3
100
AcDbBlockReference
  2
_OPEN
 10
2072.993139438522
 20
5681.800826448338
 30
0.0
 41
50.0
 42
50.0
 43
50.0
 50
180.0
  0
INSERT
  5
8161
330
821C
100
AcDbEntity
  8
3
100
AcDbBlockReference
  2
_OPEN
 10
2822.993139438522
 20
5681.800826448338
 30
0.0
 41
50.0
 42
50.0
 43
50.0
  0
TEXT
  5
8181
330
821C
100
AcDbEntity
  8
3
100
AcDbText
 10
2297.99
 20
5599.05
 30
0.0
 40
75.0
  1
750
100
AcDbText
  0
POINT
  5
8163
330
821C
100
AcDbEntity
  8
DEFPOINTS
 62
     0
100
AcDbPoint
 10
2072.993139438522
 20
5530.677542897386
 30
0.0
  0
POINT
  5
8164
330
821C
100
AcDbEntity
  8
DEFPOINTS
 62
     0
100
AcDbPoint
 10
2822.993139438522
 20
5025.677542897387
 30
0.0
  0
POINT
  5
8165
330
821C
100
AcDbEntity
  8
DEFPOINTS
 62
     0
100
AcDbPoint
 10
2822.993139438522
 20
5681.800826448338
 30
0.0
  0
ENDBLK
  5
7E86
330
821C
100
AcDbEntity
  8
0
100
AcDbBlockEnd
  0
BLOCK
  5
821F
330
821E
100
AcDbEntity
  8
0
100
AcDbBlockBegin
  2
*D13
 70
     1
 10
0.0
 20
0.0
 30
0.0
  3
*D13
  1

  0
LINE
  5
7F77
330
821E
100
AcDbEntity
  8
0
  6
ByBlock
100
AcDbLine
 10
4669.037576512397
 20
2523.684586066368
 30
0.0
 11
4669.037576512397
 21
3397.167932645344
 31
0.0
  0
LINE
  5
7F78
330
821E
100
AcDbEntity
  8
0
  6
ByBlock
100
AcDbLine
 10
4069.037576512394
 20
3330.792959835359
 30
0.0
 11
4069.037576512394
 21
3397.167932645344
 31
0.0
  0
LINE
  5
7F79
330
821E
100
AcDbEntity
  8
0
  6
ByBlock
100
AcDbLine
 10
4619.037576512396
 20
3372.167932645343
 30
0.0
 11
4119.037576512395
 21
3372.167932645343
 31
0.0
  0
INSERT
  5
7F7A
330
821E
100
AcDbEntity
  8
0
  6
ByBlock
100
AcDbBlockReference
  2
_OPEN
 10
4669.037576512397
 20
3372.167932645343
 30
0.0
 41
50.0
 42
50.0
 43
50.0
  0
INSERT
  5
7F7B
330
821E
100
AcDbEntity
  8
0
  6
ByBlock
100
AcDbBlockReference
  2
_OPEN
 10
4069.037576512394
 20
3372.167932645343
 30
0.0
 41
50.0
 42
50.0
 43
50.0
 50
180.0
  0
TEXT
  5
7F7C
330
821E
100
AcDbEntity
  8
3
100
AcDbText
 10
4231.537576512395
 20
3416.8107897882
 30
0.0
 40
75.0
  1
(610)
100
AcDbText
  0
POINT
  5
7F7D
330
821E
100
AcDbEntity
  8
DEFPOINTS
  6
ByBlock
 62
     0
100
AcDbPoint
 10
4669.037576512397
 20
2498.684586066368
 30
0.0
  0
POINT
  5
7F7E
330
821E
100
AcDbEntity
  8
DEFPOINTS
  6
ByBlock
 62
     0
100
AcDbPoint
 10
4069.037576512394
 20
3305.792959835359
 30
0.0
  0
POINT
  5
7F7F
330
821E
100
AcDbEntity
  8
DEFPOINTS
  6
ByBlock
 62
     0
100
AcDbPoint
 10
4069.037576512394
 20
3372.167932645343
 30
0.0
  0
ENDBLK
  5
7F80
330
821E
100
AcDbEntity
  8
0
100
AcDbBlockEnd
  0
BLOCK
  5
8221
330
8220
100
AcDbEntity
  8
0
100
AcDbBlockBegin
  2
*D14
 70
     1
 10
0.0
 20
0.0
 30
0.0
  3
*D14
  1

  0
LINE
  5
8166
330
8220
100
AcDbEntity
  8
3
100
AcDbLine
 10
3259.037576512395
 20
2783.184586066368
 30
0.0
 11
3259.037576512395
 21
3397.167932645344
 31
0.0
  0
LINE
  5
8167
330
8220
100
AcDbEntity
  8
3
100
AcDbLine
 10
4019.037576512395
 20
3372.167932645343
 30
0.0
 11
3309.037576512395
 21
3372.167932645343
 31
0.0
  0
INSERT
  5
8168
330
8220
100
AcDbEntity
  8
3
100
AcDbBlockReference
  2
_OPEN
 10
4069.037576512394
 20
3372.167932645343
 30
0.0
 41
50.0
 42
50.0
 43
50.0
  0
INSERT
  5
8169
330
8220
100
AcDbEntity
  8
3
100
AcDbBlockReference
  2
_OPEN
 10
3259.037576512395
 20
3372.167932645343
 30
0.0
 41
50.0
 42
50.0
 43
50.0
 50
180.0
  0
TEXT
  5
8182
330
8220
100
AcDbEntity
  8
3
100
AcDbText
 10
3514.04
 20
3351.92
 30
0.0
 40
75.0
  1
MAX
100
AcDbText
  0
TEXT
  5
8183
330
8220
100
AcDbEntity
  8
3
100
AcDbText
 10
3514.04
 20
3254.42
 30
0.0
 40
75.0
  1
860
100
AcDbText
  0
POINT
  5
816B
330
8220
100
AcDbEntity
  8
DEFPOINTS
 62
     0
100
AcDbPoint
 10
4069.037576512394
 20
3305.792959835359
 30
0.0
  0
POINT
  5
816C
330
8220
100
AcDbEntity
  8
DEFPOINTS
 62
     0
100
AcDbPoint
 10
3259.037576512395
 20
2758.184586066368
 30
0.0
  0
POINT
  5
816D
330
8220
100
AcDbEntity
  8
DEFPOINTS
 62
     0
100
AcDbPoint
 10
3259.037576512395
 20
3372.167932645343
 30
0.0
  0
ENDBLK
  5
7F75
330
8220
100
AcDbEntity
  8
0
100
AcDbBlockEnd
  0
BLOCK
  5
8223
330
8222
100
AcDbEntity
  8
0
100
AcDbBlockBegin
  2
*D15
 70
     1
 10
0.0
 20
0.0
 30
0.0
  3
*D15
  1

  0
LINE
  5
816E
330
8222
100
AcDbEntity
  8
3
100
AcDbLine
 10
1004.993139438523
 20
2504.184586066369
 30
0.0
 11
1004.993139438523
 21
3408.813332182236
 31
0.0
  0
LINE
  5
816F
330
8222
100
AcDbEntity
  8
3
100
AcDbLine
 10
1522.993139438522
 20
3383.813332182235
 30
0.0
 11
1054.993139438523
 21
3383.813332182235
 31
0.0
  0
INSERT
  5
8170
330
8222
100
AcDbEntity
  8
3
100
AcDbBlockReference
  2
_OPEN
 10
1572.993139438522
 20
3383.813332182235
 30
0.0
 41
50.0
 42
50.0
 43
50.0
  0
INSERT
  5
8171
330
8222
100
AcDbEntity
  8
3
100
AcDbBlockReference
  2
_OPEN
 10
1004.993139438523
 20
3383.813332182235
 30
0.0
 41
50.0
 42
50.0
 43
50.0
 50
180.0
  0
TEXT
  5
8184
330
8222
100
AcDbEntity
  8
3
100
AcDbText
 10
1138.99
 20
3301.06
 30
0.0
 40
75.0
  1
568
100
AcDbText
  0
POINT
  5
8173
330
8222
100
AcDbEntity
  8
DEFPOINTS
 62
     0
100
AcDbPoint
 10
1572.993139438522
 20
3204.656377916759
 30
0.0
  0
POINT
  5
8174
330
8222
100
AcDbEntity
  8
DEFPOINTS
 62
     0
100
AcDbPoint
 10
1004.993139438523
 20
2479.184586066368
 30
0.0
  0
POINT
  5
8175
330
8222
100
AcDbEntity
  8
DEFPOINTS
 62
     0
100
AcDbPoint
 10
1004.993139438523
 20
3383.813332182235
 30
0.0
  0
ENDBLK
  5
7EA5
330
8222
100
AcDbEntity
  8
0
100
AcDbBlockEnd
  0
BLOCK
  5
8225
330
8224
100
AcDbEntity
  8
0
100
AcDbBlockBegin
  2
*D16
 70
     1
 10
0.0
 20
0.0
 30
0.0
  3
*D16
  1

  0
LINE
  5
7EA7
330
8224
100
AcDbEntity
  8
0
  6
ByBlock
100
AcDbLine
 10
2082.9390308883
 20
2106.88761540948
 30
0.0
 11
1300.965888986877
 21
2106.88761540948
 31
0.0
  0
LINE
  5
7EA8
330
8224
100
AcDbEntity
  8
0
  6
ByBlock
100
AcDbLine
 10
1435.967239037909
 20
1561.887615409481
 30
0.0
 11
1300.965888986877
 21
1561.887615409481
 31
0.0
  0
LINE
  5
7EA9
330
8224
100
AcDbEntity
  8
0
  6
ByBlock
100
AcDbLine
 10
1325.965888986877
 20
2056.88761540948
 30
0.0
 11
1325.965888986877
 21
1611.887615409481
 31
0.0
  0
INSERT
  5
7EAA
330
8224
100
AcDbEntity
  8
0
  6
ByBlock
100
AcDbBlockReference
  2
_OPEN
 10
1325.965888986877
 20
2106.88761540948
 30
0.0
 41
50.0
 42
50.0
 43
50.0
 50
90.0
  0
INSERT
  5
7EAB
330
8224
100
AcDbEntity
  8
0
  6
ByBlock
100
AcDbBlockReference
  2
_OPEN
 10
1325.965888986877
 20
1561.887615409481
 30
0.0
 41
50.0
 42
50.0
 43
50.0
 50
270.0
  0
TEXT
  5
7EAC
330
8224
100
AcDbEntity
  8
3
100
AcDbText
 10
1313.465888986877
 20
1737.959043980909
 30
0.0
 40
75.0
  1
545
 50
90.0
100
AcDbText
  0
POINT
  5
7EAD
330
8224
100
AcDbEntity
  8
DEFPOINTS
  6
ByBlock
 62
     0
100
AcDbPoint
 10
2107.9390308883
 20
2106.88761540948
 30
0.0
  0
POINT
  5
7EAE
330
8224
100
AcDbEntity
  8
DEFPOINTS
  6
ByBlock
 62
     0
100
AcDbPoint
 10
1460.967239037908
 20
1561.887615409481
 30
0.0
  0
POINT
  5
7EAF
330
8224
100
AcDbEntity
  8
DEFPOINTS
  6
ByBlock
 62
     0
100
AcDbPoint
 10
1325.965888986877
 20
1561.887615409481
 30
0.0
  0
ENDBLK
  5
7EB0
330
8224
100
AcDbEntity
  8
0
100
AcDbBlockEnd
  0
BLOCK
  5
8227
330
8226
100
AcDbEntity
  8
0
100
AcDbBlockBegin
  2
*D17
 70
     1
 10
0.0
 20
0.0
 30
0.0
  3
*D17
  1

  0
LINE
  5
8176
330
8226
100
AcDbEntity
  8
3
100
AcDbLine
 10
1047.993139438522
 20
1838.184586066368
 30
0.0
 11
746.5199975370998
 21
1838.184586066368
 31
0.0
  0
LINE
  5
8177
330
8226
100
AcDbEntity
  8
3
100
AcDbLine
 10
771.5199975370999
 20
2488.184586066369
 30
0.0
 11
771.5199975370998
 21
1888.184586066368
 31
0.0
  0
INSERT
  5
8178
330
8226
100
AcDbEntity
  8
3
100
AcDbBlockReference
  2
_OPEN
 10
771.5199975370999
 20
2538.184586066368
 30
0.0
 41
50.0
 42
50.0
 43
50.0
 50
90.0
  0
INSERT
  5
8179
330
8226
100
AcDbEntity
  8
3
100
AcDbBlockReference
  2
_OPEN
 10
771.5199975370998
 20
1838.184586066368
 30
0.0
 41
50.0
 42
50.0
 43
50.0
 50
270.0
  0
TEXT
  5
8185
330
8226
100
AcDbEntity
  8
3
100
AcDbText
 10
571.52
 20
2055.43
 30
0.0
 40
75.0
  1
700
100
AcDbText
  0
POINT
  5
817B
330
8226
100
AcDbEntity
  8
DEFPOINTS
 62
     0
100
AcDbPoint
 10
906.521347588132
 20
2538.184586066368
 30
0.0
  0
POINT
  5
817C
330
8226
100
AcDbEntity
  8
DEFPOINTS
 62
     0
100
AcDbPoint
 10
1072.993139438522
 20
1838.184586066368
 30
0.0
  0
POINT
  5
817D
330
8226
100
AcDbEntity
  8
DEFPOINTS
 62
     0
100
AcDbPoint
 10
771.5199975370998
 20
1838.184586066368
 30
0.0
  0
ENDBLK
  5
7EBA
330
8226
100
AcDbEntity
  8
0
100
AcDbBlockEnd
  0
BLOCK
  5
8229
330
8228
100
AcDbEntity
  8
0
100
AcDbBlockBegin
  2
*D18
 70
     1
 10
0.0
 20
0.0
 30
0.0
  3
*D18
  1

  0
LINE
  5
7EE0
330
8228
100
AcDbEntity
  8
0
  6
ByBlock
100
AcDbLine
 10
1559.4390308883
 20
1527.887615409481
 30
0.0
 11
1559.4390308883
 21
2580.097017149203
 31
0.0
  0
LINE
  5
7EE1
330
8228
100
AcDbEntity
  8
0
  6
ByBlock
100
AcDbLine
 10
3377.439030888301
 20
986.8876154094804
 30
0.0
 11
3377.439030888301
 21
2580.097017149203
 31
0.0
  0
LINE
  5
7EE2
330
8228
100
AcDbEntity
  8
0
  6
ByBlock
100
AcDbLine
 10
1609.4390308883
 20
2555.097017149203
 30
0.0
 11
3327.439030888299
 21
2555.097017149203
 31
0.0
  0
INSERT
  5
7EE3
330
8228
100
AcDbEntity
  8
0
  6
ByBlock
100
AcDbBlockReference
  2
_OPEN
 10
1559.4390308883
 20
2555.097017149203
 30
0.0
 41
50.0
 42
50.0
 43
50.0
 50
180.0
  0
INSERT
  5
7EE4
330
8228
100
AcDbEntity
  8
0
  6
ByBlock
100
AcDbBlockReference
  2
_OPEN
 10
3377.439030888301
 20
2555.097017149203
 30
0.0
 41
50.0
 42
50.0
 43
50.0
  0
TEXT
  5
7EE5
330
8228
100
AcDbEntity
  8
3
100
AcDbText
 10
2350.581888031157
 20
2567.597017149203
 30
0.0
 40
75.0
  1
1818
100
AcDbText
  0
POINT
  5
7EE6
330
8228
100
AcDbEntity
  8
DEFPOINTS
  6
ByBlock
 62
     0
100
AcDbPoint
 10
1559.4390308883
 20
1502.887615409481
 30
0.0
  0
POINT
  5
7EE7
330
8228
100
AcDbEntity
  8
DEFPOINTS
  6
ByBlock
 62
     0
100
AcDbPoint
 10
3377.439030888301
 20
961.8876154094804
 30
0.0
  0
POINT
  5
7EE8
330
8228
100
AcDbEntity
  8
DEFPOINTS
  6
ByBlock
 62
     0
100
AcDbPoint
 10
3377.439030888301
 20
2555.097017149203
 30
0.0
  0
ENDBLK
  5
7EE9
330
8228
100
AcDbEntity
  8
0
100
AcDbBlockEnd
  0
BLOCK
  5
822B
330
822A
100
AcDbEntity
  8
0
100
AcDbBlockBegin
  2
_DOT
 70
     0
 10
0.0
 20
0.0
 30
0.0
  3
_DOT
  1

  0
LWPOLYLINE
  5
7F61
330
822A
100
AcDbEntity
  8
0
  6
ByBlock
 62
     0
100
AcDbPolyline
 90
        2
 70
     1
 43
0.25
 10
-0.125
 20
0.0
 42
1.0
 10
0.125
 20
0.0
 42
1.0
  0
LINE
  5
7F65
330
822A
100
AcDbEntity
  8
0
  6
ByBlock
 62
     0
100
AcDbLine
 10
-0.25
 20
0.0
 30
0.0
 11
-1.0
 21
0.0
 31
0.0
  0
ENDBLK
  5
7F37
330
822A
100
AcDbEntity
  8
0
100
AcDbBlockEnd
  0
BLOCK
  5
822D
330
822C
100
AcDbEntity
  8
0
100
AcDbBlockBegin
  2
_NONE
 70
     0
 10
0.0
 20
0.0
 30
0.0
  3
_NONE
  1

  0
CIRCLE
  5
8098
330
822C
100
AcDbEntity
  8
0
  6
ByBlock
 62
     0
100
AcDbCircle
 10
0.0
 20
0.0
 30
0.0
 40
0.25
  0
ENDBLK
  5
8099
330
822C
100
AcDbEntity
  8
0
100
AcDbBlockEnd
  0
BLOCK
  5
822F
330
822E
100
AcDbEntity
  8
0
100
AcDbBlockBegin
  2
*D21
 70
     1
 10
0.0
 20
0.0
 30
0.0
  3
*D21
  1

  0
LINE
  5
80B3
330
822E
100
AcDbEntity
  8
0
  6
ByBlock
 62
     0
100
AcDbLine
 10
1072.993139438522
 20
1813.184586066368
 30
0.0
 11
1072.993139438522
 21
1633.834930046068
 31
0.0
  0
LINE
  5
80B4
330
822E
100
AcDbEntity
  8
0
  6
ByBlock
 62
     0
100
AcDbLine
 10
1572.993139438522
 20
1813.184586066369
 30
0.0
 11
1572.993139438522
 21
1633.834930046068
 31
0.0
  0
LINE
  5
80B5
330
822E
100
AcDbEntity
  8
0
  6
ByBlock
 62
     0
100
AcDbLine
 10
1122.993139438522
 20
1658.834930046068
 30
0.0
 11
1522.993139438522
 21
1658.834930046068
 31
0.0
  0
INSERT
  5
80B6
330
822E
100
AcDbEntity
  8
0
  6
ByBlock
 62
     0
100
AcDbBlockReference
  2
_OPEN
 10
1072.993139438522
 20
1658.834930046068
 30
0.0
 41
50.0
 42
50.0
 43
50.0
 50
180.0
  0
INSERT
  5
80B7
330
822E
100
AcDbEntity
  8
0
  6
ByBlock
 62
     0
100
AcDbBlockReference
  2
_OPEN
 10
1572.993139438522
 20
1658.834930046068
 30
0.0
 41
50.0
 42
50.0
 43
50.0
  0
TEXT
  5
80B8
330
822E
100
AcDbEntity
  8
3
 62
     0
100
AcDbText
 10
1226.564568009951
 20
1683.834930046068
 30
0.0
 40
75.0
  1
500
100
AcDbText
  0
POINT
  5
80B9
330
822E
100
AcDbEntity
  8
DEFPOINTS
  6
ByBlock
 62
     0
100
AcDbPoint
 10
1072.993139438522
 20
1838.184586066368
 30
0.0
  0
POINT
  5
80BA
330
822E
100
AcDbEntity
  8
DEFPOINTS
  6
ByBlock
 62
     0
100
AcDbPoint
 10
1572.993139438522
 20
1838.184586066368
 30
0.0
  0
POINT
  5
80BB
330
822E
100
AcDbEntity
  8
DEFPOINTS
  6
ByBlock
 62
     0
100
AcDbPoint
 10
1572.993139438522
 20
1658.834930046068
 30
0.0
  0
ENDBLK
  5
80BC
330
822E
100
AcDbEntity
  8
0
100
AcDbBlockEnd
  0
BLOCK
  5
8231
330
8230
100
AcDbEntity
  8
0
100
AcDbBlockBegin
  2
*D22
 70
     1
 10
0.0
 20
0.0
 30
0.0
  3
*D22
  1

  0
LINE
  5
80C0
330
8230
100
AcDbEntity
  8
0
  6
ByBlock
 62
     0
100
AcDbLine
 10
1572.993139438522
 20
1813.184586066369
 30
0.0
 11
1572.993139438522
 21
1633.834930046068
 31
0.0
  0
LINE
  5
80C1
330
8230
100
AcDbEntity
  8
0
  6
ByBlock
 62
     0
100
AcDbLine
 10
2822.993139438522
 20
1813.184586066368
 30
0.0
 11
2822.993139438522
 21
1633.834930046068
 31
0.0
  0
LINE
  5
80C2
330
8230
100
AcDbEntity
  8
0
  6
ByBlock
 62
     0
100
AcDbLine
 10
1622.993139438522
 20
1658.834930046068
 30
0.0
 11
2772.993139438522
 21
1658.834930046068
 31
0.0
  0
INSERT
  5
80C3
330
8230
100
AcDbEntity
  8
0
  6
ByBlock
 62
     0
100
AcDbBlockReference
  2
_OPEN
 10
1572.993139438522
 20
1658.834930046068
 30
0.0
 41
50.0
 42
50.0
 43
50.0
 50
180.0
  0
INSERT
  5
80C4
330
8230
100
AcDbEntity
  8
0
  6
ByBlock
 62
     0
100
AcDbBlockReference
  2
_OPEN
 10
2822.993139438522
 20
1658.834930046068
 30
0.0
 41
50.0
 42
50.0
 43
50.0
  0
TEXT
  5
80C5
330
8230
100
AcDbEntity
  8
3
 62
     0
100
AcDbText
 10
2072.993139438522
 20
1683.834930046068
 30
0.0
 40
75.0
  1
1250
100
AcDbText
  0
POINT
  5
80C6
330
8230
100
AcDbEntity
  8
DEFPOINTS
  6
ByBlock
 62
     0
100
AcDbPoint
 10
1572.993139438522
 20
1838.184586066368
 30
0.0
  0
POINT
  5
80C7
330
8230
100
AcDbEntity
  8
DEFPOINTS
  6
ByBlock
 62
     0
100
AcDbPoint
 10
2822.993139438522
 20
1838.184586066368
 30
0.0
  0
POINT
  5
80C8
330
8230
100
AcDbEntity
  8
DEFPOINTS
  6
ByBlock
 62
     0
100
AcDbPoint
 10
2822.993139438522
 20
1658.834930046068
 30
0.0
  0
ENDBLK
  5
80C9
330
8230
100
AcDbEntity
  8
0
100
AcDbBlockEnd
  0
BLOCK
  5
8233
330
8232
100
AcDbEntity
  8
0
100
AcDbBlockBegin
  2
*D23
 70
     1
 10
0.0
 20
0.0
 30
0.0
  3
*D23
  1

  0
LINE
  5
80CD
330
8232
100
AcDbEntity
  8
0
  6
ByBlock
 62
     0
100
AcDbLine
 10
3367.037576512395
 20
1813.184586066368
 30
0.0
 11
3367.037576512395
 21
1633.834930046068
 31
0.0
  0
LINE
  5
80CE
330
8232
100
AcDbEntity
  8
0
  6
ByBlock
 62
     0
100
AcDbLine
 10
4069.037576512396
 20
1813.184586066368
 30
0.0
 11
4069.037576512396
 21
1633.834930046068
 31
0.0
  0
LINE
  5
80CF
330
8232
100
AcDbEntity
  8
0
  6
ByBlock
 62
     0
100
AcDbLine
 10
3417.037576512395
 20
1658.834930046068
 30
0.0
 11
4019.037576512396
 21
1658.834930046068
 31
0.0
  0
INSERT
  5
80D0
330
8232
100
AcDbEntity
  8
0
  6
ByBlock
 62
     0
100
AcDbBlockReference
  2
_OPEN
 10
3367.037576512395
 20
1658.834930046068
 30
0.0
 41
50.0
 42
50.0
 43
50.0
 50
180.0
  0
INSERT
  5
80D1
330
8232
100
AcDbEntity
  8
0
  6
ByBlock
 62
     0
100
AcDbBlockReference
  2
_OPEN
 10
4069.037576512396
 20
1658.834930046068
 30
0.0
 41
50.0
 42
50.0
 43
50.0
  0
TEXT
  5
80D2
330
8232
100
AcDbEntity
  8
3
 62
     0
100
AcDbText
 10
3621.609005083824
 20
1683.834930046068
 30
0.0
 40
75.0
  1
702
100
AcDbText
  0
POINT
  5
80D3
330
8232
100
AcDbEntity
  8
DEFPOINTS
  6
ByBlock
 62
     0
100
AcDbPoint
 10
3367.037576512395
 20
1838.184586066368
 30
0.0
  0
POINT
  5
80D4
330
8232
100
AcDbEntity
  8
DEFPOINTS
  6
ByBlock
 62
     0
100
AcDbPoint
 10
4069.037576512396
 20
1838.184586066368
 30
0.0
  0
POINT
  5
80D5
330
8232
100
AcDbEntity
  8
DEFPOINTS
  6
ByBlock
 62
     0
100
AcDbPoint
 10
4069.037576512396
 20
1658.834930046068
 30
0.0
  0
ENDBLK
  5
80D6
330
8232
100
AcDbEntity
  8
0
100
AcDbBlockEnd
  0
BLOCK
  5
8235
330
8234
100
AcDbEntity
  8
0
100
AcDbBlockBegin
  2
*D24
 70
     1
 10
0.0
 20
0.0
 30
0.0
  3
*D24
  1

  0
LINE
  5
80DA
330
8234
100
AcDbEntity
  8
0
  6
ByBlock
 62
     0
100
AcDbLine
 10
4069.037576512396
 20
1813.184586066368
 30
0.0
 11
4069.037576512396
 21
1633.834930046068
 31
0.0
  0
LINE
  5
80DB
330
8234
100
AcDbEntity
  8
0
  6
ByBlock
 62
     0
100
AcDbLine
 10
4622.037576512395
 20
1813.184586066368
 30
0.0
 11
4622.037576512395
 21
1633.834930046068
 31
0.0
  0
LINE
  5
80DC
330
8234
100
AcDbEntity
  8
0
  6
ByBlock
 62
     0
100
AcDbLine
 10
4119.037576512397
 20
1658.834930046068
 30
0.0
 11
4572.037576512395
 21
1658.834930046068
 31
0.0
  0
INSERT
  5
80DD
330
8234
100
AcDbEntity
  8
0
  6
ByBlock
 62
     0
100
AcDbBlockReference
  2
_OPEN
 10
4069.037576512396
 20
1658.834930046068
 30
0.0
 41
50.0
 42
50.0
 43
50.0
 50
180.0
  0
INSERT
  5
80DE
330
8234
100
AcDbEntity
  8
0
  6
ByBlock
 62
     0
100
AcDbBlockReference
  2
_OPEN
 10
4622.037576512395
 20
1658.834930046068
 30
0.0
 41
50.0
 42
50.0
 43
50.0
  0
TEXT
  5
80DF
330
8234
100
AcDbEntity
  8
3
 62
     0
100
AcDbText
 10
4249.109005083823
 20
1683.834930046068
 30
0.0
 40
75.0
  1
553
100
AcDbText
  0
POINT
  5
80E0
330
8234
100
AcDbEntity
  8
DEFPOINTS
  6
ByBlock
 62
     0
100
AcDbPoint
 10
4069.037576512396
 20
1838.184586066368
 30
0.0
  0
POINT
  5
80E1
330
8234
100
AcDbEntity
  8
DEFPOINTS
  6
ByBlock
 62
     0
100
AcDbPoint
 10
4622.037576512395
 20
1838.184586066368
 30
0.0
  0
POINT
  5
80E2
330
8234
100
AcDbEntity
  8
DEFPOINTS
  6
ByBlock
 62
     0
100
AcDbPoint
 10
4622.037576512395
 20
1658.834930046068
 30
0.0
  0
ENDBLK
  5
80E3
330
8234
100
AcDbEntity
  8
0
100
AcDbBlockEnd
  0
BLOCK
  5
8237
330
8236
100
AcDbEntity
  8
0
100
AcDbBlockBegin
  2
*D25
 70
     1
 10
0.0
 20
0.0
 30
0.0
  3
*D25
  1

  0
LINE
  5
80E7
330
8236
100
AcDbEntity
  8
0
  6
ByBlock
 62
     0
100
AcDbLine
 10
1047.993139438522
 20
1838.184586066368
 30
0.0
 11
587.6346032828479
 21
1838.184586066368
 31
0.0
  0
LINE
  5
80E8
330
8236
100
AcDbEntity
  8
0
  6
ByBlock
 62
     0
100
AcDbLine
 10
1503.493139438523
 20
3083.184586066368
 30
0.0
 11
587.6346032828479
 21
3083.184586066368
 31
0.0
  0
LINE
  5
80E9
330
8236
100
AcDbEntity
  8
0
  6
ByBlock
 62
     0
100
AcDbLine
 10
612.6346032828479
 20
1888.184586066368
 30
0.0
 11
612.6346032828479
 21
3033.184586066368
 31
0.0
  0
INSERT
  5
80EA
330
8236
100
AcDbEntity
  8
0
  6
ByBlock
 62
     0
100
AcDbBlockReference
  2
_OPEN
 10
612.6346032828479
 20
1838.184586066368
 30
0.0
 41
50.0
 42
50.0
 43
50.0
 50
270.0
  0
INSERT
  5
80EB
330
8236
100
AcDbEntity
  8
0
  6
ByBlock
 62
     0
100
AcDbBlockReference
  2
_OPEN
 10
612.6346032828479
 20
3083.184586066368
 30
0.0
 41
50.0
 42
50.0
 43
50.0
 50
90.0
  0
TEXT
  5
80EC
330
8236
100
AcDbEntity
  8
3
 62
     0
100
AcDbText
 10
587.6346032828479
 20
2335.684586066368
 30
0.0
 40
75.0
  1
1245
 50
90.0
100
AcDbText
  0
POINT
  5
80ED
330
8236
100
AcDbEntity
  8
DEFPOINTS
  6
ByBlock
 62
     0
100
AcDbPoint
 10
1072.993139438522
 20
1838.184586066368
 30
0.0
  0
POINT
  5
80EE
330
8236
100
AcDbEntity
  8
DEFPOINTS
  6
ByBlock
 62
     0
100
AcDbPoint
 10
1528.493139438523
 20
3083.184586066368
 30
0.0
  0
POINT
  5
80EF
330
8236
100
AcDbEntity
  8
DEFPOINTS
  6
ByBlock
 62
     0
100
AcDbPoint
 10
612.6346032828479
 20
3083.184586066368
 30
0.0
  0
ENDBLK
  5
80F0
330
8236
100
AcDbEntity
  8
0
100
AcDbBlockEnd
  0
BLOCK
  5
82B9
330
82B8
100
AcDbEntity
  8
0
100
AcDbBlockBegin
  2
*D27
 70
     1
 10
0.0
 20
0.0
 30
0.0
  3
*D27
  1

  0
LINE
  5
830A
330
82B8
100
AcDbEntity
  8
3
 62
     0
370
    -2
100
AcDbLine
 10
3169.037576512395
 20
2783.184586066368
 30
0.0
 11
3169.037576512395
 21
3536.056751173743
 31
0.0
  0
LINE
  5
830B
330
82B8
100
AcDbEntity
  8
3
 62
     0
370
    -2
100
AcDbLine
 10
4069.037576512394
 20
3296.573169067424
 30
0.0
 11
4069.037576512394
 21
3536.056751173743
 31
0.0
  0
LINE
  5
830C
330
82B8
100
AcDbEntity
  8
3
 62
     0
370
    -2
100
AcDbLine
 10
3219.037576512395
 20
3511.056751173743
 30
0.0
 11
4019.037576512395
 21
3511.056751173743
 31
0.0
  0
INSERT
  5
830D
330
82B8
100
AcDbEntity
  8
3
 62
     0
370
    -2
100
AcDbBlockReference
  2
_OPEN
 10
3169.037576512395
 20
3511.056751173743
 30
0.0
 41
50.0
 42
50.0
 43
50.0
 50
180.0
  0
INSERT
  5
830E
330
82B8
100
AcDbEntity
  8
3
 62
     0
370
    -2
100
AcDbBlockReference
  2
_OPEN
 10
4069.037576512394
 20
3511.056751173743
 30
0.0
 41
50.0
 42
50.0
 43
50.0
  0
MTEXT
  5
830F
330
82B8
100
AcDbEntity
  8
3
 62
     0
100
AcDbMText
 10
3619.037576512395
 20
3593.1996083166
 30
0.0
 40
75.0
 41
0.0
 71
     5
 72
     1
  1
\A1;(900)
 73
     1
 44
1.0
1001
ACAD
1000
MTEXTBEGIN
1070
    73
1070
     1
1070
    44
1040
1.0
1070
    74
1070
     0
1000
MTEXTEND
  0
POINT
  5
8310
330
82B8
100
AcDbEntity
  8
DEFPOINTS
 62
     0
100
AcDbPoint
 10
3169.037576512395
 20
2758.184586066368
 30
0.0
  0
POINT
  5
8311
330
82B8
100
AcDbEntity
  8
DEFPOINTS
 62
     0
100
AcDbPoint
 10
4069.037576512394
 20
3271.573169067423
 30
0.0
  0
POINT
  5
8312
330
82B8
100
AcDbEntity
  8
DEFPOINTS
 62
     0
100
AcDbPoint
 10
4069.037576512394
 20
3511.056751173743
 30
0.0
  0
ENDBLK
  5
82BA
330
82B8
100
AcDbEntity
  8
0
100
AcDbBlockEnd
  0
BLOCK
  5
82C6
330
82C5
100
AcDbEntity
  8
0
100
AcDbBlockBegin
  2
*D28
 70
     1
 10
0.0
 20
0.0
 30
0.0
  3
*D28
  1

  0
LINE
  5
8313
330
82C5
100
AcDbEntity
  8
3
 62
     0
370
    -2
100
AcDbLine
 10
4069.037576512394
 20
3296.573169067424
 30
0.0
 11
4069.037576512394
 21
3536.056751173743
 31
0.0
  0
LINE
  5
8314
330
82C5
100
AcDbEntity
  8
3
 62
     0
370
    -2
100
AcDbLine
 10
4679.037576512397
 20
2523.684586066368
 30
0.0
 11
4679.037576512397
 21
3536.056751173743
 31
0.0
  0
LINE
  5
8315
330
82C5
100
AcDbEntity
  8
3
 62
     0
370
    -2
100
AcDbLine
 10
4119.037576512394
 20
3511.056751173743
 30
0.0
 11
4629.037576512398
 21
3511.056751173743
 31
0.0
  0
INSERT
  5
8316
330
82C5
100
AcDbEntity
  8
3
 62
     0
370
    -2
100
AcDbBlockReference
  2
_OPEN
 10
4069.037576512394
 20
3511.056751173743
 30
0.0
 41
50.0
 42
50.0
 43
50.0
 50
180.0
  0
INSERT
  5
8317
330
82C5
100
AcDbEntity
  8
3
 62
     0
370
    -2
100
AcDbBlockReference
  2
_OPEN
 10
4679.037576512397
 20
3511.056751173743
 30
0.0
 41
50.0
 42
50.0
 43
50.0
  0
MTEXT
  5
8318
330
82C5
100
AcDbEntity
  8
3
 62
     0
100
AcDbMText
 10
4374.037576512395
 20
3593.1996083166
 30
0.0
 40
75.0
 41
0.0
 71
     5
 72
     1
  1
\A1;(610)
 73
     1
 44
1.0
1001
ACAD
1000
MTEXTBEGIN
1070
    73
1070
     1
1070
    44
1040
1.0
1070
    74
1070
     0
1000
MTEXTEND
  0
POINT
  5
8319
330
82C5
100
AcDbEntity
  8
DEFPOINTS
 62
     0
100
AcDbPoint
 10
4069.037576512394
 20
3271.573169067423
 30
0.0
  0
POINT
  5
831A
330
82C5
100
AcDbEntity
  8
DEFPOINTS
 62
     0
100
AcDbPoint
 10
4679.037576512397
 20
2498.684586066368
 30
0.0
  0
POINT
  5
831B
330
82C5
100
AcDbEntity
  8
DEFPOINTS
 62
     0
100
AcDbPoint
 10
4679.037576512397
 20
3511.056751173743
 30
0.0
  0
ENDBLK
  5
82C7
330
82C5
100
AcDbEntity
  8
0
100
AcDbBlockEnd
  0
BLOCK
  5
831D
330
831C
100
AcDbEntity
  8
0
100
AcDbBlockBegin
  2
*D29
 70
     1
 10
0.0
 20
0.0
 30
0.0
  3
*D29
  1

  0
LINE
  5
831F
330
831C
100
AcDbEntity
  8
3
 62
     0
370
    -2
100
AcDbLine
 10
2822.993139438522
 20
4274.115042897386
 30
0.0
 11
2822.993139438522
 21
3915.684544112945
 31
0.0
  0
LINE
  5
8320
330
831C
100
AcDbEntity
  8
3
 62
     0
370
    -2
100
AcDbLine
 10
1072.993139438522
 20
4274.115042897386
 30
0.0
 11
1072.993139438522
 21
3915.684544112945
 31
0.0
  0
LINE
  5
8321
330
831C
100
AcDbEntity
  8
3
 62
     0
370
    -2
100
AcDbLine
 10
2818.493139438522
 20
3920.184544112944
 30
0.0
 11
1967.385996581379
 21
3920.184544112944
 31
0.0
  0
LINE
  5
8322
330
831C
100
AcDbEntity
  8
3
 62
     0
370
    -2
100
AcDbLine
 10
1077.493139438522
 20
3920.184544112944
 30
0.0
 11
1928.600282295665
 21
3920.184544112944
 31
0.0
  0
SOLID
  5
8323
330
831C
100
AcDbEntity
  8
3
 62
     0
100
AcDbTrace
 10
2818.493139438522
 20
3920.934544112944
 30
0.0
 11
2818.493139438522
 21
3919.434544112944
 31
0.0
 12
2822.993139438522
 22
3920.184544112944
 32
0.0
 13
2822.993139438522
 23
3920.184544112944
 33
0.0
  0
SOLID
  5
8324
330
831C
100
AcDbEntity
  8
3
 62
     0
100
AcDbTrace
 10
1077.493139438522
 20
3920.934544112944
 30
0.0
 11
1077.493139438522
 21
3919.434544112944
 31
0.0
 12
1072.993139438522
 22
3920.184544112944
 32
0.0
 13
1072.993139438522
 23
3920.184544112944
 33
0.0
  0
MTEXT
  5
8325
330
831C
100
AcDbEntity
  8
3
 62
     0
100
AcDbMText
 10
1947.993139438522
 20
3920.184544112944
 30
0.0
 40
4.5
 41
0.0
 71
     5
 72
     1
  1
\A1;1750.0000
 73
     1
 44
1.0
1001
ACAD
1000
MTEXTBEGIN
1070
    73
1070
     1
1070
    44
1040
1.0
1070
    74
1070
     0
1000
MTEXTEND
  0
POINT
  5
8326
330
831C
100
AcDbEntity
  8
DEFPOINTS
 62
     0
100
AcDbPoint
 10
2822.993139438522
 20
4275.677542897386
 30
0.0
  0
POINT
  5
8327
330
831C
100
AcDbEntity
  8
DEFPOINTS
 62
     0
100
AcDbPoint
 10
1072.993139438522
 20
4275.677542897386
 30
0.0
  0
POINT
  5
8328
330
831C
100
AcDbEntity
  8
DEFPOINTS
 62
     0
100
AcDbPoint
 10
1072.993139438522
 20
3920.184544112944
 30
0.0
  0
ENDBLK
  5
831E
330
831C
100
AcDbEntity
  8
0
100
AcDbBlockEnd
  0
BLOCK
  5
832B
330
832A
100
AcDbEntity
  8
0
100
AcDbBlockBegin
  2
*D30
 70
     1
 10
0.0
 20
0.0
 30
0.0
  3
*D30
  1

  0
LINE
  5
832D
330
832A
100
AcDbEntity
  8
3
 62
     0
370
    -2
100
AcDbLine
 10
1072.993139438522
 20
4250.677542897386
 30
0.0
 11
1072.993139438522
 21
3884.416286490538
 31
0.0
  0
LINE
  5
832E
330
832A
100
AcDbEntity
  8
3
 62
     0
370
    -2
100
AcDbLine
 10
2822.993139438522
 20
4250.677542897386
 30
0.0
 11
2822.993139438522
 21
3884.416286490538
 31
0.0
  0
LINE
  5
832F
330
832A
100
AcDbEntity
  8
3
 62
     0
370
    -2
100
AcDbLine
 10
1122.993139438522
 20
3909.416286490538
 30
0.0
 11
2772.993139438522
 21
3909.416286490538
 31
0.0
  0
INSERT
  5
8330
330
832A
100
AcDbEntity
  8
3
 62
     0
370
    -2
100
AcDbBlockReference
  2
_OPEN
 10
1072.993139438522
 20
3909.416286490538
 30
0.0
 41
50.0
 42
50.0
 43
50.0
 50
180.0
  0
INSERT
  5
8331
330
832A
100
AcDbEntity
  8
3
 62
     0
370
    -2
100
AcDbBlockReference
  2
_OPEN
 10
2822.993139438522
 20
3909.416286490538
 30
0.0
 41
50.0
 42
50.0
 43
50.0
  0
MTEXT
  5
8332
330
832A
100
AcDbEntity
  8
3
 62
     0
100
AcDbMText
 10
1947.993139438522
 20
3971.916286490538
 30
0.0
 40
75.0
 41
0.0
 71
     5
 72
     1
  1
\A1;1750
 73
     1
 44
1.0
1001
ACAD
1000
MTEXTBEGIN
1070
    73
1070
     1
1070
    44
1040
1.0
1070
    74
1070
     0
1000
MTEXTEND
  0
POINT
  5
8333
330
832A
100
AcDbEntity
  8
DEFPOINTS
 62
     0
100
AcDbPoint
 10
1072.993139438522
 20
4275.677542897386
 30
0.0
  0
POINT
  5
8334
330
832A
100
AcDbEntity
  8
DEFPOINTS
 62
     0
100
AcDbPoint
 10
2822.993139438522
 20
4275.677542897386
 30
0.0
  0
POINT
  5
8335
330
832A
100
AcDbEntity
  8
DEFPOINTS
 62
     0
100
AcDbPoint
 10
2822.993139438522
 20
3909.416286490538
 30
0.0
  0
ENDBLK
  5
832C
330
832A
100
AcDbEntity
  8
0
100
AcDbBlockEnd
  0
BLOCK
  5
833E
330
833D
100
AcDbEntity
  8
0
100
AcDbBlockBegin
  2
*D32
 70
     1
 10
0.0
 20
0.0
 30
0.0
  3
*D32
  1

  0
LINE
  5
8349
330
833D
100
AcDbEntity
  8
3
 62
     0
370
    -2
100
AcDbLine
 10
1572.993139438522
 20
3222.771710296242
 30
0.0
 11
1572.993139438522
 21
3408.813332182234
 31
0.0
  0
LINE
  5
834A
330
833D
100
AcDbEntity
  8
3
 62
     0
370
    -2
100
AcDbLine
 10
1014.993139438522
 20
2504.184586066368
 30
0.0
 11
1014.993139438522
 21
3408.813332182234
 31
0.0
  0
LINE
  5
834B
330
833D
100
AcDbEntity
  8
3
 62
     0
370
    -2
100
AcDbLine
 10
1522.993139438522
 20
3383.813332182234
 30
0.0
 11
1064.993139438522
 21
3383.813332182234
 31
0.0
  0
INSERT
  5
834C
330
833D
100
AcDbEntity
  8
3
 62
     0
370
    -2
100
AcDbBlockReference
  2
_OPEN
 10
1572.993139438522
 20
3383.813332182234
 30
0.0
 41
50.0
 42
50.0
 43
50.0
  0
INSERT
  5
834D
330
833D
100
AcDbEntity
  8
3
 62
     0
370
    -2
100
AcDbBlockReference
  2
_OPEN
 10
1014.993139438522
 20
3383.813332182234
 30
0.0
 41
50.0
 42
50.0
 43
50.0
 50
180.0
  0
MTEXT
  5
834E
330
833D
100
AcDbEntity
  8
3
 62
     0
100
AcDbMText
 10
1293.993139438522
 20
3446.313332182234
 30
0.0
 40
75.0
 41
0.0
 71
     5
 72
     1
  1
\A1;558
 73
     1
 44
1.0
1001
ACAD
1000
MTEXTBEGIN
1070
    73
1070
     1
1070
    44
1040
1.0
1070
    74
1070
     0
1000
MTEXTEND
  0
POINT
  5
834F
330
833D
100
AcDbEntity
  8
DEFPOINTS
 62
     0
100
AcDbPoint
 10
1572.993139438522
 20
3197.771710296242
 30
0.0
  0
POINT
  5
8350
330
833D
100
AcDbEntity
  8
DEFPOINTS
 62
     0
100
AcDbPoint
 10
1014.993139438522
 20
2479.184586066368
 30
0.0
  0
POINT
  5
8351
330
833D
100
AcDbEntity
  8
DEFPOINTS
 62
     0
100
AcDbPoint
 10
1014.993139438522
 20
3383.813332182234
 30
0.0
  0
ENDBLK
  5
833F
330
833D
100
AcDbEntity
  8
0
100
AcDbBlockEnd
  0
BLOCK
  5
8354
330
8353
100
AcDbEntity
  8
0
100
AcDbBlockBegin
  2
*D33
 70
     1
 10
0.0
 20
0.0
 30
0.0
  3
*D33
  1

  0
LINE
  5
8356
330
8353
100
AcDbEntity
  8
3
 62
     0
370
    -2
100
AcDbLine
 10
2822.993139438522
 20
1963.184586066368
 30
0.0
 11
2822.993139438522
 21
3593.714402327088
 31
0.0
  0
LINE
  5
8357
330
8353
100
AcDbEntity
  8
3
 62
     0
370
    -2
100
AcDbLine
 10
1014.993139438522
 20
2504.184586066368
 30
0.0
 11
1014.993139438522
 21
3593.714402327088
 31
0.0
  0
LINE
  5
8358
330
8353
100
AcDbEntity
  8
3
 62
     0
370
    -2
100
AcDbLine
 10
2772.993139438522
 20
3568.714402327088
 30
0.0
 11
1064.993139438522
 21
3568.714402327088
 31
0.0
  0
INSERT
  5
8359
330
8353
100
AcDbEntity
  8
3
 62
     0
370
    -2
100
AcDbBlockReference
  2
_OPEN
 10
2822.993139438522
 20
3568.714402327088
 30
0.0
 41
50.0
 42
50.0
 43
50.0
  0
INSERT
  5
835A
330
8353
100
AcDbEntity
  8
3
 62
     0
370
    -2
100
AcDbBlockReference
  2
_OPEN
 10
1014.993139438522
 20
3568.714402327088
 30
0.0
 41
50.0
 42
50.0
 43
50.0
 50
180.0
  0
MTEXT
  5
835B
330
8353
100
AcDbEntity
  8
3
 62
     0
100
AcDbMText
 10
1918.993139438522
 20
3631.214402327088
 30
0.0
 40
75.0
 41
0.0
 71
     5
 72
     1
  1
\A1;1808
 73
     1
 44
1.0
1001
ACAD
1000
MTEXTBEGIN
1070
    73
1070
     1
1070
    44
1040
1.0
1070
    74
1070
     0
1000
MTEXTEND
  0
POINT
  5
835C
330
8353
100
AcDbEntity
  8
DEFPOINTS
 62
     0
100
AcDbPoint
 10
2822.993139438522
 20
1938.184586066368
 30
0.0
  0
POINT
  5
835D
330
8353
100
AcDbEntity
  8
DEFPOINTS
 62
     0
100
AcDbPoint
 10
1014.993139438522
 20
2479.184586066368
 30
0.0
  0
POINT
  5
835E
330
8353
100
AcDbEntity
  8
DEFPOINTS
 62
     0
100
AcDbPoint
 10
1014.993139438522
 20
3568.714402327088
 30
0.0
  0
ENDBLK
  5
8355
330
8353
100
AcDbEntity
  8
0
100
AcDbBlockEnd
  0
BLOCK
  5
8361
330
8360
100
AcDbEntity
  8
0
100
AcDbBlockBegin
  2
*D34
 70
     1
 10
0.0
 20
0.0
 30
0.0
  3
*D34
  1

  0
LINE
  5
836C
330
8360
100
AcDbEntity
  8
3
 62
     0
370
    -2
100
AcDbLine
 10
881.521347588132
 20
2538.184586066368
 30
0.0
 11
746.5199975370998
 21
2538.184586066368
 31
0.0
  0
LINE
  5
836D
330
8360
100
AcDbEntity
  8
3
 62
     0
370
    -2
100
AcDbLine
 10
1047.993139438522
 20
1838.184586066368
 30
0.0
 11
746.5199975370997
 21
1838.184586066368
 31
0.0
  0
LINE
  5
836E
330
8360
100
AcDbEntity
  8
3
 62
     0
370
    -2
100
AcDbLine
 10
771.5199975370998
 20
2488.184586066368
 30
0.0
 11
771.5199975370997
 21
1888.184586066368
 31
0.0
  0
INSERT
  5
836F
330
8360
100
AcDbEntity
  8
3
 62
     0
370
    -2
100
AcDbBlockReference
  2
_OPEN
 10
771.5199975370998
 20
2538.184586066368
 30
0.0
 41
50.0
 42
50.0
 43
50.0
 50
90.0
  0
INSERT
  5
8370
330
8360
100
AcDbEntity
  8
3
 62
     0
370
    -2
100
AcDbBlockReference
  2
_OPEN
 10
771.5199975370997
 20
1838.184586066368
 30
0.0
 41
50.0
 42
50.0
 43
50.0
 50
270.0
  0
MTEXT
  5
8371
330
8360
100
AcDbEntity
  8
3
 62
     0
100
AcDbMText
 10
709.0199975370993
 20
2188.184586066368
 30
0.0
 40
75.0
 41
0.0
 71
     5
 72
     1
  1
\A1;700
 11
0.0000000000000001
 21
1.0
 31
0.0
 73
     1
 44
1.0
1001
ACAD
1000
MTEXTBEGIN
1070
    73
1070
     1
1070
    44
1040
1.0
1070
    74
1070
     0
1000
MTEXTEND
  0
POINT
  5
8372
330
8360
100
AcDbEntity
  8
DEFPOINTS
 62
     0
100
AcDbPoint
 10
906.521347588132
 20
2538.184586066368
 30
0.0
  0
POINT
  5
8373
330
8360
100
AcDbEntity
  8
DEFPOINTS
 62
     0
100
AcDbPoint
 10
1072.993139438522
 20
1838.184586066368
 30
0.0
  0
POINT
  5
8374
330
8360
100
AcDbEntity
  8
DEFPOINTS
 62
     0
100
AcDbPoint
 10
771.5199975370997
 20
1838.184586066368
 30
0.0
  0
ENDBLK
  5
8362
330
8360
100
AcDbEntity
  8
0
100
AcDbBlockEnd
  0
BLOCK
  5
8377
330
8376
100
AcDbEntity
  8
0
100
AcDbBlockBegin
  2
*D35
 70
     1
 10
0.0
 20
0.0
 30
0.0
  3
*D35
  1

  0
LINE
  5
8382
330
8376
100
AcDbEntity
  8
3
 62
     0
370
    -2
100
AcDbLine
 10
2072.993139438522
 20
5555.677542897386
 30
0.0
 11
2072.993139438522
 21
5706.80082644834
 31
0.0
  0
LINE
  5
8383
330
8376
100
AcDbEntity
  8
3
 62
     0
370
    -2
100
AcDbLine
 10
2822.993139438522
 20
5050.677542897386
 30
0.0
 11
2822.993139438522
 21
5706.80082644834
 31
0.0
  0
LINE
  5
8384
330
8376
100
AcDbEntity
  8
3
 62
     0
370
    -2
100
AcDbLine
 10
2122.993139438522
 20
5681.800826448339
 30
0.0
 11
2772.993139438522
 21
5681.800826448339
 31
0.0
  0
INSERT
  5
8385
330
8376
100
AcDbEntity
  8
3
 62
     0
370
    -2
100
AcDbBlockReference
  2
_OPEN
 10
2072.993139438522
 20
5681.800826448339
 30
0.0
 41
50.0
 42
50.0
 43
50.0
 50
180.0
  0
INSERT
  5
8386
330
8376
100
AcDbEntity
  8
3
 62
     0
370
    -2
100
AcDbBlockReference
  2
_OPEN
 10
2822.993139438522
 20
5681.800826448339
 30
0.0
 41
50.0
 42
50.0
 43
50.0
  0
MTEXT
  5
8387
330
8376
100
AcDbEntity
  8
3
 62
     0
100
AcDbMText
 10
2447.993139438522
 20
5744.300826448339
 30
0.0
 40
75.0
 41
0.0
 71
     5
 72
     1
  1
\A1;750
 73
     1
 44
1.0
1001
ACAD
1000
MTEXTBEGIN
1070
    73
1070
     1
1070
    44
1040
1.0
1070
    74
1070
     0
1000
MTEXTEND
  0
POINT
  5
8388
330
8376
100
AcDbEntity
  8
DEFPOINTS
 62
     0
100
AcDbPoint
 10
2072.993139438522
 20
5530.677542897386
 30
0.0
  0
POINT
  5
8389
330
8376
100
AcDbEntity
  8
DEFPOINTS
 62
     0
100
AcDbPoint
 10
2822.993139438522
 20
5025.677542897387
 30
0.0
  0
POINT
  5
838A
330
8376
100
AcDbEntity
  8
DEFPOINTS
 62
     0
100
AcDbPoint
 10
2822.993139438522
 20
5681.800826448339
 30
0.0
  0
ENDBLK
  5
8378
330
8376
100
AcDbEntity
  8
0
100
AcDbBlockEnd
  0
ENDSEC
  0
SECTION
  2
ENTITIES
  0
INSERT
  5
7C00
330
81F4
100
AcDbEntity
  8
0
100
AcDbBlockReference
  2
YA_N
 10
6.0
 20
5.0
 30
0.0
  0
LINE
  5
7C02
330
81F4
100
AcDbEntity
  8
2
100
AcDbLine
 10
1572.993139438522
 20
3197.771710296242
 30
0.0
 11
1572.993139438522
 21
1838.184586066368
 31
0.0
  0
LINE
  5
7C03
330
81F4
100
AcDbEntity
  8
2
100
AcDbLine
 10
906.521347588132
 20
2538.184586066368
 30
0.0
 11
2437.37468309255
 21
2538.184586066368
 31
0.0
  0
LINE
  5
7C11
330
81F4
100
AcDbEntity
  8
1
100
AcDbLine
 10
2372.993139438522
 20
1978.184586066367
 30
0.0
 11
2372.993139438522
 21
1938.184586066368
 31
0.0
  0
LINE
  5
7C12
330
81F4
100
AcDbEntity
  8
1
100
AcDbLine
 10
4569.037576512396
 20
3083.184586066368
 30
0.0
 11
4569.037576512394
 21
2561.184586066369
 31
0.0
  0
LINE
  5
7C15
330
81F4
100
AcDbEntity
  8
2
100
AcDbLine
 10
3179.719645959103
 20
2538.184586066368
 30
0.0
 11
4720.087423091591
 21
2538.184586066368
 31
0.0
  0
LINE
  5
7C16
330
81F4
100
AcDbEntity
  8
2
100
AcDbLine
 10
3179.719645959103
 20
2188.184586066368
 30
0.0
 11
4019.605865391677
 21
2188.184586066368
 31
0.0
  0
LINE
  5
7C17
330
81F4
100
AcDbEntity
  8
1
100
AcDbLine
 10
3301.037576512396
 20
2665.184586066368
 30
0.0
 11
3301.037576512396
 21
2411.184586066368
 31
0.0
  0
LINE
  5
7C18
330
81F4
100
AcDbEntity
  8
1
100
AcDbLine
 10
3169.037576512395
 20
2758.184586066368
 30
0.0
 11
3169.037576512395
 21
1968.184586066368
 31
0.0
  0
LINE
  5
7C19
330
81F4
100
AcDbEntity
  8
1
100
AcDbLine
 10
3169.037576512395
 20
2758.184586066368
 30
0.0
 11
3419.037576512395
 21
2758.184586066368
 31
0.0
  0
LINE
  5
7C1A
330
81F4
100
AcDbEntity
  8
1
100
AcDbLine
 10
3419.037576512395
 20
2758.184586066368
 30
0.0
 11
3419.037576512395
 21
2708.184586066368
 31
0.0
  0
LINE
  5
7C1B
330
81F4
100
AcDbEntity
  8
1
100
AcDbLine
 10
3419.037576512395
 20
2010.680363457705
 30
0.0
 11
3419.037576512395
 21
1968.184586066368
 31
0.0
  0
LINE
  5
7C1C
330
81F4
100
AcDbEntity
  8
2
100
AcDbLine
 10
4069.037576512394
 20
3167.543634216483
 30
0.0
 11
4069.037576512396
 21
1838.184586066368
 31
0.0
  0
POINT
  5
7C1D
330
81F4
100
AcDbEntity
  8
1
100
AcDbPoint
 10
1072.993139438522
 20
1838.184586066368
 30
0.0
  0
POINT
  5
7C1E
330
81F4
100
AcDbEntity
  8
1
100
AcDbPoint
 10
1072.993139438522
 20
1838.184586066368
 30
0.0
  0
POINT
  5
7C1F
330
81F4
100
AcDbEntity
  8
1
100
AcDbPoint
 10
1072.993139438522
 20
1838.184586066368
 30
0.0
  0
INSERT
  5
7C22
330
81F4
100
AcDbEntity
  8
0
100
AcDbBlockReference
  2
YA_N
 10
-733.6448571667497
 20
-271.0302667023643
 30
0.0
 41
20.0
 42
20.0
 43
20.0
  0
DIMENSION
  5
7C25
330
81F4
100
AcDbEntity
  8
3
100
AcDbDimension
  2
*D4
 10
1595.993139438523
 20
3231.529929608432
 30
0.0
 11
2008.493139438523
 21
3281.529929608431
 31
0.0
 12
-554.4458914497773
 22
976.2969706568872
 32
0.0
 71
     5
 42
-1.0
  3
Standard
100
AcDbAlignedDimension
 13
2420.993139438523
 23
3083.184586066368
 33
0.0
 14
1595.993139438523
 24
3083.184586066368
 34
0.0
100
AcDbRotatedDimension
1001
ACAD
1000
DSTYLE
1002
{
1070
    40
1040
25.0
1002
}
  0
DIMENSION
  5
7C26
330
81F4
100
AcDbEntity
  8
3
100
AcDbDimension
  2
*D5
 10
1572.993139438522
 20
3383.813332182235
 30
0.0
 11
1996.993139438523
 21
3433.813332182236
 31
0.0
 12
-554.4458914497773
 22
976.2969706568872
 32
0.0
 71
     5
 42
-1.0
  3
Standard
100
AcDbAlignedDimension
 13
2420.993139438523
 23
3083.184586066368
 33
0.0
 14
1572.993139438522
 24
3204.656377916759
 34
0.0
100
AcDbRotatedDimension
1001
ACAD
1000
DSTYLE
1002
{
1070
    40
1040
25.0
1002
}
  0
LINE
  5
7C27
330
81F4
100
AcDbEntity
  8
1
100
AcDbLine
 10
2707.452039438523
 20
2097.872586066368
 30
0.0
 11
2726.993139438522
 21
2044.184586066367
 31
0.0
  0
LINE
  5
7C28
330
81F4
100
AcDbEntity
  8
1
100
AcDbLine
 10
2438.546339438522
 20
2097.905586066368
 30
0.0
 11
2418.993139438522
 21
2044.184586066367
 31
0.0
  0
ARC
  5
7C29
330
81F4
100
AcDbEntity
  8
1
100
AcDbCircle
 10
2572.993139438522
 20
2188.184586066368
 30
0.0
 40
162.0
100
AcDbArc
 50
326.1051229528019
 51
0.0
  0
ARC
  5
7C2A
330
81F4
100
AcDbEntity
  8
1
100
AcDbCircle
 10
2572.993139438522
 20
2188.184586066368
 30
0.0
 40
162.0
100
AcDbArc
 50
0.0
 51
213.8949135395933
  0
LINE
  5
7C2B
330
81F4
100
AcDbEntity
  8
2
100
AcDbLine
 10
2572.993139438522
 20
2366.634354153555
 30
0.0
 11
2572.993139438522
 21
1838.184586066368
 31
0.0
  0
LINE
  5
7C2C
330
81F4
100
AcDbEntity
  8
1
100
AcDbLine
 10
2418.993139438522
 20
2028.184586066367
 30
0.0
 11
2418.993139438522
 21
2044.184586066367
 31
0.0
  0
LINE
  5
7C2D
330
81F4
100
AcDbEntity
  8
1
100
AcDbLine
 10
2726.993139438522
 20
2028.184586066367
 30
0.0
 11
2726.993139438522
 21
2044.184586066367
 31
0.0
  0
LINE
  5
7C2E
330
81F4
100
AcDbEntity
  8
2
100
AcDbLine
 10
2384.88269537585
 20
2188.184586066368
 30
0.0
 11
2759.961500405879
 21
2188.184586066367
 31
0.0
  0
LINE
  5
7C2F
330
81F4
100
AcDbEntity
  8
1
100
AcDbLine
 10
2761.507782704563
 20
2028.184586066367
 30
0.0
 11
2384.238271823711
 21
2028.184586066367
 31
0.0
  0
LINE
  5
7C30
330
81F4
100
AcDbEntity
  8
1
100
AcDbLine
 10
2370.993139438522
 20
1978.184586066367
 30
0.0
 11
2384.238271823711
 21
2028.184586066367
 31
0.0
  0
LINE
  5
7C31
330
81F4
100
AcDbEntity
  8
1
100
AcDbLine
 10
2774.993139438523
 20
1978.184586066367
 30
0.0
 11
2761.507782704562
 21
2028.184586066367
 31
0.0
  0
CIRCLE
  5
7C32
330
81F4
100
AcDbEntity
  8
1
100
AcDbCircle
 10
2572.993139438522
 20
2188.184586066368
 30
0.0
 40
110.0
  0
CIRCLE
  5
7C33
330
81F4
100
AcDbEntity
  8
1
100
AcDbCircle
 10
1572.993139438522
 20
2538.184586066368
 30
0.0
 40
127.0
  0
LINE
  5
7C34
330
81F4
100
AcDbEntity
  8
1
100
AcDbLine
 10
3301.037576512396
 20
2665.184586066368
 30
0.0
 11
3386.037576512395
 21
2665.184586066368
 31
0.0
  0
LINE
  5
7C35
330
81F4
100
AcDbEntity
  8
1
100
AcDbLine
 10
3301.037576512396
 20
2411.184586066368
 30
0.0
 11
3386.037576512396
 21
2411.184586066368
 31
0.0
  0
LINE
  5
7C36
330
81F4
100
AcDbEntity
  8
1
100
AcDbLine
 10
3301.037576512396
 20
2298.184586066368
 30
0.0
 11
3386.037576512395
 21
2298.184586066368
 31
0.0
  0
LINE
  5
7C37
330
81F4
100
AcDbEntity
  8
1
100
AcDbLine
 10
3301.037576512396
 20
2078.184586066368
 30
0.0
 11
3386.037576512395
 21
2078.184586066368
 31
0.0
  0
LINE
  5
7C38
330
81F4
100
AcDbEntity
  8
1
100
AcDbLine
 10
3169.037576512395
 20
1968.184586066368
 30
0.0
 11
3419.037576512395
 21
1968.184586066368
 31
0.0
  0
LINE
  5
7C39
330
81F4
100
AcDbEntity
  8
1
100
AcDbLine
 10
3386.037576512395
 20
2665.184586066368
 30
0.0
 11
3386.037576512395
 21
2411.184586066368
 31
0.0
  0
INSERT
  5
7C3A
330
81F4
100
AcDbEntity
  8
0
100
AcDbBlockReference
  2
YA_N
 10
-36.73462870802178
 20
301.6536876033205
 30
0.0
 41
20.0
 42
20.0
 43
20.0
  0
INSERT
  5
7C3C
330
81F4
100
AcDbEntity
  8
0
100
AcDbBlockReference
  2
YA_N
 10
77.48489664613955
 20
225.3119777640749
 30
0.0
 41
20.0
 42
20.0
 43
20.0
  0
POINT
  5
7C43
330
81F4
100
AcDbEntity
  8
1
100
AcDbPoint
 10
1072.993139438522
 20
1838.184586066368
 30
0.0
  0
POINT
  5
7C49
330
81F4
100
AcDbEntity
  8
1
100
AcDbPoint
 10
1072.993139438522
 20
1838.184586066368
 30
0.0
  0
LINE
  5
7C4A
330
81F4
100
AcDbEntity
  8
1
100
AcDbLine
 10
4069.037576512394
 20
3083.184586066368
 30
0.0
 11
4609.037576512396
 21
3083.184586066368
 31
0.0
  0
LINE
  5
7C4C
330
81F4
100
AcDbEntity
  8
1
100
AcDbLine
 10
4569.037576512395
 20
2561.184586066369
 30
0.0
 11
4569.037576512395
 21
1938.184586066368
 31
0.0
  0
LINE
  5
7C4E
330
81F4
100
AcDbEntity
  8
1
100
AcDbLine
 10
3569.037576512395
 20
2561.184586066369
 30
0.0
 11
3569.037576512395
 21
2350.184586066368
 31
0.0
  0
LINE
  5
7C4F
330
81F4
100
AcDbEntity
  8
1
100
AcDbLine
 10
3569.037576512395
 20
3083.184586066368
 30
0.0
 11
3569.037576512397
 21
2561.184586066369
 31
0.0
  0
LINE
  5
7C50
330
81F4
100
AcDbEntity
  8
1
100
AcDbLine
 10
4069.037576512394
 20
3083.184586066368
 30
0.0
 11
3529.037576512396
 21
3083.184586066368
 31
0.0
  0
LINE
  5
7C51
330
81F4
100
AcDbEntity
  8
1
100
AcDbLine
 10
3431.037576512395
 20
2502.384586066368
 30
0.0
 11
3431.037576512395
 21
2372.384586066369
 31
0.0
  0
LINE
  5
7C52
330
81F4
100
AcDbEntity
  8
1
100
AcDbLine
 10
3441.037576512395
 20
2512.38458606637
 30
0.0
 11
3569.037576512395
 21
2512.384586066367
 31
0.0
  0
LINE
  5
7C53
330
81F4
100
AcDbEntity
  8
1
100
AcDbLine
 10
3441.037576512395
 20
2362.384586066368
 30
0.0
 11
3569.037576512395
 21
2362.384586066368
 31
0.0
  0
ARC
  5
7C54
330
81F4
100
AcDbEntity
  8
1
100
AcDbCircle
 10
3441.037576512395
 20
2502.384586066368
 30
0.0
 40
10.0
100
AcDbArc
 50
90.0
 51
180.0
  0
ARC
  5
7C55
330
81F4
100
AcDbEntity
  8
1
100
AcDbCircle
 10
3441.037576512395
 20
2372.384586066369
 30
0.0
 40
10.0
100
AcDbArc
 50
180.0
 51
270.0
  0
LINE
  5
7C56
330
81F4
100
AcDbEntity
  8
1
100
AcDbLine
 10
4679.037576512397
 20
2498.684586066368
 30
0.0
 11
4679.037576512397
 21
2398.684586066368
 31
0.0
  0
ARC
  5
7C57
330
81F4
100
AcDbEntity
  8
1
100
AcDbCircle
 10
4669.037576512397
 20
2398.684586066368
 30
0.0
 40
10.0
100
AcDbArc
 50
270.0
 51
0.0
  0
ARC
  5
7C58
330
81F4
100
AcDbEntity
  8
1
100
AcDbCircle
 10
4669.037576512397
 20
2498.684586066368
 30
0.0
 40
10.0
100
AcDbArc
 50
0.0
 51
90.0
  0
LINE
  5
7C59
330
81F4
100
AcDbEntity
  8
1
100
AcDbLine
 10
4569.037576512395
 20
2388.684586066368
 30
0.0
 11
4669.037576512397
 21
2388.684586066367
 31
0.0
  0
LINE
  5
7C5A
330
81F4
100
AcDbEntity
  8
1
100
AcDbLine
 10
4569.037576512395
 20
2508.684586066369
 30
0.0
 11
4669.037576512397
 21
2508.684586066368
 31
0.0
  0
LINE
  5
7C5B
330
81F4
100
AcDbEntity
  8
1
100
AcDbLine
 10
2772.993139438523
 20
1978.184586066367
 30
0.0
 11
2772.993139438523
 21
1938.184586066368
 31
0.0
  0
POINT
  5
7C5C
330
81F4
100
AcDbEntity
  8
1
100
AcDbPoint
 10
4679.037576512397
 20
2498.684586066368
 30
0.0
  0
LINE
  5
7C5D
330
81F4
100
AcDbEntity
  8
1
100
AcDbLine
 10
2822.993139438522
 20
4275.677542897386
 30
0.0
 11
1072.993139438522
 21
4275.677542897386
 31
0.0
  0
LINE
  5
7C5E
330
81F4
100
AcDbEntity
  8
1
100
AcDbLine
 10
2072.993139438522
 20
5530.677542897386
 30
0.0
 11
1072.993139438522
 21
5530.677542897386
 31
0.0
  0
LINE
  5
7C5F
330
81F4
100
AcDbEntity
  8
1
100
AcDbLine
 10
1072.993139438522
 20
5530.677542897386
 30
0.0
 11
1072.993139438522
 21
5477.677542897385
 31
0.0
  0
LINE
  5
7C60
330
81F4
100
AcDbEntity
  8
1
100
AcDbLine
 10
2822.993139438522
 20
5025.677542897387
 30
0.0
 11
2822.993139438522
 21
4275.677542897386
 31
0.0
  0
LINE
  5
7C61
330
81F4
100
AcDbEntity
  8
1
100
AcDbLine
 10
2072.993139438522
 20
5530.677542897386
 30
0.0
 11
2072.993139438522
 21
5477.677542897388
 31
0.0
  0
LINE
  5
7C62
330
81F4
100
AcDbEntity
  8
1
100
AcDbLine
 10
2822.993139438522
 20
5025.677542897387
 30
0.0
 11
2420.993139438523
 21
5025.677542897387
 31
0.0
  0
LINE
  5
7C63
330
81F4
100
AcDbEntity
  8
2
100
AcDbLine
 10
2306.719024580798
 20
4977.677542897388
 30
0.0
 11
992.6007710300915
 21
4977.677542897386
 31
0.0
  0
LINE
  5
7C64
330
81F4
100
AcDbEntity
  8
2
100
AcDbLine
 10
1572.993139438523
 20
5563.661458434314
 30
0.0
 11
1572.993139438522
 21
4040.813891747249
 31
0.0
  0
LINE
  5
7C65
330
81F4
100
AcDbEntity
  8
2
100
AcDbLine
 10
2572.993139438522
 20
4892.167532381333
 30
0.0
 11
2572.993139438522
 21
4040.813891747249
 31
0.0
  0
LINE
  5
7C68
330
81F4
100
AcDbEntity
  8
1
100
AcDbLine
 10
4622.037576512395
 20
1938.184586066368
 30
0.0
 11
4622.037576512395
 21
1838.184586066368
 31
0.0
  0
LINE
  5
7C69
330
81F4
100
AcDbEntity
  8
1
100
AcDbLine
 10
3367.037576512394
 20
1938.184586066368
 30
0.0
 11
4622.037576512393
 21
1938.184586066368
 31
0.0
1001
ACAD
1000
ASC_BOUNDS
1002
{
1070
    19
1002
}
  0
LINE
  5
7C6A
330
81F4
100
AcDbEntity
  8
1
100
AcDbLine
 10
3367.037576512395
 20
1838.184586066368
 30
0.0
 11
4622.037576512395
 21
1838.184586066368
 31
0.0
  0
LINE
  5
7C6B
330
81F4
100
AcDbEntity
  8
1
100
AcDbLine
 10
3367.037576512395
 20
1938.184586066368
 30
0.0
 11
3367.037576512395
 21
1838.184586066368
 31
0.0
  0
DIMENSION
  5
7C6C
330
81F4
100
AcDbEntity
  8
3
100
AcDbDimension
  2
*D6
 10
4870.560987409372
 20
2113.184586066368
 30
0.0
 11
4820.560987409372
 21
2538.184586066368
 31
0.0
 12
-844.8699286002481
 22
976.2969706568872
 32
0.0
 71
     5
 42
-1.0
  3
Standard
100
AcDbAlignedDimension
 13
4571.337576512394
 23
2963.184586066368
 33
0.0
 14
4571.337576512394
 24
2113.184586066368
 34
0.0
 50
90.0
100
AcDbRotatedDimension
1001
ACAD
1000
DSTYLE
1002
{
1070
    40
1040
25.0
1070
     3
1000
\U+03C6<>
1002
}
  0
LINE
  5
7C6D
330
81F4
100
AcDbEntity
  8
1
100
AcDbLine
 10
3386.037576512395
 20
2568.184586066368
 30
0.0
 11
3569.037576512397
 21
2568.184586066368
 31
0.0
  0
LINE
  5
7C6E
330
81F4
100
AcDbEntity
  8
1
100
AcDbLine
 10
3386.037576512395
 20
2508.184586066369
 30
0.0
 11
3432.89141177063
 21
2508.184586066368
 31
0.0
  0
ARC
  5
7C70
330
81F4
100
AcDbEntity
  8
1
100
AcDbCircle
 10
1572.993139438522
 20
2538.184586066368
 30
0.0
 40
220.0
100
AcDbArc
 50
76.50426671920421
 51
256.5042667192043
  0
ARC
  5
7C71
330
81F4
100
AcDbEntity
  8
1
100
AcDbCircle
 10
2572.993139438523
 20
2188.184586066368
 30
0.0
 40
220.0
100
AcDbArc
 50
256.5042667192043
 51
76.50426671920415
  0
LINE
  5
7C72
330
81F4
100
AcDbEntity
  8
1
100
AcDbLine
 10
1624.335188983093
 20
2752.109792502082
 30
0.0
 11
2624.335188983093
 21
2402.109792502083
 31
0.0
  0
LINE
  5
7C73
330
81F4
100
AcDbEntity
  8
1
100
AcDbLine
 10
1604.668869156714
 20
2661.17095989217
 30
0.0
 11
2600.42881084798
 21
2294.70821693911
 31
0.0
  0
LINE
  5
7C74
330
81F4
100
AcDbEntity
  8
1
100
AcDbLine
 10
1545.400238767228
 20
2414.218333269309
 30
0.0
 11
2549.093776652362
 21
2080.812241124033
 31
0.0
  0
LINE
  5
7C75
330
81F4
100
AcDbEntity
  8
1
100
AcDbLine
 10
1521.651089893951
 20
2324.259379630655
 30
0.0
 11
2521.651089893951
 21
1974.259379630653
 31
0.0
  0
LINE
  5
7C76
330
81F4
100
AcDbEntity
  8
1
100
AcDbLine
 10
2822.993139438522
 20
1838.184586066368
 30
0.0
 11
1072.993139438522
 21
1838.184586066368
 31
0.0
  0
LINE
  5
7C77
330
81F4
100
AcDbEntity
  8
1
100
AcDbLine
 10
1072.993139438522
 20
1938.184586066368
 30
0.0
 11
2822.993139438522
 21
1938.184586066368
 31
0.0
1001
ACAD
1000
ASC_BOUNDS
1002
{
1070
    19
1005
0
1005
0
1002
}
  0
LINE
  5
7C78
330
81F4
100
AcDbEntity
  8
1
100
AcDbLine
 10
2822.993139438522
 20
1938.184586066368
 30
0.0
 11
2822.993139438522
 21
1838.184586066368
 31
0.0
  0
LINE
  5
7C79
330
81F4
100
AcDbEntity
  8
1
100
AcDbLine
 10
1072.993139438522
 20
1938.184586066368
 30
0.0
 11
1072.993139438522
 21
1838.184586066368
 31
0.0
  0
CIRCLE
  5
7C7B
330
81F4
100
AcDbEntity
  8
1
100
AcDbCircle
 10
1572.993139438522
 20
2538.184586066368
 30
0.0
 40
425.0
  0
CIRCLE
  5
7C7C
330
81F4
100
AcDbEntity
  8
1
100
AcDbCircle
 10
1572.993139438522
 20
2538.184586066368
 30
0.0
 40
465.0
  0
LINE
  5
7C7D
330
81F4
100
AcDbEntity
  8
1
100
AcDbLine
 10
2370.993139438522
 20
1978.184586066367
 30
0.0
 11
2774.993139438523
 21
1978.184586066367
 31
0.0
  0
POINT
  5
7C80
330
81F4
100
AcDbEntity
  8
1
100
AcDbPoint
 10
1072.993139438522
 20
1838.184586066368
 30
0.0
  0
LINE
  5
7C81
330
81F4
100
AcDbEntity
  8
1
100
AcDbLine
 10
2420.993139438523
 20
5477.677542897389
 30
0.0
 11
1004.993139438523
 21
5477.677542897386
 31
0.0
  0
LINE
  5
7C82
330
81F4
100
AcDbEntity
  8
1
100
AcDbLine
 10
2420.993139438522
 20
4477.677542897387
 30
0.0
 11
1004.993139438522
 21
4477.677542897384
 31
0.0
  0
LINE
  5
7C83
330
81F4
100
AcDbEntity
  8
1
100
AcDbLine
 10
1072.993139438522
 20
4477.677542897384
 30
0.0
 11
1072.993139438522
 21
4275.677542897386
 31
0.0
  0
DIMENSION
  5
7C89
330
81F4
100
AcDbEntity
  8
3
100
AcDbDimension
  2
*D7
 10
1072.993139438522
 20
5681.800826448338
 30
0.0
 11
1572.993139438523
 21
5731.800826448338
 31
0.0
 12
-554.4458914497773
 22
976.2969706568872
 32
0.0
 71
     5
 42
-1.0
  3
Standard
100
AcDbAlignedDimension
 13
2072.993139438522
 23
5530.677542897386
 33
0.0
 14
1072.993139438522
 24
5530.677542897386
 34
0.0
100
AcDbRotatedDimension
1001
ACAD
1000
DSTYLE
1002
{
1070
    40
1040
25.0
1002
}
  0
DIMENSION
  5
7C8A
330
81F4
100
AcDbEntity
  8
3
100
AcDbDimension
  2
*D8
 10
855.0564112886332
 20
4275.677542897386
 30
0.0
 11
855.0564112886332
 21
4903.177542897387
 31
0.0
 12
-554.4458914497773
 22
976.2969706568872
 32
0.0
 70
   128
 71
     5
 42
-1.0
  3
Standard
100
AcDbAlignedDimension
 13
1072.993139438522
 23
5530.677542897386
 33
0.0
 14
1072.993139438522
 24
4275.677542897386
 34
0.0
 50
270.0
100
AcDbRotatedDimension
1001
ACAD
1000
DSTYLE
1002
{
1070
    40
1040
25.0
1002
}
  0
DIMENSION
  5
7C8B
330
81F4
100
AcDbEntity
  8
3
100
AcDbDimension
  2
*D9
 10
2975.145968561836
 20
4275.677542897386
 30
0.0
 11
2925.145968561835
 21
4650.677542897386
 31
0.0
 12
-554.4458914497773
 22
976.2969706568872
 32
0.0
 71
     5
 42
-1.0
  3
Standard
100
AcDbAlignedDimension
 13
2822.993139438522
 23
5025.677542897387
 33
0.0
 14
2822.993139438522
 24
4275.677542897386
 34
0.0
 50
270.0
100
AcDbRotatedDimension
1001
ACAD
1000
DSTYLE
1002
{
1070
    40
1040
25.0
1002
}
  0
LINE
  5
7C8C
330
81F4
100
AcDbEntity
  8
1
100
AcDbLine
 10
2682.993139438523
 20
4209.677542897389
 30
0.0
 11
2462.993139438522
 21
4209.677542897387
 31
0.0
  0
LINE
  5
7C8D
330
81F4
100
AcDbEntity
  8
1
100
AcDbLine
 10
2682.993139438523
 20
4294.677542897388
 30
0.0
 11
2462.993139438523
 21
4294.677542897388
 31
0.0
  0
LINE
  5
7C8E
330
81F4
100
AcDbEntity
  8
1
100
AcDbLine
 10
1445.993139438522
 20
4294.677542897387
 30
0.0
 11
1445.993139438522
 21
4209.677542897387
 31
0.0
  0
LINE
  5
7C8F
330
81F4
100
AcDbEntity
  8
1
100
AcDbLine
 10
1699.993139438522
 20
4294.677542897388
 30
0.0
 11
1699.993139438522
 21
4209.677542897387
 31
0.0
  0
LINE
  5
7C90
330
81F4
100
AcDbEntity
  8
1
100
AcDbLine
 10
2462.993139438522
 20
4294.677542897388
 30
0.0
 11
2462.993139438522
 21
4209.677542897389
 31
0.0
  0
LINE
  5
7C91
330
81F4
100
AcDbEntity
  8
1
100
AcDbLine
 10
2682.993139438523
 20
4294.67754289739
 30
0.0
 11
2682.993139438523
 21
4209.677542897389
 31
0.0
  0
LINE
  5
7C92
330
81F4
100
AcDbEntity
  8
1
100
AcDbLine
 10
1699.993139438522
 20
4209.677542897387
 30
0.0
 11
1445.993139438522
 21
4209.677542897387
 31
0.0
  0
LINE
  5
7C93
330
81F4
100
AcDbEntity
  8
1
100
AcDbLine
 10
1699.993139438522
 20
4294.677542897388
 30
0.0
 11
1445.993139438522
 21
4294.677542897387
 31
0.0
  0
LINE
  5
7C94
330
81F4
100
AcDbEntity
  8
1
100
AcDbLine
 10
2792.993139438522
 20
4077.677542897389
 30
0.0
 11
1352.993139438521
 21
4077.677542897386
 31
0.0
  0
LINE
  5
7C95
330
81F4
100
AcDbEntity
  8
1
100
AcDbLine
 10
1352.993139438522
 20
4324.677542897386
 30
0.0
 11
1352.993139438522
 21
4077.677542897386
 31
0.0
  0
LINE
  5
7C96
330
81F4
100
AcDbEntity
  8
1
100
AcDbLine
 10
2792.993139438522
 20
4324.677542897389
 30
0.0
 11
2792.993139438522
 21
4077.677542897389
 31
0.0
  0
LINE
  5
7C97
330
81F4
100
AcDbEntity
  8
1
100
AcDbLine
 10
2792.993139438522
 20
4324.677542897389
 30
0.0
 11
1352.993139438521
 21
4324.677542897386
 31
0.0
  0
POINT
  5
7C99
330
81F4
100
AcDbEntity
  8
1
100
AcDbPoint
 10
4679.037576512397
 20
2498.684586066368
 30
0.0
  0
DIMENSION
  5
7C9A
330
81F4
100
AcDbEntity
  8
3
100
AcDbDimension
  2
*D11
 10
4569.037576512396
 20
3184.073169067424
 30
0.0
 11
4069.037576512394
 21
3234.073169067424
 31
0.0
 71
     5
 42
-1.0
  3
Standard
100
AcDbAlignedDimension
 13
3569.037576512395
 23
3083.184586066368
 33
0.0
 14
4569.037576512396
 24
3083.184586066368
 34
0.0
100
AcDbRotatedDimension
1001
ACAD
1000
DSTYLE
1002
{
1070
    40
1040
25.0
1002
}
  0
POINT
  5
7C9B
330
81F4
100
AcDbEntity
  8
1
100
AcDbPoint
 10
4679.037576512397
 20
2498.684586066368
 30
0.0
  0
POINT
  5
7C9C
330
81F4
100
AcDbEntity
  8
1
100
AcDbPoint
 10
3169.037576512395
 20
2758.184586066368
 30
0.0
  0
LINE
  5
7C9D
330
81F4
100
AcDbEntity
  8
1
100
AcDbLine
 10
2734.993139438522
 20
4864.17754289739
 30
0.0
 11
2420.993139438523
 21
4864.177542897387
 31
0.0
  0
LINE
  5
7C9E
330
81F4
100
AcDbEntity
  8
1
100
AcDbLine
 10
2734.993139438522
 20
4335.177542897389
 30
0.0
 11
2410.993139438522
 21
4335.177542897387
 31
0.0
  0
LINE
  5
7C9F
330
81F4
100
AcDbEntity
  8
1
100
AcDbLine
 10
2551.993139438522
 20
4335.177542897389
 30
0.0
 11
2551.993139438522
 21
4294.677542897388
 31
0.0
  0
LINE
  5
7CA0
330
81F4
100
AcDbEntity
  8
1
100
AcDbLine
 10
2593.993139438522
 20
4335.177542897389
 30
0.0
 11
2593.993139438522
 21
4294.677542897388
 31
0.0
  0
LINE
  5
7CA1
330
81F4
100
AcDbEntity
  8
1
100
AcDbLine
 10
2734.993139438522
 20
4864.17754289739
 30
0.0
 11
2734.993139438522
 21
4335.177542897389
 31
0.0
  0
LINE
  5
7CA2
330
81F4
100
AcDbEntity
  8
1
100
AcDbLine
 10
2410.993139438522
 20
4477.677542897387
 30
0.0
 11
2410.993139438522
 21
4335.177542897387
 31
0.0
  0
LINE
  5
7CA3
330
81F4
100
AcDbEntity
  8
1
100
AcDbLine
 10
3955.537576512394
 20
2026.184586066368
 30
0.0
 11
3426.537576512394
 21
2026.184586066368
 31
0.0
  0
LINE
  5
7CA4
330
81F4
100
AcDbEntity
  8
1
100
AcDbLine
 10
3955.537576512396
 20
2350.184586066368
 30
0.0
 11
3426.537576512397
 21
2350.184586066368
 31
0.0
  0
LINE
  5
7CA5
330
81F4
100
AcDbEntity
  8
1
100
AcDbLine
 10
3426.537576512397
 20
2350.184586066368
 30
0.0
 11
3426.537576512393
 21
2026.184586066368
 31
0.0
  0
LINE
  5
7CA6
330
81F4
100
AcDbEntity
  8
1
100
AcDbLine
 10
3426.537576512395
 20
2209.184586066368
 30
0.0
 11
3386.037576512396
 21
2209.184586066368
 31
0.0
  0
LINE
  5
7CA7
330
81F4
100
AcDbEntity
  8
1
100
AcDbLine
 10
3426.537576512395
 20
2167.184586066368
 30
0.0
 11
3386.037576512396
 21
2167.184586066368
 31
0.0
  0
LINE
  5
7CA8
330
81F4
100
AcDbEntity
  8
1
100
AcDbLine
 10
3386.037576512395
 20
2298.184586066368
 30
0.0
 11
3386.037576512395
 21
2078.184586066368
 31
0.0
  0
LINE
  5
7CA9
330
81F4
100
AcDbEntity
  8
1
100
AcDbLine
 10
3301.037576512396
 20
2298.184586066368
 30
0.0
 11
3301.037576512396
 21
2078.184586066368
 31
0.0
  0
DIMENSION
  5
7CB1
330
81F4
100
AcDbEntity
  8
3
100
AcDbDimension
  2
*D16
 10
771.5199975370998
 20
2538.184586066368
 30
0.0
 11
721.5199975370998
 21
2810.684586066368
 31
0.0
 12
-554.4458914497773
 22
976.2969706568872
 32
0.0
 71
     5
 42
-1.0
  3
Standard
100
AcDbAlignedDimension
 13
1553.493139438523
 23
3083.184586066368
 33
0.0
 14
906.521347588132
 24
2538.184586066368
 34
0.0
 50
270.0
100
AcDbRotatedDimension
1001
ACAD
1000
DSTYLE
1002
{
1070
    40
1040
25.0
1002
}
  0
LINE
  5
7CB7
330
81F4
100
AcDbEntity
  8
1
100
AcDbLine
 10
4069.037576512394
 20
3080.184586066368
 30
0.0
 11
3529.037576512396
 21
3080.184586066367
 31
0.0
  0
LINE
  5
7CB8
330
81F4
100
AcDbEntity
  8
1
100
AcDbLine
 10
4069.037576512394
 20
3080.184586066368
 30
0.0
 11
4609.037576512396
 21
3080.184586066367
 31
0.0
  0
LINE
  5
7CB9
330
81F4
100
AcDbEntity
  8
1
100
AcDbLine
 10
3529.037576512395
 20
3083.184586066368
 30
0.0
 11
3529.037576512396
 21
3080.184586066367
 31
0.0
  0
LINE
  5
7CBA
330
81F4
100
AcDbEntity
  8
1
100
AcDbLine
 10
4609.037576512396
 20
3083.184586066368
 30
0.0
 11
4609.037576512397
 21
3080.184586066367
 31
0.0
  0
LINE
  5
7CBB
330
81F4
100
AcDbEntity
  8
1
100
AcDbLine
 10
2420.993139438524
 20
5477.677542897389
 30
0.0
 11
2420.993139438522
 21
4477.677542897387
 31
0.0
  0
LINE
  5
7CBC
330
81F4
100
AcDbEntity
  8
1
100
AcDbLine
 10
1004.993139438523
 20
5477.677542897386
 30
0.0
 11
1004.993139438522
 21
4477.677542897384
 31
0.0
  0
LINE
  5
7CBD
330
81F4
100
AcDbEntity
  8
1
100
AcDbLine
 10
1595.993139438523
 20
5477.67754289739
 30
0.0
 11
1595.993139438522
 21
4477.677542897389
 31
0.0
  0
LINE
  5
7CBE
330
81F4
100
AcDbEntity
  8
1
100
AcDbLine
 10
1595.993139438523
 20
5477.677542897387
 30
0.0
 11
2420.993139438522
 21
4477.677542897387
 31
0.0
  0
LINE
  5
7CBF
330
81F4
100
AcDbEntity
  8
1
100
AcDbLine
 10
2420.993139438524
 20
5477.677542897389
 30
0.0
 11
1595.993139438522
 21
4477.677542897386
 31
0.0
  0
LINE
  5
7CC0
330
81F4
100
AcDbEntity
  8
1
100
AcDbLine
 10
3955.537576512396
 20
2350.184586066363
 30
0.0
 11
3955.537576512393
 21
2026.184586066363
 31
0.0
  0
LINE
  5
7CC1
330
81F4
100
AcDbEntity
  8
1
100
AcDbLine
 10
3860.89370406778
 20
2026.184586066368
 30
0.0
 11
3860.89370406778
 21
1938.184586066368
 31
0.0
  0
LINE
  5
7CC2
330
81F4
100
AcDbEntity
  8
1
100
AcDbLine
 10
3508.05388812473
 20
2026.184586066368
 30
0.0
 11
3508.05388812473
 21
1938.184586066368
 31
0.0
  0
LINE
  5
7CC3
330
81F4
100
AcDbEntity
  8
1
100
AcDbLine
 10
3508.05388812473
 20
1978.184586066367
 30
0.0
 11
3860.89370406778
 21
1978.184586066367
 31
0.0
  0
LINE
  5
7EEA
330
81F4
100
AcDbEntity
  8
4
100
AcDbLine
 10
4625.0
 20
1250.0
 30
0.0
 11
4625.0
 21
750.0
 31
0.0
  0
LINE
  5
7EEB
330
81F4
100
AcDbEntity
  8
4
100
AcDbLine
 10
2875.0
 20
1250.0
 30
0.0
 11
2875.0
 21
750.0
 31
0.0
  0
LINE
  5
7EEC
330
81F4
100
AcDbEntity
  8
4
100
AcDbLine
 10
1625.0
 20
1250.0
 30
0.0
 11
1625.0
 21
750.0
 31
0.0
  0
LINE
  5
7EEF
330
81F4
100
AcDbEntity
  8
4
100
AcDbLine
 10
1625.0
 20
750.0
 30
0.0
 11
4625.0
 21
750.0
 31
0.0
  0
LINE
  5
7EF0
330
81F4
100
AcDbEntity
  8
4
100
AcDbLine
 10
1625.0
 20
1000.0
 30
0.0
 11
4625.0
 21
1000.0
 31
0.0
  0
TEXT
  5
7EF1
330
81F4
100
AcDbEntity
  8
4
100
AcDbText
 10
1721.255202117253
 20
1078.857564666532
 30
0.0
 40
125.0
  1
機器名称
100
AcDbText
  0
TEXT
  5
7EF2
330
81F4
100
AcDbEntity
  8
4
100
AcDbText
 10
1715.645265061993
 20
804.1128918300273
 30
0.0
 40
125.0
  1
機器型番
100
AcDbText
  0
TEXT
  5
7EF3
330
81F4
100
AcDbEntity
  8
4
100
AcDbText
 10
2944.196863719162
 20
1056.429422393921
 30
0.0
 40
125.0
  1
ミツヤ多翼送風機
100
AcDbText
  0
TEXT
  5
7EF4
330
81F4
100
AcDbEntity
  8
4
100
AcDbText
 10
2966.636238963701
 20
792.8989606998584
 30
0.0
 40
125.0
  1
MF#5-5
100
AcDbText
  0
TEXT
  5
7EF6
330
81F4
100
AcDbEntity
  8
4
100
AcDbText
 10
1945.138167875713
 20
5958.572103331289
 30
0.0
 40
135.0
  1
床置ベット
100
AcDbText
  0
TEXT
  5
7EF7
330
81F4
100
AcDbEntity
  8
4
100
AcDbText
 10
790.4189833236158
 20
6334.702440498245
 30
0.0
 40
180.0
  1
遠心式両吸込両持多翼ファン
100
AcDbText
  0
LINE
  5
7EF8
330
81F4
100
AcDbEntity
  8
4
100
AcDbLine
 10
625.0
 20
6173.521885662012
 30
0.0
 11
4625.0
 21
6173.521885662012
 31
0.0
  0
LINE
  5
7EF9
330
81F4
100
AcDbEntity
  8
4
100
AcDbLine
 10
625.0
 20
6673.521885662011
 30
0.0
 11
4625.0
 21
6673.521885662011
 31
0.0
  0
LINE
  5
7EFA
330
81F4
100
AcDbEntity
  8
4
100
AcDbLine
 10
1625.0
 20
1250.0
 30
0.0
 11
4625.0
 21
1250.0
 31
0.0
  0
LINE
  5
7EFB
330
81F4
100
AcDbEntity
  8
4
100
AcDbLine
 10
625.0
 20
6673.521885662011
 30
0.0
 11
625.0
 21
6173.521885662012
 31
0.0
  0
TEXT
  5
7EFC
330
81F4
100
AcDbEntity
  8
4
100
AcDbText
 10
855.4910872689578
 20
5955.798693865858
 30
0.0
 40
135.0
  1
左回転上向
100
AcDbText
  0
TEXT
  5
7EFD
330
81F4
100
AcDbEntity
  8
4
100
AcDbText
 10
3672.423898123224
 20
6765.15270373827
 30
0.0
 40
140.0
  1
No.
100
AcDbText
  0
TEXT
  5
7EFE
330
81F4
100
AcDbEntity
  8
4
100
AcDbText
 10
3278.240156500032
 20
5958.572103331289
 30
0.0
 40
135.0
  1
縮尺：1/25
100
AcDbText
  0
LINE
  5
7EFF
330
81F4
100
AcDbEntity
  8
4
100
AcDbLine
 10
4625.0
 20
6673.521885662011
 30
0.0
 11
4625.0
 21
6173.521885662012
 31
0.0
  0
LINE
  5
7F00
330
81F4
100
AcDbEntity
  8
4
100
AcDbLine
 10
5250.0
 20
7375.0
 30
0.0
 11
5250.0
 21
7375.0
 31
0.0
  0
LINE
  5
7F01
330
81F4
100
AcDbEntity
  8
4
100
AcDbLine
 10
3601.543555899662
 20
6703.158957813504
 30
0.0
 11
3601.543555899662
 21
6966.630653874381
 31
0.0
  0
LINE
  5
7F02
330
81F4
100
AcDbEntity
  8
4
100
AcDbLine
 10
3601.543555899662
 20
6966.630653874381
 30
0.0
 11
4625.0
 21
6966.630653874381
 31
0.0
  0
LINE
  5
7F03
330
81F4
100
AcDbEntity
  8
4
100
AcDbLine
 10
4625.0
 20
6966.630653874381
 30
0.0
 11
4625.0
 21
6703.158957813504
 31
0.0
  0
LINE
  5
7F04
330
81F4
100
AcDbEntity
  8
4
100
AcDbLine
 10
4625.0
 20
6703.158957813504
 30
0.0
 11
3601.543555899662
 21
6703.158957813504
 31
0.0
  0
LINE
  5
7F05
330
81F4
100
AcDbEntity
  8
4
100
AcDbLine
 10
0.0
 20
0.0
 30
0.0
 11
0.0
 21
7375.0
 31
0.0
  0
LINE
  5
7F06
330
81F4
100
AcDbEntity
  8
4
100
AcDbLine
 10
0.0
 20
7375.0
 30
0.0
 11
5250.0
 21
7375.0
 31
0.0
  0
LINE
  5
7F07
330
81F4
100
AcDbEntity
  8
4
100
AcDbLine
 10
5250.0
 20
7375.0
 30
0.0
 11
5250.0
 21
0.0
 31
0.0
  0
LINE
  5
7F08
330
81F4
100
AcDbEntity
  8
4
100
AcDbLine
 10
5250.0
 20
0.0
 30
0.0
 11
0.0
 21
0.0
 31
0.0
  0
DIMENSION
  5
80BD
330
81F4
100
AcDbEntity
  8
3
100
AcDbDimension
  2
*D21
 10
1572.993139438522
 20
1658.834930046068
 30
0.0
 11
1322.993139438522
 21
1721.334930046069
 31
0.0
 71
     5
 42
-1.0
  3
Standard
100
AcDbAlignedDimension
 13
1072.993139438522
 23
1838.184586066368
 33
0.0
 14
1572.993139438522
 24
1838.184586066368
 34
0.0
100
AcDbRotatedDimension
1001
ACAD
1000
DSTYLE
1002
{
1070
   172
1070
     1
1070
    40
1040
25.0
1070
    42
1040
1.0
1070
   271
1070
     0
1070
   143
1040
0.039
1002
}
  0
DIMENSION
  5
80CA
330
81F4
100
AcDbEntity
  8
3
100
AcDbDimension
  2
*D22
 10
2822.993139438522
 20
1658.834930046068
 30
0.0
 11
2197.993139438522
 21
1721.334930046069
 31
0.0
 71
     5
 42
-1.0
  3
Standard
100
AcDbAlignedDimension
 13
1572.993139438522
 23
1838.184586066368
 33
0.0
 14
2822.993139438522
 24
1838.184586066368
 34
0.0
100
AcDbRotatedDimension
1001
ACAD
1000
DSTYLE
1002
{
1070
   172
1070
     1
1070
    40
1040
25.0
1070
    42
1040
1.0
1070
   271
1070
     0
1070
   143
1040
0.039
1002
}
  0
DIMENSION
  5
80D7
330
81F4
100
AcDbEntity
  8
3
100
AcDbDimension
  2
*D23
 10
4069.037576512396
 20
1658.834930046068
 30
0.0
 11
3718.037576512396
 21
1721.334930046069
 31
0.0
 71
     5
 42
-1.0
  3
Standard
100
AcDbAlignedDimension
 13
3367.037576512395
 23
1838.184586066368
 33
0.0
 14
4069.037576512396
 24
1838.184586066368
 34
0.0
100
AcDbRotatedDimension
1001
ACAD
1000
DSTYLE
1002
{
1070
   172
1070
     1
1070
    40
1040
25.0
1070
    42
1040
1.0
1070
   271
1070
     0
1070
   143
1040
0.039
1002
}
  0
DIMENSION
  5
80E4
330
81F4
100
AcDbEntity
  8
3
100
AcDbDimension
  2
*D24
 10
4622.037576512395
 20
1658.834930046068
 30
0.0
 11
4345.537576512396
 21
1721.334930046069
 31
0.0
 71
     5
 42
-1.0
  3
Standard
100
AcDbAlignedDimension
 13
4069.037576512396
 23
1838.184586066368
 33
0.0
 14
4622.037576512395
 24
1838.184586066368
 34
0.0
100
AcDbRotatedDimension
1001
ACAD
1000
DSTYLE
1002
{
1070
   172
1070
     1
1070
    40
1040
25.0
1070
    42
1040
1.0
1070
   271
1070
     0
1070
   143
1040
0.039
1002
}
  0
DIMENSION
  5
80F1
330
81F4
100
AcDbEntity
  8
3
100
AcDbDimension
  2
*D25
 10
612.6346032828479
 20
3083.184586066368
 30
0.0
 11
550.1346032828478
 21
2460.684586066368
 31
0.0
 71
     5
 42
-1.0
  3
Standard
100
AcDbAlignedDimension
 13
1072.993139438522
 23
1838.184586066368
 33
0.0
 14
1528.493139438523
 24
3083.184586066368
 34
0.0
 50
90.0
100
AcDbRotatedDimension
1001
ACAD
1000
DSTYLE
1002
{
1070
   172
1070
     1
1070
    40
1040
25.0
1070
    42
1040
1.0
1070
   271
1070
     0
1070
   143
1040
0.039
1002
}
  0
ARC
  5
82A9
330
81F4
100
AcDbEntity
  8
FUTO
100
AcDbCircle
 10
1525.493139438522
 20
2490.684586066368
 30
0.0
 40
510.5
100
AcDbArc
 50
90.0
 51
174.6611324118623
  0
LINE
  5
82AA
330
81F4
100
AcDbEntity
  8
FUTO
100
AcDbLine
 10
2420.993139438522
 20
3083.184586066368
 30
0.0
 11
2364.621285226002
 21
2538.184586066368
 31
0.0
  0
ARC
  5
82AB
330
81F4
100
AcDbEntity
  8
FUTO
100
AcDbCircle
 10
1631.993139438522
 20
2479.184586066368
 30
0.0
 40
617.0
100
AcDbArc
 50
174.5127648571014
 51
241.2615071564635
  0
ARC
  5
82AC
330
81F4
100
AcDbEntity
  8
FUTO
100
AcDbCircle
 10
1631.993139438522
 20
2597.184586066368
 30
0.0
 40
735.0
100
AcDbArc
 50
296.2854859568602
 51
355.3957932734988
  0
ARC
  5
82AD
330
81F4
100
AcDbEntity
  8
FUTO
100
AcDbCircle
 10
1542.493139438522
 20
2568.684586066368
 30
0.0
 40
432.5
100
AcDbArc
 50
82.89434475270285
 51
90.0
  0
LINE
  5
82AE
330
81F4
100
AcDbEntity
  8
FUTO
100
AcDbLine
 10
1595.993139438522
 20
2997.862870698758
 30
0.0
 11
1595.993139438522
 21
3083.184586066368
 31
0.0
  0
LINE
  5
82AF
330
81F4
100
AcDbEntity
  8
FUTO
100
AcDbLine
 10
1525.493139438522
 20
3001.184586066368
 30
0.0
 11
1542.493139438522
 21
3001.184586066368
 31
0.0
  0
LINE
  5
82B0
330
81F4
100
AcDbEntity
  8
1
100
AcDbLine
 10
2463.493139438523
 20
3083.184586066368
 30
0.0
 11
1553.493139438522
 21
3083.184586066366
 31
0.0
  0
LINE
  5
82B1
330
81F4
100
AcDbEntity
  8
1
100
AcDbLine
 10
2463.493139438523
 20
3083.184586066368
 30
0.0
 11
2463.493139438523
 21
3080.184586066368
 31
0.0
  0
LINE
  5
82B2
330
81F4
100
AcDbEntity
  8
1
100
AcDbLine
 10
1553.493139438522
 20
3083.184586066366
 30
0.0
 11
1553.493139438522
 21
3080.184586066366
 31
0.0
  0
LINE
  5
82B3
330
81F4
100
AcDbEntity
  8
1
100
AcDbLine
 10
2417.592044668099
 20
3043.184586066368
 30
0.0
 11
1595.993139438522
 21
3043.184586066366
 31
0.0
  0
LINE
  5
82B4
330
81F4
100
AcDbEntity
  8
1
100
AcDbLine
 10
2463.493139438523
 20
3080.184586066368
 30
0.0
 11
1553.493139438522
 21
3080.184586066366
 31
0.0
  0
POINT
  5
82B5
330
81F4
100
AcDbEntity
  8
1
100
AcDbPoint
 10
1572.993139438522
 20
3103.40249673539
 30
0.0
 50
270.0
  0
POINT
  5
82B6
330
81F4
100
AcDbEntity
  8
1
100
AcDbPoint
 10
1572.993139438522
 20
3103.40249673539
 30
0.0
 50
270.0
  0
DIMENSION
  5
82B7
330
81F4
100
AcDbEntity
  8
3
100
AcDbDimension
  2
*D27
 10
4069.037576512394
 20
3511.056751173743
 30
0.0
 11
3619.037576512395
 21
3593.1996083166
 31
0.0
 70
    32
  1
(<>)
 71
     5
 42
899.9999999999996
  3
IGA
100
AcDbAlignedDimension
 13
3169.037576512395
 23
2758.184586066368
 33
0.0
 14
4069.037576512394
 24
3271.573169067423
 34
0.0
100
AcDbRotatedDimension
1001
ACAD
1000
DSTYLE
1002
{
1070
    40
1040
25.0
1070
    42
1040
1.0
1070
   143
1040
0.039
1070
   172
1070
     1
1070
   271
1070
     4
1070
   272
1070
     4
1070
   279
1070
     0
1070
   284
1070
     0
1070
   285
1070
     0
1070
   286
1070
     0
1070
   341
1005
8208
1070
   343
1005
8208
1070
   344
1005
8208
1002
}
  0
DIMENSION
  5
82C4
330
81F4
100
AcDbEntity
  8
3
100
AcDbDimension
  2
*D28
 10
4679.037576512397
 20
3511.056751173743
 30
0.0
 11
4374.037576512395
 21
3593.1996083166
 31
0.0
 70
    32
  1
(<>)
 71
     5
 42
610.0000000000027
  3
IGA
100
AcDbAlignedDimension
 13
4069.037576512394
 23
3271.573169067423
 33
0.0
 14
4679.037576512397
 24
2498.684586066368
 34
0.0
100
AcDbRotatedDimension
1001
ACAD
1000
DSTYLE
1002
{
1070
    40
1040
25.0
1070
    42
1040
1.0
1070
   143
1040
0.039
1070
   172
1070
     1
1070
   271
1070
     4
1070
   272
1070
     4
1070
   279
1070
     1
1070
   284
1070
     0
1070
   285
1070
     0
1070
   286
1070
     0
1070
   341
1005
8208
1070
   343
1005
8208
1070
   344
1005
8208
1002
}
  0
DIMENSION
  5
8329
330
81F4
100
AcDbEntity
  8
3
100
AcDbDimension
  2
*D30
 10
2822.993139438522
 20
3909.416286490538
 30
0.0
 11
1947.993139438522
 21
3971.916286490538
 31
0.0
 70
    32
 71
     5
 42
1750.0
  3
IGA
100
AcDbAlignedDimension
 13
1072.993139438522
 23
4275.677542897386
 33
0.0
 14
2822.993139438522
 24
4275.677542897386
 34
0.0
100
AcDbRotatedDimension
1001
ACAD
1000
DSTYLE
1002
{
1070
    40
1040
25.0
1070
    42
1040
1.0
1070
   143
1040
0.039
1070
   172
1070
     1
1070
   271
1070
     4
1070
   272
1070
     4
1070
   279
1070
     0
1070
   284
1070
     0
1070
   285
1070
     0
1070
   286
1070
     0
1070
   341
1005
8208
1070
   343
1005
8208
1070
   344
1005
8208
1002
}
  0
DIMENSION
  5
833C
330
81F4
100
AcDbEntity
  8
3
100
AcDbDimension
  2
*D32
 10
1014.993139438522
 20
3383.813332182234
 30
0.0
 11
1293.993139438522
 21
3446.313332182234
 31
0.0
 70
    32
 71
     5
 42
558.0
  3
IGA
100
AcDbAlignedDimension
 13
1572.993139438522
 23
3197.771710296242
 33
0.0
 14
1014.993139438522
 24
2479.184586066368
 34
0.0
100
AcDbRotatedDimension
1001
ACAD
1000
DSTYLE
1002
{
1070
    40
1040
25.0
1070
    42
1040
1.0
1070
   143
1040
0.039
1070
   172
1070
     1
1070
   271
1070
     4
1070
   272
1070
     4
1070
   279
1070
     0
1070
   284
1070
     0
1070
   285
1070
     0
1070
   286
1070
     0
1070
   341
1005
8208
1070
   343
1005
8208
1070
   344
1005
8208
1002
}
  0
DIMENSION
  5
8352
330
81F4
100
AcDbEntity
  8
3
100
AcDbDimension
  2
*D33
 10
1014.993139438522
 20
3568.714402327088
 30
0.0
 11
1918.993139438522
 21
3631.214402327088
 31
0.0
 70
    32
 71
     5
 42
1807.999999999999
  3
IGA
100
AcDbAlignedDimension
 13
2822.993139438522
 23
1938.184586066368
 33
0.0
 14
1014.993139438522
 24
2479.184586066368
 34
0.0
100
AcDbRotatedDimension
1001
ACAD
1000
DSTYLE
1002
{
1070
    40
1040
25.0
1070
    42
1040
1.0
1070
   143
1040
0.039
1070
   172
1070
     1
1070
   271
1070
     4
1070
   272
1070
     4
1070
   279
1070
     0
1070
   284
1070
     0
1070
   285
1070
     0
1070
   286
1070
     0
1070
   341
1005
8208
1070
   343
1005
8208
1070
   344
1005
8208
1002
}
  0
DIMENSION
  5
835F
330
81F4
100
AcDbEntity
  8
3
100
AcDbDimension
  2
*D34
 10
771.5199975370997
 20
1838.184586066368
 30
0.0
 11
709.0199975370993
 21
2188.184586066368
 31
0.0
 70
    32
 71
     5
 42
699.9999999999995
  3
IGA
100
AcDbAlignedDimension
 13
906.521347588132
 23
2538.184586066368
 33
0.0
 14
1072.993139438522
 24
1838.184586066368
 34
0.0
 50
90.0
100
AcDbRotatedDimension
1001
ACAD
1000
DSTYLE
1002
{
1070
    40
1040
25.0
1070
    42
1040
1.0
1070
   143
1040
0.039
1070
   172
1070
     1
1070
   271
1070
     4
1070
   272
1070
     4
1070
   279
1070
     0
1070
   284
1070
     0
1070
   285
1070
     0
1070
   286
1070
     0
1070
   341
1005
8208
1070
   343
1005
8208
1070
   344
1005
8208
1002
}
  0
DIMENSION
  5
8375
330
81F4
100
AcDbEntity
  8
3
100
AcDbDimension
  2
*D35
 10
2822.993139438522
 20
5681.800826448339
 30
0.0
 11
2447.993139438522
 21
5744.300826448339
 31
0.0
 70
    32
 71
     5
 42
749.9999999999995
  3
IGA
100
AcDbAlignedDimension
 13
2072.993139438522
 23
5530.677542897386
 33
0.0
 14
2822.993139438522
 24
5025.677542897387
 34
0.0
100
AcDbRotatedDimension
1001
ACAD
1000
DSTYLE
1002
{
1070
    40
1040
25.0
1070
    42
1040
1.0
1070
   143
1040
0.039
1070
   172
1070
     1
1070
   271
1070
     4
1070
   272
1070
     4
1070
   279
1070
     0
1070
   284
1070
     0
1070
   285
1070
     0
1070
   286
1070
     0
1070
   341
1005
8208
1070
   343
1005
8208
1070
   344
1005
8208
1002
}
  0
ENDSEC
  0
SECTION
  2
OBJECTS
  0
DICTIONARY
  5
8191
330
0
100
AcDbDictionary
281
     1
  3
ACAD_CIP_PREVIOUS_PRODUCT_INFO
350
8238
  3
ACAD_COLOR
350
81E7
  3
ACAD_DETAILVIEWSTYLE
350
81EE
  3
ACAD_GROUP
350
8192
  3
ACAD_LAYOUT
350
81E6
  3
ACAD_MATERIAL
350
8195
  3
ACAD_MLEADERSTYLE
350
81EA
  3
ACAD_MLINESTYLE
350
81E3
  3
ACAD_PLOTSETTINGS
350
81E5
  3
ACAD_PLOTSTYLENAME
350
8193
  3
ACAD_SCALELIST
350
81C7
  3
ACAD_SECTIONVIEWSTYLE
350
81EC
  3
ACAD_TABLESTYLE
350
81E8
  3
ACAD_VISUALSTYLE
350
81AE
  3
ACDB_RECOMPOSE_DATA
350
83CE
  3
AcDbVariableDictionary
350
8243
  3
DWGPROPS
350
83CF
  0
DICTIONARY
  5
8291
330
8187
100
AcDbDictionary
280
     1
281
     1
  3
ACAD_LAYERSTATES
360
8292
  0
DICTIONARY
  5
8239
330
81D9
100
AcDbDictionary
280
     1
281
     1
  3
ADSK_XREC_LAYER_RECONCILED
360
823A
  0
DICTIONARY
  5
823B
330
81F8
100
AcDbDictionary
280
     1
281
     1
  3
ADSK_XREC_LAYER_RECONCILED
360
823C
  0
DICTIONARY
  5
823D
330
81FB
100
AcDbDictionary
280
     1
281
     1
  3
ADSK_XREC_LAYER_RECONCILED
360
823E
  0
DICTIONARY
  5
823F
330
81FC
100
AcDbDictionary
280
     1
281
     1
  3
ADSK_XREC_LAYER_RECONCILED
360
8240
  0
DICTIONARY
  5
8241
330
81FD
100
AcDbDictionary
280
     1
281
     1
  3
ADSK_XREC_LAYER_RECONCILED
360
8242
  0
DICTIONARY
  5
8290
330
828F
100
AcDbDictionary
280
     1
281
     1
  0
XRECORD
  5
8238
102
{ACAD_REACTORS
330
8191
102
}
330
8191
100
AcDbXrecord
280
     1
300
ACDLT
300
2015
300
INVLTS_F_S
  0
DICTIONARY
  5
81E7
102
{ACAD_REACTORS
330
8191
102
}
330
8191
100
AcDbDictionary
281
     1
  0
DICTIONARY
  5
81EE
102
{ACAD_REACTORS
330
8191
102
}
330
8191
100
AcDbDictionary
281
     1
  3
Imperial24
350
81EF
  0
DICTIONARY
  5
8192
102
{ACAD_REACTORS
330
8191
102
}
330
8191
100
AcDbDictionary
281
     1
  0
DICTIONARY
  5
81E6
102
{ACAD_REACTORS
330
8191
102
}
330
8191
100
AcDbDictionary
281
     1
  3
Model
350
81F7
  3
レイアウト1
350
81F3
  0
DICTIONARY
  5
8195
102
{ACAD_REACTORS
330
8191
102
}
330
8191
100
AcDbDictionary
281
     1
  3
ByBlock
350
819E
  3
ByLayer
350
8196
  3
Global
350
81A6
  0
DICTIONARY
  5
81EA
102
{ACAD_REACTORS
330
8191
102
}
330
8191
100
AcDbDictionary
281
     1
  3
Standard
350
81EB
  0
DICTIONARY
  5
81E3
102
{ACAD_REACTORS
330
8191
102
}
330
8191
100
AcDbDictionary
281
     1
  3
Standard
350
81E4
  0
DICTIONARY
  5
81E5
102
{ACAD_REACTORS
330
8191
102
}
330
8191
100
AcDbDictionary
281
     1
  0
ACDBDICTIONARYWDFLT
  5
8193
102
{ACAD_REACTORS
330
8191
102
}
330
8191
100
AcDbDictionary
281
     1
  3
Normal
350
8194
100
AcDbDictionaryWithDefault
340
8194
  0
DICTIONARY
  5
81C7
102
{ACAD_REACTORS
330
8191
102
}
330
8191
100
AcDbDictionary
281
     1
  3
A0
350
81C8
  3
A1
350
81C9
  3
A2
350
81CA
  3
A3
350
81CB
  3
A4
350
81CC
  3
A5
350
81CD
  3
A6
350
81CE
  3
A7
350
81CF
  3
A8
350
81D0
  3
A9
350
81D1
  3
B0
350
81D2
  3
B1
350
81D3
  3
B2
350
81D4
  3
B3
350
81D5
  3
B4
350
81D6
  3
B5
350
81D7
  3
B6
350
81D8
  0
DICTIONARY
  5
81EC
102
{ACAD_REACTORS
330
8191
102
}
330
8191
100
AcDbDictionary
281
     1
  3
Imperial24
350
81ED
  0
DICTIONARY
  5
81E8
102
{ACAD_REACTORS
330
8191
102
}
330
8191
100
AcDbDictionary
281
     1
  3
Standard
350
81E9
  0
DICTIONARY
  5
81AE
102
{ACAD_REACTORS
330
8191
102
}
330
8191
100
AcDbDictionary
281
     1
  3
2dWireframe
350
81B4
  3
Basic
350
81B3
  3
Brighten
350
81BA
  3
ColorChange
350
81BE
  3
Conceptual
350
81B7
  3
Dim
350
81B9
  3
EdgeColorOff
350
81C6
  3
Facepattern
350
81BD
  3
Flat
350
81AF
  3
FlatWithEdges
350
81B0
  3
Gouraud
350
81B1
  3
GouraudWithEdges
350
81B2
  3
Hidden
350
81B6
  3
JitterOff
350
81C4
  3
Linepattern
350
81BC
  3
OverhangOff
350
81C5
  3
Realistic
350
81B8
  3
Shaded
350
81C3
  3
Shaded with edges
350
81C2
  3
Shades of Gray
350
81BF
  3
Sketchy
350
81C0
  3
Thicken
350
81BB
  3
Wireframe
350
81B5
  3
X-Ray
350
81C1
  0
XRECORD
  5
83CE
102
{ACAD_REACTORS
330
8191
102
}
330
8191
100
AcDbXrecord
280
     1
 90
        1
330
81E9
  0
DICTIONARY
  5
8243
102
{ACAD_REACTORS
330
8191
102
}
330
8191
100
AcDbDictionary
281
     1
  3
CANNOSCALE
350
8248
  3
CMLEADERSTYLE
350
8245
  3
CTABLESTYLE
350
8244
  3
CVIEWDETAILSTYLE
350
8246
  3
CVIEWSECTIONSTYLE
350
8247
  3
DIMASSOC
350
824B
  3
INDEXCTL
350
824A
  3
SORTENTS
350
8249
  3
XCLIPFRAME
350
824C
  0
XRECORD
  5
83CF
102
{ACAD_REACTORS
330
8191
102
}
330
8191
100
AcDbXrecord
280
     1
  1
DWGPROPS COOKIE
  2

  3

  4

  6

  7

  8
yasukiyo.ogawa
  9

300
=
301
=
302
=
303
=
304
=
305
=
306
=
307
=
308
=
309
=
 40
0.020844837962963
 41
2451389.462286342
 42
2460265.590449364
  1

 90
        0
  0
DICTIONARY
  5
8292
102
{ACAD_REACTORS
330
8291
102
}
330
8291
100
AcDbDictionary
281
     1
  0
XRECORD
  5
823A
102
{ACAD_REACTORS
330
8239
102
}
330
8239
100
AcDbXrecord
280
     1
290
     1
  0
XRECORD
  5
823C
102
{ACAD_REACTORS
330
823B
102
}
330
823B
100
AcDbXrecord
280
     1
290
     1
  0
XRECORD
  5
823E
102
{ACAD_REACTORS
330
823D
102
}
330
823D
100
AcDbXrecord
280
     1
290
     1
  0
XRECORD
  5
8240
102
{ACAD_REACTORS
330
823F
102
}
330
823F
100
AcDbXrecord
280
     1
290
     1
  0
XRECORD
  5
8242
102
{ACAD_REACTORS
330
8241
102
}
330
8241
100
AcDbXrecord
280
     1
290
     1
  0
ACDBDETAILVIEWSTYLE
  5
81EF
102
{ACAD_XDICTIONARY
360
8407
102
}
102
{ACAD_REACTORS
330
81EE
102
}
330
81EE
100
AcDbModelDocViewStyle
 70
     0
  3
Imperial24
290
     0
100
AcDbDetailViewStyle
 70
     0
 71
     0
 90
        3
 71
     1
340
81DA
 40
0.24
340
0
 40
0.24
300

 40
0.36
280
     3
 71
     2
340
81E1
 90
       25
 71
     3
340
81DA
 40
0.24
 90
        1
 40
0.75
 90
        1
300
%<\AcVar ViewType \f "%tc1">% %<\AcVar ViewDetailId>%\PSCALE %<\AcVar ViewScale \f "%sn">%
 71
     4
340
81E1
 90
       25
340
81E1
 90
       25
280
     0
  0
LAYOUT
  5
81F7
102
{ACAD_XDICTIONARY
360
840B
102
}
102
{ACAD_REACTORS
330
81E6
102
}
330
81E6
100
AcDbPlotSettings
  1

  2
RICOH imagio MP W3600 RPCS
  4

  6

 40
0.0
 41
0.0
 42
0.0
 43
0.0
 44
0.0
 45
0.0
 46
0.0
 47
0.0
 48
0.0
 49
0.0
140
0.0
141
0.0
142
1.0
143
1.0
 70
  1712
 72
     0
 73
     0
 74
     0
  7

 75
     0
147
1.0
148
0.0
149
0.0
100
AcDbLayout
  1
Model
 70
     1
 71
     0
 10
0.0
 20
0.0
 11
12.0
 21
9.0
 12
0.0
 22
0.0
 32
0.0
 14
0.0
 24
0.0
 34
0.0
 15
0.0
 25
0.0
 35
0.0
146
0.0
 13
0.0
 23
0.0
 33
0.0
 16
1.0
 26
0.0
 36
0.0
 17
0.0
 27
1.0
 37
0.0
 76
     0
330
81F4
331
81F9
  0
LAYOUT
  5
81F3
102
{ACAD_XDICTIONARY
360
8409
102
}
102
{ACAD_REACTORS
330
81E6
102
}
330
81E6
100
AcDbPlotSettings
  1

  2
RICOH imagio MP W3600 RPCS
  4

  6

 40
0.0
 41
0.0
 42
0.0
 43
0.0
 44
0.0
 45
0.0
 46
0.0
 47
0.0
 48
0.0
 49
0.0
140
0.0
141
0.0
142
1.0
143
1.0
 70
   688
 72
     0
 73
     0
 74
     5
  7

 75
    16
147
1.0
148
0.0
149
0.0
100
AcDbLayout
  1
レイアウト1
 70
     1
 71
     1
 10
0.0
 20
0.0
 11
12.0
 21
9.0
 12
0.0
 22
0.0
 32
0.0
 14
1.000000000000000E+20
 24
1.000000000000000E+20
 34
1.000000000000000E+20
 15
-1.000000000000000E+20
 25
-1.000000000000000E+20
 35
-1.000000000000000E+20
146
0.0
 13
0.0
 23
0.0
 33
0.0
 16
1.0
 26
0.0
 36
0.0
 17
0.0
 27
1.0
 37
0.0
 76
     0
330
81F0
  0
MATERIAL
  5
819E
102
{ACAD_XDICTIONARY
360
819F
102
}
102
{ACAD_REACTORS
330
8195
102
}
330
8195
100
AcDbMaterial
  1
ByBlock
 72
     0
 43
0.0208333333333333
 43
0.0
 43
0.0
 43
0.0
 43
0.0
 43
0.0208333333333333
 43
0.0
 43
0.0
 43
0.0
 43
0.0
 43
1.0
 43
0.0
 43
0.0
 43
0.0
 43
0.0
 43
1.0
 77
     0
 47
0.0208333333333333
 47
0.0
 47
0.0
 47
0.0
 47
0.0
 47
0.0208333333333333
 47
0.0
 47
0.0
 47
0.0
 47
0.0
 47
1.0
 47
0.0
 47
0.0
 47
0.0
 47
0.0
 47
1.0
171
     0
 49
0.0208333333333333
 49
0.0
 49
0.0
 49
0.0
 49
0.0
 49
0.0208333333333333
 49
0.0
 49
0.0
 49
0.0
 49
0.0
 49
1.0
 49
0.0
 49
0.0
 49
0.0
 49
0.0
 49
1.0
175
     0
142
0.0208333333333333
142
0.0
142
0.0
142
0.0
142
0.0
142
0.0208333333333333
142
0.0
142
0.0
142
0.0
142
0.0
142
1.0
142
0.0
142
0.0
142
0.0
142
0.0
142
1.0
179
     0
144
0.0208333333333333
144
0.0
144
0.0
144
0.0
144
0.0
144
0.0208333333333333
144
0.0
144
0.0
144
0.0
144
0.0
144
1.0
144
0.0
144
0.0
144
0.0
144
0.0
144
1.0
147
0.0208333333333333
147
0.0
147
0.0
147
0.0
147
0.0
147
0.0208333333333333
147
0.0
147
0.0
147
0.0
147
0.0
147
1.0
147
0.0
147
0.0
147
0.0
147
0.0
147
1.0
  0
MATERIAL
  5
8196
102
{ACAD_XDICTIONARY
360
8197
102
}
102
{ACAD_REACTORS
330
8195
102
}
330
8195
100
AcDbMaterial
  1
ByLayer
 72
     0
 43
0.0208333333333333
 43
0.0
 43
0.0
 43
0.0
 43
0.0
 43
0.0208333333333333
 43
0.0
 43
0.0
 43
0.0
 43
0.0
 43
1.0
 43
0.0
 43
0.0
 43
0.0
 43
0.0
 43
1.0
 77
     0
 47
0.0208333333333333
 47
0.0
 47
0.0
 47
0.0
 47
0.0
 47
0.0208333333333333
 47
0.0
 47
0.0
 47
0.0
 47
0.0
 47
1.0
 47
0.0
 47
0.0
 47
0.0
 47
0.0
 47
1.0
171
     0
 49
0.0208333333333333
 49
0.0
 49
0.0
 49
0.0
 49
0.0
 49
0.0208333333333333
 49
0.0
 49
0.0
 49
0.0
 49
0.0
 49
1.0
 49
0.0
 49
0.0
 49
0.0
 49
0.0
 49
1.0
175
     0
142
0.0208333333333333
142
0.0
142
0.0
142
0.0
142
0.0
142
0.0208333333333333
142
0.0
142
0.0
142
0.0
142
0.0
142
1.0
142
0.0
142
0.0
142
0.0
142
0.0
142
1.0
179
     0
144
0.0208333333333333
144
0.0
144
0.0
144
0.0
144
0.0
144
0.0208333333333333
144
0.0
144
0.0
144
0.0
144
0.0
144
1.0
144
0.0
144
0.0
144
0.0
144
0.0
144
1.0
147
0.0208333333333333
147
0.0
147
0.0
147
0.0
147
0.0
147
0.0208333333333333
147
0.0
147
0.0
147
0.0
147
0.0
147
1.0
147
0.0
147
0.0
147
0.0
147
0.0
147
1.0
  0
MATERIAL
  5
81A6
102
{ACAD_XDICTIONARY
360
81A7
102
}
102
{ACAD_REACTORS
330
8195
102
}
330
8195
100
AcDbMaterial
  1
Global
 72
     0
 43
0.0208333333333333
 43
0.0
 43
0.0
 43
0.0
 43
0.0
 43
0.0208333333333333
 43
0.0
 43
0.0
 43
0.0
 43
0.0
 43
1.0
 43
0.0
 43
0.0
 43
0.0
 43
0.0
 43
1.0
 77
     0
 47
0.0208333333333333
 47
0.0
 47
0.0
 47
0.0
 47
0.0
 47
0.0208333333333333
 47
0.0
 47
0.0
 47
0.0
 47
0.0
 47
1.0
 47
0.0
 47
0.0
 47
0.0
 47
0.0
 47
1.0
171
     0
 49
0.0208333333333333
 49
0.0
 49
0.0
 49
0.0
 49
0.0
 49
0.0208333333333333
 49
0.0
 49
0.0
 49
0.0
 49
0.0
 49
1.0
 49
0.0
 49
0.0
 49
0.0
 49
0.0
 49
1.0
175
     0
142
0.0208333333333333
142
0.0
142
0.0
142
0.0
142
0.0
142
0.0208333333333333
142
0.0
142
0.0
142
0.0
142
0.0
142
1.0
142
0.0
142
0.0
142
0.0
142
0.0
142
1.0
179
     0
144
0.0208333333333333
144
0.0
144
0.0
144
0.0
144
0.0
144
0.0208333333333333
144
0.0
144
0.0
144
0.0
144
0.0
144
1.0
144
0.0
144
0.0
144
0.0
144
0.0
144
1.0
147
0.0208333333333333
147
0.0
147
0.0
147
0.0
147
0.0
147
0.0208333333333333
147
0.0
147
0.0
147
0.0
147
0.0
147
1.0
147
0.0
147
0.0
147
0.0
147
0.0
147
1.0
  0
MLEADERSTYLE
  5
81EB
102
{ACAD_REACTORS
330
81EA
102
}
330
81EA
100
AcDbMLeaderStyle
170
     2
171
     1
172
     0
 90
        2
 40
0.0
 41
0.0
173
     1
 91
-1056964608
340
81DF
 92
       -2
290
     1
 42
0.09
291
     1
 43
0.36
  3
Standard
 44
0.18
300

342
81DA
174
     1
178
     6
175
     1
176
     0
 93
-1056964608
 45
0.18
292
     0
297
     0
 46
0.18
 94
-1056964608
 47
1.0
 49
1.0
140
1.0
293
     1
141
0.0
294
     1
177
     0
142
1.0
295
     0
296
     0
143
0.125
1001
ACAD_MLEADERVER
1070
     2
  0
MLINESTYLE
  5
81E4
102
{ACAD_REACTORS
330
81E3
102
}
330
81E3
100
AcDbMlineStyle
  2
STANDARD
 70
     0
  3

 62
   256
 51
90.0
 52
90.0
 71
     2
 49
0.5
 62
   256
  6
BYLAYER
 49
-0.5
 62
   256
  6
BYLAYER
  0
ACDBPLACEHOLDER
  5
8194
102
{ACAD_REACTORS
330
8193
102
}
330
8193
  0
SCALE
  5
81C8
102
{ACAD_REACTORS
330
81C7
102
}
330
81C7
100
AcDbScale
 70
     0
300
1:1
140
1.0
141
1.0
290
     1
  0
SCALE
  5
81C9
102
{ACAD_REACTORS
330
81C7
102
}
330
81C7
100
AcDbScale
 70
     0
300
1/128" = 1'-0"
140
0.0078125
141
12.0
290
     0
  0
SCALE
  5
81CA
102
{ACAD_REACTORS
330
81C7
102
}
330
81C7
100
AcDbScale
 70
     0
300
1/64" = 1'-0"
140
0.015625
141
12.0
290
     0
  0
SCALE
  5
81CB
102
{ACAD_REACTORS
330
81C7
102
}
330
81C7
100
AcDbScale
 70
     0
300
1/32" = 1'-0"
140
0.03125
141
12.0
290
     0
  0
SCALE
  5
81CC
102
{ACAD_REACTORS
330
81C7
102
}
330
81C7
100
AcDbScale
 70
     0
300
1/16" = 1'-0"
140
0.0625
141
12.0
290
     0
  0
SCALE
  5
81CD
102
{ACAD_REACTORS
330
81C7
102
}
330
81C7
100
AcDbScale
 70
     0
300
3/32" = 1'-0"
140
0.09375
141
12.0
290
     0
  0
SCALE
  5
81CE
102
{ACAD_REACTORS
330
81C7
102
}
330
81C7
100
AcDbScale
 70
     0
300
1/8" = 1'-0"
140
0.125
141
12.0
290
     0
  0
SCALE
  5
81CF
102
{ACAD_REACTORS
330
81C7
102
}
330
81C7
100
AcDbScale
 70
     0
300
3/16" = 1'-0"
140
0.1875
141
12.0
290
     0
  0
SCALE
  5
81D0
102
{ACAD_REACTORS
330
81C7
102
}
330
81C7
100
AcDbScale
 70
     0
300
1/4" = 1'-0"
140
0.25
141
12.0
290
     0
  0
SCALE
  5
81D1
102
{ACAD_REACTORS
330
81C7
102
}
330
81C7
100
AcDbScale
 70
     0
300
3/8" = 1'-0"
140
0.375
141
12.0
290
     0
  0
SCALE
  5
81D2
102
{ACAD_REACTORS
330
81C7
102
}
330
81C7
100
AcDbScale
 70
     0
300
1/2" = 1'-0"
140
0.5
141
12.0
290
     0
  0
SCALE
  5
81D3
102
{ACAD_REACTORS
330
81C7
102
}
330
81C7
100
AcDbScale
 70
     0
300
3/4" = 1'-0"
140
0.75
141
12.0
290
     0
  0
SCALE
  5
81D4
102
{ACAD_REACTORS
330
81C7
102
}
330
81C7
100
AcDbScale
 70
     0
300
1" = 1'-0"
140
1.0
141
12.0
290
     0
  0
SCALE
  5
81D5
102
{ACAD_REACTORS
330
81C7
102
}
330
81C7
100
AcDbScale
 70
     0
300
1-1/2" = 1'-0"
140
1.5
141
12.0
290
     0
  0
SCALE
  5
81D6
102
{ACAD_REACTORS
330
81C7
102
}
330
81C7
100
AcDbScale
 70
     0
300
3" = 1'-0"
140
3.0
141
12.0
290
     0
  0
SCALE
  5
81D7
102
{ACAD_REACTORS
330
81C7
102
}
330
81C7
100
AcDbScale
 70
     0
300
6" = 1'-0"
140
6.0
141
12.0
290
     0
  0
SCALE
  5
81D8
102
{ACAD_REACTORS
330
81C7
102
}
330
81C7
100
AcDbScale
 70
     0
300
1'-0" = 1'-0"
140
12.0
141
12.0
290
     0
  0
ACDBSECTIONVIEWSTYLE
  5
81ED
102
{ACAD_XDICTIONARY
360
8405
102
}
102
{ACAD_REACTORS
330
81EC
102
}
330
81EC
100
AcDbModelDocViewStyle
 70
     0
  3
Imperial24
290
     0
100
AcDbSectionViewStyle
 70
     0
 71
     0
 90
       78
 71
     1
340
81DA
 40
0.24
340
0
340
0
 40
0.24
300
I, O, Q, S, X, Z
 40
0.48
 90
        3
 40
0.18
 90
        1
 71
     2
340
81E1
 90
       25
340
81E1
 90
       50
 40
0.24
 40
0.0
 40
0.24
 71
     3
340
81DA
 40
0.24
 90
        1
 40
0.75
 90
        1
300
%<\AcVar ViewType \f "%tc1">% %<\AcVar ViewSectionStartId>%-%<\AcVar ViewSectionEndId>%\PSCALE %<\AcVar ViewScale \f "%sn">%
 71
     4
300
ANSI31
 40
1.0
 90
        0
290
     0
290
     0
 90
        6
 40
0.0
 40
1.570796326794896
 40
0.2617993877991494
 40
1.308996938995747
 40
-0.2617993877991494
 40
1.832595714594046
  0
TABLESTYLE
  5
81E9
102
{ACAD_XDICTIONARY
360
83CC
102
}
102
{ACAD_REACTORS
330
81E8
102
}
330
81E8
100
AcDbTableStyle
  3
Standard
 70
     0
 71
     0
 40
0.06
 41
0.06
280
     0
281
     0
  7
STANDARD
140
0.18
170
     2
 62
     0
 63
     7
283
     0
274
    -2
284
     1
 64
     0
275
    -2
285
     1
 65
     0
276
    -2
286
     1
 66
     0
277
    -2
287
     1
 67
     0
278
    -2
288
     1
 68
     0
279
    -2
289
     1
 69
     0
  7
STANDARD
140
0.25
170
     5
 62
     0
 63
     7
283
     0
274
    -2
284
     1
 64
     0
275
    -2
285
     1
 65
     0
276
    -2
286
     1
 66
     0
277
    -2
287
     1
 67
     0
278
    -2
288
     1
 68
     0
279
    -2
289
     1
 69
     0
  7
STANDARD
140
0.18
170
     5
 62
     0
 63
     7
283
     0
274
    -2
284
     1
 64
     0
275
    -2
285
     1
 65
     0
276
    -2
286
     1
 66
     0
277
    -2
287
     1
 67
     0
278
    -2
288
     1
 68
     0
279
    -2
289
     1
 69
     0
  0
VISUALSTYLE
  5
81B4
102
{ACAD_XDICTIONARY
360
83DD
102
}
102
{ACAD_REACTORS
330
81AE
102
}
330
81AE
100
AcDbVisualStyle
  2
2dWireframe
 70
     4
 71
     0
 72
     2
 73
     0
 90
        0
 40
-0.6
 41
-30.0
 62
     5
 63
     7
 74
     1
 91
        4
 64
     7
 65
   257
 75
     1
175
     1
 42
1.0
 92
        0
 66
   257
 43
1.0
 76
     1
 77
     6
 78
     2
 67
     7
 79
     5
170
     0
171
     0
290
     0
174
     0
 93
        1
 44
0.0
173
     0
291
     0
 45
0.0
1001
ACAD
1000
AcDbSavedByObjectVersion
1070
     0
  0
VISUALSTYLE
  5
81B3
102
{ACAD_XDICTIONARY
360
83DB
102
}
102
{ACAD_REACTORS
330
81AE
102
}
330
81AE
100
AcDbVisualStyle
  2
Basic
 70
     7
 71
     1
 72
     0
 73
     1
 90
        0
 40
-0.6
 41
-30.0
 62
     5
 63
     7
 74
     0
 91
        4
 64
     7
 65
   257
 75
     1
175
     1
 42
1.0
 92
        8
 66
     7
 43
1.0
 76
     1
 77
     6
 78
     2
 67
     7
 79
     5
170
     0
171
     0
290
     0
174
     0
 93
        1
 44
0.0
173
     0
291
     1
 45
0.0
1001
ACAD
1000
AcDbSavedByObjectVersion
1070
     0
  0
VISUALSTYLE
  5
81BA
102
{ACAD_XDICTIONARY
360
83E9
102
}
102
{ACAD_REACTORS
330
81AE
102
}
330
81AE
100
AcDbVisualStyle
  2
Brighten
 70
    12
 71
     2
 72
     2
 73
     0
 90
        0
 40
-0.6
 41
-30.0
 62
     5
 63
     7
 74
     1
 91
        4
 64
     7
 65
   257
 75
     1
175
     1
 42
1.0
 92
        8
 66
     7
 43
1.0
 76
     1
 77
     6
 78
     2
 67
     7
 79
     5
170
     0
171
     0
290
     0
174
     0
 93
        1
 44
50.0
173
     0
291
     1
 45
0.0
1001
ACAD
1000
AcDbSavedByObjectVersion
1070
     0
  0
VISUALSTYLE
  5
81BE
102
{ACAD_XDICTIONARY
360
83F1
102
}
102
{ACAD_REACTORS
330
81AE
102
}
330
81AE
100
AcDbVisualStyle
  2
ColorChange
 70
    16
 71
     2
 72
     2
 73
     3
 90
        0
 40
-0.6
 41
-30.0
 62
     5
 63
     8
 74
     1
 91
        4
 64
     7
 65
   257
 75
     1
175
     1
 42
1.0
 92
        8
 66
     8
 43
1.0
 76
     1
 77
     6
 78
     2
 67
     7
 79
     5
170
     0
171
     0
290
     0
174
     0
 93
        1
 44
0.0
173
     0
291
     1
 45
0.0
1001
ACAD
1000
AcDbSavedByObjectVersion
1070
     0
  0
VISUALSTYLE
  5
81B7
102
{ACAD_XDICTIONARY
360
83E3
102
}
102
{ACAD_REACTORS
330
81AE
102
}
330
81AE
100
AcDbVisualStyle
  2
Conceptual
 70
     9
 71
     3
 72
     2
 73
     0
 90
        0
 40
-0.6
 41
-30.0
 62
     5
 63
     7
 74
     2
 91
        2
 64
     7
 65
   257
 75
     1
175
     1
 42
179.0
 92
        8
 66
     7
 43
1.0
 76
     1
 77
     6
 78
     2
 67
     7
 79
     3
170
     0
171
     0
290
     0
174
     0
 93
        1
 44
0.0
173
     0
291
     0
 45
0.0
1001
ACAD
1000
AcDbSavedByObjectVersion
1070
     0
  0
VISUALSTYLE
  5
81B9
102
{ACAD_XDICTIONARY
360
83E7
102
}
102
{ACAD_REACTORS
330
81AE
102
}
330
81AE
100
AcDbVisualStyle
  2
Dim
 70
    11
 71
     2
 72
     2
 73
     0
 90
        0
 40
-0.6
 41
-30.0
 62
     5
 63
     7
 74
     1
 91
        4
 64
     7
 65
   257
 75
     1
175
     1
 42
1.0
 92
        8
 66
     7
 43
1.0
 76
     1
 77
     6
 78
     2
 67
     7
 79
     5
170
     0
171
     0
290
     0
174
     0
 93
        1
 44
-50.0
173
     0
291
     1
 45
0.0
1001
ACAD
1000
AcDbSavedByObjectVersion
1070
     0
  0
VISUALSTYLE
  5
81C6
102
{ACAD_XDICTIONARY
360
8401
102
}
102
{ACAD_REACTORS
330
81AE
102
}
330
81AE
100
AcDbVisualStyle
  2
EdgeColorOff
 70
    22
 71
     2
 72
     2
 73
     0
 90
        0
 40
-0.6
 41
-30.0
 62
     5
 63
     7
 74
     1
 91
        4
 64
     7
 65
   257
 75
     1
175
     1
 42
1.0
 92
        8
 66
     7
 43
1.0
 76
     1
 77
     6
 78
     2
 67
     7
 79
     5
170
     0
171
     0
290
     0
174
     0
 93
        1
 44
0.0
173
     0
291
     1
 45
0.0
1001
ACAD
1000
AcDbSavedByObjectVersion
1070
     0
  0
VISUALSTYLE
  5
81BD
102
{ACAD_XDICTIONARY
360
83EF
102
}
102
{ACAD_REACTORS
330
81AE
102
}
330
81AE
100
AcDbVisualStyle
  2
Facepattern
 70
    15
 71
     2
 72
     2
 73
     0
 90
        0
 40
-0.6
 41
-30.0
 62
     5
 63
     7
 74
     1
 91
        4
 64
     7
 65
   257
 75
     1
175
     1
 42
1.0
 92
        8
 66
     7
 43
1.0
 76
     1
 77
     6
 78
     2
 67
     7
 79
     5
170
     0
171
     0
290
     0
174
     0
 93
        1
 44
0.0
173
     0
291
     1
 45
0.0
1001
ACAD
1000
AcDbSavedByObjectVersion
1070
     0
  0
VISUALSTYLE
  5
81AF
102
{ACAD_XDICTIONARY
360
83D3
102
}
102
{ACAD_REACTORS
330
81AE
102
}
330
81AE
100
AcDbVisualStyle
  2
Flat
 70
     0
 71
     2
 72
     1
 73
     1
 90
        2
 40
-0.6
 41
30.0
 62
     5
 63
     7
 74
     0
 91
        0
 64
     7
 65
   257
 75
     1
175
     1
 42
1.0
 92
        8
 66
     7
 43
1.0
 76
     1
 77
     6
 78
     2
 67
     7
 79
     5
170
     0
171
     0
290
     0
174
     0
 93
       13
 44
0.0
173
     0
291
     1
 45
0.0
1001
ACAD
1000
AcDbSavedByObjectVersion
1070
     0
  0
VISUALSTYLE
  5
81B0
102
{ACAD_XDICTIONARY
360
83D5
102
}
102
{ACAD_REACTORS
330
81AE
102
}
330
81AE
100
AcDbVisualStyle
  2
FlatWithEdges
 70
     1
 71
     2
 72
     1
 73
     1
 90
        2
 40
-0.6
 41
30.0
 62
     5
 63
     7
 74
     1
 91
        0
 64
     7
 65
   257
 75
     1
175
     1
 42
1.0
 92
        0
 66
   257
 43
1.0
 76
     1
 77
     6
 78
     2
 67
     7
 79
     5
170
     0
171
     0
290
     0
174
     0
 93
       13
 44
0.0
173
     0
291
     1
 45
0.0
1001
ACAD
1000
AcDbSavedByObjectVersion
1070
     0
  0
VISUALSTYLE
  5
81B1
102
{ACAD_XDICTIONARY
360
83D7
102
}
102
{ACAD_REACTORS
330
81AE
102
}
330
81AE
100
AcDbVisualStyle
  2
Gouraud
 70
     2
 71
     2
 72
     2
 73
     1
 90
        2
 40
-0.6
 41
30.0
 62
     5
 63
     7
 74
     0
 91
        0
 64
     7
 65
   257
 75
     1
175
     1
 42
1.0
 92
        0
 66
     7
 43
1.0
 76
     1
 77
     6
 78
     2
 67
     7
 79
     5
170
     0
171
     0
290
     0
174
     0
 93
       13
 44
0.0
173
     0
291
     1
 45
0.0
1001
ACAD
1000
AcDbSavedByObjectVersion
1070
     0
  0
VISUALSTYLE
  5
81B2
102
{ACAD_XDICTIONARY
360
83D9
102
}
102
{ACAD_REACTORS
330
81AE
102
}
330
81AE
100
AcDbVisualStyle
  2
GouraudWithEdges
 70
     3
 71
     2
 72
     2
 73
     1
 90
        2
 40
-0.6
 41
30.0
 62
     5
 63
     7
 74
     1
 91
        0
 64
     7
 65
   257
 75
     1
175
     1
 42
1.0
 92
        0
 66
   257
 43
1.0
 76
     1
 77
     6
 78
     2
 67
     7
 79
     5
170
     0
171
     0
290
     0
174
     0
 93
       13
 44
0.0
173
     0
291
     1
 45
0.0
1001
ACAD
1000
AcDbSavedByObjectVersion
1070
     0
  0
VISUALSTYLE
  5
81B6
102
{ACAD_XDICTIONARY
360
83E1
102
}
102
{ACAD_REACTORS
330
81AE
102
}
330
81AE
100
AcDbVisualStyle
  2
Hidden
 70
     6
 71
     1
 72
     2
 73
     2
 90
        0
 40
-0.6
 41
-30.0
 62
     5
 63
     7
 74
     2
 91
        2
 64
     7
 65
   257
 75
     2
175
     1
 42
40.0
 92
        0
 66
   257
 43
1.0
 76
     1
 77
     6
 78
     2
 67
     7
 79
     3
170
     0
171
     0
290
     0
174
     0
 93
        1
 44
0.0
173
     0
291
     0
 45
0.0
1001
ACAD
1000
AcDbSavedByObjectVersion
1070
     0
  0
VISUALSTYLE
  5
81C4
102
{ACAD_XDICTIONARY
360
83FD
102
}
102
{ACAD_REACTORS
330
81AE
102
}
330
81AE
100
AcDbVisualStyle
  2
JitterOff
 70
    20
 71
     2
 72
     2
 73
     0
 90
        0
 40
-0.6
 41
-30.0
 62
     5
 63
     7
 74
     1
 91
        4
 64
     7
 65
   257
 75
     1
175
     1
 42
1.0
 92
       10
 66
     7
 43
1.0
 76
     1
 77
     6
 78
     2
 67
     7
 79
     5
170
     0
171
     0
290
     0
174
     0
 93
        1
 44
0.0
173
     0
291
     1
 45
0.0
1001
ACAD
1000
AcDbSavedByObjectVersion
1070
     0
  0
VISUALSTYLE
  5
81BC
102
{ACAD_XDICTIONARY
360
83ED
102
}
102
{ACAD_REACTORS
330
81AE
102
}
330
81AE
100
AcDbVisualStyle
  2
Linepattern
 70
    14
 71
     2
 72
     2
 73
     0
 90
        0
 40
-0.6
 41
-30.0
 62
     5
 63
     7
 74
     1
 91
        4
 64
     7
 65
   257
 75
     7
175
     7
 42
1.0
 92
        8
 66
     7
 43
1.0
 76
     1
 77
     6
 78
     2
 67
     7
 79
     5
170
     0
171
     0
290
     0
174
     0
 93
        1
 44
0.0
173
     0
291
     1
 45
0.0
1001
ACAD
1000
AcDbSavedByObjectVersion
1070
     0
  0
VISUALSTYLE
  5
81C5
102
{ACAD_XDICTIONARY
360
83FF
102
}
102
{ACAD_REACTORS
330
81AE
102
}
330
81AE
100
AcDbVisualStyle
  2
OverhangOff
 70
    21
 71
     2
 72
     2
 73
     0
 90
        0
 40
-0.6
 41
-30.0
 62
     5
 63
     7
 74
     1
 91
        4
 64
     7
 65
   257
 75
     1
175
     1
 42
1.0
 92
        9
 66
     7
 43
1.0
 76
     1
 77
     6
 78
     2
 67
     7
 79
     5
170
     0
171
     0
290
     0
174
     0
 93
        1
 44
0.0
173
     0
291
     1
 45
0.0
1001
ACAD
1000
AcDbSavedByObjectVersion
1070
     0
  0
VISUALSTYLE
  5
81B8
102
{ACAD_XDICTIONARY
360
83E5
102
}
102
{ACAD_REACTORS
330
81AE
102
}
330
81AE
100
AcDbVisualStyle
  2
Realistic
 70
     8
 71
     2
 72
     3
 73
     0
 90
        2
 40
-0.6
 41
30.0
 62
     5
 63
     7
 74
     0
 91
        0
 64
     7
 65
   257
 75
     1
175
     1
 42
1.0
 92
        8
 66
   257
 43
1.0
 76
     1
 77
     6
 78
     2
 67
     7
 79
     3
170
     0
171
     0
290
     0
174
     0
 93
       13
 44
0.0
173
     0
291
     0
 45
0.0
1001
ACAD
1000
AcDbSavedByObjectVersion
1070
     0
  0
VISUALSTYLE
  5
81C3
102
{ACAD_XDICTIONARY
360
83FB
102
}
102
{ACAD_REACTORS
330
81AE
102
}
330
81AE
100
AcDbVisualStyle
  2
Shaded
 70
    27
 71
     2
 72
     2
 73
     1
 90
        2
 40
-0.6
 41
30.0
 62
     5
 63
     7
 74
     0
 91
        4
 64
     7
 65
   257
 75
     1
175
     1
 42
1.0
 92
        8
 66
   257
 43
1.0
 76
     1
 77
     6
 78
     2
 67
     8
 79
     3
170
     0
171
     0
290
     0
174
     0
 93
        5
 44
0.0
173
     0
291
     0
 45
0.0
1001
ACAD
1000
AcDbSavedByObjectVersion
1070
     0
  0
VISUALSTYLE
  5
81C2
102
{ACAD_XDICTIONARY
360
83F9
102
}
102
{ACAD_REACTORS
330
81AE
102
}
330
81AE
100
AcDbVisualStyle
  2
Shaded with edges
 70
    26
 71
     2
 72
     2
 73
     1
 90
        2
 40
-0.6
 41
30.0
 62
     5
 63
     7
 74
     1
 91
       10
 64
     7
 65
   257
 75
     2
175
     1
 42
1.0
 92
        8
 66
   257
 43
1.0
 76
     1
 77
     6
 78
     2
 67
     7
 79
     3
170
     0
171
     0
290
     0
174
     0
 93
        5
 44
0.0
173
     0
291
     0
 45
0.0
1001
ACAD
1000
AcDbSavedByObjectVersion
1070
     0
  0
VISUALSTYLE
  5
81BF
102
{ACAD_XDICTIONARY
360
83F3
102
}
102
{ACAD_REACTORS
330
81AE
102
}
330
81AE
100
AcDbVisualStyle
  2
Shades of Gray
 70
    23
 71
     2
 72
     2
 73
     3
 90
        0
 40
-0.6
 41
-30.0
 62
     5
 63
     7
 74
     2
 91
        2
 64
     7
 65
     7
 75
     1
175
     1
 42
40.0
 92
        8
 66
     7
 43
1.0
 76
     1
 77
     6
 78
     2
 67
     7
 79
     3
170
     0
171
     0
290
     0
174
     0
 93
        1
 44
0.0
173
     0
291
     0
 45
0.0
1001
ACAD
1000
AcDbSavedByObjectVersion
1070
     0
  0
VISUALSTYLE
  5
81C0
102
{ACAD_XDICTIONARY
360
83F5
102
}
102
{ACAD_REACTORS
330
81AE
102
}
330
81AE
100
AcDbVisualStyle
  2
Sketchy
 70
    24
 71
     1
 72
     2
 73
     2
 90
        0
 40
-0.6
 41
-30.0
 62
     5
 63
     7
 74
     2
 91
        2
 64
     7
 65
     7
 75
     1
175
     1
 42
40.0
 92
       11
 66
     7
 43
1.0
 76
     1
 77
     6
 78
     2
 67
     7
 79
     6
170
     0
171
     0
290
     0
174
     0
 93
        1
 44
0.0
173
     0
291
     0
 45
0.0
1001
ACAD
1000
AcDbSavedByObjectVersion
1070
     0
  0
VISUALSTYLE
  5
81BB
102
{ACAD_XDICTIONARY
360
83EB
102
}
102
{ACAD_REACTORS
330
81AE
102
}
330
81AE
100
AcDbVisualStyle
  2
Thicken
 70
    13
 71
     2
 72
     2
 73
     0
 90
        0
 40
-0.6
 41
-30.0
 62
     5
 63
     7
 74
     1
 91
        4
 64
     7
 65
   257
 75
     1
175
     1
 42
1.0
 92
       12
 66
     7
 43
1.0
 76
     1
 77
     6
 78
     2
 67
     7
 79
     5
170
     0
171
     0
290
     0
174
     0
 93
        1
 44
0.0
173
     0
291
     1
 45
0.0
1001
ACAD
1000
AcDbSavedByObjectVersion
1070
     0
  0
VISUALSTYLE
  5
81B5
102
{ACAD_XDICTIONARY
360
83DF
102
}
102
{ACAD_REACTORS
330
81AE
102
}
330
81AE
100
AcDbVisualStyle
  2
Wireframe
 70
     5
 71
     0
 72
     2
 73
     0
 90
        0
 40
-0.6
 41
-30.0
 62
     5
 63
     7
 74
     1
 91
        4
 64
     7
 65
   257
 75
     1
175
     1
 42
1.0
 92
        0
 66
   257
 43
1.0
 76
     1
 77
     6
 78
     2
 67
     7
 79
     3
170
     0
171
     0
290
     0
174
     0
 93
        1
 44
0.0
173
     0
291
     0
 45
0.0
1001
ACAD
1000
AcDbSavedByObjectVersion
1070
     0
  0
VISUALSTYLE
  5
81C1
102
{ACAD_XDICTIONARY
360
83F7
102
}
102
{ACAD_REACTORS
330
81AE
102
}
330
81AE
100
AcDbVisualStyle
  2
X-Ray
 70
    25
 71
     2
 72
     2
 73
     1
 90
        1
 40
0.5
 41
-30.0
 62
     5
 63
     7
 74
     1
 91
        0
 64
     7
 65
   257
 75
     1
175
     1
 42
1.0
 92
        8
 66
     7
 43
1.0
 76
     1
 77
     6
 78
     2
 67
     7
 79
     3
170
     0
171
     0
290
     0
174
     0
 93
       13
 44
0.0
173
     0
291
     0
 45
0.0
1001
ACAD
1000
AcDbSavedByObjectVersion
1070
     0
  0
DICTIONARYVAR
  5
8248
102
{ACAD_REACTORS
330
8243
102
}
330
8243
100
DictionaryVariables
280
     0
  1
1:1
  0
DICTIONARYVAR
  5
8245
102
{ACAD_REACTORS
330
8243
102
}
330
8243
100
DictionaryVariables
280
     0
  1
STANDARD
  0
DICTIONARYVAR
  5
8244
102
{ACAD_REACTORS
330
8243
102
}
330
8243
100
DictionaryVariables
280
     0
  1
STANDARD
  0
DICTIONARYVAR
  5
8246
102
{ACAD_REACTORS
330
8243
102
}
330
8243
100
DictionaryVariables
280
     0
  1
Imperial24
  0
DICTIONARYVAR
  5
8247
102
{ACAD_REACTORS
330
8243
102
}
330
8243
100
DictionaryVariables
280
     0
  1
Imperial24
  0
DICTIONARYVAR
  5
824B
102
{ACAD_REACTORS
330
8243
102
}
330
8243
100
DictionaryVariables
280
     0
  1
1
  0
DICTIONARYVAR
  5
824A
102
{ACAD_REACTORS
330
8243
102
}
330
8243
100
DictionaryVariables
280
     0
  1
0
  0
DICTIONARYVAR
  5
8249
102
{ACAD_REACTORS
330
8243
102
}
330
8243
100
DictionaryVariables
280
     0
  1
127
  0
DICTIONARYVAR
  5
824C
102
{ACAD_REACTORS
330
8243
102
}
330
8243
100
DictionaryVariables
280
     0
  1
2
  0
DICTIONARY
  5
8407
330
81EF
100
AcDbDictionary
280
     1
281
     1
  3
ACAD_XREC_ROUNDTRIP
360
8408
  0
DICTIONARY
  5
840B
330
81F7
100
AcDbDictionary
280
     1
281
     1
  3
ACAD_XREC_ROUNDTRIP
360
840C
  0
DICTIONARY
  5
8409
330
81F3
100
AcDbDictionary
280
     1
281
     1
  3
ACAD_XREC_ROUNDTRIP
360
840A
  0
DICTIONARY
  5
819F
330
819E
100
AcDbDictionary
280
     1
281
     1
  3
ACAD_XREC_ROUNDTRIP
360
83D1
  3
BUMPTILE
360
81A1
  3
DIFFUSETILE
360
81A0
  3
OPACITYTILE
360
81A4
  3
REFLECTIONTILE
360
81A3
  3
REFRACTIONTILE
360
81A5
  3
SPECULARTILE
360
81A2
  0
DICTIONARY
  5
8197
330
8196
100
AcDbDictionary
280
     1
281
     1
  3
ACAD_XREC_ROUNDTRIP
360
83D0
  3
BUMPTILE
360
8199
  3
DIFFUSETILE
360
8198
  3
OPACITYTILE
360
819C
  3
REFLECTIONTILE
360
819B
  3
REFRACTIONTILE
360
819D
  3
SPECULARTILE
360
819A
  0
DICTIONARY
  5
81A7
330
81A6
100
AcDbDictionary
280
     1
281
     1
  3
ACAD_XREC_ROUNDTRIP
360
83D2
  3
BUMPTILE
360
81A9
  3
DIFFUSETILE
360
81A8
  3
OPACITYTILE
360
81AC
  3
REFLECTIONTILE
360
81AB
  3
REFRACTIONTILE
360
81AD
  3
SPECULARTILE
360
81AA
  0
DICTIONARY
  5
8405
330
81ED
100
AcDbDictionary
280
     1
281
     1
  3
ACAD_XREC_ROUNDTRIP
360
8406
  0
DICTIONARY
  5
83CC
330
81E9
100
AcDbDictionary
280
     1
281
     1
  3
ACAD_ROUNDTRIP_2008_TABLESTYLE_CELLSTYLEMAP
360
83CD
  3
ACAD_XREC_ROUNDTRIP
360
8403
  0
DICTIONARY
  5
83DD
330
81B4
100
AcDbDictionary
280
     1
281
     1
  3
ACAD_XREC_ROUNDTRIP
360
83DE
  0
DICTIONARY
  5
83DB
330
81B3
100
AcDbDictionary
280
     1
281
     1
  3
ACAD_XREC_ROUNDTRIP
360
83DC
  0
DICTIONARY
  5
83E9
330
81BA
100
AcDbDictionary
280
     1
281
     1
  3
ACAD_XREC_ROUNDTRIP
360
83EA
  0
DICTIONARY
  5
83F1
330
81BE
100
AcDbDictionary
280
     1
281
     1
  3
ACAD_XREC_ROUNDTRIP
360
83F2
  0
DICTIONARY
  5
83E3
330
81B7
100
AcDbDictionary
280
     1
281
     1
  3
ACAD_XREC_ROUNDTRIP
360
83E4
  0
DICTIONARY
  5
83E7
330
81B9
100
AcDbDictionary
280
     1
281
     1
  3
ACAD_XREC_ROUNDTRIP
360
83E8
  0
DICTIONARY
  5
8401
330
81C6
100
AcDbDictionary
280
     1
281
     1
  3
ACAD_XREC_ROUNDTRIP
360
8402
  0
DICTIONARY
  5
83EF
330
81BD
100
AcDbDictionary
280
     1
281
     1
  3
ACAD_XREC_ROUNDTRIP
360
83F0
  0
DICTIONARY
  5
83D3
330
81AF
100
AcDbDictionary
280
     1
281
     1
  3
ACAD_XREC_ROUNDTRIP
360
83D4
  0
DICTIONARY
  5
83D5
330
81B0
100
AcDbDictionary
280
     1
281
     1
  3
ACAD_XREC_ROUNDTRIP
360
83D6
  0
DICTIONARY
  5
83D7
330
81B1
100
AcDbDictionary
280
     1
281
     1
  3
ACAD_XREC_ROUNDTRIP
360
83D8
  0
DICTIONARY
  5
83D9
330
81B2
100
AcDbDictionary
280
     1
281
     1
  3
ACAD_XREC_ROUNDTRIP
360
83DA
  0
DICTIONARY
  5
83E1
330
81B6
100
AcDbDictionary
280
     1
281
     1
  3
ACAD_XREC_ROUNDTRIP
360
83E2
  0
DICTIONARY
  5
83FD
330
81C4
100
AcDbDictionary
280
     1
281
     1
  3
ACAD_XREC_ROUNDTRIP
360
83FE
  0
DICTIONARY
  5
83ED
330
81BC
100
AcDbDictionary
280
     1
281
     1
  3
ACAD_XREC_ROUNDTRIP
360
83EE
  0
DICTIONARY
  5
83FF
330
81C5
100
AcDbDictionary
280
     1
281
     1
  3
ACAD_XREC_ROUNDTRIP
360
8400
  0
DICTIONARY
  5
83E5
330
81B8
100
AcDbDictionary
280
     1
281
     1
  3
ACAD_XREC_ROUNDTRIP
360
83E6
  0
DICTIONARY
  5
83FB
330
81C3
100
AcDbDictionary
280
     1
281
     1
  3
ACAD_XREC_ROUNDTRIP
360
83FC
  0
DICTIONARY
  5
83F9
330
81C2
100
AcDbDictionary
280
     1
281
     1
  3
ACAD_XREC_ROUNDTRIP
360
83FA
  0
DICTIONARY
  5
83F3
330
81BF
100
AcDbDictionary
280
     1
281
     1
  3
ACAD_XREC_ROUNDTRIP
360
83F4
  0
DICTIONARY
  5
83F5
330
81C0
100
AcDbDictionary
280
     1
281
     1
  3
ACAD_XREC_ROUNDTRIP
360
83F6
  0
DICTIONARY
  5
83EB
330
81BB
100
AcDbDictionary
280
     1
281
     1
  3
ACAD_XREC_ROUNDTRIP
360
83EC
  0
DICTIONARY
  5
83DF
330
81B5
100
AcDbDictionary
280
     1
281
     1
  3
ACAD_XREC_ROUNDTRIP
360
83E0
  0
DICTIONARY
  5
83F7
330
81C1
100
AcDbDictionary
280
     1
281
     1
  3
ACAD_XREC_ROUNDTRIP
360
83F8
  0
XRECORD
  5
8408
102
{ACAD_REACTORS
330
8407
102
}
330
8407
100
AcDbXrecord
280
     1
102
DISPLAYNAME
  1
Imperial24
102
FLAGS
 90
        0
  0
XRECORD
  5
840C
102
{ACAD_REACTORS
330
840B
102
}
330
840B
100
AcDbXrecord
280
     1
102
SHADEPLOT
 70
     0
102
SHADEPLOTRESLEVEL
 70
     2
102
SHADEPLOTCUSTOMDPI
 70
   300
  0
XRECORD
  5
840A
102
{ACAD_REACTORS
330
8409
102
}
330
8409
100
AcDbXrecord
280
     1
102
SHADEPLOT
 70
     0
102
SHADEPLOTRESLEVEL
 70
     2
102
SHADEPLOTCUSTOMDPI
 70
   300
  0
XRECORD
  5
83D1
102
{ACAD_REACTORS
330
819F
102
}
330
819F
100
AcDbXrecord
280
     1
102
MATERIAL
148
0.0
149
0.0
149
0.0
 93
        0
 94
      127
282
     0
 72
     0
 77
     0
171
     0
175
     0
179
     0
273
     0
  0
XRECORD
  5
81A1
102
{ACAD_REACTORS
330
819F
102
}
330
819F
100
AcDbXrecord
280
     1
270
     1
271
     1
  0
XRECORD
  5
81A0
102
{ACAD_REACTORS
330
819F
102
}
330
819F
100
AcDbXrecord
280
     1
270
     1
271
     1
  0
XRECORD
  5
81A4
102
{ACAD_REACTORS
330
819F
102
}
330
819F
100
AcDbXrecord
280
     1
270
     1
271
     1
  0
XRECORD
  5
81A3
102
{ACAD_REACTORS
330
819F
102
}
330
819F
100
AcDbXrecord
280
     1
270
     1
271
     1
  0
XRECORD
  5
81A5
102
{ACAD_REACTORS
330
819F
102
}
330
819F
100
AcDbXrecord
280
     1
270
     1
271
     1
  0
XRECORD
  5
81A2
102
{ACAD_REACTORS
330
819F
102
}
330
819F
100
AcDbXrecord
280
     1
270
     1
271
     1
  0
XRECORD
  5
83D0
102
{ACAD_REACTORS
330
8197
102
}
330
8197
100
AcDbXrecord
280
     1
102
MATERIAL
148
0.0
149
0.0
149
0.0
 93
        0
 94
      127
282
     0
 72
     0
 77
     0
171
     0
175
     0
179
     0
273
     0
  0
XRECORD
  5
8199
102
{ACAD_REACTORS
330
8197
102
}
330
8197
100
AcDbXrecord
280
     1
270
     1
271
     1
  0
XRECORD
  5
8198
102
{ACAD_REACTORS
330
8197
102
}
330
8197
100
AcDbXrecord
280
     1
270
     1
271
     1
  0
XRECORD
  5
819C
102
{ACAD_REACTORS
330
8197
102
}
330
8197
100
AcDbXrecord
280
     1
270
     1
271
     1
  0
XRECORD
  5
819B
102
{ACAD_REACTORS
330
8197
102
}
330
8197
100
AcDbXrecord
280
     1
270
     1
271
     1
  0
XRECORD
  5
819D
102
{ACAD_REACTORS
330
8197
102
}
330
8197
100
AcDbXrecord
280
     1
270
     1
271
     1
  0
XRECORD
  5
819A
102
{ACAD_REACTORS
330
8197
102
}
330
8197
100
AcDbXrecord
280
     1
270
     1
271
     1
  0
XRECORD
  5
83D2
102
{ACAD_REACTORS
330
81A7
102
}
330
81A7
100
AcDbXrecord
280
     1
102
MATERIAL
148
0.0
149
0.0
149
0.0
 93
        0
 94
      127
282
     0
 72
     0
 77
     0
171
     0
175
     0
179
     0
273
     0
  0
XRECORD
  5
81A9
102
{ACAD_REACTORS
330
81A7
102
}
330
81A7
100
AcDbXrecord
280
     1
270
     1
271
     1
  0
XRECORD
  5
81A8
102
{ACAD_REACTORS
330
81A7
102
}
330
81A7
100
AcDbXrecord
280
     1
270
     1
271
     1
  0
XRECORD
  5
81AC
102
{ACAD_REACTORS
330
81A7
102
}
330
81A7
100
AcDbXrecord
280
     1
270
     1
271
     1
  0
XRECORD
  5
81AB
102
{ACAD_REACTORS
330
81A7
102
}
330
81A7
100
AcDbXrecord
280
     1
270
     1
271
     1
  0
XRECORD
  5
81AD
102
{ACAD_REACTORS
330
81A7
102
}
330
81A7
100
AcDbXrecord
280
     1
270
     1
271
     1
  0
XRECORD
  5
81AA
102
{ACAD_REACTORS
330
81A7
102
}
330
81A7
100
AcDbXrecord
280
     1
270
     1
271
     1
  0
XRECORD
  5
8406
102
{ACAD_REACTORS
330
8405
102
}
330
8405
100
AcDbXrecord
280
     1
102
DISPLAYNAME
  1
Imperial24
102
FLAGS
 90
        0
  0
CELLSTYLEMAP
  5
83CD
102
{ACAD_REACTORS
330
83CC
102
}
330
83CC
100
AcDbCellStyleMap
 90
        3
300
CELLSTYLE
  1
TABLEFORMAT_BEGIN
 90
        5
170
     1
 91
        0
 92
    32768
 62
   257
 93
        1
300
CONTENTFORMAT
  1
CONTENTFORMAT_BEGIN
 90
        0
 91
        0
 92
      512
 93
        0
300

 40
0.0
140
1.0
 94
        5
 62
     0
340
81DA
144
0.25
309
CONTENTFORMAT_END
171
     0
 94
        0
309
TABLEFORMAT_END
  1
CELLSTYLE_BEGIN
 90
        1
 91
        1
300
_TITLE
309
CELLSTYLE_END
300
CELLSTYLE
  1
TABLEFORMAT_BEGIN
 90
        5
170
     1
 91
        0
 92
        0
 62
   257
 93
        1
300
CONTENTFORMAT
  1
CONTENTFORMAT_BEGIN
 90
        0
 91
        0
 92
      512
 93
        0
300

 40
0.0
140
1.0
 94
        5
 62
     0
340
81DA
144
0.18
309
CONTENTFORMAT_END
171
     0
 94
        0
309
TABLEFORMAT_END
  1
CELLSTYLE_BEGIN
 90
        2
 91
        1
300
_HEADER
309
CELLSTYLE_END
300
CELLSTYLE
  1
TABLEFORMAT_BEGIN
 90
        5
170
     1
 91
        0
 92
        0
 62
   257
 93
        1
300
CONTENTFORMAT
  1
CONTENTFORMAT_BEGIN
 90
        0
 91
        0
 92
      512
 93
        0
300

 40
0.0
140
1.0
 94
        2
 62
     0
340
81DA
144
0.18
309
CONTENTFORMAT_END
171
     0
 94
        0
309
TABLEFORMAT_END
  1
CELLSTYLE_BEGIN
 90
        3
 91
        2
300
_DATA
309
CELLSTYLE_END
  0
XRECORD
  5
8403
102
{ACAD_REACTORS
330
83CC
102
}
330
83CC
100
AcDbXrecord
280
     1
102
ACAD_ROUNDTRIP_PRE2007_TABLESTYLE
 90
      512
 91
        0
  1

 92
      512
 93
        0
  2

 94
      512
 95
        0
  3

  0
XRECORD
  5
83DE
102
{ACAD_REACTORS
330
83DD
102
}
330
83DD
100
AcDbXrecord
280
     1
102
RTVSPost2010Prop28
280
     1
102
RTVSPost2010PropOp28
 70
     1
102
RTVSPost2010Prop29
280
     1
102
RTVSPost2010PropOp29
 70
     1
102
RTVSPost2010Prop30
280
     0
102
RTVSPost2010PropOp30
 70
     1
102
RTVSPost2010Prop31
280
     0
102
RTVSPost2010PropOp31
 70
     1
102
RTVSPost2010Prop32
280
     0
102
RTVSPost2010PropOp32
 70
     1
102
RTVSPost2010Prop33
280
     0
102
RTVSPost2010PropOp33
 70
     1
102
RTVSPost2010Prop34
280
     0
102
RTVSPost2010PropOp34
 70
     1
102
RTVSPost2010Prop35
280
     0
102
RTVSPost2010PropOp35
 70
     1
102
RTVSPost2010Prop36
280
     0
102
RTVSPost2010PropOp36
 70
     1
102
RTVSPost2010Prop37
 90
       50
102
RTVSPost2010PropOp37
 70
     1
102
RTVSPost2010Prop38
140
0.0
102
RTVSPost2010PropOp38
 70
     1
102
RTVSPost2010Prop39
140
1.0
102
RTVSPost2010PropOp39
 70
     1
102
RTVSPost2010Prop40
 90
        0
102
RTVSPost2010PropOp40
 70
     1
102
RTVSPost2010Prop41ColorIndex
 90
       18
102
RTVSPost2010Prop41ColorRGB
 90
        0
102
RTVSPost2010PropOp41
 70
     1
102
RTVSPost2010Prop42
 90
       50
102
RTVSPost2010PropOp42
 70
     1
102
RTVSPost2010Prop43
 90
        3
102
RTVSPost2010PropOp43
 70
     1
102
RTVSPost2010Prop44ColorIndex
 90
        5
102
RTVSPost2010Prop44ColorRGB
 90
      255
102
RTVSPost2010PropOp44
 70
     1
102
RTVSPost2010Prop45
280
     0
102
RTVSPost2010PropOp45
 70
     1
102
RTVSPost2010Prop46
 90
       50
102
RTVSPost2010PropOp46
 70
     1
102
RTVSPost2010Prop47
 90
       50
102
RTVSPost2010PropOp47
 70
     1
102
RTVSPost2010Prop48
 90
       50
102
RTVSPost2010PropOp48
 70
     1
102
RTVSPost2010Prop49
280
     0
102
RTVSPost2010PropOp49
 70
     1
102
RTVSPost2010Prop50
 90
       50
102
RTVSPost2010PropOp50
 70
     1
102
RTVSPost2010Prop51ColorIndex
 90
      256
102
RTVSPost2010Prop51ColorRGB
 90
-16777216
102
RTVSPost2010PropOp51
 70
     0
102
RTVSPost2010Prop52
140
1.0
102
RTVSPost2010PropOp52
 70
     0
102
RTVSPost2010Prop53
 90
        2
102
RTVSPost2010PropOp53
 70
     1
102
RTVSPost2010Prop54
  1
strokes_ogs.tif
102
RTVSPost2010PropOp54
 70
     1
102
RTVSPost2010Prop55
280
     0
102
RTVSPost2010PropOp55
 70
     1
102
RTVSPost2010Prop56
140
1.0
102
RTVSPost2010PropOp56
 70
     1
102
RTVSPost2010Prop57
140
1.0
102
RTVSPost2010PropOp57
 70
     1
102
RTVSPropertyOp0
 70
     1
102
RTVSPropertyOp1
 70
     1
102
RTVSPropertyOp2
 70
     1
102
RTVSPropertyOp3
 70
     1
102
RTVSPropertyOp4
 70
     1
102
RTVSPropertyOp5
 70
     1
102
RTVSPropertyOp6
 70
     1
102
RTVSPropertyOp7
 70
     1
102
RTVSPropertyOp8
 70
     1
102
RTVSPropertyOp9
 70
     1
102
RTVSPropertyOp10
 70
     1
102
RTVSPropertyOp11
 70
     1
102
RTVSPropertyOp12
 70
     1
102
RTVSPropertyOp13
 70
     1
102
RTVSPropertyOp14
 70
     1
102
RTVSPropertyOp15
 70
     1
102
RTVSPropertyOp16
 70
     1
102
RTVSPropertyOp17
 70
     1
102
RTVSPropertyOp18
 70
     1
102
RTVSPropertyOp19
 70
     1
102
RTVSPropertyOp20
 70
     1
102
RTVSPropertyOp21
 70
     1
102
RTVSPropertyOp22
 70
     1
102
RTVSPropertyOp23
 70
     1
102
RTVSPropertyOp24
 70
     1
102
RTVSPropertyOp25
 70
     1
102
RTVSPropertyOp26
 70
     1
102
RTVSPropertyOp27
 70
     1
102
RTVSPropertyOp28
 70
     1
102
RTVSPropertyOp29
 70
     1
102
RTVSPropertyOp30
 70
     1
102
RTVSPropertyOp31
 70
     1
102
RTVSPropertyOp32
 70
     1
102
RTVSPropertyOp33
 70
     1
102
RTVSPropertyOp34
 70
     1
102
RTVSPropertyOp35
 70
     1
102
RTVSPropertyOp36
 70
     1
102
RTVSPropertyOp37
 70
     1
102
RTVSPropertyOp38
 70
     1
102
RTVSPropertyOp39
 70
     1
102
RTVSPropertyOp40
 70
     1
102
RTVSPropertyOp41
 70
     1
102
RTVSPropertyOp42
 70
     1
102
RTVSPropertyOp43
 70
     1
102
RTVSPropertyOp44
 70
     1
102
RTVSPropertyOp45
 70
     1
102
RTVSPropertyOp46
 70
     1
102
RTVSPropertyOp47
 70
     1
102
RTVSPropertyOp48
 70
     1
102
RTVSPropertyOp49
 70
     1
102
RTVSPropertyOp50
 70
     1
102
RTVSPropertyOp51
 70
     0
102
RTVSPropertyOp52
 70
     0
102
RTVSPropertyOp53
 70
     1
102
RTVSPropertyOp54
 70
     1
102
RTVSPropertyOp55
 70
     1
102
RTVSPropertyOp56
 70
     1
102
RTVSPropertyOp57
 70
     1
102
RTVSPropertyOp58
 70
     1
102
RTVSPropertyOp59
 70
     1
102
RTVSPropertyOp60
 70
     1
102
RTVSPropertyOp61
 70
     1
102
RTVSPropertyOp62
 70
     1
  0
XRECORD
  5
83DC
102
{ACAD_REACTORS
330
83DB
102
}
330
83DB
100
AcDbXrecord
280
     1
102
RTVSPost2010Prop28
280
     0
102
RTVSPost2010PropOp28
 70
     1
102
RTVSPost2010Prop29
280
     1
102
RTVSPost2010PropOp29
 70
     1
102
RTVSPost2010Prop30
280
     1
102
RTVSPost2010PropOp30
 70
     1
102
RTVSPost2010Prop31
280
     0
102
RTVSPost2010PropOp31
 70
     1
102
RTVSPost2010Prop32
280
     0
102
RTVSPost2010PropOp32
 70
     1
102
RTVSPost2010Prop33
280
     0
102
RTVSPost2010PropOp33
 70
     1
102
RTVSPost2010Prop34
280
     0
102
RTVSPost2010PropOp34
 70
     1
102
RTVSPost2010Prop35
280
     0
102
RTVSPost2010PropOp35
 70
     1
102
RTVSPost2010Prop36
280
     0
102
RTVSPost2010PropOp36
 70
     1
102
RTVSPost2010Prop37
 90
       50
102
RTVSPost2010PropOp37
 70
     1
102
RTVSPost2010Prop38
140
0.0
102
RTVSPost2010PropOp38
 70
     1
102
RTVSPost2010Prop39
140
1.0
102
RTVSPost2010PropOp39
 70
     1
102
RTVSPost2010Prop40
 90
        0
102
RTVSPost2010PropOp40
 70
     1
102
RTVSPost2010Prop41ColorIndex
 90
       18
102
RTVSPost2010Prop41ColorRGB
 90
        0
102
RTVSPost2010PropOp41
 70
     1
102
RTVSPost2010Prop42
 90
       50
102
RTVSPost2010PropOp42
 70
     1
102
RTVSPost2010Prop43
 90
        3
102
RTVSPost2010PropOp43
 70
     1
102
RTVSPost2010Prop44ColorIndex
 90
        5
102
RTVSPost2010Prop44ColorRGB
 90
      255
102
RTVSPost2010PropOp44
 70
     1
102
RTVSPost2010Prop45
280
     0
102
RTVSPost2010PropOp45
 70
     1
102
RTVSPost2010Prop46
 90
       50
102
RTVSPost2010PropOp46
 70
     1
102
RTVSPost2010Prop47
 90
       50
102
RTVSPost2010PropOp47
 70
     1
102
RTVSPost2010Prop48
 90
       50
102
RTVSPost2010PropOp48
 70
     1
102
RTVSPost2010Prop49
280
     0
102
RTVSPost2010PropOp49
 70
     1
102
RTVSPost2010Prop50
 90
       50
102
RTVSPost2010PropOp50
 70
     1
102
RTVSPost2010Prop51ColorIndex
 90
      256
102
RTVSPost2010Prop51ColorRGB
 90
-16777216
102
RTVSPost2010PropOp51
 70
     0
102
RTVSPost2010Prop52
140
1.0
102
RTVSPost2010PropOp52
 70
     0
102
RTVSPost2010Prop53
 90
        2
102
RTVSPost2010PropOp53
 70
     1
102
RTVSPost2010Prop54
  1
strokes_ogs.tif
102
RTVSPost2010PropOp54
 70
     1
102
RTVSPost2010Prop55
280
     0
102
RTVSPost2010PropOp55
 70
     1
102
RTVSPost2010Prop56
140
1.0
102
RTVSPost2010PropOp56
 70
     1
102
RTVSPost2010Prop57
140
1.0
102
RTVSPost2010PropOp57
 70
     1
102
RTVSPropertyOp0
 70
     1
102
RTVSPropertyOp1
 70
     1
102
RTVSPropertyOp2
 70
     1
102
RTVSPropertyOp3
 70
     1
102
RTVSPropertyOp4
 70
     1
102
RTVSPropertyOp5
 70
     1
102
RTVSPropertyOp6
 70
     1
102
RTVSPropertyOp7
 70
     1
102
RTVSPropertyOp8
 70
     1
102
RTVSPropertyOp9
 70
     1
102
RTVSPropertyOp10
 70
     1
102
RTVSPropertyOp11
 70
     1
102
RTVSPropertyOp12
 70
     1
102
RTVSPropertyOp13
 70
     1
102
RTVSPropertyOp14
 70
     1
102
RTVSPropertyOp15
 70
     1
102
RTVSPropertyOp16
 70
     1
102
RTVSPropertyOp17
 70
     1
102
RTVSPropertyOp18
 70
     1
102
RTVSPropertyOp19
 70
     1
102
RTVSPropertyOp20
 70
     1
102
RTVSPropertyOp21
 70
     1
102
RTVSPropertyOp22
 70
     1
102
RTVSPropertyOp23
 70
     1
102
RTVSPropertyOp24
 70
     1
102
RTVSPropertyOp25
 70
     1
102
RTVSPropertyOp26
 70
     1
102
RTVSPropertyOp27
 70
     1
102
RTVSPropertyOp28
 70
     1
102
RTVSPropertyOp29
 70
     1
102
RTVSPropertyOp30
 70
     1
102
RTVSPropertyOp31
 70
     1
102
RTVSPropertyOp32
 70
     1
102
RTVSPropertyOp33
 70
     1
102
RTVSPropertyOp34
 70
     1
102
RTVSPropertyOp35
 70
     1
102
RTVSPropertyOp36
 70
     1
102
RTVSPropertyOp37
 70
     1
102
RTVSPropertyOp38
 70
     1
102
RTVSPropertyOp39
 70
     1
102
RTVSPropertyOp40
 70
     1
102
RTVSPropertyOp41
 70
     1
102
RTVSPropertyOp42
 70
     1
102
RTVSPropertyOp43
 70
     1
102
RTVSPropertyOp44
 70
     1
102
RTVSPropertyOp45
 70
     1
102
RTVSPropertyOp46
 70
     1
102
RTVSPropertyOp47
 70
     1
102
RTVSPropertyOp48
 70
     1
102
RTVSPropertyOp49
 70
     1
102
RTVSPropertyOp50
 70
     1
102
RTVSPropertyOp51
 70
     0
102
RTVSPropertyOp52
 70
     0
102
RTVSPropertyOp53
 70
     1
102
RTVSPropertyOp54
 70
     1
102
RTVSPropertyOp55
 70
     1
102
RTVSPropertyOp56
 70
     1
102
RTVSPropertyOp57
 70
     1
102
RTVSPropertyOp58
 70
     1
102
RTVSPropertyOp59
 70
     1
102
RTVSPropertyOp60
 70
     1
102
RTVSPropertyOp61
 70
     1
102
RTVSPropertyOp62
 70
     1
  0
XRECORD
  5
83EA
102
{ACAD_REACTORS
330
83E9
102
}
330
83E9
100
AcDbXrecord
280
     1
102
RTVSPost2010Prop28
280
     0
102
RTVSPost2010PropOp28
 70
     1
102
RTVSPost2010Prop29
280
     1
102
RTVSPost2010PropOp29
 70
     1
102
RTVSPost2010Prop30
280
     1
102
RTVSPost2010PropOp30
 70
     1
102
RTVSPost2010Prop31
280
     0
102
RTVSPost2010PropOp31
 70
     1
102
RTVSPost2010Prop32
280
     0
102
RTVSPost2010PropOp32
 70
     1
102
RTVSPost2010Prop33
280
     0
102
RTVSPost2010PropOp33
 70
     1
102
RTVSPost2010Prop34
280
     0
102
RTVSPost2010PropOp34
 70
     1
102
RTVSPost2010Prop35
280
     0
102
RTVSPost2010PropOp35
 70
     1
102
RTVSPost2010Prop36
280
     0
102
RTVSPost2010PropOp36
 70
     1
102
RTVSPost2010Prop37
 90
       50
102
RTVSPost2010PropOp37
 70
     1
102
RTVSPost2010Prop38
140
0.0
102
RTVSPost2010PropOp38
 70
     1
102
RTVSPost2010Prop39
140
1.0
102
RTVSPost2010PropOp39
 70
     1
102
RTVSPost2010Prop40
 90
        0
102
RTVSPost2010PropOp40
 70
     1
102
RTVSPost2010Prop41ColorIndex
 90
       18
102
RTVSPost2010Prop41ColorRGB
 90
        0
102
RTVSPost2010PropOp41
 70
     1
102
RTVSPost2010Prop42
 90
       50
102
RTVSPost2010PropOp42
 70
     1
102
RTVSPost2010Prop43
 90
        3
102
RTVSPost2010PropOp43
 70
     1
102
RTVSPost2010Prop44ColorIndex
 90
        5
102
RTVSPost2010Prop44ColorRGB
 90
      255
102
RTVSPost2010PropOp44
 70
     1
102
RTVSPost2010Prop45
280
     0
102
RTVSPost2010PropOp45
 70
     1
102
RTVSPost2010Prop46
 90
       50
102
RTVSPost2010PropOp46
 70
     1
102
RTVSPost2010Prop47
 90
       50
102
RTVSPost2010PropOp47
 70
     1
102
RTVSPost2010Prop48
 90
       50
102
RTVSPost2010PropOp48
 70
     1
102
RTVSPost2010Prop49
280
     0
102
RTVSPost2010PropOp49
 70
     1
102
RTVSPost2010Prop50
 90
       50
102
RTVSPost2010PropOp50
 70
     1
102
RTVSPost2010Prop51ColorIndex
 90
      256
102
RTVSPost2010Prop51ColorRGB
 90
-16777216
102
RTVSPost2010PropOp51
 70
     0
102
RTVSPost2010Prop52
140
1.0
102
RTVSPost2010PropOp52
 70
     0
102
RTVSPost2010Prop53
 90
        2
102
RTVSPost2010PropOp53
 70
     1
102
RTVSPost2010Prop54
  1
strokes_ogs.tif
102
RTVSPost2010PropOp54
 70
     1
102
RTVSPost2010Prop55
280
     0
102
RTVSPost2010PropOp55
 70
     1
102
RTVSPost2010Prop56
140
1.0
102
RTVSPost2010PropOp56
 70
     1
102
RTVSPost2010Prop57
140
1.0
102
RTVSPost2010PropOp57
 70
     1
102
RTVSPropertyOp0
 70
     1
102
RTVSPropertyOp1
 70
     1
102
RTVSPropertyOp2
 70
     1
102
RTVSPropertyOp3
 70
     1
102
RTVSPropertyOp4
 70
     1
102
RTVSPropertyOp5
 70
     1
102
RTVSPropertyOp6
 70
     1
102
RTVSPropertyOp7
 70
     1
102
RTVSPropertyOp8
 70
     1
102
RTVSPropertyOp9
 70
     1
102
RTVSPropertyOp10
 70
     1
102
RTVSPropertyOp11
 70
     1
102
RTVSPropertyOp12
 70
     1
102
RTVSPropertyOp13
 70
     1
102
RTVSPropertyOp14
 70
     1
102
RTVSPropertyOp15
 70
     1
102
RTVSPropertyOp16
 70
     1
102
RTVSPropertyOp17
 70
     1
102
RTVSPropertyOp18
 70
     1
102
RTVSPropertyOp19
 70
     1
102
RTVSPropertyOp20
 70
     1
102
RTVSPropertyOp21
 70
     1
102
RTVSPropertyOp22
 70
     1
102
RTVSPropertyOp23
 70
     1
102
RTVSPropertyOp24
 70
     1
102
RTVSPropertyOp25
 70
     1
102
RTVSPropertyOp26
 70
     1
102
RTVSPropertyOp27
 70
     1
102
RTVSPropertyOp28
 70
     1
102
RTVSPropertyOp29
 70
     1
102
RTVSPropertyOp30
 70
     1
102
RTVSPropertyOp31
 70
     1
102
RTVSPropertyOp32
 70
     1
102
RTVSPropertyOp33
 70
     1
102
RTVSPropertyOp34
 70
     1
102
RTVSPropertyOp35
 70
     1
102
RTVSPropertyOp36
 70
     1
102
RTVSPropertyOp37
 70
     1
102
RTVSPropertyOp38
 70
     1
102
RTVSPropertyOp39
 70
     1
102
RTVSPropertyOp40
 70
     1
102
RTVSPropertyOp41
 70
     1
102
RTVSPropertyOp42
 70
     1
102
RTVSPropertyOp43
 70
     1
102
RTVSPropertyOp44
 70
     1
102
RTVSPropertyOp45
 70
     1
102
RTVSPropertyOp46
 70
     1
102
RTVSPropertyOp47
 70
     1
102
RTVSPropertyOp48
 70
     1
102
RTVSPropertyOp49
 70
     1
102
RTVSPropertyOp50
 70
     1
102
RTVSPropertyOp51
 70
     0
102
RTVSPropertyOp52
 70
     0
102
RTVSPropertyOp53
 70
     1
102
RTVSPropertyOp54
 70
     1
102
RTVSPropertyOp55
 70
     1
102
RTVSPropertyOp56
 70
     1
102
RTVSPropertyOp57
 70
     1
102
RTVSPropertyOp58
 70
     1
102
RTVSPropertyOp59
 70
     1
102
RTVSPropertyOp60
 70
     1
102
RTVSPropertyOp61
 70
     1
102
RTVSPropertyOp62
 70
     1
  0
XRECORD
  5
83F2
102
{ACAD_REACTORS
330
83F1
102
}
330
83F1
100
AcDbXrecord
280
     1
102
RTVSPost2010Prop28
280
     0
102
RTVSPost2010PropOp28
 70
     1
102
RTVSPost2010Prop29
280
     1
102
RTVSPost2010PropOp29
 70
     1
102
RTVSPost2010Prop30
280
     1
102
RTVSPost2010PropOp30
 70
     1
102
RTVSPost2010Prop31
280
     0
102
RTVSPost2010PropOp31
 70
     1
102
RTVSPost2010Prop32
280
     0
102
RTVSPost2010PropOp32
 70
     1
102
RTVSPost2010Prop33
280
     0
102
RTVSPost2010PropOp33
 70
     1
102
RTVSPost2010Prop34
280
     0
102
RTVSPost2010PropOp34
 70
     1
102
RTVSPost2010Prop35
280
     0
102
RTVSPost2010PropOp35
 70
     1
102
RTVSPost2010Prop36
280
     0
102
RTVSPost2010PropOp36
 70
     1
102
RTVSPost2010Prop37
 90
       50
102
RTVSPost2010PropOp37
 70
     1
102
RTVSPost2010Prop38
140
0.0
102
RTVSPost2010PropOp38
 70
     1
102
RTVSPost2010Prop39
140
1.0
102
RTVSPost2010PropOp39
 70
     1
102
RTVSPost2010Prop40
 90
        0
102
RTVSPost2010PropOp40
 70
     1
102
RTVSPost2010Prop41ColorIndex
 90
       18
102
RTVSPost2010Prop41ColorRGB
 90
        0
102
RTVSPost2010PropOp41
 70
     1
102
RTVSPost2010Prop42
 90
       50
102
RTVSPost2010PropOp42
 70
     1
102
RTVSPost2010Prop43
 90
        3
102
RTVSPost2010PropOp43
 70
     1
102
RTVSPost2010Prop44ColorIndex
 90
        5
102
RTVSPost2010Prop44ColorRGB
 90
      255
102
RTVSPost2010PropOp44
 70
     1
102
RTVSPost2010Prop45
280
     0
102
RTVSPost2010PropOp45
 70
     1
102
RTVSPost2010Prop46
 90
       50
102
RTVSPost2010PropOp46
 70
     1
102
RTVSPost2010Prop47
 90
       50
102
RTVSPost2010PropOp47
 70
     1
102
RTVSPost2010Prop48
 90
       50
102
RTVSPost2010PropOp48
 70
     1
102
RTVSPost2010Prop49
280
     0
102
RTVSPost2010PropOp49
 70
     1
102
RTVSPost2010Prop50
 90
       50
102
RTVSPost2010PropOp50
 70
     1
102
RTVSPost2010Prop51ColorIndex
 90
      256
102
RTVSPost2010Prop51ColorRGB
 90
-16777216
102
RTVSPost2010PropOp51
 70
     0
102
RTVSPost2010Prop52
140
1.0
102
RTVSPost2010PropOp52
 70
     0
102
RTVSPost2010Prop53
 90
        2
102
RTVSPost2010PropOp53
 70
     1
102
RTVSPost2010Prop54
  1
strokes_ogs.tif
102
RTVSPost2010PropOp54
 70
     1
102
RTVSPost2010Prop55
280
     0
102
RTVSPost2010PropOp55
 70
     1
102
RTVSPost2010Prop56
140
1.0
102
RTVSPost2010PropOp56
 70
     1
102
RTVSPost2010Prop57
140
1.0
102
RTVSPost2010PropOp57
 70
     1
102
RTVSPropertyOp0
 70
     1
102
RTVSPropertyOp1
 70
     1
102
RTVSPropertyOp2
 70
     1
102
RTVSPropertyOp3
 70
     1
102
RTVSPropertyOp4
 70
     1
102
RTVSPropertyOp5
 70
     1
102
RTVSPropertyOp6
 70
     1
102
RTVSPropertyOp7
 70
     1
102
RTVSPropertyOp8
 70
     1
102
RTVSPropertyOp9
 70
     1
102
RTVSPropertyOp10
 70
     1
102
RTVSPropertyOp11
 70
     1
102
RTVSPropertyOp12
 70
     1
102
RTVSPropertyOp13
 70
     1
102
RTVSPropertyOp14
 70
     1
102
RTVSPropertyOp15
 70
     1
102
RTVSPropertyOp16
 70
     1
102
RTVSPropertyOp17
 70
     1
102
RTVSPropertyOp18
 70
     1
102
RTVSPropertyOp19
 70
     1
102
RTVSPropertyOp20
 70
     1
102
RTVSPropertyOp21
 70
     1
102
RTVSPropertyOp22
 70
     1
102
RTVSPropertyOp23
 70
     1
102
RTVSPropertyOp24
 70
     1
102
RTVSPropertyOp25
 70
     1
102
RTVSPropertyOp26
 70
     1
102
RTVSPropertyOp27
 70
     1
102
RTVSPropertyOp28
 70
     1
102
RTVSPropertyOp29
 70
     1
102
RTVSPropertyOp30
 70
     1
102
RTVSPropertyOp31
 70
     1
102
RTVSPropertyOp32
 70
     1
102
RTVSPropertyOp33
 70
     1
102
RTVSPropertyOp34
 70
     1
102
RTVSPropertyOp35
 70
     1
102
RTVSPropertyOp36
 70
     1
102
RTVSPropertyOp37
 70
     1
102
RTVSPropertyOp38
 70
     1
102
RTVSPropertyOp39
 70
     1
102
RTVSPropertyOp40
 70
     1
102
RTVSPropertyOp41
 70
     1
102
RTVSPropertyOp42
 70
     1
102
RTVSPropertyOp43
 70
     1
102
RTVSPropertyOp44
 70
     1
102
RTVSPropertyOp45
 70
     1
102
RTVSPropertyOp46
 70
     1
102
RTVSPropertyOp47
 70
     1
102
RTVSPropertyOp48
 70
     1
102
RTVSPropertyOp49
 70
     1
102
RTVSPropertyOp50
 70
     1
102
RTVSPropertyOp51
 70
     0
102
RTVSPropertyOp52
 70
     0
102
RTVSPropertyOp53
 70
     1
102
RTVSPropertyOp54
 70
     1
102
RTVSPropertyOp55
 70
     1
102
RTVSPropertyOp56
 70
     1
102
RTVSPropertyOp57
 70
     1
102
RTVSPropertyOp58
 70
     1
102
RTVSPropertyOp59
 70
     1
102
RTVSPropertyOp60
 70
     1
102
RTVSPropertyOp61
 70
     1
102
RTVSPropertyOp62
 70
     1
  0
XRECORD
  5
83E4
102
{ACAD_REACTORS
330
83E3
102
}
330
83E3
100
AcDbXrecord
280
     1
102
RTVSPost2010Prop28
280
     0
102
RTVSPost2010PropOp28
 70
     1
102
RTVSPost2010Prop29
280
     1
102
RTVSPost2010PropOp29
 70
     1
102
RTVSPost2010Prop30
280
     1
102
RTVSPost2010PropOp30
 70
     1
102
RTVSPost2010Prop31
280
     0
102
RTVSPost2010PropOp31
 70
     1
102
RTVSPost2010Prop32
280
     0
102
RTVSPost2010PropOp32
 70
     1
102
RTVSPost2010Prop33
280
     0
102
RTVSPost2010PropOp33
 70
     1
102
RTVSPost2010Prop34
280
     0
102
RTVSPost2010PropOp34
 70
     1
102
RTVSPost2010Prop35
280
     0
102
RTVSPost2010PropOp35
 70
     1
102
RTVSPost2010Prop36
280
     0
102
RTVSPost2010PropOp36
 70
     1
102
RTVSPost2010Prop37
 90
       50
102
RTVSPost2010PropOp37
 70
     1
102
RTVSPost2010Prop38
140
0.0
102
RTVSPost2010PropOp38
 70
     1
102
RTVSPost2010Prop39
140
1.0
102
RTVSPost2010PropOp39
 70
     1
102
RTVSPost2010Prop40
 90
        0
102
RTVSPost2010PropOp40
 70
     1
102
RTVSPost2010Prop41ColorIndex
 90
       18
102
RTVSPost2010Prop41ColorRGB
 90
        0
102
RTVSPost2010PropOp41
 70
     1
102
RTVSPost2010Prop42
 90
       50
102
RTVSPost2010PropOp42
 70
     1
102
RTVSPost2010Prop43
 90
        3
102
RTVSPost2010PropOp43
 70
     1
102
RTVSPost2010Prop44ColorIndex
 90
        5
102
RTVSPost2010Prop44ColorRGB
 90
      255
102
RTVSPost2010PropOp44
 70
     1
102
RTVSPost2010Prop45
280
     0
102
RTVSPost2010PropOp45
 70
     1
102
RTVSPost2010Prop46
 90
       50
102
RTVSPost2010PropOp46
 70
     1
102
RTVSPost2010Prop47
 90
       50
102
RTVSPost2010PropOp47
 70
     1
102
RTVSPost2010Prop48
 90
       50
102
RTVSPost2010PropOp48
 70
     1
102
RTVSPost2010Prop49
280
     0
102
RTVSPost2010PropOp49
 70
     1
102
RTVSPost2010Prop50
 90
       50
102
RTVSPost2010PropOp50
 70
     1
102
RTVSPost2010Prop51ColorIndex
 90
      256
102
RTVSPost2010Prop51ColorRGB
 90
-16777216
102
RTVSPost2010PropOp51
 70
     0
102
RTVSPost2010Prop52
140
1.0
102
RTVSPost2010PropOp52
 70
     0
102
RTVSPost2010Prop53
 90
        2
102
RTVSPost2010PropOp53
 70
     1
102
RTVSPost2010Prop54
  1
strokes_ogs.tif
102
RTVSPost2010PropOp54
 70
     1
102
RTVSPost2010Prop55
280
     0
102
RTVSPost2010PropOp55
 70
     1
102
RTVSPost2010Prop56
140
1.0
102
RTVSPost2010PropOp56
 70
     1
102
RTVSPost2010Prop57
140
1.0
102
RTVSPost2010PropOp57
 70
     1
102
RTVSPropertyOp0
 70
     1
102
RTVSPropertyOp1
 70
     1
102
RTVSPropertyOp2
 70
     1
102
RTVSPropertyOp3
 70
     1
102
RTVSPropertyOp4
 70
     1
102
RTVSPropertyOp5
 70
     1
102
RTVSPropertyOp6
 70
     1
102
RTVSPropertyOp7
 70
     1
102
RTVSPropertyOp8
 70
     1
102
RTVSPropertyOp9
 70
     1
102
RTVSPropertyOp10
 70
     1
102
RTVSPropertyOp11
 70
     1
102
RTVSPropertyOp12
 70
     1
102
RTVSPropertyOp13
 70
     1
102
RTVSPropertyOp14
 70
     1
102
RTVSPropertyOp15
 70
     1
102
RTVSPropertyOp16
 70
     1
102
RTVSPropertyOp17
 70
     1
102
RTVSPropertyOp18
 70
     1
102
RTVSPropertyOp19
 70
     1
102
RTVSPropertyOp20
 70
     1
102
RTVSPropertyOp21
 70
     1
102
RTVSPropertyOp22
 70
     1
102
RTVSPropertyOp23
 70
     1
102
RTVSPropertyOp24
 70
     1
102
RTVSPropertyOp25
 70
     1
102
RTVSPropertyOp26
 70
     1
102
RTVSPropertyOp27
 70
     1
102
RTVSPropertyOp28
 70
     1
102
RTVSPropertyOp29
 70
     1
102
RTVSPropertyOp30
 70
     1
102
RTVSPropertyOp31
 70
     1
102
RTVSPropertyOp32
 70
     1
102
RTVSPropertyOp33
 70
     1
102
RTVSPropertyOp34
 70
     1
102
RTVSPropertyOp35
 70
     1
102
RTVSPropertyOp36
 70
     1
102
RTVSPropertyOp37
 70
     1
102
RTVSPropertyOp38
 70
     1
102
RTVSPropertyOp39
 70
     1
102
RTVSPropertyOp40
 70
     1
102
RTVSPropertyOp41
 70
     1
102
RTVSPropertyOp42
 70
     1
102
RTVSPropertyOp43
 70
     1
102
RTVSPropertyOp44
 70
     1
102
RTVSPropertyOp45
 70
     1
102
RTVSPropertyOp46
 70
     1
102
RTVSPropertyOp47
 70
     1
102
RTVSPropertyOp48
 70
     1
102
RTVSPropertyOp49
 70
     1
102
RTVSPropertyOp50
 70
     1
102
RTVSPropertyOp51
 70
     0
102
RTVSPropertyOp52
 70
     0
102
RTVSPropertyOp53
 70
     1
102
RTVSPropertyOp54
 70
     1
102
RTVSPropertyOp55
 70
     1
102
RTVSPropertyOp56
 70
     1
102
RTVSPropertyOp57
 70
     1
102
RTVSPropertyOp58
 70
     1
102
RTVSPropertyOp59
 70
     1
102
RTVSPropertyOp60
 70
     1
102
RTVSPropertyOp61
 70
     1
102
RTVSPropertyOp62
 70
     1
  0
XRECORD
  5
83E8
102
{ACAD_REACTORS
330
83E7
102
}
330
83E7
100
AcDbXrecord
280
     1
102
RTVSPost2010Prop28
280
     0
102
RTVSPost2010PropOp28
 70
     1
102
RTVSPost2010Prop29
280
     1
102
RTVSPost2010PropOp29
 70
     1
102
RTVSPost2010Prop30
280
     1
102
RTVSPost2010PropOp30
 70
     1
102
RTVSPost2010Prop31
280
     0
102
RTVSPost2010PropOp31
 70
     1
102
RTVSPost2010Prop32
280
     0
102
RTVSPost2010PropOp32
 70
     1
102
RTVSPost2010Prop33
280
     0
102
RTVSPost2010PropOp33
 70
     1
102
RTVSPost2010Prop34
280
     0
102
RTVSPost2010PropOp34
 70
     1
102
RTVSPost2010Prop35
280
     0
102
RTVSPost2010PropOp35
 70
     1
102
RTVSPost2010Prop36
280
     0
102
RTVSPost2010PropOp36
 70
     1
102
RTVSPost2010Prop37
 90
       50
102
RTVSPost2010PropOp37
 70
     1
102
RTVSPost2010Prop38
140
0.0
102
RTVSPost2010PropOp38
 70
     1
102
RTVSPost2010Prop39
140
1.0
102
RTVSPost2010PropOp39
 70
     1
102
RTVSPost2010Prop40
 90
        0
102
RTVSPost2010PropOp40
 70
     1
102
RTVSPost2010Prop41ColorIndex
 90
       18
102
RTVSPost2010Prop41ColorRGB
 90
        0
102
RTVSPost2010PropOp41
 70
     1
102
RTVSPost2010Prop42
 90
       50
102
RTVSPost2010PropOp42
 70
     1
102
RTVSPost2010Prop43
 90
        3
102
RTVSPost2010PropOp43
 70
     1
102
RTVSPost2010Prop44ColorIndex
 90
        5
102
RTVSPost2010Prop44ColorRGB
 90
      255
102
RTVSPost2010PropOp44
 70
     1
102
RTVSPost2010Prop45
280
     0
102
RTVSPost2010PropOp45
 70
     1
102
RTVSPost2010Prop46
 90
       50
102
RTVSPost2010PropOp46
 70
     1
102
RTVSPost2010Prop47
 90
       50
102
RTVSPost2010PropOp47
 70
     1
102
RTVSPost2010Prop48
 90
       50
102
RTVSPost2010PropOp48
 70
     1
102
RTVSPost2010Prop49
280
     0
102
RTVSPost2010PropOp49
 70
     1
102
RTVSPost2010Prop50
 90
       50
102
RTVSPost2010PropOp50
 70
     1
102
RTVSPost2010Prop51ColorIndex
 90
      256
102
RTVSPost2010Prop51ColorRGB
 90
-16777216
102
RTVSPost2010PropOp51
 70
     0
102
RTVSPost2010Prop52
140
1.0
102
RTVSPost2010PropOp52
 70
     0
102
RTVSPost2010Prop53
 90
        2
102
RTVSPost2010PropOp53
 70
     1
102
RTVSPost2010Prop54
  1
strokes_ogs.tif
102
RTVSPost2010PropOp54
 70
     1
102
RTVSPost2010Prop55
280
     0
102
RTVSPost2010PropOp55
 70
     1
102
RTVSPost2010Prop56
140
1.0
102
RTVSPost2010PropOp56
 70
     1
102
RTVSPost2010Prop57
140
1.0
102
RTVSPost2010PropOp57
 70
     1
102
RTVSPropertyOp0
 70
     1
102
RTVSPropertyOp1
 70
     1
102
RTVSPropertyOp2
 70
     1
102
RTVSPropertyOp3
 70
     1
102
RTVSPropertyOp4
 70
     1
102
RTVSPropertyOp5
 70
     1
102
RTVSPropertyOp6
 70
     1
102
RTVSPropertyOp7
 70
     1
102
RTVSPropertyOp8
 70
     1
102
RTVSPropertyOp9
 70
     1
102
RTVSPropertyOp10
 70
     1
102
RTVSPropertyOp11
 70
     1
102
RTVSPropertyOp12
 70
     1
102
RTVSPropertyOp13
 70
     1
102
RTVSPropertyOp14
 70
     1
102
RTVSPropertyOp15
 70
     1
102
RTVSPropertyOp16
 70
     1
102
RTVSPropertyOp17
 70
     1
102
RTVSPropertyOp18
 70
     1
102
RTVSPropertyOp19
 70
     1
102
RTVSPropertyOp20
 70
     1
102
RTVSPropertyOp21
 70
     1
102
RTVSPropertyOp22
 70
     1
102
RTVSPropertyOp23
 70
     1
102
RTVSPropertyOp24
 70
     1
102
RTVSPropertyOp25
 70
     1
102
RTVSPropertyOp26
 70
     1
102
RTVSPropertyOp27
 70
     1
102
RTVSPropertyOp28
 70
     1
102
RTVSPropertyOp29
 70
     1
102
RTVSPropertyOp30
 70
     1
102
RTVSPropertyOp31
 70
     1
102
RTVSPropertyOp32
 70
     1
102
RTVSPropertyOp33
 70
     1
102
RTVSPropertyOp34
 70
     1
102
RTVSPropertyOp35
 70
     1
102
RTVSPropertyOp36
 70
     1
102
RTVSPropertyOp37
 70
     1
102
RTVSPropertyOp38
 70
     1
102
RTVSPropertyOp39
 70
     1
102
RTVSPropertyOp40
 70
     1
102
RTVSPropertyOp41
 70
     1
102
RTVSPropertyOp42
 70
     1
102
RTVSPropertyOp43
 70
     1
102
RTVSPropertyOp44
 70
     1
102
RTVSPropertyOp45
 70
     1
102
RTVSPropertyOp46
 70
     1
102
RTVSPropertyOp47
 70
     1
102
RTVSPropertyOp48
 70
     1
102
RTVSPropertyOp49
 70
     1
102
RTVSPropertyOp50
 70
     1
102
RTVSPropertyOp51
 70
     0
102
RTVSPropertyOp52
 70
     0
102
RTVSPropertyOp53
 70
     1
102
RTVSPropertyOp54
 70
     1
102
RTVSPropertyOp55
 70
     1
102
RTVSPropertyOp56
 70
     1
102
RTVSPropertyOp57
 70
     1
102
RTVSPropertyOp58
 70
     1
102
RTVSPropertyOp59
 70
     1
102
RTVSPropertyOp60
 70
     1
102
RTVSPropertyOp61
 70
     1
102
RTVSPropertyOp62
 70
     1
  0
XRECORD
  5
8402
102
{ACAD_REACTORS
330
8401
102
}
330
8401
100
AcDbXrecord
280
     1
102
RTVSPost2010Prop28
280
     0
102
RTVSPost2010PropOp28
 70
     1
102
RTVSPost2010Prop29
280
     1
102
RTVSPost2010PropOp29
 70
     1
102
RTVSPost2010Prop30
280
     1
102
RTVSPost2010PropOp30
 70
     1
102
RTVSPost2010Prop31
280
     0
102
RTVSPost2010PropOp31
 70
     1
102
RTVSPost2010Prop32
280
     0
102
RTVSPost2010PropOp32
 70
     1
102
RTVSPost2010Prop33
280
     0
102
RTVSPost2010PropOp33
 70
     1
102
RTVSPost2010Prop34
280
     0
102
RTVSPost2010PropOp34
 70
     1
102
RTVSPost2010Prop35
280
     0
102
RTVSPost2010PropOp35
 70
     1
102
RTVSPost2010Prop36
280
     0
102
RTVSPost2010PropOp36
 70
     1
102
RTVSPost2010Prop37
 90
       50
102
RTVSPost2010PropOp37
 70
     0
102
RTVSPost2010Prop38
140
0.0
102
RTVSPost2010PropOp38
 70
     0
102
RTVSPost2010Prop39
140
1.0
102
RTVSPost2010PropOp39
 70
     0
102
RTVSPost2010Prop40
 90
        0
102
RTVSPost2010PropOp40
 70
     0
102
RTVSPost2010Prop41ColorIndex
 90
       18
102
RTVSPost2010Prop41ColorRGB
 90
        0
102
RTVSPost2010PropOp41
 70
     0
102
RTVSPost2010Prop42
 90
       50
102
RTVSPost2010PropOp42
 70
     0
102
RTVSPost2010Prop43
 90
        3
102
RTVSPost2010PropOp43
 70
     0
102
RTVSPost2010Prop44ColorIndex
 90
        5
102
RTVSPost2010Prop44ColorRGB
 90
      255
102
RTVSPost2010PropOp44
 70
     0
102
RTVSPost2010Prop45
280
     0
102
RTVSPost2010PropOp45
 70
     1
102
RTVSPost2010Prop46
 90
       50
102
RTVSPost2010PropOp46
 70
     0
102
RTVSPost2010Prop47
 90
       50
102
RTVSPost2010PropOp47
 70
     0
102
RTVSPost2010Prop48
 90
       50
102
RTVSPost2010PropOp48
 70
     0
102
RTVSPost2010Prop49
280
     0
102
RTVSPost2010PropOp49
 70
     1
102
RTVSPost2010Prop50
 90
       50
102
RTVSPost2010PropOp50
 70
     0
102
RTVSPost2010Prop51ColorIndex
 90
      256
102
RTVSPost2010Prop51ColorRGB
 90
-16777216
102
RTVSPost2010PropOp51
 70
     0
102
RTVSPost2010Prop52
140
1.0
102
RTVSPost2010PropOp52
 70
     0
102
RTVSPost2010Prop53
 90
        2
102
RTVSPost2010PropOp53
 70
     0
102
RTVSPost2010Prop54
  1
strokes_ogs.tif
102
RTVSPost2010PropOp54
 70
     0
102
RTVSPost2010Prop55
280
     0
102
RTVSPost2010PropOp55
 70
     1
102
RTVSPost2010Prop56
140
1.0
102
RTVSPost2010PropOp56
 70
     0
102
RTVSPost2010Prop57
140
1.0
102
RTVSPost2010PropOp57
 70
     0
102
RTVSPropertyOp0
 70
     0
102
RTVSPropertyOp1
 70
     0
102
RTVSPropertyOp2
 70
     0
102
RTVSPropertyOp3
 70
     0
102
RTVSPropertyOp4
 70
     0
102
RTVSPropertyOp5
 70
     0
102
RTVSPropertyOp6
 70
     0
102
RTVSPropertyOp7
 70
     0
102
RTVSPropertyOp8
 70
     0
102
RTVSPropertyOp9
 70
     0
102
RTVSPropertyOp10
 70
     0
102
RTVSPropertyOp11
 70
     0
102
RTVSPropertyOp12
 70
     0
102
RTVSPropertyOp13
 70
     0
102
RTVSPropertyOp14
 70
     2
102
RTVSPropertyOp15
 70
     0
102
RTVSPropertyOp16
 70
     0
102
RTVSPropertyOp17
 70
     0
102
RTVSPropertyOp18
 70
     0
102
RTVSPropertyOp19
 70
     0
102
RTVSPropertyOp20
 70
     0
102
RTVSPropertyOp21
 70
     0
102
RTVSPropertyOp22
 70
     0
102
RTVSPropertyOp23
 70
     0
102
RTVSPropertyOp24
 70
     0
102
RTVSPropertyOp25
 70
     0
102
RTVSPropertyOp26
 70
     0
102
RTVSPropertyOp27
 70
     0
102
RTVSPropertyOp28
 70
     1
102
RTVSPropertyOp29
 70
     1
102
RTVSPropertyOp30
 70
     1
102
RTVSPropertyOp31
 70
     1
102
RTVSPropertyOp32
 70
     1
102
RTVSPropertyOp33
 70
     1
102
RTVSPropertyOp34
 70
     1
102
RTVSPropertyOp35
 70
     1
102
RTVSPropertyOp36
 70
     1
102
RTVSPropertyOp37
 70
     0
102
RTVSPropertyOp38
 70
     0
102
RTVSPropertyOp39
 70
     0
102
RTVSPropertyOp40
 70
     0
102
RTVSPropertyOp41
 70
     0
102
RTVSPropertyOp42
 70
     0
102
RTVSPropertyOp43
 70
     0
102
RTVSPropertyOp44
 70
     0
102
RTVSPropertyOp45
 70
     1
102
RTVSPropertyOp46
 70
     0
102
RTVSPropertyOp47
 70
     0
102
RTVSPropertyOp48
 70
     0
102
RTVSPropertyOp49
 70
     1
102
RTVSPropertyOp50
 70
     0
102
RTVSPropertyOp51
 70
     0
102
RTVSPropertyOp52
 70
     0
102
RTVSPropertyOp53
 70
     0
102
RTVSPropertyOp54
 70
     0
102
RTVSPropertyOp55
 70
     1
102
RTVSPropertyOp56
 70
     0
102
RTVSPropertyOp57
 70
     0
102
RTVSPropertyOp58
 70
     0
102
RTVSPropertyOp59
 70
     0
102
RTVSPropertyOp60
 70
     0
102
RTVSPropertyOp61
 70
     0
102
RTVSPropertyOp62
 70
     0
  0
XRECORD
  5
83F0
102
{ACAD_REACTORS
330
83EF
102
}
330
83EF
100
AcDbXrecord
280
     1
102
RTVSPost2010Prop28
280
     0
102
RTVSPost2010PropOp28
 70
     1
102
RTVSPost2010Prop29
280
     1
102
RTVSPost2010PropOp29
 70
     1
102
RTVSPost2010Prop30
280
     1
102
RTVSPost2010PropOp30
 70
     1
102
RTVSPost2010Prop31
280
     0
102
RTVSPost2010PropOp31
 70
     1
102
RTVSPost2010Prop32
280
     0
102
RTVSPost2010PropOp32
 70
     1
102
RTVSPost2010Prop33
280
     0
102
RTVSPost2010PropOp33
 70
     1
102
RTVSPost2010Prop34
280
     0
102
RTVSPost2010PropOp34
 70
     1
102
RTVSPost2010Prop35
280
     0
102
RTVSPost2010PropOp35
 70
     1
102
RTVSPost2010Prop36
280
     0
102
RTVSPost2010PropOp36
 70
     1
102
RTVSPost2010Prop37
 90
       50
102
RTVSPost2010PropOp37
 70
     1
102
RTVSPost2010Prop38
140
0.0
102
RTVSPost2010PropOp38
 70
     1
102
RTVSPost2010Prop39
140
1.0
102
RTVSPost2010PropOp39
 70
     1
102
RTVSPost2010Prop40
 90
        0
102
RTVSPost2010PropOp40
 70
     1
102
RTVSPost2010Prop41ColorIndex
 90
       18
102
RTVSPost2010Prop41ColorRGB
 90
        0
102
RTVSPost2010PropOp41
 70
     1
102
RTVSPost2010Prop42
 90
       50
102
RTVSPost2010PropOp42
 70
     1
102
RTVSPost2010Prop43
 90
        3
102
RTVSPost2010PropOp43
 70
     1
102
RTVSPost2010Prop44ColorIndex
 90
        5
102
RTVSPost2010Prop44ColorRGB
 90
      255
102
RTVSPost2010PropOp44
 70
     1
102
RTVSPost2010Prop45
280
     0
102
RTVSPost2010PropOp45
 70
     1
102
RTVSPost2010Prop46
 90
       50
102
RTVSPost2010PropOp46
 70
     1
102
RTVSPost2010Prop47
 90
       50
102
RTVSPost2010PropOp47
 70
     1
102
RTVSPost2010Prop48
 90
       50
102
RTVSPost2010PropOp48
 70
     1
102
RTVSPost2010Prop49
280
     0
102
RTVSPost2010PropOp49
 70
     1
102
RTVSPost2010Prop50
 90
       50
102
RTVSPost2010PropOp50
 70
     1
102
RTVSPost2010Prop51ColorIndex
 90
      256
102
RTVSPost2010Prop51ColorRGB
 90
-16777216
102
RTVSPost2010PropOp51
 70
     0
102
RTVSPost2010Prop52
140
1.0
102
RTVSPost2010PropOp52
 70
     0
102
RTVSPost2010Prop53
 90
        2
102
RTVSPost2010PropOp53
 70
     1
102
RTVSPost2010Prop54
  1
strokes_ogs.tif
102
RTVSPost2010PropOp54
 70
     1
102
RTVSPost2010Prop55
280
     0
102
RTVSPost2010PropOp55
 70
     1
102
RTVSPost2010Prop56
140
1.0
102
RTVSPost2010PropOp56
 70
     1
102
RTVSPost2010Prop57
140
1.0
102
RTVSPost2010PropOp57
 70
     1
102
RTVSPropertyOp0
 70
     1
102
RTVSPropertyOp1
 70
     1
102
RTVSPropertyOp2
 70
     1
102
RTVSPropertyOp3
 70
     1
102
RTVSPropertyOp4
 70
     1
102
RTVSPropertyOp5
 70
     1
102
RTVSPropertyOp6
 70
     1
102
RTVSPropertyOp7
 70
     1
102
RTVSPropertyOp8
 70
     1
102
RTVSPropertyOp9
 70
     1
102
RTVSPropertyOp10
 70
     1
102
RTVSPropertyOp11
 70
     1
102
RTVSPropertyOp12
 70
     1
102
RTVSPropertyOp13
 70
     1
102
RTVSPropertyOp14
 70
     1
102
RTVSPropertyOp15
 70
     1
102
RTVSPropertyOp16
 70
     1
102
RTVSPropertyOp17
 70
     1
102
RTVSPropertyOp18
 70
     1
102
RTVSPropertyOp19
 70
     1
102
RTVSPropertyOp20
 70
     1
102
RTVSPropertyOp21
 70
     1
102
RTVSPropertyOp22
 70
     1
102
RTVSPropertyOp23
 70
     1
102
RTVSPropertyOp24
 70
     1
102
RTVSPropertyOp25
 70
     1
102
RTVSPropertyOp26
 70
     1
102
RTVSPropertyOp27
 70
     1
102
RTVSPropertyOp28
 70
     1
102
RTVSPropertyOp29
 70
     1
102
RTVSPropertyOp30
 70
     1
102
RTVSPropertyOp31
 70
     1
102
RTVSPropertyOp32
 70
     1
102
RTVSPropertyOp33
 70
     1
102
RTVSPropertyOp34
 70
     1
102
RTVSPropertyOp35
 70
     1
102
RTVSPropertyOp36
 70
     1
102
RTVSPropertyOp37
 70
     1
102
RTVSPropertyOp38
 70
     1
102
RTVSPropertyOp39
 70
     1
102
RTVSPropertyOp40
 70
     1
102
RTVSPropertyOp41
 70
     1
102
RTVSPropertyOp42
 70
     1
102
RTVSPropertyOp43
 70
     1
102
RTVSPropertyOp44
 70
     1
102
RTVSPropertyOp45
 70
     1
102
RTVSPropertyOp46
 70
     1
102
RTVSPropertyOp47
 70
     1
102
RTVSPropertyOp48
 70
     1
102
RTVSPropertyOp49
 70
     1
102
RTVSPropertyOp50
 70
     1
102
RTVSPropertyOp51
 70
     0
102
RTVSPropertyOp52
 70
     0
102
RTVSPropertyOp53
 70
     1
102
RTVSPropertyOp54
 70
     1
102
RTVSPropertyOp55
 70
     1
102
RTVSPropertyOp56
 70
     1
102
RTVSPropertyOp57
 70
     1
102
RTVSPropertyOp58
 70
     1
102
RTVSPropertyOp59
 70
     1
102
RTVSPropertyOp60
 70
     1
102
RTVSPropertyOp61
 70
     1
102
RTVSPropertyOp62
 70
     1
  0
XRECORD
  5
83D4
102
{ACAD_REACTORS
330
83D3
102
}
330
83D3
100
AcDbXrecord
280
     1
102
RTVSPost2010Prop28
280
     0
102
RTVSPost2010PropOp28
 70
     1
102
RTVSPost2010Prop29
280
     1
102
RTVSPost2010PropOp29
 70
     1
102
RTVSPost2010Prop30
280
     1
102
RTVSPost2010PropOp30
 70
     1
102
RTVSPost2010Prop31
280
     0
102
RTVSPost2010PropOp31
 70
     1
102
RTVSPost2010Prop32
280
     0
102
RTVSPost2010PropOp32
 70
     1
102
RTVSPost2010Prop33
280
     0
102
RTVSPost2010PropOp33
 70
     1
102
RTVSPost2010Prop34
280
     0
102
RTVSPost2010PropOp34
 70
     1
102
RTVSPost2010Prop35
280
     0
102
RTVSPost2010PropOp35
 70
     1
102
RTVSPost2010Prop36
280
     0
102
RTVSPost2010PropOp36
 70
     1
102
RTVSPost2010Prop37
 90
       50
102
RTVSPost2010PropOp37
 70
     1
102
RTVSPost2010Prop38
140
0.0
102
RTVSPost2010PropOp38
 70
     1
102
RTVSPost2010Prop39
140
1.0
102
RTVSPost2010PropOp39
 70
     1
102
RTVSPost2010Prop40
 90
        0
102
RTVSPost2010PropOp40
 70
     1
102
RTVSPost2010Prop41ColorIndex
 90
       18
102
RTVSPost2010Prop41ColorRGB
 90
        0
102
RTVSPost2010PropOp41
 70
     1
102
RTVSPost2010Prop42
 90
       50
102
RTVSPost2010PropOp42
 70
     1
102
RTVSPost2010Prop43
 90
        3
102
RTVSPost2010PropOp43
 70
     1
102
RTVSPost2010Prop44ColorIndex
 90
        5
102
RTVSPost2010Prop44ColorRGB
 90
      255
102
RTVSPost2010PropOp44
 70
     1
102
RTVSPost2010Prop45
280
     0
102
RTVSPost2010PropOp45
 70
     1
102
RTVSPost2010Prop46
 90
       50
102
RTVSPost2010PropOp46
 70
     1
102
RTVSPost2010Prop47
 90
       50
102
RTVSPost2010PropOp47
 70
     1
102
RTVSPost2010Prop48
 90
       50
102
RTVSPost2010PropOp48
 70
     1
102
RTVSPost2010Prop49
280
     0
102
RTVSPost2010PropOp49
 70
     1
102
RTVSPost2010Prop50
 90
       50
102
RTVSPost2010PropOp50
 70
     1
102
RTVSPost2010Prop51ColorIndex
 90
      256
102
RTVSPost2010Prop51ColorRGB
 90
-16777216
102
RTVSPost2010PropOp51
 70
     0
102
RTVSPost2010Prop52
140
1.0
102
RTVSPost2010PropOp52
 70
     0
102
RTVSPost2010Prop53
 90
        2
102
RTVSPost2010PropOp53
 70
     1
102
RTVSPost2010Prop54
  1
strokes_ogs.tif
102
RTVSPost2010PropOp54
 70
     1
102
RTVSPost2010Prop55
280
     0
102
RTVSPost2010PropOp55
 70
     1
102
RTVSPost2010Prop56
140
1.0
102
RTVSPost2010PropOp56
 70
     1
102
RTVSPost2010Prop57
140
1.0
102
RTVSPost2010PropOp57
 70
     1
102
RTVSPropertyOp0
 70
     1
102
RTVSPropertyOp1
 70
     1
102
RTVSPropertyOp2
 70
     1
102
RTVSPropertyOp3
 70
     1
102
RTVSPropertyOp4
 70
     1
102
RTVSPropertyOp5
 70
     1
102
RTVSPropertyOp6
 70
     1
102
RTVSPropertyOp7
 70
     1
102
RTVSPropertyOp8
 70
     1
102
RTVSPropertyOp9
 70
     1
102
RTVSPropertyOp10
 70
     1
102
RTVSPropertyOp11
 70
     1
102
RTVSPropertyOp12
 70
     1
102
RTVSPropertyOp13
 70
     1
102
RTVSPropertyOp14
 70
     1
102
RTVSPropertyOp15
 70
     1
102
RTVSPropertyOp16
 70
     1
102
RTVSPropertyOp17
 70
     1
102
RTVSPropertyOp18
 70
     1
102
RTVSPropertyOp19
 70
     1
102
RTVSPropertyOp20
 70
     1
102
RTVSPropertyOp21
 70
     1
102
RTVSPropertyOp22
 70
     1
102
RTVSPropertyOp23
 70
     1
102
RTVSPropertyOp24
 70
     1
102
RTVSPropertyOp25
 70
     1
102
RTVSPropertyOp26
 70
     1
102
RTVSPropertyOp27
 70
     1
102
RTVSPropertyOp28
 70
     1
102
RTVSPropertyOp29
 70
     1
102
RTVSPropertyOp30
 70
     1
102
RTVSPropertyOp31
 70
     1
102
RTVSPropertyOp32
 70
     1
102
RTVSPropertyOp33
 70
     1
102
RTVSPropertyOp34
 70
     1
102
RTVSPropertyOp35
 70
     1
102
RTVSPropertyOp36
 70
     1
102
RTVSPropertyOp37
 70
     1
102
RTVSPropertyOp38
 70
     1
102
RTVSPropertyOp39
 70
     1
102
RTVSPropertyOp40
 70
     1
102
RTVSPropertyOp41
 70
     1
102
RTVSPropertyOp42
 70
     1
102
RTVSPropertyOp43
 70
     1
102
RTVSPropertyOp44
 70
     1
102
RTVSPropertyOp45
 70
     1
102
RTVSPropertyOp46
 70
     1
102
RTVSPropertyOp47
 70
     1
102
RTVSPropertyOp48
 70
     1
102
RTVSPropertyOp49
 70
     1
102
RTVSPropertyOp50
 70
     1
102
RTVSPropertyOp51
 70
     0
102
RTVSPropertyOp52
 70
     0
102
RTVSPropertyOp53
 70
     1
102
RTVSPropertyOp54
 70
     1
102
RTVSPropertyOp55
 70
     1
102
RTVSPropertyOp56
 70
     1
102
RTVSPropertyOp57
 70
     1
102
RTVSPropertyOp58
 70
     1
102
RTVSPropertyOp59
 70
     1
102
RTVSPropertyOp60
 70
     1
102
RTVSPropertyOp61
 70
     1
102
RTVSPropertyOp62
 70
     1
  0
XRECORD
  5
83D6
102
{ACAD_REACTORS
330
83D5
102
}
330
83D5
100
AcDbXrecord
280
     1
102
RTVSPost2010Prop28
280
     0
102
RTVSPost2010PropOp28
 70
     1
102
RTVSPost2010Prop29
280
     1
102
RTVSPost2010PropOp29
 70
     1
102
RTVSPost2010Prop30
280
     1
102
RTVSPost2010PropOp30
 70
     1
102
RTVSPost2010Prop31
280
     0
102
RTVSPost2010PropOp31
 70
     1
102
RTVSPost2010Prop32
280
     0
102
RTVSPost2010PropOp32
 70
     1
102
RTVSPost2010Prop33
280
     0
102
RTVSPost2010PropOp33
 70
     1
102
RTVSPost2010Prop34
280
     0
102
RTVSPost2010PropOp34
 70
     1
102
RTVSPost2010Prop35
280
     0
102
RTVSPost2010PropOp35
 70
     1
102
RTVSPost2010Prop36
280
     0
102
RTVSPost2010PropOp36
 70
     1
102
RTVSPost2010Prop37
 90
       50
102
RTVSPost2010PropOp37
 70
     1
102
RTVSPost2010Prop38
140
0.0
102
RTVSPost2010PropOp38
 70
     1
102
RTVSPost2010Prop39
140
1.0
102
RTVSPost2010PropOp39
 70
     1
102
RTVSPost2010Prop40
 90
        0
102
RTVSPost2010PropOp40
 70
     1
102
RTVSPost2010Prop41ColorIndex
 90
       18
102
RTVSPost2010Prop41ColorRGB
 90
        0
102
RTVSPost2010PropOp41
 70
     1
102
RTVSPost2010Prop42
 90
       50
102
RTVSPost2010PropOp42
 70
     1
102
RTVSPost2010Prop43
 90
        3
102
RTVSPost2010PropOp43
 70
     1
102
RTVSPost2010Prop44ColorIndex
 90
        5
102
RTVSPost2010Prop44ColorRGB
 90
      255
102
RTVSPost2010PropOp44
 70
     1
102
RTVSPost2010Prop45
280
     0
102
RTVSPost2010PropOp45
 70
     1
102
RTVSPost2010Prop46
 90
       50
102
RTVSPost2010PropOp46
 70
     1
102
RTVSPost2010Prop47
 90
       50
102
RTVSPost2010PropOp47
 70
     1
102
RTVSPost2010Prop48
 90
       50
102
RTVSPost2010PropOp48
 70
     1
102
RTVSPost2010Prop49
280
     0
102
RTVSPost2010PropOp49
 70
     1
102
RTVSPost2010Prop50
 90
       50
102
RTVSPost2010PropOp50
 70
     1
102
RTVSPost2010Prop51ColorIndex
 90
      256
102
RTVSPost2010Prop51ColorRGB
 90
-16777216
102
RTVSPost2010PropOp51
 70
     0
102
RTVSPost2010Prop52
140
1.0
102
RTVSPost2010PropOp52
 70
     0
102
RTVSPost2010Prop53
 90
        2
102
RTVSPost2010PropOp53
 70
     1
102
RTVSPost2010Prop54
  1
strokes_ogs.tif
102
RTVSPost2010PropOp54
 70
     1
102
RTVSPost2010Prop55
280
     0
102
RTVSPost2010PropOp55
 70
     1
102
RTVSPost2010Prop56
140
1.0
102
RTVSPost2010PropOp56
 70
     1
102
RTVSPost2010Prop57
140
1.0
102
RTVSPost2010PropOp57
 70
     1
102
RTVSPropertyOp0
 70
     1
102
RTVSPropertyOp1
 70
     1
102
RTVSPropertyOp2
 70
     1
102
RTVSPropertyOp3
 70
     1
102
RTVSPropertyOp4
 70
     1
102
RTVSPropertyOp5
 70
     1
102
RTVSPropertyOp6
 70
     1
102
RTVSPropertyOp7
 70
     1
102
RTVSPropertyOp8
 70
     1
102
RTVSPropertyOp9
 70
     1
102
RTVSPropertyOp10
 70
     1
102
RTVSPropertyOp11
 70
     1
102
RTVSPropertyOp12
 70
     1
102
RTVSPropertyOp13
 70
     1
102
RTVSPropertyOp14
 70
     1
102
RTVSPropertyOp15
 70
     1
102
RTVSPropertyOp16
 70
     1
102
RTVSPropertyOp17
 70
     1
102
RTVSPropertyOp18
 70
     1
102
RTVSPropertyOp19
 70
     1
102
RTVSPropertyOp20
 70
     1
102
RTVSPropertyOp21
 70
     1
102
RTVSPropertyOp22
 70
     1
102
RTVSPropertyOp23
 70
     1
102
RTVSPropertyOp24
 70
     1
102
RTVSPropertyOp25
 70
     1
102
RTVSPropertyOp26
 70
     1
102
RTVSPropertyOp27
 70
     1
102
RTVSPropertyOp28
 70
     1
102
RTVSPropertyOp29
 70
     1
102
RTVSPropertyOp30
 70
     1
102
RTVSPropertyOp31
 70
     1
102
RTVSPropertyOp32
 70
     1
102
RTVSPropertyOp33
 70
     1
102
RTVSPropertyOp34
 70
     1
102
RTVSPropertyOp35
 70
     1
102
RTVSPropertyOp36
 70
     1
102
RTVSPropertyOp37
 70
     1
102
RTVSPropertyOp38
 70
     1
102
RTVSPropertyOp39
 70
     1
102
RTVSPropertyOp40
 70
     1
102
RTVSPropertyOp41
 70
     1
102
RTVSPropertyOp42
 70
     1
102
RTVSPropertyOp43
 70
     1
102
RTVSPropertyOp44
 70
     1
102
RTVSPropertyOp45
 70
     1
102
RTVSPropertyOp46
 70
     1
102
RTVSPropertyOp47
 70
     1
102
RTVSPropertyOp48
 70
     1
102
RTVSPropertyOp49
 70
     1
102
RTVSPropertyOp50
 70
     1
102
RTVSPropertyOp51
 70
     0
102
RTVSPropertyOp52
 70
     0
102
RTVSPropertyOp53
 70
     1
102
RTVSPropertyOp54
 70
     1
102
RTVSPropertyOp55
 70
     1
102
RTVSPropertyOp56
 70
     1
102
RTVSPropertyOp57
 70
     1
102
RTVSPropertyOp58
 70
     1
102
RTVSPropertyOp59
 70
     1
102
RTVSPropertyOp60
 70
     1
102
RTVSPropertyOp61
 70
     1
102
RTVSPropertyOp62
 70
     1
  0
XRECORD
  5
83D8
102
{ACAD_REACTORS
330
83D7
102
}
330
83D7
100
AcDbXrecord
280
     1
102
RTVSPost2010Prop28
280
     0
102
RTVSPost2010PropOp28
 70
     1
102
RTVSPost2010Prop29
280
     1
102
RTVSPost2010PropOp29
 70
     1
102
RTVSPost2010Prop30
280
     1
102
RTVSPost2010PropOp30
 70
     1
102
RTVSPost2010Prop31
280
     0
102
RTVSPost2010PropOp31
 70
     1
102
RTVSPost2010Prop32
280
     0
102
RTVSPost2010PropOp32
 70
     1
102
RTVSPost2010Prop33
280
     0
102
RTVSPost2010PropOp33
 70
     1
102
RTVSPost2010Prop34
280
     0
102
RTVSPost2010PropOp34
 70
     1
102
RTVSPost2010Prop35
280
     0
102
RTVSPost2010PropOp35
 70
     1
102
RTVSPost2010Prop36
280
     0
102
RTVSPost2010PropOp36
 70
     1
102
RTVSPost2010Prop37
 90
       50
102
RTVSPost2010PropOp37
 70
     1
102
RTVSPost2010Prop38
140
0.0
102
RTVSPost2010PropOp38
 70
     1
102
RTVSPost2010Prop39
140
1.0
102
RTVSPost2010PropOp39
 70
     1
102
RTVSPost2010Prop40
 90
        0
102
RTVSPost2010PropOp40
 70
     1
102
RTVSPost2010Prop41ColorIndex
 90
       18
102
RTVSPost2010Prop41ColorRGB
 90
        0
102
RTVSPost2010PropOp41
 70
     1
102
RTVSPost2010Prop42
 90
       50
102
RTVSPost2010PropOp42
 70
     1
102
RTVSPost2010Prop43
 90
        3
102
RTVSPost2010PropOp43
 70
     1
102
RTVSPost2010Prop44ColorIndex
 90
        5
102
RTVSPost2010Prop44ColorRGB
 90
      255
102
RTVSPost2010PropOp44
 70
     1
102
RTVSPost2010Prop45
280
     0
102
RTVSPost2010PropOp45
 70
     1
102
RTVSPost2010Prop46
 90
       50
102
RTVSPost2010PropOp46
 70
     1
102
RTVSPost2010Prop47
 90
       50
102
RTVSPost2010PropOp47
 70
     1
102
RTVSPost2010Prop48
 90
       50
102
RTVSPost2010PropOp48
 70
     1
102
RTVSPost2010Prop49
280
     0
102
RTVSPost2010PropOp49
 70
     1
102
RTVSPost2010Prop50
 90
       50
102
RTVSPost2010PropOp50
 70
     1
102
RTVSPost2010Prop51ColorIndex
 90
      256
102
RTVSPost2010Prop51ColorRGB
 90
-16777216
102
RTVSPost2010PropOp51
 70
     0
102
RTVSPost2010Prop52
140
1.0
102
RTVSPost2010PropOp52
 70
     0
102
RTVSPost2010Prop53
 90
        2
102
RTVSPost2010PropOp53
 70
     1
102
RTVSPost2010Prop54
  1
strokes_ogs.tif
102
RTVSPost2010PropOp54
 70
     1
102
RTVSPost2010Prop55
280
     0
102
RTVSPost2010PropOp55
 70
     1
102
RTVSPost2010Prop56
140
1.0
102
RTVSPost2010PropOp56
 70
     1
102
RTVSPost2010Prop57
140
1.0
102
RTVSPost2010PropOp57
 70
     1
102
RTVSPropertyOp0
 70
     1
102
RTVSPropertyOp1
 70
     1
102
RTVSPropertyOp2
 70
     1
102
RTVSPropertyOp3
 70
     1
102
RTVSPropertyOp4
 70
     1
102
RTVSPropertyOp5
 70
     1
102
RTVSPropertyOp6
 70
     1
102
RTVSPropertyOp7
 70
     1
102
RTVSPropertyOp8
 70
     1
102
RTVSPropertyOp9
 70
     1
102
RTVSPropertyOp10
 70
     1
102
RTVSPropertyOp11
 70
     1
102
RTVSPropertyOp12
 70
     1
102
RTVSPropertyOp13
 70
     1
102
RTVSPropertyOp14
 70
     1
102
RTVSPropertyOp15
 70
     1
102
RTVSPropertyOp16
 70
     1
102
RTVSPropertyOp17
 70
     1
102
RTVSPropertyOp18
 70
     1
102
RTVSPropertyOp19
 70
     1
102
RTVSPropertyOp20
 70
     1
102
RTVSPropertyOp21
 70
     1
102
RTVSPropertyOp22
 70
     1
102
RTVSPropertyOp23
 70
     1
102
RTVSPropertyOp24
 70
     1
102
RTVSPropertyOp25
 70
     1
102
RTVSPropertyOp26
 70
     1
102
RTVSPropertyOp27
 70
     1
102
RTVSPropertyOp28
 70
     1
102
RTVSPropertyOp29
 70
     1
102
RTVSPropertyOp30
 70
     1
102
RTVSPropertyOp31
 70
     1
102
RTVSPropertyOp32
 70
     1
102
RTVSPropertyOp33
 70
     1
102
RTVSPropertyOp34
 70
     1
102
RTVSPropertyOp35
 70
     1
102
RTVSPropertyOp36
 70
     1
102
RTVSPropertyOp37
 70
     1
102
RTVSPropertyOp38
 70
     1
102
RTVSPropertyOp39
 70
     1
102
RTVSPropertyOp40
 70
     1
102
RTVSPropertyOp41
 70
     1
102
RTVSPropertyOp42
 70
     1
102
RTVSPropertyOp43
 70
     1
102
RTVSPropertyOp44
 70
     1
102
RTVSPropertyOp45
 70
     1
102
RTVSPropertyOp46
 70
     1
102
RTVSPropertyOp47
 70
     1
102
RTVSPropertyOp48
 70
     1
102
RTVSPropertyOp49
 70
     1
102
RTVSPropertyOp50
 70
     1
102
RTVSPropertyOp51
 70
     0
102
RTVSPropertyOp52
 70
     0
102
RTVSPropertyOp53
 70
     1
102
RTVSPropertyOp54
 70
     1
102
RTVSPropertyOp55
 70
     1
102
RTVSPropertyOp56
 70
     1
102
RTVSPropertyOp57
 70
     1
102
RTVSPropertyOp58
 70
     1
102
RTVSPropertyOp59
 70
     1
102
RTVSPropertyOp60
 70
     1
102
RTVSPropertyOp61
 70
     1
102
RTVSPropertyOp62
 70
     1
  0
XRECORD
  5
83DA
102
{ACAD_REACTORS
330
83D9
102
}
330
83D9
100
AcDbXrecord
280
     1
102
RTVSPost2010Prop28
280
     0
102
RTVSPost2010PropOp28
 70
     1
102
RTVSPost2010Prop29
280
     1
102
RTVSPost2010PropOp29
 70
     1
102
RTVSPost2010Prop30
280
     1
102
RTVSPost2010PropOp30
 70
     1
102
RTVSPost2010Prop31
280
     0
102
RTVSPost2010PropOp31
 70
     1
102
RTVSPost2010Prop32
280
     0
102
RTVSPost2010PropOp32
 70
     1
102
RTVSPost2010Prop33
280
     0
102
RTVSPost2010PropOp33
 70
     1
102
RTVSPost2010Prop34
280
     0
102
RTVSPost2010PropOp34
 70
     1
102
RTVSPost2010Prop35
280
     0
102
RTVSPost2010PropOp35
 70
     1
102
RTVSPost2010Prop36
280
     0
102
RTVSPost2010PropOp36
 70
     1
102
RTVSPost2010Prop37
 90
       50
102
RTVSPost2010PropOp37
 70
     1
102
RTVSPost2010Prop38
140
0.0
102
RTVSPost2010PropOp38
 70
     1
102
RTVSPost2010Prop39
140
1.0
102
RTVSPost2010PropOp39
 70
     1
102
RTVSPost2010Prop40
 90
        0
102
RTVSPost2010PropOp40
 70
     1
102
RTVSPost2010Prop41ColorIndex
 90
       18
102
RTVSPost2010Prop41ColorRGB
 90
        0
102
RTVSPost2010PropOp41
 70
     1
102
RTVSPost2010Prop42
 90
       50
102
RTVSPost2010PropOp42
 70
     1
102
RTVSPost2010Prop43
 90
        3
102
RTVSPost2010PropOp43
 70
     1
102
RTVSPost2010Prop44ColorIndex
 90
        5
102
RTVSPost2010Prop44ColorRGB
 90
      255
102
RTVSPost2010PropOp44
 70
     1
102
RTVSPost2010Prop45
280
     0
102
RTVSPost2010PropOp45
 70
     1
102
RTVSPost2010Prop46
 90
       50
102
RTVSPost2010PropOp46
 70
     1
102
RTVSPost2010Prop47
 90
       50
102
RTVSPost2010PropOp47
 70
     1
102
RTVSPost2010Prop48
 90
       50
102
RTVSPost2010PropOp48
 70
     1
102
RTVSPost2010Prop49
280
     0
102
RTVSPost2010PropOp49
 70
     1
102
RTVSPost2010Prop50
 90
       50
102
RTVSPost2010PropOp50
 70
     1
102
RTVSPost2010Prop51ColorIndex
 90
      256
102
RTVSPost2010Prop51ColorRGB
 90
-16777216
102
RTVSPost2010PropOp51
 70
     0
102
RTVSPost2010Prop52
140
1.0
102
RTVSPost2010PropOp52
 70
     0
102
RTVSPost2010Prop53
 90
        2
102
RTVSPost2010PropOp53
 70
     1
102
RTVSPost2010Prop54
  1
strokes_ogs.tif
102
RTVSPost2010PropOp54
 70
     1
102
RTVSPost2010Prop55
280
     0
102
RTVSPost2010PropOp55
 70
     1
102
RTVSPost2010Prop56
140
1.0
102
RTVSPost2010PropOp56
 70
     1
102
RTVSPost2010Prop57
140
1.0
102
RTVSPost2010PropOp57
 70
     1
102
RTVSPropertyOp0
 70
     1
102
RTVSPropertyOp1
 70
     1
102
RTVSPropertyOp2
 70
     1
102
RTVSPropertyOp3
 70
     1
102
RTVSPropertyOp4
 70
     1
102
RTVSPropertyOp5
 70
     1
102
RTVSPropertyOp6
 70
     1
102
RTVSPropertyOp7
 70
     1
102
RTVSPropertyOp8
 70
     1
102
RTVSPropertyOp9
 70
     1
102
RTVSPropertyOp10
 70
     1
102
RTVSPropertyOp11
 70
     1
102
RTVSPropertyOp12
 70
     1
102
RTVSPropertyOp13
 70
     1
102
RTVSPropertyOp14
 70
     1
102
RTVSPropertyOp15
 70
     1
102
RTVSPropertyOp16
 70
     1
102
RTVSPropertyOp17
 70
     1
102
RTVSPropertyOp18
 70
     1
102
RTVSPropertyOp19
 70
     1
102
RTVSPropertyOp20
 70
     1
102
RTVSPropertyOp21
 70
     1
102
RTVSPropertyOp22
 70
     1
102
RTVSPropertyOp23
 70
     1
102
RTVSPropertyOp24
 70
     1
102
RTVSPropertyOp25
 70
     1
102
RTVSPropertyOp26
 70
     1
102
RTVSPropertyOp27
 70
     1
102
RTVSPropertyOp28
 70
     1
102
RTVSPropertyOp29
 70
     1
102
RTVSPropertyOp30
 70
     1
102
RTVSPropertyOp31
 70
     1
102
RTVSPropertyOp32
 70
     1
102
RTVSPropertyOp33
 70
     1
102
RTVSPropertyOp34
 70
     1
102
RTVSPropertyOp35
 70
     1
102
RTVSPropertyOp36
 70
     1
102
RTVSPropertyOp37
 70
     1
102
RTVSPropertyOp38
 70
     1
102
RTVSPropertyOp39
 70
     1
102
RTVSPropertyOp40
 70
     1
102
RTVSPropertyOp41
 70
     1
102
RTVSPropertyOp42
 70
     1
102
RTVSPropertyOp43
 70
     1
102
RTVSPropertyOp44
 70
     1
102
RTVSPropertyOp45
 70
     1
102
RTVSPropertyOp46
 70
     1
102
RTVSPropertyOp47
 70
     1
102
RTVSPropertyOp48
 70
     1
102
RTVSPropertyOp49
 70
     1
102
RTVSPropertyOp50
 70
     1
102
RTVSPropertyOp51
 70
     0
102
RTVSPropertyOp52
 70
     0
102
RTVSPropertyOp53
 70
     1
102
RTVSPropertyOp54
 70
     1
102
RTVSPropertyOp55
 70
     1
102
RTVSPropertyOp56
 70
     1
102
RTVSPropertyOp57
 70
     1
102
RTVSPropertyOp58
 70
     1
102
RTVSPropertyOp59
 70
     1
102
RTVSPropertyOp60
 70
     1
102
RTVSPropertyOp61
 70
     1
102
RTVSPropertyOp62
 70
     1
  0
XRECORD
  5
83E2
102
{ACAD_REACTORS
330
83E1
102
}
330
83E1
100
AcDbXrecord
280
     1
102
RTVSPost2010Prop28
280
     0
102
RTVSPost2010PropOp28
 70
     1
102
RTVSPost2010Prop29
280
     1
102
RTVSPost2010PropOp29
 70
     1
102
RTVSPost2010Prop30
280
     1
102
RTVSPost2010PropOp30
 70
     1
102
RTVSPost2010Prop31
280
     0
102
RTVSPost2010PropOp31
 70
     1
102
RTVSPost2010Prop32
280
     0
102
RTVSPost2010PropOp32
 70
     1
102
RTVSPost2010Prop33
280
     0
102
RTVSPost2010PropOp33
 70
     1
102
RTVSPost2010Prop34
280
     0
102
RTVSPost2010PropOp34
 70
     1
102
RTVSPost2010Prop35
280
     0
102
RTVSPost2010PropOp35
 70
     1
102
RTVSPost2010Prop36
280
     0
102
RTVSPost2010PropOp36
 70
     1
102
RTVSPost2010Prop37
 90
       50
102
RTVSPost2010PropOp37
 70
     1
102
RTVSPost2010Prop38
140
0.0
102
RTVSPost2010PropOp38
 70
     1
102
RTVSPost2010Prop39
140
1.0
102
RTVSPost2010PropOp39
 70
     1
102
RTVSPost2010Prop40
 90
        0
102
RTVSPost2010PropOp40
 70
     1
102
RTVSPost2010Prop41ColorIndex
 90
       18
102
RTVSPost2010Prop41ColorRGB
 90
        0
102
RTVSPost2010PropOp41
 70
     1
102
RTVSPost2010Prop42
 90
       50
102
RTVSPost2010PropOp42
 70
     1
102
RTVSPost2010Prop43
 90
        3
102
RTVSPost2010PropOp43
 70
     1
102
RTVSPost2010Prop44ColorIndex
 90
        5
102
RTVSPost2010Prop44ColorRGB
 90
      255
102
RTVSPost2010PropOp44
 70
     1
102
RTVSPost2010Prop45
280
     0
102
RTVSPost2010PropOp45
 70
     1
102
RTVSPost2010Prop46
 90
       50
102
RTVSPost2010PropOp46
 70
     1
102
RTVSPost2010Prop47
 90
       50
102
RTVSPost2010PropOp47
 70
     1
102
RTVSPost2010Prop48
 90
       50
102
RTVSPost2010PropOp48
 70
     1
102
RTVSPost2010Prop49
280
     0
102
RTVSPost2010PropOp49
 70
     1
102
RTVSPost2010Prop50
 90
       50
102
RTVSPost2010PropOp50
 70
     1
102
RTVSPost2010Prop51ColorIndex
 90
      256
102
RTVSPost2010Prop51ColorRGB
 90
-16777216
102
RTVSPost2010PropOp51
 70
     0
102
RTVSPost2010Prop52
140
1.0
102
RTVSPost2010PropOp52
 70
     0
102
RTVSPost2010Prop53
 90
        2
102
RTVSPost2010PropOp53
 70
     1
102
RTVSPost2010Prop54
  1
strokes_ogs.tif
102
RTVSPost2010PropOp54
 70
     1
102
RTVSPost2010Prop55
280
     0
102
RTVSPost2010PropOp55
 70
     1
102
RTVSPost2010Prop56
140
1.0
102
RTVSPost2010PropOp56
 70
     1
102
RTVSPost2010Prop57
140
1.0
102
RTVSPost2010PropOp57
 70
     1
102
RTVSPropertyOp0
 70
     1
102
RTVSPropertyOp1
 70
     1
102
RTVSPropertyOp2
 70
     1
102
RTVSPropertyOp3
 70
     1
102
RTVSPropertyOp4
 70
     1
102
RTVSPropertyOp5
 70
     1
102
RTVSPropertyOp6
 70
     1
102
RTVSPropertyOp7
 70
     1
102
RTVSPropertyOp8
 70
     1
102
RTVSPropertyOp9
 70
     1
102
RTVSPropertyOp10
 70
     1
102
RTVSPropertyOp11
 70
     1
102
RTVSPropertyOp12
 70
     1
102
RTVSPropertyOp13
 70
     1
102
RTVSPropertyOp14
 70
     1
102
RTVSPropertyOp15
 70
     1
102
RTVSPropertyOp16
 70
     1
102
RTVSPropertyOp17
 70
     1
102
RTVSPropertyOp18
 70
     1
102
RTVSPropertyOp19
 70
     1
102
RTVSPropertyOp20
 70
     1
102
RTVSPropertyOp21
 70
     1
102
RTVSPropertyOp22
 70
     1
102
RTVSPropertyOp23
 70
     1
102
RTVSPropertyOp24
 70
     1
102
RTVSPropertyOp25
 70
     1
102
RTVSPropertyOp26
 70
     1
102
RTVSPropertyOp27
 70
     1
102
RTVSPropertyOp28
 70
     1
102
RTVSPropertyOp29
 70
     1
102
RTVSPropertyOp30
 70
     1
102
RTVSPropertyOp31
 70
     1
102
RTVSPropertyOp32
 70
     1
102
RTVSPropertyOp33
 70
     1
102
RTVSPropertyOp34
 70
     1
102
RTVSPropertyOp35
 70
     1
102
RTVSPropertyOp36
 70
     1
102
RTVSPropertyOp37
 70
     1
102
RTVSPropertyOp38
 70
     1
102
RTVSPropertyOp39
 70
     1
102
RTVSPropertyOp40
 70
     1
102
RTVSPropertyOp41
 70
     1
102
RTVSPropertyOp42
 70
     1
102
RTVSPropertyOp43
 70
     1
102
RTVSPropertyOp44
 70
     1
102
RTVSPropertyOp45
 70
     1
102
RTVSPropertyOp46
 70
     1
102
RTVSPropertyOp47
 70
     1
102
RTVSPropertyOp48
 70
     1
102
RTVSPropertyOp49
 70
     1
102
RTVSPropertyOp50
 70
     1
102
RTVSPropertyOp51
 70
     0
102
RTVSPropertyOp52
 70
     0
102
RTVSPropertyOp53
 70
     1
102
RTVSPropertyOp54
 70
     1
102
RTVSPropertyOp55
 70
     1
102
RTVSPropertyOp56
 70
     1
102
RTVSPropertyOp57
 70
     1
102
RTVSPropertyOp58
 70
     1
102
RTVSPropertyOp59
 70
     1
102
RTVSPropertyOp60
 70
     1
102
RTVSPropertyOp61
 70
     1
102
RTVSPropertyOp62
 70
     1
  0
XRECORD
  5
83FE
102
{ACAD_REACTORS
330
83FD
102
}
330
83FD
100
AcDbXrecord
280
     1
102
RTVSPost2010Prop28
280
     0
102
RTVSPost2010PropOp28
 70
     1
102
RTVSPost2010Prop29
280
     1
102
RTVSPost2010PropOp29
 70
     1
102
RTVSPost2010Prop30
280
     1
102
RTVSPost2010PropOp30
 70
     1
102
RTVSPost2010Prop31
280
     0
102
RTVSPost2010PropOp31
 70
     1
102
RTVSPost2010Prop32
280
     0
102
RTVSPost2010PropOp32
 70
     1
102
RTVSPost2010Prop33
280
     0
102
RTVSPost2010PropOp33
 70
     1
102
RTVSPost2010Prop34
280
     0
102
RTVSPost2010PropOp34
 70
     1
102
RTVSPost2010Prop35
280
     0
102
RTVSPost2010PropOp35
 70
     1
102
RTVSPost2010Prop36
280
     0
102
RTVSPost2010PropOp36
 70
     1
102
RTVSPost2010Prop37
 90
       50
102
RTVSPost2010PropOp37
 70
     0
102
RTVSPost2010Prop38
140
0.0
102
RTVSPost2010PropOp38
 70
     0
102
RTVSPost2010Prop39
140
1.0
102
RTVSPost2010PropOp39
 70
     0
102
RTVSPost2010Prop40
 90
        0
102
RTVSPost2010PropOp40
 70
     0
102
RTVSPost2010Prop41ColorIndex
 90
       18
102
RTVSPost2010Prop41ColorRGB
 90
        0
102
RTVSPost2010PropOp41
 70
     0
102
RTVSPost2010Prop42
 90
       50
102
RTVSPost2010PropOp42
 70
     0
102
RTVSPost2010Prop43
 90
        3
102
RTVSPost2010PropOp43
 70
     0
102
RTVSPost2010Prop44ColorIndex
 90
        5
102
RTVSPost2010Prop44ColorRGB
 90
      255
102
RTVSPost2010PropOp44
 70
     0
102
RTVSPost2010Prop45
280
     0
102
RTVSPost2010PropOp45
 70
     1
102
RTVSPost2010Prop46
 90
       50
102
RTVSPost2010PropOp46
 70
     0
102
RTVSPost2010Prop47
 90
       50
102
RTVSPost2010PropOp47
 70
     0
102
RTVSPost2010Prop48
 90
       50
102
RTVSPost2010PropOp48
 70
     0
102
RTVSPost2010Prop49
280
     0
102
RTVSPost2010PropOp49
 70
     1
102
RTVSPost2010Prop50
 90
       50
102
RTVSPost2010PropOp50
 70
     0
102
RTVSPost2010Prop51ColorIndex
 90
      256
102
RTVSPost2010Prop51ColorRGB
 90
-16777216
102
RTVSPost2010PropOp51
 70
     0
102
RTVSPost2010Prop52
140
1.0
102
RTVSPost2010PropOp52
 70
     0
102
RTVSPost2010Prop53
 90
        2
102
RTVSPost2010PropOp53
 70
     0
102
RTVSPost2010Prop54
  1
strokes_ogs.tif
102
RTVSPost2010PropOp54
 70
     0
102
RTVSPost2010Prop55
280
     0
102
RTVSPost2010PropOp55
 70
     1
102
RTVSPost2010Prop56
140
1.0
102
RTVSPost2010PropOp56
 70
     0
102
RTVSPost2010Prop57
140
1.0
102
RTVSPost2010PropOp57
 70
     0
102
RTVSPropertyOp0
 70
     0
102
RTVSPropertyOp1
 70
     0
102
RTVSPropertyOp2
 70
     0
102
RTVSPropertyOp3
 70
     0
102
RTVSPropertyOp4
 70
     0
102
RTVSPropertyOp5
 70
     0
102
RTVSPropertyOp6
 70
     0
102
RTVSPropertyOp7
 70
     0
102
RTVSPropertyOp8
 70
     0
102
RTVSPropertyOp9
 70
     0
102
RTVSPropertyOp10
 70
     0
102
RTVSPropertyOp11
 70
     0
102
RTVSPropertyOp12
 70
     0
102
RTVSPropertyOp13
 70
     0
102
RTVSPropertyOp14
 70
     2
102
RTVSPropertyOp15
 70
     0
102
RTVSPropertyOp16
 70
     0
102
RTVSPropertyOp17
 70
     0
102
RTVSPropertyOp18
 70
     0
102
RTVSPropertyOp19
 70
     0
102
RTVSPropertyOp20
 70
     0
102
RTVSPropertyOp21
 70
     0
102
RTVSPropertyOp22
 70
     0
102
RTVSPropertyOp23
 70
     0
102
RTVSPropertyOp24
 70
     0
102
RTVSPropertyOp25
 70
     0
102
RTVSPropertyOp26
 70
     0
102
RTVSPropertyOp27
 70
     0
102
RTVSPropertyOp28
 70
     1
102
RTVSPropertyOp29
 70
     1
102
RTVSPropertyOp30
 70
     1
102
RTVSPropertyOp31
 70
     1
102
RTVSPropertyOp32
 70
     1
102
RTVSPropertyOp33
 70
     1
102
RTVSPropertyOp34
 70
     1
102
RTVSPropertyOp35
 70
     1
102
RTVSPropertyOp36
 70
     1
102
RTVSPropertyOp37
 70
     0
102
RTVSPropertyOp38
 70
     0
102
RTVSPropertyOp39
 70
     0
102
RTVSPropertyOp40
 70
     0
102
RTVSPropertyOp41
 70
     0
102
RTVSPropertyOp42
 70
     0
102
RTVSPropertyOp43
 70
     0
102
RTVSPropertyOp44
 70
     0
102
RTVSPropertyOp45
 70
     1
102
RTVSPropertyOp46
 70
     0
102
RTVSPropertyOp47
 70
     0
102
RTVSPropertyOp48
 70
     0
102
RTVSPropertyOp49
 70
     1
102
RTVSPropertyOp50
 70
     0
102
RTVSPropertyOp51
 70
     0
102
RTVSPropertyOp52
 70
     0
102
RTVSPropertyOp53
 70
     0
102
RTVSPropertyOp54
 70
     0
102
RTVSPropertyOp55
 70
     1
102
RTVSPropertyOp56
 70
     0
102
RTVSPropertyOp57
 70
     0
102
RTVSPropertyOp58
 70
     0
102
RTVSPropertyOp59
 70
     0
102
RTVSPropertyOp60
 70
     0
102
RTVSPropertyOp61
 70
     0
102
RTVSPropertyOp62
 70
     0
  0
XRECORD
  5
83EE
102
{ACAD_REACTORS
330
83ED
102
}
330
83ED
100
AcDbXrecord
280
     1
102
RTVSPost2010Prop28
280
     0
102
RTVSPost2010PropOp28
 70
     1
102
RTVSPost2010Prop29
280
     1
102
RTVSPost2010PropOp29
 70
     1
102
RTVSPost2010Prop30
280
     1
102
RTVSPost2010PropOp30
 70
     1
102
RTVSPost2010Prop31
280
     0
102
RTVSPost2010PropOp31
 70
     1
102
RTVSPost2010Prop32
280
     0
102
RTVSPost2010PropOp32
 70
     1
102
RTVSPost2010Prop33
280
     0
102
RTVSPost2010PropOp33
 70
     1
102
RTVSPost2010Prop34
280
     0
102
RTVSPost2010PropOp34
 70
     1
102
RTVSPost2010Prop35
280
     0
102
RTVSPost2010PropOp35
 70
     1
102
RTVSPost2010Prop36
280
     0
102
RTVSPost2010PropOp36
 70
     1
102
RTVSPost2010Prop37
 90
       50
102
RTVSPost2010PropOp37
 70
     1
102
RTVSPost2010Prop38
140
0.0
102
RTVSPost2010PropOp38
 70
     1
102
RTVSPost2010Prop39
140
1.0
102
RTVSPost2010PropOp39
 70
     1
102
RTVSPost2010Prop40
 90
        0
102
RTVSPost2010PropOp40
 70
     1
102
RTVSPost2010Prop41ColorIndex
 90
       18
102
RTVSPost2010Prop41ColorRGB
 90
        0
102
RTVSPost2010PropOp41
 70
     1
102
RTVSPost2010Prop42
 90
       50
102
RTVSPost2010PropOp42
 70
     1
102
RTVSPost2010Prop43
 90
        3
102
RTVSPost2010PropOp43
 70
     1
102
RTVSPost2010Prop44ColorIndex
 90
        5
102
RTVSPost2010Prop44ColorRGB
 90
      255
102
RTVSPost2010PropOp44
 70
     1
102
RTVSPost2010Prop45
280
     0
102
RTVSPost2010PropOp45
 70
     1
102
RTVSPost2010Prop46
 90
       50
102
RTVSPost2010PropOp46
 70
     1
102
RTVSPost2010Prop47
 90
       50
102
RTVSPost2010PropOp47
 70
     1
102
RTVSPost2010Prop48
 90
       50
102
RTVSPost2010PropOp48
 70
     1
102
RTVSPost2010Prop49
280
     0
102
RTVSPost2010PropOp49
 70
     1
102
RTVSPost2010Prop50
 90
       50
102
RTVSPost2010PropOp50
 70
     1
102
RTVSPost2010Prop51ColorIndex
 90
      256
102
RTVSPost2010Prop51ColorRGB
 90
-16777216
102
RTVSPost2010PropOp51
 70
     0
102
RTVSPost2010Prop52
140
1.0
102
RTVSPost2010PropOp52
 70
     0
102
RTVSPost2010Prop53
 90
        2
102
RTVSPost2010PropOp53
 70
     1
102
RTVSPost2010Prop54
  1
strokes_ogs.tif
102
RTVSPost2010PropOp54
 70
     1
102
RTVSPost2010Prop55
280
     0
102
RTVSPost2010PropOp55
 70
     1
102
RTVSPost2010Prop56
140
1.0
102
RTVSPost2010PropOp56
 70
     1
102
RTVSPost2010Prop57
140
1.0
102
RTVSPost2010PropOp57
 70
     1
102
RTVSPropertyOp0
 70
     1
102
RTVSPropertyOp1
 70
     1
102
RTVSPropertyOp2
 70
     1
102
RTVSPropertyOp3
 70
     1
102
RTVSPropertyOp4
 70
     1
102
RTVSPropertyOp5
 70
     1
102
RTVSPropertyOp6
 70
     1
102
RTVSPropertyOp7
 70
     1
102
RTVSPropertyOp8
 70
     1
102
RTVSPropertyOp9
 70
     1
102
RTVSPropertyOp10
 70
     1
102
RTVSPropertyOp11
 70
     1
102
RTVSPropertyOp12
 70
     1
102
RTVSPropertyOp13
 70
     1
102
RTVSPropertyOp14
 70
     1
102
RTVSPropertyOp15
 70
     1
102
RTVSPropertyOp16
 70
     1
102
RTVSPropertyOp17
 70
     1
102
RTVSPropertyOp18
 70
     1
102
RTVSPropertyOp19
 70
     1
102
RTVSPropertyOp20
 70
     1
102
RTVSPropertyOp21
 70
     1
102
RTVSPropertyOp22
 70
     1
102
RTVSPropertyOp23
 70
     1
102
RTVSPropertyOp24
 70
     1
102
RTVSPropertyOp25
 70
     1
102
RTVSPropertyOp26
 70
     1
102
RTVSPropertyOp27
 70
     1
102
RTVSPropertyOp28
 70
     1
102
RTVSPropertyOp29
 70
     1
102
RTVSPropertyOp30
 70
     1
102
RTVSPropertyOp31
 70
     1
102
RTVSPropertyOp32
 70
     1
102
RTVSPropertyOp33
 70
     1
102
RTVSPropertyOp34
 70
     1
102
RTVSPropertyOp35
 70
     1
102
RTVSPropertyOp36
 70
     1
102
RTVSPropertyOp37
 70
     1
102
RTVSPropertyOp38
 70
     1
102
RTVSPropertyOp39
 70
     1
102
RTVSPropertyOp40
 70
     1
102
RTVSPropertyOp41
 70
     1
102
RTVSPropertyOp42
 70
     1
102
RTVSPropertyOp43
 70
     1
102
RTVSPropertyOp44
 70
     1
102
RTVSPropertyOp45
 70
     1
102
RTVSPropertyOp46
 70
     1
102
RTVSPropertyOp47
 70
     1
102
RTVSPropertyOp48
 70
     1
102
RTVSPropertyOp49
 70
     1
102
RTVSPropertyOp50
 70
     1
102
RTVSPropertyOp51
 70
     0
102
RTVSPropertyOp52
 70
     0
102
RTVSPropertyOp53
 70
     1
102
RTVSPropertyOp54
 70
     1
102
RTVSPropertyOp55
 70
     1
102
RTVSPropertyOp56
 70
     1
102
RTVSPropertyOp57
 70
     1
102
RTVSPropertyOp58
 70
     1
102
RTVSPropertyOp59
 70
     1
102
RTVSPropertyOp60
 70
     1
102
RTVSPropertyOp61
 70
     1
102
RTVSPropertyOp62
 70
     1
  0
XRECORD
  5
8400
102
{ACAD_REACTORS
330
83FF
102
}
330
83FF
100
AcDbXrecord
280
     1
102
RTVSPost2010Prop28
280
     0
102
RTVSPost2010PropOp28
 70
     1
102
RTVSPost2010Prop29
280
     1
102
RTVSPost2010PropOp29
 70
     1
102
RTVSPost2010Prop30
280
     1
102
RTVSPost2010PropOp30
 70
     1
102
RTVSPost2010Prop31
280
     0
102
RTVSPost2010PropOp31
 70
     1
102
RTVSPost2010Prop32
280
     0
102
RTVSPost2010PropOp32
 70
     1
102
RTVSPost2010Prop33
280
     0
102
RTVSPost2010PropOp33
 70
     1
102
RTVSPost2010Prop34
280
     0
102
RTVSPost2010PropOp34
 70
     1
102
RTVSPost2010Prop35
280
     0
102
RTVSPost2010PropOp35
 70
     1
102
RTVSPost2010Prop36
280
     0
102
RTVSPost2010PropOp36
 70
     1
102
RTVSPost2010Prop37
 90
       50
102
RTVSPost2010PropOp37
 70
     0
102
RTVSPost2010Prop38
140
0.0
102
RTVSPost2010PropOp38
 70
     0
102
RTVSPost2010Prop39
140
1.0
102
RTVSPost2010PropOp39
 70
     0
102
RTVSPost2010Prop40
 90
        0
102
RTVSPost2010PropOp40
 70
     0
102
RTVSPost2010Prop41ColorIndex
 90
       18
102
RTVSPost2010Prop41ColorRGB
 90
        0
102
RTVSPost2010PropOp41
 70
     0
102
RTVSPost2010Prop42
 90
       50
102
RTVSPost2010PropOp42
 70
     0
102
RTVSPost2010Prop43
 90
        3
102
RTVSPost2010PropOp43
 70
     0
102
RTVSPost2010Prop44ColorIndex
 90
        5
102
RTVSPost2010Prop44ColorRGB
 90
      255
102
RTVSPost2010PropOp44
 70
     0
102
RTVSPost2010Prop45
280
     0
102
RTVSPost2010PropOp45
 70
     1
102
RTVSPost2010Prop46
 90
       50
102
RTVSPost2010PropOp46
 70
     0
102
RTVSPost2010Prop47
 90
       50
102
RTVSPost2010PropOp47
 70
     0
102
RTVSPost2010Prop48
 90
       50
102
RTVSPost2010PropOp48
 70
     0
102
RTVSPost2010Prop49
280
     0
102
RTVSPost2010PropOp49
 70
     1
102
RTVSPost2010Prop50
 90
       50
102
RTVSPost2010PropOp50
 70
     0
102
RTVSPost2010Prop51ColorIndex
 90
      256
102
RTVSPost2010Prop51ColorRGB
 90
-16777216
102
RTVSPost2010PropOp51
 70
     0
102
RTVSPost2010Prop52
140
1.0
102
RTVSPost2010PropOp52
 70
     0
102
RTVSPost2010Prop53
 90
        2
102
RTVSPost2010PropOp53
 70
     0
102
RTVSPost2010Prop54
  1
strokes_ogs.tif
102
RTVSPost2010PropOp54
 70
     0
102
RTVSPost2010Prop55
280
     0
102
RTVSPost2010PropOp55
 70
     1
102
RTVSPost2010Prop56
140
1.0
102
RTVSPost2010PropOp56
 70
     0
102
RTVSPost2010Prop57
140
1.0
102
RTVSPost2010PropOp57
 70
     0
102
RTVSPropertyOp0
 70
     0
102
RTVSPropertyOp1
 70
     0
102
RTVSPropertyOp2
 70
     0
102
RTVSPropertyOp3
 70
     0
102
RTVSPropertyOp4
 70
     0
102
RTVSPropertyOp5
 70
     0
102
RTVSPropertyOp6
 70
     0
102
RTVSPropertyOp7
 70
     0
102
RTVSPropertyOp8
 70
     0
102
RTVSPropertyOp9
 70
     0
102
RTVSPropertyOp10
 70
     0
102
RTVSPropertyOp11
 70
     0
102
RTVSPropertyOp12
 70
     0
102
RTVSPropertyOp13
 70
     0
102
RTVSPropertyOp14
 70
     2
102
RTVSPropertyOp15
 70
     0
102
RTVSPropertyOp16
 70
     0
102
RTVSPropertyOp17
 70
     0
102
RTVSPropertyOp18
 70
     0
102
RTVSPropertyOp19
 70
     0
102
RTVSPropertyOp20
 70
     0
102
RTVSPropertyOp21
 70
     0
102
RTVSPropertyOp22
 70
     0
102
RTVSPropertyOp23
 70
     0
102
RTVSPropertyOp24
 70
     0
102
RTVSPropertyOp25
 70
     0
102
RTVSPropertyOp26
 70
     0
102
RTVSPropertyOp27
 70
     0
102
RTVSPropertyOp28
 70
     1
102
RTVSPropertyOp29
 70
     1
102
RTVSPropertyOp30
 70
     1
102
RTVSPropertyOp31
 70
     1
102
RTVSPropertyOp32
 70
     1
102
RTVSPropertyOp33
 70
     1
102
RTVSPropertyOp34
 70
     1
102
RTVSPropertyOp35
 70
     1
102
RTVSPropertyOp36
 70
     1
102
RTVSPropertyOp37
 70
     0
102
RTVSPropertyOp38
 70
     0
102
RTVSPropertyOp39
 70
     0
102
RTVSPropertyOp40
 70
     0
102
RTVSPropertyOp41
 70
     0
102
RTVSPropertyOp42
 70
     0
102
RTVSPropertyOp43
 70
     0
102
RTVSPropertyOp44
 70
     0
102
RTVSPropertyOp45
 70
     1
102
RTVSPropertyOp46
 70
     0
102
RTVSPropertyOp47
 70
     0
102
RTVSPropertyOp48
 70
     0
102
RTVSPropertyOp49
 70
     1
102
RTVSPropertyOp50
 70
     0
102
RTVSPropertyOp51
 70
     0
102
RTVSPropertyOp52
 70
     0
102
RTVSPropertyOp53
 70
     0
102
RTVSPropertyOp54
 70
     0
102
RTVSPropertyOp55
 70
     1
102
RTVSPropertyOp56
 70
     0
102
RTVSPropertyOp57
 70
     0
102
RTVSPropertyOp58
 70
     0
102
RTVSPropertyOp59
 70
     0
102
RTVSPropertyOp60
 70
     0
102
RTVSPropertyOp61
 70
     0
102
RTVSPropertyOp62
 70
     0
  0
XRECORD
  5
83E6
102
{ACAD_REACTORS
330
83E5
102
}
330
83E5
100
AcDbXrecord
280
     1
102
RTVSPost2010Prop28
280
     0
102
RTVSPost2010PropOp28
 70
     1
102
RTVSPost2010Prop29
280
     1
102
RTVSPost2010PropOp29
 70
     1
102
RTVSPost2010Prop30
280
     1
102
RTVSPost2010PropOp30
 70
     1
102
RTVSPost2010Prop31
280
     0
102
RTVSPost2010PropOp31
 70
     1
102
RTVSPost2010Prop32
280
     0
102
RTVSPost2010PropOp32
 70
     1
102
RTVSPost2010Prop33
280
     0
102
RTVSPost2010PropOp33
 70
     1
102
RTVSPost2010Prop34
280
     0
102
RTVSPost2010PropOp34
 70
     1
102
RTVSPost2010Prop35
280
     0
102
RTVSPost2010PropOp35
 70
     1
102
RTVSPost2010Prop36
280
     0
102
RTVSPost2010PropOp36
 70
     1
102
RTVSPost2010Prop37
 90
       50
102
RTVSPost2010PropOp37
 70
     1
102
RTVSPost2010Prop38
140
0.0
102
RTVSPost2010PropOp38
 70
     1
102
RTVSPost2010Prop39
140
1.0
102
RTVSPost2010PropOp39
 70
     1
102
RTVSPost2010Prop40
 90
        0
102
RTVSPost2010PropOp40
 70
     1
102
RTVSPost2010Prop41ColorIndex
 90
       18
102
RTVSPost2010Prop41ColorRGB
 90
        0
102
RTVSPost2010PropOp41
 70
     1
102
RTVSPost2010Prop42
 90
       50
102
RTVSPost2010PropOp42
 70
     1
102
RTVSPost2010Prop43
 90
        3
102
RTVSPost2010PropOp43
 70
     1
102
RTVSPost2010Prop44ColorIndex
 90
        5
102
RTVSPost2010Prop44ColorRGB
 90
      255
102
RTVSPost2010PropOp44
 70
     1
102
RTVSPost2010Prop45
280
     0
102
RTVSPost2010PropOp45
 70
     1
102
RTVSPost2010Prop46
 90
       50
102
RTVSPost2010PropOp46
 70
     1
102
RTVSPost2010Prop47
 90
       50
102
RTVSPost2010PropOp47
 70
     1
102
RTVSPost2010Prop48
 90
       50
102
RTVSPost2010PropOp48
 70
     1
102
RTVSPost2010Prop49
280
     0
102
RTVSPost2010PropOp49
 70
     1
102
RTVSPost2010Prop50
 90
       50
102
RTVSPost2010PropOp50
 70
     1
102
RTVSPost2010Prop51ColorIndex
 90
      256
102
RTVSPost2010Prop51ColorRGB
 90
-16777216
102
RTVSPost2010PropOp51
 70
     0
102
RTVSPost2010Prop52
140
1.0
102
RTVSPost2010PropOp52
 70
     0
102
RTVSPost2010Prop53
 90
        2
102
RTVSPost2010PropOp53
 70
     1
102
RTVSPost2010Prop54
  1
strokes_ogs.tif
102
RTVSPost2010PropOp54
 70
     1
102
RTVSPost2010Prop55
280
     0
102
RTVSPost2010PropOp55
 70
     1
102
RTVSPost2010Prop56
140
1.0
102
RTVSPost2010PropOp56
 70
     1
102
RTVSPost2010Prop57
140
1.0
102
RTVSPost2010PropOp57
 70
     1
102
RTVSPropertyOp0
 70
     1
102
RTVSPropertyOp1
 70
     1
102
RTVSPropertyOp2
 70
     1
102
RTVSPropertyOp3
 70
     1
102
RTVSPropertyOp4
 70
     1
102
RTVSPropertyOp5
 70
     1
102
RTVSPropertyOp6
 70
     1
102
RTVSPropertyOp7
 70
     1
102
RTVSPropertyOp8
 70
     1
102
RTVSPropertyOp9
 70
     1
102
RTVSPropertyOp10
 70
     1
102
RTVSPropertyOp11
 70
     1
102
RTVSPropertyOp12
 70
     1
102
RTVSPropertyOp13
 70
     1
102
RTVSPropertyOp14
 70
     1
102
RTVSPropertyOp15
 70
     1
102
RTVSPropertyOp16
 70
     1
102
RTVSPropertyOp17
 70
     1
102
RTVSPropertyOp18
 70
     1
102
RTVSPropertyOp19
 70
     1
102
RTVSPropertyOp20
 70
     1
102
RTVSPropertyOp21
 70
     1
102
RTVSPropertyOp22
 70
     1
102
RTVSPropertyOp23
 70
     1
102
RTVSPropertyOp24
 70
     1
102
RTVSPropertyOp25
 70
     1
102
RTVSPropertyOp26
 70
     1
102
RTVSPropertyOp27
 70
     1
102
RTVSPropertyOp28
 70
     1
102
RTVSPropertyOp29
 70
     1
102
RTVSPropertyOp30
 70
     1
102
RTVSPropertyOp31
 70
     1
102
RTVSPropertyOp32
 70
     1
102
RTVSPropertyOp33
 70
     1
102
RTVSPropertyOp34
 70
     1
102
RTVSPropertyOp35
 70
     1
102
RTVSPropertyOp36
 70
     1
102
RTVSPropertyOp37
 70
     1
102
RTVSPropertyOp38
 70
     1
102
RTVSPropertyOp39
 70
     1
102
RTVSPropertyOp40
 70
     1
102
RTVSPropertyOp41
 70
     1
102
RTVSPropertyOp42
 70
     1
102
RTVSPropertyOp43
 70
     1
102
RTVSPropertyOp44
 70
     1
102
RTVSPropertyOp45
 70
     1
102
RTVSPropertyOp46
 70
     1
102
RTVSPropertyOp47
 70
     1
102
RTVSPropertyOp48
 70
     1
102
RTVSPropertyOp49
 70
     1
102
RTVSPropertyOp50
 70
     1
102
RTVSPropertyOp51
 70
     0
102
RTVSPropertyOp52
 70
     0
102
RTVSPropertyOp53
 70
     1
102
RTVSPropertyOp54
 70
     1
102
RTVSPropertyOp55
 70
     1
102
RTVSPropertyOp56
 70
     1
102
RTVSPropertyOp57
 70
     1
102
RTVSPropertyOp58
 70
     1
102
RTVSPropertyOp59
 70
     1
102
RTVSPropertyOp60
 70
     1
102
RTVSPropertyOp61
 70
     1
102
RTVSPropertyOp62
 70
     1
  0
XRECORD
  5
83FC
102
{ACAD_REACTORS
330
83FB
102
}
330
83FB
100
AcDbXrecord
280
     1
102
RTVSPost2010Prop28
280
     0
102
RTVSPost2010PropOp28
 70
     1
102
RTVSPost2010Prop29
280
     1
102
RTVSPost2010PropOp29
 70
     1
102
RTVSPost2010Prop30
280
     1
102
RTVSPost2010PropOp30
 70
     1
102
RTVSPost2010Prop31
280
     0
102
RTVSPost2010PropOp31
 70
     1
102
RTVSPost2010Prop32
280
     0
102
RTVSPost2010PropOp32
 70
     1
102
RTVSPost2010Prop33
280
     0
102
RTVSPost2010PropOp33
 70
     1
102
RTVSPost2010Prop34
280
     0
102
RTVSPost2010PropOp34
 70
     1
102
RTVSPost2010Prop35
280
     0
102
RTVSPost2010PropOp35
 70
     1
102
RTVSPost2010Prop36
280
     0
102
RTVSPost2010PropOp36
 70
     1
102
RTVSPost2010Prop37
 90
       50
102
RTVSPost2010PropOp37
 70
     1
102
RTVSPost2010Prop38
140
0.0
102
RTVSPost2010PropOp38
 70
     1
102
RTVSPost2010Prop39
140
1.0
102
RTVSPost2010PropOp39
 70
     1
102
RTVSPost2010Prop40
 90
        0
102
RTVSPost2010PropOp40
 70
     1
102
RTVSPost2010Prop41ColorIndex
 90
       18
102
RTVSPost2010Prop41ColorRGB
 90
        0
102
RTVSPost2010PropOp41
 70
     1
102
RTVSPost2010Prop42
 90
       50
102
RTVSPost2010PropOp42
 70
     1
102
RTVSPost2010Prop43
 90
        3
102
RTVSPost2010PropOp43
 70
     1
102
RTVSPost2010Prop44ColorIndex
 90
        5
102
RTVSPost2010Prop44ColorRGB
 90
      255
102
RTVSPost2010PropOp44
 70
     1
102
RTVSPost2010Prop45
280
     0
102
RTVSPost2010PropOp45
 70
     1
102
RTVSPost2010Prop46
 90
       50
102
RTVSPost2010PropOp46
 70
     1
102
RTVSPost2010Prop47
 90
       50
102
RTVSPost2010PropOp47
 70
     1
102
RTVSPost2010Prop48
 90
       50
102
RTVSPost2010PropOp48
 70
     1
102
RTVSPost2010Prop49
280
     0
102
RTVSPost2010PropOp49
 70
     1
102
RTVSPost2010Prop50
 90
       50
102
RTVSPost2010PropOp50
 70
     1
102
RTVSPost2010Prop51ColorIndex
 90
      256
102
RTVSPost2010Prop51ColorRGB
 90
-16777216
102
RTVSPost2010PropOp51
 70
     0
102
RTVSPost2010Prop52
140
1.0
102
RTVSPost2010PropOp52
 70
     0
102
RTVSPost2010Prop53
 90
        2
102
RTVSPost2010PropOp53
 70
     1
102
RTVSPost2010Prop54
  1
strokes_ogs.tif
102
RTVSPost2010PropOp54
 70
     1
102
RTVSPost2010Prop55
280
     0
102
RTVSPost2010PropOp55
 70
     1
102
RTVSPost2010Prop56
140
1.0
102
RTVSPost2010PropOp56
 70
     1
102
RTVSPost2010Prop57
140
1.0
102
RTVSPost2010PropOp57
 70
     1
102
RTVSPropertyOp0
 70
     1
102
RTVSPropertyOp1
 70
     1
102
RTVSPropertyOp2
 70
     1
102
RTVSPropertyOp3
 70
     1
102
RTVSPropertyOp4
 70
     1
102
RTVSPropertyOp5
 70
     1
102
RTVSPropertyOp6
 70
     1
102
RTVSPropertyOp7
 70
     1
102
RTVSPropertyOp8
 70
     1
102
RTVSPropertyOp9
 70
     1
102
RTVSPropertyOp10
 70
     1
102
RTVSPropertyOp11
 70
     1
102
RTVSPropertyOp12
 70
     1
102
RTVSPropertyOp13
 70
     1
102
RTVSPropertyOp14
 70
     1
102
RTVSPropertyOp15
 70
     1
102
RTVSPropertyOp16
 70
     1
102
RTVSPropertyOp17
 70
     1
102
RTVSPropertyOp18
 70
     1
102
RTVSPropertyOp19
 70
     1
102
RTVSPropertyOp20
 70
     1
102
RTVSPropertyOp21
 70
     1
102
RTVSPropertyOp22
 70
     1
102
RTVSPropertyOp23
 70
     1
102
RTVSPropertyOp24
 70
     1
102
RTVSPropertyOp25
 70
     1
102
RTVSPropertyOp26
 70
     1
102
RTVSPropertyOp27
 70
     1
102
RTVSPropertyOp28
 70
     1
102
RTVSPropertyOp29
 70
     1
102
RTVSPropertyOp30
 70
     1
102
RTVSPropertyOp31
 70
     1
102
RTVSPropertyOp32
 70
     1
102
RTVSPropertyOp33
 70
     1
102
RTVSPropertyOp34
 70
     1
102
RTVSPropertyOp35
 70
     1
102
RTVSPropertyOp36
 70
     1
102
RTVSPropertyOp37
 70
     1
102
RTVSPropertyOp38
 70
     1
102
RTVSPropertyOp39
 70
     1
102
RTVSPropertyOp40
 70
     1
102
RTVSPropertyOp41
 70
     1
102
RTVSPropertyOp42
 70
     1
102
RTVSPropertyOp43
 70
     1
102
RTVSPropertyOp44
 70
     1
102
RTVSPropertyOp45
 70
     1
102
RTVSPropertyOp46
 70
     1
102
RTVSPropertyOp47
 70
     1
102
RTVSPropertyOp48
 70
     1
102
RTVSPropertyOp49
 70
     1
102
RTVSPropertyOp50
 70
     1
102
RTVSPropertyOp51
 70
     0
102
RTVSPropertyOp52
 70
     0
102
RTVSPropertyOp53
 70
     1
102
RTVSPropertyOp54
 70
     1
102
RTVSPropertyOp55
 70
     1
102
RTVSPropertyOp56
 70
     1
102
RTVSPropertyOp57
 70
     1
102
RTVSPropertyOp58
 70
     1
102
RTVSPropertyOp59
 70
     1
102
RTVSPropertyOp60
 70
     1
102
RTVSPropertyOp61
 70
     1
102
RTVSPropertyOp62
 70
     1
  0
XRECORD
  5
83FA
102
{ACAD_REACTORS
330
83F9
102
}
330
83F9
100
AcDbXrecord
280
     1
102
RTVSPost2010Prop28
280
     0
102
RTVSPost2010PropOp28
 70
     1
102
RTVSPost2010Prop29
280
     1
102
RTVSPost2010PropOp29
 70
     1
102
RTVSPost2010Prop30
280
     1
102
RTVSPost2010PropOp30
 70
     1
102
RTVSPost2010Prop31
280
     0
102
RTVSPost2010PropOp31
 70
     1
102
RTVSPost2010Prop32
280
     0
102
RTVSPost2010PropOp32
 70
     1
102
RTVSPost2010Prop33
280
     0
102
RTVSPost2010PropOp33
 70
     1
102
RTVSPost2010Prop34
280
     0
102
RTVSPost2010PropOp34
 70
     1
102
RTVSPost2010Prop35
280
     0
102
RTVSPost2010PropOp35
 70
     1
102
RTVSPost2010Prop36
280
     0
102
RTVSPost2010PropOp36
 70
     1
102
RTVSPost2010Prop37
 90
       50
102
RTVSPost2010PropOp37
 70
     1
102
RTVSPost2010Prop38
140
0.0
102
RTVSPost2010PropOp38
 70
     1
102
RTVSPost2010Prop39
140
1.0
102
RTVSPost2010PropOp39
 70
     1
102
RTVSPost2010Prop40
 90
        0
102
RTVSPost2010PropOp40
 70
     1
102
RTVSPost2010Prop41ColorIndex
 90
       18
102
RTVSPost2010Prop41ColorRGB
 90
        0
102
RTVSPost2010PropOp41
 70
     1
102
RTVSPost2010Prop42
 90
       50
102
RTVSPost2010PropOp42
 70
     1
102
RTVSPost2010Prop43
 90
        3
102
RTVSPost2010PropOp43
 70
     1
102
RTVSPost2010Prop44ColorIndex
 90
        5
102
RTVSPost2010Prop44ColorRGB
 90
      255
102
RTVSPost2010PropOp44
 70
     1
102
RTVSPost2010Prop45
280
     0
102
RTVSPost2010PropOp45
 70
     1
102
RTVSPost2010Prop46
 90
       50
102
RTVSPost2010PropOp46
 70
     1
102
RTVSPost2010Prop47
 90
       50
102
RTVSPost2010PropOp47
 70
     1
102
RTVSPost2010Prop48
 90
       50
102
RTVSPost2010PropOp48
 70
     1
102
RTVSPost2010Prop49
280
     0
102
RTVSPost2010PropOp49
 70
     1
102
RTVSPost2010Prop50
 90
       50
102
RTVSPost2010PropOp50
 70
     1
102
RTVSPost2010Prop51ColorIndex
 90
      256
102
RTVSPost2010Prop51ColorRGB
 90
-16777216
102
RTVSPost2010PropOp51
 70
     0
102
RTVSPost2010Prop52
140
1.0
102
RTVSPost2010PropOp52
 70
     0
102
RTVSPost2010Prop53
 90
        2
102
RTVSPost2010PropOp53
 70
     1
102
RTVSPost2010Prop54
  1
strokes_ogs.tif
102
RTVSPost2010PropOp54
 70
     1
102
RTVSPost2010Prop55
280
     0
102
RTVSPost2010PropOp55
 70
     1
102
RTVSPost2010Prop56
140
1.0
102
RTVSPost2010PropOp56
 70
     1
102
RTVSPost2010Prop57
140
1.0
102
RTVSPost2010PropOp57
 70
     1
102
RTVSPropertyOp0
 70
     1
102
RTVSPropertyOp1
 70
     1
102
RTVSPropertyOp2
 70
     1
102
RTVSPropertyOp3
 70
     1
102
RTVSPropertyOp4
 70
     1
102
RTVSPropertyOp5
 70
     1
102
RTVSPropertyOp6
 70
     1
102
RTVSPropertyOp7
 70
     1
102
RTVSPropertyOp8
 70
     1
102
RTVSPropertyOp9
 70
     1
102
RTVSPropertyOp10
 70
     1
102
RTVSPropertyOp11
 70
     1
102
RTVSPropertyOp12
 70
     1
102
RTVSPropertyOp13
 70
     1
102
RTVSPropertyOp14
 70
     1
102
RTVSPropertyOp15
 70
     1
102
RTVSPropertyOp16
 70
     1
102
RTVSPropertyOp17
 70
     1
102
RTVSPropertyOp18
 70
     1
102
RTVSPropertyOp19
 70
     1
102
RTVSPropertyOp20
 70
     1
102
RTVSPropertyOp21
 70
     1
102
RTVSPropertyOp22
 70
     1
102
RTVSPropertyOp23
 70
     1
102
RTVSPropertyOp24
 70
     1
102
RTVSPropertyOp25
 70
     1
102
RTVSPropertyOp26
 70
     1
102
RTVSPropertyOp27
 70
     1
102
RTVSPropertyOp28
 70
     1
102
RTVSPropertyOp29
 70
     1
102
RTVSPropertyOp30
 70
     1
102
RTVSPropertyOp31
 70
     1
102
RTVSPropertyOp32
 70
     1
102
RTVSPropertyOp33
 70
     1
102
RTVSPropertyOp34
 70
     1
102
RTVSPropertyOp35
 70
     1
102
RTVSPropertyOp36
 70
     1
102
RTVSPropertyOp37
 70
     1
102
RTVSPropertyOp38
 70
     1
102
RTVSPropertyOp39
 70
     1
102
RTVSPropertyOp40
 70
     1
102
RTVSPropertyOp41
 70
     1
102
RTVSPropertyOp42
 70
     1
102
RTVSPropertyOp43
 70
     1
102
RTVSPropertyOp44
 70
     1
102
RTVSPropertyOp45
 70
     1
102
RTVSPropertyOp46
 70
     1
102
RTVSPropertyOp47
 70
     1
102
RTVSPropertyOp48
 70
     1
102
RTVSPropertyOp49
 70
     1
102
RTVSPropertyOp50
 70
     1
102
RTVSPropertyOp51
 70
     0
102
RTVSPropertyOp52
 70
     0
102
RTVSPropertyOp53
 70
     1
102
RTVSPropertyOp54
 70
     1
102
RTVSPropertyOp55
 70
     1
102
RTVSPropertyOp56
 70
     1
102
RTVSPropertyOp57
 70
     1
102
RTVSPropertyOp58
 70
     1
102
RTVSPropertyOp59
 70
     1
102
RTVSPropertyOp60
 70
     1
102
RTVSPropertyOp61
 70
     1
102
RTVSPropertyOp62
 70
     1
  0
XRECORD
  5
83F4
102
{ACAD_REACTORS
330
83F3
102
}
330
83F3
100
AcDbXrecord
280
     1
102
RTVSPost2010Prop28
280
     0
102
RTVSPost2010PropOp28
 70
     1
102
RTVSPost2010Prop29
280
     1
102
RTVSPost2010PropOp29
 70
     1
102
RTVSPost2010Prop30
280
     1
102
RTVSPost2010PropOp30
 70
     1
102
RTVSPost2010Prop31
280
     0
102
RTVSPost2010PropOp31
 70
     1
102
RTVSPost2010Prop32
280
     0
102
RTVSPost2010PropOp32
 70
     1
102
RTVSPost2010Prop33
280
     0
102
RTVSPost2010PropOp33
 70
     1
102
RTVSPost2010Prop34
280
     0
102
RTVSPost2010PropOp34
 70
     1
102
RTVSPost2010Prop35
280
     0
102
RTVSPost2010PropOp35
 70
     1
102
RTVSPost2010Prop36
280
     0
102
RTVSPost2010PropOp36
 70
     1
102
RTVSPost2010Prop37
 90
       50
102
RTVSPost2010PropOp37
 70
     1
102
RTVSPost2010Prop38
140
0.0
102
RTVSPost2010PropOp38
 70
     1
102
RTVSPost2010Prop39
140
1.0
102
RTVSPost2010PropOp39
 70
     1
102
RTVSPost2010Prop40
 90
        0
102
RTVSPost2010PropOp40
 70
     1
102
RTVSPost2010Prop41ColorIndex
 90
       18
102
RTVSPost2010Prop41ColorRGB
 90
        0
102
RTVSPost2010PropOp41
 70
     1
102
RTVSPost2010Prop42
 90
       50
102
RTVSPost2010PropOp42
 70
     1
102
RTVSPost2010Prop43
 90
        3
102
RTVSPost2010PropOp43
 70
     1
102
RTVSPost2010Prop44ColorIndex
 90
        5
102
RTVSPost2010Prop44ColorRGB
 90
      255
102
RTVSPost2010PropOp44
 70
     1
102
RTVSPost2010Prop45
280
     0
102
RTVSPost2010PropOp45
 70
     1
102
RTVSPost2010Prop46
 90
       50
102
RTVSPost2010PropOp46
 70
     1
102
RTVSPost2010Prop47
 90
       50
102
RTVSPost2010PropOp47
 70
     1
102
RTVSPost2010Prop48
 90
       50
102
RTVSPost2010PropOp48
 70
     1
102
RTVSPost2010Prop49
280
     0
102
RTVSPost2010PropOp49
 70
     1
102
RTVSPost2010Prop50
 90
       50
102
RTVSPost2010PropOp50
 70
     1
102
RTVSPost2010Prop51ColorIndex
 90
      256
102
RTVSPost2010Prop51ColorRGB
 90
-16777216
102
RTVSPost2010PropOp51
 70
     0
102
RTVSPost2010Prop52
140
1.0
102
RTVSPost2010PropOp52
 70
     0
102
RTVSPost2010Prop53
 90
        2
102
RTVSPost2010PropOp53
 70
     1
102
RTVSPost2010Prop54
  1
strokes_ogs.tif
102
RTVSPost2010PropOp54
 70
     1
102
RTVSPost2010Prop55
280
     0
102
RTVSPost2010PropOp55
 70
     1
102
RTVSPost2010Prop56
140
1.0
102
RTVSPost2010PropOp56
 70
     1
102
RTVSPost2010Prop57
140
1.0
102
RTVSPost2010PropOp57
 70
     1
102
RTVSPropertyOp0
 70
     1
102
RTVSPropertyOp1
 70
     1
102
RTVSPropertyOp2
 70
     1
102
RTVSPropertyOp3
 70
     1
102
RTVSPropertyOp4
 70
     1
102
RTVSPropertyOp5
 70
     1
102
RTVSPropertyOp6
 70
     1
102
RTVSPropertyOp7
 70
     1
102
RTVSPropertyOp8
 70
     1
102
RTVSPropertyOp9
 70
     1
102
RTVSPropertyOp10
 70
     1
102
RTVSPropertyOp11
 70
     1
102
RTVSPropertyOp12
 70
     1
102
RTVSPropertyOp13
 70
     1
102
RTVSPropertyOp14
 70
     1
102
RTVSPropertyOp15
 70
     1
102
RTVSPropertyOp16
 70
     1
102
RTVSPropertyOp17
 70
     1
102
RTVSPropertyOp18
 70
     1
102
RTVSPropertyOp19
 70
     1
102
RTVSPropertyOp20
 70
     1
102
RTVSPropertyOp21
 70
     1
102
RTVSPropertyOp22
 70
     1
102
RTVSPropertyOp23
 70
     1
102
RTVSPropertyOp24
 70
     1
102
RTVSPropertyOp25
 70
     1
102
RTVSPropertyOp26
 70
     1
102
RTVSPropertyOp27
 70
     1
102
RTVSPropertyOp28
 70
     1
102
RTVSPropertyOp29
 70
     1
102
RTVSPropertyOp30
 70
     1
102
RTVSPropertyOp31
 70
     1
102
RTVSPropertyOp32
 70
     1
102
RTVSPropertyOp33
 70
     1
102
RTVSPropertyOp34
 70
     1
102
RTVSPropertyOp35
 70
     1
102
RTVSPropertyOp36
 70
     1
102
RTVSPropertyOp37
 70
     1
102
RTVSPropertyOp38
 70
     1
102
RTVSPropertyOp39
 70
     1
102
RTVSPropertyOp40
 70
     1
102
RTVSPropertyOp41
 70
     1
102
RTVSPropertyOp42
 70
     1
102
RTVSPropertyOp43
 70
     1
102
RTVSPropertyOp44
 70
     1
102
RTVSPropertyOp45
 70
     1
102
RTVSPropertyOp46
 70
     1
102
RTVSPropertyOp47
 70
     1
102
RTVSPropertyOp48
 70
     1
102
RTVSPropertyOp49
 70
     1
102
RTVSPropertyOp50
 70
     1
102
RTVSPropertyOp51
 70
     0
102
RTVSPropertyOp52
 70
     0
102
RTVSPropertyOp53
 70
     1
102
RTVSPropertyOp54
 70
     1
102
RTVSPropertyOp55
 70
     1
102
RTVSPropertyOp56
 70
     1
102
RTVSPropertyOp57
 70
     1
102
RTVSPropertyOp58
 70
     1
102
RTVSPropertyOp59
 70
     1
102
RTVSPropertyOp60
 70
     1
102
RTVSPropertyOp61
 70
     1
102
RTVSPropertyOp62
 70
     1
  0
XRECORD
  5
83F6
102
{ACAD_REACTORS
330
83F5
102
}
330
83F5
100
AcDbXrecord
280
     1
102
RTVSPost2010Prop28
280
     0
102
RTVSPost2010PropOp28
 70
     1
102
RTVSPost2010Prop29
280
     1
102
RTVSPost2010PropOp29
 70
     1
102
RTVSPost2010Prop30
280
     1
102
RTVSPost2010PropOp30
 70
     1
102
RTVSPost2010Prop31
280
     0
102
RTVSPost2010PropOp31
 70
     1
102
RTVSPost2010Prop32
280
     0
102
RTVSPost2010PropOp32
 70
     1
102
RTVSPost2010Prop33
280
     0
102
RTVSPost2010PropOp33
 70
     1
102
RTVSPost2010Prop34
280
     0
102
RTVSPost2010PropOp34
 70
     1
102
RTVSPost2010Prop35
280
     0
102
RTVSPost2010PropOp35
 70
     1
102
RTVSPost2010Prop36
280
     0
102
RTVSPost2010PropOp36
 70
     1
102
RTVSPost2010Prop37
 90
       50
102
RTVSPost2010PropOp37
 70
     1
102
RTVSPost2010Prop38
140
0.0
102
RTVSPost2010PropOp38
 70
     1
102
RTVSPost2010Prop39
140
1.0
102
RTVSPost2010PropOp39
 70
     1
102
RTVSPost2010Prop40
 90
        0
102
RTVSPost2010PropOp40
 70
     1
102
RTVSPost2010Prop41ColorIndex
 90
       18
102
RTVSPost2010Prop41ColorRGB
 90
        0
102
RTVSPost2010PropOp41
 70
     1
102
RTVSPost2010Prop42
 90
       50
102
RTVSPost2010PropOp42
 70
     1
102
RTVSPost2010Prop43
 90
        3
102
RTVSPost2010PropOp43
 70
     1
102
RTVSPost2010Prop44ColorIndex
 90
        5
102
RTVSPost2010Prop44ColorRGB
 90
      255
102
RTVSPost2010PropOp44
 70
     1
102
RTVSPost2010Prop45
280
     0
102
RTVSPost2010PropOp45
 70
     1
102
RTVSPost2010Prop46
 90
       50
102
RTVSPost2010PropOp46
 70
     1
102
RTVSPost2010Prop47
 90
       50
102
RTVSPost2010PropOp47
 70
     1
102
RTVSPost2010Prop48
 90
       50
102
RTVSPost2010PropOp48
 70
     1
102
RTVSPost2010Prop49
280
     0
102
RTVSPost2010PropOp49
 70
     1
102
RTVSPost2010Prop50
 90
       50
102
RTVSPost2010PropOp50
 70
     1
102
RTVSPost2010Prop51ColorIndex
 90
      256
102
RTVSPost2010Prop51ColorRGB
 90
-16777216
102
RTVSPost2010PropOp51
 70
     0
102
RTVSPost2010Prop52
140
1.0
102
RTVSPost2010PropOp52
 70
     0
102
RTVSPost2010Prop53
 90
        2
102
RTVSPost2010PropOp53
 70
     1
102
RTVSPost2010Prop54
  1
strokes_ogs.tif
102
RTVSPost2010PropOp54
 70
     1
102
RTVSPost2010Prop55
280
     0
102
RTVSPost2010PropOp55
 70
     1
102
RTVSPost2010Prop56
140
1.0
102
RTVSPost2010PropOp56
 70
     1
102
RTVSPost2010Prop57
140
1.0
102
RTVSPost2010PropOp57
 70
     1
102
RTVSPropertyOp0
 70
     1
102
RTVSPropertyOp1
 70
     1
102
RTVSPropertyOp2
 70
     1
102
RTVSPropertyOp3
 70
     1
102
RTVSPropertyOp4
 70
     1
102
RTVSPropertyOp5
 70
     1
102
RTVSPropertyOp6
 70
     1
102
RTVSPropertyOp7
 70
     1
102
RTVSPropertyOp8
 70
     1
102
RTVSPropertyOp9
 70
     1
102
RTVSPropertyOp10
 70
     1
102
RTVSPropertyOp11
 70
     1
102
RTVSPropertyOp12
 70
     1
102
RTVSPropertyOp13
 70
     1
102
RTVSPropertyOp14
 70
     1
102
RTVSPropertyOp15
 70
     1
102
RTVSPropertyOp16
 70
     1
102
RTVSPropertyOp17
 70
     1
102
RTVSPropertyOp18
 70
     1
102
RTVSPropertyOp19
 70
     1
102
RTVSPropertyOp20
 70
     1
102
RTVSPropertyOp21
 70
     1
102
RTVSPropertyOp22
 70
     1
102
RTVSPropertyOp23
 70
     1
102
RTVSPropertyOp24
 70
     1
102
RTVSPropertyOp25
 70
     1
102
RTVSPropertyOp26
 70
     1
102
RTVSPropertyOp27
 70
     1
102
RTVSPropertyOp28
 70
     1
102
RTVSPropertyOp29
 70
     1
102
RTVSPropertyOp30
 70
     1
102
RTVSPropertyOp31
 70
     1
102
RTVSPropertyOp32
 70
     1
102
RTVSPropertyOp33
 70
     1
102
RTVSPropertyOp34
 70
     1
102
RTVSPropertyOp35
 70
     1
102
RTVSPropertyOp36
 70
     1
102
RTVSPropertyOp37
 70
     1
102
RTVSPropertyOp38
 70
     1
102
RTVSPropertyOp39
 70
     1
102
RTVSPropertyOp40
 70
     1
102
RTVSPropertyOp41
 70
     1
102
RTVSPropertyOp42
 70
     1
102
RTVSPropertyOp43
 70
     1
102
RTVSPropertyOp44
 70
     1
102
RTVSPropertyOp45
 70
     1
102
RTVSPropertyOp46
 70
     1
102
RTVSPropertyOp47
 70
     1
102
RTVSPropertyOp48
 70
     1
102
RTVSPropertyOp49
 70
     1
102
RTVSPropertyOp50
 70
     1
102
RTVSPropertyOp51
 70
     0
102
RTVSPropertyOp52
 70
     0
102
RTVSPropertyOp53
 70
     1
102
RTVSPropertyOp54
 70
     1
102
RTVSPropertyOp55
 70
     1
102
RTVSPropertyOp56
 70
     1
102
RTVSPropertyOp57
 70
     1
102
RTVSPropertyOp58
 70
     1
102
RTVSPropertyOp59
 70
     1
102
RTVSPropertyOp60
 70
     1
102
RTVSPropertyOp61
 70
     1
102
RTVSPropertyOp62
 70
     1
  0
XRECORD
  5
83EC
102
{ACAD_REACTORS
330
83EB
102
}
330
83EB
100
AcDbXrecord
280
     1
102
RTVSPost2010Prop28
280
     0
102
RTVSPost2010PropOp28
 70
     1
102
RTVSPost2010Prop29
280
     1
102
RTVSPost2010PropOp29
 70
     1
102
RTVSPost2010Prop30
280
     1
102
RTVSPost2010PropOp30
 70
     1
102
RTVSPost2010Prop31
280
     0
102
RTVSPost2010PropOp31
 70
     1
102
RTVSPost2010Prop32
280
     0
102
RTVSPost2010PropOp32
 70
     1
102
RTVSPost2010Prop33
280
     0
102
RTVSPost2010PropOp33
 70
     1
102
RTVSPost2010Prop34
280
     0
102
RTVSPost2010PropOp34
 70
     1
102
RTVSPost2010Prop35
280
     0
102
RTVSPost2010PropOp35
 70
     1
102
RTVSPost2010Prop36
280
     0
102
RTVSPost2010PropOp36
 70
     1
102
RTVSPost2010Prop37
 90
       50
102
RTVSPost2010PropOp37
 70
     1
102
RTVSPost2010Prop38
140
0.0
102
RTVSPost2010PropOp38
 70
     1
102
RTVSPost2010Prop39
140
1.0
102
RTVSPost2010PropOp39
 70
     1
102
RTVSPost2010Prop40
 90
        0
102
RTVSPost2010PropOp40
 70
     1
102
RTVSPost2010Prop41ColorIndex
 90
       18
102
RTVSPost2010Prop41ColorRGB
 90
        0
102
RTVSPost2010PropOp41
 70
     1
102
RTVSPost2010Prop42
 90
       50
102
RTVSPost2010PropOp42
 70
     1
102
RTVSPost2010Prop43
 90
        3
102
RTVSPost2010PropOp43
 70
     1
102
RTVSPost2010Prop44ColorIndex
 90
        5
102
RTVSPost2010Prop44ColorRGB
 90
      255
102
RTVSPost2010PropOp44
 70
     1
102
RTVSPost2010Prop45
280
     0
102
RTVSPost2010PropOp45
 70
     1
102
RTVSPost2010Prop46
 90
       50
102
RTVSPost2010PropOp46
 70
     1
102
RTVSPost2010Prop47
 90
       50
102
RTVSPost2010PropOp47
 70
     1
102
RTVSPost2010Prop48
 90
       50
102
RTVSPost2010PropOp48
 70
     1
102
RTVSPost2010Prop49
280
     0
102
RTVSPost2010PropOp49
 70
     1
102
RTVSPost2010Prop50
 90
       50
102
RTVSPost2010PropOp50
 70
     1
102
RTVSPost2010Prop51ColorIndex
 90
      256
102
RTVSPost2010Prop51ColorRGB
 90
-16777216
102
RTVSPost2010PropOp51
 70
     0
102
RTVSPost2010Prop52
140
1.0
102
RTVSPost2010PropOp52
 70
     0
102
RTVSPost2010Prop53
 90
        2
102
RTVSPost2010PropOp53
 70
     1
102
RTVSPost2010Prop54
  1
strokes_ogs.tif
102
RTVSPost2010PropOp54
 70
     1
102
RTVSPost2010Prop55
280
     0
102
RTVSPost2010PropOp55
 70
     1
102
RTVSPost2010Prop56
140
1.0
102
RTVSPost2010PropOp56
 70
     1
102
RTVSPost2010Prop57
140
1.0
102
RTVSPost2010PropOp57
 70
     1
102
RTVSPropertyOp0
 70
     1
102
RTVSPropertyOp1
 70
     1
102
RTVSPropertyOp2
 70
     1
102
RTVSPropertyOp3
 70
     1
102
RTVSPropertyOp4
 70
     1
102
RTVSPropertyOp5
 70
     1
102
RTVSPropertyOp6
 70
     1
102
RTVSPropertyOp7
 70
     1
102
RTVSPropertyOp8
 70
     1
102
RTVSPropertyOp9
 70
     1
102
RTVSPropertyOp10
 70
     1
102
RTVSPropertyOp11
 70
     1
102
RTVSPropertyOp12
 70
     1
102
RTVSPropertyOp13
 70
     1
102
RTVSPropertyOp14
 70
     1
102
RTVSPropertyOp15
 70
     1
102
RTVSPropertyOp16
 70
     1
102
RTVSPropertyOp17
 70
     1
102
RTVSPropertyOp18
 70
     1
102
RTVSPropertyOp19
 70
     1
102
RTVSPropertyOp20
 70
     1
102
RTVSPropertyOp21
 70
     1
102
RTVSPropertyOp22
 70
     1
102
RTVSPropertyOp23
 70
     1
102
RTVSPropertyOp24
 70
     1
102
RTVSPropertyOp25
 70
     1
102
RTVSPropertyOp26
 70
     1
102
RTVSPropertyOp27
 70
     1
102
RTVSPropertyOp28
 70
     1
102
RTVSPropertyOp29
 70
     1
102
RTVSPropertyOp30
 70
     1
102
RTVSPropertyOp31
 70
     1
102
RTVSPropertyOp32
 70
     1
102
RTVSPropertyOp33
 70
     1
102
RTVSPropertyOp34
 70
     1
102
RTVSPropertyOp35
 70
     1
102
RTVSPropertyOp36
 70
     1
102
RTVSPropertyOp37
 70
     1
102
RTVSPropertyOp38
 70
     1
102
RTVSPropertyOp39
 70
     1
102
RTVSPropertyOp40
 70
     1
102
RTVSPropertyOp41
 70
     1
102
RTVSPropertyOp42
 70
     1
102
RTVSPropertyOp43
 70
     1
102
RTVSPropertyOp44
 70
     1
102
RTVSPropertyOp45
 70
     1
102
RTVSPropertyOp46
 70
     1
102
RTVSPropertyOp47
 70
     1
102
RTVSPropertyOp48
 70
     1
102
RTVSPropertyOp49
 70
     1
102
RTVSPropertyOp50
 70
     1
102
RTVSPropertyOp51
 70
     0
102
RTVSPropertyOp52
 70
     0
102
RTVSPropertyOp53
 70
     1
102
RTVSPropertyOp54
 70
     1
102
RTVSPropertyOp55
 70
     1
102
RTVSPropertyOp56
 70
     1
102
RTVSPropertyOp57
 70
     1
102
RTVSPropertyOp58
 70
     1
102
RTVSPropertyOp59
 70
     1
102
RTVSPropertyOp60
 70
     1
102
RTVSPropertyOp61
 70
     1
102
RTVSPropertyOp62
 70
     1
  0
XRECORD
  5
83E0
102
{ACAD_REACTORS
330
83DF
102
}
330
83DF
100
AcDbXrecord
280
     1
102
RTVSPost2010Prop28
280
     0
102
RTVSPost2010PropOp28
 70
     1
102
RTVSPost2010Prop29
280
     1
102
RTVSPost2010PropOp29
 70
     1
102
RTVSPost2010Prop30
280
     1
102
RTVSPost2010PropOp30
 70
     1
102
RTVSPost2010Prop31
280
     0
102
RTVSPost2010PropOp31
 70
     1
102
RTVSPost2010Prop32
280
     0
102
RTVSPost2010PropOp32
 70
     1
102
RTVSPost2010Prop33
280
     0
102
RTVSPost2010PropOp33
 70
     1
102
RTVSPost2010Prop34
280
     0
102
RTVSPost2010PropOp34
 70
     1
102
RTVSPost2010Prop35
280
     0
102
RTVSPost2010PropOp35
 70
     1
102
RTVSPost2010Prop36
280
     0
102
RTVSPost2010PropOp36
 70
     1
102
RTVSPost2010Prop37
 90
       50
102
RTVSPost2010PropOp37
 70
     1
102
RTVSPost2010Prop38
140
0.0
102
RTVSPost2010PropOp38
 70
     1
102
RTVSPost2010Prop39
140
1.0
102
RTVSPost2010PropOp39
 70
     1
102
RTVSPost2010Prop40
 90
        0
102
RTVSPost2010PropOp40
 70
     1
102
RTVSPost2010Prop41ColorIndex
 90
       18
102
RTVSPost2010Prop41ColorRGB
 90
        0
102
RTVSPost2010PropOp41
 70
     1
102
RTVSPost2010Prop42
 90
       50
102
RTVSPost2010PropOp42
 70
     1
102
RTVSPost2010Prop43
 90
        3
102
RTVSPost2010PropOp43
 70
     1
102
RTVSPost2010Prop44ColorIndex
 90
        5
102
RTVSPost2010Prop44ColorRGB
 90
      255
102
RTVSPost2010PropOp44
 70
     1
102
RTVSPost2010Prop45
280
     0
102
RTVSPost2010PropOp45
 70
     1
102
RTVSPost2010Prop46
 90
       50
102
RTVSPost2010PropOp46
 70
     1
102
RTVSPost2010Prop47
 90
       50
102
RTVSPost2010PropOp47
 70
     1
102
RTVSPost2010Prop48
 90
       50
102
RTVSPost2010PropOp48
 70
     1
102
RTVSPost2010Prop49
280
     0
102
RTVSPost2010PropOp49
 70
     1
102
RTVSPost2010Prop50
 90
       50
102
RTVSPost2010PropOp50
 70
     1
102
RTVSPost2010Prop51ColorIndex
 90
      256
102
RTVSPost2010Prop51ColorRGB
 90
-16777216
102
RTVSPost2010PropOp51
 70
     0
102
RTVSPost2010Prop52
140
1.0
102
RTVSPost2010PropOp52
 70
     0
102
RTVSPost2010Prop53
 90
        2
102
RTVSPost2010PropOp53
 70
     1
102
RTVSPost2010Prop54
  1
strokes_ogs.tif
102
RTVSPost2010PropOp54
 70
     1
102
RTVSPost2010Prop55
280
     0
102
RTVSPost2010PropOp55
 70
     1
102
RTVSPost2010Prop56
140
1.0
102
RTVSPost2010PropOp56
 70
     1
102
RTVSPost2010Prop57
140
1.0
102
RTVSPost2010PropOp57
 70
     1
102
RTVSPropertyOp0
 70
     1
102
RTVSPropertyOp1
 70
     1
102
RTVSPropertyOp2
 70
     1
102
RTVSPropertyOp3
 70
     1
102
RTVSPropertyOp4
 70
     1
102
RTVSPropertyOp5
 70
     1
102
RTVSPropertyOp6
 70
     1
102
RTVSPropertyOp7
 70
     1
102
RTVSPropertyOp8
 70
     1
102
RTVSPropertyOp9
 70
     1
102
RTVSPropertyOp10
 70
     1
102
RTVSPropertyOp11
 70
     1
102
RTVSPropertyOp12
 70
     1
102
RTVSPropertyOp13
 70
     1
102
RTVSPropertyOp14
 70
     1
102
RTVSPropertyOp15
 70
     1
102
RTVSPropertyOp16
 70
     1
102
RTVSPropertyOp17
 70
     1
102
RTVSPropertyOp18
 70
     1
102
RTVSPropertyOp19
 70
     1
102
RTVSPropertyOp20
 70
     1
102
RTVSPropertyOp21
 70
     1
102
RTVSPropertyOp22
 70
     1
102
RTVSPropertyOp23
 70
     1
102
RTVSPropertyOp24
 70
     1
102
RTVSPropertyOp25
 70
     1
102
RTVSPropertyOp26
 70
     1
102
RTVSPropertyOp27
 70
     1
102
RTVSPropertyOp28
 70
     1
102
RTVSPropertyOp29
 70
     1
102
RTVSPropertyOp30
 70
     1
102
RTVSPropertyOp31
 70
     1
102
RTVSPropertyOp32
 70
     1
102
RTVSPropertyOp33
 70
     1
102
RTVSPropertyOp34
 70
     1
102
RTVSPropertyOp35
 70
     1
102
RTVSPropertyOp36
 70
     1
102
RTVSPropertyOp37
 70
     1
102
RTVSPropertyOp38
 70
     1
102
RTVSPropertyOp39
 70
     1
102
RTVSPropertyOp40
 70
     1
102
RTVSPropertyOp41
 70
     1
102
RTVSPropertyOp42
 70
     1
102
RTVSPropertyOp43
 70
     1
102
RTVSPropertyOp44
 70
     1
102
RTVSPropertyOp45
 70
     1
102
RTVSPropertyOp46
 70
     1
102
RTVSPropertyOp47
 70
     1
102
RTVSPropertyOp48
 70
     1
102
RTVSPropertyOp49
 70
     1
102
RTVSPropertyOp50
 70
     1
102
RTVSPropertyOp51
 70
     0
102
RTVSPropertyOp52
 70
     0
102
RTVSPropertyOp53
 70
     1
102
RTVSPropertyOp54
 70
     1
102
RTVSPropertyOp55
 70
     1
102
RTVSPropertyOp56
 70
     1
102
RTVSPropertyOp57
 70
     1
102
RTVSPropertyOp58
 70
     1
102
RTVSPropertyOp59
 70
     1
102
RTVSPropertyOp60
 70
     1
102
RTVSPropertyOp61
 70
     1
102
RTVSPropertyOp62
 70
     1
  0
XRECORD
  5
83F8
102
{ACAD_REACTORS
330
83F7
102
}
330
83F7
100
AcDbXrecord
280
     1
102
RTVSPost2010Prop28
280
     0
102
RTVSPost2010PropOp28
 70
     1
102
RTVSPost2010Prop29
280
     1
102
RTVSPost2010PropOp29
 70
     1
102
RTVSPost2010Prop30
280
     1
102
RTVSPost2010PropOp30
 70
     1
102
RTVSPost2010Prop31
280
     0
102
RTVSPost2010PropOp31
 70
     1
102
RTVSPost2010Prop32
280
     0
102
RTVSPost2010PropOp32
 70
     1
102
RTVSPost2010Prop33
280
     0
102
RTVSPost2010PropOp33
 70
     1
102
RTVSPost2010Prop34
280
     0
102
RTVSPost2010PropOp34
 70
     1
102
RTVSPost2010Prop35
280
     0
102
RTVSPost2010PropOp35
 70
     1
102
RTVSPost2010Prop36
280
     0
102
RTVSPost2010PropOp36
 70
     1
102
RTVSPost2010Prop37
 90
       50
102
RTVSPost2010PropOp37
 70
     1
102
RTVSPost2010Prop38
140
0.0
102
RTVSPost2010PropOp38
 70
     1
102
RTVSPost2010Prop39
140
1.0
102
RTVSPost2010PropOp39
 70
     1
102
RTVSPost2010Prop40
 90
        0
102
RTVSPost2010PropOp40
 70
     1
102
RTVSPost2010Prop41ColorIndex
 90
       18
102
RTVSPost2010Prop41ColorRGB
 90
        0
102
RTVSPost2010PropOp41
 70
     1
102
RTVSPost2010Prop42
 90
       50
102
RTVSPost2010PropOp42
 70
     1
102
RTVSPost2010Prop43
 90
        3
102
RTVSPost2010PropOp43
 70
     1
102
RTVSPost2010Prop44ColorIndex
 90
        5
102
RTVSPost2010Prop44ColorRGB
 90
      255
102
RTVSPost2010PropOp44
 70
     1
102
RTVSPost2010Prop45
280
     0
102
RTVSPost2010PropOp45
 70
     1
102
RTVSPost2010Prop46
 90
       50
102
RTVSPost2010PropOp46
 70
     1
102
RTVSPost2010Prop47
 90
       50
102
RTVSPost2010PropOp47
 70
     1
102
RTVSPost2010Prop48
 90
       50
102
RTVSPost2010PropOp48
 70
     1
102
RTVSPost2010Prop49
280
     0
102
RTVSPost2010PropOp49
 70
     1
102
RTVSPost2010Prop50
 90
       50
102
RTVSPost2010PropOp50
 70
     1
102
RTVSPost2010Prop51ColorIndex
 90
      256
102
RTVSPost2010Prop51ColorRGB
 90
-16777216
102
RTVSPost2010PropOp51
 70
     0
102
RTVSPost2010Prop52
140
1.0
102
RTVSPost2010PropOp52
 70
     0
102
RTVSPost2010Prop53
 90
        2
102
RTVSPost2010PropOp53
 70
     1
102
RTVSPost2010Prop54
  1
strokes_ogs.tif
102
RTVSPost2010PropOp54
 70
     1
102
RTVSPost2010Prop55
280
     0
102
RTVSPost2010PropOp55
 70
     1
102
RTVSPost2010Prop56
140
1.0
102
RTVSPost2010PropOp56
 70
     1
102
RTVSPost2010Prop57
140
1.0
102
RTVSPost2010PropOp57
 70
     1
102
RTVSPropertyOp0
 70
     1
102
RTVSPropertyOp1
 70
     1
102
RTVSPropertyOp2
 70
     1
102
RTVSPropertyOp3
 70
     1
102
RTVSPropertyOp4
 70
     1
102
RTVSPropertyOp5
 70
     1
102
RTVSPropertyOp6
 70
     1
102
RTVSPropertyOp7
 70
     1
102
RTVSPropertyOp8
 70
     1
102
RTVSPropertyOp9
 70
     1
102
RTVSPropertyOp10
 70
     1
102
RTVSPropertyOp11
 70
     1
102
RTVSPropertyOp12
 70
     1
102
RTVSPropertyOp13
 70
     1
102
RTVSPropertyOp14
 70
     1
102
RTVSPropertyOp15
 70
     1
102
RTVSPropertyOp16
 70
     1
102
RTVSPropertyOp17
 70
     1
102
RTVSPropertyOp18
 70
     1
102
RTVSPropertyOp19
 70
     1
102
RTVSPropertyOp20
 70
     1
102
RTVSPropertyOp21
 70
     1
102
RTVSPropertyOp22
 70
     1
102
RTVSPropertyOp23
 70
     1
102
RTVSPropertyOp24
 70
     1
102
RTVSPropertyOp25
 70
     1
102
RTVSPropertyOp26
 70
     1
102
RTVSPropertyOp27
 70
     1
102
RTVSPropertyOp28
 70
     1
102
RTVSPropertyOp29
 70
     1
102
RTVSPropertyOp30
 70
     1
102
RTVSPropertyOp31
 70
     1
102
RTVSPropertyOp32
 70
     1
102
RTVSPropertyOp33
 70
     1
102
RTVSPropertyOp34
 70
     1
102
RTVSPropertyOp35
 70
     1
102
RTVSPropertyOp36
 70
     1
102
RTVSPropertyOp37
 70
     1
102
RTVSPropertyOp38
 70
     1
102
RTVSPropertyOp39
 70
     1
102
RTVSPropertyOp40
 70
     1
102
RTVSPropertyOp41
 70
     1
102
RTVSPropertyOp42
 70
     1
102
RTVSPropertyOp43
 70
     1
102
RTVSPropertyOp44
 70
     1
102
RTVSPropertyOp45
 70
     1
102
RTVSPropertyOp46
 70
     1
102
RTVSPropertyOp47
 70
     1
102
RTVSPropertyOp48
 70
     1
102
RTVSPropertyOp49
 70
     1
102
RTVSPropertyOp50
 70
     1
102
RTVSPropertyOp51
 70
     0
102
RTVSPropertyOp52
 70
     0
102
RTVSPropertyOp53
 70
     1
102
RTVSPropertyOp54
 70
     1
102
RTVSPropertyOp55
 70
     1
102
RTVSPropertyOp56
 70
     1
102
RTVSPropertyOp57
 70
     1
102
RTVSPropertyOp58
 70
     1
102
RTVSPropertyOp59
 70
     1
102
RTVSPropertyOp60
 70
     1
102
RTVSPropertyOp61
 70
     1
102
RTVSPropertyOp62
 70
     1
  0
ENDSEC
  0
EOF
