  0
SECTION
  2
HEADER
  9
$ACADVER
  1
AC1015
  9
$ACADMAINTVER
 70
    20
  9
$DWGCODEPAGE
  3
ANSI_932
  9
$INSBASE
 10
0.0
 20
0.0
 30
0.0
  9
$EXTMIN
 10
-0.1602050617329951
 20
-0.22504996767384
 30
-0.0015258207003583
  9
$EXTMAX
 10
5250.160229508953
 20
7375.225084310193
 30
0.0000000349246037
  9
$LIMMIN
 10
0.0
 20
0.0
  9
$LIMMAX
 10
297.0
 20
210.0
  9
$ORTHOMODE
 70
     1
  9
$REGENMODE
 70
     1
  9
$FILLMODE
 70
     0
  9
$QTEXTMODE
 70
     0
  9
$MIRRTEXT
 70
     1
  9
$LTSCALE
 40
100.0
  9
$ATTMODE
 70
     1
  9
$TEXTSIZE
 40
180.0
  9
$TRACEWID
 40
0.05
  9
$TEXTSTYLE
  7
STANDARD
  9
$CLAYER
  8
3
  9
$CELTYPE
  6
ByLayer
  9
$CECOLOR
 62
   256
  9
$CELTSCALE
 40
1.0
  9
$DISPSILH
 70
     0
  9
$DIMSCALE
 40
25.0
  9
$DIMASZ
 40
2.0
  9
$DIMEXO
 40
1.0
  9
$DIMDLI
 40
10.0
  9
$DIMRND
 40
0.0
  9
$DIMDLE
 40
0.0
  9
$DIMEXE
 40
1.0
  9
$DIMTP
 40
1.0
  9
$DIMTM
 40
1.0
  9
$DIMTXT
 40
3.0
  9
$DIMCEN
 40
0.0
  9
$DIMTSZ
 40
0.0
  9
$DIMTOL
 70
     0
  9
$DIMLIM
 70
     0
  9
$DIMTIH
 70
     0
  9
$DIMTOH
 70
     0
  9
$DIMSE1
 70
     0
  9
$DIMSE2
 70
     0
  9
$DIMTAD
 70
     1
  9
$DIMZIN
 70
     8
  9
$DIMBLK
  1

  9
$DIMASO
 70
     1
  9
$DIMSHO
 70
     1
  9
$DIMPOST
  1

  9
$DIMAPOST
  1

  9
$DIMALT
 70
     0
  9
$DIMALTD
 70
     2
  9
$DIMALTF
 40
0.039
  9
$DIMLFAC
 40
1.0
  9
$DIMTOFL
 70
     1
  9
$DIMTVP
 40
0.0
  9
$DIMTIX
 70
     0
  9
$DIMSOXD
 70
     0
  9
$DIMSAH
 70
     1
  9
$DIMBLK1
  1
OPEN
  9
$DIMBLK2
  1
OPEN
  9
$DIMSTYLE
  2
IGA
  9
$DIMCLRD
 70
     0
  9
$DIMCLRE
 70
     0
  9
$DIMCLRT
 70
     0
  9
$DIMTFAC
 40
10.0
  9
$DIMGAP
 40
1.0
  9
$DIMJUST
 70
     0
  9
$DIMSD1
 70
     0
  9
$DIMSD2
 70
     0
  9
$DIMTOLJ
 70
     1
  9
$DIMTZIN
 70
     0
  9
$DIMALTZ
 70
     0
  9
$DIMALTTZ
 70
     0
  9
$DIMUPT
 70
     0
  9
$DIMDEC
 70
     4
  9
$DIMTDEC
 70
     4
  9
$DIMALTU
 70
     2
  9
$DIMALTTD
 70
     2
  9
$DIMTXSTY
  7
STANDARD
  9
$DIMAUNIT
 70
     0
  9
$DIMADEC
 70
     0
  9
$DIMALTRND
 40
0.0
  9
$DIMAZIN
 70
     0
  9
$DIMDSEP
 70
    46
  9
$DIMATFIT
 70
     3
  9
$DIMFRAC
 70
     0
  9
$DIMLDRBLK
  1
OPEN
  9
$DIMLUNIT
 70
     2
  9
$DIMLWD
 70
    -2
  9
$DIMLWE
 70
    -2
  9
$DIMTMOVE
 70
     0
  9
$LUNITS
 70
     2
  9
$LUPREC
 70
     3
  9
$SKETCHINC
 40
0.1
  9
$FILLETRAD
 40
50.0
  9
$AUNITS
 70
     0
  9
$AUPREC
 70
     0
  9
$MENU
  1
acad
  9
$ELEVATION
 40
0.0
  9
$PELEVATION
 40
0.0
  9
$THICKNESS
 40
0.0
  9
$LIMCHECK
 70
     0
  9
$CHAMFERA
 40
0.5
  9
$CHAMFERB
 40
0.5
  9
$CHAMFERC
 40
0.0
  9
$CHAMFERD
 40
0.0
  9
$SKPOLY
 70
     0
  9
$TDCREATE
 40
2451389.455817940
  9
$TDUCREATE
 40
2451389.080817940
  9
$TDUPDATE
 40
2460265.753453507
  9
$TDUUPDATE
 40
2460265.378453507
  9
$TDINDWG
 40
0.1862051736
  9
$TDUSRTIMER
 40
0.1862051273
  9
$USRTIMER
 70
     1
  9
$ANGBASE
 50
0.0
  9
$ANGDIR
 70
     0
  9
$PDMODE
 70
     0
  9
$PDSIZE
 40
0.0
  9
$PLINEWID
 40
0.0
  9
$SPLFRAME
 70
     0
  9
$SPLINETYPE
 70
     6
  9
$SPLINESEGS
 70
     8
  9
$HANDSEED
  5
88BE
  9
$SURFTAB1
 70
     6
  9
$SURFTAB2
 70
     6
  9
$SURFTYPE
 70
     6
  9
$SURFU
 70
     6
  9
$SURFV
 70
     6
  9
$UCSBASE
  2

  9
$UCSNAME
  2

  9
$UCSORG
 10
0.0
 20
0.0
 30
0.0
  9
$UCSXDIR
 10
1.0
 20
0.0
 30
0.0
  9
$UCSYDIR
 10
0.0
 20
1.0
 30
0.0
  9
$UCSORTHOREF
  2

  9
$UCSORTHOVIEW
 70
     0
  9
$UCSORGTOP
 10
0.0
 20
0.0
 30
0.0
  9
$UCSORGBOTTOM
 10
0.0
 20
0.0
 30
0.0
  9
$UCSORGLEFT
 10
0.0
 20
0.0
 30
0.0
  9
$UCSORGRIGHT
 10
0.0
 20
0.0
 30
0.0
  9
$UCSORGFRONT
 10
0.0
 20
0.0
 30
0.0
  9
$UCSORGBACK
 10
0.0
 20
0.0
 30
0.0
  9
$PUCSBASE
  2

  9
$PUCSNAME
  2

  9
$PUCSORG
 10
0.0
 20
0.0
 30
0.0
  9
$PUCSXDIR
 10
1.0
 20
0.0
 30
0.0
  9
$PUCSYDIR
 10
0.0
 20
1.0
 30
0.0
  9
$PUCSORTHOREF
  2

  9
$PUCSORTHOVIEW
 70
     0
  9
$PUCSORGTOP
 10
0.0
 20
0.0
 30
0.0
  9
$PUCSORGBOTTOM
 10
0.0
 20
0.0
 30
0.0
  9
$PUCSORGLEFT
 10
0.0
 20
0.0
 30
0.0
  9
$PUCSORGRIGHT
 10
0.0
 20
0.0
 30
0.0
  9
$PUCSORGFRONT
 10
0.0
 20
0.0
 30
0.0
  9
$PUCSORGBACK
 10
0.0
 20
0.0
 30
0.0
  9
$USERI1
 70
     0
  9
$USERI2
 70
     0
  9
$USERI3
 70
     0
  9
$USERI4
 70
     0
  9
$USERI5
 70
     0
  9
$USERR1
 40
0.0
  9
$USERR2
 40
0.0
  9
$USERR3
 40
0.0
  9
$USERR4
 40
0.0
  9
$USERR5
 40
0.0
  9
$WORLDVIEW
 70
     1
  9
$SHADEDGE
 70
     3
  9
$SHADEDIF
 70
    70
  9
$TILEMODE
 70
     1
  9
$MAXACTVP
 70
    16
  9
$PINSBASE
 10
0.0
 20
0.0
 30
0.0
  9
$PLIMCHECK
 70
     0
  9
$PEXTMIN
 10
1.000000000000000E+20
 20
1.000000000000000E+20
 30
1.000000000000000E+20
  9
$PEXTMAX
 10
-1.000000000000000E+20
 20
-1.000000000000000E+20
 30
-1.000000000000000E+20
  9
$PLIMMIN
 10
0.0
 20
0.0
  9
$PLIMMAX
 10
12.0
 20
9.0
  9
$UNITMODE
 70
     0
  9
$VISRETAIN
 70
     0
  9
$PLINEGEN
 70
     0
  9
$PSLTSCALE
 70
     1
  9
$TREEDEPTH
 70
  3020
  9
$CMLSTYLE
  2
Standard
  9
$CMLJUST
 70
     0
  9
$CMLSCALE
 40
1.0
  9
$PROXYGRAPHICS
 70
     1
  9
$MEASUREMENT
 70
     0
  9
$CELWEIGHT
370
    -1
  9
$ENDCAPS
280
     0
  9
$JOINSTYLE
280
     0
  9
$LWDISPLAY
290
     0
  9
$INSUNITS
 70
     0
  9
$HYPERLINKBASE
  1

  9
$STYLESHEET
  1

  9
$XEDIT
290
     1
  9
$CEPSNTYPE
380
     0
  9
$PSTYLEMODE
290
     1
  9
$FINGERPRINTGUID
  2
{BC777A23-A990-4B23-96B7-D3F392528244}
  9
$VERSIONGUID
  2
{F38E215A-8868-4122-9915-011B73431503}
  9
$EXTNAMES
290
     1
  9
$PSVPSCALE
 40
0.0
  9
$OLESTARTUP
290
     0
  0
ENDSEC
  0
SECTION
  2
CLASSES
  0
CLASS
  1
ACDBDICTIONARYWDFLT
  2
AcDbDictionaryWithDefault
  3
ObjectDBX Classes
 90
        0
280
     0
281
     0
  0
CLASS
  1
MATERIAL
  2
AcDbMaterial
  3
ObjectDBX Classes
 90
     1153
280
     0
281
     0
  0
CLASS
  1
VISUALSTYLE
  2
AcDbVisualStyle
  3
ObjectDBX Classes
 90
     4095
280
     0
281
     0
  0
CLASS
  1
SCALE
  2
AcDbScale
  3
ObjectDBX Classes
 90
     1153
280
     0
281
     0
  0
CLASS
  1
TABLESTYLE
  2
AcDbTableStyle
  3
ObjectDBX Classes
 90
     4095
280
     0
281
     0
  0
CLASS
  1
MLEADERSTYLE
  2
AcDbMLeaderStyle
  3
ACDB_MLEADERSTYLE_CLASS
 90
     4095
280
     0
281
     0
  0
CLASS
  1
ACDBSECTIONVIEWSTYLE
  2
AcDbSectionViewStyle
  3
ObjectDBX Classes
 90
     1025
280
     0
281
     0
  0
CLASS
  1
ACDBDETAILVIEWSTYLE
  2
AcDbDetailViewStyle
  3
ObjectDBX Classes
 90
     1025
280
     0
281
     0
  0
CLASS
  1
DICTIONARYVAR
  2
AcDbDictionaryVar
  3
ObjectDBX Classes
 90
        0
280
     0
281
     0
  0
CLASS
  1
CELLSTYLEMAP
  2
AcDbCellStyleMap
  3
ObjectDBX Classes
 90
     1152
280
     0
281
     0
  0
CLASS
  1
ACDBPLACEHOLDER
  2
AcDbPlaceHolder
  3
ObjectDBX Classes
 90
        0
280
     0
281
     0
  0
CLASS
  1
LAYOUT
  2
AcDbLayout
  3
ObjectDBX Classes
 90
        0
280
     0
281
     0
  0
ENDSEC
  0
SECTION
  2
TABLES
  0
TABLE
  2
VPORT
  5
8121
330
0
100
AcDbSymbolTable
 70
     1
  0
VPORT
  5
818D
330
8121
100
AcDbSymbolTableRecord
100
AcDbViewportTableRecord
  2
*ACTIVE
 70
     0
 10
0.0
 20
0.0
 11
1.0
 21
1.0
 12
2625.00001222361
 22
3687.500017171259
 13
0.0
 23
0.0
 14
10.0
 24
10.0
 15
10.0
 25
10.0
 16
0.0
 26
0.0
 36
1.0
 17
0.0
 27
0.0
 37
0.0
 40
7422.678203440799
 41
2.050213675213675
 42
50.0
 43
0.0
 44
0.0
 50
0.0
 51
0.0
 71
     0
 72
   100
 73
     1
 74
     0
 75
     0
 76
     0
 77
     0
 78
     0
281
     0
 65
     1
110
0.0
120
0.0
130
0.0
111
1.0
121
0.0
131
0.0
112
0.0
122
1.0
132
0.0
 79
     0
146
0.0
1001
ACAD_NAV_VCDISPLAY
1070
     3
  0
ENDTAB
  0
TABLE
  2
LTYPE
  5
811E
330
0
100
AcDbSymbolTable
 70
     3
  0
LTYPE
  5
8173
330
811E
100
AcDbSymbolTableRecord
100
AcDbLinetypeTableRecord
  2
ByBlock
 70
     0
  3

 72
    65
 73
     0
 40
0.0
  0
LTYPE
  5
8174
330
811E
100
AcDbSymbolTableRecord
100
AcDbLinetypeTableRecord
  2
ByLayer
 70
     0
  3

 72
    65
 73
     0
 40
0.0
  0
LTYPE
  5
8175
330
811E
100
AcDbSymbolTableRecord
100
AcDbLinetypeTableRecord
  2
CONTINUOUS
 70
     0
  3
Solid line
 72
    65
 73
     0
 40
0.0
  0
LTYPE
  5
818E
330
811E
100
AcDbSymbolTableRecord
100
AcDbLinetypeTableRecord
  2
CENTER
 70
     0
  3
____ _ ____ _ ____ _ ____ _ ____ _ ____ _ ____ 
 72
    65
 73
     4
 40
2.0
 49
1.25
 74
     0
 49
-0.25
 74
     0
 49
0.25
 74
     0
 49
-0.25
 74
     0
  0
ENDTAB
  0
TABLE
  2
LAYER
  5
811B
102
{ACAD_XDICTIONARY
360
82C2
102
}
330
0
100
AcDbSymbolTable
 70
     8
  0
LAYER
  5
816D
102
{ACAD_XDICTIONARY
360
8611
102
}
330
811B
100
AcDbSymbolTableRecord
100
AcDbLayerTableRecord
  2
0
 70
     0
 62
     7
  6
CONTINUOUS
370
    -3
390
8128
  0
LAYER
  5
818C
102
{ACAD_XDICTIONARY
360
8613
102
}
330
811B
100
AcDbSymbolTableRecord
100
AcDbLayerTableRecord
  2
3
 70
     0
 62
     2
  6
CONTINUOUS
370
    -3
390
8128
  0
LAYER
  5
818F
102
{ACAD_XDICTIONARY
360
8615
102
}
330
811B
100
AcDbSymbolTableRecord
100
AcDbLayerTableRecord
  2
2
 70
     0
 62
     3
  6
CENTER
370
    -3
390
8128
  0
LAYER
  5
8190
102
{ACAD_XDICTIONARY
360
8617
102
}
330
811B
100
AcDbSymbolTableRecord
100
AcDbLayerTableRecord
  2
1
 70
     0
 62
     4
  6
CONTINUOUS
370
    -3
390
8128
  0
LAYER
  5
8191
102
{ACAD_XDICTIONARY
360
8619
102
}
330
811B
100
AcDbSymbolTableRecord
100
AcDbLayerTableRecord
  2
4
 70
     0
 62
     7
  6
CONTINUOUS
370
    -3
390
8128
  0
LAYER
  5
8192
330
811B
100
AcDbSymbolTableRecord
100
AcDbLayerTableRecord
  2
DEFPOINTS
 70
     0
 62
     7
  6
CONTINUOUS
290
     0
370
    -3
390
8128
  0
LAYER
  5
82BD
102
{ACAD_XDICTIONARY
360
82BE
102
}
330
811B
100
AcDbSymbolTableRecord
100
AcDbLayerTableRecord
  2
CT
 70
     0
 62
     3
  6
CENTER
370
    -3
390
8128
  0
LAYER
  5
82BF
102
{ACAD_XDICTIONARY
360
82C0
102
}
330
811B
100
AcDbSymbolTableRecord
100
AcDbLayerTableRecord
  2
FUTO
 70
     0
 62
     4
  6
CONTINUOUS
370
    -3
390
8128
  0
ENDTAB
  0
TABLE
  2
STYLE
  5
811C
330
0
100
AcDbSymbolTable
 70
     2
  0
STYLE
  5
816E
330
811C
100
AcDbSymbolTableRecord
100
AcDbTextStyleTableRecord
  2
STANDARD
 70
     0
 40
0.0
 41
1.0
 50
0.0
 71
     0
 42
180.0
  3
simplex.shx
  4
extfont.shx
  0
STYLE
  5
8172
330
811C
100
AcDbSymbolTableRecord
100
AcDbTextStyleTableRecord
  2
Annotative
 70
     0
 40
0.0
 41
1.0
 50
0.0
 71
     0
 42
0.2
  3
txt
  4

1001
AcadAnnotative
1000
AnnotativeData
1002
{
1070
     1
1070
     1
1002
}
  0
ENDTAB
  0
TABLE
  2
VIEW
  5
811F
330
0
100
AcDbSymbolTable
 70
     0
  0
ENDTAB
  0
TABLE
  2
UCS
  5
8120
330
0
100
AcDbSymbolTable
 70
     0
  0
ENDTAB
  0
TABLE
  2
APPID
  5
8122
330
0
100
AcDbSymbolTable
 70
     6
  0
APPID
  5
816F
330
8122
100
AcDbSymbolTableRecord
100
AcDbRegAppTableRecord
  2
ACAD
 70
     0
  0
APPID
  5
8176
330
8122
100
AcDbSymbolTableRecord
100
AcDbRegAppTableRecord
  2
AcadAnnotative
 70
     0
  0
APPID
  5
82C1
330
8122
100
AcDbSymbolTableRecord
100
AcDbRegAppTableRecord
  2
ACAD_NAV_VCDISPLAY
 70
     0
  0
APPID
  5
86F7
330
8122
100
AcDbSymbolTableRecord
100
AcDbRegAppTableRecord
  2
AcadAnnoMonitorAlertIconDisabled
 70
     0
  0
APPID
  5
86F8
330
8122
100
AcDbSymbolTableRecord
100
AcDbRegAppTableRecord
  2
ACAD_EXEMPT_FROM_CAD_STANDARDS
 70
     0
  0
APPID
  5
88B1
330
8122
100
AcDbSymbolTableRecord
100
AcDbRegAppTableRecord
  2
ACAD_MLEADERVER
 70
     0
  0
ENDTAB
  0
TABLE
  2
DIMSTYLE
  5
8123
330
0
100
AcDbSymbolTable
 70
     4
100
AcDbDimStyleTable
 71
     1
340
8193
  0
DIMSTYLE
105
8170
102
{ACAD_REACTORS
330
7C25
330
7C26
330
7C46
330
7C6B
330
7C90
330
7C91
330
7C92
330
7CA1
330
7CA5
330
7CA6
330
8073
330
8080
330
808D
330
809A
330
80A7
102
}
330
8123
100
AcDbSymbolTableRecord
100
AcDbDimStyleTableRecord
  2
Standard
 70
     0
340
816E
  0
DIMSTYLE
105
8171
330
8123
100
AcDbSymbolTableRecord
100
AcDbDimStyleTableRecord
  2
Annotative
 70
     0
340
816E
1001
AcadAnnotative
1000
AnnotativeData
1002
{
1070
     1
1070
     1
1002
}
  0
DIMSTYLE
105
8193
102
{ACAD_REACTORS
330
86EA
330
8707
330
8769
330
8776
330
879C
102
}
330
8123
100
AcDbSymbolTableRecord
100
AcDbDimStyleTableRecord
  2
IGA
 70
     0
 40
2.0
 41
2.0
 42
0.5
 43
10.0
 44
1.0
 47
1.0
 48
1.0
 73
     0
 74
     0
 77
     1
 78
     8
140
3.0
141
0.0
143
0.03937
146
10.0
147
1.0
173
     1
271
     3
272
     3
279
     2
284
     8
285
     8
286
     8
340
816E
  0
DIMSTYLE
105
8194
330
8123
100
AcDbSymbolTableRecord
100
AcDbDimStyleTableRecord
  2
MATSU
 70
     0
 41
2.0
 42
1.0
 43
10.0
 44
1.0
 73
     0
 74
     0
 77
     1
 78
     8
140
3.0
141
0.0
143
0.03937
147
0.5
172
     1
173
     1
176
   256
177
   256
178
   256
271
     3
272
     3
279
     2
284
     8
285
     8
286
     8
340
816E
  0
ENDTAB
  0
TABLE
  2
BLOCK_RECORD
  5
811A
330
0
100
AcDbSymbolTable
 70
    78
  0
BLOCK_RECORD
  5
8188
330
811A
100
AcDbSymbolTableRecord
100
AcDbBlockTableRecord
  2
*Model_Space
340
818B
  0
BLOCK_RECORD
  5
8184
330
811A
100
AcDbSymbolTableRecord
100
AcDbBlockTableRecord
  2
*Paper_Space
340
8187
  0
BLOCK_RECORD
  5
8198
330
811A
100
AcDbSymbolTableRecord
100
AcDbBlockTableRecord
  2
$MODEL_SPACE
340
0
  0
BLOCK_RECORD
  5
819A
330
811A
100
AcDbSymbolTableRecord
100
AcDbBlockTableRecord
  2
$PAPER_SPACE
340
0
  0
BLOCK_RECORD
  5
819C
330
811A
100
AcDbSymbolTableRecord
100
AcDbBlockTableRecord
  2
_OPEN
340
0
102
{BLKREFS
331
823E
331
823F
331
824A
331
824B
331
8256
331
8257
331
8262
331
8263
331
826E
331
826F
331
827A
331
827B
331
8286
331
8287
331
8292
331
8293
331
829E
331
829F
331
7DF2
331
7DF3
331
7DFD
331
7DFE
331
7E08
331
7E09
331
7E29
331
7E2A
331
7E3F
331
7E40
331
7E4A
331
7E4B
331
7E55
331
7E56
331
7E60
331
7E61
331
7E6B
331
7E6C
331
7E76
331
7E77
331
7E81
331
7E82
331
7E8C
331
7E8D
331
8106
331
8107
331
810E
331
810F
331
7FC3
331
7FC4
331
806C
331
806D
331
8079
331
807A
331
8086
331
8087
331
8093
331
8094
331
80A0
331
80A1
331
81D2
331
81D3
331
81DE
331
81DF
331
81EA
331
81EB
331
81F6
331
81F7
331
8202
331
8203
331
820E
331
820F
331
821A
331
821B
331
8226
331
8227
331
8232
331
8233
331
82AA
331
82AB
331
82B6
331
82B7
331
874D
331
874E
331
8756
331
8757
331
8770
331
8771
331
8786
331
8787
331
87AC
331
87AD
102
}
  0
BLOCK_RECORD
  5
819E
330
811A
100
AcDbSymbolTableRecord
100
AcDbBlockTableRecord
  2
YA_N
340
0
102
{BLKREFS
331
7C00
331
7C22
331
7C3A
331
7C3C
102
}
  0
BLOCK_RECORD
  5
81A0
330
811A
100
AcDbSymbolTableRecord
100
AcDbBlockTableRecord
  2
*D4
340
0
  0
BLOCK_RECORD
  5
81A2
330
811A
100
AcDbSymbolTableRecord
100
AcDbBlockTableRecord
  2
*D5
340
0
  0
BLOCK_RECORD
  5
81A4
330
811A
100
AcDbSymbolTableRecord
100
AcDbBlockTableRecord
  2
*D6
340
0
  0
BLOCK_RECORD
  5
81A6
330
811A
100
AcDbSymbolTableRecord
100
AcDbBlockTableRecord
  2
*D7
340
0
  0
BLOCK_RECORD
  5
81A8
330
811A
100
AcDbSymbolTableRecord
100
AcDbBlockTableRecord
  2
*D8
340
0
  0
BLOCK_RECORD
  5
81AA
330
811A
100
AcDbSymbolTableRecord
100
AcDbBlockTableRecord
  2
*D9
340
0
  0
BLOCK_RECORD
  5
81AC
330
811A
100
AcDbSymbolTableRecord
100
AcDbBlockTableRecord
  2
*D10
340
0
  0
BLOCK_RECORD
  5
81AE
330
811A
100
AcDbSymbolTableRecord
100
AcDbBlockTableRecord
  2
*D11
340
0
  0
BLOCK_RECORD
  5
81B0
330
811A
100
AcDbSymbolTableRecord
100
AcDbBlockTableRecord
  2
*D12
340
0
  0
BLOCK_RECORD
  5
81B2
330
811A
100
AcDbSymbolTableRecord
100
AcDbBlockTableRecord
  2
*D13
340
0
  0
BLOCK_RECORD
  5
81B4
330
811A
100
AcDbSymbolTableRecord
100
AcDbBlockTableRecord
  2
*D14
340
0
  0
BLOCK_RECORD
  5
81B6
330
811A
100
AcDbSymbolTableRecord
100
AcDbBlockTableRecord
  2
*D15
340
0
  0
BLOCK_RECORD
  5
81B8
330
811A
100
AcDbSymbolTableRecord
100
AcDbBlockTableRecord
  2
*D16
340
0
  0
BLOCK_RECORD
  5
81BA
330
811A
100
AcDbSymbolTableRecord
100
AcDbBlockTableRecord
  2
*D17
340
0
  0
BLOCK_RECORD
  5
81BC
330
811A
100
AcDbSymbolTableRecord
100
AcDbBlockTableRecord
  2
*D18
340
0
  0
BLOCK_RECORD
  5
81BE
330
811A
100
AcDbSymbolTableRecord
100
AcDbBlockTableRecord
  2
_DOT
340
0
  0
BLOCK_RECORD
  5
81C0
330
811A
100
AcDbSymbolTableRecord
100
AcDbBlockTableRecord
  2
_NONE
340
0
  0
BLOCK_RECORD
  5
81C2
330
811A
100
AcDbSymbolTableRecord
100
AcDbBlockTableRecord
  2
*D21
340
0
  0
BLOCK_RECORD
  5
81C4
330
811A
100
AcDbSymbolTableRecord
100
AcDbBlockTableRecord
  2
*D22
340
0
  0
BLOCK_RECORD
  5
81C6
330
811A
100
AcDbSymbolTableRecord
100
AcDbBlockTableRecord
  2
*D23
340
0
  0
BLOCK_RECORD
  5
81C8
330
811A
100
AcDbSymbolTableRecord
100
AcDbBlockTableRecord
  2
*D24
340
0
  0
BLOCK_RECORD
  5
81CA
330
811A
100
AcDbSymbolTableRecord
100
AcDbBlockTableRecord
  2
*D25
340
0
  0
BLOCK_RECORD
  5
81CD
330
811A
100
AcDbSymbolTableRecord
100
AcDbBlockTableRecord
  2
*D26
340
0
  0
BLOCK_RECORD
  5
81D9
330
811A
100
AcDbSymbolTableRecord
100
AcDbBlockTableRecord
  2
*D27
340
0
  0
BLOCK_RECORD
  5
81E5
330
811A
100
AcDbSymbolTableRecord
100
AcDbBlockTableRecord
  2
*D28
340
0
  0
BLOCK_RECORD
  5
81F1
330
811A
100
AcDbSymbolTableRecord
100
AcDbBlockTableRecord
  2
*D29
340
0
  0
BLOCK_RECORD
  5
81FD
330
811A
100
AcDbSymbolTableRecord
100
AcDbBlockTableRecord
  2
*D30
340
0
  0
BLOCK_RECORD
  5
8209
330
811A
100
AcDbSymbolTableRecord
100
AcDbBlockTableRecord
  2
*D31
340
0
  0
BLOCK_RECORD
  5
8215
330
811A
100
AcDbSymbolTableRecord
100
AcDbBlockTableRecord
  2
*D32
340
0
  0
BLOCK_RECORD
  5
8221
330
811A
100
AcDbSymbolTableRecord
100
AcDbBlockTableRecord
  2
*D33
340
0
  0
BLOCK_RECORD
  5
822D
330
811A
100
AcDbSymbolTableRecord
100
AcDbBlockTableRecord
  2
*D34
340
0
  0
BLOCK_RECORD
  5
8239
330
811A
100
AcDbSymbolTableRecord
100
AcDbBlockTableRecord
  2
*D35
340
0
  0
BLOCK_RECORD
  5
8245
330
811A
100
AcDbSymbolTableRecord
100
AcDbBlockTableRecord
  2
*D36
340
0
  0
BLOCK_RECORD
  5
8251
330
811A
100
AcDbSymbolTableRecord
100
AcDbBlockTableRecord
  2
*D37
340
0
  0
BLOCK_RECORD
  5
825D
330
811A
100
AcDbSymbolTableRecord
100
AcDbBlockTableRecord
  2
*D38
340
0
  0
BLOCK_RECORD
  5
8269
330
811A
100
AcDbSymbolTableRecord
100
AcDbBlockTableRecord
  2
*D39
340
0
  0
BLOCK_RECORD
  5
8275
330
811A
100
AcDbSymbolTableRecord
100
AcDbBlockTableRecord
  2
*D40
340
0
  0
BLOCK_RECORD
  5
8281
330
811A
100
AcDbSymbolTableRecord
100
AcDbBlockTableRecord
  2
*D41
340
0
  0
BLOCK_RECORD
  5
828D
330
811A
100
AcDbSymbolTableRecord
100
AcDbBlockTableRecord
  2
*D42
340
0
  0
BLOCK_RECORD
  5
8299
330
811A
100
AcDbSymbolTableRecord
100
AcDbBlockTableRecord
  2
*D43
340
0
  0
BLOCK_RECORD
  5
82A5
330
811A
100
AcDbSymbolTableRecord
100
AcDbBlockTableRecord
  2
*D44
340
0
  0
BLOCK_RECORD
  5
82B1
330
811A
100
AcDbSymbolTableRecord
100
AcDbBlockTableRecord
  2
*D45
340
0
  0
BLOCK_RECORD
  5
8469
330
811A
100
AcDbSymbolTableRecord
100
AcDbBlockTableRecord
  2
*D47
340
0
  0
BLOCK_RECORD
  5
8475
330
811A
100
AcDbSymbolTableRecord
100
AcDbBlockTableRecord
  2
*D48
340
0
  0
BLOCK_RECORD
  5
8481
330
811A
100
AcDbSymbolTableRecord
100
AcDbBlockTableRecord
  2
*D49
340
0
  0
BLOCK_RECORD
  5
848D
330
811A
100
AcDbSymbolTableRecord
100
AcDbBlockTableRecord
  2
*D50
340
0
  0
BLOCK_RECORD
  5
8499
330
811A
100
AcDbSymbolTableRecord
100
AcDbBlockTableRecord
  2
*D51
340
0
  0
BLOCK_RECORD
  5
84A5
330
811A
100
AcDbSymbolTableRecord
100
AcDbBlockTableRecord
  2
*D52
340
0
  0
BLOCK_RECORD
  5
84B2
330
811A
100
AcDbSymbolTableRecord
100
AcDbBlockTableRecord
  2
*D53
340
0
  0
BLOCK_RECORD
  5
84BF
330
811A
100
AcDbSymbolTableRecord
100
AcDbBlockTableRecord
  2
*D54
340
0
  0
BLOCK_RECORD
  5
84CB
330
811A
100
AcDbSymbolTableRecord
100
AcDbBlockTableRecord
  2
*D55
340
0
  0
BLOCK_RECORD
  5
84D7
330
811A
100
AcDbSymbolTableRecord
100
AcDbBlockTableRecord
  2
*D56
340
0
  0
BLOCK_RECORD
  5
84E3
330
811A
100
AcDbSymbolTableRecord
100
AcDbBlockTableRecord
  2
*D57
340
0
  0
BLOCK_RECORD
  5
84EF
330
811A
100
AcDbSymbolTableRecord
100
AcDbBlockTableRecord
  2
*D58
340
0
  0
BLOCK_RECORD
  5
84FB
330
811A
100
AcDbSymbolTableRecord
100
AcDbBlockTableRecord
  2
*D59
340
0
  0
BLOCK_RECORD
  5
8507
330
811A
100
AcDbSymbolTableRecord
100
AcDbBlockTableRecord
  2
*D60
340
0
  0
BLOCK_RECORD
  5
8513
330
811A
100
AcDbSymbolTableRecord
100
AcDbBlockTableRecord
  2
*D61
340
0
  0
BLOCK_RECORD
  5
851F
330
811A
100
AcDbSymbolTableRecord
100
AcDbBlockTableRecord
  2
*D62
340
0
  0
BLOCK_RECORD
  5
852B
330
811A
100
AcDbSymbolTableRecord
100
AcDbBlockTableRecord
  2
*D63
340
0
  0
BLOCK_RECORD
  5
8537
330
811A
100
AcDbSymbolTableRecord
100
AcDbBlockTableRecord
  2
*D64
340
0
  0
BLOCK_RECORD
  5
8543
330
811A
100
AcDbSymbolTableRecord
100
AcDbBlockTableRecord
  2
*D65
340
0
  0
BLOCK_RECORD
  5
854F
330
811A
100
AcDbSymbolTableRecord
100
AcDbBlockTableRecord
  2
*D66
340
0
  0
BLOCK_RECORD
  5
8696
330
811A
100
AcDbSymbolTableRecord
100
AcDbBlockTableRecord
  2
*D67
340
0
  0
BLOCK_RECORD
  5
86A2
330
811A
100
AcDbSymbolTableRecord
100
AcDbBlockTableRecord
  2
*D68
340
0
  0
BLOCK_RECORD
  5
86AE
330
811A
100
AcDbSymbolTableRecord
100
AcDbBlockTableRecord
  2
*D69
340
0
  0
BLOCK_RECORD
  5
86BA
330
811A
100
AcDbSymbolTableRecord
100
AcDbBlockTableRecord
  2
*D70
340
0
  0
BLOCK_RECORD
  5
86EB
330
811A
100
AcDbSymbolTableRecord
100
AcDbBlockTableRecord
  2
*D71
340
0
  0
BLOCK_RECORD
  5
86FA
330
811A
100
AcDbSymbolTableRecord
100
AcDbBlockTableRecord
  2
*D72
340
0
  0
BLOCK_RECORD
  5
8708
330
811A
100
AcDbSymbolTableRecord
100
AcDbBlockTableRecord
  2
*D73
340
0
  0
BLOCK_RECORD
  5
875C
330
811A
100
AcDbSymbolTableRecord
100
AcDbBlockTableRecord
  2
*D74
340
0
  0
BLOCK_RECORD
  5
876A
330
811A
100
AcDbSymbolTableRecord
100
AcDbBlockTableRecord
  2
*D75
340
0
  0
BLOCK_RECORD
  5
8777
330
811A
100
AcDbSymbolTableRecord
100
AcDbBlockTableRecord
  2
*D76
340
0
  0
BLOCK_RECORD
  5
879D
330
811A
100
AcDbSymbolTableRecord
100
AcDbBlockTableRecord
  2
*D77
340
0
  0
ENDTAB
  0
ENDSEC
  0
SECTION
  2
BLOCKS
  0
BLOCK
  5
8189
330
8188
100
AcDbEntity
  8
0
100
AcDbBlockBegin
  2
*Model_Space
 70
     0
 10
0.0
 20
0.0
 30
0.0
  3
*Model_Space
  1

  0
ENDBLK
  5
818A
330
8188
100
AcDbEntity
  8
0
100
AcDbBlockEnd
  0
BLOCK
  5
8185
330
8184
100
AcDbEntity
 67
     1
  8
0
100
AcDbBlockBegin
  2
*Paper_Space
 70
     0
 10
0.0
 20
0.0
 30
0.0
  3
*Paper_Space
  1

  0
ENDBLK
  5
8186
330
8184
100
AcDbEntity
 67
     1
  8
0
100
AcDbBlockEnd
  0
BLOCK
  5
8199
330
8198
100
AcDbEntity
  8
0
100
AcDbBlockBegin
  2
$MODEL_SPACE
 70
     0
 10
0.0
 20
0.0
 30
0.0
  3
$MODEL_SPACE
  1

  0
ENDBLK
  5
1B
330
8198
100
AcDbEntity
  8
0
100
AcDbBlockEnd
  0
BLOCK
  5
819B
330
819A
100
AcDbEntity
  8
0
100
AcDbBlockBegin
  2
$PAPER_SPACE
 70
     0
 10
0.0
 20
0.0
 30
0.0
  3
$PAPER_SPACE
  1

  0
ENDBLK
  5
18
330
819A
100
AcDbEntity
  8
0
100
AcDbBlockEnd
  0
BLOCK
  5
819D
330
819C
100
AcDbEntity
  8
0
100
AcDbBlockBegin
  2
_OPEN
 70
     0
 10
0.0
 20
0.0
 30
0.0
  3
_OPEN
  1

  0
LINE
  5
79FD
330
819C
100
AcDbEntity
  8
0
  6
ByBlock
 62
     0
100
AcDbLine
 10
-1.0
 20
0.1666666666666666
 30
0.0
 11
0.0
 21
0.0
 31
0.0
  0
LINE
  5
79FE
330
819C
100
AcDbEntity
  8
0
  6
ByBlock
 62
     0
100
AcDbLine
 10
0.0
 20
0.0
 30
0.0
 11
-1.0
 21
-0.1666666666666666
 31
0.0
  0
LINE
  5
79FF
330
819C
100
AcDbEntity
  8
0
  6
ByBlock
 62
     0
100
AcDbLine
 10
0.0
 20
0.0
 30
0.0
 11
-1.0
 21
0.0
 31
0.0
  0
ENDBLK
  5
7A01
330
819C
100
AcDbEntity
  8
0
100
AcDbBlockEnd
  0
BLOCK
  5
819F
330
819E
100
AcDbEntity
  8
0
100
AcDbBlockBegin
  2
YA_N
 70
     0
 10
0.0
 20
0.0
 30
0.0
  3
YA_N
  1

  0
ENDBLK
  5
7A0C
330
819E
100
AcDbEntity
  8
0
100
AcDbBlockEnd
  0
BLOCK
  5
81A1
330
81A0
100
AcDbEntity
  8
0
100
AcDbBlockBegin
  2
*D4
 70
     1
 10
0.0
 20
0.0
 30
0.0
  3
*D4
  1

  0
LINE
  5
7DEF
330
81A0
100
AcDbEntity
  8
0
  6
ByBlock
100
AcDbLine
 10
1609.114682945264
 20
2409.887615409481
 30
0.0
 11
1460.769339403201
 21
2409.887615409481
 31
0.0
  0
LINE
  5
7DF0
330
81A0
100
AcDbEntity
  8
0
  6
ByBlock
100
AcDbLine
 10
1609.114682945264
 20
1584.887615409481
 30
0.0
 11
1460.769339403201
 21
1584.887615409481
 31
0.0
  0
LINE
  5
7DF1
330
81A0
100
AcDbEntity
  8
0
  6
ByBlock
100
AcDbLine
 10
1485.769339403201
 20
2359.887615409481
 30
0.0
 11
1485.769339403201
 21
1634.887615409481
 31
0.0
  0
INSERT
  5
7DF2
330
81A0
100
AcDbEntity
  8
0
  6
ByBlock
100
AcDbBlockReference
  2
_OPEN
 10
1485.769339403201
 20
2409.887615409481
 30
0.0
 41
50.0
 42
50.0
 43
50.0
 50
90.0
  0
INSERT
  5
7DF3
330
81A0
100
AcDbEntity
  8
0
  6
ByBlock
100
AcDbBlockReference
  2
_OPEN
 10
1485.769339403201
 20
1584.887615409481
 30
0.0
 41
50.0
 42
50.0
 43
50.0
 50
270.0
  0
TEXT
  5
7DF4
330
81A0
100
AcDbEntity
  8
3
100
AcDbText
 10
1473.269339403201
 20
1900.959043980909
 30
0.0
 40
75.0
  1
825
 50
90.0
100
AcDbText
  0
POINT
  5
7DF5
330
81A0
100
AcDbEntity
  8
DEFPOINTS
  6
ByBlock
 62
     0
100
AcDbPoint
 10
1634.114682945265
 20
2409.887615409481
 30
0.0
  0
POINT
  5
7DF6
330
81A0
100
AcDbEntity
  8
DEFPOINTS
  6
ByBlock
 62
     0
100
AcDbPoint
 10
1634.114682945265
 20
1584.887615409481
 30
0.0
  0
POINT
  5
7DF7
330
81A0
100
AcDbEntity
  8
DEFPOINTS
  6
ByBlock
 62
     0
100
AcDbPoint
 10
1485.769339403201
 20
1584.887615409481
 30
0.0
  0
ENDBLK
  5
7DF8
330
81A0
100
AcDbEntity
  8
0
100
AcDbBlockEnd
  0
BLOCK
  5
81A3
330
81A2
100
AcDbEntity
  8
0
100
AcDbBlockBegin
  2
*D5
 70
     1
 10
0.0
 20
0.0
 30
0.0
  3
*D5
  1

  0
LINE
  5
7DFA
330
81A2
100
AcDbEntity
  8
0
  6
ByBlock
100
AcDbLine
 10
1609.114682945264
 20
2409.887615409481
 30
0.0
 11
1308.485936829398
 21
2409.887615409481
 31
0.0
  0
LINE
  5
7DFB
330
81A2
100
AcDbEntity
  8
0
  6
ByBlock
100
AcDbLine
 10
1487.642891094874
 20
1561.887615409481
 30
0.0
 11
1308.485936829398
 21
1561.887615409481
 31
0.0
  0
LINE
  5
7DFC
330
81A2
100
AcDbEntity
  8
0
  6
ByBlock
100
AcDbLine
 10
1333.485936829398
 20
2359.887615409481
 30
0.0
 11
1333.485936829398
 21
1611.887615409481
 31
0.0
  0
INSERT
  5
7DFD
330
81A2
100
AcDbEntity
  8
0
  6
ByBlock
100
AcDbBlockReference
  2
_OPEN
 10
1333.485936829398
 20
2409.887615409481
 30
0.0
 41
50.0
 42
50.0
 43
50.0
 50
90.0
  0
INSERT
  5
7DFE
330
81A2
100
AcDbEntity
  8
0
  6
ByBlock
100
AcDbBlockReference
  2
_OPEN
 10
1333.485936829398
 20
1561.887615409481
 30
0.0
 41
50.0
 42
50.0
 43
50.0
 50
270.0
  0
TEXT
  5
7DFF
330
81A2
100
AcDbEntity
  8
3
100
AcDbText
 10
1320.985936829398
 20
1889.459043980909
 30
0.0
 40
75.0
  1
848
 50
90.0
100
AcDbText
  0
POINT
  5
7E00
330
81A2
100
AcDbEntity
  8
DEFPOINTS
  6
ByBlock
 62
     0
100
AcDbPoint
 10
1634.114682945265
 20
2409.887615409481
 30
0.0
  0
POINT
  5
7E01
330
81A2
100
AcDbEntity
  8
DEFPOINTS
  6
ByBlock
 62
     0
100
AcDbPoint
 10
1512.642891094874
 20
1561.887615409481
 30
0.0
  0
POINT
  5
7E02
330
81A2
100
AcDbEntity
  8
DEFPOINTS
  6
ByBlock
 62
     0
100
AcDbPoint
 10
1333.485936829398
 20
1561.887615409481
 30
0.0
  0
ENDBLK
  5
7E03
330
81A2
100
AcDbEntity
  8
0
100
AcDbBlockEnd
  0
BLOCK
  5
81A5
330
81A4
100
AcDbEntity
  8
0
100
AcDbBlockBegin
  2
*D6
 70
     1
 10
0.0
 20
0.0
 30
0.0
  3
*D6
  1

  0
LINE
  5
7E05
330
81A4
100
AcDbEntity
  8
0
  6
ByBlock
100
AcDbLine
 10
1487.642891094874
 20
1561.887615409481
 30
0.0
 11
1307.845025767335
 21
1561.887615409481
 31
0.0
  0
LINE
  5
7E06
330
81A4
100
AcDbEntity
  8
0
  6
ByBlock
100
AcDbLine
 10
1654.114682945265
 20
971.8876154094807
 30
0.0
 11
1307.845025767335
 21
971.8876154094807
 31
0.0
  0
LINE
  5
7E07
330
81A4
100
AcDbEntity
  8
0
  6
ByBlock
100
AcDbLine
 10
1332.845025767335
 20
1511.887615409481
 30
0.0
 11
1332.845025767335
 21
1021.88761540948
 31
0.0
  0
INSERT
  5
7E08
330
81A4
100
AcDbEntity
  8
0
  6
ByBlock
100
AcDbBlockReference
  2
_OPEN
 10
1332.845025767335
 20
1561.887615409481
 30
0.0
 41
50.0
 42
50.0
 43
50.0
 50
90.0
  0
INSERT
  5
7E09
330
81A4
100
AcDbEntity
  8
0
  6
ByBlock
100
AcDbBlockReference
  2
_OPEN
 10
1332.845025767335
 20
971.8876154094807
 30
0.0
 41
50.0
 42
50.0
 43
50.0
 50
270.0
  0
TEXT
  5
7E0A
330
81A4
100
AcDbEntity
  8
3
100
AcDbText
 10
1320.345025767335
 20
1170.459043980909
 30
0.0
 40
75.0
  1
590
 50
90.0
100
AcDbText
  0
POINT
  5
7E0B
330
81A4
100
AcDbEntity
  8
DEFPOINTS
  6
ByBlock
 62
     0
100
AcDbPoint
 10
1512.642891094874
 20
1561.887615409481
 30
0.0
  0
POINT
  5
7E0C
330
81A4
100
AcDbEntity
  8
DEFPOINTS
  6
ByBlock
 62
     0
100
AcDbPoint
 10
1679.114682945265
 20
971.8876154094807
 30
0.0
  0
POINT
  5
7E0D
330
81A4
100
AcDbEntity
  8
DEFPOINTS
  6
ByBlock
 62
     0
100
AcDbPoint
 10
1332.845025767335
 20
971.8876154094807
 30
0.0
  0
ENDBLK
  5
7E0E
330
81A4
100
AcDbEntity
  8
0
100
AcDbBlockEnd
  0
BLOCK
  5
81A7
330
81A6
100
AcDbEntity
  8
0
100
AcDbBlockBegin
  2
*D7
 70
     1
 10
0.0
 20
0.0
 30
0.0
  3
*D7
  1

  0
LINE
  5
7E26
330
81A6
100
AcDbEntity
  8
0
  6
ByBlock
100
AcDbLine
 10
5441.207505112644
 20
1986.88761540948
 30
0.0
 11
5740.43091600962
 21
1986.88761540948
 31
0.0
  0
LINE
  5
7E27
330
81A6
100
AcDbEntity
  8
0
  6
ByBlock
100
AcDbLine
 10
5441.207505112644
 20
1136.887615409481
 30
0.0
 11
5740.43091600962
 21
1136.887615409481
 31
0.0
  0
LINE
  5
7E28
330
81A6
100
AcDbEntity
  8
0
  6
ByBlock
100
AcDbLine
 10
5715.43091600962
 20
1936.88761540948
 30
0.0
 11
5715.43091600962
 21
1186.887615409481
 31
0.0
  0
INSERT
  5
7E29
330
81A6
100
AcDbEntity
  8
0
  6
ByBlock
100
AcDbBlockReference
  2
_OPEN
 10
5715.43091600962
 20
1986.88761540948
 30
0.0
 41
50.0
 42
50.0
 43
50.0
 50
90.0
  0
INSERT
  5
7E2A
330
81A6
100
AcDbEntity
  8
0
  6
ByBlock
100
AcDbBlockReference
  2
_OPEN
 10
5715.43091600962
 20
1136.887615409481
 30
0.0
 41
50.0
 42
50.0
 43
50.0
 50
270.0
  0
TEXT
  5
7E2B
330
81A6
100
AcDbEntity
  8
3
100
AcDbText
 10
5702.93091600962
 20
1427.959043980909
 30
0.0
 40
75.0
  1
\U+03C6850
 50
90.0
100
AcDbText
  0
POINT
  5
7E2C
330
81A6
100
AcDbEntity
  8
DEFPOINTS
  6
ByBlock
 62
     0
100
AcDbPoint
 10
5416.207505112645
 20
1986.88761540948
 30
0.0
  0
POINT
  5
7E2D
330
81A6
100
AcDbEntity
  8
DEFPOINTS
  6
ByBlock
 62
     0
100
AcDbPoint
 10
5416.207505112645
 20
1136.887615409481
 30
0.0
  0
POINT
  5
7E2E
330
81A6
100
AcDbEntity
  8
DEFPOINTS
  6
ByBlock
 62
     0
100
AcDbPoint
 10
5715.43091600962
 20
1136.887615409481
 30
0.0
  0
ENDBLK
  5
7E2F
330
81A6
100
AcDbEntity
  8
0
100
AcDbBlockEnd
  0
BLOCK
  5
81A9
330
81A8
100
AcDbEntity
  8
0
100
AcDbBlockBegin
  2
*D8
 70
     1
 10
0.0
 20
0.0
 30
0.0
  3
*D8
  1

  0
LINE
  5
7E3C
330
81A8
100
AcDbEntity
  8
0
  6
ByBlock
100
AcDbLine
 10
2679.114682945265
 20
4579.380572240498
 30
0.0
 11
2679.114682945265
 21
4730.503855791452
 31
0.0
  0
LINE
  5
7E3D
330
81A8
100
AcDbEntity
  8
0
  6
ByBlock
100
AcDbLine
 10
1679.114682945265
 20
4579.380572240498
 30
0.0
 11
1679.114682945265
 21
4730.503855791452
 31
0.0
  0
LINE
  5
7E3E
330
81A8
100
AcDbEntity
  8
0
  6
ByBlock
100
AcDbLine
 10
2629.114682945266
 20
4705.503855791452
 30
0.0
 11
1729.114682945265
 21
4705.503855791452
 31
0.0
  0
INSERT
  5
7E3F
330
81A8
100
AcDbEntity
  8
0
  6
ByBlock
100
AcDbBlockReference
  2
_OPEN
 10
2679.114682945265
 20
4705.503855791452
 30
0.0
 41
50.0
 42
50.0
 43
50.0
  0
INSERT
  5
7E40
330
81A8
100
AcDbEntity
  8
0
  6
ByBlock
100
AcDbBlockReference
  2
_OPEN
 10
1679.114682945265
 20
4705.503855791452
 30
0.0
 41
50.0
 42
50.0
 43
50.0
 50
180.0
  0
TEXT
  5
7E41
330
81A8
100
AcDbEntity
  8
3
100
AcDbText
 10
2054.114682945265
 20
4718.003855791452
 30
0.0
 40
75.0
  1
1000
100
AcDbText
  0
POINT
  5
7E42
330
81A8
100
AcDbEntity
  8
DEFPOINTS
  6
ByBlock
 62
     0
100
AcDbPoint
 10
2679.114682945265
 20
4554.380572240497
 30
0.0
  0
POINT
  5
7E43
330
81A8
100
AcDbEntity
  8
DEFPOINTS
  6
ByBlock
 62
     0
100
AcDbPoint
 10
1679.114682945265
 20
4554.380572240497
 30
0.0
  0
POINT
  5
7E44
330
81A8
100
AcDbEntity
  8
DEFPOINTS
  6
ByBlock
 62
     0
100
AcDbPoint
 10
1679.114682945265
 20
4705.503855791452
 30
0.0
  0
ENDBLK
  5
7E45
330
81A8
100
AcDbEntity
  8
0
100
AcDbBlockEnd
  0
BLOCK
  5
81AB
330
81AA
100
AcDbEntity
  8
0
100
AcDbBlockBegin
  2
*D9
 70
     1
 10
0.0
 20
0.0
 30
0.0
  3
*D9
  1

  0
LINE
  5
7E47
330
81AA
100
AcDbEntity
  8
0
  6
ByBlock
100
AcDbLine
 10
1654.114682945265
 20
4554.380572240497
 30
0.0
 11
1436.177954795375
 21
4554.380572240497
 31
0.0
  0
LINE
  5
7E48
330
81AA
100
AcDbEntity
  8
0
  6
ByBlock
100
AcDbLine
 10
1654.114682945265
 20
3299.3805722405
 30
0.0
 11
1436.177954795375
 21
3299.3805722405
 31
0.0
  0
LINE
  5
7E49
330
81AA
100
AcDbEntity
  8
0
  6
ByBlock
100
AcDbLine
 10
1461.177954795374
 20
4504.380572240497
 30
0.0
 11
1461.177954795374
 21
3349.380572240499
 31
0.0
  0
INSERT
  5
7E4A
330
81AA
100
AcDbEntity
  8
0
  6
ByBlock
100
AcDbBlockReference
  2
_OPEN
 10
1461.177954795374
 20
4554.380572240497
 30
0.0
 41
50.0
 42
50.0
 43
50.0
 50
90.0
  0
INSERT
  5
7E4B
330
81AA
100
AcDbEntity
  8
0
  6
ByBlock
100
AcDbBlockReference
  2
_OPEN
 10
1461.177954795374
 20
3299.3805722405
 30
0.0
 41
50.0
 42
50.0
 43
50.0
 50
270.0
  0
TEXT
  5
7E4C
330
81AA
100
AcDbEntity
  8
3
100
AcDbText
 10
1448.677954795375
 20
3801.8805722405
 30
0.0
 40
75.0
  1
1255
 50
90.0
100
AcDbText
  0
POINT
  5
7E4D
330
81AA
100
AcDbEntity
  8
DEFPOINTS
  6
ByBlock
 62
     0
100
AcDbPoint
 10
1679.114682945265
 20
4554.380572240497
 30
0.0
  0
POINT
  5
7E4E
330
81AA
100
AcDbEntity
  8
DEFPOINTS
  6
ByBlock
 62
     0
100
AcDbPoint
 10
1679.114682945265
 20
3299.3805722405
 30
0.0
  0
POINT
  5
7E4F
330
81AA
100
AcDbEntity
  8
DEFPOINTS
  6
ByBlock
 62
     0
100
AcDbPoint
 10
1461.177954795374
 20
3299.3805722405
 30
0.0
  0
ENDBLK
  5
7E50
330
81AA
100
AcDbEntity
  8
0
100
AcDbBlockEnd
  0
BLOCK
  5
81AD
330
81AC
100
AcDbEntity
  8
0
100
AcDbBlockBegin
  2
*D10
 70
     1
 10
0.0
 20
0.0
 30
0.0
  3
*D10
  1

  0
LINE
  5
7E52
330
81AC
100
AcDbEntity
  8
0
  6
ByBlock
100
AcDbLine
 10
3454.114682945265
 20
4049.380572240499
 30
0.0
 11
3606.267512068578
 21
4049.380572240499
 31
0.0
  0
LINE
  5
7E53
330
81AC
100
AcDbEntity
  8
0
  6
ByBlock
100
AcDbLine
 10
3454.114682945265
 20
3299.3805722405
 30
0.0
 11
3606.267512068578
 21
3299.3805722405
 31
0.0
  0
LINE
  5
7E54
330
81AC
100
AcDbEntity
  8
0
  6
ByBlock
100
AcDbLine
 10
3581.267512068578
 20
3999.380572240499
 30
0.0
 11
3581.267512068578
 21
3349.3805722405
 31
0.0
  0
INSERT
  5
7E55
330
81AC
100
AcDbEntity
  8
0
  6
ByBlock
100
AcDbBlockReference
  2
_OPEN
 10
3581.267512068578
 20
4049.380572240499
 30
0.0
 41
50.0
 42
50.0
 43
50.0
 50
90.0
  0
INSERT
  5
7E56
330
81AC
100
AcDbEntity
  8
0
  6
ByBlock
100
AcDbBlockReference
  2
_OPEN
 10
3581.267512068578
 20
3299.3805722405
 30
0.0
 41
50.0
 42
50.0
 43
50.0
 50
270.0
  0
TEXT
  5
7E57
330
81AC
100
AcDbEntity
  8
3
100
AcDbText
 10
3568.767512068578
 20
3577.952000811928
 30
0.0
 40
75.0
  1
750
 50
90.0
100
AcDbText
  0
POINT
  5
7E58
330
81AC
100
AcDbEntity
  8
DEFPOINTS
  6
ByBlock
 62
     0
100
AcDbPoint
 10
3429.114682945265
 20
4049.380572240499
 30
0.0
  0
POINT
  5
7E59
330
81AC
100
AcDbEntity
  8
DEFPOINTS
  6
ByBlock
 62
     0
100
AcDbPoint
 10
3429.114682945265
 20
3299.3805722405
 30
0.0
  0
POINT
  5
7E5A
330
81AC
100
AcDbEntity
  8
DEFPOINTS
  6
ByBlock
 62
     0
100
AcDbPoint
 10
3581.267512068578
 20
3299.3805722405
 30
0.0
  0
ENDBLK
  5
7E5B
330
81AC
100
AcDbEntity
  8
0
100
AcDbBlockEnd
  0
BLOCK
  5
81AF
330
81AE
100
AcDbEntity
  8
0
100
AcDbBlockBegin
  2
*D11
 70
     1
 10
0.0
 20
0.0
 30
0.0
  3
*D11
  1

  0
LINE
  5
7E5D
330
81AE
100
AcDbEntity
  8
0
  6
ByBlock
100
AcDbLine
 10
3429.114682945265
 20
3274.3805722405
 30
0.0
 11
3429.114682945265
 21
3013.7147873961
 31
0.0
  0
LINE
  5
7E5E
330
81AE
100
AcDbEntity
  8
0
  6
ByBlock
100
AcDbLine
 10
1679.114682945265
 20
3274.380572240499
 30
0.0
 11
1679.114682945265
 21
3013.7147873961
 31
0.0
  0
LINE
  5
7E5F
330
81AE
100
AcDbEntity
  8
0
  6
ByBlock
100
AcDbLine
 10
3379.114682945264
 20
3038.7147873961
 30
0.0
 11
1729.114682945265
 21
3038.7147873961
 31
0.0
  0
INSERT
  5
7E60
330
81AE
100
AcDbEntity
  8
0
  6
ByBlock
100
AcDbBlockReference
  2
_OPEN
 10
3429.114682945265
 20
3038.7147873961
 30
0.0
 41
50.0
 42
50.0
 43
50.0
  0
INSERT
  5
7E61
330
81AE
100
AcDbEntity
  8
0
  6
ByBlock
100
AcDbBlockReference
  2
_OPEN
 10
1679.114682945265
 20
3038.7147873961
 30
0.0
 41
50.0
 42
50.0
 43
50.0
 50
180.0
  0
TEXT
  5
7E62
330
81AE
100
AcDbEntity
  8
3
100
AcDbText
 10
2429.114682945265
 20
3051.2147873961
 30
0.0
 40
75.0
  1
1750
100
AcDbText
  0
POINT
  5
7E63
330
81AE
100
AcDbEntity
  8
DEFPOINTS
  6
ByBlock
 62
     0
100
AcDbPoint
 10
3429.114682945265
 20
3299.3805722405
 30
0.0
  0
POINT
  5
7E64
330
81AE
100
AcDbEntity
  8
DEFPOINTS
  6
ByBlock
 62
     0
100
AcDbPoint
 10
1679.114682945265
 20
3299.3805722405
 30
0.0
  0
POINT
  5
7E65
330
81AE
100
AcDbEntity
  8
DEFPOINTS
  6
ByBlock
 62
     0
100
AcDbPoint
 10
1679.114682945265
 20
3038.7147873961
 30
0.0
  0
ENDBLK
  5
7E66
330
81AE
100
AcDbEntity
  8
0
100
AcDbBlockEnd
  0
BLOCK
  5
81B1
330
81B0
100
AcDbEntity
  8
0
100
AcDbBlockBegin
  2
*D12
 70
     1
 10
0.0
 20
0.0
 30
0.0
  3
*D12
  1

  0
LINE
  5
7E68
330
81B0
100
AcDbEntity
  8
0
  6
ByBlock
100
AcDbLine
 10
4413.907505112644
 20
2434.887615409481
 30
0.0
 11
4413.907505112644
 21
2587.190522429095
 31
0.0
  0
LINE
  5
7E69
330
81B0
100
AcDbEntity
  8
0
  6
ByBlock
100
AcDbLine
 10
5413.907505112645
 20
2434.887615409481
 30
0.0
 11
5413.907505112645
 21
2587.190522429095
 31
0.0
  0
LINE
  5
7E6A
330
81B0
100
AcDbEntity
  8
0
  6
ByBlock
100
AcDbLine
 10
4463.907505112644
 20
2562.190522429094
 30
0.0
 11
5363.907505112646
 21
2562.190522429094
 31
0.0
  0
INSERT
  5
7E6B
330
81B0
100
AcDbEntity
  8
0
  6
ByBlock
100
AcDbBlockReference
  2
_OPEN
 10
4413.907505112644
 20
2562.190522429094
 30
0.0
 41
50.0
 42
50.0
 43
50.0
 50
180.0
  0
INSERT
  5
7E6C
330
81B0
100
AcDbEntity
  8
0
  6
ByBlock
100
AcDbBlockReference
  2
_OPEN
 10
5413.907505112645
 20
2562.190522429094
 30
0.0
 41
50.0
 42
50.0
 43
50.0
  0
TEXT
  5
7E6D
330
81B0
100
AcDbEntity
  8
3
100
AcDbText
 10
4788.907505112644
 20
2574.690522429095
 30
0.0
 40
75.0
  1
1000
100
AcDbText
  0
POINT
  5
7E6E
330
81B0
100
AcDbEntity
  8
DEFPOINTS
  6
ByBlock
 62
     0
100
AcDbPoint
 10
4413.907505112644
 20
2409.887615409481
 30
0.0
  0
POINT
  5
7E6F
330
81B0
100
AcDbEntity
  8
DEFPOINTS
  6
ByBlock
 62
     0
100
AcDbPoint
 10
5413.907505112645
 20
2409.887615409481
 30
0.0
  0
POINT
  5
7E70
330
81B0
100
AcDbEntity
  8
DEFPOINTS
  6
ByBlock
 62
     0
100
AcDbPoint
 10
5413.907505112645
 20
2562.190522429094
 30
0.0
  0
ENDBLK
  5
7E71
330
81B0
100
AcDbEntity
  8
0
100
AcDbBlockEnd
  0
BLOCK
  5
81B3
330
81B2
100
AcDbEntity
  8
0
100
AcDbBlockBegin
  2
*D13
 70
     1
 10
0.0
 20
0.0
 30
0.0
  3
*D13
  1

  0
LINE
  5
7E73
330
81B2
100
AcDbEntity
  8
0
  6
ByBlock
100
AcDbLine
 10
2862.774766698257
 20
1586.887615409481
 30
0.0
 11
2862.774766698257
 21
2589.20679631228
 31
0.0
  0
LINE
  5
7E74
330
81B2
100
AcDbEntity
  8
0
  6
ByBlock
100
AcDbLine
 10
2179.114682945265
 20
2445.570948036724
 30
0.0
 11
2179.114682945265
 21
2589.20679631228
 31
0.0
  0
LINE
  5
7E75
330
81B2
100
AcDbEntity
  8
0
  6
ByBlock
100
AcDbLine
 10
2812.774766698256
 20
2564.20679631228
 30
0.0
 11
2229.114682945265
 21
2564.20679631228
 31
0.0
  0
INSERT
  5
7E76
330
81B2
100
AcDbEntity
  8
0
  6
ByBlock
100
AcDbBlockReference
  2
_OPEN
 10
2862.774766698257
 20
2564.20679631228
 30
0.0
 41
50.0
 42
50.0
 43
50.0
  0
INSERT
  5
7E77
330
81B2
100
AcDbEntity
  8
0
  6
ByBlock
100
AcDbBlockReference
  2
_OPEN
 10
2179.114682945265
 20
2564.20679631228
 30
0.0
 41
50.0
 42
50.0
 43
50.0
 50
180.0
  0
TEXT
  5
7E78
330
81B2
100
AcDbEntity
  8
3
100
AcDbText
 10
2426.301867678903
 20
2576.706796312281
 30
0.0
 40
75.0
  1
686
100
AcDbText
  0
POINT
  5
7E79
330
81B2
100
AcDbEntity
  8
DEFPOINTS
  6
ByBlock
 62
     0
100
AcDbPoint
 10
2862.774766698257
 20
1561.887615409481
 30
0.0
  0
POINT
  5
7E7A
330
81B2
100
AcDbEntity
  8
DEFPOINTS
  6
ByBlock
 62
     0
100
AcDbPoint
 10
2179.114682945265
 20
2420.570948036724
 30
0.0
  0
POINT
  5
7E7B
330
81B2
100
AcDbEntity
  8
DEFPOINTS
  6
ByBlock
 62
     0
100
AcDbPoint
 10
2179.114682945265
 20
2564.20679631228
 30
0.0
  0
ENDBLK
  5
7E7C
330
81B2
100
AcDbEntity
  8
0
100
AcDbBlockEnd
  0
BLOCK
  5
81B5
330
81B4
100
AcDbEntity
  8
0
100
AcDbBlockBegin
  2
*D14
 70
     1
 10
0.0
 20
0.0
 30
0.0
  3
*D14
  1

  0
LINE
  5
7E7E
330
81B4
100
AcDbEntity
  8
0
  6
ByBlock
100
AcDbLine
 10
2179.114682945265
 20
2445.570948036724
 30
0.0
 11
2179.114682945265
 21
2589.20679631228
 31
0.0
  0
LINE
  5
7E7F
330
81B4
100
AcDbEntity
  8
0
  6
ByBlock
100
AcDbLine
 10
1634.114682945265
 20
2477.387615409481
 30
0.0
 11
1634.114682945265
 21
2589.20679631228
 31
0.0
  0
LINE
  5
7E80
330
81B4
100
AcDbEntity
  8
0
  6
ByBlock
100
AcDbLine
 10
2129.114682945265
 20
2564.20679631228
 30
0.0
 11
1684.114682945265
 21
2564.20679631228
 31
0.0
  0
INSERT
  5
7E81
330
81B4
100
AcDbEntity
  8
0
  6
ByBlock
100
AcDbBlockReference
  2
_OPEN
 10
2179.114682945265
 20
2564.20679631228
 30
0.0
 41
50.0
 42
50.0
 43
50.0
  0
INSERT
  5
7E82
330
81B4
100
AcDbEntity
  8
0
  6
ByBlock
100
AcDbBlockReference
  2
_OPEN
 10
1634.114682945265
 20
2564.20679631228
 30
0.0
 41
50.0
 42
50.0
 43
50.0
 50
180.0
  0
TEXT
  5
7E83
330
81B4
100
AcDbEntity
  8
3
100
AcDbText
 10
1810.186111516693
 20
2576.706796312281
 30
0.0
 40
75.0
  1
545
100
AcDbText
  0
POINT
  5
7E84
330
81B4
100
AcDbEntity
  8
DEFPOINTS
  6
ByBlock
 62
     0
100
AcDbPoint
 10
2179.114682945265
 20
2420.570948036724
 30
0.0
  0
POINT
  5
7E85
330
81B4
100
AcDbEntity
  8
DEFPOINTS
  6
ByBlock
 62
     0
100
AcDbPoint
 10
1634.114682945265
 20
2452.387615409481
 30
0.0
  0
POINT
  5
7E86
330
81B4
100
AcDbEntity
  8
DEFPOINTS
  6
ByBlock
 62
     0
100
AcDbPoint
 10
1634.114682945265
 20
2564.20679631228
 30
0.0
  0
ENDBLK
  5
7E87
330
81B4
100
AcDbEntity
  8
0
100
AcDbBlockEnd
  0
BLOCK
  5
81B7
330
81B6
100
AcDbEntity
  8
0
100
AcDbBlockBegin
  2
*D15
 70
     1
 10
0.0
 20
0.0
 30
0.0
  3
*D15
  1

  0
LINE
  5
7E89
330
81B6
100
AcDbEntity
  8
0
  6
ByBlock
100
AcDbLine
 10
3429.114682945265
 20
1096.887615409481
 30
0.0
 11
3429.114682945265
 21
2736.143709729451
 31
0.0
  0
LINE
  5
7E8A
330
81B6
100
AcDbEntity
  8
0
  6
ByBlock
100
AcDbLine
 10
1634.114682945265
 20
2477.387615409481
 30
0.0
 11
1634.114682945265
 21
2736.143709729451
 31
0.0
  0
LINE
  5
7E8B
330
81B6
100
AcDbEntity
  8
0
  6
ByBlock
100
AcDbLine
 10
3379.114682945265
 20
2711.143709729451
 30
0.0
 11
1684.114682945265
 21
2711.143709729451
 31
0.0
  0
INSERT
  5
7E8C
330
81B6
100
AcDbEntity
  8
0
  6
ByBlock
100
AcDbBlockReference
  2
_OPEN
 10
3429.114682945265
 20
2711.143709729451
 30
0.0
 41
50.0
 42
50.0
 43
50.0
  0
INSERT
  5
7E8D
330
81B6
100
AcDbEntity
  8
0
  6
ByBlock
100
AcDbBlockReference
  2
_OPEN
 10
1634.114682945265
 20
2711.143709729451
 30
0.0
 41
50.0
 42
50.0
 43
50.0
 50
180.0
  0
TEXT
  5
7E8E
330
81B6
100
AcDbEntity
  8
3
100
AcDbText
 10
2406.614682945265
 20
2723.643709729451
 30
0.0
 40
75.0
  1
1795
100
AcDbText
  0
POINT
  5
7E8F
330
81B6
100
AcDbEntity
  8
DEFPOINTS
  6
ByBlock
 62
     0
100
AcDbPoint
 10
3429.114682945265
 20
1071.88761540948
 30
0.0
  0
POINT
  5
7E90
330
81B6
100
AcDbEntity
  8
DEFPOINTS
  6
ByBlock
 62
     0
100
AcDbPoint
 10
1634.114682945265
 20
2452.387615409481
 30
0.0
  0
POINT
  5
7E91
330
81B6
100
AcDbEntity
  8
DEFPOINTS
  6
ByBlock
 62
     0
100
AcDbPoint
 10
1634.114682945265
 20
2711.143709729451
 30
0.0
  0
ENDBLK
  5
7E92
330
81B6
100
AcDbEntity
  8
0
100
AcDbBlockEnd
  0
BLOCK
  5
81B9
330
81B8
100
AcDbEntity
  8
0
100
AcDbBlockBegin
  2
*D16
 70
     1
 10
0.0
 20
0.0
 30
0.0
  3
*D16
  1

  0
LINE
  5
8104
330
81B8
100
AcDbEntity
  8
3
100
AcDbLine
 10
2795.462242941992
 20
5024.291137356862
 30
0.0
 11
2795.462242941992
 21
5680.414420907816
 31
0.0
  0
LINE
  5
8105
330
81B8
100
AcDbEntity
  8
3
100
AcDbLine
 10
2095.462242941993
 20
5655.414420907815
 30
0.0
 11
2745.462242941992
 21
5655.414420907815
 31
0.0
  0
INSERT
  5
8106
330
81B8
100
AcDbEntity
  8
3
100
AcDbBlockReference
  2
_OPEN
 10
2045.462242941993
 20
5655.414420907815
 30
0.0
 41
50.0
 42
50.0
 43
50.0
 50
180.0
  0
INSERT
  5
8107
330
81B8
100
AcDbEntity
  8
3
100
AcDbBlockReference
  2
_OPEN
 10
2795.462242941992
 20
5655.414420907815
 30
0.0
 41
50.0
 42
50.0
 43
50.0
  0
TEXT
  5
8117
330
81B8
100
AcDbEntity
  8
3
100
AcDbText
 10
2270.46
 20
5572.659999999999
 30
0.0
 40
75.0
  1
750
100
AcDbText
  0
POINT
  5
8109
330
81B8
100
AcDbEntity
  8
DEFPOINTS
 62
     0
100
AcDbPoint
 10
2045.462242941993
 20
5504.291137356862
 30
0.0
  0
POINT
  5
810A
330
81B8
100
AcDbEntity
  8
DEFPOINTS
 62
     0
100
AcDbPoint
 10
2795.462242941992
 20
4999.291137356863
 30
0.0
  0
POINT
  5
810B
330
81B8
100
AcDbEntity
  8
DEFPOINTS
 62
     0
100
AcDbPoint
 10
2795.462242941992
 20
5655.414420907815
 30
0.0
  0
ENDBLK
  5
7ED7
330
81B8
100
AcDbEntity
  8
0
100
AcDbBlockEnd
  0
BLOCK
  5
81BB
330
81BA
100
AcDbEntity
  8
0
100
AcDbBlockBegin
  2
*D17
 70
     1
 10
0.0
 20
0.0
 30
0.0
  3
*D17
  1

  0
LINE
  5
7FC0
330
81BA
100
AcDbEntity
  8
0
  6
ByBlock
100
AcDbLine
 10
4880.255065109373
 20
2497.298180525843
 30
0.0
 11
4880.255065109373
 21
3673.781527104818
 31
0.0
  0
LINE
  5
7FC1
330
81BA
100
AcDbEntity
  8
0
  6
ByBlock
100
AcDbLine
 10
4280.255065109371
 20
3607.406554294833
 30
0.0
 11
4280.255065109371
 21
3673.781527104818
 31
0.0
  0
LINE
  5
7FC2
330
81BA
100
AcDbEntity
  8
0
  6
ByBlock
100
AcDbLine
 10
4830.255065109373
 20
3648.781527104818
 30
0.0
 11
4330.255065109372
 21
3648.781527104818
 31
0.0
  0
INSERT
  5
7FC3
330
81BA
100
AcDbEntity
  8
0
  6
ByBlock
100
AcDbBlockReference
  2
_OPEN
 10
4880.255065109373
 20
3648.781527104818
 30
0.0
 41
50.0
 42
50.0
 43
50.0
  0
INSERT
  5
7FC4
330
81BA
100
AcDbEntity
  8
0
  6
ByBlock
100
AcDbBlockReference
  2
_OPEN
 10
4280.255065109371
 20
3648.781527104818
 30
0.0
 41
50.0
 42
50.0
 43
50.0
 50
180.0
  0
TEXT
  5
7FC5
330
81BA
100
AcDbEntity
  8
3
100
AcDbText
 10
4442.755065109372
 20
3693.424384247676
 30
0.0
 40
75.0
  1
(610)
100
AcDbText
  0
POINT
  5
7FC6
330
81BA
100
AcDbEntity
  8
DEFPOINTS
  6
ByBlock
 62
     0
100
AcDbPoint
 10
4880.255065109373
 20
2472.298180525843
 30
0.0
  0
POINT
  5
7FC7
330
81BA
100
AcDbEntity
  8
DEFPOINTS
  6
ByBlock
 62
     0
100
AcDbPoint
 10
4280.255065109371
 20
3582.406554294835
 30
0.0
  0
POINT
  5
7FC8
330
81BA
100
AcDbEntity
  8
DEFPOINTS
  6
ByBlock
 62
     0
100
AcDbPoint
 10
4280.255065109371
 20
3648.781527104818
 30
0.0
  0
ENDBLK
  5
7FC9
330
81BA
100
AcDbEntity
  8
0
100
AcDbBlockEnd
  0
BLOCK
  5
81BD
330
81BC
100
AcDbEntity
  8
0
100
AcDbBlockBegin
  2
*D18
 70
     1
 10
0.0
 20
0.0
 30
0.0
  3
*D18
  1

  0
LINE
  5
810C
330
81BC
100
AcDbEntity
  8
3
100
AcDbLine
 10
3470.255065109371
 20
2756.798180525843
 30
0.0
 11
3470.255065109371
 21
3673.781527104818
 31
0.0
  0
LINE
  5
810D
330
81BC
100
AcDbEntity
  8
3
100
AcDbLine
 10
4230.25506510937
 20
3648.781527104818
 30
0.0
 11
3520.255065109371
 21
3648.781527104818
 31
0.0
  0
INSERT
  5
810E
330
81BC
100
AcDbEntity
  8
3
100
AcDbBlockReference
  2
_OPEN
 10
4280.255065109371
 20
3648.781527104818
 30
0.0
 41
50.0
 42
50.0
 43
50.0
  0
INSERT
  5
810F
330
81BC
100
AcDbEntity
  8
3
100
AcDbBlockReference
  2
_OPEN
 10
3470.255065109371
 20
3648.781527104818
 30
0.0
 41
50.0
 42
50.0
 43
50.0
 50
180.0
  0
TEXT
  5
8118
330
81BC
100
AcDbEntity
  8
3
100
AcDbText
 10
3725.26
 20
3628.53
 30
0.0
 40
75.0
  1
MAX
100
AcDbText
  0
TEXT
  5
8119
330
81BC
100
AcDbEntity
  8
3
100
AcDbText
 10
3725.26
 20
3531.030000000001
 30
0.0
 40
75.0
  1
860
100
AcDbText
  0
POINT
  5
8111
330
81BC
100
AcDbEntity
  8
DEFPOINTS
 62
     0
100
AcDbPoint
 10
4280.255065109371
 20
3582.406554294835
 30
0.0
  0
POINT
  5
8112
330
81BC
100
AcDbEntity
  8
DEFPOINTS
 62
     0
100
AcDbPoint
 10
3470.255065109371
 20
2731.798180525843
 30
0.0
  0
POINT
  5
8113
330
81BC
100
AcDbEntity
  8
DEFPOINTS
 62
     0
100
AcDbPoint
 10
3470.255065109371
 20
3648.781527104818
 30
0.0
  0
ENDBLK
  5
7FBE
330
81BC
100
AcDbEntity
  8
0
100
AcDbBlockEnd
  0
BLOCK
  5
81BF
330
81BE
100
AcDbEntity
  8
0
100
AcDbBlockBegin
  2
_DOT
 70
     0
 10
0.0
 20
0.0
 30
0.0
  3
_DOT
  1

  0
LWPOLYLINE
  5
7FA8
330
81BE
100
AcDbEntity
  8
0
  6
ByBlock
 62
     0
100
AcDbPolyline
 90
        2
 70
     1
 43
0.25
 10
-0.125
 20
0.0
 42
1.0
 10
0.125
 20
0.0
 42
1.0
  0
LINE
  5
7FAC
330
81BE
100
AcDbEntity
  8
0
  6
ByBlock
 62
     0
100
AcDbLine
 10
-0.25
 20
0.0
 30
0.0
 11
-1.0
 21
0.0
 31
0.0
  0
ENDBLK
  5
7F71
330
81BE
100
AcDbEntity
  8
0
100
AcDbBlockEnd
  0
BLOCK
  5
81C1
330
81C0
100
AcDbEntity
  8
0
100
AcDbBlockBegin
  2
_NONE
 70
     0
 10
0.0
 20
0.0
 30
0.0
  3
_NONE
  1

  0
CIRCLE
  5
8034
330
81C0
100
AcDbEntity
  8
0
  6
ByBlock
 62
     0
100
AcDbCircle
 10
0.0
 20
0.0
 30
0.0
 40
0.25
  0
ENDBLK
  5
8035
330
81C0
100
AcDbEntity
  8
0
100
AcDbBlockEnd
  0
BLOCK
  5
81C3
330
81C2
100
AcDbEntity
  8
0
100
AcDbBlockBegin
  2
*D21
 70
     1
 10
0.0
 20
0.0
 30
0.0
  3
*D21
  1

  0
LINE
  5
8069
330
81C2
100
AcDbEntity
  8
0
  6
ByBlock
 62
     0
100
AcDbLine
 10
1045.462242941992
 20
1896.798180525843
 30
0.0
 11
1045.462242941992
 21
1719.116765470578
 31
0.0
  0
LINE
  5
806A
330
81C2
100
AcDbEntity
  8
0
  6
ByBlock
 62
     0
100
AcDbLine
 10
1545.462242941992
 20
1896.798180525843
 30
0.0
 11
1545.462242941992
 21
1719.116765470578
 31
0.0
  0
LINE
  5
806B
330
81C2
100
AcDbEntity
  8
0
  6
ByBlock
 62
     0
100
AcDbLine
 10
1095.462242941992
 20
1744.116765470578
 30
0.0
 11
1495.462242941992
 21
1744.116765470578
 31
0.0
  0
INSERT
  5
806C
330
81C2
100
AcDbEntity
  8
0
  6
ByBlock
 62
     0
100
AcDbBlockReference
  2
_OPEN
 10
1045.462242941992
 20
1744.116765470578
 30
0.0
 41
50.0
 42
50.0
 43
50.0
 50
180.0
  0
INSERT
  5
806D
330
81C2
100
AcDbEntity
  8
0
  6
ByBlock
 62
     0
100
AcDbBlockReference
  2
_OPEN
 10
1545.462242941992
 20
1744.116765470578
 30
0.0
 41
50.0
 42
50.0
 43
50.0
  0
TEXT
  5
806E
330
81C2
100
AcDbEntity
  8
3
 62
     0
100
AcDbText
 10
1199.033671513421
 20
1769.116765470578
 30
0.0
 40
75.0
  1
500
100
AcDbText
  0
POINT
  5
806F
330
81C2
100
AcDbEntity
  8
DEFPOINTS
  6
ByBlock
 62
     0
100
AcDbPoint
 10
1045.462242941992
 20
1921.798180525843
 30
0.0
  0
POINT
  5
8070
330
81C2
100
AcDbEntity
  8
DEFPOINTS
  6
ByBlock
 62
     0
100
AcDbPoint
 10
1545.462242941992
 20
1921.798180525843
 30
0.0
  0
POINT
  5
8071
330
81C2
100
AcDbEntity
  8
DEFPOINTS
  6
ByBlock
 62
     0
100
AcDbPoint
 10
1545.462242941992
 20
1744.116765470578
 30
0.0
  0
ENDBLK
  5
8072
330
81C2
100
AcDbEntity
  8
0
100
AcDbBlockEnd
  0
BLOCK
  5
81C5
330
81C4
100
AcDbEntity
  8
0
100
AcDbBlockBegin
  2
*D22
 70
     1
 10
0.0
 20
0.0
 30
0.0
  3
*D22
  1

  0
LINE
  5
8076
330
81C4
100
AcDbEntity
  8
0
  6
ByBlock
 62
     0
100
AcDbLine
 10
1545.462242941992
 20
1896.798180525843
 30
0.0
 11
1545.462242941992
 21
1719.116765470578
 31
0.0
  0
LINE
  5
8077
330
81C4
100
AcDbEntity
  8
0
  6
ByBlock
 62
     0
100
AcDbLine
 10
2795.462242941992
 20
1896.798180525843
 30
0.0
 11
2795.462242941992
 21
1719.116765470578
 31
0.0
  0
LINE
  5
8078
330
81C4
100
AcDbEntity
  8
0
  6
ByBlock
 62
     0
100
AcDbLine
 10
1595.462242941992
 20
1744.116765470578
 30
0.0
 11
2745.462242941992
 21
1744.116765470578
 31
0.0
  0
INSERT
  5
8079
330
81C4
100
AcDbEntity
  8
0
  6
ByBlock
 62
     0
100
AcDbBlockReference
  2
_OPEN
 10
1545.462242941992
 20
1744.116765470578
 30
0.0
 41
50.0
 42
50.0
 43
50.0
 50
180.0
  0
INSERT
  5
807A
330
81C4
100
AcDbEntity
  8
0
  6
ByBlock
 62
     0
100
AcDbBlockReference
  2
_OPEN
 10
2795.462242941992
 20
1744.116765470578
 30
0.0
 41
50.0
 42
50.0
 43
50.0
  0
TEXT
  5
807B
330
81C4
100
AcDbEntity
  8
3
 62
     0
100
AcDbText
 10
2045.462242941992
 20
1769.116765470578
 30
0.0
 40
75.0
  1
1250
100
AcDbText
  0
POINT
  5
807C
330
81C4
100
AcDbEntity
  8
DEFPOINTS
  6
ByBlock
 62
     0
100
AcDbPoint
 10
1545.462242941992
 20
1921.798180525843
 30
0.0
  0
POINT
  5
807D
330
81C4
100
AcDbEntity
  8
DEFPOINTS
  6
ByBlock
 62
     0
100
AcDbPoint
 10
2795.462242941992
 20
1921.798180525843
 30
0.0
  0
POINT
  5
807E
330
81C4
100
AcDbEntity
  8
DEFPOINTS
  6
ByBlock
 62
     0
100
AcDbPoint
 10
2795.462242941992
 20
1744.116765470578
 30
0.0
  0
ENDBLK
  5
807F
330
81C4
100
AcDbEntity
  8
0
100
AcDbBlockEnd
  0
BLOCK
  5
81C7
330
81C6
100
AcDbEntity
  8
0
100
AcDbBlockBegin
  2
*D23
 70
     1
 10
0.0
 20
0.0
 30
0.0
  3
*D23
  1

  0
LINE
  5
8083
330
81C6
100
AcDbEntity
  8
0
  6
ByBlock
 62
     0
100
AcDbLine
 10
3578.255065109371
 20
1896.798180525843
 30
0.0
 11
3578.255065109371
 21
1719.116765470578
 31
0.0
  0
LINE
  5
8084
330
81C6
100
AcDbEntity
  8
0
  6
ByBlock
 62
     0
100
AcDbLine
 10
4280.255065109371
 20
1896.798180525843
 30
0.0
 11
4280.255065109371
 21
1719.116765470578
 31
0.0
  0
LINE
  5
8085
330
81C6
100
AcDbEntity
  8
0
  6
ByBlock
 62
     0
100
AcDbLine
 10
3628.255065109371
 20
1744.116765470578
 30
0.0
 11
4230.255065109371
 21
1744.116765470578
 31
0.0
  0
INSERT
  5
8086
330
81C6
100
AcDbEntity
  8
0
  6
ByBlock
 62
     0
100
AcDbBlockReference
  2
_OPEN
 10
3578.255065109371
 20
1744.116765470578
 30
0.0
 41
50.0
 42
50.0
 43
50.0
 50
180.0
  0
INSERT
  5
8087
330
81C6
100
AcDbEntity
  8
0
  6
ByBlock
 62
     0
100
AcDbBlockReference
  2
_OPEN
 10
4280.255065109371
 20
1744.116765470578
 30
0.0
 41
50.0
 42
50.0
 43
50.0
  0
TEXT
  5
8088
330
81C6
100
AcDbEntity
  8
3
 62
     0
100
AcDbText
 10
3832.8264936808
 20
1769.116765470578
 30
0.0
 40
75.0
  1
702
100
AcDbText
  0
POINT
  5
8089
330
81C6
100
AcDbEntity
  8
DEFPOINTS
  6
ByBlock
 62
     0
100
AcDbPoint
 10
3578.255065109371
 20
1921.798180525843
 30
0.0
  0
POINT
  5
808A
330
81C6
100
AcDbEntity
  8
DEFPOINTS
  6
ByBlock
 62
     0
100
AcDbPoint
 10
4280.255065109371
 20
1921.798180525843
 30
0.0
  0
POINT
  5
808B
330
81C6
100
AcDbEntity
  8
DEFPOINTS
  6
ByBlock
 62
     0
100
AcDbPoint
 10
4280.255065109371
 20
1744.116765470578
 30
0.0
  0
ENDBLK
  5
808C
330
81C6
100
AcDbEntity
  8
0
100
AcDbBlockEnd
  0
BLOCK
  5
81C9
330
81C8
100
AcDbEntity
  8
0
100
AcDbBlockBegin
  2
*D24
 70
     1
 10
0.0
 20
0.0
 30
0.0
  3
*D24
  1

  0
LINE
  5
8090
330
81C8
100
AcDbEntity
  8
0
  6
ByBlock
 62
     0
100
AcDbLine
 10
4280.255065109371
 20
1896.798180525843
 30
0.0
 11
4280.255065109371
 21
1719.116765470578
 31
0.0
  0
LINE
  5
8091
330
81C8
100
AcDbEntity
  8
0
  6
ByBlock
 62
     0
100
AcDbLine
 10
4833.255065109372
 20
1896.798180525843
 30
0.0
 11
4833.255065109372
 21
1719.116765470578
 31
0.0
  0
LINE
  5
8092
330
81C8
100
AcDbEntity
  8
0
  6
ByBlock
 62
     0
100
AcDbLine
 10
4330.255065109372
 20
1744.116765470578
 30
0.0
 11
4783.255065109369
 21
1744.116765470578
 31
0.0
  0
INSERT
  5
8093
330
81C8
100
AcDbEntity
  8
0
  6
ByBlock
 62
     0
100
AcDbBlockReference
  2
_OPEN
 10
4280.255065109371
 20
1744.116765470578
 30
0.0
 41
50.0
 42
50.0
 43
50.0
 50
180.0
  0
INSERT
  5
8094
330
81C8
100
AcDbEntity
  8
0
  6
ByBlock
 62
     0
100
AcDbBlockReference
  2
_OPEN
 10
4833.255065109372
 20
1744.116765470578
 30
0.0
 41
50.0
 42
50.0
 43
50.0
  0
TEXT
  5
8095
330
81C8
100
AcDbEntity
  8
3
 62
     0
100
AcDbText
 10
4460.3264936808
 20
1769.116765470578
 30
0.0
 40
75.0
  1
553
100
AcDbText
  0
POINT
  5
8096
330
81C8
100
AcDbEntity
  8
DEFPOINTS
  6
ByBlock
 62
     0
100
AcDbPoint
 10
4280.255065109371
 20
1921.798180525843
 30
0.0
  0
POINT
  5
8097
330
81C8
100
AcDbEntity
  8
DEFPOINTS
  6
ByBlock
 62
     0
100
AcDbPoint
 10
4833.255065109372
 20
1921.798180525843
 30
0.0
  0
POINT
  5
8098
330
81C8
100
AcDbEntity
  8
DEFPOINTS
  6
ByBlock
 62
     0
100
AcDbPoint
 10
4833.255065109372
 20
1744.116765470578
 30
0.0
  0
ENDBLK
  5
8099
330
81C8
100
AcDbEntity
  8
0
100
AcDbBlockEnd
  0
BLOCK
  5
81CB
330
81CA
100
AcDbEntity
  8
0
100
AcDbBlockBegin
  2
*D25
 70
     1
 10
0.0
 20
0.0
 30
0.0
  3
*D25
  1

  0
LINE
  5
809D
330
81CA
100
AcDbEntity
  8
0
  6
ByBlock
 62
     0
100
AcDbLine
 10
1020.462242941992
 20
1921.798180525843
 30
0.0
 11
521.8750934903073
 21
1921.798180525843
 31
0.0
  0
LINE
  5
809E
330
81CA
100
AcDbEntity
  8
0
  6
ByBlock
 62
     0
100
AcDbLine
 10
950.4622429419928
 20
3359.798180525845
 30
0.0
 11
521.8750934903073
 21
3359.798180525845
 31
0.0
  0
LINE
  5
809F
330
81CA
100
AcDbEntity
  8
0
  6
ByBlock
 62
     0
100
AcDbLine
 10
546.8750934903073
 20
1971.798180525843
 30
0.0
 11
546.8750934903073
 21
3309.798180525844
 31
0.0
  0
INSERT
  5
80A0
330
81CA
100
AcDbEntity
  8
0
  6
ByBlock
 62
     0
100
AcDbBlockReference
  2
_OPEN
 10
546.8750934903073
 20
1921.798180525843
 30
0.0
 41
50.0
 42
50.0
 43
50.0
 50
270.0
  0
INSERT
  5
80A1
330
81CA
100
AcDbEntity
  8
0
  6
ByBlock
 62
     0
100
AcDbBlockReference
  2
_OPEN
 10
546.8750934903073
 20
3359.798180525845
 30
0.0
 41
50.0
 42
50.0
 43
50.0
 50
90.0
  0
TEXT
  5
80A2
330
81CA
100
AcDbEntity
  8
3
 62
     0
100
AcDbText
 10
521.8750934903073
 20
2515.798180525844
 30
0.0
 40
75.0
  1
1438
 50
90.0
100
AcDbText
  0
POINT
  5
80A3
330
81CA
100
AcDbEntity
  8
DEFPOINTS
  6
ByBlock
 62
     0
100
AcDbPoint
 10
1045.462242941992
 20
1921.798180525843
 30
0.0
  0
POINT
  5
80A4
330
81CA
100
AcDbEntity
  8
DEFPOINTS
  6
ByBlock
 62
     0
100
AcDbPoint
 10
975.4622429419928
 20
3359.798180525845
 30
0.0
  0
POINT
  5
80A5
330
81CA
100
AcDbEntity
  8
DEFPOINTS
  6
ByBlock
 62
     0
100
AcDbPoint
 10
546.8750934903073
 20
3359.798180525845
 30
0.0
  0
ENDBLK
  5
80A6
330
81CA
100
AcDbEntity
  8
0
100
AcDbBlockEnd
  0
BLOCK
  5
81CE
330
81CD
100
AcDbEntity
  8
0
100
AcDbBlockBegin
  2
*D26
 70
     1
 10
0.0
 20
0.0
 30
0.0
  3
*D26
  1

  0
LINE
  5
81CF
330
81CD
100
AcDbEntity
  8
0
  6
ByBlock
100
AcDbLine
 10
1208.793097496344
 20
2409.887615409481
 30
0.0
 11
1060.44775395428
 21
2409.887615409481
 31
0.0
  0
LINE
  5
81D0
330
81CD
100
AcDbEntity
  8
0
  6
ByBlock
100
AcDbLine
 10
1208.793097496344
 20
1584.887615409481
 30
0.0
 11
1060.44775395428
 21
1584.887615409481
 31
0.0
  0
LINE
  5
81D1
330
81CD
100
AcDbEntity
  8
0
  6
ByBlock
100
AcDbLine
 10
1090.44775395428
 20
2349.887615409482
 30
0.0
 11
1090.44775395428
 21
1644.887615409481
 31
0.0
  0
INSERT
  5
81D2
330
81CD
100
AcDbEntity
  8
0
  6
ByBlock
100
AcDbBlockReference
  2
_OPEN
 10
1090.44775395428
 20
2409.887615409481
 30
0.0
 41
60.0
 42
60.0
 43
60.0
 50
90.0
  0
INSERT
  5
81D3
330
81CD
100
AcDbEntity
  8
0
  6
ByBlock
100
AcDbBlockReference
  2
_OPEN
 10
1090.44775395428
 20
1584.887615409481
 30
0.0
 41
60.0
 42
60.0
 43
60.0
 50
270.0
  0
MTEXT
  5
81D4
330
81CD
100
AcDbEntity
  8
0
  6
ByBlock
100
AcDbMText
 10
1030.44775395428
 20
1997.387615409481
 30
0.0
 40
90.0
 41
0.0
 71
     5
 72
     5
  1
\A1;825
 11
0.0
 21
1.0
 31
0.0
 73
     1
 44
1.0
1001
ACAD
1000
MTEXTBEGIN
1070
    73
1070
     1
1070
    44
1040
1.0
1070
    74
1070
     0
1000
MTEXTEND
  0
POINT
  5
81D5
330
81CD
100
AcDbEntity
  8
DEFPOINTS
  6
ByBlock
 62
     0
100
AcDbPoint
 10
1238.793097496344
 20
2409.887615409481
 30
0.0
  0
POINT
  5
81D6
330
81CD
100
AcDbEntity
  8
DEFPOINTS
  6
ByBlock
 62
     0
100
AcDbPoint
 10
1238.793097496344
 20
1584.887615409481
 30
0.0
  0
POINT
  5
81D7
330
81CD
100
AcDbEntity
  8
DEFPOINTS
  6
ByBlock
 62
     0
100
AcDbPoint
 10
1090.44775395428
 20
1584.887615409481
 30
0.0
  0
ENDBLK
  5
81D8
330
81CD
100
AcDbEntity
  8
0
100
AcDbBlockEnd
  0
BLOCK
  5
81DA
330
81D9
100
AcDbEntity
  8
0
100
AcDbBlockBegin
  2
*D27
 70
     1
 10
0.0
 20
0.0
 30
0.0
  3
*D27
  1

  0
LINE
  5
81DB
330
81D9
100
AcDbEntity
  8
0
  6
ByBlock
100
AcDbLine
 10
1208.793097496344
 20
2409.887615409481
 30
0.0
 11
908.1643513804774
 21
2409.887615409481
 31
0.0
  0
LINE
  5
81DC
330
81D9
100
AcDbEntity
  8
0
  6
ByBlock
100
AcDbLine
 10
1087.321305645953
 20
1561.887615409481
 30
0.0
 11
908.1643513804774
 21
1561.887615409481
 31
0.0
  0
LINE
  5
81DD
330
81D9
100
AcDbEntity
  8
0
  6
ByBlock
100
AcDbLine
 10
938.1643513804775
 20
2349.887615409482
 30
0.0
 11
938.1643513804775
 21
1621.887615409481
 31
0.0
  0
INSERT
  5
81DE
330
81D9
100
AcDbEntity
  8
0
  6
ByBlock
100
AcDbBlockReference
  2
_OPEN
 10
938.1643513804775
 20
2409.887615409481
 30
0.0
 41
60.0
 42
60.0
 43
60.0
 50
90.0
  0
INSERT
  5
81DF
330
81D9
100
AcDbEntity
  8
0
  6
ByBlock
100
AcDbBlockReference
  2
_OPEN
 10
938.1643513804775
 20
1561.887615409481
 30
0.0
 41
60.0
 42
60.0
 43
60.0
 50
270.0
  0
MTEXT
  5
81E0
330
81D9
100
AcDbEntity
  8
0
  6
ByBlock
100
AcDbMText
 10
878.1643513804775
 20
1985.887615409481
 30
0.0
 40
90.0
 41
0.0
 71
     5
 72
     5
  1
\A1;848
 11
0.0
 21
1.0
 31
0.0
 73
     1
 44
1.0
1001
ACAD
1000
MTEXTBEGIN
1070
    73
1070
     1
1070
    44
1040
1.0
1070
    74
1070
     0
1000
MTEXTEND
  0
POINT
  5
81E1
330
81D9
100
AcDbEntity
  8
DEFPOINTS
  6
ByBlock
 62
     0
100
AcDbPoint
 10
1238.793097496344
 20
2409.887615409481
 30
0.0
  0
POINT
  5
81E2
330
81D9
100
AcDbEntity
  8
DEFPOINTS
  6
ByBlock
 62
     0
100
AcDbPoint
 10
1117.321305645953
 20
1561.887615409481
 30
0.0
  0
POINT
  5
81E3
330
81D9
100
AcDbEntity
  8
DEFPOINTS
  6
ByBlock
 62
     0
100
AcDbPoint
 10
938.1643513804775
 20
1561.887615409481
 30
0.0
  0
ENDBLK
  5
81E4
330
81D9
100
AcDbEntity
  8
0
100
AcDbBlockEnd
  0
BLOCK
  5
81E6
330
81E5
100
AcDbEntity
  8
0
100
AcDbBlockBegin
  2
*D28
 70
     1
 10
0.0
 20
0.0
 30
0.0
  3
*D28
  1

  0
LINE
  5
81E7
330
81E5
100
AcDbEntity
  8
0
  6
ByBlock
100
AcDbLine
 10
1087.321305645953
 20
1561.887615409481
 30
0.0
 11
907.5234403184149
 21
1561.887615409481
 31
0.0
  0
LINE
  5
81E8
330
81E5
100
AcDbEntity
  8
0
  6
ByBlock
100
AcDbLine
 10
1253.793097496344
 20
971.8876154094814
 30
0.0
 11
907.5234403184149
 21
971.8876154094814
 31
0.0
  0
LINE
  5
81E9
330
81E5
100
AcDbEntity
  8
0
  6
ByBlock
100
AcDbLine
 10
937.5234403184149
 20
1501.887615409481
 30
0.0
 11
937.5234403184149
 21
1031.887615409481
 31
0.0
  0
INSERT
  5
81EA
330
81E5
100
AcDbEntity
  8
0
  6
ByBlock
100
AcDbBlockReference
  2
_OPEN
 10
937.5234403184149
 20
1561.887615409481
 30
0.0
 41
60.0
 42
60.0
 43
60.0
 50
90.0
  0
INSERT
  5
81EB
330
81E5
100
AcDbEntity
  8
0
  6
ByBlock
100
AcDbBlockReference
  2
_OPEN
 10
937.5234403184149
 20
971.8876154094814
 30
0.0
 41
60.0
 42
60.0
 43
60.0
 50
270.0
  0
MTEXT
  5
81EC
330
81E5
100
AcDbEntity
  8
0
  6
ByBlock
100
AcDbMText
 10
877.523440318415
 20
1266.887615409481
 30
0.0
 40
90.0
 41
0.0
 71
     5
 72
     5
  1
\A1;590
 11
0.0
 21
1.0
 31
0.0
 73
     1
 44
1.0
1001
ACAD
1000
MTEXTBEGIN
1070
    73
1070
     1
1070
    44
1040
1.0
1070
    74
1070
     0
1000
MTEXTEND
  0
POINT
  5
81ED
330
81E5
100
AcDbEntity
  8
DEFPOINTS
  6
ByBlock
 62
     0
100
AcDbPoint
 10
1117.321305645953
 20
1561.887615409481
 30
0.0
  0
POINT
  5
81EE
330
81E5
100
AcDbEntity
  8
DEFPOINTS
  6
ByBlock
 62
     0
100
AcDbPoint
 10
1283.793097496344
 20
971.8876154094814
 30
0.0
  0
POINT
  5
81EF
330
81E5
100
AcDbEntity
  8
DEFPOINTS
  6
ByBlock
 62
     0
100
AcDbPoint
 10
937.5234403184149
 20
971.8876154094814
 30
0.0
  0
ENDBLK
  5
81F0
330
81E5
100
AcDbEntity
  8
0
100
AcDbBlockEnd
  0
BLOCK
  5
81F2
330
81F1
100
AcDbEntity
  8
0
100
AcDbBlockBegin
  2
*D29
 70
     1
 10
0.0
 20
0.0
 30
0.0
  3
*D29
  1

  0
LINE
  5
81F3
330
81F1
100
AcDbEntity
  8
0
  6
ByBlock
100
AcDbLine
 10
1238.793097496344
 20
2482.387615409482
 30
0.0
 11
1238.793097496344
 21
2632.897124656605
 31
0.0
  0
LINE
  5
81F4
330
81F1
100
AcDbEntity
  8
0
  6
ByBlock
100
AcDbLine
 10
1783.793097496344
 20
2450.570948036724
 30
0.0
 11
1783.793097496344
 21
2632.897124656605
 31
0.0
  0
LINE
  5
81F5
330
81F1
100
AcDbEntity
  8
0
  6
ByBlock
100
AcDbLine
 10
1298.793097496344
 20
2602.897124656605
 30
0.0
 11
1723.793097496344
 21
2602.897124656605
 31
0.0
  0
INSERT
  5
81F6
330
81F1
100
AcDbEntity
  8
0
  6
ByBlock
100
AcDbBlockReference
  2
_OPEN
 10
1238.793097496344
 20
2602.897124656605
 30
0.0
 41
60.0
 42
60.0
 43
60.0
 50
180.0
  0
INSERT
  5
81F7
330
81F1
100
AcDbEntity
  8
0
  6
ByBlock
100
AcDbBlockReference
  2
_OPEN
 10
1783.793097496344
 20
2602.897124656605
 30
0.0
 41
60.0
 42
60.0
 43
60.0
  0
MTEXT
  5
81F8
330
81F1
100
AcDbEntity
  8
0
  6
ByBlock
100
AcDbMText
 10
1511.293097496344
 20
2662.897124656605
 30
0.0
 40
90.0
 41
0.0
 71
     5
 72
     5
  1
\A1;545
 73
     1
 44
1.0
1001
ACAD
1000
MTEXTBEGIN
1070
    73
1070
     1
1070
    44
1040
1.0
1070
    74
1070
     0
1000
MTEXTEND
  0
POINT
  5
81F9
330
81F1
100
AcDbEntity
  8
DEFPOINTS
  6
ByBlock
 62
     0
100
AcDbPoint
 10
1238.793097496344
 20
2452.387615409481
 30
0.0
  0
POINT
  5
81FA
330
81F1
100
AcDbEntity
  8
DEFPOINTS
  6
ByBlock
 62
     0
100
AcDbPoint
 10
1783.793097496344
 20
2420.570948036724
 30
0.0
  0
POINT
  5
81FB
330
81F1
100
AcDbEntity
  8
DEFPOINTS
  6
ByBlock
 62
     0
100
AcDbPoint
 10
1783.793097496344
 20
2602.897124656605
 30
0.0
  0
ENDBLK
  5
81FC
330
81F1
100
AcDbEntity
  8
0
100
AcDbBlockEnd
  0
BLOCK
  5
81FE
330
81FD
100
AcDbEntity
  8
0
100
AcDbBlockBegin
  2
*D30
 70
     1
 10
0.0
 20
0.0
 30
0.0
  3
*D30
  1

  0
LINE
  5
81FF
330
81FD
100
AcDbEntity
  8
0
  6
ByBlock
100
AcDbLine
 10
5476.207505112643
 20
1161.887615409481
 30
0.0
 11
5724.703349046961
 21
1161.887615409481
 31
0.0
  0
LINE
  5
8200
330
81FD
100
AcDbEntity
  8
0
  6
ByBlock
100
AcDbLine
 10
5476.207505112643
 20
1961.887615409481
 30
0.0
 11
5724.703349046961
 21
1961.887615409481
 31
0.0
  0
LINE
  5
8201
330
81FD
100
AcDbEntity
  8
0
  6
ByBlock
100
AcDbLine
 10
5694.703349046962
 20
1221.887615409481
 30
0.0
 11
5694.703349046962
 21
1901.887615409481
 31
0.0
  0
INSERT
  5
8202
330
81FD
100
AcDbEntity
  8
0
  6
ByBlock
100
AcDbBlockReference
  2
_OPEN
 10
5694.703349046962
 20
1161.887615409481
 30
0.0
 41
60.0
 42
60.0
 43
60.0
 50
270.0
  0
INSERT
  5
8203
330
81FD
100
AcDbEntity
  8
0
  6
ByBlock
100
AcDbBlockReference
  2
_OPEN
 10
5694.703349046962
 20
1961.887615409481
 30
0.0
 41
60.0
 42
60.0
 43
60.0
 50
90.0
  0
MTEXT
  5
8204
330
81FD
100
AcDbEntity
  8
0
  6
ByBlock
100
AcDbMText
 10
5634.703349046962
 20
1561.887615409481
 30
0.0
 40
90.0
 41
0.0
 71
     5
 72
     5
  1
\A1;\U+03C6800
 11
0.0
 21
1.0
 31
0.0
 73
     1
 44
1.0
1001
ACAD
1000
MTEXTBEGIN
1070
    73
1070
     1
1070
    44
1040
1.0
1070
    74
1070
     0
1000
MTEXTEND
  0
POINT
  5
8205
330
81FD
100
AcDbEntity
  8
DEFPOINTS
  6
ByBlock
 62
     0
100
AcDbPoint
 10
5446.207505112644
 20
1161.887615409481
 30
0.0
  0
POINT
  5
8206
330
81FD
100
AcDbEntity
  8
DEFPOINTS
  6
ByBlock
 62
     0
100
AcDbPoint
 10
5446.207505112644
 20
1961.887615409481
 30
0.0
  0
POINT
  5
8207
330
81FD
100
AcDbEntity
  8
DEFPOINTS
  6
ByBlock
 62
     0
100
AcDbPoint
 10
5694.703349046962
 20
1961.887615409481
 30
0.0
  0
ENDBLK
  5
8208
330
81FD
100
AcDbEntity
  8
0
100
AcDbBlockEnd
  0
BLOCK
  5
820A
330
8209
100
AcDbEntity
  8
0
100
AcDbBlockBegin
  2
*D31
 70
     1
 10
0.0
 20
0.0
 30
0.0
  3
*D31
  1

  0
LINE
  5
820B
330
8209
100
AcDbEntity
  8
0
  6
ByBlock
100
AcDbLine
 10
2283.793097496344
 20
5305.6229154676
 30
0.0
 11
2283.793097496344
 21
5606.194826451464
 31
0.0
  0
LINE
  5
820C
330
8209
100
AcDbEntity
  8
0
  6
ByBlock
100
AcDbLine
 10
1283.793097496344
 20
5305.6229154676
 30
0.0
 11
1283.793097496344
 21
5606.194826451464
 31
0.0
  0
LINE
  5
820D
330
8209
100
AcDbEntity
  8
0
  6
ByBlock
100
AcDbLine
 10
2223.793097496344
 20
5576.194826451465
 30
0.0
 11
1343.793097496344
 21
5576.194826451465
 31
0.0
  0
INSERT
  5
820E
330
8209
100
AcDbEntity
  8
0
  6
ByBlock
100
AcDbBlockReference
  2
_OPEN
 10
2283.793097496344
 20
5576.194826451465
 30
0.0
 41
60.0
 42
60.0
 43
60.0
  0
INSERT
  5
820F
330
8209
100
AcDbEntity
  8
0
  6
ByBlock
100
AcDbBlockReference
  2
_OPEN
 10
1283.793097496344
 20
5576.194826451465
 30
0.0
 41
60.0
 42
60.0
 43
60.0
 50
180.0
  0
MTEXT
  5
8210
330
8209
100
AcDbEntity
  8
0
  6
ByBlock
100
AcDbMText
 10
1783.793097496344
 20
5636.194826451465
 30
0.0
 40
90.0
 41
0.0
 71
     5
 72
     5
  1
\A1;1000
 73
     1
 44
1.0
1001
ACAD
1000
MTEXTBEGIN
1070
    73
1070
     1
1070
    44
1040
1.0
1070
    74
1070
     0
1000
MTEXTEND
  0
POINT
  5
8211
330
8209
100
AcDbEntity
  8
DEFPOINTS
  6
ByBlock
 62
     0
100
AcDbPoint
 10
2283.793097496344
 20
5275.6229154676
 30
0.0
  0
POINT
  5
8212
330
8209
100
AcDbEntity
  8
DEFPOINTS
  6
ByBlock
 62
     0
100
AcDbPoint
 10
1283.793097496344
 20
5275.6229154676
 30
0.0
  0
POINT
  5
8213
330
8209
100
AcDbEntity
  8
DEFPOINTS
  6
ByBlock
 62
     0
100
AcDbPoint
 10
1283.793097496344
 20
5576.194826451465
 30
0.0
  0
ENDBLK
  5
8214
330
8209
100
AcDbEntity
  8
0
100
AcDbBlockEnd
  0
BLOCK
  5
8216
330
8215
100
AcDbEntity
  8
0
100
AcDbBlockBegin
  2
*D32
 70
     1
 10
0.0
 20
0.0
 30
0.0
  3
*D32
  1

  0
LINE
  5
8217
330
8215
100
AcDbEntity
  8
0
  6
ByBlock
100
AcDbLine
 10
3133.793097496344
 20
4785.6229154676
 30
0.0
 11
3133.793097496344
 21
5606.194826451464
 31
0.0
  0
LINE
  5
8218
330
8215
100
AcDbEntity
  8
0
  6
ByBlock
100
AcDbLine
 10
2283.793097496344
 20
5305.6229154676
 30
0.0
 11
2283.793097496344
 21
5606.194826451464
 31
0.0
  0
LINE
  5
8219
330
8215
100
AcDbEntity
  8
0
  6
ByBlock
100
AcDbLine
 10
3073.793097496344
 20
5576.194826451465
 30
0.0
 11
2343.793097496345
 21
5576.194826451465
 31
0.0
  0
INSERT
  5
821A
330
8215
100
AcDbEntity
  8
0
  6
ByBlock
100
AcDbBlockReference
  2
_OPEN
 10
3133.793097496344
 20
5576.194826451465
 30
0.0
 41
60.0
 42
60.0
 43
60.0
  0
INSERT
  5
821B
330
8215
100
AcDbEntity
  8
0
  6
ByBlock
100
AcDbBlockReference
  2
_OPEN
 10
2283.793097496344
 20
5576.194826451465
 30
0.0
 41
60.0
 42
60.0
 43
60.0
 50
180.0
  0
MTEXT
  5
821C
330
8215
100
AcDbEntity
  8
0
  6
ByBlock
100
AcDbMText
 10
2708.793097496344
 20
5636.194826451465
 30
0.0
 40
90.0
 41
0.0
 71
     5
 72
     5
  1
\A1;850
 73
     1
 44
1.0
1001
ACAD
1000
MTEXTBEGIN
1070
    73
1070
     1
1070
    44
1040
1.0
1070
    74
1070
     0
1000
MTEXTEND
  0
POINT
  5
821D
330
8215
100
AcDbEntity
  8
DEFPOINTS
  6
ByBlock
 62
     0
100
AcDbPoint
 10
3133.793097496344
 20
4755.6229154676
 30
0.0
  0
POINT
  5
821E
330
8215
100
AcDbEntity
  8
DEFPOINTS
  6
ByBlock
 62
     0
100
AcDbPoint
 10
2283.793097496344
 20
5275.6229154676
 30
0.0
  0
POINT
  5
821F
330
8215
100
AcDbEntity
  8
DEFPOINTS
  6
ByBlock
 62
     0
100
AcDbPoint
 10
2283.793097496344
 20
5576.194826451465
 30
0.0
  0
ENDBLK
  5
8220
330
8215
100
AcDbEntity
  8
0
100
AcDbBlockEnd
  0
BLOCK
  5
8222
330
8221
100
AcDbEntity
  8
0
100
AcDbBlockBegin
  2
*D33
 70
     1
 10
0.0
 20
0.0
 30
0.0
  3
*D33
  1

  0
LINE
  5
8223
330
8221
100
AcDbEntity
  8
0
  6
ByBlock
100
AcDbLine
 10
1253.793097496344
 20
5275.6229154676
 30
0.0
 11
954.3011788814183
 21
5275.6229154676
 31
0.0
  0
LINE
  5
8224
330
8221
100
AcDbEntity
  8
0
  6
ByBlock
100
AcDbLine
 10
1253.793097496344
 20
3955.6229154676
 30
0.0
 11
954.3011788814183
 21
3955.6229154676
 31
0.0
  0
LINE
  5
8225
330
8221
100
AcDbEntity
  8
0
  6
ByBlock
100
AcDbLine
 10
984.3011788814182
 20
5215.622915467601
 30
0.0
 11
984.3011788814182
 21
4015.6229154676
 31
0.0
  0
INSERT
  5
8226
330
8221
100
AcDbEntity
  8
0
  6
ByBlock
100
AcDbBlockReference
  2
_OPEN
 10
984.3011788814182
 20
5275.6229154676
 30
0.0
 41
60.0
 42
60.0
 43
60.0
 50
90.0
  0
INSERT
  5
8227
330
8221
100
AcDbEntity
  8
0
  6
ByBlock
100
AcDbBlockReference
  2
_OPEN
 10
984.3011788814182
 20
3955.6229154676
 30
0.0
 41
60.0
 42
60.0
 43
60.0
 50
270.0
  0
MTEXT
  5
8228
330
8221
100
AcDbEntity
  8
0
  6
ByBlock
100
AcDbMText
 10
924.3011788814182
 20
4615.6229154676
 30
0.0
 40
90.0
 41
0.0
 71
     5
 72
     5
  1
\A1;1320
 11
0.0
 21
1.0
 31
0.0
 73
     1
 44
1.0
1001
ACAD
1000
MTEXTBEGIN
1070
    73
1070
     1
1070
    44
1040
1.0
1070
    74
1070
     0
1000
MTEXTEND
  0
POINT
  5
8229
330
8221
100
AcDbEntity
  8
DEFPOINTS
  6
ByBlock
 62
     0
100
AcDbPoint
 10
1283.793097496344
 20
5275.6229154676
 30
0.0
  0
POINT
  5
822A
330
8221
100
AcDbEntity
  8
DEFPOINTS
  6
ByBlock
 62
     0
100
AcDbPoint
 10
1283.793097496344
 20
3955.6229154676
 30
0.0
  0
POINT
  5
822B
330
8221
100
AcDbEntity
  8
DEFPOINTS
  6
ByBlock
 62
     0
100
AcDbPoint
 10
984.3011788814182
 20
3955.6229154676
 30
0.0
  0
ENDBLK
  5
822C
330
8221
100
AcDbEntity
  8
0
100
AcDbBlockEnd
  0
BLOCK
  5
822E
330
822D
100
AcDbEntity
  8
0
100
AcDbBlockBegin
  2
*D34
 70
     1
 10
0.0
 20
0.0
 30
0.0
  3
*D34
  1

  0
LINE
  5
822F
330
822D
100
AcDbEntity
  8
0
  6
ByBlock
100
AcDbLine
 10
3163.793097496344
 20
4755.6229154676
 30
0.0
 11
3465.699160824439
 21
4755.6229154676
 31
0.0
  0
LINE
  5
8230
330
822D
100
AcDbEntity
  8
0
  6
ByBlock
100
AcDbLine
 10
3163.793097496344
 20
3955.6229154676
 30
0.0
 11
3465.699160824439
 21
3955.6229154676
 31
0.0
  0
LINE
  5
8231
330
822D
100
AcDbEntity
  8
0
  6
ByBlock
100
AcDbLine
 10
3435.69916082444
 20
4695.6229154676
 30
0.0
 11
3435.69916082444
 21
4015.6229154676
 31
0.0
  0
INSERT
  5
8232
330
822D
100
AcDbEntity
  8
0
  6
ByBlock
100
AcDbBlockReference
  2
_OPEN
 10
3435.69916082444
 20
4755.6229154676
 30
0.0
 41
60.0
 42
60.0
 43
60.0
 50
90.0
  0
INSERT
  5
8233
330
822D
100
AcDbEntity
  8
0
  6
ByBlock
100
AcDbBlockReference
  2
_OPEN
 10
3435.69916082444
 20
3955.6229154676
 30
0.0
 41
60.0
 42
60.0
 43
60.0
 50
270.0
  0
MTEXT
  5
8234
330
822D
100
AcDbEntity
  8
0
  6
ByBlock
100
AcDbMText
 10
3375.699160824439
 20
4355.6229154676
 30
0.0
 40
90.0
 41
0.0
 71
     5
 72
     5
  1
\A1;800
 11
0.0
 21
1.0
 31
0.0
 73
     1
 44
1.0
1001
ACAD
1000
MTEXTBEGIN
1070
    73
1070
     1
1070
    44
1040
1.0
1070
    74
1070
     0
1000
MTEXTEND
  0
POINT
  5
8235
330
822D
100
AcDbEntity
  8
DEFPOINTS
  6
ByBlock
 62
     0
100
AcDbPoint
 10
3133.793097496344
 20
4755.6229154676
 30
0.0
  0
POINT
  5
8236
330
822D
100
AcDbEntity
  8
DEFPOINTS
  6
ByBlock
 62
     0
100
AcDbPoint
 10
3133.793097496344
 20
3955.6229154676
 30
0.0
  0
POINT
  5
8237
330
822D
100
AcDbEntity
  8
DEFPOINTS
  6
ByBlock
 62
     0
100
AcDbPoint
 10
3435.69916082444
 20
3955.6229154676
 30
0.0
  0
ENDBLK
  5
8238
330
822D
100
AcDbEntity
  8
0
100
AcDbBlockEnd
  0
BLOCK
  5
823A
330
8239
100
AcDbEntity
  8
0
100
AcDbBlockBegin
  2
*D35
 70
     1
 10
0.0
 20
0.0
 30
0.0
  3
*D35
  1

  0
LINE
  5
823B
330
8239
100
AcDbEntity
  8
0
  6
ByBlock
100
AcDbLine
 10
3133.793097496344
 20
3925.622915467601
 30
0.0
 11
3133.793097496344
 21
3583.448439770715
 31
0.0
  0
LINE
  5
823C
330
8239
100
AcDbEntity
  8
0
  6
ByBlock
100
AcDbLine
 10
1283.793097496344
 20
3925.622915467601
 30
0.0
 11
1283.793097496344
 21
3583.448439770715
 31
0.0
  0
LINE
  5
823D
330
8239
100
AcDbEntity
  8
0
  6
ByBlock
100
AcDbLine
 10
3073.793097496344
 20
3613.448439770715
 30
0.0
 11
1343.793097496344
 21
3613.448439770715
 31
0.0
  0
INSERT
  5
823E
330
8239
100
AcDbEntity
  8
0
  6
ByBlock
100
AcDbBlockReference
  2
_OPEN
 10
3133.793097496344
 20
3613.448439770715
 30
0.0
 41
60.0
 42
60.0
 43
60.0
  0
INSERT
  5
823F
330
8239
100
AcDbEntity
  8
0
  6
ByBlock
100
AcDbBlockReference
  2
_OPEN
 10
1283.793097496344
 20
3613.448439770715
 30
0.0
 41
60.0
 42
60.0
 43
60.0
 50
180.0
  0
MTEXT
  5
8240
330
8239
100
AcDbEntity
  8
0
  6
ByBlock
100
AcDbMText
 10
2208.793097496344
 20
3673.448439770715
 30
0.0
 40
90.0
 41
0.0
 71
     5
 72
     5
  1
\A1;1850
 73
     1
 44
1.0
1001
ACAD
1000
MTEXTBEGIN
1070
    73
1070
     1
1070
    44
1040
1.0
1070
    74
1070
     0
1000
MTEXTEND
  0
POINT
  5
8241
330
8239
100
AcDbEntity
  8
DEFPOINTS
  6
ByBlock
 62
     0
100
AcDbPoint
 10
3133.793097496344
 20
3955.6229154676
 30
0.0
  0
POINT
  5
8242
330
8239
100
AcDbEntity
  8
DEFPOINTS
  6
ByBlock
 62
     0
100
AcDbPoint
 10
1283.793097496344
 20
3955.6229154676
 30
0.0
  0
POINT
  5
8243
330
8239
100
AcDbEntity
  8
DEFPOINTS
  6
ByBlock
 62
     0
100
AcDbPoint
 10
1283.793097496344
 20
3613.448439770715
 30
0.0
  0
ENDBLK
  5
8244
330
8239
100
AcDbEntity
  8
0
100
AcDbBlockEnd
  0
BLOCK
  5
8246
330
8245
100
AcDbEntity
  8
0
100
AcDbBlockBegin
  2
*D36
 70
     1
 10
0.0
 20
0.0
 30
0.0
  3
*D36
  1

  0
LINE
  5
8247
330
8245
100
AcDbEntity
  8
0
  6
ByBlock
100
AcDbLine
 10
4383.907505112644
 20
2439.887615409481
 30
0.0
 11
4383.907505112644
 21
2546.819859761796
 31
0.0
  0
LINE
  5
8248
330
8245
100
AcDbEntity
  8
0
  6
ByBlock
100
AcDbLine
 10
5443.907505112644
 20
2439.887615409482
 30
0.0
 11
5443.907505112644
 21
2546.819859761796
 31
0.0
  0
LINE
  5
8249
330
8245
100
AcDbEntity
  8
0
  6
ByBlock
100
AcDbLine
 10
4443.907505112644
 20
2516.819859761796
 30
0.0
 11
5383.907505112643
 21
2516.819859761796
 31
0.0
  0
INSERT
  5
824A
330
8245
100
AcDbEntity
  8
0
  6
ByBlock
100
AcDbBlockReference
  2
_OPEN
 10
4383.907505112644
 20
2516.819859761796
 30
0.0
 41
60.0
 42
60.0
 43
60.0
 50
180.0
  0
INSERT
  5
824B
330
8245
100
AcDbEntity
  8
0
  6
ByBlock
100
AcDbBlockReference
  2
_OPEN
 10
5443.907505112644
 20
2516.819859761796
 30
0.0
 41
60.0
 42
60.0
 43
60.0
  0
MTEXT
  5
824C
330
8245
100
AcDbEntity
  8
0
  6
ByBlock
100
AcDbMText
 10
4913.907505112644
 20
2576.819859761796
 30
0.0
 40
90.0
 41
0.0
 71
     5
 72
     5
  1
\A1;1060
 73
     1
 44
1.0
1001
ACAD
1000
MTEXTBEGIN
1070
    73
1070
     1
1070
    44
1040
1.0
1070
    74
1070
     0
1000
MTEXTEND
  0
POINT
  5
824D
330
8245
100
AcDbEntity
  8
DEFPOINTS
  6
ByBlock
 62
     0
100
AcDbPoint
 10
4383.907505112644
 20
2409.887615409481
 30
0.0
  0
POINT
  5
824E
330
8245
100
AcDbEntity
  8
DEFPOINTS
  6
ByBlock
 62
     0
100
AcDbPoint
 10
5443.907505112644
 20
2409.887615409481
 30
0.0
  0
POINT
  5
824F
330
8245
100
AcDbEntity
  8
DEFPOINTS
  6
ByBlock
 62
     0
100
AcDbPoint
 10
5443.907505112644
 20
2516.819859761796
 30
0.0
  0
ENDBLK
  5
8250
330
8245
100
AcDbEntity
  8
0
100
AcDbBlockEnd
  0
BLOCK
  5
8252
330
8251
100
AcDbEntity
  8
0
100
AcDbBlockBegin
  2
*D37
 70
     1
 10
0.0
 20
0.0
 30
0.0
  3
*D37
  1

  0
LINE
  5
8253
330
8251
100
AcDbEntity
  8
0
  6
ByBlock
100
AcDbLine
 10
1238.793097496344
 20
2482.387615409482
 30
0.0
 11
1238.793097496344
 21
2797.381836077088
 31
0.0
  0
LINE
  5
8254
330
8251
100
AcDbEntity
  8
0
  6
ByBlock
100
AcDbLine
 10
3133.793097496344
 20
1101.887615409481
 30
0.0
 11
3133.793097496344
 21
2797.381836077088
 31
0.0
  0
LINE
  5
8255
330
8251
100
AcDbEntity
  8
0
  6
ByBlock
100
AcDbLine
 10
1298.793097496344
 20
2767.381836077087
 30
0.0
 11
3073.793097496344
 21
2767.381836077087
 31
0.0
  0
INSERT
  5
8256
330
8251
100
AcDbEntity
  8
0
  6
ByBlock
100
AcDbBlockReference
  2
_OPEN
 10
1238.793097496344
 20
2767.381836077087
 30
0.0
 41
60.0
 42
60.0
 43
60.0
 50
180.0
  0
INSERT
  5
8257
330
8251
100
AcDbEntity
  8
0
  6
ByBlock
100
AcDbBlockReference
  2
_OPEN
 10
3133.793097496344
 20
2767.381836077087
 30
0.0
 41
60.0
 42
60.0
 43
60.0
  0
MTEXT
  5
8258
330
8251
100
AcDbEntity
  8
0
  6
ByBlock
100
AcDbMText
 10
2186.293097496344
 20
2827.381836077087
 30
0.0
 40
90.0
 41
0.0
 71
     5
 72
     5
  1
\A1;1895
 73
     1
 44
1.0
1001
ACAD
1000
MTEXTBEGIN
1070
    73
1070
     1
1070
    44
1040
1.0
1070
    74
1070
     0
1000
MTEXTEND
  0
POINT
  5
8259
330
8251
100
AcDbEntity
  8
DEFPOINTS
  6
ByBlock
 62
     0
100
AcDbPoint
 10
1238.793097496344
 20
2452.387615409481
 30
0.0
  0
POINT
  5
825A
330
8251
100
AcDbEntity
  8
DEFPOINTS
  6
ByBlock
 62
     0
100
AcDbPoint
 10
3133.793097496344
 20
1071.887615409481
 30
0.0
  0
POINT
  5
825B
330
8251
100
AcDbEntity
  8
DEFPOINTS
  6
ByBlock
 62
     0
100
AcDbPoint
 10
3133.793097496344
 20
2767.381836077087
 30
0.0
  0
ENDBLK
  5
825C
330
8251
100
AcDbEntity
  8
0
100
AcDbBlockEnd
  0
BLOCK
  5
825E
330
825D
100
AcDbEntity
  8
0
100
AcDbBlockBegin
  2
*D38
 70
     1
 10
0.0
 20
0.0
 30
0.0
  3
*D38
  1

  0
LINE
  5
825F
330
825D
100
AcDbEntity
  8
0
  6
ByBlock
 62
     0
100
AcDbLine
 10
1616.460632366206
 20
2207.603186516562
 30
0.0
 11
1616.460632366206
 21
2010.525898340173
 31
0.0
  0
LINE
  5
8260
330
825D
100
AcDbEntity
  8
0
  6
ByBlock
 62
     0
100
AcDbLine
 10
2116.460632366207
 20
2207.603186516562
 30
0.0
 11
2116.460632366207
 21
2010.525898340173
 31
0.0
  0
LINE
  5
8261
330
825D
100
AcDbEntity
  8
0
  6
ByBlock
 62
     0
100
AcDbLine
 10
1676.460632366206
 20
2040.525898340173
 30
0.0
 11
2056.460632366206
 21
2040.525898340173
 31
0.0
  0
INSERT
  5
8262
330
825D
100
AcDbEntity
  8
0
  6
ByBlock
 62
     0
100
AcDbBlockReference
  2
_OPEN
 10
1616.460632366206
 20
2040.525898340173
 30
0.0
 41
60.0
 42
60.0
 43
60.0
 50
180.0
  0
INSERT
  5
8263
330
825D
100
AcDbEntity
  8
0
  6
ByBlock
 62
     0
100
AcDbBlockReference
  2
_OPEN
 10
2116.460632366207
 20
2040.525898340173
 30
0.0
 41
60.0
 42
60.0
 43
60.0
  0
MTEXT
  5
8264
330
825D
100
AcDbEntity
  8
0
  6
ByBlock
 62
     0
100
AcDbMText
 10
1866.460632366207
 20
2115.525898340173
 30
0.0
 40
90.0
 41
0.0
 71
     5
 72
     5
  1
\A1;500
 73
     1
 44
1.0
1001
ACAD
1000
MTEXTBEGIN
1070
    73
1070
     1
1070
    44
1040
1.0
1070
    74
1070
     0
1000
MTEXTEND
  0
POINT
  5
8265
330
825D
100
AcDbEntity
  8
DEFPOINTS
  6
ByBlock
 62
     0
100
AcDbPoint
 10
1616.460632366206
 20
2222.603186516562
 30
0.0
  0
POINT
  5
8266
330
825D
100
AcDbEntity
  8
DEFPOINTS
  6
ByBlock
 62
     0
100
AcDbPoint
 10
2116.460632366207
 20
2222.603186516562
 30
0.0
  0
POINT
  5
8267
330
825D
100
AcDbEntity
  8
DEFPOINTS
  6
ByBlock
 62
     0
100
AcDbPoint
 10
2116.460632366207
 20
2040.525898340173
 30
0.0
  0
ENDBLK
  5
8268
330
825D
100
AcDbEntity
  8
0
100
AcDbBlockEnd
  0
BLOCK
  5
826A
330
8269
100
AcDbEntity
  8
0
100
AcDbBlockBegin
  2
*D39
 70
     1
 10
0.0
 20
0.0
 30
0.0
  3
*D39
  1

  0
LINE
  5
826B
330
8269
100
AcDbEntity
  8
0
  6
ByBlock
 62
     0
100
AcDbLine
 10
2116.460632366207
 20
2207.603186516562
 30
0.0
 11
2116.460632366207
 21
2010.525898340173
 31
0.0
  0
LINE
  5
826C
330
8269
100
AcDbEntity
  8
0
  6
ByBlock
 62
     0
100
AcDbLine
 10
3466.460632366207
 20
2207.603186516562
 30
0.0
 11
3466.460632366207
 21
2010.525898340173
 31
0.0
  0
LINE
  5
826D
330
8269
100
AcDbEntity
  8
0
  6
ByBlock
 62
     0
100
AcDbLine
 10
2176.460632366207
 20
2040.525898340173
 30
0.0
 11
3406.460632366206
 21
2040.525898340173
 31
0.0
  0
INSERT
  5
826E
330
8269
100
AcDbEntity
  8
0
  6
ByBlock
 62
     0
100
AcDbBlockReference
  2
_OPEN
 10
2116.460632366207
 20
2040.525898340173
 30
0.0
 41
60.0
 42
60.0
 43
60.0
 50
180.0
  0
INSERT
  5
826F
330
8269
100
AcDbEntity
  8
0
  6
ByBlock
 62
     0
100
AcDbBlockReference
  2
_OPEN
 10
3466.460632366207
 20
2040.525898340173
 30
0.0
 41
60.0
 42
60.0
 43
60.0
  0
MTEXT
  5
8270
330
8269
100
AcDbEntity
  8
0
  6
ByBlock
 62
     0
100
AcDbMText
 10
2791.460632366207
 20
2115.525898340173
 30
0.0
 40
90.0
 41
0.0
 71
     5
 72
     5
  1
\A1;1350
 73
     1
 44
1.0
1001
ACAD
1000
MTEXTBEGIN
1070
    73
1070
     1
1070
    44
1040
1.0
1070
    74
1070
     0
1000
MTEXTEND
  0
POINT
  5
8271
330
8269
100
AcDbEntity
  8
DEFPOINTS
  6
ByBlock
 62
     0
100
AcDbPoint
 10
2116.460632366207
 20
2222.603186516562
 30
0.0
  0
POINT
  5
8272
330
8269
100
AcDbEntity
  8
DEFPOINTS
  6
ByBlock
 62
     0
100
AcDbPoint
 10
3466.460632366207
 20
2222.603186516562
 30
0.0
  0
POINT
  5
8273
330
8269
100
AcDbEntity
  8
DEFPOINTS
  6
ByBlock
 62
     0
100
AcDbPoint
 10
3466.460632366207
 20
2040.525898340173
 30
0.0
  0
ENDBLK
  5
8274
330
8269
100
AcDbEntity
  8
0
100
AcDbBlockEnd
  0
BLOCK
  5
8276
330
8275
100
AcDbEntity
  8
0
100
AcDbBlockBegin
  2
*D40
 70
     1
 10
0.0
 20
0.0
 30
0.0
  3
*D40
  1

  0
LINE
  5
8277
330
8275
100
AcDbEntity
  8
0
  6
ByBlock
 62
     0
100
AcDbLine
 10
4176.907505112644
 20
2207.603186516562
 30
0.0
 11
4176.907505112644
 21
2010.525898340173
 31
0.0
  0
LINE
  5
8278
330
8275
100
AcDbEntity
  8
0
  6
ByBlock
 62
     0
100
AcDbLine
 10
4913.907505112645
 20
2207.603186516562
 30
0.0
 11
4913.907505112645
 21
2010.525898340173
 31
0.0
  0
LINE
  5
8279
330
8275
100
AcDbEntity
  8
0
  6
ByBlock
 62
     0
100
AcDbLine
 10
4236.907505112643
 20
2040.525898340173
 30
0.0
 11
4853.907505112644
 21
2040.525898340173
 31
0.0
  0
INSERT
  5
827A
330
8275
100
AcDbEntity
  8
0
  6
ByBlock
 62
     0
100
AcDbBlockReference
  2
_OPEN
 10
4176.907505112644
 20
2040.525898340173
 30
0.0
 41
60.0
 42
60.0
 43
60.0
 50
180.0
  0
INSERT
  5
827B
330
8275
100
AcDbEntity
  8
0
  6
ByBlock
 62
     0
100
AcDbBlockReference
  2
_OPEN
 10
4913.907505112645
 20
2040.525898340173
 30
0.0
 41
60.0
 42
60.0
 43
60.0
  0
MTEXT
  5
827C
330
8275
100
AcDbEntity
  8
0
  6
ByBlock
 62
     0
100
AcDbMText
 10
4545.407505112644
 20
2115.525898340173
 30
0.0
 40
90.0
 41
0.0
 71
     5
 72
     5
  1
\A1;737
 73
     1
 44
1.0
1001
ACAD
1000
MTEXTBEGIN
1070
    73
1070
     1
1070
    44
1040
1.0
1070
    74
1070
     0
1000
MTEXTEND
  0
POINT
  5
827D
330
8275
100
AcDbEntity
  8
DEFPOINTS
  6
ByBlock
 62
     0
100
AcDbPoint
 10
4176.907505112644
 20
2222.603186516562
 30
0.0
  0
POINT
  5
827E
330
8275
100
AcDbEntity
  8
DEFPOINTS
  6
ByBlock
 62
     0
100
AcDbPoint
 10
4913.907505112645
 20
2222.603186516562
 30
0.0
  0
POINT
  5
827F
330
8275
100
AcDbEntity
  8
DEFPOINTS
  6
ByBlock
 62
     0
100
AcDbPoint
 10
4913.907505112645
 20
2040.525898340173
 30
0.0
  0
ENDBLK
  5
8280
330
8275
100
AcDbEntity
  8
0
100
AcDbBlockEnd
  0
BLOCK
  5
8282
330
8281
100
AcDbEntity
  8
0
100
AcDbBlockBegin
  2
*D41
 70
     1
 10
0.0
 20
0.0
 30
0.0
  3
*D41
  1

  0
LINE
  5
8283
330
8281
100
AcDbEntity
  8
0
  6
ByBlock
 62
     0
100
AcDbLine
 10
4913.907505112645
 20
2207.603186516562
 30
0.0
 11
4913.907505112645
 21
2010.525898340173
 31
0.0
  0
LINE
  5
8284
330
8281
100
AcDbEntity
  8
0
  6
ByBlock
 62
     0
100
AcDbLine
 10
5496.907505112644
 20
2207.603186516562
 30
0.0
 11
5496.907505112644
 21
2010.525898340173
 31
0.0
  0
LINE
  5
8285
330
8281
100
AcDbEntity
  8
0
  6
ByBlock
 62
     0
100
AcDbLine
 10
4973.907505112645
 20
2040.525898340173
 30
0.0
 11
5436.907505112643
 21
2040.525898340173
 31
0.0
  0
INSERT
  5
8286
330
8281
100
AcDbEntity
  8
0
  6
ByBlock
 62
     0
100
AcDbBlockReference
  2
_OPEN
 10
4913.907505112645
 20
2040.525898340173
 30
0.0
 41
60.0
 42
60.0
 43
60.0
 50
180.0
  0
INSERT
  5
8287
330
8281
100
AcDbEntity
  8
0
  6
ByBlock
 62
     0
100
AcDbBlockReference
  2
_OPEN
 10
5496.907505112644
 20
2040.525898340173
 30
0.0
 41
60.0
 42
60.0
 43
60.0
  0
MTEXT
  5
8288
330
8281
100
AcDbEntity
  8
0
  6
ByBlock
 62
     0
100
AcDbMText
 10
5205.407505112644
 20
2115.525898340173
 30
0.0
 40
90.0
 41
0.0
 71
     5
 72
     5
  1
\A1;583
 73
     1
 44
1.0
1001
ACAD
1000
MTEXTBEGIN
1070
    73
1070
     1
1070
    44
1040
1.0
1070
    74
1070
     0
1000
MTEXTEND
  0
POINT
  5
8289
330
8281
100
AcDbEntity
  8
DEFPOINTS
  6
ByBlock
 62
     0
100
AcDbPoint
 10
4913.907505112645
 20
2222.603186516562
 30
0.0
  0
POINT
  5
828A
330
8281
100
AcDbEntity
  8
DEFPOINTS
  6
ByBlock
 62
     0
100
AcDbPoint
 10
5496.907505112644
 20
2222.603186516562
 30
0.0
  0
POINT
  5
828B
330
8281
100
AcDbEntity
  8
DEFPOINTS
  6
ByBlock
 62
     0
100
AcDbPoint
 10
5496.907505112644
 20
2040.525898340173
 30
0.0
  0
ENDBLK
  5
828C
330
8281
100
AcDbEntity
  8
0
100
AcDbBlockEnd
  0
BLOCK
  5
828E
330
828D
100
AcDbEntity
  8
0
100
AcDbBlockBegin
  2
*D42
 70
     1
 10
0.0
 20
0.0
 30
0.0
  3
*D42
  1

  0
LINE
  5
828F
330
828D
100
AcDbEntity
  8
0
  6
ByBlock
 62
     0
100
AcDbLine
 10
1556.460632366206
 20
3660.603186516563
 30
0.0
 11
1082.434318368774
 21
3660.603186516563
 31
0.0
  0
LINE
  5
8290
330
828D
100
AcDbEntity
  8
0
  6
ByBlock
 62
     0
100
AcDbLine
 10
1601.460632366206
 20
2222.603186516562
 30
0.0
 11
1082.434318368774
 21
2222.603186516562
 31
0.0
  0
LINE
  5
8291
330
828D
100
AcDbEntity
  8
0
  6
ByBlock
 62
     0
100
AcDbLine
 10
1112.434318368774
 20
3600.603186516563
 30
0.0
 11
1112.434318368774
 21
2282.603186516563
 31
0.0
  0
INSERT
  5
8292
330
828D
100
AcDbEntity
  8
0
  6
ByBlock
 62
     0
100
AcDbBlockReference
  2
_OPEN
 10
1112.434318368774
 20
3660.603186516563
 30
0.0
 41
60.0
 42
60.0
 43
60.0
 50
90.0
  0
INSERT
  5
8293
330
828D
100
AcDbEntity
  8
0
  6
ByBlock
 62
     0
100
AcDbBlockReference
  2
_OPEN
 10
1112.434318368774
 20
2222.603186516562
 30
0.0
 41
60.0
 42
60.0
 43
60.0
 50
270.0
  0
MTEXT
  5
8294
330
828D
100
AcDbEntity
  8
0
  6
ByBlock
 62
     0
100
AcDbMText
 10
1037.434318368774
 20
2941.603186516563
 30
0.0
 40
90.0
 41
0.0
 71
     5
 72
     5
  1
\A1;1438
 11
0.0
 21
1.0
 31
0.0
 73
     1
 44
1.0
1001
ACAD
1000
MTEXTBEGIN
1070
    73
1070
     1
1070
    44
1040
1.0
1070
    74
1070
     0
1000
MTEXTEND
  0
POINT
  5
8295
330
828D
100
AcDbEntity
  8
DEFPOINTS
  6
ByBlock
 62
     0
100
AcDbPoint
 10
1571.460632366206
 20
3660.603186516563
 30
0.0
  0
POINT
  5
8296
330
828D
100
AcDbEntity
  8
DEFPOINTS
  6
ByBlock
 62
     0
100
AcDbPoint
 10
1616.460632366206
 20
2222.603186516562
 30
0.0
  0
POINT
  5
8297
330
828D
100
AcDbEntity
  8
DEFPOINTS
  6
ByBlock
 62
     0
100
AcDbPoint
 10
1112.434318368774
 20
2222.603186516562
 30
0.0
  0
ENDBLK
  5
8298
330
828D
100
AcDbEntity
  8
0
100
AcDbBlockEnd
  0
BLOCK
  5
829A
330
8299
100
AcDbEntity
  8
0
100
AcDbBlockBegin
  2
*D43
 70
     1
 10
0.0
 20
0.0
 30
0.0
  3
*D43
  1

  0
LINE
  5
829B
330
8299
100
AcDbEntity
  8
3
 62
     0
370
    -2
100
AcDbLine
 10
4013.607505112642
 20
3047.603186516562
 30
0.0
 11
4013.607505112642
 21
3984.861531549466
 31
0.0
  0
LINE
  5
829C
330
8299
100
AcDbEntity
  8
3
 62
     0
370
    -2
100
AcDbLine
 10
4913.907505112644
 20
3887.535430868876
 30
0.0
 11
4913.907505112644
 21
3984.861531549466
 31
0.0
  0
LINE
  5
829D
330
8299
100
AcDbEntity
  8
3
 62
     0
370
    -2
100
AcDbLine
 10
4073.607505112643
 20
3954.861531549467
 30
0.0
 11
4853.907505112644
 21
3954.861531549467
 31
0.0
  0
INSERT
  5
829E
330
8299
100
AcDbEntity
  8
3
 62
     0
370
    -2
100
AcDbBlockReference
  2
_OPEN
 10
4013.607505112642
 20
3954.861531549467
 30
0.0
 41
60.0
 42
60.0
 43
60.0
 50
180.0
  0
INSERT
  5
829F
330
8299
100
AcDbEntity
  8
3
 62
     0
370
    -2
100
AcDbBlockReference
  2
_OPEN
 10
4913.907505112644
 20
3954.861531549467
 30
0.0
 41
60.0
 42
60.0
 43
60.0
  0
MTEXT
  5
82A0
330
8299
100
AcDbEntity
  8
3
 62
     0
100
AcDbMText
 10
4463.757505112643
 20
4053.432960120894
 30
0.0
 40
90.0
 41
0.0
 71
     5
 72
     1
  1
\A1;(900)
 73
     1
 44
1.0
1001
ACAD
1000
MTEXTBEGIN
1070
    73
1070
     1
1070
    44
1040
1.0
1070
    74
1070
     0
1000
MTEXTEND
  0
POINT
  5
82A1
330
8299
100
AcDbEntity
  8
DEFPOINTS
 62
     0
100
AcDbPoint
 10
4013.607505112642
 20
3032.603186516562
 30
0.0
  0
POINT
  5
82A2
330
8299
100
AcDbEntity
  8
DEFPOINTS
 62
     0
100
AcDbPoint
 10
4913.907505112644
 20
3872.535430868877
 30
0.0
  0
POINT
  5
82A3
330
8299
100
AcDbEntity
  8
DEFPOINTS
 62
     0
100
AcDbPoint
 10
4913.907505112644
 20
3954.861531549467
 30
0.0
  0
ENDBLK
  5
82A4
330
8299
100
AcDbEntity
  8
0
100
AcDbBlockEnd
  0
BLOCK
  5
82A6
330
82A5
100
AcDbEntity
  8
0
100
AcDbBlockBegin
  2
*D44
 70
     1
 10
0.0
 20
0.0
 30
0.0
  3
*D44
  1

  0
LINE
  5
82A7
330
82A5
100
AcDbEntity
  8
3
 62
     0
370
    -2
100
AcDbLine
 10
4913.907505112644
 20
3887.535430868876
 30
0.0
 11
4913.907505112644
 21
3984.861531549466
 31
0.0
  0
LINE
  5
82A8
330
82A5
100
AcDbEntity
  8
3
 62
     0
370
    -2
100
AcDbLine
 10
5573.707505112645
 20
2797.603186516562
 30
0.0
 11
5573.707505112645
 21
3984.861531549466
 31
0.0
  0
LINE
  5
82A9
330
82A5
100
AcDbEntity
  8
3
 62
     0
370
    -2
100
AcDbLine
 10
4973.907505112644
 20
3954.861531549467
 30
0.0
 11
5513.707505112645
 21
3954.861531549467
 31
0.0
  0
INSERT
  5
82AA
330
82A5
100
AcDbEntity
  8
3
 62
     0
370
    -2
100
AcDbBlockReference
  2
_OPEN
 10
4913.907505112644
 20
3954.861531549467
 30
0.0
 41
60.0
 42
60.0
 43
60.0
 50
180.0
  0
INSERT
  5
82AB
330
82A5
100
AcDbEntity
  8
3
 62
     0
370
    -2
100
AcDbBlockReference
  2
_OPEN
 10
5573.707505112645
 20
3954.861531549467
 30
0.0
 41
60.0
 42
60.0
 43
60.0
  0
MTEXT
  5
82AC
330
82A5
100
AcDbEntity
  8
3
 62
     0
100
AcDbMText
 10
5243.807505112645
 20
4053.432960120894
 30
0.0
 40
90.0
 41
0.0
 71
     5
 72
     1
  1
\A1;(660)
 73
     1
 44
1.0
1001
ACAD
1000
MTEXTBEGIN
1070
    73
1070
     1
1070
    44
1040
1.0
1070
    74
1070
     0
1000
MTEXTEND
  0
POINT
  5
82AD
330
82A5
100
AcDbEntity
  8
DEFPOINTS
 62
     0
100
AcDbPoint
 10
4913.907505112644
 20
3872.535430868877
 30
0.0
  0
POINT
  5
82AE
330
82A5
100
AcDbEntity
  8
DEFPOINTS
 62
     0
100
AcDbPoint
 10
5573.707505112645
 20
2782.603186516562
 30
0.0
  0
POINT
  5
82AF
330
82A5
100
AcDbEntity
  8
DEFPOINTS
 62
     0
100
AcDbPoint
 10
5573.707505112645
 20
3954.861531549467
 30
0.0
  0
ENDBLK
  5
82B0
330
82A5
100
AcDbEntity
  8
0
100
AcDbBlockEnd
  0
BLOCK
  5
82B2
330
82B1
100
AcDbEntity
  8
0
100
AcDbBlockBegin
  2
*D45
 70
     1
 10
0.0
 20
0.0
 30
0.0
  3
*D45
  1

  0
LINE
  5
82B3
330
82B1
100
AcDbEntity
  8
3
 62
     0
370
    -2
100
AcDbLine
 10
2116.460632366207
 20
3686.286519143806
 30
0.0
 11
2116.460632366207
 21
3883.612695763686
 31
0.0
  0
LINE
  5
82B4
330
82B1
100
AcDbEntity
  8
3
 62
     0
370
    -2
100
AcDbLine
 10
2792.460632366207
 20
2886.603186516563
 30
0.0
 11
2792.460632366207
 21
3883.612695763686
 31
0.0
  0
LINE
  5
82B5
330
82B1
100
AcDbEntity
  8
3
 62
     0
370
    -2
100
AcDbLine
 10
2176.460632366207
 20
3853.612695763686
 30
0.0
 11
2732.460632366207
 21
3853.612695763686
 31
0.0
  0
INSERT
  5
82B6
330
82B1
100
AcDbEntity
  8
3
 62
     0
370
    -2
100
AcDbBlockReference
  2
_OPEN
 10
2116.460632366207
 20
3853.612695763686
 30
0.0
 41
60.0
 42
60.0
 43
60.0
 50
180.0
  0
INSERT
  5
82B7
330
82B1
100
AcDbEntity
  8
3
 62
     0
370
    -2
100
AcDbBlockReference
  2
_OPEN
 10
2792.460632366207
 20
3853.612695763686
 30
0.0
 41
60.0
 42
60.0
 43
60.0
  0
MTEXT
  5
82B8
330
82B1
100
AcDbEntity
  8
3
 62
     0
100
AcDbMText
 10
2454.460632366207
 20
3928.612695763686
 30
0.0
 40
90.0
 41
0.0
 71
     5
 72
     1
  1
\A1;676
 73
     1
 44
1.0
1001
ACAD
1000
MTEXTBEGIN
1070
    73
1070
     1
1070
    44
1040
1.0
1070
    74
1070
     0
1000
MTEXTEND
  0
POINT
  5
82B9
330
82B1
100
AcDbEntity
  8
DEFPOINTS
 62
     0
100
AcDbPoint
 10
2116.460632366207
 20
3671.286519143805
 30
0.0
  0
POINT
  5
82BA
330
82B1
100
AcDbEntity
  8
DEFPOINTS
 62
     0
100
AcDbPoint
 10
2792.460632366207
 20
2871.603186516562
 30
0.0
  0
POINT
  5
82BB
330
82B1
100
AcDbEntity
  8
DEFPOINTS
 62
     0
100
AcDbPoint
 10
2792.460632366207
 20
3853.612695763686
 30
0.0
  0
ENDBLK
  5
82BC
330
82B1
100
AcDbEntity
  8
0
100
AcDbBlockEnd
  0
BLOCK
  5
846A
330
8469
100
AcDbEntity
  8
0
100
AcDbBlockBegin
  2
*D47
 70
     1
 10
0.0
 20
0.0
 30
0.0
  3
*D47
  1

  0
LINE
  5
855B
330
8469
100
AcDbEntity
  8
3
370
    -2
100
AcDbLine
 10
-3147.104496140085
 20
5651.178270517902
 30
0.0
 11
-2898.608652205767
 21
5651.178270517902
 31
0.0
  0
LINE
  5
855C
330
8469
100
AcDbEntity
  8
3
370
    -2
100
AcDbLine
 10
-3147.104496140085
 20
6451.178270517901
 30
0.0
 11
-2898.608652205767
 21
6451.178270517901
 31
0.0
  0
LINE
  5
855D
330
8469
100
AcDbEntity
  8
3
370
    -2
100
AcDbLine
 10
-2928.608652205767
 20
5711.178270517901
 30
0.0
 11
-2928.608652205767
 21
6391.178270517901
 31
0.0
  0
SOLID
  5
855E
330
8469
100
AcDbEntity
  8
3
100
AcDbTrace
 10
-2938.608652205767
 20
5711.178270517901
 30
0.0
 11
-2918.608652205767
 21
5711.178270517901
 31
0.0
 12
-2928.608652205767
 22
5651.178270517902
 32
0.0
 13
-2928.608652205767
 23
5651.178270517902
 33
0.0
  0
SOLID
  5
855F
330
8469
100
AcDbEntity
  8
3
100
AcDbTrace
 10
-2938.608652205767
 20
6391.178270517901
 30
0.0
 11
-2918.608652205767
 21
6391.178270517901
 31
0.0
 12
-2928.608652205767
 22
6451.178270517901
 32
0.0
 13
-2928.608652205767
 23
6451.178270517901
 33
0.0
  0
MTEXT
  5
8560
330
8469
100
AcDbEntity
  8
3
100
AcDbMText
 10
-2988.608652205768
 20
6051.1782705179
 30
0.0
 40
90.0
 41
0.0
 71
     5
 72
     1
  1
\A1;\U+03C6800
 11
0.0000000000000001
 21
1.0
 31
0.0
 73
     1
 44
1.0
1001
ACAD
1000
MTEXTBEGIN
1070
    73
1070
     1
1070
    44
1040
1.0
1070
    74
1070
     0
1000
MTEXTEND
  0
POINT
  5
8561
330
8469
100
AcDbEntity
  8
DEFPOINTS
 62
     0
100
AcDbPoint
 10
-3177.104496140085
 20
5651.178270517902
 30
0.0
  0
POINT
  5
8562
330
8469
100
AcDbEntity
  8
DEFPOINTS
 62
     0
100
AcDbPoint
 10
-3177.104496140085
 20
6451.178270517901
 30
0.0
  0
POINT
  5
8563
330
8469
100
AcDbEntity
  8
DEFPOINTS
 62
     0
100
AcDbPoint
 10
-2928.608652205767
 20
6451.178270517901
 30
0.0
  0
ENDBLK
  5
846B
330
8469
100
AcDbEntity
  8
0
100
AcDbBlockEnd
  0
BLOCK
  5
8476
330
8475
100
AcDbEntity
  8
0
100
AcDbBlockBegin
  2
*D48
 70
     1
 10
0.0
 20
0.0
 30
0.0
  3
*D48
  1

  0
LINE
  5
8564
330
8475
100
AcDbEntity
  8
3
370
    -2
100
AcDbLine
 10
-6006.851368886522
 20
9794.913570576021
 30
0.0
 11
-6006.851368886522
 21
10095.48548155988
 31
0.0
  0
LINE
  5
8565
330
8475
100
AcDbEntity
  8
3
370
    -2
100
AcDbLine
 10
-7006.851368886522
 20
9794.913570576021
 30
0.0
 11
-7006.851368886522
 21
10095.48548155988
 31
0.0
  0
LINE
  5
8566
330
8475
100
AcDbEntity
  8
3
370
    -2
100
AcDbLine
 10
-6066.851368886522
 20
10065.48548155988
 30
0.0
 11
-6946.851368886523
 21
10065.48548155988
 31
0.0
  0
SOLID
  5
8567
330
8475
100
AcDbEntity
  8
3
100
AcDbTrace
 10
-6066.851368886522
 20
10075.48548155988
 30
0.0
 11
-6066.851368886522
 21
10055.48548155988
 31
0.0
 12
-6006.851368886522
 22
10065.48548155988
 32
0.0
 13
-6006.851368886522
 23
10065.48548155988
 33
0.0
  0
SOLID
  5
8568
330
8475
100
AcDbEntity
  8
3
100
AcDbTrace
 10
-6946.851368886523
 20
10075.48548155988
 30
0.0
 11
-6946.851368886523
 21
10055.48548155988
 31
0.0
 12
-7006.851368886522
 22
10065.48548155988
 32
0.0
 13
-7006.851368886522
 23
10065.48548155988
 33
0.0
  0
MTEXT
  5
8569
330
8475
100
AcDbEntity
  8
3
100
AcDbMText
 10
-6506.851368886522
 20
10125.48548155988
 30
0.0
 40
90.0
 41
0.0
 71
     5
 72
     1
  1
\A1;1000
 73
     1
 44
1.0
1001
ACAD
1000
MTEXTBEGIN
1070
    73
1070
     1
1070
    44
1040
1.0
1070
    74
1070
     0
1000
MTEXTEND
  0
POINT
  5
856A
330
8475
100
AcDbEntity
  8
DEFPOINTS
 62
     0
100
AcDbPoint
 10
-6006.851368886522
 20
9764.91357057602
 30
0.0
  0
POINT
  5
856B
330
8475
100
AcDbEntity
  8
DEFPOINTS
 62
     0
100
AcDbPoint
 10
-7006.851368886522
 20
9764.91357057602
 30
0.0
  0
POINT
  5
856C
330
8475
100
AcDbEntity
  8
DEFPOINTS
 62
     0
100
AcDbPoint
 10
-7006.851368886522
 20
10065.48548155988
 30
0.0
  0
ENDBLK
  5
8477
330
8475
100
AcDbEntity
  8
0
100
AcDbBlockEnd
  0
BLOCK
  5
8482
330
8481
100
AcDbEntity
  8
0
100
AcDbBlockBegin
  2
*D49
 70
     1
 10
0.0
 20
0.0
 30
0.0
  3
*D49
  1

  0
LINE
  5
856D
330
8481
100
AcDbEntity
  8
3
370
    -2
100
AcDbLine
 10
-5156.851368886522
 20
9274.913570576019
 30
0.0
 11
-5156.851368886522
 21
10095.48548155988
 31
0.0
  0
LINE
  5
856E
330
8481
100
AcDbEntity
  8
3
370
    -2
100
AcDbLine
 10
-6006.851368886522
 20
9794.913570576021
 30
0.0
 11
-6006.851368886522
 21
10095.48548155988
 31
0.0
  0
LINE
  5
856F
330
8481
100
AcDbEntity
  8
3
370
    -2
100
AcDbLine
 10
-5216.851368886523
 20
10065.48548155988
 30
0.0
 11
-5946.851368886522
 21
10065.48548155988
 31
0.0
  0
SOLID
  5
8570
330
8481
100
AcDbEntity
  8
3
100
AcDbTrace
 10
-5216.851368886523
 20
10075.48548155988
 30
0.0
 11
-5216.851368886523
 21
10055.48548155988
 31
0.0
 12
-5156.851368886522
 22
10065.48548155988
 32
0.0
 13
-5156.851368886522
 23
10065.48548155988
 33
0.0
  0
SOLID
  5
8571
330
8481
100
AcDbEntity
  8
3
100
AcDbTrace
 10
-5946.851368886522
 20
10075.48548155988
 30
0.0
 11
-5946.851368886522
 21
10055.48548155988
 31
0.0
 12
-6006.851368886522
 22
10065.48548155988
 32
0.0
 13
-6006.851368886522
 23
10065.48548155988
 33
0.0
  0
MTEXT
  5
8572
330
8481
100
AcDbEntity
  8
3
100
AcDbMText
 10
-5581.851368886522
 20
10125.48548155988
 30
0.0
 40
90.0
 41
0.0
 71
     5
 72
     1
  1
\A1;850
 73
     1
 44
1.0
1001
ACAD
1000
MTEXTBEGIN
1070
    73
1070
     1
1070
    44
1040
1.0
1070
    74
1070
     0
1000
MTEXTEND
  0
POINT
  5
8573
330
8481
100
AcDbEntity
  8
DEFPOINTS
 62
     0
100
AcDbPoint
 10
-5156.851368886522
 20
9244.91357057602
 30
0.0
  0
POINT
  5
8574
330
8481
100
AcDbEntity
  8
DEFPOINTS
 62
     0
100
AcDbPoint
 10
-6006.851368886522
 20
9764.91357057602
 30
0.0
  0
POINT
  5
8575
330
8481
100
AcDbEntity
  8
DEFPOINTS
 62
     0
100
AcDbPoint
 10
-6006.851368886522
 20
10065.48548155988
 30
0.0
  0
ENDBLK
  5
8483
330
8481
100
AcDbEntity
  8
0
100
AcDbBlockEnd
  0
BLOCK
  5
848E
330
848D
100
AcDbEntity
  8
0
100
AcDbBlockBegin
  2
*D50
 70
     1
 10
0.0
 20
0.0
 30
0.0
  3
*D50
  1

  0
LINE
  5
8576
330
848D
100
AcDbEntity
  8
3
370
    -2
100
AcDbLine
 10
-7036.851368886522
 20
9764.91357057602
 30
0.0
 11
-7336.343287501448
 21
9764.91357057602
 31
0.0
  0
LINE
  5
8577
330
848D
100
AcDbEntity
  8
3
370
    -2
100
AcDbLine
 10
-7036.851368886522
 20
8444.913570576019
 30
0.0
 11
-7336.343287501448
 21
8444.913570576019
 31
0.0
  0
LINE
  5
8578
330
848D
100
AcDbEntity
  8
3
370
    -2
100
AcDbLine
 10
-7306.343287501448
 20
9704.913570576021
 30
0.0
 11
-7306.343287501448
 21
8504.91357057602
 31
0.0
  0
SOLID
  5
8579
330
848D
100
AcDbEntity
  8
3
100
AcDbTrace
 10
-7316.343287501448
 20
9704.913570576021
 30
0.0
 11
-7296.343287501447
 21
9704.913570576021
 31
0.0
 12
-7306.343287501448
 22
9764.91357057602
 32
0.0
 13
-7306.343287501448
 23
9764.91357057602
 33
0.0
  0
SOLID
  5
857A
330
848D
100
AcDbEntity
  8
3
100
AcDbTrace
 10
-7316.343287501448
 20
8504.91357057602
 30
0.0
 11
-7296.343287501447
 21
8504.91357057602
 31
0.0
 12
-7306.343287501448
 22
8444.913570576019
 32
0.0
 13
-7306.343287501448
 23
8444.913570576019
 33
0.0
  0
MTEXT
  5
857B
330
848D
100
AcDbEntity
  8
3
100
AcDbMText
 10
-7366.343287501449
 20
9104.913570576018
 30
0.0
 40
90.0
 41
0.0
 71
     5
 72
     1
  1
\A1;1320
 11
0.0000000000000001
 21
1.0
 31
0.0
 73
     1
 44
1.0
1001
ACAD
1000
MTEXTBEGIN
1070
    73
1070
     1
1070
    44
1040
1.0
1070
    74
1070
     0
1000
MTEXTEND
  0
POINT
  5
857C
330
848D
100
AcDbEntity
  8
DEFPOINTS
 62
     0
100
AcDbPoint
 10
-7006.851368886522
 20
9764.91357057602
 30
0.0
  0
POINT
  5
857D
330
848D
100
AcDbEntity
  8
DEFPOINTS
 62
     0
100
AcDbPoint
 10
-7006.851368886522
 20
8444.913570576019
 30
0.0
  0
POINT
  5
857E
330
848D
100
AcDbEntity
  8
DEFPOINTS
 62
     0
100
AcDbPoint
 10
-7306.343287501448
 20
8444.913570576019
 30
0.0
  0
ENDBLK
  5
848F
330
848D
100
AcDbEntity
  8
0
100
AcDbBlockEnd
  0
BLOCK
  5
849A
330
8499
100
AcDbEntity
  8
0
100
AcDbBlockBegin
  2
*D51
 70
     1
 10
0.0
 20
0.0
 30
0.0
  3
*D51
  1

  0
LINE
  5
857F
330
8499
100
AcDbEntity
  8
3
370
    -2
100
AcDbLine
 10
-5126.851368886523
 20
9244.91357057602
 30
0.0
 11
-4824.945305558427
 21
9244.91357057602
 31
0.0
  0
LINE
  5
8580
330
8499
100
AcDbEntity
  8
3
370
    -2
100
AcDbLine
 10
-5126.851368886523
 20
8444.913570576019
 30
0.0
 11
-4824.945305558427
 21
8444.913570576019
 31
0.0
  0
LINE
  5
8581
330
8499
100
AcDbEntity
  8
3
370
    -2
100
AcDbLine
 10
-4854.945305558427
 20
9184.91357057602
 30
0.0
 11
-4854.945305558427
 21
8504.91357057602
 31
0.0
  0
SOLID
  5
8582
330
8499
100
AcDbEntity
  8
3
100
AcDbTrace
 10
-4864.945305558427
 20
9184.91357057602
 30
0.0
 11
-4844.945305558427
 21
9184.91357057602
 31
0.0
 12
-4854.945305558427
 22
9244.91357057602
 32
0.0
 13
-4854.945305558427
 23
9244.91357057602
 33
0.0
  0
SOLID
  5
8583
330
8499
100
AcDbEntity
  8
3
100
AcDbTrace
 10
-4864.945305558427
 20
8504.91357057602
 30
0.0
 11
-4844.945305558427
 21
8504.91357057602
 31
0.0
 12
-4854.945305558427
 22
8444.913570576019
 32
0.0
 13
-4854.945305558427
 23
8444.913570576019
 33
0.0
  0
MTEXT
  5
8584
330
8499
100
AcDbEntity
  8
3
100
AcDbMText
 10
-4914.945305558428
 20
8844.913570576018
 30
0.0
 40
90.0
 41
0.0
 71
     5
 72
     1
  1
\A1;800
 11
0.0000000000000001
 21
1.0
 31
0.0
 73
     1
 44
1.0
1001
ACAD
1000
MTEXTBEGIN
1070
    73
1070
     1
1070
    44
1040
1.0
1070
    74
1070
     0
1000
MTEXTEND
  0
POINT
  5
8585
330
8499
100
AcDbEntity
  8
DEFPOINTS
 62
     0
100
AcDbPoint
 10
-5156.851368886522
 20
9244.91357057602
 30
0.0
  0
POINT
  5
8586
330
8499
100
AcDbEntity
  8
DEFPOINTS
 62
     0
100
AcDbPoint
 10
-5156.851368886522
 20
8444.913570576019
 30
0.0
  0
POINT
  5
8587
330
8499
100
AcDbEntity
  8
DEFPOINTS
 62
     0
100
AcDbPoint
 10
-4854.945305558427
 20
8444.913570576019
 30
0.0
  0
ENDBLK
  5
849B
330
8499
100
AcDbEntity
  8
0
100
AcDbBlockEnd
  0
BLOCK
  5
84A6
330
84A5
100
AcDbEntity
  8
0
100
AcDbBlockBegin
  2
*D52
 70
     1
 10
0.0
 20
0.0
 30
0.0
  3
*D52
  1

  0
LINE
  5
8588
330
84A5
100
AcDbEntity
  8
3
370
    -2
100
AcDbLine
 10
-5156.851368886522
 20
8414.91357057602
 30
0.0
 11
-5156.851368886522
 21
8072.739094879135
 31
0.0
  0
LINE
  5
8589
330
84A5
100
AcDbEntity
  8
3
370
    -2
100
AcDbLine
 10
-7006.851368886522
 20
8414.91357057602
 30
0.0
 11
-7006.851368886522
 21
8072.739094879135
 31
0.0
  0
LINE
  5
858A
330
84A5
100
AcDbEntity
  8
3
370
    -2
100
AcDbLine
 10
-5216.851368886523
 20
8102.739094879135
 30
0.0
 11
-5916.851368886522
 21
8102.739094879135
 31
0.0
  0
LINE
  5
858B
330
84A5
100
AcDbEntity
  8
3
370
    -2
100
AcDbLine
 10
-6946.851368886523
 20
8102.739094879135
 30
0.0
 11
-6246.851368886522
 21
8102.739094879135
 31
0.0
  0
MTEXT
  5
858C
330
84A5
100
AcDbEntity
  8
3
100
AcDbMText
 10
-6081.851368886522
 20
8102.739094879135
 30
0.0
 40
90.0
 41
0.0
 71
     5
 72
     1
  1
\A1;1850
 73
     1
 44
1.0
1001
ACAD
1000
MTEXTBEGIN
1070
    73
1070
     1
1070
    44
1040
1.0
1070
    74
1070
     0
1000
MTEXTEND
  0
SOLID
  5
858D
330
84A5
100
AcDbEntity
  8
3
100
AcDbTrace
 10
-5216.851368886523
 20
8112.739094879135
 30
0.0
 11
-5216.851368886523
 21
8092.739094879133
 31
0.0
 12
-5156.851368886522
 22
8102.739094879135
 32
0.0
 13
-5156.851368886522
 23
8102.739094879135
 33
0.0
  0
SOLID
  5
858E
330
84A5
100
AcDbEntity
  8
3
100
AcDbTrace
 10
-6946.851368886523
 20
8112.739094879135
 30
0.0
 11
-6946.851368886523
 21
8092.739094879133
 31
0.0
 12
-7006.851368886522
 22
8102.739094879135
 32
0.0
 13
-7006.851368886522
 23
8102.739094879135
 33
0.0
  0
POINT
  5
858F
330
84A5
100
AcDbEntity
  8
DEFPOINTS
 62
     0
100
AcDbPoint
 10
-5156.851368886522
 20
8444.913570576019
 30
0.0
  0
POINT
  5
8590
330
84A5
100
AcDbEntity
  8
DEFPOINTS
 62
     0
100
AcDbPoint
 10
-7006.851368886522
 20
8444.913570576019
 30
0.0
  0
POINT
  5
8591
330
84A5
100
AcDbEntity
  8
DEFPOINTS
 62
     0
100
AcDbPoint
 10
-7006.851368886522
 20
8102.739094879135
 30
0.0
  0
ENDBLK
  5
84A7
330
84A5
100
AcDbEntity
  8
0
100
AcDbBlockEnd
  0
BLOCK
  5
84B3
330
84B2
100
AcDbEntity
  8
0
100
AcDbBlockBegin
  2
*D53
 70
     1
 10
0.0
 20
0.0
 30
0.0
  3
*D53
  1

  0
LINE
  5
8592
330
84B2
100
AcDbEntity
  8
3
370
    -2
100
AcDbLine
 10
-4239.404496140084
 20
6929.178270517901
 30
0.0
 11
-4239.404496140084
 21
7036.110514870215
 31
0.0
  0
LINE
  5
8593
330
84B2
100
AcDbEntity
  8
3
370
    -2
100
AcDbLine
 10
-3179.404496140085
 20
6929.178270517901
 30
0.0
 11
-3179.404496140085
 21
7036.110514870215
 31
0.0
  0
LINE
  5
8594
330
84B2
100
AcDbEntity
  8
3
370
    -2
100
AcDbLine
 10
-4179.404496140084
 20
7006.110514870215
 30
0.0
 11
-3874.404496140085
 21
7006.110514870215
 31
0.0
  0
LINE
  5
8595
330
84B2
100
AcDbEntity
  8
3
370
    -2
100
AcDbLine
 10
-3239.404496140085
 20
7006.110514870215
 30
0.0
 11
-3544.404496140085
 21
7006.110514870215
 31
0.0
  0
MTEXT
  5
8596
330
84B2
100
AcDbEntity
  8
3
100
AcDbMText
 10
-3709.404496140086
 20
7006.110514870215
 30
0.0
 40
90.0
 41
0.0
 71
     5
 72
     1
  1
\A1;1060
 73
     1
 44
1.0
1001
ACAD
1000
MTEXTBEGIN
1070
    73
1070
     1
1070
    44
1040
1.0
1070
    74
1070
     0
1000
MTEXTEND
  0
SOLID
  5
8597
330
84B2
100
AcDbEntity
  8
3
100
AcDbTrace
 10
-4179.404496140084
 20
7016.110514870216
 30
0.0
 11
-4179.404496140084
 21
6996.110514870216
 31
0.0
 12
-4239.404496140084
 22
7006.110514870215
 32
0.0
 13
-4239.404496140084
 23
7006.110514870215
 33
0.0
  0
SOLID
  5
8598
330
84B2
100
AcDbEntity
  8
3
100
AcDbTrace
 10
-3239.404496140085
 20
7016.110514870216
 30
0.0
 11
-3239.404496140085
 21
6996.110514870216
 31
0.0
 12
-3179.404496140085
 22
7006.110514870215
 32
0.0
 13
-3179.404496140085
 23
7006.110514870215
 33
0.0
  0
POINT
  5
8599
330
84B2
100
AcDbEntity
  8
DEFPOINTS
 62
     0
100
AcDbPoint
 10
-4239.404496140084
 20
6899.178270517902
 30
0.0
  0
POINT
  5
859A
330
84B2
100
AcDbEntity
  8
DEFPOINTS
 62
     0
100
AcDbPoint
 10
-3179.404496140085
 20
6899.178270517902
 30
0.0
  0
POINT
  5
859B
330
84B2
100
AcDbEntity
  8
DEFPOINTS
 62
     0
100
AcDbPoint
 10
-3179.404496140085
 20
7006.110514870215
 30
0.0
  0
ENDBLK
  5
84B4
330
84B2
100
AcDbEntity
  8
0
100
AcDbBlockEnd
  0
BLOCK
  5
84C0
330
84BF
100
AcDbEntity
  8
0
100
AcDbBlockBegin
  2
*D54
 70
     1
 10
0.0
 20
0.0
 30
0.0
  3
*D54
  1

  0
LINE
  5
859C
330
84BF
100
AcDbEntity
  8
3
370
    -2
100
AcDbLine
 10
-7051.851368886523
 20
6971.678270517902
 30
0.0
 11
-7051.851368886523
 21
7286.672491185507
 31
0.0
  0
LINE
  5
859D
330
84BF
100
AcDbEntity
  8
3
370
    -2
100
AcDbLine
 10
-5156.851368886522
 20
5591.178270517901
 30
0.0
 11
-5156.851368886522
 21
7286.672491185507
 31
0.0
  0
LINE
  5
859E
330
84BF
100
AcDbEntity
  8
3
370
    -2
100
AcDbLine
 10
-6991.851368886521
 20
7256.672491185508
 30
0.0
 11
-5216.851368886523
 21
7256.672491185508
 31
0.0
  0
SOLID
  5
859F
330
84BF
100
AcDbEntity
  8
3
100
AcDbTrace
 10
-6991.851368886521
 20
7266.672491185507
 30
0.0
 11
-6991.851368886521
 21
7246.672491185506
 31
0.0
 12
-7051.851368886523
 22
7256.672491185508
 32
0.0
 13
-7051.851368886523
 23
7256.672491185508
 33
0.0
  0
SOLID
  5
85A0
330
84BF
100
AcDbEntity
  8
3
100
AcDbTrace
 10
-5216.851368886523
 20
7266.672491185507
 30
0.0
 11
-5216.851368886523
 21
7246.672491185506
 31
0.0
 12
-5156.851368886522
 22
7256.672491185508
 32
0.0
 13
-5156.851368886522
 23
7256.672491185508
 33
0.0
  0
MTEXT
  5
85A1
330
84BF
100
AcDbEntity
  8
3
100
AcDbMText
 10
-6104.351368886522
 20
7316.672491185506
 30
0.0
 40
90.0
 41
0.0
 71
     5
 72
     1
  1
\A1;1895
 73
     1
 44
1.0
1001
ACAD
1000
MTEXTBEGIN
1070
    73
1070
     1
1070
    44
1040
1.0
1070
    74
1070
     0
1000
MTEXTEND
  0
POINT
  5
85A2
330
84BF
100
AcDbEntity
  8
DEFPOINTS
 62
     0
100
AcDbPoint
 10
-7051.851368886523
 20
6941.678270517901
 30
0.0
  0
POINT
  5
85A3
330
84BF
100
AcDbEntity
  8
DEFPOINTS
 62
     0
100
AcDbPoint
 10
-5156.851368886522
 20
5561.178270517901
 30
0.0
  0
POINT
  5
85A4
330
84BF
100
AcDbEntity
  8
DEFPOINTS
 62
     0
100
AcDbPoint
 10
-5156.851368886522
 20
7256.672491185508
 30
0.0
  0
ENDBLK
  5
84C1
330
84BF
100
AcDbEntity
  8
0
100
AcDbBlockEnd
  0
BLOCK
  5
84CC
330
84CB
100
AcDbEntity
  8
0
100
AcDbBlockBegin
  2
*D55
 70
     1
 10
0.0
 20
0.0
 30
0.0
  3
*D55
  1

  0
LINE
  5
85A5
330
84CB
100
AcDbEntity
  8
3
 62
     0
370
    -2
100
AcDbLine
 10
-7006.851368886522
 20
5446.178270517901
 30
0.0
 11
-7006.851368886522
 21
5249.100982341512
 31
0.0
  0
LINE
  5
85A6
330
84CB
100
AcDbEntity
  8
3
 62
     0
370
    -2
100
AcDbLine
 10
-6506.851368886522
 20
5446.178270517901
 30
0.0
 11
-6506.851368886522
 21
5249.100982341512
 31
0.0
  0
LINE
  5
85A7
330
84CB
100
AcDbEntity
  8
3
 62
     0
370
    -2
100
AcDbLine
 10
-6946.851368886523
 20
5279.100982341511
 30
0.0
 11
-6566.851368886521
 21
5279.100982341511
 31
0.0
  0
SOLID
  5
85A8
330
84CB
100
AcDbEntity
  8
3
 62
     0
100
AcDbTrace
 10
-6946.851368886523
 20
5289.100982341512
 30
0.0
 11
-6946.851368886523
 21
5269.100982341512
 31
0.0
 12
-7006.851368886522
 22
5279.100982341511
 32
0.0
 13
-7006.851368886522
 23
5279.100982341511
 33
0.0
  0
SOLID
  5
85A9
330
84CB
100
AcDbEntity
  8
3
 62
     0
100
AcDbTrace
 10
-6566.851368886521
 20
5289.100982341512
 30
0.0
 11
-6566.851368886521
 21
5269.100982341512
 31
0.0
 12
-6506.851368886522
 22
5279.100982341511
 32
0.0
 13
-6506.851368886522
 23
5279.100982341511
 33
0.0
  0
MTEXT
  5
85AA
330
84CB
100
AcDbEntity
  8
3
 62
     0
100
AcDbMText
 10
-6756.851368886522
 20
5354.100982341511
 30
0.0
 40
90.0
 41
0.0
 71
     5
 72
     1
  1
\A1;500
 73
     1
 44
1.0
1001
ACAD
1000
MTEXTBEGIN
1070
    73
1070
     1
1070
    44
1040
1.0
1070
    74
1070
     0
1000
MTEXTEND
  0
POINT
  5
85AB
330
84CB
100
AcDbEntity
  8
DEFPOINTS
 62
     0
100
AcDbPoint
 10
-7006.851368886522
 20
5461.178270517901
 30
0.0
  0
POINT
  5
85AC
330
84CB
100
AcDbEntity
  8
DEFPOINTS
 62
     0
100
AcDbPoint
 10
-6506.851368886522
 20
5461.178270517901
 30
0.0
  0
POINT
  5
85AD
330
84CB
100
AcDbEntity
  8
DEFPOINTS
 62
     0
100
AcDbPoint
 10
-6506.851368886522
 20
5279.100982341511
 30
0.0
  0
ENDBLK
  5
84CD
330
84CB
100
AcDbEntity
  8
0
100
AcDbBlockEnd
  0
BLOCK
  5
84D8
330
84D7
100
AcDbEntity
  8
0
100
AcDbBlockBegin
  2
*D56
 70
     1
 10
0.0
 20
0.0
 30
0.0
  3
*D56
  1

  0
LINE
  5
85AE
330
84D7
100
AcDbEntity
  8
3
 62
     0
370
    -2
100
AcDbLine
 10
-6506.851368886522
 20
5446.178270517901
 30
0.0
 11
-6506.851368886522
 21
5249.100982341512
 31
0.0
  0
LINE
  5
85AF
330
84D7
100
AcDbEntity
  8
3
 62
     0
370
    -2
100
AcDbLine
 10
-5156.851368886522
 20
5446.178270517901
 30
0.0
 11
-5156.851368886522
 21
5249.100982341512
 31
0.0
  0
LINE
  5
85B0
330
84D7
100
AcDbEntity
  8
3
 62
     0
370
    -2
100
AcDbLine
 10
-6446.851368886523
 20
5279.100982341511
 30
0.0
 11
-5216.851368886523
 21
5279.100982341511
 31
0.0
  0
SOLID
  5
85B1
330
84D7
100
AcDbEntity
  8
3
 62
     0
100
AcDbTrace
 10
-6446.851368886523
 20
5289.100982341512
 30
0.0
 11
-6446.851368886523
 21
5269.100982341512
 31
0.0
 12
-6506.851368886522
 22
5279.100982341511
 32
0.0
 13
-6506.851368886522
 23
5279.100982341511
 33
0.0
  0
SOLID
  5
85B2
330
84D7
100
AcDbEntity
  8
3
 62
     0
100
AcDbTrace
 10
-5216.851368886523
 20
5289.100982341512
 30
0.0
 11
-5216.851368886523
 21
5269.100982341512
 31
0.0
 12
-5156.851368886522
 22
5279.100982341511
 32
0.0
 13
-5156.851368886522
 23
5279.100982341511
 33
0.0
  0
MTEXT
  5
85B3
330
84D7
100
AcDbEntity
  8
3
 62
     0
100
AcDbMText
 10
-5831.851368886522
 20
5354.100982341511
 30
0.0
 40
90.0
 41
0.0
 71
     5
 72
     1
  1
\A1;1350
 73
     1
 44
1.0
1001
ACAD
1000
MTEXTBEGIN
1070
    73
1070
     1
1070
    44
1040
1.0
1070
    74
1070
     0
1000
MTEXTEND
  0
POINT
  5
85B4
330
84D7
100
AcDbEntity
  8
DEFPOINTS
 62
     0
100
AcDbPoint
 10
-6506.851368886522
 20
5461.178270517901
 30
0.0
  0
POINT
  5
85B5
330
84D7
100
AcDbEntity
  8
DEFPOINTS
 62
     0
100
AcDbPoint
 10
-5156.851368886522
 20
5461.178270517901
 30
0.0
  0
POINT
  5
85B6
330
84D7
100
AcDbEntity
  8
DEFPOINTS
 62
     0
100
AcDbPoint
 10
-5156.851368886522
 20
5279.100982341511
 30
0.0
  0
ENDBLK
  5
84D9
330
84D7
100
AcDbEntity
  8
0
100
AcDbBlockEnd
  0
BLOCK
  5
84E4
330
84E3
100
AcDbEntity
  8
0
100
AcDbBlockBegin
  2
*D57
 70
     1
 10
0.0
 20
0.0
 30
0.0
  3
*D57
  1

  0
LINE
  5
85B7
330
84E3
100
AcDbEntity
  8
3
 62
     0
370
    -2
100
AcDbLine
 10
-4446.404496140085
 20
5446.178270517901
 30
0.0
 11
-4446.404496140085
 21
5249.100982341512
 31
0.0
  0
LINE
  5
85B8
330
84E3
100
AcDbEntity
  8
3
 62
     0
370
    -2
100
AcDbLine
 10
-3709.404496140084
 20
5446.178270517901
 30
0.0
 11
-3709.404496140084
 21
5249.100982341512
 31
0.0
  0
LINE
  5
85B9
330
84E3
100
AcDbEntity
  8
3
 62
     0
370
    -2
100
AcDbLine
 10
-4386.404496140085
 20
5279.100982341511
 30
0.0
 11
-3769.404496140084
 21
5279.100982341511
 31
0.0
  0
SOLID
  5
85BA
330
84E3
100
AcDbEntity
  8
3
 62
     0
100
AcDbTrace
 10
-4386.404496140085
 20
5289.100982341512
 30
0.0
 11
-4386.404496140085
 21
5269.100982341512
 31
0.0
 12
-4446.404496140085
 22
5279.100982341511
 32
0.0
 13
-4446.404496140085
 23
5279.100982341511
 33
0.0
  0
SOLID
  5
85BB
330
84E3
100
AcDbEntity
  8
3
 62
     0
100
AcDbTrace
 10
-3769.404496140084
 20
5289.100982341512
 30
0.0
 11
-3769.404496140084
 21
5269.100982341512
 31
0.0
 12
-3709.404496140084
 22
5279.100982341511
 32
0.0
 13
-3709.404496140084
 23
5279.100982341511
 33
0.0
  0
MTEXT
  5
85BC
330
84E3
100
AcDbEntity
  8
3
 62
     0
100
AcDbMText
 10
-4077.904496140084
 20
5354.100982341511
 30
0.0
 40
90.0
 41
0.0
 71
     5
 72
     1
  1
\A1;737
 73
     1
 44
1.0
1001
ACAD
1000
MTEXTBEGIN
1070
    73
1070
     1
1070
    44
1040
1.0
1070
    74
1070
     0
1000
MTEXTEND
  0
POINT
  5
85BD
330
84E3
100
AcDbEntity
  8
DEFPOINTS
 62
     0
100
AcDbPoint
 10
-4446.404496140085
 20
5461.178270517901
 30
0.0
  0
POINT
  5
85BE
330
84E3
100
AcDbEntity
  8
DEFPOINTS
 62
     0
100
AcDbPoint
 10
-3709.404496140084
 20
5461.178270517901
 30
0.0
  0
POINT
  5
85BF
330
84E3
100
AcDbEntity
  8
DEFPOINTS
 62
     0
100
AcDbPoint
 10
-3709.404496140084
 20
5279.100982341511
 30
0.0
  0
ENDBLK
  5
84E5
330
84E3
100
AcDbEntity
  8
0
100
AcDbBlockEnd
  0
BLOCK
  5
84F0
330
84EF
100
AcDbEntity
  8
0
100
AcDbBlockBegin
  2
*D58
 70
     1
 10
0.0
 20
0.0
 30
0.0
  3
*D58
  1

  0
LINE
  5
85C0
330
84EF
100
AcDbEntity
  8
3
 62
     0
370
    -2
100
AcDbLine
 10
-3709.404496140084
 20
5446.178270517901
 30
0.0
 11
-3709.404496140084
 21
5249.100982341512
 31
0.0
  0
LINE
  5
85C1
330
84EF
100
AcDbEntity
  8
3
 62
     0
370
    -2
100
AcDbLine
 10
-3126.404496140085
 20
5446.178270517901
 30
0.0
 11
-3126.404496140085
 21
5249.100982341512
 31
0.0
  0
LINE
  5
85C2
330
84EF
100
AcDbEntity
  8
3
 62
     0
370
    -2
100
AcDbLine
 10
-3649.404496140084
 20
5279.100982341511
 30
0.0
 11
-3186.404496140085
 21
5279.100982341511
 31
0.0
  0
SOLID
  5
85C3
330
84EF
100
AcDbEntity
  8
3
 62
     0
100
AcDbTrace
 10
-3649.404496140084
 20
5289.100982341512
 30
0.0
 11
-3649.404496140084
 21
5269.100982341512
 31
0.0
 12
-3709.404496140084
 22
5279.100982341511
 32
0.0
 13
-3709.404496140084
 23
5279.100982341511
 33
0.0
  0
SOLID
  5
85C4
330
84EF
100
AcDbEntity
  8
3
 62
     0
100
AcDbTrace
 10
-3186.404496140085
 20
5289.100982341512
 30
0.0
 11
-3186.404496140085
 21
5269.100982341512
 31
0.0
 12
-3126.404496140085
 22
5279.100982341511
 32
0.0
 13
-3126.404496140085
 23
5279.100982341511
 33
0.0
  0
MTEXT
  5
85C5
330
84EF
100
AcDbEntity
  8
3
 62
     0
100
AcDbMText
 10
-3417.904496140085
 20
5354.100982341511
 30
0.0
 40
90.0
 41
0.0
 71
     5
 72
     1
  1
\A1;583
 73
     1
 44
1.0
1001
ACAD
1000
MTEXTBEGIN
1070
    73
1070
     1
1070
    44
1040
1.0
1070
    74
1070
     0
1000
MTEXTEND
  0
POINT
  5
85C6
330
84EF
100
AcDbEntity
  8
DEFPOINTS
 62
     0
100
AcDbPoint
 10
-3709.404496140084
 20
5461.178270517901
 30
0.0
  0
POINT
  5
85C7
330
84EF
100
AcDbEntity
  8
DEFPOINTS
 62
     0
100
AcDbPoint
 10
-3126.404496140085
 20
5461.178270517901
 30
0.0
  0
POINT
  5
85C8
330
84EF
100
AcDbEntity
  8
DEFPOINTS
 62
     0
100
AcDbPoint
 10
-3126.404496140085
 20
5279.100982341511
 30
0.0
  0
ENDBLK
  5
84F1
330
84EF
100
AcDbEntity
  8
0
100
AcDbBlockEnd
  0
BLOCK
  5
84FC
330
84FB
100
AcDbEntity
  8
0
100
AcDbBlockBegin
  2
*D59
 70
     1
 10
0.0
 20
0.0
 30
0.0
  3
*D59
  1

  0
LINE
  5
85C9
330
84FB
100
AcDbEntity
  8
3
 62
     0
370
    -2
100
AcDbLine
 10
-7066.851368886521
 20
6899.178270517902
 30
0.0
 11
-7540.877682883953
 21
6899.178270517902
 31
0.0
  0
LINE
  5
85CA
330
84FB
100
AcDbEntity
  8
3
 62
     0
370
    -2
100
AcDbLine
 10
-7021.851368886522
 20
5461.178270517901
 30
0.0
 11
-7540.877682883955
 21
5461.178270517901
 31
0.0
  0
LINE
  5
85CB
330
84FB
100
AcDbEntity
  8
3
 62
     0
370
    -2
100
AcDbLine
 10
-7510.877682883954
 20
6839.178270517901
 30
0.0
 11
-7510.877682883955
 21
5521.178270517901
 31
0.0
  0
SOLID
  5
85CC
330
84FB
100
AcDbEntity
  8
3
 62
     0
100
AcDbTrace
 10
-7520.877682883953
 20
6839.178270517901
 30
0.0
 11
-7500.877682883954
 21
6839.178270517901
 31
0.0
 12
-7510.877682883954
 22
6899.178270517902
 32
0.0
 13
-7510.877682883954
 23
6899.178270517902
 33
0.0
  0
SOLID
  5
85CD
330
84FB
100
AcDbEntity
  8
3
 62
     0
100
AcDbTrace
 10
-7520.877682883955
 20
5521.178270517901
 30
0.0
 11
-7500.877682883954
 21
5521.178270517901
 31
0.0
 12
-7510.877682883955
 22
5461.178270517901
 32
0.0
 13
-7510.877682883955
 23
5461.178270517901
 33
0.0
  0
MTEXT
  5
85CE
330
84FB
100
AcDbEntity
  8
3
 62
     0
100
AcDbMText
 10
-7585.877682883955
 20
6180.1782705179
 30
0.0
 40
90.0
 41
0.0
 71
     5
 72
     1
  1
\A1;1438
 11
0.0000000000000001
 21
1.0
 31
0.0
 73
     1
 44
1.0
1001
ACAD
1000
MTEXTBEGIN
1070
    73
1070
     1
1070
    44
1040
1.0
1070
    74
1070
     0
1000
MTEXTEND
  0
POINT
  5
85CF
330
84FB
100
AcDbEntity
  8
DEFPOINTS
 62
     0
100
AcDbPoint
 10
-7051.851368886523
 20
6899.178270517902
 30
0.0
  0
POINT
  5
85D0
330
84FB
100
AcDbEntity
  8
DEFPOINTS
 62
     0
100
AcDbPoint
 10
-7006.851368886522
 20
5461.178270517901
 30
0.0
  0
POINT
  5
85D1
330
84FB
100
AcDbEntity
  8
DEFPOINTS
 62
     0
100
AcDbPoint
 10
-7510.877682883955
 20
5461.178270517901
 30
0.0
  0
ENDBLK
  5
84FD
330
84FB
100
AcDbEntity
  8
0
100
AcDbBlockEnd
  0
BLOCK
  5
8508
330
8507
100
AcDbEntity
  8
0
100
AcDbBlockBegin
  2
*D60
 70
     1
 10
0.0
 20
0.0
 30
0.0
  3
*D60
  1

  0
LINE
  5
85D2
330
8507
100
AcDbEntity
  8
3
 62
     0
370
    -2
100
AcDbLine
 10
-4609.704496140086
 20
6286.178270517901
 30
0.0
 11
-4609.704496140086
 21
7223.436615550806
 31
0.0
  0
LINE
  5
85D3
330
8507
100
AcDbEntity
  8
3
 62
     0
370
    -2
100
AcDbLine
 10
-3709.404496140086
 20
7126.110514870216
 30
0.0
 11
-3709.404496140086
 21
7223.436615550806
 31
0.0
  0
LINE
  5
85D4
330
8507
100
AcDbEntity
  8
3
 62
     0
370
    -2
100
AcDbLine
 10
-4549.704496140086
 20
7193.436615550806
 30
0.0
 11
-3769.404496140085
 21
7193.436615550806
 31
0.0
  0
SOLID
  5
85D5
330
8507
100
AcDbEntity
  8
3
 62
     0
100
AcDbTrace
 10
-4549.704496140086
 20
7203.436615550805
 30
0.0
 11
-4549.704496140086
 21
7183.436615550805
 31
0.0
 12
-4609.704496140086
 22
7193.436615550806
 32
0.0
 13
-4609.704496140086
 23
7193.436615550806
 33
0.0
  0
SOLID
  5
85D6
330
8507
100
AcDbEntity
  8
3
 62
     0
100
AcDbTrace
 10
-3769.404496140085
 20
7203.436615550805
 30
0.0
 11
-3769.404496140085
 21
7183.436615550805
 31
0.0
 12
-3709.404496140086
 22
7193.436615550806
 32
0.0
 13
-3709.404496140086
 23
7193.436615550806
 33
0.0
  0
MTEXT
  5
85D7
330
8507
100
AcDbEntity
  8
3
 62
     0
100
AcDbMText
 10
-4159.554496140085
 20
7292.008044122233
 30
0.0
 40
90.0
 41
0.0
 71
     5
 72
     1
  1
\A1;(900)
 73
     1
 44
1.0
1001
ACAD
1000
MTEXTBEGIN
1070
    73
1070
     1
1070
    44
1040
1.0
1070
    74
1070
     0
1000
MTEXTEND
  0
POINT
  5
85D8
330
8507
100
AcDbEntity
  8
DEFPOINTS
 62
     0
100
AcDbPoint
 10
-4609.704496140086
 20
6271.178270517901
 30
0.0
  0
POINT
  5
85D9
330
8507
100
AcDbEntity
  8
DEFPOINTS
 62
     0
100
AcDbPoint
 10
-3709.404496140086
 20
7111.110514870215
 30
0.0
  0
POINT
  5
85DA
330
8507
100
AcDbEntity
  8
DEFPOINTS
 62
     0
100
AcDbPoint
 10
-3709.404496140086
 20
7193.436615550806
 30
0.0
  0
ENDBLK
  5
8509
330
8507
100
AcDbEntity
  8
0
100
AcDbBlockEnd
  0
BLOCK
  5
8514
330
8513
100
AcDbEntity
  8
0
100
AcDbBlockBegin
  2
*D61
 70
     1
 10
0.0
 20
0.0
 30
0.0
  3
*D61
  1

  0
LINE
  5
85DB
330
8513
100
AcDbEntity
  8
3
 62
     0
370
    -2
100
AcDbLine
 10
-3709.404496140086
 20
7126.110514870216
 30
0.0
 11
-3709.404496140086
 21
7223.436615550806
 31
0.0
  0
LINE
  5
85DC
330
8513
100
AcDbEntity
  8
3
 62
     0
370
    -2
100
AcDbLine
 10
-3049.604496140084
 20
6036.178270517901
 30
0.0
 11
-3049.604496140084
 21
7223.436615550806
 31
0.0
  0
LINE
  5
85DD
330
8513
100
AcDbEntity
  8
3
 62
     0
370
    -2
100
AcDbLine
 10
-3649.404496140085
 20
7193.436615550806
 30
0.0
 11
-3109.604496140084
 21
7193.436615550806
 31
0.0
  0
SOLID
  5
85DE
330
8513
100
AcDbEntity
  8
3
 62
     0
100
AcDbTrace
 10
-3649.404496140085
 20
7203.436615550805
 30
0.0
 11
-3649.404496140085
 21
7183.436615550805
 31
0.0
 12
-3709.404496140086
 22
7193.436615550806
 32
0.0
 13
-3709.404496140086
 23
7193.436615550806
 33
0.0
  0
SOLID
  5
85DF
330
8513
100
AcDbEntity
  8
3
 62
     0
100
AcDbTrace
 10
-3109.604496140084
 20
7203.436615550805
 30
0.0
 11
-3109.604496140084
 21
7183.436615550805
 31
0.0
 12
-3049.604496140084
 22
7193.436615550806
 32
0.0
 13
-3049.604496140084
 23
7193.436615550806
 33
0.0
  0
MTEXT
  5
85E0
330
8513
100
AcDbEntity
  8
3
 62
     0
100
AcDbMText
 10
-3379.504496140085
 20
7292.008044122233
 30
0.0
 40
90.0
 41
0.0
 71
     5
 72
     1
  1
\A1;(660)
 73
     1
 44
1.0
1001
ACAD
1000
MTEXTBEGIN
1070
    73
1070
     1
1070
    44
1040
1.0
1070
    74
1070
     0
1000
MTEXTEND
  0
POINT
  5
85E1
330
8513
100
AcDbEntity
  8
DEFPOINTS
 62
     0
100
AcDbPoint
 10
-3709.404496140086
 20
7111.110514870215
 30
0.0
  0
POINT
  5
85E2
330
8513
100
AcDbEntity
  8
DEFPOINTS
 62
     0
100
AcDbPoint
 10
-3049.604496140084
 20
6021.1782705179
 30
0.0
  0
POINT
  5
85E3
330
8513
100
AcDbEntity
  8
DEFPOINTS
 62
     0
100
AcDbPoint
 10
-3049.604496140084
 20
7193.436615550806
 30
0.0
  0
ENDBLK
  5
8515
330
8513
100
AcDbEntity
  8
0
100
AcDbBlockEnd
  0
BLOCK
  5
8520
330
851F
100
AcDbEntity
  8
0
100
AcDbBlockBegin
  2
*D62
 70
     1
 10
0.0
 20
0.0
 30
0.0
  3
*D62
  1

  0
LINE
  5
85E4
330
851F
100
AcDbEntity
  8
3
 62
     0
370
    -2
100
AcDbLine
 10
-6506.851368886522
 20
6924.861603145143
 30
0.0
 11
-6506.851368886522
 21
7122.187779765025
 31
0.0
  0
LINE
  5
85E5
330
851F
100
AcDbEntity
  8
3
 62
     0
370
    -2
100
AcDbLine
 10
-5830.851368886523
 20
6125.178270517901
 30
0.0
 11
-5830.851368886523
 21
7122.187779765025
 31
0.0
  0
LINE
  5
85E6
330
851F
100
AcDbEntity
  8
3
 62
     0
370
    -2
100
AcDbLine
 10
-6446.851368886523
 20
7092.187779765025
 30
0.0
 11
-5890.851368886522
 21
7092.187779765025
 31
0.0
  0
SOLID
  5
85E7
330
851F
100
AcDbEntity
  8
3
 62
     0
100
AcDbTrace
 10
-6446.851368886523
 20
7102.187779765024
 30
0.0
 11
-6446.851368886523
 21
7082.187779765025
 31
0.0
 12
-6506.851368886522
 22
7092.187779765025
 32
0.0
 13
-6506.851368886522
 23
7092.187779765025
 33
0.0
  0
SOLID
  5
85E8
330
851F
100
AcDbEntity
  8
3
 62
     0
100
AcDbTrace
 10
-5890.851368886522
 20
7102.187779765024
 30
0.0
 11
-5890.851368886522
 21
7082.187779765025
 31
0.0
 12
-5830.851368886523
 22
7092.187779765025
 32
0.0
 13
-5830.851368886523
 23
7092.187779765025
 33
0.0
  0
MTEXT
  5
85E9
330
851F
100
AcDbEntity
  8
3
 62
     0
100
AcDbMText
 10
-6168.851368886522
 20
7167.187779765026
 30
0.0
 40
90.0
 41
0.0
 71
     5
 72
     1
  1
\A1;676
 73
     1
 44
1.0
1001
ACAD
1000
MTEXTBEGIN
1070
    73
1070
     1
1070
    44
1040
1.0
1070
    74
1070
     0
1000
MTEXTEND
  0
POINT
  5
85EA
330
851F
100
AcDbEntity
  8
DEFPOINTS
 62
     0
100
AcDbPoint
 10
-6506.851368886522
 20
6909.861603145144
 30
0.0
  0
POINT
  5
85EB
330
851F
100
AcDbEntity
  8
DEFPOINTS
 62
     0
100
AcDbPoint
 10
-5830.851368886523
 20
6110.178270517901
 30
0.0
  0
POINT
  5
85EC
330
851F
100
AcDbEntity
  8
DEFPOINTS
 62
     0
100
AcDbPoint
 10
-5830.851368886523
 20
7092.187779765025
 30
0.0
  0
ENDBLK
  5
8521
330
851F
100
AcDbEntity
  8
0
100
AcDbBlockEnd
  0
BLOCK
  5
852C
330
852B
100
AcDbEntity
  8
0
100
AcDbBlockBegin
  2
*D63
 70
     1
 10
0.0
 20
0.0
 30
0.0
  3
*D63
  1

  0
LINE
  5
85ED
330
852B
100
AcDbEntity
  8
3
370
    -2
100
AcDbLine
 10
-7081.851368886522
 20
6899.178270517902
 30
0.0
 11
-7230.196712428585
 21
6899.178270517902
 31
0.0
  0
LINE
  5
85EE
330
852B
100
AcDbEntity
  8
3
370
    -2
100
AcDbLine
 10
-7081.851368886522
 20
6074.178270517901
 30
0.0
 11
-7230.196712428585
 21
6074.178270517901
 31
0.0
  0
LINE
  5
85EF
330
852B
100
AcDbEntity
  8
3
370
    -2
100
AcDbLine
 10
-7200.196712428585
 20
6839.178270517901
 30
0.0
 11
-7200.196712428585
 21
6134.178270517901
 31
0.0
  0
SOLID
  5
85F0
330
852B
100
AcDbEntity
  8
3
100
AcDbTrace
 10
-7210.196712428585
 20
6839.178270517901
 30
0.0
 11
-7190.196712428584
 21
6839.178270517901
 31
0.0
 12
-7200.196712428585
 22
6899.178270517902
 32
0.0
 13
-7200.196712428585
 23
6899.178270517902
 33
0.0
  0
SOLID
  5
85F1
330
852B
100
AcDbEntity
  8
3
100
AcDbTrace
 10
-7210.196712428587
 20
6134.178270517901
 30
0.0
 11
-7190.196712428586
 21
6134.178270517901
 31
0.0
 12
-7200.196712428585
 22
6074.178270517901
 32
0.0
 13
-7200.196712428585
 23
6074.178270517901
 33
0.0
  0
MTEXT
  5
85F2
330
852B
100
AcDbEntity
  8
3
100
AcDbMText
 10
-7260.196712428586
 20
6486.678270517899
 30
0.0
 40
90.0
 41
0.0
 71
     5
 72
     1
  1
\A1;825
 11
0.0000000000000001
 21
1.0
 31
0.0
 73
     1
 44
1.0
1001
ACAD
1000
MTEXTBEGIN
1070
    73
1070
     1
1070
    44
1040
1.0
1070
    74
1070
     0
1000
MTEXTEND
  0
POINT
  5
85F3
330
852B
100
AcDbEntity
  8
DEFPOINTS
 62
     0
100
AcDbPoint
 10
-7051.851368886523
 20
6899.178270517902
 30
0.0
  0
POINT
  5
85F4
330
852B
100
AcDbEntity
  8
DEFPOINTS
 62
     0
100
AcDbPoint
 10
-7051.851368886523
 20
6074.178270517901
 30
0.0
  0
POINT
  5
85F5
330
852B
100
AcDbEntity
  8
DEFPOINTS
 62
     0
100
AcDbPoint
 10
-7200.196712428585
 20
6074.178270517901
 30
0.0
  0
ENDBLK
  5
852D
330
852B
100
AcDbEntity
  8
0
100
AcDbBlockEnd
  0
BLOCK
  5
8538
330
8537
100
AcDbEntity
  8
0
100
AcDbBlockBegin
  2
*D64
 70
     1
 10
0.0
 20
0.0
 30
0.0
  3
*D64
  1

  0
LINE
  5
85F6
330
8537
100
AcDbEntity
  8
3
370
    -2
100
AcDbLine
 10
-7081.851368886522
 20
6899.178270517902
 30
0.0
 11
-7382.480115002387
 21
6899.178270517902
 31
0.0
  0
LINE
  5
85F7
330
8537
100
AcDbEntity
  8
3
370
    -2
100
AcDbLine
 10
-7203.323160736913
 20
6051.178270517901
 30
0.0
 11
-7382.480115002389
 21
6051.178270517901
 31
0.0
  0
LINE
  5
85F8
330
8537
100
AcDbEntity
  8
3
370
    -2
100
AcDbLine
 10
-7352.480115002387
 20
6839.178270517901
 30
0.0
 11
-7352.480115002389
 21
6111.178270517901
 31
0.0
  0
SOLID
  5
85F9
330
8537
100
AcDbEntity
  8
3
100
AcDbTrace
 10
-7362.480115002388
 20
6839.178270517901
 30
0.0
 11
-7342.480115002388
 21
6839.178270517901
 31
0.0
 12
-7352.480115002387
 22
6899.178270517902
 32
0.0
 13
-7352.480115002387
 23
6899.178270517902
 33
0.0
  0
SOLID
  5
85FA
330
8537
100
AcDbEntity
  8
3
100
AcDbTrace
 10
-7362.480115002388
 20
6111.178270517901
 30
0.0
 11
-7342.480115002388
 21
6111.178270517901
 31
0.0
 12
-7352.480115002389
 22
6051.178270517901
 32
0.0
 13
-7352.480115002389
 23
6051.178270517901
 33
0.0
  0
MTEXT
  5
85FB
330
8537
100
AcDbEntity
  8
3
100
AcDbMText
 10
-7412.48011500239
 20
6475.1782705179
 30
0.0
 40
90.0
 41
0.0
 71
     5
 72
     1
  1
\A1;848
 11
0.0000000000000001
 21
1.0
 31
0.0
 73
     1
 44
1.0
1001
ACAD
1000
MTEXTBEGIN
1070
    73
1070
     1
1070
    44
1040
1.0
1070
    74
1070
     0
1000
MTEXTEND
  0
POINT
  5
85FC
330
8537
100
AcDbEntity
  8
DEFPOINTS
 62
     0
100
AcDbPoint
 10
-7051.851368886523
 20
6899.178270517902
 30
0.0
  0
POINT
  5
85FD
330
8537
100
AcDbEntity
  8
DEFPOINTS
 62
     0
100
AcDbPoint
 10
-7173.323160736912
 20
6051.178270517901
 30
0.0
  0
POINT
  5
85FE
330
8537
100
AcDbEntity
  8
DEFPOINTS
 62
     0
100
AcDbPoint
 10
-7352.480115002389
 20
6051.178270517901
 30
0.0
  0
ENDBLK
  5
8539
330
8537
100
AcDbEntity
  8
0
100
AcDbBlockEnd
  0
BLOCK
  5
8544
330
8543
100
AcDbEntity
  8
0
100
AcDbBlockBegin
  2
*D65
 70
     1
 10
0.0
 20
0.0
 30
0.0
  3
*D65
  1

  0
LINE
  5
85FF
330
8543
100
AcDbEntity
  8
3
370
    -2
100
AcDbLine
 10
-7203.323160736913
 20
6051.178270517901
 30
0.0
 11
-7383.121026064451
 21
6051.178270517901
 31
0.0
  0
LINE
  5
8600
330
8543
100
AcDbEntity
  8
3
370
    -2
100
AcDbLine
 10
-7036.851368886522
 20
5461.178270517901
 30
0.0
 11
-7383.121026064451
 21
5461.178270517901
 31
0.0
  0
LINE
  5
8601
330
8543
100
AcDbEntity
  8
3
370
    -2
100
AcDbLine
 10
-7353.121026064451
 20
5991.178270517901
 30
0.0
 11
-7353.121026064451
 21
5521.178270517901
 31
0.0
  0
SOLID
  5
8602
330
8543
100
AcDbEntity
  8
3
100
AcDbTrace
 10
-7363.121026064451
 20
5991.178270517901
 30
0.0
 11
-7343.121026064451
 21
5991.178270517901
 31
0.0
 12
-7353.121026064451
 22
6051.178270517901
 32
0.0
 13
-7353.121026064451
 23
6051.178270517901
 33
0.0
  0
SOLID
  5
8603
330
8543
100
AcDbEntity
  8
3
100
AcDbTrace
 10
-7363.121026064451
 20
5521.178270517901
 30
0.0
 11
-7343.121026064451
 21
5521.178270517901
 31
0.0
 12
-7353.121026064451
 22
5461.178270517901
 32
0.0
 13
-7353.121026064451
 23
5461.178270517901
 33
0.0
  0
MTEXT
  5
8604
330
8543
100
AcDbEntity
  8
3
100
AcDbMText
 10
-7413.121026064452
 20
5756.178270517899
 30
0.0
 40
90.0
 41
0.0
 71
     5
 72
     1
  1
\A1;590
 11
0.0000000000000001
 21
1.0
 31
0.0
 73
     1
 44
1.0
1001
ACAD
1000
MTEXTBEGIN
1070
    73
1070
     1
1070
    44
1040
1.0
1070
    74
1070
     0
1000
MTEXTEND
  0
POINT
  5
8605
330
8543
100
AcDbEntity
  8
DEFPOINTS
 62
     0
100
AcDbPoint
 10
-7173.323160736912
 20
6051.178270517901
 30
0.0
  0
POINT
  5
8606
330
8543
100
AcDbEntity
  8
DEFPOINTS
 62
     0
100
AcDbPoint
 10
-7006.851368886522
 20
5461.178270517901
 30
0.0
  0
POINT
  5
8607
330
8543
100
AcDbEntity
  8
DEFPOINTS
 62
     0
100
AcDbPoint
 10
-7353.121026064451
 20
5461.178270517901
 30
0.0
  0
ENDBLK
  5
8545
330
8543
100
AcDbEntity
  8
0
100
AcDbBlockEnd
  0
BLOCK
  5
8550
330
854F
100
AcDbEntity
  8
0
100
AcDbBlockBegin
  2
*D66
 70
     1
 10
0.0
 20
0.0
 30
0.0
  3
*D66
  1

  0
LINE
  5
8608
330
854F
100
AcDbEntity
  8
3
370
    -2
100
AcDbLine
 10
-7051.851368886523
 20
6971.678270517902
 30
0.0
 11
-7051.851368886523
 21
7122.187779765025
 31
0.0
  0
LINE
  5
8609
330
854F
100
AcDbEntity
  8
3
370
    -2
100
AcDbLine
 10
-6506.851368886522
 20
6939.861603145144
 30
0.0
 11
-6506.851368886522
 21
7122.187779765025
 31
0.0
  0
LINE
  5
860A
330
854F
100
AcDbEntity
  8
3
370
    -2
100
AcDbLine
 10
-6991.851368886521
 20
7092.187779765025
 30
0.0
 11
-6566.851368886521
 21
7092.187779765025
 31
0.0
  0
SOLID
  5
860B
330
854F
100
AcDbEntity
  8
3
100
AcDbTrace
 10
-6991.851368886521
 20
7102.187779765024
 30
0.0
 11
-6991.851368886521
 21
7082.187779765025
 31
0.0
 12
-7051.851368886523
 22
7092.187779765025
 32
0.0
 13
-7051.851368886523
 23
7092.187779765025
 33
0.0
  0
SOLID
  5
860C
330
854F
100
AcDbEntity
  8
3
100
AcDbTrace
 10
-6566.851368886521
 20
7102.187779765024
 30
0.0
 11
-6566.851368886521
 21
7082.187779765025
 31
0.0
 12
-6506.851368886522
 22
7092.187779765025
 32
0.0
 13
-6506.851368886522
 23
7092.187779765025
 33
0.0
  0
MTEXT
  5
860D
330
854F
100
AcDbEntity
  8
3
100
AcDbMText
 10
-6779.351368886522
 20
7152.187779765025
 30
0.0
 40
90.0
 41
0.0
 71
     5
 72
     1
  1
\A1;545
 73
     1
 44
1.0
1001
ACAD
1000
MTEXTBEGIN
1070
    73
1070
     1
1070
    44
1040
1.0
1070
    74
1070
     0
1000
MTEXTEND
  0
POINT
  5
860E
330
854F
100
AcDbEntity
  8
DEFPOINTS
 62
     0
100
AcDbPoint
 10
-7051.851368886523
 20
6941.678270517901
 30
0.0
  0
POINT
  5
860F
330
854F
100
AcDbEntity
  8
DEFPOINTS
 62
     0
100
AcDbPoint
 10
-6506.851368886522
 20
6909.861603145144
 30
0.0
  0
POINT
  5
8610
330
854F
100
AcDbEntity
  8
DEFPOINTS
 62
     0
100
AcDbPoint
 10
-6506.851368886522
 20
7092.187779765025
 30
0.0
  0
ENDBLK
  5
8551
330
854F
100
AcDbEntity
  8
0
100
AcDbBlockEnd
  0
BLOCK
  5
8697
330
8696
100
AcDbEntity
  8
0
100
AcDbBlockBegin
  2
*D67
 70
     1
 10
0.0
 20
0.0
 30
0.0
  3
*D67
  1

  0
LINE
  5
86C6
330
8696
100
AcDbEntity
  8
3
 62
     0
370
    -2
100
AcDbLine
 10
-7006.851368886524
 20
-1224.406953489313
 30
0.0
 11
-7006.851368886524
 21
-1421.484241665703
 31
0.0
  0
LINE
  5
86C7
330
8696
100
AcDbEntity
  8
3
 62
     0
370
    -2
100
AcDbLine
 10
-6506.851368886524
 20
-1224.406953489313
 30
0.0
 11
-6506.851368886524
 21
-1421.484241665703
 31
0.0
  0
LINE
  5
86C8
330
8696
100
AcDbEntity
  8
3
 62
     0
370
    -2
100
AcDbLine
 10
-6946.851368886523
 20
-1391.484241665703
 30
0.0
 11
-6566.851368886523
 21
-1391.484241665703
 31
0.0
  0
SOLID
  5
86C9
330
8696
100
AcDbEntity
  8
3
 62
     0
100
AcDbTrace
 10
-6946.851368886523
 20
-1381.484241665703
 30
0.0
 11
-6946.851368886523
 21
-1401.484241665703
 31
0.0
 12
-7006.851368886524
 22
-1391.484241665703
 32
0.0
 13
-7006.851368886524
 23
-1391.484241665703
 33
0.0
  0
SOLID
  5
86CA
330
8696
100
AcDbEntity
  8
3
 62
     0
100
AcDbTrace
 10
-6566.851368886523
 20
-1381.484241665703
 30
0.0
 11
-6566.851368886523
 21
-1401.484241665703
 31
0.0
 12
-6506.851368886524
 22
-1391.484241665703
 32
0.0
 13
-6506.851368886524
 23
-1391.484241665703
 33
0.0
  0
MTEXT
  5
86CB
330
8696
100
AcDbEntity
  8
3
 62
     0
100
AcDbMText
 10
-6756.851368886524
 20
-1316.484241665703
 30
0.0
 40
90.0
 41
0.0
 71
     5
 72
     1
  1
\A1;500
 73
     1
 44
1.0
1001
ACAD
1000
MTEXTBEGIN
1070
    73
1070
     1
1070
    44
1040
1.0
1070
    74
1070
     0
1000
MTEXTEND
  0
POINT
  5
86CC
330
8696
100
AcDbEntity
  8
DEFPOINTS
 62
     0
100
AcDbPoint
 10
-7006.851368886524
 20
-1209.406953489313
 30
0.0
  0
POINT
  5
86CD
330
8696
100
AcDbEntity
  8
DEFPOINTS
 62
     0
100
AcDbPoint
 10
-6506.851368886524
 20
-1209.406953489313
 30
0.0
  0
POINT
  5
86CE
330
8696
100
AcDbEntity
  8
DEFPOINTS
 62
     0
100
AcDbPoint
 10
-6506.851368886524
 20
-1391.484241665703
 30
0.0
  0
ENDBLK
  5
8698
330
8696
100
AcDbEntity
  8
0
100
AcDbBlockEnd
  0
BLOCK
  5
86A3
330
86A2
100
AcDbEntity
  8
0
100
AcDbBlockBegin
  2
*D68
 70
     1
 10
0.0
 20
0.0
 30
0.0
  3
*D68
  1

  0
LINE
  5
86CF
330
86A2
100
AcDbEntity
  8
3
 62
     0
370
    -2
100
AcDbLine
 10
-6506.851368886524
 20
254.2763791379293
 30
0.0
 11
-6506.851368886524
 21
451.6025557578104
 31
0.0
  0
LINE
  5
86D0
330
86A2
100
AcDbEntity
  8
3
 62
     0
370
    -2
100
AcDbLine
 10
-5830.851368886523
 20
-545.4069534893132
 30
0.0
 11
-5830.851368886523
 21
451.6025557578104
 31
0.0
  0
LINE
  5
86D1
330
86A2
100
AcDbEntity
  8
3
 62
     0
370
    -2
100
AcDbLine
 10
-6446.851368886523
 20
421.6025557578104
 30
0.0
 11
-5890.851368886523
 21
421.6025557578104
 31
0.0
  0
SOLID
  5
86D2
330
86A2
100
AcDbEntity
  8
3
 62
     0
100
AcDbTrace
 10
-6446.851368886523
 20
431.6025557578105
 30
0.0
 11
-6446.851368886523
 21
411.6025557578105
 31
0.0
 12
-6506.851368886524
 22
421.6025557578104
 32
0.0
 13
-6506.851368886524
 23
421.6025557578104
 33
0.0
  0
SOLID
  5
86D3
330
86A2
100
AcDbEntity
  8
3
 62
     0
100
AcDbTrace
 10
-5890.851368886523
 20
431.6025557578105
 30
0.0
 11
-5890.851368886523
 21
411.6025557578105
 31
0.0
 12
-5830.851368886523
 22
421.6025557578104
 32
0.0
 13
-5830.851368886523
 23
421.6025557578104
 33
0.0
  0
MTEXT
  5
86D4
330
86A2
100
AcDbEntity
  8
3
 62
     0
100
AcDbMText
 10
-6168.851368886524
 20
496.6025557578104
 30
0.0
 40
90.0
 41
0.0
 71
     5
 72
     1
  1
\A1;676
 73
     1
 44
1.0
1001
ACAD
1000
MTEXTBEGIN
1070
    73
1070
     1
1070
    44
1040
1.0
1070
    74
1070
     0
1000
MTEXTEND
  0
POINT
  5
86D5
330
86A2
100
AcDbEntity
  8
DEFPOINTS
 62
     0
100
AcDbPoint
 10
-6506.851368886524
 20
239.2763791379293
 30
0.0
  0
POINT
  5
86D6
330
86A2
100
AcDbEntity
  8
DEFPOINTS
 62
     0
100
AcDbPoint
 10
-5830.851368886523
 20
-560.4069534893133
 30
0.0
  0
POINT
  5
86D7
330
86A2
100
AcDbEntity
  8
DEFPOINTS
 62
     0
100
AcDbPoint
 10
-5830.851368886523
 20
421.6025557578104
 30
0.0
  0
ENDBLK
  5
86A4
330
86A2
100
AcDbEntity
  8
0
100
AcDbBlockEnd
  0
BLOCK
  5
86AF
330
86AE
100
AcDbEntity
  8
0
100
AcDbBlockBegin
  2
*D69
 70
     1
 10
0.0
 20
0.0
 30
0.0
  3
*D69
  1

  0
LINE
  5
86D8
330
86AE
100
AcDbEntity
  8
3
370
    -2
100
AcDbLine
 10
-7081.851368886524
 20
228.5930465106867
 30
0.0
 11
-7230.196712428586
 21
228.5930465106867
 31
0.0
  0
LINE
  5
86D9
330
86AE
100
AcDbEntity
  8
3
370
    -2
100
AcDbLine
 10
-7081.851368886524
 20
-596.4069534893133
 30
0.0
 11
-7230.196712428586
 21
-596.4069534893133
 31
0.0
  0
LINE
  5
86DA
330
86AE
100
AcDbEntity
  8
3
370
    -2
100
AcDbLine
 10
-7200.196712428587
 20
168.5930465106867
 30
0.0
 11
-7200.196712428587
 21
-536.4069534893133
 31
0.0
  0
SOLID
  5
86DB
330
86AE
100
AcDbEntity
  8
3
100
AcDbTrace
 10
-7210.196712428587
 20
168.5930465106867
 30
0.0
 11
-7190.196712428586
 21
168.5930465106867
 31
0.0
 12
-7200.196712428587
 22
228.5930465106867
 32
0.0
 13
-7200.196712428587
 23
228.5930465106867
 33
0.0
  0
SOLID
  5
86DC
330
86AE
100
AcDbEntity
  8
3
100
AcDbTrace
 10
-7210.196712428587
 20
-536.4069534893133
 30
0.0
 11
-7190.196712428586
 21
-536.4069534893133
 31
0.0
 12
-7200.196712428587
 22
-596.4069534893133
 32
0.0
 13
-7200.196712428587
 23
-596.4069534893133
 33
0.0
  0
MTEXT
  5
86DD
330
86AE
100
AcDbEntity
  8
3
100
AcDbMText
 10
-7260.196712428586
 20
-183.9069534893144
 30
0.0
 40
90.0
 41
0.0
 71
     5
 72
     1
  1
\A1;825
 11
0.0000000000000001
 21
1.0
 31
0.0
 73
     1
 44
1.0
1001
ACAD
1000
MTEXTBEGIN
1070
    73
1070
     1
1070
    44
1040
1.0
1070
    74
1070
     0
1000
MTEXTEND
  0
POINT
  5
86DE
330
86AE
100
AcDbEntity
  8
DEFPOINTS
 62
     0
100
AcDbPoint
 10
-7051.851368886524
 20
228.5930465106867
 30
0.0
  0
POINT
  5
86DF
330
86AE
100
AcDbEntity
  8
DEFPOINTS
 62
     0
100
AcDbPoint
 10
-7051.851368886524
 20
-596.4069534893133
 30
0.0
  0
POINT
  5
86E0
330
86AE
100
AcDbEntity
  8
DEFPOINTS
 62
     0
100
AcDbPoint
 10
-7200.196712428587
 20
-596.4069534893133
 30
0.0
  0
ENDBLK
  5
86B0
330
86AE
100
AcDbEntity
  8
0
100
AcDbBlockEnd
  0
BLOCK
  5
86BB
330
86BA
100
AcDbEntity
  8
0
100
AcDbBlockBegin
  2
*D70
 70
     1
 10
0.0
 20
0.0
 30
0.0
  3
*D70
  1

  0
LINE
  5
86E1
330
86BA
100
AcDbEntity
  8
3
370
    -2
100
AcDbLine
 10
-7051.851368886524
 20
301.0930465106867
 30
0.0
 11
-7051.851368886524
 21
451.6025557578104
 31
0.0
  0
LINE
  5
86E2
330
86BA
100
AcDbEntity
  8
3
370
    -2
100
AcDbLine
 10
-6506.851368886524
 20
269.2763791379293
 30
0.0
 11
-6506.851368886524
 21
451.6025557578104
 31
0.0
  0
LINE
  5
86E3
330
86BA
100
AcDbEntity
  8
3
370
    -2
100
AcDbLine
 10
-6991.851368886523
 20
421.6025557578104
 30
0.0
 11
-6566.851368886523
 21
421.6025557578104
 31
0.0
  0
SOLID
  5
86E4
330
86BA
100
AcDbEntity
  8
3
100
AcDbTrace
 10
-6991.851368886523
 20
431.6025557578105
 30
0.0
 11
-6991.851368886523
 21
411.6025557578105
 31
0.0
 12
-7051.851368886524
 22
421.6025557578104
 32
0.0
 13
-7051.851368886524
 23
421.6025557578104
 33
0.0
  0
SOLID
  5
86E5
330
86BA
100
AcDbEntity
  8
3
100
AcDbTrace
 10
-6566.851368886523
 20
431.6025557578105
 30
0.0
 11
-6566.851368886523
 21
411.6025557578105
 31
0.0
 12
-6506.851368886524
 22
421.6025557578104
 32
0.0
 13
-6506.851368886524
 23
421.6025557578104
 33
0.0
  0
MTEXT
  5
86E6
330
86BA
100
AcDbEntity
  8
3
100
AcDbMText
 10
-6779.351368886523
 20
481.6025557578105
 30
0.0
 40
90.0
 41
0.0
 71
     5
 72
     1
  1
\A1;545
 73
     1
 44
1.0
1001
ACAD
1000
MTEXTBEGIN
1070
    73
1070
     1
1070
    44
1040
1.0
1070
    74
1070
     0
1000
MTEXTEND
  0
POINT
  5
86E7
330
86BA
100
AcDbEntity
  8
DEFPOINTS
 62
     0
100
AcDbPoint
 10
-7051.851368886524
 20
271.0930465106867
 30
0.0
  0
POINT
  5
86E8
330
86BA
100
AcDbEntity
  8
DEFPOINTS
 62
     0
100
AcDbPoint
 10
-6506.851368886524
 20
239.2763791379293
 30
0.0
  0
POINT
  5
86E9
330
86BA
100
AcDbEntity
  8
DEFPOINTS
 62
     0
100
AcDbPoint
 10
-6506.851368886524
 20
421.6025557578104
 30
0.0
  0
ENDBLK
  5
86BC
330
86BA
100
AcDbEntity
  8
0
100
AcDbBlockEnd
  0
BLOCK
  5
86EC
330
86EB
100
AcDbEntity
  8
0
100
AcDbBlockBegin
  2
*D71
 70
     1
 10
0.0
 20
0.0
 30
0.0
  3
*D71
  1

  0
LINE
  5
874A
330
86EB
100
AcDbEntity
  8
3
 62
     0
370
    -2
100
AcDbLine
 10
3380.255065109371
 20
2756.798180525843
 30
0.0
 11
3380.255065109371
 21
3810.699289516339
 31
0.0
  0
LINE
  5
874B
330
86EB
100
AcDbEntity
  8
3
 62
     0
370
    -2
100
AcDbLine
 10
4280.255065109371
 20
3624.601087545458
 30
0.0
 11
4280.255065109371
 21
3810.699289516339
 31
0.0
  0
LINE
  5
874C
330
86EB
100
AcDbEntity
  8
3
 62
     0
370
    -2
100
AcDbLine
 10
3430.255065109371
 20
3785.699289516339
 30
0.0
 11
4230.25506510937
 21
3785.699289516339
 31
0.0
  0
INSERT
  5
874D
330
86EB
100
AcDbEntity
  8
3
 62
     0
370
    -2
100
AcDbBlockReference
  2
_OPEN
 10
3380.255065109371
 20
3785.699289516339
 30
0.0
 41
50.0
 42
50.0
 43
50.0
 50
180.0
  0
INSERT
  5
874E
330
86EB
100
AcDbEntity
  8
3
 62
     0
370
    -2
100
AcDbBlockReference
  2
_OPEN
 10
4280.255065109371
 20
3785.699289516339
 30
0.0
 41
50.0
 42
50.0
 43
50.0
  0
MTEXT
  5
874F
330
86EB
100
AcDbEntity
  8
3
 62
     0
100
AcDbMText
 10
3830.255065109371
 20
3867.842146659196
 30
0.0
 40
75.0
 41
0.0
 71
     5
 72
     1
  1
\A1;(900)
 73
     1
 44
1.0
1001
ACAD
1000
MTEXTBEGIN
1070
    73
1070
     1
1070
    44
1040
1.0
1070
    74
1070
     0
1000
MTEXTEND
  0
POINT
  5
8750
330
86EB
100
AcDbEntity
  8
DEFPOINTS
 62
     0
100
AcDbPoint
 10
3380.255065109371
 20
2731.798180525843
 30
0.0
  0
POINT
  5
8751
330
86EB
100
AcDbEntity
  8
DEFPOINTS
 62
     0
100
AcDbPoint
 10
4280.255065109371
 20
3599.601087545458
 30
0.0
  0
POINT
  5
8752
330
86EB
100
AcDbEntity
  8
DEFPOINTS
 62
     0
100
AcDbPoint
 10
4280.255065109371
 20
3785.699289516339
 30
0.0
  0
ENDBLK
  5
86ED
330
86EB
100
AcDbEntity
  8
0
100
AcDbBlockEnd
  0
BLOCK
  5
86FB
330
86FA
100
AcDbEntity
  8
0
100
AcDbBlockBegin
  2
*D72
 70
     1
 10
0.0
 20
0.0
 30
0.0
  3
*D72
  1

  0
LINE
  5
86FD
330
86FA
100
AcDbEntity
  8
3
 62
     0
370
    -2
100
AcDbLine
 10
4880.255065109373
 20
2473.860680525843
 30
0.0
 11
4880.255065109373
 21
3653.281527104818
 31
0.0
  0
LINE
  5
86FE
330
86FA
100
AcDbEntity
  8
3
 62
     0
370
    -2
100
AcDbLine
 10
4280.255065109371
 20
3583.969054294835
 30
0.0
 11
4280.255065109371
 21
3653.281527104818
 31
0.0
  0
LINE
  5
86FF
330
86FA
100
AcDbEntity
  8
3
 62
     0
370
    -2
100
AcDbLine
 10
4875.755065109373
 20
3648.781527104818
 30
0.0
 11
4590.755065109371
 21
3648.781527104818
 31
0.0
  0
LINE
  5
8700
330
86FA
100
AcDbEntity
  8
3
 62
     0
370
    -2
100
AcDbLine
 10
4284.75506510937
 20
3648.781527104818
 30
0.0
 11
4569.755065109371
 21
3648.781527104818
 31
0.0
  0
SOLID
  5
8701
330
86FA
100
AcDbEntity
  8
3
 62
     0
100
AcDbTrace
 10
4875.755065109373
 20
3649.531527104818
 30
0.0
 11
4875.755065109373
 21
3648.031527104818
 31
0.0
 12
4880.255065109373
 22
3648.781527104818
 32
0.0
 13
4880.255065109373
 23
3648.781527104818
 33
0.0
  0
SOLID
  5
8702
330
86FA
100
AcDbEntity
  8
3
 62
     0
100
AcDbTrace
 10
4284.75506510937
 20
3649.531527104818
 30
0.0
 11
4284.75506510937
 21
3648.031527104818
 31
0.0
 12
4280.255065109371
 22
3648.781527104818
 32
0.0
 13
4280.255065109371
 23
3648.781527104818
 33
0.0
  0
MTEXT
  5
8703
330
86FA
100
AcDbEntity
  8
3
 62
     0
100
AcDbMText
 10
4580.255065109372
 20
3648.781527104818
 30
0.0
 40
4.5
 41
0.0
 71
     5
 72
     1
  1
\A1;(610)
 73
     1
 44
1.0
1001
ACAD
1000
MTEXTBEGIN
1070
    73
1070
     1
1070
    44
1040
1.0
1070
    74
1070
     0
1000
MTEXTEND
  0
POINT
  5
8704
330
86FA
100
AcDbEntity
  8
DEFPOINTS
 62
     0
100
AcDbPoint
 10
4880.255065109373
 20
2472.298180525843
 30
0.0
  0
POINT
  5
8705
330
86FA
100
AcDbEntity
  8
DEFPOINTS
 62
     0
100
AcDbPoint
 10
4280.255065109371
 20
3582.406554294835
 30
0.0
  0
POINT
  5
8706
330
86FA
100
AcDbEntity
  8
DEFPOINTS
 62
     0
100
AcDbPoint
 10
4280.255065109371
 20
3648.781527104818
 30
0.0
  0
ENDBLK
  5
86FC
330
86FA
100
AcDbEntity
  8
0
100
AcDbBlockEnd
  0
BLOCK
  5
8709
330
8708
100
AcDbEntity
  8
0
100
AcDbBlockBegin
  2
*D73
 70
     1
 10
0.0
 20
0.0
 30
0.0
  3
*D73
  1

  0
LINE
  5
8753
330
8708
100
AcDbEntity
  8
3
 62
     0
370
    -2
100
AcDbLine
 10
4280.255065109371
 20
3624.601087545458
 30
0.0
 11
4280.255065109371
 21
3810.699289516339
 31
0.0
  0
LINE
  5
8754
330
8708
100
AcDbEntity
  8
3
 62
     0
370
    -2
100
AcDbLine
 10
4890.255065109371
 20
2497.298180525843
 30
0.0
 11
4890.255065109371
 21
3810.699289516339
 31
0.0
  0
LINE
  5
8755
330
8708
100
AcDbEntity
  8
3
 62
     0
370
    -2
100
AcDbLine
 10
4330.255065109371
 20
3785.699289516339
 30
0.0
 11
4840.255065109372
 21
3785.699289516339
 31
0.0
  0
INSERT
  5
8756
330
8708
100
AcDbEntity
  8
3
 62
     0
370
    -2
100
AcDbBlockReference
  2
_OPEN
 10
4280.255065109371
 20
3785.699289516339
 30
0.0
 41
50.0
 42
50.0
 43
50.0
 50
180.0
  0
INSERT
  5
8757
330
8708
100
AcDbEntity
  8
3
 62
     0
370
    -2
100
AcDbBlockReference
  2
_OPEN
 10
4890.255065109371
 20
3785.699289516339
 30
0.0
 41
50.0
 42
50.0
 43
50.0
  0
MTEXT
  5
8758
330
8708
100
AcDbEntity
  8
3
 62
     0
100
AcDbMText
 10
4585.255065109371
 20
3867.842146659196
 30
0.0
 40
75.0
 41
0.0
 71
     5
 72
     1
  1
\A1;(610)
 73
     1
 44
1.0
1001
ACAD
1000
MTEXTBEGIN
1070
    73
1070
     1
1070
    44
1040
1.0
1070
    74
1070
     0
1000
MTEXTEND
  0
POINT
  5
8759
330
8708
100
AcDbEntity
  8
DEFPOINTS
 62
     0
100
AcDbPoint
 10
4280.255065109371
 20
3599.601087545458
 30
0.0
  0
POINT
  5
875A
330
8708
100
AcDbEntity
  8
DEFPOINTS
 62
     0
100
AcDbPoint
 10
4890.255065109371
 20
2472.298180525843
 30
0.0
  0
POINT
  5
875B
330
8708
100
AcDbEntity
  8
DEFPOINTS
 62
     0
100
AcDbPoint
 10
4890.255065109371
 20
3785.699289516339
 30
0.0
  0
ENDBLK
  5
870A
330
8708
100
AcDbEntity
  8
0
100
AcDbBlockEnd
  0
BLOCK
  5
875D
330
875C
100
AcDbEntity
  8
0
100
AcDbBlockBegin
  2
*D74
 70
     1
 10
0.0
 20
0.0
 30
0.0
  3
*D74
  1

  0
LINE
  5
875F
330
875C
100
AcDbEntity
  8
3
 62
     0
370
    -2
100
AcDbLine
 10
2795.462242941992
 20
4247.728637356863
 30
0.0
 11
2795.462242941992
 21
3894.125352512463
 31
0.0
  0
LINE
  5
8760
330
875C
100
AcDbEntity
  8
3
 62
     0
370
    -2
100
AcDbLine
 10
1045.462242941992
 20
4247.728637356863
 30
0.0
 11
1045.462242941992
 21
3894.125352512463
 31
0.0
  0
LINE
  5
8761
330
875C
100
AcDbEntity
  8
3
 62
     0
370
    -2
100
AcDbLine
 10
2790.962242941993
 20
3898.625352512463
 30
0.0
 11
1939.855100084849
 21
3898.625352512463
 31
0.0
  0
LINE
  5
8762
330
875C
100
AcDbEntity
  8
3
 62
     0
370
    -2
100
AcDbLine
 10
1049.962242941992
 20
3898.625352512463
 30
0.0
 11
1901.069385799135
 21
3898.625352512463
 31
0.0
  0
SOLID
  5
8763
330
875C
100
AcDbEntity
  8
3
 62
     0
100
AcDbTrace
 10
2790.962242941993
 20
3899.375352512463
 30
0.0
 11
2790.962242941993
 21
3897.875352512463
 31
0.0
 12
2795.462242941992
 22
3898.625352512463
 32
0.0
 13
2795.462242941992
 23
3898.625352512463
 33
0.0
  0
SOLID
  5
8764
330
875C
100
AcDbEntity
  8
3
 62
     0
100
AcDbTrace
 10
1049.962242941992
 20
3899.375352512463
 30
0.0
 11
1049.962242941992
 21
3897.875352512463
 31
0.0
 12
1045.462242941992
 22
3898.625352512463
 32
0.0
 13
1045.462242941992
 23
3898.625352512463
 33
0.0
  0
MTEXT
  5
8765
330
875C
100
AcDbEntity
  8
3
 62
     0
100
AcDbMText
 10
1920.462242941992
 20
3898.625352512463
 30
0.0
 40
4.5
 41
0.0
 71
     5
 72
     1
  1
\A1;1750.0000
 73
     1
 44
1.0
1001
ACAD
1000
MTEXTBEGIN
1070
    73
1070
     1
1070
    44
1040
1.0
1070
    74
1070
     0
1000
MTEXTEND
  0
POINT
  5
8766
330
875C
100
AcDbEntity
  8
DEFPOINTS
 62
     0
100
AcDbPoint
 10
2795.462242941992
 20
4249.291137356863
 30
0.0
  0
POINT
  5
8767
330
875C
100
AcDbEntity
  8
DEFPOINTS
 62
     0
100
AcDbPoint
 10
1045.462242941992
 20
4249.291137356863
 30
0.0
  0
POINT
  5
8768
330
875C
100
AcDbEntity
  8
DEFPOINTS
 62
     0
100
AcDbPoint
 10
1045.462242941992
 20
3898.625352512463
 30
0.0
  0
ENDBLK
  5
875E
330
875C
100
AcDbEntity
  8
0
100
AcDbBlockEnd
  0
BLOCK
  5
876B
330
876A
100
AcDbEntity
  8
0
100
AcDbBlockBegin
  2
*D75
 70
     1
 10
0.0
 20
0.0
 30
0.0
  3
*D75
  1

  0
LINE
  5
876D
330
876A
100
AcDbEntity
  8
3
 62
     0
370
    -2
100
AcDbLine
 10
1045.462242941992
 20
4224.291137356863
 30
0.0
 11
1045.462242941992
 21
3878.841507697856
 31
0.0
  0
LINE
  5
876E
330
876A
100
AcDbEntity
  8
3
 62
     0
370
    -2
100
AcDbLine
 10
2795.462242941992
 20
4224.291137356863
 30
0.0
 11
2795.462242941992
 21
3878.841507697856
 31
0.0
  0
LINE
  5
876F
330
876A
100
AcDbEntity
  8
3
 62
     0
370
    -2
100
AcDbLine
 10
1095.462242941992
 20
3903.841507697857
 30
0.0
 11
2745.462242941993
 21
3903.841507697857
 31
0.0
  0
INSERT
  5
8770
330
876A
100
AcDbEntity
  8
3
 62
     0
370
    -2
100
AcDbBlockReference
  2
_OPEN
 10
1045.462242941992
 20
3903.841507697857
 30
0.0
 41
50.0
 42
50.0
 43
50.0
 50
180.0
  0
INSERT
  5
8771
330
876A
100
AcDbEntity
  8
3
 62
     0
370
    -2
100
AcDbBlockReference
  2
_OPEN
 10
2795.462242941992
 20
3903.841507697857
 30
0.0
 41
50.0
 42
50.0
 43
50.0
  0
MTEXT
  5
8772
330
876A
100
AcDbEntity
  8
3
 62
     0
100
AcDbMText
 10
1920.462242941992
 20
3966.341507697857
 30
0.0
 40
75.0
 41
0.0
 71
     5
 72
     1
  1
\A1;1750
 73
     1
 44
1.0
1001
ACAD
1000
MTEXTBEGIN
1070
    73
1070
     1
1070
    44
1040
1.0
1070
    74
1070
     0
1000
MTEXTEND
  0
POINT
  5
8773
330
876A
100
AcDbEntity
  8
DEFPOINTS
 62
     0
100
AcDbPoint
 10
1045.462242941992
 20
4249.291137356863
 30
0.0
  0
POINT
  5
8774
330
876A
100
AcDbEntity
  8
DEFPOINTS
 62
     0
100
AcDbPoint
 10
2795.462242941992
 20
4249.291137356863
 30
0.0
  0
POINT
  5
8775
330
876A
100
AcDbEntity
  8
DEFPOINTS
 62
     0
100
AcDbPoint
 10
2795.462242941992
 20
3903.841507697857
 30
0.0
  0
ENDBLK
  5
876C
330
876A
100
AcDbEntity
  8
0
100
AcDbBlockEnd
  0
BLOCK
  5
8778
330
8777
100
AcDbEntity
  8
0
100
AcDbBlockBegin
  2
*D76
 70
     1
 10
0.0
 20
0.0
 30
0.0
  3
*D76
  1

  0
LINE
  5
8783
330
8777
100
AcDbEntity
  8
3
 62
     0
370
    -2
100
AcDbLine
 10
2045.462242941993
 20
5529.291137356861
 30
0.0
 11
2045.462242941993
 21
5680.414420907816
 31
0.0
  0
LINE
  5
8784
330
8777
100
AcDbEntity
  8
3
 62
     0
370
    -2
100
AcDbLine
 10
2795.462242941992
 20
5024.291137356863
 30
0.0
 11
2795.462242941992
 21
5680.414420907816
 31
0.0
  0
LINE
  5
8785
330
8777
100
AcDbEntity
  8
3
 62
     0
370
    -2
100
AcDbLine
 10
2095.462242941993
 20
5655.414420907815
 30
0.0
 11
2745.462242941993
 21
5655.414420907815
 31
0.0
  0
INSERT
  5
8786
330
8777
100
AcDbEntity
  8
3
 62
     0
370
    -2
100
AcDbBlockReference
  2
_OPEN
 10
2045.462242941993
 20
5655.414420907815
 30
0.0
 41
50.0
 42
50.0
 43
50.0
 50
180.0
  0
INSERT
  5
8787
330
8777
100
AcDbEntity
  8
3
 62
     0
370
    -2
100
AcDbBlockReference
  2
_OPEN
 10
2795.462242941992
 20
5655.414420907815
 30
0.0
 41
50.0
 42
50.0
 43
50.0
  0
MTEXT
  5
8788
330
8777
100
AcDbEntity
  8
3
 62
     0
100
AcDbMText
 10
2420.462242941992
 20
5717.914420907815
 30
0.0
 40
75.0
 41
0.0
 71
     5
 72
     1
  1
\A1;750
 73
     1
 44
1.0
1001
ACAD
1000
MTEXTBEGIN
1070
    73
1070
     1
1070
    44
1040
1.0
1070
    74
1070
     0
1000
MTEXTEND
  0
POINT
  5
8789
330
8777
100
AcDbEntity
  8
DEFPOINTS
 62
     0
100
AcDbPoint
 10
2045.462242941993
 20
5504.291137356862
 30
0.0
  0
POINT
  5
878A
330
8777
100
AcDbEntity
  8
DEFPOINTS
 62
     0
100
AcDbPoint
 10
2795.462242941992
 20
4999.291137356863
 30
0.0
  0
POINT
  5
878B
330
8777
100
AcDbEntity
  8
DEFPOINTS
 62
     0
100
AcDbPoint
 10
2795.462242941992
 20
5655.414420907815
 30
0.0
  0
ENDBLK
  5
8779
330
8777
100
AcDbEntity
  8
0
100
AcDbBlockEnd
  0
BLOCK
  5
879E
330
879D
100
AcDbEntity
  8
0
100
AcDbBlockBegin
  2
*D77
 70
     1
 10
0.0
 20
0.0
 30
0.0
  3
*D77
  1

  0
LINE
  5
87A9
330
879D
100
AcDbEntity
  8
3
 62
     0
370
    -2
100
AcDbLine
 10
1545.462242941992
 20
3395.481513153087
 30
0.0
 11
1545.462242941992
 21
3539.117361428643
 31
0.0
  0
LINE
  5
87AA
330
879D
100
AcDbEntity
  8
3
 62
     0
370
    -2
100
AcDbLine
 10
2221.462242941992
 20
2595.798180525843
 30
0.0
 11
2221.462242941992
 21
3539.117361428643
 31
0.0
  0
LINE
  5
87AB
330
879D
100
AcDbEntity
  8
3
 62
     0
370
    -2
100
AcDbLine
 10
1595.462242941992
 20
3514.117361428643
 30
0.0
 11
2171.462242941992
 21
3514.117361428643
 31
0.0
  0
INSERT
  5
87AC
330
879D
100
AcDbEntity
  8
3
 62
     0
370
    -2
100
AcDbBlockReference
  2
_OPEN
 10
1545.462242941992
 20
3514.117361428643
 30
0.0
 41
50.0
 42
50.0
 43
50.0
 50
180.0
  0
INSERT
  5
87AD
330
879D
100
AcDbEntity
  8
3
 62
     0
370
    -2
100
AcDbBlockReference
  2
_OPEN
 10
2221.462242941992
 20
3514.117361428643
 30
0.0
 41
50.0
 42
50.0
 43
50.0
  0
MTEXT
  5
87AE
330
879D
100
AcDbEntity
  8
3
 62
     0
100
AcDbMText
 10
1883.462242941992
 20
3576.617361428643
 30
0.0
 40
75.0
 41
0.0
 71
     5
 72
     1
  1
\A1;676
 73
     1
 44
1.0
1001
ACAD
1000
MTEXTBEGIN
1070
    73
1070
     1
1070
    44
1040
1.0
1070
    74
1070
     0
1000
MTEXTEND
  0
POINT
  5
87AF
330
879D
100
AcDbEntity
  8
DEFPOINTS
 62
     0
100
AcDbPoint
 10
1545.462242941992
 20
3370.481513153087
 30
0.0
  0
POINT
  5
87B0
330
879D
100
AcDbEntity
  8
DEFPOINTS
 62
     0
100
AcDbPoint
 10
2221.462242941992
 20
2570.798180525843
 30
0.0
  0
POINT
  5
87B1
330
879D
100
AcDbEntity
  8
DEFPOINTS
 62
     0
100
AcDbPoint
 10
2221.462242941992
 20
3514.117361428643
 30
0.0
  0
ENDBLK
  5
879F
330
879D
100
AcDbEntity
  8
0
100
AcDbBlockEnd
  0
ENDSEC
  0
SECTION
  2
ENTITIES
  0
INSERT
  5
7C00
330
8188
100
AcDbEntity
  8
0
100
AcDbBlockReference
  2
YA_N
 10
6.0
 20
5.0
 30
0.0
  0
LINE
  5
7C02
330
8188
100
AcDbEntity
  8
2
100
AcDbLine
 10
1545.462242941992
 20
3370.481513153087
 30
0.0
 11
1545.462242941992
 21
1921.798180525843
 31
0.0
  0
LINE
  5
7C03
330
8188
100
AcDbEntity
  8
2
100
AcDbLine
 10
878.9904510916022
 20
2511.798180525843
 30
0.0
 11
2303.365820132028
 21
2511.798180525843
 31
0.0
  0
LINE
  5
7C11
330
8188
100
AcDbEntity
  8
1
100
AcDbLine
 10
2345.462242941992
 20
2061.798180525844
 30
0.0
 11
2345.462242941992
 21
2021.798180525843
 31
0.0
  0
LINE
  5
7C12
330
8188
100
AcDbEntity
  8
1
100
AcDbLine
 10
4780.255065109371
 20
3359.798180525845
 30
0.0
 11
4780.255065109369
 21
2534.798180525844
 31
0.0
  0
LINE
  5
7C15
330
8188
100
AcDbEntity
  8
2
100
AcDbLine
 10
3390.93713455608
 20
2511.798180525843
 30
0.0
 11
4931.304911688568
 21
2511.798180525843
 31
0.0
  0
LINE
  5
7C16
330
8188
100
AcDbEntity
  8
2
100
AcDbLine
 10
3390.93713455608
 20
2271.798180525843
 30
0.0
 11
4291.557589741238
 21
2271.798180525843
 31
0.0
  0
LINE
  5
7C17
330
8188
100
AcDbEntity
  8
1
100
AcDbLine
 10
3512.255065109371
 20
2638.798180525844
 30
0.0
 11
3512.255065109371
 21
2384.798180525844
 31
0.0
  0
LINE
  5
7C18
330
8188
100
AcDbEntity
  8
1
100
AcDbLine
 10
3380.255065109371
 20
2731.798180525843
 30
0.0
 11
3380.255065109371
 21
2051.798180525843
 31
0.0
  0
LINE
  5
7C19
330
8188
100
AcDbEntity
  8
1
100
AcDbLine
 10
3380.255065109371
 20
2731.798180525843
 30
0.0
 11
3630.255065109372
 21
2731.798180525843
 31
0.0
  0
LINE
  5
7C1A
330
8188
100
AcDbEntity
  8
1
100
AcDbLine
 10
3630.255065109372
 20
2731.798180525843
 30
0.0
 11
3630.255065109372
 21
2681.798180525843
 31
0.0
  0
LINE
  5
7C1B
330
8188
100
AcDbEntity
  8
1
100
AcDbLine
 10
3630.255065109372
 20
2094.293957917181
 30
0.0
 11
3630.255065109372
 21
2051.798180525843
 31
0.0
  0
LINE
  5
7C1C
330
8188
100
AcDbEntity
  8
2
100
AcDbLine
 10
4280.255065109371
 20
3495.571552694518
 30
0.0
 11
4280.255065109371
 21
1921.798180525843
 31
0.0
  0
POINT
  5
7C1D
330
8188
100
AcDbEntity
  8
1
100
AcDbPoint
 10
1045.462242941992
 20
1921.798180525843
 30
0.0
  0
POINT
  5
7C1E
330
8188
100
AcDbEntity
  8
1
100
AcDbPoint
 10
1045.462242941992
 20
1921.798180525843
 30
0.0
  0
POINT
  5
7C1F
330
8188
100
AcDbEntity
  8
1
100
AcDbPoint
 10
1045.462242941992
 20
1921.798180525843
 30
0.0
  0
INSERT
  5
7C22
330
8188
100
AcDbEntity
  8
0
100
AcDbBlockReference
  2
YA_N
 10
-733.6448571667497
 20
-271.0302667023643
 30
0.0
 41
20.0
 42
20.0
 43
20.0
  0
DIMENSION
  5
7C25
330
8188
100
AcDbEntity
  8
3
100
AcDbDimension
  2
*D4
 10
852.1168993999292
 20
2534.798180525844
 30
0.0
 11
802.1168993999292
 21
2947.298180525844
 31
0.0
 12
-633.6524400032722
 22
949.9105651163629
 32
0.0
 71
     5
 42
-1.0
  3
Standard
100
AcDbAlignedDimension
 13
1000.462242941992
 23
3359.798180525845
 33
0.0
 14
1000.462242941992
 24
2534.798180525844
 34
0.0
 50
90.0
100
AcDbRotatedDimension
1001
ACAD
1000
DSTYLE
1002
{
1070
    40
1040
25.0
1002
}
  0
DIMENSION
  5
7C26
330
8188
100
AcDbEntity
  8
3
100
AcDbDimension
  2
*D5
 10
699.8334968261261
 20
2511.798180525843
 30
0.0
 11
649.8334968261261
 21
2935.798180525845
 31
0.0
 12
-633.6524400032722
 22
949.9105651163629
 32
0.0
 71
     5
 42
-1.0
  3
Standard
100
AcDbAlignedDimension
 13
1000.462242941992
 23
3359.798180525845
 33
0.0
 14
878.9904510916022
 24
2511.798180525843
 34
0.0
 50
90.0
100
AcDbRotatedDimension
1001
ACAD
1000
DSTYLE
1002
{
1070
    40
1040
25.0
1002
}
  0
LINE
  5
7C27
330
8188
100
AcDbEntity
  8
1
100
AcDbLine
 10
2679.921142941993
 20
2181.486180525844
 30
0.0
 11
2699.462242941992
 21
2127.798180525843
 31
0.0
  0
LINE
  5
7C28
330
8188
100
AcDbEntity
  8
1
100
AcDbLine
 10
2411.015442941993
 20
2181.519180525843
 30
0.0
 11
2391.462242941992
 21
2127.798180525843
 31
0.0
  0
ARC
  5
7C29
330
8188
100
AcDbEntity
  8
1
100
AcDbCircle
 10
2545.462242941992
 20
2271.798180525843
 30
0.0
 40
162.0
100
AcDbArc
 50
326.1051229528019
 51
0.0
  0
ARC
  5
7C2A
330
8188
100
AcDbEntity
  8
1
100
AcDbCircle
 10
2545.462242941992
 20
2271.798180525843
 30
0.0
 40
162.0
100
AcDbArc
 50
0.0
 51
213.8949135395933
  0
LINE
  5
7C2B
330
8188
100
AcDbEntity
  8
2
100
AcDbLine
 10
2545.462242941992
 20
2450.24794861303
 30
0.0
 11
2545.462242941992
 21
1921.798180525843
 31
0.0
  0
LINE
  5
7C2C
330
8188
100
AcDbEntity
  8
1
100
AcDbLine
 10
2391.462242941992
 20
2111.798180525843
 30
0.0
 11
2391.462242941992
 21
2127.798180525843
 31
0.0
  0
LINE
  5
7C2D
330
8188
100
AcDbEntity
  8
1
100
AcDbLine
 10
2699.462242941992
 20
2111.798180525843
 30
0.0
 11
2699.462242941992
 21
2127.798180525843
 31
0.0
  0
LINE
  5
7C2E
330
8188
100
AcDbEntity
  8
2
100
AcDbLine
 10
2357.35179887932
 20
2271.798180525844
 30
0.0
 11
2732.430603909349
 21
2271.798180525843
 31
0.0
  0
LINE
  5
7C2F
330
8188
100
AcDbEntity
  8
1
100
AcDbLine
 10
2733.976886208032
 20
2111.798180525843
 30
0.0
 11
2356.707375327181
 21
2111.798180525841
 31
0.0
  0
LINE
  5
7C30
330
8188
100
AcDbEntity
  8
1
100
AcDbLine
 10
2343.462242941993
 20
2061.798180525844
 30
0.0
 11
2356.707375327181
 21
2111.798180525843
 31
0.0
  0
LINE
  5
7C31
330
8188
100
AcDbEntity
  8
1
100
AcDbLine
 10
2747.462242941994
 20
2061.798180525844
 30
0.0
 11
2733.976886208032
 21
2111.798180525843
 31
0.0
  0
CIRCLE
  5
7C32
330
8188
100
AcDbEntity
  8
1
100
AcDbCircle
 10
2545.462242941992
 20
2271.798180525844
 30
0.0
 40
110.0
  0
CIRCLE
  5
7C33
330
8188
100
AcDbEntity
  8
1
100
AcDbCircle
 10
1545.462242941992
 20
2511.798180525843
 30
0.0
 40
127.0
  0
LINE
  5
7C34
330
8188
100
AcDbEntity
  8
1
100
AcDbLine
 10
3512.255065109371
 20
2638.798180525844
 30
0.0
 11
3597.255065109372
 21
2638.798180525844
 31
0.0
  0
LINE
  5
7C35
330
8188
100
AcDbEntity
  8
1
100
AcDbLine
 10
3512.255065109371
 20
2384.798180525844
 30
0.0
 11
3597.255065109372
 21
2384.798180525844
 31
0.0
  0
LINE
  5
7C36
330
8188
100
AcDbEntity
  8
1
100
AcDbLine
 10
3512.255065109372
 20
2381.798180525843
 30
0.0
 11
3597.255065109372
 21
2381.798180525843
 31
0.0
  0
LINE
  5
7C37
330
8188
100
AcDbEntity
  8
1
100
AcDbLine
 10
3512.255065109371
 20
2161.798180525843
 30
0.0
 11
3597.255065109372
 21
2161.798180525843
 31
0.0
  0
LINE
  5
7C38
330
8188
100
AcDbEntity
  8
1
100
AcDbLine
 10
3380.255065109371
 20
2051.798180525843
 30
0.0
 11
3630.255065109372
 21
2051.798180525843
 31
0.0
  0
LINE
  5
7C39
330
8188
100
AcDbEntity
  8
1
100
AcDbLine
 10
3597.255065109372
 20
2638.798180525844
 30
0.0
 11
3597.255065109372
 21
2384.798180525844
 31
0.0
  0
INSERT
  5
7C3A
330
8188
100
AcDbEntity
  8
0
100
AcDbBlockReference
  2
YA_N
 10
-36.73462870802178
 20
301.6536876033205
 30
0.0
 41
20.0
 42
20.0
 43
20.0
  0
INSERT
  5
7C3C
330
8188
100
AcDbEntity
  8
0
100
AcDbBlockReference
  2
YA_N
 10
77.48489664613955
 20
225.3119777640749
 30
0.0
 41
20.0
 42
20.0
 43
20.0
  0
POINT
  5
7C43
330
8188
100
AcDbEntity
  8
1
100
AcDbPoint
 10
1045.462242941992
 20
1921.798180525843
 30
0.0
  0
DIMENSION
  5
7C46
330
8188
100
AcDbEntity
  8
3
100
AcDbDimension
  2
*D6
 10
699.1925857640636
 20
1921.798180525843
 30
0.0
 11
649.1925857640636
 21
2216.798180525843
 31
0.0
 12
-633.6524400032722
 22
949.9105651163629
 32
0.0
 71
     5
 42
-1.0
  3
Standard
100
AcDbAlignedDimension
 13
878.9904510916022
 23
2511.798180525843
 33
0.0
 14
1045.462242941992
 24
1921.798180525843
 34
0.0
 50
90.0
100
AcDbRotatedDimension
1001
ACAD
1000
DSTYLE
1002
{
1070
    40
1040
25.0
1002
}
  0
POINT
  5
7C4A
330
8188
100
AcDbEntity
  8
1
100
AcDbPoint
 10
1045.462242941992
 20
1921.798180525843
 30
0.0
  0
LINE
  5
7C4B
330
8188
100
AcDbEntity
  8
1
100
AcDbLine
 10
4280.255065109371
 20
3359.798180525845
 30
0.0
 11
4780.255065109369
 21
3359.798180525845
 31
0.0
  0
LINE
  5
7C4D
330
8188
100
AcDbEntity
  8
1
100
AcDbLine
 10
4780.255065109369
 20
2534.798180525844
 30
0.0
 11
4780.255065109369
 21
2021.798180525843
 31
0.0
  0
LINE
  5
7C4F
330
8188
100
AcDbEntity
  8
1
100
AcDbLine
 10
3780.255065109372
 20
2534.798180525844
 30
0.0
 11
3780.255065109372
 21
2433.798180525843
 31
0.0
  0
LINE
  5
7C50
330
8188
100
AcDbEntity
  8
1
100
AcDbLine
 10
3780.255065109372
 20
3359.798180525845
 30
0.0
 11
3780.255065109372
 21
2534.798180525844
 31
0.0
  0
LINE
  5
7C51
330
8188
100
AcDbEntity
  8
1
100
AcDbLine
 10
4280.255065109371
 20
3359.798180525845
 30
0.0
 11
3780.255065109372
 21
3359.798180525845
 31
0.0
  0
LINE
  5
7C52
330
8188
100
AcDbEntity
  8
1
100
AcDbLine
 10
3642.255065109371
 20
2475.998180525843
 30
0.0
 11
3642.255065109371
 21
2433.798180525844
 31
0.0
  0
LINE
  5
7C53
330
8188
100
AcDbEntity
  8
1
100
AcDbLine
 10
3652.255065109371
 20
2485.998180525843
 30
0.0
 11
3780.255065109372
 21
2485.998180525843
 31
0.0
  0
ARC
  5
7C54
330
8188
100
AcDbEntity
  8
1
100
AcDbCircle
 10
3652.255065109371
 20
2475.998180525843
 30
0.0
 40
10.0
100
AcDbArc
 50
90.0
 51
180.0
  0
LINE
  5
7C55
330
8188
100
AcDbEntity
  8
1
100
AcDbLine
 10
4890.255065109373
 20
2472.298180525843
 30
0.0
 11
4890.255065109373
 21
2372.298180525843
 31
0.0
  0
ARC
  5
7C56
330
8188
100
AcDbEntity
  8
1
100
AcDbCircle
 10
4880.255065109372
 20
2372.298180525843
 30
0.0
 40
10.0
100
AcDbArc
 50
270.0
 51
0.0
  0
ARC
  5
7C57
330
8188
100
AcDbEntity
  8
1
100
AcDbCircle
 10
4880.255065109372
 20
2472.298180525843
 30
0.0
 40
10.0
100
AcDbArc
 50
0.0
 51
90.0
  0
LINE
  5
7C58
330
8188
100
AcDbEntity
  8
1
100
AcDbLine
 10
4780.255065109369
 20
2362.298180525843
 30
0.0
 11
4880.255065109372
 21
2362.298180525843
 31
0.0
  0
LINE
  5
7C59
330
8188
100
AcDbEntity
  8
1
100
AcDbLine
 10
4780.255065109369
 20
2482.298180525845
 30
0.0
 11
4880.255065109372
 21
2482.298180525843
 31
0.0
  0
LINE
  5
7C5A
330
8188
100
AcDbEntity
  8
1
100
AcDbLine
 10
2745.462242941993
 20
2061.798180525844
 30
0.0
 11
2745.462242941993
 21
2021.798180525843
 31
0.0
  0
POINT
  5
7C5B
330
8188
100
AcDbEntity
  8
1
100
AcDbPoint
 10
4890.255065109373
 20
2472.298180525843
 30
0.0
  0
LINE
  5
7C5C
330
8188
100
AcDbEntity
  8
1
100
AcDbLine
 10
2795.462242941992
 20
4249.291137356863
 30
0.0
 11
1045.462242941992
 21
4249.291137356863
 31
0.0
  0
LINE
  5
7C5D
330
8188
100
AcDbEntity
  8
1
100
AcDbLine
 10
2045.462242941992
 20
5504.291137356862
 30
0.0
 11
1045.462242941992
 21
5504.291137356862
 31
0.0
  0
LINE
  5
7C5E
330
8188
100
AcDbEntity
  8
1
100
AcDbLine
 10
1045.462242941992
 20
5504.291137356862
 30
0.0
 11
1045.462242941992
 21
5451.291137356861
 31
0.0
  0
LINE
  5
7C5F
330
8188
100
AcDbEntity
  8
1
100
AcDbLine
 10
2795.462242941992
 20
4999.291137356863
 30
0.0
 11
2795.462242941992
 21
4249.291137356863
 31
0.0
  0
LINE
  5
7C60
330
8188
100
AcDbEntity
  8
1
100
AcDbLine
 10
2045.462242941993
 20
5504.291137356862
 30
0.0
 11
2045.462242941993
 21
5451.291137356863
 31
0.0
  0
LINE
  5
7C61
330
8188
100
AcDbEntity
  8
1
100
AcDbLine
 10
2795.462242941992
 20
4999.291137356863
 30
0.0
 11
2229.122326694983
 21
4999.291137356863
 31
0.0
  0
LINE
  5
7C62
330
8188
100
AcDbEntity
  8
2
100
AcDbLine
 10
2279.188128084268
 20
4951.291137356863
 30
0.0
 11
965.0698745335612
 21
4951.291137356861
 31
0.0
  0
LINE
  5
7C63
330
8188
100
AcDbEntity
  8
2
100
AcDbLine
 10
1545.462242941994
 20
5537.275052893789
 30
0.0
 11
1545.462242941992
 21
4014.427486206725
 31
0.0
  0
LINE
  5
7C64
330
8188
100
AcDbEntity
  8
2
100
AcDbLine
 10
2545.462242941992
 20
4865.781126840807
 30
0.0
 11
2545.462242941992
 21
4014.427486206725
 31
0.0
  0
LINE
  5
7C67
330
8188
100
AcDbEntity
  8
1
100
AcDbLine
 10
4833.255065109372
 20
2021.798180525843
 30
0.0
 11
4833.255065109372
 21
1921.798180525843
 31
0.0
  0
LINE
  5
7C68
330
8188
100
AcDbEntity
  8
1
100
AcDbLine
 10
3578.255065109371
 20
2021.798180525843
 30
0.0
 11
4833.255065109369
 21
2021.798180525844
 31
0.0
1001
ACAD
1000
ASC_BOUNDS
1002
{
1070
    19
1002
}
  0
LINE
  5
7C69
330
8188
100
AcDbEntity
  8
1
100
AcDbLine
 10
3578.255065109371
 20
1921.798180525843
 30
0.0
 11
4833.255065109372
 21
1921.798180525843
 31
0.0
  0
LINE
  5
7C6A
330
8188
100
AcDbEntity
  8
1
100
AcDbLine
 10
3578.255065109371
 20
2021.798180525843
 30
0.0
 11
3578.255065109371
 21
1921.798180525843
 31
0.0
  0
DIMENSION
  5
7C6B
330
8188
100
AcDbEntity
  8
3
100
AcDbDimension
  2
*D7
 10
5081.778476006348
 20
2086.798180525844
 30
0.0
 11
5031.778476006349
 21
2511.798180525843
 31
0.0
 12
-633.6524400032722
 22
949.9105651163629
 32
0.0
 71
     5
 42
-1.0
  3
Standard
100
AcDbAlignedDimension
 13
4782.555065109372
 23
2936.798180525843
 33
0.0
 14
4782.555065109372
 24
2086.798180525844
 34
0.0
 50
90.0
100
AcDbRotatedDimension
1001
ACAD
1000
DSTYLE
1002
{
1070
    40
1040
25.0
1070
     3
1000
\U+03C6<>
1002
}
  0
LINE
  5
7C6C
330
8188
100
AcDbEntity
  8
1
100
AcDbLine
 10
3597.255065109372
 20
2541.798180525844
 30
0.0
 11
3780.255065109372
 21
2541.798180525844
 31
0.0
  0
LINE
  5
7C6D
330
8188
100
AcDbEntity
  8
1
100
AcDbLine
 10
3597.255065109372
 20
2481.798180525844
 30
0.0
 11
3644.108900367605
 21
2481.798180525843
 31
0.0
  0
ARC
  5
7C6F
330
8188
100
AcDbEntity
  8
1
100
AcDbCircle
 10
1545.462242941992
 20
2511.798180525843
 30
0.0
 40
220.0
100
AcDbArc
 50
76.50426671920421
 51
256.5042667192043
  0
ARC
  5
7C70
330
8188
100
AcDbEntity
  8
1
100
AcDbCircle
 10
2545.462242941994
 20
2271.798180525843
 30
0.0
 40
220.0
100
AcDbArc
 50
256.5042667192043
 51
76.50426671920415
  0
LINE
  5
7C71
330
8188
100
AcDbEntity
  8
1
100
AcDbLine
 10
1596.804292486564
 20
2725.723386961557
 30
0.0
 11
2596.804292486564
 21
2485.723386961558
 31
0.0
  0
LINE
  5
7C72
330
8188
100
AcDbEntity
  8
1
100
AcDbLine
 10
1577.137972660184
 20
2634.784554351646
 30
0.0
 11
2572.89791435145
 21
2378.321811398585
 31
0.0
  0
LINE
  5
7C73
330
8188
100
AcDbEntity
  8
1
100
AcDbLine
 10
1517.869342270698
 20
2387.831927728785
 30
0.0
 11
2521.562880155832
 21
2164.42583558351
 31
0.0
  0
LINE
  5
7C74
330
8188
100
AcDbEntity
  8
1
100
AcDbLine
 10
1494.120193397421
 20
2297.872974090129
 30
0.0
 11
2494.120193397421
 21
2057.87297409013
 31
0.0
  0
LINE
  5
7C75
330
8188
100
AcDbEntity
  8
1
100
AcDbLine
 10
2795.462242941992
 20
1921.798180525843
 30
0.0
 11
1045.462242941992
 21
1921.798180525843
 31
0.0
  0
LINE
  5
7C76
330
8188
100
AcDbEntity
  8
1
100
AcDbLine
 10
1045.462242941992
 20
2021.798180525843
 30
0.0
 11
2795.462242941992
 21
2021.798180525843
 31
0.0
1001
ACAD
1000
ASC_BOUNDS
1002
{
1070
    19
1005
0
1005
0
1002
}
  0
LINE
  5
7C77
330
8188
100
AcDbEntity
  8
1
100
AcDbLine
 10
2795.462242941992
 20
2021.798180525843
 30
0.0
 11
2795.462242941992
 21
1921.798180525843
 31
0.0
  0
LINE
  5
7C78
330
8188
100
AcDbEntity
  8
1
100
AcDbLine
 10
1045.462242941992
 20
2021.798180525843
 30
0.0
 11
1045.462242941992
 21
1921.798180525843
 31
0.0
  0
CIRCLE
  5
7C7A
330
8188
100
AcDbEntity
  8
1
100
AcDbCircle
 10
1545.462242941992
 20
2511.798180525843
 30
0.0
 40
425.0
  0
CIRCLE
  5
7C7B
330
8188
100
AcDbEntity
  8
1
100
AcDbCircle
 10
1545.462242941992
 20
2511.798180525843
 30
0.0
 40
465.0
  0
LINE
  5
7C7C
330
8188
100
AcDbEntity
  8
1
100
AcDbLine
 10
2343.462242941993
 20
2061.798180525844
 30
0.0
 11
2747.462242941992
 21
2061.798180525844
 31
0.0
  0
POINT
  5
7C81
330
8188
100
AcDbEntity
  8
1
100
AcDbPoint
 10
1045.462242941992
 20
1921.798180525843
 30
0.0
  0
LINE
  5
7C82
330
8188
100
AcDbEntity
  8
1
100
AcDbLine
 10
2229.122326694983
 20
5451.291137356863
 30
0.0
 11
1000.462242941994
 21
5451.291137356861
 31
0.0
  0
LINE
  5
7C83
330
8188
100
AcDbEntity
  8
1
100
AcDbLine
 10
2229.122326694983
 20
4451.291137356863
 30
0.0
 11
1000.462242941993
 21
4451.291137356861
 31
0.0
  0
LINE
  5
7C84
330
8188
100
AcDbEntity
  8
1
100
AcDbLine
 10
1000.462242941994
 20
5494.291137356864
 30
0.0
 11
1000.462242941992
 21
4408.291137356863
 31
0.0
  0
LINE
  5
7C85
330
8188
100
AcDbEntity
  8
1
100
AcDbLine
 10
2229.122326694983
 20
4451.291137356863
 30
0.0
 11
2229.122326694983
 21
5451.291137356863
 31
0.0
  0
LINE
  5
7C86
330
8188
100
AcDbEntity
  8
1
100
AcDbLine
 10
1003.462242941994
 20
5494.291137356862
 30
0.0
 11
1000.462242941994
 21
5494.291137356862
 31
0.0
  0
LINE
  5
7C87
330
8188
100
AcDbEntity
  8
1
100
AcDbLine
 10
1003.462242941992
 20
4408.291137356861
 30
0.0
 11
1000.462242941993
 21
4408.291137356861
 31
0.0
  0
LINE
  5
7C88
330
8188
100
AcDbEntity
  8
1
100
AcDbLine
 10
1040.462242941994
 20
5451.291137356861
 30
0.0
 11
1040.462242941992
 21
4451.291137356861
 31
0.0
  0
LINE
  5
7C89
330
8188
100
AcDbEntity
  8
1
100
AcDbLine
 10
1003.462242941994
 20
5494.291137356864
 30
0.0
 11
1003.462242941992
 21
4408.291137356863
 31
0.0
  0
LINE
  5
7C8A
330
8188
100
AcDbEntity
  8
1
100
AcDbLine
 10
1045.462242941992
 20
4451.291137356861
 30
0.0
 11
1045.462242941992
 21
4249.291137356863
 31
0.0
  0
DIMENSION
  5
7C90
330
8188
100
AcDbEntity
  8
3
100
AcDbDimension
  2
*D8
 10
1045.462242941992
 20
5655.414420907815
 30
0.0
 11
1545.462242941993
 21
5705.414420907815
 31
0.0
 12
-633.6524400032722
 22
949.9105651163629
 32
0.0
 71
     5
 42
-1.0
  3
Standard
100
AcDbAlignedDimension
 13
2045.462242941993
 23
5504.291137356862
 33
0.0
 14
1045.462242941992
 24
5504.291137356862
 34
0.0
100
AcDbRotatedDimension
1001
ACAD
1000
DSTYLE
1002
{
1070
    40
1040
25.0
1002
}
  0
DIMENSION
  5
7C91
330
8188
100
AcDbEntity
  8
3
100
AcDbDimension
  2
*D9
 10
827.5255147921035
 20
4249.291137356863
 30
0.0
 11
827.5255147921035
 21
4876.791137356862
 31
0.0
 12
-633.6524400032722
 22
949.9105651163629
 32
0.0
 70
   128
 71
     5
 42
-1.0
  3
Standard
100
AcDbAlignedDimension
 13
1045.462242941992
 23
5504.291137356862
 33
0.0
 14
1045.462242941992
 24
4249.291137356863
 34
0.0
 50
270.0
100
AcDbRotatedDimension
1001
ACAD
1000
DSTYLE
1002
{
1070
    40
1040
25.0
1002
}
  0
DIMENSION
  5
7C92
330
8188
100
AcDbEntity
  8
3
100
AcDbDimension
  2
*D10
 10
2947.615072065305
 20
4249.291137356863
 30
0.0
 11
2897.615072065306
 21
4624.291137356862
 31
0.0
 12
-633.6524400032722
 22
949.9105651163629
 32
0.0
 71
     5
 42
-1.0
  3
Standard
100
AcDbAlignedDimension
 13
2795.462242941992
 23
4999.291137356863
 33
0.0
 14
2795.462242941992
 24
4249.291137356863
 34
0.0
 50
270.0
100
AcDbRotatedDimension
1001
ACAD
1000
DSTYLE
1002
{
1070
    40
1040
25.0
1002
}
  0
LINE
  5
7C93
330
8188
100
AcDbEntity
  8
1
100
AcDbLine
 10
2655.462242941992
 20
4183.291137356864
 30
0.0
 11
2435.462242941992
 21
4183.291137356863
 31
0.0
  0
LINE
  5
7C94
330
8188
100
AcDbEntity
  8
1
100
AcDbLine
 10
2655.462242941992
 20
4268.291137356864
 30
0.0
 11
2435.462242941993
 21
4268.291137356864
 31
0.0
  0
LINE
  5
7C95
330
8188
100
AcDbEntity
  8
1
100
AcDbLine
 10
1418.462242941992
 20
4268.291137356863
 30
0.0
 11
1418.462242941992
 21
4183.291137356863
 31
0.0
  0
LINE
  5
7C96
330
8188
100
AcDbEntity
  8
1
100
AcDbLine
 10
1672.462242941992
 20
4268.291137356864
 30
0.0
 11
1672.462242941992
 21
4183.291137356863
 31
0.0
  0
LINE
  5
7C97
330
8188
100
AcDbEntity
  8
1
100
AcDbLine
 10
2435.462242941992
 20
4268.291137356864
 30
0.0
 11
2435.462242941992
 21
4183.291137356864
 31
0.0
  0
LINE
  5
7C98
330
8188
100
AcDbEntity
  8
1
100
AcDbLine
 10
2655.462242941992
 20
4268.291137356865
 30
0.0
 11
2655.462242941992
 21
4183.291137356864
 31
0.0
  0
LINE
  5
7C99
330
8188
100
AcDbEntity
  8
1
100
AcDbLine
 10
1672.462242941992
 20
4183.291137356863
 30
0.0
 11
1418.462242941992
 21
4183.291137356863
 31
0.0
  0
LINE
  5
7C9A
330
8188
100
AcDbEntity
  8
1
100
AcDbLine
 10
1672.462242941992
 20
4268.291137356863
 30
0.0
 11
1418.462242941992
 21
4268.291137356863
 31
0.0
  0
LINE
  5
7C9B
330
8188
100
AcDbEntity
  8
1
100
AcDbLine
 10
2765.462242941993
 20
4051.291137356864
 30
0.0
 11
1325.462242941992
 21
4051.291137356863
 31
0.0
  0
LINE
  5
7C9C
330
8188
100
AcDbEntity
  8
1
100
AcDbLine
 10
1325.462242941992
 20
4298.291137356863
 30
0.0
 11
1325.462242941992
 21
4051.291137356863
 31
0.0
  0
LINE
  5
7C9D
330
8188
100
AcDbEntity
  8
1
100
AcDbLine
 10
2765.462242941993
 20
4298.291137356864
 30
0.0
 11
2765.462242941993
 21
4051.291137356864
 31
0.0
  0
LINE
  5
7C9E
330
8188
100
AcDbEntity
  8
1
100
AcDbLine
 10
2765.462242941993
 20
4298.291137356864
 30
0.0
 11
1325.462242941991
 21
4298.291137356863
 31
0.0
  0
POINT
  5
7CA0
330
8188
100
AcDbEntity
  8
1
100
AcDbPoint
 10
4890.255065109373
 20
2472.298180525843
 30
0.0
  0
DIMENSION
  5
7CA1
330
8188
100
AcDbEntity
  8
3
100
AcDbDimension
  2
*D12
 10
4780.255065109371
 20
3512.101087545458
 30
0.0
 11
4280.255065109371
 21
3562.101087545458
 31
0.0
 12
-633.6524400032722
 22
949.9105651163629
 32
0.0
 71
     5
 42
-1.0
  3
Standard
100
AcDbAlignedDimension
 13
3780.255065109372
 23
3359.798180525845
 33
0.0
 14
4780.255065109371
 24
3359.798180525845
 34
0.0
100
AcDbRotatedDimension
1001
ACAD
1000
DSTYLE
1002
{
1070
    40
1040
25.0
1002
}
  0
POINT
  5
7CA2
330
8188
100
AcDbEntity
  8
1
100
AcDbPoint
 10
4890.255065109373
 20
2472.298180525843
 30
0.0
  0
POINT
  5
7CA3
330
8188
100
AcDbEntity
  8
1
100
AcDbPoint
 10
3380.255065109371
 20
2731.798180525843
 30
0.0
  0
DIMENSION
  5
7CA5
330
8188
100
AcDbEntity
  8
3
100
AcDbDimension
  2
*D14
 10
1000.462242941992
 20
3514.117361428644
 30
0.0
 11
1272.962242941992
 21
3564.117361428643
 31
0.0
 12
-633.6524400032722
 22
949.9105651163629
 32
0.0
 71
     5
 42
-1.0
  3
Standard
100
AcDbAlignedDimension
 13
1545.462242941992
 23
3370.481513153087
 33
0.0
 14
1000.462242941992
 24
3402.298180525844
 34
0.0
100
AcDbRotatedDimension
1001
ACAD
1000
DSTYLE
1002
{
1070
    40
1040
25.0
1002
}
  0
DIMENSION
  5
7CA6
330
8188
100
AcDbEntity
  8
3
100
AcDbDimension
  2
*D15
 10
1000.462242941992
 20
3661.054274845813
 30
0.0
 11
1897.962242941992
 21
3711.054274845813
 31
0.0
 12
-633.6524400032722
 22
949.9105651163629
 32
0.0
 71
     5
 42
-1.0
  3
Standard
100
AcDbAlignedDimension
 13
2795.462242941992
 23
2021.798180525843
 33
0.0
 14
1000.462242941992
 24
3402.298180525844
 34
0.0
100
AcDbRotatedDimension
1001
ACAD
1000
DSTYLE
1002
{
1070
    40
1040
25.0
1002
}
  0
LINE
  5
7CA7
330
8188
100
AcDbEntity
  8
1
100
AcDbLine
 10
2707.462242941992
 20
4837.791137356865
 30
0.0
 11
2383.462242941992
 21
4837.791137356862
 31
0.0
  0
LINE
  5
7CA8
330
8188
100
AcDbEntity
  8
1
100
AcDbLine
 10
2707.462242941992
 20
4308.791137356864
 30
0.0
 11
2383.462242941992
 21
4308.791137356863
 31
0.0
  0
LINE
  5
7CA9
330
8188
100
AcDbEntity
  8
1
100
AcDbLine
 10
2524.462242941992
 20
4308.791137356864
 30
0.0
 11
2524.462242941992
 21
4268.291137356864
 31
0.0
  0
LINE
  5
7CAA
330
8188
100
AcDbEntity
  8
1
100
AcDbLine
 10
2566.462242941992
 20
4308.791137356864
 30
0.0
 11
2566.462242941992
 21
4268.291137356864
 31
0.0
  0
LINE
  5
7CAB
330
8188
100
AcDbEntity
  8
1
100
AcDbLine
 10
2707.462242941992
 20
4837.791137356866
 30
0.0
 11
2707.462242941992
 21
4308.791137356864
 31
0.0
  0
LINE
  5
7CAC
330
8188
100
AcDbEntity
  8
1
100
AcDbLine
 10
2383.462242941992
 20
4837.791137356862
 30
0.0
 11
2383.462242941992
 21
4308.791137356863
 31
0.0
  0
LINE
  5
7CAE
330
8188
100
AcDbEntity
  8
1
100
AcDbLine
 10
4166.755065109369
 20
2109.798180525844
 30
0.0
 11
3637.755065109369
 21
2109.798180525844
 31
0.0
  0
LINE
  5
7CAF
330
8188
100
AcDbEntity
  8
1
100
AcDbLine
 10
4166.755065109373
 20
2433.798180525843
 30
0.0
 11
3637.755065109374
 21
2433.798180525843
 31
0.0
  0
LINE
  5
7CB0
330
8188
100
AcDbEntity
  8
1
100
AcDbLine
 10
3637.755065109372
 20
2433.798180525843
 30
0.0
 11
3637.755065109369
 21
2109.798180525844
 31
0.0
  0
LINE
  5
7CB1
330
8188
100
AcDbEntity
  8
1
100
AcDbLine
 10
3637.755065109371
 20
2292.798180525843
 30
0.0
 11
3597.255065109372
 21
2292.798180525843
 31
0.0
  0
LINE
  5
7CB2
330
8188
100
AcDbEntity
  8
1
100
AcDbLine
 10
3637.755065109371
 20
2250.798180525844
 30
0.0
 11
3597.255065109372
 21
2250.798180525844
 31
0.0
  0
LINE
  5
7CB3
330
8188
100
AcDbEntity
  8
1
100
AcDbLine
 10
3597.255065109372
 20
2381.798180525843
 30
0.0
 11
3597.255065109372
 21
2161.798180525843
 31
0.0
  0
LINE
  5
7CB4
330
8188
100
AcDbEntity
  8
1
100
AcDbLine
 10
3512.255065109371
 20
2381.798180525843
 30
0.0
 11
3512.255065109371
 21
2161.798180525843
 31
0.0
  0
LINE
  5
7CBD
330
8188
100
AcDbEntity
  8
1
100
AcDbLine
 10
4166.755065109373
 20
2433.798180525839
 30
0.0
 11
4166.755065109369
 21
2109.798180525839
 31
0.0
  0
LINE
  5
7CBE
330
8188
100
AcDbEntity
  8
1
100
AcDbLine
 10
4072.916755590035
 20
2109.798180525844
 30
0.0
 11
4072.916755590035
 21
2021.798180525843
 31
0.0
  0
LINE
  5
7CBF
330
8188
100
AcDbEntity
  8
1
100
AcDbLine
 10
3694.262011192173
 20
2109.798180525844
 30
0.0
 11
3694.262011192171
 21
2021.798180525843
 31
0.0
  0
LINE
  5
7CC0
330
8188
100
AcDbEntity
  8
1
100
AcDbLine
 10
3694.262011192171
 20
2061.798180525844
 30
0.0
 11
4072.916755590035
 21
2061.798180525844
 31
0.0
  0
LINE
  5
7EED
330
8188
100
AcDbEntity
  8
4
100
AcDbLine
 10
4625.0
 20
1250.0
 30
0.0
 11
4625.0
 21
750.0
 31
0.0
  0
LINE
  5
7EEE
330
8188
100
AcDbEntity
  8
4
100
AcDbLine
 10
2875.0
 20
1250.0
 30
0.0
 11
2875.0
 21
750.0
 31
0.0
  0
LINE
  5
7EEF
330
8188
100
AcDbEntity
  8
4
100
AcDbLine
 10
1625.0
 20
1250.0
 30
0.0
 11
1625.0
 21
750.0
 31
0.0
  0
LINE
  5
7EF2
330
8188
100
AcDbEntity
  8
4
100
AcDbLine
 10
1625.0
 20
750.0
 30
0.0
 11
4625.0
 21
750.0
 31
0.0
  0
LINE
  5
7EF3
330
8188
100
AcDbEntity
  8
4
100
AcDbLine
 10
1625.0
 20
1000.0
 30
0.0
 11
4625.0
 21
1000.0
 31
0.0
  0
TEXT
  5
7EF4
330
8188
100
AcDbEntity
  8
4
100
AcDbText
 10
1721.255202117253
 20
1078.857564666532
 30
0.0
 40
125.0
  1
機器名称
100
AcDbText
  0
TEXT
  5
7EF5
330
8188
100
AcDbEntity
  8
4
100
AcDbText
 10
1715.645265061993
 20
804.1128918300273
 30
0.0
 40
125.0
  1
機器型番
100
AcDbText
  0
TEXT
  5
7EF6
330
8188
100
AcDbEntity
  8
4
100
AcDbText
 10
2944.196863719162
 20
1056.429422393921
 30
0.0
 40
125.0
  1
ミツヤ多翼送風機
100
AcDbText
  0
TEXT
  5
7EF7
330
8188
100
AcDbEntity
  8
4
100
AcDbText
 10
2966.636238963701
 20
792.8989606998584
 30
0.0
 40
125.0
  1
MF#5-5
100
AcDbText
  0
TEXT
  5
7EF9
330
8188
100
AcDbEntity
  8
4
100
AcDbText
 10
1918.735985024545
 20
5958.572103331289
 30
0.0
 40
135.0
  1
床置ベット
100
AcDbText
  0
TEXT
  5
7EFA
330
8188
100
AcDbEntity
  8
4
100
AcDbText
 10
790.4189833236158
 20
6334.702440498245
 30
0.0
 40
180.0
  1
遠心式両吸込両持多翼ファン
100
AcDbText
  0
LINE
  5
7EFB
330
8188
100
AcDbEntity
  8
4
100
AcDbLine
 10
625.0
 20
6173.521885662012
 30
0.0
 11
4625.0
 21
6173.521885662012
 31
0.0
  0
LINE
  5
7EFC
330
8188
100
AcDbEntity
  8
4
100
AcDbLine
 10
625.0
 20
6673.521885662011
 30
0.0
 11
4625.0
 21
6673.521885662011
 31
0.0
  0
LINE
  5
7EFD
330
8188
100
AcDbEntity
  8
4
100
AcDbLine
 10
1625.0
 20
1250.0
 30
0.0
 11
4625.0
 21
1250.0
 31
0.0
  0
LINE
  5
7EFE
330
8188
100
AcDbEntity
  8
4
100
AcDbLine
 10
625.0
 20
6673.521885662011
 30
0.0
 11
625.0
 21
6173.521885662012
 31
0.0
  0
TEXT
  5
7EFF
330
8188
100
AcDbEntity
  8
4
100
AcDbText
 10
829.0889044177893
 20
5955.798693865858
 30
0.0
 40
135.0
  1
左回転左横向
100
AcDbText
  0
TEXT
  5
7F00
330
8188
100
AcDbEntity
  8
4
100
AcDbText
 10
3672.423898123224
 20
6765.15270373827
 30
0.0
 40
140.0
  1
No.
100
AcDbText
  0
TEXT
  5
7F01
330
8188
100
AcDbEntity
  8
4
100
AcDbText
 10
3278.240156500032
 20
5958.572103331289
 30
0.0
 40
135.0
  1
縮尺：1/25
100
AcDbText
  0
LINE
  5
7F02
330
8188
100
AcDbEntity
  8
4
100
AcDbLine
 10
4625.0
 20
6673.521885662011
 30
0.0
 11
4625.0
 21
6173.521885662012
 31
0.0
  0
LINE
  5
7F03
330
8188
100
AcDbEntity
  8
4
100
AcDbLine
 10
5250.0
 20
7375.0
 30
0.0
 11
5250.0
 21
7375.0
 31
0.0
  0
LINE
  5
7F04
330
8188
100
AcDbEntity
  8
4
100
AcDbLine
 10
3601.543555899662
 20
6703.158957813504
 30
0.0
 11
3601.543555899662
 21
6966.630653874381
 31
0.0
  0
LINE
  5
7F05
330
8188
100
AcDbEntity
  8
4
100
AcDbLine
 10
3601.543555899662
 20
6966.630653874381
 30
0.0
 11
4625.0
 21
6966.630653874381
 31
0.0
  0
LINE
  5
7F06
330
8188
100
AcDbEntity
  8
4
100
AcDbLine
 10
4625.0
 20
6966.630653874381
 30
0.0
 11
4625.0
 21
6703.158957813504
 31
0.0
  0
LINE
  5
7F07
330
8188
100
AcDbEntity
  8
4
100
AcDbLine
 10
4625.0
 20
6703.158957813504
 30
0.0
 11
3601.543555899662
 21
6703.158957813504
 31
0.0
  0
LINE
  5
7F08
330
8188
100
AcDbEntity
  8
4
100
AcDbLine
 10
0.0
 20
0.0
 30
0.0
 11
0.0
 21
7375.0
 31
0.0
  0
LINE
  5
7F09
330
8188
100
AcDbEntity
  8
4
100
AcDbLine
 10
0.0
 20
7375.0
 30
0.0
 11
5250.0
 21
7375.0
 31
0.0
  0
LINE
  5
7F0A
330
8188
100
AcDbEntity
  8
4
100
AcDbLine
 10
5250.0
 20
7375.0
 30
0.0
 11
5250.0
 21
0.0
 31
0.0
  0
LINE
  5
7F0B
330
8188
100
AcDbEntity
  8
4
100
AcDbLine
 10
5250.0
 20
0.0
 30
0.0
 11
0.0
 21
0.0
 31
0.0
  0
DIMENSION
  5
8073
330
8188
100
AcDbEntity
  8
3
100
AcDbDimension
  2
*D21
 10
1545.462242941992
 20
1744.116765470578
 30
0.0
 11
1295.462242941992
 21
1806.616765470578
 31
0.0
 71
     5
 42
-1.0
  3
Standard
100
AcDbAlignedDimension
 13
1045.462242941992
 23
1921.798180525843
 33
0.0
 14
1545.462242941992
 24
1921.798180525843
 34
0.0
100
AcDbRotatedDimension
1001
ACAD
1000
DSTYLE
1002
{
1070
   172
1070
     1
1070
    40
1040
25.0
1070
    42
1040
1.0
1070
   271
1070
     0
1070
   143
1040
0.039
1002
}
  0
DIMENSION
  5
8080
330
8188
100
AcDbEntity
  8
3
100
AcDbDimension
  2
*D22
 10
2795.462242941992
 20
1744.116765470578
 30
0.0
 11
2170.462242941992
 21
1806.616765470578
 31
0.0
 71
     5
 42
-1.0
  3
Standard
100
AcDbAlignedDimension
 13
1545.462242941992
 23
1921.798180525843
 33
0.0
 14
2795.462242941992
 24
1921.798180525843
 34
0.0
100
AcDbRotatedDimension
1001
ACAD
1000
DSTYLE
1002
{
1070
   172
1070
     1
1070
    40
1040
25.0
1070
    42
1040
1.0
1070
   271
1070
     0
1070
   143
1040
0.039
1002
}
  0
DIMENSION
  5
808D
330
8188
100
AcDbEntity
  8
3
100
AcDbDimension
  2
*D23
 10
4280.255065109371
 20
1744.116765470578
 30
0.0
 11
3929.255065109371
 21
1806.616765470578
 31
0.0
 71
     5
 42
-1.0
  3
Standard
100
AcDbAlignedDimension
 13
3578.255065109371
 23
1921.798180525843
 33
0.0
 14
4280.255065109371
 24
1921.798180525843
 34
0.0
100
AcDbRotatedDimension
1001
ACAD
1000
DSTYLE
1002
{
1070
   172
1070
     1
1070
    40
1040
25.0
1070
    42
1040
1.0
1070
   271
1070
     0
1070
   143
1040
0.039
1002
}
  0
DIMENSION
  5
809A
330
8188
100
AcDbEntity
  8
3
100
AcDbDimension
  2
*D24
 10
4833.255065109372
 20
1744.116765470578
 30
0.0
 11
4556.755065109372
 21
1806.616765470578
 31
0.0
 71
     5
 42
-1.0
  3
Standard
100
AcDbAlignedDimension
 13
4280.255065109371
 23
1921.798180525843
 33
0.0
 14
4833.255065109372
 24
1921.798180525843
 34
0.0
100
AcDbRotatedDimension
1001
ACAD
1000
DSTYLE
1002
{
1070
   172
1070
     1
1070
    40
1040
25.0
1070
    42
1040
1.0
1070
   271
1070
     0
1070
   143
1040
0.039
1002
}
  0
DIMENSION
  5
80A7
330
8188
100
AcDbEntity
  8
3
100
AcDbDimension
  2
*D25
 10
546.8750934903073
 20
3359.798180525845
 30
0.0
 11
484.3750934903072
 21
2640.798180525844
 31
0.0
 71
     5
 42
-1.0
  3
Standard
100
AcDbAlignedDimension
 13
1045.462242941992
 23
1921.798180525843
 33
0.0
 14
975.4622429419928
 24
3359.798180525845
 34
0.0
 50
90.0
100
AcDbRotatedDimension
1001
ACAD
1000
DSTYLE
1002
{
1070
   172
1070
     1
1070
    40
1040
25.0
1070
    42
1040
1.0
1070
   271
1070
     0
1070
   143
1040
0.039
1002
}
  0
DIMENSION
  5
86EA
330
8188
100
AcDbEntity
  8
3
100
AcDbDimension
  2
*D71
 10
4280.255065109371
 20
3785.699289516339
 30
0.0
 11
3830.255065109371
 21
3867.842146659196
 31
0.0
 70
    32
  1
(<>)
 71
     5
 42
900.0
  3
IGA
100
AcDbAlignedDimension
 13
3380.255065109371
 23
2731.798180525843
 33
0.0
 14
4280.255065109371
 24
3599.601087545458
 34
0.0
100
AcDbRotatedDimension
1001
ACAD
1000
DSTYLE
1002
{
1070
    40
1040
25.0
1070
    42
1040
1.0
1070
   143
1040
0.039
1070
   172
1070
     1
1070
   271
1070
     4
1070
   272
1070
     4
1070
   279
1070
     0
1070
   284
1070
     0
1070
   285
1070
     0
1070
   286
1070
     0
1070
   341
1005
819C
1070
   343
1005
819C
1070
   344
1005
819C
1002
}
  0
DIMENSION
  5
8707
330
8188
100
AcDbEntity
  8
3
100
AcDbDimension
  2
*D73
 10
4890.255065109371
 20
3785.699289516339
 30
0.0
 11
4585.255065109371
 21
3867.842146659196
 31
0.0
 70
    32
  1
(<>)
 71
     5
 42
610.0000000000009
  3
IGA
100
AcDbAlignedDimension
 13
4280.255065109371
 23
3599.601087545458
 33
0.0
 14
4890.255065109371
 24
2472.298180525843
 34
0.0
100
AcDbRotatedDimension
1001
ACAD
1000
DSTYLE
1002
{
1070
    40
1040
25.0
1070
    42
1040
1.0
1070
   143
1040
0.039
1070
   172
1070
     1
1070
   271
1070
     4
1070
   272
1070
     4
1070
   279
1070
     1
1070
   284
1070
     0
1070
   285
1070
     0
1070
   286
1070
     0
1070
   341
1005
819C
1070
   343
1005
819C
1070
   344
1005
819C
1002
}
  0
DIMENSION
  5
8769
330
8188
100
AcDbEntity
  8
3
100
AcDbDimension
  2
*D75
 10
2795.462242941992
 20
3903.841507697857
 30
0.0
 11
1920.462242941992
 21
3966.341507697857
 31
0.0
 70
    32
 71
     5
 42
1750.0
  3
IGA
100
AcDbAlignedDimension
 13
1045.462242941992
 23
4249.291137356863
 33
0.0
 14
2795.462242941992
 24
4249.291137356863
 34
0.0
100
AcDbRotatedDimension
1001
ACAD
1000
DSTYLE
1002
{
1070
    40
1040
25.0
1070
    42
1040
1.0
1070
   143
1040
0.039
1070
   172
1070
     1
1070
   271
1070
     4
1070
   272
1070
     4
1070
   279
1070
     0
1070
   284
1070
     0
1070
   285
1070
     0
1070
   286
1070
     0
1070
   341
1005
819C
1070
   343
1005
819C
1070
   344
1005
819C
1002
}
  0
DIMENSION
  5
8776
330
8188
100
AcDbEntity
  8
3
100
AcDbDimension
  2
*D76
 10
2795.462242941992
 20
5655.414420907815
 30
0.0
 11
2420.462242941992
 21
5717.914420907815
 31
0.0
 70
    32
 71
     5
 42
749.9999999999995
  3
IGA
100
AcDbAlignedDimension
 13
2045.462242941993
 23
5504.291137356862
 33
0.0
 14
2795.462242941992
 24
4999.291137356863
 34
0.0
100
AcDbRotatedDimension
1001
ACAD
1000
DSTYLE
1002
{
1070
    40
1040
25.0
1070
    42
1040
1.0
1070
   143
1040
0.039
1070
   172
1070
     1
1070
   271
1070
     4
1070
   272
1070
     4
1070
   279
1070
     0
1070
   284
1070
     0
1070
   285
1070
     0
1070
   286
1070
     0
1070
   341
1005
819C
1070
   343
1005
819C
1070
   344
1005
819C
1002
}
  0
ARC
  5
878E
330
8188
100
AcDbEntity
  8
FUTO
100
AcDbCircle
 10
1592.962242941992
 20
2464.298180525843
 30
0.0
 40
510.5
100
AcDbArc
 50
180.0
 51
240.0885665287069
  0
LINE
  5
878F
330
8188
100
AcDbEntity
  8
FUTO
100
AcDbLine
 10
1000.462242941992
 20
3359.798180525843
 30
0.0
 11
1545.462242941992
 21
3303.426326313322
 31
0.0
  0
ARC
  5
8790
330
8188
100
AcDbEntity
  8
FUTO
100
AcDbCircle
 10
1604.462242941992
 20
2570.798180525843
 30
0.0
 40
617.0
100
AcDbArc
 50
297.1532172619914
 51
0.0
  0
ARC
  5
8791
330
8188
100
AcDbEntity
  8
FUTO
100
AcDbCircle
 10
1486.462242941992
 20
2570.798180525843
 30
0.0
 40
735.0
100
AcDbArc
 50
0.0
 51
85.39579327349878
  0
ARC
  5
8792
330
8188
100
AcDbEntity
  8
FUTO
100
AcDbCircle
 10
1514.962242941992
 20
2481.298180525843
 30
0.0
 40
432.5
100
AcDbArc
 50
172.8943447527032
 51
180.0
  0
LINE
  5
8793
330
8188
100
AcDbEntity
  8
FUTO
100
AcDbLine
 10
1085.783958309602
 20
2534.798180525843
 30
0.0
 11
1000.462242941992
 21
2534.798180525843
 31
0.0
  0
LINE
  5
8794
330
8188
100
AcDbEntity
  8
FUTO
100
AcDbLine
 10
1082.462242941992
 20
2464.298180525843
 30
0.0
 11
1082.462242941992
 21
2481.298180525843
 31
0.0
  0
LINE
  5
8795
330
8188
100
AcDbEntity
  8
1
100
AcDbLine
 10
1000.462242941992
 20
3402.298180525843
 30
0.0
 11
1000.462242941994
 21
2492.298180525843
 31
0.0
  0
LINE
  5
8796
330
8188
100
AcDbEntity
  8
1
100
AcDbLine
 10
1000.462242941992
 20
3402.298180525843
 30
0.0
 11
1003.462242941992
 21
3402.298180525843
 31
0.0
  0
LINE
  5
8797
330
8188
100
AcDbEntity
  8
1
100
AcDbLine
 10
1000.462242941994
 20
2492.298180525843
 30
0.0
 11
1003.462242941994
 21
2492.298180525843
 31
0.0
  0
LINE
  5
8798
330
8188
100
AcDbEntity
  8
1
100
AcDbLine
 10
1040.462242941992
 20
3356.39708575542
 30
0.0
 11
1040.462242941994
 21
2534.798180525843
 31
0.0
  0
LINE
  5
8799
330
8188
100
AcDbEntity
  8
1
100
AcDbLine
 10
1003.462242941992
 20
3402.298180525843
 30
0.0
 11
1003.462242941994
 21
2492.298180525843
 31
0.0
  0
POINT
  5
879A
330
8188
100
AcDbEntity
  8
1
100
AcDbPoint
 10
980.24433227297
 20
2511.798180525843
 30
0.0
  0
POINT
  5
879B
330
8188
100
AcDbEntity
  8
1
100
AcDbPoint
 10
980.24433227297
 20
2511.798180525843
 30
0.0
  0
DIMENSION
  5
879C
330
8188
100
AcDbEntity
  8
3
100
AcDbDimension
  2
*D77
 10
2221.462242941992
 20
3514.117361428643
 30
0.0
 11
1883.462242941992
 21
3576.617361428643
 31
0.0
 70
    32
 71
     5
 42
676.0
  3
IGA
100
AcDbAlignedDimension
 13
1545.462242941992
 23
3370.481513153087
 33
0.0
 14
2221.462242941992
 24
2570.798180525843
 34
0.0
100
AcDbRotatedDimension
1001
ACAD
1000
DSTYLE
1002
{
1070
    40
1040
25.0
1070
    42
1040
1.0
1070
   143
1040
0.039
1070
   172
1070
     1
1070
   271
1070
     4
1070
   272
1070
     4
1070
   279
1070
     0
1070
   284
1070
     0
1070
   285
1070
     0
1070
   286
1070
     0
1070
   341
1005
819C
1070
   343
1005
819C
1070
   344
1005
819C
1002
}
  0
ENDSEC
  0
SECTION
  2
OBJECTS
  0
DICTIONARY
  5
8125
330
0
100
AcDbDictionary
281
     1
  3
ACAD_CIP_PREVIOUS_PRODUCT_INFO
350
81CC
  3
ACAD_COLOR
350
817B
  3
ACAD_DETAILVIEWSTYLE
350
8182
  3
ACAD_GROUP
350
8126
  3
ACAD_LAYOUT
350
817A
  3
ACAD_MATERIAL
350
8129
  3
ACAD_MLEADERSTYLE
350
817E
  3
ACAD_MLINESTYLE
350
8177
  3
ACAD_PLOTSETTINGS
350
8179
  3
ACAD_PLOTSTYLENAME
350
8127
  3
ACAD_SCALELIST
350
815B
  3
ACAD_SECTIONVIEWSTYLE
350
8180
  3
ACAD_TABLESTYLE
350
817C
  3
ACAD_VISUALSTYLE
350
8142
  3
ACDB_RECOMPOSE_DATA
350
887B
  3
AcDbVariableDictionary
350
861D
  3
DWGPROPS
350
887C
  0
DICTIONARY
  5
82C2
330
811B
100
AcDbDictionary
280
     1
281
     1
  3
ACAD_LAYERSTATES
360
82C3
  0
DICTIONARY
  5
8611
330
816D
100
AcDbDictionary
280
     1
281
     1
  3
ADSK_XREC_LAYER_RECONCILED
360
8612
  0
DICTIONARY
  5
8613
330
818C
100
AcDbDictionary
280
     1
281
     1
  3
ADSK_XREC_LAYER_RECONCILED
360
8614
  0
DICTIONARY
  5
8615
330
818F
100
AcDbDictionary
280
     1
281
     1
  3
ADSK_XREC_LAYER_RECONCILED
360
8616
  0
DICTIONARY
  5
8617
330
8190
100
AcDbDictionary
280
     1
281
     1
  3
ADSK_XREC_LAYER_RECONCILED
360
8618
  0
DICTIONARY
  5
8619
330
8191
100
AcDbDictionary
280
     1
281
     1
  3
ADSK_XREC_LAYER_RECONCILED
360
861A
  0
DICTIONARY
  5
82BE
330
82BD
100
AcDbDictionary
280
     1
281
     1
  3
ADSK_XREC_LAYER_RECONCILED
360
861B
  0
DICTIONARY
  5
82C0
330
82BF
100
AcDbDictionary
280
     1
281
     1
  3
ADSK_XREC_LAYER_RECONCILED
360
861C
  0
XRECORD
  5
81CC
102
{ACAD_REACTORS
330
8125
102
}
330
8125
100
AcDbXrecord
280
     1
300
ACDLT
300
2015
300
INVLTS_F_S
  0
DICTIONARY
  5
817B
102
{ACAD_REACTORS
330
8125
102
}
330
8125
100
AcDbDictionary
281
     1
  0
DICTIONARY
  5
8182
102
{ACAD_REACTORS
330
8125
102
}
330
8125
100
AcDbDictionary
281
     1
  3
Imperial24
350
8183
  3
Metric50
350
82C5
  0
DICTIONARY
  5
8126
102
{ACAD_REACTORS
330
8125
102
}
330
8125
100
AcDbDictionary
281
     1
  0
DICTIONARY
  5
817A
102
{ACAD_REACTORS
330
8125
102
}
330
8125
100
AcDbDictionary
281
     1
  3
Model
350
818B
  3
レイアウト1
350
8187
  0
DICTIONARY
  5
8129
102
{ACAD_REACTORS
330
8125
102
}
330
8125
100
AcDbDictionary
281
     1
  3
ByBlock
350
8132
  3
ByLayer
350
812A
  3
Global
350
813A
  0
DICTIONARY
  5
817E
102
{ACAD_REACTORS
330
8125
102
}
330
8125
100
AcDbDictionary
281
     1
  3
Standard
350
817F
  0
DICTIONARY
  5
8177
102
{ACAD_REACTORS
330
8125
102
}
330
8125
100
AcDbDictionary
281
     1
  3
Standard
350
8178
  0
DICTIONARY
  5
8179
102
{ACAD_REACTORS
330
8125
102
}
330
8125
100
AcDbDictionary
281
     1
  0
ACDBDICTIONARYWDFLT
  5
8127
102
{ACAD_REACTORS
330
8125
102
}
330
8125
100
AcDbDictionary
281
     1
  3
Normal
350
8128
100
AcDbDictionaryWithDefault
340
8128
  0
DICTIONARY
  5
815B
102
{ACAD_REACTORS
330
8125
102
}
330
8125
100
AcDbDictionary
281
     1
  3
A0
350
815C
  3
A1
350
815D
  3
A2
350
815E
  3
A3
350
815F
  3
A4
350
8160
  3
A5
350
8161
  3
A6
350
8162
  3
A7
350
8163
  3
A8
350
8164
  3
A9
350
8165
  3
B0
350
8166
  3
B1
350
8167
  3
B2
350
8168
  3
B3
350
8169
  3
B4
350
816A
  3
B5
350
816B
  3
B6
350
816C
  0
DICTIONARY
  5
8180
102
{ACAD_REACTORS
330
8125
102
}
330
8125
100
AcDbDictionary
281
     1
  3
Imperial24
350
8181
  3
Metric50
350
82C4
  0
DICTIONARY
  5
817C
102
{ACAD_REACTORS
330
8125
102
}
330
8125
100
AcDbDictionary
281
     1
  3
Standard
350
817D
  0
DICTIONARY
  5
8142
102
{ACAD_REACTORS
330
8125
102
}
330
8125
100
AcDbDictionary
281
     1
  3
2dWireframe
350
8148
  3
Basic
350
8147
  3
Brighten
350
814E
  3
ColorChange
350
8152
  3
Conceptual
350
814B
  3
Dim
350
814D
  3
EdgeColorOff
350
815A
  3
Facepattern
350
8151
  3
Flat
350
8143
  3
FlatWithEdges
350
8144
  3
Gouraud
350
8145
  3
GouraudWithEdges
350
8146
  3
Hidden
350
814A
  3
JitterOff
350
8158
  3
Linepattern
350
8150
  3
OverhangOff
350
8159
  3
Realistic
350
814C
  3
Shaded
350
8157
  3
Shaded with edges
350
8156
  3
Shades of Gray
350
8153
  3
Sketchy
350
8154
  3
Thicken
350
814F
  3
Wireframe
350
8149
  3
X-Ray
350
8155
  0
XRECORD
  5
887B
102
{ACAD_REACTORS
330
8125
102
}
330
8125
100
AcDbXrecord
280
     1
 90
        1
330
817D
  0
DICTIONARY
  5
861D
102
{ACAD_REACTORS
330
8125
102
}
330
8125
100
AcDbDictionary
281
     1
  3
CANNOSCALE
350
8622
  3
CMLEADERSTYLE
350
861F
  3
CTABLESTYLE
350
861E
  3
CVIEWDETAILSTYLE
350
8620
  3
CVIEWSECTIONSTYLE
350
8621
  3
DIMASSOC
350
8625
  3
INDEXCTL
350
8624
  3
SORTENTS
350
8623
  3
XCLIPFRAME
350
8626
  0
XRECORD
  5
887C
102
{ACAD_REACTORS
330
8125
102
}
330
8125
100
AcDbXrecord
280
     1
  1
DWGPROPS COOKIE
  2

  3

  4

  6

  7

  8
yasukiyo.ogawa
  9

300
=
301
=
302
=
303
=
304
=
305
=
306
=
307
=
308
=
309
=
 40
0.1862042476851852
 41
2451389.45581794
 42
2460265.753453507
  1

 90
        0
  0
DICTIONARY
  5
82C3
102
{ACAD_REACTORS
330
82C2
102
}
330
82C2
100
AcDbDictionary
281
     1
  0
XRECORD
  5
8612
102
{ACAD_REACTORS
330
8611
102
}
330
8611
100
AcDbXrecord
280
     1
290
     1
  0
XRECORD
  5
8614
102
{ACAD_REACTORS
330
8613
102
}
330
8613
100
AcDbXrecord
280
     1
290
     1
  0
XRECORD
  5
8616
102
{ACAD_REACTORS
330
8615
102
}
330
8615
100
AcDbXrecord
280
     1
290
     1
  0
XRECORD
  5
8618
102
{ACAD_REACTORS
330
8617
102
}
330
8617
100
AcDbXrecord
280
     1
290
     1
  0
XRECORD
  5
861A
102
{ACAD_REACTORS
330
8619
102
}
330
8619
100
AcDbXrecord
280
     1
290
     1
  0
XRECORD
  5
861B
102
{ACAD_REACTORS
330
82BE
102
}
330
82BE
100
AcDbXrecord
280
     1
290
     1
  0
XRECORD
  5
861C
102
{ACAD_REACTORS
330
82C0
102
}
330
82C0
100
AcDbXrecord
280
     1
290
     1
  0
ACDBDETAILVIEWSTYLE
  5
8183
102
{ACAD_XDICTIONARY
360
88B4
102
}
102
{ACAD_REACTORS
330
8182
102
}
330
8182
100
AcDbModelDocViewStyle
 70
     0
  3
Imperial24
290
     0
100
AcDbDetailViewStyle
 70
     0
 71
     0
 90
        3
 71
     1
340
816E
 40
0.24
340
0
 40
0.24
300

 40
0.36
280
     3
 71
     2
340
8175
 90
       25
 71
     3
340
816E
 40
0.24
 90
        1
 40
0.75
 90
        1
300
%<\AcVar ViewType \f "%tc1">% %<\AcVar ViewDetailId>%\PSCALE %<\AcVar ViewScale \f "%sn">%
 71
     4
340
8175
 90
       25
340
8175
 90
       25
280
     0
  0
ACDBDETAILVIEWSTYLE
  5
82C5
102
{ACAD_XDICTIONARY
360
88BC
102
}
102
{ACAD_REACTORS
330
8182
102
}
330
8182
100
AcDbModelDocViewStyle
 70
     0
  3
Metric50
290
     0
100
AcDbDetailViewStyle
 70
     0
 71
     0
 90
        3
 71
     1
340
816E
 40
5.0
340
0
 40
5.0
300

 40
0.0
280
     1
 71
     2
340
8175
 90
       25
 71
     3
340
816E
 40
5.0
 90
        0
 40
15.0
 90
        1
300
%<\AcVar ViewDetailId>% (%<\AcVar ViewScale \f "%sn">%)
 71
     4
340
8175
 90
       25
340
8175
 90
       25
280
     0
  0
LAYOUT
  5
818B
102
{ACAD_XDICTIONARY
360
88B8
102
}
102
{ACAD_REACTORS
330
817A
102
}
330
817A
100
AcDbPlotSettings
  1

  2
RICOH imagio MP W3600 RPCS
  4

  6

 40
0.0
 41
0.0
 42
0.0
 43
0.0
 44
0.0
 45
0.0
 46
0.0
 47
0.0
 48
0.0
 49
0.0
140
0.0
141
0.0
142
1.0
143
1.0
 70
  1712
 72
     0
 73
     0
 74
     0
  7

 75
     0
147
1.0
148
0.0
149
0.0
100
AcDbLayout
  1
Model
 70
     1
 71
     0
 10
0.0
 20
0.0
 11
12.0
 21
9.0
 12
0.0
 22
0.0
 32
0.0
 14
0.0
 24
0.0
 34
0.0
 15
0.0
 25
0.0
 35
0.0
146
0.0
 13
0.0
 23
0.0
 33
0.0
 16
1.0
 26
0.0
 36
0.0
 17
0.0
 27
1.0
 37
0.0
 76
     0
330
8188
331
818D
  0
LAYOUT
  5
8187
102
{ACAD_XDICTIONARY
360
88B6
102
}
102
{ACAD_REACTORS
330
817A
102
}
330
817A
100
AcDbPlotSettings
  1

  2
RICOH imagio MP W3600 RPCS
  4

  6

 40
0.0
 41
0.0
 42
0.0
 43
0.0
 44
0.0
 45
0.0
 46
0.0
 47
0.0
 48
0.0
 49
0.0
140
0.0
141
0.0
142
1.0
143
1.0
 70
   688
 72
     0
 73
     0
 74
     5
  7

 75
    16
147
1.0
148
0.0
149
0.0
100
AcDbLayout
  1
レイアウト1
 70
     1
 71
     1
 10
0.0
 20
0.0
 11
12.0
 21
9.0
 12
0.0
 22
0.0
 32
0.0
 14
1.000000000000000E+20
 24
1.000000000000000E+20
 34
1.000000000000000E+20
 15
-1.000000000000000E+20
 25
-1.000000000000000E+20
 35
-1.000000000000000E+20
146
0.0
 13
0.0
 23
0.0
 33
0.0
 16
1.0
 26
0.0
 36
0.0
 17
0.0
 27
1.0
 37
0.0
 76
     0
330
8184
  0
MATERIAL
  5
8132
102
{ACAD_XDICTIONARY
360
8133
102
}
102
{ACAD_REACTORS
330
8129
102
}
330
8129
100
AcDbMaterial
  1
ByBlock
 72
     0
 43
0.0208333333333333
 43
0.0
 43
0.0
 43
0.0
 43
0.0
 43
0.0208333333333333
 43
0.0
 43
0.0
 43
0.0
 43
0.0
 43
1.0
 43
0.0
 43
0.0
 43
0.0
 43
0.0
 43
1.0
 77
     0
 47
0.0208333333333333
 47
0.0
 47
0.0
 47
0.0
 47
0.0
 47
0.0208333333333333
 47
0.0
 47
0.0
 47
0.0
 47
0.0
 47
1.0
 47
0.0
 47
0.0
 47
0.0
 47
0.0
 47
1.0
171
     0
 49
0.0208333333333333
 49
0.0
 49
0.0
 49
0.0
 49
0.0
 49
0.0208333333333333
 49
0.0
 49
0.0
 49
0.0
 49
0.0
 49
1.0
 49
0.0
 49
0.0
 49
0.0
 49
0.0
 49
1.0
175
     0
142
0.0208333333333333
142
0.0
142
0.0
142
0.0
142
0.0
142
0.0208333333333333
142
0.0
142
0.0
142
0.0
142
0.0
142
1.0
142
0.0
142
0.0
142
0.0
142
0.0
142
1.0
179
     0
144
0.0208333333333333
144
0.0
144
0.0
144
0.0
144
0.0
144
0.0208333333333333
144
0.0
144
0.0
144
0.0
144
0.0
144
1.0
144
0.0
144
0.0
144
0.0
144
0.0
144
1.0
147
0.0208333333333333
147
0.0
147
0.0
147
0.0
147
0.0
147
0.0208333333333333
147
0.0
147
0.0
147
0.0
147
0.0
147
1.0
147
0.0
147
0.0
147
0.0
147
0.0
147
1.0
  0
MATERIAL
  5
812A
102
{ACAD_XDICTIONARY
360
812B
102
}
102
{ACAD_REACTORS
330
8129
102
}
330
8129
100
AcDbMaterial
  1
ByLayer
 72
     0
 43
0.0208333333333333
 43
0.0
 43
0.0
 43
0.0
 43
0.0
 43
0.0208333333333333
 43
0.0
 43
0.0
 43
0.0
 43
0.0
 43
1.0
 43
0.0
 43
0.0
 43
0.0
 43
0.0
 43
1.0
 77
     0
 47
0.0208333333333333
 47
0.0
 47
0.0
 47
0.0
 47
0.0
 47
0.0208333333333333
 47
0.0
 47
0.0
 47
0.0
 47
0.0
 47
1.0
 47
0.0
 47
0.0
 47
0.0
 47
0.0
 47
1.0
171
     0
 49
0.0208333333333333
 49
0.0
 49
0.0
 49
0.0
 49
0.0
 49
0.0208333333333333
 49
0.0
 49
0.0
 49
0.0
 49
0.0
 49
1.0
 49
0.0
 49
0.0
 49
0.0
 49
0.0
 49
1.0
175
     0
142
0.0208333333333333
142
0.0
142
0.0
142
0.0
142
0.0
142
0.0208333333333333
142
0.0
142
0.0
142
0.0
142
0.0
142
1.0
142
0.0
142
0.0
142
0.0
142
0.0
142
1.0
179
     0
144
0.0208333333333333
144
0.0
144
0.0
144
0.0
144
0.0
144
0.0208333333333333
144
0.0
144
0.0
144
0.0
144
0.0
144
1.0
144
0.0
144
0.0
144
0.0
144
0.0
144
1.0
147
0.0208333333333333
147
0.0
147
0.0
147
0.0
147
0.0
147
0.0208333333333333
147
0.0
147
0.0
147
0.0
147
0.0
147
1.0
147
0.0
147
0.0
147
0.0
147
0.0
147
1.0
  0
MATERIAL
  5
813A
102
{ACAD_XDICTIONARY
360
813B
102
}
102
{ACAD_REACTORS
330
8129
102
}
330
8129
100
AcDbMaterial
  1
Global
 72
     0
 43
0.0208333333333333
 43
0.0
 43
0.0
 43
0.0
 43
0.0
 43
0.0208333333333333
 43
0.0
 43
0.0
 43
0.0
 43
0.0
 43
1.0
 43
0.0
 43
0.0
 43
0.0
 43
0.0
 43
1.0
 77
     0
 47
0.0208333333333333
 47
0.0
 47
0.0
 47
0.0
 47
0.0
 47
0.0208333333333333
 47
0.0
 47
0.0
 47
0.0
 47
0.0
 47
1.0
 47
0.0
 47
0.0
 47
0.0
 47
0.0
 47
1.0
171
     0
 49
0.0208333333333333
 49
0.0
 49
0.0
 49
0.0
 49
0.0
 49
0.0208333333333333
 49
0.0
 49
0.0
 49
0.0
 49
0.0
 49
1.0
 49
0.0
 49
0.0
 49
0.0
 49
0.0
 49
1.0
175
     0
142
0.0208333333333333
142
0.0
142
0.0
142
0.0
142
0.0
142
0.0208333333333333
142
0.0
142
0.0
142
0.0
142
0.0
142
1.0
142
0.0
142
0.0
142
0.0
142
0.0
142
1.0
179
     0
144
0.0208333333333333
144
0.0
144
0.0
144
0.0
144
0.0
144
0.0208333333333333
144
0.0
144
0.0
144
0.0
144
0.0
144
1.0
144
0.0
144
0.0
144
0.0
144
0.0
144
1.0
147
0.0208333333333333
147
0.0
147
0.0
147
0.0
147
0.0
147
0.0208333333333333
147
0.0
147
0.0
147
0.0
147
0.0
147
1.0
147
0.0
147
0.0
147
0.0
147
0.0
147
1.0
  0
MLEADERSTYLE
  5
817F
102
{ACAD_REACTORS
330
817E
102
}
330
817E
100
AcDbMLeaderStyle
170
     2
171
     1
172
     0
 90
        2
 40
0.0
 41
0.0
173
     1
 91
-1056964608
340
8173
 92
       -2
290
     1
 42
0.09
291
     1
 43
0.36
  3
Standard
 44
0.18
300

342
816E
174
     1
178
     6
175
     1
176
     0
 93
-1056964608
 45
0.18
292
     0
297
     0
 46
0.18
 94
-1056964608
 47
1.0
 49
1.0
140
1.0
293
     1
141
0.0
294
     1
177
     0
142
1.0
295
     0
296
     0
143
0.125
1001
ACAD_MLEADERVER
1070
     2
  0
MLINESTYLE
  5
8178
102
{ACAD_REACTORS
330
8177
102
}
330
8177
100
AcDbMlineStyle
  2
STANDARD
 70
     0
  3

 62
   256
 51
90.0
 52
90.0
 71
     2
 49
0.5
 62
   256
  6
BYLAYER
 49
-0.5
 62
   256
  6
BYLAYER
  0
ACDBPLACEHOLDER
  5
8128
102
{ACAD_REACTORS
330
8127
102
}
330
8127
  0
SCALE
  5
815C
102
{ACAD_REACTORS
330
815B
102
}
330
815B
100
AcDbScale
 70
     0
300
1:1
140
1.0
141
1.0
290
     1
  0
SCALE
  5
815D
102
{ACAD_REACTORS
330
815B
102
}
330
815B
100
AcDbScale
 70
     0
300
1/128" = 1'-0"
140
0.0078125
141
12.0
290
     0
  0
SCALE
  5
815E
102
{ACAD_REACTORS
330
815B
102
}
330
815B
100
AcDbScale
 70
     0
300
1/64" = 1'-0"
140
0.015625
141
12.0
290
     0
  0
SCALE
  5
815F
102
{ACAD_REACTORS
330
815B
102
}
330
815B
100
AcDbScale
 70
     0
300
1/32" = 1'-0"
140
0.03125
141
12.0
290
     0
  0
SCALE
  5
8160
102
{ACAD_REACTORS
330
815B
102
}
330
815B
100
AcDbScale
 70
     0
300
1/16" = 1'-0"
140
0.0625
141
12.0
290
     0
  0
SCALE
  5
8161
102
{ACAD_REACTORS
330
815B
102
}
330
815B
100
AcDbScale
 70
     0
300
3/32" = 1'-0"
140
0.09375
141
12.0
290
     0
  0
SCALE
  5
8162
102
{ACAD_REACTORS
330
815B
102
}
330
815B
100
AcDbScale
 70
     0
300
1/8" = 1'-0"
140
0.125
141
12.0
290
     0
  0
SCALE
  5
8163
102
{ACAD_REACTORS
330
815B
102
}
330
815B
100
AcDbScale
 70
     0
300
3/16" = 1'-0"
140
0.1875
141
12.0
290
     0
  0
SCALE
  5
8164
102
{ACAD_REACTORS
330
815B
102
}
330
815B
100
AcDbScale
 70
     0
300
1/4" = 1'-0"
140
0.25
141
12.0
290
     0
  0
SCALE
  5
8165
102
{ACAD_REACTORS
330
815B
102
}
330
815B
100
AcDbScale
 70
     0
300
3/8" = 1'-0"
140
0.375
141
12.0
290
     0
  0
SCALE
  5
8166
102
{ACAD_REACTORS
330
815B
102
}
330
815B
100
AcDbScale
 70
     0
300
1/2" = 1'-0"
140
0.5
141
12.0
290
     0
  0
SCALE
  5
8167
102
{ACAD_REACTORS
330
815B
102
}
330
815B
100
AcDbScale
 70
     0
300
3/4" = 1'-0"
140
0.75
141
12.0
290
     0
  0
SCALE
  5
8168
102
{ACAD_REACTORS
330
815B
102
}
330
815B
100
AcDbScale
 70
     0
300
1" = 1'-0"
140
1.0
141
12.0
290
     0
  0
SCALE
  5
8169
102
{ACAD_REACTORS
330
815B
102
}
330
815B
100
AcDbScale
 70
     0
300
1-1/2" = 1'-0"
140
1.5
141
12.0
290
     0
  0
SCALE
  5
816A
102
{ACAD_REACTORS
330
815B
102
}
330
815B
100
AcDbScale
 70
     0
300
3" = 1'-0"
140
3.0
141
12.0
290
     0
  0
SCALE
  5
816B
102
{ACAD_REACTORS
330
815B
102
}
330
815B
100
AcDbScale
 70
     0
300
6" = 1'-0"
140
6.0
141
12.0
290
     0
  0
SCALE
  5
816C
102
{ACAD_REACTORS
330
815B
102
}
330
815B
100
AcDbScale
 70
     0
300
1'-0" = 1'-0"
140
12.0
141
12.0
290
     0
  0
ACDBSECTIONVIEWSTYLE
  5
8181
102
{ACAD_XDICTIONARY
360
88B2
102
}
102
{ACAD_REACTORS
330
8180
102
}
330
8180
100
AcDbModelDocViewStyle
 70
     0
  3
Imperial24
290
     0
100
AcDbSectionViewStyle
 70
     0
 71
     0
 90
       78
 71
     1
340
816E
 40
0.24
340
0
340
0
 40
0.24
300
I, O, Q, S, X, Z
 40
0.48
 90
        3
 40
0.18
 90
        1
 71
     2
340
8175
 90
       25
340
8175
 90
       50
 40
0.24
 40
0.0
 40
0.24
 71
     3
340
816E
 40
0.24
 90
        1
 40
0.75
 90
        1
300
%<\AcVar ViewType \f "%tc1">% %<\AcVar ViewSectionStartId>%-%<\AcVar ViewSectionEndId>%\PSCALE %<\AcVar ViewScale \f "%sn">%
 71
     4
300
ANSI31
 40
1.0
 90
        0
290
     0
290
     0
 90
        6
 40
0.0
 40
1.570796326794896
 40
0.2617993877991494
 40
1.308996938995747
 40
-0.2617993877991494
 40
1.832595714594046
  0
ACDBSECTIONVIEWSTYLE
  5
82C4
102
{ACAD_XDICTIONARY
360
88BA
102
}
102
{ACAD_REACTORS
330
8180
102
}
330
8180
100
AcDbModelDocViewStyle
 70
     0
  3
Metric50
290
     0
100
AcDbSectionViewStyle
 70
     0
 71
     0
 90
      102
 71
     1
340
816E
 40
5.0
340
0
340
0
 40
5.0
300
I, O, Q, S, X, Z
 40
10.0
 90
        0
 40
2.5
 90
        0
 71
     2
340
8175
 90
       25
340
8175
 90
       50
 40
5.0
 40
2.5
 40
5.0
 71
     3
340
816E
 40
5.0
 90
        0
 40
15.0
 90
        1
300
%<\AcVar ViewSectionStartId>%-%<\AcVar ViewSectionEndId>% (%<\AcVar ViewScale \f "%sn">%)
 71
     4
300
ANSI31
 40
1.0
 90
        0
290
     0
290
     0
 90
        6
 40
0.0
 40
1.570796326794896
 40
0.2617993877991494
 40
1.308996938995747
 40
-0.2617993877991494
 40
1.832595714594046
  0
TABLESTYLE
  5
817D
102
{ACAD_XDICTIONARY
360
8879
102
}
102
{ACAD_REACTORS
330
817C
102
}
330
817C
100
AcDbTableStyle
  3
Standard
 70
     0
 71
     0
 40
0.06
 41
0.06
280
     0
281
     0
  7
STANDARD
140
0.18
170
     2
 62
     0
 63
     7
283
     0
274
    -2
284
     1
 64
     0
275
    -2
285
     1
 65
     0
276
    -2
286
     1
 66
     0
277
    -2
287
     1
 67
     0
278
    -2
288
     1
 68
     0
279
    -2
289
     1
 69
     0
  7
STANDARD
140
0.25
170
     5
 62
     0
 63
     7
283
     0
274
    -2
284
     1
 64
     0
275
    -2
285
     1
 65
     0
276
    -2
286
     1
 66
     0
277
    -2
287
     1
 67
     0
278
    -2
288
     1
 68
     0
279
    -2
289
     1
 69
     0
  7
STANDARD
140
0.18
170
     5
 62
     0
 63
     7
283
     0
274
    -2
284
     1
 64
     0
275
    -2
285
     1
 65
     0
276
    -2
286
     1
 66
     0
277
    -2
287
     1
 67
     0
278
    -2
288
     1
 68
     0
279
    -2
289
     1
 69
     0
  0
VISUALSTYLE
  5
8148
102
{ACAD_XDICTIONARY
360
888A
102
}
102
{ACAD_REACTORS
330
8142
102
}
330
8142
100
AcDbVisualStyle
  2
2dWireframe
 70
     4
 71
     0
 72
     2
 73
     0
 90
        0
 40
-0.6
 41
-30.0
 62
     5
 63
     7
 74
     1
 91
        4
 64
     7
 65
   257
 75
     1
175
     1
 42
1.0
 92
        0
 66
   257
 43
1.0
 76
     1
 77
     6
 78
     2
 67
     7
 79
     5
170
     0
171
     0
290
     0
174
     0
 93
        1
 44
0.0
173
     0
291
     0
 45
0.0
1001
ACAD
1000
AcDbSavedByObjectVersion
1070
     0
  0
VISUALSTYLE
  5
8147
102
{ACAD_XDICTIONARY
360
8888
102
}
102
{ACAD_REACTORS
330
8142
102
}
330
8142
100
AcDbVisualStyle
  2
Basic
 70
     7
 71
     1
 72
     0
 73
     1
 90
        0
 40
-0.6
 41
-30.0
 62
     5
 63
     7
 74
     0
 91
        4
 64
     7
 65
   257
 75
     1
175
     1
 42
1.0
 92
        8
 66
     7
 43
1.0
 76
     1
 77
     6
 78
     2
 67
     7
 79
     5
170
     0
171
     0
290
     0
174
     0
 93
        1
 44
0.0
173
     0
291
     1
 45
0.0
1001
ACAD
1000
AcDbSavedByObjectVersion
1070
     0
  0
VISUALSTYLE
  5
814E
102
{ACAD_XDICTIONARY
360
8896
102
}
102
{ACAD_REACTORS
330
8142
102
}
330
8142
100
AcDbVisualStyle
  2
Brighten
 70
    12
 71
     2
 72
     2
 73
     0
 90
        0
 40
-0.6
 41
-30.0
 62
     5
 63
     7
 74
     1
 91
        4
 64
     7
 65
   257
 75
     1
175
     1
 42
1.0
 92
        8
 66
     7
 43
1.0
 76
     1
 77
     6
 78
     2
 67
     7
 79
     5
170
     0
171
     0
290
     0
174
     0
 93
        1
 44
50.0
173
     0
291
     1
 45
0.0
1001
ACAD
1000
AcDbSavedByObjectVersion
1070
     0
  0
VISUALSTYLE
  5
8152
102
{ACAD_XDICTIONARY
360
889E
102
}
102
{ACAD_REACTORS
330
8142
102
}
330
8142
100
AcDbVisualStyle
  2
ColorChange
 70
    16
 71
     2
 72
     2
 73
     3
 90
        0
 40
-0.6
 41
-30.0
 62
     5
 63
     8
 74
     1
 91
        4
 64
     7
 65
   257
 75
     1
175
     1
 42
1.0
 92
        8
 66
     8
 43
1.0
 76
     1
 77
     6
 78
     2
 67
     7
 79
     5
170
     0
171
     0
290
     0
174
     0
 93
        1
 44
0.0
173
     0
291
     1
 45
0.0
1001
ACAD
1000
AcDbSavedByObjectVersion
1070
     0
  0
VISUALSTYLE
  5
814B
102
{ACAD_XDICTIONARY
360
8890
102
}
102
{ACAD_REACTORS
330
8142
102
}
330
8142
100
AcDbVisualStyle
  2
Conceptual
 70
     9
 71
     3
 72
     2
 73
     0
 90
        0
 40
-0.6
 41
-30.0
 62
     5
 63
     7
 74
     2
 91
        2
 64
     7
 65
   257
 75
     1
175
     1
 42
179.0
 92
        8
 66
     7
 43
1.0
 76
     1
 77
     6
 78
     2
 67
     7
 79
     3
170
     0
171
     0
290
     0
174
     0
 93
        1
 44
0.0
173
     0
291
     0
 45
0.0
1001
ACAD
1000
AcDbSavedByObjectVersion
1070
     0
  0
VISUALSTYLE
  5
814D
102
{ACAD_XDICTIONARY
360
8894
102
}
102
{ACAD_REACTORS
330
8142
102
}
330
8142
100
AcDbVisualStyle
  2
Dim
 70
    11
 71
     2
 72
     2
 73
     0
 90
        0
 40
-0.6
 41
-30.0
 62
     5
 63
     7
 74
     1
 91
        4
 64
     7
 65
   257
 75
     1
175
     1
 42
1.0
 92
        8
 66
     7
 43
1.0
 76
     1
 77
     6
 78
     2
 67
     7
 79
     5
170
     0
171
     0
290
     0
174
     0
 93
        1
 44
-50.0
173
     0
291
     1
 45
0.0
1001
ACAD
1000
AcDbSavedByObjectVersion
1070
     0
  0
VISUALSTYLE
  5
815A
102
{ACAD_XDICTIONARY
360
88AE
102
}
102
{ACAD_REACTORS
330
8142
102
}
330
8142
100
AcDbVisualStyle
  2
EdgeColorOff
 70
    22
 71
     2
 72
     2
 73
     0
 90
        0
 40
-0.6
 41
-30.0
 62
     5
 63
     7
 74
     1
 91
        4
 64
     7
 65
   257
 75
     1
175
     1
 42
1.0
 92
        8
 66
     7
 43
1.0
 76
     1
 77
     6
 78
     2
 67
     7
 79
     5
170
     0
171
     0
290
     0
174
     0
 93
        1
 44
0.0
173
     0
291
     1
 45
0.0
1001
ACAD
1000
AcDbSavedByObjectVersion
1070
     0
  0
VISUALSTYLE
  5
8151
102
{ACAD_XDICTIONARY
360
889C
102
}
102
{ACAD_REACTORS
330
8142
102
}
330
8142
100
AcDbVisualStyle
  2
Facepattern
 70
    15
 71
     2
 72
     2
 73
     0
 90
        0
 40
-0.6
 41
-30.0
 62
     5
 63
     7
 74
     1
 91
        4
 64
     7
 65
   257
 75
     1
175
     1
 42
1.0
 92
        8
 66
     7
 43
1.0
 76
     1
 77
     6
 78
     2
 67
     7
 79
     5
170
     0
171
     0
290
     0
174
     0
 93
        1
 44
0.0
173
     0
291
     1
 45
0.0
1001
ACAD
1000
AcDbSavedByObjectVersion
1070
     0
  0
VISUALSTYLE
  5
8143
102
{ACAD_XDICTIONARY
360
8880
102
}
102
{ACAD_REACTORS
330
8142
102
}
330
8142
100
AcDbVisualStyle
  2
Flat
 70
     0
 71
     2
 72
     1
 73
     1
 90
        2
 40
-0.6
 41
30.0
 62
     5
 63
     7
 74
     0
 91
        0
 64
     7
 65
   257
 75
     1
175
     1
 42
1.0
 92
        8
 66
     7
 43
1.0
 76
     1
 77
     6
 78
     2
 67
     7
 79
     5
170
     0
171
     0
290
     0
174
     0
 93
       13
 44
0.0
173
     0
291
     1
 45
0.0
1001
ACAD
1000
AcDbSavedByObjectVersion
1070
     0
  0
VISUALSTYLE
  5
8144
102
{ACAD_XDICTIONARY
360
8882
102
}
102
{ACAD_REACTORS
330
8142
102
}
330
8142
100
AcDbVisualStyle
  2
FlatWithEdges
 70
     1
 71
     2
 72
     1
 73
     1
 90
        2
 40
-0.6
 41
30.0
 62
     5
 63
     7
 74
     1
 91
        0
 64
     7
 65
   257
 75
     1
175
     1
 42
1.0
 92
        0
 66
   257
 43
1.0
 76
     1
 77
     6
 78
     2
 67
     7
 79
     5
170
     0
171
     0
290
     0
174
     0
 93
       13
 44
0.0
173
     0
291
     1
 45
0.0
1001
ACAD
1000
AcDbSavedByObjectVersion
1070
     0
  0
VISUALSTYLE
  5
8145
102
{ACAD_XDICTIONARY
360
8884
102
}
102
{ACAD_REACTORS
330
8142
102
}
330
8142
100
AcDbVisualStyle
  2
Gouraud
 70
     2
 71
     2
 72
     2
 73
     1
 90
        2
 40
-0.6
 41
30.0
 62
     5
 63
     7
 74
     0
 91
        0
 64
     7
 65
   257
 75
     1
175
     1
 42
1.0
 92
        0
 66
     7
 43
1.0
 76
     1
 77
     6
 78
     2
 67
     7
 79
     5
170
     0
171
     0
290
     0
174
     0
 93
       13
 44
0.0
173
     0
291
     1
 45
0.0
1001
ACAD
1000
AcDbSavedByObjectVersion
1070
     0
  0
VISUALSTYLE
  5
8146
102
{ACAD_XDICTIONARY
360
8886
102
}
102
{ACAD_REACTORS
330
8142
102
}
330
8142
100
AcDbVisualStyle
  2
GouraudWithEdges
 70
     3
 71
     2
 72
     2
 73
     1
 90
        2
 40
-0.6
 41
30.0
 62
     5
 63
     7
 74
     1
 91
        0
 64
     7
 65
   257
 75
     1
175
     1
 42
1.0
 92
        0
 66
   257
 43
1.0
 76
     1
 77
     6
 78
     2
 67
     7
 79
     5
170
     0
171
     0
290
     0
174
     0
 93
       13
 44
0.0
173
     0
291
     1
 45
0.0
1001
ACAD
1000
AcDbSavedByObjectVersion
1070
     0
  0
VISUALSTYLE
  5
814A
102
{ACAD_XDICTIONARY
360
888E
102
}
102
{ACAD_REACTORS
330
8142
102
}
330
8142
100
AcDbVisualStyle
  2
Hidden
 70
     6
 71
     1
 72
     2
 73
     2
 90
        0
 40
-0.6
 41
-30.0
 62
     5
 63
     7
 74
     2
 91
        2
 64
     7
 65
   257
 75
     2
175
     1
 42
40.0
 92
        0
 66
   257
 43
1.0
 76
     1
 77
     6
 78
     2
 67
     7
 79
     3
170
     0
171
     0
290
     0
174
     0
 93
        1
 44
0.0
173
     0
291
     0
 45
0.0
1001
ACAD
1000
AcDbSavedByObjectVersion
1070
     0
  0
VISUALSTYLE
  5
8158
102
{ACAD_XDICTIONARY
360
88AA
102
}
102
{ACAD_REACTORS
330
8142
102
}
330
8142
100
AcDbVisualStyle
  2
JitterOff
 70
    20
 71
     2
 72
     2
 73
     0
 90
        0
 40
-0.6
 41
-30.0
 62
     5
 63
     7
 74
     1
 91
        4
 64
     7
 65
   257
 75
     1
175
     1
 42
1.0
 92
       10
 66
     7
 43
1.0
 76
     1
 77
     6
 78
     2
 67
     7
 79
     5
170
     0
171
     0
290
     0
174
     0
 93
        1
 44
0.0
173
     0
291
     1
 45
0.0
1001
ACAD
1000
AcDbSavedByObjectVersion
1070
     0
  0
VISUALSTYLE
  5
8150
102
{ACAD_XDICTIONARY
360
889A
102
}
102
{ACAD_REACTORS
330
8142
102
}
330
8142
100
AcDbVisualStyle
  2
Linepattern
 70
    14
 71
     2
 72
     2
 73
     0
 90
        0
 40
-0.6
 41
-30.0
 62
     5
 63
     7
 74
     1
 91
        4
 64
     7
 65
   257
 75
     7
175
     7
 42
1.0
 92
        8
 66
     7
 43
1.0
 76
     1
 77
     6
 78
     2
 67
     7
 79
     5
170
     0
171
     0
290
     0
174
     0
 93
        1
 44
0.0
173
     0
291
     1
 45
0.0
1001
ACAD
1000
AcDbSavedByObjectVersion
1070
     0
  0
VISUALSTYLE
  5
8159
102
{ACAD_XDICTIONARY
360
88AC
102
}
102
{ACAD_REACTORS
330
8142
102
}
330
8142
100
AcDbVisualStyle
  2
OverhangOff
 70
    21
 71
     2
 72
     2
 73
     0
 90
        0
 40
-0.6
 41
-30.0
 62
     5
 63
     7
 74
     1
 91
        4
 64
     7
 65
   257
 75
     1
175
     1
 42
1.0
 92
        9
 66
     7
 43
1.0
 76
     1
 77
     6
 78
     2
 67
     7
 79
     5
170
     0
171
     0
290
     0
174
     0
 93
        1
 44
0.0
173
     0
291
     1
 45
0.0
1001
ACAD
1000
AcDbSavedByObjectVersion
1070
     0
  0
VISUALSTYLE
  5
814C
102
{ACAD_XDICTIONARY
360
8892
102
}
102
{ACAD_REACTORS
330
8142
102
}
330
8142
100
AcDbVisualStyle
  2
Realistic
 70
     8
 71
     2
 72
     3
 73
     0
 90
        2
 40
-0.6
 41
30.0
 62
     5
 63
     7
 74
     0
 91
        0
 64
     7
 65
   257
 75
     1
175
     1
 42
1.0
 92
        8
 66
   257
 43
1.0
 76
     1
 77
     6
 78
     2
 67
     7
 79
     3
170
     0
171
     0
290
     0
174
     0
 93
       13
 44
0.0
173
     0
291
     0
 45
0.0
1001
ACAD
1000
AcDbSavedByObjectVersion
1070
     0
  0
VISUALSTYLE
  5
8157
102
{ACAD_XDICTIONARY
360
88A8
102
}
102
{ACAD_REACTORS
330
8142
102
}
330
8142
100
AcDbVisualStyle
  2
Shaded
 70
    27
 71
     2
 72
     2
 73
     1
 90
        2
 40
-0.6
 41
30.0
 62
     5
 63
     7
 74
     0
 91
        4
 64
     7
 65
   257
 75
     1
175
     1
 42
1.0
 92
        8
 66
   257
 43
1.0
 76
     1
 77
     6
 78
     2
 67
     8
 79
     3
170
     0
171
     0
290
     0
174
     0
 93
        5
 44
0.0
173
     0
291
     0
 45
0.0
1001
ACAD
1000
AcDbSavedByObjectVersion
1070
     0
  0
VISUALSTYLE
  5
8156
102
{ACAD_XDICTIONARY
360
88A6
102
}
102
{ACAD_REACTORS
330
8142
102
}
330
8142
100
AcDbVisualStyle
  2
Shaded with edges
 70
    26
 71
     2
 72
     2
 73
     1
 90
        2
 40
-0.6
 41
30.0
 62
     5
 63
     7
 74
     1
 91
       10
 64
     7
 65
   257
 75
     2
175
     1
 42
1.0
 92
        8
 66
   257
 43
1.0
 76
     1
 77
     6
 78
     2
 67
     7
 79
     3
170
     0
171
     0
290
     0
174
     0
 93
        5
 44
0.0
173
     0
291
     0
 45
0.0
1001
ACAD
1000
AcDbSavedByObjectVersion
1070
     0
  0
VISUALSTYLE
  5
8153
102
{ACAD_XDICTIONARY
360
88A0
102
}
102
{ACAD_REACTORS
330
8142
102
}
330
8142
100
AcDbVisualStyle
  2
Shades of Gray
 70
    23
 71
     2
 72
     2
 73
     3
 90
        0
 40
-0.6
 41
-30.0
 62
     5
 63
     7
 74
     2
 91
        2
 64
     7
 65
     7
 75
     1
175
     1
 42
40.0
 92
        8
 66
     7
 43
1.0
 76
     1
 77
     6
 78
     2
 67
     7
 79
     3
170
     0
171
     0
290
     0
174
     0
 93
        1
 44
0.0
173
     0
291
     0
 45
0.0
1001
ACAD
1000
AcDbSavedByObjectVersion
1070
     0
  0
VISUALSTYLE
  5
8154
102
{ACAD_XDICTIONARY
360
88A2
102
}
102
{ACAD_REACTORS
330
8142
102
}
330
8142
100
AcDbVisualStyle
  2
Sketchy
 70
    24
 71
     1
 72
     2
 73
     2
 90
        0
 40
-0.6
 41
-30.0
 62
     5
 63
     7
 74
     2
 91
        2
 64
     7
 65
     7
 75
     1
175
     1
 42
40.0
 92
       11
 66
     7
 43
1.0
 76
     1
 77
     6
 78
     2
 67
     7
 79
     6
170
     0
171
     0
290
     0
174
     0
 93
        1
 44
0.0
173
     0
291
     0
 45
0.0
1001
ACAD
1000
AcDbSavedByObjectVersion
1070
     0
  0
VISUALSTYLE
  5
814F
102
{ACAD_XDICTIONARY
360
8898
102
}
102
{ACAD_REACTORS
330
8142
102
}
330
8142
100
AcDbVisualStyle
  2
Thicken
 70
    13
 71
     2
 72
     2
 73
     0
 90
        0
 40
-0.6
 41
-30.0
 62
     5
 63
     7
 74
     1
 91
        4
 64
     7
 65
   257
 75
     1
175
     1
 42
1.0
 92
       12
 66
     7
 43
1.0
 76
     1
 77
     6
 78
     2
 67
     7
 79
     5
170
     0
171
     0
290
     0
174
     0
 93
        1
 44
0.0
173
     0
291
     1
 45
0.0
1001
ACAD
1000
AcDbSavedByObjectVersion
1070
     0
  0
VISUALSTYLE
  5
8149
102
{ACAD_XDICTIONARY
360
888C
102
}
102
{ACAD_REACTORS
330
8142
102
}
330
8142
100
AcDbVisualStyle
  2
Wireframe
 70
     5
 71
     0
 72
     2
 73
     0
 90
        0
 40
-0.6
 41
-30.0
 62
     5
 63
     7
 74
     1
 91
        4
 64
     7
 65
   257
 75
     1
175
     1
 42
1.0
 92
        0
 66
   257
 43
1.0
 76
     1
 77
     6
 78
     2
 67
     7
 79
     3
170
     0
171
     0
290
     0
174
     0
 93
        1
 44
0.0
173
     0
291
     0
 45
0.0
1001
ACAD
1000
AcDbSavedByObjectVersion
1070
     0
  0
VISUALSTYLE
  5
8155
102
{ACAD_XDICTIONARY
360
88A4
102
}
102
{ACAD_REACTORS
330
8142
102
}
330
8142
100
AcDbVisualStyle
  2
X-Ray
 70
    25
 71
     2
 72
     2
 73
     1
 90
        1
 40
0.5
 41
-30.0
 62
     5
 63
     7
 74
     1
 91
        0
 64
     7
 65
   257
 75
     1
175
     1
 42
1.0
 92
        8
 66
     7
 43
1.0
 76
     1
 77
     6
 78
     2
 67
     7
 79
     3
170
     0
171
     0
290
     0
174
     0
 93
       13
 44
0.0
173
     0
291
     0
 45
0.0
1001
ACAD
1000
AcDbSavedByObjectVersion
1070
     0
  0
DICTIONARYVAR
  5
8622
102
{ACAD_REACTORS
330
861D
102
}
330
861D
100
DictionaryVariables
280
     0
  1
1:1
  0
DICTIONARYVAR
  5
861F
102
{ACAD_REACTORS
330
861D
102
}
330
861D
100
DictionaryVariables
280
     0
  1
STANDARD
  0
DICTIONARYVAR
  5
861E
102
{ACAD_REACTORS
330
861D
102
}
330
861D
100
DictionaryVariables
280
     0
  1
STANDARD
  0
DICTIONARYVAR
  5
8620
102
{ACAD_REACTORS
330
861D
102
}
330
861D
100
DictionaryVariables
280
     0
  1
Imperial24
  0
DICTIONARYVAR
  5
8621
102
{ACAD_REACTORS
330
861D
102
}
330
861D
100
DictionaryVariables
280
     0
  1
Imperial24
  0
DICTIONARYVAR
  5
8625
102
{ACAD_REACTORS
330
861D
102
}
330
861D
100
DictionaryVariables
280
     0
  1
1
  0
DICTIONARYVAR
  5
8624
102
{ACAD_REACTORS
330
861D
102
}
330
861D
100
DictionaryVariables
280
     0
  1
0
  0
DICTIONARYVAR
  5
8623
102
{ACAD_REACTORS
330
861D
102
}
330
861D
100
DictionaryVariables
280
     0
  1
127
  0
DICTIONARYVAR
  5
8626
102
{ACAD_REACTORS
330
861D
102
}
330
861D
100
DictionaryVariables
280
     0
  1
2
  0
DICTIONARY
  5
88B4
330
8183
100
AcDbDictionary
280
     1
281
     1
  3
ACAD_XREC_ROUNDTRIP
360
88B5
  0
DICTIONARY
  5
88BC
330
82C5
100
AcDbDictionary
280
     1
281
     1
  3
ACAD_XREC_ROUNDTRIP
360
88BD
  0
DICTIONARY
  5
88B8
330
818B
100
AcDbDictionary
280
     1
281
     1
  3
ACAD_XREC_ROUNDTRIP
360
88B9
  0
DICTIONARY
  5
88B6
330
8187
100
AcDbDictionary
280
     1
281
     1
  3
ACAD_XREC_ROUNDTRIP
360
88B7
  0
DICTIONARY
  5
8133
330
8132
100
AcDbDictionary
280
     1
281
     1
  3
ACAD_XREC_ROUNDTRIP
360
887E
  3
BUMPTILE
360
8135
  3
DIFFUSETILE
360
8134
  3
OPACITYTILE
360
8138
  3
REFLECTIONTILE
360
8137
  3
REFRACTIONTILE
360
8139
  3
SPECULARTILE
360
8136
  0
DICTIONARY
  5
812B
330
812A
100
AcDbDictionary
280
     1
281
     1
  3
ACAD_XREC_ROUNDTRIP
360
887D
  3
BUMPTILE
360
812D
  3
DIFFUSETILE
360
812C
  3
OPACITYTILE
360
8130
  3
REFLECTIONTILE
360
812F
  3
REFRACTIONTILE
360
8131
  3
SPECULARTILE
360
812E
  0
DICTIONARY
  5
813B
330
813A
100
AcDbDictionary
280
     1
281
     1
  3
ACAD_XREC_ROUNDTRIP
360
887F
  3
BUMPTILE
360
813D
  3
DIFFUSETILE
360
813C
  3
OPACITYTILE
360
8140
  3
REFLECTIONTILE
360
813F
  3
REFRACTIONTILE
360
8141
  3
SPECULARTILE
360
813E
  0
DICTIONARY
  5
88B2
330
8181
100
AcDbDictionary
280
     1
281
     1
  3
ACAD_XREC_ROUNDTRIP
360
88B3
  0
DICTIONARY
  5
88BA
330
82C4
100
AcDbDictionary
280
     1
281
     1
  3
ACAD_XREC_ROUNDTRIP
360
88BB
  0
DICTIONARY
  5
8879
330
817D
100
AcDbDictionary
280
     1
281
     1
  3
ACAD_ROUNDTRIP_2008_TABLESTYLE_CELLSTYLEMAP
360
887A
  3
ACAD_XREC_ROUNDTRIP
360
88B0
  0
DICTIONARY
  5
888A
330
8148
100
AcDbDictionary
280
     1
281
     1
  3
ACAD_XREC_ROUNDTRIP
360
888B
  0
DICTIONARY
  5
8888
330
8147
100
AcDbDictionary
280
     1
281
     1
  3
ACAD_XREC_ROUNDTRIP
360
8889
  0
DICTIONARY
  5
8896
330
814E
100
AcDbDictionary
280
     1
281
     1
  3
ACAD_XREC_ROUNDTRIP
360
8897
  0
DICTIONARY
  5
889E
330
8152
100
AcDbDictionary
280
     1
281
     1
  3
ACAD_XREC_ROUNDTRIP
360
889F
  0
DICTIONARY
  5
8890
330
814B
100
AcDbDictionary
280
     1
281
     1
  3
ACAD_XREC_ROUNDTRIP
360
8891
  0
DICTIONARY
  5
8894
330
814D
100
AcDbDictionary
280
     1
281
     1
  3
ACAD_XREC_ROUNDTRIP
360
8895
  0
DICTIONARY
  5
88AE
330
815A
100
AcDbDictionary
280
     1
281
     1
  3
ACAD_XREC_ROUNDTRIP
360
88AF
  0
DICTIONARY
  5
889C
330
8151
100
AcDbDictionary
280
     1
281
     1
  3
ACAD_XREC_ROUNDTRIP
360
889D
  0
DICTIONARY
  5
8880
330
8143
100
AcDbDictionary
280
     1
281
     1
  3
ACAD_XREC_ROUNDTRIP
360
8881
  0
DICTIONARY
  5
8882
330
8144
100
AcDbDictionary
280
     1
281
     1
  3
ACAD_XREC_ROUNDTRIP
360
8883
  0
DICTIONARY
  5
8884
330
8145
100
AcDbDictionary
280
     1
281
     1
  3
ACAD_XREC_ROUNDTRIP
360
8885
  0
DICTIONARY
  5
8886
330
8146
100
AcDbDictionary
280
     1
281
     1
  3
ACAD_XREC_ROUNDTRIP
360
8887
  0
DICTIONARY
  5
888E
330
814A
100
AcDbDictionary
280
     1
281
     1
  3
ACAD_XREC_ROUNDTRIP
360
888F
  0
DICTIONARY
  5
88AA
330
8158
100
AcDbDictionary
280
     1
281
     1
  3
ACAD_XREC_ROUNDTRIP
360
88AB
  0
DICTIONARY
  5
889A
330
8150
100
AcDbDictionary
280
     1
281
     1
  3
ACAD_XREC_ROUNDTRIP
360
889B
  0
DICTIONARY
  5
88AC
330
8159
100
AcDbDictionary
280
     1
281
     1
  3
ACAD_XREC_ROUNDTRIP
360
88AD
  0
DICTIONARY
  5
8892
330
814C
100
AcDbDictionary
280
     1
281
     1
  3
ACAD_XREC_ROUNDTRIP
360
8893
  0
DICTIONARY
  5
88A8
330
8157
100
AcDbDictionary
280
     1
281
     1
  3
ACAD_XREC_ROUNDTRIP
360
88A9
  0
DICTIONARY
  5
88A6
330
8156
100
AcDbDictionary
280
     1
281
     1
  3
ACAD_XREC_ROUNDTRIP
360
88A7
  0
DICTIONARY
  5
88A0
330
8153
100
AcDbDictionary
280
     1
281
     1
  3
ACAD_XREC_ROUNDTRIP
360
88A1
  0
DICTIONARY
  5
88A2
330
8154
100
AcDbDictionary
280
     1
281
     1
  3
ACAD_XREC_ROUNDTRIP
360
88A3
  0
DICTIONARY
  5
8898
330
814F
100
AcDbDictionary
280
     1
281
     1
  3
ACAD_XREC_ROUNDTRIP
360
8899
  0
DICTIONARY
  5
888C
330
8149
100
AcDbDictionary
280
     1
281
     1
  3
ACAD_XREC_ROUNDTRIP
360
888D
  0
DICTIONARY
  5
88A4
330
8155
100
AcDbDictionary
280
     1
281
     1
  3
ACAD_XREC_ROUNDTRIP
360
88A5
  0
XRECORD
  5
88B5
102
{ACAD_REACTORS
330
88B4
102
}
330
88B4
100
AcDbXrecord
280
     1
102
DISPLAYNAME
  1
Imperial24
102
FLAGS
 90
        0
  0
XRECORD
  5
88BD
102
{ACAD_REACTORS
330
88BC
102
}
330
88BC
100
AcDbXrecord
280
     1
102
DISPLAYNAME
  1
Metric50
102
FLAGS
 90
        0
  0
XRECORD
  5
88B9
102
{ACAD_REACTORS
330
88B8
102
}
330
88B8
100
AcDbXrecord
280
     1
102
SHADEPLOT
 70
     0
102
SHADEPLOTRESLEVEL
 70
     2
102
SHADEPLOTCUSTOMDPI
 70
   300
  0
XRECORD
  5
88B7
102
{ACAD_REACTORS
330
88B6
102
}
330
88B6
100
AcDbXrecord
280
     1
102
SHADEPLOT
 70
     0
102
SHADEPLOTRESLEVEL
 70
     2
102
SHADEPLOTCUSTOMDPI
 70
   300
  0
XRECORD
  5
887E
102
{ACAD_REACTORS
330
8133
102
}
330
8133
100
AcDbXrecord
280
     1
102
MATERIAL
148
0.0
149
0.0
149
0.0
 93
        0
 94
      127
282
     0
 72
     0
 77
     0
171
     0
175
     0
179
     0
273
     0
  0
XRECORD
  5
8135
102
{ACAD_REACTORS
330
8133
102
}
330
8133
100
AcDbXrecord
280
     1
270
     1
271
     1
  0
XRECORD
  5
8134
102
{ACAD_REACTORS
330
8133
102
}
330
8133
100
AcDbXrecord
280
     1
270
     1
271
     1
  0
XRECORD
  5
8138
102
{ACAD_REACTORS
330
8133
102
}
330
8133
100
AcDbXrecord
280
     1
270
     1
271
     1
  0
XRECORD
  5
8137
102
{ACAD_REACTORS
330
8133
102
}
330
8133
100
AcDbXrecord
280
     1
270
     1
271
     1
  0
XRECORD
  5
8139
102
{ACAD_REACTORS
330
8133
102
}
330
8133
100
AcDbXrecord
280
     1
270
     1
271
     1
  0
XRECORD
  5
8136
102
{ACAD_REACTORS
330
8133
102
}
330
8133
100
AcDbXrecord
280
     1
270
     1
271
     1
  0
XRECORD
  5
887D
102
{ACAD_REACTORS
330
812B
102
}
330
812B
100
AcDbXrecord
280
     1
102
MATERIAL
148
0.0
149
0.0
149
0.0
 93
        0
 94
      127
282
     0
 72
     0
 77
     0
171
     0
175
     0
179
     0
273
     0
  0
XRECORD
  5
812D
102
{ACAD_REACTORS
330
812B
102
}
330
812B
100
AcDbXrecord
280
     1
270
     1
271
     1
  0
XRECORD
  5
812C
102
{ACAD_REACTORS
330
812B
102
}
330
812B
100
AcDbXrecord
280
     1
270
     1
271
     1
  0
XRECORD
  5
8130
102
{ACAD_REACTORS
330
812B
102
}
330
812B
100
AcDbXrecord
280
     1
270
     1
271
     1
  0
XRECORD
  5
812F
102
{ACAD_REACTORS
330
812B
102
}
330
812B
100
AcDbXrecord
280
     1
270
     1
271
     1
  0
XRECORD
  5
8131
102
{ACAD_REACTORS
330
812B
102
}
330
812B
100
AcDbXrecord
280
     1
270
     1
271
     1
  0
XRECORD
  5
812E
102
{ACAD_REACTORS
330
812B
102
}
330
812B
100
AcDbXrecord
280
     1
270
     1
271
     1
  0
XRECORD
  5
887F
102
{ACAD_REACTORS
330
813B
102
}
330
813B
100
AcDbXrecord
280
     1
102
MATERIAL
148
0.0
149
0.0
149
0.0
 93
        0
 94
      127
282
     0
 72
     0
 77
     0
171
     0
175
     0
179
     0
273
     0
  0
XRECORD
  5
813D
102
{ACAD_REACTORS
330
813B
102
}
330
813B
100
AcDbXrecord
280
     1
270
     1
271
     1
  0
XRECORD
  5
813C
102
{ACAD_REACTORS
330
813B
102
}
330
813B
100
AcDbXrecord
280
     1
270
     1
271
     1
  0
XRECORD
  5
8140
102
{ACAD_REACTORS
330
813B
102
}
330
813B
100
AcDbXrecord
280
     1
270
     1
271
     1
  0
XRECORD
  5
813F
102
{ACAD_REACTORS
330
813B
102
}
330
813B
100
AcDbXrecord
280
     1
270
     1
271
     1
  0
XRECORD
  5
8141
102
{ACAD_REACTORS
330
813B
102
}
330
813B
100
AcDbXrecord
280
     1
270
     1
271
     1
  0
XRECORD
  5
813E
102
{ACAD_REACTORS
330
813B
102
}
330
813B
100
AcDbXrecord
280
     1
270
     1
271
     1
  0
XRECORD
  5
88B3
102
{ACAD_REACTORS
330
88B2
102
}
330
88B2
100
AcDbXrecord
280
     1
102
DISPLAYNAME
  1
Imperial24
102
FLAGS
 90
        0
  0
XRECORD
  5
88BB
102
{ACAD_REACTORS
330
88BA
102
}
330
88BA
100
AcDbXrecord
280
     1
102
DISPLAYNAME
  1
Metric50
102
FLAGS
 90
        0
  0
CELLSTYLEMAP
  5
887A
102
{ACAD_REACTORS
330
8879
102
}
330
8879
100
AcDbCellStyleMap
 90
        3
300
CELLSTYLE
  1
TABLEFORMAT_BEGIN
 90
        5
170
     1
 91
        0
 92
    32768
 62
   257
 93
        1
300
CONTENTFORMAT
  1
CONTENTFORMAT_BEGIN
 90
        0
 91
        0
 92
      512
 93
        0
300

 40
0.0
140
1.0
 94
        5
 62
     0
340
816E
144
0.25
309
CONTENTFORMAT_END
171
     0
 94
        0
309
TABLEFORMAT_END
  1
CELLSTYLE_BEGIN
 90
        1
 91
        1
300
_TITLE
309
CELLSTYLE_END
300
CELLSTYLE
  1
TABLEFORMAT_BEGIN
 90
        5
170
     1
 91
        0
 92
        0
 62
   257
 93
        1
300
CONTENTFORMAT
  1
CONTENTFORMAT_BEGIN
 90
        0
 91
        0
 92
      512
 93
        0
300

 40
0.0
140
1.0
 94
        5
 62
     0
340
816E
144
0.18
309
CONTENTFORMAT_END
171
     0
 94
        0
309
TABLEFORMAT_END
  1
CELLSTYLE_BEGIN
 90
        2
 91
        1
300
_HEADER
309
CELLSTYLE_END
300
CELLSTYLE
  1
TABLEFORMAT_BEGIN
 90
        5
170
     1
 91
        0
 92
        0
 62
   257
 93
        1
300
CONTENTFORMAT
  1
CONTENTFORMAT_BEGIN
 90
        0
 91
        0
 92
      512
 93
        0
300

 40
0.0
140
1.0
 94
        2
 62
     0
340
816E
144
0.18
309
CONTENTFORMAT_END
171
     0
 94
        0
309
TABLEFORMAT_END
  1
CELLSTYLE_BEGIN
 90
        3
 91
        2
300
_DATA
309
CELLSTYLE_END
  0
XRECORD
  5
88B0
102
{ACAD_REACTORS
330
8879
102
}
330
8879
100
AcDbXrecord
280
     1
102
ACAD_ROUNDTRIP_PRE2007_TABLESTYLE
 90
      512
 91
        0
  1

 92
      512
 93
        0
  2

 94
      512
 95
        0
  3

  0
XRECORD
  5
888B
102
{ACAD_REACTORS
330
888A
102
}
330
888A
100
AcDbXrecord
280
     1
102
RTVSPost2010Prop28
280
     1
102
RTVSPost2010PropOp28
 70
     1
102
RTVSPost2010Prop29
280
     1
102
RTVSPost2010PropOp29
 70
     1
102
RTVSPost2010Prop30
280
     0
102
RTVSPost2010PropOp30
 70
     1
102
RTVSPost2010Prop31
280
     0
102
RTVSPost2010PropOp31
 70
     1
102
RTVSPost2010Prop32
280
     0
102
RTVSPost2010PropOp32
 70
     1
102
RTVSPost2010Prop33
280
     0
102
RTVSPost2010PropOp33
 70
     1
102
RTVSPost2010Prop34
280
     0
102
RTVSPost2010PropOp34
 70
     1
102
RTVSPost2010Prop35
280
     0
102
RTVSPost2010PropOp35
 70
     1
102
RTVSPost2010Prop36
280
     0
102
RTVSPost2010PropOp36
 70
     1
102
RTVSPost2010Prop37
 90
       50
102
RTVSPost2010PropOp37
 70
     1
102
RTVSPost2010Prop38
140
0.0
102
RTVSPost2010PropOp38
 70
     1
102
RTVSPost2010Prop39
140
1.0
102
RTVSPost2010PropOp39
 70
     1
102
RTVSPost2010Prop40
 90
        0
102
RTVSPost2010PropOp40
 70
     1
102
RTVSPost2010Prop41ColorIndex
 90
       18
102
RTVSPost2010Prop41ColorRGB
 90
        0
102
RTVSPost2010PropOp41
 70
     1
102
RTVSPost2010Prop42
 90
       50
102
RTVSPost2010PropOp42
 70
     1
102
RTVSPost2010Prop43
 90
        3
102
RTVSPost2010PropOp43
 70
     1
102
RTVSPost2010Prop44ColorIndex
 90
        5
102
RTVSPost2010Prop44ColorRGB
 90
      255
102
RTVSPost2010PropOp44
 70
     1
102
RTVSPost2010Prop45
280
     0
102
RTVSPost2010PropOp45
 70
     1
102
RTVSPost2010Prop46
 90
       50
102
RTVSPost2010PropOp46
 70
     1
102
RTVSPost2010Prop47
 90
       50
102
RTVSPost2010PropOp47
 70
     1
102
RTVSPost2010Prop48
 90
       50
102
RTVSPost2010PropOp48
 70
     1
102
RTVSPost2010Prop49
280
     0
102
RTVSPost2010PropOp49
 70
     1
102
RTVSPost2010Prop50
 90
       50
102
RTVSPost2010PropOp50
 70
     1
102
RTVSPost2010Prop51ColorIndex
 90
      256
102
RTVSPost2010Prop51ColorRGB
 90
-16777216
102
RTVSPost2010PropOp51
 70
     0
102
RTVSPost2010Prop52
140
1.0
102
RTVSPost2010PropOp52
 70
     0
102
RTVSPost2010Prop53
 90
        2
102
RTVSPost2010PropOp53
 70
     1
102
RTVSPost2010Prop54
  1
strokes_ogs.tif
102
RTVSPost2010PropOp54
 70
     1
102
RTVSPost2010Prop55
280
     0
102
RTVSPost2010PropOp55
 70
     1
102
RTVSPost2010Prop56
140
1.0
102
RTVSPost2010PropOp56
 70
     1
102
RTVSPost2010Prop57
140
1.0
102
RTVSPost2010PropOp57
 70
     1
102
RTVSPropertyOp0
 70
     1
102
RTVSPropertyOp1
 70
     1
102
RTVSPropertyOp2
 70
     1
102
RTVSPropertyOp3
 70
     1
102
RTVSPropertyOp4
 70
     1
102
RTVSPropertyOp5
 70
     1
102
RTVSPropertyOp6
 70
     1
102
RTVSPropertyOp7
 70
     1
102
RTVSPropertyOp8
 70
     1
102
RTVSPropertyOp9
 70
     1
102
RTVSPropertyOp10
 70
     1
102
RTVSPropertyOp11
 70
     1
102
RTVSPropertyOp12
 70
     1
102
RTVSPropertyOp13
 70
     1
102
RTVSPropertyOp14
 70
     1
102
RTVSPropertyOp15
 70
     1
102
RTVSPropertyOp16
 70
     1
102
RTVSPropertyOp17
 70
     1
102
RTVSPropertyOp18
 70
     1
102
RTVSPropertyOp19
 70
     1
102
RTVSPropertyOp20
 70
     1
102
RTVSPropertyOp21
 70
     1
102
RTVSPropertyOp22
 70
     1
102
RTVSPropertyOp23
 70
     1
102
RTVSPropertyOp24
 70
     1
102
RTVSPropertyOp25
 70
     1
102
RTVSPropertyOp26
 70
     1
102
RTVSPropertyOp27
 70
     1
102
RTVSPropertyOp28
 70
     1
102
RTVSPropertyOp29
 70
     1
102
RTVSPropertyOp30
 70
     1
102
RTVSPropertyOp31
 70
     1
102
RTVSPropertyOp32
 70
     1
102
RTVSPropertyOp33
 70
     1
102
RTVSPropertyOp34
 70
     1
102
RTVSPropertyOp35
 70
     1
102
RTVSPropertyOp36
 70
     1
102
RTVSPropertyOp37
 70
     1
102
RTVSPropertyOp38
 70
     1
102
RTVSPropertyOp39
 70
     1
102
RTVSPropertyOp40
 70
     1
102
RTVSPropertyOp41
 70
     1
102
RTVSPropertyOp42
 70
     1
102
RTVSPropertyOp43
 70
     1
102
RTVSPropertyOp44
 70
     1
102
RTVSPropertyOp45
 70
     1
102
RTVSPropertyOp46
 70
     1
102
RTVSPropertyOp47
 70
     1
102
RTVSPropertyOp48
 70
     1
102
RTVSPropertyOp49
 70
     1
102
RTVSPropertyOp50
 70
     1
102
RTVSPropertyOp51
 70
     0
102
RTVSPropertyOp52
 70
     0
102
RTVSPropertyOp53
 70
     1
102
RTVSPropertyOp54
 70
     1
102
RTVSPropertyOp55
 70
     1
102
RTVSPropertyOp56
 70
     1
102
RTVSPropertyOp57
 70
     1
102
RTVSPropertyOp58
 70
     1
102
RTVSPropertyOp59
 70
     1
102
RTVSPropertyOp60
 70
     1
102
RTVSPropertyOp61
 70
     1
102
RTVSPropertyOp62
 70
     1
  0
XRECORD
  5
8889
102
{ACAD_REACTORS
330
8888
102
}
330
8888
100
AcDbXrecord
280
     1
102
RTVSPost2010Prop28
280
     0
102
RTVSPost2010PropOp28
 70
     1
102
RTVSPost2010Prop29
280
     1
102
RTVSPost2010PropOp29
 70
     1
102
RTVSPost2010Prop30
280
     1
102
RTVSPost2010PropOp30
 70
     1
102
RTVSPost2010Prop31
280
     0
102
RTVSPost2010PropOp31
 70
     1
102
RTVSPost2010Prop32
280
     0
102
RTVSPost2010PropOp32
 70
     1
102
RTVSPost2010Prop33
280
     0
102
RTVSPost2010PropOp33
 70
     1
102
RTVSPost2010Prop34
280
     0
102
RTVSPost2010PropOp34
 70
     1
102
RTVSPost2010Prop35
280
     0
102
RTVSPost2010PropOp35
 70
     1
102
RTVSPost2010Prop36
280
     0
102
RTVSPost2010PropOp36
 70
     1
102
RTVSPost2010Prop37
 90
       50
102
RTVSPost2010PropOp37
 70
     1
102
RTVSPost2010Prop38
140
0.0
102
RTVSPost2010PropOp38
 70
     1
102
RTVSPost2010Prop39
140
1.0
102
RTVSPost2010PropOp39
 70
     1
102
RTVSPost2010Prop40
 90
        0
102
RTVSPost2010PropOp40
 70
     1
102
RTVSPost2010Prop41ColorIndex
 90
       18
102
RTVSPost2010Prop41ColorRGB
 90
        0
102
RTVSPost2010PropOp41
 70
     1
102
RTVSPost2010Prop42
 90
       50
102
RTVSPost2010PropOp42
 70
     1
102
RTVSPost2010Prop43
 90
        3
102
RTVSPost2010PropOp43
 70
     1
102
RTVSPost2010Prop44ColorIndex
 90
        5
102
RTVSPost2010Prop44ColorRGB
 90
      255
102
RTVSPost2010PropOp44
 70
     1
102
RTVSPost2010Prop45
280
     0
102
RTVSPost2010PropOp45
 70
     1
102
RTVSPost2010Prop46
 90
       50
102
RTVSPost2010PropOp46
 70
     1
102
RTVSPost2010Prop47
 90
       50
102
RTVSPost2010PropOp47
 70
     1
102
RTVSPost2010Prop48
 90
       50
102
RTVSPost2010PropOp48
 70
     1
102
RTVSPost2010Prop49
280
     0
102
RTVSPost2010PropOp49
 70
     1
102
RTVSPost2010Prop50
 90
       50
102
RTVSPost2010PropOp50
 70
     1
102
RTVSPost2010Prop51ColorIndex
 90
      256
102
RTVSPost2010Prop51ColorRGB
 90
-16777216
102
RTVSPost2010PropOp51
 70
     0
102
RTVSPost2010Prop52
140
1.0
102
RTVSPost2010PropOp52
 70
     0
102
RTVSPost2010Prop53
 90
        2
102
RTVSPost2010PropOp53
 70
     1
102
RTVSPost2010Prop54
  1
strokes_ogs.tif
102
RTVSPost2010PropOp54
 70
     1
102
RTVSPost2010Prop55
280
     0
102
RTVSPost2010PropOp55
 70
     1
102
RTVSPost2010Prop56
140
1.0
102
RTVSPost2010PropOp56
 70
     1
102
RTVSPost2010Prop57
140
1.0
102
RTVSPost2010PropOp57
 70
     1
102
RTVSPropertyOp0
 70
     1
102
RTVSPropertyOp1
 70
     1
102
RTVSPropertyOp2
 70
     1
102
RTVSPropertyOp3
 70
     1
102
RTVSPropertyOp4
 70
     1
102
RTVSPropertyOp5
 70
     1
102
RTVSPropertyOp6
 70
     1
102
RTVSPropertyOp7
 70
     1
102
RTVSPropertyOp8
 70
     1
102
RTVSPropertyOp9
 70
     1
102
RTVSPropertyOp10
 70
     1
102
RTVSPropertyOp11
 70
     1
102
RTVSPropertyOp12
 70
     1
102
RTVSPropertyOp13
 70
     1
102
RTVSPropertyOp14
 70
     1
102
RTVSPropertyOp15
 70
     1
102
RTVSPropertyOp16
 70
     1
102
RTVSPropertyOp17
 70
     1
102
RTVSPropertyOp18
 70
     1
102
RTVSPropertyOp19
 70
     1
102
RTVSPropertyOp20
 70
     1
102
RTVSPropertyOp21
 70
     1
102
RTVSPropertyOp22
 70
     1
102
RTVSPropertyOp23
 70
     1
102
RTVSPropertyOp24
 70
     1
102
RTVSPropertyOp25
 70
     1
102
RTVSPropertyOp26
 70
     1
102
RTVSPropertyOp27
 70
     1
102
RTVSPropertyOp28
 70
     1
102
RTVSPropertyOp29
 70
     1
102
RTVSPropertyOp30
 70
     1
102
RTVSPropertyOp31
 70
     1
102
RTVSPropertyOp32
 70
     1
102
RTVSPropertyOp33
 70
     1
102
RTVSPropertyOp34
 70
     1
102
RTVSPropertyOp35
 70
     1
102
RTVSPropertyOp36
 70
     1
102
RTVSPropertyOp37
 70
     1
102
RTVSPropertyOp38
 70
     1
102
RTVSPropertyOp39
 70
     1
102
RTVSPropertyOp40
 70
     1
102
RTVSPropertyOp41
 70
     1
102
RTVSPropertyOp42
 70
     1
102
RTVSPropertyOp43
 70
     1
102
RTVSPropertyOp44
 70
     1
102
RTVSPropertyOp45
 70
     1
102
RTVSPropertyOp46
 70
     1
102
RTVSPropertyOp47
 70
     1
102
RTVSPropertyOp48
 70
     1
102
RTVSPropertyOp49
 70
     1
102
RTVSPropertyOp50
 70
     1
102
RTVSPropertyOp51
 70
     0
102
RTVSPropertyOp52
 70
     0
102
RTVSPropertyOp53
 70
     1
102
RTVSPropertyOp54
 70
     1
102
RTVSPropertyOp55
 70
     1
102
RTVSPropertyOp56
 70
     1
102
RTVSPropertyOp57
 70
     1
102
RTVSPropertyOp58
 70
     1
102
RTVSPropertyOp59
 70
     1
102
RTVSPropertyOp60
 70
     1
102
RTVSPropertyOp61
 70
     1
102
RTVSPropertyOp62
 70
     1
  0
XRECORD
  5
8897
102
{ACAD_REACTORS
330
8896
102
}
330
8896
100
AcDbXrecord
280
     1
102
RTVSPost2010Prop28
280
     0
102
RTVSPost2010PropOp28
 70
     1
102
RTVSPost2010Prop29
280
     1
102
RTVSPost2010PropOp29
 70
     1
102
RTVSPost2010Prop30
280
     1
102
RTVSPost2010PropOp30
 70
     1
102
RTVSPost2010Prop31
280
     0
102
RTVSPost2010PropOp31
 70
     1
102
RTVSPost2010Prop32
280
     0
102
RTVSPost2010PropOp32
 70
     1
102
RTVSPost2010Prop33
280
     0
102
RTVSPost2010PropOp33
 70
     1
102
RTVSPost2010Prop34
280
     0
102
RTVSPost2010PropOp34
 70
     1
102
RTVSPost2010Prop35
280
     0
102
RTVSPost2010PropOp35
 70
     1
102
RTVSPost2010Prop36
280
     0
102
RTVSPost2010PropOp36
 70
     1
102
RTVSPost2010Prop37
 90
       50
102
RTVSPost2010PropOp37
 70
     1
102
RTVSPost2010Prop38
140
0.0
102
RTVSPost2010PropOp38
 70
     1
102
RTVSPost2010Prop39
140
1.0
102
RTVSPost2010PropOp39
 70
     1
102
RTVSPost2010Prop40
 90
        0
102
RTVSPost2010PropOp40
 70
     1
102
RTVSPost2010Prop41ColorIndex
 90
       18
102
RTVSPost2010Prop41ColorRGB
 90
        0
102
RTVSPost2010PropOp41
 70
     1
102
RTVSPost2010Prop42
 90
       50
102
RTVSPost2010PropOp42
 70
     1
102
RTVSPost2010Prop43
 90
        3
102
RTVSPost2010PropOp43
 70
     1
102
RTVSPost2010Prop44ColorIndex
 90
        5
102
RTVSPost2010Prop44ColorRGB
 90
      255
102
RTVSPost2010PropOp44
 70
     1
102
RTVSPost2010Prop45
280
     0
102
RTVSPost2010PropOp45
 70
     1
102
RTVSPost2010Prop46
 90
       50
102
RTVSPost2010PropOp46
 70
     1
102
RTVSPost2010Prop47
 90
       50
102
RTVSPost2010PropOp47
 70
     1
102
RTVSPost2010Prop48
 90
       50
102
RTVSPost2010PropOp48
 70
     1
102
RTVSPost2010Prop49
280
     0
102
RTVSPost2010PropOp49
 70
     1
102
RTVSPost2010Prop50
 90
       50
102
RTVSPost2010PropOp50
 70
     1
102
RTVSPost2010Prop51ColorIndex
 90
      256
102
RTVSPost2010Prop51ColorRGB
 90
-16777216
102
RTVSPost2010PropOp51
 70
     0
102
RTVSPost2010Prop52
140
1.0
102
RTVSPost2010PropOp52
 70
     0
102
RTVSPost2010Prop53
 90
        2
102
RTVSPost2010PropOp53
 70
     1
102
RTVSPost2010Prop54
  1
strokes_ogs.tif
102
RTVSPost2010PropOp54
 70
     1
102
RTVSPost2010Prop55
280
     0
102
RTVSPost2010PropOp55
 70
     1
102
RTVSPost2010Prop56
140
1.0
102
RTVSPost2010PropOp56
 70
     1
102
RTVSPost2010Prop57
140
1.0
102
RTVSPost2010PropOp57
 70
     1
102
RTVSPropertyOp0
 70
     1
102
RTVSPropertyOp1
 70
     1
102
RTVSPropertyOp2
 70
     1
102
RTVSPropertyOp3
 70
     1
102
RTVSPropertyOp4
 70
     1
102
RTVSPropertyOp5
 70
     1
102
RTVSPropertyOp6
 70
     1
102
RTVSPropertyOp7
 70
     1
102
RTVSPropertyOp8
 70
     1
102
RTVSPropertyOp9
 70
     1
102
RTVSPropertyOp10
 70
     1
102
RTVSPropertyOp11
 70
     1
102
RTVSPropertyOp12
 70
     1
102
RTVSPropertyOp13
 70
     1
102
RTVSPropertyOp14
 70
     1
102
RTVSPropertyOp15
 70
     1
102
RTVSPropertyOp16
 70
     1
102
RTVSPropertyOp17
 70
     1
102
RTVSPropertyOp18
 70
     1
102
RTVSPropertyOp19
 70
     1
102
RTVSPropertyOp20
 70
     1
102
RTVSPropertyOp21
 70
     1
102
RTVSPropertyOp22
 70
     1
102
RTVSPropertyOp23
 70
     1
102
RTVSPropertyOp24
 70
     1
102
RTVSPropertyOp25
 70
     1
102
RTVSPropertyOp26
 70
     1
102
RTVSPropertyOp27
 70
     1
102
RTVSPropertyOp28
 70
     1
102
RTVSPropertyOp29
 70
     1
102
RTVSPropertyOp30
 70
     1
102
RTVSPropertyOp31
 70
     1
102
RTVSPropertyOp32
 70
     1
102
RTVSPropertyOp33
 70
     1
102
RTVSPropertyOp34
 70
     1
102
RTVSPropertyOp35
 70
     1
102
RTVSPropertyOp36
 70
     1
102
RTVSPropertyOp37
 70
     1
102
RTVSPropertyOp38
 70
     1
102
RTVSPropertyOp39
 70
     1
102
RTVSPropertyOp40
 70
     1
102
RTVSPropertyOp41
 70
     1
102
RTVSPropertyOp42
 70
     1
102
RTVSPropertyOp43
 70
     1
102
RTVSPropertyOp44
 70
     1
102
RTVSPropertyOp45
 70
     1
102
RTVSPropertyOp46
 70
     1
102
RTVSPropertyOp47
 70
     1
102
RTVSPropertyOp48
 70
     1
102
RTVSPropertyOp49
 70
     1
102
RTVSPropertyOp50
 70
     1
102
RTVSPropertyOp51
 70
     0
102
RTVSPropertyOp52
 70
     0
102
RTVSPropertyOp53
 70
     1
102
RTVSPropertyOp54
 70
     1
102
RTVSPropertyOp55
 70
     1
102
RTVSPropertyOp56
 70
     1
102
RTVSPropertyOp57
 70
     1
102
RTVSPropertyOp58
 70
     1
102
RTVSPropertyOp59
 70
     1
102
RTVSPropertyOp60
 70
     1
102
RTVSPropertyOp61
 70
     1
102
RTVSPropertyOp62
 70
     1
  0
XRECORD
  5
889F
102
{ACAD_REACTORS
330
889E
102
}
330
889E
100
AcDbXrecord
280
     1
102
RTVSPost2010Prop28
280
     0
102
RTVSPost2010PropOp28
 70
     1
102
RTVSPost2010Prop29
280
     1
102
RTVSPost2010PropOp29
 70
     1
102
RTVSPost2010Prop30
280
     1
102
RTVSPost2010PropOp30
 70
     1
102
RTVSPost2010Prop31
280
     0
102
RTVSPost2010PropOp31
 70
     1
102
RTVSPost2010Prop32
280
     0
102
RTVSPost2010PropOp32
 70
     1
102
RTVSPost2010Prop33
280
     0
102
RTVSPost2010PropOp33
 70
     1
102
RTVSPost2010Prop34
280
     0
102
RTVSPost2010PropOp34
 70
     1
102
RTVSPost2010Prop35
280
     0
102
RTVSPost2010PropOp35
 70
     1
102
RTVSPost2010Prop36
280
     0
102
RTVSPost2010PropOp36
 70
     1
102
RTVSPost2010Prop37
 90
       50
102
RTVSPost2010PropOp37
 70
     1
102
RTVSPost2010Prop38
140
0.0
102
RTVSPost2010PropOp38
 70
     1
102
RTVSPost2010Prop39
140
1.0
102
RTVSPost2010PropOp39
 70
     1
102
RTVSPost2010Prop40
 90
        0
102
RTVSPost2010PropOp40
 70
     1
102
RTVSPost2010Prop41ColorIndex
 90
       18
102
RTVSPost2010Prop41ColorRGB
 90
        0
102
RTVSPost2010PropOp41
 70
     1
102
RTVSPost2010Prop42
 90
       50
102
RTVSPost2010PropOp42
 70
     1
102
RTVSPost2010Prop43
 90
        3
102
RTVSPost2010PropOp43
 70
     1
102
RTVSPost2010Prop44ColorIndex
 90
        5
102
RTVSPost2010Prop44ColorRGB
 90
      255
102
RTVSPost2010PropOp44
 70
     1
102
RTVSPost2010Prop45
280
     0
102
RTVSPost2010PropOp45
 70
     1
102
RTVSPost2010Prop46
 90
       50
102
RTVSPost2010PropOp46
 70
     1
102
RTVSPost2010Prop47
 90
       50
102
RTVSPost2010PropOp47
 70
     1
102
RTVSPost2010Prop48
 90
       50
102
RTVSPost2010PropOp48
 70
     1
102
RTVSPost2010Prop49
280
     0
102
RTVSPost2010PropOp49
 70
     1
102
RTVSPost2010Prop50
 90
       50
102
RTVSPost2010PropOp50
 70
     1
102
RTVSPost2010Prop51ColorIndex
 90
      256
102
RTVSPost2010Prop51ColorRGB
 90
-16777216
102
RTVSPost2010PropOp51
 70
     0
102
RTVSPost2010Prop52
140
1.0
102
RTVSPost2010PropOp52
 70
     0
102
RTVSPost2010Prop53
 90
        2
102
RTVSPost2010PropOp53
 70
     1
102
RTVSPost2010Prop54
  1
strokes_ogs.tif
102
RTVSPost2010PropOp54
 70
     1
102
RTVSPost2010Prop55
280
     0
102
RTVSPost2010PropOp55
 70
     1
102
RTVSPost2010Prop56
140
1.0
102
RTVSPost2010PropOp56
 70
     1
102
RTVSPost2010Prop57
140
1.0
102
RTVSPost2010PropOp57
 70
     1
102
RTVSPropertyOp0
 70
     1
102
RTVSPropertyOp1
 70
     1
102
RTVSPropertyOp2
 70
     1
102
RTVSPropertyOp3
 70
     1
102
RTVSPropertyOp4
 70
     1
102
RTVSPropertyOp5
 70
     1
102
RTVSPropertyOp6
 70
     1
102
RTVSPropertyOp7
 70
     1
102
RTVSPropertyOp8
 70
     1
102
RTVSPropertyOp9
 70
     1
102
RTVSPropertyOp10
 70
     1
102
RTVSPropertyOp11
 70
     1
102
RTVSPropertyOp12
 70
     1
102
RTVSPropertyOp13
 70
     1
102
RTVSPropertyOp14
 70
     1
102
RTVSPropertyOp15
 70
     1
102
RTVSPropertyOp16
 70
     1
102
RTVSPropertyOp17
 70
     1
102
RTVSPropertyOp18
 70
     1
102
RTVSPropertyOp19
 70
     1
102
RTVSPropertyOp20
 70
     1
102
RTVSPropertyOp21
 70
     1
102
RTVSPropertyOp22
 70
     1
102
RTVSPropertyOp23
 70
     1
102
RTVSPropertyOp24
 70
     1
102
RTVSPropertyOp25
 70
     1
102
RTVSPropertyOp26
 70
     1
102
RTVSPropertyOp27
 70
     1
102
RTVSPropertyOp28
 70
     1
102
RTVSPropertyOp29
 70
     1
102
RTVSPropertyOp30
 70
     1
102
RTVSPropertyOp31
 70
     1
102
RTVSPropertyOp32
 70
     1
102
RTVSPropertyOp33
 70
     1
102
RTVSPropertyOp34
 70
     1
102
RTVSPropertyOp35
 70
     1
102
RTVSPropertyOp36
 70
     1
102
RTVSPropertyOp37
 70
     1
102
RTVSPropertyOp38
 70
     1
102
RTVSPropertyOp39
 70
     1
102
RTVSPropertyOp40
 70
     1
102
RTVSPropertyOp41
 70
     1
102
RTVSPropertyOp42
 70
     1
102
RTVSPropertyOp43
 70
     1
102
RTVSPropertyOp44
 70
     1
102
RTVSPropertyOp45
 70
     1
102
RTVSPropertyOp46
 70
     1
102
RTVSPropertyOp47
 70
     1
102
RTVSPropertyOp48
 70
     1
102
RTVSPropertyOp49
 70
     1
102
RTVSPropertyOp50
 70
     1
102
RTVSPropertyOp51
 70
     0
102
RTVSPropertyOp52
 70
     0
102
RTVSPropertyOp53
 70
     1
102
RTVSPropertyOp54
 70
     1
102
RTVSPropertyOp55
 70
     1
102
RTVSPropertyOp56
 70
     1
102
RTVSPropertyOp57
 70
     1
102
RTVSPropertyOp58
 70
     1
102
RTVSPropertyOp59
 70
     1
102
RTVSPropertyOp60
 70
     1
102
RTVSPropertyOp61
 70
     1
102
RTVSPropertyOp62
 70
     1
  0
XRECORD
  5
8891
102
{ACAD_REACTORS
330
8890
102
}
330
8890
100
AcDbXrecord
280
     1
102
RTVSPost2010Prop28
280
     0
102
RTVSPost2010PropOp28
 70
     1
102
RTVSPost2010Prop29
280
     1
102
RTVSPost2010PropOp29
 70
     1
102
RTVSPost2010Prop30
280
     1
102
RTVSPost2010PropOp30
 70
     1
102
RTVSPost2010Prop31
280
     0
102
RTVSPost2010PropOp31
 70
     1
102
RTVSPost2010Prop32
280
     0
102
RTVSPost2010PropOp32
 70
     1
102
RTVSPost2010Prop33
280
     0
102
RTVSPost2010PropOp33
 70
     1
102
RTVSPost2010Prop34
280
     0
102
RTVSPost2010PropOp34
 70
     1
102
RTVSPost2010Prop35
280
     0
102
RTVSPost2010PropOp35
 70
     1
102
RTVSPost2010Prop36
280
     0
102
RTVSPost2010PropOp36
 70
     1
102
RTVSPost2010Prop37
 90
       50
102
RTVSPost2010PropOp37
 70
     1
102
RTVSPost2010Prop38
140
0.0
102
RTVSPost2010PropOp38
 70
     1
102
RTVSPost2010Prop39
140
1.0
102
RTVSPost2010PropOp39
 70
     1
102
RTVSPost2010Prop40
 90
        0
102
RTVSPost2010PropOp40
 70
     1
102
RTVSPost2010Prop41ColorIndex
 90
       18
102
RTVSPost2010Prop41ColorRGB
 90
        0
102
RTVSPost2010PropOp41
 70
     1
102
RTVSPost2010Prop42
 90
       50
102
RTVSPost2010PropOp42
 70
     1
102
RTVSPost2010Prop43
 90
        3
102
RTVSPost2010PropOp43
 70
     1
102
RTVSPost2010Prop44ColorIndex
 90
        5
102
RTVSPost2010Prop44ColorRGB
 90
      255
102
RTVSPost2010PropOp44
 70
     1
102
RTVSPost2010Prop45
280
     0
102
RTVSPost2010PropOp45
 70
     1
102
RTVSPost2010Prop46
 90
       50
102
RTVSPost2010PropOp46
 70
     1
102
RTVSPost2010Prop47
 90
       50
102
RTVSPost2010PropOp47
 70
     1
102
RTVSPost2010Prop48
 90
       50
102
RTVSPost2010PropOp48
 70
     1
102
RTVSPost2010Prop49
280
     0
102
RTVSPost2010PropOp49
 70
     1
102
RTVSPost2010Prop50
 90
       50
102
RTVSPost2010PropOp50
 70
     1
102
RTVSPost2010Prop51ColorIndex
 90
      256
102
RTVSPost2010Prop51ColorRGB
 90
-16777216
102
RTVSPost2010PropOp51
 70
     0
102
RTVSPost2010Prop52
140
1.0
102
RTVSPost2010PropOp52
 70
     0
102
RTVSPost2010Prop53
 90
        2
102
RTVSPost2010PropOp53
 70
     1
102
RTVSPost2010Prop54
  1
strokes_ogs.tif
102
RTVSPost2010PropOp54
 70
     1
102
RTVSPost2010Prop55
280
     0
102
RTVSPost2010PropOp55
 70
     1
102
RTVSPost2010Prop56
140
1.0
102
RTVSPost2010PropOp56
 70
     1
102
RTVSPost2010Prop57
140
1.0
102
RTVSPost2010PropOp57
 70
     1
102
RTVSPropertyOp0
 70
     1
102
RTVSPropertyOp1
 70
     1
102
RTVSPropertyOp2
 70
     1
102
RTVSPropertyOp3
 70
     1
102
RTVSPropertyOp4
 70
     1
102
RTVSPropertyOp5
 70
     1
102
RTVSPropertyOp6
 70
     1
102
RTVSPropertyOp7
 70
     1
102
RTVSPropertyOp8
 70
     1
102
RTVSPropertyOp9
 70
     1
102
RTVSPropertyOp10
 70
     1
102
RTVSPropertyOp11
 70
     1
102
RTVSPropertyOp12
 70
     1
102
RTVSPropertyOp13
 70
     1
102
RTVSPropertyOp14
 70
     1
102
RTVSPropertyOp15
 70
     1
102
RTVSPropertyOp16
 70
     1
102
RTVSPropertyOp17
 70
     1
102
RTVSPropertyOp18
 70
     1
102
RTVSPropertyOp19
 70
     1
102
RTVSPropertyOp20
 70
     1
102
RTVSPropertyOp21
 70
     1
102
RTVSPropertyOp22
 70
     1
102
RTVSPropertyOp23
 70
     1
102
RTVSPropertyOp24
 70
     1
102
RTVSPropertyOp25
 70
     1
102
RTVSPropertyOp26
 70
     1
102
RTVSPropertyOp27
 70
     1
102
RTVSPropertyOp28
 70
     1
102
RTVSPropertyOp29
 70
     1
102
RTVSPropertyOp30
 70
     1
102
RTVSPropertyOp31
 70
     1
102
RTVSPropertyOp32
 70
     1
102
RTVSPropertyOp33
 70
     1
102
RTVSPropertyOp34
 70
     1
102
RTVSPropertyOp35
 70
     1
102
RTVSPropertyOp36
 70
     1
102
RTVSPropertyOp37
 70
     1
102
RTVSPropertyOp38
 70
     1
102
RTVSPropertyOp39
 70
     1
102
RTVSPropertyOp40
 70
     1
102
RTVSPropertyOp41
 70
     1
102
RTVSPropertyOp42
 70
     1
102
RTVSPropertyOp43
 70
     1
102
RTVSPropertyOp44
 70
     1
102
RTVSPropertyOp45
 70
     1
102
RTVSPropertyOp46
 70
     1
102
RTVSPropertyOp47
 70
     1
102
RTVSPropertyOp48
 70
     1
102
RTVSPropertyOp49
 70
     1
102
RTVSPropertyOp50
 70
     1
102
RTVSPropertyOp51
 70
     0
102
RTVSPropertyOp52
 70
     0
102
RTVSPropertyOp53
 70
     1
102
RTVSPropertyOp54
 70
     1
102
RTVSPropertyOp55
 70
     1
102
RTVSPropertyOp56
 70
     1
102
RTVSPropertyOp57
 70
     1
102
RTVSPropertyOp58
 70
     1
102
RTVSPropertyOp59
 70
     1
102
RTVSPropertyOp60
 70
     1
102
RTVSPropertyOp61
 70
     1
102
RTVSPropertyOp62
 70
     1
  0
XRECORD
  5
8895
102
{ACAD_REACTORS
330
8894
102
}
330
8894
100
AcDbXrecord
280
     1
102
RTVSPost2010Prop28
280
     0
102
RTVSPost2010PropOp28
 70
     1
102
RTVSPost2010Prop29
280
     1
102
RTVSPost2010PropOp29
 70
     1
102
RTVSPost2010Prop30
280
     1
102
RTVSPost2010PropOp30
 70
     1
102
RTVSPost2010Prop31
280
     0
102
RTVSPost2010PropOp31
 70
     1
102
RTVSPost2010Prop32
280
     0
102
RTVSPost2010PropOp32
 70
     1
102
RTVSPost2010Prop33
280
     0
102
RTVSPost2010PropOp33
 70
     1
102
RTVSPost2010Prop34
280
     0
102
RTVSPost2010PropOp34
 70
     1
102
RTVSPost2010Prop35
280
     0
102
RTVSPost2010PropOp35
 70
     1
102
RTVSPost2010Prop36
280
     0
102
RTVSPost2010PropOp36
 70
     1
102
RTVSPost2010Prop37
 90
       50
102
RTVSPost2010PropOp37
 70
     1
102
RTVSPost2010Prop38
140
0.0
102
RTVSPost2010PropOp38
 70
     1
102
RTVSPost2010Prop39
140
1.0
102
RTVSPost2010PropOp39
 70
     1
102
RTVSPost2010Prop40
 90
        0
102
RTVSPost2010PropOp40
 70
     1
102
RTVSPost2010Prop41ColorIndex
 90
       18
102
RTVSPost2010Prop41ColorRGB
 90
        0
102
RTVSPost2010PropOp41
 70
     1
102
RTVSPost2010Prop42
 90
       50
102
RTVSPost2010PropOp42
 70
     1
102
RTVSPost2010Prop43
 90
        3
102
RTVSPost2010PropOp43
 70
     1
102
RTVSPost2010Prop44ColorIndex
 90
        5
102
RTVSPost2010Prop44ColorRGB
 90
      255
102
RTVSPost2010PropOp44
 70
     1
102
RTVSPost2010Prop45
280
     0
102
RTVSPost2010PropOp45
 70
     1
102
RTVSPost2010Prop46
 90
       50
102
RTVSPost2010PropOp46
 70
     1
102
RTVSPost2010Prop47
 90
       50
102
RTVSPost2010PropOp47
 70
     1
102
RTVSPost2010Prop48
 90
       50
102
RTVSPost2010PropOp48
 70
     1
102
RTVSPost2010Prop49
280
     0
102
RTVSPost2010PropOp49
 70
     1
102
RTVSPost2010Prop50
 90
       50
102
RTVSPost2010PropOp50
 70
     1
102
RTVSPost2010Prop51ColorIndex
 90
      256
102
RTVSPost2010Prop51ColorRGB
 90
-16777216
102
RTVSPost2010PropOp51
 70
     0
102
RTVSPost2010Prop52
140
1.0
102
RTVSPost2010PropOp52
 70
     0
102
RTVSPost2010Prop53
 90
        2
102
RTVSPost2010PropOp53
 70
     1
102
RTVSPost2010Prop54
  1
strokes_ogs.tif
102
RTVSPost2010PropOp54
 70
     1
102
RTVSPost2010Prop55
280
     0
102
RTVSPost2010PropOp55
 70
     1
102
RTVSPost2010Prop56
140
1.0
102
RTVSPost2010PropOp56
 70
     1
102
RTVSPost2010Prop57
140
1.0
102
RTVSPost2010PropOp57
 70
     1
102
RTVSPropertyOp0
 70
     1
102
RTVSPropertyOp1
 70
     1
102
RTVSPropertyOp2
 70
     1
102
RTVSPropertyOp3
 70
     1
102
RTVSPropertyOp4
 70
     1
102
RTVSPropertyOp5
 70
     1
102
RTVSPropertyOp6
 70
     1
102
RTVSPropertyOp7
 70
     1
102
RTVSPropertyOp8
 70
     1
102
RTVSPropertyOp9
 70
     1
102
RTVSPropertyOp10
 70
     1
102
RTVSPropertyOp11
 70
     1
102
RTVSPropertyOp12
 70
     1
102
RTVSPropertyOp13
 70
     1
102
RTVSPropertyOp14
 70
     1
102
RTVSPropertyOp15
 70
     1
102
RTVSPropertyOp16
 70
     1
102
RTVSPropertyOp17
 70
     1
102
RTVSPropertyOp18
 70
     1
102
RTVSPropertyOp19
 70
     1
102
RTVSPropertyOp20
 70
     1
102
RTVSPropertyOp21
 70
     1
102
RTVSPropertyOp22
 70
     1
102
RTVSPropertyOp23
 70
     1
102
RTVSPropertyOp24
 70
     1
102
RTVSPropertyOp25
 70
     1
102
RTVSPropertyOp26
 70
     1
102
RTVSPropertyOp27
 70
     1
102
RTVSPropertyOp28
 70
     1
102
RTVSPropertyOp29
 70
     1
102
RTVSPropertyOp30
 70
     1
102
RTVSPropertyOp31
 70
     1
102
RTVSPropertyOp32
 70
     1
102
RTVSPropertyOp33
 70
     1
102
RTVSPropertyOp34
 70
     1
102
RTVSPropertyOp35
 70
     1
102
RTVSPropertyOp36
 70
     1
102
RTVSPropertyOp37
 70
     1
102
RTVSPropertyOp38
 70
     1
102
RTVSPropertyOp39
 70
     1
102
RTVSPropertyOp40
 70
     1
102
RTVSPropertyOp41
 70
     1
102
RTVSPropertyOp42
 70
     1
102
RTVSPropertyOp43
 70
     1
102
RTVSPropertyOp44
 70
     1
102
RTVSPropertyOp45
 70
     1
102
RTVSPropertyOp46
 70
     1
102
RTVSPropertyOp47
 70
     1
102
RTVSPropertyOp48
 70
     1
102
RTVSPropertyOp49
 70
     1
102
RTVSPropertyOp50
 70
     1
102
RTVSPropertyOp51
 70
     0
102
RTVSPropertyOp52
 70
     0
102
RTVSPropertyOp53
 70
     1
102
RTVSPropertyOp54
 70
     1
102
RTVSPropertyOp55
 70
     1
102
RTVSPropertyOp56
 70
     1
102
RTVSPropertyOp57
 70
     1
102
RTVSPropertyOp58
 70
     1
102
RTVSPropertyOp59
 70
     1
102
RTVSPropertyOp60
 70
     1
102
RTVSPropertyOp61
 70
     1
102
RTVSPropertyOp62
 70
     1
  0
XRECORD
  5
88AF
102
{ACAD_REACTORS
330
88AE
102
}
330
88AE
100
AcDbXrecord
280
     1
102
RTVSPost2010Prop28
280
     0
102
RTVSPost2010PropOp28
 70
     1
102
RTVSPost2010Prop29
280
     1
102
RTVSPost2010PropOp29
 70
     1
102
RTVSPost2010Prop30
280
     1
102
RTVSPost2010PropOp30
 70
     1
102
RTVSPost2010Prop31
280
     0
102
RTVSPost2010PropOp31
 70
     1
102
RTVSPost2010Prop32
280
     0
102
RTVSPost2010PropOp32
 70
     1
102
RTVSPost2010Prop33
280
     0
102
RTVSPost2010PropOp33
 70
     1
102
RTVSPost2010Prop34
280
     0
102
RTVSPost2010PropOp34
 70
     1
102
RTVSPost2010Prop35
280
     0
102
RTVSPost2010PropOp35
 70
     1
102
RTVSPost2010Prop36
280
     0
102
RTVSPost2010PropOp36
 70
     1
102
RTVSPost2010Prop37
 90
       50
102
RTVSPost2010PropOp37
 70
     0
102
RTVSPost2010Prop38
140
0.0
102
RTVSPost2010PropOp38
 70
     0
102
RTVSPost2010Prop39
140
1.0
102
RTVSPost2010PropOp39
 70
     0
102
RTVSPost2010Prop40
 90
        0
102
RTVSPost2010PropOp40
 70
     0
102
RTVSPost2010Prop41ColorIndex
 90
       18
102
RTVSPost2010Prop41ColorRGB
 90
        0
102
RTVSPost2010PropOp41
 70
     0
102
RTVSPost2010Prop42
 90
       50
102
RTVSPost2010PropOp42
 70
     0
102
RTVSPost2010Prop43
 90
        3
102
RTVSPost2010PropOp43
 70
     0
102
RTVSPost2010Prop44ColorIndex
 90
        5
102
RTVSPost2010Prop44ColorRGB
 90
      255
102
RTVSPost2010PropOp44
 70
     0
102
RTVSPost2010Prop45
280
     0
102
RTVSPost2010PropOp45
 70
     1
102
RTVSPost2010Prop46
 90
       50
102
RTVSPost2010PropOp46
 70
     0
102
RTVSPost2010Prop47
 90
       50
102
RTVSPost2010PropOp47
 70
     0
102
RTVSPost2010Prop48
 90
       50
102
RTVSPost2010PropOp48
 70
     0
102
RTVSPost2010Prop49
280
     0
102
RTVSPost2010PropOp49
 70
     1
102
RTVSPost2010Prop50
 90
       50
102
RTVSPost2010PropOp50
 70
     0
102
RTVSPost2010Prop51ColorIndex
 90
      256
102
RTVSPost2010Prop51ColorRGB
 90
-16777216
102
RTVSPost2010PropOp51
 70
     0
102
RTVSPost2010Prop52
140
1.0
102
RTVSPost2010PropOp52
 70
     0
102
RTVSPost2010Prop53
 90
        2
102
RTVSPost2010PropOp53
 70
     0
102
RTVSPost2010Prop54
  1
strokes_ogs.tif
102
RTVSPost2010PropOp54
 70
     0
102
RTVSPost2010Prop55
280
     0
102
RTVSPost2010PropOp55
 70
     1
102
RTVSPost2010Prop56
140
1.0
102
RTVSPost2010PropOp56
 70
     0
102
RTVSPost2010Prop57
140
1.0
102
RTVSPost2010PropOp57
 70
     0
102
RTVSPropertyOp0
 70
     0
102
RTVSPropertyOp1
 70
     0
102
RTVSPropertyOp2
 70
     0
102
RTVSPropertyOp3
 70
     0
102
RTVSPropertyOp4
 70
     0
102
RTVSPropertyOp5
 70
     0
102
RTVSPropertyOp6
 70
     0
102
RTVSPropertyOp7
 70
     0
102
RTVSPropertyOp8
 70
     0
102
RTVSPropertyOp9
 70
     0
102
RTVSPropertyOp10
 70
     0
102
RTVSPropertyOp11
 70
     0
102
RTVSPropertyOp12
 70
     0
102
RTVSPropertyOp13
 70
     0
102
RTVSPropertyOp14
 70
     2
102
RTVSPropertyOp15
 70
     0
102
RTVSPropertyOp16
 70
     0
102
RTVSPropertyOp17
 70
     0
102
RTVSPropertyOp18
 70
     0
102
RTVSPropertyOp19
 70
     0
102
RTVSPropertyOp20
 70
     0
102
RTVSPropertyOp21
 70
     0
102
RTVSPropertyOp22
 70
     0
102
RTVSPropertyOp23
 70
     0
102
RTVSPropertyOp24
 70
     0
102
RTVSPropertyOp25
 70
     0
102
RTVSPropertyOp26
 70
     0
102
RTVSPropertyOp27
 70
     0
102
RTVSPropertyOp28
 70
     1
102
RTVSPropertyOp29
 70
     1
102
RTVSPropertyOp30
 70
     1
102
RTVSPropertyOp31
 70
     1
102
RTVSPropertyOp32
 70
     1
102
RTVSPropertyOp33
 70
     1
102
RTVSPropertyOp34
 70
     1
102
RTVSPropertyOp35
 70
     1
102
RTVSPropertyOp36
 70
     1
102
RTVSPropertyOp37
 70
     0
102
RTVSPropertyOp38
 70
     0
102
RTVSPropertyOp39
 70
     0
102
RTVSPropertyOp40
 70
     0
102
RTVSPropertyOp41
 70
     0
102
RTVSPropertyOp42
 70
     0
102
RTVSPropertyOp43
 70
     0
102
RTVSPropertyOp44
 70
     0
102
RTVSPropertyOp45
 70
     1
102
RTVSPropertyOp46
 70
     0
102
RTVSPropertyOp47
 70
     0
102
RTVSPropertyOp48
 70
     0
102
RTVSPropertyOp49
 70
     1
102
RTVSPropertyOp50
 70
     0
102
RTVSPropertyOp51
 70
     0
102
RTVSPropertyOp52
 70
     0
102
RTVSPropertyOp53
 70
     0
102
RTVSPropertyOp54
 70
     0
102
RTVSPropertyOp55
 70
     1
102
RTVSPropertyOp56
 70
     0
102
RTVSPropertyOp57
 70
     0
102
RTVSPropertyOp58
 70
     0
102
RTVSPropertyOp59
 70
     0
102
RTVSPropertyOp60
 70
     0
102
RTVSPropertyOp61
 70
     0
102
RTVSPropertyOp62
 70
     0
  0
XRECORD
  5
889D
102
{ACAD_REACTORS
330
889C
102
}
330
889C
100
AcDbXrecord
280
     1
102
RTVSPost2010Prop28
280
     0
102
RTVSPost2010PropOp28
 70
     1
102
RTVSPost2010Prop29
280
     1
102
RTVSPost2010PropOp29
 70
     1
102
RTVSPost2010Prop30
280
     1
102
RTVSPost2010PropOp30
 70
     1
102
RTVSPost2010Prop31
280
     0
102
RTVSPost2010PropOp31
 70
     1
102
RTVSPost2010Prop32
280
     0
102
RTVSPost2010PropOp32
 70
     1
102
RTVSPost2010Prop33
280
     0
102
RTVSPost2010PropOp33
 70
     1
102
RTVSPost2010Prop34
280
     0
102
RTVSPost2010PropOp34
 70
     1
102
RTVSPost2010Prop35
280
     0
102
RTVSPost2010PropOp35
 70
     1
102
RTVSPost2010Prop36
280
     0
102
RTVSPost2010PropOp36
 70
     1
102
RTVSPost2010Prop37
 90
       50
102
RTVSPost2010PropOp37
 70
     1
102
RTVSPost2010Prop38
140
0.0
102
RTVSPost2010PropOp38
 70
     1
102
RTVSPost2010Prop39
140
1.0
102
RTVSPost2010PropOp39
 70
     1
102
RTVSPost2010Prop40
 90
        0
102
RTVSPost2010PropOp40
 70
     1
102
RTVSPost2010Prop41ColorIndex
 90
       18
102
RTVSPost2010Prop41ColorRGB
 90
        0
102
RTVSPost2010PropOp41
 70
     1
102
RTVSPost2010Prop42
 90
       50
102
RTVSPost2010PropOp42
 70
     1
102
RTVSPost2010Prop43
 90
        3
102
RTVSPost2010PropOp43
 70
     1
102
RTVSPost2010Prop44ColorIndex
 90
        5
102
RTVSPost2010Prop44ColorRGB
 90
      255
102
RTVSPost2010PropOp44
 70
     1
102
RTVSPost2010Prop45
280
     0
102
RTVSPost2010PropOp45
 70
     1
102
RTVSPost2010Prop46
 90
       50
102
RTVSPost2010PropOp46
 70
     1
102
RTVSPost2010Prop47
 90
       50
102
RTVSPost2010PropOp47
 70
     1
102
RTVSPost2010Prop48
 90
       50
102
RTVSPost2010PropOp48
 70
     1
102
RTVSPost2010Prop49
280
     0
102
RTVSPost2010PropOp49
 70
     1
102
RTVSPost2010Prop50
 90
       50
102
RTVSPost2010PropOp50
 70
     1
102
RTVSPost2010Prop51ColorIndex
 90
      256
102
RTVSPost2010Prop51ColorRGB
 90
-16777216
102
RTVSPost2010PropOp51
 70
     0
102
RTVSPost2010Prop52
140
1.0
102
RTVSPost2010PropOp52
 70
     0
102
RTVSPost2010Prop53
 90
        2
102
RTVSPost2010PropOp53
 70
     1
102
RTVSPost2010Prop54
  1
strokes_ogs.tif
102
RTVSPost2010PropOp54
 70
     1
102
RTVSPost2010Prop55
280
     0
102
RTVSPost2010PropOp55
 70
     1
102
RTVSPost2010Prop56
140
1.0
102
RTVSPost2010PropOp56
 70
     1
102
RTVSPost2010Prop57
140
1.0
102
RTVSPost2010PropOp57
 70
     1
102
RTVSPropertyOp0
 70
     1
102
RTVSPropertyOp1
 70
     1
102
RTVSPropertyOp2
 70
     1
102
RTVSPropertyOp3
 70
     1
102
RTVSPropertyOp4
 70
     1
102
RTVSPropertyOp5
 70
     1
102
RTVSPropertyOp6
 70
     1
102
RTVSPropertyOp7
 70
     1
102
RTVSPropertyOp8
 70
     1
102
RTVSPropertyOp9
 70
     1
102
RTVSPropertyOp10
 70
     1
102
RTVSPropertyOp11
 70
     1
102
RTVSPropertyOp12
 70
     1
102
RTVSPropertyOp13
 70
     1
102
RTVSPropertyOp14
 70
     1
102
RTVSPropertyOp15
 70
     1
102
RTVSPropertyOp16
 70
     1
102
RTVSPropertyOp17
 70
     1
102
RTVSPropertyOp18
 70
     1
102
RTVSPropertyOp19
 70
     1
102
RTVSPropertyOp20
 70
     1
102
RTVSPropertyOp21
 70
     1
102
RTVSPropertyOp22
 70
     1
102
RTVSPropertyOp23
 70
     1
102
RTVSPropertyOp24
 70
     1
102
RTVSPropertyOp25
 70
     1
102
RTVSPropertyOp26
 70
     1
102
RTVSPropertyOp27
 70
     1
102
RTVSPropertyOp28
 70
     1
102
RTVSPropertyOp29
 70
     1
102
RTVSPropertyOp30
 70
     1
102
RTVSPropertyOp31
 70
     1
102
RTVSPropertyOp32
 70
     1
102
RTVSPropertyOp33
 70
     1
102
RTVSPropertyOp34
 70
     1
102
RTVSPropertyOp35
 70
     1
102
RTVSPropertyOp36
 70
     1
102
RTVSPropertyOp37
 70
     1
102
RTVSPropertyOp38
 70
     1
102
RTVSPropertyOp39
 70
     1
102
RTVSPropertyOp40
 70
     1
102
RTVSPropertyOp41
 70
     1
102
RTVSPropertyOp42
 70
     1
102
RTVSPropertyOp43
 70
     1
102
RTVSPropertyOp44
 70
     1
102
RTVSPropertyOp45
 70
     1
102
RTVSPropertyOp46
 70
     1
102
RTVSPropertyOp47
 70
     1
102
RTVSPropertyOp48
 70
     1
102
RTVSPropertyOp49
 70
     1
102
RTVSPropertyOp50
 70
     1
102
RTVSPropertyOp51
 70
     0
102
RTVSPropertyOp52
 70
     0
102
RTVSPropertyOp53
 70
     1
102
RTVSPropertyOp54
 70
     1
102
RTVSPropertyOp55
 70
     1
102
RTVSPropertyOp56
 70
     1
102
RTVSPropertyOp57
 70
     1
102
RTVSPropertyOp58
 70
     1
102
RTVSPropertyOp59
 70
     1
102
RTVSPropertyOp60
 70
     1
102
RTVSPropertyOp61
 70
     1
102
RTVSPropertyOp62
 70
     1
  0
XRECORD
  5
8881
102
{ACAD_REACTORS
330
8880
102
}
330
8880
100
AcDbXrecord
280
     1
102
RTVSPost2010Prop28
280
     0
102
RTVSPost2010PropOp28
 70
     1
102
RTVSPost2010Prop29
280
     1
102
RTVSPost2010PropOp29
 70
     1
102
RTVSPost2010Prop30
280
     1
102
RTVSPost2010PropOp30
 70
     1
102
RTVSPost2010Prop31
280
     0
102
RTVSPost2010PropOp31
 70
     1
102
RTVSPost2010Prop32
280
     0
102
RTVSPost2010PropOp32
 70
     1
102
RTVSPost2010Prop33
280
     0
102
RTVSPost2010PropOp33
 70
     1
102
RTVSPost2010Prop34
280
     0
102
RTVSPost2010PropOp34
 70
     1
102
RTVSPost2010Prop35
280
     0
102
RTVSPost2010PropOp35
 70
     1
102
RTVSPost2010Prop36
280
     0
102
RTVSPost2010PropOp36
 70
     1
102
RTVSPost2010Prop37
 90
       50
102
RTVSPost2010PropOp37
 70
     1
102
RTVSPost2010Prop38
140
0.0
102
RTVSPost2010PropOp38
 70
     1
102
RTVSPost2010Prop39
140
1.0
102
RTVSPost2010PropOp39
 70
     1
102
RTVSPost2010Prop40
 90
        0
102
RTVSPost2010PropOp40
 70
     1
102
RTVSPost2010Prop41ColorIndex
 90
       18
102
RTVSPost2010Prop41ColorRGB
 90
        0
102
RTVSPost2010PropOp41
 70
     1
102
RTVSPost2010Prop42
 90
       50
102
RTVSPost2010PropOp42
 70
     1
102
RTVSPost2010Prop43
 90
        3
102
RTVSPost2010PropOp43
 70
     1
102
RTVSPost2010Prop44ColorIndex
 90
        5
102
RTVSPost2010Prop44ColorRGB
 90
      255
102
RTVSPost2010PropOp44
 70
     1
102
RTVSPost2010Prop45
280
     0
102
RTVSPost2010PropOp45
 70
     1
102
RTVSPost2010Prop46
 90
       50
102
RTVSPost2010PropOp46
 70
     1
102
RTVSPost2010Prop47
 90
       50
102
RTVSPost2010PropOp47
 70
     1
102
RTVSPost2010Prop48
 90
       50
102
RTVSPost2010PropOp48
 70
     1
102
RTVSPost2010Prop49
280
     0
102
RTVSPost2010PropOp49
 70
     1
102
RTVSPost2010Prop50
 90
       50
102
RTVSPost2010PropOp50
 70
     1
102
RTVSPost2010Prop51ColorIndex
 90
      256
102
RTVSPost2010Prop51ColorRGB
 90
-16777216
102
RTVSPost2010PropOp51
 70
     0
102
RTVSPost2010Prop52
140
1.0
102
RTVSPost2010PropOp52
 70
     0
102
RTVSPost2010Prop53
 90
        2
102
RTVSPost2010PropOp53
 70
     1
102
RTVSPost2010Prop54
  1
strokes_ogs.tif
102
RTVSPost2010PropOp54
 70
     1
102
RTVSPost2010Prop55
280
     0
102
RTVSPost2010PropOp55
 70
     1
102
RTVSPost2010Prop56
140
1.0
102
RTVSPost2010PropOp56
 70
     1
102
RTVSPost2010Prop57
140
1.0
102
RTVSPost2010PropOp57
 70
     1
102
RTVSPropertyOp0
 70
     1
102
RTVSPropertyOp1
 70
     1
102
RTVSPropertyOp2
 70
     1
102
RTVSPropertyOp3
 70
     1
102
RTVSPropertyOp4
 70
     1
102
RTVSPropertyOp5
 70
     1
102
RTVSPropertyOp6
 70
     1
102
RTVSPropertyOp7
 70
     1
102
RTVSPropertyOp8
 70
     1
102
RTVSPropertyOp9
 70
     1
102
RTVSPropertyOp10
 70
     1
102
RTVSPropertyOp11
 70
     1
102
RTVSPropertyOp12
 70
     1
102
RTVSPropertyOp13
 70
     1
102
RTVSPropertyOp14
 70
     1
102
RTVSPropertyOp15
 70
     1
102
RTVSPropertyOp16
 70
     1
102
RTVSPropertyOp17
 70
     1
102
RTVSPropertyOp18
 70
     1
102
RTVSPropertyOp19
 70
     1
102
RTVSPropertyOp20
 70
     1
102
RTVSPropertyOp21
 70
     1
102
RTVSPropertyOp22
 70
     1
102
RTVSPropertyOp23
 70
     1
102
RTVSPropertyOp24
 70
     1
102
RTVSPropertyOp25
 70
     1
102
RTVSPropertyOp26
 70
     1
102
RTVSPropertyOp27
 70
     1
102
RTVSPropertyOp28
 70
     1
102
RTVSPropertyOp29
 70
     1
102
RTVSPropertyOp30
 70
     1
102
RTVSPropertyOp31
 70
     1
102
RTVSPropertyOp32
 70
     1
102
RTVSPropertyOp33
 70
     1
102
RTVSPropertyOp34
 70
     1
102
RTVSPropertyOp35
 70
     1
102
RTVSPropertyOp36
 70
     1
102
RTVSPropertyOp37
 70
     1
102
RTVSPropertyOp38
 70
     1
102
RTVSPropertyOp39
 70
     1
102
RTVSPropertyOp40
 70
     1
102
RTVSPropertyOp41
 70
     1
102
RTVSPropertyOp42
 70
     1
102
RTVSPropertyOp43
 70
     1
102
RTVSPropertyOp44
 70
     1
102
RTVSPropertyOp45
 70
     1
102
RTVSPropertyOp46
 70
     1
102
RTVSPropertyOp47
 70
     1
102
RTVSPropertyOp48
 70
     1
102
RTVSPropertyOp49
 70
     1
102
RTVSPropertyOp50
 70
     1
102
RTVSPropertyOp51
 70
     0
102
RTVSPropertyOp52
 70
     0
102
RTVSPropertyOp53
 70
     1
102
RTVSPropertyOp54
 70
     1
102
RTVSPropertyOp55
 70
     1
102
RTVSPropertyOp56
 70
     1
102
RTVSPropertyOp57
 70
     1
102
RTVSPropertyOp58
 70
     1
102
RTVSPropertyOp59
 70
     1
102
RTVSPropertyOp60
 70
     1
102
RTVSPropertyOp61
 70
     1
102
RTVSPropertyOp62
 70
     1
  0
XRECORD
  5
8883
102
{ACAD_REACTORS
330
8882
102
}
330
8882
100
AcDbXrecord
280
     1
102
RTVSPost2010Prop28
280
     0
102
RTVSPost2010PropOp28
 70
     1
102
RTVSPost2010Prop29
280
     1
102
RTVSPost2010PropOp29
 70
     1
102
RTVSPost2010Prop30
280
     1
102
RTVSPost2010PropOp30
 70
     1
102
RTVSPost2010Prop31
280
     0
102
RTVSPost2010PropOp31
 70
     1
102
RTVSPost2010Prop32
280
     0
102
RTVSPost2010PropOp32
 70
     1
102
RTVSPost2010Prop33
280
     0
102
RTVSPost2010PropOp33
 70
     1
102
RTVSPost2010Prop34
280
     0
102
RTVSPost2010PropOp34
 70
     1
102
RTVSPost2010Prop35
280
     0
102
RTVSPost2010PropOp35
 70
     1
102
RTVSPost2010Prop36
280
     0
102
RTVSPost2010PropOp36
 70
     1
102
RTVSPost2010Prop37
 90
       50
102
RTVSPost2010PropOp37
 70
     1
102
RTVSPost2010Prop38
140
0.0
102
RTVSPost2010PropOp38
 70
     1
102
RTVSPost2010Prop39
140
1.0
102
RTVSPost2010PropOp39
 70
     1
102
RTVSPost2010Prop40
 90
        0
102
RTVSPost2010PropOp40
 70
     1
102
RTVSPost2010Prop41ColorIndex
 90
       18
102
RTVSPost2010Prop41ColorRGB
 90
        0
102
RTVSPost2010PropOp41
 70
     1
102
RTVSPost2010Prop42
 90
       50
102
RTVSPost2010PropOp42
 70
     1
102
RTVSPost2010Prop43
 90
        3
102
RTVSPost2010PropOp43
 70
     1
102
RTVSPost2010Prop44ColorIndex
 90
        5
102
RTVSPost2010Prop44ColorRGB
 90
      255
102
RTVSPost2010PropOp44
 70
     1
102
RTVSPost2010Prop45
280
     0
102
RTVSPost2010PropOp45
 70
     1
102
RTVSPost2010Prop46
 90
       50
102
RTVSPost2010PropOp46
 70
     1
102
RTVSPost2010Prop47
 90
       50
102
RTVSPost2010PropOp47
 70
     1
102
RTVSPost2010Prop48
 90
       50
102
RTVSPost2010PropOp48
 70
     1
102
RTVSPost2010Prop49
280
     0
102
RTVSPost2010PropOp49
 70
     1
102
RTVSPost2010Prop50
 90
       50
102
RTVSPost2010PropOp50
 70
     1
102
RTVSPost2010Prop51ColorIndex
 90
      256
102
RTVSPost2010Prop51ColorRGB
 90
-16777216
102
RTVSPost2010PropOp51
 70
     0
102
RTVSPost2010Prop52
140
1.0
102
RTVSPost2010PropOp52
 70
     0
102
RTVSPost2010Prop53
 90
        2
102
RTVSPost2010PropOp53
 70
     1
102
RTVSPost2010Prop54
  1
strokes_ogs.tif
102
RTVSPost2010PropOp54
 70
     1
102
RTVSPost2010Prop55
280
     0
102
RTVSPost2010PropOp55
 70
     1
102
RTVSPost2010Prop56
140
1.0
102
RTVSPost2010PropOp56
 70
     1
102
RTVSPost2010Prop57
140
1.0
102
RTVSPost2010PropOp57
 70
     1
102
RTVSPropertyOp0
 70
     1
102
RTVSPropertyOp1
 70
     1
102
RTVSPropertyOp2
 70
     1
102
RTVSPropertyOp3
 70
     1
102
RTVSPropertyOp4
 70
     1
102
RTVSPropertyOp5
 70
     1
102
RTVSPropertyOp6
 70
     1
102
RTVSPropertyOp7
 70
     1
102
RTVSPropertyOp8
 70
     1
102
RTVSPropertyOp9
 70
     1
102
RTVSPropertyOp10
 70
     1
102
RTVSPropertyOp11
 70
     1
102
RTVSPropertyOp12
 70
     1
102
RTVSPropertyOp13
 70
     1
102
RTVSPropertyOp14
 70
     1
102
RTVSPropertyOp15
 70
     1
102
RTVSPropertyOp16
 70
     1
102
RTVSPropertyOp17
 70
     1
102
RTVSPropertyOp18
 70
     1
102
RTVSPropertyOp19
 70
     1
102
RTVSPropertyOp20
 70
     1
102
RTVSPropertyOp21
 70
     1
102
RTVSPropertyOp22
 70
     1
102
RTVSPropertyOp23
 70
     1
102
RTVSPropertyOp24
 70
     1
102
RTVSPropertyOp25
 70
     1
102
RTVSPropertyOp26
 70
     1
102
RTVSPropertyOp27
 70
     1
102
RTVSPropertyOp28
 70
     1
102
RTVSPropertyOp29
 70
     1
102
RTVSPropertyOp30
 70
     1
102
RTVSPropertyOp31
 70
     1
102
RTVSPropertyOp32
 70
     1
102
RTVSPropertyOp33
 70
     1
102
RTVSPropertyOp34
 70
     1
102
RTVSPropertyOp35
 70
     1
102
RTVSPropertyOp36
 70
     1
102
RTVSPropertyOp37
 70
     1
102
RTVSPropertyOp38
 70
     1
102
RTVSPropertyOp39
 70
     1
102
RTVSPropertyOp40
 70
     1
102
RTVSPropertyOp41
 70
     1
102
RTVSPropertyOp42
 70
     1
102
RTVSPropertyOp43
 70
     1
102
RTVSPropertyOp44
 70
     1
102
RTVSPropertyOp45
 70
     1
102
RTVSPropertyOp46
 70
     1
102
RTVSPropertyOp47
 70
     1
102
RTVSPropertyOp48
 70
     1
102
RTVSPropertyOp49
 70
     1
102
RTVSPropertyOp50
 70
     1
102
RTVSPropertyOp51
 70
     0
102
RTVSPropertyOp52
 70
     0
102
RTVSPropertyOp53
 70
     1
102
RTVSPropertyOp54
 70
     1
102
RTVSPropertyOp55
 70
     1
102
RTVSPropertyOp56
 70
     1
102
RTVSPropertyOp57
 70
     1
102
RTVSPropertyOp58
 70
     1
102
RTVSPropertyOp59
 70
     1
102
RTVSPropertyOp60
 70
     1
102
RTVSPropertyOp61
 70
     1
102
RTVSPropertyOp62
 70
     1
  0
XRECORD
  5
8885
102
{ACAD_REACTORS
330
8884
102
}
330
8884
100
AcDbXrecord
280
     1
102
RTVSPost2010Prop28
280
     0
102
RTVSPost2010PropOp28
 70
     1
102
RTVSPost2010Prop29
280
     1
102
RTVSPost2010PropOp29
 70
     1
102
RTVSPost2010Prop30
280
     1
102
RTVSPost2010PropOp30
 70
     1
102
RTVSPost2010Prop31
280
     0
102
RTVSPost2010PropOp31
 70
     1
102
RTVSPost2010Prop32
280
     0
102
RTVSPost2010PropOp32
 70
     1
102
RTVSPost2010Prop33
280
     0
102
RTVSPost2010PropOp33
 70
     1
102
RTVSPost2010Prop34
280
     0
102
RTVSPost2010PropOp34
 70
     1
102
RTVSPost2010Prop35
280
     0
102
RTVSPost2010PropOp35
 70
     1
102
RTVSPost2010Prop36
280
     0
102
RTVSPost2010PropOp36
 70
     1
102
RTVSPost2010Prop37
 90
       50
102
RTVSPost2010PropOp37
 70
     1
102
RTVSPost2010Prop38
140
0.0
102
RTVSPost2010PropOp38
 70
     1
102
RTVSPost2010Prop39
140
1.0
102
RTVSPost2010PropOp39
 70
     1
102
RTVSPost2010Prop40
 90
        0
102
RTVSPost2010PropOp40
 70
     1
102
RTVSPost2010Prop41ColorIndex
 90
       18
102
RTVSPost2010Prop41ColorRGB
 90
        0
102
RTVSPost2010PropOp41
 70
     1
102
RTVSPost2010Prop42
 90
       50
102
RTVSPost2010PropOp42
 70
     1
102
RTVSPost2010Prop43
 90
        3
102
RTVSPost2010PropOp43
 70
     1
102
RTVSPost2010Prop44ColorIndex
 90
        5
102
RTVSPost2010Prop44ColorRGB
 90
      255
102
RTVSPost2010PropOp44
 70
     1
102
RTVSPost2010Prop45
280
     0
102
RTVSPost2010PropOp45
 70
     1
102
RTVSPost2010Prop46
 90
       50
102
RTVSPost2010PropOp46
 70
     1
102
RTVSPost2010Prop47
 90
       50
102
RTVSPost2010PropOp47
 70
     1
102
RTVSPost2010Prop48
 90
       50
102
RTVSPost2010PropOp48
 70
     1
102
RTVSPost2010Prop49
280
     0
102
RTVSPost2010PropOp49
 70
     1
102
RTVSPost2010Prop50
 90
       50
102
RTVSPost2010PropOp50
 70
     1
102
RTVSPost2010Prop51ColorIndex
 90
      256
102
RTVSPost2010Prop51ColorRGB
 90
-16777216
102
RTVSPost2010PropOp51
 70
     0
102
RTVSPost2010Prop52
140
1.0
102
RTVSPost2010PropOp52
 70
     0
102
RTVSPost2010Prop53
 90
        2
102
RTVSPost2010PropOp53
 70
     1
102
RTVSPost2010Prop54
  1
strokes_ogs.tif
102
RTVSPost2010PropOp54
 70
     1
102
RTVSPost2010Prop55
280
     0
102
RTVSPost2010PropOp55
 70
     1
102
RTVSPost2010Prop56
140
1.0
102
RTVSPost2010PropOp56
 70
     1
102
RTVSPost2010Prop57
140
1.0
102
RTVSPost2010PropOp57
 70
     1
102
RTVSPropertyOp0
 70
     1
102
RTVSPropertyOp1
 70
     1
102
RTVSPropertyOp2
 70
     1
102
RTVSPropertyOp3
 70
     1
102
RTVSPropertyOp4
 70
     1
102
RTVSPropertyOp5
 70
     1
102
RTVSPropertyOp6
 70
     1
102
RTVSPropertyOp7
 70
     1
102
RTVSPropertyOp8
 70
     1
102
RTVSPropertyOp9
 70
     1
102
RTVSPropertyOp10
 70
     1
102
RTVSPropertyOp11
 70
     1
102
RTVSPropertyOp12
 70
     1
102
RTVSPropertyOp13
 70
     1
102
RTVSPropertyOp14
 70
     1
102
RTVSPropertyOp15
 70
     1
102
RTVSPropertyOp16
 70
     1
102
RTVSPropertyOp17
 70
     1
102
RTVSPropertyOp18
 70
     1
102
RTVSPropertyOp19
 70
     1
102
RTVSPropertyOp20
 70
     1
102
RTVSPropertyOp21
 70
     1
102
RTVSPropertyOp22
 70
     1
102
RTVSPropertyOp23
 70
     1
102
RTVSPropertyOp24
 70
     1
102
RTVSPropertyOp25
 70
     1
102
RTVSPropertyOp26
 70
     1
102
RTVSPropertyOp27
 70
     1
102
RTVSPropertyOp28
 70
     1
102
RTVSPropertyOp29
 70
     1
102
RTVSPropertyOp30
 70
     1
102
RTVSPropertyOp31
 70
     1
102
RTVSPropertyOp32
 70
     1
102
RTVSPropertyOp33
 70
     1
102
RTVSPropertyOp34
 70
     1
102
RTVSPropertyOp35
 70
     1
102
RTVSPropertyOp36
 70
     1
102
RTVSPropertyOp37
 70
     1
102
RTVSPropertyOp38
 70
     1
102
RTVSPropertyOp39
 70
     1
102
RTVSPropertyOp40
 70
     1
102
RTVSPropertyOp41
 70
     1
102
RTVSPropertyOp42
 70
     1
102
RTVSPropertyOp43
 70
     1
102
RTVSPropertyOp44
 70
     1
102
RTVSPropertyOp45
 70
     1
102
RTVSPropertyOp46
 70
     1
102
RTVSPropertyOp47
 70
     1
102
RTVSPropertyOp48
 70
     1
102
RTVSPropertyOp49
 70
     1
102
RTVSPropertyOp50
 70
     1
102
RTVSPropertyOp51
 70
     0
102
RTVSPropertyOp52
 70
     0
102
RTVSPropertyOp53
 70
     1
102
RTVSPropertyOp54
 70
     1
102
RTVSPropertyOp55
 70
     1
102
RTVSPropertyOp56
 70
     1
102
RTVSPropertyOp57
 70
     1
102
RTVSPropertyOp58
 70
     1
102
RTVSPropertyOp59
 70
     1
102
RTVSPropertyOp60
 70
     1
102
RTVSPropertyOp61
 70
     1
102
RTVSPropertyOp62
 70
     1
  0
XRECORD
  5
8887
102
{ACAD_REACTORS
330
8886
102
}
330
8886
100
AcDbXrecord
280
     1
102
RTVSPost2010Prop28
280
     0
102
RTVSPost2010PropOp28
 70
     1
102
RTVSPost2010Prop29
280
     1
102
RTVSPost2010PropOp29
 70
     1
102
RTVSPost2010Prop30
280
     1
102
RTVSPost2010PropOp30
 70
     1
102
RTVSPost2010Prop31
280
     0
102
RTVSPost2010PropOp31
 70
     1
102
RTVSPost2010Prop32
280
     0
102
RTVSPost2010PropOp32
 70
     1
102
RTVSPost2010Prop33
280
     0
102
RTVSPost2010PropOp33
 70
     1
102
RTVSPost2010Prop34
280
     0
102
RTVSPost2010PropOp34
 70
     1
102
RTVSPost2010Prop35
280
     0
102
RTVSPost2010PropOp35
 70
     1
102
RTVSPost2010Prop36
280
     0
102
RTVSPost2010PropOp36
 70
     1
102
RTVSPost2010Prop37
 90
       50
102
RTVSPost2010PropOp37
 70
     1
102
RTVSPost2010Prop38
140
0.0
102
RTVSPost2010PropOp38
 70
     1
102
RTVSPost2010Prop39
140
1.0
102
RTVSPost2010PropOp39
 70
     1
102
RTVSPost2010Prop40
 90
        0
102
RTVSPost2010PropOp40
 70
     1
102
RTVSPost2010Prop41ColorIndex
 90
       18
102
RTVSPost2010Prop41ColorRGB
 90
        0
102
RTVSPost2010PropOp41
 70
     1
102
RTVSPost2010Prop42
 90
       50
102
RTVSPost2010PropOp42
 70
     1
102
RTVSPost2010Prop43
 90
        3
102
RTVSPost2010PropOp43
 70
     1
102
RTVSPost2010Prop44ColorIndex
 90
        5
102
RTVSPost2010Prop44ColorRGB
 90
      255
102
RTVSPost2010PropOp44
 70
     1
102
RTVSPost2010Prop45
280
     0
102
RTVSPost2010PropOp45
 70
     1
102
RTVSPost2010Prop46
 90
       50
102
RTVSPost2010PropOp46
 70
     1
102
RTVSPost2010Prop47
 90
       50
102
RTVSPost2010PropOp47
 70
     1
102
RTVSPost2010Prop48
 90
       50
102
RTVSPost2010PropOp48
 70
     1
102
RTVSPost2010Prop49
280
     0
102
RTVSPost2010PropOp49
 70
     1
102
RTVSPost2010Prop50
 90
       50
102
RTVSPost2010PropOp50
 70
     1
102
RTVSPost2010Prop51ColorIndex
 90
      256
102
RTVSPost2010Prop51ColorRGB
 90
-16777216
102
RTVSPost2010PropOp51
 70
     0
102
RTVSPost2010Prop52
140
1.0
102
RTVSPost2010PropOp52
 70
     0
102
RTVSPost2010Prop53
 90
        2
102
RTVSPost2010PropOp53
 70
     1
102
RTVSPost2010Prop54
  1
strokes_ogs.tif
102
RTVSPost2010PropOp54
 70
     1
102
RTVSPost2010Prop55
280
     0
102
RTVSPost2010PropOp55
 70
     1
102
RTVSPost2010Prop56
140
1.0
102
RTVSPost2010PropOp56
 70
     1
102
RTVSPost2010Prop57
140
1.0
102
RTVSPost2010PropOp57
 70
     1
102
RTVSPropertyOp0
 70
     1
102
RTVSPropertyOp1
 70
     1
102
RTVSPropertyOp2
 70
     1
102
RTVSPropertyOp3
 70
     1
102
RTVSPropertyOp4
 70
     1
102
RTVSPropertyOp5
 70
     1
102
RTVSPropertyOp6
 70
     1
102
RTVSPropertyOp7
 70
     1
102
RTVSPropertyOp8
 70
     1
102
RTVSPropertyOp9
 70
     1
102
RTVSPropertyOp10
 70
     1
102
RTVSPropertyOp11
 70
     1
102
RTVSPropertyOp12
 70
     1
102
RTVSPropertyOp13
 70
     1
102
RTVSPropertyOp14
 70
     1
102
RTVSPropertyOp15
 70
     1
102
RTVSPropertyOp16
 70
     1
102
RTVSPropertyOp17
 70
     1
102
RTVSPropertyOp18
 70
     1
102
RTVSPropertyOp19
 70
     1
102
RTVSPropertyOp20
 70
     1
102
RTVSPropertyOp21
 70
     1
102
RTVSPropertyOp22
 70
     1
102
RTVSPropertyOp23
 70
     1
102
RTVSPropertyOp24
 70
     1
102
RTVSPropertyOp25
 70
     1
102
RTVSPropertyOp26
 70
     1
102
RTVSPropertyOp27
 70
     1
102
RTVSPropertyOp28
 70
     1
102
RTVSPropertyOp29
 70
     1
102
RTVSPropertyOp30
 70
     1
102
RTVSPropertyOp31
 70
     1
102
RTVSPropertyOp32
 70
     1
102
RTVSPropertyOp33
 70
     1
102
RTVSPropertyOp34
 70
     1
102
RTVSPropertyOp35
 70
     1
102
RTVSPropertyOp36
 70
     1
102
RTVSPropertyOp37
 70
     1
102
RTVSPropertyOp38
 70
     1
102
RTVSPropertyOp39
 70
     1
102
RTVSPropertyOp40
 70
     1
102
RTVSPropertyOp41
 70
     1
102
RTVSPropertyOp42
 70
     1
102
RTVSPropertyOp43
 70
     1
102
RTVSPropertyOp44
 70
     1
102
RTVSPropertyOp45
 70
     1
102
RTVSPropertyOp46
 70
     1
102
RTVSPropertyOp47
 70
     1
102
RTVSPropertyOp48
 70
     1
102
RTVSPropertyOp49
 70
     1
102
RTVSPropertyOp50
 70
     1
102
RTVSPropertyOp51
 70
     0
102
RTVSPropertyOp52
 70
     0
102
RTVSPropertyOp53
 70
     1
102
RTVSPropertyOp54
 70
     1
102
RTVSPropertyOp55
 70
     1
102
RTVSPropertyOp56
 70
     1
102
RTVSPropertyOp57
 70
     1
102
RTVSPropertyOp58
 70
     1
102
RTVSPropertyOp59
 70
     1
102
RTVSPropertyOp60
 70
     1
102
RTVSPropertyOp61
 70
     1
102
RTVSPropertyOp62
 70
     1
  0
XRECORD
  5
888F
102
{ACAD_REACTORS
330
888E
102
}
330
888E
100
AcDbXrecord
280
     1
102
RTVSPost2010Prop28
280
     0
102
RTVSPost2010PropOp28
 70
     1
102
RTVSPost2010Prop29
280
     1
102
RTVSPost2010PropOp29
 70
     1
102
RTVSPost2010Prop30
280
     1
102
RTVSPost2010PropOp30
 70
     1
102
RTVSPost2010Prop31
280
     0
102
RTVSPost2010PropOp31
 70
     1
102
RTVSPost2010Prop32
280
     0
102
RTVSPost2010PropOp32
 70
     1
102
RTVSPost2010Prop33
280
     0
102
RTVSPost2010PropOp33
 70
     1
102
RTVSPost2010Prop34
280
     0
102
RTVSPost2010PropOp34
 70
     1
102
RTVSPost2010Prop35
280
     0
102
RTVSPost2010PropOp35
 70
     1
102
RTVSPost2010Prop36
280
     0
102
RTVSPost2010PropOp36
 70
     1
102
RTVSPost2010Prop37
 90
       50
102
RTVSPost2010PropOp37
 70
     1
102
RTVSPost2010Prop38
140
0.0
102
RTVSPost2010PropOp38
 70
     1
102
RTVSPost2010Prop39
140
1.0
102
RTVSPost2010PropOp39
 70
     1
102
RTVSPost2010Prop40
 90
        0
102
RTVSPost2010PropOp40
 70
     1
102
RTVSPost2010Prop41ColorIndex
 90
       18
102
RTVSPost2010Prop41ColorRGB
 90
        0
102
RTVSPost2010PropOp41
 70
     1
102
RTVSPost2010Prop42
 90
       50
102
RTVSPost2010PropOp42
 70
     1
102
RTVSPost2010Prop43
 90
        3
102
RTVSPost2010PropOp43
 70
     1
102
RTVSPost2010Prop44ColorIndex
 90
        5
102
RTVSPost2010Prop44ColorRGB
 90
      255
102
RTVSPost2010PropOp44
 70
     1
102
RTVSPost2010Prop45
280
     0
102
RTVSPost2010PropOp45
 70
     1
102
RTVSPost2010Prop46
 90
       50
102
RTVSPost2010PropOp46
 70
     1
102
RTVSPost2010Prop47
 90
       50
102
RTVSPost2010PropOp47
 70
     1
102
RTVSPost2010Prop48
 90
       50
102
RTVSPost2010PropOp48
 70
     1
102
RTVSPost2010Prop49
280
     0
102
RTVSPost2010PropOp49
 70
     1
102
RTVSPost2010Prop50
 90
       50
102
RTVSPost2010PropOp50
 70
     1
102
RTVSPost2010Prop51ColorIndex
 90
      256
102
RTVSPost2010Prop51ColorRGB
 90
-16777216
102
RTVSPost2010PropOp51
 70
     0
102
RTVSPost2010Prop52
140
1.0
102
RTVSPost2010PropOp52
 70
     0
102
RTVSPost2010Prop53
 90
        2
102
RTVSPost2010PropOp53
 70
     1
102
RTVSPost2010Prop54
  1
strokes_ogs.tif
102
RTVSPost2010PropOp54
 70
     1
102
RTVSPost2010Prop55
280
     0
102
RTVSPost2010PropOp55
 70
     1
102
RTVSPost2010Prop56
140
1.0
102
RTVSPost2010PropOp56
 70
     1
102
RTVSPost2010Prop57
140
1.0
102
RTVSPost2010PropOp57
 70
     1
102
RTVSPropertyOp0
 70
     1
102
RTVSPropertyOp1
 70
     1
102
RTVSPropertyOp2
 70
     1
102
RTVSPropertyOp3
 70
     1
102
RTVSPropertyOp4
 70
     1
102
RTVSPropertyOp5
 70
     1
102
RTVSPropertyOp6
 70
     1
102
RTVSPropertyOp7
 70
     1
102
RTVSPropertyOp8
 70
     1
102
RTVSPropertyOp9
 70
     1
102
RTVSPropertyOp10
 70
     1
102
RTVSPropertyOp11
 70
     1
102
RTVSPropertyOp12
 70
     1
102
RTVSPropertyOp13
 70
     1
102
RTVSPropertyOp14
 70
     1
102
RTVSPropertyOp15
 70
     1
102
RTVSPropertyOp16
 70
     1
102
RTVSPropertyOp17
 70
     1
102
RTVSPropertyOp18
 70
     1
102
RTVSPropertyOp19
 70
     1
102
RTVSPropertyOp20
 70
     1
102
RTVSPropertyOp21
 70
     1
102
RTVSPropertyOp22
 70
     1
102
RTVSPropertyOp23
 70
     1
102
RTVSPropertyOp24
 70
     1
102
RTVSPropertyOp25
 70
     1
102
RTVSPropertyOp26
 70
     1
102
RTVSPropertyOp27
 70
     1
102
RTVSPropertyOp28
 70
     1
102
RTVSPropertyOp29
 70
     1
102
RTVSPropertyOp30
 70
     1
102
RTVSPropertyOp31
 70
     1
102
RTVSPropertyOp32
 70
     1
102
RTVSPropertyOp33
 70
     1
102
RTVSPropertyOp34
 70
     1
102
RTVSPropertyOp35
 70
     1
102
RTVSPropertyOp36
 70
     1
102
RTVSPropertyOp37
 70
     1
102
RTVSPropertyOp38
 70
     1
102
RTVSPropertyOp39
 70
     1
102
RTVSPropertyOp40
 70
     1
102
RTVSPropertyOp41
 70
     1
102
RTVSPropertyOp42
 70
     1
102
RTVSPropertyOp43
 70
     1
102
RTVSPropertyOp44
 70
     1
102
RTVSPropertyOp45
 70
     1
102
RTVSPropertyOp46
 70
     1
102
RTVSPropertyOp47
 70
     1
102
RTVSPropertyOp48
 70
     1
102
RTVSPropertyOp49
 70
     1
102
RTVSPropertyOp50
 70
     1
102
RTVSPropertyOp51
 70
     0
102
RTVSPropertyOp52
 70
     0
102
RTVSPropertyOp53
 70
     1
102
RTVSPropertyOp54
 70
     1
102
RTVSPropertyOp55
 70
     1
102
RTVSPropertyOp56
 70
     1
102
RTVSPropertyOp57
 70
     1
102
RTVSPropertyOp58
 70
     1
102
RTVSPropertyOp59
 70
     1
102
RTVSPropertyOp60
 70
     1
102
RTVSPropertyOp61
 70
     1
102
RTVSPropertyOp62
 70
     1
  0
XRECORD
  5
88AB
102
{ACAD_REACTORS
330
88AA
102
}
330
88AA
100
AcDbXrecord
280
     1
102
RTVSPost2010Prop28
280
     0
102
RTVSPost2010PropOp28
 70
     1
102
RTVSPost2010Prop29
280
     1
102
RTVSPost2010PropOp29
 70
     1
102
RTVSPost2010Prop30
280
     1
102
RTVSPost2010PropOp30
 70
     1
102
RTVSPost2010Prop31
280
     0
102
RTVSPost2010PropOp31
 70
     1
102
RTVSPost2010Prop32
280
     0
102
RTVSPost2010PropOp32
 70
     1
102
RTVSPost2010Prop33
280
     0
102
RTVSPost2010PropOp33
 70
     1
102
RTVSPost2010Prop34
280
     0
102
RTVSPost2010PropOp34
 70
     1
102
RTVSPost2010Prop35
280
     0
102
RTVSPost2010PropOp35
 70
     1
102
RTVSPost2010Prop36
280
     0
102
RTVSPost2010PropOp36
 70
     1
102
RTVSPost2010Prop37
 90
       50
102
RTVSPost2010PropOp37
 70
     0
102
RTVSPost2010Prop38
140
0.0
102
RTVSPost2010PropOp38
 70
     0
102
RTVSPost2010Prop39
140
1.0
102
RTVSPost2010PropOp39
 70
     0
102
RTVSPost2010Prop40
 90
        0
102
RTVSPost2010PropOp40
 70
     0
102
RTVSPost2010Prop41ColorIndex
 90
       18
102
RTVSPost2010Prop41ColorRGB
 90
        0
102
RTVSPost2010PropOp41
 70
     0
102
RTVSPost2010Prop42
 90
       50
102
RTVSPost2010PropOp42
 70
     0
102
RTVSPost2010Prop43
 90
        3
102
RTVSPost2010PropOp43
 70
     0
102
RTVSPost2010Prop44ColorIndex
 90
        5
102
RTVSPost2010Prop44ColorRGB
 90
      255
102
RTVSPost2010PropOp44
 70
     0
102
RTVSPost2010Prop45
280
     0
102
RTVSPost2010PropOp45
 70
     1
102
RTVSPost2010Prop46
 90
       50
102
RTVSPost2010PropOp46
 70
     0
102
RTVSPost2010Prop47
 90
       50
102
RTVSPost2010PropOp47
 70
     0
102
RTVSPost2010Prop48
 90
       50
102
RTVSPost2010PropOp48
 70
     0
102
RTVSPost2010Prop49
280
     0
102
RTVSPost2010PropOp49
 70
     1
102
RTVSPost2010Prop50
 90
       50
102
RTVSPost2010PropOp50
 70
     0
102
RTVSPost2010Prop51ColorIndex
 90
      256
102
RTVSPost2010Prop51ColorRGB
 90
-16777216
102
RTVSPost2010PropOp51
 70
     0
102
RTVSPost2010Prop52
140
1.0
102
RTVSPost2010PropOp52
 70
     0
102
RTVSPost2010Prop53
 90
        2
102
RTVSPost2010PropOp53
 70
     0
102
RTVSPost2010Prop54
  1
strokes_ogs.tif
102
RTVSPost2010PropOp54
 70
     0
102
RTVSPost2010Prop55
280
     0
102
RTVSPost2010PropOp55
 70
     1
102
RTVSPost2010Prop56
140
1.0
102
RTVSPost2010PropOp56
 70
     0
102
RTVSPost2010Prop57
140
1.0
102
RTVSPost2010PropOp57
 70
     0
102
RTVSPropertyOp0
 70
     0
102
RTVSPropertyOp1
 70
     0
102
RTVSPropertyOp2
 70
     0
102
RTVSPropertyOp3
 70
     0
102
RTVSPropertyOp4
 70
     0
102
RTVSPropertyOp5
 70
     0
102
RTVSPropertyOp6
 70
     0
102
RTVSPropertyOp7
 70
     0
102
RTVSPropertyOp8
 70
     0
102
RTVSPropertyOp9
 70
     0
102
RTVSPropertyOp10
 70
     0
102
RTVSPropertyOp11
 70
     0
102
RTVSPropertyOp12
 70
     0
102
RTVSPropertyOp13
 70
     0
102
RTVSPropertyOp14
 70
     2
102
RTVSPropertyOp15
 70
     0
102
RTVSPropertyOp16
 70
     0
102
RTVSPropertyOp17
 70
     0
102
RTVSPropertyOp18
 70
     0
102
RTVSPropertyOp19
 70
     0
102
RTVSPropertyOp20
 70
     0
102
RTVSPropertyOp21
 70
     0
102
RTVSPropertyOp22
 70
     0
102
RTVSPropertyOp23
 70
     0
102
RTVSPropertyOp24
 70
     0
102
RTVSPropertyOp25
 70
     0
102
RTVSPropertyOp26
 70
     0
102
RTVSPropertyOp27
 70
     0
102
RTVSPropertyOp28
 70
     1
102
RTVSPropertyOp29
 70
     1
102
RTVSPropertyOp30
 70
     1
102
RTVSPropertyOp31
 70
     1
102
RTVSPropertyOp32
 70
     1
102
RTVSPropertyOp33
 70
     1
102
RTVSPropertyOp34
 70
     1
102
RTVSPropertyOp35
 70
     1
102
RTVSPropertyOp36
 70
     1
102
RTVSPropertyOp37
 70
     0
102
RTVSPropertyOp38
 70
     0
102
RTVSPropertyOp39
 70
     0
102
RTVSPropertyOp40
 70
     0
102
RTVSPropertyOp41
 70
     0
102
RTVSPropertyOp42
 70
     0
102
RTVSPropertyOp43
 70
     0
102
RTVSPropertyOp44
 70
     0
102
RTVSPropertyOp45
 70
     1
102
RTVSPropertyOp46
 70
     0
102
RTVSPropertyOp47
 70
     0
102
RTVSPropertyOp48
 70
     0
102
RTVSPropertyOp49
 70
     1
102
RTVSPropertyOp50
 70
     0
102
RTVSPropertyOp51
 70
     0
102
RTVSPropertyOp52
 70
     0
102
RTVSPropertyOp53
 70
     0
102
RTVSPropertyOp54
 70
     0
102
RTVSPropertyOp55
 70
     1
102
RTVSPropertyOp56
 70
     0
102
RTVSPropertyOp57
 70
     0
102
RTVSPropertyOp58
 70
     0
102
RTVSPropertyOp59
 70
     0
102
RTVSPropertyOp60
 70
     0
102
RTVSPropertyOp61
 70
     0
102
RTVSPropertyOp62
 70
     0
  0
XRECORD
  5
889B
102
{ACAD_REACTORS
330
889A
102
}
330
889A
100
AcDbXrecord
280
     1
102
RTVSPost2010Prop28
280
     0
102
RTVSPost2010PropOp28
 70
     1
102
RTVSPost2010Prop29
280
     1
102
RTVSPost2010PropOp29
 70
     1
102
RTVSPost2010Prop30
280
     1
102
RTVSPost2010PropOp30
 70
     1
102
RTVSPost2010Prop31
280
     0
102
RTVSPost2010PropOp31
 70
     1
102
RTVSPost2010Prop32
280
     0
102
RTVSPost2010PropOp32
 70
     1
102
RTVSPost2010Prop33
280
     0
102
RTVSPost2010PropOp33
 70
     1
102
RTVSPost2010Prop34
280
     0
102
RTVSPost2010PropOp34
 70
     1
102
RTVSPost2010Prop35
280
     0
102
RTVSPost2010PropOp35
 70
     1
102
RTVSPost2010Prop36
280
     0
102
RTVSPost2010PropOp36
 70
     1
102
RTVSPost2010Prop37
 90
       50
102
RTVSPost2010PropOp37
 70
     1
102
RTVSPost2010Prop38
140
0.0
102
RTVSPost2010PropOp38
 70
     1
102
RTVSPost2010Prop39
140
1.0
102
RTVSPost2010PropOp39
 70
     1
102
RTVSPost2010Prop40
 90
        0
102
RTVSPost2010PropOp40
 70
     1
102
RTVSPost2010Prop41ColorIndex
 90
       18
102
RTVSPost2010Prop41ColorRGB
 90
        0
102
RTVSPost2010PropOp41
 70
     1
102
RTVSPost2010Prop42
 90
       50
102
RTVSPost2010PropOp42
 70
     1
102
RTVSPost2010Prop43
 90
        3
102
RTVSPost2010PropOp43
 70
     1
102
RTVSPost2010Prop44ColorIndex
 90
        5
102
RTVSPost2010Prop44ColorRGB
 90
      255
102
RTVSPost2010PropOp44
 70
     1
102
RTVSPost2010Prop45
280
     0
102
RTVSPost2010PropOp45
 70
     1
102
RTVSPost2010Prop46
 90
       50
102
RTVSPost2010PropOp46
 70
     1
102
RTVSPost2010Prop47
 90
       50
102
RTVSPost2010PropOp47
 70
     1
102
RTVSPost2010Prop48
 90
       50
102
RTVSPost2010PropOp48
 70
     1
102
RTVSPost2010Prop49
280
     0
102
RTVSPost2010PropOp49
 70
     1
102
RTVSPost2010Prop50
 90
       50
102
RTVSPost2010PropOp50
 70
     1
102
RTVSPost2010Prop51ColorIndex
 90
      256
102
RTVSPost2010Prop51ColorRGB
 90
-16777216
102
RTVSPost2010PropOp51
 70
     0
102
RTVSPost2010Prop52
140
1.0
102
RTVSPost2010PropOp52
 70
     0
102
RTVSPost2010Prop53
 90
        2
102
RTVSPost2010PropOp53
 70
     1
102
RTVSPost2010Prop54
  1
strokes_ogs.tif
102
RTVSPost2010PropOp54
 70
     1
102
RTVSPost2010Prop55
280
     0
102
RTVSPost2010PropOp55
 70
     1
102
RTVSPost2010Prop56
140
1.0
102
RTVSPost2010PropOp56
 70
     1
102
RTVSPost2010Prop57
140
1.0
102
RTVSPost2010PropOp57
 70
     1
102
RTVSPropertyOp0
 70
     1
102
RTVSPropertyOp1
 70
     1
102
RTVSPropertyOp2
 70
     1
102
RTVSPropertyOp3
 70
     1
102
RTVSPropertyOp4
 70
     1
102
RTVSPropertyOp5
 70
     1
102
RTVSPropertyOp6
 70
     1
102
RTVSPropertyOp7
 70
     1
102
RTVSPropertyOp8
 70
     1
102
RTVSPropertyOp9
 70
     1
102
RTVSPropertyOp10
 70
     1
102
RTVSPropertyOp11
 70
     1
102
RTVSPropertyOp12
 70
     1
102
RTVSPropertyOp13
 70
     1
102
RTVSPropertyOp14
 70
     1
102
RTVSPropertyOp15
 70
     1
102
RTVSPropertyOp16
 70
     1
102
RTVSPropertyOp17
 70
     1
102
RTVSPropertyOp18
 70
     1
102
RTVSPropertyOp19
 70
     1
102
RTVSPropertyOp20
 70
     1
102
RTVSPropertyOp21
 70
     1
102
RTVSPropertyOp22
 70
     1
102
RTVSPropertyOp23
 70
     1
102
RTVSPropertyOp24
 70
     1
102
RTVSPropertyOp25
 70
     1
102
RTVSPropertyOp26
 70
     1
102
RTVSPropertyOp27
 70
     1
102
RTVSPropertyOp28
 70
     1
102
RTVSPropertyOp29
 70
     1
102
RTVSPropertyOp30
 70
     1
102
RTVSPropertyOp31
 70
     1
102
RTVSPropertyOp32
 70
     1
102
RTVSPropertyOp33
 70
     1
102
RTVSPropertyOp34
 70
     1
102
RTVSPropertyOp35
 70
     1
102
RTVSPropertyOp36
 70
     1
102
RTVSPropertyOp37
 70
     1
102
RTVSPropertyOp38
 70
     1
102
RTVSPropertyOp39
 70
     1
102
RTVSPropertyOp40
 70
     1
102
RTVSPropertyOp41
 70
     1
102
RTVSPropertyOp42
 70
     1
102
RTVSPropertyOp43
 70
     1
102
RTVSPropertyOp44
 70
     1
102
RTVSPropertyOp45
 70
     1
102
RTVSPropertyOp46
 70
     1
102
RTVSPropertyOp47
 70
     1
102
RTVSPropertyOp48
 70
     1
102
RTVSPropertyOp49
 70
     1
102
RTVSPropertyOp50
 70
     1
102
RTVSPropertyOp51
 70
     0
102
RTVSPropertyOp52
 70
     0
102
RTVSPropertyOp53
 70
     1
102
RTVSPropertyOp54
 70
     1
102
RTVSPropertyOp55
 70
     1
102
RTVSPropertyOp56
 70
     1
102
RTVSPropertyOp57
 70
     1
102
RTVSPropertyOp58
 70
     1
102
RTVSPropertyOp59
 70
     1
102
RTVSPropertyOp60
 70
     1
102
RTVSPropertyOp61
 70
     1
102
RTVSPropertyOp62
 70
     1
  0
XRECORD
  5
88AD
102
{ACAD_REACTORS
330
88AC
102
}
330
88AC
100
AcDbXrecord
280
     1
102
RTVSPost2010Prop28
280
     0
102
RTVSPost2010PropOp28
 70
     1
102
RTVSPost2010Prop29
280
     1
102
RTVSPost2010PropOp29
 70
     1
102
RTVSPost2010Prop30
280
     1
102
RTVSPost2010PropOp30
 70
     1
102
RTVSPost2010Prop31
280
     0
102
RTVSPost2010PropOp31
 70
     1
102
RTVSPost2010Prop32
280
     0
102
RTVSPost2010PropOp32
 70
     1
102
RTVSPost2010Prop33
280
     0
102
RTVSPost2010PropOp33
 70
     1
102
RTVSPost2010Prop34
280
     0
102
RTVSPost2010PropOp34
 70
     1
102
RTVSPost2010Prop35
280
     0
102
RTVSPost2010PropOp35
 70
     1
102
RTVSPost2010Prop36
280
     0
102
RTVSPost2010PropOp36
 70
     1
102
RTVSPost2010Prop37
 90
       50
102
RTVSPost2010PropOp37
 70
     0
102
RTVSPost2010Prop38
140
0.0
102
RTVSPost2010PropOp38
 70
     0
102
RTVSPost2010Prop39
140
1.0
102
RTVSPost2010PropOp39
 70
     0
102
RTVSPost2010Prop40
 90
        0
102
RTVSPost2010PropOp40
 70
     0
102
RTVSPost2010Prop41ColorIndex
 90
       18
102
RTVSPost2010Prop41ColorRGB
 90
        0
102
RTVSPost2010PropOp41
 70
     0
102
RTVSPost2010Prop42
 90
       50
102
RTVSPost2010PropOp42
 70
     0
102
RTVSPost2010Prop43
 90
        3
102
RTVSPost2010PropOp43
 70
     0
102
RTVSPost2010Prop44ColorIndex
 90
        5
102
RTVSPost2010Prop44ColorRGB
 90
      255
102
RTVSPost2010PropOp44
 70
     0
102
RTVSPost2010Prop45
280
     0
102
RTVSPost2010PropOp45
 70
     1
102
RTVSPost2010Prop46
 90
       50
102
RTVSPost2010PropOp46
 70
     0
102
RTVSPost2010Prop47
 90
       50
102
RTVSPost2010PropOp47
 70
     0
102
RTVSPost2010Prop48
 90
       50
102
RTVSPost2010PropOp48
 70
     0
102
RTVSPost2010Prop49
280
     0
102
RTVSPost2010PropOp49
 70
     1
102
RTVSPost2010Prop50
 90
       50
102
RTVSPost2010PropOp50
 70
     0
102
RTVSPost2010Prop51ColorIndex
 90
      256
102
RTVSPost2010Prop51ColorRGB
 90
-16777216
102
RTVSPost2010PropOp51
 70
     0
102
RTVSPost2010Prop52
140
1.0
102
RTVSPost2010PropOp52
 70
     0
102
RTVSPost2010Prop53
 90
        2
102
RTVSPost2010PropOp53
 70
     0
102
RTVSPost2010Prop54
  1
strokes_ogs.tif
102
RTVSPost2010PropOp54
 70
     0
102
RTVSPost2010Prop55
280
     0
102
RTVSPost2010PropOp55
 70
     1
102
RTVSPost2010Prop56
140
1.0
102
RTVSPost2010PropOp56
 70
     0
102
RTVSPost2010Prop57
140
1.0
102
RTVSPost2010PropOp57
 70
     0
102
RTVSPropertyOp0
 70
     0
102
RTVSPropertyOp1
 70
     0
102
RTVSPropertyOp2
 70
     0
102
RTVSPropertyOp3
 70
     0
102
RTVSPropertyOp4
 70
     0
102
RTVSPropertyOp5
 70
     0
102
RTVSPropertyOp6
 70
     0
102
RTVSPropertyOp7
 70
     0
102
RTVSPropertyOp8
 70
     0
102
RTVSPropertyOp9
 70
     0
102
RTVSPropertyOp10
 70
     0
102
RTVSPropertyOp11
 70
     0
102
RTVSPropertyOp12
 70
     0
102
RTVSPropertyOp13
 70
     0
102
RTVSPropertyOp14
 70
     2
102
RTVSPropertyOp15
 70
     0
102
RTVSPropertyOp16
 70
     0
102
RTVSPropertyOp17
 70
     0
102
RTVSPropertyOp18
 70
     0
102
RTVSPropertyOp19
 70
     0
102
RTVSPropertyOp20
 70
     0
102
RTVSPropertyOp21
 70
     0
102
RTVSPropertyOp22
 70
     0
102
RTVSPropertyOp23
 70
     0
102
RTVSPropertyOp24
 70
     0
102
RTVSPropertyOp25
 70
     0
102
RTVSPropertyOp26
 70
     0
102
RTVSPropertyOp27
 70
     0
102
RTVSPropertyOp28
 70
     1
102
RTVSPropertyOp29
 70
     1
102
RTVSPropertyOp30
 70
     1
102
RTVSPropertyOp31
 70
     1
102
RTVSPropertyOp32
 70
     1
102
RTVSPropertyOp33
 70
     1
102
RTVSPropertyOp34
 70
     1
102
RTVSPropertyOp35
 70
     1
102
RTVSPropertyOp36
 70
     1
102
RTVSPropertyOp37
 70
     0
102
RTVSPropertyOp38
 70
     0
102
RTVSPropertyOp39
 70
     0
102
RTVSPropertyOp40
 70
     0
102
RTVSPropertyOp41
 70
     0
102
RTVSPropertyOp42
 70
     0
102
RTVSPropertyOp43
 70
     0
102
RTVSPropertyOp44
 70
     0
102
RTVSPropertyOp45
 70
     1
102
RTVSPropertyOp46
 70
     0
102
RTVSPropertyOp47
 70
     0
102
RTVSPropertyOp48
 70
     0
102
RTVSPropertyOp49
 70
     1
102
RTVSPropertyOp50
 70
     0
102
RTVSPropertyOp51
 70
     0
102
RTVSPropertyOp52
 70
     0
102
RTVSPropertyOp53
 70
     0
102
RTVSPropertyOp54
 70
     0
102
RTVSPropertyOp55
 70
     1
102
RTVSPropertyOp56
 70
     0
102
RTVSPropertyOp57
 70
     0
102
RTVSPropertyOp58
 70
     0
102
RTVSPropertyOp59
 70
     0
102
RTVSPropertyOp60
 70
     0
102
RTVSPropertyOp61
 70
     0
102
RTVSPropertyOp62
 70
     0
  0
XRECORD
  5
8893
102
{ACAD_REACTORS
330
8892
102
}
330
8892
100
AcDbXrecord
280
     1
102
RTVSPost2010Prop28
280
     0
102
RTVSPost2010PropOp28
 70
     1
102
RTVSPost2010Prop29
280
     1
102
RTVSPost2010PropOp29
 70
     1
102
RTVSPost2010Prop30
280
     1
102
RTVSPost2010PropOp30
 70
     1
102
RTVSPost2010Prop31
280
     0
102
RTVSPost2010PropOp31
 70
     1
102
RTVSPost2010Prop32
280
     0
102
RTVSPost2010PropOp32
 70
     1
102
RTVSPost2010Prop33
280
     0
102
RTVSPost2010PropOp33
 70
     1
102
RTVSPost2010Prop34
280
     0
102
RTVSPost2010PropOp34
 70
     1
102
RTVSPost2010Prop35
280
     0
102
RTVSPost2010PropOp35
 70
     1
102
RTVSPost2010Prop36
280
     0
102
RTVSPost2010PropOp36
 70
     1
102
RTVSPost2010Prop37
 90
       50
102
RTVSPost2010PropOp37
 70
     1
102
RTVSPost2010Prop38
140
0.0
102
RTVSPost2010PropOp38
 70
     1
102
RTVSPost2010Prop39
140
1.0
102
RTVSPost2010PropOp39
 70
     1
102
RTVSPost2010Prop40
 90
        0
102
RTVSPost2010PropOp40
 70
     1
102
RTVSPost2010Prop41ColorIndex
 90
       18
102
RTVSPost2010Prop41ColorRGB
 90
        0
102
RTVSPost2010PropOp41
 70
     1
102
RTVSPost2010Prop42
 90
       50
102
RTVSPost2010PropOp42
 70
     1
102
RTVSPost2010Prop43
 90
        3
102
RTVSPost2010PropOp43
 70
     1
102
RTVSPost2010Prop44ColorIndex
 90
        5
102
RTVSPost2010Prop44ColorRGB
 90
      255
102
RTVSPost2010PropOp44
 70
     1
102
RTVSPost2010Prop45
280
     0
102
RTVSPost2010PropOp45
 70
     1
102
RTVSPost2010Prop46
 90
       50
102
RTVSPost2010PropOp46
 70
     1
102
RTVSPost2010Prop47
 90
       50
102
RTVSPost2010PropOp47
 70
     1
102
RTVSPost2010Prop48
 90
       50
102
RTVSPost2010PropOp48
 70
     1
102
RTVSPost2010Prop49
280
     0
102
RTVSPost2010PropOp49
 70
     1
102
RTVSPost2010Prop50
 90
       50
102
RTVSPost2010PropOp50
 70
     1
102
RTVSPost2010Prop51ColorIndex
 90
      256
102
RTVSPost2010Prop51ColorRGB
 90
-16777216
102
RTVSPost2010PropOp51
 70
     0
102
RTVSPost2010Prop52
140
1.0
102
RTVSPost2010PropOp52
 70
     0
102
RTVSPost2010Prop53
 90
        2
102
RTVSPost2010PropOp53
 70
     1
102
RTVSPost2010Prop54
  1
strokes_ogs.tif
102
RTVSPost2010PropOp54
 70
     1
102
RTVSPost2010Prop55
280
     0
102
RTVSPost2010PropOp55
 70
     1
102
RTVSPost2010Prop56
140
1.0
102
RTVSPost2010PropOp56
 70
     1
102
RTVSPost2010Prop57
140
1.0
102
RTVSPost2010PropOp57
 70
     1
102
RTVSPropertyOp0
 70
     1
102
RTVSPropertyOp1
 70
     1
102
RTVSPropertyOp2
 70
     1
102
RTVSPropertyOp3
 70
     1
102
RTVSPropertyOp4
 70
     1
102
RTVSPropertyOp5
 70
     1
102
RTVSPropertyOp6
 70
     1
102
RTVSPropertyOp7
 70
     1
102
RTVSPropertyOp8
 70
     1
102
RTVSPropertyOp9
 70
     1
102
RTVSPropertyOp10
 70
     1
102
RTVSPropertyOp11
 70
     1
102
RTVSPropertyOp12
 70
     1
102
RTVSPropertyOp13
 70
     1
102
RTVSPropertyOp14
 70
     1
102
RTVSPropertyOp15
 70
     1
102
RTVSPropertyOp16
 70
     1
102
RTVSPropertyOp17
 70
     1
102
RTVSPropertyOp18
 70
     1
102
RTVSPropertyOp19
 70
     1
102
RTVSPropertyOp20
 70
     1
102
RTVSPropertyOp21
 70
     1
102
RTVSPropertyOp22
 70
     1
102
RTVSPropertyOp23
 70
     1
102
RTVSPropertyOp24
 70
     1
102
RTVSPropertyOp25
 70
     1
102
RTVSPropertyOp26
 70
     1
102
RTVSPropertyOp27
 70
     1
102
RTVSPropertyOp28
 70
     1
102
RTVSPropertyOp29
 70
     1
102
RTVSPropertyOp30
 70
     1
102
RTVSPropertyOp31
 70
     1
102
RTVSPropertyOp32
 70
     1
102
RTVSPropertyOp33
 70
     1
102
RTVSPropertyOp34
 70
     1
102
RTVSPropertyOp35
 70
     1
102
RTVSPropertyOp36
 70
     1
102
RTVSPropertyOp37
 70
     1
102
RTVSPropertyOp38
 70
     1
102
RTVSPropertyOp39
 70
     1
102
RTVSPropertyOp40
 70
     1
102
RTVSPropertyOp41
 70
     1
102
RTVSPropertyOp42
 70
     1
102
RTVSPropertyOp43
 70
     1
102
RTVSPropertyOp44
 70
     1
102
RTVSPropertyOp45
 70
     1
102
RTVSPropertyOp46
 70
     1
102
RTVSPropertyOp47
 70
     1
102
RTVSPropertyOp48
 70
     1
102
RTVSPropertyOp49
 70
     1
102
RTVSPropertyOp50
 70
     1
102
RTVSPropertyOp51
 70
     0
102
RTVSPropertyOp52
 70
     0
102
RTVSPropertyOp53
 70
     1
102
RTVSPropertyOp54
 70
     1
102
RTVSPropertyOp55
 70
     1
102
RTVSPropertyOp56
 70
     1
102
RTVSPropertyOp57
 70
     1
102
RTVSPropertyOp58
 70
     1
102
RTVSPropertyOp59
 70
     1
102
RTVSPropertyOp60
 70
     1
102
RTVSPropertyOp61
 70
     1
102
RTVSPropertyOp62
 70
     1
  0
XRECORD
  5
88A9
102
{ACAD_REACTORS
330
88A8
102
}
330
88A8
100
AcDbXrecord
280
     1
102
RTVSPost2010Prop28
280
     0
102
RTVSPost2010PropOp28
 70
     1
102
RTVSPost2010Prop29
280
     1
102
RTVSPost2010PropOp29
 70
     1
102
RTVSPost2010Prop30
280
     1
102
RTVSPost2010PropOp30
 70
     1
102
RTVSPost2010Prop31
280
     0
102
RTVSPost2010PropOp31
 70
     1
102
RTVSPost2010Prop32
280
     0
102
RTVSPost2010PropOp32
 70
     1
102
RTVSPost2010Prop33
280
     0
102
RTVSPost2010PropOp33
 70
     1
102
RTVSPost2010Prop34
280
     0
102
RTVSPost2010PropOp34
 70
     1
102
RTVSPost2010Prop35
280
     0
102
RTVSPost2010PropOp35
 70
     1
102
RTVSPost2010Prop36
280
     0
102
RTVSPost2010PropOp36
 70
     1
102
RTVSPost2010Prop37
 90
       50
102
RTVSPost2010PropOp37
 70
     1
102
RTVSPost2010Prop38
140
0.0
102
RTVSPost2010PropOp38
 70
     1
102
RTVSPost2010Prop39
140
1.0
102
RTVSPost2010PropOp39
 70
     1
102
RTVSPost2010Prop40
 90
        0
102
RTVSPost2010PropOp40
 70
     1
102
RTVSPost2010Prop41ColorIndex
 90
       18
102
RTVSPost2010Prop41ColorRGB
 90
        0
102
RTVSPost2010PropOp41
 70
     1
102
RTVSPost2010Prop42
 90
       50
102
RTVSPost2010PropOp42
 70
     1
102
RTVSPost2010Prop43
 90
        3
102
RTVSPost2010PropOp43
 70
     1
102
RTVSPost2010Prop44ColorIndex
 90
        5
102
RTVSPost2010Prop44ColorRGB
 90
      255
102
RTVSPost2010PropOp44
 70
     1
102
RTVSPost2010Prop45
280
     0
102
RTVSPost2010PropOp45
 70
     1
102
RTVSPost2010Prop46
 90
       50
102
RTVSPost2010PropOp46
 70
     1
102
RTVSPost2010Prop47
 90
       50
102
RTVSPost2010PropOp47
 70
     1
102
RTVSPost2010Prop48
 90
       50
102
RTVSPost2010PropOp48
 70
     1
102
RTVSPost2010Prop49
280
     0
102
RTVSPost2010PropOp49
 70
     1
102
RTVSPost2010Prop50
 90
       50
102
RTVSPost2010PropOp50
 70
     1
102
RTVSPost2010Prop51ColorIndex
 90
      256
102
RTVSPost2010Prop51ColorRGB
 90
-16777216
102
RTVSPost2010PropOp51
 70
     0
102
RTVSPost2010Prop52
140
1.0
102
RTVSPost2010PropOp52
 70
     0
102
RTVSPost2010Prop53
 90
        2
102
RTVSPost2010PropOp53
 70
     1
102
RTVSPost2010Prop54
  1
strokes_ogs.tif
102
RTVSPost2010PropOp54
 70
     1
102
RTVSPost2010Prop55
280
     0
102
RTVSPost2010PropOp55
 70
     1
102
RTVSPost2010Prop56
140
1.0
102
RTVSPost2010PropOp56
 70
     1
102
RTVSPost2010Prop57
140
1.0
102
RTVSPost2010PropOp57
 70
     1
102
RTVSPropertyOp0
 70
     1
102
RTVSPropertyOp1
 70
     1
102
RTVSPropertyOp2
 70
     1
102
RTVSPropertyOp3
 70
     1
102
RTVSPropertyOp4
 70
     1
102
RTVSPropertyOp5
 70
     1
102
RTVSPropertyOp6
 70
     1
102
RTVSPropertyOp7
 70
     1
102
RTVSPropertyOp8
 70
     1
102
RTVSPropertyOp9
 70
     1
102
RTVSPropertyOp10
 70
     1
102
RTVSPropertyOp11
 70
     1
102
RTVSPropertyOp12
 70
     1
102
RTVSPropertyOp13
 70
     1
102
RTVSPropertyOp14
 70
     1
102
RTVSPropertyOp15
 70
     1
102
RTVSPropertyOp16
 70
     1
102
RTVSPropertyOp17
 70
     1
102
RTVSPropertyOp18
 70
     1
102
RTVSPropertyOp19
 70
     1
102
RTVSPropertyOp20
 70
     1
102
RTVSPropertyOp21
 70
     1
102
RTVSPropertyOp22
 70
     1
102
RTVSPropertyOp23
 70
     1
102
RTVSPropertyOp24
 70
     1
102
RTVSPropertyOp25
 70
     1
102
RTVSPropertyOp26
 70
     1
102
RTVSPropertyOp27
 70
     1
102
RTVSPropertyOp28
 70
     1
102
RTVSPropertyOp29
 70
     1
102
RTVSPropertyOp30
 70
     1
102
RTVSPropertyOp31
 70
     1
102
RTVSPropertyOp32
 70
     1
102
RTVSPropertyOp33
 70
     1
102
RTVSPropertyOp34
 70
     1
102
RTVSPropertyOp35
 70
     1
102
RTVSPropertyOp36
 70
     1
102
RTVSPropertyOp37
 70
     1
102
RTVSPropertyOp38
 70
     1
102
RTVSPropertyOp39
 70
     1
102
RTVSPropertyOp40
 70
     1
102
RTVSPropertyOp41
 70
     1
102
RTVSPropertyOp42
 70
     1
102
RTVSPropertyOp43
 70
     1
102
RTVSPropertyOp44
 70
     1
102
RTVSPropertyOp45
 70
     1
102
RTVSPropertyOp46
 70
     1
102
RTVSPropertyOp47
 70
     1
102
RTVSPropertyOp48
 70
     1
102
RTVSPropertyOp49
 70
     1
102
RTVSPropertyOp50
 70
     1
102
RTVSPropertyOp51
 70
     0
102
RTVSPropertyOp52
 70
     0
102
RTVSPropertyOp53
 70
     1
102
RTVSPropertyOp54
 70
     1
102
RTVSPropertyOp55
 70
     1
102
RTVSPropertyOp56
 70
     1
102
RTVSPropertyOp57
 70
     1
102
RTVSPropertyOp58
 70
     1
102
RTVSPropertyOp59
 70
     1
102
RTVSPropertyOp60
 70
     1
102
RTVSPropertyOp61
 70
     1
102
RTVSPropertyOp62
 70
     1
  0
XRECORD
  5
88A7
102
{ACAD_REACTORS
330
88A6
102
}
330
88A6
100
AcDbXrecord
280
     1
102
RTVSPost2010Prop28
280
     0
102
RTVSPost2010PropOp28
 70
     1
102
RTVSPost2010Prop29
280
     1
102
RTVSPost2010PropOp29
 70
     1
102
RTVSPost2010Prop30
280
     1
102
RTVSPost2010PropOp30
 70
     1
102
RTVSPost2010Prop31
280
     0
102
RTVSPost2010PropOp31
 70
     1
102
RTVSPost2010Prop32
280
     0
102
RTVSPost2010PropOp32
 70
     1
102
RTVSPost2010Prop33
280
     0
102
RTVSPost2010PropOp33
 70
     1
102
RTVSPost2010Prop34
280
     0
102
RTVSPost2010PropOp34
 70
     1
102
RTVSPost2010Prop35
280
     0
102
RTVSPost2010PropOp35
 70
     1
102
RTVSPost2010Prop36
280
     0
102
RTVSPost2010PropOp36
 70
     1
102
RTVSPost2010Prop37
 90
       50
102
RTVSPost2010PropOp37
 70
     1
102
RTVSPost2010Prop38
140
0.0
102
RTVSPost2010PropOp38
 70
     1
102
RTVSPost2010Prop39
140
1.0
102
RTVSPost2010PropOp39
 70
     1
102
RTVSPost2010Prop40
 90
        0
102
RTVSPost2010PropOp40
 70
     1
102
RTVSPost2010Prop41ColorIndex
 90
       18
102
RTVSPost2010Prop41ColorRGB
 90
        0
102
RTVSPost2010PropOp41
 70
     1
102
RTVSPost2010Prop42
 90
       50
102
RTVSPost2010PropOp42
 70
     1
102
RTVSPost2010Prop43
 90
        3
102
RTVSPost2010PropOp43
 70
     1
102
RTVSPost2010Prop44ColorIndex
 90
        5
102
RTVSPost2010Prop44ColorRGB
 90
      255
102
RTVSPost2010PropOp44
 70
     1
102
RTVSPost2010Prop45
280
     0
102
RTVSPost2010PropOp45
 70
     1
102
RTVSPost2010Prop46
 90
       50
102
RTVSPost2010PropOp46
 70
     1
102
RTVSPost2010Prop47
 90
       50
102
RTVSPost2010PropOp47
 70
     1
102
RTVSPost2010Prop48
 90
       50
102
RTVSPost2010PropOp48
 70
     1
102
RTVSPost2010Prop49
280
     0
102
RTVSPost2010PropOp49
 70
     1
102
RTVSPost2010Prop50
 90
       50
102
RTVSPost2010PropOp50
 70
     1
102
RTVSPost2010Prop51ColorIndex
 90
      256
102
RTVSPost2010Prop51ColorRGB
 90
-16777216
102
RTVSPost2010PropOp51
 70
     0
102
RTVSPost2010Prop52
140
1.0
102
RTVSPost2010PropOp52
 70
     0
102
RTVSPost2010Prop53
 90
        2
102
RTVSPost2010PropOp53
 70
     1
102
RTVSPost2010Prop54
  1
strokes_ogs.tif
102
RTVSPost2010PropOp54
 70
     1
102
RTVSPost2010Prop55
280
     0
102
RTVSPost2010PropOp55
 70
     1
102
RTVSPost2010Prop56
140
1.0
102
RTVSPost2010PropOp56
 70
     1
102
RTVSPost2010Prop57
140
1.0
102
RTVSPost2010PropOp57
 70
     1
102
RTVSPropertyOp0
 70
     1
102
RTVSPropertyOp1
 70
     1
102
RTVSPropertyOp2
 70
     1
102
RTVSPropertyOp3
 70
     1
102
RTVSPropertyOp4
 70
     1
102
RTVSPropertyOp5
 70
     1
102
RTVSPropertyOp6
 70
     1
102
RTVSPropertyOp7
 70
     1
102
RTVSPropertyOp8
 70
     1
102
RTVSPropertyOp9
 70
     1
102
RTVSPropertyOp10
 70
     1
102
RTVSPropertyOp11
 70
     1
102
RTVSPropertyOp12
 70
     1
102
RTVSPropertyOp13
 70
     1
102
RTVSPropertyOp14
 70
     1
102
RTVSPropertyOp15
 70
     1
102
RTVSPropertyOp16
 70
     1
102
RTVSPropertyOp17
 70
     1
102
RTVSPropertyOp18
 70
     1
102
RTVSPropertyOp19
 70
     1
102
RTVSPropertyOp20
 70
     1
102
RTVSPropertyOp21
 70
     1
102
RTVSPropertyOp22
 70
     1
102
RTVSPropertyOp23
 70
     1
102
RTVSPropertyOp24
 70
     1
102
RTVSPropertyOp25
 70
     1
102
RTVSPropertyOp26
 70
     1
102
RTVSPropertyOp27
 70
     1
102
RTVSPropertyOp28
 70
     1
102
RTVSPropertyOp29
 70
     1
102
RTVSPropertyOp30
 70
     1
102
RTVSPropertyOp31
 70
     1
102
RTVSPropertyOp32
 70
     1
102
RTVSPropertyOp33
 70
     1
102
RTVSPropertyOp34
 70
     1
102
RTVSPropertyOp35
 70
     1
102
RTVSPropertyOp36
 70
     1
102
RTVSPropertyOp37
 70
     1
102
RTVSPropertyOp38
 70
     1
102
RTVSPropertyOp39
 70
     1
102
RTVSPropertyOp40
 70
     1
102
RTVSPropertyOp41
 70
     1
102
RTVSPropertyOp42
 70
     1
102
RTVSPropertyOp43
 70
     1
102
RTVSPropertyOp44
 70
     1
102
RTVSPropertyOp45
 70
     1
102
RTVSPropertyOp46
 70
     1
102
RTVSPropertyOp47
 70
     1
102
RTVSPropertyOp48
 70
     1
102
RTVSPropertyOp49
 70
     1
102
RTVSPropertyOp50
 70
     1
102
RTVSPropertyOp51
 70
     0
102
RTVSPropertyOp52
 70
     0
102
RTVSPropertyOp53
 70
     1
102
RTVSPropertyOp54
 70
     1
102
RTVSPropertyOp55
 70
     1
102
RTVSPropertyOp56
 70
     1
102
RTVSPropertyOp57
 70
     1
102
RTVSPropertyOp58
 70
     1
102
RTVSPropertyOp59
 70
     1
102
RTVSPropertyOp60
 70
     1
102
RTVSPropertyOp61
 70
     1
102
RTVSPropertyOp62
 70
     1
  0
XRECORD
  5
88A1
102
{ACAD_REACTORS
330
88A0
102
}
330
88A0
100
AcDbXrecord
280
     1
102
RTVSPost2010Prop28
280
     0
102
RTVSPost2010PropOp28
 70
     1
102
RTVSPost2010Prop29
280
     1
102
RTVSPost2010PropOp29
 70
     1
102
RTVSPost2010Prop30
280
     1
102
RTVSPost2010PropOp30
 70
     1
102
RTVSPost2010Prop31
280
     0
102
RTVSPost2010PropOp31
 70
     1
102
RTVSPost2010Prop32
280
     0
102
RTVSPost2010PropOp32
 70
     1
102
RTVSPost2010Prop33
280
     0
102
RTVSPost2010PropOp33
 70
     1
102
RTVSPost2010Prop34
280
     0
102
RTVSPost2010PropOp34
 70
     1
102
RTVSPost2010Prop35
280
     0
102
RTVSPost2010PropOp35
 70
     1
102
RTVSPost2010Prop36
280
     0
102
RTVSPost2010PropOp36
 70
     1
102
RTVSPost2010Prop37
 90
       50
102
RTVSPost2010PropOp37
 70
     1
102
RTVSPost2010Prop38
140
0.0
102
RTVSPost2010PropOp38
 70
     1
102
RTVSPost2010Prop39
140
1.0
102
RTVSPost2010PropOp39
 70
     1
102
RTVSPost2010Prop40
 90
        0
102
RTVSPost2010PropOp40
 70
     1
102
RTVSPost2010Prop41ColorIndex
 90
       18
102
RTVSPost2010Prop41ColorRGB
 90
        0
102
RTVSPost2010PropOp41
 70
     1
102
RTVSPost2010Prop42
 90
       50
102
RTVSPost2010PropOp42
 70
     1
102
RTVSPost2010Prop43
 90
        3
102
RTVSPost2010PropOp43
 70
     1
102
RTVSPost2010Prop44ColorIndex
 90
        5
102
RTVSPost2010Prop44ColorRGB
 90
      255
102
RTVSPost2010PropOp44
 70
     1
102
RTVSPost2010Prop45
280
     0
102
RTVSPost2010PropOp45
 70
     1
102
RTVSPost2010Prop46
 90
       50
102
RTVSPost2010PropOp46
 70
     1
102
RTVSPost2010Prop47
 90
       50
102
RTVSPost2010PropOp47
 70
     1
102
RTVSPost2010Prop48
 90
       50
102
RTVSPost2010PropOp48
 70
     1
102
RTVSPost2010Prop49
280
     0
102
RTVSPost2010PropOp49
 70
     1
102
RTVSPost2010Prop50
 90
       50
102
RTVSPost2010PropOp50
 70
     1
102
RTVSPost2010Prop51ColorIndex
 90
      256
102
RTVSPost2010Prop51ColorRGB
 90
-16777216
102
RTVSPost2010PropOp51
 70
     0
102
RTVSPost2010Prop52
140
1.0
102
RTVSPost2010PropOp52
 70
     0
102
RTVSPost2010Prop53
 90
        2
102
RTVSPost2010PropOp53
 70
     1
102
RTVSPost2010Prop54
  1
strokes_ogs.tif
102
RTVSPost2010PropOp54
 70
     1
102
RTVSPost2010Prop55
280
     0
102
RTVSPost2010PropOp55
 70
     1
102
RTVSPost2010Prop56
140
1.0
102
RTVSPost2010PropOp56
 70
     1
102
RTVSPost2010Prop57
140
1.0
102
RTVSPost2010PropOp57
 70
     1
102
RTVSPropertyOp0
 70
     1
102
RTVSPropertyOp1
 70
     1
102
RTVSPropertyOp2
 70
     1
102
RTVSPropertyOp3
 70
     1
102
RTVSPropertyOp4
 70
     1
102
RTVSPropertyOp5
 70
     1
102
RTVSPropertyOp6
 70
     1
102
RTVSPropertyOp7
 70
     1
102
RTVSPropertyOp8
 70
     1
102
RTVSPropertyOp9
 70
     1
102
RTVSPropertyOp10
 70
     1
102
RTVSPropertyOp11
 70
     1
102
RTVSPropertyOp12
 70
     1
102
RTVSPropertyOp13
 70
     1
102
RTVSPropertyOp14
 70
     1
102
RTVSPropertyOp15
 70
     1
102
RTVSPropertyOp16
 70
     1
102
RTVSPropertyOp17
 70
     1
102
RTVSPropertyOp18
 70
     1
102
RTVSPropertyOp19
 70
     1
102
RTVSPropertyOp20
 70
     1
102
RTVSPropertyOp21
 70
     1
102
RTVSPropertyOp22
 70
     1
102
RTVSPropertyOp23
 70
     1
102
RTVSPropertyOp24
 70
     1
102
RTVSPropertyOp25
 70
     1
102
RTVSPropertyOp26
 70
     1
102
RTVSPropertyOp27
 70
     1
102
RTVSPropertyOp28
 70
     1
102
RTVSPropertyOp29
 70
     1
102
RTVSPropertyOp30
 70
     1
102
RTVSPropertyOp31
 70
     1
102
RTVSPropertyOp32
 70
     1
102
RTVSPropertyOp33
 70
     1
102
RTVSPropertyOp34
 70
     1
102
RTVSPropertyOp35
 70
     1
102
RTVSPropertyOp36
 70
     1
102
RTVSPropertyOp37
 70
     1
102
RTVSPropertyOp38
 70
     1
102
RTVSPropertyOp39
 70
     1
102
RTVSPropertyOp40
 70
     1
102
RTVSPropertyOp41
 70
     1
102
RTVSPropertyOp42
 70
     1
102
RTVSPropertyOp43
 70
     1
102
RTVSPropertyOp44
 70
     1
102
RTVSPropertyOp45
 70
     1
102
RTVSPropertyOp46
 70
     1
102
RTVSPropertyOp47
 70
     1
102
RTVSPropertyOp48
 70
     1
102
RTVSPropertyOp49
 70
     1
102
RTVSPropertyOp50
 70
     1
102
RTVSPropertyOp51
 70
     0
102
RTVSPropertyOp52
 70
     0
102
RTVSPropertyOp53
 70
     1
102
RTVSPropertyOp54
 70
     1
102
RTVSPropertyOp55
 70
     1
102
RTVSPropertyOp56
 70
     1
102
RTVSPropertyOp57
 70
     1
102
RTVSPropertyOp58
 70
     1
102
RTVSPropertyOp59
 70
     1
102
RTVSPropertyOp60
 70
     1
102
RTVSPropertyOp61
 70
     1
102
RTVSPropertyOp62
 70
     1
  0
XRECORD
  5
88A3
102
{ACAD_REACTORS
330
88A2
102
}
330
88A2
100
AcDbXrecord
280
     1
102
RTVSPost2010Prop28
280
     0
102
RTVSPost2010PropOp28
 70
     1
102
RTVSPost2010Prop29
280
     1
102
RTVSPost2010PropOp29
 70
     1
102
RTVSPost2010Prop30
280
     1
102
RTVSPost2010PropOp30
 70
     1
102
RTVSPost2010Prop31
280
     0
102
RTVSPost2010PropOp31
 70
     1
102
RTVSPost2010Prop32
280
     0
102
RTVSPost2010PropOp32
 70
     1
102
RTVSPost2010Prop33
280
     0
102
RTVSPost2010PropOp33
 70
     1
102
RTVSPost2010Prop34
280
     0
102
RTVSPost2010PropOp34
 70
     1
102
RTVSPost2010Prop35
280
     0
102
RTVSPost2010PropOp35
 70
     1
102
RTVSPost2010Prop36
280
     0
102
RTVSPost2010PropOp36
 70
     1
102
RTVSPost2010Prop37
 90
       50
102
RTVSPost2010PropOp37
 70
     1
102
RTVSPost2010Prop38
140
0.0
102
RTVSPost2010PropOp38
 70
     1
102
RTVSPost2010Prop39
140
1.0
102
RTVSPost2010PropOp39
 70
     1
102
RTVSPost2010Prop40
 90
        0
102
RTVSPost2010PropOp40
 70
     1
102
RTVSPost2010Prop41ColorIndex
 90
       18
102
RTVSPost2010Prop41ColorRGB
 90
        0
102
RTVSPost2010PropOp41
 70
     1
102
RTVSPost2010Prop42
 90
       50
102
RTVSPost2010PropOp42
 70
     1
102
RTVSPost2010Prop43
 90
        3
102
RTVSPost2010PropOp43
 70
     1
102
RTVSPost2010Prop44ColorIndex
 90
        5
102
RTVSPost2010Prop44ColorRGB
 90
      255
102
RTVSPost2010PropOp44
 70
     1
102
RTVSPost2010Prop45
280
     0
102
RTVSPost2010PropOp45
 70
     1
102
RTVSPost2010Prop46
 90
       50
102
RTVSPost2010PropOp46
 70
     1
102
RTVSPost2010Prop47
 90
       50
102
RTVSPost2010PropOp47
 70
     1
102
RTVSPost2010Prop48
 90
       50
102
RTVSPost2010PropOp48
 70
     1
102
RTVSPost2010Prop49
280
     0
102
RTVSPost2010PropOp49
 70
     1
102
RTVSPost2010Prop50
 90
       50
102
RTVSPost2010PropOp50
 70
     1
102
RTVSPost2010Prop51ColorIndex
 90
      256
102
RTVSPost2010Prop51ColorRGB
 90
-16777216
102
RTVSPost2010PropOp51
 70
     0
102
RTVSPost2010Prop52
140
1.0
102
RTVSPost2010PropOp52
 70
     0
102
RTVSPost2010Prop53
 90
        2
102
RTVSPost2010PropOp53
 70
     1
102
RTVSPost2010Prop54
  1
strokes_ogs.tif
102
RTVSPost2010PropOp54
 70
     1
102
RTVSPost2010Prop55
280
     0
102
RTVSPost2010PropOp55
 70
     1
102
RTVSPost2010Prop56
140
1.0
102
RTVSPost2010PropOp56
 70
     1
102
RTVSPost2010Prop57
140
1.0
102
RTVSPost2010PropOp57
 70
     1
102
RTVSPropertyOp0
 70
     1
102
RTVSPropertyOp1
 70
     1
102
RTVSPropertyOp2
 70
     1
102
RTVSPropertyOp3
 70
     1
102
RTVSPropertyOp4
 70
     1
102
RTVSPropertyOp5
 70
     1
102
RTVSPropertyOp6
 70
     1
102
RTVSPropertyOp7
 70
     1
102
RTVSPropertyOp8
 70
     1
102
RTVSPropertyOp9
 70
     1
102
RTVSPropertyOp10
 70
     1
102
RTVSPropertyOp11
 70
     1
102
RTVSPropertyOp12
 70
     1
102
RTVSPropertyOp13
 70
     1
102
RTVSPropertyOp14
 70
     1
102
RTVSPropertyOp15
 70
     1
102
RTVSPropertyOp16
 70
     1
102
RTVSPropertyOp17
 70
     1
102
RTVSPropertyOp18
 70
     1
102
RTVSPropertyOp19
 70
     1
102
RTVSPropertyOp20
 70
     1
102
RTVSPropertyOp21
 70
     1
102
RTVSPropertyOp22
 70
     1
102
RTVSPropertyOp23
 70
     1
102
RTVSPropertyOp24
 70
     1
102
RTVSPropertyOp25
 70
     1
102
RTVSPropertyOp26
 70
     1
102
RTVSPropertyOp27
 70
     1
102
RTVSPropertyOp28
 70
     1
102
RTVSPropertyOp29
 70
     1
102
RTVSPropertyOp30
 70
     1
102
RTVSPropertyOp31
 70
     1
102
RTVSPropertyOp32
 70
     1
102
RTVSPropertyOp33
 70
     1
102
RTVSPropertyOp34
 70
     1
102
RTVSPropertyOp35
 70
     1
102
RTVSPropertyOp36
 70
     1
102
RTVSPropertyOp37
 70
     1
102
RTVSPropertyOp38
 70
     1
102
RTVSPropertyOp39
 70
     1
102
RTVSPropertyOp40
 70
     1
102
RTVSPropertyOp41
 70
     1
102
RTVSPropertyOp42
 70
     1
102
RTVSPropertyOp43
 70
     1
102
RTVSPropertyOp44
 70
     1
102
RTVSPropertyOp45
 70
     1
102
RTVSPropertyOp46
 70
     1
102
RTVSPropertyOp47
 70
     1
102
RTVSPropertyOp48
 70
     1
102
RTVSPropertyOp49
 70
     1
102
RTVSPropertyOp50
 70
     1
102
RTVSPropertyOp51
 70
     0
102
RTVSPropertyOp52
 70
     0
102
RTVSPropertyOp53
 70
     1
102
RTVSPropertyOp54
 70
     1
102
RTVSPropertyOp55
 70
     1
102
RTVSPropertyOp56
 70
     1
102
RTVSPropertyOp57
 70
     1
102
RTVSPropertyOp58
 70
     1
102
RTVSPropertyOp59
 70
     1
102
RTVSPropertyOp60
 70
     1
102
RTVSPropertyOp61
 70
     1
102
RTVSPropertyOp62
 70
     1
  0
XRECORD
  5
8899
102
{ACAD_REACTORS
330
8898
102
}
330
8898
100
AcDbXrecord
280
     1
102
RTVSPost2010Prop28
280
     0
102
RTVSPost2010PropOp28
 70
     1
102
RTVSPost2010Prop29
280
     1
102
RTVSPost2010PropOp29
 70
     1
102
RTVSPost2010Prop30
280
     1
102
RTVSPost2010PropOp30
 70
     1
102
RTVSPost2010Prop31
280
     0
102
RTVSPost2010PropOp31
 70
     1
102
RTVSPost2010Prop32
280
     0
102
RTVSPost2010PropOp32
 70
     1
102
RTVSPost2010Prop33
280
     0
102
RTVSPost2010PropOp33
 70
     1
102
RTVSPost2010Prop34
280
     0
102
RTVSPost2010PropOp34
 70
     1
102
RTVSPost2010Prop35
280
     0
102
RTVSPost2010PropOp35
 70
     1
102
RTVSPost2010Prop36
280
     0
102
RTVSPost2010PropOp36
 70
     1
102
RTVSPost2010Prop37
 90
       50
102
RTVSPost2010PropOp37
 70
     1
102
RTVSPost2010Prop38
140
0.0
102
RTVSPost2010PropOp38
 70
     1
102
RTVSPost2010Prop39
140
1.0
102
RTVSPost2010PropOp39
 70
     1
102
RTVSPost2010Prop40
 90
        0
102
RTVSPost2010PropOp40
 70
     1
102
RTVSPost2010Prop41ColorIndex
 90
       18
102
RTVSPost2010Prop41ColorRGB
 90
        0
102
RTVSPost2010PropOp41
 70
     1
102
RTVSPost2010Prop42
 90
       50
102
RTVSPost2010PropOp42
 70
     1
102
RTVSPost2010Prop43
 90
        3
102
RTVSPost2010PropOp43
 70
     1
102
RTVSPost2010Prop44ColorIndex
 90
        5
102
RTVSPost2010Prop44ColorRGB
 90
      255
102
RTVSPost2010PropOp44
 70
     1
102
RTVSPost2010Prop45
280
     0
102
RTVSPost2010PropOp45
 70
     1
102
RTVSPost2010Prop46
 90
       50
102
RTVSPost2010PropOp46
 70
     1
102
RTVSPost2010Prop47
 90
       50
102
RTVSPost2010PropOp47
 70
     1
102
RTVSPost2010Prop48
 90
       50
102
RTVSPost2010PropOp48
 70
     1
102
RTVSPost2010Prop49
280
     0
102
RTVSPost2010PropOp49
 70
     1
102
RTVSPost2010Prop50
 90
       50
102
RTVSPost2010PropOp50
 70
     1
102
RTVSPost2010Prop51ColorIndex
 90
      256
102
RTVSPost2010Prop51ColorRGB
 90
-16777216
102
RTVSPost2010PropOp51
 70
     0
102
RTVSPost2010Prop52
140
1.0
102
RTVSPost2010PropOp52
 70
     0
102
RTVSPost2010Prop53
 90
        2
102
RTVSPost2010PropOp53
 70
     1
102
RTVSPost2010Prop54
  1
strokes_ogs.tif
102
RTVSPost2010PropOp54
 70
     1
102
RTVSPost2010Prop55
280
     0
102
RTVSPost2010PropOp55
 70
     1
102
RTVSPost2010Prop56
140
1.0
102
RTVSPost2010PropOp56
 70
     1
102
RTVSPost2010Prop57
140
1.0
102
RTVSPost2010PropOp57
 70
     1
102
RTVSPropertyOp0
 70
     1
102
RTVSPropertyOp1
 70
     1
102
RTVSPropertyOp2
 70
     1
102
RTVSPropertyOp3
 70
     1
102
RTVSPropertyOp4
 70
     1
102
RTVSPropertyOp5
 70
     1
102
RTVSPropertyOp6
 70
     1
102
RTVSPropertyOp7
 70
     1
102
RTVSPropertyOp8
 70
     1
102
RTVSPropertyOp9
 70
     1
102
RTVSPropertyOp10
 70
     1
102
RTVSPropertyOp11
 70
     1
102
RTVSPropertyOp12
 70
     1
102
RTVSPropertyOp13
 70
     1
102
RTVSPropertyOp14
 70
     1
102
RTVSPropertyOp15
 70
     1
102
RTVSPropertyOp16
 70
     1
102
RTVSPropertyOp17
 70
     1
102
RTVSPropertyOp18
 70
     1
102
RTVSPropertyOp19
 70
     1
102
RTVSPropertyOp20
 70
     1
102
RTVSPropertyOp21
 70
     1
102
RTVSPropertyOp22
 70
     1
102
RTVSPropertyOp23
 70
     1
102
RTVSPropertyOp24
 70
     1
102
RTVSPropertyOp25
 70
     1
102
RTVSPropertyOp26
 70
     1
102
RTVSPropertyOp27
 70
     1
102
RTVSPropertyOp28
 70
     1
102
RTVSPropertyOp29
 70
     1
102
RTVSPropertyOp30
 70
     1
102
RTVSPropertyOp31
 70
     1
102
RTVSPropertyOp32
 70
     1
102
RTVSPropertyOp33
 70
     1
102
RTVSPropertyOp34
 70
     1
102
RTVSPropertyOp35
 70
     1
102
RTVSPropertyOp36
 70
     1
102
RTVSPropertyOp37
 70
     1
102
RTVSPropertyOp38
 70
     1
102
RTVSPropertyOp39
 70
     1
102
RTVSPropertyOp40
 70
     1
102
RTVSPropertyOp41
 70
     1
102
RTVSPropertyOp42
 70
     1
102
RTVSPropertyOp43
 70
     1
102
RTVSPropertyOp44
 70
     1
102
RTVSPropertyOp45
 70
     1
102
RTVSPropertyOp46
 70
     1
102
RTVSPropertyOp47
 70
     1
102
RTVSPropertyOp48
 70
     1
102
RTVSPropertyOp49
 70
     1
102
RTVSPropertyOp50
 70
     1
102
RTVSPropertyOp51
 70
     0
102
RTVSPropertyOp52
 70
     0
102
RTVSPropertyOp53
 70
     1
102
RTVSPropertyOp54
 70
     1
102
RTVSPropertyOp55
 70
     1
102
RTVSPropertyOp56
 70
     1
102
RTVSPropertyOp57
 70
     1
102
RTVSPropertyOp58
 70
     1
102
RTVSPropertyOp59
 70
     1
102
RTVSPropertyOp60
 70
     1
102
RTVSPropertyOp61
 70
     1
102
RTVSPropertyOp62
 70
     1
  0
XRECORD
  5
888D
102
{ACAD_REACTORS
330
888C
102
}
330
888C
100
AcDbXrecord
280
     1
102
RTVSPost2010Prop28
280
     0
102
RTVSPost2010PropOp28
 70
     1
102
RTVSPost2010Prop29
280
     1
102
RTVSPost2010PropOp29
 70
     1
102
RTVSPost2010Prop30
280
     1
102
RTVSPost2010PropOp30
 70
     1
102
RTVSPost2010Prop31
280
     0
102
RTVSPost2010PropOp31
 70
     1
102
RTVSPost2010Prop32
280
     0
102
RTVSPost2010PropOp32
 70
     1
102
RTVSPost2010Prop33
280
     0
102
RTVSPost2010PropOp33
 70
     1
102
RTVSPost2010Prop34
280
     0
102
RTVSPost2010PropOp34
 70
     1
102
RTVSPost2010Prop35
280
     0
102
RTVSPost2010PropOp35
 70
     1
102
RTVSPost2010Prop36
280
     0
102
RTVSPost2010PropOp36
 70
     1
102
RTVSPost2010Prop37
 90
       50
102
RTVSPost2010PropOp37
 70
     1
102
RTVSPost2010Prop38
140
0.0
102
RTVSPost2010PropOp38
 70
     1
102
RTVSPost2010Prop39
140
1.0
102
RTVSPost2010PropOp39
 70
     1
102
RTVSPost2010Prop40
 90
        0
102
RTVSPost2010PropOp40
 70
     1
102
RTVSPost2010Prop41ColorIndex
 90
       18
102
RTVSPost2010Prop41ColorRGB
 90
        0
102
RTVSPost2010PropOp41
 70
     1
102
RTVSPost2010Prop42
 90
       50
102
RTVSPost2010PropOp42
 70
     1
102
RTVSPost2010Prop43
 90
        3
102
RTVSPost2010PropOp43
 70
     1
102
RTVSPost2010Prop44ColorIndex
 90
        5
102
RTVSPost2010Prop44ColorRGB
 90
      255
102
RTVSPost2010PropOp44
 70
     1
102
RTVSPost2010Prop45
280
     0
102
RTVSPost2010PropOp45
 70
     1
102
RTVSPost2010Prop46
 90
       50
102
RTVSPost2010PropOp46
 70
     1
102
RTVSPost2010Prop47
 90
       50
102
RTVSPost2010PropOp47
 70
     1
102
RTVSPost2010Prop48
 90
       50
102
RTVSPost2010PropOp48
 70
     1
102
RTVSPost2010Prop49
280
     0
102
RTVSPost2010PropOp49
 70
     1
102
RTVSPost2010Prop50
 90
       50
102
RTVSPost2010PropOp50
 70
     1
102
RTVSPost2010Prop51ColorIndex
 90
      256
102
RTVSPost2010Prop51ColorRGB
 90
-16777216
102
RTVSPost2010PropOp51
 70
     0
102
RTVSPost2010Prop52
140
1.0
102
RTVSPost2010PropOp52
 70
     0
102
RTVSPost2010Prop53
 90
        2
102
RTVSPost2010PropOp53
 70
     1
102
RTVSPost2010Prop54
  1
strokes_ogs.tif
102
RTVSPost2010PropOp54
 70
     1
102
RTVSPost2010Prop55
280
     0
102
RTVSPost2010PropOp55
 70
     1
102
RTVSPost2010Prop56
140
1.0
102
RTVSPost2010PropOp56
 70
     1
102
RTVSPost2010Prop57
140
1.0
102
RTVSPost2010PropOp57
 70
     1
102
RTVSPropertyOp0
 70
     1
102
RTVSPropertyOp1
 70
     1
102
RTVSPropertyOp2
 70
     1
102
RTVSPropertyOp3
 70
     1
102
RTVSPropertyOp4
 70
     1
102
RTVSPropertyOp5
 70
     1
102
RTVSPropertyOp6
 70
     1
102
RTVSPropertyOp7
 70
     1
102
RTVSPropertyOp8
 70
     1
102
RTVSPropertyOp9
 70
     1
102
RTVSPropertyOp10
 70
     1
102
RTVSPropertyOp11
 70
     1
102
RTVSPropertyOp12
 70
     1
102
RTVSPropertyOp13
 70
     1
102
RTVSPropertyOp14
 70
     1
102
RTVSPropertyOp15
 70
     1
102
RTVSPropertyOp16
 70
     1
102
RTVSPropertyOp17
 70
     1
102
RTVSPropertyOp18
 70
     1
102
RTVSPropertyOp19
 70
     1
102
RTVSPropertyOp20
 70
     1
102
RTVSPropertyOp21
 70
     1
102
RTVSPropertyOp22
 70
     1
102
RTVSPropertyOp23
 70
     1
102
RTVSPropertyOp24
 70
     1
102
RTVSPropertyOp25
 70
     1
102
RTVSPropertyOp26
 70
     1
102
RTVSPropertyOp27
 70
     1
102
RTVSPropertyOp28
 70
     1
102
RTVSPropertyOp29
 70
     1
102
RTVSPropertyOp30
 70
     1
102
RTVSPropertyOp31
 70
     1
102
RTVSPropertyOp32
 70
     1
102
RTVSPropertyOp33
 70
     1
102
RTVSPropertyOp34
 70
     1
102
RTVSPropertyOp35
 70
     1
102
RTVSPropertyOp36
 70
     1
102
RTVSPropertyOp37
 70
     1
102
RTVSPropertyOp38
 70
     1
102
RTVSPropertyOp39
 70
     1
102
RTVSPropertyOp40
 70
     1
102
RTVSPropertyOp41
 70
     1
102
RTVSPropertyOp42
 70
     1
102
RTVSPropertyOp43
 70
     1
102
RTVSPropertyOp44
 70
     1
102
RTVSPropertyOp45
 70
     1
102
RTVSPropertyOp46
 70
     1
102
RTVSPropertyOp47
 70
     1
102
RTVSPropertyOp48
 70
     1
102
RTVSPropertyOp49
 70
     1
102
RTVSPropertyOp50
 70
     1
102
RTVSPropertyOp51
 70
     0
102
RTVSPropertyOp52
 70
     0
102
RTVSPropertyOp53
 70
     1
102
RTVSPropertyOp54
 70
     1
102
RTVSPropertyOp55
 70
     1
102
RTVSPropertyOp56
 70
     1
102
RTVSPropertyOp57
 70
     1
102
RTVSPropertyOp58
 70
     1
102
RTVSPropertyOp59
 70
     1
102
RTVSPropertyOp60
 70
     1
102
RTVSPropertyOp61
 70
     1
102
RTVSPropertyOp62
 70
     1
  0
XRECORD
  5
88A5
102
{ACAD_REACTORS
330
88A4
102
}
330
88A4
100
AcDbXrecord
280
     1
102
RTVSPost2010Prop28
280
     0
102
RTVSPost2010PropOp28
 70
     1
102
RTVSPost2010Prop29
280
     1
102
RTVSPost2010PropOp29
 70
     1
102
RTVSPost2010Prop30
280
     1
102
RTVSPost2010PropOp30
 70
     1
102
RTVSPost2010Prop31
280
     0
102
RTVSPost2010PropOp31
 70
     1
102
RTVSPost2010Prop32
280
     0
102
RTVSPost2010PropOp32
 70
     1
102
RTVSPost2010Prop33
280
     0
102
RTVSPost2010PropOp33
 70
     1
102
RTVSPost2010Prop34
280
     0
102
RTVSPost2010PropOp34
 70
     1
102
RTVSPost2010Prop35
280
     0
102
RTVSPost2010PropOp35
 70
     1
102
RTVSPost2010Prop36
280
     0
102
RTVSPost2010PropOp36
 70
     1
102
RTVSPost2010Prop37
 90
       50
102
RTVSPost2010PropOp37
 70
     1
102
RTVSPost2010Prop38
140
0.0
102
RTVSPost2010PropOp38
 70
     1
102
RTVSPost2010Prop39
140
1.0
102
RTVSPost2010PropOp39
 70
     1
102
RTVSPost2010Prop40
 90
        0
102
RTVSPost2010PropOp40
 70
     1
102
RTVSPost2010Prop41ColorIndex
 90
       18
102
RTVSPost2010Prop41ColorRGB
 90
        0
102
RTVSPost2010PropOp41
 70
     1
102
RTVSPost2010Prop42
 90
       50
102
RTVSPost2010PropOp42
 70
     1
102
RTVSPost2010Prop43
 90
        3
102
RTVSPost2010PropOp43
 70
     1
102
RTVSPost2010Prop44ColorIndex
 90
        5
102
RTVSPost2010Prop44ColorRGB
 90
      255
102
RTVSPost2010PropOp44
 70
     1
102
RTVSPost2010Prop45
280
     0
102
RTVSPost2010PropOp45
 70
     1
102
RTVSPost2010Prop46
 90
       50
102
RTVSPost2010PropOp46
 70
     1
102
RTVSPost2010Prop47
 90
       50
102
RTVSPost2010PropOp47
 70
     1
102
RTVSPost2010Prop48
 90
       50
102
RTVSPost2010PropOp48
 70
     1
102
RTVSPost2010Prop49
280
     0
102
RTVSPost2010PropOp49
 70
     1
102
RTVSPost2010Prop50
 90
       50
102
RTVSPost2010PropOp50
 70
     1
102
RTVSPost2010Prop51ColorIndex
 90
      256
102
RTVSPost2010Prop51ColorRGB
 90
-16777216
102
RTVSPost2010PropOp51
 70
     0
102
RTVSPost2010Prop52
140
1.0
102
RTVSPost2010PropOp52
 70
     0
102
RTVSPost2010Prop53
 90
        2
102
RTVSPost2010PropOp53
 70
     1
102
RTVSPost2010Prop54
  1
strokes_ogs.tif
102
RTVSPost2010PropOp54
 70
     1
102
RTVSPost2010Prop55
280
     0
102
RTVSPost2010PropOp55
 70
     1
102
RTVSPost2010Prop56
140
1.0
102
RTVSPost2010PropOp56
 70
     1
102
RTVSPost2010Prop57
140
1.0
102
RTVSPost2010PropOp57
 70
     1
102
RTVSPropertyOp0
 70
     1
102
RTVSPropertyOp1
 70
     1
102
RTVSPropertyOp2
 70
     1
102
RTVSPropertyOp3
 70
     1
102
RTVSPropertyOp4
 70
     1
102
RTVSPropertyOp5
 70
     1
102
RTVSPropertyOp6
 70
     1
102
RTVSPropertyOp7
 70
     1
102
RTVSPropertyOp8
 70
     1
102
RTVSPropertyOp9
 70
     1
102
RTVSPropertyOp10
 70
     1
102
RTVSPropertyOp11
 70
     1
102
RTVSPropertyOp12
 70
     1
102
RTVSPropertyOp13
 70
     1
102
RTVSPropertyOp14
 70
     1
102
RTVSPropertyOp15
 70
     1
102
RTVSPropertyOp16
 70
     1
102
RTVSPropertyOp17
 70
     1
102
RTVSPropertyOp18
 70
     1
102
RTVSPropertyOp19
 70
     1
102
RTVSPropertyOp20
 70
     1
102
RTVSPropertyOp21
 70
     1
102
RTVSPropertyOp22
 70
     1
102
RTVSPropertyOp23
 70
     1
102
RTVSPropertyOp24
 70
     1
102
RTVSPropertyOp25
 70
     1
102
RTVSPropertyOp26
 70
     1
102
RTVSPropertyOp27
 70
     1
102
RTVSPropertyOp28
 70
     1
102
RTVSPropertyOp29
 70
     1
102
RTVSPropertyOp30
 70
     1
102
RTVSPropertyOp31
 70
     1
102
RTVSPropertyOp32
 70
     1
102
RTVSPropertyOp33
 70
     1
102
RTVSPropertyOp34
 70
     1
102
RTVSPropertyOp35
 70
     1
102
RTVSPropertyOp36
 70
     1
102
RTVSPropertyOp37
 70
     1
102
RTVSPropertyOp38
 70
     1
102
RTVSPropertyOp39
 70
     1
102
RTVSPropertyOp40
 70
     1
102
RTVSPropertyOp41
 70
     1
102
RTVSPropertyOp42
 70
     1
102
RTVSPropertyOp43
 70
     1
102
RTVSPropertyOp44
 70
     1
102
RTVSPropertyOp45
 70
     1
102
RTVSPropertyOp46
 70
     1
102
RTVSPropertyOp47
 70
     1
102
RTVSPropertyOp48
 70
     1
102
RTVSPropertyOp49
 70
     1
102
RTVSPropertyOp50
 70
     1
102
RTVSPropertyOp51
 70
     0
102
RTVSPropertyOp52
 70
     0
102
RTVSPropertyOp53
 70
     1
102
RTVSPropertyOp54
 70
     1
102
RTVSPropertyOp55
 70
     1
102
RTVSPropertyOp56
 70
     1
102
RTVSPropertyOp57
 70
     1
102
RTVSPropertyOp58
 70
     1
102
RTVSPropertyOp59
 70
     1
102
RTVSPropertyOp60
 70
     1
102
RTVSPropertyOp61
 70
     1
102
RTVSPropertyOp62
 70
     1
  0
ENDSEC
  0
EOF
