  0
SECTION
  2
HEADER
  9
$ACADVER
  1
AC1009
  9
$INSBASE
 10
0.0
 20
0.0
 30
0.0
  9
$EXTMIN
 10
750.0
 20
900.0
 30
0.0
  9
$EXTMAX
 10
5550.0
 20
8359.9567849999985
 30
0.0
  9
$LIMMIN
 10
0.0
 20
0.0
  9
$LIMMAX
 10
297.0
 20
210.0
  9
$ORTHOMODE
 70
     0
  9
$REGENMODE
 70
     1
  9
$FILLMODE
 70
     0
  9
$QTEXTMODE
 70
     0
  9
$MIRRTEXT
 70
     1
  9
$DRAGMODE
 70
     2
  9
$LTSCALE
 40
100.0
  9
$OSMODE
 70
    37
  9
$ATTMODE
 70
     1
  9
$TEXTSIZE
 40
180.0
  9
$TRACEWID
 40
0.05
  9
$TEXTSTYLE
  7
STANDARD
  9
$CLAYER
  8
3
  9
$CELTYPE
  6
BYLAYER
  9
$CECOLOR
 62
   256
  9
$DIMSCALE
 40
30.0
  9
$DIMASZ
 40
2.0
  9
$DIMEXO
 40
0.5
  9
$DIMDLI
 40
10.0
  9
$DIMRND
 40
0.0
  9
$DIMDLE
 40
0.0
  9
$DIMEXE
 40
1.0
  9
$DIMTP
 40
1.0
  9
$DIMTM
 40
1.0
  9
$DIMTXT
 40
3.0
  9
$DIMCEN
 40
0.0
  9
$DIMTSZ
 40
0.0
  9
$DIMTOL
 70
     0
  9
$DIMLIM
 70
     0
  9
$DIMTIH
 70
     0
  9
$DIMTOH
 70
     0
  9
$DIMSE1
 70
     0
  9
$DIMSE2
 70
     0
  9
$DIMTAD
 70
     1
  9
$DIMZIN
 70
     8
  9
$DIMBLK
  1

  9
$DIMASO
 70
     1
  9
$DIMSHO
 70
     1
  9
$DIMPOST
  1
(<>)
  9
$DIMAPOST
  1

  9
$DIMALT
 70
     0
  9
$DIMALTD
 70
     2
  9
$DIMALTF
 40
0.039
  9
$DIMLFAC
 40
1.0
  9
$DIMTOFL
 70
     1
  9
$DIMTVP
 40
0.0
  9
$DIMTIX
 70
     0
  9
$DIMSOXD
 70
     0
  9
$DIMSAH
 70
     1
  9
$DIMBLK1
  1
DOT
  9
$DIMBLK2
  1
OPEN
  9
$DIMSTYLE
  2
IGA
  9
$DIMCLRD
 70
     0
  9
$DIMCLRE
 70
     0
  9
$DIMCLRT
 70
     0
  9
$DIMTFAC
 40
10.0
  9
$DIMGAP
 40
1.0
  9
$LUNITS
 70
     2
  9
$LUPREC
 70
     3
  9
$SKETCHINC
 40
0.1
  9
$FILLETRAD
 40
50.0
  9
$AUNITS
 70
     0
  9
$AUPREC
 70
     0
  9
$MENU
  1
acad
  9
$ELEVATION
 40
0.0
  9
$PELEVATION
 40
0.0
  9
$THICKNESS
 40
0.0
  9
$LIMCHECK
 70
     0
  9
$BLIPMODE
 70
     0
  9
$CHAMFERA
 40
0.5
  9
$CHAMFERB
 40
0.5
  9
$SKPOLY
 70
     0
  9
$TDCREATE
 40
2450746.546537152
  9
$TDUPDATE
 40
2454953.7757190391
  9
$TDINDWG
 40
0.014275
  9
$TDUSRTIMER
 40
0.014275
  9
$USRTIMER
 70
     1
  9
$ANGBASE
 50
0.0
  9
$ANGDIR
 70
     0
  9
$PDMODE
 70
     0
  9
$PDSIZE
 40
0.0
  9
$PLINEWID
 40
0.0
  9
$COORDS
 70
     1
  9
$SPLFRAME
 70
     0
  9
$SPLINETYPE
 70
     6
  9
$SPLINESEGS
 70
     8
  9
$ATTDIA
 70
     0
  9
$ATTREQ
 70
     1
  9
$HANDLING
 70
 10241
  9
$HANDSEED
  5
7E3E
  9
$SURFTAB1
 70
     6
  9
$SURFTAB2
 70
     6
  9
$SURFTYPE
 70
     6
  9
$SURFU
 70
     6
  9
$SURFV
 70
     6
  9
$UCSNAME
  2

  9
$UCSORG
 10
0.0
 20
0.0
 30
0.0
  9
$UCSXDIR
 10
1.0
 20
0.0
 30
0.0
  9
$UCSYDIR
 10
0.0
 20
1.0
 30
0.0
  9
$PUCSNAME
  2

  9
$PUCSORG
 10
0.0
 20
0.0
 30
0.0
  9
$PUCSXDIR
 10
1.0
 20
0.0
 30
0.0
  9
$PUCSYDIR
 10
0.0
 20
1.0
 30
0.0
  9
$USERI1
 70
     0
  9
$USERI2
 70
     0
  9
$USERI3
 70
     0
  9
$USERI4
 70
     0
  9
$USERI5
 70
     0
  9
$USERR1
 40
0.0
  9
$USERR2
 40
0.0
  9
$USERR3
 40
0.0
  9
$USERR4
 40
0.0
  9
$USERR5
 40
0.0
  9
$WORLDVIEW
 70
     1
  9
$SHADEDGE
 70
     3
  9
$SHADEDIF
 70
    70
  9
$TILEMODE
 70
     1
  9
$MAXACTVP
 70
    16
  9
$PLIMCHECK
 70
     0
  9
$PEXTMIN
 10
1.0000000000000000E+020
 20
1.0000000000000000E+020
 30
1.0000000000000000E+020
  9
$PEXTMAX
 10
-1.0000000000000000E+020
 20
-1.0000000000000000E+020
 30
-1.0000000000000000E+020
  9
$PLIMMIN
 10
0.0
 20
0.0
  9
$PLIMMAX
 10
12.0
 20
9.0
  9
$UNITMODE
 70
     0
  9
$VISRETAIN
 70
     0
  9
$PLINEGEN
 70
     0
  9
$PSLTSCALE
 70
     1
  0
ENDSEC
  0
SECTION
  2
TABLES
  0
TABLE
  2
VPORT
 70
     2
  0
VPORT
  2
*ACTIVE
 70
     0
 10
0.0
 20
0.0
 11
1.0
 21
1.0
 12
9438.1687158055174
 22
4629.9562499988788
 13
0.0
 23
0.0
 14
10.0
 24
10.0
 15
10.0
 25
10.0
 16
0.0
 26
0.0
 36
1.0
 17
0.0
 27
0.0
 37
0.0
 40
7517.2452868940854
 41
3.1666666666666661
 42
50.0
 43
0.0
 44
0.0
 50
0.0
 51
0.0
 71
     0
 72
   100
 73
     1
 74
     0
 75
     0
 76
     0
 77
     0
 78
     0
  0
ENDTAB
  0
TABLE
  2
LTYPE
 70
     2
  0
LTYPE
  2
CONTINUOUS
 70
     0
  3
Solid line
 72
    65
 73
     0
 40
0.0
  0
LTYPE
  2
CENTER
 70
     0
  3
____ _ ____ _ ____ _ ____ _ ____ _ ____ _ ____ 
 72
    65
 73
     4
 40
2.0
 49
1.25
 49
-0.25
 49
0.25
 49
-0.25
  0
ENDTAB
  0
TABLE
  2
LAYER
 70
     6
  0
LAYER
  2
0
 70
     0
 62
     7
  6
CONTINUOUS
  0
LAYER
  2
3
 70
     0
 62
     2
  6
CONTINUOUS
  0
LAYER
  2
2
 70
     0
 62
     3
  6
CENTER
  0
LAYER
  2
1
 70
     0
 62
     4
  6
CONTINUOUS
  0
LAYER
  2
4
 70
     0
 62
     7
  6
CONTINUOUS
  0
LAYER
  2
DEFPOINTS
 70
     0
 62
     7
  6
CONTINUOUS
  0
ENDTAB
  0
TABLE
  2
STYLE
 70
     1
  0
STYLE
  2
STANDARD
 70
     0
 40
0.0
 41
1.0
 50
0.0
 71
     0
 42
180.0
  3
simplex.shx
  4
extfont.shx
  0
ENDTAB
  0
TABLE
  2
VIEW
 70
     0
  0
ENDTAB
  0
TABLE
  2
UCS
 70
     0
  0
ENDTAB
  0
TABLE
  2
APPID
 70
     1
  0
APPID
  2
ACAD
 70
     0
  0
ENDTAB
  0
TABLE
  2
DIMSTYLE
 70
     1
  0
DIMSTYLE
  2
IGA
 70
     0
  3

  4

  5

  6
OPEN
  7
OPEN
 40
2.0
 41
2.0
 42
0.5
 43
10.0
 44
1.0
 45
0.0
 46
0.0
 47
1.0
 48
1.0
140
3.0
141
0.0
142
0.0
143
0.03937
144
1.0
145
0.0
146
10.0
147
1.0
 71
     0
 72
     0
 73
     0
 74
     0
 75
     0
 76
     0
 77
     1
 78
     8
170
     0
171
     2
172
     0
173
     1
174
     0
175
     0
176
     0
177
     0
178
     0
  0
ENDTAB
  0
ENDSEC
  0
SECTION
  2
BLOCKS
  0
BLOCK
  8
0
  2
$MODEL_SPACE
 70
     0
 10
0.0
 20
0.0
 30
0.0
  3
$MODEL_SPACE
  1

  0
ENDBLK
  5
1B
  8
0
  0
BLOCK
 67
     1
  8
0
  2
$PAPER_SPACE
 70
     0
 10
0.0
 20
0.0
 30
0.0
  3
$PAPER_SPACE
  1

  0
ENDBLK
  5
18
 67
     1
  8
0
  0
BLOCK
  8
0
  2
_OPEN
 70
     0
 10
0.0
 20
0.0
 30
0.0
  3
_OPEN
  1

  0
LINE
  5
7AF1
  8
0
  6
BYBLOCK
 62
     0
 10
-1.0
 20
0.166667
 30
0.0
 11
0.0
 21
0.0
 31
0.0
  0
LINE
  5
7AF2
  8
0
  6
BYBLOCK
 62
     0
 10
0.0
 20
0.0
 30
0.0
 11
-1.0
 21
-0.166667
 31
0.0
  0
LINE
  5
7AF3
  8
0
  6
BYBLOCK
 62
     0
 10
0.0
 20
0.0
 30
0.0
 11
-1.0
 21
0.0
 31
0.0
  0
ENDBLK
  5
7AF4
  8
0
  0
BLOCK
  8
0
  2
*D1
 70
     1
 10
0.0
 20
0.0
 30
0.0
  3
*D1
  1

  0
LINE
  5
7D9B
  8
3
 62
     0
 10
2718.0367769999998
 20
3650.9736499999999
 30
0.0
 11
2939.782874
 21
3650.9736499999999
 31
0.0
  0
LINE
  5
7D9C
  8
3
 62
     0
 10
2718.0367769999998
 20
2825.973649999999
 30
0.0
 11
2939.782874
 21
2825.973649999999
 31
0.0
  0
LINE
  5
7D9D
  8
3
 62
     0
 10
2909.7828740000009
 20
3590.9736499999999
 30
0.0
 11
2909.782874
 21
2885.9736499999999
 31
0.0
  0
INSERT
  5
7D9E
  8
3
 62
     0
  2
_OPEN
 10
2909.7828740000009
 20
3650.9736499999999
 30
0.0
 41
60.0
 42
60.0
 43
60.0
 50
90.0
  0
INSERT
  5
7D9F
  8
3
 62
     0
  2
_OPEN
 10
2909.782874
 20
2825.973649999999
 30
0.0
 41
60.0
 42
60.0
 43
60.0
 50
270.0
  0
TEXT
  8
3
  40
90
  5
7E2D
  62
0
  72
0
  71
0
 10
2654.78
 20
3046.08
 30
0.000000
  1
825
  0
POINT
  5
7DA1
  8
DEFPOINTS
 62
     0
 10
2703.0367769999989
 20
3650.9736499999999
 30
0.0
  0
POINT
  5
7DA2
  8
DEFPOINTS
 62
     0
 10
2703.0367769999989
 20
2825.973649999999
 30
0.0
  0
POINT
  5
7DA3
  8
DEFPOINTS
 62
     0
 10
2909.782874
 20
2825.973649999999
 30
0.0
  0
ENDBLK
  5
7B1A
  8
0
  0
BLOCK
  8
0
  2
*D2
 70
     1
 10
0.0
 20
0.0
 30
0.0
  3
*D2
  1

  0
LINE
  5
7DA4
  8
3
 62
     0
 10
2855.7013270000002
 20
3612.9736499999999
 30
0.0
 11
3166.2739530000008
 21
3612.973649999999
 31
0.0
  0
LINE
  5
7DA5
  8
3
 62
     0
 10
2718.0367769999998
 20
2825.973649999999
 30
0.0
 11
3166.2739529999999
 21
2825.973649999999
 31
0.0
  0
LINE
  5
7DA6
  8
3
 62
     0
 10
3136.2739530000008
 20
3552.9736499999999
 30
0.0
 11
3136.2739529999999
 21
2885.9736499999999
 31
0.0
  0
INSERT
  5
7DA7
  8
3
 62
     0
  2
_OPEN
 10
3136.2739530000008
 20
3612.973649999999
 30
0.0
 41
60.0
 42
60.0
 43
60.0
 50
90.0
  0
INSERT
  5
7DA8
  8
3
 62
     0
  2
_OPEN
 10
3136.2739529999999
 20
2825.973649999999
 30
0.0
 41
60.0
 42
60.0
 43
60.0
 50
270.0
  0
TEXT
  8
3
  40
90
  5
7E2E
  62
0
  72
0
  71
0
 10
2881.27
 20
3033.84
 30
0.000000
  1
787
  0
POINT
  5
7DAA
  8
DEFPOINTS
 62
     0
 10
2840.7013269999989
 20
3612.9736499999999
 30
0.0
  0
POINT
  5
7DAB
  8
DEFPOINTS
 62
     0
 10
2703.0367769999989
 20
2825.973649999999
 30
0.0
  0
POINT
  5
7DAC
  8
DEFPOINTS
 62
     0
 10
3136.2739529999999
 20
2825.973649999999
 30
0.0
  0
ENDBLK
  5
7B25
  8
0
  0
BLOCK
  8
0
  2
*D3
 70
     1
 10
0.0
 20
0.0
 30
0.0
  3
*D3
  1

  0
LINE
  5
7DAD
  8
3
 62
     0
 10
2855.7013270000002
 20
3612.9736499999999
 30
0.0
 11
3386.6436819999999
 21
3612.973649999999
 31
0.0
  0
LINE
  5
7DAE
  8
3
 62
     0
 10
2643.0367769999998
 20
2642.9736499999999
 30
0.0
 11
3386.643681999999
 21
2642.973649999999
 31
0.0
  0
LINE
  5
7DAF
  8
3
 62
     0
 10
3356.6436819999999
 20
3552.9736499999999
 30
0.0
 11
3356.6436819999999
 21
2702.973649999999
 31
0.0
  0
INSERT
  5
7DB0
  8
3
 62
     0
  2
_OPEN
 10
3356.6436819999999
 20
3612.973649999999
 30
0.0
 41
60.0
 42
60.0
 43
60.0
 50
90.0
  0
INSERT
  5
7DB1
  8
3
 62
     0
  2
_OPEN
 10
3356.6436819999999
 20
2642.973649999999
 30
0.0
 41
60.0
 42
60.0
 43
60.0
 50
270.0
  0
TEXT
  8
3
  40
90
  5
7E2F
  62
0
  72
0
  71
0
 10
3101.64
 20
2968.67
 30
0.000000
  1
970
  0
POINT
  5
7DB3
  8
DEFPOINTS
 62
     0
 10
2840.7013269999989
 20
3612.9736499999999
 30
0.0
  0
POINT
  5
7DB4
  8
DEFPOINTS
 62
     0
 10
2628.0367769999998
 20
2642.9736499999999
 30
0.0
  0
POINT
  5
7DB5
  8
DEFPOINTS
 62
     0
 10
3356.6436819999999
 20
2642.973649999999
 30
0.0
  0
ENDBLK
  5
7CFB
  8
0
  0
BLOCK
  8
0
  2
*D4
 70
     1
 10
0.0
 20
0.0
 30
0.0
  3
*D4
  1

  0
LINE
  5
7DB6
  8
3
 62
     0
 10
2703.0367769999989
 20
3708.4736499999999
 30
0.0
 11
2703.0367769999989
 21
4446.5219340000003
 31
0.0
  0
LINE
  5
7DB7
  8
3
 62
     0
 10
2108.0367769999998
 20
4363.5664100000004
 30
0.0
 11
2108.0367769999998
 21
4446.5219340000003
 31
0.0
  0
LINE
  5
7DB8
  8
3
 62
     0
 10
2643.0367769999998
 20
4416.5219340000012
 30
0.0
 11
2168.0367769999998
 21
4416.5219340000012
 31
0.0
  0
INSERT
  5
7DB9
  8
3
 62
     0
  2
_OPEN
 10
2703.0367769999989
 20
4416.5219340000012
 30
0.0
 41
60.0
 42
60.0
 43
60.0
  0
INSERT
  5
7DBA
  8
3
 62
     0
  2
_OPEN
 10
2108.0367769999998
 20
4416.5219340000012
 30
0.0
 41
60.0
 42
60.0
 43
60.0
 50
180.0
  0
TEXT
  8
3
  40
90
  5
7E30
  62
0
  72
0
  71
0
 10
2215.59
 20
4332.22
 30
0.000000
  1
595
  0
POINT
  5
7DBC
  8
DEFPOINTS
 62
     0
 10
2703.0367769999989
 20
3693.4736499999999
 30
0.0
  0
POINT
  5
7DBD
  8
DEFPOINTS
 62
     0
 10
2108.0367769999998
 20
4348.5664100000004
 30
0.0
  0
POINT
  5
7DBE
  8
DEFPOINTS
 62
     0
 10
2108.0367769999998
 20
4416.5219340000012
 30
0.0
  0
ENDBLK
  5
7B80
  8
0
  0
BLOCK
  8
0
  2
*D5
 70
     1
 10
0.0
 20
0.0
 30
0.0
  3
*D5
  1

  0
LINE
  5
7DBF
  8
3
 62
     0
 10
4484.9418850000002
 20
4205.5236499999992
 30
0.0
 11
4484.9418850000002
 21
4391.4698169999992
 31
0.0
  0
LINE
  5
7DC0
  8
3
 62
     0
 10
5084.9418850000002
 20
4205.5236499999992
 30
0.0
 11
5084.9418850000002
 21
4391.4698169999992
 31
0.0
  0
LINE
  5
7DC1
  8
3
 62
     0
 10
4544.9418850000002
 20
4361.4698170000001
 30
0.0
 11
5024.9418850000002
 21
4361.4698170000001
 31
0.0
  0
INSERT
  5
7DC2
  8
3
 62
     0
  2
_OPEN
 10
4484.9418850000002
 20
4361.4698170000001
 30
0.0
 41
60.0
 42
60.0
 43
60.0
 50
180.0
  0
INSERT
  5
7DC3
  8
3
 62
     0
  2
_OPEN
 10
5084.9418850000002
 20
4361.4698170000001
 30
0.0
 41
60.0
 42
60.0
 43
60.0
  0
TEXT
  8
3
  40
90
  5
7E31
  62
0
  72
0
  71
0
 10
4596.29
 20
4277.17
 30
0.000000
  1
600
  0
POINT
  5
7DC5
  8
DEFPOINTS
 62
     0
 10
4484.9418850000002
 20
4190.5236500000001
 30
0.0
  0
POINT
  5
7DC6
  8
DEFPOINTS
 62
     0
 10
5084.9418850000002
 20
4190.5236500000001
 30
0.0
  0
POINT
  5
7DC7
  8
DEFPOINTS
 62
     0
 10
5084.9418850000002
 20
4361.4698170000001
 30
0.0
  0
ENDBLK
  5
7B99
  8
0
  0
BLOCK
  8
0
  2
*D6
 70
     1
 10
0.0
 20
0.0
 30
0.0
  3
*D6
  1

  0
LINE
  5
7DC8
  8
3
 62
     0
 10
5103.9418850000011
 20
4037.9736499999999
 30
0.0
 11
5442.9174580000008
 21
4037.973649999999
 31
0.0
  0
LINE
  5
7DC9
  8
3
 62
     0
 10
5103.9418850000011
 20
3187.973649999999
 30
0.0
 11
5442.9174580000008
 21
3187.973649999999
 31
0.0
  0
LINE
  5
7DCA
  8
3
 62
     0
 10
5412.9174580000008
 20
3977.9736499999999
 30
0.0
 11
5412.9174580000008
 21
3247.973649999999
 31
0.0
  0
INSERT
  5
7DCB
  8
3
 62
     0
  2
_OPEN
 10
5412.9174580000008
 20
4037.973649999999
 30
0.0
 41
60.0
 42
60.0
 43
60.0
 50
90.0
  0
INSERT
  5
7DCC
  8
3
 62
     0
  2
_OPEN
 10
5412.9174580000008
 20
3187.973649999999
 30
0.0
 41
60.0
 42
60.0
 43
60.0
 50
270.0
  0
TEXT
  8
3
  40
90
  5
7E32
  62
0
  72
0
  71
0
 10
5157.92
 20
3462.02
 30
0.000000
  1
φ850
  0
POINT
  5
7DCE
  8
DEFPOINTS
 62
     0
 10
5088.9418850000002
 20
4037.9736499999999
 30
0.0
  0
POINT
  5
7DCF
  8
DEFPOINTS
 62
     0
 10
5088.9418850000002
 20
3187.973649999999
 30
0.0
  0
POINT
  5
7DD0
  8
DEFPOINTS
 62
     0
 10
5412.9174580000008
 20
3187.973649999999
 30
0.0
  0
ENDBLK
  5
7CD0
  8
0
  0
BLOCK
  8
0
  2
*D7
 70
     1
 10
0.0
 20
0.0
 30
0.0
  3
*D7
  1

  0
LINE
  5
7CBC
  8
0
  6
BYBLOCK
 62
     0
 10
5088.9418850000002
 20
4052.9736499999999
 30
0.0
 11
5088.9418850000002
 21
4568.8599909999994
 31
0.0
  0
LINE
  5
7CBD
  8
0
  6
BYBLOCK
 62
     0
 10
4784.9418850000011
 20
4511.3065809999998
 30
0.0
 11
4784.9418850000011
 21
4568.8599909999994
 31
0.0
  0
LINE
  5
7CBE
  8
0
  6
BYBLOCK
 62
     0
 10
5028.9418850000002
 20
4538.8599909999994
 30
0.0
 11
4844.9418850000002
 21
4538.8599909999994
 31
0.0
  0
TEXT
  5
7CBF
  8
3
 62
     0
 10
4819.0847421428571
 20
4571.9744084529484
 30
0.0
 40
90.0
  1
304
  0
INSERT
  5
7CC0
  8
0
  6
BYBLOCK
 62
     0
  2
_OPEN
 10
5088.9418850000002
 20
4538.8599909999994
 30
0.0
 41
60.0
 42
60.0
 43
60.0
  0
INSERT
  5
7CC1
  8
0
  6
BYBLOCK
 62
     0
  2
_OPEN
 10
4784.9418850000011
 20
4538.8599909999994
 30
0.0
 41
60.0
 42
60.0
 43
60.0
 50
180.0
  0
POINT
  5
7CC2
  8
DEFPOINTS
  6
BYBLOCK
 62
     0
 10
5088.9418850000002
 20
4037.9736499999999
 30
0.0
  0
POINT
  5
7CC3
  8
DEFPOINTS
  6
BYBLOCK
 62
     0
 10
4784.9418850000011
 20
4496.3065809999989
 30
0.0
  0
POINT
  5
7CC4
  8
DEFPOINTS
  6
BYBLOCK
 62
     0
 10
4784.9418850000011
 20
4538.8599909999994
 30
0.0
  0
ENDBLK
  5
7CC5
  8
0
  0
BLOCK
  8
0
  2
*D8
 70
     1
 10
0.0
 20
0.0
 30
0.0
  3
*D8
  1

  0
LINE
  5
7DD1
  8
3
 62
     0
 10
4224.9418850000002
 20
4007.9736499999999
 30
0.0
 11
4224.9418850000002
 21
4568.8599909999994
 31
0.0
  0
LINE
  5
7DD2
  8
3
 62
     0
 10
4724.9418850000002
 20
4538.8599909999994
 30
0.0
 11
4284.9418850000002
 21
4538.8599909999994
 31
0.0
  0
INSERT
  5
7DD3
  8
3
 62
     0
  2
_OPEN
 10
4784.9418850000011
 20
4538.8599909999994
 30
0.0
 41
60.0
 42
60.0
 43
60.0
  0
INSERT
  5
7DD4
  8
3
 62
     0
  2
_OPEN
 10
4224.9418850000002
 20
4538.8599909999994
 30
0.0
 41
60.0
 42
60.0
 43
60.0
 50
180.0
  0
TEXT
  8
3
  40
90
  5
7E33
  62
0
  72
0
  71
0
 10
4324.94
 20
4529.56
 30
0.000000
  1
MAX
  0
TEXT
  8
3
  40
90
  5
7E34
  62
0
  72
0
  71
0
 10
4324.94
 20
4412.56
 30
0.000000
  1
610
  0
POINT
  5
7DD6
  8
DEFPOINTS
 62
     0
 10
4784.9418850000011
 20
4496.3065809999989
 30
0.0
  0
POINT
  5
7DD7
  8
DEFPOINTS
 62
     0
 10
4224.9418850000002
 20
3992.973649999999
 30
0.0
  0
POINT
  5
7DD8
  8
DEFPOINTS
 62
     0
 10
4224.9418850000002
 20
4538.8599909999994
 30
0.0
  0
ENDBLK
  5
7CDA
  8
0
  0
BLOCK
  8
0
  2
*D9
 70
     1
 10
0.0
 20
0.0
 30
0.0
  3
*D9
  1

  0
LINE
  5
7DD9
  8
3
 62
     0
 10
1028.036777
 20
6408.282475
 30
0.0
 11
1028.036777
 21
6666.9780540000011
 31
0.0
  0
LINE
  5
7DDA
  8
3
 62
     0
 10
2628.0367769999998
 20
6408.282475
 30
0.0
 11
2628.0367769999998
 21
6666.9780540000011
 31
0.0
  0
LINE
  5
7DDB
  8
3
 62
     0
 10
1088.036777
 20
6636.9780540000002
 30
0.0
 11
2568.0367769999998
 21
6636.9780540000002
 31
0.0
  0
INSERT
  5
7DDC
  8
3
 62
     0
  2
_OPEN
 10
1028.036777
 20
6636.9780540000002
 30
0.0
 41
60.0
 42
60.0
 43
60.0
 50
180.0
  0
INSERT
  5
7DDD
  8
3
 62
     0
  2
_OPEN
 10
2628.0367769999998
 20
6636.9780540000002
 30
0.0
 41
60.0
 42
60.0
 43
60.0
  0
TEXT
  8
3
  40
90
  5
7E35
  62
0
  72
0
  71
0
 10
1597.33
 20
6552.68
 30
0.000000
  1
1600
  0
POINT
  5
7DDF
  8
DEFPOINTS
 62
     0
 10
1028.036777
 20
6393.282475
 30
0.0
  0
POINT
  5
7DE0
  8
DEFPOINTS
 62
     0
 10
2628.0367769999998
 20
6393.282475
 30
0.0
  0
POINT
  5
7DE1
  8
DEFPOINTS
 62
     0
 10
2628.0367769999998
 20
6636.9780540000002
 30
0.0
  0
ENDBLK
  5
7C98
  8
0
  0
BLOCK
  8
0
  2
*D10
 70
     1
 10
0.0
 20
0.0
 30
0.0
  3
*D10
  1

  0
LINE
  5
7DE2
  8
3
 62
     0
 10
2643.0367769999998
 20
6393.282475
 30
0.0
 11
3025.4821930000012
 21
6393.282475
 31
0.0
  0
LINE
  5
7DE3
  8
3
 62
     0
 10
2643.0367769999998
 20
5573.282475
 30
0.0
 11
3025.4821930000012
 21
5573.282475
 31
0.0
  0
LINE
  5
7DE4
  8
3
 62
     0
 10
2995.4821929999998
 20
6333.282475
 30
0.0
 11
2995.4821929999998
 21
5633.282475
 31
0.0
  0
INSERT
  5
7DE5
  8
3
 62
     0
  2
_OPEN
 10
2995.4821929999998
 20
6393.282475
 30
0.0
 41
60.0
 42
60.0
 43
60.0
 50
90.0
  0
INSERT
  5
7DE6
  8
3
 62
     0
  2
_OPEN
 10
2995.4821929999998
 20
5573.282475
 30
0.0
 41
60.0
 42
60.0
 43
60.0
 50
270.0
  0
TEXT
  8
3
  40
90
  5
7E36
  62
0
  72
0
  71
0
 10
2740.48
 20
5847.52
 30
0.000000
  1
820
  0
POINT
  5
7DE8
  8
DEFPOINTS
 62
     0
 10
2628.0367769999998
 20
6393.282475
 30
0.0
  0
POINT
  5
7DE9
  8
DEFPOINTS
 62
     0
 10
2628.0367769999998
 20
5573.282475
 30
0.0
  0
POINT
  5
7DEA
  8
DEFPOINTS
 62
     0
 10
2995.4821929999998
 20
5573.282475
 30
0.0
  0
ENDBLK
  5
7C10
  8
0
  0
BLOCK
  8
0
  2
*D11
 70
     1
 10
0.0
 20
0.0
 30
0.0
  3
*D11
  1

  0
LINE
  5
7DEB
  8
3
 62
     0
 10
2123.0367769999989
 20
4188.9642971068733
 30
0.0
 11
3386.643681999999
 21
4188.9642971068733
 31
0.0
  0
LINE
  5
7DEC
  8
3
 62
     0
 10
3356.6436819999999
 20
3672.973649999999
 30
0.0
 11
3356.6436819999999
 21
4128.9642971068743
 31
0.0
  0
INSERT
  5
7DED
  8
3
 62
     0
  2
_OPEN
 10
3356.6436819999999
 20
3612.973649999999
 30
0.0
 41
60.0
 42
60.0
 43
60.0
 50
270.0
  0
INSERT
  5
7DEE
  8
3
 62
     0
  2
_OPEN
 10
3356.6436819999999
 20
4188.9642971068733
 30
0.0
 41
60.0
 42
60.0
 43
60.0
 50
90.0
  0
TEXT
  8
3
  40
90
  5
7E37
  62
0
  72
0
  71
0
 10
3101.64
 20
3741.67
 30
0.000000
  1
576
  0
POINT
  5
7DF0
  8
DEFPOINTS
 62
     0
 10
2840.7013269999989
 20
3612.9736499999999
 30
0.0
  0
POINT
  5
7DF1
  8
DEFPOINTS
 62
     0
 10
2108.0367769999998
 20
4188.9642971068733
 30
0.0
  0
POINT
  5
7DF2
  8
DEFPOINTS
 62
     0
 10
3356.6436819999999
 20
4188.9642971068733
 30
0.0
  0
ENDBLK
  5
7CF0
  8
0
  0
BLOCK
  8
0
  2
*D12
 70
     1
 10
0.0
 20
0.0
 30
0.0
  3
*D12
  1

  0
LINE
  5
7DF3
  8
3
 62
     0
 10
1444.032551
 20
3627.973649999999
 30
0.0
 11
1444.032551
 21
4446.5219340000003
 31
0.0
  0
LINE
  5
7DF4
  8
3
 62
     0
 10
2048.0367769999989
 20
4416.5219340000012
 30
0.0
 11
1504.032551
 21
4416.5219340000012
 31
0.0
  0
INSERT
  5
7DF5
  8
3
 62
     0
  2
_OPEN
 10
2108.0367769999998
 20
4416.5219340000012
 30
0.0
 41
60.0
 42
60.0
 43
60.0
  0
INSERT
  5
7DF6
  8
3
 62
     0
  2
_OPEN
 10
1444.032551
 20
4416.5219340000012
 30
0.0
 41
60.0
 42
60.0
 43
60.0
 50
180.0
  0
TEXT
  8
3
  40
90
  5
7E38
  62
0
  72
0
  71
0
 10
1596.03
 20
4332.22
 30
0.000000
  1
664
  0
POINT
  5
7DF8
  8
DEFPOINTS
 62
     0
 10
2108.0367769999998
 20
4348.5664100000004
 30
0.0
  0
POINT
  5
7DF9
  8
DEFPOINTS
 62
     0
 10
1444.032551
 20
3612.9736499999999
 30
0.0
  0
POINT
  5
7DFA
  8
DEFPOINTS
 62
     0
 10
1444.032551
 20
4416.5219340000012
 30
0.0
  0
ENDBLK
  5
7C55
  8
0
  0
BLOCK
  8
0
  2
*D13
 70
     1
 10
0.0
 20
0.0
 30
0.0
  3
*D13
  1

  0
LINE
  5
7DFB
  8
3
 62
     0
 10
1028.036777
 20
2432.9736499999999
 30
0.0
 11
1028.036777
 21
2202.4239353313351
 31
0.0
  0
LINE
  5
7DFC
  8
3
 62
     0
 10
2108.0367769999998
 20
2432.9736499999999
 30
0.0
 11
2108.0367769999998
 21
2202.4239353313351
 31
0.0
  0
LINE
  5
7DFD
  8
3
 62
     0
 10
1088.036777
 20
2232.4239353313351
 30
0.0
 11
2048.0367769999989
 21
2232.4239353313351
 31
0.0
  0
INSERT
  5
7DFE
  8
3
 62
     0
  2
_OPEN
 10
1028.036777
 20
2232.4239353313351
 30
0.0
 41
60.0
 42
60.0
 43
60.0
 50
180.0
  0
INSERT
  5
7DFF
  8
3
 62
     0
  2
_OPEN
 10
2108.0367769999998
 20
2232.4239353313351
 30
0.0
 41
60.0
 42
60.0
 43
60.0
  0
TEXT
  8
3
  40
90
  5
7E39
  62
0
  72
0
  71
0
 10
1388.04
 20
2148.12
 30
0.000000
  1
1080
  0
POINT
  5
7E01
  8
DEFPOINTS
 62
     0
 10
1028.036777
 20
2447.9736499999999
 30
0.0
  0
POINT
  5
7E02
  8
DEFPOINTS
 62
     0
 10
2108.0367769999998
 20
2447.9736499999999
 30
0.0
  0
POINT
  5
7E03
  8
DEFPOINTS
 62
     0
 10
2108.0367769999998
 20
2232.4239353313351
 30
0.0
  0
ENDBLK
  5
7D0F
  8
0
  0
BLOCK
  8
0
  2
*D14
 70
     1
 10
0.0
 20
0.0
 30
0.0
  3
*D14
  1

  0
LINE
  5
7E04
  8
3
 62
     0
 10
2108.0367769999998
 20
2432.9736499999999
 30
0.0
 11
2108.0367769999998
 21
2202.4239353313351
 31
0.0
  0
LINE
  5
7E05
  8
3
 62
     0
 10
2628.0367769999998
 20
2432.9736499999999
 30
0.0
 11
2628.0367769999998
 21
2202.4239353313351
 31
0.0
  0
LINE
  5
7E06
  8
3
 62
     0
 10
2168.0367769999998
 20
2232.4239353313351
 30
0.0
 11
2568.0367769999998
 21
2232.4239353313351
 31
0.0
  0
INSERT
  5
7E07
  8
3
 62
     0
  2
_OPEN
 10
2108.0367769999998
 20
2232.4239353313351
 30
0.0
 41
60.0
 42
60.0
 43
60.0
 50
180.0
  0
INSERT
  5
7E08
  8
3
 62
     0
  2
_OPEN
 10
2628.0367769999998
 20
2232.4239353313351
 30
0.0
 41
60.0
 42
60.0
 43
60.0
  0
TEXT
  8
3
  40
90
  5
7E3A
  62
0
  72
0
  71
0
 10
2188.04
 20
2148.12
 30
0.000000
  1
520
  0
POINT
  5
7E0A
  8
DEFPOINTS
 62
     0
 10
2108.0367769999998
 20
2447.9736499999999
 30
0.0
  0
POINT
  5
7E0B
  8
DEFPOINTS
 62
     0
 10
2628.0367769999998
 20
2447.9736499999999
 30
0.0
  0
POINT
  5
7E0C
  8
DEFPOINTS
 62
     0
 10
2628.0367769999998
 20
2232.4239353313351
 30
0.0
  0
ENDBLK
  5
7D1C
  8
0
  0
BLOCK
  8
0
  2
*D15
 70
     1
 10
0.0
 20
0.0
 30
0.0
  3
*D15
  1

  0
LINE
  5
7E0D
  8
3
 62
     0
 10
4316.9418850000002
 20
2432.9736499999999
 30
0.0
 11
4316.9418850000002
 21
2202.4239353313351
 31
0.0
  0
LINE
  5
7E0E
  8
3
 62
     0
 10
4784.9418850000011
 20
2432.9736499999999
 30
0.0
 11
4784.9418850000011
 21
2202.4239353313351
 31
0.0
  0
LINE
  5
7E0F
  8
3
 62
     0
 10
4376.9418849999993
 20
2232.4239353313351
 30
0.0
 11
4724.9418850000011
 21
2232.4239353313351
 31
0.0
  0
INSERT
  5
7E10
  8
3
 62
     0
  2
_OPEN
 10
4316.9418850000002
 20
2232.4239353313351
 30
0.0
 41
60.0
 42
60.0
 43
60.0
 50
180.0
  0
INSERT
  5
7E11
  8
3
 62
     0
  2
_OPEN
 10
4784.9418850000011
 20
2232.4239353313351
 30
0.0
 41
60.0
 42
60.0
 43
60.0
  0
TEXT
  8
3
  40
90
  5
7E3B
  62
0
  72
0
  71
0
 10
4370.94
 20
2148.12
 30
0.000000
  1
468
  0
POINT
  5
7E13
  8
DEFPOINTS
 62
     0
 10
4316.9418850000002
 20
2447.9736499999999
 30
0.0
  0
POINT
  5
7E14
  8
DEFPOINTS
 62
     0
 10
4784.9418850000011
 20
2447.9736499999999
 30
0.0
  0
POINT
  5
7E15
  8
DEFPOINTS
 62
     0
 10
4784.9418850000011
 20
2232.4239353313351
 30
0.0
  0
ENDBLK
  5
7D29
  8
0
  0
BLOCK
  8
0
  2
*D16
 70
     1
 10
0.0
 20
0.0
 30
0.0
  3
*D16
  1

  0
LINE
  5
7E16
  8
3
 62
     0
 10
4784.9418850000011
 20
2432.9736499999999
 30
0.0
 11
4784.9418850000011
 21
2202.4239353313351
 31
0.0
  0
LINE
  5
7E17
  8
3
 62
     0
 10
5136.9418850000002
 20
2432.9736499999999
 30
0.0
 11
5136.9418850000002
 21
2202.4239353313351
 31
0.0
  0
LINE
  5
7E18
  8
3
 62
     0
 10
4844.9418850000011
 20
2232.4239353313351
 30
0.0
 11
5076.9418850000002
 21
2232.4239353313351
 31
0.0
  0
INSERT
  5
7E19
  8
3
 62
     0
  2
_OPEN
 10
4784.9418850000011
 20
2232.4239353313351
 30
0.0
 41
60.0
 42
60.0
 43
60.0
 50
180.0
  0
INSERT
  5
7E1A
  8
3
 62
     0
  2
_OPEN
 10
5136.9418850000002
 20
2232.4239353313351
 30
0.0
 41
60.0
 42
60.0
 43
60.0
  0
TEXT
  8
3
  40
90
  5
7E3C
  62
0
  72
0
  71
0
 10
4780.94
 20
2148.12
 30
0.000000
  1
352
  0
POINT
  5
7E1C
  8
DEFPOINTS
 62
     0
 10
4784.9418850000011
 20
2447.9736499999999
 30
0.0
  0
POINT
  5
7E1D
  8
DEFPOINTS
 62
     0
 10
5136.9418850000002
 20
2447.9736499999999
 30
0.0
  0
POINT
  5
7E1E
  8
DEFPOINTS
 62
     0
 10
5136.9418850000002
 20
2232.4239353313351
 30
0.0
  0
ENDBLK
  5
7D38
  8
0
  0
BLOCK
  8
0
  2
_DOT
 70
     0
 10
0.0
 20
0.0
 30
0.0
  3
_DOT
  1

  0
POLYLINE
  5
7D3C
  8
0
  6
BYBLOCK
 62
     0
 66
     1
 10
0.0
 20
0.0
 30
0.0
 70
     1
 40
0.5
 41
0.5
  0
VERTEX
  5
7E1F
  8
0
  6
BYBLOCK
 62
     0
 10
-0.25
 20
0.0
 30
0.0
 42
1.0
  0
VERTEX
  5
7E20
  8
0
  6
BYBLOCK
 62
     0
 10
0.25
 20
0.0
 30
0.0
 42
1.0
  0
SEQEND
  5
7E21
  8
0
  6
BYBLOCK
 62
     0
  0
LINE
  5
7D40
  8
0
  6
BYBLOCK
 62
     0
 10
-0.5
 20
0.0
 30
0.0
 11
-1.0
 21
0.0
 31
0.0
  0
ENDBLK
  5
7D41
  8
0
  0
BLOCK
  8
0
  2
*D18
 70
     1
 10
0.0
 20
0.0
 30
0.0
  3
*D18
  1

  0
LINE
  5
7E22
  8
3
 62
     0
 10
2643.0367769999998
 20
2547.9736499999999
 30
0.0
 11
3386.38008102195
 21
2547.973649999999
 31
0.0
  0
LINE
  5
7E23
  8
3
 62
     0
 10
2643.0367769999998
 20
2447.9736499999999
 30
0.0
 11
3386.38008102195
 21
2447.973649999999
 31
0.0
  0
LINE
  5
7E24
  8
3
 62
     0
 10
3356.3800810219509
 20
2607.973649999999
 30
0.0
 11
3356.3800810219509
 21
2667.973649999999
 31
0.0
  0
LINE
  5
7E25
  8
3
 62
     0
 10
3356.3800810219509
 20
2387.973649999999
 30
0.0
 11
3356.3800810219509
 21
2053.6879357142839
 31
0.0
  0
LINE
  5
7E26
  8
3
 62
     0
 10
3356.3800810219509
 20
2547.973649999999
 30
0.0
 11
3356.3800810219509
 21
2447.973649999999
 31
0.0
  0
INSERT
  5
7E27
  8
3
 62
     0
  2
_DOT
 10
3356.3800810219509
 20
2547.973649999999
 30
0.0
 41
60.0
 42
60.0
 43
60.0
 50
270.0
  0
INSERT
  5
7E28
  8
3
 62
     0
  2
_OPEN
 10
3356.3800810219509
 20
2447.973649999999
 30
0.0
 41
60.0
 42
60.0
 43
60.0
 50
90.0
  0
TEXT
  8
3
  40
90
  5
7E3D
  62
0
  72
0
  71
0
 10
3101.38
 20
2031.53
 30
0.000000
  1
100
  0
POINT
  5
7E2A
  8
DEFPOINTS
 62
     0
 10
2628.0367769999998
 20
2547.9736499999999
 30
0.0
  0
POINT
  5
7E2B
  8
DEFPOINTS
 62
     0
 10
2628.0367769999998
 20
2447.9736499999999
 30
0.0
  0
POINT
  5
7E2C
  8
DEFPOINTS
 62
     0
 10
3356.3800810219509
 20
2447.973649999999
 30
0.0
  0
ENDBLK
  5
7D4F
  8
0
  0
BLOCK
  8
0
  2
*D19
 70
     1
 10
0.0
 20
0.0
 30
0.0
  3
*D19
  1

  0
LINE
  5
7D53
  8
0
  6
BYBLOCK
 62
     0
 10
2643.0367769999998
 20
2547.9736499999999
 30
0.0
 11
3386.38008102195
 21
2547.9736499999999
 31
0.0
  0
LINE
  5
7D54
  8
0
  6
BYBLOCK
 62
     0
 10
2643.0367769999998
 20
2642.9736499999999
 30
0.0
 11
3386.38008102195
 21
2642.9736499999999
 31
0.0
  0
LINE
  5
7D55
  8
0
  6
BYBLOCK
 62
     0
 10
3356.3800810219509
 20
2487.9736499999999
 30
0.0
 11
3356.3800810219509
 21
2427.9736499999999
 31
0.0
  0
LINE
  5
7D56
  8
0
  6
BYBLOCK
 62
     0
 10
3356.3800810219509
 20
2702.9736499999999
 30
0.0
 11
3356.3800810219509
 21
2762.9736499999999
 31
0.0
  0
TEXT
  5
7D57
  8
3
 62
     0
 10
3529.9515095933789
 20
2464.7593642857141
 30
0.0
 40
90.0
  1
(95)
 50
90.0
  0
LINE
  5
7D58
  8
0
  6
BYBLOCK
 62
     0
 10
3356.3800810219509
 20
2547.9736499999999
 30
0.0
 11
3356.3800810219509
 21
2642.9736499999999
 31
0.0
  0
INSERT
  5
7D59
  8
0
  6
BYBLOCK
 62
     0
  2
_DOT
 10
3356.3800810219509
 20
2547.9736499999999
 30
0.0
 41
60.0
 42
60.0
 43
60.0
 50
90.0
  0
INSERT
  5
7D5A
  8
0
  6
BYBLOCK
 62
     0
  2
_OPEN
 10
3356.3800810219509
 20
2642.9736499999999
 30
0.0
 41
60.0
 42
60.0
 43
60.0
 50
270.0
  0
POINT
  5
7D5B
  8
DEFPOINTS
  6
BYBLOCK
 62
     0
 10
2628.0367769999998
 20
2547.9736499999999
 30
0.0
  0
POINT
  5
7D5C
  8
DEFPOINTS
  6
BYBLOCK
 62
     0
 10
2628.0367769999998
 20
2642.9736499999999
 30
0.0
  0
POINT
  5
7D5D
  8
DEFPOINTS
  6
BYBLOCK
 62
     0
 10
3356.3800810219509
 20
2642.9736499999999
 30
0.0
  0
ENDBLK
  5
7D5E
  8
0
  0
ENDSEC
  0
SECTION
  2
ENTITIES
  0
LINE
  5
7A69
  8
1
 10
5136.9418850000002
 20
2447.9736499999999
 30
0.0
 11
4316.9418850000002
 21
2447.9736499999999
 31
0.0
  0
LINE
  5
7A6A
  8
1
 10
5136.9418850000002
 20
2547.9736499999999
 30
0.0
 11
4316.9418850000002
 21
2547.9736499999999
 31
0.0
  0
LINE
  5
7A6B
  8
1
 10
4484.9418850000002
 20
2825.973649999999
 30
0.0
 11
5084.9418850000002
 21
3650.9736499999999
 31
0.0
  0
LINE
  5
7A6C
  8
1
 10
5084.9418850000002
 20
2825.973649999999
 30
0.0
 11
4484.9418850000002
 21
3650.9736499999999
 31
0.0
  0
LINE
  5
7A6D
  8
1
 10
4484.9418850000002
 20
4190.5236500000001
 30
0.0
 11
5084.9418850000002
 21
4190.5236500000001
 31
0.0
  0
LINE
  5
7A6E
  8
1
 10
5136.9418850000002
 20
2742.9736499999999
 30
0.0
 11
4224.9418850000002
 21
2742.9736499999999
 31
0.0
  0
LINE
  5
7A6F
  8
1
 10
5136.9418850000002
 20
2642.9736499999999
 30
0.0
 11
4316.9418850000002
 21
2642.9736499999999
 31
0.0
  0
LINE
  5
7A70
  8
1
 10
4484.9418850000002
 20
2825.973649999999
 30
0.0
 11
5084.9418850000002
 21
2825.973649999999
 31
0.0
  0
LINE
  5
7A71
  8
1
 10
4484.9418850000002
 20
3650.9736499999999
 30
0.0
 11
5084.9418850000002
 21
3650.9736499999999
 31
0.0
  0
LINE
  5
7A72
  8
1
 10
2628.0367769999998
 20
2447.9736499999999
 30
0.0
 11
1028.036777
 21
2447.9736499999999
 31
0.0
  0
LINE
  5
7A73
  8
1
 10
2628.0367769999998
 20
2547.9736499999999
 30
0.0
 11
1028.036777
 21
2547.9736499999999
 31
0.0
  0
LINE
  5
7A74
  8
1
 10
2703.0367769999989
 20
2825.973649999999
 30
0.0
 11
2108.0367769999998
 21
2844.9736499999999
 31
0.0
  0
ARC
  5
7A75
  8
1
 10
2073.0367769999989
 20
3647.9736499999999
 30
0.0
 40
542.03999999999985
 50
0.32
 51
83.499999999999986
  0
LINE
  5
7A77
  8
1
 10
2628.0367769999998
 20
2742.9736499999999
 30
0.0
 11
1028.036777
 21
2742.9736499999999
 31
0.0
  0
LINE
  5
7A7A
  8
1
 10
2628.0367769999998
 20
2642.9736499999999
 30
0.0
 11
1028.036777
 21
2642.9736499999999
 31
0.0
  0
LINE
  5
7A7B
  8
1
 10
2528.0367769999998
 20
3992.973649999999
 30
0.0
 11
1958.036777
 21
3992.973649999999
 31
0.0
  0
ARC
  5
7A7C
  8
1
 10
2160.0367769999989
 20
3560.973649999999
 30
0.0
 40
717.88999999999987
 50
175.24000000000001
 51
265.85000000000002
  0
ARC
  5
7A7D
  8
1
 10
2064.0367769999989
 20
3568.9736499999999
 30
0.0
 40
621.54999999999995
 50
83.499999999999986
 51
175.24000000000001
  0
LINE
  5
7A7E
  8
1
 10
1958.036777
 20
3992.973649999999
 30
0.0
 11
1048.036777
 21
3042.9736499999999
 31
0.0
  0
LINE
  5
7A7F
  8
1
 10
1154.296777
 20
2997.85365
 30
0.0
 11
1971.7167770000001
 21
3759.3136500000001
 31
0.0
  0
LINE
  5
7A80
  8
1
 10
1243.1367769999999
 20
2878.1536500000002
 30
0.0
 11
2208.646776999999
 21
3440.12365
 31
0.0
  0
LINE
  5
7A81
  8
1
 10
1051.416776999999
 20
2800.973649999999
 30
0.0
 11
1072.7567770000001
 21
2849.9936499999999
 31
0.0
  0
ARC
  5
7A82
  8
1
 10
1205.416776999999
 20
2942.9736499999999
 30
0.0
 40
162.0
 50
324.97000000000003
 51
215.02999999999989
  0
LINE
  5
7A83
  8
1
 10
1028.036777
 20
2547.9736499999999
 30
0.0
 11
1028.036777
 21
2447.9736499999999
 31
0.0
  0
LINE
  5
7A84
  8
1
 10
1028.036777
 20
2742.9736499999999
 30
0.0
 11
1028.036777
 21
2642.9736499999999
 31
0.0
  0
LINE
  5
7A85
  8
1
 10
1048.036777
 20
3042.9736499999999
 30
0.0
 11
1048.036777
 21
2742.9736499999999
 31
0.0
  0
LINE
  5
7A86
  8
1
 10
1051.416776999999
 20
2742.9736499999999
 30
0.0
 11
1051.416776999999
 21
2800.973649999999
 31
0.0
  0
LINE
  5
7A87
  8
2
  6
CENTER
 10
1130.416776999999
 20
2942.9736499999999
 30
0.0
 11
1280.4167769999999
 21
2942.9736499999999
 31
0.0
  0
CIRCLE
  5
7A88
  8
1
 10
1205.416776999999
 20
2942.9736499999999
 30
0.0
 40
75.0
  0
LINE
  5
7A89
  8
2
  6
CENTER
 10
1205.416776999999
 20
2867.9736499999999
 30
0.0
 11
1205.416776999999
 21
3017.9736499999999
 31
0.0
  0
LINE
  5
7A8A
  8
1
 10
1359.416776999999
 20
2742.9736499999999
 30
0.0
 11
1359.416776999999
 21
2800.973649999999
 31
0.0
  0
LINE
  5
7A8B
  8
1
 10
1359.416776999999
 20
2800.973649999999
 30
0.0
 11
1338.066777
 21
2849.9936499999999
 31
0.0
  0
CIRCLE
  5
7A8D
  8
1
 10
2108.0367769999998
 20
3612.9736499999999
 30
0.0
 40
200.0
  0
LINE
  5
7A8E
  8
2
  6
CENTER
 10
5260.7660389999992
 20
3612.9736499999999
 30
0.0
 11
4112.4857149999998
 21
3612.9736499999999
 31
0.0
  0
LINE
  5
7A8F
  8
2
  6
CENTER
 10
2108.0367769999998
 20
6610.6797200000001
 30
0.0
 11
2108.0367769999998
 21
5400.715674
 31
0.0
  0
LINE
  5
7A92
  8
1
 10
2703.0367769999989
 20
3693.4736499999999
 30
0.0
 11
2703.0367769999989
 21
2783.473649999999
 31
0.0
  0
LINE
  5
7A94
  8
1
 10
2528.0367769999998
 20
2742.9736499999999
 30
0.0
 11
2528.0367769999998
 21
3992.973649999999
 31
0.0
  0
LINE
  5
7A95
  8
1
 10
2628.0367769999998
 20
2547.9736499999999
 30
0.0
 11
2628.0367769999998
 21
2447.9736499999999
 31
0.0
  0
LINE
  5
7A96
  8
1
 10
2628.0367769999998
 20
2742.9736499999999
 30
0.0
 11
2628.0367769999998
 21
2642.9736499999999
 31
0.0
  0
LINE
  5
7A97
  8
1
 10
2615.066777
 20
3650.9736499999999
 30
0.0
 11
2703.0367769999989
 21
3650.9736499999999
 31
0.0
  0
LINE
  5
7A98
  8
1
 10
4374.9418850000011
 20
3992.973649999999
 30
0.0
 11
4374.9418850000011
 21
2742.9736499999999
 31
0.0
  0
LINE
  5
7A99
  8
1
 10
4224.9418850000002
 20
3992.973649999999
 30
0.0
 11
4224.9418850000002
 21
2742.9736499999999
 31
0.0
  0
LINE
  5
7A9A
  8
1
 10
4484.9418850000002
 20
4190.5236500000001
 30
0.0
 11
4484.9418850000002
 21
2742.9736499999999
 31
0.0
  0
LINE
  5
7A9B
  8
1
 10
4316.9418850000002
 20
2547.9736499999999
 30
0.0
 11
4316.9418850000002
 21
2447.9736499999999
 31
0.0
  0
LINE
  5
7A9C
  8
1
 10
4264.9418850000002
 20
2867.9736499999999
 30
0.0
 11
4334.9418850000002
 21
2867.9736499999999
 31
0.0
  0
LINE
  5
7A9D
  8
1
 10
4264.9418850000002
 20
3017.9736499999999
 30
0.0
 11
4334.9418850000002
 21
3017.9736499999999
 31
0.0
  0
LINE
  5
7A9E
  8
1
 10
4264.9418850000002
 20
3017.9736499999999
 30
0.0
 11
4264.9418850000002
 21
2867.9736499999999
 31
0.0
  0
LINE
  5
7A9F
  8
1
 10
4334.9418850000002
 20
2921.973649999999
 30
0.0
 11
4484.9418850000002
 21
2921.973649999999
 31
0.0
  0
LINE
  5
7AA0
  8
1
 10
4334.9418850000002
 20
2963.973649999999
 30
0.0
 11
4484.9418850000002
 21
2963.973649999999
 31
0.0
  0
LINE
  5
7AA1
  8
1
 10
4334.9418850000002
 20
3017.9736499999999
 30
0.0
 11
4334.9418850000002
 21
2867.9736499999999
 31
0.0
  0
LINE
  5
7AA2
  8
1
 10
4316.9418850000002
 20
2742.9736499999999
 30
0.0
 11
4316.9418850000002
 21
2642.9736499999999
 31
0.0
  0
LINE
  5
7AA3
  8
1
 10
4264.9418850000002
 20
3412.9736499999999
 30
0.0
 11
4334.9418850000002
 21
3412.9736499999999
 31
0.0
  0
LINE
  5
7AA4
  8
1
 10
4264.9418850000002
 20
3812.973649999999
 30
0.0
 11
4334.9418850000002
 21
3812.973649999999
 31
0.0
  0
LINE
  5
7AA5
  8
1
 10
4374.9418850000011
 20
3992.973649999999
 30
0.0
 11
4224.9418850000002
 21
3992.973649999999
 31
0.0
  0
LINE
  5
7AA6
  8
1
 10
4264.9418850000002
 20
3812.973649999999
 30
0.0
 11
4264.9418850000002
 21
3412.9736499999999
 31
0.0
  0
LINE
  5
7AA7
  8
1
 10
4484.9418850000002
 20
3591.973649999999
 30
0.0
 11
4334.9418850000002
 21
3591.973649999999
 31
0.0
  0
LINE
  5
7AA8
  8
1
 10
4484.9418850000002
 20
3633.9736499999999
 30
0.0
 11
4334.9418850000002
 21
3633.9736499999999
 31
0.0
  0
LINE
  5
7AA9
  8
1
 10
4334.9418850000002
 20
3812.973649999999
 30
0.0
 11
4334.9418850000002
 21
3412.9736499999999
 31
0.0
  0
LINE
  5
7AAA
  8
1
 10
1048.036777
 20
5631.282475
 30
0.0
 11
2528.0367769999998
 21
5631.282475
 31
0.0
  0
LINE
  5
7AAB
  8
1
 10
1048.036777
 20
5481.282475
 30
0.0
 11
2528.0367769999998
 21
5481.282475
 31
0.0
  0
LINE
  5
7AAC
  8
1
 10
1028.036777
 20
6393.282475
 30
0.0
 11
2628.0367769999998
 21
6393.282475
 31
0.0
  0
LINE
  5
7AAD
  8
1
 10
1442.1467769999999
 20
5741.282475
 30
0.0
 11
2703.0367769999989
 21
5741.282475
 31
0.0
  0
LINE
  5
7AAE
  8
1
 10
1442.1467769999999
 20
6341.2824749999991
 30
0.0
 11
2703.0367769999989
 21
6341.2824749999991
 31
0.0
  0
LINE
  5
7AAF
  8
1
 10
2308.0367769999989
 20
5573.282475
 30
0.0
 11
2628.0367769999998
 21
5573.282475
 31
0.0
  0
LINE
  5
7AB0
  8
1
 10
1280.4167769999999
 20
5573.282475
 30
0.0
 11
1908.036777
 21
5573.282475
 31
0.0
  0
LINE
  5
7AB1
  8
1
 10
1442.1467769999999
 20
5741.282475
 30
0.0
 11
1442.1467769999999
 21
6341.2824749999991
 31
0.0
  0
LINE
  5
7AB2
  8
1
 10
1028.036777
 20
6393.282475
 30
0.0
 11
1028.036777
 21
5573.282475
 31
0.0
  0
LINE
  5
7AB3
  8
1
 10
1028.036777
 20
5573.282475
 30
0.0
 11
1130.416776999999
 21
5573.282475
 31
0.0
  0
LINE
  5
7AB4
  8
1
 10
1043.4167769999999
 20
5679.282475
 30
0.0
 11
1367.416776999999
 21
5679.282475
 31
0.0
  0
LINE
  5
7AB5
  8
1
 10
1043.4167769999999
 20
6164.282475
 30
0.0
 11
1367.416776999999
 21
6164.282475
 31
0.0
  0
LINE
  5
7AB6
  8
1
 10
1048.036777
 20
5631.282475
 30
0.0
 11
1048.036777
 21
5481.282475
 31
0.0
  0
LINE
  5
7AB7
  8
1
 10
1043.4167769999999
 20
5679.282475
 30
0.0
 11
1043.4167769999999
 21
6164.282475
 31
0.0
  0
LINE
  5
7AB8
  8
1
 10
1184.416776999999
 20
5591.2824749999991
 30
0.0
 11
1184.416776999999
 21
5679.282475
 31
0.0
  0
LINE
  5
7AB9
  8
1
 10
1226.4167769999999
 20
5591.2824749999991
 30
0.0
 11
1226.4167769999999
 21
5679.282475
 31
0.0
  0
LINE
  5
7ABA
  8
1
 10
1280.4167769999999
 20
5521.282475
 30
0.0
 11
1130.416776999999
 21
5521.282475
 31
0.0
  0
LINE
  5
7ABB
  8
1
 10
1280.4167769999999
 20
5591.2824749999991
 30
0.0
 11
1130.416776999999
 21
5591.2824749999991
 31
0.0
  0
LINE
  5
7ABC
  8
1
 10
1130.416776999999
 20
5521.282475
 30
0.0
 11
1130.416776999999
 21
5591.2824749999991
 31
0.0
  0
LINE
  5
7ABD
  8
1
 10
1280.4167769999999
 20
5521.282475
 30
0.0
 11
1280.4167769999999
 21
5591.2824749999991
 31
0.0
  0
LINE
  5
7ABE
  8
1
 10
1367.416776999999
 20
5679.282475
 30
0.0
 11
1367.416776999999
 21
6164.282475
 31
0.0
  0
LINE
  5
7ABF
  8
1
 10
2308.0367769999989
 20
5521.282475
 30
0.0
 11
1908.036777
 21
5521.282475
 31
0.0
  0
LINE
  5
7AC0
  8
1
 10
2308.0367769999989
 20
5591.2824749999991
 30
0.0
 11
1908.036777
 21
5591.2824749999991
 31
0.0
  0
LINE
  5
7AC1
  8
1
 10
1908.036777
 20
5521.282475
 30
0.0
 11
1908.036777
 21
5591.2824749999991
 31
0.0
  0
LINE
  5
7AC2
  8
1
 10
2129.0367769999998
 20
5591.2824749999991
 30
0.0
 11
2129.0367769999998
 21
5741.282475
 31
0.0
  0
LINE
  5
7AC3
  8
1
 10
2087.0367769999989
 20
5591.2824749999991
 30
0.0
 11
2087.0367769999989
 21
5741.282475
 31
0.0
  0
LINE
  5
7AC4
  8
1
 10
2308.0367769999989
 20
5521.282475
 30
0.0
 11
2308.0367769999989
 21
5591.2824749999991
 31
0.0
  0
LINE
  5
7AC5
  8
1
 10
2703.0367769999989
 20
5699.282475
 30
0.0
 11
2703.0367769999989
 21
6383.282475
 31
0.0
  0
LINE
  5
7AC6
  8
1
 10
2628.0367769999998
 20
5741.282475
 30
0.0
 11
2628.0367769999998
 21
5573.282475
 31
0.0
  0
LINE
  5
7AC7
  8
1
 10
2528.0367769999998
 20
5481.282475
 30
0.0
 11
2528.0367769999998
 21
5631.282475
 31
0.0
  0
LINE
  5
7AC8
  8
1
 10
2628.0367769999998
 20
6393.282475
 30
0.0
 11
2628.0367769999998
 21
6341.2824749999991
 31
0.0
  0
LINE
  5
7AC9
  8
1
 10
5084.9418850000002
 20
4190.5236500000001
 30
0.0
 11
5084.9418850000002
 21
2742.9736499999999
 31
0.0
  0
LINE
  5
7ACA
  8
1
 10
5136.9418850000002
 20
2547.9736499999999
 30
0.0
 11
5136.9418850000002
 21
2447.9736499999999
 31
0.0
  0
LINE
  5
7ACB
  8
1
 10
5136.9418850000002
 20
2742.9736499999999
 30
0.0
 11
5136.9418850000002
 21
2642.9736499999999
 31
0.0
  0
LINE
  5
7ACC
  8
2
  6
CENTER
 10
975.54628900000023
 20
6041.282475
 30
0.0
 11
2826.5619160000001
 21
6041.282475
 31
0.0
  0
LINE
  5
7ACD
  8
2
  6
CENTER
 10
4784.9418850000011
 20
4340.8123379999997
 30
0.0
 11
4784.9418850000011
 21
2447.9736499999999
 31
0.0
  0
LINE
  5
7ACE
  8
2
  6
CENTER
 10
2108.0367769999998
 20
4348.5664100000004
 30
0.0
 11
2108.0367769999998
 21
2447.9736499999999
 31
0.0
  0
LINE
  5
7ACF
  8
2
  6
CENTER
 10
2888.1036589999999
 20
3612.9736499999999
 30
0.0
 11
1346.9081470000001
 21
3612.9736499999999
 31
0.0
  0
LINE
  5
7AD0
  8
4
 10
5550.0
 20
1500.0
 30
0.0
 11
5550.0
 21
900.0
 31
0.0
  0
LINE
  5
7AD1
  8
4
 10
3450.0
 20
1500.0
 30
0.0
 11
3450.0
 21
900.0
 31
0.0
  0
LINE
  5
7AD2
  8
4
 10
1950.0
 20
1500.0
 30
0.0
 11
1950.0
 21
900.0
 31
0.0
  0
LINE
  5
7AD5
  8
4
 10
1950.0
 20
900.0
 30
0.0
 11
5550.0
 21
900.0
 31
0.0
  0
LINE
  5
7AD6
  8
4
 10
1950.0
 20
1200.0
 30
0.0
 11
5550.0
 21
1200.0
 31
0.0
  0
TEXT
  5
7AD7
  8
4
 10
2065.5062429999989
 20
1294.6290779999999
 30
0.0
 40
150.0
  1
機器名称
  0
TEXT
  5
7AD8
  8
4
 10
2058.7743179999989
 20
964.9354699999999
 30
0.0
 40
150.0
  1
機器型番
  0
TEXT
  5
7AD9
  8
4
 10
3533.0362359999999
 20
1267.7153069999999
 30
0.0
 40
150.0
  1
ミツヤ多翼送風機
  0
TEXT
  5
7ADA
  8
4
 10
3559.9634869999991
 20
951.47875299999987
 30
0.0
 40
150.0
  1
MF#5-4
  0
TEXT
  5
7ADC
  8
4
 10
2327.1134179999999
 20
7150.2865239999992
 30
0.0
 40
162.0
  1
床置防振ベット
  0
TEXT
  5
7ADD
  8
4
 10
948.50278000000014
 20
7601.6429289999996
 30
0.0
 40
216.0
  1
ベルト駆動式片吸込両持多翼ファン
  0
LINE
  5
7ADE
  8
4
 10
750.0
 20
7408.2262629999996
 30
0.0
 11
5550.0
 21
7408.2262629999996
 31
0.0
  0
LINE
  5
7ADF
  8
4
 10
750.0
 20
8008.2262629999996
 30
0.0
 11
5550.0
 21
8008.2262629999996
 31
0.0
  0
LINE
  5
7AE0
  8
4
 10
1950.0
 20
1500.0
 30
0.0
 11
5550.0
 21
1500.0
 31
0.0
  0
LINE
  5
7AE1
  8
4
 10
750.0
 20
8008.2262629999996
 30
0.0
 11
750.0
 21
7408.2262629999996
 31
0.0
  0
TEXT
  5
7AE2
  8
4
 10
1019.536921
 20
7146.9584329999998
 30
0.0
 40
162.0
  1
左回転右横向
  0
TEXT
  5
7AE3
  8
4
 10
4406.9086779999989
 20
8118.1832439999989
 30
0.0
 40
168.0
  1
No.
  0
TEXT
  5
7AE4
  8
4
 10
3933.8881879999999
 20
7150.2865239999992
 30
0.0
 40
162.0
  1
縮尺：1/30
  0
LINE
  5
7AE5
  8
4
 10
5550.0
 20
8008.2262629999996
 30
0.0
 11
5550.0
 21
7408.2262629999996
 31
0.0
  0
LINE
  5
7AE7
  8
4
 10
4321.8522670000002
 20
8043.7907490000007
 30
0.0
 11
4321.8522670000002
 21
8359.9567849999985
 31
0.0
  0
LINE
  5
7AE8
  8
4
 10
4321.8522670000002
 20
8359.9567849999985
 30
0.0
 11
5550.0
 21
8359.9567849999985
 31
0.0
  0
LINE
  5
7AE9
  8
4
 10
5550.0
 20
8359.9567849999985
 30
0.0
 11
5550.0
 21
8043.7907490000007
 31
0.0
  0
LINE
  5
7AEA
  8
4
 10
5550.0
 20
8043.7907490000007
 30
0.0
 11
4321.8522670000002
 21
8043.7907490000007
 31
0.0
  0
DIMENSION
  5
7B02
  8
3
  2
*D1
 10
2909.782874
 20
2825.973649999999
 30
0.0
 11
2909.782874
 21
3205.3751280000001
 31
0.0
 70
   128
 13
2703.0367769999989
 23
3650.9736499999999
 33
0.0
 14
2703.0367769999989
 24
2825.973649999999
 34
0.0
 50
90.0
1001
ACAD
1000
DSTYLE
1002
{
1070
   287
1070
     3
1070
    40
1040
30.0
1070
   143
1040
0.039
1070
   172
1070
     1
1070
   271
1070
     0
1070
   279
1070
     0
1070
   288
1070
     1
1002
}
  0
DIMENSION
  5
7B0F
  8
3
  2
*D2
 10
3136.2739529999999
 20
2825.973649999999
 30
0.0
 11
3136.273952999999
 21
3193.1413259999999
 31
0.0
 70
   128
 13
2840.7013269999989
 23
3612.9736499999999
 33
0.0
 14
2703.0367769999989
 24
2825.973649999999
 34
0.0
 50
90.0
1001
ACAD
1000
DSTYLE
1002
{
1070
   287
1070
     3
1070
    40
1040
30.0
1070
   143
1040
0.039
1070
   172
1070
     1
1070
   271
1070
     0
1070
   279
1070
     0
1070
   288
1070
     1
1002
}
  0
DIMENSION
  5
7B3E
  8
3
  2
*D3
 10
3356.6436819999999
 20
2642.973649999999
 30
0.0
 11
3281.643681999999
 21
3127.9736499999999
 31
0.0
 70
     0
 13
2840.7013269999989
 23
3612.9736499999999
 33
0.0
 14
2628.0367769999998
 24
2642.9736499999999
 34
0.0
 50
90.0
1001
ACAD
1000
DSTYLE
1002
{
1070
   287
1070
     3
1070
    40
1040
30.0
1070
   143
1040
0.039
1070
   172
1070
     1
1070
   271
1070
     0
1070
   279
1070
     0
1070
   288
1070
     1
1002
}
  0
DIMENSION
  5
7B81
  8
3
  2
*D4
 10
2108.0367769999998
 20
4416.5219340000012
 30
0.0
 11
2395.5868609999989
 21
4416.5219340000012
 31
0.0
 70
   128
 13
2703.0367769999989
 23
3693.4736499999999
 33
0.0
 14
2108.0367769999998
 24
4348.5664100000004
 34
0.0
1001
ACAD
1000
DSTYLE
1002
{
1070
   287
1070
     3
1070
    40
1040
30.0
1070
   143
1040
0.039
1070
   172
1070
     1
1070
   271
1070
     0
1070
   279
1070
     0
1070
   288
1070
     1
1002
}
  0
DIMENSION
  5
7B9A
  8
3
  2
*D5
 10
5084.9418850000002
 20
4361.4698170000001
 30
0.0
 11
4776.2938329999988
 21
4361.4698170000001
 31
0.0
 70
   128
 13
4484.9418850000002
 23
4190.5236500000001
 33
0.0
 14
5084.9418850000002
 24
4190.5236500000001
 34
0.0
1001
ACAD
1000
DSTYLE
1002
{
1070
   287
1070
     3
1070
    40
1040
30.0
1070
   143
1040
0.039
1070
   172
1070
     1
1070
   271
1070
     0
1070
   279
1070
     0
1070
   288
1070
     1
1002
}
  0
LINE
  5
7B9B
  8
1
 10
5088.9418850000002
 20
4037.9736499999999
 30
0.0
 11
5088.9418850000002
 21
3187.973649999999
 31
0.0
  0
DIMENSION
  5
7BAA
  8
3
  2
*D6
 10
5412.9174580000008
 20
3187.973649999999
 30
0.0
 11
5412.917457999999
 21
3621.3245449999999
 31
0.0
 70
   128
 13
5088.9418850000002
 23
4037.9736499999999
 33
0.0
 14
5088.9418850000002
 24
3187.973649999999
 34
0.0
 50
90.0
1001
ACAD
1000
DSTYLE
1002
{
1070
   287
1070
     3
1070
     3
1000
φ<>
1070
    40
1040
30.0
1070
   143
1040
0.039
1070
   172
1070
     1
1070
   271
1070
     0
1070
   279
1070
     0
1070
   288
1070
     1
1002
}
  0
DIMENSION
  5
7BB9
  8
3
  2
*D7
 10
4784.9418850000011
 20
4538.8599909999994
 30
0.0
 11
4936.9418850000002
 21
4616.9744084529484
 31
0.0
 70
   128
 13
5088.9418850000002
 23
4037.9736499999999
 33
0.0
 14
4784.9418850000011
 24
4496.3065809999989
 34
0.0
1001
ACAD
1000
DSTYLE
1002
{
1070
   288
1070
     1
1070
   172
1070
     1
1070
    40
1040
30.0
1070
   271
1070
     0
1070
   143
1040
0.039
1002
}
  0
DIMENSION
  5
7BC5
  8
3
  2
*D8
 10
4224.9418850000002
 20
4538.8599909999994
 30
0.0
 11
4504.9418850000002
 21
4688.8599910000003
 31
0.0
 70
     0
  1
MAX\P610
 13
4784.9418850000011
 23
4496.3065809999989
 33
0.0
 14
4224.9418850000002
 24
3992.973649999999
 34
0.0
1001
ACAD
1000
DSTYLE
1002
{
1070
   287
1070
     4
1070
    40
1040
30.0
1070
    75
1070
     1
1070
   143
1040
0.039
1070
   172
1070
     1
1070
   271
1070
     0
1070
   279
1070
     1
1070
   288
1070
     1
1002
}
  0
DIMENSION
  5
7C04
  8
3
  2
*D9
 10
2628.0367769999998
 20
6636.9780540000002
 30
0.0
 11
1777.3273819999999
 21
6636.9780540000002
 31
0.0
 70
   128
 13
1028.036777
 23
6393.282475
 33
0.0
 14
2628.0367769999998
 24
6393.282475
 34
0.0
1001
ACAD
1000
DSTYLE
1002
{
1070
   287
1070
     3
1070
    40
1040
30.0
1070
   143
1040
0.039
1070
   172
1070
     1
1070
   271
1070
     0
1070
   279
1070
     0
1070
   288
1070
     1
1002
}
  0
DIMENSION
  5
7C11
  8
3
  2
*D10
 10
2995.4821929999998
 20
5573.282475
 30
0.0
 11
2995.4821929999989
 21
6006.8179250000003
 31
0.0
 70
   128
 13
2628.0367769999998
 23
6393.282475
 33
0.0
 14
2628.0367769999998
 24
5573.282475
 34
0.0
 50
90.0
1001
ACAD
1000
DSTYLE
1002
{
1070
   287
1070
     3
1070
    40
1040
30.0
1070
   143
1040
0.039
1070
   172
1070
     1
1070
   271
1070
     0
1070
   279
1070
     0
1070
   288
1070
     1
1002
}
  0
DIMENSION
  5
7C3D
  8
3
  2
*D11
 10
3356.6436819999999
 20
4188.9642971068733
 30
0.0
 11
3281.643681999999
 21
3900.9689735534371
 31
0.0
 70
     0
 13
2840.7013269999989
 23
3612.9736499999999
 33
0.0
 14
2108.0367769999998
 24
4188.9642971068733
 34
0.0
 50
90.0
1001
ACAD
1000
DSTYLE
1002
{
1070
   287
1070
     4
1070
    40
1040
30.0
1070
    75
1070
     1
1070
   143
1040
0.039
1070
   172
1070
     1
1070
   271
1070
     0
1070
   279
1070
     1
1070
   288
1070
     1
1002
}
  0
DIMENSION
  5
7C56
  8
3
  2
*D12
 10
1444.032551
 20
4416.5219340000012
 30
0.0
 11
1776.0346639999991
 21
4491.5219340000003
 31
0.0
 70
     0
 13
2108.0367769999998
 23
4348.5664100000004
 33
0.0
 14
1444.032551
 24
3612.9736499999999
 34
0.0
1001
ACAD
1000
DSTYLE
1002
{
1070
   287
1070
     4
1070
    40
1040
30.0
1070
    75
1070
     1
1070
   143
1040
0.039
1070
   172
1070
     1
1070
   271
1070
     0
1070
   279
1070
     1
1070
   288
1070
     1
1002
}
  0
DIMENSION
  5
7D10
  8
3
  2
*D13
 10
2108.0367769999998
 20
2232.4239353313351
 30
0.0
 11
1568.036777
 21
2307.4239353313351
 31
0.0
 70
     0
 13
1028.036777
 23
2447.9736499999999
 33
0.0
 14
2108.0367769999998
 24
2447.9736499999999
 34
0.0
1001
ACAD
1000
DSTYLE
1002
{
1070
   287
1070
     3
1070
    40
1040
30.0
1070
   143
1040
0.039
1070
   172
1070
     1
1070
   271
1070
     0
1070
   279
1070
     0
1002
}
  0
DIMENSION
  5
7D1D
  8
3
  2
*D14
 10
2628.0367769999998
 20
2232.4239353313351
 30
0.0
 11
2368.0367769999989
 21
2307.4239353313351
 31
0.0
 70
     0
 13
2108.0367769999998
 23
2447.9736499999999
 33
0.0
 14
2628.0367769999998
 24
2447.9736499999999
 34
0.0
1001
ACAD
1000
DSTYLE
1002
{
1070
   287
1070
     3
1070
    40
1040
30.0
1070
   143
1040
0.039
1070
   172
1070
     1
1070
   271
1070
     0
1070
   279
1070
     0
1002
}
  0
DIMENSION
  5
7D2A
  8
3
  2
*D15
 10
4784.9418850000011
 20
2232.4239353313351
 30
0.0
 11
4550.9418850000002
 21
2307.4239353313351
 31
0.0
 70
     0
 13
4316.9418850000002
 23
2447.9736499999999
 33
0.0
 14
4784.9418850000011
 24
2447.9736499999999
 34
0.0
1001
ACAD
1000
DSTYLE
1002
{
1070
   287
1070
     3
1070
    40
1040
30.0
1070
   143
1040
0.039
1070
   172
1070
     1
1070
   271
1070
     0
1070
   279
1070
     0
1002
}
  0
DIMENSION
  5
7D39
  8
3
  2
*D16
 10
5136.9418850000002
 20
2232.4239353313351
 30
0.0
 11
4960.9418850000002
 21
2307.4239353313351
 31
0.0
 70
     0
 13
4784.9418850000011
 23
2447.9736499999999
 33
0.0
 14
5136.9418850000002
 24
2447.9736499999999
 34
0.0
1001
ACAD
1000
DSTYLE
1002
{
1070
   287
1070
     3
1070
    40
1040
30.0
1070
   143
1040
0.039
1070
   172
1070
     1
1070
   271
1070
     0
1070
   279
1070
     0
1002
}
  0
DIMENSION
  5
7D50
  8
3
  2
*D18
 10
3356.3800810219509
 20
2447.973649999999
 30
0.0
 11
3281.38008102195
 21
2190.830792857143
 31
0.0
 70
     0
 13
2628.0367769999998
 23
2547.9736499999999
 33
0.0
 14
2628.0367769999998
 24
2447.9736499999999
 34
0.0
 50
90.0
1001
ACAD
1000
DSTYLE
1002
{
1070
   287
1070
     3
1070
    40
1040
30.0
1070
   143
1040
0.039
1070
   172
1070
     1
1070
   271
1070
     0
1070
   279
1070
     0
1070
     6
1000
DOT
1002
}
  0
DIMENSION
  5
7D5F
  8
3
  2
*D19
 10
3356.3800810219509
 20
2642.9736499999999
 30
0.0
 11
3499.9515095933789
 21
2595.4736499999999
 31
0.0
 70
     0
 13
2628.0367769999998
 23
2547.9736499999999
 33
0.0
 14
2628.0367769999998
 24
2642.9736499999999
 34
0.0
 50
90.0
1001
ACAD
1000
DSTYLE
1002
{
1070
   172
1070
     1
1070
    40
1040
30.0
1070
     3
1000
(<>)
1070
   271
1070
     0
1070
     6
1000
_DOT
1070
   143
1040
0.039
1002
}
  0
LINE
  5
7D7C
  8
1
  6
CONTINUOUS
 10
1608.0367769999989
 20
3742.9736499999999
 30
0.0
 11
2608.0367769999989
 21
3742.9736499999999
 31
0.0
  0
LINE
  5
7D7D
  8
1
 10
1608.0367769999989
 20
3742.9736499999999
 30
0.0
 11
1608.0367769999989
 21
2742.9736499999999
 31
0.0
  0
LINE
  5
7D7E
  8
1
 10
2608.0367769999989
 20
3742.9736499999999
 30
0.0
 11
2608.0367769999998
 21
2742.9736499999999
 31
0.0
  0
ENDSEC
  0
EOF
