  0
SECTION
  2
HEADER
  9
$ACADVER
  1
AC1009
  9
$INSBASE
 10
0.0
 20
0.0
 30
0.0
  9
$EXTMIN
 10
750.0
 20
900.0
 30
0.0
  9
$EXTMAX
 10
5550.0
 20
8359.9567849999985
 30
0.0
  9
$LIMMIN
 10
0.0
 20
0.0
  9
$LIMMAX
 10
297.0
 20
210.0
  9
$ORTHOMODE
 70
     0
  9
$REGENMODE
 70
     1
  9
$FILLMODE
 70
     0
  9
$QTEXTMODE
 70
     0
  9
$MIRRTEXT
 70
     1
  9
$DRAGMODE
 70
     2
  9
$LTSCALE
 40
100.0
  9
$OSMODE
 70
    37
  9
$ATTMODE
 70
     1
  9
$TEXTSIZE
 40
180.0
  9
$TRACEWID
 40
0.05
  9
$TEXTSTYLE
  7
STANDARD
  9
$CLAYER
  8
3
  9
$CELTYPE
  6
BYLAYER
  9
$CECOLOR
 62
   256
  9
$DIMSCALE
 40
30.0
  9
$DIMASZ
 40
2.0
  9
$DIMEXO
 40
0.5
  9
$DIMDLI
 40
10.0
  9
$DIMRND
 40
0.0
  9
$DIMDLE
 40
0.0
  9
$DIMEXE
 40
1.0
  9
$DIMTP
 40
1.0
  9
$DIMTM
 40
1.0
  9
$DIMTXT
 40
3.0
  9
$DIMCEN
 40
0.0
  9
$DIMTSZ
 40
0.0
  9
$DIMTOL
 70
     0
  9
$DIMLIM
 70
     0
  9
$DIMTIH
 70
     0
  9
$DIMTOH
 70
     0
  9
$DIMSE1
 70
     0
  9
$DIMSE2
 70
     0
  9
$DIMTAD
 70
     1
  9
$DIMZIN
 70
     8
  9
$DIMBLK
  1

  9
$DIMASO
 70
     1
  9
$DIMSHO
 70
     1
  9
$DIMPOST
  1

  9
$DIMAPOST
  1

  9
$DIMALT
 70
     0
  9
$DIMALTD
 70
     2
  9
$DIMALTF
 40
0.039
  9
$DIMLFAC
 40
1.0
  9
$DIMTOFL
 70
     1
  9
$DIMTVP
 40
0.0
  9
$DIMTIX
 70
     0
  9
$DIMSOXD
 70
     0
  9
$DIMSAH
 70
     1
  9
$DIMBLK1
  1
OPEN
  9
$DIMBLK2
  1
OPEN
  9
$DIMSTYLE
  2
IGA
  9
$DIMCLRD
 70
     0
  9
$DIMCLRE
 70
     0
  9
$DIMCLRT
 70
     0
  9
$DIMTFAC
 40
10.0
  9
$DIMGAP
 40
1.0
  9
$LUNITS
 70
     2
  9
$LUPREC
 70
     3
  9
$SKETCHINC
 40
0.1
  9
$FILLETRAD
 40
0.0
  9
$AUNITS
 70
     0
  9
$AUPREC
 70
     0
  9
$MENU
  1
acad
  9
$ELEVATION
 40
0.0
  9
$PELEVATION
 40
0.0
  9
$THICKNESS
 40
0.0
  9
$LIMCHECK
 70
     0
  9
$BLIPMODE
 70
     0
  9
$CHAMFERA
 40
0.5
  9
$CHAMFERB
 40
0.5
  9
$SKPOLY
 70
     0
  9
$TDCREATE
 40
2450746.4994608788
  9
$TDUPDATE
 40
2454953.7755649532
  9
$TDINDWG
 40
0.0168248148
  9
$TDUSRTIMER
 40
0.0168248148
  9
$USRTIMER
 70
     1
  9
$ANGBASE
 50
0.0
  9
$ANGDIR
 70
     0
  9
$PDMODE
 70
     0
  9
$PDSIZE
 40
0.0
  9
$PLINEWID
 40
0.0
  9
$COORDS
 70
     1
  9
$SPLFRAME
 70
     0
  9
$SPLINETYPE
 70
     6
  9
$SPLINESEGS
 70
     8
  9
$ATTDIA
 70
     0
  9
$ATTREQ
 70
     1
  9
$HANDLING
 70
 10241
  9
$HANDSEED
  5
7E5D
  9
$SURFTAB1
 70
     6
  9
$SURFTAB2
 70
     6
  9
$SURFTYPE
 70
     6
  9
$SURFU
 70
     6
  9
$SURFV
 70
     6
  9
$UCSNAME
  2

  9
$UCSORG
 10
0.0
 20
0.0
 30
0.0
  9
$UCSXDIR
 10
1.0
 20
0.0
 30
0.0
  9
$UCSYDIR
 10
0.0
 20
1.0
 30
0.0
  9
$PUCSNAME
  2

  9
$PUCSORG
 10
0.0
 20
0.0
 30
0.0
  9
$PUCSXDIR
 10
1.0
 20
0.0
 30
0.0
  9
$PUCSYDIR
 10
0.0
 20
1.0
 30
0.0
  9
$USERI1
 70
     0
  9
$USERI2
 70
     0
  9
$USERI3
 70
     0
  9
$USERI4
 70
     0
  9
$USERI5
 70
     0
  9
$USERR1
 40
0.0
  9
$USERR2
 40
0.0
  9
$USERR3
 40
0.0
  9
$USERR4
 40
0.0
  9
$USERR5
 40
0.0
  9
$WORLDVIEW
 70
     1
  9
$SHADEDGE
 70
     3
  9
$SHADEDIF
 70
    70
  9
$TILEMODE
 70
     1
  9
$MAXACTVP
 70
    16
  9
$PLIMCHECK
 70
     0
  9
$PEXTMIN
 10
1.0000000000000000E+020
 20
1.0000000000000000E+020
 30
1.0000000000000000E+020
  9
$PEXTMAX
 10
-1.0000000000000000E+020
 20
-1.0000000000000000E+020
 30
-1.0000000000000000E+020
  9
$PLIMMIN
 10
0.0
 20
0.0
  9
$PLIMMAX
 10
12.0
 20
9.0
  9
$UNITMODE
 70
     0
  9
$VISRETAIN
 70
     0
  9
$PLINEGEN
 70
     0
  9
$PSLTSCALE
 70
     1
  0
ENDSEC
  0
SECTION
  2
TABLES
  0
TABLE
  2
VPORT
 70
     2
  0
VPORT
  2
*ACTIVE
 70
     0
 10
0.0
 20
0.0
 11
1.0
 21
1.0
 12
9438.1687158055174
 22
4629.9562499988788
 13
0.0
 23
0.0
 14
10.0
 24
10.0
 15
10.0
 25
10.0
 16
0.0
 26
0.0
 36
1.0
 17
0.0
 27
0.0
 37
0.0
 40
7517.2452868940854
 41
3.1666666666666661
 42
50.0
 43
0.0
 44
0.0
 50
0.0
 51
0.0
 71
     0
 72
   100
 73
     1
 74
     0
 75
     0
 76
     0
 77
     0
 78
     0
  0
ENDTAB
  0
TABLE
  2
LTYPE
 70
     2
  0
LTYPE
  2
CONTINUOUS
 70
     0
  3
Solid line
 72
    65
 73
     0
 40
0.0
  0
LTYPE
  2
CENTER
 70
     0
  3
____ _ ____ _ ____ _ ____ _ ____ _ ____ _ ____ 
 72
    65
 73
     4
 40
2.0
 49
1.25
 49
-0.25
 49
0.25
 49
-0.25
  0
ENDTAB
  0
TABLE
  2
LAYER
 70
     6
  0
LAYER
  2
0
 70
     0
 62
     7
  6
CONTINUOUS
  0
LAYER
  2
3
 70
     0
 62
     2
  6
CONTINUOUS
  0
LAYER
  2
2
 70
     0
 62
     3
  6
CENTER
  0
LAYER
  2
1
 70
     0
 62
     4
  6
CONTINUOUS
  0
LAYER
  2
4
 70
     0
 62
     7
  6
CONTINUOUS
  0
LAYER
  2
DEFPOINTS
 70
     0
 62
     7
  6
CONTINUOUS
  0
ENDTAB
  0
TABLE
  2
STYLE
 70
     1
  0
STYLE
  2
STANDARD
 70
     0
 40
0.0
 41
1.0
 50
0.0
 71
     0
 42
180.0
  3
simplex.shx
  4
extfont.shx
  0
ENDTAB
  0
TABLE
  2
VIEW
 70
     0
  0
ENDTAB
  0
TABLE
  2
UCS
 70
     0
  0
ENDTAB
  0
TABLE
  2
APPID
 70
     1
  0
APPID
  2
ACAD
 70
     0
  0
ENDTAB
  0
TABLE
  2
DIMSTYLE
 70
     1
  0
DIMSTYLE
  2
IGA
 70
     0
  3

  4

  5

  6
OPEN
  7
OPEN
 40
2.0
 41
2.0
 42
0.5
 43
10.0
 44
1.0
 45
0.0
 46
0.0
 47
1.0
 48
1.0
140
3.0
141
0.0
142
0.0
143
0.03937
144
1.0
145
0.0
146
10.0
147
1.0
 71
     0
 72
     0
 73
     0
 74
     0
 75
     0
 76
     0
 77
     1
 78
     8
170
     0
171
     2
172
     0
173
     1
174
     0
175
     0
176
     0
177
     0
178
     0
  0
ENDTAB
  0
ENDSEC
  0
SECTION
  2
BLOCKS
  0
BLOCK
  8
0
  2
$MODEL_SPACE
 70
     0
 10
0.0
 20
0.0
 30
0.0
  3
$MODEL_SPACE
  1

  0
ENDBLK
  5
1B
  8
0
  0
BLOCK
 67
     1
  8
0
  2
$PAPER_SPACE
 70
     0
 10
0.0
 20
0.0
 30
0.0
  3
$PAPER_SPACE
  1

  0
ENDBLK
  5
18
 67
     1
  8
0
  0
BLOCK
  8
0
  2
_OPEN
 70
     0
 10
0.0
 20
0.0
 30
0.0
  3
_OPEN
  1

  0
LINE
  5
7B79
  8
0
  6
BYBLOCK
 62
     0
 10
-1.0
 20
0.166667
 30
0.0
 11
0.0
 21
0.0
 31
0.0
  0
LINE
  5
7B7A
  8
0
  6
BYBLOCK
 62
     0
 10
0.0
 20
0.0
 30
0.0
 11
-1.0
 21
-0.166667
 31
0.0
  0
LINE
  5
7B7B
  8
0
  6
BYBLOCK
 62
     0
 10
0.0
 20
0.0
 30
0.0
 11
-1.0
 21
0.0
 31
0.0
  0
ENDBLK
  5
7B7C
  8
0
  0
BLOCK
  8
0
  2
*D1
 70
     1
 10
0.0
 20
0.0
 30
0.0
  3
*D1
  1

  0
LINE
  5
7DB5
  8
3
  6
CONTINUOUS
 62
     0
 10
1722.552703999999
 20
3732.0484390000001
 30
0.0
 11
1573.7728990000001
 21
3732.0484390000001
 31
0.0
  0
LINE
  5
7DB6
  8
3
  6
CONTINUOUS
 62
     0
 10
1722.552703999999
 20
2907.0484390000001
 30
0.0
 11
1573.7728990000001
 21
2907.0484390000001
 31
0.0
  0
LINE
  5
7DB7
  8
3
  6
CONTINUOUS
 62
     0
 10
1603.7728990000001
 20
3672.0484390000001
 30
0.0
 11
1603.7728990000001
 21
2967.0484390000001
 31
0.0
  0
INSERT
  5
7DB8
  8
3
  6
CONTINUOUS
 62
     0
  2
_OPEN
 10
1603.7728990000001
 20
3732.0484390000001
 30
0.0
 41
60.0
 42
60.0
 43
60.0
 50
90.0
  0
INSERT
  5
7DB9
  8
3
  6
CONTINUOUS
 62
     0
  2
_OPEN
 10
1603.7728990000001
 20
2907.0484390000001
 30
0.0
 41
60.0
 42
60.0
 43
60.0
 50
270.0
  0
TEXT
  8
3
  40
90
  5
7E4B
  62
0
  72
0
  71
0
 10
1348.77
 20
3132.94
 30
0.000000
  1
825
  0
POINT
  5
7DBB
  8
DEFPOINTS
  6
CONTINUOUS
 62
     0
 10
1737.5527039999999
 20
3732.0484390000001
 30
0.0
  0
POINT
  5
7DBC
  8
DEFPOINTS
  6
CONTINUOUS
 62
     0
 10
1737.5527039999999
 20
2907.0484390000001
 30
0.0
  0
POINT
  5
7DBD
  8
DEFPOINTS
  6
CONTINUOUS
 62
     0
 10
1603.7728990000001
 20
2907.0484390000001
 30
0.0
  0
ENDBLK
  5
7B89
  8
0
  0
BLOCK
  8
0
  2
*D2
 70
     1
 10
0.0
 20
0.0
 30
0.0
  3
*D2
  1

  0
LINE
  5
7DBE
  8
3
  6
CONTINUOUS
 62
     0
 10
1722.552703999999
 20
2907.0484390000001
 30
0.0
 11
1375.866014
 21
2907.0484390000001
 31
0.0
  0
LINE
  5
7DBF
  8
3
  6
CONTINUOUS
 62
     0
 10
1674.7172350000001
 20
3694.0484390000001
 30
0.0
 11
1375.866014
 21
3694.0484390000001
 31
0.0
  0
LINE
  5
7DC0
  8
3
  6
CONTINUOUS
 62
     0
 10
1405.866014
 20
2967.0484390000001
 30
0.0
 11
1405.866014
 21
3634.0484390000001
 31
0.0
  0
INSERT
  5
7DC1
  8
3
  6
CONTINUOUS
 62
     0
  2
_OPEN
 10
1405.866014
 20
2907.0484390000001
 30
0.0
 41
60.0
 42
60.0
 43
60.0
 50
270.0
  0
INSERT
  5
7DC2
  8
3
  6
CONTINUOUS
 62
     0
  2
_OPEN
 10
1405.866014
 20
3694.0484390000001
 30
0.0
 41
60.0
 42
60.0
 43
60.0
 50
90.0
  0
TEXT
  8
3
  40
90
  5
7E4C
  62
0
  72
0
  71
0
 10
1150.87
 20
3144.93
 30
0.000000
  1
787
  0
POINT
  5
7DC4
  8
DEFPOINTS
  6
CONTINUOUS
 62
     0
 10
1737.5527039999999
 20
2907.0484390000001
 30
0.0
  0
POINT
  5
7DC5
  8
DEFPOINTS
  6
CONTINUOUS
 62
     0
 10
1689.7172350000001
 20
3694.0484390000001
 30
0.0
  0
POINT
  5
7DC6
  8
DEFPOINTS
  6
CONTINUOUS
 62
     0
 10
1405.866014
 20
3694.0484390000001
 30
0.0
  0
ENDBLK
  5
7B96
  8
0
  0
BLOCK
  8
0
  2
*D3
 70
     1
 10
0.0
 20
0.0
 30
0.0
  3
*D3
  1

  0
LINE
  5
7DC7
  8
3
  6
CONTINUOUS
 62
     0
 10
1674.7172350000001
 20
3694.0484390000001
 30
0.0
 11
1177.959096
 21
3694.0484390000001
 31
0.0
  0
LINE
  5
7DC8
  8
3
  6
CONTINUOUS
 62
     0
 10
1797.5527039999999
 20
2724.0484390000001
 30
0.0
 11
1177.959096
 21
2724.0484390000001
 31
0.0
  0
LINE
  5
7DC9
  8
3
  6
CONTINUOUS
 62
     0
 10
1207.959096
 20
3634.0484390000001
 30
0.0
 11
1207.959096
 21
2784.0484390000001
 31
0.0
  0
INSERT
  5
7DCA
  8
3
  6
CONTINUOUS
 62
     0
  2
_OPEN
 10
1207.959096
 20
3694.0484390000001
 30
0.0
 41
60.0
 42
60.0
 43
60.0
 50
90.0
  0
INSERT
  5
7DCB
  8
3
  6
CONTINUOUS
 62
     0
  2
_OPEN
 10
1207.959096
 20
2724.0484390000001
 30
0.0
 41
60.0
 42
60.0
 43
60.0
 50
270.0
  0
TEXT
  8
3
  40
90
  5
7E4D
  62
0
  72
0
  71
0
 10
952.959
 20
3049.75
 30
0.000000
  1
970
  0
POINT
  5
7DCD
  8
DEFPOINTS
  6
CONTINUOUS
 62
     0
 10
1689.7172350000001
 20
3694.0484390000001
 30
0.0
  0
POINT
  5
7DCE
  8
DEFPOINTS
  6
CONTINUOUS
 62
     0
 10
1812.5527039999999
 20
2724.0484390000001
 30
0.0
  0
POINT
  5
7DCF
  8
DEFPOINTS
  6
CONTINUOUS
 62
     0
 10
1207.959096
 20
2724.0484390000001
 30
0.0
  0
ENDBLK
  5
7D7C
  8
0
  0
BLOCK
  8
0
  2
*D4
 70
     1
 10
0.0
 20
0.0
 30
0.0
  3
*D4
  1

  0
LINE
  5
7DD0
  8
3
  6
CONTINUOUS
 62
     0
 10
1797.5527039999999
 20
2724.0484390000001
 30
0.0
 11
1175.7667550000001
 21
2724.0484390000001
 31
0.0
  0
LINE
  5
7DD1
  8
3
  6
CONTINUOUS
 62
     0
 10
1797.5527039999999
 20
2599.0484390000001
 30
0.0
 11
1175.7667550000001
 21
2599.0484390000001
 31
0.0
  0
LINE
  5
7DD2
  8
3
  6
CONTINUOUS
 62
     0
 10
1205.7667550000001
 20
2784.0484390000001
 30
0.0
 11
1205.7667550000001
 21
2844.0484390000001
 31
0.0
  0
LINE
  5
7DD3
  8
3
  6
CONTINUOUS
 62
     0
 10
1205.7667550000001
 20
2539.0484390000001
 30
0.0
 11
1205.7667550000001
 21
2204.762724714285
 31
0.0
  0
LINE
  5
7DD4
  8
3
  6
CONTINUOUS
 62
     0
 10
1205.7667550000001
 20
2724.0484390000001
 30
0.0
 11
1205.7667550000001
 21
2599.0484390000001
 31
0.0
  0
INSERT
  5
7DD5
  8
3
  6
CONTINUOUS
 62
     0
  2
_OPEN
 10
1205.7667550000001
 20
2724.0484390000001
 30
0.0
 41
60.0
 42
60.0
 43
60.0
 50
270.0
  0
INSERT
  5
7DD6
  8
3
  6
CONTINUOUS
 62
     0
  2
_OPEN
 10
1205.7667550000001
 20
2599.0484390000001
 30
0.0
 41
60.0
 42
60.0
 43
60.0
 50
90.0
  0
TEXT
  8
3
  40
90
  5
7E4E
  62
0
  72
0
  71
0
 10
950.767
 20
2182.61
 30
0.000000
  1
125
  0
POINT
  5
7DD8
  8
DEFPOINTS
  6
CONTINUOUS
 62
     0
 10
1812.5527039999999
 20
2724.0484390000001
 30
0.0
  0
POINT
  5
7DD9
  8
DEFPOINTS
  6
CONTINUOUS
 62
     0
 10
1812.5527039999999
 20
2599.0484390000001
 30
0.0
  0
POINT
  5
7DDA
  8
DEFPOINTS
  6
CONTINUOUS
 62
     0
 10
1205.7667550000001
 20
2599.0484390000001
 30
0.0
  0
ENDBLK
  5
7D4A
  8
0
  0
BLOCK
  8
0
  2
*D5
 70
     1
 10
0.0
 20
0.0
 30
0.0
  3
*D5
  1

  0
LINE
  5
7DDB
  8
3
  6
CONTINUOUS
 62
     0
 10
1812.5527039999999
 20
2584.0484390000001
 30
0.0
 11
1812.5527039999999
 21
2311.0471210000001
 31
0.0
  0
LINE
  5
7DDC
  8
3
  6
CONTINUOUS
 62
     0
 10
2332.5527039999988
 20
2456.7345970000001
 30
0.0
 11
2332.5527039999988
 21
2311.0471210000001
 31
0.0
  0
LINE
  5
7DDD
  8
3
  6
CONTINUOUS
 62
     0
 10
1872.5527039999999
 20
2341.0471210000001
 30
0.0
 11
2272.5527040000002
 21
2341.0471210000001
 31
0.0
  0
INSERT
  5
7DDE
  8
3
  6
CONTINUOUS
 62
     0
  2
_OPEN
 10
1812.5527039999999
 20
2341.0471210000001
 30
0.0
 41
60.0
 42
60.0
 43
60.0
 50
180.0
  0
INSERT
  5
7DDF
  8
3
  6
CONTINUOUS
 62
     0
  2
_OPEN
 10
2332.5527039999988
 20
2341.0471210000001
 30
0.0
 41
60.0
 42
60.0
 43
60.0
  0
TEXT
  8
3
  40
90
  5
7E4F
  62
0
  72
0
  71
0
 10
1903.55
 20
2256.75
 30
0.000000
  1
520
  0
POINT
  5
7DE1
  8
DEFPOINTS
  6
CONTINUOUS
 62
     0
 10
1812.5527039999999
 20
2599.0484390000001
 30
0.0
  0
POINT
  5
7DE2
  8
DEFPOINTS
  6
CONTINUOUS
 62
     0
 10
2332.5527039999988
 20
2471.7345969999992
 30
0.0
  0
POINT
  5
7DE3
  8
DEFPOINTS
  6
CONTINUOUS
 62
     0
 10
2332.5527039999988
 20
2341.0471210000001
 30
0.0
  0
ENDBLK
  5
7CD1
  8
0
  0
BLOCK
  8
0
  2
*D6
 70
     1
 10
0.0
 20
0.0
 30
0.0
  3
*D6
  1

  0
LINE
  5
7DE4
  8
3
  6
CONTINUOUS
 62
     0
 10
3412.5527039999988
 20
2584.0484390000001
 30
0.0
 11
3412.5527039999988
 21
2311.0471210000001
 31
0.0
  0
LINE
  5
7DE5
  8
3
  6
CONTINUOUS
 62
     0
 10
2392.5527039999988
 20
2341.0471210000001
 30
0.0
 11
3352.5527040000002
 21
2341.0471210000001
 31
0.0
  0
INSERT
  5
7DE6
  8
3
  6
CONTINUOUS
 62
     0
  2
_OPEN
 10
2332.5527039999988
 20
2341.0471210000001
 30
0.0
 41
60.0
 42
60.0
 43
60.0
 50
180.0
  0
INSERT
  5
7DE7
  8
3
  6
CONTINUOUS
 62
     0
  2
_OPEN
 10
3412.5527039999988
 20
2341.0471210000001
 30
0.0
 41
60.0
 42
60.0
 43
60.0
  0
TEXT
  8
3
  40
90
  5
7E50
  62
0
  72
0
  71
0
 10
2692.55
 20
2256.75
 30
0.000000
  1
1080
  0
POINT
  5
7DE9
  8
DEFPOINTS
  6
CONTINUOUS
 62
     0
 10
2332.5527039999988
 20
2471.7345969999992
 30
0.0
  0
POINT
  5
7DEA
  8
DEFPOINTS
  6
CONTINUOUS
 62
     0
 10
3412.5527039999988
 20
2599.0484390000001
 30
0.0
  0
POINT
  5
7DEB
  8
DEFPOINTS
  6
CONTINUOUS
 62
     0
 10
3412.5527039999988
 20
2341.0471210000001
 30
0.0
  0
ENDBLK
  5
7CC6
  8
0
  0
BLOCK
  8
0
  2
*D7
 70
     1
 10
0.0
 20
0.0
 30
0.0
  3
*D7
  1

  0
LINE
  5
7DEC
  8
3
  6
CONTINUOUS
 62
     0
 10
1737.5527039999999
 20
3789.5484390000001
 30
0.0
 11
1737.5527039999999
 21
4448.8888889999998
 31
0.0
  0
LINE
  5
7DED
  8
3
  6
CONTINUOUS
 62
     0
 10
2332.5527039999988
 20
4413.6593510000002
 30
0.0
 11
2332.5527039999988
 21
4388.8888889999989
 31
0.0
  0
LINE
  5
7DEE
  8
3
  6
CONTINUOUS
 62
     0
 10
1797.5527039999999
 20
4418.8888889999998
 30
0.0
 11
2272.5527040000002
 21
4418.8888889999998
 31
0.0
  0
INSERT
  5
7DEF
  8
3
  6
CONTINUOUS
 62
     0
  2
_OPEN
 10
1737.5527039999999
 20
4418.8888889999998
 30
0.0
 41
60.0
 42
60.0
 43
60.0
 50
180.0
  0
INSERT
  5
7DF0
  8
3
  6
CONTINUOUS
 62
     0
  2
_OPEN
 10
2332.5527039999988
 20
4418.8888889999998
 30
0.0
 41
60.0
 42
60.0
 43
60.0
  0
TEXT
  8
3
  40
90
  5
7E51
  62
0
  72
0
  71
0
 10
1837.58
 20
4334.59
 30
0.000000
  1
595
  0
POINT
  5
7DF2
  8
DEFPOINTS
  6
CONTINUOUS
 62
     0
 10
1737.5527039999999
 20
3774.5484390000001
 30
0.0
  0
POINT
  5
7DF3
  8
DEFPOINTS
  6
CONTINUOUS
 62
     0
 10
2332.5527039999988
 20
4428.6593510000002
 30
0.0
  0
POINT
  5
7DF4
  8
DEFPOINTS
  6
CONTINUOUS
 62
     0
 10
2332.5527039999988
 20
4418.8888889999998
 30
0.0
  0
ENDBLK
  5
7BE5
  8
0
  0
BLOCK
  8
0
  2
*D8
 70
     1
 10
0.0
 20
0.0
 30
0.0
  3
*D8
  1

  0
LINE
  5
7DF5
  8
3
  6
CONTINUOUS
 62
     0
 10
4383.4820499999996
 20
4286.5984390000003
 30
0.0
 11
4383.4820499999996
 21
4442.8961060000001
 31
0.0
  0
LINE
  5
7DF6
  8
3
  6
CONTINUOUS
 62
     0
 10
4983.4820499999996
 20
4286.5984390000003
 30
0.0
 11
4983.4820499999996
 21
4442.8961060000001
 31
0.0
  0
LINE
  5
7DF7
  8
3
  6
CONTINUOUS
 62
     0
 10
4443.4820499999987
 20
4412.8961060000001
 30
0.0
 11
4923.4820499999996
 21
4412.8961060000001
 31
0.0
  0
INSERT
  5
7DF8
  8
3
  6
CONTINUOUS
 62
     0
  2
_OPEN
 10
4383.4820499999996
 20
4412.8961060000001
 30
0.0
 41
60.0
 42
60.0
 43
60.0
 50
180.0
  0
INSERT
  5
7DF9
  8
3
  6
CONTINUOUS
 62
     0
  2
_OPEN
 10
4983.4820499999996
 20
4412.8961060000001
 30
0.0
 41
60.0
 42
60.0
 43
60.0
  0
TEXT
  8
3
  40
90
  5
7E52
  62
0
  72
0
  71
0
 10
4500.33
 20
4328.60
 30
0.000000
  1
600
  0
POINT
  5
7DFB
  8
DEFPOINTS
  6
CONTINUOUS
 62
     0
 10
4383.4820499999996
 20
4271.5984390000003
 30
0.0
  0
POINT
  5
7DFC
  8
DEFPOINTS
  6
CONTINUOUS
 62
     0
 10
4983.4820499999996
 20
4271.5984390000003
 30
0.0
  0
POINT
  5
7DFD
  8
DEFPOINTS
  6
CONTINUOUS
 62
     0
 10
4983.4820499999996
 20
4412.8961060000001
 30
0.0
  0
ENDBLK
  5
7BFE
  8
0
  0
BLOCK
  8
0
  2
*D9
 70
     1
 10
0.0
 20
0.0
 30
0.0
  3
*D9
  1

  0
LINE
  5
7DFE
  8
3
  6
CONTINUOUS
 62
     0
 10
5002.4820499999996
 20
4119.0484390000001
 30
0.0
 11
5298.0493490000008
 21
4119.0484390000001
 31
0.0
  0
LINE
  5
7DFF
  8
3
  6
CONTINUOUS
 62
     0
 10
4998.4820499999987
 20
3269.0484390000001
 30
0.0
 11
5298.0493490000008
 21
3269.0484389999988
 31
0.0
  0
LINE
  5
7E00
  8
3
  6
CONTINUOUS
 62
     0
 10
5268.0493490000008
 20
4059.0484390000001
 30
0.0
 11
5268.0493490000008
 21
3329.0484389999988
 31
0.0
  0
INSERT
  5
7E01
  8
3
  6
CONTINUOUS
 62
     0
  2
_OPEN
 10
5268.0493490000008
 20
4119.0484390000001
 30
0.0
 41
60.0
 42
60.0
 43
60.0
 50
90.0
  0
INSERT
  5
7E02
  8
3
  6
CONTINUOUS
 62
     0
  2
_OPEN
 10
5268.0493490000008
 20
3269.0484389999988
 30
0.0
 41
60.0
 42
60.0
 43
60.0
 50
270.0
  0
TEXT
  8
3
  40
90
  5
7E53
  62
0
  72
0
  71
0
 10
5013.05
 20
3516.48
 30
0.000000
  1
φ850
  0
POINT
  5
7E04
  8
DEFPOINTS
  6
CONTINUOUS
 62
     0
 10
4987.4820499999996
 20
4119.0484390000001
 30
0.0
  0
POINT
  5
7E05
  8
DEFPOINTS
  6
CONTINUOUS
 62
     0
 10
4983.4820499999996
 20
3269.0484390000001
 30
0.0
  0
POINT
  5
7E06
  8
DEFPOINTS
  6
CONTINUOUS
 62
     0
 10
5268.0493490000008
 20
3269.0484389999988
 30
0.0
  0
ENDBLK
  5
7D33
  8
0
  0
BLOCK
  8
0
  2
*D10
 70
     1
 10
0.0
 20
0.0
 30
0.0
  3
*D10
  1

  0
LINE
  5
7D1F
  8
0
  6
BYBLOCK
 62
     0
 10
4987.4820499999996
 20
4134.0484389999992
 30
0.0
 11
4987.4820499999996
 21
4628.6726609999987
 31
0.0
  0
LINE
  5
7D20
  8
0
  6
BYBLOCK
 62
     0
 10
4683.4820499999996
 20
4583.0141039999999
 30
0.0
 11
4683.4820499999996
 21
4628.6726609999987
 31
0.0
  0
LINE
  5
7D21
  8
0
  6
BYBLOCK
 62
     0
 10
4927.4820499999996
 20
4598.6726609999996
 30
0.0
 11
4743.4820499999987
 21
4598.6726609999996
 31
0.0
  0
TEXT
  5
7D22
  8
3
 62
     0
 10
4717.6249071428556
 20
4642.9025796796623
 30
0.0
 40
90.0
  1
304
  0
INSERT
  5
7D23
  8
0
  6
BYBLOCK
 62
     0
  2
_OPEN
 10
4987.4820499999996
 20
4598.6726609999996
 30
0.0
 41
60.0
 42
60.0
 43
60.0
  0
INSERT
  5
7D24
  8
0
  6
BYBLOCK
 62
     0
  2
_OPEN
 10
4683.4820499999996
 20
4598.6726609999996
 30
0.0
 41
60.0
 42
60.0
 43
60.0
 50
180.0
  0
POINT
  5
7D25
  8
DEFPOINTS
  6
BYBLOCK
 62
     0
 10
4987.4820499999996
 20
4119.0484390000001
 30
0.0
  0
POINT
  5
7D26
  8
DEFPOINTS
  6
BYBLOCK
 62
     0
 10
4683.4820499999996
 20
4568.0141039999999
 30
0.0
  0
POINT
  5
7D27
  8
DEFPOINTS
  6
BYBLOCK
 62
     0
 10
4683.4820499999996
 20
4598.6726609999996
 30
0.0
  0
ENDBLK
  5
7D28
  8
0
  0
BLOCK
  8
0
  2
*D11
 70
     1
 10
0.0
 20
0.0
 30
0.0
  3
*D11
  1

  0
LINE
  5
7E07
  8
3
  6
CONTINUOUS
 62
     0
 10
4123.4820499999987
 20
4089.0484390000001
 30
0.0
 11
4123.4820499999987
 21
4628.6726609999987
 31
0.0
  0
LINE
  5
7E08
  8
3
  6
CONTINUOUS
 62
     0
 10
4623.4820499999987
 20
4598.6726609999996
 30
0.0
 11
4183.4820499999996
 21
4598.6726609999996
 31
0.0
  0
INSERT
  5
7E09
  8
3
  6
CONTINUOUS
 62
     0
  2
_OPEN
 10
4683.4820499999996
 20
4598.6726609999996
 30
0.0
 41
60.0
 42
60.0
 43
60.0
  0
INSERT
  5
7E0A
  8
3
  6
CONTINUOUS
 62
     0
  2
_OPEN
 10
4123.4820499999987
 20
4598.6726609999996
 30
0.0
 41
60.0
 42
60.0
 43
60.0
 50
180.0
  0
TEXT
  8
3
  40
90
  5
7E54
  62
0
  72
0
  71
0
 10
4223.48
 20
4589.37
 30
0.000000
  1
MAX
  0
TEXT
  8
3
  40
90
  5
7E55
  62
0
  72
0
  71
0
 10
4223.48
 20
4472.37
 30
0.000000
  1
610
  0
POINT
  5
7E0C
  8
DEFPOINTS
  6
CONTINUOUS
 62
     0
 10
4683.4820499999996
 20
4568.0141039999999
 30
0.0
  0
POINT
  5
7E0D
  8
DEFPOINTS
  6
CONTINUOUS
 62
     0
 10
4123.4820499999987
 20
4074.0484390000001
 30
0.0
  0
POINT
  5
7E0E
  8
DEFPOINTS
  6
CONTINUOUS
 62
     0
 10
4123.4820499999987
 20
4598.6726609999996
 30
0.0
  0
ENDBLK
  5
7D3D
  8
0
  0
BLOCK
  8
0
  2
*D12
 70
     1
 10
0.0
 20
0.0
 30
0.0
  3
*D12
  1

  0
LINE
  5
7E0F
  8
3
  6
CONTINUOUS
 62
     0
 10
4215.4820499999996
 20
2584.0484390000001
 30
0.0
 11
4215.4820499999996
 21
2317.8873659999999
 31
0.0
  0
LINE
  5
7E10
  8
3
  6
CONTINUOUS
 62
     0
 10
4683.4820499999996
 20
2394.8980499999989
 30
0.0
 11
4683.4820499999996
 21
2317.8873659999999
 31
0.0
  0
LINE
  5
7E11
  8
3
  6
CONTINUOUS
 62
     0
 10
4275.4820499999987
 20
2347.8873659999999
 30
0.0
 11
4623.4820499999987
 21
2347.8873659999999
 31
0.0
  0
INSERT
  5
7E12
  8
3
  6
CONTINUOUS
 62
     0
  2
_OPEN
 10
4215.4820499999996
 20
2347.8873659999999
 30
0.0
 41
60.0
 42
60.0
 43
60.0
 50
180.0
  0
INSERT
  5
7E13
  8
3
  6
CONTINUOUS
 62
     0
  2
_OPEN
 10
4683.4820499999996
 20
2347.8873659999999
 30
0.0
 41
60.0
 42
60.0
 43
60.0
  0
TEXT
  8
3
  40
90
  5
7E56
  62
0
  72
0
  71
0
 10
4297.77
 20
2263.59
 30
0.000000
  1
468
  0
POINT
  5
7E15
  8
DEFPOINTS
  6
CONTINUOUS
 62
     0
 10
4215.4820499999996
 20
2599.0484390000001
 30
0.0
  0
POINT
  5
7E16
  8
DEFPOINTS
  6
CONTINUOUS
 62
     0
 10
4683.4820499999996
 20
2409.8980499999998
 30
0.0
  0
POINT
  5
7E17
  8
DEFPOINTS
  6
CONTINUOUS
 62
     0
 10
4683.4820499999996
 20
2347.8873659999999
 30
0.0
  0
ENDBLK
  5
7CFE
  8
0
  0
BLOCK
  8
0
  2
*D13
 70
     1
 10
0.0
 20
0.0
 30
0.0
  3
*D13
  1

  0
LINE
  5
7E18
  8
3
  6
CONTINUOUS
 62
     0
 10
5035.4820499999987
 20
2584.0484390000001
 30
0.0
 11
5035.4820499999987
 21
2317.8873659999999
 31
0.0
  0
LINE
  5
7E19
  8
3
  6
CONTINUOUS
 62
     0
 10
4743.4820499999987
 20
2347.8873659999999
 30
0.0
 11
4975.4820499999996
 21
2347.8873659999999
 31
0.0
  0
TEXT
  8
3
  40
90
  5
7E57
  62
0
  72
0
  71
0
 10
4673.05
 20
2261.75
 30
0.000000
  1
352
  0
INSERT
  5
7E1B
  8
3
  6
CONTINUOUS
 62
     0
  2
_OPEN
 10
4683.4820499999996
 20
2347.8873659999999
 30
0.0
 41
60.0
 42
60.0
 43
60.0
 50
180.0
  0
INSERT
  5
7E1C
  8
3
  6
CONTINUOUS
 62
     0
  2
_OPEN
 10
5035.4820499999987
 20
2347.8873659999999
 30
0.0
 41
60.0
 42
60.0
 43
60.0
  0
POINT
  5
7E1D
  8
DEFPOINTS
  6
CONTINUOUS
 62
     0
 10
4683.4820499999996
 20
2409.8980499999998
 30
0.0
  0
POINT
  5
7E1E
  8
DEFPOINTS
  6
CONTINUOUS
 62
     0
 10
5035.4820499999987
 20
2599.0484390000001
 30
0.0
  0
POINT
  5
7E1F
  8
DEFPOINTS
  6
CONTINUOUS
 62
     0
 10
5035.4820499999987
 20
2347.8873659999999
 30
0.0
  0
ENDBLK
  5
7D08
  8
0
  0
BLOCK
  8
0
  2
*D14
 70
     1
 10
0.0
 20
0.0
 30
0.0
  3
*D14
  1

  0
LINE
  5
7E20
  8
3
  6
CONTINUOUS
 62
     0
 10
1812.5527039999999
 20
6292.3492211620442
 30
0.0
 11
1812.5527039999999
 21
6461.0482311620453
 31
0.0
  0
LINE
  5
7E21
  8
3
  6
CONTINUOUS
 62
     0
 10
3412.5527039999988
 20
6292.3492211620442
 30
0.0
 11
3412.5527039999988
 21
6461.0482311620453
 31
0.0
  0
LINE
  5
7E22
  8
3
  6
CONTINUOUS
 62
     0
 10
1872.5527039999999
 20
6431.0482311620462
 30
0.0
 11
3352.5527040000002
 21
6431.0482311620462
 31
0.0
  0
INSERT
  5
7E23
  8
3
  6
CONTINUOUS
 62
     0
  2
_OPEN
 10
1812.5527039999999
 20
6431.0482311620462
 30
0.0
 41
60.0
 42
60.0
 43
60.0
 50
180.0
  0
INSERT
  5
7E24
  8
3
  6
CONTINUOUS
 62
     0
  2
_OPEN
 10
3412.5527039999988
 20
6431.0482311620462
 30
0.0
 41
60.0
 42
60.0
 43
60.0
  0
TEXT
  8
3
  40
90
  5
7E58
  62
0
  72
0
  71
0
 10
2446.74
 20
6346.75
 30
0.000000
  1
1600
  0
POINT
  5
7E26
  8
DEFPOINTS
  6
CONTINUOUS
 62
     0
 10
1812.5527039999999
 20
6277.3492211620451
 30
0.0
  0
POINT
  5
7E27
  8
DEFPOINTS
  6
CONTINUOUS
 62
     0
 10
3412.5527039999988
 20
6277.3492211620451
 30
0.0
  0
POINT
  5
7E28
  8
DEFPOINTS
  6
CONTINUOUS
 62
     0
 10
3412.5527039999988
 20
6431.0482311620462
 30
0.0
  0
ENDBLK
  5
7C76
  8
0
  0
BLOCK
  8
0
  2
*D15
 70
     1
 10
0.0
 20
0.0
 30
0.0
  3
*D15
  1

  0
LINE
  5
7E29
  8
3
  6
CONTINUOUS
 62
     0
 10
3427.5527040000002
 20
6277.3492211620451
 30
0.0
 11
3669.1143900000002
 21
6277.3492211620451
 31
0.0
  0
LINE
  5
7E2A
  8
3
  6
CONTINUOUS
 62
     0
 10
3427.5527040000002
 20
5457.3492211620451
 30
0.0
 11
3669.1143900000002
 21
5457.3492211620451
 31
0.0
  0
LINE
  5
7E2B
  8
3
  6
CONTINUOUS
 62
     0
 10
3639.1143900000011
 20
6217.3492211620451
 30
0.0
 11
3639.1143900000011
 21
5517.3492211620451
 31
0.0
  0
INSERT
  5
7E2C
  8
3
  6
CONTINUOUS
 62
     0
  2
_OPEN
 10
3639.1143900000011
 20
6277.3492211620451
 30
0.0
 41
60.0
 42
60.0
 43
60.0
 50
90.0
  0
INSERT
  5
7E2D
  8
3
  6
CONTINUOUS
 62
     0
  2
_OPEN
 10
3639.1143900000011
 20
5457.3492211620451
 30
0.0
 41
60.0
 42
60.0
 43
60.0
 50
270.0
  0
TEXT
  8
3
  40
90
  5
7E59
  62
0
  72
0
  71
0
 10
3384.11
 20
5689.29
 30
0.000000
  1
820
  0
POINT
  5
7E2F
  8
DEFPOINTS
  6
CONTINUOUS
 62
     0
 10
3412.5527039999988
 20
6277.3492211620451
 30
0.0
  0
POINT
  5
7E30
  8
DEFPOINTS
  6
CONTINUOUS
 62
     0
 10
3412.5527039999988
 20
5457.3492211620451
 30
0.0
  0
POINT
  5
7E31
  8
DEFPOINTS
  6
CONTINUOUS
 62
     0
 10
3639.1143900000011
 20
5457.3492211620451
 30
0.0
  0
ENDBLK
  5
7C83
  8
0
  0
BLOCK
  8
0
  2
*D16
 70
     1
 10
0.0
 20
0.0
 30
0.0
  3
*D16
  1

  0
LINE
  5
7E32
  8
3
  6
CONTINUOUS
 62
     0
 10
2317.5527039999988
 20
4270.0390861068727
 30
0.0
 11
1177.959096
 21
4270.0390861068754
 31
0.0
  0
LINE
  5
7E33
  8
3
  6
CONTINUOUS
 62
     0
 10
1207.959096
 20
3754.0484390000001
 30
0.0
 11
1207.959096
 21
4210.0390861068736
 31
0.0
  0
INSERT
  5
7E34
  8
3
  6
CONTINUOUS
 62
     0
  2
_OPEN
 10
1207.959096
 20
3694.0484390000001
 30
0.0
 41
60.0
 42
60.0
 43
60.0
 50
270.0
  0
INSERT
  5
7E35
  8
3
  6
CONTINUOUS
 62
     0
  2
_OPEN
 10
1207.959096
 20
4270.0390861068754
 30
0.0
 41
60.0
 42
60.0
 43
60.0
 50
90.0
  0
TEXT
  8
3
  40
90
  5
7E5A
  62
0
  72
0
  71
0
 10
952.959
 20
3822.74
 30
0.000000
  1
576
  0
POINT
  5
7E37
  8
DEFPOINTS
  6
CONTINUOUS
 62
     0
 10
1689.7172350000001
 20
3694.0484390000001
 30
0.0
  0
POINT
  5
7E38
  8
DEFPOINTS
  6
CONTINUOUS
 62
     0
 10
2332.5527039999988
 20
4270.0390861068727
 30
0.0
  0
POINT
  5
7E39
  8
DEFPOINTS
  6
CONTINUOUS
 62
     0
 10
1207.959096
 20
4270.0390861068754
 30
0.0
  0
ENDBLK
  5
7D6D
  8
0
  0
BLOCK
  8
0
  2
*D17
 70
     1
 10
0.0
 20
0.0
 30
0.0
  3
*D17
  1

  0
LINE
  5
7E3A
  8
3
  6
CONTINUOUS
 62
     0
 10
2996.5569300000002
 20
3709.0484390000001
 30
0.0
 11
2996.5569300000002
 21
4448.8888889999998
 31
0.0
  0
LINE
  5
7E3B
  8
3
  6
CONTINUOUS
 62
     0
 10
2392.5527039999988
 20
4418.8888889999998
 30
0.0
 11
2936.5569300000002
 21
4418.8888889999998
 31
0.0
  0
INSERT
  5
7E3C
  8
3
  6
CONTINUOUS
 62
     0
  2
_OPEN
 10
2332.5527039999988
 20
4418.8888889999998
 30
0.0
 41
60.0
 42
60.0
 43
60.0
 50
180.0
  0
INSERT
  5
7E3D
  8
3
  6
CONTINUOUS
 62
     0
  2
_OPEN
 10
2996.5569300000002
 20
4418.8888889999998
 30
0.0
 41
60.0
 42
60.0
 43
60.0
  0
TEXT
  8
3
  40
90
  5
7E5B
  62
0
  72
0
  71
0
 10
2484.55
 20
4334.59
 30
0.000000
  1
664
  0
POINT
  5
7E3F
  8
DEFPOINTS
  6
CONTINUOUS
 62
     0
 10
2332.5527039999988
 20
4428.6593510000002
 30
0.0
  0
POINT
  5
7E40
  8
DEFPOINTS
  6
CONTINUOUS
 62
     0
 10
2996.5569300000002
 20
3694.0484390000001
 30
0.0
  0
POINT
  5
7E41
  8
DEFPOINTS
  6
CONTINUOUS
 62
     0
 10
2996.5569300000002
 20
4418.8888889999998
 30
0.0
  0
ENDBLK
  5
7CDC
  8
0
  0
BLOCK
  8
0
  2
*D18
 70
     1
 10
0.0
 20
0.0
 30
0.0
  3
*D18
  1

  0
LINE
  5
7E42
  8
3
 62
     0
 10
1737.5527039999999
 20
3789.5484390000001
 30
0.0
 11
1737.5527039999999
 21
4635.0951701731319
 31
0.0
  0
LINE
  5
7E43
  8
3
 62
     0
 10
3412.5527039999988
 20
2839.0484390000001
 30
0.0
 11
3412.5527039999988
 21
4635.0951701731319
 31
0.0
  0
LINE
  5
7E44
  8
3
 62
     0
 10
1797.5527039999999
 20
4605.095170173131
 30
0.0
 11
3352.5527040000002
 21
4605.095170173131
 31
0.0
  0
INSERT
  5
7E45
  8
3
 62
     0
  2
_OPEN
 10
1737.5527039999999
 20
4605.095170173131
 30
0.0
 41
60.0
 42
60.0
 43
60.0
 50
180.0
  0
INSERT
  5
7E46
  8
3
 62
     0
  2
_OPEN
 10
3412.5527039999988
 20
4605.095170173131
 30
0.0
 41
60.0
 42
60.0
 43
60.0
  0
TEXT
  8
3
  40
90
  5
7E5C
  62
0
  72
0
  71
0
 10
2316.37
 20
4520.80
 30
0.000000
  1
1675
  0
POINT
  5
7E48
  8
DEFPOINTS
 62
     0
 10
1737.5527039999999
 20
3774.5484390000001
 30
0.0
  0
POINT
  5
7E49
  8
DEFPOINTS
 62
     0
 10
3412.5527039999988
 20
2824.0484390000001
 30
0.0
  0
POINT
  5
7E4A
  8
DEFPOINTS
 62
     0
 10
3412.5527039999988
 20
4605.095170173131
 30
0.0
  0
ENDBLK
  5
7D56
  8
0
  0
ENDSEC
  0
SECTION
  2
ENTITIES
  0
LINE
  5
7AAD
  8
1
  6
CONTINUOUS
 10
1812.5527039999999
 20
2724.0484390000001
 30
0.0
 11
3412.5527039999988
 21
2724.0484390000001
 31
0.0
  0
LINE
  5
7AAE
  8
1
  6
CONTINUOUS
 10
1812.5527039999999
 20
2824.0484390000001
 30
0.0
 11
3412.5527039999988
 21
2824.0484390000001
 31
0.0
  0
ARC
  5
7AB0
  8
1
  6
CONTINUOUS
 10
2367.5527039999988
 20
3729.0484390000001
 30
0.0
 40
542.03999999999985
 50
96.5
 51
179.68000000000001
  0
LINE
  5
7AB1
  8
1
  6
CONTINUOUS
 10
1737.5527039999999
 20
2907.0484390000001
 30
0.0
 11
2332.5527039999988
 21
2926.0484390000001
 31
0.0
  0
LINE
  5
7AB2
  8
1
  6
CONTINUOUS
 10
1825.522704
 20
3732.0484390000001
 30
0.0
 11
1737.5527039999999
 21
3732.0484390000001
 31
0.0
  0
LINE
  5
7AB3
  8
1
  6
CONTINUOUS
 10
1812.5527039999999
 20
2699.0484390000001
 30
0.0
 11
3412.5527039999988
 21
2699.0484390000001
 31
0.0
  0
LINE
  5
7AB4
  8
1
  6
CONTINUOUS
 10
1812.5527039999999
 20
2599.0484390000001
 30
0.0
 11
3412.5527039999988
 21
2599.0484390000001
 31
0.0
  0
LINE
  5
7AB6
  8
1
  6
CONTINUOUS
 10
1737.5527039999999
 20
3774.5484390000001
 30
0.0
 11
1737.5527039999999
 21
2864.5484390000001
 31
0.0
  0
LINE
  5
7AB7
  8
1
  6
CONTINUOUS
 10
1812.5527039999999
 20
2699.0484390000001
 30
0.0
 11
1812.5527039999999
 21
2599.0484390000001
 31
0.0
  0
LINE
  5
7AB8
  8
1
  6
CONTINUOUS
 10
1812.5527039999999
 20
2824.0484390000001
 30
0.0
 11
1812.5527039999999
 21
2724.0484390000001
 31
0.0
  0
LINE
  5
7AB9
  8
1
  6
CONTINUOUS
 10
3197.4527039999989
 20
2959.228439
 30
0.0
 11
2231.942704
 21
3521.1984389999998
 31
0.0
  0
LINE
  5
7ABA
  8
1
  6
CONTINUOUS
 10
3286.292704
 20
3078.9284389999998
 30
0.0
 11
2468.8727039999999
 21
3840.3884389999998
 31
0.0
  0
LINE
  5
7ABB
  8
1
  6
CONTINUOUS
 10
2482.5527039999988
 20
4074.0484390000001
 30
0.0
 11
3392.5527039999988
 21
3124.0484390000001
 31
0.0
  0
ARC
  5
7ABE
  8
1
  6
CONTINUOUS
 10
2376.5527039999988
 20
3650.0484390000001
 30
0.0
 40
621.54999999999995
 50
4.7599999999999989
 51
96.5
  0
ARC
  5
7ABF
  8
1
  6
CONTINUOUS
 10
2280.5527039999988
 20
3642.0484390000001
 30
0.0
 40
717.88999999999987
 50
274.14999999999992
 51
4.7599999999999989
  0
LINE
  5
7AC0
  8
1
  6
CONTINUOUS
 10
1912.5527039999999
 20
2824.0484390000001
 30
0.0
 11
1912.5527039999999
 21
4074.0484390000001
 31
0.0
  0
LINE
  5
7AC1
  8
2
  6
CENTER
 10
1689.7172350000001
 20
3694.0484390000001
 30
0.0
 11
3178.562606
 21
3694.0484390000001
 31
0.0
  0
CIRCLE
  5
7AC2
  8
1
  6
CONTINUOUS
 10
2332.5527039999988
 20
3694.0484390000001
 30
0.0
 40
200.0
  0
LINE
  5
7AC3
  8
1
  6
CONTINUOUS
 10
1912.5527039999999
 20
4074.0484390000001
 30
0.0
 11
2482.5527039999988
 21
4074.0484390000001
 31
0.0
  0
LINE
  5
7AC4
  8
2
  6
CENTER
 10
2332.5527039999988
 20
6415.6340791620451
 30
0.0
 11
2332.5527039999988
 21
5246.1393561620453
 31
0.0
  0
ARC
  5
7AC6
  8
1
  6
CONTINUOUS
 10
3235.1727040000001
 20
3024.0484390000001
 30
0.0
 40
162.0
 50
324.97000000000003
 51
215.02999999999989
  0
LINE
  5
7AC7
  8
1
  6
CONTINUOUS
 10
3081.1727040000001
 20
2882.0484390000001
 30
0.0
 11
3102.522704
 21
2931.0684390000001
 31
0.0
  0
LINE
  5
7AC8
  8
1
  6
CONTINUOUS
 10
3081.1727040000001
 20
2824.0484390000001
 30
0.0
 11
3081.1727040000001
 21
2882.0484390000001
 31
0.0
  0
LINE
  5
7AC9
  8
1
  6
CONTINUOUS
 10
3412.5527039999988
 20
2699.0484390000001
 30
0.0
 11
3412.5527039999988
 21
2599.0484390000001
 31
0.0
  0
LINE
  5
7ACA
  8
1
  6
CONTINUOUS
 10
3389.1727039999992
 20
2882.0484390000001
 30
0.0
 11
3367.8327039999999
 21
2931.0684390000001
 31
0.0
  0
CIRCLE
  5
7ACB
  8
1
  6
CONTINUOUS
 10
3235.1727040000001
 20
3024.0484390000001
 30
0.0
 40
75.0
  0
LINE
  5
7ACC
  8
2
  6
CENTER
 10
3235.1727040000001
 20
2949.0484390000001
 30
0.0
 11
3235.1727040000001
 21
3099.0484390000001
 31
0.0
  0
LINE
  5
7ACD
  8
2
  6
CENTER
 10
3310.1727040000001
 20
3024.0484390000001
 30
0.0
 11
3160.1727040000001
 21
3024.0484390000001
 31
0.0
  0
LINE
  5
7ACE
  8
1
  6
CONTINUOUS
 10
3389.1727039999992
 20
2824.0484390000001
 30
0.0
 11
3389.1727039999992
 21
2882.0484390000001
 31
0.0
  0
LINE
  5
7ACF
  8
1
  6
CONTINUOUS
 10
3392.5527039999988
 20
3124.0484390000001
 30
0.0
 11
3392.5527039999988
 21
2824.0484390000001
 31
0.0
  0
LINE
  5
7AD0
  8
1
  6
CONTINUOUS
 10
3412.5527039999988
 20
2824.0484390000001
 30
0.0
 11
3412.5527039999988
 21
2724.0484390000001
 31
0.0
  0
LINE
  5
7AD1
  8
1
  6
CONTINUOUS
 10
2132.5527039999988
 20
5457.3492211620451
 30
0.0
 11
1812.5527039999999
 21
5457.3492211620451
 31
0.0
  0
LINE
  5
7AD2
  8
1
  6
CONTINUOUS
 10
2998.442704
 20
6225.3492211620451
 30
0.0
 11
1737.5527039999999
 21
6225.3492211620451
 31
0.0
  0
LINE
  5
7AD3
  8
1
  6
CONTINUOUS
 10
2998.442704
 20
5625.3492211620451
 30
0.0
 11
1737.5527039999999
 21
5625.3492211620451
 31
0.0
  0
LINE
  5
7AD4
  8
1
  6
CONTINUOUS
 10
3412.5527039999988
 20
6277.3492211620451
 30
0.0
 11
1812.5527039999999
 21
6277.3492211620451
 31
0.0
  0
LINE
  5
7AD5
  8
1
  6
CONTINUOUS
 10
1737.5527039999999
 20
5583.3492211620451
 30
0.0
 11
1737.5527039999999
 21
6267.3492211620451
 31
0.0
  0
LINE
  5
7AD6
  8
1
  6
CONTINUOUS
 10
1812.5527039999999
 20
5625.3492211620451
 30
0.0
 11
1812.5527039999999
 21
5457.3492211620451
 31
0.0
  0
LINE
  5
7AD7
  8
1
  6
CONTINUOUS
 10
1812.5527039999999
 20
6277.3492211620451
 30
0.0
 11
1812.5527039999999
 21
6225.3492211620451
 31
0.0
  0
LINE
  5
7AD8
  8
1
  6
CONTINUOUS
 10
3160.1727040000001
 20
5457.3492211620451
 30
0.0
 11
2532.5527039999988
 21
5457.3492211620451
 31
0.0
  0
LINE
  5
7AD9
  8
1
  6
CONTINUOUS
 10
3392.5527039999988
 20
5365.3492211620451
 30
0.0
 11
1912.5527039999999
 21
5365.3492211620451
 31
0.0
  0
LINE
  5
7ADA
  8
1
  6
CONTINUOUS
 10
3392.5527039999988
 20
5515.3492211620451
 30
0.0
 11
1912.5527039999999
 21
5515.3492211620451
 31
0.0
  0
LINE
  5
7ADB
  8
1
  6
CONTINUOUS
 10
2132.5527039999988
 20
5475.3492211620451
 30
0.0
 11
2532.5527039999988
 21
5475.3492211620451
 31
0.0
  0
LINE
  5
7ADC
  8
1
  6
CONTINUOUS
 10
2132.5527039999988
 20
5405.3492211620451
 30
0.0
 11
2532.5527039999988
 21
5405.3492211620451
 31
0.0
  0
LINE
  5
7ADD
  8
1
  6
CONTINUOUS
 10
1912.5527039999999
 20
5365.3492211620451
 30
0.0
 11
1912.5527039999999
 21
5515.3492211620451
 31
0.0
  0
LINE
  5
7ADE
  8
1
  6
CONTINUOUS
 10
2132.5527039999988
 20
5405.3492211620451
 30
0.0
 11
2132.5527039999988
 21
5475.3492211620451
 31
0.0
  0
LINE
  5
7ADF
  8
1
  6
CONTINUOUS
 10
2353.5527039999988
 20
5475.3492211620451
 30
0.0
 11
2353.5527039999988
 21
5625.3492211620451
 31
0.0
  0
LINE
  5
7AE0
  8
1
  6
CONTINUOUS
 10
2311.5527039999988
 20
5475.3492211620451
 30
0.0
 11
2311.5527039999988
 21
5625.3492211620451
 31
0.0
  0
LINE
  5
7AE1
  8
1
  6
CONTINUOUS
 10
2532.5527039999988
 20
5405.3492211620451
 30
0.0
 11
2532.5527039999988
 21
5475.3492211620451
 31
0.0
  0
LINE
  5
7AE2
  8
1
  6
CONTINUOUS
 10
3412.5527039999988
 20
6277.3492211620451
 30
0.0
 11
3412.5527039999988
 21
5457.3492211620451
 31
0.0
  0
LINE
  5
7AE3
  8
1
  6
CONTINUOUS
 10
2998.442704
 20
5625.3492211620451
 30
0.0
 11
2998.442704
 21
6225.3492211620451
 31
0.0
  0
LINE
  5
7AE4
  8
1
  6
CONTINUOUS
 10
3397.1727040000001
 20
6048.3492211620451
 30
0.0
 11
3073.1727040000001
 21
6048.3492211620451
 31
0.0
  0
LINE
  5
7AE5
  8
1
  6
CONTINUOUS
 10
3397.1727040000001
 20
5563.3492211620451
 30
0.0
 11
3073.1727040000001
 21
5563.3492211620451
 31
0.0
  0
LINE
  5
7AE6
  8
1
  6
CONTINUOUS
 10
3073.1727040000001
 20
5563.3492211620451
 30
0.0
 11
3073.1727040000001
 21
6048.3492211620451
 31
0.0
  0
LINE
  5
7AE7
  8
1
  6
CONTINUOUS
 10
3214.1727040000001
 20
5475.3492211620451
 30
0.0
 11
3214.1727040000001
 21
5563.3492211620451
 31
0.0
  0
LINE
  5
7AE8
  8
1
  6
CONTINUOUS
 10
3256.1727040000001
 20
5475.3492211620451
 30
0.0
 11
3256.1727040000001
 21
5563.3492211620451
 31
0.0
  0
LINE
  5
7AE9
  8
1
  6
CONTINUOUS
 10
3412.5527039999988
 20
5457.3492211620451
 30
0.0
 11
3310.1727040000001
 21
5457.3492211620451
 31
0.0
  0
LINE
  5
7AEA
  8
1
  6
CONTINUOUS
 10
3310.1727040000001
 20
5405.3492211620451
 30
0.0
 11
3310.1727040000001
 21
5475.3492211620451
 31
0.0
  0
LINE
  5
7AEB
  8
1
  6
CONTINUOUS
 10
3160.1727040000001
 20
5405.3492211620451
 30
0.0
 11
3160.1727040000001
 21
5475.3492211620451
 31
0.0
  0
LINE
  5
7AEC
  8
1
  6
CONTINUOUS
 10
3160.1727040000001
 20
5475.3492211620451
 30
0.0
 11
3310.1727040000001
 21
5475.3492211620451
 31
0.0
  0
LINE
  5
7AED
  8
1
  6
CONTINUOUS
 10
3160.1727040000001
 20
5405.3492211620451
 30
0.0
 11
3310.1727040000001
 21
5405.3492211620451
 31
0.0
  0
LINE
  5
7AEE
  8
1
  6
CONTINUOUS
 10
3392.5527039999988
 20
5515.3492211620451
 30
0.0
 11
3392.5527039999988
 21
5365.3492211620451
 31
0.0
  0
LINE
  5
7AEF
  8
1
  6
CONTINUOUS
 10
3397.1727040000001
 20
5563.3492211620451
 30
0.0
 11
3397.1727040000001
 21
6048.3492211620451
 31
0.0
  0
LINE
  5
7AF0
  8
1
  6
CONTINUOUS
 10
5035.4820499999987
 20
2599.0484390000001
 30
0.0
 11
4215.4820499999996
 21
2599.0484390000001
 31
0.0
  0
LINE
  5
7AF1
  8
1
  6
CONTINUOUS
 10
5035.4820499999987
 20
2699.0484390000001
 30
0.0
 11
4215.4820499999996
 21
2699.0484390000001
 31
0.0
  0
LINE
  5
7AF2
  8
1
  6
CONTINUOUS
 10
4383.4820499999996
 20
2907.0484390000001
 30
0.0
 11
4983.4820499999996
 21
3732.0484390000001
 31
0.0
  0
LINE
  5
7AF3
  8
1
  6
CONTINUOUS
 10
4983.4820499999996
 20
2907.0484390000001
 30
0.0
 11
4383.4820499999996
 21
3732.0484390000001
 31
0.0
  0
LINE
  5
7AF4
  8
1
  6
CONTINUOUS
 10
4383.4820499999996
 20
4271.5984390000003
 30
0.0
 11
4983.4820499999996
 21
4271.5984390000003
 31
0.0
  0
LINE
  5
7AF5
  8
1
  6
CONTINUOUS
 10
5035.4820499999987
 20
2824.0484390000001
 30
0.0
 11
4123.4820499999987
 21
2824.0484390000001
 31
0.0
  0
LINE
  5
7AF6
  8
1
  6
CONTINUOUS
 10
5035.4820499999987
 20
2724.0484390000001
 30
0.0
 11
4215.4820499999996
 21
2724.0484390000001
 31
0.0
  0
LINE
  5
7AF7
  8
1
  6
CONTINUOUS
 10
4383.4820499999996
 20
2907.0484390000001
 30
0.0
 11
4983.4820499999996
 21
2907.0484390000001
 31
0.0
  0
LINE
  5
7AF8
  8
1
  6
CONTINUOUS
 10
4383.4820499999996
 20
3732.0484390000001
 30
0.0
 11
4983.4820499999996
 21
3732.0484390000001
 31
0.0
  0
LINE
  5
7B20
  8
1
  6
CONTINUOUS
 10
4273.4820499999996
 20
4074.0484390000001
 30
0.0
 11
4273.4820499999996
 21
2824.0484390000001
 31
0.0
  0
LINE
  5
7B21
  8
1
  6
CONTINUOUS
 10
4123.4820499999987
 20
4074.0484390000001
 30
0.0
 11
4123.4820499999987
 21
2824.0484390000001
 31
0.0
  0
LINE
  5
7B22
  8
1
  6
CONTINUOUS
 10
4383.4820499999996
 20
4271.5984390000003
 30
0.0
 11
4383.4820499999996
 21
2824.0484390000001
 31
0.0
  0
LINE
  5
7B23
  8
1
  6
CONTINUOUS
 10
4215.4820499999996
 20
2699.0484390000001
 30
0.0
 11
4215.4820499999996
 21
2599.0484390000001
 31
0.0
  0
LINE
  5
7B24
  8
1
  6
CONTINUOUS
 10
4163.4820499999987
 20
2949.0484390000001
 30
0.0
 11
4233.4820499999996
 21
2949.0484390000001
 31
0.0
  0
LINE
  5
7B25
  8
1
  6
CONTINUOUS
 10
4163.4820499999987
 20
3099.0484390000001
 30
0.0
 11
4233.4820499999996
 21
3099.0484390000001
 31
0.0
  0
LINE
  5
7B26
  8
1
  6
CONTINUOUS
 10
4163.4820499999987
 20
3099.0484390000001
 30
0.0
 11
4163.4820499999987
 21
2949.0484390000001
 31
0.0
  0
LINE
  5
7B27
  8
1
  6
CONTINUOUS
 10
4233.4820499999996
 20
3003.0484390000001
 30
0.0
 11
4383.4820499999996
 21
3003.0484390000001
 31
0.0
  0
LINE
  5
7B28
  8
1
  6
CONTINUOUS
 10
4233.4820499999996
 20
3045.0484390000001
 30
0.0
 11
4383.4820499999996
 21
3045.0484390000001
 31
0.0
  0
LINE
  5
7B29
  8
1
  6
CONTINUOUS
 10
4233.4820499999996
 20
3099.0484390000001
 30
0.0
 11
4233.4820499999996
 21
2949.0484390000001
 31
0.0
  0
LINE
  5
7B2A
  8
1
  6
CONTINUOUS
 10
4215.4820499999996
 20
2824.0484390000001
 30
0.0
 11
4215.4820499999996
 21
2724.0484390000001
 31
0.0
  0
LINE
  5
7B2B
  8
1
  6
CONTINUOUS
 10
4163.4820499999987
 20
3494.0484390000001
 30
0.0
 11
4233.4820499999996
 21
3494.0484390000001
 31
0.0
  0
LINE
  5
7B2C
  8
1
  6
CONTINUOUS
 10
4163.4820499999987
 20
3894.0484390000001
 30
0.0
 11
4233.4820499999996
 21
3894.0484390000001
 31
0.0
  0
LINE
  5
7B2D
  8
1
  6
CONTINUOUS
 10
4273.4820499999996
 20
4074.0484390000001
 30
0.0
 11
4123.4820499999987
 21
4074.0484390000001
 31
0.0
  0
LINE
  5
7B2E
  8
1
  6
CONTINUOUS
 10
4163.4820499999987
 20
3894.0484390000001
 30
0.0
 11
4163.4820499999987
 21
3494.0484390000001
 31
0.0
  0
LINE
  5
7B2F
  8
1
  6
CONTINUOUS
 10
4383.4820499999996
 20
3673.0484390000001
 30
0.0
 11
4233.4820499999996
 21
3673.0484390000001
 31
0.0
  0
LINE
  5
7B30
  8
1
  6
CONTINUOUS
 10
4383.4820499999996
 20
3715.0484390000001
 30
0.0
 11
4233.4820499999996
 21
3715.0484390000001
 31
0.0
  0
LINE
  5
7B31
  8
1
  6
CONTINUOUS
 10
4233.4820499999996
 20
3894.0484390000001
 30
0.0
 11
4233.4820499999996
 21
3494.0484390000001
 31
0.0
  0
LINE
  5
7B51
  8
1
  6
CONTINUOUS
 10
4983.4820499999996
 20
4271.5984390000003
 30
0.0
 11
4983.4820499999996
 21
2824.0484390000001
 31
0.0
  0
LINE
  5
7B52
  8
1
  6
CONTINUOUS
 10
5035.4820499999987
 20
2699.0484390000001
 30
0.0
 11
5035.4820499999987
 21
2599.0484390000001
 31
0.0
  0
LINE
  5
7B53
  8
1
  6
CONTINUOUS
 10
5035.4820499999987
 20
2824.0484390000001
 30
0.0
 11
5035.4820499999987
 21
2724.0484390000001
 31
0.0
  0
LINE
  5
7B54
  8
2
  6
CENTER
 10
3488.7248199999999
 20
5925.3492211620451
 30
0.0
 11
1581.1918189999999
 21
5925.3492211620451
 31
0.0
  0
LINE
  5
7B55
  8
2
  6
CENTER
 10
4683.4820499999996
 20
4385.8160950000001
 30
0.0
 11
4683.4820499999996
 21
2409.8980499999998
 31
0.0
  0
LINE
  5
7B56
  8
2
  6
CENTER
 10
2332.5527039999988
 20
4428.6593510000002
 30
0.0
 11
2332.5527039999988
 21
2471.7345969999992
 31
0.0
  0
LINE
  5
7B57
  8
2
  6
CENTER
 10
3985.155784999999
 20
3694.0484390000001
 30
0.0
 11
5070.1424310000002
 21
3694.0484390000001
 31
0.0
  0
LINE
  5
7B58
  8
4
  6
CONTINUOUS
 10
5550.0
 20
1500.0
 30
0.0
 11
5550.0
 21
900.0
 31
0.0
  0
LINE
  5
7B59
  8
4
  6
CONTINUOUS
 10
3450.0
 20
1500.0
 30
0.0
 11
3450.0
 21
900.0
 31
0.0
  0
LINE
  5
7B5A
  8
4
  6
CONTINUOUS
 10
1950.0
 20
1500.0
 30
0.0
 11
1950.0
 21
900.0
 31
0.0
  0
LINE
  5
7B5D
  8
4
  6
CONTINUOUS
 10
1950.0
 20
900.0
 30
0.0
 11
5550.0
 21
900.0
 31
0.0
  0
LINE
  5
7B5E
  8
4
  6
CONTINUOUS
 10
1950.0
 20
1200.0
 30
0.0
 11
5550.0
 21
1200.0
 31
0.0
  0
TEXT
  5
7B5F
  8
4
  6
CONTINUOUS
 10
2065.5062429999989
 20
1294.6290779999999
 30
0.0
 40
150.0
  1
機器名称
  0
TEXT
  5
7B60
  8
4
  6
CONTINUOUS
 10
2058.7743179999989
 20
964.9354699999999
 30
0.0
 40
150.0
  1
機器型番
  0
TEXT
  5
7B61
  8
4
  6
CONTINUOUS
 10
3533.0362359999999
 20
1267.7153069999999
 30
0.0
 40
150.0
  1
ミツヤ多翼送風機
  0
TEXT
  5
7B62
  8
4
  6
CONTINUOUS
 10
3559.9634869999991
 20
951.47875299999987
 30
0.0
 40
150.0
  1
MF#5-4
  0
TEXT
  5
7B64
  8
4
  6
CONTINUOUS
 10
2311.6236600000002
 20
7150.2865239999992
 30
0.0
 40
162.0
  1
床置防振ベット
  0
TEXT
  5
7B65
  8
4
  6
CONTINUOUS
 10
948.50278000000014
 20
7601.6429289999996
 30
0.0
 40
216.0
  1
ベルト駆動式片吸込両持多翼ファン
  0
LINE
  5
7B66
  8
4
  6
CONTINUOUS
 10
750.0
 20
7408.2262629999996
 30
0.0
 11
5550.0
 21
7408.2262629999996
 31
0.0
  0
LINE
  5
7B67
  8
4
  6
CONTINUOUS
 10
750.0
 20
8008.2262629999996
 30
0.0
 11
5550.0
 21
8008.2262629999996
 31
0.0
  0
LINE
  5
7B68
  8
4
  6
CONTINUOUS
 10
1950.0
 20
1500.0
 30
0.0
 11
5550.0
 21
1500.0
 31
0.0
  0
LINE
  5
7B69
  8
4
  6
CONTINUOUS
 10
750.0
 20
8008.2262629999996
 30
0.0
 11
750.0
 21
7408.2262629999996
 31
0.0
  0
TEXT
  5
7B6A
  8
4
  6
CONTINUOUS
 10
1004.047164
 20
7146.9584329999998
 30
0.0
 40
162.0
  1
右回転左横向
  0
TEXT
  5
7B6B
  8
4
  6
CONTINUOUS
 10
4406.9086779999989
 20
8118.1832439999989
 30
0.0
 40
168.0
  1
No.
  0
TEXT
  5
7B6C
  8
4
  6
CONTINUOUS
 10
3933.8881879999999
 20
7150.2865239999992
 30
0.0
 40
162.0
  1
縮尺：1/30
  0
LINE
  5
7B6D
  8
4
  6
CONTINUOUS
 10
5550.0
 20
8008.2262629999996
 30
0.0
 11
5550.0
 21
7408.2262629999996
 31
0.0
  0
LINE
  5
7B6F
  8
4
  6
CONTINUOUS
 10
4321.8522670000002
 20
8043.7907490000007
 30
0.0
 11
4321.8522670000002
 21
8359.9567849999985
 31
0.0
  0
LINE
  5
7B70
  8
4
  6
CONTINUOUS
 10
4321.8522670000002
 20
8359.9567849999985
 30
0.0
 11
5550.0
 21
8359.9567849999985
 31
0.0
  0
LINE
  5
7B71
  8
4
  6
CONTINUOUS
 10
5550.0
 20
8359.9567849999985
 30
0.0
 11
5550.0
 21
8043.7907490000007
 31
0.0
  0
LINE
  5
7B72
  8
4
  6
CONTINUOUS
 10
5550.0
 20
8043.7907490000007
 30
0.0
 11
4321.8522670000002
 21
8043.7907490000007
 31
0.0
  0
DIMENSION
  5
7B8A
  8
3
  6
CONTINUOUS
  2
*D1
 10
1603.7728990000001
 20
2907.0484390000001
 30
0.0
 11
1603.7728990000001
 21
3292.2440099999999
 31
0.0
 70
   128
 13
1737.5527039999999
 23
3732.0484390000001
 33
0.0
 14
1737.5527039999999
 24
2907.0484390000001
 34
0.0
 50
90.0
1001
ACAD
1000
DSTYLE
1002
{
1070
   287
1070
     3
1070
    40
1040
30.0
1070
   143
1040
0.039
1070
   172
1070
     1
1070
   271
1070
     0
1070
   279
1070
     0
1070
   288
1070
     1
1002
}
  0
DIMENSION
  5
7B97
  8
3
  6
CONTINUOUS
  2
*D2
 10
1405.866014
 20
3694.0484390000001
 30
0.0
 11
1405.866014
 21
3304.2295979999999
 31
0.0
 70
   128
 13
1737.5527039999999
 23
2907.0484390000001
 33
0.0
 14
1689.7172350000001
 24
3694.0484390000001
 34
0.0
 50
90.0
1001
ACAD
1000
DSTYLE
1002
{
1070
   287
1070
     3
1070
    40
1040
30.0
1070
   143
1040
0.039
1070
   172
1070
     1
1070
   271
1070
     0
1070
   279
1070
     0
1070
   288
1070
     1
1002
}
  0
DIMENSION
  5
7BB0
  8
3
  6
CONTINUOUS
  2
*D3
 10
1207.959096
 20
2724.0484390000001
 30
0.0
 11
1132.9590959999989
 21
3209.0484390000001
 31
0.0
 70
     0
 13
1689.7172350000001
 23
3694.0484390000001
 33
0.0
 14
1812.5527039999999
 24
2724.0484390000001
 34
0.0
 50
90.0
1001
ACAD
1000
DSTYLE
1002
{
1070
   287
1070
     3
1070
    40
1040
30.0
1070
   143
1040
0.039
1070
   172
1070
     1
1070
   271
1070
     0
1070
   279
1070
     0
1070
   288
1070
     1
1002
}
  0
DIMENSION
  5
7BC0
  8
3
  6
CONTINUOUS
  2
*D4
 10
1205.7667550000001
 20
2599.0484390000001
 30
0.0
 11
1205.7667550000001
 21
2341.9055818571428
 31
0.0
 70
   128
 13
1812.5527039999999
 23
2724.0484390000001
 33
0.0
 14
1812.5527039999999
 24
2599.0484390000001
 34
0.0
 50
90.0
1001
ACAD
1000
DSTYLE
1002
{
1070
   287
1070
     3
1070
    40
1040
30.0
1070
   143
1040
0.039
1070
   172
1070
     1
1070
   271
1070
     0
1070
   279
1070
     0
1070
   288
1070
     1
1002
}
  0
DIMENSION
  5
7BCD
  8
3
  6
CONTINUOUS
  2
*D5
 10
2332.5527039999988
 20
2341.0471210000001
 30
0.0
 11
2083.5472439999999
 21
2341.0471210000001
 31
0.0
 70
   128
 13
1812.5527039999999
 23
2599.0484390000001
 33
0.0
 14
2332.5527039999988
 24
2471.7345969999992
 34
0.0
1001
ACAD
1000
DSTYLE
1002
{
1070
   287
1070
     3
1070
    40
1040
30.0
1070
   143
1040
0.039
1070
   172
1070
     1
1070
   271
1070
     0
1070
   279
1070
     0
1070
   288
1070
     1
1002
}
  0
DIMENSION
  5
7BD9
  8
3
  6
CONTINUOUS
  2
*D6
 10
3412.5527039999988
 20
2341.0471210000001
 30
0.0
 11
2872.5527040000002
 21
2416.0471210000001
 31
0.0
 70
     0
 13
2332.5527039999988
 23
2471.7345969999992
 33
0.0
 14
3412.5527039999988
 24
2599.0484390000001
 34
0.0
1001
ACAD
1000
DSTYLE
1002
{
1070
   287
1070
     4
1070
    40
1040
30.0
1070
    75
1070
     1
1070
   143
1040
0.039
1070
   172
1070
     1
1070
   271
1070
     0
1070
   279
1070
     1
1070
   288
1070
     1
1002
}
  0
DIMENSION
  5
7BE6
  8
3
  6
CONTINUOUS
  2
*D7
 10
2332.5527039999988
 20
4418.8888889999998
 30
0.0
 11
2017.5782830000001
 21
4418.8888889999998
 31
0.0
 70
   128
 13
1737.5527039999999
 23
3774.5484390000001
 33
0.0
 14
2332.5527039999988
 24
4428.6593510000002
 34
0.0
1001
ACAD
1000
DSTYLE
1002
{
1070
   287
1070
     3
1070
    40
1040
30.0
1070
   143
1040
0.039
1070
   172
1070
     1
1070
   271
1070
     0
1070
   279
1070
     0
1070
   288
1070
     1
1002
}
  0
DIMENSION
  5
7BFF
  8
3
  6
CONTINUOUS
  2
*D8
 10
4983.4820499999996
 20
4412.8961060000001
 30
0.0
 11
4680.3257880000001
 21
4412.8961060000001
 31
0.0
 70
   128
 13
4383.4820499999996
 23
4271.5984390000003
 33
0.0
 14
4983.4820499999996
 24
4271.5984390000003
 34
0.0
1001
ACAD
1000
DSTYLE
1002
{
1070
   287
1070
     3
1070
    40
1040
30.0
1070
   143
1040
0.039
1070
   172
1070
     1
1070
   271
1070
     0
1070
   279
1070
     0
1070
   288
1070
     1
1002
}
  0
LINE
  5
7C00
  8
1
  6
CONTINUOUS
 10
4987.4820499999996
 20
4119.0484390000001
 30
0.0
 11
4987.4820499999996
 21
3269.0484390000001
 31
0.0
  0
DIMENSION
  5
7C0F
  8
3
  6
CONTINUOUS
  2
*D9
 10
5268.0493490000008
 20
3269.0484389999988
 30
0.0
 11
5268.0493489999999
 21
3675.7826879999998
 31
0.0
 70
   128
 13
4987.4820499999996
 23
4119.0484390000001
 33
0.0
 14
4983.4820499999996
 24
3269.0484390000001
 34
0.0
 50
90.0
1001
ACAD
1000
DSTYLE
1002
{
1070
   287
1070
     3
1070
     3
1000
φ<>
1070
    40
1040
30.0
1070
   143
1040
0.039
1070
   172
1070
     1
1070
   271
1070
     0
1070
   279
1070
     0
1070
   288
1070
     1
1002
}
  0
DIMENSION
  5
7C1E
  8
3
  6
CONTINUOUS
  2
*D10
 10
4683.4820499999996
 20
4598.6726609999996
 30
0.0
 11
4835.4820499999987
 21
4687.9025796796632
 31
0.0
 70
   128
 13
4987.4820499999996
 23
4119.0484390000001
 33
0.0
 14
4683.4820499999996
 24
4568.0141039999999
 34
0.0
1001
ACAD
1000
DSTYLE
1002
{
1070
   288
1070
     1
1070
   172
1070
     1
1070
    40
1040
30.0
1070
   271
1070
     0
1070
   143
1040
0.039
1002
}
  0
DIMENSION
  5
7C2A
  8
3
  6
CONTINUOUS
  2
*D11
 10
4123.4820499999987
 20
4598.6726609999996
 30
0.0
 11
4403.4820499999996
 21
4748.6726609999987
 31
0.0
 70
     0
  1
MAX\P610
 13
4683.4820499999996
 23
4568.0141039999999
 33
0.0
 14
4123.4820499999987
 24
4074.0484390000001
 34
0.0
1001
ACAD
1000
DSTYLE
1002
{
1070
   287
1070
     4
1070
    40
1040
30.0
1070
    75
1070
     1
1070
   143
1040
0.039
1070
   172
1070
     1
1070
   271
1070
     0
1070
   279
1070
     1
1070
   288
1070
     1
1002
}
  0
DIMENSION
  5
7C37
  8
3
  6
CONTINUOUS
  2
*D12
 10
4683.4820499999996
 20
2347.8873659999999
 30
0.0
 11
4477.7677640000002
 21
2347.8873659999999
 31
0.0
 70
   128
 13
4215.4820499999996
 23
2599.0484390000001
 33
0.0
 14
4683.4820499999996
 24
2409.8980499999998
 34
0.0
1001
ACAD
1000
DSTYLE
1002
{
1070
   287
1070
     3
1070
    40
1040
30.0
1070
   143
1040
0.039
1070
   172
1070
     1
1070
   271
1070
     0
1070
   279
1070
     0
1070
   288
1070
     1
1002
}
  0
DIMENSION
  5
7C45
  8
3
  6
CONTINUOUS
  2
*D13
 10
5035.4820499999987
 20
2347.8873659999999
 30
0.0
 11
4853.054744
 21
2346.0468709999991
 31
0.0
 70
   128
 13
4683.4820499999996
 23
2409.8980499999998
 33
0.0
 14
5035.4820499999987
 24
2599.0484390000001
 34
0.0
1001
ACAD
1000
DSTYLE
1002
{
1070
   287
1070
     4
1070
    40
1040
30.0
1070
    75
1070
     1
1070
   143
1040
0.039
1070
   172
1070
     1
1070
   271
1070
     0
1070
   279
1070
     1
1070
   288
1070
     1
1002
}
  0
DIMENSION
  5
7C77
  8
3
  6
CONTINUOUS
  2
*D14
 10
3412.5527039999988
 20
6431.0482311620462
 30
0.0
 11
2626.744416
 21
6431.0482311620462
 31
0.0
 70
   128
 13
1812.5527039999999
 23
6277.3492211620451
 33
0.0
 14
3412.5527039999988
 24
6277.3492211620451
 34
0.0
1001
ACAD
1000
DSTYLE
1002
{
1070
   287
1070
     3
1070
    40
1040
30.0
1070
   143
1040
0.039
1070
   172
1070
     1
1070
   271
1070
     0
1070
   279
1070
     0
1070
   288
1070
     1
1002
}
  0
DIMENSION
  5
7C84
  8
3
  6
CONTINUOUS
  2
*D15
 10
3639.1143900000011
 20
5457.3492211620451
 30
0.0
 11
3639.1143899999988
 21
5848.5949481620446
 31
0.0
 70
   128
 13
3412.5527039999988
 23
6277.3492211620451
 33
0.0
 14
3412.5527039999988
 24
5457.3492211620451
 34
0.0
 50
90.0
1001
ACAD
1000
DSTYLE
1002
{
1070
   287
1070
     3
1070
    40
1040
30.0
1070
   143
1040
0.039
1070
   172
1070
     1
1070
   271
1070
     0
1070
   279
1070
     0
1070
   288
1070
     1
1002
}
  0
DIMENSION
  5
7CAF
  8
3
  6
CONTINUOUS
  2
*D16
 10
1207.959096
 20
4270.0390861068754
 30
0.0
 11
1132.9590959999989
 21
3982.0437625534378
 31
0.0
 70
     0
 13
1689.7172350000001
 23
3694.0484390000001
 33
0.0
 14
2332.5527039999988
 24
4270.0390861068727
 34
0.0
 50
90.0
1001
ACAD
1000
DSTYLE
1002
{
1070
   287
1070
     4
1070
    40
1040
30.0
1070
    75
1070
     1
1070
   143
1040
0.039
1070
   172
1070
     1
1070
   271
1070
     0
1070
   279
1070
     1
1070
   288
1070
     1
1002
}
  0
DIMENSION
  5
7CDD
  8
3
  6
CONTINUOUS
  2
*D17
 10
2996.5569300000002
 20
4418.8888889999998
 30
0.0
 11
2664.5548170000002
 21
4493.8888889999989
 31
0.0
 70
     0
 13
2332.5527039999988
 23
4428.6593510000002
 33
0.0
 14
2996.5569300000002
 24
3694.0484390000001
 34
0.0
1001
ACAD
1000
DSTYLE
1002
{
1070
   287
1070
     4
1070
    40
1040
30.0
1070
    75
1070
     1
1070
   143
1040
0.039
1070
   172
1070
     1
1070
   271
1070
     0
1070
   279
1070
     1
1070
   288
1070
     1
1002
}
  0
DIMENSION
  5
7D57
  8
3
  2
*D18
 10
3412.5527039999988
 20
4605.095170173131
 30
0.0
 11
2496.3740353843418
 21
4605.095170173131
 31
0.0
 70
   128
 13
1737.5527039999999
 23
3774.5484390000001
 33
0.0
 14
3412.5527039999988
 24
2824.0484390000001
 34
0.0
1001
ACAD
1000
DSTYLE
1002
{
1070
   287
1070
     3
1070
    40
1040
30.0
1070
   143
1040
0.039
1070
   172
1070
     1
1070
   271
1070
     0
1070
   279
1070
     0
1070
   288
1070
     1
1002
}
  0
LINE
  5
7D95
  8
1
  6
CONTINUOUS
 10
1832.552703999999
 20
3824.0484390000001
 30
0.0
 11
2832.5527039999988
 21
3824.0484390000001
 31
0.0
  0
LINE
  5
7D96
  8
1
 10
1832.552703999999
 20
3824.0484390000001
 30
0.0
 11
1832.552703999999
 21
2824.0484390000001
 31
0.0
  0
LINE
  5
7D97
  8
1
 10
2832.5527039999988
 20
3824.0484390000001
 30
0.0
 11
2832.5527039999988
 21
2824.0484390000001
 31
0.0
  0
ENDSEC
  0
EOF
