  0
SECTION
  2
HEADER
  9
$ACADVER
  1
AC1009
  9
$INSBASE
 10
0.0
 20
0.0
 30
0.0
  9
$EXTMIN
 10
750.0
 20
900.0
 30
0.0
  9
$EXTMAX
 10
5550.0
 20
8359.9567849999985
 30
0.0
  9
$LIMMIN
 10
0.0
 20
0.0
  9
$LIMMAX
 10
297.0
 20
210.0
  9
$ORTHOMODE
 70
     0
  9
$REGENMODE
 70
     1
  9
$FILLMODE
 70
     0
  9
$QTEXTMODE
 70
     0
  9
$MIRRTEXT
 70
     1
  9
$DRAGMODE
 70
     2
  9
$LTSCALE
 40
100.0
  9
$OSMODE
 70
    37
  9
$ATTMODE
 70
     1
  9
$TEXTSIZE
 40
180.0
  9
$TRACEWID
 40
0.05
  9
$TEXTSTYLE
  7
STANDARD
  9
$CLAYER
  8
3
  9
$CELTYPE
  6
BYLAYER
  9
$CECOLOR
 62
   256
  9
$DIMSCALE
 40
30.0
  9
$DIMASZ
 40
2.0
  9
$DIMEXO
 40
0.5
  9
$DIMDLI
 40
10.0
  9
$DIMRND
 40
0.0
  9
$DIMDLE
 40
0.0
  9
$DIMEXE
 40
1.0
  9
$DIMTP
 40
1.0
  9
$DIMTM
 40
1.0
  9
$DIMTXT
 40
3.0
  9
$DIMCEN
 40
0.0
  9
$DIMTSZ
 40
0.0
  9
$DIMTOL
 70
     0
  9
$DIMLIM
 70
     0
  9
$DIMTIH
 70
     0
  9
$DIMTOH
 70
     0
  9
$DIMSE1
 70
     0
  9
$DIMSE2
 70
     0
  9
$DIMTAD
 70
     1
  9
$DIMZIN
 70
     8
  9
$DIMBLK
  1

  9
$DIMASO
 70
     1
  9
$DIMSHO
 70
     1
  9
$DIMPOST
  1

  9
$DIMAPOST
  1

  9
$DIMALT
 70
     0
  9
$DIMALTD
 70
     2
  9
$DIMALTF
 40
0.039
  9
$DIMLFAC
 40
1.0
  9
$DIMTOFL
 70
     1
  9
$DIMTVP
 40
0.0
  9
$DIMTIX
 70
     0
  9
$DIMSOXD
 70
     0
  9
$DIMSAH
 70
     1
  9
$DIMBLK1
  1
OPEN
  9
$DIMBLK2
  1
OPEN
  9
$DIMSTYLE
  2
IGA
  9
$DIMCLRD
 70
     0
  9
$DIMCLRE
 70
     0
  9
$DIMCLRT
 70
     0
  9
$DIMTFAC
 40
10.0
  9
$DIMGAP
 40
1.0
  9
$LUNITS
 70
     2
  9
$LUPREC
 70
     3
  9
$SKETCHINC
 40
0.1
  9
$FILLETRAD
 40
50.0
  9
$AUNITS
 70
     0
  9
$AUPREC
 70
     0
  9
$MENU
  1
acad
  9
$ELEVATION
 40
0.0
  9
$PELEVATION
 40
0.0
  9
$THICKNESS
 40
0.0
  9
$LIMCHECK
 70
     0
  9
$BLIPMODE
 70
     0
  9
$CHAMFERA
 40
0.5
  9
$CHAMFERB
 40
0.5
  9
$SKPOLY
 70
     0
  9
$TDCREATE
 40
2450746.4736445602
  9
$TDUPDATE
 40
2454953.7753598718
  9
$TDINDWG
 40
0.0146654051
  9
$TDUSRTIMER
 40
0.0146654051
  9
$USRTIMER
 70
     1
  9
$ANGBASE
 50
0.0
  9
$ANGDIR
 70
     0
  9
$PDMODE
 70
     0
  9
$PDSIZE
 40
0.0
  9
$PLINEWID
 40
0.0
  9
$COORDS
 70
     1
  9
$SPLFRAME
 70
     0
  9
$SPLINETYPE
 70
     6
  9
$SPLINESEGS
 70
     8
  9
$ATTDIA
 70
     0
  9
$ATTREQ
 70
     1
  9
$HANDLING
 70
 10241
  9
$HANDSEED
  5
7E62
  9
$SURFTAB1
 70
     6
  9
$SURFTAB2
 70
     6
  9
$SURFTYPE
 70
     6
  9
$SURFU
 70
     6
  9
$SURFV
 70
     6
  9
$UCSNAME
  2

  9
$UCSORG
 10
0.0
 20
0.0
 30
0.0
  9
$UCSXDIR
 10
1.0
 20
0.0
 30
0.0
  9
$UCSYDIR
 10
0.0
 20
1.0
 30
0.0
  9
$PUCSNAME
  2

  9
$PUCSORG
 10
0.0
 20
0.0
 30
0.0
  9
$PUCSXDIR
 10
1.0
 20
0.0
 30
0.0
  9
$PUCSYDIR
 10
0.0
 20
1.0
 30
0.0
  9
$USERI1
 70
     0
  9
$USERI2
 70
     0
  9
$USERI3
 70
     0
  9
$USERI4
 70
     0
  9
$USERI5
 70
     0
  9
$USERR1
 40
0.0
  9
$USERR2
 40
0.0
  9
$USERR3
 40
0.0
  9
$USERR4
 40
0.0
  9
$USERR5
 40
0.0
  9
$WORLDVIEW
 70
     1
  9
$SHADEDGE
 70
     3
  9
$SHADEDIF
 70
    70
  9
$TILEMODE
 70
     1
  9
$MAXACTVP
 70
    16
  9
$PLIMCHECK
 70
     0
  9
$PEXTMIN
 10
1.0000000000000000E+020
 20
1.0000000000000000E+020
 30
1.0000000000000000E+020
  9
$PEXTMAX
 10
-1.0000000000000000E+020
 20
-1.0000000000000000E+020
 30
-1.0000000000000000E+020
  9
$PLIMMIN
 10
0.0
 20
0.0
  9
$PLIMMAX
 10
12.0
 20
9.0
  9
$UNITMODE
 70
     0
  9
$VISRETAIN
 70
     0
  9
$PLINEGEN
 70
     0
  9
$PSLTSCALE
 70
     1
  0
ENDSEC
  0
SECTION
  2
TABLES
  0
TABLE
  2
VPORT
 70
     2
  0
VPORT
  2
*ACTIVE
 70
     0
 10
0.0
 20
0.0
 11
1.0
 21
1.0
 12
9438.1687158055174
 22
4629.9562499988788
 13
0.0
 23
0.0
 14
10.0
 24
10.0
 15
10.0
 25
10.0
 16
0.0
 26
0.0
 36
1.0
 17
0.0
 27
0.0
 37
0.0
 40
7517.2452868940854
 41
3.1666666666666661
 42
50.0
 43
0.0
 44
0.0
 50
0.0
 51
0.0
 71
     0
 72
   100
 73
     1
 74
     0
 75
     0
 76
     0
 77
     0
 78
     0
  0
ENDTAB
  0
TABLE
  2
LTYPE
 70
     2
  0
LTYPE
  2
CONTINUOUS
 70
     0
  3
Solid line
 72
    65
 73
     0
 40
0.0
  0
LTYPE
  2
CENTER
 70
     0
  3
____ _ ____ _ ____ _ ____ _ ____ _ ____ _ ____ 
 72
    65
 73
     4
 40
2.0
 49
1.25
 49
-0.25
 49
0.25
 49
-0.25
  0
ENDTAB
  0
TABLE
  2
LAYER
 70
     6
  0
LAYER
  2
0
 70
     0
 62
     7
  6
CONTINUOUS
  0
LAYER
  2
3
 70
     0
 62
     2
  6
CONTINUOUS
  0
LAYER
  2
2
 70
     0
 62
     3
  6
CENTER
  0
LAYER
  2
1
 70
     0
 62
     4
  6
CONTINUOUS
  0
LAYER
  2
4
 70
     0
 62
     7
  6
CONTINUOUS
  0
LAYER
  2
DEFPOINTS
 70
     0
 62
     7
  6
CONTINUOUS
  0
ENDTAB
  0
TABLE
  2
STYLE
 70
     1
  0
STYLE
  2
STANDARD
 70
     0
 40
0.0
 41
1.0
 50
0.0
 71
     0
 42
180.0
  3
simplex.shx
  4
extfont.shx
  0
ENDTAB
  0
TABLE
  2
VIEW
 70
     0
  0
ENDTAB
  0
TABLE
  2
UCS
 70
     0
  0
ENDTAB
  0
TABLE
  2
APPID
 70
     1
  0
APPID
  2
ACAD
 70
     0
  0
ENDTAB
  0
TABLE
  2
DIMSTYLE
 70
     1
  0
DIMSTYLE
  2
IGA
 70
     0
  3

  4

  5

  6
OPEN
  7
OPEN
 40
2.0
 41
2.0
 42
0.5
 43
10.0
 44
1.0
 45
0.0
 46
0.0
 47
1.0
 48
1.0
140
3.0
141
0.0
142
0.0
143
0.03937
144
1.0
145
0.0
146
10.0
147
1.0
 71
     0
 72
     0
 73
     0
 74
     0
 75
     0
 76
     0
 77
     1
 78
     8
170
     0
171
     2
172
     0
173
     1
174
     0
175
     0
176
     0
177
     0
178
     0
  0
ENDTAB
  0
ENDSEC
  0
SECTION
  2
BLOCKS
  0
BLOCK
  8
0
  2
$MODEL_SPACE
 70
     0
 10
0.0
 20
0.0
 30
0.0
  3
$MODEL_SPACE
  1

  0
ENDBLK
  5
1B
  8
0
  0
BLOCK
 67
     1
  8
0
  2
$PAPER_SPACE
 70
     0
 10
0.0
 20
0.0
 30
0.0
  3
$PAPER_SPACE
  1

  0
ENDBLK
  5
18
 67
     1
  8
0
  0
BLOCK
  8
0
  2
_OPEN
 70
     0
 10
0.0
 20
0.0
 30
0.0
  3
_OPEN
  1

  0
LINE
  5
7B9E
  8
0
  6
BYBLOCK
 62
     0
 10
-1.0
 20
0.166667
 30
0.0
 11
0.0
 21
0.0
 31
0.0
  0
LINE
  5
7B9F
  8
0
  6
BYBLOCK
 62
     0
 10
0.0
 20
0.0
 30
0.0
 11
-1.0
 21
-0.166667
 31
0.0
  0
LINE
  5
7BA0
  8
0
  6
BYBLOCK
 62
     0
 10
0.0
 20
0.0
 30
0.0
 11
-1.0
 21
0.0
 31
0.0
  0
ENDBLK
  5
7BA1
  8
0
  0
BLOCK
  8
0
  2
*D1
 70
     1
 10
0.0
 20
0.0
 30
0.0
  3
*D1
  1

  0
LINE
  5
7DC4
  8
3
  6
CONTINUOUS
 62
     0
 10
2843.6001980000001
 20
3961.32746
 30
0.0
 11
2843.6001980000001
 21
4163.0699770000001
 31
0.0
  0
LINE
  5
7DC5
  8
3
  6
CONTINUOUS
 62
     0
 10
2018.6001980000001
 20
3961.32746
 30
0.0
 11
2018.6001980000001
 21
4163.0699770000001
 31
0.0
  0
LINE
  5
7DC6
  8
3
  6
CONTINUOUS
 62
     0
 10
2783.6001980000001
 20
4133.0699770000001
 30
0.0
 11
2078.6001980000001
 21
4133.0699770000001
 31
0.0
  0
INSERT
  5
7DC7
  8
3
  6
CONTINUOUS
 62
     0
  2
_OPEN
 10
2843.6001980000001
 20
4133.0699770000001
 30
0.0
 41
60.0
 42
60.0
 43
60.0
  0
INSERT
  5
7DC8
  8
3
  6
CONTINUOUS
 62
     0
  2
_OPEN
 10
2018.6001980000001
 20
4133.0699770000001
 30
0.0
 41
60.0
 42
60.0
 43
60.0
 50
180.0
  0
TEXT
  8
3
  40
90
  5
7E51
  62
0
  72
0
  71
0
 10
2234.35
 20
4048.77
 30
0.000000
  1
825
  0
POINT
  5
7DCA
  8
DEFPOINTS
  6
CONTINUOUS
 62
     0
 10
2843.6001980000001
 20
3946.32746
 30
0.0
  0
POINT
  5
7DCB
  8
DEFPOINTS
  6
CONTINUOUS
 62
     0
 10
2018.6001980000001
 20
3946.32746
 30
0.0
  0
POINT
  5
7DCC
  8
DEFPOINTS
  6
CONTINUOUS
 62
     0
 10
2018.6001980000001
 20
4133.0699770000001
 30
0.0
  0
ENDBLK
  5
7BAE
  8
0
  0
BLOCK
  8
0
  2
*D2
 70
     1
 10
0.0
 20
0.0
 30
0.0
  3
*D2
  1

  0
LINE
  5
7DCD
  8
3
  6
CONTINUOUS
 62
     0
 10
2843.6001980000001
 20
3961.32746
 30
0.0
 11
2843.6001980000001
 21
4360.1938229999987
 31
0.0
  0
LINE
  5
7DCE
  8
3
  6
CONTINUOUS
 62
     0
 10
2056.6001980000001
 20
4172.4704270000002
 30
0.0
 11
2056.6001980000001
 21
4360.1938229999987
 31
0.0
  0
LINE
  5
7DCF
  8
3
  6
CONTINUOUS
 62
     0
 10
2783.6001980000001
 20
4330.1938229999996
 30
0.0
 11
2116.6001979999992
 21
4330.1938229999996
 31
0.0
  0
INSERT
  5
7DD0
  8
3
  6
CONTINUOUS
 62
     0
  2
_OPEN
 10
2843.6001980000001
 20
4330.1938229999996
 30
0.0
 41
60.0
 42
60.0
 43
60.0
  0
INSERT
  5
7DD1
  8
3
  6
CONTINUOUS
 62
     0
  2
_OPEN
 10
2056.6001980000001
 20
4330.1938229999996
 30
0.0
 41
60.0
 42
60.0
 43
60.0
 50
180.0
  0
TEXT
  8
3
  40
90
  5
7E52
  62
0
  72
0
  71
0
 10
2234.35
 20
4245.89
 30
0.000000
  1
787
  0
POINT
  5
7DD3
  8
DEFPOINTS
  6
CONTINUOUS
 62
     0
 10
2843.6001980000001
 20
3946.32746
 30
0.0
  0
POINT
  5
7DD4
  8
DEFPOINTS
  6
CONTINUOUS
 62
     0
 10
2056.6001980000001
 20
4157.4704270000002
 30
0.0
  0
POINT
  5
7DD5
  8
DEFPOINTS
  6
CONTINUOUS
 62
     0
 10
2056.6001980000001
 20
4330.1938229999996
 30
0.0
  0
ENDBLK
  5
7BBB
  8
0
  0
BLOCK
  8
0
  2
*D3
 70
     1
 10
0.0
 20
0.0
 30
0.0
  3
*D3
  1

  0
LINE
  5
7DD6
  8
3
  6
CONTINUOUS
 62
     0
 10
1961.1001980000001
 20
3946.32746
 30
0.0
 11
1257.6008979999999
 21
3946.32746
 31
0.0
  0
LINE
  5
7DD7
  8
3
  6
CONTINUOUS
 62
     0
 10
1375.858628
 20
3351.32746
 30
0.0
 11
1257.6008979999999
 21
3351.32746
 31
0.0
  0
LINE
  5
7DD8
  8
3
  6
CONTINUOUS
 62
     0
 10
1287.6008979999999
 20
3886.32746
 30
0.0
 11
1287.6008979999999
 21
3411.3274599999991
 31
0.0
  0
INSERT
  5
7DD9
  8
3
  6
CONTINUOUS
 62
     0
  2
_OPEN
 10
1287.6008979999999
 20
3946.32746
 30
0.0
 41
60.0
 42
60.0
 43
60.0
 50
90.0
  0
INSERT
  5
7DDA
  8
3
  6
CONTINUOUS
 62
     0
  2
_OPEN
 10
1287.6008979999999
 20
3351.32746
 30
0.0
 41
60.0
 42
60.0
 43
60.0
 50
270.0
  0
TEXT
  8
3
  40
90
  5
7E53
  62
0
  72
0
  71
0
 10
1032.60
 20
3457.77
 30
0.000000
  1
595
  0
POINT
  5
7DDC
  8
DEFPOINTS
  6
CONTINUOUS
 62
     0
 10
1976.1001980000001
 20
3946.32746
 30
0.0
  0
POINT
  5
7DDD
  8
DEFPOINTS
  6
CONTINUOUS
 62
     0
 10
1390.858628
 20
3351.32746
 30
0.0
  0
POINT
  5
7DDE
  8
DEFPOINTS
  6
CONTINUOUS
 62
     0
 10
1287.6008979999999
 20
3351.32746
 30
0.0
  0
ENDBLK
  5
7BD4
  8
0
  0
BLOCK
  8
0
  2
*D4
 70
     1
 10
0.0
 20
0.0
 30
0.0
  3
*D4
  1

  0
LINE
  5
7DDF
  8
3
  6
CONTINUOUS
 62
     0
 10
1521.6001980000001
 20
2656.3274599999991
 30
0.0
 11
1257.6008979999999
 21
2656.3274599999991
 31
0.0
  0
LINE
  5
7DE0
  8
3
  6
CONTINUOUS
 62
     0
 10
1287.6008979999999
 20
3291.32746
 30
0.0
 11
1287.6008979999999
 21
2716.32746
 31
0.0
  0
INSERT
  5
7DE1
  8
3
  6
CONTINUOUS
 62
     0
  2
_OPEN
 10
1287.6008979999999
 20
3351.32746
 30
0.0
 41
60.0
 42
60.0
 43
60.0
 50
90.0
  0
INSERT
  5
7DE2
  8
3
  6
CONTINUOUS
 62
     0
  2
_OPEN
 10
1287.6008979999999
 20
2656.3274599999991
 30
0.0
 41
60.0
 42
60.0
 43
60.0
 50
270.0
  0
TEXT
  8
3
  40
90
  5
7E54
  62
0
  72
0
  71
0
 10
1032.60
 20
2844.53
 30
0.000000
  1
695
  0
POINT
  5
7DE4
  8
DEFPOINTS
  6
CONTINUOUS
 62
     0
 10
1390.858628
 20
3351.32746
 30
0.0
  0
POINT
  5
7DE5
  8
DEFPOINTS
  6
CONTINUOUS
 62
     0
 10
1536.6001980000001
 20
2656.3274599999991
 30
0.0
  0
POINT
  5
7DE6
  8
DEFPOINTS
  6
CONTINUOUS
 62
     0
 10
1287.6008979999999
 20
2656.3274599999991
 30
0.0
  0
ENDBLK
  5
7BE0
  8
0
  0
BLOCK
  8
0
  2
*D5
 70
     1
 10
0.0
 20
0.0
 30
0.0
  3
*D5
  1

  0
LINE
  5
7DE7
  8
3
  6
CONTINUOUS
 62
     0
 10
1521.6001980000001
 20
2656.3274599999991
 30
0.0
 11
1255.4039
 21
2656.3274599999991
 31
0.0
  0
LINE
  5
7DE8
  8
3
  6
CONTINUOUS
 62
     0
 10
1521.6001980000001
 20
2531.3274599999991
 30
0.0
 11
1255.4039
 21
2531.3274599999991
 31
0.0
  0
LINE
  5
7DE9
  8
3
  6
CONTINUOUS
 62
     0
 10
1285.4039
 20
2716.32746
 30
0.0
 11
1285.4039
 21
2776.32746
 31
0.0
  0
LINE
  5
7DEA
  8
3
  6
CONTINUOUS
 62
     0
 10
1285.4039
 20
2471.32746
 30
0.0
 11
1285.4039
 21
2137.0417457142848
 31
0.0
  0
LINE
  5
7DEB
  8
3
  6
CONTINUOUS
 62
     0
 10
1285.4039
 20
2656.3274599999991
 30
0.0
 11
1285.4039
 21
2531.3274599999991
 31
0.0
  0
INSERT
  5
7DEC
  8
3
  6
CONTINUOUS
 62
     0
  2
_OPEN
 10
1285.4039
 20
2656.3274599999991
 30
0.0
 41
60.0
 42
60.0
 43
60.0
 50
270.0
  0
INSERT
  5
7DED
  8
3
  6
CONTINUOUS
 62
     0
  2
_OPEN
 10
1285.4039
 20
2531.3274599999991
 30
0.0
 41
60.0
 42
60.0
 43
60.0
 50
90.0
  0
TEXT
  8
3
  40
90
  5
7E55
  62
0
  72
0
  71
0
 10
1030.40
 20
2114.88
 30
0.000000
  1
125
  0
POINT
  5
7DEF
  8
DEFPOINTS
  6
CONTINUOUS
 62
     0
 10
1536.6001980000001
 20
2656.3274599999991
 30
0.0
  0
POINT
  5
7DF0
  8
DEFPOINTS
  6
CONTINUOUS
 62
     0
 10
1536.6001980000001
 20
2531.3274599999991
 30
0.0
  0
POINT
  5
7DF1
  8
DEFPOINTS
  6
CONTINUOUS
 62
     0
 10
1285.4039
 20
2531.3274599999991
 30
0.0
  0
ENDBLK
  5
7D49
  8
0
  0
BLOCK
  8
0
  2
*D6
 70
     1
 10
0.0
 20
0.0
 30
0.0
  3
*D6
  1

  0
LINE
  5
7DF2
  8
3
  6
CONTINUOUS
 62
     0
 10
1946.1001980000001
 20
3946.32746
 30
0.0
 11
1080.54439
 21
3946.32746
 31
0.0
  0
LINE
  5
7DF3
  8
3
  6
CONTINUOUS
 62
     0
 10
1521.6001980000001
 20
2531.3274599999991
 30
0.0
 11
1080.54439
 21
2531.3274599999991
 31
0.0
  0
LINE
  5
7DF4
  8
3
  6
CONTINUOUS
 62
     0
 10
1110.54439
 20
3886.32746
 30
0.0
 11
1110.54439
 21
2591.32746
 31
0.0
  0
INSERT
  5
7DF5
  8
3
  6
CONTINUOUS
 62
     0
  2
_OPEN
 10
1110.54439
 20
3946.32746
 30
0.0
 41
60.0
 42
60.0
 43
60.0
 50
90.0
  0
INSERT
  5
7DF6
  8
3
  6
CONTINUOUS
 62
     0
  2
_OPEN
 10
1110.54439
 20
2531.3274599999991
 30
0.0
 41
60.0
 42
60.0
 43
60.0
 50
270.0
  0
TEXT
  8
3
  40
90
  5
7E56
  62
0
  72
0
  71
0
 10
855.544
 20
3040.33
 30
0.000000
  1
1415
  0
POINT
  5
7DF8
  8
DEFPOINTS
  6
CONTINUOUS
 62
     0
 10
1961.1001980000001
 20
3946.32746
 30
0.0
  0
POINT
  5
7DF9
  8
DEFPOINTS
  6
CONTINUOUS
 62
     0
 10
1536.6001980000001
 20
2531.3274599999991
 30
0.0
  0
POINT
  5
7DFA
  8
DEFPOINTS
  6
CONTINUOUS
 62
     0
 10
1110.54439
 20
2531.3274599999991
 30
0.0
  0
ENDBLK
  5
7CC6
  8
0
  0
BLOCK
  8
0
  2
*D7
 70
     1
 10
0.0
 20
0.0
 30
0.0
  3
*D7
  1

  0
LINE
  5
7DFB
  8
3
  6
CONTINUOUS
 62
     0
 10
1536.6001980000001
 20
2516.32746
 30
0.0
 11
1536.6001980000001
 21
2262.405698999999
 31
0.0
  0
LINE
  5
7DFC
  8
3
  6
CONTINUOUS
 62
     0
 10
2056.6001980000001
 20
2408.6894829999992
 30
0.0
 11
2056.6001980000001
 21
2262.405698999999
 31
0.0
  0
LINE
  5
7DFD
  8
3
  6
CONTINUOUS
 62
     0
 10
1596.6001980000001
 20
2292.4056989999999
 30
0.0
 11
1996.6001980000001
 21
2292.4056989999999
 31
0.0
  0
INSERT
  5
7DFE
  8
3
  6
CONTINUOUS
 62
     0
  2
_OPEN
 10
1536.6001980000001
 20
2292.4056989999999
 30
0.0
 41
60.0
 42
60.0
 43
60.0
 50
180.0
  0
INSERT
  5
7DFF
  8
3
  6
CONTINUOUS
 62
     0
  2
_OPEN
 10
2056.6001980000001
 20
2292.4056989999999
 30
0.0
 41
60.0
 42
60.0
 43
60.0
  0
TEXT
  8
3
  40
90
  5
7E57
  62
0
  72
0
  71
0
 10
1600.77
 20
2208.11
 30
0.000000
  1
520
  0
POINT
  5
7E01
  8
DEFPOINTS
  6
CONTINUOUS
 62
     0
 10
1536.6001980000001
 20
2531.3274599999991
 30
0.0
  0
POINT
  5
7E02
  8
DEFPOINTS
  6
CONTINUOUS
 62
     0
 10
2056.6001980000001
 20
2423.6894829999992
 30
0.0
  0
POINT
  5
7E03
  8
DEFPOINTS
  6
CONTINUOUS
 62
     0
 10
2056.6001980000001
 20
2292.4056989999999
 30
0.0
  0
ENDBLK
  5
7CE7
  8
0
  0
BLOCK
  8
0
  2
*D8
 70
     1
 10
0.0
 20
0.0
 30
0.0
  3
*D8
  1

  0
LINE
  5
7E04
  8
3
  6
CONTINUOUS
 62
     0
 10
3136.6001980000001
 20
2516.32746
 30
0.0
 11
3136.6001980000001
 21
2262.405698999999
 31
0.0
  0
LINE
  5
7E05
  8
3
  6
CONTINUOUS
 62
     0
 10
2116.6001979999992
 20
2292.4056989999999
 30
0.0
 11
3076.6001980000001
 21
2292.4056989999999
 31
0.0
  0
INSERT
  5
7E06
  8
3
  6
CONTINUOUS
 62
     0
  2
_OPEN
 10
2056.6001980000001
 20
2292.4056989999999
 30
0.0
 41
60.0
 42
60.0
 43
60.0
 50
180.0
  0
INSERT
  5
7E07
  8
3
  6
CONTINUOUS
 62
     0
  2
_OPEN
 10
3136.6001980000001
 20
2292.4056989999999
 30
0.0
 41
60.0
 42
60.0
 43
60.0
  0
TEXT
  8
3
  40
90
  5
7E58
  62
0
  72
0
  71
0
 10
2416.60
 20
2208.11
 30
0.000000
  1
1080
  0
POINT
  5
7E09
  8
DEFPOINTS
  6
CONTINUOUS
 62
     0
 10
2056.6001980000001
 20
2423.6894829999992
 30
0.0
  0
POINT
  5
7E0A
  8
DEFPOINTS
  6
CONTINUOUS
 62
     0
 10
3136.6001980000001
 20
2531.3274599999991
 30
0.0
  0
POINT
  5
7E0B
  8
DEFPOINTS
  6
CONTINUOUS
 62
     0
 10
3136.6001980000001
 20
2292.4056989999999
 30
0.0
  0
ENDBLK
  5
7CDC
  8
0
  0
BLOCK
  8
0
  2
*D9
 70
     1
 10
0.0
 20
0.0
 30
0.0
  3
*D9
  1

  0
LINE
  5
7E0C
  8
3
  6
CONTINUOUS
 62
     0
 10
4518.692489
 20
3961.32746
 30
0.0
 11
4518.692489
 21
4104.5870500000001
 31
0.0
  0
LINE
  5
7E0D
  8
3
  6
CONTINUOUS
 62
     0
 10
5118.692489
 20
3961.32746
 30
0.0
 11
5118.692489
 21
4104.5870500000001
 31
0.0
  0
LINE
  5
7E0E
  8
3
  6
CONTINUOUS
 62
     0
 10
4578.692489
 20
4074.5870500000001
 30
0.0
 11
5058.692489
 21
4074.5870500000001
 31
0.0
  0
INSERT
  5
7E0F
  8
3
  6
CONTINUOUS
 62
     0
  2
_OPEN
 10
4518.692489
 20
4074.5870500000001
 30
0.0
 41
60.0
 42
60.0
 43
60.0
 50
180.0
  0
INSERT
  5
7E10
  8
3
  6
CONTINUOUS
 62
     0
  2
_OPEN
 10
5118.692489
 20
4074.5870500000001
 30
0.0
 41
60.0
 42
60.0
 43
60.0
  0
TEXT
  8
3
  40
90
  5
7E59
  62
0
  72
0
  71
0
 10
4643.60
 20
3990.29
 30
0.000000
  1
600
  0
POINT
  5
7E12
  8
DEFPOINTS
  6
CONTINUOUS
 62
     0
 10
4518.692489
 20
3946.32746
 30
0.0
  0
POINT
  5
7E13
  8
DEFPOINTS
  6
CONTINUOUS
 62
     0
 10
5118.692489
 20
3946.32746
 30
0.0
  0
POINT
  5
7E14
  8
DEFPOINTS
  6
CONTINUOUS
 62
     0
 10
5118.692489
 20
4074.5870500000001
 30
0.0
  0
ENDBLK
  5
7C23
  8
0
  0
BLOCK
  8
0
  2
*D10
 70
     1
 10
0.0
 20
0.0
 30
0.0
  3
*D10
  1

  0
LINE
  5
7E15
  8
3
  6
CONTINUOUS
 62
     0
 10
5137.6924889999991
 20
3776.32746
 30
0.0
 11
5396.1111110000011
 21
3776.32746
 31
0.0
  0
LINE
  5
7E16
  8
3
  6
CONTINUOUS
 62
     0
 10
5137.6924889999991
 20
2926.3274599999991
 30
0.0
 11
5396.1111110000011
 21
2926.3274599999991
 31
0.0
  0
LINE
  5
7E17
  8
3
  6
CONTINUOUS
 62
     0
 10
5366.111111000002
 20
3716.32746
 30
0.0
 11
5366.111111000002
 21
2986.32746
 31
0.0
  0
INSERT
  5
7E18
  8
3
  6
CONTINUOUS
 62
     0
  2
_OPEN
 10
5366.111111000002
 20
3776.32746
 30
0.0
 41
60.0
 42
60.0
 43
60.0
 50
90.0
  0
INSERT
  5
7E19
  8
3
  6
CONTINUOUS
 62
     0
  2
_OPEN
 10
5366.111111000002
 20
2926.3274599999991
 30
0.0
 41
60.0
 42
60.0
 43
60.0
 50
270.0
  0
TEXT
  8
3
  40
90
  5
7E5A
  62
0
  72
0
  71
0
 10
5111.11
 20
3175.09
 30
0.000000
  1
φ850
  0
POINT
  5
7E1B
  8
DEFPOINTS
  6
CONTINUOUS
 62
     0
 10
5122.692489
 20
3776.32746
 30
0.0
  0
POINT
  5
7E1C
  8
DEFPOINTS
  6
CONTINUOUS
 62
     0
 10
5122.692489
 20
2926.3274599999991
 30
0.0
  0
POINT
  5
7E1D
  8
DEFPOINTS
  6
CONTINUOUS
 62
     0
 10
5366.111111000002
 20
2926.3274599999991
 30
0.0
  0
ENDBLK
  5
7D75
  8
0
  0
BLOCK
  8
0
  2
*D11
 70
     1
 10
0.0
 20
0.0
 30
0.0
  3
*D11
  1

  0
LINE
  5
7D61
  8
0
  6
BYBLOCK
 62
     0
 10
5122.692489
 20
3791.32746
 30
0.0
 11
5122.692489
 21
4281.8176659999999
 31
0.0
  0
LINE
  5
7D62
  8
0
  6
BYBLOCK
 62
     0
 10
4818.692489
 20
4221.5081809999992
 30
0.0
 11
4818.692489
 21
4281.8176659999999
 31
0.0
  0
LINE
  5
7D63
  8
0
  6
BYBLOCK
 62
     0
 10
5062.6924889999991
 20
4251.817665999999
 30
0.0
 11
4878.692489
 21
4251.817665999999
 31
0.0
  0
TEXT
  5
7D64
  8
3
 62
     0
 10
4852.8353461428569
 20
4280.156003023465
 30
0.0
 40
90.0
  1
304
  0
INSERT
  5
7D65
  8
0
  6
BYBLOCK
 62
     0
  2
_OPEN
 10
5122.692489
 20
4251.817665999999
 30
0.0
 41
60.0
 42
60.0
 43
60.0
  0
INSERT
  5
7D66
  8
0
  6
BYBLOCK
 62
     0
  2
_OPEN
 10
4818.692489
 20
4251.817665999999
 30
0.0
 41
60.0
 42
60.0
 43
60.0
 50
180.0
  0
POINT
  5
7D67
  8
DEFPOINTS
  6
BYBLOCK
 62
     0
 10
5122.692489
 20
3776.32746
 30
0.0
  0
POINT
  5
7D68
  8
DEFPOINTS
  6
BYBLOCK
 62
     0
 10
4818.692489
 20
4206.5081810000001
 30
0.0
  0
POINT
  5
7D69
  8
DEFPOINTS
  6
BYBLOCK
 62
     0
 10
4818.692489
 20
4251.817665999999
 30
0.0
  0
ENDBLK
  5
7D6A
  8
0
  0
BLOCK
  8
0
  2
*D12
 70
     1
 10
0.0
 20
0.0
 30
0.0
  3
*D12
  1

  0
LINE
  5
7E1E
  8
3
  6
CONTINUOUS
 62
     0
 10
4258.692489
 20
4021.32746
 30
0.0
 11
4258.692489
 21
4281.8176659999999
 31
0.0
  0
LINE
  5
7E1F
  8
3
  6
CONTINUOUS
 62
     0
 10
4758.692489
 20
4251.817665999999
 30
0.0
 11
4318.692489
 21
4251.817665999999
 31
0.0
  0
INSERT
  5
7E20
  8
3
  6
CONTINUOUS
 62
     0
  2
_OPEN
 10
4818.692489
 20
4251.817665999999
 30
0.0
 41
60.0
 42
60.0
 43
60.0
  0
INSERT
  5
7E21
  8
3
  6
CONTINUOUS
 62
     0
  2
_OPEN
 10
4258.692489
 20
4251.817665999999
 30
0.0
 41
60.0
 42
60.0
 43
60.0
 50
180.0
  0
TEXT
  8
3
  40
90
  5
7E5B
  62
0
  72
0
  71
0
 10
4358.69
 20
4242.52
 30
0.000000
  1
MAX
  0
TEXT
  8
3
  40
90
  5
7E5C
  62
0
  72
0
  71
0
 10
4358.69
 20
4125.52
 30
0.000000
  1
610
  0
POINT
  5
7E23
  8
DEFPOINTS
  6
CONTINUOUS
 62
     0
 10
4818.692489
 20
4206.5081810000001
 30
0.0
  0
POINT
  5
7E24
  8
DEFPOINTS
  6
CONTINUOUS
 62
     0
 10
4258.692489
 20
4006.32746
 30
0.0
  0
POINT
  5
7E25
  8
DEFPOINTS
  6
CONTINUOUS
 62
     0
 10
4258.692489
 20
4251.817665999999
 30
0.0
  0
ENDBLK
  5
7D7F
  8
0
  0
BLOCK
  8
0
  2
*D13
 70
     1
 10
0.0
 20
0.0
 30
0.0
  3
*D13
  1

  0
LINE
  5
7E26
  8
3
  6
CONTINUOUS
 62
     0
 10
4350.692489
 20
2516.32746
 30
0.0
 11
4350.692489
 21
2283.7043060000001
 31
0.0
  0
LINE
  5
7E27
  8
3
  6
CONTINUOUS
 62
     0
 10
4818.692489
 20
2336.863887999999
 30
0.0
 11
4818.692489
 21
2283.7043060000001
 31
0.0
  0
LINE
  5
7E28
  8
3
  6
CONTINUOUS
 62
     0
 10
4410.692489
 20
2313.7043059999992
 30
0.0
 11
4758.692489
 21
2313.7043059999992
 31
0.0
  0
INSERT
  5
7E29
  8
3
  6
CONTINUOUS
 62
     0
  2
_OPEN
 10
4350.692489
 20
2313.7043059999992
 30
0.0
 41
60.0
 42
60.0
 43
60.0
 50
180.0
  0
INSERT
  5
7E2A
  8
3
  6
CONTINUOUS
 62
     0
  2
_OPEN
 10
4818.692489
 20
2313.7043059999992
 30
0.0
 41
60.0
 42
60.0
 43
60.0
  0
TEXT
  8
3
  40
90
  5
7E5D
  62
0
  72
0
  71
0
 10
4432.98
 20
2229.40
 30
0.000000
  1
468
  0
POINT
  5
7E2C
  8
DEFPOINTS
  6
CONTINUOUS
 62
     0
 10
4350.692489
 20
2531.3274599999991
 30
0.0
  0
POINT
  5
7E2D
  8
DEFPOINTS
  6
CONTINUOUS
 62
     0
 10
4818.692489
 20
2351.8638879999999
 30
0.0
  0
POINT
  5
7E2E
  8
DEFPOINTS
  6
CONTINUOUS
 62
     0
 10
4818.692489
 20
2313.7043059999992
 30
0.0
  0
ENDBLK
  5
7D28
  8
0
  0
BLOCK
  8
0
  2
*D14
 70
     1
 10
0.0
 20
0.0
 30
0.0
  3
*D14
  1

  0
LINE
  5
7E2F
  8
3
  6
CONTINUOUS
 62
     0
 10
5170.692489
 20
2516.32746
 30
0.0
 11
5170.692489
 21
2283.7043060000001
 31
0.0
  0
LINE
  5
7E30
  8
3
  6
CONTINUOUS
 62
     0
 10
4878.692489
 20
2313.7043059999992
 30
0.0
 11
5110.692489
 21
2313.7043059999992
 31
0.0
  0
TEXT
  8
3
  40
90
  5
7E5E
  62
0
  72
0
  71
0
 10
4827.71
 20
2231.08
 30
0.000000
  1
352
  0
INSERT
  5
7E32
  8
3
  6
CONTINUOUS
 62
     0
  2
_OPEN
 10
4818.692489
 20
2313.7043059999992
 30
0.0
 41
60.0
 42
60.0
 43
60.0
 50
180.0
  0
INSERT
  5
7E33
  8
3
  6
CONTINUOUS
 62
     0
  2
_OPEN
 10
5170.692489
 20
2313.7043059999992
 30
0.0
 41
60.0
 42
60.0
 43
60.0
  0
POINT
  5
7E34
  8
DEFPOINTS
  6
CONTINUOUS
 62
     0
 10
4818.692489
 20
2351.8638879999999
 30
0.0
  0
POINT
  5
7E35
  8
DEFPOINTS
  6
CONTINUOUS
 62
     0
 10
5170.692489
 20
2531.3274599999991
 30
0.0
  0
POINT
  5
7E36
  8
DEFPOINTS
  6
CONTINUOUS
 62
     0
 10
5170.692489
 20
2313.7043059999992
 30
0.0
  0
ENDBLK
  5
7D32
  8
0
  0
BLOCK
  8
0
  2
*D15
 70
     1
 10
0.0
 20
0.0
 30
0.0
  3
*D15
  1

  0
LINE
  5
7E37
  8
3
  6
CONTINUOUS
 62
     0
 10
1536.6001980000001
 20
6315.4781839999996
 30
0.0
 11
1536.6001980000001
 21
6532.2531330000011
 31
0.0
  0
LINE
  5
7E38
  8
3
  6
CONTINUOUS
 62
     0
 10
3136.6001980000001
 20
6315.4781839999996
 30
0.0
 11
3136.6001980000001
 21
6532.2531330000011
 31
0.0
  0
LINE
  5
7E39
  8
3
  6
CONTINUOUS
 62
     0
 10
1596.6001980000001
 20
6502.2531330000002
 30
0.0
 11
3076.6001980000001
 21
6502.2531330000002
 31
0.0
  0
INSERT
  5
7E3A
  8
3
  6
CONTINUOUS
 62
     0
  2
_OPEN
 10
1536.6001980000001
 20
6502.2531330000002
 30
0.0
 41
60.0
 42
60.0
 43
60.0
 50
180.0
  0
INSERT
  5
7E3B
  8
3
  6
CONTINUOUS
 62
     0
  2
_OPEN
 10
3136.6001980000001
 20
6502.2531330000002
 30
0.0
 41
60.0
 42
60.0
 43
60.0
  0
TEXT
  8
3
  40
90
  5
7E5F
  62
0
  72
0
  71
0
 10
2170.97
 20
6417.95
 30
0.000000
  1
1600
  0
POINT
  5
7E3D
  8
DEFPOINTS
  6
CONTINUOUS
 62
     0
 10
1536.6001980000001
 20
6300.4781840000014
 30
0.0
  0
POINT
  5
7E3E
  8
DEFPOINTS
  6
CONTINUOUS
 62
     0
 10
3136.6001980000001
 20
6300.4781840000014
 30
0.0
  0
POINT
  5
7E3F
  8
DEFPOINTS
  6
CONTINUOUS
 62
     0
 10
3136.6001980000001
 20
6502.2531330000002
 30
0.0
  0
ENDBLK
  5
7CF2
  8
0
  0
BLOCK
  8
0
  2
*D16
 70
     1
 10
0.0
 20
0.0
 30
0.0
  3
*D16
  1

  0
LINE
  5
7E40
  8
3
  6
CONTINUOUS
 62
     0
 10
3151.6001980000001
 20
6300.4781840000014
 30
0.0
 11
3434.6995060000008
 21
6300.4781840000014
 31
0.0
  0
LINE
  5
7E41
  8
3
  6
CONTINUOUS
 62
     0
 10
3151.6001980000001
 20
5480.4781839999996
 30
0.0
 11
3434.6995060000008
 21
5480.4781839999996
 31
0.0
  0
LINE
  5
7E42
  8
3
  6
CONTINUOUS
 62
     0
 10
3404.6995060000008
 20
6240.4781839999996
 30
0.0
 11
3404.6995060000008
 21
5540.4781840000014
 31
0.0
  0
INSERT
  5
7E43
  8
3
  6
CONTINUOUS
 62
     0
  2
_OPEN
 10
3404.6995060000008
 20
6300.4781840000014
 30
0.0
 41
60.0
 42
60.0
 43
60.0
 50
90.0
  0
INSERT
  5
7E44
  8
3
  6
CONTINUOUS
 62
     0
  2
_OPEN
 10
3404.6995060000008
 20
5480.4781839999996
 30
0.0
 41
60.0
 42
60.0
 43
60.0
 50
270.0
  0
TEXT
  8
3
  40
90
  5
7E60
  62
0
  72
0
  71
0
 10
3149.70
 20
5758.06
 30
0.000000
  1
820
  0
POINT
  5
7E46
  8
DEFPOINTS
  6
CONTINUOUS
 62
     0
 10
3136.6001980000001
 20
6300.4781840000014
 30
0.0
  0
POINT
  5
7E47
  8
DEFPOINTS
  6
CONTINUOUS
 62
     0
 10
3136.6001980000001
 20
5480.4781839999996
 30
0.0
  0
POINT
  5
7E48
  8
DEFPOINTS
  6
CONTINUOUS
 62
     0
 10
3404.6995060000008
 20
5480.4781839999996
 30
0.0
  0
ENDBLK
  5
7C9B
  8
0
  0
BLOCK
  8
0
  2
*D17
 70
     1
 10
0.0
 20
0.0
 30
0.0
  3
*D17
  1

  0
LINE
  5
7E49
  8
3
  6
CONTINUOUS
 62
     0
 10
1480.609550893126
 20
3366.3274599999991
 30
0.0
 11
1480.609550893126
 21
4360.1938229999987
 31
0.0
  0
LINE
  5
7E4A
  8
3
  6
CONTINUOUS
 62
     0
 10
1996.6001980000001
 20
4330.1938229999996
 30
0.0
 11
1540.609550893126
 21
4330.1938229999996
 31
0.0
  0
INSERT
  5
7E4B
  8
3
  6
CONTINUOUS
 62
     0
  2
_OPEN
 10
2056.6001980000001
 20
4330.1938229999996
 30
0.0
 41
60.0
 42
60.0
 43
60.0
  0
INSERT
  5
7E4C
  8
3
  6
CONTINUOUS
 62
     0
  2
_OPEN
 10
1480.609550893126
 20
4330.1938229999996
 30
0.0
 41
60.0
 42
60.0
 43
60.0
 50
180.0
  0
TEXT
  8
3
  40
90
  5
7E61
  62
0
  72
0
  71
0
 10
1588.60
 20
4245.89
 30
0.000000
  1
576
  0
POINT
  5
7E4E
  8
DEFPOINTS
  6
CONTINUOUS
 62
     0
 10
2056.6001980000001
 20
4157.4704270000002
 30
0.0
  0
POINT
  5
7E4F
  8
DEFPOINTS
  6
CONTINUOUS
 62
     0
 10
1480.609550893126
 20
3351.3274599999991
 30
0.0
  0
POINT
  5
7E50
  8
DEFPOINTS
  6
CONTINUOUS
 62
     0
 10
1480.609550893126
 20
4330.1938229999996
 30
0.0
  0
ENDBLK
  5
7D54
  8
0
  0
ENDSEC
  0
SECTION
  2
ENTITIES
  0
LINE
  5
7AB0
  8
1
  6
CONTINUOUS
 10
2997.7701980000002
 20
3020.6674600000001
 30
0.0
 11
2159.3801979999998
 21
3522.8974600000001
 31
0.0
  0
ARC
  5
7AB1
  8
1
  6
CONTINUOUS
 10
2959.220198
 20
2956.32746
 30
0.0
 40
162.0
 50
324.97000000000003
 51
215.02999999999989
  0
CIRCLE
  5
7AB2
  8
1
  6
CONTINUOUS
 10
2959.220198
 20
2956.32746
 30
0.0
 40
75.0
  0
LINE
  5
7AB3
  8
1
  6
CONTINUOUS
 10
2206.6001980000001
 20
4006.32746
 30
0.0
 11
3116.6001980000001
 21
3056.32746
 31
0.0
  0
LINE
  5
7AB4
  8
2
  6
CENTER
 10
3034.2201979999991
 20
2956.32746
 30
0.0
 11
2884.2201979999991
 21
2956.32746
 31
0.0
  0
LINE
  5
7AB5
  8
1
  6
CONTINUOUS
 10
1536.6001980000001
 20
2656.3274599999991
 30
0.0
 11
3136.6001980000001
 21
2656.3274599999991
 31
0.0
  0
LINE
  5
7AB6
  8
1
  6
CONTINUOUS
 10
3121.220198
 20
6071.4781839999996
 30
0.0
 11
2843.6001980000001
 21
6071.4781839999996
 31
0.0
  0
LINE
  5
7AB7
  8
1
  6
CONTINUOUS
 10
3121.220198
 20
5586.4781839999996
 30
0.0
 11
2797.220198
 21
5586.4781839999996
 31
0.0
  0
LINE
  5
7AB8
  8
1
  6
CONTINUOUS
 10
3136.6001980000001
 20
6300.4781840000014
 30
0.0
 11
1536.6001980000001
 21
6300.4781840000014
 31
0.0
  0
LINE
  5
7AB9
  8
1
  6
CONTINUOUS
 10
3116.6001980000001
 20
5388.4781840000014
 30
0.0
 11
1636.6001980000001
 21
5388.4781840000014
 31
0.0
  0
LINE
  5
7ABA
  8
1
  6
CONTINUOUS
 10
3116.6001980000001
 20
5538.4781840000014
 30
0.0
 11
1636.6001980000001
 21
5538.4781840000014
 31
0.0
  0
LINE
  5
7ABB
  8
1
  6
CONTINUOUS
 10
2884.2201979999991
 20
5498.4781839999996
 30
0.0
 11
3034.2201979999991
 21
5498.4781839999996
 31
0.0
  0
LINE
  5
7ABC
  8
1
  6
CONTINUOUS
 10
2884.2201979999991
 20
5428.4781840000014
 30
0.0
 11
3034.2201979999991
 21
5428.4781840000014
 31
0.0
  0
LINE
  5
7ABD
  8
1
  6
CONTINUOUS
 10
3136.6001980000001
 20
2756.32746
 30
0.0
 11
1536.6001980000001
 21
2756.32746
 31
0.0
  0
ARC
  5
7ABE
  8
1
  6
CONTINUOUS
 10
2108.6001980000001
 20
3403.3274599999991
 30
0.0
 40
717.88999999999987
 50
265.24000000000001
 51
355.85000000000002
  0
LINE
  5
7ABF
  8
1
  6
CONTINUOUS
 10
1536.6001980000001
 20
2631.32746
 30
0.0
 11
3136.6001980000001
 21
2631.32746
 31
0.0
  0
LINE
  5
7AC0
  8
1
  6
CONTINUOUS
 10
1536.6001980000001
 20
2531.3274599999991
 30
0.0
 11
3136.6001980000001
 21
2531.3274599999991
 31
0.0
  0
LINE
  5
7AC1
  8
1
  6
CONTINUOUS
 10
2938.1201980000001
 20
2884.3574600000002
 30
0.0
 11
2000.3101979999999
 21
3159.4074599999999
 31
0.0
  0
LINE
  5
7AC3
  8
2
  6
CENTER
 10
1390.858628
 20
3351.32746
 30
0.0
 11
3087.4606020000001
 21
3351.32746
 31
0.0
  0
CIRCLE
  5
7AC4
  8
1
  6
CONTINUOUS
 10
2056.6001980000001
 20
3351.32746
 30
0.0
 40
200.0
  0
LINE
  5
7AC5
  8
1
  6
CONTINUOUS
 10
1636.6001980000001
 20
4006.32746
 30
0.0
 11
2206.6001980000001
 21
4006.32746
 31
0.0
  0
LINE
  5
7AC8
  8
1
  6
CONTINUOUS
 10
1976.1001980000001
 20
3946.32746
 30
0.0
 11
2886.1001980000001
 21
3946.32746
 31
0.0
  0
LINE
  5
7AC9
  8
2
  6
CENTER
 10
2056.6001980000001
 20
6396.9276620000001
 30
0.0
 11
2056.6001980000001
 21
5285.4228700000012
 31
0.0
  0
LINE
  5
7ACA
  8
1
  6
CONTINUOUS
 10
1636.6001980000001
 20
2756.32746
 30
0.0
 11
1636.6001980000001
 21
4006.32746
 31
0.0
  0
ARC
  5
7ACB
  8
1
  6
CONTINUOUS
 10
2100.6001979999992
 20
3307.3274599999991
 30
0.0
 40
621.54999999999995
 50
173.5
 51
265.24000000000001
  0
LINE
  5
7ACD
  8
1
  6
CONTINUOUS
 10
1536.6001980000001
 20
2631.32746
 30
0.0
 11
1536.6001980000001
 21
2531.3274599999991
 31
0.0
  0
LINE
  5
7ACE
  8
1
  6
CONTINUOUS
 10
1536.6001980000001
 20
2756.32746
 30
0.0
 11
1536.6001980000001
 21
2656.3274599999991
 31
0.0
  0
ARC
  5
7ACF
  8
1
  6
CONTINUOUS
 10
2021.6001980000001
 20
3316.32746
 30
0.0
 40
542.03999999999985
 50
90.319999999999993
 51
173.5
  0
LINE
  5
7AD0
  8
1
  6
CONTINUOUS
 10
2018.6001980000001
 20
3858.3574600000002
 30
0.0
 11
2018.6001980000001
 21
3946.32746
 31
0.0
  0
LINE
  5
7AD2
  8
1
  6
CONTINUOUS
 10
2805.220198
 20
2814.32746
 30
0.0
 11
2826.5701979999999
 21
2863.347459999999
 31
0.0
  0
LINE
  5
7AD3
  8
1
  6
CONTINUOUS
 10
2805.220198
 20
2756.32746
 30
0.0
 11
2805.220198
 21
2814.32746
 31
0.0
  0
LINE
  5
7AD4
  8
2
  6
CENTER
 10
2959.220198
 20
2881.3274599999991
 30
0.0
 11
2959.220198
 21
3031.3274599999991
 31
0.0
  0
LINE
  5
7AD5
  8
1
  6
CONTINUOUS
 10
2843.6001980000001
 20
3946.32746
 30
0.0
 11
2824.6001980000001
 21
3351.32746
 31
0.0
  0
LINE
  5
7AD6
  8
1
  6
CONTINUOUS
 10
2018.6001980000001
 20
5648.4781839999996
 30
0.0
 11
2843.6001980000001
 21
6248.4781839999996
 31
0.0
  0
LINE
  5
7AD7
  8
1
  6
CONTINUOUS
 10
2018.6001980000001
 20
6248.4781839999996
 30
0.0
 11
2843.6001980000001
 21
5648.4781839999996
 31
0.0
  0
LINE
  5
7AD8
  8
1
  6
CONTINUOUS
 10
2843.6001980000001
 20
6248.4781839999996
 30
0.0
 11
1479.0501979999999
 21
6248.4781839999996
 31
0.0
  0
LINE
  5
7AD9
  8
1
  6
CONTINUOUS
 10
2843.6001980000001
 20
5648.4781839999996
 30
0.0
 11
1479.0501979999999
 21
5648.4781839999996
 31
0.0
  0
LINE
  5
7ADA
  8
1
  6
CONTINUOUS
 10
1856.6001980000001
 20
5498.4781839999996
 30
0.0
 11
2256.6001980000001
 21
5498.4781839999996
 31
0.0
  0
LINE
  5
7ADB
  8
1
  6
CONTINUOUS
 10
1856.6001980000001
 20
5428.4781840000014
 30
0.0
 11
2256.6001980000001
 21
5428.4781840000014
 31
0.0
  0
LINE
  5
7ADC
  8
1
  6
CONTINUOUS
 10
1479.0501979999999
 20
5648.4781839999996
 30
0.0
 11
1479.0501979999999
 21
6248.4781839999996
 31
0.0
  0
LINE
  5
7ADD
  8
1
  6
CONTINUOUS
 10
2018.6001980000001
 20
5648.4781839999996
 30
0.0
 11
2018.6001980000001
 21
6248.4781839999996
 31
0.0
  0
LINE
  5
7ADE
  8
1
  6
CONTINUOUS
 10
1856.6001980000001
 20
5480.4781839999996
 30
0.0
 11
1536.6001980000001
 21
5480.4781839999996
 31
0.0
  0
LINE
  5
7ADF
  8
1
  6
CONTINUOUS
 10
1536.6001980000001
 20
5648.4781839999996
 30
0.0
 11
1536.6001980000001
 21
5480.4781839999996
 31
0.0
  0
LINE
  5
7AE0
  8
1
  6
CONTINUOUS
 10
2035.6001980000001
 20
5498.4781839999996
 30
0.0
 11
2035.6001980000001
 21
5648.4781839999996
 31
0.0
  0
LINE
  5
7AE1
  8
1
  6
CONTINUOUS
 10
1636.6001980000001
 20
5388.4781840000014
 30
0.0
 11
1636.6001980000001
 21
5538.4781840000014
 31
0.0
  0
LINE
  5
7AE2
  8
1
  6
CONTINUOUS
 10
1856.6001980000001
 20
5428.4781840000014
 30
0.0
 11
1856.6001980000001
 21
5498.4781839999996
 31
0.0
  0
LINE
  5
7AE3
  8
1
  6
CONTINUOUS
 10
1536.6001980000001
 20
6300.4781840000014
 30
0.0
 11
1536.6001980000001
 21
6248.4781839999996
 31
0.0
  0
LINE
  5
7AE4
  8
1
  6
CONTINUOUS
 10
2843.6001980000001
 20
5648.4781839999996
 30
0.0
 11
2843.6001980000001
 21
6248.4781839999996
 31
0.0
  0
LINE
  5
7AE5
  8
1
  6
CONTINUOUS
 10
2884.2201979999991
 20
5480.4781839999996
 30
0.0
 11
2256.6001980000001
 21
5480.4781839999996
 31
0.0
  0
LINE
  5
7AE6
  8
1
  6
CONTINUOUS
 10
2077.6001980000001
 20
5498.4781839999996
 30
0.0
 11
2077.6001980000001
 21
5648.4781839999996
 31
0.0
  0
LINE
  5
7AE7
  8
1
  6
CONTINUOUS
 10
2256.6001980000001
 20
5428.4781840000014
 30
0.0
 11
2256.6001980000001
 21
5498.4781839999996
 31
0.0
  0
LINE
  5
7AE8
  8
1
  6
CONTINUOUS
 10
2938.220198
 20
5498.4781839999996
 30
0.0
 11
2938.220198
 21
5586.4781839999996
 31
0.0
  0
LINE
  5
7AE9
  8
1
  6
CONTINUOUS
 10
2884.2201979999991
 20
5428.4781840000014
 30
0.0
 11
2884.2201979999991
 21
5498.4781839999996
 31
0.0
  0
LINE
  5
7AEA
  8
1
  6
CONTINUOUS
 10
2797.220198
 20
5586.4781839999996
 30
0.0
 11
2797.220198
 21
5648.4781839999996
 31
0.0
  0
LINE
  5
7AEB
  8
1
  6
CONTINUOUS
 10
5160.692489
 20
3946.32746
 30
0.0
 11
4476.692489
 21
3946.32746
 31
0.0
  0
LINE
  5
7AEC
  8
1
  6
CONTINUOUS
 10
5170.692489
 20
2531.3274599999991
 30
0.0
 11
4350.692489
 21
2531.3274599999991
 31
0.0
  0
LINE
  5
7AED
  8
1
  6
CONTINUOUS
 10
5170.692489
 20
2631.32746
 30
0.0
 11
4350.692489
 21
2631.32746
 31
0.0
  0
LINE
  5
7AEE
  8
1
  6
CONTINUOUS
 10
5170.692489
 20
2756.32746
 30
0.0
 11
4258.692489
 21
2756.32746
 31
0.0
  0
LINE
  5
7AEF
  8
1
  6
CONTINUOUS
 10
5170.692489
 20
2656.3274599999991
 30
0.0
 11
4350.692489
 21
2656.3274599999991
 31
0.0
  0
LINE
  5
7B01
  8
1
  6
CONTINUOUS
 10
3136.6001980000001
 20
2631.32746
 30
0.0
 11
3136.6001980000001
 21
2531.3274599999991
 31
0.0
  0
LINE
  5
7B02
  8
1
  6
CONTINUOUS
 10
3113.220198
 20
2756.32746
 30
0.0
 11
3113.220198
 21
2814.32746
 31
0.0
  0
LINE
  5
7B03
  8
1
  6
CONTINUOUS
 10
3113.220198
 20
2814.32746
 30
0.0
 11
3091.8801979999998
 21
2863.347459999999
 31
0.0
  0
LINE
  5
7B04
  8
1
  6
CONTINUOUS
 10
3116.6001980000001
 20
3056.32746
 30
0.0
 11
3116.6001980000001
 21
2756.32746
 31
0.0
  0
LINE
  5
7B05
  8
1
  6
CONTINUOUS
 10
3136.6001980000001
 20
2756.32746
 30
0.0
 11
3136.6001980000001
 21
2656.3274599999991
 31
0.0
  0
LINE
  5
7B1A
  8
1
  6
CONTINUOUS
 10
4368.6924889999991
 20
3551.32746
 30
0.0
 11
4368.6924889999991
 21
3151.32746
 31
0.0
  0
LINE
  5
7B1B
  8
1
  6
CONTINUOUS
 10
4298.692489
 20
3551.32746
 30
0.0
 11
4298.692489
 21
3151.32746
 31
0.0
  0
LINE
  5
7B1C
  8
1
  6
CONTINUOUS
 10
4408.6924889999991
 20
4006.32746
 30
0.0
 11
4408.6924889999991
 21
2756.32746
 31
0.0
  0
LINE
  5
7B1D
  8
1
  6
CONTINUOUS
 10
4258.692489
 20
4006.32746
 30
0.0
 11
4258.692489
 21
2756.32746
 31
0.0
  0
LINE
  5
7B1E
  8
1
  6
CONTINUOUS
 10
4518.692489
 20
3946.32746
 30
0.0
 11
4518.692489
 21
2756.32746
 31
0.0
  0
LINE
  5
7B22
  8
1
  6
CONTINUOUS
 10
4350.692489
 20
2631.32746
 30
0.0
 11
4350.692489
 21
2531.3274599999991
 31
0.0
  0
LINE
  5
7B23
  8
1
  6
CONTINUOUS
 10
4518.692489
 20
3330.32746
 30
0.0
 11
4368.6924889999991
 21
3330.32746
 31
0.0
  0
LINE
  5
7B24
  8
1
  6
CONTINUOUS
 10
4368.6924889999991
 20
2935.3274599999991
 30
0.0
 11
4518.692489
 21
2935.3274599999991
 31
0.0
  0
LINE
  5
7B25
  8
1
  6
CONTINUOUS
 10
4368.6924889999991
 20
2977.32746
 30
0.0
 11
4518.692489
 21
2977.32746
 31
0.0
  0
LINE
  5
7B26
  8
1
  6
CONTINUOUS
 10
4368.6924889999991
 20
3031.3274599999991
 30
0.0
 11
4368.6924889999991
 21
2881.3274599999991
 31
0.0
  0
LINE
  5
7B27
  8
1
  6
CONTINUOUS
 10
4298.692489
 20
3031.3274599999991
 30
0.0
 11
4298.692489
 21
2881.3274599999991
 31
0.0
  0
LINE
  5
7B28
  8
1
  6
CONTINUOUS
 10
4298.692489
 20
2881.3274599999991
 30
0.0
 11
4368.6924889999991
 21
2881.3274599999991
 31
0.0
  0
LINE
  5
7B29
  8
1
  6
CONTINUOUS
 10
4298.692489
 20
3031.3274599999991
 30
0.0
 11
4368.6924889999991
 21
3031.3274599999991
 31
0.0
  0
LINE
  5
7B2A
  8
1
  6
CONTINUOUS
 10
4298.692489
 20
3151.32746
 30
0.0
 11
4368.6924889999991
 21
3151.32746
 31
0.0
  0
LINE
  5
7B2B
  8
1
  6
CONTINUOUS
 10
4350.692489
 20
2756.32746
 30
0.0
 11
4350.692489
 21
2656.3274599999991
 31
0.0
  0
LINE
  5
7B2C
  8
1
  6
CONTINUOUS
 10
4518.692489
 20
3372.32746
 30
0.0
 11
4368.6924889999991
 21
3372.32746
 31
0.0
  0
LINE
  5
7B2D
  8
1
  6
CONTINUOUS
 10
4408.6924889999991
 20
4006.32746
 30
0.0
 11
4258.692489
 21
4006.32746
 31
0.0
  0
LINE
  5
7B2E
  8
1
  6
CONTINUOUS
 10
4298.692489
 20
3551.32746
 30
0.0
 11
4368.6924889999991
 21
3551.32746
 31
0.0
  0
LINE
  5
7B3C
  8
1
  6
CONTINUOUS
 10
3136.6001980000001
 20
6300.4781840000014
 30
0.0
 11
3136.6001980000001
 21
5480.4781839999996
 31
0.0
  0
LINE
  5
7B3E
  8
1
  6
CONTINUOUS
 10
2980.2201979999991
 20
5498.4781839999996
 30
0.0
 11
2980.2201979999991
 21
5586.4781839999996
 31
0.0
  0
LINE
  5
7B3F
  8
1
  6
CONTINUOUS
 10
3136.6001980000001
 20
5480.4781839999996
 30
0.0
 11
3034.2201979999991
 21
5480.4781839999996
 31
0.0
  0
LINE
  5
7B40
  8
1
  6
CONTINUOUS
 10
3116.6001980000001
 20
5538.4781840000014
 30
0.0
 11
3116.6001980000001
 21
5388.4781840000014
 31
0.0
  0
LINE
  5
7B41
  8
1
  6
CONTINUOUS
 10
3034.2201979999991
 20
5428.4781840000014
 30
0.0
 11
3034.2201979999991
 21
5498.4781839999996
 31
0.0
  0
LINE
  5
7B42
  8
1
  6
CONTINUOUS
 10
3121.220198
 20
5586.4781839999996
 30
0.0
 11
3121.220198
 21
6071.4781839999996
 31
0.0
  0
LINE
  5
7B57
  8
1
  6
CONTINUOUS
 10
5118.692489
 20
3946.32746
 30
0.0
 11
5118.692489
 21
2756.32746
 31
0.0
  0
LINE
  5
7B58
  8
1
  6
CONTINUOUS
 10
5170.692489
 20
2631.32746
 30
0.0
 11
5170.692489
 21
2531.3274599999991
 31
0.0
  0
LINE
  5
7B59
  8
1
  6
CONTINUOUS
 10
5170.692489
 20
2756.32746
 30
0.0
 11
5170.692489
 21
2656.3274599999991
 31
0.0
  0
LINE
  5
7B5A
  8
2
  6
CENTER
 10
3229.0414859999992
 20
5948.4781839999996
 30
0.0
 11
1304.794621
 21
5948.4781839999996
 31
0.0
  0
LINE
  5
7B5B
  8
2
  6
CENTER
 10
4818.692489
 20
4056.367166
 30
0.0
 11
4818.692489
 21
2351.8638879999999
 31
0.0
  0
LINE
  5
7B5C
  8
2
  6
CENTER
 10
2056.6001980000001
 20
4157.4704270000002
 30
0.0
 11
2056.6001980000001
 21
2423.6894829999992
 31
0.0
  0
LINE
  5
7B5D
  8
2
  6
CENTER
 10
4192.7829979999997
 20
3351.32746
 30
0.0
 11
5188.7507439999999
 21
3351.32746
 31
0.0
  0
LINE
  5
7B7D
  8
4
  6
CONTINUOUS
 10
5550.0
 20
1500.0
 30
0.0
 11
5550.0
 21
900.0
 31
0.0
  0
LINE
  5
7B7E
  8
4
  6
CONTINUOUS
 10
3450.0
 20
1500.0
 30
0.0
 11
3450.0
 21
900.0
 31
0.0
  0
LINE
  5
7B7F
  8
4
  6
CONTINUOUS
 10
1950.0
 20
1500.0
 30
0.0
 11
1950.0
 21
900.0
 31
0.0
  0
LINE
  5
7B82
  8
4
  6
CONTINUOUS
 10
1950.0
 20
900.0
 30
0.0
 11
5550.0
 21
900.0
 31
0.0
  0
LINE
  5
7B83
  8
4
  6
CONTINUOUS
 10
1950.0
 20
1200.0
 30
0.0
 11
5550.0
 21
1200.0
 31
0.0
  0
TEXT
  5
7B84
  8
4
  6
CONTINUOUS
 10
2065.5062429999989
 20
1294.6290779999999
 30
0.0
 40
150.0
  1
機器名称
  0
TEXT
  5
7B85
  8
4
  6
CONTINUOUS
 10
2058.7743179999989
 20
964.9354699999999
 30
0.0
 40
150.0
  1
機器型番
  0
TEXT
  5
7B86
  8
4
  6
CONTINUOUS
 10
3533.0362359999999
 20
1267.7153069999999
 30
0.0
 40
150.0
  1
ミツヤ多翼送風機
  0
TEXT
  5
7B87
  8
4
  6
CONTINUOUS
 10
3559.9634869999991
 20
951.47875299999987
 30
0.0
 40
150.0
  1
MF#5-4
  0
TEXT
  5
7B89
  8
4
  6
CONTINUOUS
 10
2342.6031760000001
 20
7150.2865239999992
 30
0.0
 40
162.0
  1
床置防振ベット
  0
TEXT
  5
7B8A
  8
4
  6
CONTINUOUS
 10
948.50278000000014
 20
7601.6429289999996
 30
0.0
 40
216.0
  1
ベルト駆動式片吸込両持多翼ファン
  0
LINE
  5
7B8B
  8
4
  6
CONTINUOUS
 10
750.0
 20
7408.2262629999996
 30
0.0
 11
5550.0
 21
7408.2262629999996
 31
0.0
  0
LINE
  5
7B8C
  8
4
  6
CONTINUOUS
 10
750.0
 20
8008.2262629999996
 30
0.0
 11
5550.0
 21
8008.2262629999996
 31
0.0
  0
LINE
  5
7B8D
  8
4
  6
CONTINUOUS
 10
1950.0
 20
1500.0
 30
0.0
 11
5550.0
 21
1500.0
 31
0.0
  0
LINE
  5
7B8E
  8
4
  6
CONTINUOUS
 10
750.0
 20
8008.2262629999996
 30
0.0
 11
750.0
 21
7408.2262629999996
 31
0.0
  0
TEXT
  5
7B8F
  8
4
  6
CONTINUOUS
 10
1035.0266790000001
 20
7146.9584329999998
 30
0.0
 40
162.0
  1
左回転上向
  0
TEXT
  5
7B90
  8
4
  6
CONTINUOUS
 10
4406.9086779999989
 20
8118.1832439999989
 30
0.0
 40
168.0
  1
No.
  0
TEXT
  5
7B91
  8
4
  6
CONTINUOUS
 10
3933.8881879999999
 20
7150.2865239999992
 30
0.0
 40
162.0
  1
縮尺：1/30
  0
LINE
  5
7B92
  8
4
  6
CONTINUOUS
 10
5550.0
 20
8008.2262629999996
 30
0.0
 11
5550.0
 21
7408.2262629999996
 31
0.0
  0
LINE
  5
7B94
  8
4
  6
CONTINUOUS
 10
4321.8522670000002
 20
8043.7907490000007
 30
0.0
 11
4321.8522670000002
 21
8359.9567849999985
 31
0.0
  0
LINE
  5
7B95
  8
4
  6
CONTINUOUS
 10
4321.8522670000002
 20
8359.9567849999985
 30
0.0
 11
5550.0
 21
8359.9567849999985
 31
0.0
  0
LINE
  5
7B96
  8
4
  6
CONTINUOUS
 10
5550.0
 20
8359.9567849999985
 30
0.0
 11
5550.0
 21
8043.7907490000007
 31
0.0
  0
LINE
  5
7B97
  8
4
  6
CONTINUOUS
 10
5550.0
 20
8043.7907490000007
 30
0.0
 11
4321.8522670000002
 21
8043.7907490000007
 31
0.0
  0
DIMENSION
  5
7BAF
  8
3
  6
CONTINUOUS
  2
*D1
 10
2018.6001980000001
 20
4133.0699770000001
 30
0.0
 11
2414.347495
 21
4133.0699770000001
 31
0.0
 70
   128
 13
2843.6001980000001
 23
3946.32746
 33
0.0
 14
2018.6001980000001
 24
3946.32746
 34
0.0
1001
ACAD
1000
DSTYLE
1002
{
1070
   287
1070
     3
1070
    40
1040
30.0
1070
   143
1040
0.039
1070
   172
1070
     1
1070
   271
1070
     0
1070
   279
1070
     0
1070
   288
1070
     1
1002
}
  0
DIMENSION
  5
7BBC
  8
3
  6
CONTINUOUS
  2
*D2
 10
2056.6001980000001
 20
4330.1938229999996
 30
0.0
 11
2414.347495
 21
4330.1938229999996
 31
0.0
 70
   128
 13
2843.6001980000001
 23
3946.32746
 33
0.0
 14
2056.6001980000001
 24
4157.4704270000002
 34
0.0
1001
ACAD
1000
DSTYLE
1002
{
1070
   287
1070
     3
1070
    40
1040
30.0
1070
   143
1040
0.039
1070
   172
1070
     1
1070
   271
1070
     0
1070
   279
1070
     0
1070
   288
1070
     1
1002
}
  0
DIMENSION
  5
7BD5
  8
3
  6
CONTINUOUS
  2
*D3
 10
1287.6008979999999
 20
3351.32746
 30
0.0
 11
1287.6008979999999
 21
3617.069301
 31
0.0
 70
   128
 13
1976.1001980000001
 23
3946.32746
 33
0.0
 14
1390.858628
 24
3351.32746
 34
0.0
 50
90.0
1001
ACAD
1000
DSTYLE
1002
{
1070
   287
1070
     3
1070
    40
1040
30.0
1070
   143
1040
0.039
1070
   172
1070
     1
1070
   271
1070
     0
1070
   279
1070
     0
1070
   288
1070
     1
1002
}
  0
DIMENSION
  5
7BE1
  8
3
  6
CONTINUOUS
  2
*D4
 10
1287.6008979999999
 20
2656.3274599999991
 30
0.0
 11
1212.600897999999
 21
3003.82746
 31
0.0
 70
     0
 13
1390.858628
 23
3351.32746
 33
0.0
 14
1536.6001980000001
 24
2656.3274599999991
 34
0.0
 50
90.0
1001
ACAD
1000
DSTYLE
1002
{
1070
   287
1070
     4
1070
    40
1040
30.0
1070
    75
1070
     1
1070
   143
1040
0.039
1070
   172
1070
     1
1070
   271
1070
     0
1070
   279
1070
     1
1070
   288
1070
     1
1002
}
  0
DIMENSION
  5
7BF1
  8
3
  6
CONTINUOUS
  2
*D5
 10
1285.4039
 20
2531.3274599999991
 30
0.0
 11
1285.4039
 21
2274.1846028571431
 31
0.0
 70
   128
 13
1536.6001980000001
 23
2656.3274599999991
 33
0.0
 14
1536.6001980000001
 24
2531.3274599999991
 34
0.0
 50
90.0
1001
ACAD
1000
DSTYLE
1002
{
1070
   287
1070
     3
1070
    40
1040
30.0
1070
   143
1040
0.039
1070
   172
1070
     1
1070
   271
1070
     0
1070
   279
1070
     0
1070
   288
1070
     1
1002
}
  0
DIMENSION
  5
7BFE
  8
3
  6
CONTINUOUS
  2
*D6
 10
1110.54439
 20
2531.3274599999991
 30
0.0
 11
1110.54439
 21
3199.6305790000001
 31
0.0
 70
   128
 13
1961.1001980000001
 23
3946.32746
 33
0.0
 14
1536.6001980000001
 24
2531.3274599999991
 34
0.0
 50
90.0
1001
ACAD
1000
DSTYLE
1002
{
1070
   287
1070
     3
1070
    40
1040
30.0
1070
   143
1040
0.039
1070
   172
1070
     1
1070
   271
1070
     0
1070
   279
1070
     0
1070
   288
1070
     1
1002
}
  0
DIMENSION
  5
7C0B
  8
3
  6
CONTINUOUS
  2
*D7
 10
2056.6001980000001
 20
2292.4056989999999
 30
0.0
 11
1780.771269999999
 21
2292.4056989999999
 31
0.0
 70
   128
 13
1536.6001980000001
 23
2531.3274599999991
 33
0.0
 14
2056.6001980000001
 24
2423.6894829999992
 34
0.0
1001
ACAD
1000
DSTYLE
1002
{
1070
   287
1070
     3
1070
    40
1040
30.0
1070
   143
1040
0.039
1070
   172
1070
     1
1070
   271
1070
     0
1070
   279
1070
     0
1070
   288
1070
     1
1002
}
  0
DIMENSION
  5
7C17
  8
3
  6
CONTINUOUS
  2
*D8
 10
3136.6001980000001
 20
2292.4056989999999
 30
0.0
 11
2596.6001980000001
 21
2367.4056989999999
 31
0.0
 70
     0
 13
2056.6001980000001
 23
2423.6894829999992
 33
0.0
 14
3136.6001980000001
 24
2531.3274599999991
 34
0.0
1001
ACAD
1000
DSTYLE
1002
{
1070
   287
1070
     4
1070
    40
1040
30.0
1070
    75
1070
     1
1070
   143
1040
0.039
1070
   172
1070
     1
1070
   271
1070
     0
1070
   279
1070
     1
1070
   288
1070
     1
1002
}
  0
DIMENSION
  5
7C24
  8
3
  6
CONTINUOUS
  2
*D9
 10
5118.692489
 20
4074.5870500000001
 30
0.0
 11
4823.5970670000006
 21
4074.5870500000001
 31
0.0
 70
   128
 13
4518.692489
 23
3946.32746
 33
0.0
 14
5118.692489
 24
3946.32746
 34
0.0
1001
ACAD
1000
DSTYLE
1002
{
1070
   287
1070
     3
1070
    40
1040
30.0
1070
   143
1040
0.039
1070
   172
1070
     1
1070
   271
1070
     0
1070
   279
1070
     0
1070
   288
1070
     1
1002
}
  0
LINE
  5
7C27
  8
1
  6
CONTINUOUS
 10
5122.692489
 20
3776.32746
 30
0.0
 11
5122.692489
 21
2926.3274599999991
 31
0.0
  0
DIMENSION
  5
7C35
  8
3
  6
CONTINUOUS
  2
*D10
 10
5366.111111000002
 20
2926.3274599999991
 30
0.0
 11
5366.1111110000002
 21
3334.3886089999992
 31
0.0
 70
   128
 13
5122.692489
 23
3776.32746
 33
0.0
 14
5122.692489
 24
2926.3274599999991
 34
0.0
 50
90.0
1001
ACAD
1000
DSTYLE
1002
{
1070
   287
1070
     3
1070
     3
1000
φ<>
1070
    40
1040
30.0
1070
   143
1040
0.039
1070
   172
1070
     1
1070
   271
1070
     0
1070
   279
1070
     0
1070
   288
1070
     1
1002
}
  0
DIMENSION
  5
7C44
  8
3
  6
CONTINUOUS
  2
*D11
 10
4818.692489
 20
4251.817665999999
 30
0.0
 11
4970.6924890000009
 21
4325.1560030234641
 31
0.0
 70
   128
 13
5122.692489
 23
3776.32746
 33
0.0
 14
4818.692489
 24
4206.5081810000001
 34
0.0
1001
ACAD
1000
DSTYLE
1002
{
1070
   288
1070
     1
1070
   172
1070
     1
1070
    40
1040
30.0
1070
   271
1070
     0
1070
   143
1040
0.039
1002
}
  0
DIMENSION
  5
7C50
  8
3
  6
CONTINUOUS
  2
*D12
 10
4258.692489
 20
4251.817665999999
 30
0.0
 11
4538.692489
 21
4401.8176659999999
 31
0.0
 70
     0
  1
MAX\P610
 13
4818.692489
 23
4206.5081810000001
 33
0.0
 14
4258.692489
 24
4006.32746
 34
0.0
1001
ACAD
1000
DSTYLE
1002
{
1070
   287
1070
     4
1070
    40
1040
30.0
1070
    75
1070
     1
1070
   143
1040
0.039
1070
   172
1070
     1
1070
   271
1070
     0
1070
   279
1070
     1
1070
   288
1070
     1
1002
}
  0
DIMENSION
  5
7C5D
  8
3
  6
CONTINUOUS
  2
*D13
 10
4818.692489
 20
2313.7043059999992
 30
0.0
 11
4612.9782029999988
 21
2313.7043059999992
 31
0.0
 70
   128
 13
4350.692489
 23
2531.3274599999991
 33
0.0
 14
4818.692489
 24
2351.8638879999999
 34
0.0
1001
ACAD
1000
DSTYLE
1002
{
1070
   287
1070
     3
1070
    40
1040
30.0
1070
   143
1040
0.039
1070
   172
1070
     1
1070
   271
1070
     0
1070
   279
1070
     0
1070
   288
1070
     1
1002
}
  0
DIMENSION
  5
7C6B
  8
3
  6
CONTINUOUS
  2
*D14
 10
5170.692489
 20
2313.7043059999992
 30
0.0
 11
5007.7053720000004
 21
2315.375857999999
 31
0.0
 70
   128
 13
4818.692489
 23
2351.8638879999999
 33
0.0
 14
5170.692489
 24
2531.3274599999991
 34
0.0
1001
ACAD
1000
DSTYLE
1002
{
1070
   287
1070
     4
1070
    40
1040
30.0
1070
    75
1070
     1
1070
   143
1040
0.039
1070
   172
1070
     1
1070
   271
1070
     0
1070
   279
1070
     1
1070
   288
1070
     1
1002
}
  0
DIMENSION
  5
7C8F
  8
3
  6
CONTINUOUS
  2
*D15
 10
3136.6001980000001
 20
6502.2531330000002
 30
0.0
 11
2350.970280999999
 21
6502.2531330000002
 31
0.0
 70
   128
 13
1536.6001980000001
 23
6300.4781840000014
 33
0.0
 14
3136.6001980000001
 24
6300.4781840000014
 34
0.0
1001
ACAD
1000
DSTYLE
1002
{
1070
   287
1070
     3
1070
    40
1040
30.0
1070
   143
1040
0.039
1070
   172
1070
     1
1070
   271
1070
     0
1070
   279
1070
     0
1070
   288
1070
     1
1002
}
  0
DIMENSION
  5
7C9C
  8
3
  6
CONTINUOUS
  2
*D16
 10
3404.6995060000008
 20
5480.4781839999996
 30
0.0
 11
3404.6995059999999
 21
5917.3624589999999
 31
0.0
 70
   128
 13
3136.6001980000001
 23
6300.4781840000014
 33
0.0
 14
3136.6001980000001
 24
5480.4781839999996
 34
0.0
 50
90.0
1001
ACAD
1000
DSTYLE
1002
{
1070
   287
1070
     3
1070
    40
1040
30.0
1070
   143
1040
0.039
1070
   172
1070
     1
1070
   271
1070
     0
1070
   279
1070
     0
1070
   288
1070
     1
1002
}
  0
DIMENSION
  5
7CD2
  8
3
  6
CONTINUOUS
  2
*D17
 10
1480.609550893126
 20
4330.1938229999996
 30
0.0
 11
1768.6048744465629
 21
4405.1938229999996
 31
0.0
 70
     0
 13
2056.6001980000001
 23
4157.4704270000002
 33
0.0
 14
1480.609550893126
 24
3351.3274599999991
 34
0.0
1001
ACAD
1000
DSTYLE
1002
{
1070
   287
1070
     4
1070
    40
1040
30.0
1070
    75
1070
     1
1070
   143
1040
0.039
1070
   172
1070
     1
1070
   271
1070
     0
1070
   279
1070
     1
1070
   288
1070
     1
1002
}
  0
LINE
  5
7DA5
  8
1
  6
CONTINUOUS
 10
2556.6001980000001
 20
3756.32746
 30
0.0
 11
1556.6001980000001
 21
3756.32746
 31
0.0
  0
LINE
  5
7DA6
  8
1
 10
1556.6001980000001
 20
3756.32746
 30
0.0
 11
1556.6001980000001
 21
2756.32746
 31
0.0
  0
LINE
  5
7DA7
  8
1
 10
2556.6001980000001
 20
3756.32746
 30
0.0
 11
2556.6001980000001
 21
2756.32746
 31
0.0
  0
ENDSEC
  0
EOF
