  0
SECTION
  2
HEADER
  9
$ACADVER
  1
AC1009
  9
$INSBASE
 10
0.0
 20
0.0
 30
0.0
  9
$EXTMIN
 10
750.0
 20
900.0
 30
0.0
  9
$EXTMAX
 10
5550.0
 20
8359.9567849999985
 30
0.0
  9
$LIMMIN
 10
0.0
 20
0.0
  9
$LIMMAX
 10
297.0
 20
210.0
  9
$ORTHOMODE
 70
     0
  9
$REGENMODE
 70
     1
  9
$FILLMODE
 70
     0
  9
$QTEXTMODE
 70
     0
  9
$MIRRTEXT
 70
     1
  9
$DRAGMODE
 70
     2
  9
$LTSCALE
 40
100.0
  9
$OSMODE
 70
    37
  9
$ATTMODE
 70
     1
  9
$TEXTSIZE
 40
180.0
  9
$TRACEWID
 40
0.05
  9
$TEXTSTYLE
  7
STANDARD
  9
$CLAYER
  8
3
  9
$CELTYPE
  6
BYLAYER
  9
$CECOLOR
 62
   256
  9
$DIMSCALE
 40
30.0
  9
$DIMASZ
 40
2.0
  9
$DIMEXO
 40
0.5
  9
$DIMDLI
 40
10.0
  9
$DIMRND
 40
0.0
  9
$DIMDLE
 40
0.0
  9
$DIMEXE
 40
1.0
  9
$DIMTP
 40
1.0
  9
$DIMTM
 40
1.0
  9
$DIMTXT
 40
3.0
  9
$DIMCEN
 40
0.0
  9
$DIMTSZ
 40
0.0
  9
$DIMTOL
 70
     0
  9
$DIMLIM
 70
     0
  9
$DIMTIH
 70
     0
  9
$DIMTOH
 70
     0
  9
$DIMSE1
 70
     0
  9
$DIMSE2
 70
     0
  9
$DIMTAD
 70
     1
  9
$DIMZIN
 70
     8
  9
$DIMBLK
  1

  9
$DIMASO
 70
     1
  9
$DIMSHO
 70
     1
  9
$DIMPOST
  1

  9
$DIMAPOST
  1

  9
$DIMALT
 70
     0
  9
$DIMALTD
 70
     2
  9
$DIMALTF
 40
0.039
  9
$DIMLFAC
 40
1.0
  9
$DIMTOFL
 70
     1
  9
$DIMTVP
 40
0.0
  9
$DIMTIX
 70
     0
  9
$DIMSOXD
 70
     0
  9
$DIMSAH
 70
     1
  9
$DIMBLK1
  1
OPEN
  9
$DIMBLK2
  1
OPEN
  9
$DIMSTYLE
  2
IGA
  9
$DIMCLRD
 70
     0
  9
$DIMCLRE
 70
     0
  9
$DIMCLRT
 70
     0
  9
$DIMTFAC
 40
10.0
  9
$DIMGAP
 40
1.0
  9
$LUNITS
 70
     2
  9
$LUPREC
 70
     3
  9
$SKETCHINC
 40
0.1
  9
$FILLETRAD
 40
0.0
  9
$AUNITS
 70
     0
  9
$AUPREC
 70
     0
  9
$MENU
  1
acad
  9
$ELEVATION
 40
0.0
  9
$PELEVATION
 40
0.0
  9
$THICKNESS
 40
0.0
  9
$LIMCHECK
 70
     0
  9
$BLIPMODE
 70
     0
  9
$CHAMFERA
 40
0.5
  9
$CHAMFERB
 40
0.5
  9
$SKPOLY
 70
     0
  9
$TDCREATE
 40
2450746.4549476849
  9
$TDUPDATE
 40
2454953.7753097801
  9
$TDINDWG
 40
0.0143011921
  9
$TDUSRTIMER
 40
0.0143011921
  9
$USRTIMER
 70
     1
  9
$ANGBASE
 50
0.0
  9
$ANGDIR
 70
     0
  9
$PDMODE
 70
     0
  9
$PDSIZE
 40
0.0
  9
$PLINEWID
 40
0.0
  9
$COORDS
 70
     1
  9
$SPLFRAME
 70
     0
  9
$SPLINETYPE
 70
     6
  9
$SPLINESEGS
 70
     8
  9
$ATTDIA
 70
     0
  9
$ATTREQ
 70
     1
  9
$HANDLING
 70
 10241
  9
$HANDSEED
  5
7E3A
  9
$SURFTAB1
 70
     6
  9
$SURFTAB2
 70
     6
  9
$SURFTYPE
 70
     6
  9
$SURFU
 70
     6
  9
$SURFV
 70
     6
  9
$UCSNAME
  2

  9
$UCSORG
 10
0.0
 20
0.0
 30
0.0
  9
$UCSXDIR
 10
1.0
 20
0.0
 30
0.0
  9
$UCSYDIR
 10
0.0
 20
1.0
 30
0.0
  9
$PUCSNAME
  2

  9
$PUCSORG
 10
0.0
 20
0.0
 30
0.0
  9
$PUCSXDIR
 10
1.0
 20
0.0
 30
0.0
  9
$PUCSYDIR
 10
0.0
 20
1.0
 30
0.0
  9
$USERI1
 70
     0
  9
$USERI2
 70
     0
  9
$USERI3
 70
     0
  9
$USERI4
 70
     0
  9
$USERI5
 70
     0
  9
$USERR1
 40
0.0
  9
$USERR2
 40
0.0
  9
$USERR3
 40
0.0
  9
$USERR4
 40
0.0
  9
$USERR5
 40
0.0
  9
$WORLDVIEW
 70
     1
  9
$SHADEDGE
 70
     3
  9
$SHADEDIF
 70
    70
  9
$TILEMODE
 70
     1
  9
$MAXACTVP
 70
    16
  9
$PLIMCHECK
 70
     0
  9
$PEXTMIN
 10
1.0000000000000000E+020
 20
1.0000000000000000E+020
 30
1.0000000000000000E+020
  9
$PEXTMAX
 10
-1.0000000000000000E+020
 20
-1.0000000000000000E+020
 30
-1.0000000000000000E+020
  9
$PLIMMIN
 10
0.0
 20
0.0
  9
$PLIMMAX
 10
12.0
 20
9.0
  9
$UNITMODE
 70
     0
  9
$VISRETAIN
 70
     0
  9
$PLINEGEN
 70
     0
  9
$PSLTSCALE
 70
     1
  0
ENDSEC
  0
SECTION
  2
TABLES
  0
TABLE
  2
VPORT
 70
     2
  0
VPORT
  2
*ACTIVE
 70
     0
 10
0.0
 20
0.0
 11
1.0
 21
1.0
 12
9438.1687158055174
 22
4629.9562499988788
 13
0.0
 23
0.0
 14
10.0
 24
10.0
 15
10.0
 25
10.0
 16
0.0
 26
0.0
 36
1.0
 17
0.0
 27
0.0
 37
0.0
 40
7517.2452868940854
 41
3.1666666666666661
 42
50.0
 43
0.0
 44
0.0
 50
0.0
 51
0.0
 71
     0
 72
   100
 73
     1
 74
     0
 75
     0
 76
     0
 77
     0
 78
     0
  0
ENDTAB
  0
TABLE
  2
LTYPE
 70
     2
  0
LTYPE
  2
CONTINUOUS
 70
     0
  3
Solid line
 72
    65
 73
     0
 40
0.0
  0
LTYPE
  2
CENTER
 70
     0
  3
____ _ ____ _ ____ _ ____ _ ____ _ ____ _ ____ 
 72
    65
 73
     4
 40
2.0
 49
1.25
 49
-0.25
 49
0.25
 49
-0.25
  0
ENDTAB
  0
TABLE
  2
LAYER
 70
     6
  0
LAYER
  2
0
 70
     0
 62
     7
  6
CONTINUOUS
  0
LAYER
  2
3
 70
     0
 62
     2
  6
CONTINUOUS
  0
LAYER
  2
2
 70
     0
 62
     3
  6
CENTER
  0
LAYER
  2
1
 70
     0
 62
     4
  6
CONTINUOUS
  0
LAYER
  2
4
 70
     0
 62
     7
  6
CONTINUOUS
  0
LAYER
  2
DEFPOINTS
 70
     0
 62
     7
  6
CONTINUOUS
  0
ENDTAB
  0
TABLE
  2
STYLE
 70
     1
  0
STYLE
  2
STANDARD
 70
     0
 40
0.0
 41
1.0
 50
0.0
 71
     0
 42
180.0
  3
simplex.shx
  4
extfont.shx
  0
ENDTAB
  0
TABLE
  2
VIEW
 70
     0
  0
ENDTAB
  0
TABLE
  2
UCS
 70
     0
  0
ENDTAB
  0
TABLE
  2
APPID
 70
     1
  0
APPID
  2
ACAD
 70
     0
  0
ENDTAB
  0
TABLE
  2
DIMSTYLE
 70
     1
  0
DIMSTYLE
  2
IGA
 70
     0
  3

  4

  5

  6
OPEN
  7
OPEN
 40
2.0
 41
2.0
 42
0.5
 43
10.0
 44
1.0
 45
0.0
 46
0.0
 47
1.0
 48
1.0
140
3.0
141
0.0
142
0.0
143
0.03937
144
1.0
145
0.0
146
10.0
147
1.0
 71
     0
 72
     0
 73
     0
 74
     0
 75
     0
 76
     0
 77
     1
 78
     8
170
     0
171
     2
172
     0
173
     1
174
     0
175
     0
176
     0
177
     0
178
     0
  0
ENDTAB
  0
ENDSEC
  0
SECTION
  2
BLOCKS
  0
BLOCK
  8
0
  2
$MODEL_SPACE
 70
     0
 10
0.0
 20
0.0
 30
0.0
  3
$MODEL_SPACE
  1

  0
ENDBLK
  5
1B
  8
0
  0
BLOCK
 67
     1
  8
0
  2
$PAPER_SPACE
 70
     0
 10
0.0
 20
0.0
 30
0.0
  3
$PAPER_SPACE
  1

  0
ENDBLK
  5
18
 67
     1
  8
0
  0
BLOCK
  8
0
  2
_OPEN
 70
     0
 10
0.0
 20
0.0
 30
0.0
  3
_OPEN
  1

  0
LINE
  5
7B7D
  8
0
  6
BYBLOCK
 62
     0
 10
-1.0
 20
0.166667
 30
0.0
 11
0.0
 21
0.0
 31
0.0
  0
LINE
  5
7B7E
  8
0
  6
BYBLOCK
 62
     0
 10
0.0
 20
0.0
 30
0.0
 11
-1.0
 21
-0.166667
 31
0.0
  0
LINE
  5
7B7F
  8
0
  6
BYBLOCK
 62
     0
 10
0.0
 20
0.0
 30
0.0
 11
-1.0
 21
0.0
 31
0.0
  0
ENDBLK
  5
7B80
  8
0
  0
BLOCK
  8
0
  2
*D1
 70
     1
 10
0.0
 20
0.0
 30
0.0
  3
*D1
  1

  0
LINE
  5
7D9A
  8
3
  6
CONTINUOUS
 62
     0
 10
1515.615182
 20
4002.0506209999999
 30
0.0
 11
1336.664663
 21
4002.0506209999999
 31
0.0
  0
LINE
  5
7D9B
  8
3
  6
CONTINUOUS
 62
     0
 10
1515.615182
 20
3177.0506209999999
 30
0.0
 11
1336.664663
 21
3177.0506209999999
 31
0.0
  0
LINE
  5
7D9C
  8
3
  6
CONTINUOUS
 62
     0
 10
1366.664663
 20
3942.050620999999
 30
0.0
 11
1366.664663
 21
3237.0506209999999
 31
0.0
  0
INSERT
  5
7D9D
  8
3
  6
CONTINUOUS
 62
     0
  2
_OPEN
 10
1366.664663
 20
4002.0506209999999
 30
0.0
 41
60.0
 42
60.0
 43
60.0
 50
90.0
  0
INSERT
  5
7D9E
  8
3
  6
CONTINUOUS
 62
     0
  2
_OPEN
 10
1366.664663
 20
3177.0506209999999
 30
0.0
 41
60.0
 42
60.0
 43
60.0
 50
270.0
  0
TEXT
  8
3
  40
90
  5
7E29
  62
0
  72
0
  71
0
 10
1111.66
 20
3354.39
 30
0.000000
  1
825
  0
POINT
  5
7DA0
  8
DEFPOINTS
  6
CONTINUOUS
 62
     0
 10
1530.615182
 20
4002.0506209999999
 30
0.0
  0
POINT
  5
7DA1
  8
DEFPOINTS
  6
CONTINUOUS
 62
     0
 10
1530.615182
 20
3177.0506209999999
 30
0.0
  0
POINT
  5
7DA2
  8
DEFPOINTS
  6
CONTINUOUS
 62
     0
 10
1366.664663
 20
3177.0506209999999
 30
0.0
  0
ENDBLK
  5
7B8D
  8
0
  0
BLOCK
  8
0
  2
*D2
 70
     1
 10
0.0
 20
0.0
 30
0.0
  3
*D2
  1

  0
LINE
  5
7DA3
  8
3
  6
CONTINUOUS
 62
     0
 10
1515.615182
 20
4002.0506209999999
 30
0.0
 11
1157.4944909999999
 21
4002.0506209999999
 31
0.0
  0
LINE
  5
7DA4
  8
3
  6
CONTINUOUS
 62
     0
 10
1467.274224999999
 20
3215.050620999999
 30
0.0
 11
1157.4944909999999
 21
3215.050620999999
 31
0.0
  0
LINE
  5
7DA5
  8
3
  6
CONTINUOUS
 62
     0
 10
1187.4944909999999
 20
3942.050620999999
 30
0.0
 11
1187.4944909999999
 21
3275.0506209999999
 31
0.0
  0
INSERT
  5
7DA6
  8
3
  6
CONTINUOUS
 62
     0
  2
_OPEN
 10
1187.4944909999999
 20
4002.0506209999999
 30
0.0
 41
60.0
 42
60.0
 43
60.0
 50
90.0
  0
INSERT
  5
7DA7
  8
3
  6
CONTINUOUS
 62
     0
  2
_OPEN
 10
1187.4944909999999
 20
3215.050620999999
 30
0.0
 41
60.0
 42
60.0
 43
60.0
 50
270.0
  0
TEXT
  8
3
  40
90
  5
7E2A
  62
0
  72
0
  71
0
 10
932.494
 20
3354.39
 30
0.000000
  1
787
  0
POINT
  5
7DA9
  8
DEFPOINTS
  6
CONTINUOUS
 62
     0
 10
1530.615182
 20
4002.0506209999999
 30
0.0
  0
POINT
  5
7DAA
  8
DEFPOINTS
  6
CONTINUOUS
 62
     0
 10
1482.2742249999999
 20
3215.050620999999
 30
0.0
  0
POINT
  5
7DAB
  8
DEFPOINTS
  6
CONTINUOUS
 62
     0
 10
1187.4944909999999
 20
3215.050620999999
 30
0.0
  0
ENDBLK
  5
7B9A
  8
0
  0
BLOCK
  8
0
  2
*D3
 70
     1
 10
0.0
 20
0.0
 30
0.0
  3
*D3
  1

  0
LINE
  5
7DAC
  8
3
  6
CONTINUOUS
 62
     0
 10
1590.615182
 20
2520.0506209999999
 30
0.0
 11
1157.4944909999999
 21
2520.0506209999999
 31
0.0
  0
LINE
  5
7DAD
  8
3
  6
CONTINUOUS
 62
     0
 10
1187.4944909999999
 20
3155.050620999999
 30
0.0
 11
1187.4944909999999
 21
2580.050620999999
 31
0.0
  0
INSERT
  5
7DAE
  8
3
  6
CONTINUOUS
 62
     0
  2
_OPEN
 10
1187.4944909999999
 20
3215.050620999999
 30
0.0
 41
60.0
 42
60.0
 43
60.0
 50
90.0
  0
INSERT
  5
7DAF
  8
3
  6
CONTINUOUS
 62
     0
  2
_OPEN
 10
1187.4944909999999
 20
2520.0506209999999
 30
0.0
 41
60.0
 42
60.0
 43
60.0
 50
270.0
  0
TEXT
  8
3
  40
90
  5
7E2B
  62
0
  72
0
  71
0
 10
932.494
 20
2708.25
 30
0.000000
  1
695
  0
POINT
  5
7DB1
  8
DEFPOINTS
  6
CONTINUOUS
 62
     0
 10
1482.2742249999999
 20
3215.050620999999
 30
0.0
  0
POINT
  5
7DB2
  8
DEFPOINTS
  6
CONTINUOUS
 62
     0
 10
1605.615182
 20
2520.0506209999999
 30
0.0
  0
POINT
  5
7DB3
  8
DEFPOINTS
  6
CONTINUOUS
 62
     0
 10
1187.4944909999999
 20
2520.0506209999999
 30
0.0
  0
ENDBLK
  5
7BB2
  8
0
  0
BLOCK
  8
0
  2
*D4
 70
     1
 10
0.0
 20
0.0
 30
0.0
  3
*D4
  1

  0
LINE
  5
7DB4
  8
3
  6
CONTINUOUS
 62
     0
 10
1590.615182
 20
2520.0506209999999
 30
0.0
 11
1156.3987460000001
 21
2520.0506209999999
 31
0.0
  0
LINE
  5
7DB5
  8
3
  6
CONTINUOUS
 62
     0
 10
1590.615182
 20
2395.0506209999999
 30
0.0
 11
1156.3987460000001
 21
2395.0506209999999
 31
0.0
  0
LINE
  5
7DB6
  8
3
  6
CONTINUOUS
 62
     0
 10
1186.3987460000001
 20
2580.050620999999
 30
0.0
 11
1186.3987460000001
 21
2640.0506209999999
 31
0.0
  0
LINE
  5
7DB7
  8
3
  6
CONTINUOUS
 62
     0
 10
1186.3987460000001
 20
2335.0506209999999
 30
0.0
 11
1186.3987460000001
 21
2000.7649067142861
 31
0.0
  0
LINE
  5
7DB8
  8
3
  6
CONTINUOUS
 62
     0
 10
1186.3987460000001
 20
2520.0506209999999
 30
0.0
 11
1186.3987460000001
 21
2395.0506209999999
 31
0.0
  0
INSERT
  5
7DB9
  8
3
  6
CONTINUOUS
 62
     0
  2
_OPEN
 10
1186.3987460000001
 20
2520.0506209999999
 30
0.0
 41
60.0
 42
60.0
 43
60.0
 50
270.0
  0
INSERT
  5
7DBA
  8
3
  6
CONTINUOUS
 62
     0
  2
_OPEN
 10
1186.3987460000001
 20
2395.0506209999999
 30
0.0
 41
60.0
 42
60.0
 43
60.0
 50
90.0
  0
TEXT
  8
3
  40
90
  5
7E2C
  62
0
  72
0
  71
0
 10
931.399
 20
1978.61
 30
0.000000
  1
125
  0
POINT
  5
7DBC
  8
DEFPOINTS
  6
CONTINUOUS
 62
     0
 10
1605.615182
 20
2520.0506209999999
 30
0.0
  0
POINT
  5
7DBD
  8
DEFPOINTS
  6
CONTINUOUS
 62
     0
 10
1605.615182
 20
2395.0506209999999
 30
0.0
  0
POINT
  5
7DBE
  8
DEFPOINTS
  6
CONTINUOUS
 62
     0
 10
1186.3987460000001
 20
2395.0506209999999
 30
0.0
  0
ENDBLK
  5
7D32
  8
0
  0
BLOCK
  8
0
  2
*D5
 70
     1
 10
0.0
 20
0.0
 30
0.0
  3
*D5
  1

  0
LINE
  5
7DBF
  8
3
  6
CONTINUOUS
 62
     0
 10
1530.615182
 20
4059.550620999999
 30
0.0
 11
1530.615182
 21
4233.3256859999992
 31
0.0
  0
LINE
  5
7DC0
  8
3
  6
CONTINUOUS
 62
     0
 10
2125.615182
 20
4149.2479000000003
 30
0.0
 11
2125.615182
 21
4233.3256859999992
 31
0.0
  0
LINE
  5
7DC1
  8
3
  6
CONTINUOUS
 62
     0
 10
1590.615182
 20
4203.3256860000001
 30
0.0
 11
2065.615182
 21
4203.3256860000001
 31
0.0
  0
INSERT
  5
7DC2
  8
3
  6
CONTINUOUS
 62
     0
  2
_OPEN
 10
1530.615182
 20
4203.3256860000001
 30
0.0
 41
60.0
 42
60.0
 43
60.0
 50
180.0
  0
INSERT
  5
7DC3
  8
3
  6
CONTINUOUS
 62
     0
  2
_OPEN
 10
2125.615182
 20
4203.3256860000001
 30
0.0
 41
60.0
 42
60.0
 43
60.0
  0
TEXT
  8
3
  40
90
  5
7E2D
  62
0
  72
0
  71
0
 10
1657.82
 20
4119.03
 30
0.000000
  1
595
  0
POINT
  5
7DC5
  8
DEFPOINTS
  6
CONTINUOUS
 62
     0
 10
1530.615182
 20
4044.550620999999
 30
0.0
  0
POINT
  5
7DC6
  8
DEFPOINTS
  6
CONTINUOUS
 62
     0
 10
2125.615182
 20
4134.2479000000003
 30
0.0
  0
POINT
  5
7DC7
  8
DEFPOINTS
  6
CONTINUOUS
 62
     0
 10
2125.615182
 20
4203.3256860000001
 30
0.0
  0
ENDBLK
  5
7BCF
  8
0
  0
BLOCK
  8
0
  2
*D6
 70
     1
 10
0.0
 20
0.0
 30
0.0
  3
*D6
  1

  0
LINE
  5
7DC8
  8
3
  6
CONTINUOUS
 62
     0
 10
1605.615182
 20
2380.0506209999999
 30
0.0
 11
1605.615182
 21
2083.237928
 31
0.0
  0
LINE
  5
7DC9
  8
3
  6
CONTINUOUS
 62
     0
 10
2125.615182
 20
2140.8418510000001
 30
0.0
 11
2125.615182
 21
2083.237928
 31
0.0
  0
LINE
  5
7DCA
  8
3
  6
CONTINUOUS
 62
     0
 10
1665.615182
 20
2113.237928
 30
0.0
 11
2065.615182
 21
2113.237928
 31
0.0
  0
INSERT
  5
7DCB
  8
3
  6
CONTINUOUS
 62
     0
  2
_OPEN
 10
1605.615182
 20
2113.237928
 30
0.0
 41
60.0
 42
60.0
 43
60.0
 50
180.0
  0
INSERT
  5
7DCC
  8
3
  6
CONTINUOUS
 62
     0
  2
_OPEN
 10
2125.615182
 20
2113.237928
 30
0.0
 41
60.0
 42
60.0
 43
60.0
  0
TEXT
  8
3
  40
90
  5
7E2E
  62
0
  72
0
  71
0
 10
1691.00
 20
2028.94
 30
0.000000
  1
520
  0
POINT
  5
7DCE
  8
DEFPOINTS
  6
CONTINUOUS
 62
     0
 10
1605.615182
 20
2395.0506209999999
 30
0.0
  0
POINT
  5
7DCF
  8
DEFPOINTS
  6
CONTINUOUS
 62
     0
 10
2125.615182
 20
2155.8418510000001
 30
0.0
  0
POINT
  5
7DD0
  8
DEFPOINTS
  6
CONTINUOUS
 62
     0
 10
2125.615182
 20
2113.237928
 30
0.0
  0
ENDBLK
  5
7CE3
  8
0
  0
BLOCK
  8
0
  2
*D7
 70
     1
 10
0.0
 20
0.0
 30
0.0
  3
*D7
  1

  0
LINE
  5
7DD1
  8
3
  6
CONTINUOUS
 62
     0
 10
3205.615182
 20
2380.0506209999999
 30
0.0
 11
3205.615182
 21
2083.237928
 31
0.0
  0
LINE
  5
7DD2
  8
3
  6
CONTINUOUS
 62
     0
 10
2185.615182
 20
2113.237928
 30
0.0
 11
3145.615182
 21
2113.237928
 31
0.0
  0
INSERT
  5
7DD3
  8
3
  6
CONTINUOUS
 62
     0
  2
_OPEN
 10
2125.615182
 20
2113.237928
 30
0.0
 41
60.0
 42
60.0
 43
60.0
 50
180.0
  0
INSERT
  5
7DD4
  8
3
  6
CONTINUOUS
 62
     0
  2
_OPEN
 10
3205.615182
 20
2113.237928
 30
0.0
 41
60.0
 42
60.0
 43
60.0
  0
TEXT
  8
3
  40
90
  5
7E2F
  62
0
  72
0
  71
0
 10
2485.62
 20
2028.94
 30
0.000000
  1
1080
  0
POINT
  5
7DD6
  8
DEFPOINTS
  6
CONTINUOUS
 62
     0
 10
2125.615182
 20
2155.8418510000001
 30
0.0
  0
POINT
  5
7DD7
  8
DEFPOINTS
  6
CONTINUOUS
 62
     0
 10
3205.615182
 20
2395.0506209999999
 30
0.0
  0
POINT
  5
7DD8
  8
DEFPOINTS
  6
CONTINUOUS
 62
     0
 10
3205.615182
 20
2113.237928
 30
0.0
  0
ENDBLK
  5
7CD8
  8
0
  0
BLOCK
  8
0
  2
*D8
 70
     1
 10
0.0
 20
0.0
 30
0.0
  3
*D8
  1

  0
LINE
  5
7DD9
  8
3
  6
CONTINUOUS
 62
     0
 10
4435.8451349999996
 20
4017.0506209999999
 30
0.0
 11
4435.8451349999996
 21
4206.801363999999
 31
0.0
  0
LINE
  5
7DDA
  8
3
  6
CONTINUOUS
 62
     0
 10
5035.8451349999996
 20
4017.0506209999999
 30
0.0
 11
5035.8451349999996
 21
4206.801363999999
 31
0.0
  0
LINE
  5
7DDB
  8
3
  6
CONTINUOUS
 62
     0
 10
4495.8451349999996
 20
4176.8013639999999
 30
0.0
 11
4975.8451350000014
 21
4176.8013639999999
 31
0.0
  0
INSERT
  5
7DDC
  8
3
  6
CONTINUOUS
 62
     0
  2
_OPEN
 10
4435.8451349999996
 20
4176.8013639999999
 30
0.0
 41
60.0
 42
60.0
 43
60.0
 50
180.0
  0
INSERT
  5
7DDD
  8
3
  6
CONTINUOUS
 62
     0
  2
_OPEN
 10
5035.8451349999996
 20
4176.8013639999999
 30
0.0
 41
60.0
 42
60.0
 43
60.0
  0
TEXT
  8
3
  40
90
  5
7E30
  62
0
  72
0
  71
0
 10
4552.12
 20
4092.50
 30
0.000000
  1
600
  0
POINT
  5
7DDF
  8
DEFPOINTS
  6
CONTINUOUS
 62
     0
 10
4435.8451349999996
 20
4002.0506209999999
 30
0.0
  0
POINT
  5
7DE0
  8
DEFPOINTS
  6
CONTINUOUS
 62
     0
 10
5035.8451349999996
 20
4002.0506209999999
 30
0.0
  0
POINT
  5
7DE1
  8
DEFPOINTS
  6
CONTINUOUS
 62
     0
 10
5035.8451349999996
 20
4176.8013639999999
 30
0.0
  0
ENDBLK
  5
7C01
  8
0
  0
BLOCK
  8
0
  2
*D9
 70
     1
 10
0.0
 20
0.0
 30
0.0
  3
*D9
  1

  0
LINE
  5
7DE2
  8
3
  6
CONTINUOUS
 62
     0
 10
5054.8451349999996
 20
3640.050620999999
 30
0.0
 11
5372.6243160000004
 21
3640.050620999999
 31
0.0
  0
LINE
  5
7DE3
  8
3
  6
CONTINUOUS
 62
     0
 10
5054.8451349999996
 20
2790.0506209999999
 30
0.0
 11
5372.6243160000004
 21
2790.050620999999
 31
0.0
  0
LINE
  5
7DE4
  8
3
  6
CONTINUOUS
 62
     0
 10
5342.6243160000013
 20
3580.050620999999
 30
0.0
 11
5342.6243160000013
 21
2850.050620999999
 31
0.0
  0
INSERT
  5
7DE5
  8
3
  6
CONTINUOUS
 62
     0
  2
_OPEN
 10
5342.6243160000013
 20
3640.050620999999
 30
0.0
 41
60.0
 42
60.0
 43
60.0
 50
90.0
  0
INSERT
  5
7DE6
  8
3
  6
CONTINUOUS
 62
     0
  2
_OPEN
 10
5342.6243160000013
 20
2790.050620999999
 30
0.0
 41
60.0
 42
60.0
 43
60.0
 50
270.0
  0
TEXT
  8
3
  40
90
  5
7E31
  62
0
  72
0
  71
0
 10
5087.62
 20
3056.00
 30
0.000000
  1
φ850
  0
POINT
  5
7DE8
  8
DEFPOINTS
  6
CONTINUOUS
 62
     0
 10
5039.8451350000014
 20
3640.050620999999
 30
0.0
  0
POINT
  5
7DE9
  8
DEFPOINTS
  6
CONTINUOUS
 62
     0
 10
5039.8451350000014
 20
2790.0506209999999
 30
0.0
  0
POINT
  5
7DEA
  8
DEFPOINTS
  6
CONTINUOUS
 62
     0
 10
5342.6243160000013
 20
2790.050620999999
 30
0.0
  0
ENDBLK
  5
7D53
  8
0
  0
BLOCK
  8
0
  2
*D10
 70
     1
 10
0.0
 20
0.0
 30
0.0
  3
*D10
  1

  0
LINE
  5
7D3F
  8
0
  6
BYBLOCK
 62
     0
 10
5039.8451350000014
 20
3655.0506209999999
 30
0.0
 11
5039.8451350000014
 21
4392.4715329999999
 31
0.0
  0
LINE
  5
7D40
  8
0
  6
BYBLOCK
 62
     0
 10
4735.8451349999996
 20
4331.9015529999988
 30
0.0
 11
4735.8451349999996
 21
4392.4715329999999
 31
0.0
  0
LINE
  5
7D41
  8
0
  6
BYBLOCK
 62
     0
 10
4979.8451350000014
 20
4362.471532999999
 30
0.0
 11
4795.8451349999996
 21
4362.471532999999
 31
0.0
  0
TEXT
  5
7D42
  8
3
 62
     0
 10
4769.9879921428583
 20
4393.9218648949281
 30
0.0
 40
90.0
  1
304
  0
INSERT
  5
7D43
  8
0
  6
BYBLOCK
 62
     0
  2
_OPEN
 10
5039.8451350000014
 20
4362.471532999999
 30
0.0
 41
60.0
 42
60.0
 43
60.0
  0
INSERT
  5
7D44
  8
0
  6
BYBLOCK
 62
     0
  2
_OPEN
 10
4735.8451349999996
 20
4362.471532999999
 30
0.0
 41
60.0
 42
60.0
 43
60.0
 50
180.0
  0
POINT
  5
7D45
  8
DEFPOINTS
  6
BYBLOCK
 62
     0
 10
5039.8451350000014
 20
3640.050620999999
 30
0.0
  0
POINT
  5
7D46
  8
DEFPOINTS
  6
BYBLOCK
 62
     0
 10
4735.8451349999996
 20
4316.9015529999997
 30
0.0
  0
POINT
  5
7D47
  8
DEFPOINTS
  6
BYBLOCK
 62
     0
 10
4735.8451349999996
 20
4362.471532999999
 30
0.0
  0
ENDBLK
  5
7D48
  8
0
  0
BLOCK
  8
0
  2
*D11
 70
     1
 10
0.0
 20
0.0
 30
0.0
  3
*D11
  1

  0
LINE
  5
7DEB
  8
3
  6
CONTINUOUS
 62
     0
 10
4175.8451350000014
 20
3885.050620999999
 30
0.0
 11
4175.8451350000014
 21
4392.4715329999999
 31
0.0
  0
LINE
  5
7DEC
  8
3
  6
CONTINUOUS
 62
     0
 10
4675.8451350000014
 20
4362.471532999999
 30
0.0
 11
4235.8451349999996
 21
4362.471532999999
 31
0.0
  0
INSERT
  5
7DED
  8
3
  6
CONTINUOUS
 62
     0
  2
_OPEN
 10
4735.8451349999996
 20
4362.471532999999
 30
0.0
 41
60.0
 42
60.0
 43
60.0
  0
INSERT
  5
7DEE
  8
3
  6
CONTINUOUS
 62
     0
  2
_OPEN
 10
4175.8451350000014
 20
4362.471532999999
 30
0.0
 41
60.0
 42
60.0
 43
60.0
 50
180.0
  0
TEXT
  8
3
  40
90
  5
7E32
  62
0
  72
0
  71
0
 10
4275.85
 20
4353.17
 30
0.000000
  1
MAX
  0
TEXT
  8
3
  40
90
  5
7E33
  62
0
  72
0
  71
0
 10
4275.85
 20
4236.17
 30
0.000000
  1
610
  0
POINT
  5
7DF0
  8
DEFPOINTS
  6
CONTINUOUS
 62
     0
 10
4735.8451349999996
 20
4316.9015529999997
 30
0.0
  0
POINT
  5
7DF1
  8
DEFPOINTS
  6
CONTINUOUS
 62
     0
 10
4175.8451350000014
 20
3870.0506209999999
 30
0.0
  0
POINT
  5
7DF2
  8
DEFPOINTS
  6
CONTINUOUS
 62
     0
 10
4175.8451350000014
 20
4362.471532999999
 30
0.0
  0
ENDBLK
  5
7D5D
  8
0
  0
BLOCK
  8
0
  2
*D12
 70
     1
 10
0.0
 20
0.0
 30
0.0
  3
*D12
  1

  0
LINE
  5
7DF3
  8
3
  6
CONTINUOUS
 62
     0
 10
4267.8451349999996
 20
2380.0506209999999
 30
0.0
 11
4267.8451349999996
 21
2106.2648559999998
 31
0.0
  0
LINE
  5
7DF4
  8
3
  6
CONTINUOUS
 62
     0
 10
4735.8451349999996
 20
2168.3790180000001
 30
0.0
 11
4735.8451349999996
 21
2106.2648559999998
 31
0.0
  0
LINE
  5
7DF5
  8
3
  6
CONTINUOUS
 62
     0
 10
4207.8451350000014
 20
2136.2648559999989
 30
0.0
 11
4147.8451349999996
 21
2136.2648559999989
 31
0.0
  0
LINE
  5
7DF6
  8
3
  6
CONTINUOUS
 62
     0
 10
4795.8451349999996
 20
2136.2648559999989
 30
0.0
 11
4855.8451349999996
 21
2136.2648559999989
 31
0.0
  0
LINE
  5
7DF7
  8
3
  6
CONTINUOUS
 62
     0
 10
4267.8451349999996
 20
2136.2648559999989
 30
0.0
 11
4735.8451349999996
 21
2136.2648559999989
 31
0.0
  0
INSERT
  5
7DF8
  8
3
  6
CONTINUOUS
 62
     0
  2
_OPEN
 10
4267.8451349999996
 20
2136.2648559999989
 30
0.0
 41
60.0
 42
60.0
 43
60.0
  0
INSERT
  5
7DF9
  8
3
  6
CONTINUOUS
 62
     0
  2
_OPEN
 10
4735.8451349999996
 20
2136.2648559999989
 30
0.0
 41
60.0
 42
60.0
 43
60.0
 50
180.0
  0
TEXT
  8
3
  40
90
  5
7E34
  62
0
  72
0
  71
0
 10
4350.13
 20
2051.96
 30
0.000000
  1
468
  0
POINT
  5
7DFB
  8
DEFPOINTS
  6
CONTINUOUS
 62
     0
 10
4267.8451349999996
 20
2395.0506209999999
 30
0.0
  0
POINT
  5
7DFC
  8
DEFPOINTS
  6
CONTINUOUS
 62
     0
 10
4735.8451349999996
 20
2183.3790180000001
 30
0.0
  0
POINT
  5
7DFD
  8
DEFPOINTS
  6
CONTINUOUS
 62
     0
 10
4735.8451349999996
 20
2136.2648559999989
 30
0.0
  0
ENDBLK
  5
7D05
  8
0
  0
BLOCK
  8
0
  2
*D13
 70
     1
 10
0.0
 20
0.0
 30
0.0
  3
*D13
  1

  0
LINE
  5
7DFE
  8
3
  6
CONTINUOUS
 62
     0
 10
5087.8451350000014
 20
2380.0506209999999
 30
0.0
 11
5087.8451350000014
 21
2106.2648559999998
 31
0.0
  0
LINE
  5
7DFF
  8
3
  6
CONTINUOUS
 62
     0
 10
4795.8451349999996
 20
2136.2648559999989
 30
0.0
 11
5027.8451349999996
 21
2136.2648559999989
 31
0.0
  0
TEXT
  8
3
  40
90
  5
7E35
  62
0
  72
0
  71
0
 10
4732.05
 20
2051.05
 30
0.000000
  1
352
  0
INSERT
  5
7E01
  8
3
  6
CONTINUOUS
 62
     0
  2
_OPEN
 10
4735.8451349999996
 20
2136.2648559999989
 30
0.0
 41
60.0
 42
60.0
 43
60.0
 50
180.0
  0
INSERT
  5
7E02
  8
3
  6
CONTINUOUS
 62
     0
  2
_OPEN
 10
5087.8451350000014
 20
2136.2648559999989
 30
0.0
 41
60.0
 42
60.0
 43
60.0
  0
POINT
  5
7E03
  8
DEFPOINTS
  6
CONTINUOUS
 62
     0
 10
4735.8451349999996
 20
2183.3790180000001
 30
0.0
  0
POINT
  5
7E04
  8
DEFPOINTS
  6
CONTINUOUS
 62
     0
 10
5087.8451350000014
 20
2395.0506209999999
 30
0.0
  0
POINT
  5
7E05
  8
DEFPOINTS
  6
CONTINUOUS
 62
     0
 10
5087.8451350000014
 20
2136.2648559999989
 30
0.0
  0
ENDBLK
  5
7D1B
  8
0
  0
BLOCK
  8
0
  2
*D14
 70
     1
 10
0.0
 20
0.0
 30
0.0
  3
*D14
  1

  0
LINE
  5
7E06
  8
3
  6
CONTINUOUS
 62
     0
 10
1605.615182
 20
6224.6976850000001
 30
0.0
 11
1605.615182
 21
6498.7044260000002
 31
0.0
  0
LINE
  5
7E07
  8
3
  6
CONTINUOUS
 62
     0
 10
3205.615182
 20
6224.6976850000001
 30
0.0
 11
3205.615182
 21
6498.7044260000002
 31
0.0
  0
LINE
  5
7E08
  8
3
  6
CONTINUOUS
 62
     0
 10
1665.615182
 20
6468.7044260000011
 30
0.0
 11
3145.615182
 21
6468.7044260000011
 31
0.0
  0
INSERT
  5
7E09
  8
3
  6
CONTINUOUS
 62
     0
  2
_OPEN
 10
1605.615182
 20
6468.7044260000011
 30
0.0
 41
60.0
 42
60.0
 43
60.0
 50
180.0
  0
INSERT
  5
7E0A
  8
3
  6
CONTINUOUS
 62
     0
  2
_OPEN
 10
3205.615182
 20
6468.7044260000011
 30
0.0
 41
60.0
 42
60.0
 43
60.0
  0
TEXT
  8
3
  40
90
  5
7E36
  62
0
  72
0
  71
0
 10
2208.60
 20
6384.40
 30
0.000000
  1
1600
  0
POINT
  5
7E0C
  8
DEFPOINTS
  6
CONTINUOUS
 62
     0
 10
1605.615182
 20
6209.6976850000001
 30
0.0
  0
POINT
  5
7E0D
  8
DEFPOINTS
  6
CONTINUOUS
 62
     0
 10
3205.615182
 20
6209.6976850000001
 30
0.0
  0
POINT
  5
7E0E
  8
DEFPOINTS
  6
CONTINUOUS
 62
     0
 10
3205.615182
 20
6468.7044260000011
 30
0.0
  0
ENDBLK
  5
7CEE
  8
0
  0
BLOCK
  8
0
  2
*D15
 70
     1
 10
0.0
 20
0.0
 30
0.0
  3
*D15
  1

  0
LINE
  5
7E0F
  8
3
  6
CONTINUOUS
 62
     0
 10
3220.615182
 20
6209.6976850000001
 30
0.0
 11
3500.2550689999998
 21
6209.6976850000001
 31
0.0
  0
LINE
  5
7E10
  8
3
  6
CONTINUOUS
 62
     0
 10
3220.615182
 20
5389.6976850000001
 30
0.0
 11
3500.2550689999998
 21
5389.6976850000001
 31
0.0
  0
LINE
  5
7E11
  8
3
  6
CONTINUOUS
 62
     0
 10
3470.2550690000012
 20
6149.6976850000001
 30
0.0
 11
3470.2550690000012
 21
5449.6976850000001
 31
0.0
  0
INSERT
  5
7E12
  8
3
  6
CONTINUOUS
 62
     0
  2
_OPEN
 10
3470.2550690000012
 20
6209.6976850000001
 30
0.0
 41
60.0
 42
60.0
 43
60.0
 50
90.0
  0
INSERT
  5
7E13
  8
3
  6
CONTINUOUS
 62
     0
  2
_OPEN
 10
3470.2550690000012
 20
5389.6976850000001
 30
0.0
 41
60.0
 42
60.0
 43
60.0
 50
270.0
  0
TEXT
  8
3
  40
90
  5
7E37
  62
0
  72
0
  71
0
 10
3215.26
 20
5701.73
 30
0.000000
  1
820
  0
POINT
  5
7E15
  8
DEFPOINTS
  6
CONTINUOUS
 62
     0
 10
3205.615182
 20
6209.6976850000001
 30
0.0
  0
POINT
  5
7E16
  8
DEFPOINTS
  6
CONTINUOUS
 62
     0
 10
3205.615182
 20
5389.6976850000001
 30
0.0
  0
POINT
  5
7E17
  8
DEFPOINTS
  6
CONTINUOUS
 62
     0
 10
3470.2550690000012
 20
5389.6976850000001
 30
0.0
  0
ENDBLK
  5
7C8B
  8
0
  0
BLOCK
  8
0
  2
*D16
 70
     1
 10
0.0
 20
0.0
 30
0.0
  3
*D16
  1

  0
LINE
  5
7E18
  8
3
  6
CONTINUOUS
 62
     0
 10
2789.619408
 20
3230.0506209999999
 30
0.0
 11
2789.619408
 21
4233.3256859999992
 31
0.0
  0
LINE
  5
7E19
  8
3
  6
CONTINUOUS
 62
     0
 10
2185.615182
 20
4203.3256860000001
 30
0.0
 11
2729.619408
 21
4203.3256860000001
 31
0.0
  0
INSERT
  5
7E1A
  8
3
  6
CONTINUOUS
 62
     0
  2
_OPEN
 10
2125.615182
 20
4203.3256860000001
 30
0.0
 41
60.0
 42
60.0
 43
60.0
 50
180.0
  0
INSERT
  5
7E1B
  8
3
  6
CONTINUOUS
 62
     0
  2
_OPEN
 10
2789.619408
 20
4203.3256860000001
 30
0.0
 41
60.0
 42
60.0
 43
60.0
  0
TEXT
  8
3
  40
90
  5
7E38
  62
0
  72
0
  71
0
 10
2277.62
 20
4119.03
 30
0.000000
  1
664
  0
POINT
  5
7E1D
  8
DEFPOINTS
  6
CONTINUOUS
 62
     0
 10
2125.615182
 20
4134.2479000000003
 30
0.0
  0
POINT
  5
7E1E
  8
DEFPOINTS
  6
CONTINUOUS
 62
     0
 10
2789.619408
 20
3215.050620999999
 30
0.0
  0
POINT
  5
7E1F
  8
DEFPOINTS
  6
CONTINUOUS
 62
     0
 10
2789.619408
 20
4203.3256860000001
 30
0.0
  0
ENDBLK
  5
7CCD
  8
0
  0
BLOCK
  8
0
  2
*D17
 70
     1
 10
0.0
 20
0.0
 30
0.0
  3
*D17
  1

  0
LINE
  5
7E20
  8
3
 62
     0
 10
1530.615182
 20
4059.550620999999
 30
0.0
 11
1530.615182
 21
4409.7521503271737
 31
0.0
  0
LINE
  5
7E21
  8
3
 62
     0
 10
3205.615182
 20
2635.050620999999
 30
0.0
 11
3205.615182
 21
4409.7521503271737
 31
0.0
  0
LINE
  5
7E22
  8
3
 62
     0
 10
1590.615182
 20
4379.7521503271737
 30
0.0
 11
3145.615182
 21
4379.7521503271737
 31
0.0
  0
INSERT
  5
7E23
  8
3
 62
     0
  2
_OPEN
 10
1530.615182
 20
4379.7521503271737
 30
0.0
 41
60.0
 42
60.0
 43
60.0
 50
180.0
  0
INSERT
  5
7E24
  8
3
 62
     0
  2
_OPEN
 10
3205.615182
 20
4379.7521503271737
 30
0.0
 41
60.0
 42
60.0
 43
60.0
  0
TEXT
  8
3
  40
90
  5
7E39
  62
0
  72
0
  71
0
 10
2147.71
 20
4295.45
 30
0.000000
  1
1675
  0
POINT
  5
7E26
  8
DEFPOINTS
 62
     0
 10
1530.615182
 20
4044.550620999999
 30
0.0
  0
POINT
  5
7E27
  8
DEFPOINTS
 62
     0
 10
3205.615182
 20
2620.0506209999999
 30
0.0
  0
POINT
  5
7E28
  8
DEFPOINTS
 62
     0
 10
3205.615182
 20
4379.7521503271737
 30
0.0
  0
ENDBLK
  5
7D69
  8
0
  0
ENDSEC
  0
SECTION
  2
ENTITIES
  0
LINE
  5
7AAF
  8
1
  6
CONTINUOUS
 10
2069.325182
 20
3023.1306209999998
 30
0.0
 11
3007.135182
 21
2748.0806210000001
 31
0.0
  0
LINE
  5
7AB0
  8
1
  6
CONTINUOUS
 10
2228.3951820000002
 20
3386.620621
 30
0.0
 11
3066.7851820000001
 21
2884.390621
 31
0.0
  0
LINE
  5
7AB1
  8
1
  6
CONTINUOUS
 10
2953.2351819999999
 20
5389.6976850000001
 30
0.0
 11
2325.6151819999991
 21
5389.6976850000001
 31
0.0
  0
LINE
  5
7AB2
  8
1
  6
CONTINUOUS
 10
3185.615182
 20
5447.6976850000001
 30
0.0
 11
1705.615182
 21
5447.6976850000001
 31
0.0
  0
LINE
  5
7AB3
  8
1
  6
CONTINUOUS
 10
3185.615182
 20
5297.6976850000001
 30
0.0
 11
1705.615182
 21
5297.6976850000001
 31
0.0
  0
LINE
  5
7AB4
  8
1
  6
CONTINUOUS
 10
2275.615182
 20
3870.0506209999999
 30
0.0
 11
3185.615182
 21
2920.0506209999999
 31
0.0
  0
LINE
  5
7AB5
  8
1
  6
CONTINUOUS
 10
3205.615182
 20
6209.6976850000001
 30
0.0
 11
1605.615182
 21
6209.6976850000001
 31
0.0
  0
LINE
  5
7AB6
  8
1
  6
CONTINUOUS
 10
2791.505181999999
 20
5557.6976850000001
 30
0.0
 11
1530.615182
 21
5557.6976850000001
 31
0.0
  0
LINE
  5
7AB7
  8
1
  6
CONTINUOUS
 10
2791.505181999999
 20
6157.6976850000001
 30
0.0
 11
1530.615182
 21
6157.6976850000001
 31
0.0
  0
LINE
  5
7AB8
  8
1
  6
CONTINUOUS
 10
1605.615182
 20
2520.0506209999999
 30
0.0
 11
3205.615182
 21
2520.0506209999999
 31
0.0
  0
LINE
  5
7AB9
  8
1
  6
CONTINUOUS
 10
1605.615182
 20
2620.0506209999999
 30
0.0
 11
3205.615182
 21
2620.0506209999999
 31
0.0
  0
ARC
  5
7ABA
  8
1
  6
CONTINUOUS
 10
2169.615182
 20
3259.0506209999999
 30
0.0
 40
621.54999999999995
 50
263.5
 51
355.24000000000001
  0
ARC
  5
7ABB
  8
1
  6
CONTINUOUS
 10
2073.615182
 20
3267.0506209999999
 30
0.0
 40
717.88999999999987
 50
355.24000000000001
 51
85.849999999999994
  0
LINE
  5
7ABC
  8
1
  6
CONTINUOUS
 10
1605.615182
 20
2395.0506209999999
 30
0.0
 11
3205.615182
 21
2395.0506209999999
 31
0.0
  0
LINE
  5
7ABD
  8
1
  6
CONTINUOUS
 10
1605.615182
 20
2495.0506209999999
 30
0.0
 11
3205.615182
 21
2495.0506209999999
 31
0.0
  0
LINE
  5
7ABE
  8
1
  6
CONTINUOUS
 10
1705.615182
 20
3870.0506209999999
 30
0.0
 11
2275.615182
 21
3870.0506209999999
 31
0.0
  0
ARC
  5
7AC2
  8
1
  6
CONTINUOUS
 10
2160.615182
 20
3180.050620999999
 30
0.0
 40
542.03999999999985
 50
180.31999999999999
 51
263.5
  0
LINE
  5
7AC3
  8
1
  6
CONTINUOUS
 10
1530.615182
 20
4002.0506209999999
 30
0.0
 11
2125.615182
 21
3983.0506209999999
 31
0.0
  0
LINE
  5
7AC4
  8
1
  6
CONTINUOUS
 10
1705.615182
 20
2620.0506209999999
 30
0.0
 11
1705.615182
 21
3870.0506209999999
 31
0.0
  0
LINE
  5
7AC5
  8
1
  6
CONTINUOUS
 10
1570.615182
 20
3177.0506209999999
 30
0.0
 11
1570.615182
 21
4002.0506209999999
 31
0.0
  0
LINE
  5
7AC7
  8
1
  6
CONTINUOUS
 10
1530.615182
 20
3134.5506209999999
 30
0.0
 11
1530.615182
 21
4044.550620999999
 31
0.0
  0
LINE
  5
7AC8
  8
1
  6
CONTINUOUS
 10
1605.615182
 20
2495.0506209999999
 30
0.0
 11
1605.615182
 21
2395.0506209999999
 31
0.0
  0
LINE
  5
7AC9
  8
1
  6
CONTINUOUS
 10
1618.585182
 20
3177.0506209999999
 30
0.0
 11
1530.615182
 21
3177.0506209999999
 31
0.0
  0
LINE
  5
7ACA
  8
1
  6
CONTINUOUS
 10
1605.615182
 20
2620.0506209999999
 30
0.0
 11
1605.615182
 21
2520.0506209999999
 31
0.0
  0
CIRCLE
  5
7ACB
  8
1
  6
CONTINUOUS
 10
2125.615182
 20
3215.050620999999
 30
0.0
 40
200.0
  0
LINE
  5
7ACD
  8
2
  6
CENTER
 10
2125.615182
 20
6349.0335729999988
 30
0.0
 11
2125.615182
 21
5220.0556729999998
 31
0.0
  0
LINE
  5
7ACE
  8
2
  6
CENTER
 10
1450.0142960000001
 20
3215.050620999999
 30
0.0
 11
3116.4221629999988
 21
3215.050620999999
 31
0.0
  0
LINE
  5
7ACF
  8
1
  6
CONTINUOUS
 10
1925.6151819999991
 20
5389.6976850000001
 30
0.0
 11
1605.615182
 21
5389.6976850000001
 31
0.0
  0
LINE
  5
7AD0
  8
1
  6
CONTINUOUS
 10
1530.615182
 20
5515.6976850000001
 30
0.0
 11
1530.615182
 21
6199.6976850000001
 31
0.0
  0
LINE
  5
7AD1
  8
1
  6
CONTINUOUS
 10
1605.615182
 20
5557.6976850000001
 30
0.0
 11
1605.615182
 21
5389.6976850000001
 31
0.0
  0
LINE
  5
7AD2
  8
1
  6
CONTINUOUS
 10
1705.615182
 20
5297.6976850000001
 30
0.0
 11
1705.615182
 21
5447.6976850000001
 31
0.0
  0
LINE
  5
7AD3
  8
1
  6
CONTINUOUS
 10
1605.615182
 20
6209.6976850000001
 30
0.0
 11
1605.615182
 21
6157.6976850000001
 31
0.0
  0
LINE
  5
7AD4
  8
1
  6
CONTINUOUS
 10
1925.6151819999991
 20
5337.697685000001
 30
0.0
 11
2325.6151819999991
 21
5337.697685000001
 31
0.0
  0
LINE
  5
7AD5
  8
1
  6
CONTINUOUS
 10
1925.6151819999991
 20
5407.6976850000001
 30
0.0
 11
2325.6151819999991
 21
5407.6976850000001
 31
0.0
  0
LINE
  5
7AD6
  8
1
  6
CONTINUOUS
 10
2104.615182
 20
5407.6976850000001
 30
0.0
 11
2104.615182
 21
5557.6976850000001
 31
0.0
  0
LINE
  5
7AD7
  8
1
  6
CONTINUOUS
 10
2146.615182
 20
5407.6976850000001
 30
0.0
 11
2146.615182
 21
5557.6976850000001
 31
0.0
  0
LINE
  5
7AD8
  8
1
  6
CONTINUOUS
 10
1925.6151819999991
 20
5337.697685000001
 30
0.0
 11
1925.6151819999991
 21
5407.6976850000001
 31
0.0
  0
LINE
  5
7AD9
  8
1
  6
CONTINUOUS
 10
2325.6151819999991
 20
5337.697685000001
 30
0.0
 11
2325.6151819999991
 21
5407.6976850000001
 31
0.0
  0
LINE
  5
7ADC
  8
1
  6
CONTINUOUS
 10
5087.8451350000014
 20
2620.0506209999999
 30
0.0
 11
4175.8451350000014
 21
2620.0506209999999
 31
0.0
  0
LINE
  5
7ADD
  8
1
  6
CONTINUOUS
 10
4325.8451349999996
 20
3870.0506209999999
 30
0.0
 11
4175.8451350000014
 21
3870.0506209999999
 31
0.0
  0
LINE
  5
7AE9
  8
1
  6
CONTINUOUS
 10
3182.235181999999
 20
2620.0506209999999
 30
0.0
 11
2874.235181999999
 21
2620.0506209999999
 31
0.0
  0
ARC
  5
7AEA
  8
1
  6
CONTINUOUS
 10
3028.235181999999
 20
2820.0506209999999
 30
0.0
 40
162.0
 50
324.97000000000003
 51
215.02999999999989
  0
LINE
  5
7AEB
  8
1
  6
CONTINUOUS
 10
2874.235181999999
 20
2678.0506209999999
 30
0.0
 11
2895.5851819999989
 21
2727.0706209999998
 31
0.0
  0
LINE
  5
7AEC
  8
1
  6
CONTINUOUS
 10
2874.235181999999
 20
2620.0506209999999
 30
0.0
 11
2874.235181999999
 21
2678.0506209999999
 31
0.0
  0
LINE
  5
7AED
  8
2
  6
CENTER
 10
3103.2351819999999
 20
2820.0506209999999
 30
0.0
 11
2953.2351819999999
 21
2820.0506209999999
 31
0.0
  0
LINE
  5
7AEE
  8
2
  6
CENTER
 10
3028.235181999999
 20
2745.0506209999999
 30
0.0
 11
3028.235181999999
 21
2895.0506209999999
 31
0.0
  0
CIRCLE
  5
7AEF
  8
1
  6
CONTINUOUS
 10
3028.235181999999
 20
2820.0506209999999
 30
0.0
 40
75.0
  0
LINE
  5
7AF0
  8
1
  6
CONTINUOUS
 10
3205.615182
 20
2495.0506209999999
 30
0.0
 11
3205.615182
 21
2395.0506209999999
 31
0.0
  0
LINE
  5
7AF1
  8
1
  6
CONTINUOUS
 10
3185.615182
 20
2920.0506209999999
 30
0.0
 11
3185.615182
 21
2620.0506209999999
 31
0.0
  0
LINE
  5
7AF2
  8
1
  6
CONTINUOUS
 10
3182.235181999999
 20
2678.0506209999999
 30
0.0
 11
3160.8951820000002
 21
2727.0706209999998
 31
0.0
  0
LINE
  5
7AF3
  8
1
  6
CONTINUOUS
 10
3182.235181999999
 20
2620.0506209999999
 30
0.0
 11
3182.235181999999
 21
2678.0506209999999
 31
0.0
  0
LINE
  5
7AF4
  8
1
  6
CONTINUOUS
 10
3205.615182
 20
2620.0506209999999
 30
0.0
 11
3205.615182
 21
2520.0506209999999
 31
0.0
  0
LINE
  5
7B0D
  8
1
  6
CONTINUOUS
 10
4175.8451350000014
 20
3870.0506209999999
 30
0.0
 11
4175.8451350000014
 21
2620.0506209999999
 31
0.0
  0
LINE
  5
7B17
  8
1
  6
CONTINUOUS
 10
2791.505181999999
 20
5557.6976850000001
 30
0.0
 11
2791.505181999999
 21
6157.6976850000001
 31
0.0
  0
LINE
  5
7B18
  8
1
  6
CONTINUOUS
 10
3205.615182
 20
6209.6976850000001
 30
0.0
 11
3205.615182
 21
5389.6976850000001
 31
0.0
  0
LINE
  5
7B19
  8
1
  6
CONTINUOUS
 10
3205.615182
 20
5389.6976850000001
 30
0.0
 11
3103.2351819999999
 21
5389.6976850000001
 31
0.0
  0
LINE
  5
7B1A
  8
1
  6
CONTINUOUS
 10
3190.2351819999999
 20
5495.6976850000001
 30
0.0
 11
2866.2351819999999
 21
5495.6976850000001
 31
0.0
  0
LINE
  5
7B1B
  8
1
  6
CONTINUOUS
 10
3190.2351819999999
 20
5980.6976850000001
 30
0.0
 11
2866.2351819999999
 21
5980.6976850000001
 31
0.0
  0
LINE
  5
7B1C
  8
1
  6
CONTINUOUS
 10
3049.2351819999999
 20
5407.6976850000001
 30
0.0
 11
3049.2351819999999
 21
5495.6976850000001
 31
0.0
  0
LINE
  5
7B1D
  8
1
  6
CONTINUOUS
 10
3007.2351819999999
 20
5407.6976850000001
 30
0.0
 11
3007.2351819999999
 21
5495.6976850000001
 31
0.0
  0
LINE
  5
7B1E
  8
1
  6
CONTINUOUS
 10
2953.2351819999999
 20
5337.697685000001
 30
0.0
 11
3103.2351819999999
 21
5337.697685000001
 31
0.0
  0
LINE
  5
7B1F
  8
1
  6
CONTINUOUS
 10
2953.2351819999999
 20
5407.6976850000001
 30
0.0
 11
3103.2351819999999
 21
5407.6976850000001
 31
0.0
  0
LINE
  5
7B20
  8
1
  6
CONTINUOUS
 10
2953.2351819999999
 20
5337.697685000001
 30
0.0
 11
2953.2351819999999
 21
5407.6976850000001
 31
0.0
  0
LINE
  5
7B21
  8
1
  6
CONTINUOUS
 10
3103.2351819999999
 20
5337.697685000001
 30
0.0
 11
3103.2351819999999
 21
5407.6976850000001
 31
0.0
  0
LINE
  5
7B22
  8
1
  6
CONTINUOUS
 10
2866.2351819999999
 20
5495.6976850000001
 30
0.0
 11
2866.2351819999999
 21
5980.6976850000001
 31
0.0
  0
LINE
  5
7B23
  8
1
  6
CONTINUOUS
 10
3185.615182
 20
5447.6976850000001
 30
0.0
 11
3185.615182
 21
5297.6976850000001
 31
0.0
  0
LINE
  5
7B24
  8
1
  6
CONTINUOUS
 10
3190.2351819999999
 20
5495.6976850000001
 30
0.0
 11
3190.2351819999999
 21
5980.6976850000001
 31
0.0
  0
LINE
  5
7B3E
  8
1
  6
CONTINUOUS
 10
5087.8451350000014
 20
2495.0506209999999
 30
0.0
 11
4267.8451349999996
 21
2495.0506209999999
 31
0.0
  0
LINE
  5
7B3F
  8
1
  6
CONTINUOUS
 10
5087.8451350000014
 20
2395.0506209999999
 30
0.0
 11
4267.8451349999996
 21
2395.0506209999999
 31
0.0
  0
LINE
  5
7B40
  8
1
  6
CONTINUOUS
 10
5087.8451350000014
 20
2520.0506209999999
 30
0.0
 11
4267.8451349999996
 21
2520.0506209999999
 31
0.0
  0
LINE
  5
7B41
  8
1
  6
CONTINUOUS
 10
4435.8451349999996
 20
4002.0506209999999
 30
0.0
 11
4435.8451349999996
 21
2620.0506209999999
 31
0.0
  0
LINE
  5
7B42
  8
1
  6
CONTINUOUS
 10
5035.8451349999996
 20
4002.0506209999999
 30
0.0
 11
5035.8451349999996
 21
2620.0506209999999
 31
0.0
  0
LINE
  5
7B43
  8
1
  6
CONTINUOUS
 10
5035.8451349999996
 20
3177.0506209999999
 30
0.0
 11
4435.8451349999996
 21
4002.0506209999999
 31
0.0
  0
LINE
  5
7B44
  8
1
  6
CONTINUOUS
 10
4435.8451349999996
 20
3177.0506209999999
 30
0.0
 11
5035.8451349999996
 21
4002.0506209999999
 31
0.0
  0
LINE
  5
7B45
  8
1
  6
CONTINUOUS
 10
4325.8451349999996
 20
3870.0506209999999
 30
0.0
 11
4325.8451349999996
 21
2620.0506209999999
 31
0.0
  0
LINE
  5
7B46
  8
1
  6
CONTINUOUS
 10
4215.8451350000014
 20
3415.050620999999
 30
0.0
 11
4215.8451350000014
 21
3015.0506209999999
 31
0.0
  0
LINE
  5
7B47
  8
1
  6
CONTINUOUS
 10
4285.8451349999996
 20
3415.050620999999
 30
0.0
 11
4285.8451349999996
 21
3015.0506209999999
 31
0.0
  0
LINE
  5
7B48
  8
1
  6
CONTINUOUS
 10
4435.8451349999996
 20
3177.0506209999999
 30
0.0
 11
5035.8451349999996
 21
3177.0506209999999
 31
0.0
  0
LINE
  5
7B49
  8
1
  6
CONTINUOUS
 10
4267.8451349999996
 20
2495.0506209999999
 30
0.0
 11
4267.8451349999996
 21
2395.0506209999999
 31
0.0
  0
LINE
  5
7B4A
  8
1
  6
CONTINUOUS
 10
4285.8451349999996
 20
2841.050620999999
 30
0.0
 11
4435.8451349999996
 21
2841.050620999999
 31
0.0
  0
LINE
  5
7B4B
  8
1
  6
CONTINUOUS
 10
4285.8451349999996
 20
2799.0506209999999
 30
0.0
 11
4435.8451349999996
 21
2799.0506209999999
 31
0.0
  0
LINE
  5
7B4C
  8
1
  6
CONTINUOUS
 10
4435.8451349999996
 20
3194.0506209999999
 30
0.0
 11
4285.8451349999996
 21
3194.0506209999999
 31
0.0
  0
LINE
  5
7B4D
  8
1
  6
CONTINUOUS
 10
4267.8451349999996
 20
2620.0506209999999
 30
0.0
 11
4267.8451349999996
 21
2520.0506209999999
 31
0.0
  0
LINE
  5
7B4E
  8
1
  6
CONTINUOUS
 10
4215.8451350000014
 20
3015.0506209999999
 30
0.0
 11
4285.8451349999996
 21
3015.0506209999999
 31
0.0
  0
LINE
  5
7B4F
  8
1
  6
CONTINUOUS
 10
4215.8451350000014
 20
2895.0506209999999
 30
0.0
 11
4285.8451349999996
 21
2895.0506209999999
 31
0.0
  0
LINE
  5
7B50
  8
1
  6
CONTINUOUS
 10
4215.8451350000014
 20
2745.0506209999999
 30
0.0
 11
4285.8451349999996
 21
2745.0506209999999
 31
0.0
  0
LINE
  5
7B51
  8
1
  6
CONTINUOUS
 10
4215.8451350000014
 20
2895.0506209999999
 30
0.0
 11
4215.8451350000014
 21
2745.0506209999999
 31
0.0
  0
LINE
  5
7B52
  8
1
  6
CONTINUOUS
 10
4285.8451349999996
 20
2895.0506209999999
 30
0.0
 11
4285.8451349999996
 21
2745.0506209999999
 31
0.0
  0
LINE
  5
7B53
  8
1
  6
CONTINUOUS
 10
4435.8451349999996
 20
4002.0506209999999
 30
0.0
 11
5035.8451349999996
 21
4002.0506209999999
 31
0.0
  0
LINE
  5
7B54
  8
1
  6
CONTINUOUS
 10
4435.8451349999996
 20
3236.050620999999
 30
0.0
 11
4285.8451349999996
 21
3236.050620999999
 31
0.0
  0
LINE
  5
7B55
  8
1
  6
CONTINUOUS
 10
4215.8451350000014
 20
3415.050620999999
 30
0.0
 11
4285.8451349999996
 21
3415.050620999999
 31
0.0
  0
LINE
  5
7B56
  8
1
  6
CONTINUOUS
 10
5087.8451350000014
 20
2495.0506209999999
 30
0.0
 11
5087.8451350000014
 21
2395.0506209999999
 31
0.0
  0
LINE
  5
7B57
  8
1
  6
CONTINUOUS
 10
5087.8451350000014
 20
2620.0506209999999
 30
0.0
 11
5087.8451350000014
 21
2520.0506209999999
 31
0.0
  0
LINE
  5
7B58
  8
2
  6
CENTER
 10
3277.7501090000001
 20
5857.6976850000001
 30
0.0
 11
1389.6195589999991
 21
5857.6976850000001
 31
0.0
  0
LINE
  5
7B59
  8
2
  6
CENTER
 10
4735.8451349999996
 20
4162.74791
 30
0.0
 11
4735.8451349999996
 21
2183.3790180000001
 31
0.0
  0
LINE
  5
7B5A
  8
2
  6
CENTER
 10
2125.615182
 20
4134.2479000000003
 30
0.0
 11
2125.615182
 21
2155.8418510000001
 31
0.0
  0
LINE
  5
7B5B
  8
2
  6
CENTER
 10
4087.8882140000001
 20
3215.050620999999
 30
0.0
 11
5174.7886420000013
 21
3215.050620999999
 31
0.0
  0
LINE
  5
7B5C
  8
4
  6
CONTINUOUS
 10
5550.0
 20
1500.0
 30
0.0
 11
5550.0
 21
900.0
 31
0.0
  0
LINE
  5
7B5D
  8
4
  6
CONTINUOUS
 10
3450.0
 20
1500.0
 30
0.0
 11
3450.0
 21
900.0
 31
0.0
  0
LINE
  5
7B5E
  8
4
  6
CONTINUOUS
 10
1950.0
 20
1500.0
 30
0.0
 11
1950.0
 21
900.0
 31
0.0
  0
LINE
  5
7B61
  8
4
  6
CONTINUOUS
 10
1950.0
 20
900.0
 30
0.0
 11
5550.0
 21
900.0
 31
0.0
  0
LINE
  5
7B62
  8
4
  6
CONTINUOUS
 10
1950.0
 20
1200.0
 30
0.0
 11
5550.0
 21
1200.0
 31
0.0
  0
TEXT
  5
7B63
  8
4
  6
CONTINUOUS
 10
2065.5062429999989
 20
1294.6290779999999
 30
0.0
 40
150.0
  1
機器名称
  0
TEXT
  5
7B64
  8
4
  6
CONTINUOUS
 10
2058.7743179999989
 20
964.9354699999999
 30
0.0
 40
150.0
  1
機器型番
  0
TEXT
  5
7B65
  8
4
  6
CONTINUOUS
 10
3533.0362359999999
 20
1267.7153069999999
 30
0.0
 40
150.0
  1
ミツヤ多翼送風機
  0
TEXT
  5
7B66
  8
4
  6
CONTINUOUS
 10
3559.9634869999991
 20
951.47875299999987
 30
0.0
 40
150.0
  1
MF#5-4
  0
TEXT
  5
7B68
  8
4
  6
CONTINUOUS
 10
2389.0724169999999
 20
7150.2865239999992
 30
0.0
 40
162.0
  1
床置防振ベット
  0
TEXT
  5
7B69
  8
4
  6
CONTINUOUS
 10
948.50278000000014
 20
7601.6429289999996
 30
0.0
 40
216.0
  1
ベルト駆動式片吸込両持多翼ファン
  0
LINE
  5
7B6A
  8
4
  6
CONTINUOUS
 10
750.0
 20
7408.2262629999996
 30
0.0
 11
5550.0
 21
7408.2262629999996
 31
0.0
  0
LINE
  5
7B6B
  8
4
  6
CONTINUOUS
 10
750.0
 20
8008.2262629999996
 30
0.0
 11
5550.0
 21
8008.2262629999996
 31
0.0
  0
LINE
  5
7B6C
  8
4
  6
CONTINUOUS
 10
1950.0
 20
1500.0
 30
0.0
 11
5550.0
 21
1500.0
 31
0.0
  0
LINE
  5
7B6D
  8
4
  6
CONTINUOUS
 10
750.0
 20
8008.2262629999996
 30
0.0
 11
750.0
 21
7408.2262629999996
 31
0.0
  0
TEXT
  5
7B6E
  8
4
  6
CONTINUOUS
 10
1081.4959199999989
 20
7146.9584329999998
 30
0.0
 40
162.0
  1
左回転左横向
  0
TEXT
  5
7B6F
  8
4
  6
CONTINUOUS
 10
4406.9086779999989
 20
8118.1832439999989
 30
0.0
 40
168.0
  1
No.
  0
TEXT
  5
7B70
  8
4
  6
CONTINUOUS
 10
3933.8881879999999
 20
7150.2865239999992
 30
0.0
 40
162.0
  1
縮尺：1/30
  0
LINE
  5
7B71
  8
4
  6
CONTINUOUS
 10
5550.0
 20
8008.2262629999996
 30
0.0
 11
5550.0
 21
7408.2262629999996
 31
0.0
  0
LINE
  5
7B73
  8
4
  6
CONTINUOUS
 10
4321.8522670000002
 20
8043.7907490000007
 30
0.0
 11
4321.8522670000002
 21
8359.9567849999985
 31
0.0
  0
LINE
  5
7B74
  8
4
  6
CONTINUOUS
 10
4321.8522670000002
 20
8359.9567849999985
 30
0.0
 11
5550.0
 21
8359.9567849999985
 31
0.0
  0
LINE
  5
7B75
  8
4
  6
CONTINUOUS
 10
5550.0
 20
8359.9567849999985
 30
0.0
 11
5550.0
 21
8043.7907490000007
 31
0.0
  0
LINE
  5
7B76
  8
4
  6
CONTINUOUS
 10
5550.0
 20
8043.7907490000007
 30
0.0
 11
4321.8522670000002
 21
8043.7907490000007
 31
0.0
  0
DIMENSION
  5
7B8E
  8
3
  6
CONTINUOUS
  2
*D1
 10
1366.664663
 20
3177.0506209999999
 30
0.0
 11
1366.664663
 21
3513.6936310000001
 31
0.0
 70
   128
 13
1530.615182
 23
4002.0506209999999
 33
0.0
 14
1530.615182
 24
3177.0506209999999
 34
0.0
 50
90.0
1001
ACAD
1000
DSTYLE
1002
{
1070
   287
1070
     3
1070
    40
1040
30.0
1070
   143
1040
0.039
1070
   172
1070
     1
1070
   271
1070
     0
1070
   279
1070
     0
1070
   288
1070
     1
1002
}
  0
DIMENSION
  5
7B9B
  8
3
  6
CONTINUOUS
  2
*D2
 10
1187.4944909999999
 20
3215.050620999999
 30
0.0
 11
1187.4944909999999
 21
3513.6936310000001
 31
0.0
 70
   128
 13
1530.615182
 23
4002.0506209999999
 33
0.0
 14
1482.2742249999999
 24
3215.050620999999
 34
0.0
 50
90.0
1001
ACAD
1000
DSTYLE
1002
{
1070
   287
1070
     3
1070
    40
1040
30.0
1070
   143
1040
0.039
1070
   172
1070
     1
1070
   271
1070
     0
1070
   279
1070
     0
1070
   288
1070
     1
1002
}
  0
DIMENSION
  5
7BB3
  8
3
  6
CONTINUOUS
  2
*D3
 10
1187.4944909999999
 20
2520.0506209999999
 30
0.0
 11
1112.494490999999
 21
2867.5506209999999
 31
0.0
 70
     0
 13
1482.2742249999999
 23
3215.050620999999
 33
0.0
 14
1605.615182
 24
2520.0506209999999
 34
0.0
 50
90.0
1001
ACAD
1000
DSTYLE
1002
{
1070
   287
1070
     4
1070
    40
1040
30.0
1070
    75
1070
     1
1070
   143
1040
0.039
1070
   172
1070
     1
1070
   271
1070
     0
1070
   279
1070
     1
1070
   288
1070
     1
1002
}
  0
DIMENSION
  5
7BC3
  8
3
  6
CONTINUOUS
  2
*D4
 10
1186.3987460000001
 20
2395.0506209999999
 30
0.0
 11
1186.3987460000001
 21
2137.907763857143
 31
0.0
 70
   128
 13
1605.615182
 23
2520.0506209999999
 33
0.0
 14
1605.615182
 24
2395.0506209999999
 34
0.0
 50
90.0
1001
ACAD
1000
DSTYLE
1002
{
1070
   287
1070
     3
1070
    40
1040
30.0
1070
   143
1040
0.039
1070
   172
1070
     1
1070
   271
1070
     0
1070
   279
1070
     0
1070
   288
1070
     1
1002
}
  0
DIMENSION
  5
7BD0
  8
3
  6
CONTINUOUS
  2
*D5
 10
2125.615182
 20
4203.3256860000001
 30
0.0
 11
1837.8158169999999
 21
4203.3256860000001
 31
0.0
 70
   128
 13
1530.615182
 23
4044.550620999999
 33
0.0
 14
2125.615182
 24
4134.2479000000003
 34
0.0
1001
ACAD
1000
DSTYLE
1002
{
1070
   287
1070
     3
1070
    40
1040
30.0
1070
   143
1040
0.039
1070
   172
1070
     1
1070
   271
1070
     0
1070
   279
1070
     0
1070
   288
1070
     1
1002
}
  0
DIMENSION
  5
7BE9
  8
3
  6
CONTINUOUS
  2
*D6
 10
2125.615182
 20
2113.237928
 30
0.0
 11
1870.9954969999999
 21
2113.237928
 31
0.0
 70
   128
 13
1605.615182
 23
2395.0506209999999
 33
0.0
 14
2125.615182
 24
2155.8418510000001
 34
0.0
1001
ACAD
1000
DSTYLE
1002
{
1070
   287
1070
     3
1070
    40
1040
30.0
1070
   143
1040
0.039
1070
   172
1070
     1
1070
   271
1070
     0
1070
   279
1070
     0
1070
   288
1070
     1
1002
}
  0
DIMENSION
  5
7BF5
  8
3
  6
CONTINUOUS
  2
*D7
 10
3205.615182
 20
2113.237928
 30
0.0
 11
2665.615182
 21
2188.237928
 31
0.0
 70
     0
 13
2125.615182
 23
2155.8418510000001
 33
0.0
 14
3205.615182
 24
2395.0506209999999
 34
0.0
1001
ACAD
1000
DSTYLE
1002
{
1070
   287
1070
     4
1070
    40
1040
30.0
1070
    75
1070
     1
1070
   143
1040
0.039
1070
   172
1070
     1
1070
   271
1070
     0
1070
   279
1070
     1
1070
   288
1070
     1
1002
}
  0
DIMENSION
  5
7C02
  8
3
  6
CONTINUOUS
  2
*D8
 10
5035.8451349999996
 20
4176.8013639999999
 30
0.0
 11
4732.1185720000003
 21
4176.8013639999999
 31
0.0
 70
   128
 13
4435.8451349999996
 23
4002.0506209999999
 33
0.0
 14
5035.8451349999996
 24
4002.0506209999999
 34
0.0
1001
ACAD
1000
DSTYLE
1002
{
1070
   287
1070
     3
1070
    40
1040
30.0
1070
   143
1040
0.039
1070
   172
1070
     1
1070
   271
1070
     0
1070
   279
1070
     0
1070
   288
1070
     1
1002
}
  0
LINE
  5
7C03
  8
1
  6
CONTINUOUS
 10
5039.8451350000014
 20
3640.050620999999
 30
0.0
 11
5039.8451350000014
 21
2790.0506209999999
 31
0.0
  0
DIMENSION
  5
7C12
  8
3
  6
CONTINUOUS
  2
*D9
 10
5342.6243160000013
 20
2790.050620999999
 30
0.0
 11
5342.6243160000004
 21
3215.2951359999988
 31
0.0
 70
   128
 13
5039.8451350000014
 23
3640.050620999999
 33
0.0
 14
5039.8451350000014
 24
2790.0506209999999
 34
0.0
 50
90.0
1001
ACAD
1000
DSTYLE
1002
{
1070
   287
1070
     3
1070
     3
1000
φ<>
1070
    40
1040
30.0
1070
   143
1040
0.039
1070
   172
1070
     1
1070
   271
1070
     0
1070
   279
1070
     0
1070
   288
1070
     1
1002
}
  0
DIMENSION
  5
7C21
  8
3
  6
CONTINUOUS
  2
*D10
 10
4735.8451349999996
 20
4362.471532999999
 30
0.0
 11
4887.8451349999996
 21
4438.9218648949281
 31
0.0
 70
   128
 13
5039.8451350000014
 23
3640.050620999999
 33
0.0
 14
4735.8451349999996
 24
4316.9015529999997
 34
0.0
1001
ACAD
1000
DSTYLE
1002
{
1070
   288
1070
     1
1070
   172
1070
     1
1070
    40
1040
30.0
1070
   271
1070
     0
1070
   143
1040
0.039
1002
}
  0
DIMENSION
  5
7C2D
  8
3
  6
CONTINUOUS
  2
*D11
 10
4175.8451350000014
 20
4362.471532999999
 30
0.0
 11
4455.8451349999996
 21
4512.4715329999999
 31
0.0
 70
     0
  1
MAX\P610
 13
4735.8451349999996
 23
4316.9015529999997
 33
0.0
 14
4175.8451350000014
 24
3870.0506209999999
 34
0.0
1001
ACAD
1000
DSTYLE
1002
{
1070
   287
1070
     4
1070
    40
1040
30.0
1070
    75
1070
     1
1070
   143
1040
0.039
1070
   172
1070
     1
1070
   271
1070
     0
1070
   279
1070
     1
1070
   288
1070
     1
1002
}
  0
DIMENSION
  5
7C47
  8
3
  6
CONTINUOUS
  2
*D12
 10
4735.8451349999996
 20
2136.2648559999989
 30
0.0
 11
4530.1308499999986
 21
2136.2648559999989
 31
0.0
 70
   128
 13
4267.8451349999996
 23
2395.0506209999999
 33
0.0
 14
4735.8451349999996
 24
2183.3790180000001
 34
0.0
1001
ACAD
1000
DSTYLE
1002
{
1070
   287
1070
     3
1070
    40
1040
30.0
1070
   143
1040
0.039
1070
   172
1070
     1
1070
   271
1070
     0
1070
   279
1070
     0
1070
   288
1070
     1
1002
}
  0
DIMENSION
  5
7C55
  8
3
  6
CONTINUOUS
  2
*D13
 10
5087.8451350000014
 20
2136.2648559999989
 30
0.0
 11
4912.0547900000001
 21
2135.3525260000001
 31
0.0
 70
   128
 13
4735.8451349999996
 23
2183.3790180000001
 33
0.0
 14
5087.8451350000014
 24
2395.0506209999999
 34
0.0
1001
ACAD
1000
DSTYLE
1002
{
1070
   287
1070
     4
1070
    40
1040
30.0
1070
    75
1070
     1
1070
   143
1040
0.039
1070
   172
1070
     1
1070
   271
1070
     0
1070
   279
1070
     1
1070
   288
1070
     1
1002
}
  0
DIMENSION
  5
7C72
  8
3
  6
CONTINUOUS
  2
*D14
 10
3205.615182
 20
6468.7044260000011
 30
0.0
 11
2388.5981699999988
 21
6468.7044260000011
 31
0.0
 70
   128
 13
1605.615182
 23
6209.6976850000001
 33
0.0
 14
3205.615182
 24
6209.6976850000001
 34
0.0
1001
ACAD
1000
DSTYLE
1002
{
1070
   287
1070
     3
1070
    40
1040
30.0
1070
   143
1040
0.039
1070
   172
1070
     1
1070
   271
1070
     0
1070
   279
1070
     0
1070
   288
1070
     1
1002
}
  0
DIMENSION
  5
7C8C
  8
3
  6
CONTINUOUS
  2
*D15
 10
3470.2550690000012
 20
5389.6976850000001
 30
0.0
 11
3470.2550689999998
 21
5861.0346490000002
 31
0.0
 70
   128
 13
3205.615182
 23
6209.6976850000001
 33
0.0
 14
3205.615182
 24
5389.6976850000001
 34
0.0
 50
90.0
1001
ACAD
1000
DSTYLE
1002
{
1070
   287
1070
     3
1070
    40
1040
30.0
1070
   143
1040
0.039
1070
   172
1070
     1
1070
   271
1070
     0
1070
   279
1070
     0
1070
   288
1070
     1
1002
}
  0
DIMENSION
  5
7CCE
  8
3
  6
CONTINUOUS
  2
*D16
 10
2789.619408
 20
4203.3256860000001
 30
0.0
 11
2457.617295
 21
4278.3256860000001
 31
0.0
 70
     0
 13
2125.615182
 23
4134.2479000000003
 33
0.0
 14
2789.619408
 24
3215.050620999999
 34
0.0
1001
ACAD
1000
DSTYLE
1002
{
1070
   287
1070
     4
1070
    40
1040
30.0
1070
    75
1070
     1
1070
   143
1040
0.039
1070
   172
1070
     1
1070
   271
1070
     0
1070
   279
1070
     1
1070
   288
1070
     1
1002
}
  0
DIMENSION
  5
7D6A
  8
3
  2
*D17
 10
3205.615182
 20
4379.7521503271737
 30
0.0
 11
2327.7068278878569
 21
4379.7521503271737
 31
0.0
 70
   128
 13
1530.615182
 23
4044.550620999999
 33
0.0
 14
3205.615182
 24
2620.0506209999999
 34
0.0
1001
ACAD
1000
DSTYLE
1002
{
1070
   287
1070
     3
1070
    40
1040
30.0
1070
   143
1040
0.039
1070
   172
1070
     1
1070
   271
1070
     0
1070
   279
1070
     0
1070
   288
1070
     1
1002
}
  0
LINE
  5
7D83
  8
1
  6
CONTINUOUS
 10
1625.6151819999991
 20
3620.0506209999999
 30
0.0
 11
2625.615182
 21
3620.0506209999999
 31
0.0
  0
LINE
  5
7D84
  8
1
 10
1625.6151819999991
 20
3620.0506209999999
 30
0.0
 11
1625.615182
 21
2620.0506209999999
 31
0.0
  0
LINE
  5
7D85
  8
1
 10
2625.615182
 20
3620.0506209999999
 30
0.0
 11
2625.615182
 21
2620.0506209999999
 31
0.0
  0
ENDSEC
  0
EOF
