  0
SECTION
  2
HEADER
  9
$ACADVER
  1
AC1009
  9
$INSBASE
 10
0.0
 20
0.0
 30
0.0
  9
$EXTMIN
 10
750.0
 20
900.0
 30
0.0
  9
$EXTMAX
 10
5550.0
 20
8359.9567849999985
 30
0.0
  9
$LIMMIN
 10
0.0
 20
0.0
  9
$LIMMAX
 10
297.0
 20
210.0
  9
$ORTHOMODE
 70
     0
  9
$REGENMODE
 70
     1
  9
$FILLMODE
 70
     0
  9
$QTEXTMODE
 70
     0
  9
$MIRRTEXT
 70
     1
  9
$DRAGMODE
 70
     2
  9
$LTSCALE
 40
100.0
  9
$OSMODE
 70
    37
  9
$ATTMODE
 70
     1
  9
$TEXTSIZE
 40
180.0
  9
$TRACEWID
 40
0.05
  9
$TEXTSTYLE
  7
STANDARD
  9
$CLAYER
  8
3
  9
$CELTYPE
  6
BYLAYER
  9
$CECOLOR
 62
   256
  9
$DIMSCALE
 40
30.0
  9
$DIMASZ
 40
2.0
  9
$DIMEXO
 40
0.5
  9
$DIMDLI
 40
10.0
  9
$DIMRND
 40
0.0
  9
$DIMDLE
 40
0.0
  9
$DIMEXE
 40
1.0
  9
$DIMTP
 40
1.0
  9
$DIMTM
 40
1.0
  9
$DIMTXT
 40
3.0
  9
$DIMCEN
 40
0.0
  9
$DIMTSZ
 40
0.0
  9
$DIMTOL
 70
     0
  9
$DIMLIM
 70
     0
  9
$DIMTIH
 70
     0
  9
$DIMTOH
 70
     0
  9
$DIMSE1
 70
     0
  9
$DIMSE2
 70
     0
  9
$DIMTAD
 70
     1
  9
$DIMZIN
 70
     8
  9
$DIMBLK
  1

  9
$DIMASO
 70
     1
  9
$DIMSHO
 70
     1
  9
$DIMPOST
  1

  9
$DIMAPOST
  1

  9
$DIMALT
 70
     0
  9
$DIMALTD
 70
     2
  9
$DIMALTF
 40
0.039
  9
$DIMLFAC
 40
1.0
  9
$DIMTOFL
 70
     1
  9
$DIMTVP
 40
0.0
  9
$DIMTIX
 70
     0
  9
$DIMSOXD
 70
     0
  9
$DIMSAH
 70
     1
  9
$DIMBLK1
  1
OPEN
  9
$DIMBLK2
  1
OPEN
  9
$DIMSTYLE
  2
IGA
  9
$DIMCLRD
 70
     0
  9
$DIMCLRE
 70
     0
  9
$DIMCLRT
 70
     0
  9
$DIMTFAC
 40
10.0
  9
$DIMGAP
 40
1.0
  9
$LUNITS
 70
     2
  9
$LUPREC
 70
     3
  9
$SKETCHINC
 40
0.1
  9
$FILLETRAD
 40
0.0
  9
$AUNITS
 70
     0
  9
$AUPREC
 70
     0
  9
$MENU
  1
acad
  9
$ELEVATION
 40
0.0
  9
$PELEVATION
 40
0.0
  9
$THICKNESS
 40
0.0
  9
$LIMCHECK
 70
     0
  9
$BLIPMODE
 70
     0
  9
$CHAMFERA
 40
0.5
  9
$CHAMFERB
 40
0.5
  9
$SKPOLY
 70
     0
  9
$TDCREATE
 40
2450746.4352215268
  9
$TDUPDATE
 40
2454953.7752546291
  9
$TDINDWG
 40
0.0120090162
  9
$TDUSRTIMER
 40
0.0120090162
  9
$USRTIMER
 70
     1
  9
$ANGBASE
 50
0.0
  9
$ANGDIR
 70
     0
  9
$PDMODE
 70
     0
  9
$PDSIZE
 40
0.0
  9
$PLINEWID
 40
0.0
  9
$COORDS
 70
     1
  9
$SPLFRAME
 70
     0
  9
$SPLINETYPE
 70
     6
  9
$SPLINESEGS
 70
     8
  9
$ATTDIA
 70
     0
  9
$ATTREQ
 70
     1
  9
$HANDLING
 70
 10241
  9
$HANDSEED
  5
7E0E
  9
$SURFTAB1
 70
     6
  9
$SURFTAB2
 70
     6
  9
$SURFTYPE
 70
     6
  9
$SURFU
 70
     6
  9
$SURFV
 70
     6
  9
$UCSNAME
  2

  9
$UCSORG
 10
0.0
 20
0.0
 30
0.0
  9
$UCSXDIR
 10
1.0
 20
0.0
 30
0.0
  9
$UCSYDIR
 10
0.0
 20
1.0
 30
0.0
  9
$PUCSNAME
  2

  9
$PUCSORG
 10
0.0
 20
0.0
 30
0.0
  9
$PUCSXDIR
 10
1.0
 20
0.0
 30
0.0
  9
$PUCSYDIR
 10
0.0
 20
1.0
 30
0.0
  9
$USERI1
 70
     0
  9
$USERI2
 70
     0
  9
$USERI3
 70
     0
  9
$USERI4
 70
     0
  9
$USERI5
 70
     0
  9
$USERR1
 40
0.0
  9
$USERR2
 40
0.0
  9
$USERR3
 40
0.0
  9
$USERR4
 40
0.0
  9
$USERR5
 40
0.0
  9
$WORLDVIEW
 70
     1
  9
$SHADEDGE
 70
     3
  9
$SHADEDIF
 70
    70
  9
$TILEMODE
 70
     1
  9
$MAXACTVP
 70
    16
  9
$PLIMCHECK
 70
     0
  9
$PEXTMIN
 10
1.0000000000000000E+020
 20
1.0000000000000000E+020
 30
1.0000000000000000E+020
  9
$PEXTMAX
 10
-1.0000000000000000E+020
 20
-1.0000000000000000E+020
 30
-1.0000000000000000E+020
  9
$PLIMMIN
 10
0.0
 20
0.0
  9
$PLIMMAX
 10
12.0
 20
9.0
  9
$UNITMODE
 70
     0
  9
$VISRETAIN
 70
     0
  9
$PLINEGEN
 70
     0
  9
$PSLTSCALE
 70
     1
  0
ENDSEC
  0
SECTION
  2
TABLES
  0
TABLE
  2
VPORT
 70
     2
  0
VPORT
  2
*ACTIVE
 70
     0
 10
0.0
 20
0.0
 11
1.0
 21
1.0
 12
9438.1687158055174
 22
4629.9562499988788
 13
0.0
 23
0.0
 14
10.0
 24
10.0
 15
10.0
 25
10.0
 16
0.0
 26
0.0
 36
1.0
 17
0.0
 27
0.0
 37
0.0
 40
7517.2452868940854
 41
3.1666666666666661
 42
50.0
 43
0.0
 44
0.0
 50
0.0
 51
0.0
 71
     0
 72
   100
 73
     1
 74
     0
 75
     0
 76
     0
 77
     0
 78
     0
  0
ENDTAB
  0
TABLE
  2
LTYPE
 70
     2
  0
LTYPE
  2
CONTINUOUS
 70
     0
  3
Solid line
 72
    65
 73
     0
 40
0.0
  0
LTYPE
  2
CENTER
 70
     0
  3
____ _ ____ _ ____ _ ____ _ ____ _ ____ _ ____ 
 72
    65
 73
     4
 40
2.0
 49
1.25
 49
-0.25
 49
0.25
 49
-0.25
  0
ENDTAB
  0
TABLE
  2
LAYER
 70
     6
  0
LAYER
  2
0
 70
     0
 62
     7
  6
CONTINUOUS
  0
LAYER
  2
3
 70
     0
 62
     2
  6
CONTINUOUS
  0
LAYER
  2
2
 70
     0
 62
     3
  6
CENTER
  0
LAYER
  2
1
 70
     0
 62
     4
  6
CONTINUOUS
  0
LAYER
  2
4
 70
     0
 62
     7
  6
CONTINUOUS
  0
LAYER
  2
DEFPOINTS
 70
     0
 62
     7
  6
CONTINUOUS
  0
ENDTAB
  0
TABLE
  2
STYLE
 70
     1
  0
STYLE
  2
STANDARD
 70
     0
 40
0.0
 41
1.0
 50
0.0
 71
     0
 42
180.0
  3
simplex.shx
  4
extfont.shx
  0
ENDTAB
  0
TABLE
  2
VIEW
 70
     0
  0
ENDTAB
  0
TABLE
  2
UCS
 70
     0
  0
ENDTAB
  0
TABLE
  2
APPID
 70
     1
  0
APPID
  2
ACAD
 70
     0
  0
ENDTAB
  0
TABLE
  2
DIMSTYLE
 70
     1
  0
DIMSTYLE
  2
IGA
 70
     0
  3

  4

  5

  6
OPEN
  7
OPEN
 40
2.0
 41
2.0
 42
0.5
 43
10.0
 44
1.0
 45
0.0
 46
0.0
 47
1.0
 48
1.0
140
3.0
141
0.0
142
0.0
143
0.03937
144
1.0
145
0.0
146
10.0
147
1.0
 71
     0
 72
     0
 73
     0
 74
     0
 75
     0
 76
     0
 77
     1
 78
     8
170
     0
171
     2
172
     0
173
     1
174
     0
175
     0
176
     0
177
     0
178
     0
  0
ENDTAB
  0
ENDSEC
  0
SECTION
  2
BLOCKS
  0
BLOCK
  8
0
  2
$MODEL_SPACE
 70
     0
 10
0.0
 20
0.0
 30
0.0
  3
$MODEL_SPACE
  1

  0
ENDBLK
  5
1B
  8
0
  0
BLOCK
 67
     1
  8
0
  2
$PAPER_SPACE
 70
     0
 10
0.0
 20
0.0
 30
0.0
  3
$PAPER_SPACE
  1

  0
ENDBLK
  5
18
 67
     1
  8
0
  0
BLOCK
  8
0
  2
_OPEN
 70
     0
 10
0.0
 20
0.0
 30
0.0
  3
_OPEN
  1

  0
LINE
  5
7B5B
  8
0
  6
BYBLOCK
 62
     0
 10
-1.0
 20
0.166667
 30
0.0
 11
0.0
 21
0.0
 31
0.0
  0
LINE
  5
7B5C
  8
0
  6
BYBLOCK
 62
     0
 10
0.0
 20
0.0
 30
0.0
 11
-1.0
 21
-0.166667
 31
0.0
  0
LINE
  5
7B5D
  8
0
  6
BYBLOCK
 62
     0
 10
0.0
 20
0.0
 30
0.0
 11
-1.0
 21
0.0
 31
0.0
  0
ENDBLK
  5
7B5E
  8
0
  0
BLOCK
  8
0
  2
*D1
 70
     1
 10
0.0
 20
0.0
 30
0.0
  3
*D1
  1

  0
LINE
  5
7D72
  8
3
  6
CONTINUOUS
 62
     0
 10
1798.620529580267
 20
3414.515167
 30
0.0
 11
1632.460479580267
 21
3414.515167
 31
0.0
  0
LINE
  5
7D73
  8
3
  6
CONTINUOUS
 62
     0
 10
1798.620529580267
 20
2589.515167
 30
0.0
 11
1632.460479580267
 21
2589.515167
 31
0.0
  0
LINE
  5
7D74
  8
3
  6
CONTINUOUS
 62
     0
 10
1662.4604795802679
 20
3354.515167
 30
0.0
 11
1662.4604795802679
 21
2649.515167
 31
0.0
  0
INSERT
  5
7D75
  8
3
  6
CONTINUOUS
 62
     0
  2
_OPEN
 10
1662.4604795802679
 20
3414.515167
 30
0.0
 41
60.0
 42
60.0
 43
60.0
 50
90.0
  0
INSERT
  5
7D76
  8
3
  6
CONTINUOUS
 62
     0
  2
_OPEN
 10
1662.4604795802679
 20
2589.515167
 30
0.0
 41
60.0
 42
60.0
 43
60.0
 50
270.0
  0
TEXT
  8
3
  40
90
  5
7DFD
  62
0
  72
0
  71
0
 10
1407.46
 20
2851.58
 30
0.000000
  1
825
  0
POINT
  5
7D78
  8
DEFPOINTS
  6
CONTINUOUS
 62
     0
 10
1813.620529580267
 20
3414.515167
 30
0.0
  0
POINT
  5
7D79
  8
DEFPOINTS
  6
CONTINUOUS
 62
     0
 10
1813.620529580267
 20
2589.515167
 30
0.0
  0
POINT
  5
7D7A
  8
DEFPOINTS
  6
CONTINUOUS
 62
     0
 10
1662.4604795802679
 20
2589.515167
 30
0.0
  0
ENDBLK
  5
7B6B
  8
0
  0
BLOCK
  8
0
  2
*D2
 70
     1
 10
0.0
 20
0.0
 30
0.0
  3
*D2
  1

  0
LINE
  5
7D7B
  8
3
  6
CONTINUOUS
 62
     0
 10
1714.4073915802669
 20
3376.515167
 30
0.0
 11
1444.1348655802669
 21
3376.515167
 31
0.0
  0
LINE
  5
7D7C
  8
3
  6
CONTINUOUS
 62
     0
 10
1798.620529580267
 20
2589.515167
 30
0.0
 11
1444.1348655802669
 21
2589.515167
 31
0.0
  0
LINE
  5
7D7D
  8
3
  6
CONTINUOUS
 62
     0
 10
1474.1348655802669
 20
3316.515167
 30
0.0
 11
1474.1348655802669
 21
2649.515167
 31
0.0
  0
INSERT
  5
7D7E
  8
3
  6
CONTINUOUS
 62
     0
  2
_OPEN
 10
1474.1348655802669
 20
3376.515167
 30
0.0
 41
60.0
 42
60.0
 43
60.0
 50
90.0
  0
INSERT
  5
7D7F
  8
3
  6
CONTINUOUS
 62
     0
  2
_OPEN
 10
1474.1348655802669
 20
2589.515167
 30
0.0
 41
60.0
 42
60.0
 43
60.0
 50
270.0
  0
TEXT
  8
3
  40
90
  5
7DFE
  62
0
  72
0
  71
0
 10
1219.13
 20
2851.58
 30
0.000000
  1
787
  0
POINT
  5
7D81
  8
DEFPOINTS
  6
CONTINUOUS
 62
     0
 10
1729.4073915802669
 20
3376.515167
 30
0.0
  0
POINT
  5
7D82
  8
DEFPOINTS
  6
CONTINUOUS
 62
     0
 10
1813.620529580267
 20
2589.515167
 30
0.0
  0
POINT
  5
7D83
  8
DEFPOINTS
  6
CONTINUOUS
 62
     0
 10
1474.1348655802669
 20
2589.515167
 30
0.0
  0
ENDBLK
  5
7B78
  8
0
  0
BLOCK
  8
0
  2
*D3
 70
     1
 10
0.0
 20
0.0
 30
0.0
  3
*D3
  1

  0
LINE
  5
7D84
  8
3
  6
CONTINUOUS
 62
     0
 10
1714.4073915802669
 20
3376.515167
 30
0.0
 11
1242.821253580267
 21
3376.515167
 31
0.0
  0
LINE
  5
7D85
  8
3
  6
CONTINUOUS
 62
     0
 10
1873.620529580267
 20
2406.515167
 30
0.0
 11
1242.821253580267
 21
2406.515167
 31
0.0
  0
LINE
  5
7D86
  8
3
  6
CONTINUOUS
 62
     0
 10
1272.821253580267
 20
3316.515167
 30
0.0
 11
1272.821253580267
 21
2466.515167
 31
0.0
  0
INSERT
  5
7D87
  8
3
  6
CONTINUOUS
 62
     0
  2
_OPEN
 10
1272.821253580267
 20
3376.515167
 30
0.0
 41
60.0
 42
60.0
 43
60.0
 50
90.0
  0
INSERT
  5
7D88
  8
3
  6
CONTINUOUS
 62
     0
  2
_OPEN
 10
1272.821253580267
 20
2406.515167
 30
0.0
 41
60.0
 42
60.0
 43
60.0
 50
270.0
  0
TEXT
  8
3
  40
90
  5
7DFF
  62
0
  72
0
  71
0
 10
1017.82
 20
2732.22
 30
0.000000
  1
970
  0
POINT
  5
7D8A
  8
DEFPOINTS
  6
CONTINUOUS
 62
     0
 10
1729.4073915802669
 20
3376.515167
 30
0.0
  0
POINT
  5
7D8B
  8
DEFPOINTS
  6
CONTINUOUS
 62
     0
 10
1888.620529580267
 20
2406.515167
 30
0.0
  0
POINT
  5
7D8C
  8
DEFPOINTS
  6
CONTINUOUS
 62
     0
 10
1272.821253580267
 20
2406.515167
 30
0.0
  0
ENDBLK
  5
7CF5
  8
0
  0
BLOCK
  8
0
  2
*D4
 70
     1
 10
0.0
 20
0.0
 30
0.0
  3
*D4
  1

  0
LINE
  5
7D8D
  8
3
  6
CONTINUOUS
 62
     0
 10
1888.620529580267
 20
2391.515167
 30
0.0
 11
1888.620529580267
 21
2169.7296889999998
 31
0.0
  0
LINE
  5
7D8E
  8
3
  6
CONTINUOUS
 62
     0
 10
2408.620529580267
 20
2326.9261079999992
 30
0.0
 11
2408.620529580267
 21
2169.7296889999998
 31
0.0
  0
LINE
  5
7D8F
  8
3
  6
CONTINUOUS
 62
     0
 10
1948.620529580267
 20
2199.7296889999998
 30
0.0
 11
2348.620529580267
 21
2199.7296889999998
 31
0.0
  0
INSERT
  5
7D90
  8
3
  6
CONTINUOUS
 62
     0
  2
_OPEN
 10
1888.620529580267
 20
2199.7296889999998
 30
0.0
 41
60.0
 42
60.0
 43
60.0
 50
180.0
  0
INSERT
  5
7D91
  8
3
  6
CONTINUOUS
 62
     0
  2
_OPEN
 10
2408.620529580267
 20
2199.7296889999998
 30
0.0
 41
60.0
 42
60.0
 43
60.0
  0
TEXT
  8
3
  40
90
  5
7E00
  62
0
  72
0
  71
0
 10
1988.34
 20
2115.43
 30
0.000000
  1
520
  0
POINT
  5
7D93
  8
DEFPOINTS
  6
CONTINUOUS
 62
     0
 10
1888.620529580267
 20
2406.515167
 30
0.0
  0
POINT
  5
7D94
  8
DEFPOINTS
  6
CONTINUOUS
 62
     0
 10
2408.620529580267
 20
2341.9261080000001
 30
0.0
  0
POINT
  5
7D95
  8
DEFPOINTS
  6
CONTINUOUS
 62
     0
 10
2408.620529580267
 20
2199.7296889999998
 30
0.0
  0
ENDBLK
  5
7BAB
  8
0
  0
BLOCK
  8
0
  2
*D5
 70
     1
 10
0.0
 20
0.0
 30
0.0
  3
*D5
  1

  0
LINE
  5
7D96
  8
3
  6
CONTINUOUS
 62
     0
 10
3488.6205295802661
 20
2391.515167
 30
0.0
 11
3488.6205295802661
 21
2169.7296889999998
 31
0.0
  0
LINE
  5
7D97
  8
3
  6
CONTINUOUS
 62
     0
 10
2468.620529580267
 20
2199.7296889999998
 30
0.0
 11
3428.620529580267
 21
2199.7296889999998
 31
0.0
  0
INSERT
  5
7D98
  8
3
  6
CONTINUOUS
 62
     0
  2
_OPEN
 10
2408.620529580267
 20
2199.7296889999998
 30
0.0
 41
60.0
 42
60.0
 43
60.0
 50
180.0
  0
INSERT
  5
7D99
  8
3
  6
CONTINUOUS
 62
     0
  2
_OPEN
 10
3488.6205295802661
 20
2199.7296889999998
 30
0.0
 41
60.0
 42
60.0
 43
60.0
  0
TEXT
  8
3
  40
90
  5
7E01
  62
0
  72
0
  71
0
 10
2768.62
 20
2115.43
 30
0.000000
  1
1080
  0
POINT
  5
7D9B
  8
DEFPOINTS
  6
CONTINUOUS
 62
     0
 10
2408.620529580267
 20
2341.9261080000001
 30
0.0
  0
POINT
  5
7D9C
  8
DEFPOINTS
  6
CONTINUOUS
 62
     0
 10
3488.6205295802661
 20
2406.515167
 30
0.0
  0
POINT
  5
7D9D
  8
DEFPOINTS
  6
CONTINUOUS
 62
     0
 10
3488.6205295802661
 20
2199.7296889999998
 30
0.0
  0
ENDBLK
  5
7BB7
  8
0
  0
BLOCK
  8
0
  2
*D6
 70
     1
 10
0.0
 20
0.0
 30
0.0
  3
*D6
  1

  0
LINE
  5
7D9E
  8
3
  6
CONTINUOUS
 62
     0
 10
1813.620529580267
 20
3472.015167
 30
0.0
 11
1813.620529580267
 21
4144.0543659999994
 31
0.0
  0
LINE
  5
7D9F
  8
3
  6
CONTINUOUS
 62
     0
 10
2408.620529580267
 20
4068.8960249999991
 30
0.0
 11
2408.620529580267
 21
4144.0543659999994
 31
0.0
  0
LINE
  5
7DA0
  8
3
  6
CONTINUOUS
 62
     0
 10
1873.620529580267
 20
4114.0543659999994
 30
0.0
 11
2348.620529580267
 21
4114.0543659999994
 31
0.0
  0
INSERT
  5
7DA1
  8
3
  6
CONTINUOUS
 62
     0
  2
_OPEN
 10
1813.620529580267
 20
4114.0543659999994
 30
0.0
 41
60.0
 42
60.0
 43
60.0
 50
180.0
  0
INSERT
  5
7DA2
  8
3
  6
CONTINUOUS
 62
     0
  2
_OPEN
 10
2408.620529580267
 20
4114.0543659999994
 30
0.0
 41
60.0
 42
60.0
 43
60.0
  0
TEXT
  8
3
  40
90
  5
7E02
  62
0
  72
0
  71
0
 10
1916.91
 20
4029.75
 30
0.000000
  1
595
  0
POINT
  5
7DA4
  8
DEFPOINTS
  6
CONTINUOUS
 62
     0
 10
1813.620529580267
 20
3457.015167
 30
0.0
  0
POINT
  5
7DA5
  8
DEFPOINTS
  6
CONTINUOUS
 62
     0
 10
2408.620529580267
 20
4053.896025
 30
0.0
  0
POINT
  5
7DA6
  8
DEFPOINTS
  6
CONTINUOUS
 62
     0
 10
2408.620529580267
 20
4114.0543659999994
 30
0.0
  0
ENDBLK
  5
7BC4
  8
0
  0
BLOCK
  8
0
  2
*D7
 70
     1
 10
0.0
 20
0.0
 30
0.0
  3
*D7
  1

  0
LINE
  5
7DA7
  8
3
  6
CONTINUOUS
 62
     0
 10
5149.8781835802674
 20
3969.0651670000002
 30
0.0
 11
5149.8781835802674
 21
4131.0759010000002
 31
0.0
  0
LINE
  5
7DA8
  8
3
  6
CONTINUOUS
 62
     0
 10
4549.8781835802674
 20
3969.0651670000002
 30
0.0
 11
4549.8781835802674
 21
4131.0759010000002
 31
0.0
  0
LINE
  5
7DA9
  8
3
  6
CONTINUOUS
 62
     0
 10
5089.8781835802683
 20
4101.0759010000002
 30
0.0
 11
4609.8781835802674
 21
4101.0759010000002
 31
0.0
  0
INSERT
  5
7DAA
  8
3
  6
CONTINUOUS
 62
     0
  2
_OPEN
 10
5149.8781835802674
 20
4101.0759010000002
 30
0.0
 41
60.0
 42
60.0
 43
60.0
  0
INSERT
  5
7DAB
  8
3
  6
CONTINUOUS
 62
     0
  2
_OPEN
 10
4549.8781835802674
 20
4101.0759010000002
 30
0.0
 41
60.0
 42
60.0
 43
60.0
 50
180.0
  0
TEXT
  8
3
  40
90
  5
7E03
  62
0
  72
0
  71
0
 10
4664.28
 20
4016.78
 30
0.000000
  1
600
  0
POINT
  5
7DAD
  8
DEFPOINTS
  6
CONTINUOUS
 62
     0
 10
5149.8781835802674
 20
3954.0651670000002
 30
0.0
  0
POINT
  5
7DAE
  8
DEFPOINTS
  6
CONTINUOUS
 62
     0
 10
4549.8781835802674
 20
3954.0651670000002
 30
0.0
  0
POINT
  5
7DAF
  8
DEFPOINTS
  6
CONTINUOUS
 62
     0
 10
4549.8781835802674
 20
4101.0759010000002
 30
0.0
  0
ENDBLK
  5
7BDD
  8
0
  0
BLOCK
  8
0
  2
*D8
 70
     1
 10
0.0
 20
0.0
 30
0.0
  3
*D8
  1

  0
LINE
  5
7DB0
  8
3
  6
CONTINUOUS
 62
     0
 10
5168.8781835802674
 20
3801.515167
 30
0.0
 11
5465.2374235802681
 21
3801.515167
 31
0.0
  0
LINE
  5
7DB1
  8
3
  6
CONTINUOUS
 62
     0
 10
5168.8781835802674
 20
2951.515167
 30
0.0
 11
5465.2374235802681
 21
2951.515167
 31
0.0
  0
LINE
  5
7DB2
  8
3
  6
CONTINUOUS
 62
     0
 10
5435.2374235802681
 20
3741.515167
 30
0.0
 11
5435.2374235802681
 21
3011.515167
 31
0.0
  0
INSERT
  5
7DB3
  8
3
  6
CONTINUOUS
 62
     0
  2
_OPEN
 10
5435.2374235802681
 20
3801.515167
 30
0.0
 41
60.0
 42
60.0
 43
60.0
 50
90.0
  0
INSERT
  5
7DB4
  8
3
  6
CONTINUOUS
 62
     0
  2
_OPEN
 10
5435.2374235802681
 20
2951.515167
 30
0.0
 41
60.0
 42
60.0
 43
60.0
 50
270.0
  0
TEXT
  8
3
  40
90
  5
7E04
  62
0
  72
0
  71
0
 10
5180.24
 20
3176.05
 30
0.000000
  1
φ850
  0
POINT
  5
7DB6
  8
DEFPOINTS
  6
CONTINUOUS
 62
     0
 10
5153.8781835802683
 20
3801.515167
 30
0.0
  0
POINT
  5
7DB7
  8
DEFPOINTS
  6
CONTINUOUS
 62
     0
 10
5153.8781835802683
 20
2951.515167
 30
0.0
  0
POINT
  5
7DB8
  8
DEFPOINTS
  6
CONTINUOUS
 62
     0
 10
5435.2374235802681
 20
2951.515167
 30
0.0
  0
ENDBLK
  5
7CCA
  8
0
  0
BLOCK
  8
0
  2
*D9
 70
     1
 10
0.0
 20
0.0
 30
0.0
  3
*D9
  1

  0
LINE
  5
7CD7
  8
0
  6
BYBLOCK
 62
     0
 10
5153.8781835802683
 20
3816.515167
 30
0.0
 11
5153.8781835802683
 21
4338.7314509999997
 31
0.0
  0
LINE
  5
7CD8
  8
0
  6
BYBLOCK
 62
     0
 10
4849.8781835802674
 20
4224.1429259999986
 30
0.0
 11
4849.8781835802674
 21
4338.7314509999997
 31
0.0
  0
LINE
  5
7CD9
  8
0
  6
BYBLOCK
 62
     0
 10
5093.8781835802674
 20
4308.7314509999987
 30
0.0
 11
4909.8781835802683
 21
4308.7314509999987
 31
0.0
  0
TEXT
  5
7CDA
  8
3
 62
     0
 10
4884.0210407231252
 20
4352.2647084472037
 30
0.0
 40
90.0
  1
304
  0
INSERT
  5
7CDB
  8
0
  6
BYBLOCK
 62
     0
  2
_OPEN
 10
5153.8781835802683
 20
4308.7314509999987
 30
0.0
 41
60.0
 42
60.0
 43
60.0
  0
INSERT
  5
7CDC
  8
0
  6
BYBLOCK
 62
     0
  2
_OPEN
 10
4849.8781835802674
 20
4308.7314509999987
 30
0.0
 41
60.0
 42
60.0
 43
60.0
 50
180.0
  0
POINT
  5
7CDD
  8
DEFPOINTS
  6
BYBLOCK
 62
     0
 10
5153.8781835802683
 20
3801.515167
 30
0.0
  0
POINT
  5
7CDE
  8
DEFPOINTS
  6
BYBLOCK
 62
     0
 10
4849.8781835802674
 20
4209.1429260000004
 30
0.0
  0
POINT
  5
7CDF
  8
DEFPOINTS
  6
BYBLOCK
 62
     0
 10
4849.8781835802674
 20
4308.7314509999987
 30
0.0
  0
ENDBLK
  5
7CE0
  8
0
  0
BLOCK
  8
0
  2
*D10
 70
     1
 10
0.0
 20
0.0
 30
0.0
  3
*D10
  1

  0
LINE
  5
7DB9
  8
3
  6
CONTINUOUS
 62
     0
 10
4289.8781835802674
 20
3771.515167
 30
0.0
 11
4289.8781835802674
 21
4338.7314509999997
 31
0.0
  0
LINE
  5
7DBA
  8
3
  6
CONTINUOUS
 62
     0
 10
4789.8781835802674
 20
4308.7314509999987
 30
0.0
 11
4349.8781835802674
 21
4308.7314509999987
 31
0.0
  0
INSERT
  5
7DBB
  8
3
  6
CONTINUOUS
 62
     0
  2
_OPEN
 10
4849.8781835802674
 20
4308.7314509999987
 30
0.0
 41
60.0
 42
60.0
 43
60.0
  0
INSERT
  5
7DBC
  8
3
  6
CONTINUOUS
 62
     0
  2
_OPEN
 10
4289.8781835802674
 20
4308.7314509999987
 30
0.0
 41
60.0
 42
60.0
 43
60.0
 50
180.0
  0
TEXT
  8
3
  40
90
  5
7E05
  62
0
  72
0
  71
0
 10
4389.88
 20
4299.43
 30
0.000000
  1
MAX
  0
TEXT
  8
3
  40
90
  5
7E06
  62
0
  72
0
  71
0
 10
4389.88
 20
4182.43
 30
0.000000
  1
610
  0
POINT
  5
7DBE
  8
DEFPOINTS
  6
CONTINUOUS
 62
     0
 10
4849.8781835802674
 20
4209.1429260000004
 30
0.0
  0
POINT
  5
7DBF
  8
DEFPOINTS
  6
CONTINUOUS
 62
     0
 10
4289.8781835802674
 20
3756.5151669999991
 30
0.0
  0
POINT
  5
7DC0
  8
DEFPOINTS
  6
CONTINUOUS
 62
     0
 10
4289.8781835802674
 20
4308.7314509999987
 30
0.0
  0
ENDBLK
  5
7CEA
  8
0
  0
BLOCK
  8
0
  2
*D11
 70
     1
 10
0.0
 20
0.0
 30
0.0
  3
*D11
  1

  0
LINE
  5
7DC1
  8
3
  6
CONTINUOUS
 62
     0
 10
4381.8781835802674
 20
2391.515167
 30
0.0
 11
4381.8781835802674
 21
2178.3208151336398
 31
0.0
  0
LINE
  5
7DC2
  8
3
  6
CONTINUOUS
 62
     0
 10
4849.8781835802674
 20
2268.8547301336389
 30
0.0
 11
4849.8781835802674
 21
2178.3208151336398
 31
0.0
  0
LINE
  5
7DC3
  8
3
  6
CONTINUOUS
 62
     0
 10
4441.8781835802674
 20
2208.3208151336398
 30
0.0
 11
4789.8781835802674
 21
2208.3208151336398
 31
0.0
  0
INSERT
  5
7DC4
  8
3
  6
CONTINUOUS
 62
     0
  2
_OPEN
 10
4381.8781835802674
 20
2208.3208151336398
 30
0.0
 41
60.0
 42
60.0
 43
60.0
 50
180.0
  0
INSERT
  5
7DC5
  8
3
  6
CONTINUOUS
 62
     0
  2
_OPEN
 10
4849.8781835802674
 20
2208.3208151336398
 30
0.0
 41
60.0
 42
60.0
 43
60.0
  0
TEXT
  8
3
  40
90
  5
7E07
  62
0
  72
0
  71
0
 10
4464.16
 20
2124.02
 30
0.000000
  1
468
  0
POINT
  5
7DC7
  8
DEFPOINTS
  6
CONTINUOUS
 62
     0
 10
4381.8781835802674
 20
2406.515167
 30
0.0
  0
POINT
  5
7DC8
  8
DEFPOINTS
  6
CONTINUOUS
 62
     0
 10
4849.8781835802674
 20
2283.8547301336398
 30
0.0
  0
POINT
  5
7DC9
  8
DEFPOINTS
  6
CONTINUOUS
 62
     0
 10
4849.8781835802674
 20
2208.3208151336398
 30
0.0
  0
ENDBLK
  5
7D2D
  8
0
  0
BLOCK
  8
0
  2
*D12
 70
     1
 10
0.0
 20
0.0
 30
0.0
  3
*D12
  1

  0
LINE
  5
7DCA
  8
3
  6
CONTINUOUS
 62
     0
 10
5201.8781835802683
 20
2391.515167
 30
0.0
 11
5201.8781835802683
 21
2178.3208151336398
 31
0.0
  0
LINE
  5
7DCB
  8
3
  6
CONTINUOUS
 62
     0
 10
4909.8781835802683
 20
2208.3208151336398
 30
0.0
 11
5141.8781835802674
 21
2208.3208151336398
 31
0.0
  0
TEXT
  8
3
  40
90
  5
7E08
  62
0
  72
0
  71
0
 10
4868.78
 20
2123.09
 30
0.000000
  1
352
  0
INSERT
  5
7DCD
  8
3
  6
CONTINUOUS
 62
     0
  2
_OPEN
 10
4849.8781835802674
 20
2208.3208151336398
 30
0.0
 41
60.0
 42
60.0
 43
60.0
 50
180.0
  0
INSERT
  5
7DCE
  8
3
  6
CONTINUOUS
 62
     0
  2
_OPEN
 10
5201.8781835802683
 20
2208.3208151336398
 30
0.0
 41
60.0
 42
60.0
 43
60.0
  0
POINT
  5
7DCF
  8
DEFPOINTS
  6
CONTINUOUS
 62
     0
 10
4849.8781835802674
 20
2283.8547301336398
 30
0.0
  0
POINT
  5
7DD0
  8
DEFPOINTS
  6
CONTINUOUS
 62
     0
 10
5201.8781835802683
 20
2406.515167
 30
0.0
  0
POINT
  5
7DD1
  8
DEFPOINTS
  6
CONTINUOUS
 62
     0
 10
5201.8781835802683
 20
2208.3208151336398
 30
0.0
  0
ENDBLK
  5
7D37
  8
0
  0
BLOCK
  8
0
  2
*D13
 70
     1
 10
0.0
 20
0.0
 30
0.0
  3
*D13
  1

  0
LINE
  5
7DD2
  8
3
  6
CONTINUOUS
 62
     0
 10
1888.620529580267
 20
6141.4931109999989
 30
0.0
 11
1888.620529580267
 21
6397.3382780000002
 31
0.0
  0
LINE
  5
7DD3
  8
3
  6
CONTINUOUS
 62
     0
 10
3488.6205295802661
 20
6141.4931109999989
 30
0.0
 11
3488.6205295802661
 21
6397.3382780000002
 31
0.0
  0
LINE
  5
7DD4
  8
3
  6
CONTINUOUS
 62
     0
 10
1948.620529580267
 20
6367.3382780000002
 30
0.0
 11
3428.620529580267
 21
6367.3382780000002
 31
0.0
  0
INSERT
  5
7DD5
  8
3
  6
CONTINUOUS
 62
     0
  2
_OPEN
 10
1888.620529580267
 20
6367.3382780000002
 30
0.0
 41
60.0
 42
60.0
 43
60.0
 50
180.0
  0
INSERT
  5
7DD6
  8
3
  6
CONTINUOUS
 62
     0
  2
_OPEN
 10
3488.6205295802661
 20
6367.3382780000002
 30
0.0
 41
60.0
 42
60.0
 43
60.0
  0
TEXT
  8
3
  40
90
  5
7E09
  62
0
  72
0
  71
0
 10
2507.86
 20
6283.04
 30
0.000000
  1
1600
  0
POINT
  5
7DD8
  8
DEFPOINTS
  6
CONTINUOUS
 62
     0
 10
1888.620529580267
 20
6126.4931109999998
 30
0.0
  0
POINT
  5
7DD9
  8
DEFPOINTS
  6
CONTINUOUS
 62
     0
 10
3488.6205295802661
 20
6126.4931109999998
 30
0.0
  0
POINT
  5
7DDA
  8
DEFPOINTS
  6
CONTINUOUS
 62
     0
 10
3488.6205295802661
 20
6367.3382780000002
 30
0.0
  0
ENDBLK
  5
7C8A
  8
0
  0
BLOCK
  8
0
  2
*D14
 70
     1
 10
0.0
 20
0.0
 30
0.0
  3
*D14
  1

  0
LINE
  5
7DDB
  8
3
  6
CONTINUOUS
 62
     0
 10
3503.620529580267
 20
6126.4931109999998
 30
0.0
 11
3769.888387580268
 21
6126.4931109999998
 31
0.0
  0
LINE
  5
7DDC
  8
3
  6
CONTINUOUS
 62
     0
 10
3503.620529580267
 20
5306.4931109999989
 30
0.0
 11
3769.888387580268
 21
5306.4931109999989
 31
0.0
  0
LINE
  5
7DDD
  8
3
  6
CONTINUOUS
 62
     0
 10
3739.888387580268
 20
6066.4931109999989
 30
0.0
 11
3739.888387580268
 21
5366.4931109999998
 31
0.0
  0
INSERT
  5
7DDE
  8
3
  6
CONTINUOUS
 62
     0
  2
_OPEN
 10
3739.888387580268
 20
6126.4931109999998
 30
0.0
 41
60.0
 42
60.0
 43
60.0
 50
90.0
  0
INSERT
  5
7DDF
  8
3
  6
CONTINUOUS
 62
     0
  2
_OPEN
 10
3739.888387580268
 20
5306.4931109999989
 30
0.0
 41
60.0
 42
60.0
 43
60.0
 50
270.0
  0
TEXT
  8
3
  40
90
  5
7E0A
  62
0
  72
0
  71
0
 10
3484.89
 20
5585.92
 30
0.000000
  1
820
  0
POINT
  5
7DE1
  8
DEFPOINTS
  6
CONTINUOUS
 62
     0
 10
3488.6205295802661
 20
6126.4931109999998
 30
0.0
  0
POINT
  5
7DE2
  8
DEFPOINTS
  6
CONTINUOUS
 62
     0
 10
3488.6205295802661
 20
5306.4931109999989
 30
0.0
  0
POINT
  5
7DE3
  8
DEFPOINTS
  6
CONTINUOUS
 62
     0
 10
3739.888387580268
 20
5306.4931109999989
 30
0.0
  0
ENDBLK
  5
7C54
  8
0
  0
BLOCK
  8
0
  2
*D15
 70
     1
 10
0.0
 20
0.0
 30
0.0
  3
*D15
  1

  0
LINE
  5
7DE4
  8
3
  6
CONTINUOUS
 62
     0
 10
2393.620529580267
 20
3952.5058141068739
 30
0.0
 11
1242.821253580267
 21
3952.5058141068739
 31
0.0
  0
LINE
  5
7DE5
  8
3
  6
CONTINUOUS
 62
     0
 10
1272.821253580267
 20
3436.515167
 30
0.0
 11
1272.821253580267
 21
3892.5058141068739
 31
0.0
  0
INSERT
  5
7DE6
  8
3
  6
CONTINUOUS
 62
     0
  2
_OPEN
 10
1272.821253580267
 20
3376.515167
 30
0.0
 41
60.0
 42
60.0
 43
60.0
 50
270.0
  0
INSERT
  5
7DE7
  8
3
  6
CONTINUOUS
 62
     0
  2
_OPEN
 10
1272.821253580267
 20
3952.5058141068739
 30
0.0
 41
60.0
 42
60.0
 43
60.0
 50
90.0
  0
TEXT
  8
3
  40
90
  5
7E0B
  62
0
  72
0
  71
0
 10
1017.82
 20
3505.21
 30
0.000000
  1
576
  0
POINT
  5
7DE9
  8
DEFPOINTS
  6
CONTINUOUS
 62
     0
 10
1729.4073915802669
 20
3376.515167
 30
0.0
  0
POINT
  5
7DEA
  8
DEFPOINTS
  6
CONTINUOUS
 62
     0
 10
2408.620529580267
 20
3952.5058141068739
 30
0.0
  0
POINT
  5
7DEB
  8
DEFPOINTS
  6
CONTINUOUS
 62
     0
 10
1272.821253580267
 20
3952.5058141068739
 30
0.0
  0
ENDBLK
  5
7D22
  8
0
  0
BLOCK
  8
0
  2
*D16
 70
     1
 10
0.0
 20
0.0
 30
0.0
  3
*D16
  1

  0
LINE
  5
7DEC
  8
3
  6
CONTINUOUS
 62
     0
 10
3072.624755580267
 20
3391.515167
 30
0.0
 11
3072.624755580267
 21
4144.0543659999994
 31
0.0
  0
LINE
  5
7DED
  8
3
  6
CONTINUOUS
 62
     0
 10
2468.620529580267
 20
4114.0543659999994
 30
0.0
 11
3012.624755580267
 21
4114.0543659999994
 31
0.0
  0
INSERT
  5
7DEE
  8
3
  6
CONTINUOUS
 62
     0
  2
_OPEN
 10
2408.620529580267
 20
4114.0543659999994
 30
0.0
 41
60.0
 42
60.0
 43
60.0
 50
180.0
  0
INSERT
  5
7DEF
  8
3
  6
CONTINUOUS
 62
     0
  2
_OPEN
 10
3072.624755580267
 20
4114.0543659999994
 30
0.0
 41
60.0
 42
60.0
 43
60.0
  0
TEXT
  8
3
  40
90
  5
7E0C
  62
0
  72
0
  71
0
 10
2560.62
 20
4029.75
 30
0.000000
  1
664
  0
POINT
  5
7DF1
  8
DEFPOINTS
  6
CONTINUOUS
 62
     0
 10
2408.620529580267
 20
4053.896025
 30
0.0
  0
POINT
  5
7DF2
  8
DEFPOINTS
  6
CONTINUOUS
 62
     0
 10
3072.624755580267
 20
3376.515167
 30
0.0
  0
POINT
  5
7DF3
  8
DEFPOINTS
  6
CONTINUOUS
 62
     0
 10
3072.624755580267
 20
4114.0543659999994
 30
0.0
  0
ENDBLK
  5
7C7E
  8
0
  0
BLOCK
  8
0
  2
*D17
 70
     1
 10
0.0
 20
0.0
 30
0.0
  3
*D17
  1

  0
LINE
  5
7DF4
  8
3
 62
     0
 10
1813.620529580267
 20
3472.015167
 30
0.0
 11
1813.620529580267
 21
4317.9287044886551
 31
0.0
  0
LINE
  5
7DF5
  8
3
 62
     0
 10
3488.6205295802661
 20
2521.515167
 30
0.0
 11
3488.6205295802661
 21
4317.9287044886551
 31
0.0
  0
LINE
  5
7DF6
  8
3
 62
     0
 10
1873.620529580267
 20
4287.9287044886551
 30
0.0
 11
3428.620529580267
 21
4287.9287044886551
 31
0.0
  0
INSERT
  5
7DF7
  8
3
 62
     0
  2
_OPEN
 10
1813.620529580267
 20
4287.9287044886551
 30
0.0
 41
60.0
 42
60.0
 43
60.0
 50
180.0
  0
INSERT
  5
7DF8
  8
3
 62
     0
  2
_OPEN
 10
3488.6205295802661
 20
4287.9287044886551
 30
0.0
 41
60.0
 42
60.0
 43
60.0
  0
TEXT
  8
3
  40
90
  5
7E0D
  62
0
  72
0
  71
0
 10
2478.20
 20
4203.63
 30
0.000000
  1
1675
  0
POINT
  5
7DFA
  8
DEFPOINTS
 62
     0
 10
1813.620529580267
 20
3457.015167
 30
0.0
  0
POINT
  5
7DFB
  8
DEFPOINTS
 62
     0
 10
3488.6205295802661
 20
2506.515167
 30
0.0
  0
POINT
  5
7DFC
  8
DEFPOINTS
 62
     0
 10
3488.6205295802661
 20
4287.9287044886551
 30
0.0
  0
ENDBLK
  5
7D01
  8
0
  0
ENDSEC
  0
SECTION
  2
ENTITIES
  0
LINE
  5
7A9E
  8
1
  6
CONTINUOUS
 10
1901.590529580267
 20
3414.515167
 30
0.0
 11
1813.620529580267
 21
3414.515167
 31
0.0
  0
LINE
  5
7A9F
  8
1
  6
CONTINUOUS
 10
1813.620529580267
 20
2589.515167
 30
0.0
 11
2408.620529580267
 21
2608.515167
 31
0.0
  0
ARC
  5
7AA0
  8
1
  6
CONTINUOUS
 10
2443.6205295802661
 20
3411.515167
 30
0.0
 40
542.03999999999985
 50
96.5
 51
179.68000000000001
  0
LINE
  5
7AA2
  8
1
  6
CONTINUOUS
 10
1888.620529580267
 20
2506.515167
 30
0.0
 11
3488.6205295802661
 21
2506.515167
 31
0.0
  0
LINE
  5
7AA3
  8
1
  6
CONTINUOUS
 10
1888.620529580267
 20
2406.515167
 30
0.0
 11
3488.6205295802661
 21
2406.515167
 31
0.0
  0
LINE
  5
7AA4
  8
1
  6
CONTINUOUS
 10
1813.620529580267
 20
3457.015167
 30
0.0
 11
1813.620529580267
 21
2547.015167
 31
0.0
  0
LINE
  5
7AA6
  8
1
  6
CONTINUOUS
 10
1888.620529580267
 20
2506.515167
 30
0.0
 11
1888.620529580267
 21
2406.515167
 31
0.0
  0
ARC
  5
7AA7
  8
1
  6
CONTINUOUS
 10
2356.620529580267
 20
3324.5151669999991
 30
0.0
 40
717.88999999999987
 50
274.14999999999992
 51
4.7599999999999989
  0
ARC
  5
7AA8
  8
1
  6
CONTINUOUS
 10
2452.620529580267
 20
3332.515167
 30
0.0
 40
621.54999999999995
 50
4.7599999999999989
 51
96.5
  0
LINE
  5
7AAB
  8
1
  6
CONTINUOUS
 10
2558.620529580267
 20
3756.5151669999991
 30
0.0
 11
3468.620529580267
 21
2806.515167
 31
0.0
  0
LINE
  5
7AAC
  8
1
  6
CONTINUOUS
 10
3362.3605295802672
 20
2761.3951670000001
 30
0.0
 11
2544.9405295802671
 21
3522.8551670000002
 31
0.0
  0
LINE
  5
7AAD
  8
1
  6
CONTINUOUS
 10
3273.5205295802671
 20
2641.6951669999999
 30
0.0
 11
2308.0105295802668
 21
3203.6651670000001
 31
0.0
  0
LINE
  5
7AAE
  8
1
  6
CONTINUOUS
 10
1988.620529580267
 20
2506.515167
 30
0.0
 11
1988.620529580267
 21
3756.5151669999991
 31
0.0
  0
CIRCLE
  5
7AAF
  8
1
  6
CONTINUOUS
 10
2408.620529580267
 20
3376.515167
 30
0.0
 40
200.0
  0
LINE
  5
7AB0
  8
2
  6
CENTER
 10
2408.620529580267
 20
6334.4330069999996
 30
0.0
 11
2408.620529580267
 21
5093.0540890000002
 31
0.0
  0
LINE
  5
7AB1
  8
1
  6
CONTINUOUS
 10
1988.620529580267
 20
3756.5151669999991
 30
0.0
 11
2558.620529580267
 21
3756.5151669999991
 31
0.0
  0
LINE
  5
7AB2
  8
2
  6
CENTER
 10
1617.0961655802671
 20
3376.515167
 30
0.0
 11
3128.8861675802668
 21
3376.515167
 31
0.0
  0
ARC
  5
7AB4
  8
1
  6
CONTINUOUS
 10
3311.2405295802669
 20
2706.515167
 30
0.0
 40
162.0
 50
324.97000000000003
 51
215.02999999999989
  0
LINE
  5
7AB5
  8
1
  6
CONTINUOUS
 10
3157.2405295802669
 20
2564.515167
 30
0.0
 11
3178.5905295802668
 21
2613.535167
 31
0.0
  0
LINE
  5
7AB6
  8
1
  6
CONTINUOUS
 10
3157.2405295802669
 20
2506.515167
 30
0.0
 11
3157.2405295802669
 21
2564.515167
 31
0.0
  0
LINE
  5
7AB7
  8
1
  6
CONTINUOUS
 10
3468.620529580267
 20
2806.515167
 30
0.0
 11
3468.620529580267
 21
2506.515167
 31
0.0
  0
LINE
  5
7AB8
  8
1
  6
CONTINUOUS
 10
3465.2405295802669
 20
2564.515167
 30
0.0
 11
3443.9005295802672
 21
2613.535167
 31
0.0
  0
LINE
  5
7AB9
  8
1
  6
CONTINUOUS
 10
3488.6205295802661
 20
2506.515167
 30
0.0
 11
3488.6205295802661
 21
2406.515167
 31
0.0
  0
LINE
  5
7ABA
  8
1
  6
CONTINUOUS
 10
3465.2405295802669
 20
2506.515167
 30
0.0
 11
3465.2405295802669
 21
2564.515167
 31
0.0
  0
LINE
  5
7ABB
  8
2
  6
CENTER
 10
3386.2405295802669
 20
2706.515167
 30
0.0
 11
3236.2405295802669
 21
2706.515167
 31
0.0
  0
LINE
  5
7ABC
  8
2
  6
CENTER
 10
3311.2405295802669
 20
2631.515167
 30
0.0
 11
3311.2405295802669
 21
2781.515167
 31
0.0
  0
CIRCLE
  5
7ABD
  8
1
  6
CONTINUOUS
 10
3311.2405295802669
 20
2706.515167
 30
0.0
 40
75.0
  0
LINE
  5
7ABE
  8
1
  6
CONTINUOUS
 10
3488.6205295802661
 20
6126.4931109999998
 30
0.0
 11
1888.620529580267
 21
6126.4931109999998
 31
0.0
  0
LINE
  5
7ABF
  8
1
  6
CONTINUOUS
 10
3074.5105295802668
 20
5474.4931109999998
 30
0.0
 11
1813.620529580267
 21
5474.4931109999998
 31
0.0
  0
LINE
  5
7AC0
  8
1
  6
CONTINUOUS
 10
3074.5105295802668
 20
6074.4931109999989
 30
0.0
 11
1813.620529580267
 21
6074.4931109999989
 31
0.0
  0
LINE
  5
7AC1
  8
1
  6
CONTINUOUS
 10
2208.620529580267
 20
5306.4931109999989
 30
0.0
 11
1888.620529580267
 21
5306.4931109999989
 31
0.0
  0
LINE
  5
7AC2
  8
1
  6
CONTINUOUS
 10
1813.620529580267
 20
5432.4931109999998
 30
0.0
 11
1813.620529580267
 21
6116.4931109999998
 31
0.0
  0
LINE
  5
7AC3
  8
1
  6
CONTINUOUS
 10
1888.620529580267
 20
5474.4931109999998
 30
0.0
 11
1888.620529580267
 21
5306.4931109999989
 31
0.0
  0
LINE
  5
7AC4
  8
1
  6
CONTINUOUS
 10
1888.620529580267
 20
6126.4931109999998
 30
0.0
 11
1888.620529580267
 21
6074.4931109999989
 31
0.0
  0
LINE
  5
7AC5
  8
1
  6
CONTINUOUS
 10
3468.620529580267
 20
5364.4931109999998
 30
0.0
 11
1988.620529580267
 21
5364.4931109999998
 31
0.0
  0
LINE
  5
7AC6
  8
1
  6
CONTINUOUS
 10
3468.620529580267
 20
5214.4931109999998
 30
0.0
 11
1988.620529580267
 21
5214.4931109999998
 31
0.0
  0
LINE
  5
7AC7
  8
1
  6
CONTINUOUS
 10
3236.2405295802669
 20
5306.4931109999989
 30
0.0
 11
2608.620529580267
 21
5306.4931109999989
 31
0.0
  0
LINE
  5
7AC8
  8
1
  6
CONTINUOUS
 10
2208.620529580267
 20
5254.4931109999998
 30
0.0
 11
2608.620529580267
 21
5254.4931109999998
 31
0.0
  0
LINE
  5
7AC9
  8
1
  6
CONTINUOUS
 10
2208.620529580267
 20
5324.4931109999989
 30
0.0
 11
2608.620529580267
 21
5324.4931109999989
 31
0.0
  0
LINE
  5
7ACA
  8
1
  6
CONTINUOUS
 10
1988.620529580267
 20
5214.4931109999998
 30
0.0
 11
1988.620529580267
 21
5364.4931109999998
 31
0.0
  0
LINE
  5
7ACB
  8
1
  6
CONTINUOUS
 10
2208.620529580267
 20
5254.4931109999998
 30
0.0
 11
2208.620529580267
 21
5324.4931109999989
 31
0.0
  0
LINE
  5
7ACC
  8
1
  6
CONTINUOUS
 10
2387.620529580267
 20
5324.4931109999989
 30
0.0
 11
2387.620529580267
 21
5474.4931109999998
 31
0.0
  0
LINE
  5
7ACD
  8
1
  6
CONTINUOUS
 10
2429.620529580267
 20
5324.4931109999989
 30
0.0
 11
2429.620529580267
 21
5474.4931109999998
 31
0.0
  0
LINE
  5
7ACE
  8
1
  6
CONTINUOUS
 10
2608.620529580267
 20
5254.4931109999998
 30
0.0
 11
2608.620529580267
 21
5324.4931109999989
 31
0.0
  0
LINE
  5
7ACF
  8
1
  6
CONTINUOUS
 10
3473.2405295802669
 20
5412.4931109999989
 30
0.0
 11
3149.2405295802669
 21
5412.4931109999989
 31
0.0
  0
LINE
  5
7AD0
  8
1
  6
CONTINUOUS
 10
3473.2405295802669
 20
5897.4931109999998
 30
0.0
 11
3149.2405295802669
 21
5897.4931109999998
 31
0.0
  0
LINE
  5
7AD1
  8
1
  6
CONTINUOUS
 10
3074.5105295802668
 20
5474.4931109999998
 30
0.0
 11
3074.5105295802668
 21
6074.4931109999989
 31
0.0
  0
LINE
  5
7AD2
  8
1
  6
CONTINUOUS
 10
3149.2405295802669
 20
5412.4931109999989
 30
0.0
 11
3149.2405295802669
 21
5897.4931109999998
 31
0.0
  0
LINE
  5
7AD3
  8
1
  6
CONTINUOUS
 10
3488.6205295802661
 20
6126.4931109999998
 30
0.0
 11
3488.6205295802661
 21
5306.4931109999989
 31
0.0
  0
LINE
  5
7AD4
  8
1
  6
CONTINUOUS
 10
3473.2405295802669
 20
5412.4931109999989
 30
0.0
 11
3473.2405295802669
 21
5897.4931109999998
 31
0.0
  0
LINE
  5
7AD5
  8
1
  6
CONTINUOUS
 10
3488.6205295802661
 20
5306.4931109999989
 30
0.0
 11
3386.2405295802669
 21
5306.4931109999989
 31
0.0
  0
LINE
  5
7AD6
  8
1
  6
CONTINUOUS
 10
3236.2405295802669
 20
5254.4931109999998
 30
0.0
 11
3386.2405295802669
 21
5254.4931109999998
 31
0.0
  0
LINE
  5
7AD7
  8
1
  6
CONTINUOUS
 10
3236.2405295802669
 20
5324.4931109999989
 30
0.0
 11
3386.2405295802669
 21
5324.4931109999989
 31
0.0
  0
LINE
  5
7AD8
  8
1
  6
CONTINUOUS
 10
3236.2405295802669
 20
5254.4931109999998
 30
0.0
 11
3236.2405295802669
 21
5324.4931109999989
 31
0.0
  0
LINE
  5
7AD9
  8
1
  6
CONTINUOUS
 10
3386.2405295802669
 20
5254.4931109999998
 30
0.0
 11
3386.2405295802669
 21
5324.4931109999989
 31
0.0
  0
LINE
  5
7ADA
  8
1
  6
CONTINUOUS
 10
3332.2405295802669
 20
5324.4931109999989
 30
0.0
 11
3332.2405295802669
 21
5412.4931109999989
 31
0.0
  0
LINE
  5
7ADB
  8
1
  6
CONTINUOUS
 10
3290.2405295802669
 20
5324.4931109999989
 30
0.0
 11
3290.2405295802669
 21
5412.4931109999989
 31
0.0
  0
LINE
  5
7ADC
  8
1
  6
CONTINUOUS
 10
3468.620529580267
 20
5364.4931109999998
 30
0.0
 11
3468.620529580267
 21
5214.4931109999998
 31
0.0
  0
LINE
  5
7ADD
  8
1
  6
CONTINUOUS
 10
4549.8781835802674
 20
3414.515167
 30
0.0
 11
5149.8781835802674
 21
3414.515167
 31
0.0
  0
LINE
  5
7ADE
  8
1
  6
CONTINUOUS
 10
4549.8781835802674
 20
2589.515167
 30
0.0
 11
5149.8781835802674
 21
2589.515167
 31
0.0
  0
LINE
  5
7ADF
  8
1
  6
CONTINUOUS
 10
5201.8781835802683
 20
2406.515167
 30
0.0
 11
4381.8781835802674
 21
2406.515167
 31
0.0
  0
LINE
  5
7AE0
  8
1
  6
CONTINUOUS
 10
5201.8781835802683
 20
2506.515167
 30
0.0
 11
4289.8781835802674
 21
2506.515167
 31
0.0
  0
LINE
  5
7AE1
  8
1
  6
CONTINUOUS
 10
4549.8781835802674
 20
3954.0651670000002
 30
0.0
 11
5149.8781835802674
 21
3954.0651670000002
 31
0.0
  0
LINE
  5
7AE2
  8
1
  6
CONTINUOUS
 10
5149.8781835802674
 20
2589.515167
 30
0.0
 11
4549.8781835802674
 21
3414.515167
 31
0.0
  0
LINE
  5
7AE3
  8
1
  6
CONTINUOUS
 10
4549.8781835802674
 20
2589.515167
 30
0.0
 11
5149.8781835802674
 21
3414.515167
 31
0.0
  0
LINE
  5
7B04
  8
1
  6
CONTINUOUS
 10
4549.8781835802674
 20
3954.0651670000002
 30
0.0
 11
4549.8781835802674
 21
2506.515167
 31
0.0
  0
LINE
  5
7B05
  8
1
  6
CONTINUOUS
 10
4289.8781835802674
 20
3756.5151669999991
 30
0.0
 11
4289.8781835802674
 21
2506.515167
 31
0.0
  0
LINE
  5
7B06
  8
1
  6
CONTINUOUS
 10
4439.8781835802674
 20
3756.5151669999991
 30
0.0
 11
4439.8781835802674
 21
2506.515167
 31
0.0
  0
LINE
  5
7B07
  8
1
  6
CONTINUOUS
 10
4329.8781835802683
 20
3576.515167
 30
0.0
 11
4329.8781835802683
 21
3176.515167
 31
0.0
  0
LINE
  5
7B08
  8
1
  6
CONTINUOUS
 10
4399.8781835802674
 20
3576.515167
 30
0.0
 11
4399.8781835802674
 21
3176.515167
 31
0.0
  0
LINE
  5
7B09
  8
1
  6
CONTINUOUS
 10
4381.8781835802674
 20
2506.515167
 30
0.0
 11
4381.8781835802674
 21
2406.515167
 31
0.0
  0
LINE
  5
7B0A
  8
1
  6
CONTINUOUS
 10
4329.8781835802683
 20
3176.515167
 30
0.0
 11
4399.8781835802674
 21
3176.515167
 31
0.0
  0
LINE
  5
7B0B
  8
1
  6
CONTINUOUS
 10
4329.8781835802683
 20
2781.515167
 30
0.0
 11
4399.8781835802674
 21
2781.515167
 31
0.0
  0
LINE
  5
7B0C
  8
1
  6
CONTINUOUS
 10
4329.8781835802683
 20
2631.515167
 30
0.0
 11
4399.8781835802674
 21
2631.515167
 31
0.0
  0
LINE
  5
7B0D
  8
1
  6
CONTINUOUS
 10
4329.8781835802683
 20
2781.515167
 30
0.0
 11
4329.8781835802683
 21
2631.515167
 31
0.0
  0
LINE
  5
7B0E
  8
1
  6
CONTINUOUS
 10
4399.8781835802674
 20
2781.515167
 30
0.0
 11
4399.8781835802674
 21
2631.515167
 31
0.0
  0
LINE
  5
7B0F
  8
1
  6
CONTINUOUS
 10
4399.8781835802674
 20
2727.5151669999991
 30
0.0
 11
4549.8781835802674
 21
2727.5151669999991
 31
0.0
  0
LINE
  5
7B10
  8
1
  6
CONTINUOUS
 10
4399.8781835802674
 20
2685.515167
 30
0.0
 11
4549.8781835802674
 21
2685.515167
 31
0.0
  0
LINE
  5
7B11
  8
1
  6
CONTINUOUS
 10
4439.8781835802674
 20
3756.5151669999991
 30
0.0
 11
4289.8781835802674
 21
3756.5151669999991
 31
0.0
  0
LINE
  5
7B12
  8
1
  6
CONTINUOUS
 10
4329.8781835802683
 20
3576.515167
 30
0.0
 11
4399.8781835802674
 21
3576.515167
 31
0.0
  0
LINE
  5
7B13
  8
1
  6
CONTINUOUS
 10
4549.8781835802674
 20
3397.515167
 30
0.0
 11
4399.8781835802674
 21
3397.515167
 31
0.0
  0
LINE
  5
7B14
  8
1
  6
CONTINUOUS
 10
4549.8781835802674
 20
3355.515167
 30
0.0
 11
4399.8781835802674
 21
3355.515167
 31
0.0
  0
LINE
  5
7B15
  8
1
  6
CONTINUOUS
 10
5149.8781835802674
 20
3954.0651670000002
 30
0.0
 11
5149.8781835802674
 21
2506.515167
 31
0.0
  0
LINE
  5
7B16
  8
1
  6
CONTINUOUS
 10
5201.8781835802683
 20
2506.515167
 30
0.0
 11
5201.8781835802683
 21
2406.515167
 31
0.0
  0
LINE
  5
7B36
  8
2
  6
CENTER
 10
3581.1072655802668
 20
5774.4931109999989
 30
0.0
 11
1707.715365580267
 21
5774.4931109999989
 31
0.0
  0
LINE
  5
7B37
  8
2
  6
CENTER
 10
4849.8781835802674
 20
4074.011035
 30
0.0
 11
4849.8781835802674
 21
2283.8547301336398
 31
0.0
  0
LINE
  5
7B38
  8
2
  6
CENTER
 10
2408.620529580267
 20
4053.896025
 30
0.0
 11
2408.620529580267
 21
2341.9261080000001
 31
0.0
  0
LINE
  5
7B39
  8
2
  6
CENTER
 10
4198.9535505802669
 20
3376.515167
 30
0.0
 11
5294.2978575802672
 21
3376.515167
 31
0.0
  0
LINE
  5
7B3A
  8
4
  6
CONTINUOUS
 10
5550.0
 20
1500.0
 30
0.0
 11
5550.0
 21
900.0
 31
0.0
  0
LINE
  5
7B3B
  8
4
  6
CONTINUOUS
 10
3450.0
 20
1500.0
 30
0.0
 11
3450.0
 21
900.0
 31
0.0
  0
LINE
  5
7B3C
  8
4
  6
CONTINUOUS
 10
1950.0
 20
1500.0
 30
0.0
 11
1950.0
 21
900.0
 31
0.0
  0
LINE
  5
7B3F
  8
4
  6
CONTINUOUS
 10
1950.0
 20
900.0
 30
0.0
 11
5550.0
 21
900.0
 31
0.0
  0
LINE
  5
7B40
  8
4
  6
CONTINUOUS
 10
1950.0
 20
1200.0
 30
0.0
 11
5550.0
 21
1200.0
 31
0.0
  0
TEXT
  5
7B41
  8
4
  6
CONTINUOUS
 10
2065.5062429999989
 20
1294.6290779999999
 30
0.0
 40
150.0
  1
機器名称
  0
TEXT
  5
7B42
  8
4
  6
CONTINUOUS
 10
2058.7743179999989
 20
964.9354699999999
 30
0.0
 40
150.0
  1
機器型番
  0
TEXT
  5
7B43
  8
4
  6
CONTINUOUS
 10
3533.0362359999999
 20
1267.7153069999999
 30
0.0
 40
150.0
  1
ミツヤ多翼送風機
  0
TEXT
  5
7B44
  8
4
  6
CONTINUOUS
 10
3559.9634869999991
 20
951.47875299999987
 30
0.0
 40
150.0
  1
MF#5-4
  0
TEXT
  5
7B46
  8
4
  6
CONTINUOUS
 10
2517.0707859999989
 20
7150.2865239999992
 30
0.0
 40
162.0
  1
床置ベット
  0
TEXT
  5
7B47
  8
4
  6
CONTINUOUS
 10
948.50278000000014
 20
7601.6429289999996
 30
0.0
 40
216.0
  1
ベルト駆動式片吸込両持多翼ファン
  0
LINE
  5
7B48
  8
4
  6
CONTINUOUS
 10
750.0
 20
7408.2262629999996
 30
0.0
 11
5550.0
 21
7408.2262629999996
 31
0.0
  0
LINE
  5
7B49
  8
4
  6
CONTINUOUS
 10
750.0
 20
8008.2262629999996
 30
0.0
 11
5550.0
 21
8008.2262629999996
 31
0.0
  0
LINE
  5
7B4A
  8
4
  6
CONTINUOUS
 10
1950.0
 20
1500.0
 30
0.0
 11
5550.0
 21
1500.0
 31
0.0
  0
LINE
  5
7B4B
  8
4
  6
CONTINUOUS
 10
750.0
 20
8008.2262629999996
 30
0.0
 11
750.0
 21
7408.2262629999996
 31
0.0
  0
TEXT
  5
7B4C
  8
4
  6
CONTINUOUS
 10
1209.4942900000001
 20
7146.9584329999998
 30
0.0
 40
162.0
  1
右回転左横向
  0
TEXT
  5
7B4D
  8
4
  6
CONTINUOUS
 10
4406.9086779999989
 20
8118.1832439999989
 30
0.0
 40
168.0
  1
No.
  0
TEXT
  5
7B4E
  8
4
  6
CONTINUOUS
 10
3933.8881879999999
 20
7150.2865239999992
 30
0.0
 40
162.0
  1
縮尺：1/30
  0
LINE
  5
7B4F
  8
4
  6
CONTINUOUS
 10
5550.0
 20
8008.2262629999996
 30
0.0
 11
5550.0
 21
7408.2262629999996
 31
0.0
  0
LINE
  5
7B51
  8
4
  6
CONTINUOUS
 10
4321.8522670000002
 20
8043.7907490000007
 30
0.0
 11
4321.8522670000002
 21
8359.9567849999985
 31
0.0
  0
LINE
  5
7B52
  8
4
  6
CONTINUOUS
 10
4321.8522670000002
 20
8359.9567849999985
 30
0.0
 11
5550.0
 21
8359.9567849999985
 31
0.0
  0
LINE
  5
7B53
  8
4
  6
CONTINUOUS
 10
5550.0
 20
8359.9567849999985
 30
0.0
 11
5550.0
 21
8043.7907490000007
 31
0.0
  0
LINE
  5
7B54
  8
4
  6
CONTINUOUS
 10
5550.0
 20
8043.7907490000007
 30
0.0
 11
4321.8522670000002
 21
8043.7907490000007
 31
0.0
  0
DIMENSION
  5
7B6C
  8
3
  6
CONTINUOUS
  2
*D1
 10
1662.4604795802679
 20
2589.515167
 30
0.0
 11
1662.460479580267
 21
3010.8842129999998
 31
0.0
 70
   128
 13
1813.620529580267
 23
3414.515167
 33
0.0
 14
1813.620529580267
 24
2589.515167
 34
0.0
 50
90.0
1001
ACAD
1000
DSTYLE
1002
{
1070
   287
1070
     3
1070
    40
1040
30.0
1070
   143
1040
0.039
1070
   172
1070
     1
1070
   271
1070
     0
1070
   279
1070
     0
1070
   288
1070
     1
1002
}
  0
DIMENSION
  5
7B79
  8
3
  6
CONTINUOUS
  2
*D2
 10
1474.1348655802669
 20
2589.515167
 30
0.0
 11
1474.1348655802669
 21
3010.8842129999998
 31
0.0
 70
   128
 13
1729.4073915802669
 23
3376.515167
 33
0.0
 14
1813.620529580267
 24
2589.515167
 34
0.0
 50
90.0
1001
ACAD
1000
DSTYLE
1002
{
1070
   287
1070
     3
1070
    40
1040
30.0
1070
   143
1040
0.039
1070
   172
1070
     1
1070
   271
1070
     0
1070
   279
1070
     0
1070
   288
1070
     1
1002
}
  0
DIMENSION
  5
7B92
  8
3
  6
CONTINUOUS
  2
*D3
 10
1272.821253580267
 20
2406.515167
 30
0.0
 11
1197.821253580267
 21
2891.515167
 31
0.0
 70
     0
 13
1729.4073915802669
 23
3376.515167
 33
0.0
 14
1888.620529580267
 24
2406.515167
 34
0.0
 50
90.0
1001
ACAD
1000
DSTYLE
1002
{
1070
   287
1070
     3
1070
    40
1040
30.0
1070
   143
1040
0.039
1070
   172
1070
     1
1070
   271
1070
     0
1070
   279
1070
     0
1070
   288
1070
     1
1002
}
  0
DIMENSION
  5
7BAC
  8
3
  6
CONTINUOUS
  2
*D4
 10
2408.620529580267
 20
2199.7296889999998
 30
0.0
 11
2168.3435535802669
 21
2199.7296889999998
 31
0.0
 70
   128
 13
1888.620529580267
 23
2406.515167
 33
0.0
 14
2408.620529580267
 24
2341.9261080000001
 34
0.0
1001
ACAD
1000
DSTYLE
1002
{
1070
   287
1070
     3
1070
    40
1040
30.0
1070
   143
1040
0.039
1070
   172
1070
     1
1070
   271
1070
     0
1070
   279
1070
     0
1070
   288
1070
     1
1002
}
  0
DIMENSION
  5
7BB8
  8
3
  6
CONTINUOUS
  2
*D5
 10
3488.6205295802661
 20
2199.7296889999998
 30
0.0
 11
2948.620529580267
 21
2274.7296889999998
 31
0.0
 70
     0
 13
2408.620529580267
 23
2341.9261080000001
 33
0.0
 14
3488.6205295802661
 24
2406.515167
 34
0.0
1001
ACAD
1000
DSTYLE
1002
{
1070
   287
1070
     4
1070
    40
1040
30.0
1070
    75
1070
     1
1070
   143
1040
0.039
1070
   172
1070
     1
1070
   271
1070
     0
1070
   279
1070
     1
1070
   288
1070
     1
1002
}
  0
DIMENSION
  5
7BC5
  8
3
  6
CONTINUOUS
  2
*D6
 10
2408.620529580267
 20
4114.0543659999994
 30
0.0
 11
2096.9097175802672
 21
4114.0543659999994
 31
0.0
 70
   128
 13
1813.620529580267
 23
3457.015167
 33
0.0
 14
2408.620529580267
 24
4053.896025
 34
0.0
1001
ACAD
1000
DSTYLE
1002
{
1070
   287
1070
     3
1070
    40
1040
30.0
1070
   143
1040
0.039
1070
   172
1070
     1
1070
   271
1070
     0
1070
   279
1070
     0
1070
   288
1070
     1
1002
}
  0
DIMENSION
  5
7BDE
  8
3
  6
CONTINUOUS
  2
*D7
 10
4549.8781835802674
 20
4101.0759010000002
 30
0.0
 11
4844.2846195802667
 21
4101.0759010000002
 31
0.0
 70
   128
 13
5149.8781835802674
 23
3954.0651670000002
 33
0.0
 14
4549.8781835802674
 24
3954.0651670000002
 34
0.0
1001
ACAD
1000
DSTYLE
1002
{
1070
   287
1070
     3
1070
    40
1040
30.0
1070
   143
1040
0.039
1070
   172
1070
     1
1070
   271
1070
     0
1070
   279
1070
     0
1070
   288
1070
     1
1002
}
  0
LINE
  5
7BDF
  8
1
  6
CONTINUOUS
 10
5153.8781835802683
 20
3801.515167
 30
0.0
 11
5153.8781835802683
 21
2951.515167
 31
0.0
  0
DIMENSION
  5
7BEE
  8
3
  6
CONTINUOUS
  2
*D8
 10
5435.2374235802681
 20
2951.515167
 30
0.0
 11
5435.2374235802672
 21
3335.3460219999988
 31
0.0
 70
   128
 13
5153.8781835802683
 23
3801.515167
 33
0.0
 14
5153.8781835802683
 24
2951.515167
 34
0.0
 50
90.0
1001
ACAD
1000
DSTYLE
1002
{
1070
   287
1070
     3
1070
     3
1000
φ<>
1070
    40
1040
30.0
1070
   143
1040
0.039
1070
   172
1070
     1
1070
   271
1070
     0
1070
   279
1070
     0
1070
   288
1070
     1
1002
}
  0
DIMENSION
  5
7BFD
  8
3
  6
CONTINUOUS
  2
*D9
 10
4849.8781835802674
 20
4308.7314509999987
 30
0.0
 11
5001.8781835802674
 21
4397.2647084472037
 31
0.0
 70
   128
 13
5153.8781835802683
 23
3801.515167
 33
0.0
 14
4849.8781835802674
 24
4209.1429260000004
 34
0.0
1001
ACAD
1000
DSTYLE
1002
{
1070
   288
1070
     1
1070
   172
1070
     1
1070
    40
1040
30.0
1070
   271
1070
     0
1070
   143
1040
0.039
1002
}
  0
DIMENSION
  5
7C09
  8
3
  6
CONTINUOUS
  2
*D10
 10
4289.8781835802674
 20
4308.7314509999987
 30
0.0
 11
4569.8781835802674
 21
4458.7314509999997
 31
0.0
 70
     0
  1
MAX\P610
 13
4849.8781835802674
 23
4209.1429260000004
 33
0.0
 14
4289.8781835802674
 24
3756.5151669999991
 34
0.0
1001
ACAD
1000
DSTYLE
1002
{
1070
   287
1070
     4
1070
    40
1040
30.0
1070
    75
1070
     1
1070
   143
1040
0.039
1070
   172
1070
     1
1070
   271
1070
     0
1070
   279
1070
     1
1070
   288
1070
     1
1002
}
  0
DIMENSION
  5
7C16
  8
3
  6
CONTINUOUS
  2
*D11
 10
4849.8781835802674
 20
2208.3208151336398
 30
0.0
 11
4644.1638978659821
 21
2208.3208151336398
 31
0.0
 70
   128
 13
4381.8781835802674
 23
2406.515167
 33
0.0
 14
4849.8781835802674
 24
2283.8547301336398
 34
0.0
1001
ACAD
1000
DSTYLE
1002
{
1070
   287
1070
     3
1070
    40
1040
30.0
1070
   143
1040
0.039
1070
   172
1070
     1
1070
   271
1070
     0
1070
   279
1070
     0
1070
   288
1070
     1
1002
}
  0
DIMENSION
  5
7C24
  8
3
  6
CONTINUOUS
  2
*D12
 10
5201.8781835802683
 20
2208.3208151336398
 30
0.0
 11
5048.7813355802673
 21
2207.3882251336399
 31
0.0
 70
   128
 13
4849.8781835802674
 23
2283.8547301336398
 33
0.0
 14
5201.8781835802683
 24
2406.515167
 34
0.0
1001
ACAD
1000
DSTYLE
1002
{
1070
   287
1070
     4
1070
    40
1040
30.0
1070
    75
1070
     1
1070
   143
1040
0.039
1070
   172
1070
     1
1070
   271
1070
     0
1070
   279
1070
     1
1070
   288
1070
     1
1002
}
  0
DIMENSION
  5
7C48
  8
3
  6
CONTINUOUS
  2
*D13
 10
3488.6205295802661
 20
6367.3382780000002
 30
0.0
 11
2687.8625215802672
 21
6367.3382780000002
 31
0.0
 70
   128
 13
1888.620529580267
 23
6126.4931109999998
 33
0.0
 14
3488.6205295802661
 24
6126.4931109999998
 34
0.0
1001
ACAD
1000
DSTYLE
1002
{
1070
   287
1070
     3
1070
    40
1040
30.0
1070
   143
1040
0.039
1070
   172
1070
     1
1070
   271
1070
     0
1070
   279
1070
     0
1070
   288
1070
     1
1002
}
  0
DIMENSION
  5
7C55
  8
3
  6
CONTINUOUS
  2
*D14
 10
3739.888387580268
 20
5306.4931109999989
 30
0.0
 11
3739.8883875802671
 21
5745.2221310000014
 31
0.0
 70
   128
 13
3488.6205295802661
 23
6126.4931109999998
 33
0.0
 14
3488.6205295802661
 24
5306.4931109999989
 34
0.0
 50
90.0
1001
ACAD
1000
DSTYLE
1002
{
1070
   287
1070
     3
1070
    40
1040
30.0
1070
   143
1040
0.039
1070
   172
1070
     1
1070
   271
1070
     0
1070
   279
1070
     0
1070
   288
1070
     1
1002
}
  0
DIMENSION
  5
7C66
  8
3
  6
CONTINUOUS
  2
*D15
 10
1272.821253580267
 20
3952.5058141068739
 30
0.0
 11
1197.8212535802661
 21
3664.5104905534372
 31
0.0
 70
     0
 13
1729.4073915802669
 23
3376.515167
 33
0.0
 14
2408.620529580267
 24
3952.5058141068739
 34
0.0
 50
90.0
1001
ACAD
1000
DSTYLE
1002
{
1070
   287
1070
     4
1070
    40
1040
30.0
1070
    75
1070
     1
1070
   143
1040
0.039
1070
   172
1070
     1
1070
   271
1070
     0
1070
   279
1070
     1
1070
   288
1070
     1
1002
}
  0
DIMENSION
  5
7C7F
  8
3
  6
CONTINUOUS
  2
*D16
 10
3072.624755580267
 20
4114.0543659999994
 30
0.0
 11
2740.622642580267
 21
4189.0543659999994
 31
0.0
 70
     0
 13
2408.620529580267
 23
4053.896025
 33
0.0
 14
3072.624755580267
 24
3376.515167
 34
0.0
1001
ACAD
1000
DSTYLE
1002
{
1070
   287
1070
     4
1070
    40
1040
30.0
1070
    75
1070
     1
1070
   143
1040
0.039
1070
   172
1070
     1
1070
   271
1070
     0
1070
   279
1070
     1
1070
   288
1070
     1
1002
}
  0
DIMENSION
  5
7D02
  8
3
  2
*D17
 10
3488.6205295802661
 20
4287.9287044886551
 30
0.0
 11
2658.198139467811
 21
4287.9287044886551
 31
0.0
 70
   128
 13
1813.620529580267
 23
3457.015167
 33
0.0
 14
3488.6205295802661
 24
2506.515167
 34
0.0
1001
ACAD
1000
DSTYLE
1002
{
1070
   287
1070
     3
1070
    40
1040
30.0
1070
   143
1040
0.039
1070
   172
1070
     1
1070
   271
1070
     0
1070
   279
1070
     0
1070
   288
1070
     1
1002
}
  0
LINE
  5
7D5B
  8
1
  6
CONTINUOUS
 10
1908.620529580267
 20
3506.5151669999991
 30
0.0
 11
2908.6205295802661
 21
3506.5151669999991
 31
0.0
  0
LINE
  5
7D5C
  8
1
 10
1908.620529580267
 20
3506.5151669999991
 30
0.0
 11
1908.6205295802661
 21
2506.5151669999991
 31
0.0
  0
LINE
  5
7D5D
  8
1
 10
2908.6205295802661
 20
3506.5151669999991
 30
0.0
 11
2908.620529580267
 21
2506.5151669999991
 31
0.0
  0
ENDSEC
  0
EOF
