  0
SECTION
  2
HEADER
  9
$ACADVER
  1
AC1009
  9
$INSBASE
 10
0.0
 20
0.0
 30
0.0
  9
$EXTMIN
 10
750.0
 20
900.0
 30
0.0
  9
$EXTMAX
 10
5550.0
 20
8359.9567849999985
 30
0.0
  9
$LIMMIN
 10
0.0
 20
0.0
  9
$LIMMAX
 10
297.0
 20
210.0
  9
$ORTHOMODE
 70
     0
  9
$REGENMODE
 70
     1
  9
$FILLMODE
 70
     0
  9
$QTEXTMODE
 70
     0
  9
$MIRRTEXT
 70
     1
  9
$DRAGMODE
 70
     2
  9
$LTSCALE
 40
100.0
  9
$OSMODE
 70
    37
  9
$ATTMODE
 70
     1
  9
$TEXTSIZE
 40
180.0
  9
$TRACEWID
 40
0.05
  9
$TEXTSTYLE
  7
STANDARD
  9
$CLAYER
  8
3
  9
$CELTYPE
  6
BYLAYER
  9
$CECOLOR
 62
   256
  9
$DIMSCALE
 40
30.0
  9
$DIMASZ
 40
2.0
  9
$DIMEXO
 40
0.5
  9
$DIMDLI
 40
10.0
  9
$DIMRND
 40
0.0
  9
$DIMDLE
 40
0.0
  9
$DIMEXE
 40
1.0
  9
$DIMTP
 40
1.0
  9
$DIMTM
 40
1.0
  9
$DIMTXT
 40
3.0
  9
$DIMCEN
 40
0.0
  9
$DIMTSZ
 40
0.0
  9
$DIMTOL
 70
     0
  9
$DIMLIM
 70
     0
  9
$DIMTIH
 70
     0
  9
$DIMTOH
 70
     0
  9
$DIMSE1
 70
     0
  9
$DIMSE2
 70
     0
  9
$DIMTAD
 70
     1
  9
$DIMZIN
 70
     8
  9
$DIMBLK
  1

  9
$DIMASO
 70
     1
  9
$DIMSHO
 70
     1
  9
$DIMPOST
  1

  9
$DIMAPOST
  1

  9
$DIMALT
 70
     0
  9
$DIMALTD
 70
     2
  9
$DIMALTF
 40
0.039
  9
$DIMLFAC
 40
1.0
  9
$DIMTOFL
 70
     1
  9
$DIMTVP
 40
0.0
  9
$DIMTIX
 70
     0
  9
$DIMSOXD
 70
     0
  9
$DIMSAH
 70
     1
  9
$DIMBLK1
  1
OPEN
  9
$DIMBLK2
  1
OPEN
  9
$DIMSTYLE
  2
IGA
  9
$DIMCLRD
 70
     0
  9
$DIMCLRE
 70
     0
  9
$DIMCLRT
 70
     0
  9
$DIMTFAC
 40
10.0
  9
$DIMGAP
 40
1.0
  9
$LUNITS
 70
     2
  9
$LUPREC
 70
     3
  9
$SKETCHINC
 40
0.1
  9
$FILLETRAD
 40
0.0
  9
$AUNITS
 70
     0
  9
$AUPREC
 70
     0
  9
$MENU
  1
acad
  9
$ELEVATION
 40
0.0
  9
$PELEVATION
 40
0.0
  9
$THICKNESS
 40
0.0
  9
$LIMCHECK
 70
     0
  9
$BLIPMODE
 70
     0
  9
$CHAMFERA
 40
0.5
  9
$CHAMFERB
 40
0.5
  9
$SKPOLY
 70
     0
  9
$TDCREATE
 40
2450746.4261238421
  9
$TDUPDATE
 40
2454953.7752050692
  9
$TDINDWG
 40
0.0104774074
  9
$TDUSRTIMER
 40
0.0104774074
  9
$USRTIMER
 70
     1
  9
$ANGBASE
 50
0.0
  9
$ANGDIR
 70
     0
  9
$PDMODE
 70
     0
  9
$PDSIZE
 40
0.0
  9
$PLINEWID
 40
0.0
  9
$COORDS
 70
     1
  9
$SPLFRAME
 70
     0
  9
$SPLINETYPE
 70
     6
  9
$SPLINESEGS
 70
     8
  9
$ATTDIA
 70
     0
  9
$ATTREQ
 70
     1
  9
$HANDLING
 70
 10241
  9
$HANDSEED
  5
7D45
  9
$SURFTAB1
 70
     6
  9
$SURFTAB2
 70
     6
  9
$SURFTYPE
 70
     6
  9
$SURFU
 70
     6
  9
$SURFV
 70
     6
  9
$UCSNAME
  2

  9
$UCSORG
 10
0.0
 20
0.0
 30
0.0
  9
$UCSXDIR
 10
1.0
 20
0.0
 30
0.0
  9
$UCSYDIR
 10
0.0
 20
1.0
 30
0.0
  9
$PUCSNAME
  2

  9
$PUCSORG
 10
0.0
 20
0.0
 30
0.0
  9
$PUCSXDIR
 10
1.0
 20
0.0
 30
0.0
  9
$PUCSYDIR
 10
0.0
 20
1.0
 30
0.0
  9
$USERI1
 70
     0
  9
$USERI2
 70
     0
  9
$USERI3
 70
     0
  9
$USERI4
 70
     0
  9
$USERI5
 70
     0
  9
$USERR1
 40
0.0
  9
$USERR2
 40
0.0
  9
$USERR3
 40
0.0
  9
$USERR4
 40
0.0
  9
$USERR5
 40
0.0
  9
$WORLDVIEW
 70
     1
  9
$SHADEDGE
 70
     3
  9
$SHADEDIF
 70
    70
  9
$TILEMODE
 70
     1
  9
$MAXACTVP
 70
    16
  9
$PLIMCHECK
 70
     0
  9
$PEXTMIN
 10
1.0000000000000000E+020
 20
1.0000000000000000E+020
 30
1.0000000000000000E+020
  9
$PEXTMAX
 10
-1.0000000000000000E+020
 20
-1.0000000000000000E+020
 30
-1.0000000000000000E+020
  9
$PLIMMIN
 10
0.0
 20
0.0
  9
$PLIMMAX
 10
12.0
 20
9.0
  9
$UNITMODE
 70
     0
  9
$VISRETAIN
 70
     0
  9
$PLINEGEN
 70
     0
  9
$PSLTSCALE
 70
     1
  0
ENDSEC
  0
SECTION
  2
TABLES
  0
TABLE
  2
VPORT
 70
     2
  0
VPORT
  2
*ACTIVE
 70
     0
 10
0.0
 20
0.0
 11
1.0
 21
1.0
 12
9438.1687158055174
 22
4629.9562499988788
 13
0.0
 23
0.0
 14
10.0
 24
10.0
 15
10.0
 25
10.0
 16
0.0
 26
0.0
 36
1.0
 17
0.0
 27
0.0
 37
0.0
 40
7517.2452868940854
 41
3.1666666666666661
 42
50.0
 43
0.0
 44
0.0
 50
0.0
 51
0.0
 71
     0
 72
   100
 73
     1
 74
     0
 75
     0
 76
     0
 77
     0
 78
     0
  0
ENDTAB
  0
TABLE
  2
LTYPE
 70
     2
  0
LTYPE
  2
CONTINUOUS
 70
     0
  3
Solid line
 72
    65
 73
     0
 40
0.0
  0
LTYPE
  2
CENTER
 70
     0
  3
____ _ ____ _ ____ _ ____ _ ____ _ ____ _ ____ 
 72
    65
 73
     4
 40
2.0
 49
1.25
 49
-0.25
 49
0.25
 49
-0.25
  0
ENDTAB
  0
TABLE
  2
LAYER
 70
     6
  0
LAYER
  2
0
 70
     0
 62
     7
  6
CONTINUOUS
  0
LAYER
  2
3
 70
     0
 62
     2
  6
CONTINUOUS
  0
LAYER
  2
2
 70
     0
 62
     3
  6
CENTER
  0
LAYER
  2
1
 70
     0
 62
     4
  6
CONTINUOUS
  0
LAYER
  2
4
 70
     0
 62
     7
  6
CONTINUOUS
  0
LAYER
  2
DEFPOINTS
 70
     0
 62
     7
  6
CONTINUOUS
  0
ENDTAB
  0
TABLE
  2
STYLE
 70
     1
  0
STYLE
  2
STANDARD
 70
     0
 40
0.0
 41
1.0
 50
0.0
 71
     0
 42
180.0
  3
simplex.shx
  4
extfont.shx
  0
ENDTAB
  0
TABLE
  2
VIEW
 70
     0
  0
ENDTAB
  0
TABLE
  2
UCS
 70
     0
  0
ENDTAB
  0
TABLE
  2
APPID
 70
     1
  0
APPID
  2
ACAD
 70
     0
  0
ENDTAB
  0
TABLE
  2
DIMSTYLE
 70
     1
  0
DIMSTYLE
  2
IGA
 70
     0
  3

  4

  5

  6
OPEN
  7
OPEN
 40
2.0
 41
2.0
 42
0.5
 43
10.0
 44
1.0
 45
0.0
 46
0.0
 47
1.0
 48
1.0
140
3.0
141
0.0
142
0.0
143
0.03937
144
1.0
145
0.0
146
10.0
147
1.0
 71
     0
 72
     0
 73
     0
 74
     0
 75
     0
 76
     0
 77
     1
 78
     8
170
     0
171
     2
172
     0
173
     1
174
     0
175
     0
176
     0
177
     0
178
     0
  0
ENDTAB
  0
ENDSEC
  0
SECTION
  2
BLOCKS
  0
BLOCK
  8
0
  2
$MODEL_SPACE
 70
     0
 10
0.0
 20
0.0
 30
0.0
  3
$MODEL_SPACE
  1

  0
ENDBLK
  5
1B
  8
0
  0
BLOCK
 67
     1
  8
0
  2
$PAPER_SPACE
 70
     0
 10
0.0
 20
0.0
 30
0.0
  3
$PAPER_SPACE
  1

  0
ENDBLK
  5
18
 67
     1
  8
0
  0
BLOCK
  8
0
  2
_OPEN
 70
     0
 10
0.0
 20
0.0
 30
0.0
  3
_OPEN
  1

  0
LINE
  5
7AFA
  8
0
  6
BYBLOCK
 62
     0
 10
-1.0
 20
0.166667
 30
0.0
 11
0.0
 21
0.0
 31
0.0
  0
LINE
  5
7AFB
  8
0
  6
BYBLOCK
 62
     0
 10
0.0
 20
0.0
 30
0.0
 11
-1.0
 21
-0.166667
 31
0.0
  0
LINE
  5
7AFC
  8
0
  6
BYBLOCK
 62
     0
 10
0.0
 20
0.0
 30
0.0
 11
-1.0
 21
0.0
 31
0.0
  0
ENDBLK
  5
7AFD
  8
0
  0
BLOCK
  8
0
  2
*D1
 70
     1
 10
0.0
 20
0.0
 30
0.0
  3
*D1
  1

  0
LINE
  5
7CB3
  8
3
  6
CONTINUOUS
 62
     0
 10
2212.4155509279649
 20
3760.4175259999988
 30
0.0
 11
2212.4155509279649
 21
3936.3899550000001
 31
0.0
  0
LINE
  5
7CB4
  8
3
  6
CONTINUOUS
 62
     0
 10
1387.4155509279649
 20
3760.4175259999988
 30
0.0
 11
1387.4155509279649
 21
3936.3899550000001
 31
0.0
  0
LINE
  5
7CB5
  8
3
  6
CONTINUOUS
 62
     0
 10
2152.4155509279649
 20
3906.3899549999992
 30
0.0
 11
1447.4155509279649
 21
3906.3899549999992
 31
0.0
  0
INSERT
  5
7CB6
  8
3
  6
CONTINUOUS
 62
     0
  2
_OPEN
 10
2212.4155509279649
 20
3906.3899549999992
 30
0.0
 41
60.0
 42
60.0
 43
60.0
  0
INSERT
  5
7CB7
  8
3
  6
CONTINUOUS
 62
     0
  2
_OPEN
 10
1387.4155509279649
 20
3906.3899549999992
 30
0.0
 41
60.0
 42
60.0
 43
60.0
 50
180.0
  0
TEXT
  8
3
  40
90
  5
7D35
  62
0
  72
0
  71
0
 10
1619.87
 20
3822.09
 30
0.000000
  1
825
  0
POINT
  5
7CB9
  8
DEFPOINTS
  6
CONTINUOUS
 62
     0
 10
2212.4155509279649
 20
3745.4175260000002
 30
0.0
  0
POINT
  5
7CBA
  8
DEFPOINTS
  6
CONTINUOUS
 62
     0
 10
1387.4155509279649
 20
3745.4175260000002
 30
0.0
  0
POINT
  5
7CBB
  8
DEFPOINTS
  6
CONTINUOUS
 62
     0
 10
1387.4155509279649
 20
3906.3899549999992
 30
0.0
  0
ENDBLK
  5
7B0A
  8
0
  0
BLOCK
  8
0
  2
*D2
 70
     1
 10
0.0
 20
0.0
 30
0.0
  3
*D2
  1

  0
LINE
  5
7CBC
  8
3
  6
CONTINUOUS
 62
     0
 10
1387.4155509279649
 20
3760.4175259999988
 30
0.0
 11
1387.4155509279649
 21
4123.8685880000003
 31
0.0
  0
LINE
  5
7CBD
  8
3
  6
CONTINUOUS
 62
     0
 10
2174.4155509279649
 20
3922.1949949999998
 30
0.0
 11
2174.4155509279649
 21
4123.8685880000003
 31
0.0
  0
LINE
  5
7CBE
  8
3
  6
CONTINUOUS
 62
     0
 10
1447.4155509279649
 20
4093.8685879999998
 30
0.0
 11
2114.4155509279649
 21
4093.8685879999998
 31
0.0
  0
INSERT
  5
7CBF
  8
3
  6
CONTINUOUS
 62
     0
  2
_OPEN
 10
1387.4155509279649
 20
4093.8685879999998
 30
0.0
 41
60.0
 42
60.0
 43
60.0
 50
180.0
  0
INSERT
  5
7CC0
  8
3
  6
CONTINUOUS
 62
     0
  2
_OPEN
 10
2174.4155509279649
 20
4093.8685879999998
 30
0.0
 41
60.0
 42
60.0
 43
60.0
  0
TEXT
  8
3
  40
90
  5
7D36
  62
0
  72
0
  71
0
 10
1619.87
 20
4009.57
 30
0.000000
  1
787
  0
POINT
  5
7CC2
  8
DEFPOINTS
  6
CONTINUOUS
 62
     0
 10
1387.4155509279649
 20
3745.4175260000002
 30
0.0
  0
POINT
  5
7CC3
  8
DEFPOINTS
  6
CONTINUOUS
 62
     0
 10
2174.4155509279649
 20
3907.1949949999998
 30
0.0
  0
POINT
  5
7CC4
  8
DEFPOINTS
  6
CONTINUOUS
 62
     0
 10
2174.4155509279649
 20
4093.8685879999998
 30
0.0
  0
ENDBLK
  5
7B17
  8
0
  0
BLOCK
  8
0
  2
*D3
 70
     1
 10
0.0
 20
0.0
 30
0.0
  3
*D3
  1

  0
LINE
  5
7CC5
  8
3
  6
CONTINUOUS
 62
     0
 10
2269.9155509279649
 20
3745.4175260000002
 30
0.0
 11
3021.787300927966
 21
3745.4175260000002
 31
0.0
  0
LINE
  5
7CC6
  8
3
  6
CONTINUOUS
 62
     0
 10
2916.2547119279652
 20
3150.4175260000002
 30
0.0
 11
3021.787300927966
 21
3150.4175260000002
 31
0.0
  0
LINE
  5
7CC7
  8
3
  6
CONTINUOUS
 62
     0
 10
2991.7873009279651
 20
3685.4175260000002
 30
0.0
 11
2991.7873009279651
 21
3210.4175260000002
 31
0.0
  0
INSERT
  5
7CC8
  8
3
  6
CONTINUOUS
 62
     0
  2
_OPEN
 10
2991.7873009279651
 20
3745.4175260000002
 30
0.0
 41
60.0
 42
60.0
 43
60.0
 50
90.0
  0
INSERT
  5
7CC9
  8
3
  6
CONTINUOUS
 62
     0
  2
_OPEN
 10
2991.7873009279651
 20
3150.4175260000002
 30
0.0
 41
60.0
 42
60.0
 43
60.0
 50
270.0
  0
TEXT
  8
3
  40
90
  5
7D37
  62
0
  72
0
  71
0
 10
2736.79
 20
3278.39
 30
0.000000
  1
595
  0
POINT
  5
7CCB
  8
DEFPOINTS
  6
CONTINUOUS
 62
     0
 10
2254.9155509279649
 20
3745.4175260000002
 30
0.0
  0
POINT
  5
7CCC
  8
DEFPOINTS
  6
CONTINUOUS
 62
     0
 10
2901.2547119279652
 20
3150.4175260000002
 30
0.0
  0
POINT
  5
7CCD
  8
DEFPOINTS
  6
CONTINUOUS
 62
     0
 10
2991.7873009279651
 20
3150.4175260000002
 30
0.0
  0
ENDBLK
  5
7B30
  8
0
  0
BLOCK
  8
0
  2
*D4
 70
     1
 10
0.0
 20
0.0
 30
0.0
  3
*D4
  1

  0
LINE
  5
7CCE
  8
3
  6
CONTINUOUS
 62
     0
 10
2709.4155509279649
 20
2455.4175260000002
 30
0.0
 11
3021.7873009279651
 21
2455.4175260000002
 31
0.0
  0
LINE
  5
7CCF
  8
3
  6
CONTINUOUS
 62
     0
 10
2991.7873009279651
 20
3090.4175260000002
 30
0.0
 11
2991.7873009279651
 21
2515.4175260000002
 31
0.0
  0
INSERT
  5
7CD0
  8
3
  6
CONTINUOUS
 62
     0
  2
_OPEN
 10
2991.7873009279651
 20
3150.4175260000002
 30
0.0
 41
60.0
 42
60.0
 43
60.0
 50
90.0
  0
INSERT
  5
7CD1
  8
3
  6
CONTINUOUS
 62
     0
  2
_OPEN
 10
2991.7873009279651
 20
2455.4175260000002
 30
0.0
 41
60.0
 42
60.0
 43
60.0
 50
270.0
  0
TEXT
  8
3
  40
90
  5
7D38
  62
0
  72
0
  71
0
 10
2736.79
 20
2643.62
 30
0.000000
  1
695
  0
POINT
  5
7CD3
  8
DEFPOINTS
  6
CONTINUOUS
 62
     0
 10
2901.2547119279652
 20
3150.4175260000002
 30
0.0
  0
POINT
  5
7CD4
  8
DEFPOINTS
  6
CONTINUOUS
 62
     0
 10
2694.4155509279649
 20
2455.4175260000002
 30
0.0
  0
POINT
  5
7CD5
  8
DEFPOINTS
  6
CONTINUOUS
 62
     0
 10
2991.7873009279651
 20
2455.4175260000002
 30
0.0
  0
ENDBLK
  5
7B3C
  8
0
  0
BLOCK
  8
0
  2
*D5
 70
     1
 10
0.0
 20
0.0
 30
0.0
  3
*D5
  1

  0
LINE
  5
7CD6
  8
3
  6
CONTINUOUS
 62
     0
 10
1094.4155509279649
 20
2440.4175260000002
 30
0.0
 11
1094.4155509279649
 21
2222.166596
 31
0.0
  0
LINE
  5
7CD7
  8
3
  6
CONTINUOUS
 62
     0
 10
2174.4155509279649
 20
2352.7718949999999
 30
0.0
 11
2174.4155509279649
 21
2222.166596
 31
0.0
  0
LINE
  5
7CD8
  8
3
  6
CONTINUOUS
 62
     0
 10
1154.4155509279649
 20
2252.1665959999991
 30
0.0
 11
2114.4155509279649
 21
2252.1665959999991
 31
0.0
  0
INSERT
  5
7CD9
  8
3
  6
CONTINUOUS
 62
     0
  2
_OPEN
 10
1094.4155509279649
 20
2252.1665959999991
 30
0.0
 41
60.0
 42
60.0
 43
60.0
 50
180.0
  0
INSERT
  5
7CDA
  8
3
  6
CONTINUOUS
 62
     0
  2
_OPEN
 10
2174.4155509279649
 20
2252.1665959999991
 30
0.0
 41
60.0
 42
60.0
 43
60.0
  0
TEXT
  8
3
  40
90
  5
7D39
  62
0
  72
0
  71
0
 10
1503.99
 20
2167.87
 30
0.000000
  1
1080
  0
POINT
  5
7CDC
  8
DEFPOINTS
  6
CONTINUOUS
 62
     0
 10
1094.4155509279649
 20
2455.4175260000002
 30
0.0
  0
POINT
  5
7CDD
  8
DEFPOINTS
  6
CONTINUOUS
 62
     0
 10
2174.4155509279649
 20
2367.7718949999999
 30
0.0
  0
POINT
  5
7CDE
  8
DEFPOINTS
  6
CONTINUOUS
 62
     0
 10
2174.4155509279649
 20
2252.1665959999991
 30
0.0
  0
ENDBLK
  5
7B49
  8
0
  0
BLOCK
  8
0
  2
*D6
 70
     1
 10
0.0
 20
0.0
 30
0.0
  3
*D6
  1

  0
LINE
  5
7CDF
  8
3
  6
CONTINUOUS
 62
     0
 10
2694.4155509279649
 20
2440.4175260000002
 30
0.0
 11
2694.4155509279649
 21
2222.166596
 31
0.0
  0
LINE
  5
7CE0
  8
3
  6
CONTINUOUS
 62
     0
 10
2234.4155509279649
 20
2252.1665959999991
 30
0.0
 11
2634.4155509279649
 21
2252.1665959999991
 31
0.0
  0
INSERT
  5
7CE1
  8
3
  6
CONTINUOUS
 62
     0
  2
_OPEN
 10
2174.4155509279649
 20
2252.1665959999991
 30
0.0
 41
60.0
 42
60.0
 43
60.0
 50
180.0
  0
INSERT
  5
7CE2
  8
3
  6
CONTINUOUS
 62
     0
  2
_OPEN
 10
2694.4155509279649
 20
2252.1665959999991
 30
0.0
 41
60.0
 42
60.0
 43
60.0
  0
TEXT
  8
3
  40
90
  5
7D3A
  62
0
  72
0
  71
0
 10
2254.42
 20
2167.87
 30
0.000000
  1
520
  0
POINT
  5
7CE4
  8
DEFPOINTS
  6
CONTINUOUS
 62
     0
 10
2174.4155509279649
 20
2367.7718949999999
 30
0.0
  0
POINT
  5
7CE5
  8
DEFPOINTS
  6
CONTINUOUS
 62
     0
 10
2694.4155509279649
 20
2455.4175260000002
 30
0.0
  0
POINT
  5
7CE6
  8
DEFPOINTS
  6
CONTINUOUS
 62
     0
 10
2694.4155509279649
 20
2252.1665959999991
 30
0.0
  0
ENDBLK
  5
7B55
  8
0
  0
BLOCK
  8
0
  2
*D7
 70
     1
 10
0.0
 20
0.0
 30
0.0
  3
*D7
  1

  0
LINE
  5
7CE7
  8
3
  6
CONTINUOUS
 62
     0
 10
4336.0787829999999
 20
3760.4175259999988
 30
0.0
 11
4336.0787829999999
 21
3881.2491730000002
 31
0.0
  0
LINE
  5
7CE8
  8
3
  6
CONTINUOUS
 62
     0
 10
4936.0787829999999
 20
3760.4175259999988
 30
0.0
 11
4936.0787829999999
 21
3881.2491730000002
 31
0.0
  0
LINE
  5
7CE9
  8
3
  6
CONTINUOUS
 62
     0
 10
4396.0787829999999
 20
3851.2491730000002
 30
0.0
 11
4876.0787829999999
 21
3851.2491730000002
 31
0.0
  0
INSERT
  5
7CEA
  8
3
  6
CONTINUOUS
 62
     0
  2
_OPEN
 10
4336.0787829999999
 20
3851.2491730000002
 30
0.0
 41
60.0
 42
60.0
 43
60.0
 50
180.0
  0
INSERT
  5
7CEB
  8
3
  6
CONTINUOUS
 62
     0
  2
_OPEN
 10
4936.0787829999999
 20
3851.2491730000002
 30
0.0
 41
60.0
 42
60.0
 43
60.0
  0
TEXT
  8
3
  40
90
  5
7D3B
  62
0
  72
0
  71
0
 10
4460.52
 20
3766.95
 30
0.000000
  1
600
  0
POINT
  5
7CED
  8
DEFPOINTS
  6
CONTINUOUS
 62
     0
 10
4336.0787829999999
 20
3745.4175260000002
 30
0.0
  0
POINT
  5
7CEE
  8
DEFPOINTS
  6
CONTINUOUS
 62
     0
 10
4936.0787829999999
 20
3745.4175260000002
 30
0.0
  0
POINT
  5
7CEF
  8
DEFPOINTS
  6
CONTINUOUS
 62
     0
 10
4936.0787829999999
 20
3851.2491730000002
 30
0.0
  0
ENDBLK
  5
7B62
  8
0
  0
BLOCK
  8
0
  2
*D8
 70
     1
 10
0.0
 20
0.0
 30
0.0
  3
*D8
  1

  0
LINE
  5
7CF0
  8
3
  6
CONTINUOUS
 62
     0
 10
4955.0787829999999
 20
3575.4175259999988
 30
0.0
 11
5222.3305380000011
 21
3575.4175259999988
 31
0.0
  0
LINE
  5
7CF1
  8
3
  6
CONTINUOUS
 62
     0
 10
4955.0787829999999
 20
2725.4175260000002
 30
0.0
 11
5222.3305380000011
 21
2725.4175259999988
 31
0.0
  0
LINE
  5
7CF2
  8
3
  6
CONTINUOUS
 62
     0
 10
5192.3305380000011
 20
3515.4175259999988
 30
0.0
 11
5192.3305380000011
 21
2785.4175259999988
 31
0.0
  0
INSERT
  5
7CF3
  8
3
  6
CONTINUOUS
 62
     0
  2
_OPEN
 10
5192.3305380000011
 20
3575.4175259999988
 30
0.0
 41
60.0
 42
60.0
 43
60.0
 50
90.0
  0
INSERT
  5
7CF4
  8
3
  6
CONTINUOUS
 62
     0
  2
_OPEN
 10
5192.3305380000011
 20
2725.4175259999988
 30
0.0
 41
60.0
 42
60.0
 43
60.0
 50
270.0
  0
TEXT
  8
3
  40
90
  5
7D3C
  62
0
  72
0
  71
0
 10
4937.33
 20
2975.12
 30
0.000000
  1
φ850
  0
POINT
  5
7CF6
  8
DEFPOINTS
  6
CONTINUOUS
 62
     0
 10
4940.0787829999999
 20
3575.4175259999988
 30
0.0
  0
POINT
  5
7CF7
  8
DEFPOINTS
  6
CONTINUOUS
 62
     0
 10
4940.0787829999999
 20
2725.4175260000002
 30
0.0
  0
POINT
  5
7CF8
  8
DEFPOINTS
  6
CONTINUOUS
 62
     0
 10
5192.3305380000011
 20
2725.4175259999988
 30
0.0
  0
ENDBLK
  5
7C4D
  8
0
  0
BLOCK
  8
0
  2
*D9
 70
     1
 10
0.0
 20
0.0
 30
0.0
  3
*D9
  1

  0
LINE
  5
7C5A
  8
0
  6
BYBLOCK
 62
     0
 10
4940.0787829999999
 20
3590.4175259999988
 30
0.0
 11
4940.0787829999999
 21
4068.7278049999991
 31
0.0
  0
LINE
  5
7C5B
  8
0
  6
BYBLOCK
 62
     0
 10
4636.0787829999999
 20
4008.6108259999992
 30
0.0
 11
4636.0787829999999
 21
4068.7278049999991
 31
0.0
  0
LINE
  5
7C5C
  8
0
  6
BYBLOCK
 62
     0
 10
4880.0787829999999
 20
4038.7278049999991
 30
0.0
 11
4696.078782999999
 21
4038.7278049999991
 31
0.0
  0
TEXT
  5
7C5D
  8
3
 62
     0
 10
4670.2216401428568
 20
4069.7563707779659
 30
0.0
 40
90.0
  1
304
  0
INSERT
  5
7C5E
  8
0
  6
BYBLOCK
 62
     0
  2
_OPEN
 10
4940.0787829999999
 20
4038.7278049999991
 30
0.0
 41
60.0
 42
60.0
 43
60.0
  0
INSERT
  5
7C5F
  8
0
  6
BYBLOCK
 62
     0
  2
_OPEN
 10
4636.0787829999999
 20
4038.7278049999991
 30
0.0
 41
60.0
 42
60.0
 43
60.0
 50
180.0
  0
POINT
  5
7C60
  8
DEFPOINTS
  6
BYBLOCK
 62
     0
 10
4940.0787829999999
 20
3575.4175259999988
 30
0.0
  0
POINT
  5
7C61
  8
DEFPOINTS
  6
BYBLOCK
 62
     0
 10
4636.0787829999999
 20
3993.6108259999992
 30
0.0
  0
POINT
  5
7C62
  8
DEFPOINTS
  6
BYBLOCK
 62
     0
 10
4636.0787829999999
 20
4038.7278049999991
 30
0.0
  0
ENDBLK
  5
7C63
  8
0
  0
BLOCK
  8
0
  2
*D10
 70
     1
 10
0.0
 20
0.0
 30
0.0
  3
*D10
  1

  0
LINE
  5
7CF9
  8
3
  6
CONTINUOUS
 62
     0
 10
4076.078782999999
 20
3820.4175259999988
 30
0.0
 11
4076.078782999999
 21
4068.7278049999991
 31
0.0
  0
LINE
  5
7CFA
  8
3
  6
CONTINUOUS
 62
     0
 10
4576.078782999999
 20
4038.7278049999991
 30
0.0
 11
4136.0787829999999
 21
4038.7278049999991
 31
0.0
  0
INSERT
  5
7CFB
  8
3
  6
CONTINUOUS
 62
     0
  2
_OPEN
 10
4636.0787829999999
 20
4038.7278049999991
 30
0.0
 41
60.0
 42
60.0
 43
60.0
  0
INSERT
  5
7CFC
  8
3
  6
CONTINUOUS
 62
     0
  2
_OPEN
 10
4076.078782999999
 20
4038.7278049999991
 30
0.0
 41
60.0
 42
60.0
 43
60.0
 50
180.0
  0
TEXT
  8
3
  40
90
  5
7D3D
  62
0
  72
0
  71
0
 10
4176.08
 20
4029.43
 30
0.000000
  1
MAX
  0
TEXT
  8
3
  40
90
  5
7D3E
  62
0
  72
0
  71
0
 10
4176.08
 20
3912.43
 30
0.000000
  1
610
  0
POINT
  5
7CFE
  8
DEFPOINTS
  6
CONTINUOUS
 62
     0
 10
4636.0787829999999
 20
3993.6108259999992
 30
0.0
  0
POINT
  5
7CFF
  8
DEFPOINTS
  6
CONTINUOUS
 62
     0
 10
4076.078782999999
 20
3805.4175260000002
 30
0.0
  0
POINT
  5
7D00
  8
DEFPOINTS
  6
CONTINUOUS
 62
     0
 10
4076.078782999999
 20
4038.7278049999991
 30
0.0
  0
ENDBLK
  5
7C42
  8
0
  0
BLOCK
  8
0
  2
*D11
 70
     1
 10
0.0
 20
0.0
 30
0.0
  3
*D11
  1

  0
LINE
  5
7D01
  8
3
  6
CONTINUOUS
 62
     0
 10
4168.0787829999999
 20
2440.4175260000002
 30
0.0
 11
4168.0787829999999
 21
2200.5779200000002
 31
0.0
  0
LINE
  5
7D02
  8
3
  6
CONTINUOUS
 62
     0
 10
4636.0787829999999
 20
2260.6901349999998
 30
0.0
 11
4636.0787829999999
 21
2200.5779200000002
 31
0.0
  0
LINE
  5
7D03
  8
3
  6
CONTINUOUS
 62
     0
 10
4228.078782999999
 20
2230.5779199999988
 30
0.0
 11
4576.078782999999
 21
2230.5779199999988
 31
0.0
  0
INSERT
  5
7D04
  8
3
  6
CONTINUOUS
 62
     0
  2
_OPEN
 10
4168.0787829999999
 20
2230.5779199999988
 30
0.0
 41
60.0
 42
60.0
 43
60.0
 50
180.0
  0
INSERT
  5
7D05
  8
3
  6
CONTINUOUS
 62
     0
  2
_OPEN
 10
4636.0787829999999
 20
2230.5779199999988
 30
0.0
 41
60.0
 42
60.0
 43
60.0
  0
TEXT
  8
3
  40
90
  5
7D3F
  62
0
  72
0
  71
0
 10
4250.36
 20
2146.28
 30
0.000000
  1
468
  0
POINT
  5
7D07
  8
DEFPOINTS
  6
CONTINUOUS
 62
     0
 10
4168.0787829999999
 20
2455.4175260000002
 30
0.0
  0
POINT
  5
7D08
  8
DEFPOINTS
  6
CONTINUOUS
 62
     0
 10
4636.0787829999999
 20
2275.6901349999998
 30
0.0
  0
POINT
  5
7D09
  8
DEFPOINTS
  6
CONTINUOUS
 62
     0
 10
4636.0787829999999
 20
2230.5779199999988
 30
0.0
  0
ENDBLK
  5
7C24
  8
0
  0
BLOCK
  8
0
  2
*D12
 70
     1
 10
0.0
 20
0.0
 30
0.0
  3
*D12
  1

  0
LINE
  5
7D0A
  8
3
  6
CONTINUOUS
 62
     0
 10
4988.0787829999999
 20
2440.4175260000002
 30
0.0
 11
4988.0787829999999
 21
2200.5779200000002
 31
0.0
  0
LINE
  5
7D0B
  8
3
  6
CONTINUOUS
 62
     0
 10
4696.078782999999
 20
2230.5779199999988
 30
0.0
 11
4928.0787829999999
 21
2230.5779199999988
 31
0.0
  0
TEXT
  8
3
  40
90
  5
7D40
  62
0
  72
0
  71
0
 10
4640.65
 20
2144.97
 30
0.000000
  1
352
  0
INSERT
  5
7D0D
  8
3
  6
CONTINUOUS
 62
     0
  2
_OPEN
 10
4636.0787829999999
 20
2230.5779199999988
 30
0.0
 41
60.0
 42
60.0
 43
60.0
 50
180.0
  0
INSERT
  5
7D0E
  8
3
  6
CONTINUOUS
 62
     0
  2
_OPEN
 10
4988.0787829999999
 20
2230.5779199999988
 30
0.0
 41
60.0
 42
60.0
 43
60.0
  0
POINT
  5
7D0F
  8
DEFPOINTS
  6
CONTINUOUS
 62
     0
 10
4636.0787829999999
 20
2275.6901349999998
 30
0.0
  0
POINT
  5
7D10
  8
DEFPOINTS
  6
CONTINUOUS
 62
     0
 10
4988.0787829999999
 20
2455.4175260000002
 30
0.0
  0
POINT
  5
7D11
  8
DEFPOINTS
  6
CONTINUOUS
 62
     0
 10
4988.0787829999999
 20
2230.5779199999988
 30
0.0
  0
ENDBLK
  5
7C2E
  8
0
  0
BLOCK
  8
0
  2
*D13
 70
     1
 10
0.0
 20
0.0
 30
0.0
  3
*D13
  1

  0
LINE
  5
7D12
  8
3
  6
CONTINUOUS
 62
     0
 10
1094.4155509279649
 20
6266.4061322320422
 30
0.0
 11
1094.4155509279649
 21
6474.5438552320411
 31
0.0
  0
LINE
  5
7D13
  8
3
  6
CONTINUOUS
 62
     0
 10
2694.4155509279649
 20
6266.4061322320422
 30
0.0
 11
2694.4155509279649
 21
6474.5438552320411
 31
0.0
  0
LINE
  5
7D14
  8
3
  6
CONTINUOUS
 62
     0
 10
1154.4155509279649
 20
6444.5438552320411
 30
0.0
 11
2634.4155509279649
 21
6444.5438552320411
 31
0.0
  0
INSERT
  5
7D15
  8
3
  6
CONTINUOUS
 62
     0
  2
_OPEN
 10
1094.4155509279649
 20
6444.5438552320411
 30
0.0
 41
60.0
 42
60.0
 43
60.0
 50
180.0
  0
INSERT
  5
7D16
  8
3
  6
CONTINUOUS
 62
     0
  2
_OPEN
 10
2694.4155509279649
 20
6444.5438552320411
 30
0.0
 41
60.0
 42
60.0
 43
60.0
  0
TEXT
  8
3
  40
90
  5
7D41
  62
0
  72
0
  71
0
 10
1657.94
 20
6360.24
 30
0.000000
  1
1600
  0
POINT
  5
7D18
  8
DEFPOINTS
  6
CONTINUOUS
 62
     0
 10
1094.4155509279649
 20
6251.4061322320413
 30
0.0
  0
POINT
  5
7D19
  8
DEFPOINTS
  6
CONTINUOUS
 62
     0
 10
2694.4155509279649
 20
6251.4061322320413
 30
0.0
  0
POINT
  5
7D1A
  8
DEFPOINTS
  6
CONTINUOUS
 62
     0
 10
2694.4155509279649
 20
6444.5438552320411
 30
0.0
  0
ENDBLK
  5
7C03
  8
0
  0
BLOCK
  8
0
  2
*D14
 70
     1
 10
0.0
 20
0.0
 30
0.0
  3
*D14
  1

  0
LINE
  5
7D1B
  8
3
  6
CONTINUOUS
 62
     0
 10
2709.4155509279649
 20
6251.4061322320413
 30
0.0
 11
3060.6196789279652
 21
6251.4061322320413
 31
0.0
  0
LINE
  5
7D1C
  8
3
  6
CONTINUOUS
 62
     0
 10
2709.4155509279649
 20
5431.4061322320413
 30
0.0
 11
3060.6196789279652
 21
5431.4061322320413
 31
0.0
  0
LINE
  5
7D1D
  8
3
  6
CONTINUOUS
 62
     0
 10
3030.6196789279661
 20
6191.4061322320413
 30
0.0
 11
3030.6196789279661
 21
5491.4061322320413
 31
0.0
  0
INSERT
  5
7D1E
  8
3
  6
CONTINUOUS
 62
     0
  2
_OPEN
 10
3030.6196789279661
 20
6251.4061322320413
 30
0.0
 41
60.0
 42
60.0
 43
60.0
 50
90.0
  0
INSERT
  5
7D1F
  8
3
  6
CONTINUOUS
 62
     0
  2
_OPEN
 10
3030.6196789279661
 20
5431.4061322320413
 30
0.0
 41
60.0
 42
60.0
 43
60.0
 50
270.0
  0
TEXT
  8
3
  40
90
  5
7D42
  62
0
  72
0
  71
0
 10
2775.62
 20
5708.73
 30
0.000000
  1
820
  0
POINT
  5
7D21
  8
DEFPOINTS
  6
CONTINUOUS
 62
     0
 10
2694.4155509279649
 20
6251.4061322320413
 30
0.0
  0
POINT
  5
7D22
  8
DEFPOINTS
  6
CONTINUOUS
 62
     0
 10
2694.4155509279649
 20
5431.4061322320413
 30
0.0
  0
POINT
  5
7D23
  8
DEFPOINTS
  6
CONTINUOUS
 62
     0
 10
3030.6196789279661
 20
5431.4061322320413
 30
0.0
  0
ENDBLK
  5
7BD9
  8
0
  0
BLOCK
  8
0
  2
*D15
 70
     1
 10
0.0
 20
0.0
 30
0.0
  3
*D15
  1

  0
LINE
  5
7D24
  8
3
  6
CONTINUOUS
 62
     0
 10
2284.9155509279649
 20
3745.4175260000002
 30
0.0
 11
3261.5069849279662
 21
3745.4175259999988
 31
0.0
  0
LINE
  5
7D25
  8
3
  6
CONTINUOUS
 62
     0
 10
2709.4155509279649
 20
2455.4175260000002
 30
0.0
 11
3261.5069849279648
 21
2455.4175259999988
 31
0.0
  0
LINE
  5
7D26
  8
3
  6
CONTINUOUS
 62
     0
 10
3231.5069849279662
 20
3685.4175259999988
 30
0.0
 11
3231.5069849279662
 21
2515.4175260000002
 31
0.0
  0
INSERT
  5
7D27
  8
3
  6
CONTINUOUS
 62
     0
  2
_OPEN
 10
3231.5069849279662
 20
3745.4175259999988
 30
0.0
 41
60.0
 42
60.0
 43
60.0
 50
90.0
  0
INSERT
  5
7D28
  8
3
  6
CONTINUOUS
 62
     0
  2
_OPEN
 10
3231.5069849279662
 20
2455.4175259999988
 30
0.0
 41
60.0
 42
60.0
 43
60.0
 50
270.0
  0
TEXT
  8
3
  40
90
  5
7D43
  62
0
  72
0
  71
0
 10
2976.51
 20
2950.88
 30
0.000000
  1
1290
  0
POINT
  5
7D2A
  8
DEFPOINTS
  6
CONTINUOUS
 62
     0
 10
2269.9155509279649
 20
3745.4175260000002
 30
0.0
  0
POINT
  5
7D2B
  8
DEFPOINTS
  6
CONTINUOUS
 62
     0
 10
2694.4155509279649
 20
2455.4175260000002
 30
0.0
  0
POINT
  5
7D2C
  8
DEFPOINTS
  6
CONTINUOUS
 62
     0
 10
3231.5069849279662
 20
2455.4175259999988
 30
0.0
  0
ENDBLK
  5
7BE6
  8
0
  0
BLOCK
  8
0
  2
*D16
 70
     1
 10
0.0
 20
0.0
 30
0.0
  3
*D16
  1

  0
LINE
  5
7D2D
  8
3
  6
CONTINUOUS
 62
     0
 10
2750.4061980348388
 20
3165.4175260000002
 30
0.0
 11
2750.4061980348388
 21
4123.8685880000003
 31
0.0
  0
LINE
  5
7D2E
  8
3
  6
CONTINUOUS
 62
     0
 10
2234.4155509279649
 20
4093.8685879999998
 30
0.0
 11
2690.4061980348388
 21
4093.8685879999998
 31
0.0
  0
INSERT
  5
7D2F
  8
3
  6
CONTINUOUS
 62
     0
  2
_OPEN
 10
2174.4155509279649
 20
4093.8685879999998
 30
0.0
 41
60.0
 42
60.0
 43
60.0
 50
180.0
  0
INSERT
  5
7D30
  8
3
  6
CONTINUOUS
 62
     0
  2
_OPEN
 10
2750.4061980348388
 20
4093.8685879999998
 30
0.0
 41
60.0
 42
60.0
 43
60.0
  0
TEXT
  8
3
  40
90
  5
7D44
  62
0
  72
0
  71
0
 10
2282.41
 20
4009.57
 30
0.000000
  1
576
  0
POINT
  5
7D32
  8
DEFPOINTS
  6
CONTINUOUS
 62
     0
 10
2174.4155509279649
 20
3907.1949949999998
 30
0.0
  0
POINT
  5
7D33
  8
DEFPOINTS
  6
CONTINUOUS
 62
     0
 10
2750.4061980348388
 20
3150.4175260000002
 30
0.0
  0
POINT
  5
7D34
  8
DEFPOINTS
  6
CONTINUOUS
 62
     0
 10
2750.4061980348388
 20
4093.8685879999998
 30
0.0
  0
ENDBLK
  5
7C6E
  8
0
  0
ENDSEC
  0
SECTION
  2
ENTITIES
  0
LINE
  5
7A5E
  8
1
  6
CONTINUOUS
 10
4988.0787829999999
 20
2455.4175260000002
 30
0.0
 11
4168.0787829999999
 21
2455.4175260000002
 31
0.0
  0
LINE
  5
7A5F
  8
1
  6
CONTINUOUS
 10
4988.0787829999999
 20
2555.4175260000002
 30
0.0
 11
4076.078782999999
 21
2555.4175260000002
 31
0.0
  0
LINE
  5
7A60
  8
1
  6
CONTINUOUS
 10
4294.078782999999
 20
3745.4175260000002
 30
0.0
 11
4978.0787829999999
 21
3745.4175260000002
 31
0.0
  0
LINE
  5
7A61
  8
1
  6
CONTINUOUS
 10
1292.8955509279649
 20
2683.4475259999999
 30
0.0
 11
2230.7055509279649
 21
2958.4975260000001
 31
0.0
  0
LINE
  5
7A63
  8
2
  6
CENTER
 10
5056.5671490000013
 20
3150.4175260000002
 30
0.0
 11
3991.750837
 21
3150.4175260000002
 31
0.0
  0
CIRCLE
  5
7A64
  8
1
  6
CONTINUOUS
 10
2174.4155509279649
 20
3150.4175260000002
 30
0.0
 40
200.0
  0
LINE
  5
7A65
  8
1
  6
CONTINUOUS
 10
2594.4155509279649
 20
3805.4175260000002
 30
0.0
 11
2024.4155509279649
 21
3805.4175260000002
 31
0.0
  0
LINE
  5
7A66
  8
1
  6
CONTINUOUS
 10
2694.4155509279649
 20
2455.4175260000002
 30
0.0
 11
1094.4155509279649
 21
2455.4175260000002
 31
0.0
  0
LINE
  5
7A69
  8
1
  6
CONTINUOUS
 10
1094.4155509279649
 20
2555.4175260000002
 30
0.0
 11
2694.4155509279649
 21
2555.4175260000011
 31
0.0
  0
LINE
  5
7A6A
  8
1
  6
CONTINUOUS
 10
2254.9155509279649
 20
3745.4175260000002
 30
0.0
 11
1344.9155509279649
 21
3745.4175260000002
 31
0.0
  0
ARC
  5
7A6B
  8
1
  6
CONTINUOUS
 10
2122.4155509279649
 20
3202.4175260000002
 30
0.0
 40
717.88999999999987
 50
184.15000000000001
 51
274.75999999999988
  0
ARC
  5
7A6C
  8
1
  6
CONTINUOUS
 10
1271.795550927965
 20
2755.4175260000002
 30
0.0
 40
162.0
 50
324.97000000000003
 51
215.02999999999989
  0
CIRCLE
  5
7A6D
  8
1
  6
CONTINUOUS
 10
1271.795550927965
 20
2755.4175260000002
 30
0.0
 40
75.0
  0
LINE
  5
7A6E
  8
1
  6
CONTINUOUS
 10
2024.4155509279649
 20
3805.4175260000002
 30
0.0
 11
1114.4155509279649
 21
2855.4175260000002
 31
0.0
  0
LINE
  5
7A6F
  8
2
  6
CENTER
 10
1196.795550927965
 20
2755.4175260000002
 30
0.0
 11
1346.7955509279641
 21
2755.4175260000002
 31
0.0
  0
LINE
  5
7A70
  8
1
  6
CONTINUOUS
 10
1117.795550927965
 20
2613.4175260000002
 30
0.0
 11
1139.1355509279649
 21
2662.4375260000002
 31
0.0
  0
LINE
  5
7A71
  8
1
  6
CONTINUOUS
 10
1114.4155509279649
 20
2855.4175260000002
 30
0.0
 11
1114.4155509279649
 21
2555.4175260000002
 31
0.0
  0
LINE
  5
7A72
  8
1
  6
CONTINUOUS
 10
1117.795550927965
 20
2555.4175260000002
 30
0.0
 11
1117.795550927965
 21
2613.4175260000002
 31
0.0
  0
LINE
  5
7A73
  8
1
  6
CONTINUOUS
 10
1094.4155509279649
 20
2555.4175260000002
 30
0.0
 11
1094.4155509279649
 21
2455.4175260000002
 31
0.0
  0
LINE
  5
7A74
  8
1
  6
CONTINUOUS
 10
1233.245550927965
 20
2819.7575259999999
 30
0.0
 11
2071.6355509279651
 21
3321.9875259999999
 31
0.0
  0
LINE
  5
7A75
  8
1
  6
CONTINUOUS
 10
1387.4155509279649
 20
3745.4175260000002
 30
0.0
 11
1406.4155509279649
 21
3150.4175260000002
 31
0.0
  0
LINE
  5
7A77
  8
1
  6
CONTINUOUS
 10
1425.795550927965
 20
2613.4175260000002
 30
0.0
 11
1404.4455509279651
 21
2662.4375260000002
 31
0.0
  0
LINE
  5
7A78
  8
1
  6
CONTINUOUS
 10
1425.795550927965
 20
2555.4175260000002
 30
0.0
 11
1425.795550927965
 21
2613.4175260000002
 31
0.0
  0
LINE
  5
7A79
  8
2
  6
CENTER
 10
1271.795550927965
 20
2680.4175260000002
 30
0.0
 11
1271.795550927965
 21
2830.4175260000002
 31
0.0
  0
LINE
  5
7A7A
  8
2
  6
CENTER
 10
2174.4155509279649
 20
6425.9195532320409
 30
0.0
 11
2174.4155509279649
 21
5231.7762862320405
 31
0.0
  0
LINE
  5
7A7B
  8
1
  6
CONTINUOUS
 10
2594.4155509279649
 20
2555.4175260000002
 30
0.0
 11
2594.4155509279649
 21
3805.4175260000002
 31
0.0
  0
ARC
  5
7A7C
  8
1
  6
CONTINUOUS
 10
2209.4155509279649
 20
3115.4175260000002
 30
0.0
 40
542.03999999999985
 50
6.5
 51
89.680000000000007
  0
ARC
  5
7A7E
  8
1
  6
CONTINUOUS
 10
2130.4155509279649
 20
3106.4175260000002
 30
0.0
 40
621.54999999999995
 50
274.75999999999988
 51
6.5
  0
LINE
  5
7A7F
  8
1
  6
CONTINUOUS
 10
2694.4155509279649
 20
2555.4175260000002
 30
0.0
 11
2694.4155509279649
 21
2455.4175260000002
 31
0.0
  0
LINE
  5
7A80
  8
1
  6
CONTINUOUS
 10
2212.4155509279649
 20
3657.4475259999999
 30
0.0
 11
2212.4155509279649
 21
3745.4175260000002
 31
0.0
  0
LINE
  5
7A81
  8
1
  6
CONTINUOUS
 10
4336.0787829999999
 20
3745.4175260000002
 30
0.0
 11
4336.0787829999999
 21
2555.4175260000002
 31
0.0
  0
LINE
  5
7A82
  8
1
  6
CONTINUOUS
 10
4076.078782999999
 20
3805.4175260000002
 30
0.0
 11
4076.078782999999
 21
2555.4175260000002
 31
0.0
  0
LINE
  5
7A83
  8
1
  6
CONTINUOUS
 10
4226.0787829999999
 20
3805.4175260000002
 30
0.0
 11
4226.0787829999999
 21
2555.4175260000002
 31
0.0
  0
LINE
  5
7A84
  8
1
  6
CONTINUOUS
 10
4116.078782999999
 20
3419.4175260000002
 30
0.0
 11
4116.078782999999
 21
3019.4175260000002
 31
0.0
  0
LINE
  5
7A85
  8
1
  6
CONTINUOUS
 10
4186.0787829999999
 20
3419.4175260000002
 30
0.0
 11
4186.0787829999999
 21
3019.4175260000002
 31
0.0
  0
LINE
  5
7A86
  8
1
  6
CONTINUOUS
 10
4168.0787829999999
 20
2555.4175260000002
 30
0.0
 11
4168.0787829999999
 21
2455.4175260000002
 31
0.0
  0
LINE
  5
7A87
  8
1
  6
CONTINUOUS
 10
4186.0787829999999
 20
2776.4175260000002
 30
0.0
 11
4336.0787829999999
 21
2776.4175260000002
 31
0.0
  0
LINE
  5
7A88
  8
1
  6
CONTINUOUS
 10
4186.0787829999999
 20
2734.4175260000002
 30
0.0
 11
4336.0787829999999
 21
2734.4175260000002
 31
0.0
  0
LINE
  5
7A89
  8
1
  6
CONTINUOUS
 10
4336.0787829999999
 20
3240.4175260000002
 30
0.0
 11
4186.0787829999999
 21
3240.4175260000002
 31
0.0
  0
LINE
  5
7A8A
  8
1
  6
CONTINUOUS
 10
4336.0787829999999
 20
3198.4175260000002
 30
0.0
 11
4186.0787829999999
 21
3198.4175260000002
 31
0.0
  0
LINE
  5
7A8B
  8
1
  6
CONTINUOUS
 10
4116.078782999999
 20
3019.4175260000002
 30
0.0
 11
4186.0787829999999
 21
3019.4175260000002
 31
0.0
  0
LINE
  5
7A8C
  8
1
  6
CONTINUOUS
 10
4116.078782999999
 20
2830.4175260000002
 30
0.0
 11
4186.0787829999999
 21
2830.4175260000002
 31
0.0
  0
LINE
  5
7A8D
  8
1
  6
CONTINUOUS
 10
4116.078782999999
 20
2680.4175260000002
 30
0.0
 11
4186.0787829999999
 21
2680.4175260000002
 31
0.0
  0
LINE
  5
7A8E
  8
1
  6
CONTINUOUS
 10
4116.078782999999
 20
2830.4175260000002
 30
0.0
 11
4116.078782999999
 21
2680.4175260000002
 31
0.0
  0
LINE
  5
7A8F
  8
1
  6
CONTINUOUS
 10
4186.0787829999999
 20
2830.4175260000002
 30
0.0
 11
4186.0787829999999
 21
2680.4175260000002
 31
0.0
  0
LINE
  5
7A90
  8
1
  6
CONTINUOUS
 10
4226.0787829999999
 20
3805.4175260000002
 30
0.0
 11
4076.078782999999
 21
3805.4175260000002
 31
0.0
  0
LINE
  5
7A91
  8
1
  6
CONTINUOUS
 10
4116.078782999999
 20
3419.4175260000002
 30
0.0
 11
4186.0787829999999
 21
3419.4175260000002
 31
0.0
  0
LINE
  5
7A92
  8
1
  6
CONTINUOUS
 10
4936.0787829999999
 20
3745.4175260000002
 30
0.0
 11
4936.0787829999999
 21
2555.4175260000002
 31
0.0
  0
LINE
  5
7A93
  8
1
  6
CONTINUOUS
 10
4988.0787829999999
 20
2555.4175260000002
 30
0.0
 11
4988.0787829999999
 21
2455.4175260000002
 31
0.0
  0
LINE
  5
7A94
  8
1
  6
CONTINUOUS
 10
2212.4155509279649
 20
5599.4061322320413
 30
0.0
 11
1387.4155509279649
 21
6199.4061322320413
 31
0.0
  0
LINE
  5
7A95
  8
1
  6
CONTINUOUS
 10
2212.4155509279649
 20
6199.4061322320413
 30
0.0
 11
1387.4155509279649
 21
5599.4061322320413
 31
0.0
  0
LINE
  5
7A96
  8
1
  6
CONTINUOUS
 10
1387.4155509279649
 20
6199.4061322320413
 30
0.0
 11
2751.9655509279651
 21
6199.4061322320413
 31
0.0
  0
LINE
  5
7A97
  8
1
  6
CONTINUOUS
 10
1387.4155509279649
 20
5599.4061322320413
 30
0.0
 11
2751.9655509279651
 21
5599.4061322320413
 31
0.0
  0
LINE
  5
7A98
  8
1
  6
CONTINUOUS
 10
1094.4155509279649
 20
6251.4061322320413
 30
0.0
 11
2694.4155509279649
 21
6251.4061322320413
 31
0.0
  0
LINE
  5
7A99
  8
1
  6
CONTINUOUS
 10
1114.4155509279649
 20
5339.4061322320413
 30
0.0
 11
2594.4155509279649
 21
5339.4061322320413
 31
0.0
  0
LINE
  5
7A9A
  8
1
  6
CONTINUOUS
 10
1114.4155509279649
 20
5489.4061322320413
 30
0.0
 11
2594.4155509279649
 21
5489.4061322320413
 31
0.0
  0
LINE
  5
7A9B
  8
1
  6
CONTINUOUS
 10
2374.4155509279649
 20
5449.4061322320413
 30
0.0
 11
1974.4155509279649
 21
5449.4061322320413
 31
0.0
  0
LINE
  5
7A9C
  8
1
  6
CONTINUOUS
 10
2374.4155509279649
 20
5379.4061322320413
 30
0.0
 11
1974.4155509279649
 21
5379.4061322320413
 31
0.0
  0
LINE
  5
7A9D
  8
1
  6
CONTINUOUS
 10
1109.795550927965
 20
6022.4061322320422
 30
0.0
 11
1387.4155509279649
 21
6022.4061322320422
 31
0.0
  0
LINE
  5
7A9E
  8
1
  6
CONTINUOUS
 10
1109.795550927965
 20
5537.4061322320422
 30
0.0
 11
1433.795550927965
 21
5537.4061322320422
 31
0.0
  0
LINE
  5
7A9F
  8
1
  6
CONTINUOUS
 10
1346.7955509279641
 20
5449.4061322320413
 30
0.0
 11
1196.795550927965
 21
5449.4061322320413
 31
0.0
  0
LINE
  5
7AA0
  8
1
  6
CONTINUOUS
 10
1346.7955509279641
 20
5379.4061322320413
 30
0.0
 11
1196.795550927965
 21
5379.4061322320413
 31
0.0
  0
LINE
  5
7AA1
  8
1
  6
CONTINUOUS
 10
1109.795550927965
 20
5537.4061322320422
 30
0.0
 11
1109.795550927965
 21
6022.4061322320422
 31
0.0
  0
LINE
  5
7AA2
  8
1
  6
CONTINUOUS
 10
1094.4155509279649
 20
6251.4061322320413
 30
0.0
 11
1094.4155509279649
 21
5431.4061322320413
 31
0.0
  0
LINE
  5
7AA3
  8
1
  6
CONTINUOUS
 10
1094.4155509279649
 20
5431.4061322320413
 30
0.0
 11
1196.795550927965
 21
5431.4061322320413
 31
0.0
  0
LINE
  5
7AA4
  8
1
  6
CONTINUOUS
 10
1114.4155509279649
 20
5489.4061322320413
 30
0.0
 11
1114.4155509279649
 21
5339.4061322320413
 31
0.0
  0
LINE
  5
7AA5
  8
1
  6
CONTINUOUS
 10
1196.795550927965
 20
5379.4061322320413
 30
0.0
 11
1196.795550927965
 21
5449.4061322320413
 31
0.0
  0
LINE
  5
7AA6
  8
1
  6
CONTINUOUS
 10
1346.7955509279641
 20
5431.4061322320413
 30
0.0
 11
1974.4155509279649
 21
5431.4061322320413
 31
0.0
  0
LINE
  5
7AA7
  8
1
  6
CONTINUOUS
 10
1387.4155509279649
 20
5599.4061322320413
 30
0.0
 11
1387.4155509279649
 21
6199.4061322320413
 31
0.0
  0
LINE
  5
7AA8
  8
1
  6
CONTINUOUS
 10
1292.795550927965
 20
5449.4061322320413
 30
0.0
 11
1292.795550927965
 21
5537.4061322320422
 31
0.0
  0
LINE
  5
7AA9
  8
1
  6
CONTINUOUS
 10
1250.795550927965
 20
5449.4061322320413
 30
0.0
 11
1250.795550927965
 21
5537.4061322320422
 31
0.0
  0
LINE
  5
7AAA
  8
1
  6
CONTINUOUS
 10
1346.7955509279641
 20
5379.4061322320413
 30
0.0
 11
1346.7955509279641
 21
5449.4061322320413
 31
0.0
  0
LINE
  5
7AAB
  8
1
  6
CONTINUOUS
 10
1433.795550927965
 20
5537.4061322320422
 30
0.0
 11
1433.795550927965
 21
5599.4061322320413
 31
0.0
  0
LINE
  5
7AAC
  8
1
  6
CONTINUOUS
 10
1974.4155509279649
 20
5379.4061322320413
 30
0.0
 11
1974.4155509279649
 21
5449.4061322320413
 31
0.0
  0
LINE
  5
7AAD
  8
1
  6
CONTINUOUS
 10
2374.4155509279649
 20
5431.4061322320413
 30
0.0
 11
2694.4155509279649
 21
5431.4061322320413
 31
0.0
  0
LINE
  5
7AAE
  8
1
  6
CONTINUOUS
 10
2212.4155509279649
 20
5599.4061322320413
 30
0.0
 11
2212.4155509279649
 21
6199.4061322320413
 31
0.0
  0
LINE
  5
7AAF
  8
1
  6
CONTINUOUS
 10
2153.4155509279649
 20
5449.4061322320413
 30
0.0
 11
2153.4155509279649
 21
5599.4061322320413
 31
0.0
  0
LINE
  5
7AB0
  8
1
  6
CONTINUOUS
 10
2195.4155509279649
 20
5449.4061322320413
 30
0.0
 11
2195.4155509279649
 21
5599.4061322320413
 31
0.0
  0
LINE
  5
7AB1
  8
1
  6
CONTINUOUS
 10
2374.4155509279649
 20
5379.4061322320413
 30
0.0
 11
2374.4155509279649
 21
5449.4061322320413
 31
0.0
  0
LINE
  5
7AB2
  8
1
  6
CONTINUOUS
 10
2751.9655509279651
 20
5599.4061322320413
 30
0.0
 11
2751.9655509279651
 21
6199.4061322320413
 31
0.0
  0
LINE
  5
7AB3
  8
1
  6
CONTINUOUS
 10
2694.4155509279649
 20
5599.4061322320413
 30
0.0
 11
2694.4155509279649
 21
5431.4061322320413
 31
0.0
  0
LINE
  5
7AB4
  8
1
  6
CONTINUOUS
 10
2594.4155509279649
 20
5339.4061322320413
 30
0.0
 11
2594.4155509279649
 21
5489.4061322320413
 31
0.0
  0
LINE
  5
7AB5
  8
1
  6
CONTINUOUS
 10
2694.4155509279649
 20
6251.4061322320413
 30
0.0
 11
2694.4155509279649
 21
6199.4061322320413
 31
0.0
  0
LINE
  5
7AB6
  8
2
  6
CENTER
 10
1021.300467927964
 20
5899.4061322320413
 30
0.0
 11
2845.091341927965
 21
5899.4061322320413
 31
0.0
  0
LINE
  5
7AB7
  8
2
  6
CENTER
 10
4636.0787829999999
 20
3833.0671980000002
 30
0.0
 11
4636.0787829999999
 21
2275.6901349999998
 31
0.0
  0
LINE
  5
7AB8
  8
2
  6
CENTER
 10
2174.4155509279649
 20
3907.1949949999998
 30
0.0
 11
2174.4155509279649
 21
2367.7718949999999
 31
0.0
  0
LINE
  5
7AB9
  8
2
  6
CENTER
 10
2956.1085469279651
 20
3150.4175260000002
 30
0.0
 11
1234.0116669279651
 21
3150.4175260000002
 31
0.0
  0
LINE
  5
7AD9
  8
4
  6
CONTINUOUS
 10
5550.0
 20
1500.0
 30
0.0
 11
5550.0
 21
900.0
 31
0.0
  0
LINE
  5
7ADA
  8
4
  6
CONTINUOUS
 10
3450.0
 20
1500.0
 30
0.0
 11
3450.0
 21
900.0
 31
0.0
  0
LINE
  5
7ADB
  8
4
  6
CONTINUOUS
 10
1950.0
 20
1500.0
 30
0.0
 11
1950.0
 21
900.0
 31
0.0
  0
LINE
  5
7ADE
  8
4
  6
CONTINUOUS
 10
1950.0
 20
900.0
 30
0.0
 11
5550.0
 21
900.0
 31
0.0
  0
LINE
  5
7ADF
  8
4
  6
CONTINUOUS
 10
1950.0
 20
1200.0
 30
0.0
 11
5550.0
 21
1200.0
 31
0.0
  0
TEXT
  5
7AE0
  8
4
  6
CONTINUOUS
 10
2065.5062429999989
 20
1294.6290779999999
 30
0.0
 40
150.0
  1
機器名称
  0
TEXT
  5
7AE1
  8
4
  6
CONTINUOUS
 10
2058.7743179999989
 20
964.9354699999999
 30
0.0
 40
150.0
  1
機器型番
  0
TEXT
  5
7AE2
  8
4
  6
CONTINUOUS
 10
3533.0362359999999
 20
1267.7153069999999
 30
0.0
 40
150.0
  1
ミツヤ多翼送風機
  0
TEXT
  5
7AE3
  8
4
  6
CONTINUOUS
 10
3559.9634869999991
 20
951.47875299999987
 30
0.0
 40
150.0
  1
MF#5-4
  0
TEXT
  5
7AE5
  8
4
  6
CONTINUOUS
 10
2714.3572960000001
 20
7150.2865239999992
 30
0.0
 40
162.0
  1
床置ベット
  0
TEXT
  5
7AE6
  8
4
  6
CONTINUOUS
 10
948.50278000000014
 20
7601.6429289999996
 30
0.0
 40
216.0
  1
ベルト駆動式片吸両片持多翼ファン
  0
LINE
  5
7AE7
  8
4
  6
CONTINUOUS
 10
750.0
 20
7408.2262629999996
 30
0.0
 11
5550.0
 21
7408.2262629999996
 31
0.0
  0
LINE
  5
7AE8
  8
4
  6
CONTINUOUS
 10
750.0
 20
8008.2262629999996
 30
0.0
 11
5550.0
 21
8008.2262629999996
 31
0.0
  0
LINE
  5
7AE9
  8
4
  6
CONTINUOUS
 10
1950.0
 20
1500.0
 30
0.0
 11
5550.0
 21
1500.0
 31
0.0
  0
LINE
  5
7AEA
  8
4
  6
CONTINUOUS
 10
750.0
 20
8008.2262629999996
 30
0.0
 11
750.0
 21
7408.2262629999996
 31
0.0
  0
TEXT
  5
7AEB
  8
4
  6
CONTINUOUS
 10
1406.7807999999991
 20
7146.9584329999998
 30
0.0
 40
162.0
  1
右回転上向
  0
TEXT
  5
7AEC
  8
4
  6
CONTINUOUS
 10
4406.9086779999989
 20
8118.1832439999989
 30
0.0
 40
168.0
  1
No.
  0
TEXT
  5
7AED
  8
4
  6
CONTINUOUS
 10
3933.8881879999999
 20
7150.2865239999992
 30
0.0
 40
162.0
  1
縮尺：1/30
  0
LINE
  5
7AEE
  8
4
  6
CONTINUOUS
 10
5550.0
 20
8008.2262629999996
 30
0.0
 11
5550.0
 21
7408.2262629999996
 31
0.0
  0
LINE
  5
7AF0
  8
4
  6
CONTINUOUS
 10
4321.8522670000002
 20
8043.7907490000007
 30
0.0
 11
4321.8522670000002
 21
8359.9567849999985
 31
0.0
  0
LINE
  5
7AF1
  8
4
  6
CONTINUOUS
 10
4321.8522670000002
 20
8359.9567849999985
 30
0.0
 11
5550.0
 21
8359.9567849999985
 31
0.0
  0
LINE
  5
7AF2
  8
4
  6
CONTINUOUS
 10
5550.0
 20
8359.9567849999985
 30
0.0
 11
5550.0
 21
8043.7907490000007
 31
0.0
  0
LINE
  5
7AF3
  8
4
  6
CONTINUOUS
 10
5550.0
 20
8043.7907490000007
 30
0.0
 11
4321.8522670000002
 21
8043.7907490000007
 31
0.0
  0
DIMENSION
  5
7B0B
  8
3
  6
CONTINUOUS
  2
*D1
 10
1387.4155509279649
 20
3906.3899549999992
 30
0.0
 11
1799.874560927964
 21
3906.3899549999992
 31
0.0
 70
   128
 13
2212.4155509279649
 23
3745.4175260000002
 33
0.0
 14
1387.4155509279649
 24
3745.4175260000002
 34
0.0
1001
ACAD
1000
DSTYLE
1002
{
1070
   287
1070
     3
1070
    40
1040
30.0
1070
   143
1040
0.039
1070
   172
1070
     1
1070
   271
1070
     0
1070
   279
1070
     0
1070
   288
1070
     1
1002
}
  0
DIMENSION
  5
7B18
  8
3
  6
CONTINUOUS
  2
*D2
 10
2174.4155509279649
 20
4093.8685879999998
 30
0.0
 11
1799.874560927964
 21
4093.8685879999998
 31
0.0
 70
   128
 13
1387.4155509279649
 23
3745.4175260000002
 33
0.0
 14
2174.4155509279649
 24
3907.1949949999998
 34
0.0
1001
ACAD
1000
DSTYLE
1002
{
1070
   287
1070
     3
1070
    40
1040
30.0
1070
   143
1040
0.039
1070
   172
1070
     1
1070
   271
1070
     0
1070
   279
1070
     0
1070
   288
1070
     1
1002
}
  0
DIMENSION
  5
7B31
  8
3
  6
CONTINUOUS
  2
*D3
 10
2991.7873009279651
 20
3150.4175260000002
 30
0.0
 11
2991.7873009279651
 21
3437.6933330000002
 31
0.0
 70
   128
 13
2254.9155509279649
 23
3745.4175260000002
 33
0.0
 14
2901.2547119279652
 24
3150.4175260000002
 34
0.0
 50
90.0
1001
ACAD
1000
DSTYLE
1002
{
1070
   287
1070
     3
1070
    40
1040
30.0
1070
   143
1040
0.039
1070
   172
1070
     1
1070
   271
1070
     0
1070
   279
1070
     0
1070
   288
1070
     1
1002
}
  0
DIMENSION
  5
7B3D
  8
3
  6
CONTINUOUS
  2
*D4
 10
2991.7873009279651
 20
2455.4175260000002
 30
0.0
 11
2916.7873009279642
 21
2802.9175260000002
 31
0.0
 70
     0
 13
2901.2547119279652
 23
3150.4175260000002
 33
0.0
 14
2694.4155509279649
 24
2455.4175260000002
 34
0.0
 50
90.0
1001
ACAD
1000
DSTYLE
1002
{
1070
   287
1070
     4
1070
    40
1040
30.0
1070
    75
1070
     1
1070
   143
1040
0.039
1070
   172
1070
     1
1070
   271
1070
     0
1070
   279
1070
     1
1070
   288
1070
     1
1002
}
  0
DIMENSION
  5
7B4A
  8
3
  6
CONTINUOUS
  2
*D5
 10
2174.4155509279649
 20
2252.1665959999991
 30
0.0
 11
1683.9941589279649
 21
2252.1665959999991
 31
0.0
 70
   128
 13
1094.4155509279649
 23
2455.4175260000002
 33
0.0
 14
2174.4155509279649
 24
2367.7718949999999
 34
0.0
1001
ACAD
1000
DSTYLE
1002
{
1070
   287
1070
     3
1070
    40
1040
30.0
1070
   143
1040
0.039
1070
   172
1070
     1
1070
   271
1070
     0
1070
   279
1070
     0
1070
   288
1070
     1
1002
}
  0
DIMENSION
  5
7B56
  8
3
  6
CONTINUOUS
  2
*D6
 10
2694.4155509279649
 20
2252.1665959999991
 30
0.0
 11
2434.4155509279649
 21
2327.166596
 31
0.0
 70
     0
 13
2174.4155509279649
 23
2367.7718949999999
 33
0.0
 14
2694.4155509279649
 24
2455.4175260000002
 34
0.0
1001
ACAD
1000
DSTYLE
1002
{
1070
   287
1070
     4
1070
    40
1040
30.0
1070
    75
1070
     1
1070
   143
1040
0.039
1070
   172
1070
     1
1070
   271
1070
     0
1070
   279
1070
     1
1070
   288
1070
     1
1002
}
  0
DIMENSION
  5
7B63
  8
3
  6
CONTINUOUS
  2
*D7
 10
4936.0787829999999
 20
3851.2491730000002
 30
0.0
 11
4640.519076999999
 21
3851.2491730000002
 31
0.0
 70
   128
 13
4336.0787829999999
 23
3745.4175260000002
 33
0.0
 14
4936.0787829999999
 24
3745.4175260000002
 34
0.0
1001
ACAD
1000
DSTYLE
1002
{
1070
   287
1070
     3
1070
    40
1040
30.0
1070
   143
1040
0.039
1070
   172
1070
     1
1070
   271
1070
     0
1070
   279
1070
     0
1070
   288
1070
     1
1002
}
  0
LINE
  5
7B64
  8
1
  6
CONTINUOUS
 10
4940.0787829999999
 20
3575.4175259999988
 30
0.0
 11
4940.0787829999999
 21
2725.4175260000002
 31
0.0
  0
DIMENSION
  5
7B73
  8
3
  6
CONTINUOUS
  2
*D8
 10
5192.3305380000011
 20
2725.4175259999988
 30
0.0
 11
5192.3305380000002
 21
3134.4190579999999
 31
0.0
 70
   128
 13
4940.0787829999999
 23
3575.4175259999988
 33
0.0
 14
4940.0787829999999
 24
2725.4175260000002
 34
0.0
 50
90.0
1001
ACAD
1000
DSTYLE
1002
{
1070
   287
1070
     3
1070
     3
1000
φ<>
1070
    40
1040
30.0
1070
   143
1040
0.039
1070
   172
1070
     1
1070
   271
1070
     0
1070
   279
1070
     0
1070
   288
1070
     1
1002
}
  0
DIMENSION
  5
7B82
  8
3
  6
CONTINUOUS
  2
*D9
 10
4636.0787829999999
 20
4038.7278049999991
 30
0.0
 11
4788.0787829999999
 21
4114.7563707779673
 31
0.0
 70
   128
 13
4940.0787829999999
 23
3575.4175259999988
 33
0.0
 14
4636.0787829999999
 24
3993.6108259999992
 34
0.0
1001
ACAD
1000
DSTYLE
1002
{
1070
   288
1070
     1
1070
   172
1070
     1
1070
    40
1040
30.0
1070
   271
1070
     0
1070
   143
1040
0.039
1002
}
  0
DIMENSION
  5
7B8E
  8
3
  6
CONTINUOUS
  2
*D10
 10
4076.078782999999
 20
4038.7278049999991
 30
0.0
 11
4356.0787829999999
 21
4188.7278050000004
 31
0.0
 70
     0
  1
MAX\P610
 13
4636.0787829999999
 23
3993.6108259999992
 33
0.0
 14
4076.078782999999
 24
3805.4175260000002
 34
0.0
1001
ACAD
1000
DSTYLE
1002
{
1070
   287
1070
     4
1070
    40
1040
30.0
1070
    75
1070
     1
1070
   143
1040
0.039
1070
   172
1070
     1
1070
   271
1070
     0
1070
   279
1070
     1
1070
   288
1070
     1
1002
}
  0
DIMENSION
  5
7B9B
  8
3
  6
CONTINUOUS
  2
*D11
 10
4636.0787829999999
 20
2230.5779199999988
 30
0.0
 11
4430.3644969999987
 21
2230.5779199999988
 31
0.0
 70
   128
 13
4168.0787829999999
 23
2455.4175260000002
 33
0.0
 14
4636.0787829999999
 24
2275.6901349999998
 34
0.0
1001
ACAD
1000
DSTYLE
1002
{
1070
   287
1070
     3
1070
    40
1040
30.0
1070
   143
1040
0.039
1070
   172
1070
     1
1070
   271
1070
     0
1070
   279
1070
     0
1070
   288
1070
     1
1002
}
  0
DIMENSION
  5
7BA9
  8
3
  6
CONTINUOUS
  2
*D12
 10
4988.0787829999999
 20
2230.5779199999988
 30
0.0
 11
4820.6538499999997
 21
2229.2685479999991
 31
0.0
 70
   128
 13
4636.0787829999999
 23
2275.6901349999998
 33
0.0
 14
4988.0787829999999
 24
2455.4175260000002
 34
0.0
1001
ACAD
1000
DSTYLE
1002
{
1070
   287
1070
     4
1070
    40
1040
30.0
1070
    75
1070
     1
1070
   143
1040
0.039
1070
   172
1070
     1
1070
   271
1070
     0
1070
   279
1070
     1
1070
   288
1070
     1
1002
}
  0
DIMENSION
  5
7BCD
  8
3
  6
CONTINUOUS
  2
*D13
 10
2694.4155509279649
 20
6444.5438552320411
 30
0.0
 11
1837.937556927965
 21
6444.5438552320411
 31
0.0
 70
   128
 13
1094.4155509279649
 23
6251.4061322320413
 33
0.0
 14
2694.4155509279649
 24
6251.4061322320413
 34
0.0
1001
ACAD
1000
DSTYLE
1002
{
1070
   287
1070
     3
1070
    40
1040
30.0
1070
   143
1040
0.039
1070
   172
1070
     1
1070
   271
1070
     0
1070
   279
1070
     0
1070
   288
1070
     1
1002
}
  0
DIMENSION
  5
7BDA
  8
3
  6
CONTINUOUS
  2
*D14
 10
3030.6196789279661
 20
5431.4061322320413
 30
0.0
 11
3030.6196789279652
 21
5868.0346702320421
 31
0.0
 70
   128
 13
2694.4155509279649
 23
6251.4061322320413
 33
0.0
 14
2694.4155509279649
 24
5431.4061322320413
 34
0.0
 50
90.0
1001
ACAD
1000
DSTYLE
1002
{
1070
   287
1070
     3
1070
    40
1040
30.0
1070
   143
1040
0.039
1070
   172
1070
     1
1070
   271
1070
     0
1070
   279
1070
     0
1070
   288
1070
     1
1002
}
  0
DIMENSION
  5
7BE7
  8
3
  6
CONTINUOUS
  2
*D15
 10
3231.5069849279662
 20
2455.4175259999988
 30
0.0
 11
3231.5069849279648
 21
3110.1763919999999
 31
0.0
 70
   128
 13
2269.9155509279649
 23
3745.4175260000002
 33
0.0
 14
2694.4155509279649
 24
2455.4175260000002
 34
0.0
 50
90.0
1001
ACAD
1000
DSTYLE
1002
{
1070
   287
1070
     3
1070
    40
1040
30.0
1070
   143
1040
0.039
1070
   172
1070
     1
1070
   271
1070
     0
1070
   279
1070
     0
1070
   288
1070
     1
1002
}
  0
DIMENSION
  5
7BF8
  8
3
  6
CONTINUOUS
  2
*D16
 10
2750.4061980348388
 20
4093.8685879999998
 30
0.0
 11
2462.4108744814021
 21
4168.8685880000003
 31
0.0
 70
     0
 13
2174.4155509279649
 23
3907.1949949999998
 33
0.0
 14
2750.4061980348388
 24
3150.4175260000002
 34
0.0
1001
ACAD
1000
DSTYLE
1002
{
1070
   287
1070
     4
1070
    40
1040
30.0
1070
    75
1070
     1
1070
   143
1040
0.039
1070
   172
1070
     1
1070
   271
1070
     0
1070
   279
1070
     1
1070
   288
1070
     1
1002
}
  0
LINE
  5
7C94
  8
1
  6
CONTINUOUS
 10
1674.4155509279649
 20
3555.4175260000002
 30
0.0
 11
2674.4155509279649
 21
3555.4175260000002
 31
0.0
  0
LINE
  5
7C95
  8
1
 10
1674.4155509279649
 20
3555.4175260000002
 30
0.0
 11
1674.4155509279649
 21
2555.4175260000002
 31
0.0
  0
LINE
  5
7C96
  8
1
 10
2674.4155509279649
 20
3555.4175260000002
 30
0.0
 11
2674.4155509279649
 21
2555.4175260000002
 31
0.0
  0
ENDSEC
  0
EOF
