  0
SECTION
  2
HEADER
  9
$ACADVER
  1
AC1009
  9
$INSBASE
 10
0.0
 20
0.0
 30
0.0
  9
$EXTMIN
 10
750.0
 20
900.0
 30
0.0
  9
$EXTMAX
 10
5550.0
 20
8359.9567849999985
 30
0.0
  9
$LIMMIN
 10
0.0
 20
0.0
  9
$LIMMAX
 10
297.0
 20
210.0
  9
$ORTHOMODE
 70
     0
  9
$REGENMODE
 70
     1
  9
$FILLMODE
 70
     0
  9
$QTEXTMODE
 70
     0
  9
$MIRRTEXT
 70
     1
  9
$DRAGMODE
 70
     2
  9
$LTSCALE
 40
100.0
  9
$OSMODE
 70
    37
  9
$ATTMODE
 70
     1
  9
$TEXTSIZE
 40
180.0
  9
$TRACEWID
 40
0.05
  9
$TEXTSTYLE
  7
STANDARD
  9
$CLAYER
  8
3
  9
$CELTYPE
  6
BYLAYER
  9
$CECOLOR
 62
   256
  9
$DIMSCALE
 40
30.0
  9
$DIMASZ
 40
2.0
  9
$DIMEXO
 40
0.5
  9
$DIMDLI
 40
10.0
  9
$DIMRND
 40
0.0
  9
$DIMDLE
 40
0.0
  9
$DIMEXE
 40
1.0
  9
$DIMTP
 40
1.0
  9
$DIMTM
 40
1.0
  9
$DIMTXT
 40
3.0
  9
$DIMCEN
 40
0.0
  9
$DIMTSZ
 40
0.0
  9
$DIMTOL
 70
     0
  9
$DIMLIM
 70
     0
  9
$DIMTIH
 70
     0
  9
$DIMTOH
 70
     0
  9
$DIMSE1
 70
     0
  9
$DIMSE2
 70
     0
  9
$DIMTAD
 70
     1
  9
$DIMZIN
 70
     8
  9
$DIMBLK
  1

  9
$DIMASO
 70
     1
  9
$DIMSHO
 70
     1
  9
$DIMPOST
  1

  9
$DIMAPOST
  1

  9
$DIMALT
 70
     0
  9
$DIMALTD
 70
     2
  9
$DIMALTF
 40
0.039
  9
$DIMLFAC
 40
1.0
  9
$DIMTOFL
 70
     1
  9
$DIMTVP
 40
0.0
  9
$DIMTIX
 70
     0
  9
$DIMSOXD
 70
     0
  9
$DIMSAH
 70
     1
  9
$DIMBLK1
  1
OPEN
  9
$DIMBLK2
  1
OPEN
  9
$DIMSTYLE
  2
IGA
  9
$DIMCLRD
 70
     0
  9
$DIMCLRE
 70
     0
  9
$DIMCLRT
 70
     0
  9
$DIMTFAC
 40
10.0
  9
$DIMGAP
 40
1.0
  9
$LUNITS
 70
     2
  9
$LUPREC
 70
     3
  9
$SKETCHINC
 40
0.1
  9
$FILLETRAD
 40
0.0
  9
$AUNITS
 70
     0
  9
$AUPREC
 70
     0
  9
$MENU
  1
acad
  9
$ELEVATION
 40
0.0
  9
$PELEVATION
 40
0.0
  9
$THICKNESS
 40
0.0
  9
$LIMCHECK
 70
     0
  9
$BLIPMODE
 70
     0
  9
$CHAMFERA
 40
0.5
  9
$CHAMFERB
 40
0.5
  9
$SKPOLY
 70
     0
  9
$TDCREATE
 40
2450746.3877281249
  9
$TDUPDATE
 40
2454953.775155521
  9
$TDINDWG
 40
0.0267611458
  9
$TDUSRTIMER
 40
0.0267611458
  9
$USRTIMER
 70
     1
  9
$ANGBASE
 50
0.0
  9
$ANGDIR
 70
     0
  9
$PDMODE
 70
     0
  9
$PDSIZE
 40
0.0
  9
$PLINEWID
 40
0.0
  9
$COORDS
 70
     1
  9
$SPLFRAME
 70
     0
  9
$SPLINETYPE
 70
     6
  9
$SPLINESEGS
 70
     8
  9
$ATTDIA
 70
     0
  9
$ATTREQ
 70
     1
  9
$HANDLING
 70
 10241
  9
$HANDSEED
  5
7D9B
  9
$SURFTAB1
 70
     6
  9
$SURFTAB2
 70
     6
  9
$SURFTYPE
 70
     6
  9
$SURFU
 70
     6
  9
$SURFV
 70
     6
  9
$UCSNAME
  2

  9
$UCSORG
 10
0.0
 20
0.0
 30
0.0
  9
$UCSXDIR
 10
1.0
 20
0.0
 30
0.0
  9
$UCSYDIR
 10
0.0
 20
1.0
 30
0.0
  9
$PUCSNAME
  2

  9
$PUCSORG
 10
0.0
 20
0.0
 30
0.0
  9
$PUCSXDIR
 10
1.0
 20
0.0
 30
0.0
  9
$PUCSYDIR
 10
0.0
 20
1.0
 30
0.0
  9
$USERI1
 70
     0
  9
$USERI2
 70
     0
  9
$USERI3
 70
     0
  9
$USERI4
 70
     0
  9
$USERI5
 70
     0
  9
$USERR1
 40
0.0
  9
$USERR2
 40
0.0
  9
$USERR3
 40
0.0
  9
$USERR4
 40
0.0
  9
$USERR5
 40
0.0
  9
$WORLDVIEW
 70
     1
  9
$SHADEDGE
 70
     3
  9
$SHADEDIF
 70
    70
  9
$TILEMODE
 70
     1
  9
$MAXACTVP
 70
    16
  9
$PLIMCHECK
 70
     0
  9
$PEXTMIN
 10
1.0000000000000000E+020
 20
1.0000000000000000E+020
 30
1.0000000000000000E+020
  9
$PEXTMAX
 10
-1.0000000000000000E+020
 20
-1.0000000000000000E+020
 30
-1.0000000000000000E+020
  9
$PLIMMIN
 10
0.0
 20
0.0
  9
$PLIMMAX
 10
12.0
 20
9.0
  9
$UNITMODE
 70
     0
  9
$VISRETAIN
 70
     0
  9
$PLINEGEN
 70
     0
  9
$PSLTSCALE
 70
     1
  0
ENDSEC
  0
SECTION
  2
TABLES
  0
TABLE
  2
VPORT
 70
     2
  0
VPORT
  2
*ACTIVE
 70
     0
 10
0.0
 20
0.0
 11
1.0
 21
1.0
 12
9438.1687158055174
 22
4629.9562499988788
 13
0.0
 23
0.0
 14
10.0
 24
10.0
 15
10.0
 25
10.0
 16
0.0
 26
0.0
 36
1.0
 17
0.0
 27
0.0
 37
0.0
 40
7517.2452868940854
 41
3.1666666666666661
 42
50.0
 43
0.0
 44
0.0
 50
0.0
 51
0.0
 71
     0
 72
   100
 73
     1
 74
     0
 75
     0
 76
     0
 77
     0
 78
     0
  0
ENDTAB
  0
TABLE
  2
LTYPE
 70
     2
  0
LTYPE
  2
CONTINUOUS
 70
     0
  3
Solid line
 72
    65
 73
     0
 40
0.0
  0
LTYPE
  2
CENTER
 70
     0
  3
____ _ ____ _ ____ _ ____ _ ____ _ ____ _ ____ 
 72
    65
 73
     4
 40
2.0
 49
1.25
 49
-0.25
 49
0.25
 49
-0.25
  0
ENDTAB
  0
TABLE
  2
LAYER
 70
     6
  0
LAYER
  2
0
 70
     0
 62
     7
  6
CONTINUOUS
  0
LAYER
  2
3
 70
     0
 62
     2
  6
CONTINUOUS
  0
LAYER
  2
2
 70
     0
 62
     3
  6
CENTER
  0
LAYER
  2
1
 70
     0
 62
     4
  6
CONTINUOUS
  0
LAYER
  2
4
 70
     0
 62
     7
  6
CONTINUOUS
  0
LAYER
  2
DEFPOINTS
 70
     0
 62
     7
  6
CONTINUOUS
  0
ENDTAB
  0
TABLE
  2
STYLE
 70
     1
  0
STYLE
  2
STANDARD
 70
     0
 40
0.0
 41
1.0
 50
0.0
 71
     0
 42
180.0
  3
simplex.shx
  4
extfont.shx
  0
ENDTAB
  0
TABLE
  2
VIEW
 70
     0
  0
ENDTAB
  0
TABLE
  2
UCS
 70
     0
  0
ENDTAB
  0
TABLE
  2
APPID
 70
     1
  0
APPID
  2
ACAD
 70
     0
  0
ENDTAB
  0
TABLE
  2
DIMSTYLE
 70
     1
  0
DIMSTYLE
  2
IGA
 70
     0
  3

  4

  5

  6
OPEN
  7
OPEN
 40
2.0
 41
2.0
 42
0.5
 43
10.0
 44
1.0
 45
0.0
 46
0.0
 47
1.0
 48
1.0
140
3.0
141
0.0
142
0.0
143
0.03937
144
1.0
145
0.0
146
10.0
147
1.0
 71
     0
 72
     0
 73
     0
 74
     0
 75
     0
 76
     0
 77
     1
 78
     8
170
     0
171
     2
172
     0
173
     1
174
     0
175
     0
176
     0
177
     0
178
     0
  0
ENDTAB
  0
ENDSEC
  0
SECTION
  2
BLOCKS
  0
BLOCK
  8
0
  2
$MODEL_SPACE
 70
     0
 10
0.0
 20
0.0
 30
0.0
  3
$MODEL_SPACE
  1

  0
ENDBLK
  5
1B
  8
0
  0
BLOCK
 67
     1
  8
0
  2
$PAPER_SPACE
 70
     0
 10
0.0
 20
0.0
 30
0.0
  3
$PAPER_SPACE
  1

  0
ENDBLK
  5
18
 67
     1
  8
0
  0
BLOCK
  8
0
  2
_OPEN
 70
     0
 10
0.0
 20
0.0
 30
0.0
  3
_OPEN
  1

  0
LINE
  5
7ADF
  8
0
  6
BYBLOCK
 62
     0
 10
-1.0
 20
0.166667
 30
0.0
 11
0.0
 21
0.0
 31
0.0
  0
LINE
  5
7AE0
  8
0
  6
BYBLOCK
 62
     0
 10
0.0
 20
0.0
 30
0.0
 11
-1.0
 21
-0.166667
 31
0.0
  0
LINE
  5
7AE1
  8
0
  6
BYBLOCK
 62
     0
 10
0.0
 20
0.0
 30
0.0
 11
-1.0
 21
0.0
 31
0.0
  0
ENDBLK
  5
7AE2
  8
0
  0
BLOCK
  8
0
  2
*D1
 70
     1
 10
0.0
 20
0.0
 30
0.0
  3
*D1
  1

  0
LINE
  5
7CFF
  8
3
  6
CONTINUOUS
 62
     0
 10
2966.478372
 20
3935.8170439999999
 30
0.0
 11
3248.3336450000011
 21
3935.817043999999
 31
0.0
  0
LINE
  5
7D00
  8
3
  6
CONTINUOUS
 62
     0
 10
2966.478372
 20
3110.8170439999999
 30
0.0
 11
3248.3336450000011
 21
3110.8170439999999
 31
0.0
  0
LINE
  5
7D01
  8
3
  6
CONTINUOUS
 62
     0
 10
3218.3336450000002
 20
3875.817043999999
 30
0.0
 11
3218.3336450000002
 21
3170.8170439999999
 31
0.0
  0
INSERT
  5
7D02
  8
3
  6
CONTINUOUS
 62
     0
  2
_OPEN
 10
3218.3336450000002
 20
3935.817043999999
 30
0.0
 41
60.0
 42
60.0
 43
60.0
 50
90.0
  0
INSERT
  5
7D03
  8
3
  6
CONTINUOUS
 62
     0
  2
_OPEN
 10
3218.3336450000002
 20
3110.8170439999999
 30
0.0
 41
60.0
 42
60.0
 43
60.0
 50
270.0
  0
TEXT
  8
3
  40
90
  5
7D8A
  62
0
  72
0
  71
0
 10
2963.33
 20
3359.27
 30
0.000000
  1
825
  0
POINT
  5
7D05
  8
DEFPOINTS
  6
CONTINUOUS
 62
     0
 10
2951.478372
 20
3935.8170439999999
 30
0.0
  0
POINT
  5
7D06
  8
DEFPOINTS
  6
CONTINUOUS
 62
     0
 10
2951.478372
 20
3110.8170439999999
 30
0.0
  0
POINT
  5
7D07
  8
DEFPOINTS
  6
CONTINUOUS
 62
     0
 10
3218.3336450000002
 20
3110.8170439999999
 30
0.0
  0
ENDBLK
  5
7AEF
  8
0
  0
BLOCK
  8
0
  2
*D2
 70
     1
 10
0.0
 20
0.0
 30
0.0
  3
*D2
  1

  0
LINE
  5
7D08
  8
3
  6
CONTINUOUS
 62
     0
 10
2966.478372
 20
3935.8170439999999
 30
0.0
 11
3459.949403000001
 21
3935.817043999999
 31
0.0
  0
LINE
  5
7D09
  8
3
  6
CONTINUOUS
 62
     0
 10
3105.3246009999998
 20
3148.8170439999999
 30
0.0
 11
3459.949403000001
 21
3148.8170439999999
 31
0.0
  0
LINE
  5
7D0A
  8
3
  6
CONTINUOUS
 62
     0
 10
3429.949403000001
 20
3875.817043999999
 30
0.0
 11
3429.949403000001
 21
3208.8170439999999
 31
0.0
  0
INSERT
  5
7D0B
  8
3
  6
CONTINUOUS
 62
     0
  2
_OPEN
 10
3429.949403000001
 20
3935.817043999999
 30
0.0
 41
60.0
 42
60.0
 43
60.0
 50
90.0
  0
INSERT
  5
7D0C
  8
3
  6
CONTINUOUS
 62
     0
  2
_OPEN
 10
3429.949403000001
 20
3148.8170439999999
 30
0.0
 41
60.0
 42
60.0
 43
60.0
 50
270.0
  0
TEXT
  8
3
  40
90
  5
7D8B
  62
0
  72
0
  71
0
 10
3174.95
 20
3352.66
 30
0.000000
  1
787
  0
POINT
  5
7D0E
  8
DEFPOINTS
  6
CONTINUOUS
 62
     0
 10
2951.478372
 20
3935.8170439999999
 30
0.0
  0
POINT
  5
7D0F
  8
DEFPOINTS
  6
CONTINUOUS
 62
     0
 10
3090.3246009999998
 20
3148.8170439999999
 30
0.0
  0
POINT
  5
7D10
  8
DEFPOINTS
  6
CONTINUOUS
 62
     0
 10
3429.949403000001
 20
3148.8170439999999
 30
0.0
  0
ENDBLK
  5
7AFC
  8
0
  0
BLOCK
  8
0
  2
*D3
 70
     1
 10
0.0
 20
0.0
 30
0.0
  3
*D3
  1

  0
LINE
  5
7D11
  8
3
  6
CONTINUOUS
 62
     0
 10
2891.478372
 20
2453.8170439999999
 30
0.0
 11
3459.9494030000001
 21
2453.8170439999999
 31
0.0
  0
LINE
  5
7D12
  8
3
  6
CONTINUOUS
 62
     0
 10
3429.9494030000001
 20
3088.8170439999999
 30
0.0
 11
3429.9494030000001
 21
2513.8170439999999
 31
0.0
  0
INSERT
  5
7D13
  8
3
  6
CONTINUOUS
 62
     0
  2
_OPEN
 10
3429.9494030000001
 20
3148.8170439999999
 30
0.0
 41
60.0
 42
60.0
 43
60.0
 50
90.0
  0
INSERT
  5
7D14
  8
3
  6
CONTINUOUS
 62
     0
  2
_OPEN
 10
3429.9494030000001
 20
2453.8170439999999
 30
0.0
 41
60.0
 42
60.0
 43
60.0
 50
270.0
  0
TEXT
  8
3
  40
90
  5
7D8C
  62
0
  72
0
  71
0
 10
3174.95
 20
2642.02
 30
0.000000
  1
695
  0
POINT
  5
7D16
  8
DEFPOINTS
  6
CONTINUOUS
 62
     0
 10
3090.3246009999998
 20
3148.8170439999999
 30
0.0
  0
POINT
  5
7D17
  8
DEFPOINTS
  6
CONTINUOUS
 62
     0
 10
2876.478372
 20
2453.8170439999999
 30
0.0
  0
POINT
  5
7D18
  8
DEFPOINTS
  6
CONTINUOUS
 62
     0
 10
3429.9494030000001
 20
2453.8170439999999
 30
0.0
  0
ENDBLK
  5
7B08
  8
0
  0
BLOCK
  8
0
  2
*D4
 70
     1
 10
0.0
 20
0.0
 30
0.0
  3
*D4
  1

  0
LINE
  5
7D19
  8
3
  6
CONTINUOUS
 62
     0
 10
2966.478372
 20
3978.3170439999999
 30
0.0
 11
3698.0171220000011
 21
3978.317043999999
 31
0.0
  0
LINE
  5
7D1A
  8
3
  6
CONTINUOUS
 62
     0
 10
2891.478372
 20
2453.8170439999999
 30
0.0
 11
3698.0171220000002
 21
2453.8170439999999
 31
0.0
  0
LINE
  5
7D1B
  8
3
  6
CONTINUOUS
 62
     0
 10
3668.0171220000002
 20
3918.3170439999999
 30
0.0
 11
3668.0171220000002
 21
2513.8170439999999
 31
0.0
  0
INSERT
  5
7D1C
  8
3
  6
CONTINUOUS
 62
     0
  2
_OPEN
 10
3668.0171220000002
 20
3978.317043999999
 30
0.0
 41
60.0
 42
60.0
 43
60.0
 50
90.0
  0
INSERT
  5
7D1D
  8
3
  6
CONTINUOUS
 62
     0
  2
_OPEN
 10
3668.0171220000002
 20
2453.8170439999999
 30
0.0
 41
60.0
 42
60.0
 43
60.0
 50
270.0
  0
TEXT
  8
3
  40
90
  5
7D8D
  62
0
  72
0
  71
0
 10
3413.02
 20
3061.90
 30
0.000000
  1
1525
  0
POINT
  5
7D1F
  8
DEFPOINTS
  6
CONTINUOUS
 62
     0
 10
2951.478372
 20
3978.3170439999999
 30
0.0
  0
POINT
  5
7D20
  8
DEFPOINTS
  6
CONTINUOUS
 62
     0
 10
2876.478372
 20
2453.8170439999999
 30
0.0
  0
POINT
  5
7D21
  8
DEFPOINTS
  6
CONTINUOUS
 62
     0
 10
3668.0171220000002
 20
2453.8170439999999
 30
0.0
  0
ENDBLK
  5
7B15
  8
0
  0
BLOCK
  8
0
  2
*D5
 70
     1
 10
0.0
 20
0.0
 30
0.0
  3
*D5
  1

  0
LINE
  5
7D22
  8
3
  6
CONTINUOUS
 62
     0
 10
1276.478372
 20
2438.8170439999999
 30
0.0
 11
1276.478372
 21
2155.5662029999999
 31
0.0
  0
LINE
  5
7D23
  8
3
  6
CONTINUOUS
 62
     0
 10
2356.478372
 20
2273.789479
 30
0.0
 11
2356.478372
 21
2155.5662029999999
 31
0.0
  0
LINE
  5
7D24
  8
3
  6
CONTINUOUS
 62
     0
 10
1336.478372
 20
2185.5662029999999
 30
0.0
 11
2296.478372
 21
2185.5662029999999
 31
0.0
  0
INSERT
  5
7D25
  8
3
  6
CONTINUOUS
 62
     0
  2
_OPEN
 10
1276.478372
 20
2185.5662029999999
 30
0.0
 41
60.0
 42
60.0
 43
60.0
 50
180.0
  0
INSERT
  5
7D26
  8
3
  6
CONTINUOUS
 62
     0
  2
_OPEN
 10
2356.478372
 20
2185.5662029999999
 30
0.0
 41
60.0
 42
60.0
 43
60.0
  0
TEXT
  8
3
  40
90
  5
7D8E
  62
0
  72
0
  71
0
 10
1649.61
 20
2101.27
 30
0.000000
  1
1080
  0
POINT
  5
7D28
  8
DEFPOINTS
  6
CONTINUOUS
 62
     0
 10
1276.478372
 20
2453.8170439999999
 30
0.0
  0
POINT
  5
7D29
  8
DEFPOINTS
  6
CONTINUOUS
 62
     0
 10
2356.478372
 20
2288.789479
 30
0.0
  0
POINT
  5
7D2A
  8
DEFPOINTS
  6
CONTINUOUS
 62
     0
 10
2356.478372
 20
2185.5662029999999
 30
0.0
  0
ENDBLK
  5
7BFE
  8
0
  0
BLOCK
  8
0
  2
*D6
 70
     1
 10
0.0
 20
0.0
 30
0.0
  3
*D6
  1

  0
LINE
  5
7D2B
  8
3
  6
CONTINUOUS
 62
     0
 10
2876.478372
 20
2438.8170439999999
 30
0.0
 11
2876.478372
 21
2155.5662029999999
 31
0.0
  0
LINE
  5
7D2C
  8
3
  6
CONTINUOUS
 62
     0
 10
2416.478372
 20
2185.5662029999999
 30
0.0
 11
2816.478372
 21
2185.5662029999999
 31
0.0
  0
INSERT
  5
7D2D
  8
3
  6
CONTINUOUS
 62
     0
  2
_OPEN
 10
2356.478372
 20
2185.5662029999999
 30
0.0
 41
60.0
 42
60.0
 43
60.0
 50
180.0
  0
INSERT
  5
7D2E
  8
3
  6
CONTINUOUS
 62
     0
  2
_OPEN
 10
2876.478372
 20
2185.5662029999999
 30
0.0
 41
60.0
 42
60.0
 43
60.0
  0
TEXT
  8
3
  40
90
  5
7D8F
  62
0
  72
0
  71
0
 10
2436.48
 20
2101.27
 30
0.000000
  1
520
  0
POINT
  5
7D30
  8
DEFPOINTS
  6
CONTINUOUS
 62
     0
 10
2356.478372
 20
2288.789479
 30
0.0
  0
POINT
  5
7D31
  8
DEFPOINTS
  6
CONTINUOUS
 62
     0
 10
2876.478372
 20
2453.8170439999999
 30
0.0
  0
POINT
  5
7D32
  8
DEFPOINTS
  6
CONTINUOUS
 62
     0
 10
2876.478372
 20
2185.5662029999999
 30
0.0
  0
ENDBLK
  5
7C08
  8
0
  0
BLOCK
  8
0
  2
*D7
 70
     1
 10
0.0
 20
0.0
 30
0.0
  3
*D7
  1

  0
LINE
  5
7D33
  8
3
  6
CONTINUOUS
 62
     0
 10
2951.478372
 20
3993.317043999999
 30
0.0
 11
2951.478372
 21
4143.2994340000014
 31
0.0
  0
LINE
  5
7D34
  8
3
  6
CONTINUOUS
 62
     0
 10
2356.478372
 20
4092.3818709999991
 30
0.0
 11
2356.478372
 21
4143.2994340000014
 31
0.0
  0
LINE
  5
7D35
  8
3
  6
CONTINUOUS
 62
     0
 10
2891.478372
 20
4113.2994339999996
 30
0.0
 11
2416.478372
 21
4113.2994339999996
 31
0.0
  0
INSERT
  5
7D36
  8
3
  6
CONTINUOUS
 62
     0
  2
_OPEN
 10
2951.478372
 20
4113.2994339999996
 30
0.0
 41
60.0
 42
60.0
 43
60.0
  0
INSERT
  5
7D37
  8
3
  6
CONTINUOUS
 62
     0
  2
_OPEN
 10
2356.478372
 20
4113.2994339999996
 30
0.0
 41
60.0
 42
60.0
 43
60.0
 50
180.0
  0
TEXT
  8
3
  40
90
  5
7D90
  62
0
  72
0
  71
0
 10
2449.78
 20
4029.00
 30
0.000000
  1
595
  0
POINT
  5
7D39
  8
DEFPOINTS
  6
CONTINUOUS
 62
     0
 10
2951.478372
 20
3978.3170439999999
 30
0.0
  0
POINT
  5
7D3A
  8
DEFPOINTS
  6
CONTINUOUS
 62
     0
 10
2356.478372
 20
4077.381871
 30
0.0
  0
POINT
  5
7D3B
  8
DEFPOINTS
  6
CONTINUOUS
 62
     0
 10
2356.478372
 20
4113.2994339999996
 30
0.0
  0
ENDBLK
  5
7B3B
  8
0
  0
BLOCK
  8
0
  2
*D8
 70
     1
 10
0.0
 20
0.0
 30
0.0
  3
*D8
  1

  0
LINE
  5
7D3C
  8
3
  6
CONTINUOUS
 62
     0
 10
5057.0398640000003
 20
3950.8170439999999
 30
0.0
 11
5057.0398640000003
 21
4090.4342009999991
 31
0.0
  0
LINE
  5
7D3D
  8
3
  6
CONTINUOUS
 62
     0
 10
4457.0398640000003
 20
3950.8170439999999
 30
0.0
 11
4457.0398640000003
 21
4090.4342009999991
 31
0.0
  0
LINE
  5
7D3E
  8
3
  6
CONTINUOUS
 62
     0
 10
4997.0398640000012
 20
4060.4342009999991
 30
0.0
 11
4517.0398640000003
 21
4060.4342009999991
 31
0.0
  0
INSERT
  5
7D3F
  8
3
  6
CONTINUOUS
 62
     0
  2
_OPEN
 10
5057.0398640000003
 20
4060.4342009999991
 30
0.0
 41
60.0
 42
60.0
 43
60.0
  0
INSERT
  5
7D40
  8
3
  6
CONTINUOUS
 62
     0
  2
_OPEN
 10
4457.0398640000003
 20
4060.4342009999991
 30
0.0
 41
60.0
 42
60.0
 43
60.0
 50
180.0
  0
TEXT
  8
3
  40
90
  5
7D91
  62
0
  72
0
  71
0
 10
4572.55
 20
3976.13
 30
0.000000
  1
600
  0
POINT
  5
7D42
  8
DEFPOINTS
  6
CONTINUOUS
 62
     0
 10
5057.0398640000003
 20
3935.8170439999999
 30
0.0
  0
POINT
  5
7D43
  8
DEFPOINTS
  6
CONTINUOUS
 62
     0
 10
4457.0398640000003
 20
3935.8170439999999
 30
0.0
  0
POINT
  5
7D44
  8
DEFPOINTS
  6
CONTINUOUS
 62
     0
 10
4457.0398640000003
 20
4060.4342009999991
 30
0.0
  0
ENDBLK
  5
7B74
  8
0
  0
BLOCK
  8
0
  2
*D9
 70
     1
 10
0.0
 20
0.0
 30
0.0
  3
*D9
  1

  0
LINE
  5
7D45
  8
3
  6
CONTINUOUS
 62
     0
 10
5076.0398640000012
 20
3573.8170439999999
 30
0.0
 11
5344.6522940000013
 21
3573.8170439999999
 31
0.0
  0
LINE
  5
7D46
  8
3
  6
CONTINUOUS
 62
     0
 10
5076.0398640000012
 20
2723.8170439999999
 30
0.0
 11
5344.6522940000013
 21
2723.8170439999999
 31
0.0
  0
LINE
  5
7D47
  8
3
  6
CONTINUOUS
 62
     0
 10
5314.6522940000004
 20
3513.817043999999
 30
0.0
 11
5314.6522940000004
 21
2783.8170439999999
 31
0.0
  0
INSERT
  5
7D48
  8
3
  6
CONTINUOUS
 62
     0
  2
_OPEN
 10
5314.6522940000004
 20
3573.8170439999999
 30
0.0
 41
60.0
 42
60.0
 43
60.0
 50
90.0
  0
INSERT
  5
7D49
  8
3
  6
CONTINUOUS
 62
     0
  2
_OPEN
 10
5314.6522940000004
 20
2723.8170439999999
 30
0.0
 41
60.0
 42
60.0
 43
60.0
 50
270.0
  0
TEXT
  8
3
  40
90
  5
7D92
  62
0
  72
0
  71
0
 10
5059.65
 20
2975.99
 30
0.000000
  1
φ850
  0
POINT
  5
7D4B
  8
DEFPOINTS
  6
CONTINUOUS
 62
     0
 10
5061.0398640000012
 20
3573.8170439999999
 30
0.0
  0
POINT
  5
7D4C
  8
DEFPOINTS
  6
CONTINUOUS
 62
     0
 10
5061.0398640000012
 20
2723.8170439999999
 30
0.0
  0
POINT
  5
7D4D
  8
DEFPOINTS
  6
CONTINUOUS
 62
     0
 10
5314.6522940000004
 20
2723.8170439999999
 30
0.0
  0
ENDBLK
  5
7C84
  8
0
  0
BLOCK
  8
0
  2
*D10
 70
     1
 10
0.0
 20
0.0
 30
0.0
  3
*D10
  1

  0
LINE
  5
7C9A
  8
0
  6
BYBLOCK
 62
     0
 10
5061.0398640000012
 20
3588.8170439999999
 30
0.0
 11
5061.0398640000012
 21
4308.6159544979946
 31
0.0
  0
LINE
  5
7C9B
  8
0
  6
BYBLOCK
 62
     0
 10
4757.0398640000003
 20
4220.2874529999999
 30
0.0
 11
4757.0398640000003
 21
4308.6159544979946
 31
0.0
  0
LINE
  5
7C9C
  8
0
  6
BYBLOCK
 62
     0
 10
5001.0398640000003
 20
4278.6159544979964
 30
0.0
 11
4817.0398640000003
 21
4278.6159544979964
 31
0.0
  0
TEXT
  5
7C9D
  8
3
 62
     0
 10
4791.1827211428572
 20
4320.4125624256812
 30
0.0
 40
90.0
  1
304
  0
INSERT
  5
7C9E
  8
0
  6
BYBLOCK
 62
     0
  2
_OPEN
 10
5061.0398640000012
 20
4278.6159544979964
 30
0.0
 41
60.0
 42
60.0
 43
60.0
  0
INSERT
  5
7C9F
  8
0
  6
BYBLOCK
 62
     0
  2
_OPEN
 10
4757.0398640000003
 20
4278.6159544979964
 30
0.0
 41
60.0
 42
60.0
 43
60.0
 50
180.0
  0
POINT
  5
7CA0
  8
DEFPOINTS
  6
BYBLOCK
 62
     0
 10
5061.0398640000012
 20
3573.8170439999999
 30
0.0
  0
POINT
  5
7CA1
  8
DEFPOINTS
  6
BYBLOCK
 62
     0
 10
4757.0398640000003
 20
4205.287452999999
 30
0.0
  0
POINT
  5
7CA2
  8
DEFPOINTS
  6
BYBLOCK
 62
     0
 10
4757.0398640000003
 20
4278.6159544979964
 30
0.0
  0
ENDBLK
  5
7CA3
  8
0
  0
BLOCK
  8
0
  2
*D11
 70
     1
 10
0.0
 20
0.0
 30
0.0
  3
*D11
  1

  0
LINE
  5
7D4E
  8
3
  6
CONTINUOUS
 62
     0
 10
4197.0398640000003
 20
3818.8170439999999
 30
0.0
 11
4197.0398640000003
 21
4308.6159544979946
 31
0.0
  0
LINE
  5
7D4F
  8
3
  6
CONTINUOUS
 62
     0
 10
4697.0398640000003
 20
4278.6159544979964
 30
0.0
 11
4257.0398640000003
 21
4278.6159544979964
 31
0.0
  0
INSERT
  5
7D50
  8
3
  6
CONTINUOUS
 62
     0
  2
_OPEN
 10
4757.0398640000003
 20
4278.6159544979964
 30
0.0
 41
60.0
 42
60.0
 43
60.0
  0
INSERT
  5
7D51
  8
3
  6
CONTINUOUS
 62
     0
  2
_OPEN
 10
4197.0398640000003
 20
4278.6159544979964
 30
0.0
 41
60.0
 42
60.0
 43
60.0
 50
180.0
  0
TEXT
  8
3
  40
90
  5
7D93
  62
0
  72
0
  71
0
 10
4297.04
 20
4269.32
 30
0.000000
  1
MAX
  0
TEXT
  8
3
  40
90
  5
7D94
  62
0
  72
0
  71
0
 10
4297.04
 20
4152.32
 30
0.000000
  1
610
  0
POINT
  5
7D53
  8
DEFPOINTS
  6
CONTINUOUS
 62
     0
 10
4757.0398640000003
 20
4205.287452999999
 30
0.0
  0
POINT
  5
7D54
  8
DEFPOINTS
  6
CONTINUOUS
 62
     0
 10
4197.0398640000003
 20
3803.8170439999999
 30
0.0
  0
POINT
  5
7D55
  8
DEFPOINTS
  6
CONTINUOUS
 62
     0
 10
4197.0398640000003
 20
4278.6159544979964
 30
0.0
  0
ENDBLK
  5
7CBA
  8
0
  0
BLOCK
  8
0
  2
*D12
 70
     1
 10
0.0
 20
0.0
 30
0.0
  3
*D12
  1

  0
LINE
  5
7D56
  8
3
  6
CONTINUOUS
 62
     0
 10
4289.0398640000003
 20
2438.8170439999999
 30
0.0
 11
4289.0398640000003
 21
2157.9717179999998
 31
0.0
  0
LINE
  5
7D57
  8
3
  6
CONTINUOUS
 62
     0
 10
4757.0398640000003
 20
2282.9008767833229
 30
0.0
 11
4757.0398640000003
 21
2157.9717179999998
 31
0.0
  0
LINE
  5
7D58
  8
3
  6
CONTINUOUS
 62
     0
 10
4349.0398640000003
 20
2187.9717179999989
 30
0.0
 11
4697.0398640000003
 21
2187.9717179999989
 31
0.0
  0
INSERT
  5
7D59
  8
3
  6
CONTINUOUS
 62
     0
  2
_OPEN
 10
4289.0398640000003
 20
2187.9717179999989
 30
0.0
 41
60.0
 42
60.0
 43
60.0
 50
180.0
  0
INSERT
  5
7D5A
  8
3
  6
CONTINUOUS
 62
     0
  2
_OPEN
 10
4757.0398640000003
 20
2187.9717179999989
 30
0.0
 41
60.0
 42
60.0
 43
60.0
  0
TEXT
  8
3
  40
90
  5
7D95
  62
0
  72
0
  71
0
 10
4371.33
 20
2103.67
 30
0.000000
  1
468
  0
POINT
  5
7D5C
  8
DEFPOINTS
  6
CONTINUOUS
 62
     0
 10
4289.0398640000003
 20
2453.8170439999999
 30
0.0
  0
POINT
  5
7D5D
  8
DEFPOINTS
  6
CONTINUOUS
 62
     0
 10
4757.0398640000003
 20
2297.9008767833229
 30
0.0
  0
POINT
  5
7D5E
  8
DEFPOINTS
  6
CONTINUOUS
 62
     0
 10
4757.0398640000003
 20
2187.9717179999989
 30
0.0
  0
ENDBLK
  5
7CC5
  8
0
  0
BLOCK
  8
0
  2
*D13
 70
     1
 10
0.0
 20
0.0
 30
0.0
  3
*D13
  1

  0
LINE
  5
7D5F
  8
3
  6
CONTINUOUS
 62
     0
 10
5109.0398640000003
 20
2438.8170439999999
 30
0.0
 11
5109.0398640000003
 21
2157.9717179999998
 31
0.0
  0
LINE
  5
7D60
  8
3
  6
CONTINUOUS
 62
     0
 10
4817.0398640000003
 20
2187.9717179999989
 30
0.0
 11
5049.0398640000003
 21
2187.9717179999989
 31
0.0
  0
TEXT
  8
3
  40
90
  5
7D96
  62
0
  72
0
  71
0
 10
4760.91
 20
2101.68
 30
0.000000
  1
352
  0
INSERT
  5
7D62
  8
3
  6
CONTINUOUS
 62
     0
  2
_OPEN
 10
4757.0398640000003
 20
2187.9717179999989
 30
0.0
 41
60.0
 42
60.0
 43
60.0
 50
180.0
  0
INSERT
  5
7D63
  8
3
  6
CONTINUOUS
 62
     0
  2
_OPEN
 10
5109.0398640000003
 20
2187.9717179999989
 30
0.0
 41
60.0
 42
60.0
 43
60.0
  0
POINT
  5
7D64
  8
DEFPOINTS
  6
CONTINUOUS
 62
     0
 10
4757.0398640000003
 20
2297.9008767833229
 30
0.0
  0
POINT
  5
7D65
  8
DEFPOINTS
  6
CONTINUOUS
 62
     0
 10
5109.0398640000003
 20
2453.8170439999999
 30
0.0
  0
POINT
  5
7D66
  8
DEFPOINTS
  6
CONTINUOUS
 62
     0
 10
5109.0398640000003
 20
2187.9717179999989
 30
0.0
  0
ENDBLK
  5
7CCF
  8
0
  0
BLOCK
  8
0
  2
*D14
 70
     1
 10
0.0
 20
0.0
 30
0.0
  3
*D14
  1

  0
LINE
  5
7D67
  8
3
  6
CONTINUOUS
 62
     0
 10
1276.478372
 20
6021.9751260000003
 30
0.0
 11
1276.478372
 21
6195.5467070000004
 31
0.0
  0
LINE
  5
7D68
  8
3
  6
CONTINUOUS
 62
     0
 10
2876.478372
 20
5995.9751260000003
 30
0.0
 11
2876.478372
 21
6195.5467070000004
 31
0.0
  0
LINE
  5
7D69
  8
3
  6
CONTINUOUS
 62
     0
 10
1336.478372
 20
6165.5467070000004
 30
0.0
 11
2816.478372
 21
6165.5467070000004
 31
0.0
  0
INSERT
  5
7D6A
  8
3
  6
CONTINUOUS
 62
     0
  2
_OPEN
 10
1276.478372
 20
6165.5467070000004
 30
0.0
 41
60.0
 42
60.0
 43
60.0
 50
180.0
  0
INSERT
  5
7D6B
  8
3
  6
CONTINUOUS
 62
     0
  2
_OPEN
 10
2876.478372
 20
6165.5467070000004
 30
0.0
 41
60.0
 42
60.0
 43
60.0
  0
TEXT
  8
3
  40
90
  5
7D97
  62
0
  72
0
  71
0
 10
1861.22
 20
6081.25
 30
0.000000
  1
1600
  0
POINT
  5
7D6D
  8
DEFPOINTS
  6
CONTINUOUS
 62
     0
 10
1276.478372
 20
6006.9751260000003
 30
0.0
  0
POINT
  5
7D6E
  8
DEFPOINTS
  6
CONTINUOUS
 62
     0
 10
2876.478372
 20
5980.9751259999994
 30
0.0
  0
POINT
  5
7D6F
  8
DEFPOINTS
  6
CONTINUOUS
 62
     0
 10
2876.478372
 20
6165.5467070000004
 30
0.0
  0
ENDBLK
  5
7BC9
  8
0
  0
BLOCK
  8
0
  2
*D15
 70
     1
 10
0.0
 20
0.0
 30
0.0
  3
*D15
  1

  0
LINE
  5
7D70
  8
3
  6
CONTINUOUS
 62
     0
 10
2891.478372
 20
6006.9751260000003
 30
0.0
 11
3254.946644000001
 21
6006.9751260000003
 31
0.0
  0
LINE
  5
7D71
  8
3
  6
CONTINUOUS
 62
     0
 10
2891.478372
 20
5186.9751260000003
 30
0.0
 11
3254.946644000001
 21
5186.9751260000003
 31
0.0
  0
LINE
  5
7D72
  8
3
  6
CONTINUOUS
 62
     0
 10
3224.946644000001
 20
5946.9751259999994
 30
0.0
 11
3224.946644000001
 21
5246.9751259999994
 31
0.0
  0
INSERT
  5
7D73
  8
3
  6
CONTINUOUS
 62
     0
  2
_OPEN
 10
3224.946644000001
 20
6006.9751260000003
 30
0.0
 41
60.0
 42
60.0
 43
60.0
 50
90.0
  0
INSERT
  5
7D74
  8
3
  6
CONTINUOUS
 62
     0
  2
_OPEN
 10
3224.946644000001
 20
5186.9751260000003
 30
0.0
 41
60.0
 42
60.0
 43
60.0
 50
270.0
  0
TEXT
  8
3
  40
90
  5
7D98
  62
0
  72
0
  71
0
 10
2969.95
 20
5424.73
 30
0.000000
  1
820
  0
POINT
  5
7D76
  8
DEFPOINTS
  6
CONTINUOUS
 62
     0
 10
2876.478372
 20
6006.9751260000003
 30
0.0
  0
POINT
  5
7D77
  8
DEFPOINTS
  6
CONTINUOUS
 62
     0
 10
2876.478372
 20
5186.9751260000003
 30
0.0
  0
POINT
  5
7D78
  8
DEFPOINTS
  6
CONTINUOUS
 62
     0
 10
3224.946644000001
 20
5186.9751260000003
 30
0.0
  0
ENDBLK
  5
7BD6
  8
0
  0
BLOCK
  8
0
  2
*D16
 70
     1
 10
0.0
 20
0.0
 30
0.0
  3
*D16
  1

  0
LINE
  5
7D79
  8
3
  6
CONTINUOUS
 62
     0
 10
1692.474146
 20
3163.8170439999999
 30
0.0
 11
1692.474146
 21
4143.2994340000014
 31
0.0
  0
LINE
  5
7D7A
  8
3
  6
CONTINUOUS
 62
     0
 10
2296.478372
 20
4113.2994339999996
 30
0.0
 11
1752.474146
 21
4113.2994339999996
 31
0.0
  0
INSERT
  5
7D7B
  8
3
  6
CONTINUOUS
 62
     0
  2
_OPEN
 10
2356.478372
 20
4113.2994339999996
 30
0.0
 41
60.0
 42
60.0
 43
60.0
  0
INSERT
  5
7D7C
  8
3
  6
CONTINUOUS
 62
     0
  2
_OPEN
 10
1692.474146
 20
4113.2994339999996
 30
0.0
 41
60.0
 42
60.0
 43
60.0
 50
180.0
  0
TEXT
  8
3
  40
90
  5
7D99
  62
0
  72
0
  71
0
 10
1844.48
 20
4029.00
 30
0.000000
  1
664
  0
POINT
  5
7D7E
  8
DEFPOINTS
  6
CONTINUOUS
 62
     0
 10
2356.478372
 20
4077.381871
 30
0.0
  0
POINT
  5
7D7F
  8
DEFPOINTS
  6
CONTINUOUS
 62
     0
 10
1692.474146
 20
3148.8170439999999
 30
0.0
  0
POINT
  5
7D80
  8
DEFPOINTS
  6
CONTINUOUS
 62
     0
 10
1692.474146
 20
4113.2994339999996
 30
0.0
  0
ENDBLK
  5
7C13
  8
0
  0
BLOCK
  8
0
  2
*D17
 70
     1
 10
0.0
 20
0.0
 30
0.0
  3
*D17
  1

  0
LINE
  5
7D81
  8
3
 62
     0
 10
2951.478372
 20
3993.317043999999
 30
0.0
 11
2951.478372
 21
4320.0617422414361
 31
0.0
  0
LINE
  5
7D82
  8
3
 62
     0
 10
1276.478372
 20
2568.8170439999999
 30
0.0
 11
1276.478372
 21
4320.0617422414361
 31
0.0
  0
LINE
  5
7D83
  8
3
 62
     0
 10
2891.478372
 20
4290.0617422414361
 30
0.0
 11
1336.478372
 21
4290.0617422414361
 31
0.0
  0
INSERT
  5
7D84
  8
3
 62
     0
  2
_OPEN
 10
2951.478372
 20
4290.0617422414361
 30
0.0
 41
60.0
 42
60.0
 43
60.0
  0
INSERT
  5
7D85
  8
3
 62
     0
  2
_OPEN
 10
1276.478372
 20
4290.0617422414361
 30
0.0
 41
60.0
 42
60.0
 43
60.0
 50
180.0
  0
TEXT
  8
3
  40
90
  5
7D9A
  62
0
  72
0
  71
0
 10
1962.20
 20
4205.76
 30
0.000000
  1
1675
  0
POINT
  5
7D87
  8
DEFPOINTS
 62
     0
 10
2951.478372
 20
3978.3170439999999
 30
0.0
  0
POINT
  5
7D88
  8
DEFPOINTS
 62
     0
 10
1276.478372
 20
2553.8170439999999
 30
0.0
  0
POINT
  5
7D89
  8
DEFPOINTS
 62
     0
 10
1276.478372
 20
4290.0617422414361
 30
0.0
  0
ENDBLK
  5
7CAF
  8
0
  0
ENDSEC
  0
SECTION
  2
ENTITIES
  0
LINE
  5
7A60
  8
1
  6
CONTINUOUS
 10
4347.0398640000003
 20
3803.8170439999999
 30
0.0
 11
4197.0398640000003
 21
3803.8170439999999
 31
0.0
  0
LINE
  5
7A61
  8
1
  6
CONTINUOUS
 10
5109.0398640000003
 20
2553.8170439999999
 30
0.0
 11
4197.0398640000003
 21
2553.8170439999999
 31
0.0
  0
LINE
  5
7A62
  8
1
  6
CONTINUOUS
 10
2412.768372
 20
2956.8970439999998
 30
0.0
 11
1474.9583720000001
 21
2681.8470440000001
 31
0.0
  0
LINE
  5
7A63
  8
1
  6
CONTINUOUS
 10
2253.6983719999998
 20
3320.3870440000001
 30
0.0
 11
1415.308372
 21
2818.157044
 31
0.0
  0
LINE
  5
7A64
  8
1
  6
CONTINUOUS
 10
2206.478372
 20
3803.8170439999999
 30
0.0
 11
1296.478372
 21
2853.8170439999999
 31
0.0
  0
LINE
  5
7A66
  8
1
  6
CONTINUOUS
 10
2876.478372
 20
2453.8170439999999
 30
0.0
 11
1276.478372
 21
2453.8170439999999
 31
0.0
  0
LINE
  5
7A68
  8
1
  6
CONTINUOUS
 10
2876.478372
 20
2553.8170439999999
 30
0.0
 11
1276.478372
 21
2553.8170439999999
 31
0.0
  0
ARC
  5
7A69
  8
1
  6
CONTINUOUS
 10
2312.478372
 20
3192.8170439999999
 30
0.0
 40
621.54999999999995
 50
184.75999999999991
 51
276.5
  0
ARC
  5
7A6A
  8
1
  6
CONTINUOUS
 10
2408.478372
 20
3200.8170439999999
 30
0.0
 40
717.88999999999987
 50
94.150000000000006
 51
184.75999999999991
  0
LINE
  5
7A6C
  8
2
  6
CENTER
 10
1378.8583719999999
 20
2753.8170439999999
 30
0.0
 11
1528.8583719999999
 21
2753.8170439999999
 31
0.0
  0
CIRCLE
  5
7A6D
  8
1
  6
CONTINUOUS
 10
1453.8583719999999
 20
2753.8170439999999
 30
0.0
 40
75.0
  0
LINE
  5
7A6E
  8
1
  6
CONTINUOUS
 10
1299.8583719999999
 20
2553.8170439999999
 30
0.0
 11
1607.8583719999999
 21
2553.8170439999999
 31
0.0
  0
ARC
  5
7A6F
  8
1
  6
CONTINUOUS
 10
1453.8583719999999
 20
2753.8170439999999
 30
0.0
 40
162.0
 50
324.97000000000003
 51
215.02999999999989
  0
LINE
  5
7A70
  8
1
  6
CONTINUOUS
 10
1296.478372
 20
2853.8170439999999
 30
0.0
 11
1296.478372
 21
2553.8170439999999
 31
0.0
  0
LINE
  5
7A71
  8
1
  6
CONTINUOUS
 10
1299.8583719999999
 20
2611.8170439999999
 30
0.0
 11
1321.1983720000001
 21
2660.8370439999999
 31
0.0
  0
LINE
  5
7A72
  8
1
  6
CONTINUOUS
 10
1299.8583719999999
 20
2553.8170439999999
 30
0.0
 11
1299.8583719999999
 21
2611.8170439999999
 31
0.0
  0
LINE
  5
7A73
  8
1
  6
CONTINUOUS
 10
1276.478372
 20
2553.8170439999999
 30
0.0
 11
1276.478372
 21
2453.8170439999999
 31
0.0
  0
LINE
  5
7A74
  8
2
  6
CENTER
 10
1453.8583719999999
 20
2678.8170439999999
 30
0.0
 11
1453.8583719999999
 21
2828.8170439999999
 31
0.0
  0
LINE
  5
7A75
  8
1
  6
CONTINUOUS
 10
1607.8583719999999
 20
2611.8170439999999
 30
0.0
 11
1586.508372
 21
2660.8370439999999
 31
0.0
  0
LINE
  5
7A76
  8
1
  6
CONTINUOUS
 10
1607.8583719999999
 20
2553.8170439999999
 30
0.0
 11
1607.8583719999999
 21
2611.8170439999999
 31
0.0
  0
ARC
  5
7A77
  8
1
  6
CONTINUOUS
 10
2321.478372
 20
3113.8170439999999
 30
0.0
 40
542.03999999999985
 50
276.5
 51
359.67999999999989
  0
LINE
  5
7A78
  8
1
  6
CONTINUOUS
 10
2951.478372
 20
3935.8170439999999
 30
0.0
 11
2356.478372
 21
3916.8170439999999
 31
0.0
  0
LINE
  5
7A79
  8
1
  6
CONTINUOUS
 10
2776.478372
 20
2553.8170439999999
 30
0.0
 11
2776.478372
 21
3803.8170439999999
 31
0.0
  0
CIRCLE
  5
7A7A
  8
1
  6
CONTINUOUS
 10
2356.478372
 20
3148.8170439999999
 30
0.0
 40
200.0
  0
LINE
  5
7A7C
  8
2
  6
CENTER
 10
2356.478372
 20
6124.0764760000002
 30
0.0
 11
2356.478372
 21
5013.2866040000008
 31
0.0
  0
LINE
  5
7A7D
  8
2
  6
CENTER
 10
5164.9622820000013
 20
3148.8170439999999
 30
0.0
 11
4073.027165
 21
3148.8170439999999
 31
0.0
  0
LINE
  5
7A7E
  8
1
  6
CONTINUOUS
 10
2776.478372
 20
3803.8170439999999
 30
0.0
 11
2206.478372
 21
3803.8170439999999
 31
0.0
  0
LINE
  5
7A7F
  8
1
  6
CONTINUOUS
 10
4197.0398640000003
 20
3803.8170439999999
 30
0.0
 11
4197.0398640000003
 21
2553.8170439999999
 31
0.0
  0
LINE
  5
7A80
  8
1
  6
CONTINUOUS
 10
2911.478372
 20
3110.8170439999999
 30
0.0
 11
2911.478372
 21
3935.8170439999999
 31
0.0
  0
LINE
  5
7A82
  8
1
  6
CONTINUOUS
 10
2951.478372
 20
3068.3170439999999
 30
0.0
 11
2951.478372
 21
3978.3170439999999
 31
0.0
  0
LINE
  5
7A83
  8
1
  6
CONTINUOUS
 10
2876.478372
 20
2553.8170439999999
 30
0.0
 11
2876.478372
 21
2453.8170439999999
 31
0.0
  0
LINE
  5
7A84
  8
1
  6
CONTINUOUS
 10
2863.5083719999998
 20
3110.8170439999999
 30
0.0
 11
2951.478372
 21
3110.8170439999999
 31
0.0
  0
LINE
  5
7A85
  8
1
  6
CONTINUOUS
 10
5109.0398640000003
 20
2453.8170439999999
 30
0.0
 11
4289.0398640000003
 21
2453.8170439999999
 31
0.0
  0
LINE
  5
7A86
  8
1
  6
CONTINUOUS
 10
4307.0398640000003
 20
3348.8170439999999
 30
0.0
 11
4307.0398640000003
 21
2948.8170439999999
 31
0.0
  0
LINE
  5
7A87
  8
1
  6
CONTINUOUS
 10
4237.0398640000003
 20
3348.8170439999999
 30
0.0
 11
4237.0398640000003
 21
2948.8170439999999
 31
0.0
  0
LINE
  5
7A88
  8
1
  6
CONTINUOUS
 10
4347.0398640000003
 20
3803.8170439999999
 30
0.0
 11
4347.0398640000003
 21
2553.8170439999999
 31
0.0
  0
LINE
  5
7A89
  8
1
  6
CONTINUOUS
 10
4457.0398640000003
 20
3110.8170439999999
 30
0.0
 11
5057.0398640000003
 21
3935.8170439999999
 31
0.0
  0
LINE
  5
7A8A
  8
1
  6
CONTINUOUS
 10
5057.0398640000003
 20
3110.8170439999999
 30
0.0
 11
4457.0398640000003
 21
3935.8170439999999
 31
0.0
  0
LINE
  5
7A8B
  8
1
  6
CONTINUOUS
 10
5057.0398640000003
 20
3935.8170439999999
 30
0.0
 11
5057.0398640000003
 21
2553.8170439999999
 31
0.0
  0
LINE
  5
7A8C
  8
1
  6
CONTINUOUS
 10
4457.0398640000003
 20
3935.8170439999999
 30
0.0
 11
4457.0398640000003
 21
2553.8170439999999
 31
0.0
  0
LINE
  5
7A8D
  8
1
  6
CONTINUOUS
 10
4457.0398640000003
 20
3110.8170439999999
 30
0.0
 11
5057.0398640000003
 21
3110.8170439999999
 31
0.0
  0
LINE
  5
7A8E
  8
1
  6
CONTINUOUS
 10
4289.0398640000003
 20
2553.8170439999999
 30
0.0
 11
4289.0398640000003
 21
2453.8170439999999
 31
0.0
  0
LINE
  5
7A8F
  8
1
  6
CONTINUOUS
 10
4457.0398640000003
 20
3127.8170439999999
 30
0.0
 11
4307.0398640000003
 21
3127.8170439999999
 31
0.0
  0
LINE
  5
7A90
  8
1
  6
CONTINUOUS
 10
4457.0398640000003
 20
3169.8170439999999
 30
0.0
 11
4307.0398640000003
 21
3169.8170439999999
 31
0.0
  0
LINE
  5
7A91
  8
1
  6
CONTINUOUS
 10
4307.0398640000003
 20
2732.8170439999999
 30
0.0
 11
4457.0398640000003
 21
2732.8170439999999
 31
0.0
  0
LINE
  5
7A92
  8
1
  6
CONTINUOUS
 10
4307.0398640000003
 20
2774.8170439999999
 30
0.0
 11
4457.0398640000003
 21
2774.8170439999999
 31
0.0
  0
LINE
  5
7A93
  8
1
  6
CONTINUOUS
 10
4307.0398640000003
 20
2828.8170439999999
 30
0.0
 11
4307.0398640000003
 21
2678.8170439999999
 31
0.0
  0
LINE
  5
7A94
  8
1
  6
CONTINUOUS
 10
4237.0398640000003
 20
2828.8170439999999
 30
0.0
 11
4237.0398640000003
 21
2678.8170439999999
 31
0.0
  0
LINE
  5
7A95
  8
1
  6
CONTINUOUS
 10
4237.0398640000003
 20
2678.8170439999999
 30
0.0
 11
4307.0398640000003
 21
2678.8170439999999
 31
0.0
  0
LINE
  5
7A96
  8
1
  6
CONTINUOUS
 10
4237.0398640000003
 20
2828.8170439999999
 30
0.0
 11
4307.0398640000003
 21
2828.8170439999999
 31
0.0
  0
LINE
  5
7A97
  8
1
  6
CONTINUOUS
 10
4237.0398640000003
 20
2948.8170439999999
 30
0.0
 11
4307.0398640000003
 21
2948.8170439999999
 31
0.0
  0
LINE
  5
7A98
  8
1
  6
CONTINUOUS
 10
4457.0398640000003
 20
3935.8170439999999
 30
0.0
 11
5057.0398640000003
 21
3935.8170439999999
 31
0.0
  0
LINE
  5
7A99
  8
1
  6
CONTINUOUS
 10
4237.0398640000003
 20
3348.8170439999999
 30
0.0
 11
4307.0398640000003
 21
3348.8170439999999
 31
0.0
  0
LINE
  5
7A9A
  8
1
  6
CONTINUOUS
 10
5109.0398640000003
 20
2553.8170439999999
 30
0.0
 11
5109.0398640000003
 21
2453.8170439999999
 31
0.0
  0
LINE
  5
7A9B
  8
1
  6
CONTINUOUS
 10
1528.8583719999999
 20
5186.9751260000003
 30
0.0
 11
2156.478372
 21
5186.9751260000003
 31
0.0
  0
LINE
  5
7A9C
  8
1
  6
CONTINUOUS
 10
1296.478372
 20
5244.9751259999994
 30
0.0
 11
2776.478372
 21
5244.9751259999994
 31
0.0
  0
LINE
  5
7A9D
  8
1
  6
CONTINUOUS
 10
1296.478372
 20
5094.9751259999994
 30
0.0
 11
2776.478372
 21
5094.9751259999994
 31
0.0
  0
LINE
  5
7A9E
  8
1
  6
CONTINUOUS
 10
1276.478372
 20
6006.9751260000003
 30
0.0
 11
2876.478372
 21
6006.9751260000003
 31
0.0
  0
LINE
  5
7A9F
  8
1
  6
CONTINUOUS
 10
1690.588371999999
 20
5354.9751259999994
 30
0.0
 11
2951.478372
 21
5354.9751259999994
 31
0.0
  0
LINE
  5
7AA0
  8
1
  6
CONTINUOUS
 10
1690.588371999999
 20
5954.9751259999994
 30
0.0
 11
2951.478372
 21
5954.9751259999994
 31
0.0
  0
LINE
  5
7AA1
  8
1
  6
CONTINUOUS
 10
1528.8583719999999
 20
5134.9751260000003
 30
0.0
 11
1378.8583719999999
 21
5134.9751260000003
 31
0.0
  0
LINE
  5
7AA2
  8
1
  6
CONTINUOUS
 10
1528.8583719999999
 20
5204.9751259999994
 30
0.0
 11
1378.8583719999999
 21
5204.9751259999994
 31
0.0
  0
LINE
  5
7AA3
  8
1
  6
CONTINUOUS
 10
1291.8583719999999
 20
5292.9751259999994
 30
0.0
 11
1615.8583719999999
 21
5292.9751259999994
 31
0.0
  0
LINE
  5
7AA4
  8
1
  6
CONTINUOUS
 10
1291.8583719999999
 20
5777.9751260000003
 30
0.0
 11
1615.8583719999999
 21
5777.9751260000003
 31
0.0
  0
LINE
  5
7AA5
  8
1
  6
CONTINUOUS
 10
1276.478372
 20
6006.9751260000003
 30
0.0
 11
1276.478372
 21
5186.9751260000003
 31
0.0
  0
LINE
  5
7AA6
  8
1
  6
CONTINUOUS
 10
1291.8583719999999
 20
5292.9751259999994
 30
0.0
 11
1291.8583719999999
 21
5777.9751260000003
 31
0.0
  0
LINE
  5
7AA7
  8
1
  6
CONTINUOUS
 10
1378.8583719999999
 20
5134.9751260000003
 30
0.0
 11
1378.8583719999999
 21
5204.9751259999994
 31
0.0
  0
LINE
  5
7AA8
  8
1
  6
CONTINUOUS
 10
1296.478372
 20
5244.9751259999994
 30
0.0
 11
1296.478372
 21
5094.9751259999994
 31
0.0
  0
LINE
  5
7AA9
  8
1
  6
CONTINUOUS
 10
1276.478372
 20
5186.9751260000003
 30
0.0
 11
1378.8583719999999
 21
5186.9751260000003
 31
0.0
  0
LINE
  5
7AAA
  8
1
  6
CONTINUOUS
 10
1432.8583719999999
 20
5204.9751259999994
 30
0.0
 11
1432.8583719999999
 21
5292.9751259999994
 31
0.0
  0
LINE
  5
7AAB
  8
1
  6
CONTINUOUS
 10
1474.8583719999999
 20
5204.9751259999994
 30
0.0
 11
1474.8583719999999
 21
5292.9751259999994
 31
0.0
  0
LINE
  5
7AAC
  8
1
  6
CONTINUOUS
 10
1690.588371999999
 20
5354.9751259999994
 30
0.0
 11
1690.588371999999
 21
5954.9751259999994
 31
0.0
  0
LINE
  5
7AAD
  8
1
  6
CONTINUOUS
 10
1615.8583719999999
 20
5292.9751259999994
 30
0.0
 11
1615.8583719999999
 21
5777.9751260000003
 31
0.0
  0
LINE
  5
7AAE
  8
1
  6
CONTINUOUS
 10
1528.8583719999999
 20
5134.9751260000003
 30
0.0
 11
1528.8583719999999
 21
5204.9751259999994
 31
0.0
  0
LINE
  5
7AAF
  8
1
  6
CONTINUOUS
 10
2556.478372
 20
5186.9751260000003
 30
0.0
 11
2876.478372
 21
5186.9751260000003
 31
0.0
  0
LINE
  5
7AB0
  8
1
  6
CONTINUOUS
 10
2556.478372
 20
5134.9751260000003
 30
0.0
 11
2156.478372
 21
5134.9751260000003
 31
0.0
  0
LINE
  5
7AB1
  8
1
  6
CONTINUOUS
 10
2556.478372
 20
5204.9751259999994
 30
0.0
 11
2156.478372
 21
5204.9751259999994
 31
0.0
  0
LINE
  5
7AB2
  8
1
  6
CONTINUOUS
 10
2335.478372
 20
5204.9751259999994
 30
0.0
 11
2335.478372
 21
5354.9751259999994
 31
0.0
  0
LINE
  5
7AB3
  8
1
  6
CONTINUOUS
 10
2156.478372
 20
5134.9751260000003
 30
0.0
 11
2156.478372
 21
5204.9751259999994
 31
0.0
  0
LINE
  5
7AB4
  8
1
  6
CONTINUOUS
 10
2377.478372
 20
5204.9751259999994
 30
0.0
 11
2377.478372
 21
5354.9751259999994
 31
0.0
  0
LINE
  5
7AB5
  8
1
  6
CONTINUOUS
 10
2556.478372
 20
5134.9751260000003
 30
0.0
 11
2556.478372
 21
5204.9751259999994
 31
0.0
  0
LINE
  5
7AB6
  8
1
  6
CONTINUOUS
 10
2776.478372
 20
5094.9751259999994
 30
0.0
 11
2776.478372
 21
5244.9751259999994
 31
0.0
  0
LINE
  5
7AB7
  8
1
  6
CONTINUOUS
 10
2951.478372
 20
5312.9751259999994
 30
0.0
 11
2951.478372
 21
5996.9751259999994
 31
0.0
  0
LINE
  5
7AB8
  8
1
  6
CONTINUOUS
 10
2876.478372
 20
5354.9751259999994
 30
0.0
 11
2876.478372
 21
5186.9751260000003
 31
0.0
  0
LINE
  5
7AB9
  8
1
  6
CONTINUOUS
 10
2876.478372
 20
6006.9751260000003
 30
0.0
 11
2876.478372
 21
5954.9751259999994
 31
0.0
  0
LINE
  5
7ABA
  8
2
  6
CENTER
 10
1195.0544769999999
 20
5654.9751260000003
 30
0.0
 11
3046.3958459999999
 21
5654.9751260000003
 31
0.0
  0
LINE
  5
7ABB
  8
2
  6
CENTER
 10
4757.0398640000003
 20
4035.803574
 30
0.0
 11
4757.0398640000003
 21
2297.9008767833229
 31
0.0
  0
LINE
  5
7ABC
  8
2
  6
CENTER
 10
3090.3246009999998
 20
3148.8170439999999
 30
0.0
 11
1322.4739649999999
 21
3148.8170439999999
 31
0.0
  0
LINE
  5
7ABD
  8
2
  6
CENTER
 10
2356.478372
 20
4077.381871
 30
0.0
 11
2356.478372
 21
2288.789479
 31
0.0
  0
LINE
  5
7ABE
  8
4
  6
CONTINUOUS
 10
5550.0
 20
1500.0
 30
0.0
 11
5550.0
 21
900.0
 31
0.0
  0
LINE
  5
7ABF
  8
4
  6
CONTINUOUS
 10
3450.0
 20
1500.0
 30
0.0
 11
3450.0
 21
900.0
 31
0.0
  0
LINE
  5
7AC0
  8
4
  6
CONTINUOUS
 10
1950.0
 20
1500.0
 30
0.0
 11
1950.0
 21
900.0
 31
0.0
  0
LINE
  5
7AC3
  8
4
  6
CONTINUOUS
 10
1950.0
 20
900.0
 30
0.0
 11
5550.0
 21
900.0
 31
0.0
  0
LINE
  5
7AC4
  8
4
  6
CONTINUOUS
 10
1950.0
 20
1200.0
 30
0.0
 11
5550.0
 21
1200.0
 31
0.0
  0
TEXT
  5
7AC5
  8
4
  6
CONTINUOUS
 10
2065.5062429999989
 20
1294.6290779999999
 30
0.0
 40
150.0
  1
機器名称
  0
TEXT
  5
7AC6
  8
4
  6
CONTINUOUS
 10
2058.7743179999989
 20
964.9354699999999
 30
0.0
 40
150.0
  1
機器型番
  0
TEXT
  5
7AC7
  8
4
  6
CONTINUOUS
 10
3533.0362359999999
 20
1267.7153069999999
 30
0.0
 40
150.0
  1
ミツヤ多翼送風機
  0
TEXT
  5
7AC8
  8
4
  6
CONTINUOUS
 10
3559.9634869999991
 20
951.47875299999987
 30
0.0
 40
150.0
  1
MF#5-4
  0
TEXT
  5
7ACA
  8
4
  6
CONTINUOUS
 10
2698.867557999999
 20
7150.2865239999992
 30
0.0
 40
162.0
  1
床置ベット
  0
TEXT
  5
7ACB
  8
4
  6
CONTINUOUS
 10
948.50278000000014
 20
7601.6429289999996
 30
0.0
 40
216.0
  1
ベルト駆動式片吸込両持多翼ファン
  0
LINE
  5
7ACC
  8
4
  6
CONTINUOUS
 10
750.0
 20
7408.2262629999996
 30
0.0
 11
5550.0
 21
7408.2262629999996
 31
0.0
  0
LINE
  5
7ACD
  8
4
  6
CONTINUOUS
 10
750.0
 20
8008.2262629999996
 30
0.0
 11
5550.0
 21
8008.2262629999996
 31
0.0
  0
LINE
  5
7ACE
  8
4
  6
CONTINUOUS
 10
1950.0
 20
1500.0
 30
0.0
 11
5550.0
 21
1500.0
 31
0.0
  0
LINE
  5
7ACF
  8
4
  6
CONTINUOUS
 10
750.0
 20
8008.2262629999996
 30
0.0
 11
750.0
 21
7408.2262629999996
 31
0.0
  0
TEXT
  5
7AD0
  8
4
  6
CONTINUOUS
 10
1158.9447429999991
 20
7146.9584329999998
 30
0.0
 40
162.0
  1
右回転右横向
  0
TEXT
  5
7AD1
  8
4
  6
CONTINUOUS
 10
4406.9086779999989
 20
8118.1832439999989
 30
0.0
 40
168.0
  1
No.
  0
TEXT
  5
7AD2
  8
4
  6
CONTINUOUS
 10
3933.8881879999999
 20
7150.2865239999992
 30
0.0
 40
162.0
  1
縮尺：1/30
  0
LINE
  5
7AD3
  8
4
  6
CONTINUOUS
 10
5550.0
 20
8008.2262629999996
 30
0.0
 11
5550.0
 21
7408.2262629999996
 31
0.0
  0
LINE
  5
7AD5
  8
4
  6
CONTINUOUS
 10
4321.8522670000002
 20
8043.7907490000007
 30
0.0
 11
4321.8522670000002
 21
8359.9567849999985
 31
0.0
  0
LINE
  5
7AD6
  8
4
  6
CONTINUOUS
 10
4321.8522670000002
 20
8359.9567849999985
 30
0.0
 11
5550.0
 21
8359.9567849999985
 31
0.0
  0
LINE
  5
7AD7
  8
4
  6
CONTINUOUS
 10
5550.0
 20
8359.9567849999985
 30
0.0
 11
5550.0
 21
8043.7907490000007
 31
0.0
  0
LINE
  5
7AD8
  8
4
  6
CONTINUOUS
 10
5550.0
 20
8043.7907490000007
 30
0.0
 11
4321.8522670000002
 21
8043.7907490000007
 31
0.0
  0
DIMENSION
  5
7AF0
  8
3
  6
CONTINUOUS
  2
*D1
 10
3218.3336450000002
 20
3110.8170439999999
 30
0.0
 11
3218.3336449999988
 21
3518.56549
 31
0.0
 70
   128
 13
2951.478372
 23
3935.8170439999999
 33
0.0
 14
2951.478372
 24
3110.8170439999999
 34
0.0
 50
90.0
1001
ACAD
1000
DSTYLE
1002
{
1070
   287
1070
     3
1070
    40
1040
30.0
1070
   143
1040
0.039
1070
   172
1070
     1
1070
   271
1070
     0
1070
   279
1070
     0
1070
   288
1070
     1
1002
}
  0
DIMENSION
  5
7AFD
  8
3
  6
CONTINUOUS
  2
*D2
 10
3429.949403000001
 20
3148.8170439999999
 30
0.0
 11
3429.9494030000001
 21
3511.9573409999998
 31
0.0
 70
   128
 13
2951.478372
 23
3935.8170439999999
 33
0.0
 14
3090.3246009999998
 24
3148.8170439999999
 34
0.0
 50
90.0
1001
ACAD
1000
DSTYLE
1002
{
1070
   287
1070
     3
1070
    40
1040
30.0
1070
   143
1040
0.039
1070
   172
1070
     1
1070
   271
1070
     0
1070
   279
1070
     0
1070
   288
1070
     1
1002
}
  0
DIMENSION
  5
7B09
  8
3
  6
CONTINUOUS
  2
*D3
 10
3429.9494030000001
 20
2453.8170439999999
 30
0.0
 11
3354.9494029999992
 21
2801.3170440000008
 31
0.0
 70
     0
 13
3090.3246009999998
 23
3148.8170439999999
 33
0.0
 14
2876.478372
 24
2453.8170439999999
 34
0.0
 50
90.0
1001
ACAD
1000
DSTYLE
1002
{
1070
   287
1070
     4
1070
    40
1040
30.0
1070
    75
1070
     1
1070
   143
1040
0.039
1070
   172
1070
     1
1070
   271
1070
     0
1070
   279
1070
     1
1070
   288
1070
     1
1002
}
  0
DIMENSION
  5
7B16
  8
3
  6
CONTINUOUS
  2
*D4
 10
3668.0171220000002
 20
2453.8170439999999
 30
0.0
 11
3668.0171220000002
 21
3221.1985180000001
 31
0.0
 70
   128
 13
2951.478372
 23
3978.3170439999999
 33
0.0
 14
2876.478372
 24
2453.8170439999999
 34
0.0
 50
90.0
1001
ACAD
1000
DSTYLE
1002
{
1070
   287
1070
     3
1070
    40
1040
30.0
1070
   143
1040
0.039
1070
   172
1070
     1
1070
   271
1070
     0
1070
   279
1070
     0
1070
   288
1070
     1
1002
}
  0
DIMENSION
  5
7B23
  8
3
  6
CONTINUOUS
  2
*D5
 10
2356.478372
 20
2185.5662029999999
 30
0.0
 11
1829.6051890000001
 21
2185.5662029999999
 31
0.0
 70
   128
 13
1276.478372
 23
2453.8170439999999
 33
0.0
 14
2356.478372
 24
2288.789479
 34
0.0
1001
ACAD
1000
DSTYLE
1002
{
1070
   287
1070
     3
1070
    40
1040
30.0
1070
   143
1040
0.039
1070
   172
1070
     1
1070
   271
1070
     0
1070
   279
1070
     0
1070
   288
1070
     1
1002
}
  0
DIMENSION
  5
7B2F
  8
3
  6
CONTINUOUS
  2
*D6
 10
2876.478372
 20
2185.5662029999999
 30
0.0
 11
2616.478372
 21
2260.5662029999999
 31
0.0
 70
     0
 13
2356.478372
 23
2288.789479
 33
0.0
 14
2876.478372
 24
2453.8170439999999
 34
0.0
1001
ACAD
1000
DSTYLE
1002
{
1070
   287
1070
     4
1070
    40
1040
30.0
1070
    75
1070
     1
1070
   143
1040
0.039
1070
   172
1070
     1
1070
   271
1070
     0
1070
   279
1070
     1
1070
   288
1070
     1
1002
}
  0
DIMENSION
  5
7B3C
  8
3
  6
CONTINUOUS
  2
*D7
 10
2356.478372
 20
4113.2994339999996
 30
0.0
 11
2629.7772960000002
 21
4113.2994339999996
 31
0.0
 70
   128
 13
2951.478372
 23
3978.3170439999999
 33
0.0
 14
2356.478372
 24
4077.381871
 34
0.0
1001
ACAD
1000
DSTYLE
1002
{
1070
   287
1070
     3
1070
    40
1040
30.0
1070
   143
1040
0.039
1070
   172
1070
     1
1070
   271
1070
     0
1070
   279
1070
     0
1070
   288
1070
     1
1002
}
  0
DIMENSION
  5
7B75
  8
3
  6
CONTINUOUS
  2
*D8
 10
4457.0398640000003
 20
4060.4342009999991
 30
0.0
 11
4752.5479059999998
 21
4060.4342009999991
 31
0.0
 70
   128
 13
5057.0398640000003
 23
3935.8170439999999
 33
0.0
 14
4457.0398640000003
 24
3935.8170439999999
 34
0.0
1001
ACAD
1000
DSTYLE
1002
{
1070
   287
1070
     3
1070
    40
1040
30.0
1070
   143
1040
0.039
1070
   172
1070
     1
1070
   271
1070
     0
1070
   279
1070
     0
1070
   288
1070
     1
1002
}
  0
LINE
  5
7B76
  8
1
  6
CONTINUOUS
 10
5061.0398640000012
 20
3573.8170439999999
 30
0.0
 11
5061.0398640000012
 21
2723.8170439999999
 31
0.0
  0
DIMENSION
  5
7B87
  8
3
  6
CONTINUOUS
  2
*D9
 10
5314.6522940000004
 20
2723.8170439999999
 30
0.0
 11
5314.6522940000004
 21
3135.2924990000001
 31
0.0
 70
   128
 13
5061.0398640000012
 23
3573.8170439999999
 33
0.0
 14
5061.0398640000012
 24
2723.8170439999999
 34
0.0
 50
90.0
1001
ACAD
1000
DSTYLE
1002
{
1070
   287
1070
     3
1070
     3
1000
φ<>
1070
    40
1040
30.0
1070
   143
1040
0.039
1070
   172
1070
     1
1070
   271
1070
     0
1070
   279
1070
     0
1070
   288
1070
     1
1002
}
  0
DIMENSION
  5
7B96
  8
3
  6
CONTINUOUS
  2
*D10
 10
4757.0398640000003
 20
4278.6159544979964
 30
0.0
 11
4909.0398640000003
 21
4365.4125624256812
 31
0.0
 70
   128
 13
5061.0398640000012
 23
3573.8170439999999
 33
0.0
 14
4757.0398640000003
 24
4205.287452999999
 34
0.0
1001
ACAD
1000
DSTYLE
1002
{
1070
   288
1070
     1
1070
   172
1070
     1
1070
    40
1040
30.0
1070
   271
1070
     0
1070
   143
1040
0.039
1002
}
  0
DIMENSION
  5
7BA2
  8
3
  6
CONTINUOUS
  2
*D11
 10
4197.0398640000003
 20
4278.6159544979964
 30
0.0
 11
4477.0398640000003
 21
4428.6159544979946
 31
0.0
 70
     0
  1
MAX\P610
 13
4757.0398640000003
 23
4205.287452999999
 33
0.0
 14
4197.0398640000003
 24
3803.8170439999999
 34
0.0
1001
ACAD
1000
DSTYLE
1002
{
1070
   287
1070
     4
1070
    40
1040
30.0
1070
    75
1070
     1
1070
   143
1040
0.039
1070
   172
1070
     1
1070
   271
1070
     0
1070
   279
1070
     1
1070
   288
1070
     1
1002
}
  0
DIMENSION
  5
7BAF
  8
3
  6
CONTINUOUS
  2
*D12
 10
4757.0398640000003
 20
2187.9717179999989
 30
0.0
 11
4551.325578285715
 21
2187.9717179999989
 31
0.0
 70
   128
 13
4289.0398640000003
 23
2453.8170439999999
 33
0.0
 14
4757.0398640000003
 24
2297.9008767833229
 34
0.0
1001
ACAD
1000
DSTYLE
1002
{
1070
   287
1070
     3
1070
    40
1040
30.0
1070
   143
1040
0.039
1070
   172
1070
     1
1070
   271
1070
     0
1070
   279
1070
     0
1070
   288
1070
     1
1002
}
  0
DIMENSION
  5
7BBD
  8
3
  6
CONTINUOUS
  2
*D13
 10
5109.0398640000003
 20
2187.9717179999989
 30
0.0
 11
4940.9139439999999
 21
2185.9771739999992
 31
0.0
 70
   128
 13
4757.0398640000003
 23
2297.9008767833229
 33
0.0
 14
5109.0398640000003
 24
2453.8170439999999
 34
0.0
1001
ACAD
1000
DSTYLE
1002
{
1070
   287
1070
     4
1070
    40
1040
30.0
1070
    75
1070
     1
1070
   143
1040
0.039
1070
   172
1070
     1
1070
   271
1070
     0
1070
   279
1070
     1
1070
   288
1070
     1
1002
}
  0
DIMENSION
  5
7BCA
  8
3
  6
CONTINUOUS
  2
*D14
 10
2876.478372
 20
6165.5467070000004
 30
0.0
 11
2041.2209459999999
 21
6165.5467070000004
 31
0.0
 70
   128
 13
1276.478372
 23
6006.9751260000003
 33
0.0
 14
2876.478372
 24
5980.9751259999994
 34
0.0
1001
ACAD
1000
DSTYLE
1002
{
1070
   287
1070
     3
1070
    40
1040
30.0
1070
   143
1040
0.039
1070
   172
1070
     1
1070
   271
1070
     0
1070
   279
1070
     0
1070
   288
1070
     1
1002
}
  0
DIMENSION
  5
7BD7
  8
3
  6
CONTINUOUS
  2
*D15
 10
3224.946644000001
 20
5186.9751260000003
 30
0.0
 11
3224.9466440000001
 21
5584.0290610000002
 31
0.0
 70
   128
 13
2876.478372
 23
6006.9751260000003
 33
0.0
 14
2876.478372
 24
5186.9751260000003
 34
0.0
 50
90.0
1001
ACAD
1000
DSTYLE
1002
{
1070
   287
1070
     3
1070
    40
1040
30.0
1070
   143
1040
0.039
1070
   172
1070
     1
1070
   271
1070
     0
1070
   279
1070
     0
1070
   288
1070
     1
1002
}
  0
DIMENSION
  5
7C14
  8
3
  6
CONTINUOUS
  2
*D16
 10
1692.474146
 20
4113.2994339999996
 30
0.0
 11
2024.476259
 21
4188.2994339999996
 31
0.0
 70
     0
 13
2356.478372
 23
4077.381871
 33
0.0
 14
1692.474146
 24
3148.8170439999999
 34
0.0
1001
ACAD
1000
DSTYLE
1002
{
1070
   287
1070
     4
1070
    40
1040
30.0
1070
    75
1070
     1
1070
   143
1040
0.039
1070
   172
1070
     1
1070
   271
1070
     0
1070
   279
1070
     1
1070
   288
1070
     1
1002
}
  0
DIMENSION
  5
7CB0
  8
3
  2
*D17
 10
1276.478372
 20
4290.0617422414361
 30
0.0
 11
2142.1955862450959
 21
4290.0617422414361
 31
0.0
 70
   128
 13
2951.478372
 23
3978.3170439999999
 33
0.0
 14
1276.478372
 24
2553.8170439999999
 34
0.0
1001
ACAD
1000
DSTYLE
1002
{
1070
   287
1070
     3
1070
    40
1040
30.0
1070
   143
1040
0.039
1070
   172
1070
     1
1070
   271
1070
     0
1070
   279
1070
     0
1070
   288
1070
     1
1002
}
  0
LINE
  5
7CE8
  8
1
 10
1856.4783719999989
 20
3553.8170439999999
 30
0.0
 11
1856.478372
 21
2553.8170439999999
 31
0.0
  0
LINE
  5
7CE9
  8
1
 10
2856.4783719999991
 20
3553.8170439999999
 30
0.0
 11
2856.478372
 21
2553.8170439999999
 31
0.0
  0
LINE
  5
7CEA
  8
1
  6
CONTINUOUS
 10
2856.4783719999991
 20
3553.8170439999999
 30
0.0
 11
1856.4783719999989
 21
3553.8170439999999
 31
0.0
  0
ENDSEC
  0
EOF
