  0
SECTION
  2
HEADER
  9
$ACADVER
  1
AC1009
  9
$INSBASE
 10
0.0
 20
0.0
 30
0.0
  9
$EXTMIN
 10
750.0
 20
900.0
 30
0.0
  9
$EXTMAX
 10
5550.0
 20
8359.9567849999985
 30
0.0
  9
$LIMMIN
 10
0.0
 20
0.0
  9
$LIMMAX
 10
297.0
 20
210.0
  9
$ORTHOMODE
 70
     0
  9
$REGENMODE
 70
     1
  9
$FILLMODE
 70
     0
  9
$QTEXTMODE
 70
     0
  9
$MIRRTEXT
 70
     1
  9
$DRAGMODE
 70
     2
  9
$LTSCALE
 40
100.0
  9
$OSMODE
 70
    37
  9
$ATTMODE
 70
     1
  9
$TEXTSIZE
 40
180.0
  9
$TRACEWID
 40
0.05
  9
$TEXTSTYLE
  7
STANDARD
  9
$CLAYER
  8
3
  9
$CELTYPE
  6
BYLAYER
  9
$CECOLOR
 62
   256
  9
$DIMSCALE
 40
30.0
  9
$DIMASZ
 40
2.0
  9
$DIMEXO
 40
0.5
  9
$DIMDLI
 40
10.0
  9
$DIMRND
 40
0.0
  9
$DIMDLE
 40
0.0
  9
$DIMEXE
 40
1.0
  9
$DIMTP
 40
1.0
  9
$DIMTM
 40
1.0
  9
$DIMTXT
 40
3.0
  9
$DIMCEN
 40
0.0
  9
$DIMTSZ
 40
0.0
  9
$DIMTOL
 70
     0
  9
$DIMLIM
 70
     0
  9
$DIMTIH
 70
     0
  9
$DIMTOH
 70
     0
  9
$DIMSE1
 70
     0
  9
$DIMSE2
 70
     0
  9
$DIMTAD
 70
     1
  9
$DIMZIN
 70
     8
  9
$DIMBLK
  1

  9
$DIMASO
 70
     1
  9
$DIMSHO
 70
     1
  9
$DIMPOST
  1

  9
$DIMAPOST
  1

  9
$DIMALT
 70
     0
  9
$DIMALTD
 70
     2
  9
$DIMALTF
 40
0.039
  9
$DIMLFAC
 40
1.0
  9
$DIMTOFL
 70
     1
  9
$DIMTVP
 40
0.0
  9
$DIMTIX
 70
     0
  9
$DIMSOXD
 70
     0
  9
$DIMSAH
 70
     1
  9
$DIMBLK1
  1
OPEN
  9
$DIMBLK2
  1
OPEN
  9
$DIMSTYLE
  2
IGA
  9
$DIMCLRD
 70
     0
  9
$DIMCLRE
 70
     0
  9
$DIMCLRT
 70
     0
  9
$DIMTFAC
 40
10.0
  9
$DIMGAP
 40
1.0
  9
$LUNITS
 70
     2
  9
$LUPREC
 70
     3
  9
$SKETCHINC
 40
0.1
  9
$FILLETRAD
 40
0.0
  9
$AUNITS
 70
     0
  9
$AUPREC
 70
     0
  9
$MENU
  1
acad
  9
$ELEVATION
 40
0.0
  9
$PELEVATION
 40
0.0
  9
$THICKNESS
 40
0.0
  9
$LIMCHECK
 70
     0
  9
$BLIPMODE
 70
     0
  9
$CHAMFERA
 40
0.5
  9
$CHAMFERB
 40
0.5
  9
$SKPOLY
 70
     0
  9
$TDCREATE
 40
2450746.4444934032
  9
$TDUPDATE
 40
2454953.775099826
  9
$TDINDWG
 40
0.0106059722
  9
$TDUSRTIMER
 40
0.0106059722
  9
$USRTIMER
 70
     1
  9
$ANGBASE
 50
0.0
  9
$ANGDIR
 70
     0
  9
$PDMODE
 70
     0
  9
$PDSIZE
 40
0.0
  9
$PLINEWID
 40
0.0
  9
$COORDS
 70
     1
  9
$SPLFRAME
 70
     0
  9
$SPLINETYPE
 70
     6
  9
$SPLINESEGS
 70
     8
  9
$ATTDIA
 70
     0
  9
$ATTREQ
 70
     1
  9
$HANDLING
 70
 10241
  9
$HANDSEED
  5
7D9D
  9
$SURFTAB1
 70
     6
  9
$SURFTAB2
 70
     6
  9
$SURFTYPE
 70
     6
  9
$SURFU
 70
     6
  9
$SURFV
 70
     6
  9
$UCSNAME
  2

  9
$UCSORG
 10
0.0
 20
0.0
 30
0.0
  9
$UCSXDIR
 10
1.0
 20
0.0
 30
0.0
  9
$UCSYDIR
 10
0.0
 20
1.0
 30
0.0
  9
$PUCSNAME
  2

  9
$PUCSORG
 10
0.0
 20
0.0
 30
0.0
  9
$PUCSXDIR
 10
1.0
 20
0.0
 30
0.0
  9
$PUCSYDIR
 10
0.0
 20
1.0
 30
0.0
  9
$USERI1
 70
     0
  9
$USERI2
 70
     0
  9
$USERI3
 70
     0
  9
$USERI4
 70
     0
  9
$USERI5
 70
     0
  9
$USERR1
 40
0.0
  9
$USERR2
 40
0.0
  9
$USERR3
 40
0.0
  9
$USERR4
 40
0.0
  9
$USERR5
 40
0.0
  9
$WORLDVIEW
 70
     1
  9
$SHADEDGE
 70
     3
  9
$SHADEDIF
 70
    70
  9
$TILEMODE
 70
     1
  9
$MAXACTVP
 70
    16
  9
$PLIMCHECK
 70
     0
  9
$PEXTMIN
 10
1.0000000000000000E+020
 20
1.0000000000000000E+020
 30
1.0000000000000000E+020
  9
$PEXTMAX
 10
-1.0000000000000000E+020
 20
-1.0000000000000000E+020
 30
-1.0000000000000000E+020
  9
$PLIMMIN
 10
0.0
 20
0.0
  9
$PLIMMAX
 10
12.0
 20
9.0
  9
$UNITMODE
 70
     0
  9
$VISRETAIN
 70
     0
  9
$PLINEGEN
 70
     0
  9
$PSLTSCALE
 70
     1
  0
ENDSEC
  0
SECTION
  2
TABLES
  0
TABLE
  2
VPORT
 70
     2
  0
VPORT
  2
*ACTIVE
 70
     0
 10
0.0
 20
0.0
 11
1.0
 21
1.0
 12
9438.1687158055174
 22
4629.9562499988788
 13
0.0
 23
0.0
 14
10.0
 24
10.0
 15
10.0
 25
10.0
 16
0.0
 26
0.0
 36
1.0
 17
0.0
 27
0.0
 37
0.0
 40
7517.2452868940854
 41
3.1666666666666661
 42
50.0
 43
0.0
 44
0.0
 50
0.0
 51
0.0
 71
     0
 72
   100
 73
     1
 74
     0
 75
     0
 76
     0
 77
     0
 78
     0
  0
ENDTAB
  0
TABLE
  2
LTYPE
 70
     2
  0
LTYPE
  2
CONTINUOUS
 70
     0
  3
Solid line
 72
    65
 73
     0
 40
0.0
  0
LTYPE
  2
CENTER
 70
     0
  3
____ _ ____ _ ____ _ ____ _ ____ _ ____ _ ____ 
 72
    65
 73
     4
 40
2.0
 49
1.25
 49
-0.25
 49
0.25
 49
-0.25
  0
ENDTAB
  0
TABLE
  2
LAYER
 70
     6
  0
LAYER
  2
0
 70
     0
 62
     7
  6
CONTINUOUS
  0
LAYER
  2
3
 70
     0
 62
     2
  6
CONTINUOUS
  0
LAYER
  2
2
 70
     0
 62
     3
  6
CENTER
  0
LAYER
  2
1
 70
     0
 62
     4
  6
CONTINUOUS
  0
LAYER
  2
4
 70
     0
 62
     7
  6
CONTINUOUS
  0
LAYER
  2
DEFPOINTS
 70
     0
 62
     7
  6
CONTINUOUS
  0
ENDTAB
  0
TABLE
  2
STYLE
 70
     1
  0
STYLE
  2
STANDARD
 70
     0
 40
0.0
 41
1.0
 50
0.0
 71
     0
 42
180.0
  3
simplex.shx
  4
extfont.shx
  0
ENDTAB
  0
TABLE
  2
VIEW
 70
     0
  0
ENDTAB
  0
TABLE
  2
UCS
 70
     0
  0
ENDTAB
  0
TABLE
  2
APPID
 70
     1
  0
APPID
  2
ACAD
 70
     0
  0
ENDTAB
  0
TABLE
  2
DIMSTYLE
 70
     1
  0
DIMSTYLE
  2
IGA
 70
     0
  3

  4

  5

  6
OPEN
  7
OPEN
 40
2.0
 41
2.0
 42
0.5
 43
10.0
 44
1.0
 45
0.0
 46
0.0
 47
1.0
 48
1.0
140
3.0
141
0.0
142
0.0
143
0.03937
144
1.0
145
0.0
146
10.0
147
1.0
 71
     0
 72
     0
 73
     0
 74
     0
 75
     0
 76
     0
 77
     1
 78
     8
170
     0
171
     2
172
     0
173
     1
174
     0
175
     0
176
     0
177
     0
178
     0
  0
ENDTAB
  0
ENDSEC
  0
SECTION
  2
BLOCKS
  0
BLOCK
  8
0
  2
$MODEL_SPACE
 70
     0
 10
0.0
 20
0.0
 30
0.0
  3
$MODEL_SPACE
  1

  0
ENDBLK
  5
1B
  8
0
  0
BLOCK
 67
     1
  8
0
  2
$PAPER_SPACE
 70
     0
 10
0.0
 20
0.0
 30
0.0
  3
$PAPER_SPACE
  1

  0
ENDBLK
  5
18
 67
     1
  8
0
  0
BLOCK
  8
0
  2
_OPEN
 70
     0
 10
0.0
 20
0.0
 30
0.0
  3
_OPEN
  1

  0
LINE
  5
7ADD
  8
0
  6
BYBLOCK
 62
     0
 10
-1.0
 20
0.166667
 30
0.0
 11
0.0
 21
0.0
 31
0.0
  0
LINE
  5
7ADE
  8
0
  6
BYBLOCK
 62
     0
 10
0.0
 20
0.0
 30
0.0
 11
-1.0
 21
-0.166667
 31
0.0
  0
LINE
  5
7ADF
  8
0
  6
BYBLOCK
 62
     0
 10
0.0
 20
0.0
 30
0.0
 11
-1.0
 21
0.0
 31
0.0
  0
ENDBLK
  5
7AE0
  8
0
  0
BLOCK
  8
0
  2
*D1
 70
     1
 10
0.0
 20
0.0
 30
0.0
  3
*D1
  1

  0
LINE
  5
7CFF
  8
3
  6
CONTINUOUS
 62
     0
 10
2606.6573149999999
 20
3488.5829159999998
 30
0.0
 11
2840.137451000001
 21
3488.5829159999998
 31
0.0
  0
LINE
  5
7D00
  8
3
  6
CONTINUOUS
 62
     0
 10
2606.6573149999999
 20
2663.5829159999998
 30
0.0
 11
2840.1374510000001
 21
2663.5829159999998
 31
0.0
  0
LINE
  5
7D01
  8
3
  6
CONTINUOUS
 62
     0
 10
2810.137451000001
 20
3428.5829159999989
 30
0.0
 11
2810.137451000001
 21
2723.5829159999989
 31
0.0
  0
INSERT
  5
7D02
  8
3
  6
CONTINUOUS
 62
     0
  2
_OPEN
 10
2810.137451000001
 20
3488.5829159999998
 30
0.0
 41
60.0
 42
60.0
 43
60.0
 50
90.0
  0
INSERT
  5
7D03
  8
3
  6
CONTINUOUS
 62
     0
  2
_OPEN
 10
2810.137451000001
 20
2663.5829159999998
 30
0.0
 41
60.0
 42
60.0
 43
60.0
 50
270.0
  0
TEXT
  8
3
  40
90
  5
7D8C
  62
0
  72
0
  71
0
 10
2555.14
 20
2941.24
 30
0.000000
  1
825
  0
POINT
  5
7D05
  8
DEFPOINTS
  6
CONTINUOUS
 62
     0
 10
2591.6573149999999
 20
3488.5829159999998
 30
0.0
  0
POINT
  5
7D06
  8
DEFPOINTS
  6
CONTINUOUS
 62
     0
 10
2591.6573149999999
 20
2663.5829159999998
 30
0.0
  0
POINT
  5
7D07
  8
DEFPOINTS
  6
CONTINUOUS
 62
     0
 10
2810.137451000001
 20
2663.5829159999998
 30
0.0
  0
ENDBLK
  5
7AED
  8
0
  0
BLOCK
  8
0
  2
*D2
 70
     1
 10
0.0
 20
0.0
 30
0.0
  3
*D2
  1

  0
LINE
  5
7D08
  8
3
  6
CONTINUOUS
 62
     0
 10
2720.7878930000002
 20
3450.5829159999998
 30
0.0
 11
3030.780600000001
 21
3450.5829159999998
 31
0.0
  0
LINE
  5
7D09
  8
3
  6
CONTINUOUS
 62
     0
 10
2606.6573149999999
 20
2663.5829159999998
 30
0.0
 11
3030.7806
 21
2663.5829159999998
 31
0.0
  0
LINE
  5
7D0A
  8
3
  6
CONTINUOUS
 62
     0
 10
3000.780600000001
 20
3390.5829159999989
 30
0.0
 11
3000.7806
 21
2723.5829159999989
 31
0.0
  0
INSERT
  5
7D0B
  8
3
  6
CONTINUOUS
 62
     0
  2
_OPEN
 10
3000.780600000001
 20
3450.5829159999998
 30
0.0
 41
60.0
 42
60.0
 43
60.0
 50
90.0
  0
INSERT
  5
7D0C
  8
3
  6
CONTINUOUS
 62
     0
  2
_OPEN
 10
3000.7806
 20
2663.5829159999998
 30
0.0
 41
60.0
 42
60.0
 43
60.0
 50
270.0
  0
TEXT
  8
3
  40
90
  5
7D8D
  62
0
  72
0
  71
0
 10
2745.78
 20
2941.24
 30
0.000000
  1
787
  0
POINT
  5
7D0E
  8
DEFPOINTS
  6
CONTINUOUS
 62
     0
 10
2705.7878930000002
 20
3450.5829159999998
 30
0.0
  0
POINT
  5
7D0F
  8
DEFPOINTS
  6
CONTINUOUS
 62
     0
 10
2591.6573149999999
 20
2663.5829159999998
 30
0.0
  0
POINT
  5
7D10
  8
DEFPOINTS
  6
CONTINUOUS
 62
     0
 10
3000.7806
 20
2663.5829159999998
 30
0.0
  0
ENDBLK
  5
7AFA
  8
0
  0
BLOCK
  8
0
  2
*D3
 70
     1
 10
0.0
 20
0.0
 30
0.0
  3
*D3
  1

  0
LINE
  5
7D11
  8
3
  6
CONTINUOUS
 62
     0
 10
2720.7878930000002
 20
3450.5829159999998
 30
0.0
 11
3239.2965450000002
 21
3450.5829159999998
 31
0.0
  0
LINE
  5
7D12
  8
3
  6
CONTINUOUS
 62
     0
 10
2531.6573149999999
 20
2480.5829159999989
 30
0.0
 11
3239.2965450000002
 21
2480.5829159999989
 31
0.0
  0
LINE
  5
7D13
  8
3
  6
CONTINUOUS
 62
     0
 10
3209.2965450000002
 20
3390.5829159999989
 30
0.0
 11
3209.2965450000002
 21
2540.5829159999989
 31
0.0
  0
INSERT
  5
7D14
  8
3
  6
CONTINUOUS
 62
     0
  2
_OPEN
 10
3209.2965450000002
 20
3450.5829159999998
 30
0.0
 41
60.0
 42
60.0
 43
60.0
 50
90.0
  0
INSERT
  5
7D15
  8
3
  6
CONTINUOUS
 62
     0
  2
_OPEN
 10
3209.2965450000002
 20
2480.5829159999989
 30
0.0
 41
60.0
 42
60.0
 43
60.0
 50
270.0
  0
TEXT
  8
3
  40
90
  5
7D8E
  62
0
  72
0
  71
0
 10
2954.30
 20
2806.28
 30
0.000000
  1
970
  0
POINT
  5
7D17
  8
DEFPOINTS
  6
CONTINUOUS
 62
     0
 10
2705.7878930000002
 20
3450.5829159999998
 30
0.0
  0
POINT
  5
7D18
  8
DEFPOINTS
  6
CONTINUOUS
 62
     0
 10
2516.6573149999999
 20
2480.5829159999989
 30
0.0
  0
POINT
  5
7D19
  8
DEFPOINTS
  6
CONTINUOUS
 62
     0
 10
3209.2965450000002
 20
2480.5829159999989
 30
0.0
  0
ENDBLK
  5
7CBA
  8
0
  0
BLOCK
  8
0
  2
*D4
 70
     1
 10
0.0
 20
0.0
 30
0.0
  3
*D4
  1

  0
LINE
  5
7D1A
  8
3
  6
CONTINUOUS
 62
     0
 10
4429.9654220000002
 20
4043.132916
 30
0.0
 11
4429.9654220000002
 21
4222.1261080000004
 31
0.0
  0
LINE
  5
7D1B
  8
3
  6
CONTINUOUS
 62
     0
 10
5029.9654220000002
 20
4043.132916
 30
0.0
 11
5029.9654220000002
 21
4222.1261080000004
 31
0.0
  0
LINE
  5
7D1C
  8
3
  6
CONTINUOUS
 62
     0
 10
4489.9654220000002
 20
4192.1261079999986
 30
0.0
 11
4969.9654220000011
 21
4192.1261079999986
 31
0.0
  0
INSERT
  5
7D1D
  8
3
  6
CONTINUOUS
 62
     0
  2
_OPEN
 10
4429.9654220000002
 20
4192.1261079999986
 30
0.0
 41
60.0
 42
60.0
 43
60.0
 50
180.0
  0
INSERT
  5
7D1E
  8
3
  6
CONTINUOUS
 62
     0
  2
_OPEN
 10
5029.9654220000002
 20
4192.1261079999986
 30
0.0
 41
60.0
 42
60.0
 43
60.0
  0
TEXT
  8
3
  40
90
  5
7D8F
  62
0
  72
0
  71
0
 10
4553.69
 20
4107.83
 30
0.000000
  1
600
  0
POINT
  5
7D20
  8
DEFPOINTS
  6
CONTINUOUS
 62
     0
 10
4429.9654220000002
 20
4028.1329159999991
 30
0.0
  0
POINT
  5
7D21
  8
DEFPOINTS
  6
CONTINUOUS
 62
     0
 10
5029.9654220000002
 20
4028.1329159999991
 30
0.0
  0
POINT
  5
7D22
  8
DEFPOINTS
  6
CONTINUOUS
 62
     0
 10
5029.9654220000002
 20
4192.1261079999986
 30
0.0
  0
ENDBLK
  5
7B2D
  8
0
  0
BLOCK
  8
0
  2
*D5
 70
     1
 10
0.0
 20
0.0
 30
0.0
  3
*D5
  1

  0
LINE
  5
7D23
  8
3
  6
CONTINUOUS
 62
     0
 10
5048.9654220000011
 20
3875.5829159999989
 30
0.0
 11
5381.5592590000024
 21
3875.5829159999989
 31
0.0
  0
LINE
  5
7D24
  8
3
  6
CONTINUOUS
 62
     0
 10
5048.9654220000011
 20
3025.5829159999989
 30
0.0
 11
5381.5592590000024
 21
3025.5829159999989
 31
0.0
  0
LINE
  5
7D25
  8
3
  6
CONTINUOUS
 62
     0
 10
5351.5592590000006
 20
3815.5829159999989
 30
0.0
 11
5351.5592590000006
 21
3085.5829159999989
 31
0.0
  0
INSERT
  5
7D26
  8
3
  6
CONTINUOUS
 62
     0
  2
_OPEN
 10
5351.5592590000006
 20
3875.5829159999989
 30
0.0
 41
60.0
 42
60.0
 43
60.0
 50
90.0
  0
INSERT
  5
7D27
  8
3
  6
CONTINUOUS
 62
     0
  2
_OPEN
 10
5351.5592590000006
 20
3025.5829159999989
 30
0.0
 41
60.0
 42
60.0
 43
60.0
 50
270.0
  0
TEXT
  8
3
  40
90
  5
7D90
  62
0
  72
0
  71
0
 10
5096.56
 20
3281.74
 30
0.000000
  1
φ850
  0
POINT
  5
7D29
  8
DEFPOINTS
  6
CONTINUOUS
 62
     0
 10
5033.9654220000002
 20
3875.5829159999989
 30
0.0
  0
POINT
  5
7D2A
  8
DEFPOINTS
  6
CONTINUOUS
 62
     0
 10
5033.9654220000002
 20
3025.5829159999989
 30
0.0
  0
POINT
  5
7D2B
  8
DEFPOINTS
  6
CONTINUOUS
 62
     0
 10
5351.5592590000006
 20
3025.5829159999989
 30
0.0
  0
ENDBLK
  5
7C99
  8
0
  0
BLOCK
  8
0
  2
*D6
 70
     1
 10
0.0
 20
0.0
 30
0.0
  3
*D6
  1

  0
LINE
  5
7C7B
  8
0
  6
BYBLOCK
 62
     0
 10
5033.9654220000002
 20
3890.5829159999989
 30
0.0
 11
5033.9654220000002
 21
4413.0798719999993
 31
0.0
  0
LINE
  5
7C7C
  8
0
  6
BYBLOCK
 62
     0
 10
4729.9654220000002
 20
4352.9756159999997
 30
0.0
 11
4729.9654220000002
 21
4413.0798719999993
 31
0.0
  0
LINE
  5
7C7D
  8
0
  6
BYBLOCK
 62
     0
 10
4973.9654220000002
 20
4383.0798720000003
 30
0.0
 11
4789.9654220000002
 21
4383.0798720000003
 31
0.0
  0
TEXT
  5
7C7E
  8
3
 62
     0
 10
4764.1082791428571
 20
4411.3082572620078
 30
0.0
 40
90.0
  1
304
  0
INSERT
  5
7C7F
  8
0
  6
BYBLOCK
 62
     0
  2
_OPEN
 10
5033.9654220000002
 20
4383.0798720000003
 30
0.0
 41
60.0
 42
60.0
 43
60.0
  0
INSERT
  5
7C80
  8
0
  6
BYBLOCK
 62
     0
  2
_OPEN
 10
4729.9654220000002
 20
4383.0798720000003
 30
0.0
 41
60.0
 42
60.0
 43
60.0
 50
180.0
  0
POINT
  5
7C81
  8
DEFPOINTS
  6
BYBLOCK
 62
     0
 10
5033.9654220000002
 20
3875.5829159999989
 30
0.0
  0
POINT
  5
7C82
  8
DEFPOINTS
  6
BYBLOCK
 62
     0
 10
4729.9654220000002
 20
4337.9756159999997
 30
0.0
  0
POINT
  5
7C83
  8
DEFPOINTS
  6
BYBLOCK
 62
     0
 10
4729.9654220000002
 20
4383.0798720000003
 30
0.0
  0
ENDBLK
  5
7C84
  8
0
  0
BLOCK
  8
0
  2
*D7
 70
     1
 10
0.0
 20
0.0
 30
0.0
  3
*D7
  1

  0
LINE
  5
7D2C
  8
3
  6
CONTINUOUS
 62
     0
 10
4169.9654220000002
 20
3845.5829159999998
 30
0.0
 11
4169.9654220000002
 21
4413.0798719999993
 31
0.0
  0
LINE
  5
7D2D
  8
3
  6
CONTINUOUS
 62
     0
 10
4669.9654220000002
 20
4383.0798720000003
 30
0.0
 11
4229.9654220000002
 21
4383.0798720000003
 31
0.0
  0
INSERT
  5
7D2E
  8
3
  6
CONTINUOUS
 62
     0
  2
_OPEN
 10
4729.9654220000002
 20
4383.0798720000003
 30
0.0
 41
60.0
 42
60.0
 43
60.0
  0
INSERT
  5
7D2F
  8
3
  6
CONTINUOUS
 62
     0
  2
_OPEN
 10
4169.9654220000002
 20
4383.0798720000003
 30
0.0
 41
60.0
 42
60.0
 43
60.0
 50
180.0
  0
TEXT
  8
3
  40
90
  5
7D91
  62
0
  72
0
  71
0
 10
4269.97
 20
4373.78
 30
0.000000
  1
MAX
  0
TEXT
  8
3
  40
90
  5
7D92
  62
0
  72
0
  71
0
 10
4269.97
 20
4256.78
 30
0.000000
  1
610
  0
POINT
  5
7D31
  8
DEFPOINTS
  6
CONTINUOUS
 62
     0
 10
4729.9654220000002
 20
4337.9756159999997
 30
0.0
  0
POINT
  5
7D32
  8
DEFPOINTS
  6
CONTINUOUS
 62
     0
 10
4169.9654220000002
 20
3830.5829159999998
 30
0.0
  0
POINT
  5
7D33
  8
DEFPOINTS
  6
CONTINUOUS
 62
     0
 10
4169.9654220000002
 20
4383.0798720000003
 30
0.0
  0
ENDBLK
  5
7C8E
  8
0
  0
BLOCK
  8
0
  2
*D8
 70
     1
 10
0.0
 20
0.0
 30
0.0
  3
*D8
  1

  0
LINE
  5
7D34
  8
3
  6
CONTINUOUS
 62
     0
 10
4261.9654220000002
 20
2465.5829159999998
 30
0.0
 11
4261.9654220000002
 21
2228.3259800000001
 31
0.0
  0
LINE
  5
7D35
  8
3
  6
CONTINUOUS
 62
     0
 10
4729.9654220000002
 20
2312.3083780000002
 30
0.0
 11
4729.9654220000002
 21
2228.3259800000001
 31
0.0
  0
LINE
  5
7D36
  8
3
  6
CONTINUOUS
 62
     0
 10
4201.9654219999993
 20
2258.3259799999992
 30
0.0
 11
4141.9654220000011
 21
2258.3259799999992
 31
0.0
  0
LINE
  5
7D37
  8
3
  6
CONTINUOUS
 62
     0
 10
4789.9654220000002
 20
2258.3259799999992
 30
0.0
 11
4849.9654220000002
 21
2258.3259799999992
 31
0.0
  0
LINE
  5
7D38
  8
3
  6
CONTINUOUS
 62
     0
 10
4261.9654220000002
 20
2258.3259799999992
 30
0.0
 11
4729.9654220000002
 21
2258.3259799999992
 31
0.0
  0
INSERT
  5
7D39
  8
3
  6
CONTINUOUS
 62
     0
  2
_OPEN
 10
4261.9654220000002
 20
2258.3259799999992
 30
0.0
 41
60.0
 42
60.0
 43
60.0
  0
INSERT
  5
7D3A
  8
3
  6
CONTINUOUS
 62
     0
  2
_OPEN
 10
4729.9654220000002
 20
2258.3259799999992
 30
0.0
 41
60.0
 42
60.0
 43
60.0
 50
180.0
  0
TEXT
  8
3
  40
90
  5
7D93
  62
0
  72
0
  71
0
 10
4344.25
 20
2174.03
 30
0.000000
  1
468
  0
POINT
  5
7D3C
  8
DEFPOINTS
  6
CONTINUOUS
 62
     0
 10
4261.9654220000002
 20
2480.5829159999989
 30
0.0
  0
POINT
  5
7D3D
  8
DEFPOINTS
  6
CONTINUOUS
 62
     0
 10
4729.9654220000002
 20
2327.3083780000002
 30
0.0
  0
POINT
  5
7D3E
  8
DEFPOINTS
  6
CONTINUOUS
 62
     0
 10
4729.9654220000002
 20
2258.3259799999992
 30
0.0
  0
ENDBLK
  5
7C5A
  8
0
  0
BLOCK
  8
0
  2
*D9
 70
     1
 10
0.0
 20
0.0
 30
0.0
  3
*D9
  1

  0
LINE
  5
7D3F
  8
3
  6
CONTINUOUS
 62
     0
 10
5081.9654220000002
 20
2465.5829159999998
 30
0.0
 11
5081.9654220000002
 21
2228.3259800000001
 31
0.0
  0
LINE
  5
7D40
  8
3
  6
CONTINUOUS
 62
     0
 10
4789.9654220000002
 20
2258.3259799999992
 30
0.0
 11
5021.9654220000002
 21
2258.3259799999992
 31
0.0
  0
TEXT
  8
3
  40
90
  5
7D94
  62
0
  72
0
  71
0
 10
4726.94
 20
2176.73
 30
0.000000
  1
352
  0
INSERT
  5
7D42
  8
3
  6
CONTINUOUS
 62
     0
  2
_OPEN
 10
4729.9654220000002
 20
2258.3259799999992
 30
0.0
 41
60.0
 42
60.0
 43
60.0
 50
180.0
  0
INSERT
  5
7D43
  8
3
  6
CONTINUOUS
 62
     0
  2
_OPEN
 10
5081.9654220000002
 20
2258.3259799999992
 30
0.0
 41
60.0
 42
60.0
 43
60.0
  0
POINT
  5
7D44
  8
DEFPOINTS
  6
CONTINUOUS
 62
     0
 10
4729.9654220000002
 20
2327.3083780000002
 30
0.0
  0
POINT
  5
7D45
  8
DEFPOINTS
  6
CONTINUOUS
 62
     0
 10
5081.9654220000002
 20
2480.5829159999989
 30
0.0
  0
POINT
  5
7D46
  8
DEFPOINTS
  6
CONTINUOUS
 62
     0
 10
5081.9654220000002
 20
2258.3259799999992
 30
0.0
  0
ENDBLK
  5
7C64
  8
0
  0
BLOCK
  8
0
  2
*D10
 70
     1
 10
0.0
 20
0.0
 30
0.0
  3
*D10
  1

  0
LINE
  5
7D47
  8
3
  6
CONTINUOUS
 62
     0
 10
2591.6573149999999
 20
3546.0829159999989
 30
0.0
 11
2591.6573149999999
 21
4203.030737
 31
0.0
  0
LINE
  5
7D48
  8
3
  6
CONTINUOUS
 62
     0
 10
1996.6573149999999
 20
4122.8026340000006
 30
0.0
 11
1996.6573149999999
 21
4203.030737
 31
0.0
  0
LINE
  5
7D49
  8
3
  6
CONTINUOUS
 62
     0
 10
2531.6573149999999
 20
4173.030737
 30
0.0
 11
2056.6573149999999
 21
4173.030737
 31
0.0
  0
INSERT
  5
7D4A
  8
3
  6
CONTINUOUS
 62
     0
  2
_OPEN
 10
2591.6573149999999
 20
4173.030737
 30
0.0
 41
60.0
 42
60.0
 43
60.0
  0
INSERT
  5
7D4B
  8
3
  6
CONTINUOUS
 62
     0
  2
_OPEN
 10
1996.6573149999999
 20
4173.030737
 30
0.0
 41
60.0
 42
60.0
 43
60.0
 50
180.0
  0
TEXT
  8
3
  40
90
  5
7D95
  62
0
  72
0
  71
0
 10
2115.18
 20
4088.73
 30
0.000000
  1
595
  0
POINT
  5
7D4D
  8
DEFPOINTS
  6
CONTINUOUS
 62
     0
 10
2591.6573149999999
 20
3531.0829159999989
 30
0.0
  0
POINT
  5
7D4E
  8
DEFPOINTS
  6
CONTINUOUS
 62
     0
 10
1996.6573149999999
 20
4107.8026340000006
 30
0.0
  0
POINT
  5
7D4F
  8
DEFPOINTS
  6
CONTINUOUS
 62
     0
 10
1996.6573149999999
 20
4173.030737
 30
0.0
  0
ENDBLK
  5
7B98
  8
0
  0
BLOCK
  8
0
  2
*D11
 70
     1
 10
0.0
 20
0.0
 30
0.0
  3
*D11
  1

  0
LINE
  5
7D50
  8
3
  6
CONTINUOUS
 62
     0
 10
916.65731500000015
 20
2465.5829159999998
 30
0.0
 11
916.65731500000015
 21
2207.3215379999988
 31
0.0
  0
LINE
  5
7D51
  8
3
  6
CONTINUOUS
 62
     0
 10
1996.6573149999999
 20
2341.9301569999998
 30
0.0
 11
1996.6573149999999
 21
2207.3215379999988
 31
0.0
  0
LINE
  5
7D52
  8
3
  6
CONTINUOUS
 62
     0
 10
976.65731500000015
 20
2237.3215379999988
 30
0.0
 11
1936.6573149999999
 21
2237.3215379999988
 31
0.0
  0
INSERT
  5
7D53
  8
3
  6
CONTINUOUS
 62
     0
  2
_OPEN
 10
916.65731500000015
 20
2237.3215379999988
 30
0.0
 41
60.0
 42
60.0
 43
60.0
 50
180.0
  0
INSERT
  5
7D54
  8
3
  6
CONTINUOUS
 62
     0
  2
_OPEN
 10
1996.6573149999999
 20
2237.3215379999988
 30
0.0
 41
60.0
 42
60.0
 43
60.0
  0
TEXT
  8
3
  40
90
  5
7D96
  62
0
  72
0
  71
0
 10
1261.63
 20
2153.02
 30
0.000000
  1
1080
  0
POINT
  5
7D56
  8
DEFPOINTS
  6
CONTINUOUS
 62
     0
 10
916.65731500000015
 20
2480.5829159999989
 30
0.0
  0
POINT
  5
7D57
  8
DEFPOINTS
  6
CONTINUOUS
 62
     0
 10
1996.6573149999999
 20
2356.9301569999998
 30
0.0
  0
POINT
  5
7D58
  8
DEFPOINTS
  6
CONTINUOUS
 62
     0
 10
1996.6573149999999
 20
2237.3215379999988
 30
0.0
  0
ENDBLK
  5
7C1A
  8
0
  0
BLOCK
  8
0
  2
*D12
 70
     1
 10
0.0
 20
0.0
 30
0.0
  3
*D12
  1

  0
LINE
  5
7D59
  8
3
  6
CONTINUOUS
 62
     0
 10
2516.6573149999999
 20
2465.5829159999998
 30
0.0
 11
2516.6573149999999
 21
2207.3215379999988
 31
0.0
  0
LINE
  5
7D5A
  8
3
  6
CONTINUOUS
 62
     0
 10
2056.6573149999999
 20
2237.3215379999988
 30
0.0
 11
2456.6573149999999
 21
2237.3215379999988
 31
0.0
  0
INSERT
  5
7D5B
  8
3
  6
CONTINUOUS
 62
     0
  2
_OPEN
 10
1996.6573149999999
 20
2237.3215379999988
 30
0.0
 41
60.0
 42
60.0
 43
60.0
 50
180.0
  0
INSERT
  5
7D5C
  8
3
  6
CONTINUOUS
 62
     0
  2
_OPEN
 10
2516.6573149999999
 20
2237.3215379999988
 30
0.0
 41
60.0
 42
60.0
 43
60.0
  0
TEXT
  8
3
  40
90
  5
7D97
  62
0
  72
0
  71
0
 10
2076.66
 20
2153.02
 30
0.000000
  1
520
  0
POINT
  5
7D5E
  8
DEFPOINTS
  6
CONTINUOUS
 62
     0
 10
1996.6573149999999
 20
2356.9301569999998
 30
0.0
  0
POINT
  5
7D5F
  8
DEFPOINTS
  6
CONTINUOUS
 62
     0
 10
2516.6573149999999
 20
2480.5829159999989
 30
0.0
  0
POINT
  5
7D60
  8
DEFPOINTS
  6
CONTINUOUS
 62
     0
 10
2516.6573149999999
 20
2237.3215379999988
 30
0.0
  0
ENDBLK
  5
7C24
  8
0
  0
BLOCK
  8
0
  2
*D13
 70
     1
 10
0.0
 20
0.0
 30
0.0
  3
*D13
  1

  0
LINE
  5
7D61
  8
3
  6
CONTINUOUS
 62
     0
 10
2531.6573149999999
 20
6261.2226220000002
 30
0.0
 11
2949.4174200000011
 21
6261.2226220000002
 31
0.0
  0
LINE
  5
7D62
  8
3
  6
CONTINUOUS
 62
     0
 10
2531.6573149999999
 20
5441.2226220000002
 30
0.0
 11
2949.4174200000011
 21
5441.2226220000002
 31
0.0
  0
LINE
  5
7D63
  8
3
  6
CONTINUOUS
 62
     0
 10
2919.4174200000002
 20
6201.2226220000002
 30
0.0
 11
2919.4174200000002
 21
5501.2226220000002
 31
0.0
  0
INSERT
  5
7D64
  8
3
  6
CONTINUOUS
 62
     0
  2
_OPEN
 10
2919.4174200000002
 20
6261.2226220000002
 30
0.0
 41
60.0
 42
60.0
 43
60.0
 50
90.0
  0
INSERT
  5
7D65
  8
3
  6
CONTINUOUS
 62
     0
  2
_OPEN
 10
2919.4174200000002
 20
5441.2226220000002
 30
0.0
 41
60.0
 42
60.0
 43
60.0
 50
270.0
  0
TEXT
  8
3
  40
90
  5
7D98
  62
0
  72
0
  71
0
 10
2664.42
 20
5755.97
 30
0.000000
  1
820
  0
POINT
  5
7D67
  8
DEFPOINTS
  6
CONTINUOUS
 62
     0
 10
2516.6573149999999
 20
6261.2226220000002
 30
0.0
  0
POINT
  5
7D68
  8
DEFPOINTS
  6
CONTINUOUS
 62
     0
 10
2516.6573149999999
 20
5441.2226220000002
 30
0.0
  0
POINT
  5
7D69
  8
DEFPOINTS
  6
CONTINUOUS
 62
     0
 10
2919.4174200000002
 20
5441.2226220000002
 30
0.0
  0
ENDBLK
  5
7BD7
  8
0
  0
BLOCK
  8
0
  2
*D14
 70
     1
 10
0.0
 20
0.0
 30
0.0
  3
*D14
  1

  0
LINE
  5
7D6A
  8
3
  6
CONTINUOUS
 62
     0
 10
916.65731500000015
 20
6276.2226220000002
 30
0.0
 11
916.65731500000015
 21
6575.4128299999993
 31
0.0
  0
LINE
  5
7D6B
  8
3
  6
CONTINUOUS
 62
     0
 10
2516.6573149999999
 20
6276.2226220000002
 30
0.0
 11
2516.6573149999999
 21
6575.4128299999993
 31
0.0
  0
LINE
  5
7D6C
  8
3
  6
CONTINUOUS
 62
     0
 10
976.65731500000015
 20
6545.4128300000002
 30
0.0
 11
2456.6573149999999
 21
6545.4128300000002
 31
0.0
  0
INSERT
  5
7D6D
  8
3
  6
CONTINUOUS
 62
     0
  2
_OPEN
 10
916.65731500000015
 20
6545.4128300000002
 30
0.0
 41
60.0
 42
60.0
 43
60.0
 50
180.0
  0
INSERT
  5
7D6E
  8
3
  6
CONTINUOUS
 62
     0
  2
_OPEN
 10
2516.6573149999999
 20
6545.4128300000002
 30
0.0
 41
60.0
 42
60.0
 43
60.0
  0
TEXT
  8
3
  40
90
  5
7D99
  62
0
  72
0
  71
0
 10
1471.83
 20
6461.11
 30
0.000000
  1
1600
  0
POINT
  5
7D70
  8
DEFPOINTS
  6
CONTINUOUS
 62
     0
 10
916.65731500000015
 20
6261.2226220000002
 30
0.0
  0
POINT
  5
7D71
  8
DEFPOINTS
  6
CONTINUOUS
 62
     0
 10
2516.6573149999999
 20
6261.2226220000002
 30
0.0
  0
POINT
  5
7D72
  8
DEFPOINTS
  6
CONTINUOUS
 62
     0
 10
2516.6573149999999
 20
6545.4128300000002
 30
0.0
  0
ENDBLK
  5
7BE4
  8
0
  0
BLOCK
  8
0
  2
*D15
 70
     1
 10
0.0
 20
0.0
 30
0.0
  3
*D15
  1

  0
LINE
  5
7D73
  8
3
  6
CONTINUOUS
 62
     0
 10
2011.6573149999999
 20
4026.5735631068728
 30
0.0
 11
3239.2965450000002
 21
4026.5735631068728
 31
0.0
  0
LINE
  5
7D74
  8
3
  6
CONTINUOUS
 62
     0
 10
3209.2965450000002
 20
3510.5829159999989
 30
0.0
 11
3209.2965450000002
 21
3966.5735631068728
 31
0.0
  0
INSERT
  5
7D75
  8
3
  6
CONTINUOUS
 62
     0
  2
_OPEN
 10
3209.2965450000002
 20
3450.5829159999998
 30
0.0
 41
60.0
 42
60.0
 43
60.0
 50
270.0
  0
INSERT
  5
7D76
  8
3
  6
CONTINUOUS
 62
     0
  2
_OPEN
 10
3209.2965450000002
 20
4026.5735631068728
 30
0.0
 41
60.0
 42
60.0
 43
60.0
 50
90.0
  0
TEXT
  8
3
  40
90
  5
7D9A
  62
0
  72
0
  71
0
 10
2954.30
 20
3579.28
 30
0.000000
  1
576
  0
POINT
  5
7D78
  8
DEFPOINTS
  6
CONTINUOUS
 62
     0
 10
2705.7878930000002
 20
3450.5829159999998
 30
0.0
  0
POINT
  5
7D79
  8
DEFPOINTS
  6
CONTINUOUS
 62
     0
 10
1996.6573149999999
 20
4026.5735631068728
 30
0.0
  0
POINT
  5
7D7A
  8
DEFPOINTS
  6
CONTINUOUS
 62
     0
 10
3209.2965450000002
 20
4026.5735631068728
 30
0.0
  0
ENDBLK
  5
7CAF
  8
0
  0
BLOCK
  8
0
  2
*D16
 70
     1
 10
0.0
 20
0.0
 30
0.0
  3
*D16
  1

  0
LINE
  5
7D7B
  8
3
  6
CONTINUOUS
 62
     0
 10
1332.6530889999999
 20
3465.5829159999989
 30
0.0
 11
1332.6530889999999
 21
4203.030737
 31
0.0
  0
LINE
  5
7D7C
  8
3
  6
CONTINUOUS
 62
     0
 10
1936.6573149999999
 20
4173.030737
 30
0.0
 11
1392.6530889999999
 21
4173.030737
 31
0.0
  0
INSERT
  5
7D7D
  8
3
  6
CONTINUOUS
 62
     0
  2
_OPEN
 10
1996.6573149999999
 20
4173.030737
 30
0.0
 41
60.0
 42
60.0
 43
60.0
  0
INSERT
  5
7D7E
  8
3
  6
CONTINUOUS
 62
     0
  2
_OPEN
 10
1332.6530889999999
 20
4173.030737
 30
0.0
 41
60.0
 42
60.0
 43
60.0
 50
180.0
  0
TEXT
  8
3
  40
90
  5
7D9B
  62
0
  72
0
  71
0
 10
1484.66
 20
4088.73
 30
0.000000
  1
664
  0
POINT
  5
7D80
  8
DEFPOINTS
  6
CONTINUOUS
 62
     0
 10
1996.6573149999999
 20
4107.8026340000006
 30
0.0
  0
POINT
  5
7D81
  8
DEFPOINTS
  6
CONTINUOUS
 62
     0
 10
1332.6530889999999
 20
3450.5829159999998
 30
0.0
  0
POINT
  5
7D82
  8
DEFPOINTS
  6
CONTINUOUS
 62
     0
 10
1332.6530889999999
 20
4173.030737
 30
0.0
  0
ENDBLK
  5
7C0E
  8
0
  0
BLOCK
  8
0
  2
*D17
 70
     1
 10
0.0
 20
0.0
 30
0.0
  3
*D17
  1

  0
LINE
  5
7D83
  8
3
 62
     0
 10
2591.6573149999999
 20
3546.0829159999989
 30
0.0
 11
2591.6573149999999
 21
4365.4447000273904
 31
0.0
  0
LINE
  5
7D84
  8
3
 62
     0
 10
916.65731499999993
 20
2595.5829159999998
 30
0.0
 11
916.65731500000015
 21
4365.4447000273904
 31
0.0
  0
LINE
  5
7D85
  8
3
 62
     0
 10
2531.6573149999999
 20
4335.4447000273904
 30
0.0
 11
976.65731500000015
 21
4335.4447000273904
 31
0.0
  0
INSERT
  5
7D86
  8
3
 62
     0
  2
_OPEN
 10
2591.6573149999999
 20
4335.4447000273904
 30
0.0
 41
60.0
 42
60.0
 43
60.0
  0
INSERT
  5
7D87
  8
3
 62
     0
  2
_OPEN
 10
916.65731500000015
 20
4335.4447000273904
 30
0.0
 41
60.0
 42
60.0
 43
60.0
 50
180.0
  0
TEXT
  8
3
  40
90
  5
7D9C
  62
0
  72
0
  71
0
 10
1562.23
 20
4251.14
 30
0.000000
  1
1675
  0
POINT
  5
7D89
  8
DEFPOINTS
 62
     0
 10
2591.6573149999999
 20
3531.0829159999989
 30
0.0
  0
POINT
  5
7D8A
  8
DEFPOINTS
 62
     0
 10
916.65731499999993
 20
2580.5829159999998
 30
0.0
  0
POINT
  5
7D8B
  8
DEFPOINTS
 62
     0
 10
916.65731500000015
 20
4335.4447000273904
 30
0.0
  0
ENDBLK
  5
7CC6
  8
0
  0
ENDSEC
  0
SECTION
  2
ENTITIES
  0
LINE
  5
7A5F
  8
1
  6
CONTINUOUS
 10
4429.9654220000002
 20
3488.5829159999998
 30
0.0
 11
5029.9654220000002
 21
3488.5829159999998
 31
0.0
  0
LINE
  5
7A60
  8
1
  6
CONTINUOUS
 10
4429.9654220000002
 20
2663.5829159999998
 30
0.0
 11
5029.9654220000002
 21
2663.5829159999998
 31
0.0
  0
LINE
  5
7A61
  8
1
  6
CONTINUOUS
 10
5081.9654220000002
 20
2480.5829159999989
 30
0.0
 11
4261.9654220000002
 21
2480.5829159999989
 31
0.0
  0
LINE
  5
7A62
  8
1
  6
CONTINUOUS
 10
5081.9654220000002
 20
2580.5829159999998
 30
0.0
 11
4169.9654220000002
 21
2580.5829159999998
 31
0.0
  0
LINE
  5
7A63
  8
1
  6
CONTINUOUS
 10
4429.9654220000002
 20
4028.1329159999991
 30
0.0
 11
5029.9654220000002
 21
4028.1329159999991
 31
0.0
  0
LINE
  5
7A64
  8
1
  6
CONTINUOUS
 10
5029.9654220000002
 20
2663.5829159999998
 30
0.0
 11
4429.9654220000002
 21
3488.5829159999998
 31
0.0
  0
LINE
  5
7A65
  8
1
  6
CONTINUOUS
 10
4429.9654220000002
 20
2663.5829159999998
 30
0.0
 11
5029.9654220000002
 21
3488.5829159999998
 31
0.0
  0
LINE
  5
7A66
  8
1
  6
CONTINUOUS
 10
2416.6573149999999
 20
3830.5829159999998
 30
0.0
 11
1846.657314999999
 21
3830.5829159999998
 31
0.0
  0
LINE
  5
7A67
  8
1
  6
CONTINUOUS
 10
2516.6573149999999
 20
2480.5829159999989
 30
0.0
 11
916.65731500000015
 21
2480.5829159999989
 31
0.0
  0
LINE
  5
7A6A
  8
1
  6
CONTINUOUS
 10
2516.6573149999999
 20
2580.5829159999998
 30
0.0
 11
916.65731500000015
 21
2580.5829159999998
 31
0.0
  0
ARC
  5
7A6C
  8
1
  6
CONTINUOUS
 10
1961.6573149999999
 20
3485.5829159999998
 30
0.0
 40
542.03999999999985
 50
0.32
 51
83.499999999999986
  0
LINE
  5
7A6D
  8
1
  6
CONTINUOUS
 10
2591.6573149999999
 20
2663.5829159999998
 30
0.0
 11
1996.6573149999999
 21
2682.5829159999989
 31
0.0
  0
LINE
  5
7A6E
  8
1
  6
CONTINUOUS
 10
1131.7573150000001
 20
2715.7629160000001
 30
0.0
 11
2097.2673150000001
 21
3277.7329159999999
 31
0.0
  0
LINE
  5
7A6F
  8
1
  6
CONTINUOUS
 10
1042.9173149999999
 20
2835.462916
 30
0.0
 11
1860.3373149999991
 21
3596.922916
 31
0.0
  0
LINE
  5
7A70
  8
1
  6
CONTINUOUS
 10
1846.657314999999
 20
3830.5829159999998
 30
0.0
 11
936.65731500000004
 21
2880.5829159999989
 31
0.0
  0
ARC
  5
7A71
  8
1
  6
CONTINUOUS
 10
1952.6573149999999
 20
3406.5829159999998
 30
0.0
 40
621.54999999999995
 50
83.499999999999986
 51
175.24000000000001
  0
ARC
  5
7A72
  8
1
  6
CONTINUOUS
 10
2048.657314999999
 20
3398.5829159999998
 30
0.0
 40
717.88999999999987
 50
175.24000000000001
 51
265.85000000000002
  0
ARC
  5
7A73
  8
1
  6
CONTINUOUS
 10
1094.037315
 20
2780.5829159999998
 30
0.0
 40
162.0
 50
324.97000000000003
 51
215.02999999999989
  0
LINE
  5
7A74
  8
1
  6
CONTINUOUS
 10
940.03731500000004
 20
2638.5829159999998
 30
0.0
 11
961.37731499999995
 21
2687.6029159999989
 31
0.0
  0
LINE
  5
7A75
  8
1
  6
CONTINUOUS
 10
936.65731500000004
 20
2880.5829159999989
 30
0.0
 11
936.65731500000004
 21
2580.5829159999998
 31
0.0
  0
LINE
  5
7A76
  8
1
  6
CONTINUOUS
 10
940.03731500000004
 20
2580.5829159999998
 30
0.0
 11
940.03731500000004
 21
2638.5829159999998
 31
0.0
  0
LINE
  5
7A77
  8
1
  6
CONTINUOUS
 10
916.65731500000015
 20
2580.5829159999998
 30
0.0
 11
916.65731500000015
 21
2480.5829159999989
 31
0.0
  0
LINE
  5
7A78
  8
1
  6
CONTINUOUS
 10
1248.037315
 20
2638.5829159999998
 30
0.0
 11
1226.6873149999999
 21
2687.6029159999989
 31
0.0
  0
LINE
  5
7A79
  8
1
  6
CONTINUOUS
 10
1248.037315
 20
2580.5829159999998
 30
0.0
 11
1248.037315
 21
2638.5829159999998
 31
0.0
  0
CIRCLE
  5
7A7A
  8
1
  6
CONTINUOUS
 10
1094.037315
 20
2780.5829159999998
 30
0.0
 40
75.0
  0
LINE
  5
7A7B
  8
2
  6
CENTER
 10
1019.037315
 20
2780.5829159999998
 30
0.0
 11
1169.037315
 21
2780.5829159999998
 31
0.0
  0
LINE
  5
7A7C
  8
2
  6
CENTER
 10
1094.037315
 20
2705.5829159999998
 30
0.0
 11
1094.037315
 21
2855.5829159999989
 31
0.0
  0
LINE
  5
7A7D
  8
2
  6
CENTER
 10
1996.6573149999999
 20
6240.753866
 30
0.0
 11
1996.6573149999999
 21
5083.6292460000004
 31
0.0
  0
CIRCLE
  5
7A7E
  8
1
  6
CONTINUOUS
 10
1996.6573149999999
 20
3450.5829159999998
 30
0.0
 40
200.0
  0
LINE
  5
7A80
  8
2
  6
CENTER
 10
5184.3314140000002
 20
3450.5829159999998
 30
0.0
 11
4104.6170739999998
 21
3450.5829159999998
 31
0.0
  0
LINE
  5
7A81
  8
1
  6
CONTINUOUS
 10
2416.6573149999999
 20
2580.5829159999998
 30
0.0
 11
2416.6573149999999
 21
3830.5829159999998
 31
0.0
  0
LINE
  5
7A83
  8
1
  6
CONTINUOUS
 10
2591.6573149999999
 20
3531.0829159999989
 30
0.0
 11
2591.6573149999999
 21
2621.0829159999998
 31
0.0
  0
LINE
  5
7A84
  8
1
  6
CONTINUOUS
 10
2516.6573149999999
 20
2580.5829159999998
 30
0.0
 11
2516.6573149999999
 21
2480.5829159999989
 31
0.0
  0
LINE
  5
7A85
  8
1
  6
CONTINUOUS
 10
2503.6873150000001
 20
3488.5829159999998
 30
0.0
 11
2591.6573149999999
 21
3488.5829159999998
 31
0.0
  0
LINE
  5
7A86
  8
1
  6
CONTINUOUS
 10
4429.9654220000002
 20
4028.1329159999991
 30
0.0
 11
4429.9654220000002
 21
2580.5829159999998
 31
0.0
  0
LINE
  5
7A87
  8
1
  6
CONTINUOUS
 10
4169.9654220000002
 20
3830.5829159999998
 30
0.0
 11
4169.9654220000002
 21
2580.5829159999998
 31
0.0
  0
LINE
  5
7A88
  8
1
  6
CONTINUOUS
 10
4319.9654220000002
 20
3830.5829159999998
 30
0.0
 11
4319.9654220000002
 21
2580.5829159999998
 31
0.0
  0
LINE
  5
7A89
  8
1
  6
CONTINUOUS
 10
4209.9654220000002
 20
3650.5829159999989
 30
0.0
 11
4209.9654220000002
 21
3250.5829159999989
 31
0.0
  0
LINE
  5
7A8A
  8
1
  6
CONTINUOUS
 10
4279.9654220000002
 20
3650.5829159999989
 30
0.0
 11
4279.9654220000002
 21
3250.5829159999989
 31
0.0
  0
LINE
  5
7A8B
  8
1
  6
CONTINUOUS
 10
4261.9654220000002
 20
2580.5829159999998
 30
0.0
 11
4261.9654220000002
 21
2480.5829159999989
 31
0.0
  0
LINE
  5
7A8C
  8
1
  6
CONTINUOUS
 10
4209.9654220000002
 20
3250.5829159999989
 30
0.0
 11
4279.9654220000002
 21
3250.5829159999989
 31
0.0
  0
LINE
  5
7A8D
  8
1
  6
CONTINUOUS
 10
4209.9654220000002
 20
2855.5829159999989
 30
0.0
 11
4279.9654220000002
 21
2855.5829159999989
 31
0.0
  0
LINE
  5
7A8E
  8
1
  6
CONTINUOUS
 10
4209.9654220000002
 20
2705.5829159999998
 30
0.0
 11
4279.9654220000002
 21
2705.5829159999998
 31
0.0
  0
LINE
  5
7A8F
  8
1
  6
CONTINUOUS
 10
4209.9654220000002
 20
2855.5829159999989
 30
0.0
 11
4209.9654220000002
 21
2705.5829159999998
 31
0.0
  0
LINE
  5
7A90
  8
1
  6
CONTINUOUS
 10
4279.9654220000002
 20
2855.5829159999989
 30
0.0
 11
4279.9654220000002
 21
2705.5829159999998
 31
0.0
  0
LINE
  5
7A91
  8
1
  6
CONTINUOUS
 10
4279.9654220000002
 20
2801.5829159999998
 30
0.0
 11
4429.9654220000002
 21
2801.5829159999998
 31
0.0
  0
LINE
  5
7A92
  8
1
  6
CONTINUOUS
 10
4279.9654220000002
 20
2759.5829159999989
 30
0.0
 11
4429.9654220000002
 21
2759.5829159999989
 31
0.0
  0
LINE
  5
7A93
  8
1
  6
CONTINUOUS
 10
4319.9654220000002
 20
3830.5829159999998
 30
0.0
 11
4169.9654220000002
 21
3830.5829159999998
 31
0.0
  0
LINE
  5
7A94
  8
1
  6
CONTINUOUS
 10
4209.9654220000002
 20
3650.5829159999989
 30
0.0
 11
4279.9654220000002
 21
3650.5829159999989
 31
0.0
  0
LINE
  5
7A95
  8
1
  6
CONTINUOUS
 10
4429.9654220000002
 20
3471.5829159999998
 30
0.0
 11
4279.9654220000002
 21
3471.5829159999998
 31
0.0
  0
LINE
  5
7A96
  8
1
  6
CONTINUOUS
 10
4429.9654220000002
 20
3429.5829159999989
 30
0.0
 11
4279.9654220000002
 21
3429.5829159999989
 31
0.0
  0
LINE
  5
7A97
  8
1
  6
CONTINUOUS
 10
5029.9654220000002
 20
4028.1329159999991
 30
0.0
 11
5029.9654220000002
 21
2580.5829159999998
 31
0.0
  0
LINE
  5
7A98
  8
1
  6
CONTINUOUS
 10
5081.9654220000002
 20
2580.5829159999998
 30
0.0
 11
5081.9654220000002
 21
2480.5829159999989
 31
0.0
  0
LINE
  5
7A99
  8
1
  6
CONTINUOUS
 10
2196.657314999999
 20
5441.2226220000002
 30
0.0
 11
2516.6573149999999
 21
5441.2226220000002
 31
0.0
  0
LINE
  5
7A9A
  8
1
  6
CONTINUOUS
 10
1330.7673150000001
 20
6209.2226220000002
 30
0.0
 11
2591.6573149999999
 21
6209.2226220000002
 31
0.0
  0
LINE
  5
7A9B
  8
1
  6
CONTINUOUS
 10
1330.7673150000001
 20
5609.2226220000002
 30
0.0
 11
2591.6573149999999
 21
5609.2226220000002
 31
0.0
  0
LINE
  5
7A9C
  8
1
  6
CONTINUOUS
 10
916.65731500000015
 20
6261.2226220000002
 30
0.0
 11
2516.6573149999999
 21
6261.2226220000002
 31
0.0
  0
LINE
  5
7A9D
  8
1
  6
CONTINUOUS
 10
936.65731500000004
 20
5349.2226220000002
 30
0.0
 11
2416.6573149999999
 21
5349.2226220000002
 31
0.0
  0
LINE
  5
7A9E
  8
1
  6
CONTINUOUS
 10
936.65731500000004
 20
5499.2226220000011
 30
0.0
 11
2416.6573149999999
 21
5499.2226220000011
 31
0.0
  0
LINE
  5
7A9F
  8
1
  6
CONTINUOUS
 10
1169.037315
 20
5441.2226220000002
 30
0.0
 11
1796.6573149999999
 21
5441.2226220000002
 31
0.0
  0
LINE
  5
7AA0
  8
1
  6
CONTINUOUS
 10
932.03731499999992
 20
6032.2226220000002
 30
0.0
 11
1256.037315
 21
6032.2226220000002
 31
0.0
  0
LINE
  5
7AA1
  8
1
  6
CONTINUOUS
 10
932.03731499999992
 20
5547.2226220000002
 30
0.0
 11
1256.037315
 21
5547.2226220000002
 31
0.0
  0
LINE
  5
7AA2
  8
1
  6
CONTINUOUS
 10
916.65731500000015
 20
5441.2226220000002
 30
0.0
 11
1019.037315
 21
5441.2226220000002
 31
0.0
  0
LINE
  5
7AA3
  8
1
  6
CONTINUOUS
 10
932.03731499999992
 20
5547.2226220000002
 30
0.0
 11
932.03731499999992
 21
6032.2226220000002
 31
0.0
  0
LINE
  5
7AA4
  8
1
  6
CONTINUOUS
 10
916.65731500000015
 20
6261.2226220000002
 30
0.0
 11
916.65731500000015
 21
5441.2226220000002
 31
0.0
  0
LINE
  5
7AA5
  8
1
  6
CONTINUOUS
 10
936.65731500000004
 20
5499.2226220000011
 30
0.0
 11
936.65731500000004
 21
5349.2226220000002
 31
0.0
  0
LINE
  5
7AA6
  8
1
  6
CONTINUOUS
 10
1256.037315
 20
5547.2226220000002
 30
0.0
 11
1256.037315
 21
6032.2226220000002
 31
0.0
  0
LINE
  5
7AA7
  8
1
  6
CONTINUOUS
 10
1330.7673150000001
 20
5609.2226220000002
 30
0.0
 11
1330.7673150000001
 21
6209.2226220000002
 31
0.0
  0
LINE
  5
7AA8
  8
1
  6
CONTINUOUS
 10
1169.037315
 20
5459.2226220000002
 30
0.0
 11
1019.037315
 21
5459.2226220000002
 31
0.0
  0
LINE
  5
7AA9
  8
1
  6
CONTINUOUS
 10
1169.037315
 20
5389.2226220000011
 30
0.0
 11
1019.037315
 21
5389.2226220000011
 31
0.0
  0
LINE
  5
7AAA
  8
1
  6
CONTINUOUS
 10
1115.037315
 20
5459.2226220000002
 30
0.0
 11
1115.037315
 21
5547.2226220000002
 31
0.0
  0
LINE
  5
7AAB
  8
1
  6
CONTINUOUS
 10
1073.037315
 20
5459.2226220000002
 30
0.0
 11
1073.037315
 21
5547.2226220000002
 31
0.0
  0
LINE
  5
7AAC
  8
1
  6
CONTINUOUS
 10
1019.037315
 20
5389.2226220000011
 30
0.0
 11
1019.037315
 21
5459.2226220000002
 31
0.0
  0
LINE
  5
7AAD
  8
1
  6
CONTINUOUS
 10
1169.037315
 20
5389.2226220000011
 30
0.0
 11
1169.037315
 21
5459.2226220000002
 31
0.0
  0
LINE
  5
7AAE
  8
1
  6
CONTINUOUS
 10
2196.657314999999
 20
5459.2226220000002
 30
0.0
 11
1796.6573149999999
 21
5459.2226220000002
 31
0.0
  0
LINE
  5
7AAF
  8
1
  6
CONTINUOUS
 10
2196.657314999999
 20
5389.2226220000011
 30
0.0
 11
1796.6573149999999
 21
5389.2226220000011
 31
0.0
  0
LINE
  5
7AB0
  8
1
  6
CONTINUOUS
 10
1796.6573149999999
 20
5389.2226220000011
 30
0.0
 11
1796.6573149999999
 21
5459.2226220000002
 31
0.0
  0
LINE
  5
7AB1
  8
1
  6
CONTINUOUS
 10
1975.6573149999999
 20
5459.2226220000002
 30
0.0
 11
1975.6573149999999
 21
5609.2226220000002
 31
0.0
  0
LINE
  5
7AB2
  8
1
  6
CONTINUOUS
 10
2017.6573149999999
 20
5459.2226220000002
 30
0.0
 11
2017.6573149999999
 21
5609.2226220000002
 31
0.0
  0
LINE
  5
7AB3
  8
1
  6
CONTINUOUS
 10
2196.657314999999
 20
5389.2226220000011
 30
0.0
 11
2196.657314999999
 21
5459.2226220000002
 31
0.0
  0
LINE
  5
7AB4
  8
1
  6
CONTINUOUS
 10
2591.6573149999999
 20
5567.2226220000002
 30
0.0
 11
2591.6573149999999
 21
6251.2226220000002
 31
0.0
  0
LINE
  5
7AB5
  8
1
  6
CONTINUOUS
 10
2416.6573149999999
 20
5349.2226220000002
 30
0.0
 11
2416.6573149999999
 21
5499.2226220000011
 31
0.0
  0
LINE
  5
7AB6
  8
1
  6
CONTINUOUS
 10
2516.6573149999999
 20
5609.2226220000002
 30
0.0
 11
2516.6573149999999
 21
5441.2226220000002
 31
0.0
  0
LINE
  5
7AB7
  8
1
  6
CONTINUOUS
 10
2516.6573149999999
 20
6261.2226220000002
 30
0.0
 11
2516.6573149999999
 21
6209.2226220000002
 31
0.0
  0
LINE
  5
7AB8
  8
2
  6
CENTER
 10
832.57018800000003
 20
5909.2226220000002
 30
0.0
 11
2721.9540689999999
 21
5909.2226220000002
 31
0.0
  0
LINE
  5
7AB9
  8
2
  6
CENTER
 10
4729.9654220000002
 20
4337.9756159999997
 30
0.0
 11
4729.9654220000002
 21
4337.2581200000004
 31
0.0
  0
LINE
  5
7ABA
  8
2
  6
CENTER
 10
1996.6573149999999
 20
4107.8026340000006
 30
0.0
 11
1996.6573149999999
 21
2356.9301569999998
 31
0.0
  0
LINE
  5
7ABB
  8
2
  6
CENTER
 10
2705.7878930000002
 20
3450.5829159999998
 30
0.0
 11
1103.478184999999
 21
3450.5829159999998
 31
0.0
  0
LINE
  5
7ABC
  8
4
  6
CONTINUOUS
 10
5550.0
 20
1500.0
 30
0.0
 11
5550.0
 21
900.0
 31
0.0
  0
LINE
  5
7ABD
  8
4
  6
CONTINUOUS
 10
3450.0
 20
1500.0
 30
0.0
 11
3450.0
 21
900.0
 31
0.0
  0
LINE
  5
7ABE
  8
4
  6
CONTINUOUS
 10
1950.0
 20
1500.0
 30
0.0
 11
1950.0
 21
900.0
 31
0.0
  0
LINE
  5
7AC1
  8
4
  6
CONTINUOUS
 10
1950.0
 20
900.0
 30
0.0
 11
5550.0
 21
900.0
 31
0.0
  0
LINE
  5
7AC2
  8
4
  6
CONTINUOUS
 10
1950.0
 20
1200.0
 30
0.0
 11
5550.0
 21
1200.0
 31
0.0
  0
TEXT
  5
7AC3
  8
4
  6
CONTINUOUS
 10
2065.5062429999989
 20
1294.6290779999999
 30
0.0
 40
150.0
  1
機器名称
  0
TEXT
  5
7AC4
  8
4
  6
CONTINUOUS
 10
2058.7743179999989
 20
964.9354699999999
 30
0.0
 40
150.0
  1
機器型番
  0
TEXT
  5
7AC5
  8
4
  6
CONTINUOUS
 10
3533.0362359999999
 20
1267.7153069999999
 30
0.0
 40
150.0
  1
ミツヤ多翼送風機
  0
TEXT
  5
7AC6
  8
4
  6
CONTINUOUS
 10
3559.9634869999991
 20
951.47875299999987
 30
0.0
 40
150.0
  1
MF#5-4
  0
TEXT
  5
7AC8
  8
4
  6
CONTINUOUS
 10
2714.3572960000001
 20
7150.2865239999992
 30
0.0
 40
162.0
  1
床置ベット
  0
TEXT
  5
7AC9
  8
4
  6
CONTINUOUS
 10
948.50278000000014
 20
7601.6429289999996
 30
0.0
 40
216.0
  1
ベルト駆動式片吸込両持多翼ファン
  0
LINE
  5
7ACA
  8
4
  6
CONTINUOUS
 10
750.0
 20
7408.2262629999996
 30
0.0
 11
5550.0
 21
7408.2262629999996
 31
0.0
  0
LINE
  5
7ACB
  8
4
  6
CONTINUOUS
 10
750.0
 20
8008.2262629999996
 30
0.0
 11
5550.0
 21
8008.2262629999996
 31
0.0
  0
LINE
  5
7ACC
  8
4
  6
CONTINUOUS
 10
1950.0
 20
1500.0
 30
0.0
 11
5550.0
 21
1500.0
 31
0.0
  0
LINE
  5
7ACD
  8
4
  6
CONTINUOUS
 10
750.0
 20
8008.2262629999996
 30
0.0
 11
750.0
 21
7408.2262629999996
 31
0.0
  0
TEXT
  5
7ACE
  8
4
  6
CONTINUOUS
 10
1406.7807999999991
 20
7146.9584329999998
 30
0.0
 40
162.0
  1
左回転右横向
  0
TEXT
  5
7ACF
  8
4
  6
CONTINUOUS
 10
4406.9086779999989
 20
8118.1832439999989
 30
0.0
 40
168.0
  1
No.
  0
TEXT
  5
7AD0
  8
4
  6
CONTINUOUS
 10
3933.8881879999999
 20
7150.2865239999992
 30
0.0
 40
162.0
  1
縮尺：1/30
  0
LINE
  5
7AD1
  8
4
  6
CONTINUOUS
 10
5550.0
 20
8008.2262629999996
 30
0.0
 11
5550.0
 21
7408.2262629999996
 31
0.0
  0
LINE
  5
7AD3
  8
4
  6
CONTINUOUS
 10
4321.8522670000002
 20
8043.7907490000007
 30
0.0
 11
4321.8522670000002
 21
8359.9567849999985
 31
0.0
  0
LINE
  5
7AD4
  8
4
  6
CONTINUOUS
 10
4321.8522670000002
 20
8359.9567849999985
 30
0.0
 11
5550.0
 21
8359.9567849999985
 31
0.0
  0
LINE
  5
7AD5
  8
4
  6
CONTINUOUS
 10
5550.0
 20
8359.9567849999985
 30
0.0
 11
5550.0
 21
8043.7907490000007
 31
0.0
  0
LINE
  5
7AD6
  8
4
  6
CONTINUOUS
 10
5550.0
 20
8043.7907490000007
 30
0.0
 11
4321.8522670000002
 21
8043.7907490000007
 31
0.0
  0
DIMENSION
  5
7AEE
  8
3
  6
CONTINUOUS
  2
*D1
 10
2810.137451000001
 20
2663.5829159999998
 30
0.0
 11
2810.1374510000001
 21
3100.544629999999
 31
0.0
 70
   128
 13
2591.6573149999999
 23
3488.5829159999998
 33
0.0
 14
2591.6573149999999
 24
2663.5829159999998
 34
0.0
 50
90.0
1001
ACAD
1000
DSTYLE
1002
{
1070
   287
1070
     3
1070
    40
1040
30.0
1070
   143
1040
0.039
1070
   172
1070
     1
1070
   271
1070
     0
1070
   279
1070
     0
1070
   288
1070
     1
1002
}
  0
DIMENSION
  5
7AFB
  8
3
  6
CONTINUOUS
  2
*D2
 10
3000.7806
 20
2663.5829159999998
 30
0.0
 11
3000.7806
 21
3100.544629999999
 31
0.0
 70
   128
 13
2705.7878930000002
 23
3450.5829159999998
 33
0.0
 14
2591.6573149999999
 24
2663.5829159999998
 34
0.0
 50
90.0
1001
ACAD
1000
DSTYLE
1002
{
1070
   287
1070
     3
1070
    40
1040
30.0
1070
   143
1040
0.039
1070
   172
1070
     1
1070
   271
1070
     0
1070
   279
1070
     0
1070
   288
1070
     1
1002
}
  0
DIMENSION
  5
7B14
  8
3
  6
CONTINUOUS
  2
*D3
 10
3209.2965450000002
 20
2480.5829159999989
 30
0.0
 11
3134.2965449999988
 21
2965.5829159999998
 31
0.0
 70
     0
 13
2705.7878930000002
 23
3450.5829159999998
 33
0.0
 14
2516.6573149999999
 24
2480.5829159999989
 34
0.0
 50
90.0
1001
ACAD
1000
DSTYLE
1002
{
1070
   287
1070
     3
1070
    40
1040
30.0
1070
   143
1040
0.039
1070
   172
1070
     1
1070
   271
1070
     0
1070
   279
1070
     0
1070
   288
1070
     1
1002
}
  0
DIMENSION
  5
7B2E
  8
3
  6
CONTINUOUS
  2
*D4
 10
5029.9654220000002
 20
4192.1261079999986
 30
0.0
 11
4733.6901240000007
 21
4192.1261079999986
 31
0.0
 70
   128
 13
4429.9654220000002
 23
4028.1329159999991
 33
0.0
 14
5029.9654220000002
 24
4028.1329159999991
 34
0.0
1001
ACAD
1000
DSTYLE
1002
{
1070
   287
1070
     3
1070
    40
1040
30.0
1070
   143
1040
0.039
1070
   172
1070
     1
1070
   271
1070
     0
1070
   279
1070
     0
1070
   288
1070
     1
1002
}
  0
LINE
  5
7B2F
  8
1
  6
CONTINUOUS
 10
5033.9654220000002
 20
3875.5829159999989
 30
0.0
 11
5033.9654220000002
 21
3025.5829159999989
 31
0.0
  0
DIMENSION
  5
7B3E
  8
3
  6
CONTINUOUS
  2
*D5
 10
5351.5592590000006
 20
3025.5829159999989
 30
0.0
 11
5351.5592589999997
 21
3441.0413290000001
 31
0.0
 70
   128
 13
5033.9654220000002
 23
3875.5829159999989
 33
0.0
 14
5033.9654220000002
 24
3025.5829159999989
 34
0.0
 50
90.0
1001
ACAD
1000
DSTYLE
1002
{
1070
   287
1070
     3
1070
     3
1000
φ<>
1070
    40
1040
30.0
1070
   143
1040
0.039
1070
   172
1070
     1
1070
   271
1070
     0
1070
   279
1070
     0
1070
   288
1070
     1
1002
}
  0
DIMENSION
  5
7B4D
  8
3
  6
CONTINUOUS
  2
*D6
 10
4729.9654220000002
 20
4383.0798720000003
 30
0.0
 11
4881.9654220000002
 21
4456.3082572620078
 31
0.0
 70
   128
 13
5033.9654220000002
 23
3875.5829159999989
 33
0.0
 14
4729.9654220000002
 24
4337.9756159999997
 34
0.0
1001
ACAD
1000
DSTYLE
1002
{
1070
   288
1070
     1
1070
   172
1070
     1
1070
    40
1040
30.0
1070
   271
1070
     0
1070
   143
1040
0.039
1002
}
  0
DIMENSION
  5
7B59
  8
3
  6
CONTINUOUS
  2
*D7
 10
4169.9654220000002
 20
4383.0798720000003
 30
0.0
 11
4449.9654220000002
 21
4533.0798720000003
 31
0.0
 70
     0
  1
MAX\P610
 13
4729.9654220000002
 23
4337.9756159999997
 33
0.0
 14
4169.9654220000002
 24
3830.5829159999998
 34
0.0
1001
ACAD
1000
DSTYLE
1002
{
1070
   287
1070
     4
1070
    40
1040
30.0
1070
    75
1070
     1
1070
   143
1040
0.039
1070
   172
1070
     1
1070
   271
1070
     0
1070
   279
1070
     1
1070
   288
1070
     1
1002
}
  0
DIMENSION
  5
7B66
  8
3
  6
CONTINUOUS
  2
*D8
 10
4729.9654220000002
 20
2258.3259799999992
 30
0.0
 11
4524.2511369999993
 21
2258.3259799999992
 31
0.0
 70
   128
 13
4261.9654220000002
 23
2480.5829159999989
 33
0.0
 14
4729.9654220000002
 24
2327.3083780000002
 34
0.0
1001
ACAD
1000
DSTYLE
1002
{
1070
   287
1070
     3
1070
    40
1040
30.0
1070
   143
1040
0.039
1070
   172
1070
     1
1070
   271
1070
     0
1070
   279
1070
     0
1070
   288
1070
     1
1002
}
  0
DIMENSION
  5
7B74
  8
3
  6
CONTINUOUS
  2
*D9
 10
5081.9654220000002
 20
2258.3259799999992
 30
0.0
 11
4906.9375280000004
 21
2261.0339600000002
 31
0.0
 70
   128
 13
4729.9654220000002
 23
2327.3083780000002
 33
0.0
 14
5081.9654220000002
 24
2480.5829159999989
 34
0.0
1001
ACAD
1000
DSTYLE
1002
{
1070
   287
1070
     4
1070
    40
1040
30.0
1070
    75
1070
     1
1070
   143
1040
0.039
1070
   172
1070
     1
1070
   271
1070
     0
1070
   279
1070
     1
1070
   288
1070
     1
1002
}
  0
LINE
  5
7B8C
  8
2
  6
CENTER
 10
4729.9654220000002
 20
4172.7202310000002
 30
0.0
 11
4729.9654220000002
 21
2327.3083780000002
 31
0.0
  0
DIMENSION
  5
7B99
  8
3
  6
CONTINUOUS
  2
*D10
 10
1996.6573149999999
 20
4173.030737
 30
0.0
 11
2295.1784670000002
 21
4173.030737
 31
0.0
 70
   128
 13
2591.6573149999999
 23
3531.0829159999989
 33
0.0
 14
1996.6573149999999
 24
4107.8026340000006
 34
0.0
1001
ACAD
1000
DSTYLE
1002
{
1070
   287
1070
     3
1070
    40
1040
30.0
1070
   143
1040
0.039
1070
   172
1070
     1
1070
   271
1070
     0
1070
   279
1070
     0
1070
   288
1070
     1
1002
}
  0
DIMENSION
  5
7BB2
  8
3
  6
CONTINUOUS
  2
*D11
 10
1996.6573149999999
 20
2237.3215379999988
 30
0.0
 11
1441.6272949999991
 21
2237.3215379999988
 31
0.0
 70
   128
 13
916.65731500000015
 23
2480.5829159999989
 33
0.0
 14
1996.6573149999999
 24
2356.9301569999998
 34
0.0
1001
ACAD
1000
DSTYLE
1002
{
1070
   287
1070
     3
1070
    40
1040
30.0
1070
   143
1040
0.039
1070
   172
1070
     1
1070
   271
1070
     0
1070
   279
1070
     0
1070
   288
1070
     1
1002
}
  0
DIMENSION
  5
7BBE
  8
3
  6
CONTINUOUS
  2
*D12
 10
2516.6573149999999
 20
2237.3215379999988
 30
0.0
 11
2256.657314999999
 21
2312.3215379999988
 31
0.0
 70
     0
 13
1996.6573149999999
 23
2356.9301569999998
 33
0.0
 14
2516.6573149999999
 24
2480.5829159999989
 34
0.0
1001
ACAD
1000
DSTYLE
1002
{
1070
   287
1070
     4
1070
    40
1040
30.0
1070
    75
1070
     1
1070
   143
1040
0.039
1070
   172
1070
     1
1070
   271
1070
     0
1070
   279
1070
     1
1070
   288
1070
     1
1002
}
  0
DIMENSION
  5
7BD8
  8
3
  6
CONTINUOUS
  2
*D13
 10
2919.4174200000002
 20
5441.2226220000002
 30
0.0
 11
2919.4174200000002
 21
5915.2654439999997
 31
0.0
 70
   128
 13
2516.6573149999999
 23
6261.2226220000002
 33
0.0
 14
2516.6573149999999
 24
5441.2226220000002
 34
0.0
 50
90.0
1001
ACAD
1000
DSTYLE
1002
{
1070
   287
1070
     3
1070
    40
1040
30.0
1070
   143
1040
0.039
1070
   172
1070
     1
1070
   271
1070
     0
1070
   279
1070
     0
1070
   288
1070
     1
1002
}
  0
DIMENSION
  5
7BE5
  8
3
  6
CONTINUOUS
  2
*D14
 10
2516.6573149999999
 20
6545.4128300000002
 30
0.0
 11
1651.8302179999989
 21
6545.4128300000002
 31
0.0
 70
   128
 13
916.65731500000015
 23
6261.2226220000002
 33
0.0
 14
2516.6573149999999
 24
6261.2226220000002
 34
0.0
1001
ACAD
1000
DSTYLE
1002
{
1070
   287
1070
     3
1070
    40
1040
30.0
1070
   143
1040
0.039
1070
   172
1070
     1
1070
   271
1070
     0
1070
   279
1070
     0
1070
   288
1070
     1
1002
}
  0
DIMENSION
  5
7BF6
  8
3
  6
CONTINUOUS
  2
*D15
 10
3209.2965450000002
 20
4026.5735631068728
 30
0.0
 11
3134.2965449999988
 21
3738.578239553437
 31
0.0
 70
     0
 13
2705.7878930000002
 23
3450.5829159999998
 33
0.0
 14
1996.6573149999999
 24
4026.5735631068728
 34
0.0
 50
90.0
1001
ACAD
1000
DSTYLE
1002
{
1070
   287
1070
     4
1070
    40
1040
30.0
1070
    75
1070
     1
1070
   143
1040
0.039
1070
   172
1070
     1
1070
   271
1070
     0
1070
   279
1070
     1
1070
   288
1070
     1
1002
}
  0
DIMENSION
  5
7C0F
  8
3
  6
CONTINUOUS
  2
*D16
 10
1332.6530889999999
 20
4173.030737
 30
0.0
 11
1664.655201999999
 21
4248.0307369999991
 31
0.0
 70
     0
 13
1996.6573149999999
 23
4107.8026340000006
 33
0.0
 14
1332.6530889999999
 24
3450.5829159999998
 34
0.0
1001
ACAD
1000
DSTYLE
1002
{
1070
   287
1070
     4
1070
    40
1040
30.0
1070
    75
1070
     1
1070
   143
1040
0.039
1070
   172
1070
     1
1070
   271
1070
     0
1070
   279
1070
     1
1070
   288
1070
     1
1002
}
  0
DIMENSION
  5
7CC7
  8
3
  2
*D17
 10
916.65731500000015
 20
4335.4447000273904
 30
0.0
 11
1742.228563300185
 21
4335.4447000273904
 31
0.0
 70
   128
 13
2591.6573149999999
 23
3531.0829159999989
 33
0.0
 14
916.65731499999993
 24
2580.5829159999998
 34
0.0
1001
ACAD
1000
DSTYLE
1002
{
1070
   287
1070
     3
1070
    40
1040
30.0
1070
   143
1040
0.039
1070
   172
1070
     1
1070
   271
1070
     0
1070
   279
1070
     0
1070
   288
1070
     1
1002
}
  0
LINE
  5
7CE0
  8
1
  6
CONTINUOUS
 10
2496.6573149999999
 20
3580.5829159999998
 30
0.0
 11
1496.6573149999999
 21
3580.5829159999998
 31
0.0
  0
LINE
  5
7CE1
  8
1
 10
2496.6573149999999
 20
3580.5829159999998
 30
0.0
 11
2496.6573149999999
 21
2580.5829159999998
 31
0.0
  0
LINE
  5
7CE2
  8
1
 10
1496.6573149999999
 20
3580.5829159999998
 30
0.0
 11
1496.657314999999
 21
2580.5829159999998
 31
0.0
  0
ENDSEC
  0
EOF
