  0
SECTION
  2
HEADER
  9
$ACADVER
  1
AC1009
  9
$INSBASE
 10
0.0
 20
0.0
 30
0.0
  9
$EXTMIN
 10
750.0
 20
900.0
 30
0.0
  9
$EXTMAX
 10
5550.0
 20
8359.9567849999985
 30
0.0
  9
$LIMMIN
 10
0.0
 20
0.0
  9
$LIMMAX
 10
297.0
 20
210.0
  9
$ORTHOMODE
 70
     0
  9
$REGENMODE
 70
     1
  9
$FILLMODE
 70
     0
  9
$QTEXTMODE
 70
     0
  9
$MIRRTEXT
 70
     1
  9
$DRAGMODE
 70
     2
  9
$LTSCALE
 40
100.0
  9
$OSMODE
 70
    37
  9
$ATTMODE
 70
     1
  9
$TEXTSIZE
 40
180.0
  9
$TRACEWID
 40
0.05
  9
$TEXTSTYLE
  7
STANDARD
  9
$CLAYER
  8
3
  9
$CELTYPE
  6
BYLAYER
  9
$CECOLOR
 62
   256
  9
$DIMSCALE
 40
30.0
  9
$DIMASZ
 40
2.0
  9
$DIMEXO
 40
0.5
  9
$DIMDLI
 40
10.0
  9
$DIMRND
 40
0.0
  9
$DIMDLE
 40
0.0
  9
$DIMEXE
 40
1.0
  9
$DIMTP
 40
1.0
  9
$DIMTM
 40
1.0
  9
$DIMTXT
 40
3.0
  9
$DIMCEN
 40
0.0
  9
$DIMTSZ
 40
0.0
  9
$DIMTOL
 70
     0
  9
$DIMLIM
 70
     0
  9
$DIMTIH
 70
     0
  9
$DIMTOH
 70
     0
  9
$DIMSE1
 70
     0
  9
$DIMSE2
 70
     0
  9
$DIMTAD
 70
     1
  9
$DIMZIN
 70
     8
  9
$DIMBLK
  1

  9
$DIMASO
 70
     1
  9
$DIMSHO
 70
     1
  9
$DIMPOST
  1

  9
$DIMAPOST
  1

  9
$DIMALT
 70
     0
  9
$DIMALTD
 70
     2
  9
$DIMALTF
 40
0.039
  9
$DIMLFAC
 40
1.0
  9
$DIMTOFL
 70
     1
  9
$DIMTVP
 40
0.0
  9
$DIMTIX
 70
     0
  9
$DIMSOXD
 70
     0
  9
$DIMSAH
 70
     1
  9
$DIMBLK1
  1
OPEN
  9
$DIMBLK2
  1
OPEN
  9
$DIMSTYLE
  2
IGA
  9
$DIMCLRD
 70
     0
  9
$DIMCLRE
 70
     0
  9
$DIMCLRT
 70
     0
  9
$DIMTFAC
 40
10.0
  9
$DIMGAP
 40
1.0
  9
$LUNITS
 70
     2
  9
$LUPREC
 70
     3
  9
$SKETCHINC
 40
0.1
  9
$FILLETRAD
 40
0.0
  9
$AUNITS
 70
     0
  9
$AUPREC
 70
     0
  9
$MENU
  1
acad
  9
$ELEVATION
 40
0.0
  9
$PELEVATION
 40
0.0
  9
$THICKNESS
 40
0.0
  9
$LIMCHECK
 70
     0
  9
$BLIPMODE
 70
     0
  9
$CHAMFERA
 40
0.5
  9
$CHAMFERB
 40
0.5
  9
$SKPOLY
 70
     0
  9
$TDCREATE
 40
2450746.4053888889
  9
$TDUPDATE
 40
2454953.7750508101
  9
$TDINDWG
 40
0.0108642245
  9
$TDUSRTIMER
 40
0.0108642245
  9
$USRTIMER
 70
     1
  9
$ANGBASE
 50
0.0
  9
$ANGDIR
 70
     0
  9
$PDMODE
 70
     0
  9
$PDSIZE
 40
0.0
  9
$PLINEWID
 40
0.0
  9
$COORDS
 70
     1
  9
$SPLFRAME
 70
     0
  9
$SPLINETYPE
 70
     6
  9
$SPLINESEGS
 70
     8
  9
$ATTDIA
 70
     0
  9
$ATTREQ
 70
     1
  9
$HANDLING
 70
 10241
  9
$HANDSEED
  5
7E3A
  9
$SURFTAB1
 70
     6
  9
$SURFTAB2
 70
     6
  9
$SURFTYPE
 70
     6
  9
$SURFU
 70
     6
  9
$SURFV
 70
     6
  9
$UCSNAME
  2

  9
$UCSORG
 10
0.0
 20
0.0
 30
0.0
  9
$UCSXDIR
 10
1.0
 20
0.0
 30
0.0
  9
$UCSYDIR
 10
0.0
 20
1.0
 30
0.0
  9
$PUCSNAME
  2

  9
$PUCSORG
 10
0.0
 20
0.0
 30
0.0
  9
$PUCSXDIR
 10
1.0
 20
0.0
 30
0.0
  9
$PUCSYDIR
 10
0.0
 20
1.0
 30
0.0
  9
$USERI1
 70
     0
  9
$USERI2
 70
     0
  9
$USERI3
 70
     0
  9
$USERI4
 70
     0
  9
$USERI5
 70
     0
  9
$USERR1
 40
0.0
  9
$USERR2
 40
0.0
  9
$USERR3
 40
0.0
  9
$USERR4
 40
0.0
  9
$USERR5
 40
0.0
  9
$WORLDVIEW
 70
     1
  9
$SHADEDGE
 70
     3
  9
$SHADEDIF
 70
    70
  9
$TILEMODE
 70
     1
  9
$MAXACTVP
 70
    16
  9
$PLIMCHECK
 70
     0
  9
$PEXTMIN
 10
1.0000000000000000E+020
 20
1.0000000000000000E+020
 30
1.0000000000000000E+020
  9
$PEXTMAX
 10
-1.0000000000000000E+020
 20
-1.0000000000000000E+020
 30
-1.0000000000000000E+020
  9
$PLIMMIN
 10
0.0
 20
0.0
  9
$PLIMMAX
 10
12.0
 20
9.0
  9
$UNITMODE
 70
     0
  9
$VISRETAIN
 70
     0
  9
$PLINEGEN
 70
     0
  9
$PSLTSCALE
 70
     1
  0
ENDSEC
  0
SECTION
  2
TABLES
  0
TABLE
  2
VPORT
 70
     2
  0
VPORT
  2
*ACTIVE
 70
     0
 10
0.0
 20
0.0
 11
1.0
 21
1.0
 12
9438.1687158055174
 22
4629.9562499988788
 13
0.0
 23
0.0
 14
10.0
 24
10.0
 15
10.0
 25
10.0
 16
0.0
 26
0.0
 36
1.0
 17
0.0
 27
0.0
 37
0.0
 40
7517.2452868940854
 41
3.1666666666666661
 42
50.0
 43
0.0
 44
0.0
 50
0.0
 51
0.0
 71
     0
 72
   100
 73
     1
 74
     0
 75
     0
 76
     0
 77
     0
 78
     0
  0
ENDTAB
  0
TABLE
  2
LTYPE
 70
     2
  0
LTYPE
  2
CONTINUOUS
 70
     0
  3
Solid line
 72
    65
 73
     0
 40
0.0
  0
LTYPE
  2
CENTER
 70
     0
  3
____ _ ____ _ ____ _ ____ _ ____ _ ____ _ ____ 
 72
    65
 73
     4
 40
2.0
 49
1.25
 49
-0.25
 49
0.25
 49
-0.25
  0
ENDTAB
  0
TABLE
  2
LAYER
 70
     6
  0
LAYER
  2
0
 70
     0
 62
     7
  6
CONTINUOUS
  0
LAYER
  2
3
 70
     0
 62
     2
  6
CONTINUOUS
  0
LAYER
  2
2
 70
     0
 62
     3
  6
CENTER
  0
LAYER
  2
1
 70
     0
 62
     4
  6
CONTINUOUS
  0
LAYER
  2
4
 70
     0
 62
     7
  6
CONTINUOUS
  0
LAYER
  2
DEFPOINTS
 70
     0
 62
     7
  6
CONTINUOUS
  0
ENDTAB
  0
TABLE
  2
STYLE
 70
     1
  0
STYLE
  2
STANDARD
 70
     0
 40
0.0
 41
1.0
 50
0.0
 71
     0
 42
180.0
  3
simplex.shx
  4
extfont.shx
  0
ENDTAB
  0
TABLE
  2
VIEW
 70
     0
  0
ENDTAB
  0
TABLE
  2
UCS
 70
     0
  0
ENDTAB
  0
TABLE
  2
APPID
 70
     1
  0
APPID
  2
ACAD
 70
     0
  0
ENDTAB
  0
TABLE
  2
DIMSTYLE
 70
     1
  0
DIMSTYLE
  2
IGA
 70
     0
  3

  4

  5

  6
OPEN
  7
OPEN
 40
2.0
 41
2.0
 42
0.5
 43
10.0
 44
1.0
 45
0.0
 46
0.0
 47
1.0
 48
1.0
140
3.0
141
0.0
142
0.0
143
0.03937
144
1.0
145
0.0
146
10.0
147
1.0
 71
     0
 72
     0
 73
     0
 74
     0
 75
     0
 76
     0
 77
     1
 78
     8
170
     0
171
     2
172
     0
173
     1
174
     0
175
     0
176
     0
177
     0
178
     0
  0
ENDTAB
  0
ENDSEC
  0
SECTION
  2
BLOCKS
  0
BLOCK
  8
0
  2
$MODEL_SPACE
 70
     0
 10
0.0
 20
0.0
 30
0.0
  3
$MODEL_SPACE
  1

  0
ENDBLK
  5
1B
  8
0
  0
BLOCK
 67
     1
  8
0
  2
$PAPER_SPACE
 70
     0
 10
0.0
 20
0.0
 30
0.0
  3
$PAPER_SPACE
  1

  0
ENDBLK
  5
18
 67
     1
  8
0
  0
BLOCK
  8
0
  2
_OPEN
 70
     0
 10
0.0
 20
0.0
 30
0.0
  3
_OPEN
  1

  0
LINE
  5
7B40
  8
0
  6
BYBLOCK
 62
     0
 10
-1.0
 20
0.166667
 30
0.0
 11
0.0
 21
0.0
 31
0.0
  0
LINE
  5
7B41
  8
0
  6
BYBLOCK
 62
     0
 10
0.0
 20
0.0
 30
0.0
 11
-1.0
 21
-0.166667
 31
0.0
  0
LINE
  5
7B42
  8
0
  6
BYBLOCK
 62
     0
 10
0.0
 20
0.0
 30
0.0
 11
-1.0
 21
0.0
 31
0.0
  0
ENDBLK
  5
7B43
  8
0
  0
BLOCK
  8
0
  2
*D1
 70
     1
 10
0.0
 20
0.0
 30
0.0
  3
*D1
  1

  0
LINE
  5
7DB2
  8
3
  6
CONTINUOUS
 62
     0
 10
2704.9936149999999
 20
3829.7717479999992
 30
0.0
 11
2704.9936149999999
 21
4043.26341
 31
0.0
  0
LINE
  5
7DB3
  8
3
  6
CONTINUOUS
 62
     0
 10
1879.9936150000001
 20
3829.7717479999992
 30
0.0
 11
1879.9936150000001
 21
4043.26341
 31
0.0
  0
LINE
  5
7DB4
  8
3
  6
CONTINUOUS
 62
     0
 10
2644.9936149999999
 20
4013.26341
 30
0.0
 11
1939.993614999999
 21
4013.26341
 31
0.0
  0
INSERT
  5
7DB5
  8
3
  6
CONTINUOUS
 62
     0
  2
_OPEN
 10
2704.9936149999999
 20
4013.26341
 30
0.0
 41
60.0
 42
60.0
 43
60.0
  0
INSERT
  5
7DB6
  8
3
  6
CONTINUOUS
 62
     0
  2
_OPEN
 10
1879.9936150000001
 20
4013.26341
 30
0.0
 41
60.0
 42
60.0
 43
60.0
 50
180.0
  0
TEXT
  8
3
  40
90
  5
7E2B
  62
0
  72
0
  71
0
 10
2099.41
 20
3928.96
 30
0.000000
  1
825
  0
POINT
  5
7DB8
  8
DEFPOINTS
  6
CONTINUOUS
 62
     0
 10
2704.9936149999999
 20
3814.7717480000001
 30
0.0
  0
POINT
  5
7DB9
  8
DEFPOINTS
  6
CONTINUOUS
 62
     0
 10
1879.9936150000001
 20
3814.7717480000001
 30
0.0
  0
POINT
  5
7DBA
  8
DEFPOINTS
  6
CONTINUOUS
 62
     0
 10
1879.9936150000001
 20
4013.26341
 30
0.0
  0
ENDBLK
  5
7CB0
  8
0
  0
BLOCK
  8
0
  2
*D2
 70
     1
 10
0.0
 20
0.0
 30
0.0
  3
*D2
  1

  0
LINE
  5
7DBB
  8
3
  6
CONTINUOUS
 62
     0
 10
2704.9936149999999
 20
3829.7717479999992
 30
0.0
 11
2704.9936149999999
 21
4208.89851
 31
0.0
  0
LINE
  5
7DBC
  8
3
  6
CONTINUOUS
 62
     0
 10
1917.9936150000001
 20
4087.4988290000001
 30
0.0
 11
1917.9936150000001
 21
4208.89851
 31
0.0
  0
LINE
  5
7DBD
  8
3
  6
CONTINUOUS
 62
     0
 10
2644.9936149999999
 20
4178.8985099999991
 30
0.0
 11
1977.993614999999
 21
4178.8985099999991
 31
0.0
  0
INSERT
  5
7DBE
  8
3
  6
CONTINUOUS
 62
     0
  2
_OPEN
 10
2704.9936149999999
 20
4178.8985099999991
 30
0.0
 41
60.0
 42
60.0
 43
60.0
  0
INSERT
  5
7DBF
  8
3
  6
CONTINUOUS
 62
     0
  2
_OPEN
 10
1917.9936150000001
 20
4178.8985099999991
 30
0.0
 41
60.0
 42
60.0
 43
60.0
 50
180.0
  0
TEXT
  8
3
  40
90
  5
7E2C
  62
0
  72
0
  71
0
 10
2105.54
 20
4094.60
 30
0.000000
  1
787
  0
POINT
  5
7DC1
  8
DEFPOINTS
  6
CONTINUOUS
 62
     0
 10
2704.9936149999999
 20
3814.7717480000001
 30
0.0
  0
POINT
  5
7DC2
  8
DEFPOINTS
  6
CONTINUOUS
 62
     0
 10
1917.9936150000001
 20
4072.4988289999992
 30
0.0
  0
POINT
  5
7DC3
  8
DEFPOINTS
  6
CONTINUOUS
 62
     0
 10
1917.9936150000001
 20
4178.8985099999991
 30
0.0
  0
ENDBLK
  5
7CA5
  8
0
  0
BLOCK
  8
0
  2
*D3
 70
     1
 10
0.0
 20
0.0
 30
0.0
  3
*D3
  1

  0
LINE
  5
7DC4
  8
3
  6
CONTINUOUS
 62
     0
 10
1822.493614999999
 20
3814.7717480000001
 30
0.0
 11
1127.010225
 21
3814.7717480000001
 31
0.0
  0
LINE
  5
7DC5
  8
3
  6
CONTINUOUS
 62
     0
 10
1190.8934719999991
 20
3219.7717480000001
 30
0.0
 11
1127.010225
 21
3219.7717480000001
 31
0.0
  0
LINE
  5
7DC6
  8
3
  6
CONTINUOUS
 62
     0
 10
1157.010225
 20
3754.7717479999992
 30
0.0
 11
1157.010225
 21
3279.7717480000001
 31
0.0
  0
INSERT
  5
7DC7
  8
3
  6
CONTINUOUS
 62
     0
  2
_OPEN
 10
1157.010225
 20
3814.7717480000001
 30
0.0
 41
60.0
 42
60.0
 43
60.0
 50
90.0
  0
INSERT
  5
7DC8
  8
3
  6
CONTINUOUS
 62
     0
  2
_OPEN
 10
1157.010225
 20
3219.7717480000001
 30
0.0
 41
60.0
 42
60.0
 43
60.0
 50
270.0
  0
TEXT
  8
3
  40
90
  5
7E2D
  62
0
  72
0
  71
0
 10
902.010
 20
3363.88
 30
0.000000
  1
595
  0
POINT
  5
7DCA
  8
DEFPOINTS
  6
CONTINUOUS
 62
     0
 10
1837.493614999999
 20
3814.7717480000001
 30
0.0
  0
POINT
  5
7DCB
  8
DEFPOINTS
  6
CONTINUOUS
 62
     0
 10
1205.893472
 20
3219.7717480000001
 30
0.0
  0
POINT
  5
7DCC
  8
DEFPOINTS
  6
CONTINUOUS
 62
     0
 10
1157.010225
 20
3219.7717480000001
 30
0.0
  0
ENDBLK
  5
7CCF
  8
0
  0
BLOCK
  8
0
  2
*D4
 70
     1
 10
0.0
 20
0.0
 30
0.0
  3
*D4
  1

  0
LINE
  5
7DCD
  8
3
  6
CONTINUOUS
 62
     0
 10
1382.9936150000001
 20
2524.7717480000001
 30
0.0
 11
1127.010225
 21
2524.7717480000001
 31
0.0
  0
LINE
  5
7DCE
  8
3
  6
CONTINUOUS
 62
     0
 10
1157.010225
 20
3159.7717480000001
 30
0.0
 11
1157.010225
 21
2584.7717480000001
 31
0.0
  0
INSERT
  5
7DCF
  8
3
  6
CONTINUOUS
 62
     0
  2
_OPEN
 10
1157.010225
 20
3219.7717480000001
 30
0.0
 41
60.0
 42
60.0
 43
60.0
 50
90.0
  0
INSERT
  5
7DD0
  8
3
  6
CONTINUOUS
 62
     0
  2
_OPEN
 10
1157.010225
 20
2524.7717480000001
 30
0.0
 41
60.0
 42
60.0
 43
60.0
 50
270.0
  0
TEXT
  8
3
  40
90
  5
7E2E
  62
0
  72
0
  71
0
 10
902.010
 20
2712.97
 30
0.000000
  1
695
  0
POINT
  5
7DD2
  8
DEFPOINTS
  6
CONTINUOUS
 62
     0
 10
1205.893472
 20
3219.7717480000001
 30
0.0
  0
POINT
  5
7DD3
  8
DEFPOINTS
  6
CONTINUOUS
 62
     0
 10
1397.9936150000001
 20
2524.7717480000001
 30
0.0
  0
POINT
  5
7DD4
  8
DEFPOINTS
  6
CONTINUOUS
 62
     0
 10
1157.010225
 20
2524.7717480000001
 30
0.0
  0
ENDBLK
  5
7CC4
  8
0
  0
BLOCK
  8
0
  2
*D5
 70
     1
 10
0.0
 20
0.0
 30
0.0
  3
*D5
  1

  0
LINE
  5
7DD5
  8
3
  6
CONTINUOUS
 62
     0
 10
1397.9936150000001
 20
2509.7717480000001
 30
0.0
 11
1397.9936150000001
 21
2225.0597329999991
 31
0.0
  0
LINE
  5
7DD6
  8
3
  6
CONTINUOUS
 62
     0
 10
1917.9936150000001
 20
2339.232113
 30
0.0
 11
1917.9936150000001
 21
2225.0597329999991
 31
0.0
  0
LINE
  5
7DD7
  8
3
  6
CONTINUOUS
 62
     0
 10
1457.9936150000001
 20
2255.0597329999991
 30
0.0
 11
1857.993614999999
 21
2255.0597329999991
 31
0.0
  0
INSERT
  5
7DD8
  8
3
  6
CONTINUOUS
 62
     0
  2
_OPEN
 10
1397.9936150000001
 20
2255.0597329999991
 30
0.0
 41
60.0
 42
60.0
 43
60.0
 50
180.0
  0
INSERT
  5
7DD9
  8
3
  6
CONTINUOUS
 62
     0
  2
_OPEN
 10
1917.9936150000001
 20
2255.0597329999991
 30
0.0
 41
60.0
 42
60.0
 43
60.0
  0
TEXT
  8
3
  40
90
  5
7E2F
  62
0
  72
0
  71
0
 10
1467.08
 20
2170.76
 30
0.000000
  1
520
  0
POINT
  5
7DDB
  8
DEFPOINTS
  6
CONTINUOUS
 62
     0
 10
1397.9936150000001
 20
2524.7717480000001
 30
0.0
  0
POINT
  5
7DDC
  8
DEFPOINTS
  6
CONTINUOUS
 62
     0
 10
1917.9936150000001
 20
2354.232113
 30
0.0
  0
POINT
  5
7DDD
  8
DEFPOINTS
  6
CONTINUOUS
 62
     0
 10
1917.9936150000001
 20
2255.0597329999991
 30
0.0
  0
ENDBLK
  5
7C8E
  8
0
  0
BLOCK
  8
0
  2
*D6
 70
     1
 10
0.0
 20
0.0
 30
0.0
  3
*D6
  1

  0
LINE
  5
7DDE
  8
3
  6
CONTINUOUS
 62
     0
 10
2997.9936149999999
 20
2509.7717480000001
 30
0.0
 11
2997.9936149999999
 21
2225.0597329999991
 31
0.0
  0
LINE
  5
7DDF
  8
3
  6
CONTINUOUS
 62
     0
 10
1977.993614999999
 20
2255.0597329999991
 30
0.0
 11
2937.993614999999
 21
2255.0597329999991
 31
0.0
  0
INSERT
  5
7DE0
  8
3
  6
CONTINUOUS
 62
     0
  2
_OPEN
 10
1917.9936150000001
 20
2255.0597329999991
 30
0.0
 41
60.0
 42
60.0
 43
60.0
 50
180.0
  0
INSERT
  5
7DE1
  8
3
  6
CONTINUOUS
 62
     0
  2
_OPEN
 10
2997.9936149999999
 20
2255.0597329999991
 30
0.0
 41
60.0
 42
60.0
 43
60.0
  0
TEXT
  8
3
  40
90
  5
7E30
  62
0
  72
0
  71
0
 10
2277.99
 20
2170.76
 30
0.000000
  1
1080
  0
POINT
  5
7DE3
  8
DEFPOINTS
  6
CONTINUOUS
 62
     0
 10
1917.9936150000001
 20
2354.232113
 30
0.0
  0
POINT
  5
7DE4
  8
DEFPOINTS
  6
CONTINUOUS
 62
     0
 10
2997.9936149999999
 20
2524.7717480000001
 30
0.0
  0
POINT
  5
7DE5
  8
DEFPOINTS
  6
CONTINUOUS
 62
     0
 10
2997.9936149999999
 20
2255.0597329999991
 30
0.0
  0
ENDBLK
  5
7C83
  8
0
  0
BLOCK
  8
0
  2
*D7
 70
     1
 10
0.0
 20
0.0
 30
0.0
  3
*D7
  1

  0
LINE
  5
7DE6
  8
3
  6
CONTINUOUS
 62
     0
 10
4364.0035340000004
 20
3829.7717479999992
 30
0.0
 11
4364.0035340000004
 21
4010.7742049999988
 31
0.0
  0
LINE
  5
7DE7
  8
3
  6
CONTINUOUS
 62
     0
 10
4964.0035340000004
 20
3829.7717479999992
 30
0.0
 11
4964.0035340000004
 21
4010.7742049999988
 31
0.0
  0
LINE
  5
7DE8
  8
3
  6
CONTINUOUS
 62
     0
 10
4424.0035340000004
 20
3980.7742049999988
 30
0.0
 11
4904.0035340000004
 21
3980.7742049999988
 31
0.0
  0
INSERT
  5
7DE9
  8
3
  6
CONTINUOUS
 62
     0
  2
_OPEN
 10
4364.0035340000004
 20
3980.7742049999988
 30
0.0
 41
60.0
 42
60.0
 43
60.0
 50
180.0
  0
INSERT
  5
7DEA
  8
3
  6
CONTINUOUS
 62
     0
  2
_OPEN
 10
4964.0035340000004
 20
3980.7742049999988
 30
0.0
 41
60.0
 42
60.0
 43
60.0
  0
TEXT
  8
3
  40
90
  5
7E31
  62
0
  72
0
  71
0
 10
4483.40
 20
3896.47
 30
0.000000
  1
600
  0
POINT
  5
7DEC
  8
DEFPOINTS
  6
CONTINUOUS
 62
     0
 10
4364.0035340000004
 20
3814.7717480000001
 30
0.0
  0
POINT
  5
7DED
  8
DEFPOINTS
  6
CONTINUOUS
 62
     0
 10
4964.0035340000004
 20
3814.7717480000001
 30
0.0
  0
POINT
  5
7DEE
  8
DEFPOINTS
  6
CONTINUOUS
 62
     0
 10
4964.0035340000004
 20
3980.7742049999988
 30
0.0
  0
ENDBLK
  5
7D0F
  8
0
  0
BLOCK
  8
0
  2
*D8
 70
     1
 10
0.0
 20
0.0
 30
0.0
  3
*D8
  1

  0
LINE
  5
7DEF
  8
3
  6
CONTINUOUS
 62
     0
 10
4983.0035340000004
 20
3644.7717479999992
 30
0.0
 11
5270.475899
 21
3644.7717479999992
 31
0.0
  0
LINE
  5
7DF0
  8
3
  6
CONTINUOUS
 62
     0
 10
4983.0035340000004
 20
2794.7717480000001
 30
0.0
 11
5270.475899
 21
2794.7717480000001
 31
0.0
  0
LINE
  5
7DF1
  8
3
  6
CONTINUOUS
 62
     0
 10
5240.4758990000009
 20
3584.7717479999992
 30
0.0
 11
5240.4758990000009
 21
2854.7717479999992
 31
0.0
  0
INSERT
  5
7DF2
  8
3
  6
CONTINUOUS
 62
     0
  2
_OPEN
 10
5240.4758990000009
 20
3644.7717479999992
 30
0.0
 41
60.0
 42
60.0
 43
60.0
 50
90.0
  0
INSERT
  5
7DF3
  8
3
  6
CONTINUOUS
 62
     0
  2
_OPEN
 10
5240.4758990000009
 20
2794.7717480000001
 30
0.0
 41
60.0
 42
60.0
 43
60.0
 50
270.0
  0
TEXT
  8
3
  40
90
  5
7E32
  62
0
  72
0
  71
0
 10
4985.48
 20
3057.15
 30
0.000000
  1
φ850
  0
POINT
  5
7DF5
  8
DEFPOINTS
  6
CONTINUOUS
 62
     0
 10
4968.0035340000013
 20
3644.7717479999992
 30
0.0
  0
POINT
  5
7DF6
  8
DEFPOINTS
  6
CONTINUOUS
 62
     0
 10
4968.0035340000013
 20
2794.7717480000001
 30
0.0
  0
POINT
  5
7DF7
  8
DEFPOINTS
  6
CONTINUOUS
 62
     0
 10
5240.4758990000009
 20
2794.7717480000001
 30
0.0
  0
ENDBLK
  5
7D54
  8
0
  0
BLOCK
  8
0
  2
*D9
 70
     1
 10
0.0
 20
0.0
 30
0.0
  3
*D9
  1

  0
LINE
  5
7D56
  8
0
  6
BYBLOCK
 62
     0
 10
4968.0035340000013
 20
3659.7717480000001
 30
0.0
 11
4968.0035340000013
 21
4188.6785689999988
 31
0.0
  0
LINE
  5
7D57
  8
0
  6
BYBLOCK
 62
     0
 10
4664.0035340000004
 20
4141.2035880000003
 30
0.0
 11
4664.0035340000004
 21
4188.6785689999988
 31
0.0
  0
LINE
  5
7D58
  8
0
  6
BYBLOCK
 62
     0
 10
4908.0035340000004
 20
4158.6785689999997
 30
0.0
 11
4724.0035340000004
 21
4158.6785689999997
 31
0.0
  0
TEXT
  5
7D59
  8
3
 62
     0
 10
4698.1463911428582
 20
4189.3184315191211
 30
0.0
 40
90.0
  1
304
  0
INSERT
  5
7D5A
  8
0
  6
BYBLOCK
 62
     0
  2
_OPEN
 10
4968.0035340000013
 20
4158.6785689999997
 30
0.0
 41
60.0
 42
60.0
 43
60.0
  0
INSERT
  5
7D5B
  8
0
  6
BYBLOCK
 62
     0
  2
_OPEN
 10
4664.0035340000004
 20
4158.6785689999997
 30
0.0
 41
60.0
 42
60.0
 43
60.0
 50
180.0
  0
POINT
  5
7D5C
  8
DEFPOINTS
  6
BYBLOCK
 62
     0
 10
4968.0035340000013
 20
3644.7717479999992
 30
0.0
  0
POINT
  5
7D5D
  8
DEFPOINTS
  6
BYBLOCK
 62
     0
 10
4664.0035340000004
 20
4126.2035880000003
 30
0.0
  0
POINT
  5
7D5E
  8
DEFPOINTS
  6
BYBLOCK
 62
     0
 10
4664.0035340000004
 20
4158.6785689999997
 30
0.0
  0
ENDBLK
  5
7D5F
  8
0
  0
BLOCK
  8
0
  2
*D10
 70
     1
 10
0.0
 20
0.0
 30
0.0
  3
*D10
  1

  0
LINE
  5
7DF8
  8
3
  6
CONTINUOUS
 62
     0
 10
4104.0035340000004
 20
3889.7717479999992
 30
0.0
 11
4104.0035340000004
 21
4188.6785689999988
 31
0.0
  0
LINE
  5
7DF9
  8
3
  6
CONTINUOUS
 62
     0
 10
4604.0035340000004
 20
4158.6785689999997
 30
0.0
 11
4164.0035340000004
 21
4158.6785689999997
 31
0.0
  0
INSERT
  5
7DFA
  8
3
  6
CONTINUOUS
 62
     0
  2
_OPEN
 10
4664.0035340000004
 20
4158.6785689999997
 30
0.0
 41
60.0
 42
60.0
 43
60.0
  0
INSERT
  5
7DFB
  8
3
  6
CONTINUOUS
 62
     0
  2
_OPEN
 10
4104.0035340000004
 20
4158.6785689999997
 30
0.0
 41
60.0
 42
60.0
 43
60.0
 50
180.0
  0
TEXT
  8
3
  40
90
  5
7E33
  62
0
  72
0
  71
0
 10
4204.00
 20
4149.38
 30
0.000000
  1
MAX
  0
TEXT
  8
3
  40
90
  5
7E34
  62
0
  72
0
  71
0
 10
4204.00
 20
4032.38
 30
0.000000
  1
610
  0
POINT
  5
7DFD
  8
DEFPOINTS
  6
CONTINUOUS
 62
     0
 10
4664.0035340000004
 20
4126.2035880000003
 30
0.0
  0
POINT
  5
7DFE
  8
DEFPOINTS
  6
CONTINUOUS
 62
     0
 10
4104.0035340000004
 20
3874.7717480000001
 30
0.0
  0
POINT
  5
7DFF
  8
DEFPOINTS
  6
CONTINUOUS
 62
     0
 10
4104.0035340000004
 20
4158.6785689999997
 30
0.0
  0
ENDBLK
  5
7D69
  8
0
  0
BLOCK
  8
0
  2
*D11
 70
     1
 10
0.0
 20
0.0
 30
0.0
  3
*D11
  1

  0
LINE
  5
7E00
  8
3
  6
CONTINUOUS
 62
     0
 10
4196.0035340000004
 20
2509.7717480000001
 30
0.0
 11
4196.0035340000004
 21
2266.9391379999988
 31
0.0
  0
LINE
  5
7E01
  8
3
  6
CONTINUOUS
 62
     0
 10
4664.0035340000004
 20
2350.7784419999998
 30
0.0
 11
4664.0035340000004
 21
2266.9391379999988
 31
0.0
  0
LINE
  5
7E02
  8
3
  6
CONTINUOUS
 62
     0
 10
4256.0035340000004
 20
2296.9391379999988
 30
0.0
 11
4604.0035340000004
 21
2296.9391379999988
 31
0.0
  0
INSERT
  5
7E03
  8
3
  6
CONTINUOUS
 62
     0
  2
_OPEN
 10
4196.0035340000004
 20
2296.9391379999988
 30
0.0
 41
60.0
 42
60.0
 43
60.0
 50
180.0
  0
INSERT
  5
7E04
  8
3
  6
CONTINUOUS
 62
     0
  2
_OPEN
 10
4664.0035340000004
 20
2296.9391379999988
 30
0.0
 41
60.0
 42
60.0
 43
60.0
  0
TEXT
  8
3
  40
90
  5
7E35
  62
0
  72
0
  71
0
 10
4278.29
 20
2212.64
 30
0.000000
  1
468
  0
POINT
  5
7E06
  8
DEFPOINTS
  6
CONTINUOUS
 62
     0
 10
4196.0035340000004
 20
2524.7717480000001
 30
0.0
  0
POINT
  5
7E07
  8
DEFPOINTS
  6
CONTINUOUS
 62
     0
 10
4664.0035340000004
 20
2365.7784419999998
 30
0.0
  0
POINT
  5
7E08
  8
DEFPOINTS
  6
CONTINUOUS
 62
     0
 10
4664.0035340000004
 20
2296.9391379999988
 30
0.0
  0
ENDBLK
  5
7CF0
  8
0
  0
BLOCK
  8
0
  2
*D12
 70
     1
 10
0.0
 20
0.0
 30
0.0
  3
*D12
  1

  0
LINE
  5
7E09
  8
3
  6
CONTINUOUS
 62
     0
 10
5016.0035340000013
 20
2509.7717480000001
 30
0.0
 11
5016.0035340000013
 21
2266.9391379999988
 31
0.0
  0
LINE
  5
7E0A
  8
3
  6
CONTINUOUS
 62
     0
 10
4724.0035340000004
 20
2296.9391379999988
 30
0.0
 11
4956.0035340000004
 21
2296.9391379999988
 31
0.0
  0
TEXT
  8
3
  40
90
  5
7E36
  62
0
  72
0
  71
0
 10
4678.45
 20
2213.68
 30
0.000000
  1
352
  0
INSERT
  5
7E0C
  8
3
  6
CONTINUOUS
 62
     0
  2
_OPEN
 10
4664.0035340000004
 20
2296.9391379999988
 30
0.0
 41
60.0
 42
60.0
 43
60.0
 50
180.0
  0
INSERT
  5
7E0D
  8
3
  6
CONTINUOUS
 62
     0
  2
_OPEN
 10
5016.0035340000013
 20
2296.9391379999988
 30
0.0
 41
60.0
 42
60.0
 43
60.0
  0
POINT
  5
7E0E
  8
DEFPOINTS
  6
CONTINUOUS
 62
     0
 10
4664.0035340000004
 20
2365.7784419999998
 30
0.0
  0
POINT
  5
7E0F
  8
DEFPOINTS
  6
CONTINUOUS
 62
     0
 10
5016.0035340000013
 20
2524.7717480000001
 30
0.0
  0
POINT
  5
7E10
  8
DEFPOINTS
  6
CONTINUOUS
 62
     0
 10
5016.0035340000013
 20
2296.9391379999988
 30
0.0
  0
ENDBLK
  5
7CFA
  8
0
  0
BLOCK
  8
0
  2
*D13
 70
     1
 10
0.0
 20
0.0
 30
0.0
  3
*D13
  1

  0
LINE
  5
7E11
  8
3
  6
CONTINUOUS
 62
     0
 10
1397.9936150000001
 20
6138.4261700000006
 30
0.0
 11
1397.9936150000001
 21
6320.6320249999999
 31
0.0
  0
LINE
  5
7E12
  8
3
  6
CONTINUOUS
 62
     0
 10
2997.9936149999999
 20
6138.4261700000006
 30
0.0
 11
2997.9936149999999
 21
6320.6320249999999
 31
0.0
  0
LINE
  5
7E13
  8
3
  6
CONTINUOUS
 62
     0
 10
1457.9936150000001
 20
6290.6320249999999
 30
0.0
 11
2937.993614999999
 21
6290.6320249999999
 31
0.0
  0
INSERT
  5
7E14
  8
3
  6
CONTINUOUS
 62
     0
  2
_OPEN
 10
1397.9936150000001
 20
6290.6320249999999
 30
0.0
 41
60.0
 42
60.0
 43
60.0
 50
180.0
  0
INSERT
  5
7E15
  8
3
  6
CONTINUOUS
 62
     0
  2
_OPEN
 10
2997.9936149999999
 20
6290.6320249999999
 30
0.0
 41
60.0
 42
60.0
 43
60.0
  0
TEXT
  8
3
  40
90
  5
7E37
  62
0
  72
0
  71
0
 10
1970.48
 20
6206.33
 30
0.000000
  1
1600
  0
POINT
  5
7E17
  8
DEFPOINTS
  6
CONTINUOUS
 62
     0
 10
1397.9936150000001
 20
6123.4261700000006
 30
0.0
  0
POINT
  5
7E18
  8
DEFPOINTS
  6
CONTINUOUS
 62
     0
 10
2997.9936149999999
 20
6123.4261700000006
 30
0.0
  0
POINT
  5
7E19
  8
DEFPOINTS
  6
CONTINUOUS
 62
     0
 10
2997.9936149999999
 20
6290.6320249999999
 30
0.0
  0
ENDBLK
  5
7C51
  8
0
  0
BLOCK
  8
0
  2
*D14
 70
     1
 10
0.0
 20
0.0
 30
0.0
  3
*D14
  1

  0
LINE
  5
7E1A
  8
3
  6
CONTINUOUS
 62
     0
 10
3012.9936149999999
 20
6123.4261700000006
 30
0.0
 11
3322.3606319999999
 21
6123.4261700000006
 31
0.0
  0
LINE
  5
7E1B
  8
3
  6
CONTINUOUS
 62
     0
 10
3012.9936149999999
 20
5303.4261700000006
 30
0.0
 11
3322.3606319999999
 21
5303.4261700000006
 31
0.0
  0
LINE
  5
7E1C
  8
3
  6
CONTINUOUS
 62
     0
 10
3292.3606320000008
 20
6063.4261700000006
 30
0.0
 11
3292.3606320000008
 21
5363.4261700000006
 31
0.0
  0
INSERT
  5
7E1D
  8
3
  6
CONTINUOUS
 62
     0
  2
_OPEN
 10
3292.3606320000008
 20
6123.4261700000006
 30
0.0
 41
60.0
 42
60.0
 43
60.0
 50
90.0
  0
INSERT
  5
7E1E
  8
3
  6
CONTINUOUS
 62
     0
  2
_OPEN
 10
3292.3606320000008
 20
5303.4261700000006
 30
0.0
 41
60.0
 42
60.0
 43
60.0
 50
270.0
  0
TEXT
  8
3
  40
90
  5
7E38
  62
0
  72
0
  71
0
 10
3037.36
 20
5536.27
 30
0.000000
  1
820
  0
POINT
  5
7E20
  8
DEFPOINTS
  6
CONTINUOUS
 62
     0
 10
2997.9936149999999
 20
6123.4261700000006
 30
0.0
  0
POINT
  5
7E21
  8
DEFPOINTS
  6
CONTINUOUS
 62
     0
 10
2997.9936149999999
 20
5303.4261700000006
 30
0.0
  0
POINT
  5
7E22
  8
DEFPOINTS
  6
CONTINUOUS
 62
     0
 10
3292.3606320000008
 20
5303.4261700000006
 30
0.0
  0
ENDBLK
  5
7C5E
  8
0
  0
BLOCK
  8
0
  2
*D15
 70
     1
 10
0.0
 20
0.0
 30
0.0
  3
*D15
  1

  0
LINE
  5
7E23
  8
3
  6
CONTINUOUS
 62
     0
 10
1342.002967893126
 20
3234.7717480000001
 30
0.0
 11
1342.002967893126
 21
4208.89851
 31
0.0
  0
LINE
  5
7E24
  8
3
  6
CONTINUOUS
 62
     0
 10
1857.993614999999
 20
4178.8985099999991
 30
0.0
 11
1402.002967893126
 21
4178.8985099999991
 31
0.0
  0
INSERT
  5
7E25
  8
3
  6
CONTINUOUS
 62
     0
  2
_OPEN
 10
1917.9936150000001
 20
4178.8985099999991
 30
0.0
 41
60.0
 42
60.0
 43
60.0
  0
INSERT
  5
7E26
  8
3
  6
CONTINUOUS
 62
     0
  2
_OPEN
 10
1342.002967893126
 20
4178.8985099999991
 30
0.0
 41
60.0
 42
60.0
 43
60.0
 50
180.0
  0
TEXT
  8
3
  40
90
  5
7E39
  62
0
  72
0
  71
0
 10
1450.00
 20
4094.60
 30
0.000000
  1
576
  0
POINT
  5
7E28
  8
DEFPOINTS
  6
CONTINUOUS
 62
     0
 10
1917.9936150000001
 20
4072.4988289999992
 30
0.0
  0
POINT
  5
7E29
  8
DEFPOINTS
  6
CONTINUOUS
 62
     0
 10
1342.002967893126
 20
3219.7717480000001
 30
0.0
  0
POINT
  5
7E2A
  8
DEFPOINTS
  6
CONTINUOUS
 62
     0
 10
1342.002967893126
 20
4178.8985099999991
 30
0.0
  0
ENDBLK
  5
7D31
  8
0
  0
ENDSEC
  0
SECTION
  2
ENTITIES
  0
ARC
  5
7AA0
  8
1
  6
CONTINUOUS
 10
1969.993614999999
 20
3271.7717480000001
 30
0.0
 40
717.88999999999987
 50
265.24000000000001
 51
355.85000000000002
  0
LINE
  5
7AA1
  8
1
  6
CONTINUOUS
 10
2997.9936149999999
 20
2624.7717480000001
 30
0.0
 11
1397.993614999999
 21
2624.7717480000001
 31
0.0
  0
LINE
  5
7AA2
  8
1
  6
CONTINUOUS
 10
2745.6136149999988
 20
5251.4261700000006
 30
0.0
 11
2895.6136150000002
 21
5251.4261700000006
 31
0.0
  0
LINE
  5
7AA3
  8
1
  6
CONTINUOUS
 10
2745.6136149999988
 20
5321.4261700000006
 30
0.0
 11
2895.6136150000002
 21
5321.4261700000006
 31
0.0
  0
LINE
  5
7AA4
  8
1
  6
CONTINUOUS
 10
2977.993614999999
 20
5361.4261700000006
 30
0.0
 11
1497.9936150000001
 21
5361.4261700000006
 31
0.0
  0
LINE
  5
7AA5
  8
1
  6
CONTINUOUS
 10
2977.993614999999
 20
5211.4261700000006
 30
0.0
 11
1497.9936150000001
 21
5211.4261700000006
 31
0.0
  0
LINE
  5
7AA6
  8
1
  6
CONTINUOUS
 10
2997.9936149999999
 20
6123.4261700000006
 30
0.0
 11
1397.9936150000001
 21
6123.4261700000006
 31
0.0
  0
LINE
  5
7AA7
  8
1
  6
CONTINUOUS
 10
2982.6136149999988
 20
5409.4261699999997
 30
0.0
 11
2658.6136150000002
 21
5409.4261699999997
 31
0.0
  0
LINE
  5
7AA8
  8
1
  6
CONTINUOUS
 10
2982.6136149999988
 20
5894.4261699999997
 30
0.0
 11
2704.9936149999999
 21
5894.4261699999997
 31
0.0
  0
LINE
  5
7AA9
  8
1
  6
CONTINUOUS
 10
1397.9936150000001
 20
2524.7717480000001
 30
0.0
 11
2997.9936149999999
 21
2524.7717480000001
 31
0.0
  0
LINE
  5
7AAA
  8
2
  6
CENTER
 10
2895.6136150000002
 20
2824.7717480000001
 30
0.0
 11
2745.6136149999988
 21
2824.7717480000001
 31
0.0
  0
LINE
  5
7AAB
  8
1
  6
CONTINUOUS
 10
2067.9936149999999
 20
3874.7717480000001
 30
0.0
 11
2977.993614999999
 21
2924.7717480000001
 31
0.0
  0
CIRCLE
  5
7AAC
  8
1
  6
CONTINUOUS
 10
2820.6136150000002
 20
2824.7717480000001
 30
0.0
 40
75.0
  0
ARC
  5
7AAD
  8
1
  6
CONTINUOUS
 10
2820.6136150000002
 20
2824.7717480000001
 30
0.0
 40
162.0
 50
324.97000000000003
 51
215.02999999999989
  0
LINE
  5
7AAE
  8
1
  6
CONTINUOUS
 10
2859.163614999999
 20
2889.1117479999998
 30
0.0
 11
2020.7736149999989
 21
3391.3417479999998
 31
0.0
  0
LINE
  5
7AAF
  8
1
  6
CONTINUOUS
 10
1837.493614999999
 20
3814.7717480000001
 30
0.0
 11
2747.493614999999
 21
3814.7717480000001
 31
0.0
  0
LINE
  5
7AB2
  8
1
  6
CONTINUOUS
 10
1497.9936150000001
 20
3874.7717480000001
 30
0.0
 11
2067.9936149999999
 21
3874.7717480000001
 31
0.0
  0
CIRCLE
  5
7AB3
  8
1
  6
CONTINUOUS
 10
1917.9936150000001
 20
3219.7717480000001
 30
0.0
 40
200.0
  0
LINE
  5
7AB4
  8
2
  6
CENTER
 10
1205.893472
 20
3219.7717480000001
 30
0.0
 11
2948.27513
 21
3219.7717480000001
 31
0.0
  0
LINE
  5
7AB6
  8
1
  6
CONTINUOUS
 10
2799.5136149999998
 20
2752.801747999999
 30
0.0
 11
1861.7036149999999
 21
3027.851748
 31
0.0
  0
ARC
  5
7AB8
  8
1
  6
CONTINUOUS
 10
1882.993614999999
 20
3184.7717480000001
 30
0.0
 40
542.03999999999985
 50
90.319999999999993
 51
173.5
  0
LINE
  5
7AB9
  8
1
  6
CONTINUOUS
 10
1497.9936150000001
 20
2624.7717480000001
 30
0.0
 11
1497.9936150000001
 21
3874.7717480000001
 31
0.0
  0
LINE
  5
7ABA
  8
2
  6
CENTER
 10
1917.9936150000001
 20
6267.5940019999998
 30
0.0
 11
1917.9936150000001
 21
5067.9776110000003
 31
0.0
  0
ARC
  5
7ABB
  8
1
  6
CONTINUOUS
 10
1961.993614999999
 20
3175.7717480000001
 30
0.0
 40
621.54999999999995
 50
173.5
 51
265.24000000000001
  0
LINE
  5
7ABC
  8
1
  6
CONTINUOUS
 10
1397.9936150000001
 20
2624.7717480000001
 30
0.0
 11
1397.9936150000001
 21
2524.7717480000001
 31
0.0
  0
LINE
  5
7ABD
  8
1
  6
CONTINUOUS
 10
1879.9936150000001
 20
3726.801747999999
 30
0.0
 11
1879.9936150000001
 21
3814.7717480000001
 31
0.0
  0
LINE
  5
7ABF
  8
1
  6
CONTINUOUS
 10
2704.9936149999999
 20
3814.7717480000001
 30
0.0
 11
2685.9936149999999
 21
3219.7717480000001
 31
0.0
  0
LINE
  5
7AC0
  8
1
  6
CONTINUOUS
 10
2666.6136150000002
 20
2682.7717480000001
 30
0.0
 11
2687.9636149999992
 21
2731.7917480000001
 31
0.0
  0
LINE
  5
7AC1
  8
1
  6
CONTINUOUS
 10
2666.6136150000002
 20
2624.7717480000001
 30
0.0
 11
2666.6136150000002
 21
2682.7717480000001
 31
0.0
  0
LINE
  5
7AC2
  8
2
  6
CENTER
 10
2820.6136150000002
 20
2749.7717480000001
 30
0.0
 11
2820.6136150000002
 21
2899.7717480000001
 31
0.0
  0
LINE
  5
7AC3
  8
1
  6
CONTINUOUS
 10
1717.9936150000001
 20
5251.4261700000006
 30
0.0
 11
2117.9936149999999
 21
5251.4261700000006
 31
0.0
  0
LINE
  5
7AC4
  8
1
  6
CONTINUOUS
 10
1717.9936150000001
 20
5321.4261700000006
 30
0.0
 11
2117.9936149999999
 21
5321.4261700000006
 31
0.0
  0
LINE
  5
7AC5
  8
1
  6
CONTINUOUS
 10
2704.9936149999999
 20
5471.4261699999997
 30
0.0
 11
1340.4436149999999
 21
5471.4261699999997
 31
0.0
  0
LINE
  5
7AC6
  8
1
  6
CONTINUOUS
 10
2704.9936149999999
 20
6071.4261700000006
 30
0.0
 11
1340.4436149999999
 21
6071.4261700000006
 31
0.0
  0
LINE
  5
7AC7
  8
1
  6
CONTINUOUS
 10
1879.9936150000001
 20
6071.4261700000006
 30
0.0
 11
2704.9936149999999
 21
5471.4261699999997
 31
0.0
  0
LINE
  5
7AC8
  8
1
  6
CONTINUOUS
 10
1879.9936150000001
 20
5471.4261699999997
 30
0.0
 11
2704.9936149999999
 21
6071.4261700000006
 31
0.0
  0
LINE
  5
7AC9
  8
1
  6
CONTINUOUS
 10
1717.9936150000001
 20
5303.4261700000006
 30
0.0
 11
1397.9936150000001
 21
5303.4261700000006
 31
0.0
  0
LINE
  5
7ACA
  8
1
  6
CONTINUOUS
 10
1340.4436149999999
 20
5471.4261699999997
 30
0.0
 11
1340.4436149999999
 21
6071.4261700000006
 31
0.0
  0
LINE
  5
7ACB
  8
1
  6
CONTINUOUS
 10
1397.9936150000001
 20
5471.4261699999997
 30
0.0
 11
1397.9936150000001
 21
5303.4261700000006
 31
0.0
  0
LINE
  5
7ACC
  8
1
  6
CONTINUOUS
 10
1397.9936150000001
 20
6123.4261700000006
 30
0.0
 11
1397.9936150000001
 21
6071.4261700000006
 31
0.0
  0
LINE
  5
7ACD
  8
1
  6
CONTINUOUS
 10
1879.9936150000001
 20
5471.4261699999997
 30
0.0
 11
1879.9936150000001
 21
6071.4261700000006
 31
0.0
  0
LINE
  5
7ACE
  8
1
  6
CONTINUOUS
 10
1497.9936150000001
 20
5211.4261700000006
 30
0.0
 11
1497.9936150000001
 21
5361.4261700000006
 31
0.0
  0
LINE
  5
7ACF
  8
1
  6
CONTINUOUS
 10
1896.993614999999
 20
5321.4261700000006
 30
0.0
 11
1896.993614999999
 21
5471.4261699999997
 31
0.0
  0
LINE
  5
7AD0
  8
1
  6
CONTINUOUS
 10
1717.9936150000001
 20
5251.4261700000006
 30
0.0
 11
1717.9936150000001
 21
5321.4261700000006
 31
0.0
  0
LINE
  5
7AD1
  8
1
  6
CONTINUOUS
 10
2745.6136149999988
 20
5303.4261700000006
 30
0.0
 11
2117.9936149999999
 21
5303.4261700000006
 31
0.0
  0
LINE
  5
7AD2
  8
1
  6
CONTINUOUS
 10
1938.9936150000001
 20
5321.4261700000006
 30
0.0
 11
1938.9936150000001
 21
5471.4261699999997
 31
0.0
  0
LINE
  5
7AD3
  8
1
  6
CONTINUOUS
 10
2117.9936149999999
 20
5251.4261700000006
 30
0.0
 11
2117.9936149999999
 21
5321.4261700000006
 31
0.0
  0
LINE
  5
7AD4
  8
1
  6
CONTINUOUS
 10
2704.9936149999999
 20
5471.4261699999997
 30
0.0
 11
2704.9936149999999
 21
6071.4261700000006
 31
0.0
  0
LINE
  5
7AD5
  8
1
  6
CONTINUOUS
 10
2745.6136149999988
 20
5251.4261700000006
 30
0.0
 11
2745.6136149999988
 21
5321.4261700000006
 31
0.0
  0
LINE
  5
7AD6
  8
1
  6
CONTINUOUS
 10
2658.6136150000002
 20
5409.4261699999997
 30
0.0
 11
2658.6136150000002
 21
5471.4261699999997
 31
0.0
  0
LINE
  5
7AD7
  8
1
  6
CONTINUOUS
 10
2799.6136150000002
 20
5321.4261700000006
 30
0.0
 11
2799.6136150000002
 21
5409.4261699999997
 31
0.0
  0
LINE
  5
7AD8
  8
1
  6
CONTINUOUS
 10
5016.0035340000013
 20
2524.7717480000001
 30
0.0
 11
4196.0035340000004
 21
2524.7717480000001
 31
0.0
  0
LINE
  5
7AD9
  8
1
  6
CONTINUOUS
 10
5016.0035340000013
 20
2624.7717480000001
 30
0.0
 11
4104.0035340000004
 21
2624.7717480000001
 31
0.0
  0
LINE
  5
7ADA
  8
1
  6
CONTINUOUS
 10
4322.0035340000004
 20
3814.7717480000001
 30
0.0
 11
5006.0035340000013
 21
3814.7717480000001
 31
0.0
  0
LINE
  5
7AEA
  8
1
  6
CONTINUOUS
 10
2977.993614999999
 20
2924.7717480000001
 30
0.0
 11
2977.993614999999
 21
2624.7717480000001
 31
0.0
  0
LINE
  5
7AEB
  8
1
  6
CONTINUOUS
 10
2974.6136149999988
 20
2682.7717480000001
 30
0.0
 11
2953.2736150000001
 21
2731.7917480000001
 31
0.0
  0
LINE
  5
7AEC
  8
1
  6
CONTINUOUS
 10
2997.9936149999999
 20
2624.7717480000001
 30
0.0
 11
2997.9936149999999
 21
2524.7717480000001
 31
0.0
  0
LINE
  5
7AED
  8
1
  6
CONTINUOUS
 10
2974.6136149999988
 20
2624.7717480000001
 30
0.0
 11
2974.6136149999988
 21
2682.7717480000001
 31
0.0
  0
LINE
  5
7AFF
  8
1
  6
CONTINUOUS
 10
4364.0035340000004
 20
3814.7717480000001
 30
0.0
 11
4364.0035340000004
 21
2624.7717480000001
 31
0.0
  0
LINE
  5
7B00
  8
1
  6
CONTINUOUS
 10
4104.0035340000004
 20
3874.7717480000001
 30
0.0
 11
4104.0035340000004
 21
2624.7717480000001
 31
0.0
  0
LINE
  5
7B01
  8
1
  6
CONTINUOUS
 10
4254.0035340000004
 20
3874.7717480000001
 30
0.0
 11
4254.0035340000004
 21
2624.7717480000001
 31
0.0
  0
LINE
  5
7B02
  8
1
  6
CONTINUOUS
 10
4144.0035340000004
 20
3488.7717480000001
 30
0.0
 11
4144.0035340000004
 21
3088.7717480000001
 31
0.0
  0
LINE
  5
7B03
  8
1
  6
CONTINUOUS
 10
4214.0035340000004
 20
3488.7717480000001
 30
0.0
 11
4214.0035340000004
 21
3088.7717480000001
 31
0.0
  0
LINE
  5
7B04
  8
1
  6
CONTINUOUS
 10
4196.0035340000004
 20
2624.7717480000001
 30
0.0
 11
4196.0035340000004
 21
2524.7717480000001
 31
0.0
  0
LINE
  5
7B05
  8
1
  6
CONTINUOUS
 10
4214.0035340000004
 20
2845.7717480000001
 30
0.0
 11
4364.0035340000004
 21
2845.7717480000001
 31
0.0
  0
LINE
  5
7B06
  8
1
  6
CONTINUOUS
 10
4214.0035340000004
 20
2803.7717480000001
 30
0.0
 11
4364.0035340000004
 21
2803.7717480000001
 31
0.0
  0
LINE
  5
7B07
  8
1
  6
CONTINUOUS
 10
4364.0035340000004
 20
3309.7717480000001
 30
0.0
 11
4214.0035340000004
 21
3309.7717480000001
 31
0.0
  0
LINE
  5
7B08
  8
1
  6
CONTINUOUS
 10
4364.0035340000004
 20
3267.7717479999992
 30
0.0
 11
4214.0035340000004
 21
3267.7717479999992
 31
0.0
  0
LINE
  5
7B09
  8
1
  6
CONTINUOUS
 10
4144.0035340000004
 20
3088.7717480000001
 30
0.0
 11
4214.0035340000004
 21
3088.7717480000001
 31
0.0
  0
LINE
  5
7B0A
  8
1
  6
CONTINUOUS
 10
4144.0035340000004
 20
2899.7717480000001
 30
0.0
 11
4214.0035340000004
 21
2899.7717480000001
 31
0.0
  0
LINE
  5
7B0B
  8
1
  6
CONTINUOUS
 10
4144.0035340000004
 20
2749.7717480000001
 30
0.0
 11
4214.0035340000004
 21
2749.7717480000001
 31
0.0
  0
LINE
  5
7B0C
  8
1
  6
CONTINUOUS
 10
4144.0035340000004
 20
2899.7717480000001
 30
0.0
 11
4144.0035340000004
 21
2749.7717480000001
 31
0.0
  0
LINE
  5
7B0D
  8
1
  6
CONTINUOUS
 10
4214.0035340000004
 20
2899.7717480000001
 30
0.0
 11
4214.0035340000004
 21
2749.7717480000001
 31
0.0
  0
LINE
  5
7B0E
  8
1
  6
CONTINUOUS
 10
4254.0035340000004
 20
3874.7717480000001
 30
0.0
 11
4104.0035340000004
 21
3874.7717480000001
 31
0.0
  0
LINE
  5
7B0F
  8
1
  6
CONTINUOUS
 10
4144.0035340000004
 20
3488.7717480000001
 30
0.0
 11
4214.0035340000004
 21
3488.7717480000001
 31
0.0
  0
LINE
  5
7B10
  8
1
  6
CONTINUOUS
 10
4964.0035340000004
 20
3814.7717480000001
 30
0.0
 11
4964.0035340000004
 21
2624.7717480000001
 31
0.0
  0
LINE
  5
7B11
  8
1
  6
CONTINUOUS
 10
5016.0035340000013
 20
2624.7717480000001
 30
0.0
 11
5016.0035340000013
 21
2524.7717480000001
 31
0.0
  0
LINE
  5
7B1F
  8
1
  6
CONTINUOUS
 10
2997.9936149999999
 20
6123.4261700000006
 30
0.0
 11
2997.9936149999999
 21
5303.4261700000006
 31
0.0
  0
LINE
  5
7B20
  8
1
  6
CONTINUOUS
 10
2982.6136149999988
 20
5409.4261699999997
 30
0.0
 11
2982.6136149999988
 21
5894.4261699999997
 31
0.0
  0
LINE
  5
7B21
  8
1
  6
CONTINUOUS
 10
2895.6136150000002
 20
5251.4261700000006
 30
0.0
 11
2895.6136150000002
 21
5321.4261700000006
 31
0.0
  0
LINE
  5
7B22
  8
1
  6
CONTINUOUS
 10
2977.993614999999
 20
5361.4261700000006
 30
0.0
 11
2977.993614999999
 21
5211.4261700000006
 31
0.0
  0
LINE
  5
7B23
  8
1
  6
CONTINUOUS
 10
2997.9936149999999
 20
5303.4261700000006
 30
0.0
 11
2895.6136150000002
 21
5303.4261700000006
 31
0.0
  0
LINE
  5
7B24
  8
1
  6
CONTINUOUS
 10
2841.6136149999988
 20
5321.4261700000006
 30
0.0
 11
2841.6136149999988
 21
5409.4261699999997
 31
0.0
  0
LINE
  5
7B3A
  8
2
  6
CENTER
 10
3114.253142
 20
5771.4261700000006
 30
0.0
 11
1210.5918140000001
 21
5771.4261700000006
 31
0.0
  0
LINE
  5
7B3B
  8
2
  6
CENTER
 10
4664.0035340000004
 20
3960.7589589999998
 30
0.0
 11
4664.0035340000004
 21
2365.7784419999998
 31
0.0
  0
LINE
  5
7B3C
  8
2
  6
CENTER
 10
1917.9936150000001
 20
4072.4988289999992
 30
0.0
 11
1917.9936150000001
 21
2354.232113
 31
0.0
  0
LINE
  5
7B3D
  8
2
  6
CENTER
 10
4016.7282059999998
 20
3219.7717480000001
 30
0.0
 11
5093.2470950000006
 21
3219.7717480000001
 31
0.0
  0
LINE
  5
7B63
  8
4
  6
CONTINUOUS
 10
5550.0
 20
1500.0
 30
0.0
 11
5550.0
 21
900.0
 31
0.0
  0
LINE
  5
7B64
  8
4
  6
CONTINUOUS
 10
3450.0
 20
1500.0
 30
0.0
 11
3450.0
 21
900.0
 31
0.0
  0
LINE
  5
7B65
  8
4
  6
CONTINUOUS
 10
1950.0
 20
1500.0
 30
0.0
 11
1950.0
 21
900.0
 31
0.0
  0
LINE
  5
7B68
  8
4
  6
CONTINUOUS
 10
1950.0
 20
900.0
 30
0.0
 11
5550.0
 21
900.0
 31
0.0
  0
LINE
  5
7B69
  8
4
  6
CONTINUOUS
 10
1950.0
 20
1200.0
 30
0.0
 11
5550.0
 21
1200.0
 31
0.0
  0
TEXT
  5
7B6A
  8
4
  6
CONTINUOUS
 10
2065.5062429999989
 20
1294.6290779999999
 30
0.0
 40
150.0
  1
機器名称
  0
TEXT
  5
7B6B
  8
4
  6
CONTINUOUS
 10
2058.7743179999989
 20
964.9354699999999
 30
0.0
 40
150.0
  1
機器型番
  0
TEXT
  5
7B6C
  8
4
  6
CONTINUOUS
 10
3533.0362359999999
 20
1267.7153069999999
 30
0.0
 40
150.0
  1
ミツヤ多翼送風機
  0
TEXT
  5
7B6D
  8
4
  6
CONTINUOUS
 10
3559.9634869999991
 20
951.47875299999987
 30
0.0
 40
150.0
  1
MF#5-4
  0
TEXT
  5
7B6F
  8
4
  6
CONTINUOUS
 10
2714.3572960000001
 20
7150.2865239999992
 30
0.0
 40
162.0
  1
床置ベット
  0
TEXT
  5
7B70
  8
4
  6
CONTINUOUS
 10
948.50278000000014
 20
7601.6429289999996
 30
0.0
 40
216.0
  1
ベルト駆動式片吸込両持多翼ファン
  0
LINE
  5
7B71
  8
4
  6
CONTINUOUS
 10
750.0
 20
7408.2262629999996
 30
0.0
 11
5550.0
 21
7408.2262629999996
 31
0.0
  0
LINE
  5
7B72
  8
4
  6
CONTINUOUS
 10
750.0
 20
8008.2262629999996
 30
0.0
 11
5550.0
 21
8008.2262629999996
 31
0.0
  0
LINE
  5
7B73
  8
4
  6
CONTINUOUS
 10
1950.0
 20
1500.0
 30
0.0
 11
5550.0
 21
1500.0
 31
0.0
  0
LINE
  5
7B74
  8
4
  6
CONTINUOUS
 10
750.0
 20
8008.2262629999996
 30
0.0
 11
750.0
 21
7408.2262629999996
 31
0.0
  0
TEXT
  5
7B75
  8
4
  6
CONTINUOUS
 10
1406.7807999999991
 20
7146.9584329999998
 30
0.0
 40
162.0
  1
左回転上向
  0
TEXT
  5
7B76
  8
4
  6
CONTINUOUS
 10
4406.9086779999989
 20
8118.1832439999989
 30
0.0
 40
168.0
  1
No.
  0
TEXT
  5
7B77
  8
4
  6
CONTINUOUS
 10
3933.8881879999999
 20
7150.2865239999992
 30
0.0
 40
162.0
  1
縮尺：1/30
  0
LINE
  5
7B78
  8
4
  6
CONTINUOUS
 10
5550.0
 20
8008.2262629999996
 30
0.0
 11
5550.0
 21
7408.2262629999996
 31
0.0
  0
LINE
  5
7B7A
  8
4
  6
CONTINUOUS
 10
4321.8522670000002
 20
8043.7907490000007
 30
0.0
 11
4321.8522670000002
 21
8359.9567849999985
 31
0.0
  0
LINE
  5
7B7B
  8
4
  6
CONTINUOUS
 10
4321.8522670000002
 20
8359.9567849999985
 30
0.0
 11
5550.0
 21
8359.9567849999985
 31
0.0
  0
LINE
  5
7B7C
  8
4
  6
CONTINUOUS
 10
5550.0
 20
8359.9567849999985
 30
0.0
 11
5550.0
 21
8043.7907490000007
 31
0.0
  0
LINE
  5
7B7D
  8
4
  6
CONTINUOUS
 10
5550.0
 20
8043.7907490000007
 30
0.0
 11
4321.8522670000002
 21
8043.7907490000007
 31
0.0
  0
DIMENSION
  5
7B8F
  8
3
  6
CONTINUOUS
  2
*D1
 10
1879.9936150000001
 20
4013.26341
 30
0.0
 11
2279.405115
 21
4013.26341
 31
0.0
 70
   128
 13
2704.9936149999999
 23
3814.7717480000001
 33
0.0
 14
1879.9936150000001
 24
3814.7717480000001
 34
0.0
1001
ACAD
1000
DSTYLE
1002
{
1070
   287
1070
     3
1070
    40
1040
30.0
1070
   143
1040
0.039
1070
   172
1070
     1
1070
   271
1070
     0
1070
   279
1070
     0
1070
   288
1070
     1
1002
}
  0
DIMENSION
  5
7B9D
  8
3
  6
CONTINUOUS
  2
*D2
 10
1917.9936150000001
 20
4178.8985099999991
 30
0.0
 11
2285.5442290000001
 21
4178.8985099999991
 31
0.0
 70
   128
 13
2704.9936149999999
 23
3814.7717480000001
 33
0.0
 14
1917.9936150000001
 24
4072.4988289999992
 34
0.0
1001
ACAD
1000
DSTYLE
1002
{
1070
   287
1070
     3
1070
    40
1040
30.0
1070
   143
1040
0.039
1070
   172
1070
     1
1070
   271
1070
     0
1070
   279
1070
     0
1070
   288
1070
     1
1002
}
  0
DIMENSION
  5
7BB6
  8
3
  6
CONTINUOUS
  2
*D3
 10
1157.010225
 20
3219.7717480000001
 30
0.0
 11
1157.010225
 21
3523.1792759999998
 31
0.0
 70
   128
 13
1837.493614999999
 23
3814.7717480000001
 33
0.0
 14
1205.893472
 24
3219.7717480000001
 34
0.0
 50
90.0
1001
ACAD
1000
DSTYLE
1002
{
1070
   287
1070
     3
1070
    40
1040
30.0
1070
   143
1040
0.039
1070
   172
1070
     1
1070
   271
1070
     0
1070
   279
1070
     0
1070
   288
1070
     1
1002
}
  0
DIMENSION
  5
7BC2
  8
3
  6
CONTINUOUS
  2
*D4
 10
1157.010225
 20
2524.7717480000001
 30
0.0
 11
1082.0102249999991
 21
2872.271748000001
 31
0.0
 70
     0
 13
1205.893472
 23
3219.7717480000001
 33
0.0
 14
1397.9936150000001
 24
2524.7717480000001
 34
0.0
 50
90.0
1001
ACAD
1000
DSTYLE
1002
{
1070
   287
1070
     4
1070
    40
1040
30.0
1070
    75
1070
     1
1070
   143
1040
0.039
1070
   172
1070
     1
1070
   271
1070
     0
1070
   279
1070
     1
1070
   288
1070
     1
1002
}
  0
DIMENSION
  5
7BCF
  8
3
  6
CONTINUOUS
  2
*D5
 10
1917.9936150000001
 20
2255.0597329999991
 30
0.0
 11
1647.0753360000001
 21
2255.0597329999991
 31
0.0
 70
   128
 13
1397.9936150000001
 23
2524.7717480000001
 33
0.0
 14
1917.9936150000001
 24
2354.232113
 34
0.0
1001
ACAD
1000
DSTYLE
1002
{
1070
   287
1070
     3
1070
    40
1040
30.0
1070
   143
1040
0.039
1070
   172
1070
     1
1070
   271
1070
     0
1070
   279
1070
     0
1070
   288
1070
     1
1002
}
  0
DIMENSION
  5
7BDB
  8
3
  6
CONTINUOUS
  2
*D6
 10
2997.9936149999999
 20
2255.0597329999991
 30
0.0
 11
2457.993614999999
 21
2330.0597329999991
 31
0.0
 70
     0
 13
1917.9936150000001
 23
2354.232113
 33
0.0
 14
2997.9936149999999
 24
2524.7717480000001
 34
0.0
1001
ACAD
1000
DSTYLE
1002
{
1070
   287
1070
     4
1070
    40
1040
30.0
1070
    75
1070
     1
1070
   143
1040
0.039
1070
   172
1070
     1
1070
   271
1070
     0
1070
   279
1070
     1
1070
   288
1070
     1
1002
}
  0
DIMENSION
  5
7BE8
  8
3
  6
CONTINUOUS
  2
*D7
 10
4964.0035340000004
 20
3980.7742049999988
 30
0.0
 11
4663.3982130000004
 21
3980.7742049999988
 31
0.0
 70
   128
 13
4364.0035340000004
 23
3814.7717480000001
 33
0.0
 14
4964.0035340000004
 24
3814.7717480000001
 34
0.0
1001
ACAD
1000
DSTYLE
1002
{
1070
   287
1070
     3
1070
    40
1040
30.0
1070
   143
1040
0.039
1070
   172
1070
     1
1070
   271
1070
     0
1070
   279
1070
     0
1070
   288
1070
     1
1002
}
  0
LINE
  5
7BE9
  8
1
  6
CONTINUOUS
 10
4968.0035340000013
 20
3644.7717479999992
 30
0.0
 11
4968.0035340000013
 21
2794.7717480000001
 31
0.0
  0
DIMENSION
  5
7BF8
  8
3
  6
CONTINUOUS
  2
*D8
 10
5240.4758990000009
 20
2794.7717480000001
 30
0.0
 11
5240.475899
 21
3216.4476030000001
 31
0.0
 70
   128
 13
4968.0035340000013
 23
3644.7717479999992
 33
0.0
 14
4968.0035340000013
 24
2794.7717480000001
 34
0.0
 50
90.0
1001
ACAD
1000
DSTYLE
1002
{
1070
   287
1070
     3
1070
     3
1000
φ<>
1070
    40
1040
30.0
1070
   143
1040
0.039
1070
   172
1070
     1
1070
   271
1070
     0
1070
   279
1070
     0
1070
   288
1070
     1
1002
}
  0
DIMENSION
  5
7C07
  8
3
  6
CONTINUOUS
  2
*D9
 10
4664.0035340000004
 20
4158.6785689999997
 30
0.0
 11
4816.0035340000004
 21
4234.3184315191202
 31
0.0
 70
   128
 13
4968.0035340000013
 23
3644.7717479999992
 33
0.0
 14
4664.0035340000004
 24
4126.2035880000003
 34
0.0
1001
ACAD
1000
DSTYLE
1002
{
1070
   288
1070
     1
1070
   172
1070
     1
1070
    40
1040
30.0
1070
   271
1070
     0
1070
   143
1040
0.039
1002
}
  0
DIMENSION
  5
7C13
  8
3
  6
CONTINUOUS
  2
*D10
 10
4104.0035340000004
 20
4158.6785689999997
 30
0.0
 11
4384.0035340000004
 21
4308.6785689999997
 31
0.0
 70
     0
  1
MAX\P610
 13
4664.0035340000004
 23
4126.2035880000003
 33
0.0
 14
4104.0035340000004
 24
3874.7717480000001
 34
0.0
1001
ACAD
1000
DSTYLE
1002
{
1070
   287
1070
     4
1070
    40
1040
30.0
1070
    75
1070
     1
1070
   143
1040
0.039
1070
   172
1070
     1
1070
   271
1070
     0
1070
   279
1070
     1
1070
   288
1070
     1
1002
}
  0
DIMENSION
  5
7C20
  8
3
  6
CONTINUOUS
  2
*D11
 10
4664.0035340000004
 20
2296.9391379999988
 30
0.0
 11
4458.2892479999991
 21
2296.9391379999988
 31
0.0
 70
   128
 13
4196.0035340000004
 23
2524.7717480000001
 33
0.0
 14
4664.0035340000004
 24
2365.7784419999998
 34
0.0
1001
ACAD
1000
DSTYLE
1002
{
1070
   287
1070
     3
1070
    40
1040
30.0
1070
   143
1040
0.039
1070
   172
1070
     1
1070
   271
1070
     0
1070
   279
1070
     0
1070
   288
1070
     1
1002
}
  0
DIMENSION
  5
7C2E
  8
3
  6
CONTINUOUS
  2
*D12
 10
5016.0035340000013
 20
2296.9391379999988
 30
0.0
 11
4858.4545969999999
 21
2297.9826840000001
 31
0.0
 70
   128
 13
4664.0035340000004
 23
2365.7784419999998
 33
0.0
 14
5016.0035340000013
 24
2524.7717480000001
 34
0.0
1001
ACAD
1000
DSTYLE
1002
{
1070
   287
1070
     4
1070
    40
1040
30.0
1070
    75
1070
     1
1070
   143
1040
0.039
1070
   172
1070
     1
1070
   271
1070
     0
1070
   279
1070
     1
1070
   288
1070
     1
1002
}
  0
DIMENSION
  5
7C52
  8
3
  6
CONTINUOUS
  2
*D13
 10
2997.9936149999999
 20
6290.6320249999999
 30
0.0
 11
2150.4835210000001
 21
6290.6320249999999
 31
0.0
 70
   128
 13
1397.9936150000001
 23
6123.4261700000006
 33
0.0
 14
2997.9936149999999
 24
6123.4261700000006
 34
0.0
1001
ACAD
1000
DSTYLE
1002
{
1070
   287
1070
     3
1070
    40
1040
30.0
1070
   143
1040
0.039
1070
   172
1070
     1
1070
   271
1070
     0
1070
   279
1070
     0
1070
   288
1070
     1
1002
}
  0
DIMENSION
  5
7C5F
  8
3
  6
CONTINUOUS
  2
*D14
 10
3292.3606320000008
 20
5303.4261700000006
 30
0.0
 11
3292.360631999999
 21
5695.5725950000005
 31
0.0
 70
   128
 13
2997.9936149999999
 23
6123.4261700000006
 33
0.0
 14
2997.9936149999999
 24
5303.4261700000006
 34
0.0
 50
90.0
1001
ACAD
1000
DSTYLE
1002
{
1070
   287
1070
     3
1070
    40
1040
30.0
1070
   143
1040
0.039
1070
   172
1070
     1
1070
   271
1070
     0
1070
   279
1070
     0
1070
   288
1070
     1
1002
}
  0
DIMENSION
  5
7C9A
  8
3
  6
CONTINUOUS
  2
*D15
 10
1342.002967893126
 20
4178.8985099999991
 30
0.0
 11
1629.9982914465629
 21
4253.8985099999991
 31
0.0
 70
     0
 13
1917.9936150000001
 23
4072.4988289999992
 33
0.0
 14
1342.002967893126
 24
3219.7717480000001
 34
0.0
1001
ACAD
1000
DSTYLE
1002
{
1070
   287
1070
     4
1070
    40
1040
30.0
1070
    75
1070
     1
1070
   143
1040
0.039
1070
   172
1070
     1
1070
   271
1070
     0
1070
   279
1070
     1
1070
   288
1070
     1
1002
}
  0
LINE
  5
7D82
  8
1
  6
CONTINUOUS
 10
2417.9936149999999
 20
3624.7717480000001
 30
0.0
 11
1417.9936150000001
 21
3624.7717480000001
 31
0.0
  0
LINE
  5
7D83
  8
1
 10
1417.9936150000001
 20
3624.7717480000001
 30
0.0
 11
1417.9936150000001
 21
2624.7717480000001
 31
0.0
  0
LINE
  5
7D84
  8
1
 10
2417.9936149999999
 20
3624.7717480000001
 30
0.0
 11
2417.9936149999999
 21
2624.7717480000001
 31
0.0
  0
ENDSEC
  0
EOF
