  0
SECTION
  2
HEADER
  9
$ACADVER
  1
AC1009
  9
$INSBASE
 10
0.0
 20
0.0
 30
0.0
  9
$EXTMIN
 10
750.0
 20
900.0
 30
0.0
  9
$EXTMAX
 10
5550.0
 20
8359.9567849999985
 30
0.0
  9
$LIMMIN
 10
0.0
 20
0.0
  9
$LIMMAX
 10
297.0
 20
210.0
  9
$ORTHOMODE
 70
     0
  9
$REGENMODE
 70
     1
  9
$FILLMODE
 70
     0
  9
$QTEXTMODE
 70
     0
  9
$MIRRTEXT
 70
     1
  9
$DRAGMODE
 70
     2
  9
$LTSCALE
 40
100.0
  9
$OSMODE
 70
    37
  9
$ATTMODE
 70
     1
  9
$TEXTSIZE
 40
180.0
  9
$TRACEWID
 40
0.05
  9
$TEXTSTYLE
  7
STANDARD
  9
$CLAYER
  8
3
  9
$CELTYPE
  6
BYLAYER
  9
$CECOLOR
 62
   256
  9
$DIMSCALE
 40
30.0
  9
$DIMASZ
 40
2.0
  9
$DIMEXO
 40
0.5
  9
$DIMDLI
 40
10.0
  9
$DIMRND
 40
0.0
  9
$DIMDLE
 40
0.0
  9
$DIMEXE
 40
1.0
  9
$DIMTP
 40
1.0
  9
$DIMTM
 40
1.0
  9
$DIMTXT
 40
3.0
  9
$DIMCEN
 40
0.0
  9
$DIMTSZ
 40
0.0
  9
$DIMTOL
 70
     0
  9
$DIMLIM
 70
     0
  9
$DIMTIH
 70
     0
  9
$DIMTOH
 70
     0
  9
$DIMSE1
 70
     0
  9
$DIMSE2
 70
     0
  9
$DIMTAD
 70
     1
  9
$DIMZIN
 70
     8
  9
$DIMBLK
  1

  9
$DIMASO
 70
     1
  9
$DIMSHO
 70
     1
  9
$DIMPOST
  1

  9
$DIMAPOST
  1

  9
$DIMALT
 70
     0
  9
$DIMALTD
 70
     2
  9
$DIMALTF
 40
0.039
  9
$DIMLFAC
 40
1.0
  9
$DIMTOFL
 70
     1
  9
$DIMTVP
 40
0.0
  9
$DIMTIX
 70
     0
  9
$DIMSOXD
 70
     0
  9
$DIMSAH
 70
     1
  9
$DIMBLK1
  1
OPEN
  9
$DIMBLK2
  1
OPEN
  9
$DIMSTYLE
  2
IGA
  9
$DIMCLRD
 70
     0
  9
$DIMCLRE
 70
     0
  9
$DIMCLRT
 70
     0
  9
$DIMTFAC
 40
10.0
  9
$DIMGAP
 40
1.0
  9
$LUNITS
 70
     2
  9
$LUPREC
 70
     3
  9
$SKETCHINC
 40
0.1
  9
$FILLETRAD
 40
50.0
  9
$AUNITS
 70
     0
  9
$AUPREC
 70
     0
  9
$MENU
  1
acad
  9
$ELEVATION
 40
0.0
  9
$PELEVATION
 40
0.0
  9
$THICKNESS
 40
0.0
  9
$LIMCHECK
 70
     0
  9
$BLIPMODE
 70
     0
  9
$CHAMFERA
 40
0.5
  9
$CHAMFERB
 40
0.5
  9
$SKPOLY
 70
     0
  9
$TDCREATE
 40
2450749.461828588
  9
$TDUPDATE
 40
2454953.7748947451
  9
$TDINDWG
 40
0.012578125
  9
$TDUSRTIMER
 40
0.012578125
  9
$USRTIMER
 70
     1
  9
$ANGBASE
 50
0.0
  9
$ANGDIR
 70
     0
  9
$PDMODE
 70
     0
  9
$PDSIZE
 40
0.0
  9
$PLINEWID
 40
0.0
  9
$COORDS
 70
     1
  9
$SPLFRAME
 70
     0
  9
$SPLINETYPE
 70
     6
  9
$SPLINESEGS
 70
     8
  9
$ATTDIA
 70
     0
  9
$ATTREQ
 70
     1
  9
$HANDLING
 70
 10241
  9
$HANDSEED
  5
7E0A
  9
$SURFTAB1
 70
     6
  9
$SURFTAB2
 70
     6
  9
$SURFTYPE
 70
     6
  9
$SURFU
 70
     6
  9
$SURFV
 70
     6
  9
$UCSNAME
  2

  9
$UCSORG
 10
0.0
 20
0.0
 30
0.0
  9
$UCSXDIR
 10
1.0
 20
0.0
 30
0.0
  9
$UCSYDIR
 10
0.0
 20
1.0
 30
0.0
  9
$PUCSNAME
  2

  9
$PUCSORG
 10
0.0
 20
0.0
 30
0.0
  9
$PUCSXDIR
 10
1.0
 20
0.0
 30
0.0
  9
$PUCSYDIR
 10
0.0
 20
1.0
 30
0.0
  9
$USERI1
 70
     0
  9
$USERI2
 70
     0
  9
$USERI3
 70
     0
  9
$USERI4
 70
     0
  9
$USERI5
 70
     0
  9
$USERR1
 40
0.0
  9
$USERR2
 40
0.0
  9
$USERR3
 40
0.0
  9
$USERR4
 40
0.0
  9
$USERR5
 40
0.0
  9
$WORLDVIEW
 70
     1
  9
$SHADEDGE
 70
     3
  9
$SHADEDIF
 70
    70
  9
$TILEMODE
 70
     1
  9
$MAXACTVP
 70
    16
  9
$PLIMCHECK
 70
     0
  9
$PEXTMIN
 10
1.0000000000000000E+020
 20
1.0000000000000000E+020
 30
1.0000000000000000E+020
  9
$PEXTMAX
 10
-1.0000000000000000E+020
 20
-1.0000000000000000E+020
 30
-1.0000000000000000E+020
  9
$PLIMMIN
 10
0.0
 20
0.0
  9
$PLIMMAX
 10
12.0
 20
9.0
  9
$UNITMODE
 70
     0
  9
$VISRETAIN
 70
     0
  9
$PLINEGEN
 70
     0
  9
$PSLTSCALE
 70
     1
  0
ENDSEC
  0
SECTION
  2
TABLES
  0
TABLE
  2
VPORT
 70
     2
  0
VPORT
  2
*ACTIVE
 70
     0
 10
0.0
 20
0.0
 11
1.0
 21
1.0
 12
9437.9954746499006
 22
4629.9199394653269
 13
0.0
 23
0.0
 14
10.0
 24
10.0
 15
10.0
 25
10.0
 16
0.0
 26
0.0
 36
1.0
 17
0.0
 27
0.0
 37
0.0
 40
7517.061441529765
 41
3.1666666666666661
 42
50.0
 43
0.0
 44
0.0
 50
0.0
 51
0.0
 71
     0
 72
   100
 73
     1
 74
     0
 75
     0
 76
     0
 77
     0
 78
     0
  0
ENDTAB
  0
TABLE
  2
LTYPE
 70
     2
  0
LTYPE
  2
CONTINUOUS
 70
     0
  3
Solid line
 72
    65
 73
     0
 40
0.0
  0
LTYPE
  2
CENTER
 70
     0
  3
____ _ ____ _ ____ _ ____ _ ____ _ ____ _ ____ 
 72
    65
 73
     4
 40
2.0
 49
1.25
 49
-0.25
 49
0.25
 49
-0.25
  0
ENDTAB
  0
TABLE
  2
LAYER
 70
     6
  0
LAYER
  2
0
 70
     0
 62
     7
  6
CONTINUOUS
  0
LAYER
  2
3
 70
     0
 62
     2
  6
CONTINUOUS
  0
LAYER
  2
2
 70
     0
 62
     3
  6
CENTER
  0
LAYER
  2
1
 70
     0
 62
     4
  6
CONTINUOUS
  0
LAYER
  2
4
 70
     0
 62
     7
  6
CONTINUOUS
  0
LAYER
  2
DEFPOINTS
 70
     0
 62
     7
  6
CONTINUOUS
  0
ENDTAB
  0
TABLE
  2
STYLE
 70
     1
  0
STYLE
  2
STANDARD
 70
     0
 40
0.0
 41
1.0
 50
0.0
 71
     0
 42
180.0
  3
simplex.shx
  4
extfont.shx
  0
ENDTAB
  0
TABLE
  2
VIEW
 70
     0
  0
ENDTAB
  0
TABLE
  2
UCS
 70
     0
  0
ENDTAB
  0
TABLE
  2
APPID
 70
     1
  0
APPID
  2
ACAD
 70
     0
  0
ENDTAB
  0
TABLE
  2
DIMSTYLE
 70
     1
  0
DIMSTYLE
  2
IGA
 70
     0
  3

  4

  5

  6
OPEN
  7
OPEN
 40
2.0
 41
2.0
 42
0.5
 43
10.0
 44
1.0
 45
0.0
 46
0.0
 47
1.0
 48
1.0
140
3.0
141
0.0
142
0.0
143
0.03937
144
1.0
145
0.0
146
10.0
147
1.0
 71
     0
 72
     0
 73
     0
 74
     0
 75
     0
 76
     0
 77
     1
 78
     8
170
     0
171
     2
172
     0
173
     1
174
     0
175
     0
176
     0
177
     0
178
     0
  0
ENDTAB
  0
ENDSEC
  0
SECTION
  2
BLOCKS
  0
BLOCK
  8
0
  2
$MODEL_SPACE
 70
     0
 10
0.0
 20
0.0
 30
0.0
  3
$MODEL_SPACE
  1

  0
ENDBLK
  5
1B
  8
0
  0
BLOCK
 67
     1
  8
0
  2
$PAPER_SPACE
 70
     0
 10
0.0
 20
0.0
 30
0.0
  3
$PAPER_SPACE
  1

  0
ENDBLK
  5
18
 67
     1
  8
0
  0
BLOCK
  8
0
  2
_OPEN
 70
     0
 10
0.0
 20
0.0
 30
0.0
  3
_OPEN
  1

  0
LINE
  5
7B14
  8
0
  6
BYBLOCK
 62
     0
 10
-1.0
 20
0.166667
 30
0.0
 11
0.0
 21
0.0
 31
0.0
  0
LINE
  5
7B15
  8
0
  6
BYBLOCK
 62
     0
 10
0.0
 20
0.0
 30
0.0
 11
-1.0
 21
-0.166667
 31
0.0
  0
LINE
  5
7B16
  8
0
  6
BYBLOCK
 62
     0
 10
0.0
 20
0.0
 30
0.0
 11
-1.0
 21
0.0
 31
0.0
  0
ENDBLK
  5
7B17
  8
0
  0
BLOCK
  8
0
  2
*D1
 70
     1
 10
0.0
 20
0.0
 30
0.0
  3
*D1
  1

  0
LINE
  5
7D74
  8
3
  6
CONTINUOUS
 62
     0
 10
1371.5714310000001
 20
3580.8404559999999
 30
0.0
 11
1371.5714310000001
 21
3764.6734059999999
 31
0.0
  0
LINE
  5
7D75
  8
3
  6
CONTINUOUS
 62
     0
 10
2196.5714309999998
 20
3580.8404559999999
 30
0.0
 11
2196.5714309999998
 21
3764.6734059999999
 31
0.0
  0
LINE
  5
7D76
  8
3
  6
CONTINUOUS
 62
     0
 10
1431.5714310000001
 20
3734.6734059999999
 30
0.0
 11
2136.5714309999989
 21
3734.6734059999999
 31
0.0
  0
INSERT
  5
7D77
  8
3
  6
CONTINUOUS
 62
     0
  2
_OPEN
 10
1371.5714310000001
 20
3734.6734059999999
 30
0.0
 41
60.0
 42
60.0
 43
60.0
 50
180.0
  0
INSERT
  5
7D78
  8
3
  6
CONTINUOUS
 62
     0
  2
_OPEN
 10
2196.5714309999998
 20
3734.6734059999999
 30
0.0
 41
60.0
 42
60.0
 43
60.0
  0
TEXT
  8
3
  40
90
  5
7DFB
  62
0
  72
0
  71
0
 10
1604.63
 20
3650.37
 30
0.000000
  1
825
  0
POINT
  5
7D7A
  8
DEFPOINTS
  6
CONTINUOUS
 62
     0
 10
1371.5714310000001
 20
3565.8404559999999
 30
0.0
  0
POINT
  5
7D7B
  8
DEFPOINTS
  6
CONTINUOUS
 62
     0
 10
2196.5714309999998
 20
3565.8404559999999
 30
0.0
  0
POINT
  5
7D7C
  8
DEFPOINTS
  6
CONTINUOUS
 62
     0
 10
2196.5714309999998
 20
3734.6734059999999
 30
0.0
  0
ENDBLK
  5
7B24
  8
0
  0
BLOCK
  8
0
  2
*D2
 70
     1
 10
0.0
 20
0.0
 30
0.0
  3
*D2
  1

  0
LINE
  5
7D7D
  8
3
  6
CONTINUOUS
 62
     0
 10
1371.5714310000001
 20
3580.8404559999999
 30
0.0
 11
1371.5714310000001
 21
4215.1601911650096
 31
0.0
  0
LINE
  5
7D7E
  8
3
  6
CONTINUOUS
 62
     0
 10
2158.5714309999989
 20
4105.3605611329294
 30
0.0
 11
2158.5714309999989
 21
4215.1601911650096
 31
0.0
  0
LINE
  5
7D7F
  8
3
  6
CONTINUOUS
 62
     0
 10
1431.5714310000001
 20
4185.1601911650087
 30
0.0
 11
2098.5714309999989
 21
4185.1601911650087
 31
0.0
  0
INSERT
  5
7D80
  8
3
  6
CONTINUOUS
 62
     0
  2
_OPEN
 10
1371.5714310000001
 20
4185.1601911650087
 30
0.0
 41
60.0
 42
60.0
 43
60.0
 50
180.0
  0
INSERT
  5
7D81
  8
3
  6
CONTINUOUS
 62
     0
  2
_OPEN
 10
2158.5714309999989
 20
4185.1601911650087
 30
0.0
 41
60.0
 42
60.0
 43
60.0
  0
TEXT
  8
3
  40
90
  5
7DFC
  62
0
  72
0
  71
0
 10
1597.73
 20
4100.86
 30
0.000000
  1
787
  0
POINT
  5
7D83
  8
DEFPOINTS
  6
CONTINUOUS
 62
     0
 10
1371.5714310000001
 20
3565.8404559999999
 30
0.0
  0
POINT
  5
7D84
  8
DEFPOINTS
  6
CONTINUOUS
 62
     0
 10
2158.5714309999989
 20
4090.360561132929
 30
0.0
  0
POINT
  5
7D85
  8
DEFPOINTS
  6
CONTINUOUS
 62
     0
 10
2158.5714309999989
 20
4185.1601911650087
 30
0.0
  0
ENDBLK
  5
7D1E
  8
0
  0
BLOCK
  8
0
  2
*D3
 70
     1
 10
0.0
 20
0.0
 30
0.0
  3
*D3
  1

  0
LINE
  5
7D86
  8
3
  6
CONTINUOUS
 62
     0
 10
2254.0714309999989
 20
3565.8404559999999
 30
0.0
 11
3167.4376840000009
 21
3565.8404559999999
 31
0.0
  0
LINE
  5
7D87
  8
3
  6
CONTINUOUS
 62
     0
 10
3050.5743320000001
 20
2970.840455999999
 30
0.0
 11
3167.437684
 21
2970.840455999999
 31
0.0
  0
LINE
  5
7D88
  8
3
  6
CONTINUOUS
 62
     0
 10
3137.4376840000009
 20
3505.8404559999999
 30
0.0
 11
3137.437684
 21
3030.840455999999
 31
0.0
  0
INSERT
  5
7D89
  8
3
  6
CONTINUOUS
 62
     0
  2
_OPEN
 10
3137.4376840000009
 20
3565.8404559999999
 30
0.0
 41
60.0
 42
60.0
 43
60.0
 50
90.0
  0
INSERT
  5
7D8A
  8
3
  6
CONTINUOUS
 62
     0
  2
_OPEN
 10
3137.437684
 20
2970.840455999999
 30
0.0
 41
60.0
 42
60.0
 43
60.0
 50
270.0
  0
TEXT
  8
3
  40
90
  5
7DFD
  62
0
  72
0
  71
0
 10
2882.44
 20
3092.58
 30
0.000000
  1
595
  0
POINT
  5
7D8C
  8
DEFPOINTS
  6
CONTINUOUS
 62
     0
 10
2239.0714309999998
 20
3565.8404559999999
 30
0.0
  0
POINT
  5
7D8D
  8
DEFPOINTS
  6
CONTINUOUS
 62
     0
 10
3035.5743320000001
 20
2970.840455999999
 30
0.0
  0
POINT
  5
7D8E
  8
DEFPOINTS
  6
CONTINUOUS
 62
     0
 10
3137.437684
 20
2970.840455999999
 30
0.0
  0
ENDBLK
  5
7B4A
  8
0
  0
BLOCK
  8
0
  2
*D4
 70
     1
 10
0.0
 20
0.0
 30
0.0
  3
*D4
  1

  0
LINE
  5
7D8F
  8
3
  6
CONTINUOUS
 62
     0
 10
2693.5714309999998
 20
2275.8404559999999
 30
0.0
 11
3167.437684
 21
2275.840455999999
 31
0.0
  0
LINE
  5
7D90
  8
3
  6
CONTINUOUS
 62
     0
 10
3137.437684
 20
2910.840455999999
 30
0.0
 11
3137.437684
 21
2335.840455999999
 31
0.0
  0
INSERT
  5
7D91
  8
3
  6
CONTINUOUS
 62
     0
  2
_OPEN
 10
3137.437684
 20
2970.840455999999
 30
0.0
 41
60.0
 42
60.0
 43
60.0
 50
90.0
  0
INSERT
  5
7D92
  8
3
  6
CONTINUOUS
 62
     0
  2
_OPEN
 10
3137.437684
 20
2275.840455999999
 30
0.0
 41
60.0
 42
60.0
 43
60.0
 50
270.0
  0
TEXT
  8
3
  40
90
  5
7DFE
  62
0
  72
0
  71
0
 10
2882.44
 20
2464.04
 30
0.000000
  1
695
  0
POINT
  5
7D94
  8
DEFPOINTS
  6
CONTINUOUS
 62
     0
 10
3035.5743320000001
 20
2970.840455999999
 30
0.0
  0
POINT
  5
7D95
  8
DEFPOINTS
  6
CONTINUOUS
 62
     0
 10
2678.5714309999989
 20
2275.8404559999999
 30
0.0
  0
POINT
  5
7D96
  8
DEFPOINTS
  6
CONTINUOUS
 62
     0
 10
3137.437684
 20
2275.840455999999
 30
0.0
  0
ENDBLK
  5
7B56
  8
0
  0
BLOCK
  8
0
  2
*D5
 70
     1
 10
0.0
 20
0.0
 30
0.0
  3
*D5
  1

  0
LINE
  5
7D97
  8
3
  6
CONTINUOUS
 62
     0
 10
2893.5714309999989
 20
2185.8404559999999
 30
0.0
 11
3167.437684
 21
2185.840455999999
 31
0.0
  0
LINE
  5
7D98
  8
3
  6
CONTINUOUS
 62
     0
 10
3137.437684
 20
2335.840455999999
 30
0.0
 11
3137.437684
 21
2395.840455999999
 31
0.0
  0
LINE
  5
7D99
  8
3
  6
CONTINUOUS
 62
     0
 10
3137.437684
 20
2125.840455999999
 30
0.0
 11
3137.437684
 21
2065.840455999999
 31
0.0
  0
TEXT
  8
3
  40
90
  5
7DFF
  62
0
  72
0
  71
0
 10
2880.58
 20
1920.75
 30
0.000000
  1
90
  0
LINE
  5
7D9B
  8
3
  6
CONTINUOUS
 62
     0
 10
3137.437684
 20
2275.840455999999
 30
0.0
 11
3137.437684
 21
2185.840455999999
 31
0.0
  0
INSERT
  5
7D9C
  8
3
  6
CONTINUOUS
 62
     0
  2
_OPEN
 10
3137.437684
 20
2275.840455999999
 30
0.0
 41
60.0
 42
60.0
 43
60.0
 50
270.0
  0
INSERT
  5
7D9D
  8
3
  6
CONTINUOUS
 62
     0
  2
_OPEN
 10
3137.437684
 20
2185.840455999999
 30
0.0
 41
60.0
 42
60.0
 43
60.0
 50
90.0
  0
POINT
  5
7D9E
  8
DEFPOINTS
  6
CONTINUOUS
 62
     0
 10
2678.5714309999989
 20
2275.8404559999999
 30
0.0
  0
POINT
  5
7D9F
  8
DEFPOINTS
  6
CONTINUOUS
 62
     0
 10
2878.5714309999998
 20
2185.8404559999999
 30
0.0
  0
POINT
  5
7DA0
  8
DEFPOINTS
  6
CONTINUOUS
 62
     0
 10
3137.437684
 20
2185.840455999999
 30
0.0
  0
ENDBLK
  5
7C17
  8
0
  0
BLOCK
  8
0
  2
*D6
 70
     1
 10
0.0
 20
0.0
 30
0.0
  3
*D6
  1

  0
LINE
  5
7DA1
  8
3
  6
CONTINUOUS
 62
     0
 10
928.57143100000008
 20
2170.8404559999999
 30
0.0
 11
928.57143100000008
 21
1853.882857999999
 31
0.0
  0
LINE
  5
7DA2
  8
3
  6
CONTINUOUS
 62
     0
 10
2158.5714309999989
 20
1985.380619
 30
0.0
 11
2158.5714309999989
 21
1853.882857999999
 31
0.0
  0
LINE
  5
7DA3
  8
3
  6
CONTINUOUS
 62
     0
 10
988.57143099999996
 20
1883.882857999999
 30
0.0
 11
2098.5714309999989
 21
1883.882857999999
 31
0.0
  0
INSERT
  5
7DA4
  8
3
  6
CONTINUOUS
 62
     0
  2
_OPEN
 10
928.57143100000008
 20
1883.882857999999
 30
0.0
 41
60.0
 42
60.0
 43
60.0
 50
180.0
  0
INSERT
  5
7DA5
  8
3
  6
CONTINUOUS
 62
     0
  2
_OPEN
 10
2158.5714309999989
 20
1883.882857999999
 30
0.0
 41
60.0
 42
60.0
 43
60.0
  0
TEXT
  8
3
  40
90
  5
7E00
  62
0
  72
0
  71
0
 10
1369.96
 20
1799.58
 30
0.000000
  1
1230
  0
POINT
  5
7DA7
  8
DEFPOINTS
  6
CONTINUOUS
 62
     0
 10
928.57143100000008
 20
2185.8404559999999
 30
0.0
  0
POINT
  5
7DA8
  8
DEFPOINTS
  6
CONTINUOUS
 62
     0
 10
2158.5714309999989
 20
2000.380619
 30
0.0
  0
POINT
  5
7DA9
  8
DEFPOINTS
  6
CONTINUOUS
 62
     0
 10
2158.5714309999989
 20
1883.882857999999
 30
0.0
  0
ENDBLK
  5
7C22
  8
0
  0
BLOCK
  8
0
  2
*D7
 70
     1
 10
0.0
 20
0.0
 30
0.0
  3
*D7
  1

  0
LINE
  5
7DAA
  8
3
  6
CONTINUOUS
 62
     0
 10
2878.5714309999998
 20
2170.8404559999999
 30
0.0
 11
2878.5714309999998
 21
1853.882857999999
 31
0.0
  0
LINE
  5
7DAB
  8
3
  6
CONTINUOUS
 62
     0
 10
2218.5714309999989
 20
1883.882857999999
 30
0.0
 11
2818.5714309999998
 21
1883.882857999999
 31
0.0
  0
INSERT
  5
7DAC
  8
3
  6
CONTINUOUS
 62
     0
  2
_OPEN
 10
2158.5714309999989
 20
1883.882857999999
 30
0.0
 41
60.0
 42
60.0
 43
60.0
 50
180.0
  0
INSERT
  5
7DAD
  8
3
  6
CONTINUOUS
 62
     0
  2
_OPEN
 10
2878.5714309999998
 20
1883.882857999999
 30
0.0
 41
60.0
 42
60.0
 43
60.0
  0
TEXT
  8
3
  40
90
  5
7E01
  62
0
  72
0
  71
0
 10
2338.57
 20
1799.58
 30
0.000000
  1
720
  0
POINT
  5
7DAF
  8
DEFPOINTS
  6
CONTINUOUS
 62
     0
 10
2158.5714309999989
 20
2000.380619
 30
0.0
  0
POINT
  5
7DB0
  8
DEFPOINTS
  6
CONTINUOUS
 62
     0
 10
2878.5714309999998
 20
2185.8404559999999
 30
0.0
  0
POINT
  5
7DB1
  8
DEFPOINTS
  6
CONTINUOUS
 62
     0
 10
2878.5714309999998
 20
1883.882857999999
 30
0.0
  0
ENDBLK
  5
7C2C
  8
0
  0
BLOCK
  8
0
  2
*D8
 70
     1
 10
0.0
 20
0.0
 30
0.0
  3
*D8
  1

  0
LINE
  5
7DB2
  8
3
  6
CONTINUOUS
 62
     0
 10
5042.9946300000001
 20
3395.8404559999999
 30
0.0
 11
5460.2126910000006
 21
3395.8404559999999
 31
0.0
  0
LINE
  5
7DB3
  8
3
  6
CONTINUOUS
 62
     0
 10
5042.9946300000001
 20
2545.8404559999999
 30
0.0
 11
5460.2126910000006
 21
2545.840455999999
 31
0.0
  0
LINE
  5
7DB4
  8
3
  6
CONTINUOUS
 62
     0
 10
5430.2126910000006
 20
3335.840455999999
 30
0.0
 11
5430.2126910000006
 21
2605.840455999999
 31
0.0
  0
INSERT
  5
7DB5
  8
3
  6
CONTINUOUS
 62
     0
  2
_OPEN
 10
5430.2126910000006
 20
3395.8404559999999
 30
0.0
 41
60.0
 42
60.0
 43
60.0
 50
90.0
  0
INSERT
  5
7DB6
  8
3
  6
CONTINUOUS
 62
     0
  2
_OPEN
 10
5430.2126910000006
 20
2545.840455999999
 30
0.0
 41
60.0
 42
60.0
 43
60.0
 50
270.0
  0
TEXT
  8
3
  40
90
  5
7E02
  62
0
  72
0
  71
0
 10
5175.21
 20
2809.80
 30
0.000000
  1
φ850
  0
POINT
  5
7DB8
  8
DEFPOINTS
  6
CONTINUOUS
 62
     0
 10
5027.9946300000011
 20
3395.8404559999999
 30
0.0
  0
POINT
  5
7DB9
  8
DEFPOINTS
  6
CONTINUOUS
 62
     0
 10
5027.9946300000011
 20
2545.8404559999999
 30
0.0
  0
POINT
  5
7DBA
  8
DEFPOINTS
  6
CONTINUOUS
 62
     0
 10
5430.2126910000006
 20
2545.840455999999
 30
0.0
  0
ENDBLK
  5
7CB3
  8
0
  0
BLOCK
  8
0
  2
*D9
 70
     1
 10
0.0
 20
0.0
 30
0.0
  3
*D9
  1

  0
LINE
  5
7CC0
  8
0
  6
BYBLOCK
 62
     0
 10
5027.9946300000011
 20
3410.8404559999999
 30
0.0
 11
5027.9946300000011
 21
4459.5551880000003
 31
0.0
  0
LINE
  5
7CC1
  8
0
  6
BYBLOCK
 62
     0
 10
4723.9946299999992
 20
4371.9426279999998
 30
0.0
 11
4723.9946299999992
 21
4459.5551880000003
 31
0.0
  0
LINE
  5
7CC2
  8
0
  6
BYBLOCK
 62
     0
 10
4967.9946300000001
 20
4429.5551880000012
 30
0.0
 11
4783.9946300000001
 21
4429.5551880000012
 31
0.0
  0
TEXT
  5
7CC3
  8
3
 62
     0
 10
4758.137487142857
 20
4475.8990882089383
 30
0.0
 40
90.0
  1
304
  0
INSERT
  5
7CC4
  8
0
  6
BYBLOCK
 62
     0
  2
_OPEN
 10
5027.9946300000011
 20
4429.5551880000012
 30
0.0
 41
60.0
 42
60.0
 43
60.0
  0
INSERT
  5
7CC5
  8
0
  6
BYBLOCK
 62
     0
  2
_OPEN
 10
4723.9946299999992
 20
4429.5551880000012
 30
0.0
 41
60.0
 42
60.0
 43
60.0
 50
180.0
  0
POINT
  5
7CC6
  8
DEFPOINTS
  6
BYBLOCK
 62
     0
 10
5027.9946300000011
 20
3395.8404559999999
 30
0.0
  0
POINT
  5
7CC7
  8
DEFPOINTS
  6
BYBLOCK
 62
     0
 10
4723.9946299999992
 20
4356.9426279999998
 30
0.0
  0
POINT
  5
7CC8
  8
DEFPOINTS
  6
BYBLOCK
 62
     0
 10
4723.9946299999992
 20
4429.5551880000012
 30
0.0
  0
ENDBLK
  5
7CC9
  8
0
  0
BLOCK
  8
0
  2
*D10
 70
     1
 10
0.0
 20
0.0
 30
0.0
  3
*D10
  1

  0
LINE
  5
7DBB
  8
3
  6
CONTINUOUS
 62
     0
 10
4058.9946299999988
 20
4035.8404559999999
 30
0.0
 11
3820.7858800000008
 21
4035.8404559999999
 31
0.0
  0
LINE
  5
7DBC
  8
3
  6
CONTINUOUS
 62
     0
 10
4058.9946299999988
 20
2185.8404559999999
 30
0.0
 11
3820.7858799999999
 21
2185.8404559999999
 31
0.0
  0
LINE
  5
7DBD
  8
3
  6
CONTINUOUS
 62
     0
 10
3850.7858799999999
 20
3975.8404559999999
 30
0.0
 11
3850.7858799999999
 21
2245.840455999999
 31
0.0
  0
INSERT
  5
7DBE
  8
3
  6
CONTINUOUS
 62
     0
  2
_OPEN
 10
3850.7858799999999
 20
4035.8404559999999
 30
0.0
 41
60.0
 42
60.0
 43
60.0
 50
90.0
  0
INSERT
  5
7DBF
  8
3
  6
CONTINUOUS
 62
     0
  2
_OPEN
 10
3850.7858799999999
 20
2185.8404559999999
 30
0.0
 41
60.0
 42
60.0
 43
60.0
 50
270.0
  0
TEXT
  8
3
  40
90
  5
7E03
  62
0
  72
0
  71
0
 10
3595.79
 20
2906.36
 30
0.000000
  1
1850
  0
POINT
  5
7DC1
  8
DEFPOINTS
  6
CONTINUOUS
 62
     0
 10
4073.9946300000001
 20
4035.8404559999999
 30
0.0
  0
POINT
  5
7DC2
  8
DEFPOINTS
  6
CONTINUOUS
 62
     0
 10
4073.9946300000001
 20
2185.8404559999999
 30
0.0
  0
POINT
  5
7DC3
  8
DEFPOINTS
  6
CONTINUOUS
 62
     0
 10
3850.7858799999999
 20
2185.8404559999999
 30
0.0
  0
ENDBLK
  5
7C42
  8
0
  0
BLOCK
  8
0
  2
*D11
 70
     1
 10
0.0
 20
0.0
 30
0.0
  3
*D11
  1

  0
LINE
  5
7DC4
  8
3
  6
CONTINUOUS
 62
     0
 10
4073.9946300000001
 20
2170.8404559999999
 30
0.0
 11
4073.9946300000001
 21
1945.9308120000001
 31
0.0
  0
LINE
  5
7DC5
  8
3
  6
CONTINUOUS
 62
     0
 10
4723.9946299999992
 20
2045.978607999999
 30
0.0
 11
4723.9946299999992
 21
1945.9308120000001
 31
0.0
  0
LINE
  5
7DC6
  8
3
  6
CONTINUOUS
 62
     0
 10
4133.9946299999992
 20
1975.9308120000001
 30
0.0
 11
4663.9946300000001
 21
1975.9308120000001
 31
0.0
  0
INSERT
  5
7DC7
  8
3
  6
CONTINUOUS
 62
     0
  2
_OPEN
 10
4073.9946300000001
 20
1975.9308120000001
 30
0.0
 41
60.0
 42
60.0
 43
60.0
 50
180.0
  0
INSERT
  5
7DC8
  8
3
  6
CONTINUOUS
 62
     0
  2
_OPEN
 10
4723.9946299999992
 20
1975.9308120000001
 30
0.0
 41
60.0
 42
60.0
 43
60.0
  0
TEXT
  8
3
  40
90
  5
7E04
  62
0
  72
0
  71
0
 10
4256.31
 20
1891.63
 30
0.000000
  1
650
  0
POINT
  5
7DCA
  8
DEFPOINTS
  6
CONTINUOUS
 62
     0
 10
4073.9946300000001
 20
2185.8404559999999
 30
0.0
  0
POINT
  5
7DCB
  8
DEFPOINTS
  6
CONTINUOUS
 62
     0
 10
4723.9946299999992
 20
2060.9786079999999
 30
0.0
  0
POINT
  5
7DCC
  8
DEFPOINTS
  6
CONTINUOUS
 62
     0
 10
4723.9946299999992
 20
1975.9308120000001
 30
0.0
  0
ENDBLK
  5
7BC5
  8
0
  0
BLOCK
  8
0
  2
*D12
 70
     1
 10
0.0
 20
0.0
 30
0.0
  3
*D12
  1

  0
LINE
  5
7DCD
  8
3
  6
CONTINUOUS
 62
     0
 10
5223.9946299999992
 20
2170.8404559999999
 30
0.0
 11
5223.9946299999992
 21
1945.9308120000001
 31
0.0
  0
LINE
  5
7DCE
  8
3
  6
CONTINUOUS
 62
     0
 10
4783.9946300000001
 20
1975.9308120000001
 30
0.0
 11
5163.9946300000011
 21
1975.9308120000001
 31
0.0
  0
INSERT
  5
7DCF
  8
3
  6
CONTINUOUS
 62
     0
  2
_OPEN
 10
4723.9946299999992
 20
1975.9308120000001
 30
0.0
 41
60.0
 42
60.0
 43
60.0
 50
180.0
  0
INSERT
  5
7DD0
  8
3
  6
CONTINUOUS
 62
     0
  2
_OPEN
 10
5223.9946299999992
 20
1975.9308120000001
 30
0.0
 41
60.0
 42
60.0
 43
60.0
  0
TEXT
  8
3
  40
90
  5
7E05
  62
0
  72
0
  71
0
 10
4793.99
 20
1891.63
 30
0.000000
  1
500
  0
POINT
  5
7DD2
  8
DEFPOINTS
  6
CONTINUOUS
 62
     0
 10
4723.9946299999992
 20
2060.9786079999999
 30
0.0
  0
POINT
  5
7DD3
  8
DEFPOINTS
  6
CONTINUOUS
 62
     0
 10
5223.9946299999992
 20
2185.8404559999999
 30
0.0
  0
POINT
  5
7DD4
  8
DEFPOINTS
  6
CONTINUOUS
 62
     0
 10
5223.9946299999992
 20
1975.9308120000001
 30
0.0
  0
ENDBLK
  5
7BD1
  8
0
  0
BLOCK
  8
0
  2
*D13
 70
     1
 10
0.0
 20
0.0
 30
0.0
  3
*D13
  1

  0
LINE
  5
7DD5
  8
3
  6
CONTINUOUS
 62
     0
 10
928.57143100000008
 20
6189.149281
 30
0.0
 11
928.57143100000008
 21
6438.6840520000014
 31
0.0
  0
LINE
  5
7DD6
  8
3
  6
CONTINUOUS
 62
     0
 10
2878.5714309999998
 20
6189.149281
 30
0.0
 11
2878.5714309999998
 21
6438.6840520000014
 31
0.0
  0
LINE
  5
7DD7
  8
3
  6
CONTINUOUS
 62
     0
 10
988.57143099999996
 20
6408.6840520000014
 30
0.0
 11
2818.5714309999998
 21
6408.6840520000014
 31
0.0
  0
INSERT
  5
7DD8
  8
3
  6
CONTINUOUS
 62
     0
  2
_OPEN
 10
928.57143100000008
 20
6408.6840520000014
 30
0.0
 41
60.0
 42
60.0
 43
60.0
 50
180.0
  0
INSERT
  5
7DD9
  8
3
  6
CONTINUOUS
 62
     0
  2
_OPEN
 10
2878.5714309999998
 20
6408.6840520000014
 30
0.0
 41
60.0
 42
60.0
 43
60.0
  0
TEXT
  8
3
  40
90
  5
7E06
  62
0
  72
0
  71
0
 10
1666.75
 20
6324.38
 30
0.000000
  1
1950
  0
POINT
  5
7DDB
  8
DEFPOINTS
  6
CONTINUOUS
 62
     0
 10
928.57143100000008
 20
6174.149281
 30
0.0
  0
POINT
  5
7DDC
  8
DEFPOINTS
  6
CONTINUOUS
 62
     0
 10
2878.5714309999998
 20
6174.149281
 30
0.0
  0
POINT
  5
7DDD
  8
DEFPOINTS
  6
CONTINUOUS
 62
     0
 10
2878.5714309999998
 20
6408.6840520000014
 30
0.0
  0
ENDBLK
  5
7C37
  8
0
  0
BLOCK
  8
0
  2
*D14
 70
     1
 10
0.0
 20
0.0
 30
0.0
  3
*D14
  1

  0
LINE
  5
7DDE
  8
3
  6
CONTINUOUS
 62
     0
 10
2893.5714309999989
 20
6174.149281
 30
0.0
 11
3229.556392
 21
6174.149281
 31
0.0
  0
LINE
  5
7DDF
  8
3
  6
CONTINUOUS
 62
     0
 10
2893.5714309999989
 20
5024.149281
 30
0.0
 11
3229.556392
 21
5024.149281
 31
0.0
  0
LINE
  5
7DE0
  8
3
  6
CONTINUOUS
 62
     0
 10
3199.5563920000009
 20
6114.149281
 30
0.0
 11
3199.556392
 21
5084.149281
 31
0.0
  0
INSERT
  5
7DE1
  8
3
  6
CONTINUOUS
 62
     0
  2
_OPEN
 10
3199.5563920000009
 20
6174.149281
 30
0.0
 41
60.0
 42
60.0
 43
60.0
 50
90.0
  0
INSERT
  5
7DE2
  8
3
  6
CONTINUOUS
 62
     0
  2
_OPEN
 10
3199.556392
 20
5024.149281
 30
0.0
 41
60.0
 42
60.0
 43
60.0
 50
270.0
  0
TEXT
  8
3
  40
90
  5
7E07
  62
0
  72
0
  71
0
 10
2944.56
 20
5432.58
 30
0.000000
  1
1150
  0
POINT
  5
7DE4
  8
DEFPOINTS
  6
CONTINUOUS
 62
     0
 10
2878.5714309999998
 20
6174.149281
 30
0.0
  0
POINT
  5
7DE5
  8
DEFPOINTS
  6
CONTINUOUS
 62
     0
 10
2878.5714309999998
 20
5024.149281
 30
0.0
  0
POINT
  5
7DE6
  8
DEFPOINTS
  6
CONTINUOUS
 62
     0
 10
3199.556392
 20
5024.149281
 30
0.0
  0
ENDBLK
  5
7BEB
  8
0
  0
BLOCK
  8
0
  2
*D15
 70
     1
 10
0.0
 20
0.0
 30
0.0
  3
*D15
  1

  0
LINE
  5
7DE7
  8
3
  6
CONTINUOUS
 62
     0
 10
2734.5620781068742
 20
2985.8404559999999
 30
0.0
 11
2734.5620781068742
 21
4215.1601911650096
 31
0.0
  0
LINE
  5
7DE8
  8
3
  6
CONTINUOUS
 62
     0
 10
2218.5714309999989
 20
4185.1601911650087
 30
0.0
 11
2674.5620781068728
 21
4185.1601911650087
 31
0.0
  0
INSERT
  5
7DE9
  8
3
  6
CONTINUOUS
 62
     0
  2
_OPEN
 10
2158.5714309999989
 20
4185.1601911650087
 30
0.0
 41
60.0
 42
60.0
 43
60.0
 50
180.0
  0
INSERT
  5
7DEA
  8
3
  6
CONTINUOUS
 62
     0
  2
_OPEN
 10
2734.5620781068742
 20
4185.1601911650087
 30
0.0
 41
60.0
 42
60.0
 43
60.0
  0
TEXT
  8
3
  40
90
  5
7E08
  62
0
  72
0
  71
0
 10
2266.57
 20
4100.86
 30
0.000000
  1
576
  0
POINT
  5
7DEC
  8
DEFPOINTS
  6
CONTINUOUS
 62
     0
 10
2158.5714309999989
 20
4115.8230793637122
 30
0.0
  0
POINT
  5
7DED
  8
DEFPOINTS
  6
CONTINUOUS
 62
     0
 10
2734.5620781068742
 20
2970.840455999999
 30
0.0
  0
POINT
  5
7DEE
  8
DEFPOINTS
  6
CONTINUOUS
 62
     0
 10
2734.5620781068742
 20
4185.1601911650087
 30
0.0
  0
ENDBLK
  5
7D28
  8
0
  0
BLOCK
  8
0
  2
*D16
 70
     1
 10
0.0
 20
0.0
 30
0.0
  3
*D16
  1

  0
LINE
  5
7DEF
  8
3
  6
CONTINUOUS
 62
     0
 10
4423.9946300000001
 20
3580.8404559999999
 30
0.0
 11
4423.9946300000001
 21
4232.4793760000002
 31
0.0
  0
LINE
  5
7DF0
  8
3
  6
CONTINUOUS
 62
     0
 10
5023.9946300000001
 20
3580.8404559999999
 30
0.0
 11
5023.9946300000001
 21
4232.4793760000002
 31
0.0
  0
LINE
  5
7DF1
  8
3
  6
CONTINUOUS
 62
     0
 10
4483.9946300000001
 20
4202.4793760000002
 30
0.0
 11
4963.9946300000011
 21
4202.4793760000002
 31
0.0
  0
INSERT
  5
7DF2
  8
3
  6
CONTINUOUS
 62
     0
  2
_OPEN
 10
4423.9946300000001
 20
4202.4793760000002
 30
0.0
 41
60.0
 42
60.0
 43
60.0
 50
180.0
  0
INSERT
  5
7DF3
  8
3
  6
CONTINUOUS
 62
     0
  2
_OPEN
 10
5023.9946300000001
 20
4202.4793760000002
 30
0.0
 41
60.0
 42
60.0
 43
60.0
  0
TEXT
  8
3
  40
90
  5
7E09
  62
0
  72
0
  71
0
 10
4534.23
 20
4118.18
 30
0.000000
  1
600
  0
POINT
  5
7DF5
  8
DEFPOINTS
  6
CONTINUOUS
 62
     0
 10
4423.9946300000001
 20
3565.8404559999999
 30
0.0
  0
POINT
  5
7DF6
  8
DEFPOINTS
  6
CONTINUOUS
 62
     0
 10
5023.9946300000001
 20
3565.8404559999999
 30
0.0
  0
POINT
  5
7DF7
  8
DEFPOINTS
  6
CONTINUOUS
 62
     0
 10
5023.9946300000001
 20
4202.4793760000002
 30
0.0
  0
ENDBLK
  5
7C82
  8
0
  0
BLOCK
  8
0
  2
_DOT
 70
     0
 10
0.0
 20
0.0
 30
0.0
  3
_DOT
  1

  0
POLYLINE
  5
7D42
  8
0
  6
BYBLOCK
 62
     0
 66
     1
 10
0.0
 20
0.0
 30
0.0
 70
     1
 40
0.5
 41
0.5
  0
VERTEX
  5
7DF8
  8
0
  6
BYBLOCK
 62
     0
 10
-0.25
 20
0.0
 30
0.0
 42
1.0
  0
VERTEX
  5
7DF9
  8
0
  6
BYBLOCK
 62
     0
 10
0.25
 20
0.0
 30
0.0
 42
1.0
  0
SEQEND
  5
7DFA
  8
0
  6
BYBLOCK
 62
     0
  0
LINE
  5
7D43
  8
0
  6
BYBLOCK
 62
     0
 10
-0.5
 20
0.0
 30
0.0
 11
-1.0
 21
0.0
 31
0.0
  0
ENDBLK
  5
7D45
  8
0
  0
ENDSEC
  0
SECTION
  2
ENTITIES
  0
LINE
  5
7A7A
  8
1
  6
CONTINUOUS
 10
2878.5714309999998
 20
4035.8404559999999
 30
0.0
 11
2878.5714309999998
 21
2185.8404559999999
 31
0.0
  0
LINE
  5
7A7B
  8
1
  6
CONTINUOUS
 10
928.57143100000008
 20
2185.8404559999999
 30
0.0
 11
928.57143100000008
 21
4035.8404559999999
 31
0.0
  0
LINE
  5
7A7C
  8
1
  6
CONTINUOUS
 10
2813.5714309999989
 20
3970.8404559999999
 30
0.0
 11
2813.5714309999989
 21
2250.8404559999999
 31
0.0
  0
LINE
  5
7A7D
  8
1
  6
CONTINUOUS
 10
993.57143100000008
 20
2250.8404559999999
 30
0.0
 11
993.57143100000008
 21
3970.8404559999999
 31
0.0
  0
LINE
  5
7A7E
  8
1
  6
CONTINUOUS
 10
4073.9946300000001
 20
4035.8404559999999
 30
0.0
 11
4073.9946300000001
 21
2185.8404559999999
 31
0.0
  0
LINE
  5
7A7F
  8
1
  6
CONTINUOUS
 10
5223.9946299999992
 20
2185.8404559999999
 30
0.0
 11
5223.9946299999992
 21
4035.8404559999999
 31
0.0
  0
LINE
  5
7A80
  8
1
  6
CONTINUOUS
 10
4138.9946300000001
 20
3970.8404559999999
 30
0.0
 11
4138.9946300000001
 21
2250.8404559999999
 31
0.0
  0
LINE
  5
7A81
  8
1
  6
CONTINUOUS
 10
5158.9946300000001
 20
2250.8404559999999
 30
0.0
 11
5158.9946300000001
 21
3970.8404559999999
 31
0.0
  0
LINE
  5
7A82
  8
1
  6
CONTINUOUS
 10
4073.9946300000001
 20
2185.8404559999999
 30
0.0
 11
5223.9946299999992
 21
2185.8404559999999
 31
0.0
  0
LINE
  5
7A83
  8
1
  6
CONTINUOUS
 10
4138.9946300000001
 20
2250.8404559999999
 30
0.0
 11
5158.9946300000001
 21
2250.8404559999999
 31
0.0
  0
LINE
  5
7A84
  8
1
  6
CONTINUOUS
 10
5075.9946300000001
 20
2275.8404559999999
 30
0.0
 11
4255.9946300000001
 21
2275.8404559999999
 31
0.0
  0
LINE
  5
7A85
  8
1
  6
CONTINUOUS
 10
5075.9946300000001
 20
2375.8404559999999
 30
0.0
 11
4163.9946300000001
 21
2375.8404559999999
 31
0.0
  0
LINE
  5
7A86
  8
1
  6
CONTINUOUS
 10
5065.9946300000001
 20
3565.8404559999999
 30
0.0
 11
4381.9946300000001
 21
3565.8404559999999
 31
0.0
  0
LINE
  5
7A87
  8
1
  6
CONTINUOUS
 10
2878.5714309999998
 20
2185.8404559999999
 30
0.0
 11
928.57143100000008
 21
2185.8404559999999
 31
0.0
  0
LINE
  5
7A88
  8
1
  6
CONTINUOUS
 10
2813.5714309999989
 20
2250.8404559999999
 30
0.0
 11
993.57143100000008
 21
2250.8404559999999
 31
0.0
  0
LINE
  5
7A89
  8
1
  6
CONTINUOUS
 10
1277.0514310000001
 20
2503.8704559999992
 30
0.0
 11
2214.8614309999998
 21
2778.9204559999989
 31
0.0
  0
LINE
  5
7A8B
  8
2
  6
CENTER
 10
5250.7586449999999
 20
2970.840455999999
 30
0.0
 11
3982.496181
 21
2970.840455999999
 31
0.0
  0
CIRCLE
  5
7A8C
  8
1
  6
CONTINUOUS
 10
2158.5714309999989
 20
2970.840455999999
 30
0.0
 40
200.0
  0
LINE
  5
7A8D
  8
1
  6
CONTINUOUS
 10
2578.5714309999998
 20
3625.8404559999999
 30
0.0
 11
2008.5714310000001
 21
3625.8404559999999
 31
0.0
  0
LINE
  5
7A8E
  8
1
  6
CONTINUOUS
 10
2678.5714309999989
 20
2275.8404559999999
 30
0.0
 11
1078.5714310000001
 21
2275.8404559999999
 31
0.0
  0
LINE
  5
7A91
  8
1
  6
CONTINUOUS
 10
1078.5714310000001
 20
2375.8404559999999
 30
0.0
 11
2678.5714309999989
 21
2375.8404559999999
 31
0.0
  0
LINE
  5
7A92
  8
1
  6
CONTINUOUS
 10
2239.0714309999998
 20
3565.8404559999999
 30
0.0
 11
1329.0714310000001
 21
3565.8404559999999
 31
0.0
  0
ARC
  5
7A93
  8
1
  6
CONTINUOUS
 10
2106.5714309999998
 20
3022.8404559999999
 30
0.0
 40
717.88999999999987
 50
184.15000000000001
 51
274.75999999999988
  0
ARC
  5
7A94
  8
1
  6
CONTINUOUS
 10
1255.951430999999
 20
2575.840455999999
 30
0.0
 40
162.0
 50
324.97000000000003
 51
215.02999999999989
  0
CIRCLE
  5
7A95
  8
1
  6
CONTINUOUS
 10
1255.951430999999
 20
2575.840455999999
 30
0.0
 40
75.0
  0
LINE
  5
7A96
  8
1
  6
CONTINUOUS
 10
2008.5714310000001
 20
3625.8404559999999
 30
0.0
 11
1098.5714310000001
 21
2675.840455999999
 31
0.0
  0
LINE
  5
7A97
  8
1
  6
CONTINUOUS
 10
1180.951430999999
 20
2575.840455999999
 30
0.0
 11
1330.951430999999
 21
2575.840455999999
 31
0.0
  0
LINE
  5
7A98
  8
1
  6
CONTINUOUS
 10
1101.951431
 20
2375.8404559999999
 30
0.0
 11
1101.951431
 21
2433.8404559999999
 31
0.0
  0
LINE
  5
7A99
  8
1
  6
CONTINUOUS
 10
1098.5714310000001
 20
2675.840455999999
 30
0.0
 11
1098.5714310000001
 21
2375.8404559999999
 31
0.0
  0
LINE
  5
7A9A
  8
1
  6
CONTINUOUS
 10
1078.5714310000001
 20
2375.8404559999999
 30
0.0
 11
1078.5714310000001
 21
2275.8404559999999
 31
0.0
  0
LINE
  5
7A9B
  8
1
  6
CONTINUOUS
 10
1101.951431
 20
2433.8404559999999
 30
0.0
 11
1123.2914310000001
 21
2482.8604559999999
 31
0.0
  0
LINE
  5
7A9C
  8
1
  6
CONTINUOUS
 10
1409.951431
 20
2375.8404559999999
 30
0.0
 11
1409.951431
 21
2433.8404559999999
 31
0.0
  0
LINE
  5
7A9E
  8
1
  6
CONTINUOUS
 10
1217.401431
 20
2640.180456
 30
0.0
 11
2055.7914309999992
 21
3142.4104560000001
 31
0.0
  0
LINE
  5
7A9F
  8
1
  6
CONTINUOUS
 10
1371.5714310000001
 20
3565.8404559999999
 30
0.0
 11
1390.5714310000001
 21
2970.840455999999
 31
0.0
  0
LINE
  5
7AA0
  8
1
  6
CONTINUOUS
 10
1409.951431
 20
2433.8404559999999
 30
0.0
 11
1388.601431
 21
2482.8604559999999
 31
0.0
  0
LINE
  5
7AA1
  8
1
  6
CONTINUOUS
 10
1255.951430999999
 20
2500.8404559999999
 30
0.0
 11
1255.951430999999
 21
2650.8404559999999
 31
0.0
  0
LINE
  5
7AA3
  8
1
  6
CONTINUOUS
 10
2578.5714309999998
 20
2375.8404559999999
 30
0.0
 11
2578.5714309999998
 21
3625.8404559999999
 31
0.0
  0
ARC
  5
7AA4
  8
1
  6
CONTINUOUS
 10
2114.5714309999989
 20
2926.8404559999999
 30
0.0
 40
621.54999999999995
 50
274.75999999999988
 51
6.5
  0
LINE
  5
7AA6
  8
1
  6
CONTINUOUS
 10
2678.5714309999989
 20
2375.8404559999999
 30
0.0
 11
2678.5714309999989
 21
2275.8404559999999
 31
0.0
  0
ARC
  5
7AA7
  8
1
  6
CONTINUOUS
 10
2193.5714309999998
 20
2935.8404559999999
 30
0.0
 40
542.03999999999985
 50
6.5
 51
89.680000000000007
  0
LINE
  5
7AA8
  8
2
  6
CENTER
 10
2158.5714309999989
 20
6318.932315
 30
0.0
 11
2158.5714309999989
 21
4945.5619159999987
 31
0.0
  0
LINE
  5
7AA9
  8
1
  6
CONTINUOUS
 10
2196.5714309999998
 20
3477.8704560000001
 30
0.0
 11
2196.5714309999998
 21
3565.8404559999999
 31
0.0
  0
LINE
  5
7AAB
  8
1
  6
CONTINUOUS
 10
4423.9946300000001
 20
3565.8404559999999
 30
0.0
 11
4423.9946300000001
 21
2375.8404559999999
 31
0.0
  0
LINE
  5
7AAC
  8
1
  6
CONTINUOUS
 10
4163.9946300000001
 20
3625.8404559999999
 30
0.0
 11
4163.9946300000001
 21
2375.8404559999999
 31
0.0
  0
LINE
  5
7AAD
  8
1
  6
CONTINUOUS
 10
4313.9946300000001
 20
3625.8404559999999
 30
0.0
 11
4313.9946300000001
 21
2375.8404559999999
 31
0.0
  0
LINE
  5
7AB0
  8
1
  6
CONTINUOUS
 10
4255.9946300000001
 20
2375.8404559999999
 30
0.0
 11
4255.9946300000001
 21
2275.8404559999999
 31
0.0
  0
LINE
  5
7AB1
  8
1
  6
CONTINUOUS
 10
4203.9946300000001
 20
3170.8404559999999
 30
0.0
 11
4203.9946300000001
 21
2770.8404559999999
 31
0.0
  0
LINE
  5
7AB2
  8
1
  6
CONTINUOUS
 10
4273.9946299999992
 20
3170.8404559999999
 30
0.0
 11
4273.9946299999992
 21
2770.8404559999999
 31
0.0
  0
LINE
  5
7AB3
  8
1
  6
CONTINUOUS
 10
4273.9946299999992
 20
2596.8404559999999
 30
0.0
 11
4423.9946300000001
 21
2596.8404559999999
 31
0.0
  0
LINE
  5
7AB4
  8
1
  6
CONTINUOUS
 10
4273.9946299999992
 20
2554.840455999999
 30
0.0
 11
4423.9946300000001
 21
2554.840455999999
 31
0.0
  0
LINE
  5
7AB5
  8
1
  6
CONTINUOUS
 10
4423.9946300000001
 20
2991.8404559999999
 30
0.0
 11
4273.9946299999992
 21
2991.8404559999999
 31
0.0
  0
LINE
  5
7AB6
  8
1
  6
CONTINUOUS
 10
4423.9946300000001
 20
2949.8404559999999
 30
0.0
 11
4273.9946299999992
 21
2949.8404559999999
 31
0.0
  0
LINE
  5
7AB7
  8
1
  6
CONTINUOUS
 10
4203.9946300000001
 20
2770.8404559999999
 30
0.0
 11
4273.9946299999992
 21
2770.8404559999999
 31
0.0
  0
LINE
  5
7AB8
  8
1
  6
CONTINUOUS
 10
4203.9946300000001
 20
2650.8404559999999
 30
0.0
 11
4273.9946299999992
 21
2650.8404559999999
 31
0.0
  0
LINE
  5
7AB9
  8
1
  6
CONTINUOUS
 10
4203.9946300000001
 20
2500.8404559999999
 30
0.0
 11
4273.9946299999992
 21
2500.8404559999999
 31
0.0
  0
LINE
  5
7ABA
  8
1
  6
CONTINUOUS
 10
4203.9946300000001
 20
2650.8404559999999
 30
0.0
 11
4203.9946300000001
 21
2500.8404559999999
 31
0.0
  0
LINE
  5
7ABB
  8
1
  6
CONTINUOUS
 10
4273.9946299999992
 20
2650.8404559999999
 30
0.0
 11
4273.9946299999992
 21
2500.8404559999999
 31
0.0
  0
LINE
  5
7ABC
  8
1
  6
CONTINUOUS
 10
4313.9946300000001
 20
3625.8404559999999
 30
0.0
 11
4163.9946300000001
 21
3625.8404559999999
 31
0.0
  0
LINE
  5
7ABD
  8
1
  6
CONTINUOUS
 10
4203.9946300000001
 20
3170.8404559999999
 30
0.0
 11
4273.9946299999992
 21
3170.8404559999999
 31
0.0
  0
LINE
  5
7ABE
  8
1
  6
CONTINUOUS
 10
5023.9946300000001
 20
3565.8404559999999
 30
0.0
 11
5023.9946300000001
 21
2375.8404559999999
 31
0.0
  0
LINE
  5
7ABF
  8
1
  6
CONTINUOUS
 10
5075.9946300000001
 20
2375.8404559999999
 30
0.0
 11
5075.9946300000001
 21
2275.8404559999999
 31
0.0
  0
LINE
  5
7AC0
  8
1
  6
CONTINUOUS
 10
5223.9946299999992
 20
4035.8404559999999
 30
0.0
 11
4073.9946300000001
 21
4035.8404559999999
 31
0.0
  0
LINE
  5
7AC1
  8
1
  6
CONTINUOUS
 10
5158.9946300000001
 20
3970.8404559999999
 30
0.0
 11
4138.9946300000001
 21
3970.8404559999999
 31
0.0
  0
LINE
  5
7AC2
  8
1
  6
CONTINUOUS
 10
2813.5714309999989
 20
6109.149281
 30
0.0
 11
993.57143100000008
 21
6109.149281
 31
0.0
  0
LINE
  5
7AC3
  8
1
  6
CONTINUOUS
 10
993.57143100000008
 20
5089.149281
 30
0.0
 11
2813.5714309999989
 21
5089.149281
 31
0.0
  0
LINE
  5
7AC4
  8
1
  6
CONTINUOUS
 10
2878.5714309999998
 20
6174.149281
 30
0.0
 11
928.57143100000008
 21
6174.149281
 31
0.0
  0
LINE
  5
7AC5
  8
1
  6
CONTINUOUS
 10
928.57143100000008
 20
5024.149281
 30
0.0
 11
2878.5714309999998
 21
5024.149281
 31
0.0
  0
LINE
  5
7AC6
  8
1
  6
CONTINUOUS
 10
928.57143100000008
 20
4035.8404559999999
 30
0.0
 11
2878.5714309999998
 21
4035.8404559999999
 31
0.0
  0
LINE
  5
7AC7
  8
1
  6
CONTINUOUS
 10
993.57143100000008
 20
3970.8404559999999
 30
0.0
 11
2813.5714309999989
 21
3970.8404559999999
 31
0.0
  0
LINE
  5
7AC8
  8
1
  6
CONTINUOUS
 10
2196.5714309999998
 20
5374.1492810000009
 30
0.0
 11
1371.5714310000001
 21
5974.149281
 31
0.0
  0
LINE
  5
7AC9
  8
1
  6
CONTINUOUS
 10
2196.5714309999998
 20
5974.149281
 30
0.0
 11
1371.5714310000001
 21
5374.1492810000009
 31
0.0
  0
LINE
  5
7ACA
  8
1
  6
CONTINUOUS
 10
1371.5714310000001
 20
5974.149281
 30
0.0
 11
2736.121431
 21
5974.149281
 31
0.0
  0
LINE
  5
7ACB
  8
1
  6
CONTINUOUS
 10
1371.5714310000001
 20
5374.1492810000009
 30
0.0
 11
2736.121431
 21
5374.1492810000009
 31
0.0
  0
LINE
  5
7ACC
  8
1
  6
CONTINUOUS
 10
1078.5714310000001
 20
6026.149281
 30
0.0
 11
2678.5714309999989
 21
6026.149281
 31
0.0
  0
LINE
  5
7ACD
  8
1
  6
CONTINUOUS
 10
1098.5714310000001
 20
5114.149281
 30
0.0
 11
2578.5714309999998
 21
5114.149281
 31
0.0
  0
LINE
  5
7ACE
  8
1
  6
CONTINUOUS
 10
1098.5714310000001
 20
5264.149281
 30
0.0
 11
2578.5714309999998
 21
5264.149281
 31
0.0
  0
LINE
  5
7ACF
  8
1
  6
CONTINUOUS
 10
2358.5714309999998
 20
5224.149281
 30
0.0
 11
1958.5714310000001
 21
5224.149281
 31
0.0
  0
LINE
  5
7AD0
  8
1
  6
CONTINUOUS
 10
2358.5714309999998
 20
5154.149281
 30
0.0
 11
1958.5714310000001
 21
5154.149281
 31
0.0
  0
LINE
  5
7AD1
  8
1
  6
CONTINUOUS
 10
1093.951431
 20
5797.149281
 30
0.0
 11
1371.5714310000001
 21
5797.149281
 31
0.0
  0
LINE
  5
7AD2
  8
1
  6
CONTINUOUS
 10
1093.951431
 20
5312.1492809999991
 30
0.0
 11
1417.951431
 21
5312.1492809999991
 31
0.0
  0
LINE
  5
7AD3
  8
1
  6
CONTINUOUS
 10
1330.951430999999
 20
5224.149281
 30
0.0
 11
1180.951430999999
 21
5224.149281
 31
0.0
  0
LINE
  5
7AD4
  8
1
  6
CONTINUOUS
 10
1330.951430999999
 20
5154.149281
 30
0.0
 11
1180.951430999999
 21
5154.149281
 31
0.0
  0
LINE
  5
7AD5
  8
1
  6
CONTINUOUS
 10
993.57143100000008
 20
6109.149281
 30
0.0
 11
993.57143100000008
 21
5089.149281
 31
0.0
  0
LINE
  5
7AD6
  8
1
  6
CONTINUOUS
 10
928.57143100000008
 20
6174.149281
 30
0.0
 11
928.57143100000008
 21
5024.149281
 31
0.0
  0
LINE
  5
7AD7
  8
1
  6
CONTINUOUS
 10
1093.951431
 20
5312.1492809999991
 30
0.0
 11
1093.951431
 21
5797.149281
 31
0.0
  0
LINE
  5
7AD8
  8
1
  6
CONTINUOUS
 10
1078.5714310000001
 20
6026.149281
 30
0.0
 11
1078.5714310000001
 21
5206.149281
 31
0.0
  0
LINE
  5
7AD9
  8
1
  6
CONTINUOUS
 10
1078.5714310000001
 20
5206.149281
 30
0.0
 11
1180.951430999999
 21
5206.149281
 31
0.0
  0
LINE
  5
7ADA
  8
1
  6
CONTINUOUS
 10
1098.5714310000001
 20
5264.149281
 30
0.0
 11
1098.5714310000001
 21
5114.149281
 31
0.0
  0
LINE
  5
7ADB
  8
1
  6
CONTINUOUS
 10
1180.951430999999
 20
5154.149281
 30
0.0
 11
1180.951430999999
 21
5224.149281
 31
0.0
  0
LINE
  5
7ADC
  8
1
  6
CONTINUOUS
 10
1371.5714310000001
 20
5374.1492810000009
 30
0.0
 11
1371.5714310000001
 21
5974.149281
 31
0.0
  0
LINE
  5
7ADD
  8
1
  6
CONTINUOUS
 10
1330.951430999999
 20
5206.149281
 30
0.0
 11
1958.5714310000001
 21
5206.149281
 31
0.0
  0
LINE
  5
7ADE
  8
1
  6
CONTINUOUS
 10
1276.951431
 20
5224.149281
 30
0.0
 11
1276.951431
 21
5312.1492809999991
 31
0.0
  0
LINE
  5
7ADF
  8
1
  6
CONTINUOUS
 10
1234.951431
 20
5224.149281
 30
0.0
 11
1234.951431
 21
5312.1492809999991
 31
0.0
  0
LINE
  5
7AE0
  8
1
  6
CONTINUOUS
 10
1330.951430999999
 20
5154.149281
 30
0.0
 11
1330.951430999999
 21
5224.149281
 31
0.0
  0
LINE
  5
7AE1
  8
1
  6
CONTINUOUS
 10
1417.951431
 20
5312.1492809999991
 30
0.0
 11
1417.951431
 21
5374.1492810000009
 31
0.0
  0
LINE
  5
7AE2
  8
1
  6
CONTINUOUS
 10
1958.5714310000001
 20
5154.149281
 30
0.0
 11
1958.5714310000001
 21
5224.149281
 31
0.0
  0
LINE
  5
7AE3
  8
1
  6
CONTINUOUS
 10
2813.5714309999989
 20
5089.149281
 30
0.0
 11
2813.5714309999989
 21
6109.149281
 31
0.0
  0
LINE
  5
7AE4
  8
1
  6
CONTINUOUS
 10
2878.5714309999998
 20
5024.149281
 30
0.0
 11
2878.5714309999998
 21
6174.149281
 31
0.0
  0
LINE
  5
7AE5
  8
1
  6
CONTINUOUS
 10
2736.121431
 20
5374.1492810000009
 30
0.0
 11
2736.121431
 21
5974.149281
 31
0.0
  0
LINE
  5
7AE6
  8
1
  6
CONTINUOUS
 10
2196.5714309999998
 20
5374.1492810000009
 30
0.0
 11
2196.5714309999998
 21
5974.149281
 31
0.0
  0
LINE
  5
7AE7
  8
1
  6
CONTINUOUS
 10
2358.5714309999998
 20
5206.149281
 30
0.0
 11
2678.5714309999989
 21
5206.149281
 31
0.0
  0
LINE
  5
7AE8
  8
1
  6
CONTINUOUS
 10
2137.5714309999998
 20
5224.149281
 30
0.0
 11
2137.5714309999998
 21
5374.1492810000009
 31
0.0
  0
LINE
  5
7AE9
  8
1
  6
CONTINUOUS
 10
2179.5714309999989
 20
5224.149281
 30
0.0
 11
2179.5714309999989
 21
5374.1492810000009
 31
0.0
  0
LINE
  5
7AEA
  8
1
  6
CONTINUOUS
 10
2358.5714309999998
 20
5154.149281
 30
0.0
 11
2358.5714309999998
 21
5224.149281
 31
0.0
  0
LINE
  5
7AEB
  8
1
  6
CONTINUOUS
 10
2678.5714309999989
 20
5374.1492810000009
 30
0.0
 11
2678.5714309999989
 21
5206.149281
 31
0.0
  0
LINE
  5
7AEC
  8
1
  6
CONTINUOUS
 10
2578.5714309999998
 20
5114.149281
 30
0.0
 11
2578.5714309999998
 21
5264.149281
 31
0.0
  0
LINE
  5
7AED
  8
1
  6
CONTINUOUS
 10
2678.5714309999989
 20
6026.149281
 30
0.0
 11
2678.5714309999989
 21
5974.149281
 31
0.0
  0
LINE
  5
7AEF
  8
2
  6
CENTER
 10
858.25035600000012
 20
5674.149281
 30
0.0
 11
3052.1330619999999
 21
5674.149281
 31
0.0
  0
LINE
  5
7AF0
  8
2
  6
CENTER
 10
4723.9946299999992
 20
4149.1884529999988
 30
0.0
 11
4723.9946299999992
 21
2060.9786079999999
 31
0.0
  0
LINE
  5
7AF1
  8
2
  6
CENTER
 10
2158.5714309999989
 20
4155.1601911650096
 30
0.0
 11
2158.5714309999989
 21
2000.380619
 31
0.0
  0
LINE
  5
7AF2
  8
2
  6
CENTER
 10
3035.5743320000001
 20
2970.840455999999
 30
0.0
 11
849.13554499999998
 21
2970.840455999999
 31
0.0
  0
LINE
  5
7AF3
  8
4
  6
CONTINUOUS
 10
5550.0
 20
1500.0
 30
0.0
 11
5550.0
 21
900.0
 31
0.0
  0
LINE
  5
7AF4
  8
4
  6
CONTINUOUS
 10
3450.0
 20
1500.0
 30
0.0
 11
3450.0
 21
900.0
 31
0.0
  0
LINE
  5
7AF5
  8
4
  6
CONTINUOUS
 10
1950.0
 20
1500.0
 30
0.0
 11
1950.0
 21
900.0
 31
0.0
  0
LINE
  5
7AF8
  8
4
  6
CONTINUOUS
 10
1950.0
 20
900.0
 30
0.0
 11
5550.0
 21
900.0
 31
0.0
  0
LINE
  5
7AF9
  8
4
  6
CONTINUOUS
 10
1950.0
 20
1200.0
 30
0.0
 11
5550.0
 21
1200.0
 31
0.0
  0
TEXT
  5
7AFA
  8
4
  6
CONTINUOUS
 10
2065.5062429999989
 20
1294.6290779999999
 30
0.0
 40
150.0
  1
機器名称
  0
TEXT
  5
7AFB
  8
4
  6
CONTINUOUS
 10
2058.7743179999989
 20
964.9354699999999
 30
0.0
 40
150.0
  1
機器型番
  0
TEXT
  5
7AFC
  8
4
  6
CONTINUOUS
 10
3533.0362359999999
 20
1267.7153069999999
 30
0.0
 40
150.0
  1
ミツヤ多翼送風機
  0
TEXT
  5
7AFD
  8
4
  6
CONTINUOUS
 10
3559.9634869999991
 20
951.47875299999987
 30
0.0
 40
150.0
  1
MF#5-4
  0
TEXT
  5
7AFF
  8
4
  6
CONTINUOUS
 10
2110.2568109999988
 20
7150.2865239999992
 30
0.0
 40
162.0
  1
天井吊枠防振ベット
  0
TEXT
  5
7B00
  8
4
  6
CONTINUOUS
 10
948.50278000000014
 20
7601.6429289999996
 30
0.0
 40
216.0
  1
ベルト駆動式片吸込両持多翼ファン
  0
LINE
  5
7B01
  8
4
  6
CONTINUOUS
 10
750.0
 20
7408.2262629999996
 30
0.0
 11
5550.0
 21
7408.2262629999996
 31
0.0
  0
LINE
  5
7B02
  8
4
  6
CONTINUOUS
 10
750.0
 20
8008.2262629999996
 30
0.0
 11
5550.0
 21
8008.2262629999996
 31
0.0
  0
LINE
  5
7B03
  8
4
  6
CONTINUOUS
 10
1950.0
 20
1500.0
 30
0.0
 11
5550.0
 21
1500.0
 31
0.0
  0
LINE
  5
7B04
  8
4
  6
CONTINUOUS
 10
750.0
 20
8008.2262629999996
 30
0.0
 11
750.0
 21
7408.2262629999996
 31
0.0
  0
TEXT
  5
7B05
  8
4
  6
CONTINUOUS
 10
893.73563300000001
 20
7146.9584329999998
 30
0.0
 40
162.0
  1
右回転上向
  0
TEXT
  5
7B06
  8
4
  6
CONTINUOUS
 10
4406.9086779999989
 20
8118.1832439999989
 30
0.0
 40
168.0
  1
No.
  0
TEXT
  5
7B07
  8
4
  6
CONTINUOUS
 10
4104.2755219999999
 20
7150.2865239999992
 30
0.0
 40
162.0
  1
縮尺：1/30
  0
LINE
  5
7B08
  8
4
  6
CONTINUOUS
 10
5550.0
 20
8008.2262629999996
 30
0.0
 11
5550.0
 21
7408.2262629999996
 31
0.0
  0
LINE
  5
7B0A
  8
4
  6
CONTINUOUS
 10
4321.8522670000002
 20
8043.7907490000007
 30
0.0
 11
4321.8522670000002
 21
8359.9567849999985
 31
0.0
  0
LINE
  5
7B0B
  8
4
  6
CONTINUOUS
 10
4321.8522670000002
 20
8359.9567849999985
 30
0.0
 11
5550.0
 21
8359.9567849999985
 31
0.0
  0
LINE
  5
7B0C
  8
4
  6
CONTINUOUS
 10
5550.0
 20
8359.9567849999985
 30
0.0
 11
5550.0
 21
8043.7907490000007
 31
0.0
  0
LINE
  5
7B0D
  8
4
  6
CONTINUOUS
 10
5550.0
 20
8043.7907490000007
 30
0.0
 11
4321.8522670000002
 21
8043.7907490000007
 31
0.0
  0
DIMENSION
  5
7B25
  8
3
  6
CONTINUOUS
  2
*D1
 10
2196.5714309999998
 20
3734.6734059999999
 30
0.0
 11
1784.6301940000001
 21
3734.6734059999999
 31
0.0
 70
   128
 13
1371.5714310000001
 23
3565.8404559999999
 33
0.0
 14
2196.5714309999998
 24
3565.8404559999999
 34
0.0
1001
ACAD
1000
DSTYLE
1002
{
1070
   287
1070
     3
1070
    40
1040
30.0
1070
   143
1040
0.039
1070
   172
1070
     1
1070
   271
1070
     0
1070
   279
1070
     0
1070
   288
1070
     1
1002
}
  0
DIMENSION
  5
7B32
  8
3
  6
CONTINUOUS
  2
*D2
 10
2158.5714309999989
 20
4185.1601911650087
 30
0.0
 11
1777.7281149999999
 21
4185.1601911650087
 31
0.0
 70
   128
 13
1371.5714310000001
 23
3565.8404559999999
 33
0.0
 14
2158.5714309999989
 24
4090.360561132929
 34
0.0
1001
ACAD
1000
DSTYLE
1002
{
1070
   287
1070
     3
1070
    40
1040
30.0
1070
   143
1040
0.039
1070
   172
1070
     1
1070
   271
1070
     0
1070
   279
1070
     0
1070
   288
1070
     1
1002
}
  0
DIMENSION
  5
7B4B
  8
3
  6
CONTINUOUS
  2
*D3
 10
3137.437684
 20
2970.840455999999
 30
0.0
 11
3137.437684
 21
3251.8813150000001
 31
0.0
 70
   128
 13
2239.0714309999998
 23
3565.8404559999999
 33
0.0
 14
3035.5743320000001
 24
2970.840455999999
 34
0.0
 50
90.0
1001
ACAD
1000
DSTYLE
1002
{
1070
   287
1070
     3
1070
    40
1040
30.0
1070
   143
1040
0.039
1070
   172
1070
     1
1070
   271
1070
     0
1070
   279
1070
     0
1070
   288
1070
     1
1002
}
  0
DIMENSION
  5
7B57
  8
3
  6
CONTINUOUS
  2
*D4
 10
3137.437684
 20
2275.840455999999
 30
0.0
 11
3062.4376839999991
 21
2623.3404559999999
 31
0.0
 70
     0
 13
3035.5743320000001
 23
2970.840455999999
 33
0.0
 14
2678.5714309999989
 24
2275.8404559999999
 34
0.0
 50
90.0
1001
ACAD
1000
DSTYLE
1002
{
1070
   287
1070
     4
1070
    40
1040
30.0
1070
    75
1070
     1
1070
   143
1040
0.039
1070
   172
1070
     1
1070
   271
1070
     0
1070
   279
1070
     1
1070
   288
1070
     1
1002
}
  0
DIMENSION
  5
7B67
  8
3
  6
CONTINUOUS
  2
*D5
 10
3137.437684
 20
2185.840455999999
 30
0.0
 11
3135.5770619999998
 21
2080.0502379999989
 31
0.0
 70
   128
 13
2678.5714309999989
 23
2275.8404559999999
 33
0.0
 14
2878.5714309999998
 24
2185.8404559999999
 34
0.0
 50
90.0
1001
ACAD
1000
DSTYLE
1002
{
1070
   287
1070
     4
1070
    40
1040
30.0
1070
    75
1070
     1
1070
   143
1040
0.039
1070
   172
1070
     1
1070
   271
1070
     0
1070
   279
1070
     1
1070
   288
1070
     1
1002
}
  0
DIMENSION
  5
7B74
  8
3
  6
CONTINUOUS
  2
*D6
 10
2158.5714309999989
 20
1883.882857999999
 30
0.0
 11
1549.9595179999999
 21
1883.882857999999
 31
0.0
 70
   128
 13
928.57143100000008
 23
2185.8404559999999
 33
0.0
 14
2158.5714309999989
 24
2000.380619
 34
0.0
1001
ACAD
1000
DSTYLE
1002
{
1070
   287
1070
     3
1070
    40
1040
30.0
1070
   143
1040
0.039
1070
   172
1070
     1
1070
   271
1070
     0
1070
   279
1070
     0
1070
   288
1070
     1
1002
}
  0
DIMENSION
  5
7B80
  8
3
  6
CONTINUOUS
  2
*D7
 10
2878.5714309999998
 20
1883.882857999999
 30
0.0
 11
2518.5714309999989
 21
1958.882857999999
 31
0.0
 70
     0
 13
2158.5714309999989
 23
2000.380619
 33
0.0
 14
2878.5714309999998
 24
2185.8404559999999
 34
0.0
1001
ACAD
1000
DSTYLE
1002
{
1070
   287
1070
     4
1070
    40
1040
30.0
1070
    75
1070
     1
1070
   143
1040
0.039
1070
   172
1070
     1
1070
   271
1070
     0
1070
   279
1070
     1
1070
   288
1070
     1
1002
}
  0
LINE
  5
7B8E
  8
1
  6
CONTINUOUS
 10
5027.9946300000011
 20
3395.8404559999999
 30
0.0
 11
5027.9946300000011
 21
2545.8404559999999
 31
0.0
  0
DIMENSION
  5
7B9D
  8
3
  6
CONTINUOUS
  2
*D8
 10
5430.2126910000006
 20
2545.840455999999
 30
0.0
 11
5430.2126909999997
 21
2969.1030959999998
 31
0.0
 70
   128
 13
5027.9946300000011
 23
3395.8404559999999
 33
0.0
 14
5027.9946300000011
 24
2545.8404559999999
 34
0.0
 50
90.0
1001
ACAD
1000
DSTYLE
1002
{
1070
   287
1070
     3
1070
     3
1000
φ<>
1070
    40
1040
30.0
1070
   143
1040
0.039
1070
   172
1070
     1
1070
   271
1070
     0
1070
   279
1070
     0
1070
   288
1070
     1
1002
}
  0
DIMENSION
  5
7BAC
  8
3
  6
CONTINUOUS
  2
*D9
 10
4723.9946299999992
 20
4429.5551880000012
 30
0.0
 11
4875.9946300000001
 21
4520.8990882089374
 31
0.0
 70
   128
 13
5027.9946300000011
 23
3395.8404559999999
 33
0.0
 14
4723.9946299999992
 24
4356.9426279999998
 34
0.0
1001
ACAD
1000
DSTYLE
1002
{
1070
   288
1070
     1
1070
   172
1070
     1
1070
    40
1040
30.0
1070
   271
1070
     0
1070
   143
1040
0.039
1002
}
  0
DIMENSION
  5
7BB9
  8
3
  6
CONTINUOUS
  2
*D10
 10
3850.7858799999999
 20
2185.8404559999999
 30
0.0
 11
3850.7858799999999
 21
3065.6615139999999
 31
0.0
 70
   128
 13
4073.9946300000001
 23
4035.8404559999999
 33
0.0
 14
4073.9946300000001
 24
2185.8404559999999
 34
0.0
 50
90.0
1001
ACAD
1000
DSTYLE
1002
{
1070
   287
1070
     3
1070
    40
1040
30.0
1070
   143
1040
0.039
1070
   172
1070
     1
1070
   271
1070
     0
1070
   279
1070
     0
1070
   288
1070
     1
1002
}
  0
DIMENSION
  5
7BC6
  8
3
  6
CONTINUOUS
  2
*D11
 10
4723.9946299999992
 20
1975.9308120000001
 30
0.0
 11
4436.3133259999986
 21
1975.9308120000001
 31
0.0
 70
   128
 13
4073.9946300000001
 23
2185.8404559999999
 33
0.0
 14
4723.9946299999992
 24
2060.9786079999999
 34
0.0
1001
ACAD
1000
DSTYLE
1002
{
1070
   287
1070
     3
1070
    40
1040
30.0
1070
   143
1040
0.039
1070
   172
1070
     1
1070
   271
1070
     0
1070
   279
1070
     0
1070
   288
1070
     1
1002
}
  0
DIMENSION
  5
7BD2
  8
3
  6
CONTINUOUS
  2
*D12
 10
5223.9946299999992
 20
1975.9308120000001
 30
0.0
 11
4973.9946299999992
 21
2050.9308120000001
 31
0.0
 70
     0
 13
4723.9946299999992
 23
2060.9786079999999
 33
0.0
 14
5223.9946299999992
 24
2185.8404559999999
 34
0.0
1001
ACAD
1000
DSTYLE
1002
{
1070
   287
1070
     4
1070
    40
1040
30.0
1070
    75
1070
     1
1070
   143
1040
0.039
1070
   172
1070
     1
1070
   271
1070
     0
1070
   279
1070
     1
1070
   288
1070
     1
1002
}
  0
DIMENSION
  5
7BDF
  8
3
  6
CONTINUOUS
  2
*D13
 10
2878.5714309999998
 20
6408.6840520000014
 30
0.0
 11
1846.748902
 21
6408.6840520000014
 31
0.0
 70
   128
 13
928.57143100000008
 23
6174.149281
 33
0.0
 14
2878.5714309999998
 24
6174.149281
 34
0.0
1001
ACAD
1000
DSTYLE
1002
{
1070
   287
1070
     3
1070
    40
1040
30.0
1070
   143
1040
0.039
1070
   172
1070
     1
1070
   271
1070
     0
1070
   279
1070
     0
1070
   288
1070
     1
1002
}
  0
DIMENSION
  5
7BEC
  8
3
  6
CONTINUOUS
  2
*D14
 10
3199.556392
 20
5024.149281
 30
0.0
 11
3199.5563919999991
 21
5591.875231
 31
0.0
 70
   128
 13
2878.5714309999998
 23
6174.149281
 33
0.0
 14
2878.5714309999998
 24
5024.149281
 34
0.0
 50
90.0
1001
ACAD
1000
DSTYLE
1002
{
1070
   287
1070
     3
1070
    40
1040
30.0
1070
   143
1040
0.039
1070
   172
1070
     1
1070
   271
1070
     0
1070
   279
1070
     0
1070
   288
1070
     1
1002
}
  0
DIMENSION
  5
7BFD
  8
3
  6
CONTINUOUS
  2
*D15
 10
2734.5620781068742
 20
4185.1601911650087
 30
0.0
 11
2446.566754553437
 21
4260.1601911650087
 31
0.0
 70
     0
 13
2158.5714309999989
 23
4115.8230793637122
 33
0.0
 14
2734.5620781068742
 24
2970.840455999999
 34
0.0
1001
ACAD
1000
DSTYLE
1002
{
1070
   287
1070
     4
1070
    40
1040
30.0
1070
    75
1070
     1
1070
   143
1040
0.039
1070
   172
1070
     1
1070
   271
1070
     0
1070
   279
1070
     1
1070
   288
1070
     1
1002
}
  0
DIMENSION
  5
7C83
  8
3
  6
CONTINUOUS
  2
*D16
 10
5023.9946300000001
 20
4202.4793760000002
 30
0.0
 11
4714.2303630000006
 21
4202.4793760000002
 31
0.0
 70
   128
 13
4423.9946300000001
 23
3565.8404559999999
 33
0.0
 14
5023.9946300000001
 24
3565.8404559999999
 34
0.0
1001
ACAD
1000
DSTYLE
1002
{
1070
   287
1070
     3
1070
    40
1040
30.0
1070
   143
1040
0.039
1070
   172
1070
     1
1070
   271
1070
     0
1070
   279
1070
     0
1070
   288
1070
     1
1002
}
  0
LINE
  5
7D4D
  8
1
  6
CONTINUOUS
 10
1658.5714309999989
 20
3375.8404559999999
 30
0.0
 11
2658.5714309999989
 21
3375.8404559999999
 31
0.0
  0
LINE
  5
7D4E
  8
1
 10
1658.5714309999989
 20
3375.8404559999999
 30
0.0
 11
1658.5714310000001
 21
2375.8404559999999
 31
0.0
  0
LINE
  5
7D4F
  8
1
 10
2658.5714309999989
 20
3375.8404559999999
 30
0.0
 11
2658.5714309999998
 21
2375.8404559999999
 31
0.0
  0
ENDSEC
  0
EOF
