  0
SECTION
  2
HEADER
  9
$ACADVER
  1
AC1009
  9
$INSBASE
 10
0.0
 20
0.0
 30
0.0
  9
$EXTMIN
 10
750.0
 20
900.0
 30
0.0
  9
$EXTMAX
 10
5550.0
 20
8359.9567849999985
 30
0.0
  9
$LIMMIN
 10
0.0
 20
0.0
  9
$LIMMAX
 10
297.0
 20
210.0
  9
$ORTHOMODE
 70
     0
  9
$REGENMODE
 70
     1
  9
$FILLMODE
 70
     0
  9
$QTEXTMODE
 70
     0
  9
$MIRRTEXT
 70
     1
  9
$DRAGMODE
 70
     2
  9
$LTSCALE
 40
100.0
  9
$OSMODE
 70
    37
  9
$ATTMODE
 70
     1
  9
$TEXTSIZE
 40
180.0
  9
$TRACEWID
 40
0.05
  9
$TEXTSTYLE
  7
STANDARD
  9
$CLAYER
  8
3
  9
$CELTYPE
  6
BYLAYER
  9
$CECOLOR
 62
   256
  9
$DIMSCALE
 40
30.0
  9
$DIMASZ
 40
2.0
  9
$DIMEXO
 40
0.5
  9
$DIMDLI
 40
10.0
  9
$DIMRND
 40
0.0
  9
$DIMDLE
 40
0.0
  9
$DIMEXE
 40
1.0
  9
$DIMTP
 40
1.0
  9
$DIMTM
 40
1.0
  9
$DIMTXT
 40
3.0
  9
$DIMCEN
 40
0.0
  9
$DIMTSZ
 40
0.0
  9
$DIMTOL
 70
     0
  9
$DIMLIM
 70
     0
  9
$DIMTIH
 70
     0
  9
$DIMTOH
 70
     0
  9
$DIMSE1
 70
     0
  9
$DIMSE2
 70
     0
  9
$DIMTAD
 70
     1
  9
$DIMZIN
 70
     8
  9
$DIMBLK
  1

  9
$DIMASO
 70
     1
  9
$DIMSHO
 70
     1
  9
$DIMPOST
  1

  9
$DIMAPOST
  1

  9
$DIMALT
 70
     0
  9
$DIMALTD
 70
     2
  9
$DIMALTF
 40
0.039
  9
$DIMLFAC
 40
1.0
  9
$DIMTOFL
 70
     1
  9
$DIMTVP
 40
0.0
  9
$DIMTIX
 70
     0
  9
$DIMSOXD
 70
     0
  9
$DIMSAH
 70
     1
  9
$DIMBLK1
  1
OPEN
  9
$DIMBLK2
  1
OPEN
  9
$DIMSTYLE
  2
IGA
  9
$DIMCLRD
 70
     0
  9
$DIMCLRE
 70
     0
  9
$DIMCLRT
 70
     0
  9
$DIMTFAC
 40
10.0
  9
$DIMGAP
 40
1.0
  9
$LUNITS
 70
     2
  9
$LUPREC
 70
     3
  9
$SKETCHINC
 40
0.1
  9
$FILLETRAD
 40
50.0
  9
$AUNITS
 70
     0
  9
$AUPREC
 70
     0
  9
$MENU
  1
acad
  9
$ELEVATION
 40
0.0
  9
$PELEVATION
 40
0.0
  9
$THICKNESS
 40
0.0
  9
$LIMCHECK
 70
     0
  9
$BLIPMODE
 70
     0
  9
$CHAMFERA
 40
0.5
  9
$CHAMFERB
 40
0.5
  9
$SKPOLY
 70
     0
  9
$TDCREATE
 40
2450749.4359100689
  9
$TDUPDATE
 40
2454953.7748451969
  9
$TDINDWG
 40
0.0089979398
  9
$TDUSRTIMER
 40
0.0089979398
  9
$USRTIMER
 70
     1
  9
$ANGBASE
 50
0.0
  9
$ANGDIR
 70
     0
  9
$PDMODE
 70
     0
  9
$PDSIZE
 40
0.0
  9
$PLINEWID
 40
0.0
  9
$COORDS
 70
     1
  9
$SPLFRAME
 70
     0
  9
$SPLINETYPE
 70
     6
  9
$SPLINESEGS
 70
     8
  9
$ATTDIA
 70
     0
  9
$ATTREQ
 70
     1
  9
$HANDLING
 70
 10241
  9
$HANDSEED
  5
7D66
  9
$SURFTAB1
 70
     6
  9
$SURFTAB2
 70
     6
  9
$SURFTYPE
 70
     6
  9
$SURFU
 70
     6
  9
$SURFV
 70
     6
  9
$UCSNAME
  2

  9
$UCSORG
 10
0.0
 20
0.0
 30
0.0
  9
$UCSXDIR
 10
1.0
 20
0.0
 30
0.0
  9
$UCSYDIR
 10
0.0
 20
1.0
 30
0.0
  9
$PUCSNAME
  2

  9
$PUCSORG
 10
0.0
 20
0.0
 30
0.0
  9
$PUCSXDIR
 10
1.0
 20
0.0
 30
0.0
  9
$PUCSYDIR
 10
0.0
 20
1.0
 30
0.0
  9
$USERI1
 70
     0
  9
$USERI2
 70
     0
  9
$USERI3
 70
     0
  9
$USERI4
 70
     0
  9
$USERI5
 70
     0
  9
$USERR1
 40
0.0
  9
$USERR2
 40
0.0
  9
$USERR3
 40
0.0
  9
$USERR4
 40
0.0
  9
$USERR5
 40
0.0
  9
$WORLDVIEW
 70
     1
  9
$SHADEDGE
 70
     3
  9
$SHADEDIF
 70
    70
  9
$TILEMODE
 70
     1
  9
$MAXACTVP
 70
    16
  9
$PLIMCHECK
 70
     0
  9
$PEXTMIN
 10
1.0000000000000000E+020
 20
1.0000000000000000E+020
 30
1.0000000000000000E+020
  9
$PEXTMAX
 10
-1.0000000000000000E+020
 20
-1.0000000000000000E+020
 30
-1.0000000000000000E+020
  9
$PLIMMIN
 10
0.0
 20
0.0
  9
$PLIMMAX
 10
12.0
 20
9.0
  9
$UNITMODE
 70
     0
  9
$VISRETAIN
 70
     0
  9
$PLINEGEN
 70
     0
  9
$PSLTSCALE
 70
     1
  0
ENDSEC
  0
SECTION
  2
TABLES
  0
TABLE
  2
VPORT
 70
     2
  0
VPORT
  2
*ACTIVE
 70
     0
 10
0.0
 20
0.0
 11
1.0
 21
1.0
 12
9438.1687158055174
 22
4629.9562499988788
 13
0.0
 23
0.0
 14
10.0
 24
10.0
 15
10.0
 25
10.0
 16
0.0
 26
0.0
 36
1.0
 17
0.0
 27
0.0
 37
0.0
 40
7517.2452868940854
 41
3.1666666666666661
 42
50.0
 43
0.0
 44
0.0
 50
0.0
 51
0.0
 71
     0
 72
   100
 73
     1
 74
     0
 75
     0
 76
     0
 77
     0
 78
     0
  0
ENDTAB
  0
TABLE
  2
LTYPE
 70
     2
  0
LTYPE
  2
CONTINUOUS
 70
     0
  3
Solid line
 72
    65
 73
     0
 40
0.0
  0
LTYPE
  2
CENTER
 70
     0
  3
____ _ ____ _ ____ _ ____ _ ____ _ ____ _ ____ 
 72
    65
 73
     4
 40
2.0
 49
1.25
 49
-0.25
 49
0.25
 49
-0.25
  0
ENDTAB
  0
TABLE
  2
LAYER
 70
     6
  0
LAYER
  2
0
 70
     0
 62
     7
  6
CONTINUOUS
  0
LAYER
  2
3
 70
     0
 62
     2
  6
CONTINUOUS
  0
LAYER
  2
2
 70
     0
 62
     3
  6
CENTER
  0
LAYER
  2
1
 70
     0
 62
     4
  6
CONTINUOUS
  0
LAYER
  2
4
 70
     0
 62
     7
  6
CONTINUOUS
  0
LAYER
  2
DEFPOINTS
 70
     0
 62
     7
  6
CONTINUOUS
  0
ENDTAB
  0
TABLE
  2
STYLE
 70
     1
  0
STYLE
  2
STANDARD
 70
     0
 40
0.0
 41
1.0
 50
0.0
 71
     0
 42
180.0
  3
simplex.shx
  4
extfont.shx
  0
ENDTAB
  0
TABLE
  2
VIEW
 70
     0
  0
ENDTAB
  0
TABLE
  2
UCS
 70
     0
  0
ENDTAB
  0
TABLE
  2
APPID
 70
     1
  0
APPID
  2
ACAD
 70
     0
  0
ENDTAB
  0
TABLE
  2
DIMSTYLE
 70
     1
  0
DIMSTYLE
  2
IGA
 70
     0
  3

  4

  5

  6
OPEN
  7
OPEN
 40
2.0
 41
2.0
 42
0.5
 43
10.0
 44
1.0
 45
0.0
 46
0.0
 47
1.0
 48
1.0
140
3.0
141
0.0
142
0.0
143
0.03937
144
1.0
145
0.0
146
10.0
147
1.0
 71
     0
 72
     0
 73
     0
 74
     0
 75
     0
 76
     0
 77
     1
 78
     8
170
     0
171
     2
172
     0
173
     1
174
     0
175
     0
176
     0
177
     0
178
     0
  0
ENDTAB
  0
ENDSEC
  0
SECTION
  2
BLOCKS
  0
BLOCK
  8
0
  2
$MODEL_SPACE
 70
     0
 10
0.0
 20
0.0
 30
0.0
  3
$MODEL_SPACE
  1

  0
ENDBLK
  5
1B
  8
0
  0
BLOCK
 67
     1
  8
0
  2
$PAPER_SPACE
 70
     0
 10
0.0
 20
0.0
 30
0.0
  3
$PAPER_SPACE
  1

  0
ENDBLK
  5
18
 67
     1
  8
0
  0
BLOCK
  8
0
  2
_OPEN
 70
     0
 10
0.0
 20
0.0
 30
0.0
  3
_OPEN
  1

  0
LINE
  5
7B17
  8
0
  6
BYBLOCK
 62
     0
 10
-1.0
 20
0.166667
 30
0.0
 11
0.0
 21
0.0
 31
0.0
  0
LINE
  5
7B18
  8
0
  6
BYBLOCK
 62
     0
 10
0.0
 20
0.0
 30
0.0
 11
-1.0
 21
-0.166667
 31
0.0
  0
LINE
  5
7B19
  8
0
  6
BYBLOCK
 62
     0
 10
0.0
 20
0.0
 30
0.0
 11
-1.0
 21
0.0
 31
0.0
  0
ENDBLK
  5
7B1A
  8
0
  0
BLOCK
  8
0
  2
*D1
 70
     1
 10
0.0
 20
0.0
 30
0.0
  3
*D1
  1

  0
LINE
  5
7CCF
  8
3
  6
CONTINUOUS
 62
     0
 10
2781.0992449999999
 20
3862.7433729999998
 30
0.0
 11
3144.8668630000002
 21
3862.7433729999989
 31
0.0
  0
LINE
  5
7CD0
  8
3
  6
CONTINUOUS
 62
     0
 10
2781.0992449999999
 20
3037.7433729999998
 30
0.0
 11
3144.8668630000002
 21
3037.7433729999998
 31
0.0
  0
LINE
  5
7CD1
  8
3
  6
CONTINUOUS
 62
     0
 10
3114.8668630000002
 20
3802.7433729999989
 30
0.0
 11
3114.8668630000002
 21
3097.7433729999998
 31
0.0
  0
INSERT
  5
7CD2
  8
3
  6
CONTINUOUS
 62
     0
  2
_OPEN
 10
3114.8668630000002
 20
3862.7433729999989
 30
0.0
 41
60.0
 42
60.0
 43
60.0
 50
90.0
  0
INSERT
  5
7CD3
  8
3
  6
CONTINUOUS
 62
     0
  2
_OPEN
 10
3114.8668630000002
 20
3037.7433729999998
 30
0.0
 41
60.0
 42
60.0
 43
60.0
 50
270.0
  0
TEXT
  8
3
  40
90
  5
7D57
  62
0
  72
0
  71
0
 10
2859.87
 20
3226.31
 30
0.000000
  1
825
  0
POINT
  5
7CD5
  8
DEFPOINTS
  6
CONTINUOUS
 62
     0
 10
2766.099244999999
 20
3862.7433729999998
 30
0.0
  0
POINT
  5
7CD6
  8
DEFPOINTS
  6
CONTINUOUS
 62
     0
 10
2766.099244999999
 20
3037.7433729999998
 30
0.0
  0
POINT
  5
7CD7
  8
DEFPOINTS
  6
CONTINUOUS
 62
     0
 10
3114.8668630000002
 20
3037.7433729999998
 30
0.0
  0
ENDBLK
  5
7B27
  8
0
  0
BLOCK
  8
0
  2
*D2
 70
     1
 10
0.0
 20
0.0
 30
0.0
  3
*D2
  1

  0
LINE
  5
7CD8
  8
3
  6
CONTINUOUS
 62
     0
 10
2841.0992449999999
 20
3862.7433729999998
 30
0.0
 11
3334.0086700000011
 21
3862.7433729999989
 31
0.0
  0
LINE
  5
7CD9
  8
3
  6
CONTINUOUS
 62
     0
 10
2981.0064889999999
 20
3075.7433729999998
 30
0.0
 11
3334.0086700000011
 21
3075.7433729999989
 31
0.0
  0
LINE
  5
7CDA
  8
3
  6
CONTINUOUS
 62
     0
 10
3304.0086700000002
 20
3802.7433729999989
 30
0.0
 11
3304.0086700000002
 21
3135.7433729999998
 31
0.0
  0
INSERT
  5
7CDB
  8
3
  6
CONTINUOUS
 62
     0
  2
_OPEN
 10
3304.0086700000002
 20
3862.7433729999989
 30
0.0
 41
60.0
 42
60.0
 43
60.0
 50
90.0
  0
INSERT
  5
7CDC
  8
3
  6
CONTINUOUS
 62
     0
  2
_OPEN
 10
3304.0086700000002
 20
3075.7433729999989
 30
0.0
 41
60.0
 42
60.0
 43
60.0
 50
270.0
  0
TEXT
  8
3
  40
90
  5
7D58
  62
0
  72
0
  71
0
 10
3049.01
 20
3219.04
 30
0.000000
  1
787
  0
POINT
  5
7CDE
  8
DEFPOINTS
  6
CONTINUOUS
 62
     0
 10
2826.099244999999
 20
3862.7433729999998
 30
0.0
  0
POINT
  5
7CDF
  8
DEFPOINTS
  6
CONTINUOUS
 62
     0
 10
2966.0064889999999
 20
3075.7433729999998
 30
0.0
  0
POINT
  5
7CE0
  8
DEFPOINTS
  6
CONTINUOUS
 62
     0
 10
3304.0086700000002
 20
3075.7433729999989
 30
0.0
  0
ENDBLK
  5
7B34
  8
0
  0
BLOCK
  8
0
  2
*D3
 70
     1
 10
0.0
 20
0.0
 30
0.0
  3
*D3
  1

  0
LINE
  5
7CE1
  8
3
  6
CONTINUOUS
 62
     0
 10
2706.0992449999999
 20
2380.7433729999998
 30
0.0
 11
3334.0086700000002
 21
2380.7433729999998
 31
0.0
  0
LINE
  5
7CE2
  8
3
  6
CONTINUOUS
 62
     0
 10
3304.0086699999988
 20
3015.7433729999989
 30
0.0
 11
3304.0086699999988
 21
2440.7433729999998
 31
0.0
  0
INSERT
  5
7CE3
  8
3
  6
CONTINUOUS
 62
     0
  2
_OPEN
 10
3304.0086700000002
 20
3075.7433729999989
 30
0.0
 41
60.0
 42
60.0
 43
60.0
 50
90.0
  0
INSERT
  5
7CE4
  8
3
  6
CONTINUOUS
 62
     0
  2
_OPEN
 10
3304.0086699999988
 20
2380.7433729999998
 30
0.0
 41
60.0
 42
60.0
 43
60.0
 50
270.0
  0
TEXT
  8
3
  40
90
  5
7D59
  62
0
  72
0
  71
0
 10
3049.01
 20
2568.94
 30
0.000000
  1
695
  0
POINT
  5
7CE6
  8
DEFPOINTS
  6
CONTINUOUS
 62
     0
 10
2966.0064889999999
 20
3075.7433729999998
 30
0.0
  0
POINT
  5
7CE7
  8
DEFPOINTS
  6
CONTINUOUS
 62
     0
 10
2691.0992449999999
 20
2380.7433729999998
 30
0.0
  0
POINT
  5
7CE8
  8
DEFPOINTS
  6
CONTINUOUS
 62
     0
 10
3304.0086699999988
 20
2380.7433729999998
 30
0.0
  0
ENDBLK
  5
7B40
  8
0
  0
BLOCK
  8
0
  2
*D4
 70
     1
 10
0.0
 20
0.0
 30
0.0
  3
*D4
  1

  0
LINE
  5
7CE9
  8
3
  6
CONTINUOUS
 62
     0
 10
2706.0992449999999
 20
2380.7433729999998
 30
0.0
 11
3335.7138450000002
 21
2380.7433729999998
 31
0.0
  0
LINE
  5
7CEA
  8
3
  6
CONTINUOUS
 62
     0
 10
2906.0992449999999
 20
2290.7433729999998
 30
0.0
 11
3335.7138450000002
 21
2290.7433729999989
 31
0.0
  0
LINE
  5
7CEB
  8
3
  6
CONTINUOUS
 62
     0
 10
3305.7138450000002
 20
2440.7433729999998
 30
0.0
 11
3305.7138450000002
 21
2500.7433729999998
 31
0.0
  0
LINE
  5
7CEC
  8
3
  6
CONTINUOUS
 62
     0
 10
3305.7138450000002
 20
2230.7433729999998
 30
0.0
 11
3305.7138450000002
 21
1965.029087285714
 31
0.0
  0
LINE
  5
7CED
  8
3
  6
CONTINUOUS
 62
     0
 10
3305.7138450000002
 20
2380.7433729999998
 30
0.0
 11
3305.7138450000002
 21
2290.7433729999989
 31
0.0
  0
INSERT
  5
7CEE
  8
3
  6
CONTINUOUS
 62
     0
  2
_OPEN
 10
3305.7138450000002
 20
2380.7433729999998
 30
0.0
 41
60.0
 42
60.0
 43
60.0
 50
270.0
  0
INSERT
  5
7CEF
  8
3
  6
CONTINUOUS
 62
     0
  2
_OPEN
 10
3305.7138450000002
 20
2290.7433729999989
 30
0.0
 41
60.0
 42
60.0
 43
60.0
 50
90.0
  0
TEXT
  8
3
  40
90
  5
7D5A
  62
0
  72
0
  71
0
 10
3050.71
 20
1908.59
 30
0.000000
  1
90
  0
POINT
  5
7CF1
  8
DEFPOINTS
  6
CONTINUOUS
 62
     0
 10
2691.0992449999999
 20
2380.7433729999998
 30
0.0
  0
POINT
  5
7CF2
  8
DEFPOINTS
  6
CONTINUOUS
 62
     0
 10
2891.099244999999
 20
2290.7433729999998
 30
0.0
  0
POINT
  5
7CF3
  8
DEFPOINTS
  6
CONTINUOUS
 62
     0
 10
3305.7138450000002
 20
2290.7433729999989
 30
0.0
  0
ENDBLK
  5
7C93
  8
0
  0
BLOCK
  8
0
  2
*D5
 70
     1
 10
0.0
 20
0.0
 30
0.0
  3
*D5
  1

  0
LINE
  5
7CF4
  8
3
  6
CONTINUOUS
 62
     0
 10
2891.099244999999
 20
2275.7433729999998
 30
0.0
 11
2891.099244999999
 21
2008.8471050000001
 31
0.0
  0
LINE
  5
7CF5
  8
3
  6
CONTINUOUS
 62
     0
 10
2171.0992449999999
 20
2108.4873349999998
 30
0.0
 11
2171.0992449999999
 21
2008.8471050000001
 31
0.0
  0
LINE
  5
7CF6
  8
3
  6
CONTINUOUS
 62
     0
 10
2831.0992449999999
 20
2038.8471049999989
 30
0.0
 11
2231.0992449999999
 21
2038.8471049999989
 31
0.0
  0
INSERT
  5
7CF7
  8
3
  6
CONTINUOUS
 62
     0
  2
_OPEN
 10
2891.099244999999
 20
2038.8471049999989
 30
0.0
 41
60.0
 42
60.0
 43
60.0
  0
INSERT
  5
7CF8
  8
3
  6
CONTINUOUS
 62
     0
  2
_OPEN
 10
2171.0992449999999
 20
2038.8471049999989
 30
0.0
 41
60.0
 42
60.0
 43
60.0
 50
180.0
  0
TEXT
  8
3
  40
90
  5
7D5B
  62
0
  72
0
  71
0
 10
2352.89
 20
1954.55
 30
0.000000
  1
720
  0
POINT
  5
7CFA
  8
DEFPOINTS
  6
CONTINUOUS
 62
     0
 10
2891.099244999999
 20
2290.7433729999998
 30
0.0
  0
POINT
  5
7CFB
  8
DEFPOINTS
  6
CONTINUOUS
 62
     0
 10
2171.0992449999999
 20
2123.4873349999998
 30
0.0
  0
POINT
  5
7CFC
  8
DEFPOINTS
  6
CONTINUOUS
 62
     0
 10
2171.0992449999999
 20
2038.8471049999989
 30
0.0
  0
ENDBLK
  5
7C3A
  8
0
  0
BLOCK
  8
0
  2
*D6
 70
     1
 10
0.0
 20
0.0
 30
0.0
  3
*D6
  1

  0
LINE
  5
7CFD
  8
3
  6
CONTINUOUS
 62
     0
 10
941.09924499999977
 20
2275.7433729999998
 30
0.0
 11
941.09924499999977
 21
2008.8471050000001
 31
0.0
  0
LINE
  5
7CFE
  8
3
  6
CONTINUOUS
 62
     0
 10
2111.099244999999
 20
2038.8471049999989
 30
0.0
 11
1001.099245
 21
2038.8471049999989
 31
0.0
  0
INSERT
  5
7CFF
  8
3
  6
CONTINUOUS
 62
     0
  2
_OPEN
 10
2171.0992449999999
 20
2038.8471049999989
 30
0.0
 41
60.0
 42
60.0
 43
60.0
  0
INSERT
  5
7D00
  8
3
  6
CONTINUOUS
 62
     0
  2
_OPEN
 10
941.09924499999977
 20
2038.8471049999989
 30
0.0
 41
60.0
 42
60.0
 43
60.0
 50
180.0
  0
TEXT
  8
3
  40
90
  5
7D5C
  62
0
  72
0
  71
0
 10
1376.10
 20
1954.55
 30
0.000000
  1
1230
  0
POINT
  5
7D02
  8
DEFPOINTS
  6
CONTINUOUS
 62
     0
 10
2171.0992449999999
 20
2123.4873349999998
 30
0.0
  0
POINT
  5
7D03
  8
DEFPOINTS
  6
CONTINUOUS
 62
     0
 10
941.09924499999977
 20
2290.7433729999998
 30
0.0
  0
POINT
  5
7D04
  8
DEFPOINTS
  6
CONTINUOUS
 62
     0
 10
941.09924499999977
 20
2038.8471049999989
 30
0.0
  0
ENDBLK
  5
7C2F
  8
0
  0
BLOCK
  8
0
  2
*D7
 70
     1
 10
0.0
 20
0.0
 30
0.0
  3
*D7
  1

  0
LINE
  5
7D05
  8
3
  6
CONTINUOUS
 62
     0
 10
2766.099244999999
 20
3920.2433729999989
 30
0.0
 11
2766.099244999999
 21
4295.2039349999995
 31
0.0
  0
LINE
  5
7D06
  8
3
  6
CONTINUOUS
 62
     0
 10
2171.0992449999999
 20
4273.9587339999998
 30
0.0
 11
2171.0992449999999
 21
4295.2039349999995
 31
0.0
  0
LINE
  5
7D07
  8
3
  6
CONTINUOUS
 62
     0
 10
2706.0992449999999
 20
4265.2039349999995
 30
0.0
 11
2231.0992449999999
 21
4265.2039349999995
 31
0.0
  0
INSERT
  5
7D08
  8
3
  6
CONTINUOUS
 62
     0
  2
_OPEN
 10
2766.099244999999
 20
4265.2039349999995
 30
0.0
 41
60.0
 42
60.0
 43
60.0
  0
INSERT
  5
7D09
  8
3
  6
CONTINUOUS
 62
     0
  2
_OPEN
 10
2171.0992449999999
 20
4265.2039349999995
 30
0.0
 41
60.0
 42
60.0
 43
60.0
 50
180.0
  0
TEXT
  8
3
  40
90
  5
7D5D
  62
0
  72
0
  71
0
 10
2301.97
 20
4180.90
 30
0.000000
  1
595
  0
POINT
  5
7D0B
  8
DEFPOINTS
  6
CONTINUOUS
 62
     0
 10
2766.099244999999
 20
3905.2433729999989
 30
0.0
  0
POINT
  5
7D0C
  8
DEFPOINTS
  6
CONTINUOUS
 62
     0
 10
2171.0992449999999
 20
4258.9587340000007
 30
0.0
  0
POINT
  5
7D0D
  8
DEFPOINTS
  6
CONTINUOUS
 62
     0
 10
2171.0992449999999
 20
4265.2039349999995
 30
0.0
  0
ENDBLK
  5
7B76
  8
0
  0
BLOCK
  8
0
  2
*D8
 70
     1
 10
0.0
 20
0.0
 30
0.0
  3
*D8
  1

  0
LINE
  5
7D0E
  8
3
  6
CONTINUOUS
 62
     0
 10
4369.2854209999996
 20
3877.7433729999989
 30
0.0
 11
4369.2854209999996
 21
4324.2813829999986
 31
0.0
  0
LINE
  5
7D0F
  8
3
  6
CONTINUOUS
 62
     0
 10
4969.2854210000014
 20
3877.7433729999989
 30
0.0
 11
4969.2854210000014
 21
4324.2813829999986
 31
0.0
  0
LINE
  5
7D10
  8
3
  6
CONTINUOUS
 62
     0
 10
4429.2854210000014
 20
4294.2813829999996
 30
0.0
 11
4909.2854209999996
 21
4294.2813829999996
 31
0.0
  0
INSERT
  5
7D11
  8
3
  6
CONTINUOUS
 62
     0
  2
_OPEN
 10
4369.2854209999996
 20
4294.2813829999996
 30
0.0
 41
60.0
 42
60.0
 43
60.0
 50
180.0
  0
INSERT
  5
7D12
  8
3
  6
CONTINUOUS
 62
     0
  2
_OPEN
 10
4969.2854210000014
 20
4294.2813829999996
 30
0.0
 41
60.0
 42
60.0
 43
60.0
  0
TEXT
  8
3
  40
90
  5
7D5E
  62
0
  72
0
  71
0
 10
4484.37
 20
4209.98
 30
0.000000
  1
600
  0
POINT
  5
7D14
  8
DEFPOINTS
  6
CONTINUOUS
 62
     0
 10
4369.2854209999996
 20
3862.7433729999998
 30
0.0
  0
POINT
  5
7D15
  8
DEFPOINTS
  6
CONTINUOUS
 62
     0
 10
4969.2854210000014
 20
3862.7433729999998
 30
0.0
  0
POINT
  5
7D16
  8
DEFPOINTS
  6
CONTINUOUS
 62
     0
 10
4969.2854210000014
 20
4294.2813829999996
 30
0.0
  0
ENDBLK
  5
7B83
  8
0
  0
BLOCK
  8
0
  2
*D9
 70
     1
 10
0.0
 20
0.0
 30
0.0
  3
*D9
  1

  0
LINE
  5
7D17
  8
3
  6
CONTINUOUS
 62
     0
 10
4988.2854209999996
 20
3500.7433729999989
 30
0.0
 11
5450.9419420000013
 21
3500.7433729999989
 31
0.0
  0
LINE
  5
7D18
  8
3
  6
CONTINUOUS
 62
     0
 10
4988.2854209999996
 20
2650.7433729999998
 30
0.0
 11
5450.9419420000013
 21
2650.7433729999998
 31
0.0
  0
LINE
  5
7D19
  8
3
  6
CONTINUOUS
 62
     0
 10
5420.9419420000022
 20
3440.7433729999989
 30
0.0
 11
5420.9419420000022
 21
2710.7433729999989
 31
0.0
  0
INSERT
  5
7D1A
  8
3
  6
CONTINUOUS
 62
     0
  2
_OPEN
 10
5420.9419420000022
 20
3500.7433729999989
 30
0.0
 41
60.0
 42
60.0
 43
60.0
 50
90.0
  0
INSERT
  5
7D1B
  8
3
  6
CONTINUOUS
 62
     0
  2
_OPEN
 10
5420.9419420000022
 20
2650.7433729999998
 30
0.0
 41
60.0
 42
60.0
 43
60.0
 50
270.0
  0
TEXT
  8
3
  40
90
  5
7D5F
  62
0
  72
0
  71
0
 10
5165.94
 20
2913.73
 30
0.000000
  1
φ850
  0
POINT
  5
7D1D
  8
DEFPOINTS
  6
CONTINUOUS
 62
     0
 10
4973.2854209999996
 20
3500.7433729999989
 30
0.0
  0
POINT
  5
7D1E
  8
DEFPOINTS
  6
CONTINUOUS
 62
     0
 10
4973.2854209999996
 20
2650.7433729999998
 30
0.0
  0
POINT
  5
7D1F
  8
DEFPOINTS
  6
CONTINUOUS
 62
     0
 10
5420.9419420000022
 20
2650.7433729999998
 30
0.0
  0
ENDBLK
  5
7C65
  8
0
  0
BLOCK
  8
0
  2
*D10
 70
     1
 10
0.0
 20
0.0
 30
0.0
  3
*D10
  1

  0
LINE
  5
7C51
  8
0
  6
BYBLOCK
 62
     0
 10
4973.2854209999996
 20
3515.7433729999998
 30
0.0
 11
4973.2854209999996
 21
4513.284823
 31
0.0
  0
LINE
  5
7C52
  8
0
  6
BYBLOCK
 62
     0
 10
4669.2854209999996
 20
4444.7760520000002
 30
0.0
 11
4669.2854209999996
 21
4513.284823
 31
0.0
  0
LINE
  5
7C53
  8
0
  6
BYBLOCK
 62
     0
 10
4913.2854210000014
 20
4483.284823
 30
0.0
 11
4729.2854210000014
 21
4483.284823
 31
0.0
  0
TEXT
  5
7C54
  8
3
 62
     0
 10
4703.4282781428574
 20
4515.6273160992241
 30
0.0
 40
90.0
  1
304
  0
INSERT
  5
7C55
  8
0
  6
BYBLOCK
 62
     0
  2
_OPEN
 10
4973.2854209999996
 20
4483.284823
 30
0.0
 41
60.0
 42
60.0
 43
60.0
  0
INSERT
  5
7C56
  8
0
  6
BYBLOCK
 62
     0
  2
_OPEN
 10
4669.2854209999996
 20
4483.284823
 30
0.0
 41
60.0
 42
60.0
 43
60.0
 50
180.0
  0
POINT
  5
7C57
  8
DEFPOINTS
  6
BYBLOCK
 62
     0
 10
4973.2854209999996
 20
3500.7433729999989
 30
0.0
  0
POINT
  5
7C58
  8
DEFPOINTS
  6
BYBLOCK
 62
     0
 10
4669.2854209999996
 20
4429.7760520000002
 30
0.0
  0
POINT
  5
7C59
  8
DEFPOINTS
  6
BYBLOCK
 62
     0
 10
4669.2854209999996
 20
4483.284823
 30
0.0
  0
ENDBLK
  5
7C5A
  8
0
  0
BLOCK
  8
0
  2
*D11
 70
     1
 10
0.0
 20
0.0
 30
0.0
  3
*D11
  1

  0
LINE
  5
7D20
  8
3
  6
CONTINUOUS
 62
     0
 10
4004.285421
 20
4140.7433729999993
 30
0.0
 11
3788.3947820000012
 21
4140.7433729999993
 31
0.0
  0
LINE
  5
7D21
  8
3
  6
CONTINUOUS
 62
     0
 10
4004.285421
 20
2290.7433729999998
 30
0.0
 11
3788.3947819999999
 21
2290.7433729999998
 31
0.0
  0
LINE
  5
7D22
  8
3
  6
CONTINUOUS
 62
     0
 10
3818.3947819999999
 20
4080.7433729999989
 30
0.0
 11
3818.3947819999999
 21
2350.7433729999998
 31
0.0
  0
INSERT
  5
7D23
  8
3
  6
CONTINUOUS
 62
     0
  2
_OPEN
 10
3818.3947819999999
 20
4140.7433729999993
 30
0.0
 41
60.0
 42
60.0
 43
60.0
 50
90.0
  0
INSERT
  5
7D24
  8
3
  6
CONTINUOUS
 62
     0
  2
_OPEN
 10
3818.3947819999999
 20
2290.7433729999998
 30
0.0
 41
60.0
 42
60.0
 43
60.0
 50
270.0
  0
TEXT
  8
3
  40
90
  5
7D60
  62
0
  72
0
  71
0
 10
3563.39
 20
2935.54
 30
0.000000
  1
1850
  0
POINT
  5
7D26
  8
DEFPOINTS
  6
CONTINUOUS
 62
     0
 10
4019.285421
 20
4140.7433729999993
 30
0.0
  0
POINT
  5
7D27
  8
DEFPOINTS
  6
CONTINUOUS
 62
     0
 10
4019.285421
 20
2290.7433729999998
 30
0.0
  0
POINT
  5
7D28
  8
DEFPOINTS
  6
CONTINUOUS
 62
     0
 10
3818.3947819999999
 20
2290.7433729999998
 30
0.0
  0
ENDBLK
  5
7C25
  8
0
  0
BLOCK
  8
0
  2
*D12
 70
     1
 10
0.0
 20
0.0
 30
0.0
  3
*D12
  1

  0
LINE
  5
7D29
  8
3
  6
CONTINUOUS
 62
     0
 10
5169.2854210000014
 20
2275.7433729999998
 30
0.0
 11
5169.2854210000014
 21
1988.2465589999999
 31
0.0
  0
LINE
  5
7D2A
  8
3
  6
CONTINUOUS
 62
     0
 10
4669.2854209999996
 20
2134.095084
 30
0.0
 11
4669.2854209999996
 21
1988.2465589999999
 31
0.0
  0
LINE
  5
7D2B
  8
3
  6
CONTINUOUS
 62
     0
 10
5109.2854209999996
 20
2018.2465589999999
 30
0.0
 11
4729.2854210000014
 21
2018.2465589999999
 31
0.0
  0
INSERT
  5
7D2C
  8
3
  6
CONTINUOUS
 62
     0
  2
_OPEN
 10
5169.2854210000014
 20
2018.2465589999999
 30
0.0
 41
60.0
 42
60.0
 43
60.0
  0
INSERT
  5
7D2D
  8
3
  6
CONTINUOUS
 62
     0
  2
_OPEN
 10
4669.2854209999996
 20
2018.2465589999999
 30
0.0
 41
60.0
 42
60.0
 43
60.0
 50
180.0
  0
TEXT
  8
3
  40
90
  5
7D61
  62
0
  72
0
  71
0
 10
4753.54
 20
1933.95
 30
0.000000
  1
500
  0
POINT
  5
7D2F
  8
DEFPOINTS
  6
CONTINUOUS
 62
     0
 10
5169.2854210000014
 20
2290.7433729999998
 30
0.0
  0
POINT
  5
7D30
  8
DEFPOINTS
  6
CONTINUOUS
 62
     0
 10
4669.2854209999996
 20
2149.095084
 30
0.0
  0
POINT
  5
7D31
  8
DEFPOINTS
  6
CONTINUOUS
 62
     0
 10
4669.2854209999996
 20
2018.2465589999999
 30
0.0
  0
ENDBLK
  5
7BBC
  8
0
  0
BLOCK
  8
0
  2
*D13
 70
     1
 10
0.0
 20
0.0
 30
0.0
  3
*D13
  1

  0
LINE
  5
7D32
  8
3
  6
CONTINUOUS
 62
     0
 10
4019.285421
 20
2275.7433729999998
 30
0.0
 11
4019.285421
 21
1988.2465589999999
 31
0.0
  0
LINE
  5
7D33
  8
3
  6
CONTINUOUS
 62
     0
 10
4609.2854209999996
 20
2018.2465589999999
 30
0.0
 11
4079.285421
 21
2018.2465589999999
 31
0.0
  0
INSERT
  5
7D34
  8
3
  6
CONTINUOUS
 62
     0
  2
_OPEN
 10
4669.2854209999996
 20
2018.2465589999999
 30
0.0
 41
60.0
 42
60.0
 43
60.0
  0
INSERT
  5
7D35
  8
3
  6
CONTINUOUS
 62
     0
  2
_OPEN
 10
4019.285421
 20
2018.2465589999999
 30
0.0
 41
60.0
 42
60.0
 43
60.0
 50
180.0
  0
TEXT
  8
3
  40
90
  5
7D62
  62
0
  72
0
  71
0
 10
4164.29
 20
1933.95
 30
0.000000
  1
650
  0
POINT
  5
7D37
  8
DEFPOINTS
  6
CONTINUOUS
 62
     0
 10
4669.2854209999996
 20
2149.095084
 30
0.0
  0
POINT
  5
7D38
  8
DEFPOINTS
  6
CONTINUOUS
 62
     0
 10
4019.285421
 20
2290.7433729999998
 30
0.0
  0
POINT
  5
7D39
  8
DEFPOINTS
  6
CONTINUOUS
 62
     0
 10
4019.285421
 20
2018.2465589999999
 30
0.0
  0
ENDBLK
  5
7BC8
  8
0
  0
BLOCK
  8
0
  2
*D14
 70
     1
 10
0.0
 20
0.0
 30
0.0
  3
*D14
  1

  0
LINE
  5
7D3A
  8
3
  6
CONTINUOUS
 62
     0
 10
941.09924499999977
 20
5990.7433729999993
 30
0.0
 11
941.09924499999977
 21
6321.3858200000004
 31
0.0
  0
LINE
  5
7D3B
  8
3
  6
CONTINUOUS
 62
     0
 10
2891.099244999999
 20
5990.7433729999993
 30
0.0
 11
2891.099244999999
 21
6321.3858200000004
 31
0.0
  0
LINE
  5
7D3C
  8
3
  6
CONTINUOUS
 62
     0
 10
1001.099245
 20
6291.3858200000013
 30
0.0
 11
2831.0992449999999
 21
6291.3858200000013
 31
0.0
  0
INSERT
  5
7D3D
  8
3
  6
CONTINUOUS
 62
     0
  2
_OPEN
 10
941.09924499999977
 20
6291.3858200000013
 30
0.0
 41
60.0
 42
60.0
 43
60.0
 50
180.0
  0
INSERT
  5
7D3E
  8
3
  6
CONTINUOUS
 62
     0
  2
_OPEN
 10
2891.099244999999
 20
6291.3858200000013
 30
0.0
 41
60.0
 42
60.0
 43
60.0
  0
TEXT
  8
3
  40
90
  5
7D63
  62
0
  72
0
  71
0
 10
1719.99
 20
6207.09
 30
0.000000
  1
1950
  0
POINT
  5
7D40
  8
DEFPOINTS
  6
CONTINUOUS
 62
     0
 10
941.09924499999977
 20
5975.7433730000002
 30
0.0
  0
POINT
  5
7D41
  8
DEFPOINTS
  6
CONTINUOUS
 62
     0
 10
2891.099244999999
 20
5975.7433730000002
 30
0.0
  0
POINT
  5
7D42
  8
DEFPOINTS
  6
CONTINUOUS
 62
     0
 10
2891.099244999999
 20
6291.3858200000013
 30
0.0
  0
ENDBLK
  5
7C1A
  8
0
  0
BLOCK
  8
0
  2
*D15
 70
     1
 10
0.0
 20
0.0
 30
0.0
  3
*D15
  1

  0
LINE
  5
7D43
  8
3
  6
CONTINUOUS
 62
     0
 10
2906.0992449999999
 20
5975.7433730000002
 30
0.0
 11
3195.7896790000009
 21
5975.7433730000002
 31
0.0
  0
LINE
  5
7D44
  8
3
  6
CONTINUOUS
 62
     0
 10
2906.0992449999999
 20
4825.7433729999993
 30
0.0
 11
3195.789679
 21
4825.7433729999993
 31
0.0
  0
LINE
  5
7D45
  8
3
  6
CONTINUOUS
 62
     0
 10
3165.7896790000009
 20
5915.7433729999993
 30
0.0
 11
3165.789679
 21
4885.7433730000002
 31
0.0
  0
INSERT
  5
7D46
  8
3
  6
CONTINUOUS
 62
     0
  2
_OPEN
 10
3165.7896790000009
 20
5975.7433730000002
 30
0.0
 41
60.0
 42
60.0
 43
60.0
 50
90.0
  0
INSERT
  5
7D47
  8
3
  6
CONTINUOUS
 62
     0
  2
_OPEN
 10
3165.789679
 20
4825.7433729999993
 30
0.0
 41
60.0
 42
60.0
 43
60.0
 50
270.0
  0
TEXT
  8
3
  40
90
  5
7D64
  62
0
  72
0
  71
0
 10
2910.79
 20
5220.29
 30
0.000000
  1
1150
  0
POINT
  5
7D49
  8
DEFPOINTS
  6
CONTINUOUS
 62
     0
 10
2891.099244999999
 20
5975.7433730000002
 30
0.0
  0
POINT
  5
7D4A
  8
DEFPOINTS
  6
CONTINUOUS
 62
     0
 10
2891.099244999999
 20
4825.7433729999993
 30
0.0
  0
POINT
  5
7D4B
  8
DEFPOINTS
  6
CONTINUOUS
 62
     0
 10
3165.789679
 20
4825.7433729999993
 30
0.0
  0
ENDBLK
  5
7BE2
  8
0
  0
BLOCK
  8
0
  2
*D16
 70
     1
 10
0.0
 20
0.0
 30
0.0
  3
*D16
  1

  0
LINE
  5
7D4C
  8
3
 62
     0
 10
1507.0992450000001
 20
3142.7433729999998
 30
0.0
 11
1507.0992450000001
 21
4295.2039349999995
 31
0.0
  0
LINE
  5
7D4D
  8
3
 62
     0
 10
2111.099244999999
 20
4265.2039349999995
 30
0.0
 11
1567.0992450000001
 21
4265.2039349999995
 31
0.0
  0
INSERT
  5
7D4E
  8
3
 62
     0
  2
_OPEN
 10
2171.0992449999999
 20
4265.2039349999995
 30
0.0
 41
60.0
 42
60.0
 43
60.0
  0
INSERT
  5
7D4F
  8
3
 62
     0
  2
_OPEN
 10
1507.0992450000001
 20
4265.2039349999995
 30
0.0
 41
60.0
 42
60.0
 43
60.0
 50
180.0
  0
TEXT
  8
3
  40
90
  5
7D65
  62
0
  72
0
  71
0
 10
1659.10
 20
4180.90
 30
0.000000
  1
664
  0
POINT
  5
7D51
  8
DEFPOINTS
 62
     0
 10
2171.0992449999999
 20
4258.9587340000007
 30
0.0
  0
POINT
  5
7D52
  8
DEFPOINTS
 62
     0
 10
1507.0992450000001
 20
3127.7433729999998
 30
0.0
  0
POINT
  5
7D53
  8
DEFPOINTS
 62
     0
 10
1507.0992450000001
 20
4265.2039349999995
 30
0.0
  0
ENDBLK
  5
7C86
  8
0
  0
BLOCK
  8
0
  2
_DOT
 70
     0
 10
0.0
 20
0.0
 30
0.0
  3
_DOT
  1

  0
POLYLINE
  5
7CAD
  8
0
  6
BYBLOCK
 62
     0
 66
     1
 10
0.0
 20
0.0
 30
0.0
 70
     1
 40
0.5
 41
0.5
  0
VERTEX
  5
7D54
  8
0
  6
BYBLOCK
 62
     0
 10
-0.25
 20
0.0
 30
0.0
 42
1.0
  0
VERTEX
  5
7D55
  8
0
  6
BYBLOCK
 62
     0
 10
0.25
 20
0.0
 30
0.0
 42
1.0
  0
SEQEND
  5
7D56
  8
0
  6
BYBLOCK
 62
     0
  0
LINE
  5
7CAE
  8
0
  6
BYBLOCK
 62
     0
 10
-0.5
 20
0.0
 30
0.0
 11
-1.0
 21
0.0
 31
0.0
  0
ENDBLK
  5
7CB0
  8
0
  0
ENDSEC
  0
SECTION
  2
ENTITIES
  0
LINE
  5
7A7C
  8
1
  6
CONTINUOUS
 10
4084.2854209999991
 20
4075.7433729999989
 30
0.0
 11
4084.2854209999991
 21
2355.7433729999998
 31
0.0
  0
LINE
  5
7A7D
  8
1
  6
CONTINUOUS
 10
5104.2854210000014
 20
4075.7433729999989
 30
0.0
 11
5104.2854210000014
 21
2355.7433729999998
 31
0.0
  0
LINE
  5
7A7E
  8
1
  6
CONTINUOUS
 10
1006.099244999999
 20
4075.7433729999989
 30
0.0
 11
1006.099244999999
 21
2355.7433729999998
 31
0.0
  0
LINE
  5
7A7F
  8
1
  6
CONTINUOUS
 10
2826.099244999999
 20
4075.7433729999989
 30
0.0
 11
2826.099244999999
 21
2355.7433729999998
 31
0.0
  0
LINE
  5
7A80
  8
1
  6
CONTINUOUS
 10
941.09924499999977
 20
4140.7433729999993
 30
0.0
 11
941.09924499999977
 21
2290.7433729999998
 31
0.0
  0
LINE
  5
7A81
  8
1
  6
CONTINUOUS
 10
2891.099244999999
 20
4140.7433729999993
 30
0.0
 11
2891.099244999999
 21
2290.7433729999998
 31
0.0
  0
LINE
  5
7A82
  8
1
  6
CONTINUOUS
 10
5169.2854210000014
 20
4140.7433729999993
 30
0.0
 11
5169.2854210000014
 21
2290.7433729999998
 31
0.0
  0
LINE
  5
7A83
  8
1
  6
CONTINUOUS
 10
4019.285421
 20
4140.7433729999993
 30
0.0
 11
4019.285421
 21
2290.7433729999998
 31
0.0
  0
ARC
  5
7A84
  8
1
  6
CONTINUOUS
 10
2223.099244999999
 20
3127.7433729999998
 30
0.0
 40
717.88999999999987
 50
94.150000000000006
 51
184.75999999999991
  0
LINE
  5
7A85
  8
1
  6
CONTINUOUS
 10
2766.099244999999
 20
2995.2433729999998
 30
0.0
 11
2766.099244999999
 21
3905.2433729999989
 31
0.0
  0
LINE
  5
7A88
  8
1
  6
CONTINUOUS
 10
5104.2854210000014
 20
2355.7433729999998
 30
0.0
 11
4084.2854209999991
 21
2355.7433729999998
 31
0.0
  0
LINE
  5
7A89
  8
1
  6
CONTINUOUS
 10
5169.2854210000014
 20
2290.7433729999998
 30
0.0
 11
4019.285421
 21
2290.7433729999998
 31
0.0
  0
LINE
  5
7A8A
  8
1
  6
CONTINUOUS
 10
4259.2854209999996
 20
3730.7433729999998
 30
0.0
 11
4109.2854209999996
 21
3730.7433729999998
 31
0.0
  0
LINE
  5
7A8B
  8
1
  6
CONTINUOUS
 10
5021.2854209999996
 20
2480.7433729999998
 30
0.0
 11
4109.2854209999996
 21
2480.7433729999998
 31
0.0
  0
LINE
  5
7A8C
  8
1
  6
CONTINUOUS
 10
2826.099244999999
 20
2355.7433729999998
 30
0.0
 11
1006.099244999999
 21
2355.7433729999998
 31
0.0
  0
LINE
  5
7A8D
  8
1
  6
CONTINUOUS
 10
2891.099244999999
 20
2290.7433729999998
 30
0.0
 11
941.09924499999977
 21
2290.7433729999998
 31
0.0
  0
LINE
  5
7A8E
  8
1
  6
CONTINUOUS
 10
2227.3892449999989
 20
2883.8233730000002
 30
0.0
 11
1289.5792449999999
 21
2608.773373
 31
0.0
  0
LINE
  5
7A8F
  8
1
  6
CONTINUOUS
 10
2068.3192450000001
 20
3247.313373
 30
0.0
 11
1229.929245
 21
2745.083372999999
 31
0.0
  0
LINE
  5
7A90
  8
1
  6
CONTINUOUS
 10
2021.099244999999
 20
3730.7433729999998
 30
0.0
 11
1111.099244999999
 21
2780.7433729999998
 31
0.0
  0
LINE
  5
7A92
  8
1
  6
CONTINUOUS
 10
2691.0992449999999
 20
2380.7433729999998
 30
0.0
 11
1091.099244999999
 21
2380.7433729999998
 31
0.0
  0
LINE
  5
7A94
  8
1
  6
CONTINUOUS
 10
2691.099244999999
 20
2480.7433729999998
 30
0.0
 11
1091.099244999999
 21
2480.7433729999998
 31
0.0
  0
ARC
  5
7A95
  8
1
  6
CONTINUOUS
 10
2127.099244999999
 20
3119.7433729999998
 30
0.0
 40
621.54999999999995
 50
184.75999999999991
 51
276.5
  0
LINE
  5
7A96
  8
1
  6
CONTINUOUS
 10
1111.099244999999
 20
2780.7433729999998
 30
0.0
 11
1111.099244999999
 21
2480.7433729999998
 31
0.0
  0
LINE
  5
7A97
  8
1
  6
CONTINUOUS
 10
1422.479245
 20
2480.7433729999998
 30
0.0
 11
1422.479245
 21
2538.7433729999998
 31
0.0
  0
LINE
  5
7A98
  8
1
  6
CONTINUOUS
 10
1114.479245
 20
2480.7433729999998
 30
0.0
 11
1114.479245
 21
2538.7433729999998
 31
0.0
  0
ARC
  5
7A99
  8
1
  6
CONTINUOUS
 10
1268.4792449999991
 20
2680.7433729999998
 30
0.0
 40
162.0
 50
324.97000000000003
 51
215.02999999999989
  0
LINE
  5
7A9B
  8
1
  6
CONTINUOUS
 10
1114.479245
 20
2480.7433729999998
 30
0.0
 11
1422.479245
 21
2480.7433729999998
 31
0.0
  0
LINE
  5
7A9C
  8
1
  6
CONTINUOUS
 10
1091.099244999999
 20
2480.7433729999998
 30
0.0
 11
1091.099244999999
 21
2380.7433729999998
 31
0.0
  0
LINE
  5
7A9D
  8
2
  6
CENTER
 10
1193.479245
 20
2680.7433729999998
 30
0.0
 11
1343.479245
 21
2680.7433729999998
 31
0.0
  0
CIRCLE
  5
7A9E
  8
1
  6
CONTINUOUS
 10
1268.4792449999991
 20
2680.7433729999998
 30
0.0
 40
75.0
  0
LINE
  5
7A9F
  8
2
  6
CENTER
 10
1268.4792449999991
 20
2605.7433729999998
 30
0.0
 11
1268.4792449999991
 21
2755.7433729999998
 31
0.0
  0
LINE
  5
7AA0
  8
1
  6
CONTINUOUS
 10
1114.479245
 20
2538.7433729999998
 30
0.0
 11
1135.819244999999
 21
2587.7633729999998
 31
0.0
  0
LINE
  5
7AA1
  8
1
  6
CONTINUOUS
 10
1422.479245
 20
2538.7433729999998
 30
0.0
 11
1401.1292449999989
 21
2587.7633729999998
 31
0.0
  0
ARC
  5
7AA2
  8
1
  6
CONTINUOUS
 10
2136.0992449999999
 20
3040.7433729999998
 30
0.0
 40
542.03999999999985
 50
276.5
 51
359.67999999999989
  0
LINE
  5
7AA3
  8
1
  6
CONTINUOUS
 10
2766.099244999999
 20
3862.7433729999998
 30
0.0
 11
2171.0992449999999
 21
3843.7433729999998
 31
0.0
  0
LINE
  5
7AA4
  8
1
  6
CONTINUOUS
 10
2591.0992449999999
 20
2480.7433729999998
 30
0.0
 11
2591.0992449999999
 21
3730.7433729999998
 31
0.0
  0
LINE
  5
7AA5
  8
1
  6
CONTINUOUS
 10
2591.0992449999999
 20
3730.7433729999998
 30
0.0
 11
2021.099244999999
 21
3730.7433729999998
 31
0.0
  0
CIRCLE
  5
7AA6
  8
1
  6
CONTINUOUS
 10
2171.0992449999999
 20
3075.7433729999998
 30
0.0
 40
200.0
  0
LINE
  5
7AA8
  8
2
  6
CENTER
 10
5195.4267090000003
 20
3075.7433729999998
 30
0.0
 11
4012.8323059999998
 21
3075.7433729999998
 31
0.0
  0
LINE
  5
7AA9
  8
2
  6
CENTER
 10
2171.0992449999999
 20
6252.5959439999997
 30
0.0
 11
2171.0992449999999
 21
4707.2701800000004
 31
0.0
  0
LINE
  5
7AAB
  8
1
  6
CONTINUOUS
 10
4109.2854209999996
 20
3730.7433729999998
 30
0.0
 11
4109.2854209999996
 21
2480.7433729999998
 31
0.0
  0
LINE
  5
7AAE
  8
1
  6
CONTINUOUS
 10
2691.0992449999999
 20
2480.7433729999998
 30
0.0
 11
2691.0992449999999
 21
2380.7433729999998
 31
0.0
  0
LINE
  5
7AAF
  8
1
  6
CONTINUOUS
 10
2726.0992449999999
 20
3037.7433729999998
 30
0.0
 11
2726.0992449999999
 21
3862.7433729999998
 31
0.0
  0
LINE
  5
7AB0
  8
1
  6
CONTINUOUS
 10
2678.1292450000001
 20
3037.7433729999998
 30
0.0
 11
2766.099244999999
 21
3037.7433729999998
 31
0.0
  0
LINE
  5
7AB1
  8
1
  6
CONTINUOUS
 10
5021.2854209999996
 20
2380.7433729999998
 30
0.0
 11
4201.2854209999996
 21
2380.7433729999998
 31
0.0
  0
LINE
  5
7AB2
  8
1
  6
CONTINUOUS
 10
4259.2854209999996
 20
3730.7433729999998
 30
0.0
 11
4259.2854209999996
 21
2480.7433729999998
 31
0.0
  0
LINE
  5
7AB3
  8
1
  6
CONTINUOUS
 10
4969.2854210000014
 20
3862.7433729999998
 30
0.0
 11
4969.2854210000014
 21
2480.7433729999998
 31
0.0
  0
LINE
  5
7AB4
  8
1
  6
CONTINUOUS
 10
4369.2854209999996
 20
3862.7433729999998
 30
0.0
 11
4369.2854209999996
 21
2480.7433729999998
 31
0.0
  0
LINE
  5
7AB5
  8
1
  6
CONTINUOUS
 10
4201.2854209999996
 20
2480.7433729999998
 30
0.0
 11
4201.2854209999996
 21
2380.7433729999998
 31
0.0
  0
LINE
  5
7AB6
  8
1
  6
CONTINUOUS
 10
4369.2854209999996
 20
3037.7433729999998
 30
0.0
 11
4969.2854210000014
 21
3862.7433729999998
 31
0.0
  0
LINE
  5
7AB7
  8
1
  6
CONTINUOUS
 10
4969.2854210000014
 20
3037.7433729999998
 30
0.0
 11
4369.2854209999996
 21
3862.7433729999998
 31
0.0
  0
LINE
  5
7AB8
  8
1
  6
CONTINUOUS
 10
4369.2854209999996
 20
3037.7433729999998
 30
0.0
 11
4969.2854210000014
 21
3037.7433729999998
 31
0.0
  0
LINE
  5
7AB9
  8
1
  6
CONTINUOUS
 10
4369.2854209999996
 20
3862.7433729999998
 30
0.0
 11
4969.2854210000014
 21
3862.7433729999998
 31
0.0
  0
LINE
  5
7ABA
  8
1
  6
CONTINUOUS
 10
4219.2854210000014
 20
3275.7433729999998
 30
0.0
 11
4219.2854210000014
 21
2875.7433729999998
 31
0.0
  0
LINE
  5
7ABB
  8
1
  6
CONTINUOUS
 10
4149.2854209999996
 20
3275.7433729999998
 30
0.0
 11
4149.2854209999996
 21
2875.7433729999998
 31
0.0
  0
LINE
  5
7ABC
  8
1
  6
CONTINUOUS
 10
4369.2854209999996
 20
3054.7433729999998
 30
0.0
 11
4219.2854210000014
 21
3054.7433729999998
 31
0.0
  0
LINE
  5
7ABD
  8
1
  6
CONTINUOUS
 10
4369.2854209999996
 20
3096.7433729999998
 30
0.0
 11
4219.2854210000014
 21
3096.7433729999998
 31
0.0
  0
LINE
  5
7ABE
  8
1
  6
CONTINUOUS
 10
4219.2854210000014
 20
2659.7433729999998
 30
0.0
 11
4369.2854209999996
 21
2659.7433729999998
 31
0.0
  0
LINE
  5
7ABF
  8
1
  6
CONTINUOUS
 10
4219.2854210000014
 20
2701.7433729999998
 30
0.0
 11
4369.2854209999996
 21
2701.7433729999998
 31
0.0
  0
LINE
  5
7AC0
  8
1
  6
CONTINUOUS
 10
4219.2854210000014
 20
2755.7433729999998
 30
0.0
 11
4219.2854210000014
 21
2605.7433729999998
 31
0.0
  0
LINE
  5
7AC1
  8
1
  6
CONTINUOUS
 10
4149.2854209999996
 20
2755.7433729999998
 30
0.0
 11
4149.2854209999996
 21
2605.7433729999998
 31
0.0
  0
LINE
  5
7AC2
  8
1
  6
CONTINUOUS
 10
4149.2854209999996
 20
2605.7433729999998
 30
0.0
 11
4219.2854210000014
 21
2605.7433729999998
 31
0.0
  0
LINE
  5
7AC3
  8
1
  6
CONTINUOUS
 10
4149.2854209999996
 20
2755.7433729999998
 30
0.0
 11
4219.2854210000014
 21
2755.7433729999998
 31
0.0
  0
LINE
  5
7AC4
  8
1
  6
CONTINUOUS
 10
4149.2854209999996
 20
2875.7433729999998
 30
0.0
 11
4219.2854210000014
 21
2875.7433729999998
 31
0.0
  0
LINE
  5
7AC5
  8
1
  6
CONTINUOUS
 10
4149.2854209999996
 20
3275.7433729999998
 30
0.0
 11
4219.2854210000014
 21
3275.7433729999998
 31
0.0
  0
LINE
  5
7AC6
  8
1
  6
CONTINUOUS
 10
5021.2854209999996
 20
2480.7433729999998
 30
0.0
 11
5021.2854209999996
 21
2380.7433729999998
 31
0.0
  0
LINE
  5
7AC7
  8
1
  6
CONTINUOUS
 10
5104.2854210000014
 20
4075.7433729999989
 30
0.0
 11
4084.2854209999991
 21
4075.7433729999989
 31
0.0
  0
LINE
  5
7AC8
  8
1
  6
CONTINUOUS
 10
5169.2854210000014
 20
4140.7433729999993
 30
0.0
 11
4019.285421
 21
4140.7433729999993
 31
0.0
  0
LINE
  5
7AC9
  8
1
  6
CONTINUOUS
 10
1006.099244999999
 20
5910.7433729999993
 30
0.0
 11
2826.099244999999
 21
5910.7433729999993
 31
0.0
  0
LINE
  5
7ACA
  8
1
  6
CONTINUOUS
 10
1006.099244999999
 20
4890.7433729999993
 30
0.0
 11
2826.099244999999
 21
4890.7433729999993
 31
0.0
  0
LINE
  5
7ACB
  8
1
  6
CONTINUOUS
 10
2826.099244999999
 20
4075.7433729999989
 30
0.0
 11
1006.099244999999
 21
4075.7433729999989
 31
0.0
  0
LINE
  5
7ACC
  8
1
  6
CONTINUOUS
 10
2891.099244999999
 20
4140.7433729999993
 30
0.0
 11
941.09924499999977
 21
4140.7433729999993
 31
0.0
  0
LINE
  5
7ACD
  8
1
  6
CONTINUOUS
 10
941.09924499999977
 20
5975.7433730000002
 30
0.0
 11
2891.099244999999
 21
5975.7433730000002
 31
0.0
  0
LINE
  5
7ACE
  8
1
  6
CONTINUOUS
 10
941.09924499999977
 20
4825.7433729999993
 30
0.0
 11
2891.099244999999
 21
4825.7433729999993
 31
0.0
  0
LINE
  5
7ACF
  8
1
  6
CONTINUOUS
 10
1343.479245
 20
5007.7433730000002
 30
0.0
 11
1971.099244999999
 21
5007.7433730000002
 31
0.0
  0
LINE
  5
7AD0
  8
1
  6
CONTINUOUS
 10
1111.099244999999
 20
5065.7433730000002
 30
0.0
 11
2591.0992449999999
 21
5065.7433730000002
 31
0.0
  0
LINE
  5
7AD1
  8
1
  6
CONTINUOUS
 10
1111.099244999999
 20
4915.7433729999993
 30
0.0
 11
2591.0992449999999
 21
4915.7433729999993
 31
0.0
  0
LINE
  5
7AD2
  8
1
  6
CONTINUOUS
 10
1091.099244999999
 20
5827.7433729999993
 30
0.0
 11
2691.0992449999999
 21
5827.7433729999993
 31
0.0
  0
LINE
  5
7AD3
  8
1
  6
CONTINUOUS
 10
1505.209245
 20
5175.7433729999993
 30
0.0
 11
2766.099244999999
 21
5175.7433729999993
 31
0.0
  0
LINE
  5
7AD4
  8
1
  6
CONTINUOUS
 10
1505.209245
 20
5775.7433730000002
 30
0.0
 11
2766.099244999999
 21
5775.7433730000002
 31
0.0
  0
LINE
  5
7AD5
  8
1
  6
CONTINUOUS
 10
1006.099244999999
 20
5910.7433729999993
 30
0.0
 11
1006.099244999999
 21
4890.7433729999993
 31
0.0
  0
LINE
  5
7AD6
  8
1
  6
CONTINUOUS
 10
941.09924499999977
 20
5975.7433730000002
 30
0.0
 11
941.09924499999977
 21
4825.7433729999993
 31
0.0
  0
LINE
  5
7AD7
  8
1
  6
CONTINUOUS
 10
1505.209245
 20
5175.7433729999993
 30
0.0
 11
1505.209245
 21
5775.7433730000002
 31
0.0
  0
LINE
  5
7AD8
  8
1
  6
CONTINUOUS
 10
1091.099244999999
 20
5827.7433729999993
 30
0.0
 11
1091.099244999999
 21
5007.7433730000002
 31
0.0
  0
LINE
  5
7AD9
  8
1
  6
CONTINUOUS
 10
1106.479245
 20
5113.7433730000002
 30
0.0
 11
1106.479245
 21
5598.7433729999993
 31
0.0
  0
LINE
  5
7ADA
  8
1
  6
CONTINUOUS
 10
1430.479245
 20
5113.7433730000002
 30
0.0
 11
1430.479245
 21
5598.7433729999993
 31
0.0
  0
LINE
  5
7ADB
  8
1
  6
CONTINUOUS
 10
1343.479245
 20
4955.7433729999993
 30
0.0
 11
1193.479245
 21
4955.7433729999993
 31
0.0
  0
LINE
  5
7ADC
  8
1
  6
CONTINUOUS
 10
1343.479245
 20
5025.7433730000002
 30
0.0
 11
1193.479245
 21
5025.7433730000002
 31
0.0
  0
LINE
  5
7ADD
  8
1
  6
CONTINUOUS
 10
1106.479245
 20
5113.7433730000002
 30
0.0
 11
1430.479245
 21
5113.7433730000002
 31
0.0
  0
LINE
  5
7ADE
  8
1
  6
CONTINUOUS
 10
1193.479245
 20
4955.7433729999993
 30
0.0
 11
1193.479245
 21
5025.7433730000002
 31
0.0
  0
LINE
  5
7ADF
  8
1
  6
CONTINUOUS
 10
1111.099244999999
 20
5065.7433730000002
 30
0.0
 11
1111.099244999999
 21
4915.7433729999993
 31
0.0
  0
LINE
  5
7AE0
  8
1
  6
CONTINUOUS
 10
1091.099244999999
 20
5007.7433730000002
 30
0.0
 11
1193.479245
 21
5007.7433730000002
 31
0.0
  0
LINE
  5
7AE1
  8
1
  6
CONTINUOUS
 10
1247.479245
 20
5025.7433730000002
 30
0.0
 11
1247.479245
 21
5113.7433730000002
 31
0.0
  0
LINE
  5
7AE2
  8
1
  6
CONTINUOUS
 10
1289.479245
 20
5025.7433730000002
 30
0.0
 11
1289.479245
 21
5113.7433730000002
 31
0.0
  0
LINE
  5
7AE3
  8
1
  6
CONTINUOUS
 10
1343.479245
 20
4955.7433729999993
 30
0.0
 11
1343.479245
 21
5025.7433730000002
 31
0.0
  0
LINE
  5
7AE4
  8
1
  6
CONTINUOUS
 10
1106.479245
 20
5598.7433729999993
 30
0.0
 11
1430.479245
 21
5598.7433729999993
 31
0.0
  0
LINE
  5
7AE5
  8
1
  6
CONTINUOUS
 10
2371.099244999999
 20
5007.7433730000002
 30
0.0
 11
2691.0992449999999
 21
5007.7433730000002
 31
0.0
  0
LINE
  5
7AE6
  8
1
  6
CONTINUOUS
 10
2371.099244999999
 20
4955.7433729999993
 30
0.0
 11
1971.099244999999
 21
4955.7433729999993
 31
0.0
  0
LINE
  5
7AE7
  8
1
  6
CONTINUOUS
 10
2371.099244999999
 20
5025.7433730000002
 30
0.0
 11
1971.099244999999
 21
5025.7433730000002
 31
0.0
  0
LINE
  5
7AE8
  8
1
  6
CONTINUOUS
 10
2150.099244999999
 20
5025.7433730000002
 30
0.0
 11
2150.099244999999
 21
5175.7433729999993
 31
0.0
  0
LINE
  5
7AE9
  8
1
  6
CONTINUOUS
 10
1971.099244999999
 20
4955.7433729999993
 30
0.0
 11
1971.099244999999
 21
5025.7433730000002
 31
0.0
  0
LINE
  5
7AEA
  8
1
  6
CONTINUOUS
 10
2192.0992449999999
 20
5025.7433730000002
 30
0.0
 11
2192.0992449999999
 21
5175.7433729999993
 31
0.0
  0
LINE
  5
7AEB
  8
1
  6
CONTINUOUS
 10
2371.099244999999
 20
4955.7433729999993
 30
0.0
 11
2371.099244999999
 21
5025.7433730000002
 31
0.0
  0
LINE
  5
7AEC
  8
1
  6
CONTINUOUS
 10
2591.0992449999999
 20
4915.7433729999993
 30
0.0
 11
2591.0992449999999
 21
5065.7433730000002
 31
0.0
  0
LINE
  5
7AED
  8
1
  6
CONTINUOUS
 10
2826.099244999999
 20
5910.7433729999993
 30
0.0
 11
2826.099244999999
 21
4890.7433729999993
 31
0.0
  0
LINE
  5
7AEE
  8
1
  6
CONTINUOUS
 10
2891.099244999999
 20
5975.7433730000002
 30
0.0
 11
2891.099244999999
 21
4825.7433729999993
 31
0.0
  0
LINE
  5
7AEF
  8
1
  6
CONTINUOUS
 10
2766.099244999999
 20
5133.7433729999993
 30
0.0
 11
2766.099244999999
 21
5817.7433729999993
 31
0.0
  0
LINE
  5
7AF0
  8
1
  6
CONTINUOUS
 10
2691.0992449999999
 20
5175.7433729999993
 30
0.0
 11
2691.0992449999999
 21
5007.7433730000002
 31
0.0
  0
LINE
  5
7AF1
  8
1
  6
CONTINUOUS
 10
2691.0992449999999
 20
5827.7433729999993
 30
0.0
 11
2691.0992449999999
 21
5775.7433730000002
 31
0.0
  0
LINE
  5
7AF2
  8
2
  6
CENTER
 10
4669.2854209999996
 20
4307.2420849999999
 30
0.0
 11
4669.2854209999996
 21
2149.095084
 31
0.0
  0
LINE
  5
7AF3
  8
2
  6
CENTER
 10
873.79049800000007
 20
5475.7433730000002
 30
0.0
 11
3015.8553459999998
 21
5475.7433730000002
 31
0.0
  0
LINE
  5
7AF4
  8
2
  6
CENTER
 10
2171.0992449999999
 20
4258.9587340000007
 30
0.0
 11
2171.0992449999999
 21
2123.4873349999998
 31
0.0
  0
LINE
  5
7AF5
  8
2
  6
CENTER
 10
2966.0064889999999
 20
3075.7433729999998
 30
0.0
 11
891.04085799999996
 21
3075.7433729999998
 31
0.0
  0
LINE
  5
7AF6
  8
4
  6
CONTINUOUS
 10
5550.0
 20
1500.0
 30
0.0
 11
5550.0
 21
900.0
 31
0.0
  0
LINE
  5
7AF7
  8
4
  6
CONTINUOUS
 10
3450.0
 20
1500.0
 30
0.0
 11
3450.0
 21
900.0
 31
0.0
  0
LINE
  5
7AF8
  8
4
  6
CONTINUOUS
 10
1950.0
 20
1500.0
 30
0.0
 11
1950.0
 21
900.0
 31
0.0
  0
LINE
  5
7AFB
  8
4
  6
CONTINUOUS
 10
1950.0
 20
900.0
 30
0.0
 11
5550.0
 21
900.0
 31
0.0
  0
LINE
  5
7AFC
  8
4
  6
CONTINUOUS
 10
1950.0
 20
1200.0
 30
0.0
 11
5550.0
 21
1200.0
 31
0.0
  0
TEXT
  5
7AFD
  8
4
  6
CONTINUOUS
 10
2065.5062429999989
 20
1294.6290779999999
 30
0.0
 40
150.0
  1
機器名称
  0
TEXT
  5
7AFE
  8
4
  6
CONTINUOUS
 10
2058.7743179999989
 20
964.9354699999999
 30
0.0
 40
150.0
  1
機器型番
  0
TEXT
  5
7AFF
  8
4
  6
CONTINUOUS
 10
3533.0362359999999
 20
1267.7153069999999
 30
0.0
 40
150.0
  1
ミツヤ多翼送風機
  0
TEXT
  5
7B00
  8
4
  6
CONTINUOUS
 10
3559.9634869999991
 20
951.47875299999987
 30
0.0
 40
150.0
  1
MF#5-4
  0
TEXT
  5
7B02
  8
4
  6
CONTINUOUS
 10
2079.2773269999989
 20
7150.2865239999992
 30
0.0
 40
162.0
  1
天井吊枠防振ベット
  0
TEXT
  5
7B03
  8
4
  6
CONTINUOUS
 10
948.50278000000014
 20
7601.6429289999996
 30
0.0
 40
216.0
  1
ベルト駆動式片吸込両持多翼ファン
  0
LINE
  5
7B04
  8
4
  6
CONTINUOUS
 10
750.0
 20
7408.2262629999996
 30
0.0
 11
5550.0
 21
7408.2262629999996
 31
0.0
  0
LINE
  5
7B05
  8
4
  6
CONTINUOUS
 10
750.0
 20
8008.2262629999996
 30
0.0
 11
5550.0
 21
8008.2262629999996
 31
0.0
  0
LINE
  5
7B06
  8
4
  6
CONTINUOUS
 10
1950.0
 20
1500.0
 30
0.0
 11
5550.0
 21
1500.0
 31
0.0
  0
LINE
  5
7B07
  8
4
  6
CONTINUOUS
 10
750.0
 20
8008.2262629999996
 30
0.0
 11
750.0
 21
7408.2262629999996
 31
0.0
  0
TEXT
  5
7B08
  8
4
  6
CONTINUOUS
 10
771.70082999999988
 20
7146.9584329999998
 30
0.0
 40
162.0
  1
右回転右横向
  0
TEXT
  5
7B09
  8
4
  6
CONTINUOUS
 10
4406.9086779999989
 20
8118.1832439999989
 30
0.0
 40
168.0
  1
No.
  0
TEXT
  5
7B0A
  8
4
  6
CONTINUOUS
 10
4088.7857329999988
 20
7150.2865239999992
 30
0.0
 40
162.0
  1
縮尺：1/30
  0
LINE
  5
7B0B
  8
4
  6
CONTINUOUS
 10
5550.0
 20
8008.2262629999996
 30
0.0
 11
5550.0
 21
7408.2262629999996
 31
0.0
  0
LINE
  5
7B0D
  8
4
  6
CONTINUOUS
 10
4321.8522670000002
 20
8043.7907490000007
 30
0.0
 11
4321.8522670000002
 21
8359.9567849999985
 31
0.0
  0
LINE
  5
7B0E
  8
4
  6
CONTINUOUS
 10
4321.8522670000002
 20
8359.9567849999985
 30
0.0
 11
5550.0
 21
8359.9567849999985
 31
0.0
  0
LINE
  5
7B0F
  8
4
  6
CONTINUOUS
 10
5550.0
 20
8359.9567849999985
 30
0.0
 11
5550.0
 21
8043.7907490000007
 31
0.0
  0
LINE
  5
7B10
  8
4
  6
CONTINUOUS
 10
5550.0
 20
8043.7907490000007
 30
0.0
 11
4321.8522670000002
 21
8043.7907490000007
 31
0.0
  0
DIMENSION
  5
7B28
  8
3
  6
CONTINUOUS
  2
*D1
 10
3114.8668630000002
 20
3037.7433729999998
 30
0.0
 11
3114.8668630000002
 21
3385.6110049999988
 31
0.0
 70
   128
 13
2766.099244999999
 23
3862.7433729999998
 33
0.0
 14
2766.099244999999
 24
3037.7433729999998
 34
0.0
 50
90.0
1001
ACAD
1000
DSTYLE
1002
{
1070
   287
1070
     3
1070
    40
1040
30.0
1070
   143
1040
0.039
1070
   172
1070
     1
1070
   271
1070
     0
1070
   279
1070
     0
1070
   288
1070
     1
1002
}
  0
DIMENSION
  5
7B35
  8
3
  6
CONTINUOUS
  2
*D2
 10
3304.0086700000002
 20
3075.7433729999989
 30
0.0
 11
3304.0086699999988
 21
3378.3416490000009
 31
0.0
 70
   128
 13
2826.099244999999
 23
3862.7433729999998
 33
0.0
 14
2966.0064889999999
 24
3075.7433729999998
 34
0.0
 50
90.0
1001
ACAD
1000
DSTYLE
1002
{
1070
   287
1070
     3
1070
    40
1040
30.0
1070
   143
1040
0.039
1070
   172
1070
     1
1070
   271
1070
     0
1070
   279
1070
     0
1070
   288
1070
     1
1002
}
  0
DIMENSION
  5
7B41
  8
3
  6
CONTINUOUS
  2
*D3
 10
3304.0086699999988
 20
2380.7433729999998
 30
0.0
 11
3229.0086699999988
 21
2728.2433730000012
 31
0.0
 70
     0
 13
2966.0064889999999
 23
3075.7433729999998
 33
0.0
 14
2691.0992449999999
 24
2380.7433729999998
 34
0.0
 50
90.0
1001
ACAD
1000
DSTYLE
1002
{
1070
   287
1070
     4
1070
    40
1040
30.0
1070
    75
1070
     1
1070
   143
1040
0.039
1070
   172
1070
     1
1070
   271
1070
     0
1070
   279
1070
     1
1070
   288
1070
     1
1002
}
  0
DIMENSION
  5
7B51
  8
3
  6
CONTINUOUS
  2
*D4
 10
3305.7138450000002
 20
2290.7433729999989
 30
0.0
 11
3305.7138449999989
 21
2067.886230142858
 31
0.0
 70
   128
 13
2691.0992449999999
 23
2380.7433729999998
 33
0.0
 14
2891.099244999999
 24
2290.7433729999998
 34
0.0
 50
90.0
1001
ACAD
1000
DSTYLE
1002
{
1070
   287
1070
     3
1070
    40
1040
30.0
1070
   143
1040
0.039
1070
   172
1070
     1
1070
   271
1070
     0
1070
   279
1070
     0
1070
   288
1070
     1
1002
}
  0
DIMENSION
  5
7B5E
  8
3
  6
CONTINUOUS
  2
*D5
 10
2171.0992449999999
 20
2038.8471049999989
 30
0.0
 11
2532.8920840000001
 21
2038.8471049999989
 31
0.0
 70
   128
 13
2891.099244999999
 23
2290.7433729999998
 33
0.0
 14
2171.0992449999999
 24
2123.4873349999998
 34
0.0
1001
ACAD
1000
DSTYLE
1002
{
1070
   287
1070
     3
1070
    40
1040
30.0
1070
   143
1040
0.039
1070
   172
1070
     1
1070
   271
1070
     0
1070
   279
1070
     0
1070
   288
1070
     1
1002
}
  0
DIMENSION
  5
7B6A
  8
3
  6
CONTINUOUS
  2
*D6
 10
941.09924499999977
 20
2038.8471049999989
 30
0.0
 11
1556.099244999999
 21
2113.8471049999998
 31
0.0
 70
     0
 13
2171.0992449999999
 23
2123.4873349999998
 33
0.0
 14
941.09924499999977
 24
2290.7433729999998
 34
0.0
1001
ACAD
1000
DSTYLE
1002
{
1070
   287
1070
     4
1070
    40
1040
30.0
1070
    75
1070
     1
1070
   143
1040
0.039
1070
   172
1070
     1
1070
   271
1070
     0
1070
   279
1070
     1
1070
   288
1070
     1
1002
}
  0
DIMENSION
  5
7B77
  8
3
  6
CONTINUOUS
  2
*D7
 10
2171.0992449999999
 20
4265.2039349999995
 30
0.0
 11
2481.9693019999991
 21
4265.2039349999995
 31
0.0
 70
   128
 13
2766.099244999999
 23
3905.2433729999989
 33
0.0
 14
2171.0992449999999
 24
4258.9587340000007
 34
0.0
1001
ACAD
1000
DSTYLE
1002
{
1070
   287
1070
     3
1070
    40
1040
30.0
1070
   143
1040
0.039
1070
   172
1070
     1
1070
   271
1070
     0
1070
   279
1070
     0
1070
   288
1070
     1
1002
}
  0
DIMENSION
  5
7B84
  8
3
  6
CONTINUOUS
  2
*D8
 10
4969.2854210000014
 20
4294.2813829999996
 30
0.0
 11
4664.3747129999992
 21
4294.2813829999996
 31
0.0
 70
   128
 13
4369.2854209999996
 23
3862.7433729999998
 33
0.0
 14
4969.2854210000014
 24
3862.7433729999998
 34
0.0
1001
ACAD
1000
DSTYLE
1002
{
1070
   287
1070
     3
1070
    40
1040
30.0
1070
   143
1040
0.039
1070
   172
1070
     1
1070
   271
1070
     0
1070
   279
1070
     0
1070
   288
1070
     1
1002
}
  0
LINE
  5
7B85
  8
1
  6
CONTINUOUS
 10
4973.2854209999996
 20
3500.7433729999989
 30
0.0
 11
4973.2854209999996
 21
2650.7433729999998
 31
0.0
  0
DIMENSION
  5
7B94
  8
3
  6
CONTINUOUS
  2
*D9
 10
5420.9419420000022
 20
2650.7433729999998
 30
0.0
 11
5420.9419420000004
 21
3073.028397
 31
0.0
 70
   128
 13
4973.2854209999996
 23
3500.7433729999989
 33
0.0
 14
4973.2854209999996
 24
2650.7433729999998
 34
0.0
 50
90.0
1001
ACAD
1000
DSTYLE
1002
{
1070
   287
1070
     3
1070
     3
1000
φ<>
1070
    40
1040
30.0
1070
   143
1040
0.039
1070
   172
1070
     1
1070
   271
1070
     0
1070
   279
1070
     0
1070
   288
1070
     1
1002
}
  0
DIMENSION
  5
7BA3
  8
3
  6
CONTINUOUS
  2
*D10
 10
4669.2854209999996
 20
4483.284823
 30
0.0
 11
4821.2854209999996
 21
4560.6273160992241
 31
0.0
 70
   128
 13
4973.2854209999996
 23
3500.7433729999989
 33
0.0
 14
4669.2854209999996
 24
4429.7760520000002
 34
0.0
1001
ACAD
1000
DSTYLE
1002
{
1070
   288
1070
     1
1070
   172
1070
     1
1070
    40
1040
30.0
1070
   271
1070
     0
1070
   143
1040
0.039
1002
}
  0
DIMENSION
  5
7BB0
  8
3
  6
CONTINUOUS
  2
*D11
 10
3818.3947819999999
 20
2290.7433729999998
 30
0.0
 11
3818.3947819999999
 21
3094.8364879999999
 31
0.0
 70
   128
 13
4019.285421
 23
4140.7433729999993
 33
0.0
 14
4019.285421
 24
2290.7433729999998
 34
0.0
 50
90.0
1001
ACAD
1000
DSTYLE
1002
{
1070
   287
1070
     3
1070
    40
1040
30.0
1070
   143
1040
0.039
1070
   172
1070
     1
1070
   271
1070
     0
1070
   279
1070
     0
1070
   288
1070
     1
1002
}
  0
DIMENSION
  5
7BBD
  8
3
  6
CONTINUOUS
  2
*D12
 10
4669.2854209999996
 20
2018.2465589999999
 30
0.0
 11
4933.5380509999986
 21
2018.2465589999999
 31
0.0
 70
   128
 13
5169.2854210000014
 23
2290.7433729999998
 33
0.0
 14
4669.2854209999996
 24
2149.095084
 34
0.0
1001
ACAD
1000
DSTYLE
1002
{
1070
   287
1070
     3
1070
    40
1040
30.0
1070
   143
1040
0.039
1070
   172
1070
     1
1070
   271
1070
     0
1070
   279
1070
     0
1070
   288
1070
     1
1002
}
  0
DIMENSION
  5
7BC9
  8
3
  6
CONTINUOUS
  2
*D13
 10
4019.285421
 20
2018.2465589999999
 30
0.0
 11
4344.2854210000014
 21
2093.2465590000002
 31
0.0
 70
     0
 13
4669.2854209999996
 23
2149.095084
 33
0.0
 14
4019.285421
 24
2290.7433729999998
 34
0.0
1001
ACAD
1000
DSTYLE
1002
{
1070
   287
1070
     4
1070
    40
1040
30.0
1070
    75
1070
     1
1070
   143
1040
0.039
1070
   172
1070
     1
1070
   271
1070
     0
1070
   279
1070
     1
1070
   288
1070
     1
1002
}
  0
DIMENSION
  5
7BD6
  8
3
  6
CONTINUOUS
  2
*D14
 10
2891.099244999999
 20
6291.3858200000013
 30
0.0
 11
1899.9945230000001
 21
6291.3858200000013
 31
0.0
 70
   128
 13
941.09924499999977
 23
5975.7433730000002
 33
0.0
 14
2891.099244999999
 24
5975.7433730000002
 34
0.0
1001
ACAD
1000
DSTYLE
1002
{
1070
   287
1070
     3
1070
    40
1040
30.0
1070
   143
1040
0.039
1070
   172
1070
     1
1070
   271
1070
     0
1070
   279
1070
     0
1070
   288
1070
     1
1002
}
  0
DIMENSION
  5
7BE3
  8
3
  6
CONTINUOUS
  2
*D15
 10
3165.789679
 20
4825.7433729999993
 30
0.0
 11
3165.7896789999991
 21
5379.5890499999987
 31
0.0
 70
   128
 13
2891.099244999999
 23
5975.7433730000002
 33
0.0
 14
2891.099244999999
 24
4825.7433729999993
 34
0.0
 50
90.0
1001
ACAD
1000
DSTYLE
1002
{
1070
   287
1070
     3
1070
    40
1040
30.0
1070
   143
1040
0.039
1070
   172
1070
     1
1070
   271
1070
     0
1070
   279
1070
     0
1070
   288
1070
     1
1002
}
  0
DIMENSION
  5
7C71
  8
3
  2
*D16
 10
1507.0992450000001
 20
4265.2039349999995
 30
0.0
 11
1839.099244999999
 21
4340.2039349999995
 31
0.0
 70
     0
 13
2171.0992449999999
 23
4258.9587340000007
 33
0.0
 14
1507.0992450000001
 24
3127.7433729999998
 34
0.0
1001
ACAD
1000
DSTYLE
1002
{
1070
   287
1070
     4
1070
    40
1040
30.0
1070
    75
1070
     1
1070
   143
1040
0.039
1070
   172
1070
     1
1070
   271
1070
     0
1070
   279
1070
     1
1070
   288
1070
     1
1002
}
  0
LINE
  5
7CB8
  8
1
  6
CONTINUOUS
 10
1671.099244999999
 20
3480.7433730000012
 30
0.0
 11
2671.099244999999
 21
3480.7433730000012
 31
0.0
  0
LINE
  5
7CB9
  8
1
 10
1671.099244999999
 20
3480.7433730000012
 30
0.0
 11
1671.099244999999
 21
2480.7433729999998
 31
0.0
  0
LINE
  5
7CBA
  8
1
 10
2671.099244999999
 20
3480.7433730000012
 30
0.0
 11
2671.0992449999999
 21
2480.7433729999998
 31
0.0
  0
ENDSEC
  0
EOF
