  0
SECTION
  2
HEADER
  9
$ACADVER
  1
AC1009
  9
$INSBASE
 10
0.0
 20
0.0
 30
0.0
  9
$EXTMIN
 10
750.0
 20
900.0
 30
0.0
  9
$EXTMAX
 10
5714.6880444396211
 20
8359.9567845000001
 30
0.0
  9
$LIMMIN
 10
0.0
 20
0.0
  9
$LIMMAX
 10
297.0
 20
210.0
  9
$ORTHOMODE
 70
     0
  9
$REGENMODE
 70
     1
  9
$FILLMODE
 70
     0
  9
$QTEXTMODE
 70
     0
  9
$MIRRTEXT
 70
     1
  9
$DRAGMODE
 70
     2
  9
$LTSCALE
 40
100.0
  9
$OSMODE
 70
    37
  9
$ATTMODE
 70
     1
  9
$TEXTSIZE
 40
180.0
  9
$TRACEWID
 40
0.05
  9
$TEXTSTYLE
  7
STANDARD
  9
$CLAYER
  8
3
  9
$CELTYPE
  6
BYLAYER
  9
$CECOLOR
 62
   256
  9
$DIMSCALE
 40
30.0
  9
$DIMASZ
 40
2.0
  9
$DIMEXO
 40
0.5
  9
$DIMDLI
 40
10.0
  9
$DIMRND
 40
0.0
  9
$DIMDLE
 40
0.0
  9
$DIMEXE
 40
1.0
  9
$DIMTP
 40
1.0
  9
$DIMTM
 40
1.0
  9
$DIMTXT
 40
3.0
  9
$DIMCEN
 40
0.0
  9
$DIMTSZ
 40
0.0
  9
$DIMTOL
 70
     0
  9
$DIMLIM
 70
     0
  9
$DIMTIH
 70
     0
  9
$DIMTOH
 70
     0
  9
$DIMSE1
 70
     0
  9
$DIMSE2
 70
     0
  9
$DIMTAD
 70
     1
  9
$DIMZIN
 70
     8
  9
$DIMBLK
  1

  9
$DIMASO
 70
     1
  9
$DIMSHO
 70
     1
  9
$DIMPOST
  1

  9
$DIMAPOST
  1

  9
$DIMALT
 70
     0
  9
$DIMALTD
 70
     2
  9
$DIMALTF
 40
0.039
  9
$DIMLFAC
 40
1.0
  9
$DIMTOFL
 70
     1
  9
$DIMTVP
 40
0.0
  9
$DIMTIX
 70
     0
  9
$DIMSOXD
 70
     0
  9
$DIMSAH
 70
     1
  9
$DIMBLK1
  1
OPEN
  9
$DIMBLK2
  1
OPEN
  9
$DIMSTYLE
  2
IGA
  9
$DIMCLRD
 70
     0
  9
$DIMCLRE
 70
     0
  9
$DIMCLRT
 70
     0
  9
$DIMTFAC
 40
10.0
  9
$DIMGAP
 40
1.0
  9
$LUNITS
 70
     2
  9
$LUPREC
 70
     3
  9
$SKETCHINC
 40
0.1
  9
$FILLETRAD
 40
50.0
  9
$AUNITS
 70
     0
  9
$AUPREC
 70
     0
  9
$MENU
  1
acad
  9
$ELEVATION
 40
0.0
  9
$PELEVATION
 40
0.0
  9
$THICKNESS
 40
0.0
  9
$LIMCHECK
 70
     0
  9
$BLIPMODE
 70
     0
  9
$CHAMFERA
 40
0.5
  9
$CHAMFERB
 40
0.5
  9
$SKPOLY
 70
     0
  9
$TDCREATE
 40
2450766.497650926
  9
$TDUPDATE
 40
2454953.7747907522
  9
$TDINDWG
 40
0.0077862847
  9
$TDUSRTIMER
 40
0.0077862847
  9
$USRTIMER
 70
     1
  9
$ANGBASE
 50
0.0
  9
$ANGDIR
 70
     0
  9
$PDMODE
 70
     0
  9
$PDSIZE
 40
0.0
  9
$PLINEWID
 40
0.0
  9
$COORDS
 70
     1
  9
$SPLFRAME
 70
     0
  9
$SPLINETYPE
 70
     6
  9
$SPLINESEGS
 70
     8
  9
$ATTDIA
 70
     0
  9
$ATTREQ
 70
     1
  9
$HANDLING
 70
 10241
  9
$HANDSEED
  5
7F95
  9
$SURFTAB1
 70
     6
  9
$SURFTAB2
 70
     6
  9
$SURFTYPE
 70
     6
  9
$SURFU
 70
     6
  9
$SURFV
 70
     6
  9
$UCSNAME
  2

  9
$UCSORG
 10
0.0
 20
0.0
 30
0.0
  9
$UCSXDIR
 10
1.0
 20
0.0
 30
0.0
  9
$UCSYDIR
 10
0.0
 20
1.0
 30
0.0
  9
$PUCSNAME
  2

  9
$PUCSORG
 10
0.0
 20
0.0
 30
0.0
  9
$PUCSXDIR
 10
1.0
 20
0.0
 30
0.0
  9
$PUCSYDIR
 10
0.0
 20
1.0
 30
0.0
  9
$USERI1
 70
     0
  9
$USERI2
 70
     0
  9
$USERI3
 70
     0
  9
$USERI4
 70
     0
  9
$USERI5
 70
     0
  9
$USERR1
 40
0.0
  9
$USERR2
 40
0.0
  9
$USERR3
 40
0.0
  9
$USERR4
 40
0.0
  9
$USERR5
 40
0.0
  9
$WORLDVIEW
 70
     1
  9
$SHADEDGE
 70
     3
  9
$SHADEDIF
 70
    70
  9
$TILEMODE
 70
     1
  9
$MAXACTVP
 70
    16
  9
$PLIMCHECK
 70
     0
  9
$PEXTMIN
 10
1.0000000000000000E+020
 20
1.0000000000000000E+020
 30
1.0000000000000000E+020
  9
$PEXTMAX
 10
-1.0000000000000000E+020
 20
-1.0000000000000000E+020
 30
-1.0000000000000000E+020
  9
$PLIMMIN
 10
0.0
 20
0.0
  9
$PLIMMAX
 10
12.0
 20
9.0
  9
$UNITMODE
 70
     0
  9
$VISRETAIN
 70
     0
  9
$PLINEGEN
 70
     0
  9
$PSLTSCALE
 70
     1
  0
ENDSEC
  0
SECTION
  2
TABLES
  0
TABLE
  2
VPORT
 70
     2
  0
VPORT
  2
*ACTIVE
 70
     0
 10
0.0
 20
0.0
 11
1.0
 21
1.0
 12
9520.3463829345801
 22
4629.9199391884194
 13
0.0
 23
0.0
 14
10.0
 24
10.0
 15
10.0
 25
10.0
 16
0.0
 26
0.0
 36
1.0
 17
0.0
 27
0.0
 37
0.0
 40
7517.0614410801718
 41
3.1666666666666661
 42
50.0
 43
0.0
 44
0.0
 50
0.0
 51
0.0
 71
     0
 72
   100
 73
     1
 74
     0
 75
     0
 76
     0
 77
     0
 78
     0
  0
ENDTAB
  0
TABLE
  2
LTYPE
 70
     2
  0
LTYPE
  2
CONTINUOUS
 70
     0
  3
Solid line
 72
    65
 73
     0
 40
0.0
  0
LTYPE
  2
CENTER
 70
     0
  3
____ _ ____ _ ____ _ ____ _ ____ _ ____ _ ____ 
 72
    65
 73
     4
 40
2.0
 49
1.25
 49
-0.25
 49
0.25
 49
-0.25
  0
ENDTAB
  0
TABLE
  2
LAYER
 70
     6
  0
LAYER
  2
0
 70
     0
 62
     7
  6
CONTINUOUS
  0
LAYER
  2
3
 70
     0
 62
     2
  6
CONTINUOUS
  0
LAYER
  2
2
 70
     0
 62
     3
  6
CENTER
  0
LAYER
  2
1
 70
     0
 62
     4
  6
CONTINUOUS
  0
LAYER
  2
4
 70
     0
 62
     7
  6
CONTINUOUS
  0
LAYER
  2
DEFPOINTS
 70
     0
 62
     7
  6
CONTINUOUS
  0
ENDTAB
  0
TABLE
  2
STYLE
 70
     1
  0
STYLE
  2
STANDARD
 70
     0
 40
0.0
 41
1.0
 50
0.0
 71
     0
 42
180.0
  3
simplex.shx
  4
extfont.shx
  0
ENDTAB
  0
TABLE
  2
VIEW
 70
     0
  0
ENDTAB
  0
TABLE
  2
UCS
 70
     0
  0
ENDTAB
  0
TABLE
  2
APPID
 70
     1
  0
APPID
  2
ACAD
 70
     0
  0
ENDTAB
  0
TABLE
  2
DIMSTYLE
 70
     1
  0
DIMSTYLE
  2
IGA
 70
     0
  3

  4

  5

  6
OPEN
  7
OPEN
 40
2.0
 41
2.0
 42
0.5
 43
10.0
 44
1.0
 45
0.0
 46
0.0
 47
1.0
 48
1.0
140
3.0
141
0.0
142
0.0
143
0.03937
144
1.0
145
0.0
146
10.0
147
1.0
 71
     0
 72
     0
 73
     0
 74
     0
 75
     0
 76
     0
 77
     1
 78
     8
170
     0
171
     2
172
     0
173
     1
174
     0
175
     0
176
     0
177
     0
178
     0
  0
ENDTAB
  0
ENDSEC
  0
SECTION
  2
BLOCKS
  0
BLOCK
  8
0
  2
$MODEL_SPACE
 70
     0
 10
0.0
 20
0.0
 30
0.0
  3
$MODEL_SPACE
  1

  0
ENDBLK
  5
1B
  8
0
  0
BLOCK
 67
     1
  8
0
  2
$PAPER_SPACE
 70
     0
 10
0.0
 20
0.0
 30
0.0
  3
$PAPER_SPACE
  1

  0
ENDBLK
  5
18
 67
     1
  8
0
  0
BLOCK
  8
0
  2
_OPEN
 70
     0
 10
0.0
 20
0.0
 30
0.0
  3
_OPEN
  1

  0
LINE
  5
7B13
  8
0
  6
BYBLOCK
 62
     0
 10
-1.0
 20
0.166667
 30
0.0
 11
0.0
 21
0.0
 31
0.0
  0
LINE
  5
7B14
  8
0
  6
BYBLOCK
 62
     0
 10
0.0
 20
0.0
 30
0.0
 11
-1.0
 21
-0.166667
 31
0.0
  0
LINE
  5
7B15
  8
0
  6
BYBLOCK
 62
     0
 10
0.0
 20
0.0
 30
0.0
 11
-1.0
 21
0.0
 31
0.0
  0
ENDBLK
  5
7B16
  8
0
  0
BLOCK
  8
0
  2
*D1
 70
     1
 10
0.0
 20
0.0
 30
0.0
  3
*D1
  1

  0
LINE
  5
7EF0
  8
3
  6
CONTINUOUS
 62
     0
 10
2696.2693673101599
 20
2326.561161598996
 30
0.0
 11
3098.424652310161
 21
2326.561161598996
 31
0.0
  0
LINE
  5
7EF1
  8
3
  6
CONTINUOUS
 62
     0
 10
2696.2693673101599
 20
3151.5611615989969
 30
0.0
 11
3098.4246523101619
 21
3151.5611615989969
 31
0.0
  0
LINE
  5
7EF2
  8
3
  6
CONTINUOUS
 62
     0
 10
3068.424652310161
 20
2386.5611615989969
 30
0.0
 11
3068.4246523101619
 21
3091.5611615989969
 31
0.0
  0
INSERT
  5
7EF3
  8
3
  6
CONTINUOUS
 62
     0
  2
_OPEN
 10
3068.424652310161
 20
2326.561161598996
 30
0.0
 41
60.0
 42
60.0
 43
60.0
 50
270.0
  0
INSERT
  5
7EF4
  8
3
  6
CONTINUOUS
 62
     0
  2
_OPEN
 10
3068.4246523101619
 20
3151.5611615989969
 30
0.0
 41
60.0
 42
60.0
 43
60.0
 50
90.0
  0
TEXT
  8
3
  40
90
  5
7F85
  62
0
  72
0
  71
0
 10
2813.42
 20
2576.77
 30
0.000000
  1
825
  0
POINT
  5
7EF6
  8
DEFPOINTS
  6
CONTINUOUS
 62
     0
 10
2681.2693673101599
 20
2326.561161598996
 30
0.0
  0
POINT
  5
7EF7
  8
DEFPOINTS
  6
CONTINUOUS
 62
     0
 10
2681.2693673101599
 20
3151.5611615989969
 30
0.0
  0
POINT
  5
7EF8
  8
DEFPOINTS
  6
CONTINUOUS
 62
     0
 10
3068.4246523101619
 20
3151.5611615989969
 30
0.0
  0
ENDBLK
  5
7E30
  8
0
  0
BLOCK
  8
0
  2
*D2
 70
     1
 10
0.0
 20
0.0
 30
0.0
  3
*D2
  1

  0
LINE
  5
7EF9
  8
3
  6
CONTINUOUS
 62
     0
 10
2930.5309163101588
 20
3113.5611615989969
 30
0.0
 11
3359.10034331016
 21
3113.5611615989969
 31
0.0
  0
LINE
  5
7EFA
  8
3
  6
CONTINUOUS
 62
     0
 10
2756.2693673101599
 20
2326.561161598996
 30
0.0
 11
3359.10034331016
 21
2326.561161598996
 31
0.0
  0
LINE
  5
7EFB
  8
3
  6
CONTINUOUS
 62
     0
 10
3329.10034331016
 20
3053.5611615989969
 30
0.0
 11
3329.10034331016
 21
2386.561161598996
 31
0.0
  0
INSERT
  5
7EFC
  8
3
  6
CONTINUOUS
 62
     0
  2
_OPEN
 10
3329.100343310161
 20
3113.5611615989969
 30
0.0
 41
60.0
 42
60.0
 43
60.0
 50
90.0
  0
INSERT
  5
7EFD
  8
3
  6
CONTINUOUS
 62
     0
  2
_OPEN
 10
3329.10034331016
 20
2326.561161598996
 30
0.0
 41
60.0
 42
60.0
 43
60.0
 50
270.0
  0
TEXT
  8
3
  40
90
  5
7F86
  62
0
  72
0
  71
0
 10
3074.10
 20
2568.63
 30
0.000000
  1
787
  0
POINT
  5
7EFF
  8
DEFPOINTS
  6
CONTINUOUS
 62
     0
 10
2915.5309163101588
 20
3113.5611615989969
 30
0.0
  0
POINT
  5
7F00
  8
DEFPOINTS
  6
CONTINUOUS
 62
     0
 10
2741.2693673101599
 20
2326.561161598996
 30
0.0
  0
POINT
  5
7F01
  8
DEFPOINTS
  6
CONTINUOUS
 62
     0
 10
3329.10034331016
 20
2326.561161598996
 30
0.0
  0
ENDBLK
  5
7E25
  8
0
  0
BLOCK
  8
0
  2
*D3
 70
     1
 10
0.0
 20
0.0
 30
0.0
  3
*D3
  1

  0
LINE
  5
7F02
  8
3
  6
CONTINUOUS
 62
     0
 10
2681.2693673101599
 20
3209.0611615989969
 30
0.0
 11
2681.2693673101599
 21
4093.0922265989971
 31
0.0
  0
LINE
  5
7F03
  8
3
  6
CONTINUOUS
 62
     0
 10
2086.2693673101599
 20
3920.6012776882649
 30
0.0
 11
2086.2693673101599
 21
4093.0922265989971
 31
0.0
  0
LINE
  5
7F04
  8
3
  6
CONTINUOUS
 62
     0
 10
2621.2693673101599
 20
4063.0922265989971
 30
0.0
 11
2146.2693673101599
 21
4063.0922265989971
 31
0.0
  0
INSERT
  5
7F05
  8
3
  6
CONTINUOUS
 62
     0
  2
_OPEN
 10
2681.2693673101599
 20
4063.0922265989971
 30
0.0
 41
60.0
 42
60.0
 43
60.0
  0
INSERT
  5
7F06
  8
3
  6
CONTINUOUS
 62
     0
  2
_OPEN
 10
2086.2693673101599
 20
4063.0922265989971
 30
0.0
 41
60.0
 42
60.0
 43
60.0
 50
180.0
  0
TEXT
  8
3
  40
90
  5
7F87
  62
0
  72
0
  71
0
 10
2180.56
 20
3978.79
 30
0.000000
  1
595
  0
POINT
  5
7F08
  8
DEFPOINTS
  6
CONTINUOUS
 62
     0
 10
2681.2693673101599
 20
3194.0611615989969
 30
0.0
  0
POINT
  5
7F09
  8
DEFPOINTS
  6
CONTINUOUS
 62
     0
 10
2086.2693673101599
 20
3905.6012776882649
 30
0.0
  0
POINT
  5
7F0A
  8
DEFPOINTS
  6
CONTINUOUS
 62
     0
 10
2086.2693673101599
 20
4063.0922265989971
 30
0.0
  0
ENDBLK
  5
7E1A
  8
0
  0
BLOCK
  8
0
  2
*D4
 70
     1
 10
0.0
 20
0.0
 30
0.0
  3
*D4
  1

  0
LINE
  5
7F0B
  8
3
  6
CONTINUOUS
 62
     0
 10
2806.2693673101599
 20
2038.5611615989969
 30
0.0
 11
2806.2693673101599
 21
1726.763330393286
 31
0.0
  0
LINE
  5
7F0C
  8
3
  6
CONTINUOUS
 62
     0
 10
2086.2693673101599
 20
1845.7677615989969
 30
0.0
 11
2086.2693673101599
 21
1726.763330393286
 31
0.0
  0
LINE
  5
7F0D
  8
3
  6
CONTINUOUS
 62
     0
 10
2746.2693673101599
 20
1756.763330393286
 30
0.0
 11
2146.2693673101599
 21
1756.763330393286
 31
0.0
  0
INSERT
  5
7F0E
  8
3
  6
CONTINUOUS
 62
     0
  2
_OPEN
 10
2806.2693673101599
 20
1756.763330393286
 30
0.0
 41
60.0
 42
60.0
 43
60.0
  0
INSERT
  5
7F0F
  8
3
  6
CONTINUOUS
 62
     0
  2
_OPEN
 10
2086.2693673101599
 20
1756.763330393286
 30
0.0
 41
60.0
 42
60.0
 43
60.0
 50
180.0
  0
TEXT
  8
3
  40
90
  5
7F88
  62
0
  72
0
  71
0
 10
2285.61
 20
1672.46
 30
0.000000
  1
720
  0
POINT
  5
7F11
  8
DEFPOINTS
  6
CONTINUOUS
 62
     0
 10
2806.2693673101599
 20
2053.5611615989969
 30
0.0
  0
POINT
  5
7F12
  8
DEFPOINTS
  6
CONTINUOUS
 62
     0
 10
2086.2693673101599
 20
1860.7677615989969
 30
0.0
  0
POINT
  5
7F13
  8
DEFPOINTS
  6
CONTINUOUS
 62
     0
 10
2086.2693673101599
 20
1756.763330393286
 30
0.0
  0
ENDBLK
  5
7EAB
  8
0
  0
BLOCK
  8
0
  2
*D5
 70
     1
 10
0.0
 20
0.0
 30
0.0
  3
*D5
  1

  0
LINE
  5
7F14
  8
3
  6
CONTINUOUS
 62
     0
 10
2086.2693673101599
 20
1845.7677615989969
 30
0.0
 11
2086.2693673101599
 21
1726.763330393286
 31
0.0
  0
LINE
  5
7F15
  8
3
  6
CONTINUOUS
 62
     0
 10
856.26936731016042
 20
2038.5611615989969
 30
0.0
 11
856.26936731016042
 21
1726.763330393286
 31
0.0
  0
LINE
  5
7F16
  8
3
  6
CONTINUOUS
 62
     0
 10
2026.2693673101601
 20
1756.763330393286
 30
0.0
 11
916.26936731016031
 21
1756.763330393286
 31
0.0
  0
INSERT
  5
7F17
  8
3
  6
CONTINUOUS
 62
     0
  2
_OPEN
 10
2086.2693673101599
 20
1756.763330393286
 30
0.0
 41
60.0
 42
60.0
 43
60.0
  0
INSERT
  5
7F18
  8
3
  6
CONTINUOUS
 62
     0
  2
_OPEN
 10
856.26936731016042
 20
1756.763330393286
 30
0.0
 41
60.0
 42
60.0
 43
60.0
 50
180.0
  0
TEXT
  8
3
  40
90
  5
7F89
  62
0
  72
0
  71
0
 10
1291.27
 20
1672.46
 30
0.000000
  1
1230
  0
POINT
  5
7F1A
  8
DEFPOINTS
  6
CONTINUOUS
 62
     0
 10
2086.2693673101599
 20
1860.7677615989969
 30
0.0
  0
POINT
  5
7F1B
  8
DEFPOINTS
  6
CONTINUOUS
 62
     0
 10
856.26936731016042
 20
2053.5611615989969
 30
0.0
  0
POINT
  5
7F1C
  8
DEFPOINTS
  6
CONTINUOUS
 62
     0
 10
856.26936731016042
 20
1756.763330393286
 30
0.0
  0
ENDBLK
  5
7EA0
  8
0
  0
BLOCK
  8
0
  2
*D6
 70
     1
 10
0.0
 20
0.0
 30
0.0
  3
*D6
  1

  0
LINE
  5
7F1D
  8
3
  6
CONTINUOUS
 62
     0
 10
4611.5363644396211
 20
3706.1111615989962
 30
0.0
 11
4611.5363644396211
 21
4117.5159125989976
 31
0.0
  0
LINE
  5
7F1E
  8
3
  6
CONTINUOUS
 62
     0
 10
5211.5363644396211
 20
3706.1111615989962
 30
0.0
 11
5211.5363644396211
 21
4117.5159125989976
 31
0.0
  0
LINE
  5
7F1F
  8
3
  6
CONTINUOUS
 62
     0
 10
4671.5363644396211
 20
4087.5159125989971
 30
0.0
 11
5151.5363644396211
 21
4087.5159125989971
 31
0.0
  0
INSERT
  5
7F20
  8
3
  6
CONTINUOUS
 62
     0
  2
_OPEN
 10
4611.5363644396211
 20
4087.5159125989971
 30
0.0
 41
60.0
 42
60.0
 43
60.0
 50
180.0
  0
INSERT
  5
7F21
  8
3
  6
CONTINUOUS
 62
     0
  2
_OPEN
 10
5211.5363644396211
 20
4087.5159125989971
 30
0.0
 41
60.0
 42
60.0
 43
60.0
  0
TEXT
  8
3
  40
90
  5
7F8A
  62
0
  72
0
  71
0
 10
4705.82
 20
4003.22
 30
0.000000
  1
600
  0
POINT
  5
7F23
  8
DEFPOINTS
  6
CONTINUOUS
 62
     0
 10
4611.5363644396211
 20
3691.1111615989962
 30
0.0
  0
POINT
  5
7F24
  8
DEFPOINTS
  6
CONTINUOUS
 62
     0
 10
5211.5363644396211
 20
3691.1111615989962
 30
0.0
  0
POINT
  5
7F25
  8
DEFPOINTS
  6
CONTINUOUS
 62
     0
 10
5211.5363644396211
 20
4087.5159125989971
 30
0.0
  0
ENDBLK
  5
7DF9
  8
0
  0
BLOCK
  8
0
  2
*D7
 70
     1
 10
0.0
 20
0.0
 30
0.0
  3
*D7
  1

  0
LINE
  5
7F26
  8
3
  6
CONTINUOUS
 62
     0
 10
5230.5363644396211
 20
3538.5611615989969
 30
0.0
 11
5714.688044439622
 21
3538.5611615989969
 31
0.0
  0
LINE
  5
7F27
  8
3
  6
CONTINUOUS
 62
     0
 10
5230.5363644396211
 20
2688.5611615989969
 30
0.0
 11
5714.688044439622
 21
2688.5611615989969
 31
0.0
  0
LINE
  5
7F28
  8
3
  6
CONTINUOUS
 62
     0
 10
5684.688044439622
 20
3478.5611615989969
 30
0.0
 11
5684.688044439622
 21
2748.5611615989969
 31
0.0
  0
INSERT
  5
7F29
  8
3
  6
CONTINUOUS
 62
     0
  2
_OPEN
 10
5684.688044439622
 20
3538.5611615989969
 30
0.0
 41
60.0
 42
60.0
 43
60.0
 50
90.0
  0
INSERT
  5
7F2A
  8
3
  6
CONTINUOUS
 62
     0
  2
_OPEN
 10
5684.688044439622
 20
2688.5611615989969
 30
0.0
 41
60.0
 42
60.0
 43
60.0
 50
270.0
  0
TEXT
  8
3
  40
90
  5
7F8B
  62
0
  72
0
  71
0
 10
5429.69
 20
2951.27
 30
0.000000
  1
φ850
  0
POINT
  5
7F2C
  8
DEFPOINTS
  6
CONTINUOUS
 62
     0
 10
5215.5363644396211
 20
3538.5611615989969
 30
0.0
  0
POINT
  5
7F2D
  8
DEFPOINTS
  6
CONTINUOUS
 62
     0
 10
5215.5363644396211
 20
2688.5611615989969
 30
0.0
  0
POINT
  5
7F2E
  8
DEFPOINTS
  6
CONTINUOUS
 62
     0
 10
5684.688044439622
 20
2688.5611615989969
 30
0.0
  0
ENDBLK
  5
7E51
  8
0
  0
BLOCK
  8
0
  2
*D8
 70
     1
 10
0.0
 20
0.0
 30
0.0
  3
*D8
  1

  0
LINE
  5
7E53
  8
0
  6
BYBLOCK
 62
     0
 10
5215.5363644396211
 20
3553.5611615989969
 30
0.0
 11
5215.5363644396211
 21
4409.7072031310117
 31
0.0
  0
LINE
  5
7E54
  8
0
  6
BYBLOCK
 62
     0
 10
4911.5363644396211
 20
4285.3813505989974
 30
0.0
 11
4911.5363644396211
 21
4409.7072031310117
 31
0.0
  0
LINE
  5
7E55
  8
0
  6
BYBLOCK
 62
     0
 10
5155.5363644396211
 20
4379.7072031310126
 30
0.0
 11
4971.5363644396211
 21
4379.7072031310126
 31
0.0
  0
TEXT
  5
7E56
  8
3
 62
     0
 10
4945.679221582478
 20
4414.178470084491
 30
0.0
 40
90.0
  1
304
  0
INSERT
  5
7E57
  8
0
  6
BYBLOCK
 62
     0
  2
_OPEN
 10
5215.5363644396211
 20
4379.7072031310126
 30
0.0
 41
60.0
 42
60.0
 43
60.0
  0
INSERT
  5
7E58
  8
0
  6
BYBLOCK
 62
     0
  2
_OPEN
 10
4911.5363644396211
 20
4379.7072031310126
 30
0.0
 41
60.0
 42
60.0
 43
60.0
 50
180.0
  0
POINT
  5
7E59
  8
DEFPOINTS
  6
BYBLOCK
 62
     0
 10
5215.5363644396211
 20
3538.5611615989969
 30
0.0
  0
POINT
  5
7E5A
  8
DEFPOINTS
  6
BYBLOCK
 62
     0
 10
4911.5363644396211
 20
4270.3813505989983
 30
0.0
  0
POINT
  5
7E5B
  8
DEFPOINTS
  6
BYBLOCK
 62
     0
 10
4911.5363644396211
 20
4379.7072031310126
 30
0.0
  0
ENDBLK
  5
7E5C
  8
0
  0
BLOCK
  8
0
  2
*D9
 70
     1
 10
0.0
 20
0.0
 30
0.0
  3
*D9
  1

  0
LINE
  5
7F2F
  8
3
  6
CONTINUOUS
 62
     0
 10
4246.5363644396211
 20
3903.5611615989969
 30
0.0
 11
4011.6320254396219
 21
3903.5611615989969
 31
0.0
  0
LINE
  5
7F30
  8
3
  6
CONTINUOUS
 62
     0
 10
4246.5363644396211
 20
2053.5611615989969
 30
0.0
 11
4011.6320254396219
 21
2053.5611615989969
 31
0.0
  0
LINE
  5
7F31
  8
3
  6
CONTINUOUS
 62
     0
 10
4041.6320254396219
 20
3843.5611615989978
 30
0.0
 11
4041.632025439621
 21
2113.5611615989969
 31
0.0
  0
INSERT
  5
7F32
  8
3
  6
CONTINUOUS
 62
     0
  2
_OPEN
 10
4041.6320254396219
 20
3903.5611615989969
 30
0.0
 41
60.0
 42
60.0
 43
60.0
 50
90.0
  0
INSERT
  5
7F33
  8
3
  6
CONTINUOUS
 62
     0
  2
_OPEN
 10
4041.632025439621
 20
2053.5611615989969
 30
0.0
 41
60.0
 42
60.0
 43
60.0
 50
270.0
  0
TEXT
  8
3
  40
90
  5
7F8C
  62
0
  72
0
  71
0
 10
3786.63
 20
2853.57
 30
0.000000
  1
1850
  0
POINT
  5
7F35
  8
DEFPOINTS
  6
CONTINUOUS
 62
     0
 10
4261.5363644396211
 20
3903.5611615989969
 30
0.0
  0
POINT
  5
7F36
  8
DEFPOINTS
  6
CONTINUOUS
 62
     0
 10
4261.5363644396211
 20
2053.5611615989969
 30
0.0
  0
POINT
  5
7F37
  8
DEFPOINTS
  6
CONTINUOUS
 62
     0
 10
4041.632025439621
 20
2053.5611615989969
 30
0.0
  0
ENDBLK
  5
7DD6
  8
0
  0
BLOCK
  8
0
  2
*D10
 70
     1
 10
0.0
 20
0.0
 30
0.0
  3
*D10
  1

  0
LINE
  5
7F38
  8
3
  6
CONTINUOUS
 62
     0
 10
856.26936731016042
 20
6074.3114200583768
 30
0.0
 11
856.26936731016042
 21
6372.6109750583773
 31
0.0
  0
LINE
  5
7F39
  8
3
  6
CONTINUOUS
 62
     0
 10
2806.2693673101599
 20
6074.3114200583768
 30
0.0
 11
2806.2693673101599
 21
6372.6109750583773
 31
0.0
  0
LINE
  5
7F3A
  8
3
  6
CONTINUOUS
 62
     0
 10
916.26936731016031
 20
6342.6109750583764
 30
0.0
 11
2746.2693673101599
 21
6342.6109750583764
 31
0.0
  0
INSERT
  5
7F3B
  8
3
  6
CONTINUOUS
 62
     0
  2
_OPEN
 10
856.26936731016042
 20
6342.6109750583764
 30
0.0
 41
60.0
 42
60.0
 43
60.0
 50
180.0
  0
INSERT
  5
7F3C
  8
3
  6
CONTINUOUS
 62
     0
  2
_OPEN
 10
2806.2693673101599
 20
6342.6109750583764
 30
0.0
 41
60.0
 42
60.0
 43
60.0
  0
TEXT
  8
3
  40
90
  5
7F8D
  62
0
  72
0
  71
0
 10
1633.87
 20
6258.31
 30
0.000000
  1
1950
  0
POINT
  5
7F3E
  8
DEFPOINTS
  6
CONTINUOUS
 62
     0
 10
856.26936731016042
 20
6059.3114200583768
 30
0.0
  0
POINT
  5
7F3F
  8
DEFPOINTS
  6
CONTINUOUS
 62
     0
 10
2806.2693673101599
 20
6059.3114200583768
 30
0.0
  0
POINT
  5
7F40
  8
DEFPOINTS
  6
CONTINUOUS
 62
     0
 10
2806.2693673101599
 20
6342.6109750583764
 30
0.0
  0
ENDBLK
  5
7DCB
  8
0
  0
BLOCK
  8
0
  2
*D11
 70
     1
 10
0.0
 20
0.0
 30
0.0
  3
*D11
  1

  0
LINE
  5
7F41
  8
3
  6
CONTINUOUS
 62
     0
 10
2821.2693673101599
 20
6059.3114200583768
 30
0.0
 11
3175.0082293101609
 21
6059.3114200583768
 31
0.0
  0
LINE
  5
7F42
  8
3
  6
CONTINUOUS
 62
     0
 10
2821.2693673101599
 20
4909.3114200583768
 30
0.0
 11
3175.0082293101609
 21
4909.3114200583768
 31
0.0
  0
LINE
  5
7F43
  8
3
  6
CONTINUOUS
 62
     0
 10
3145.0082293101609
 20
5999.3114200583768
 30
0.0
 11
3145.00822931016
 21
4969.3114200583768
 31
0.0
  0
INSERT
  5
7F44
  8
3
  6
CONTINUOUS
 62
     0
  2
_OPEN
 10
3145.0082293101609
 20
6059.3114200583768
 30
0.0
 41
60.0
 42
60.0
 43
60.0
 50
90.0
  0
INSERT
  5
7F45
  8
3
  6
CONTINUOUS
 62
     0
  2
_OPEN
 10
3145.00822931016
 20
4909.3114200583768
 30
0.0
 41
60.0
 42
60.0
 43
60.0
 50
270.0
  0
TEXT
  8
3
  40
90
  5
7F8E
  62
0
  72
0
  71
0
 10
2890.01
 20
5377.03
 30
0.000000
  1
1150
  0
POINT
  5
7F47
  8
DEFPOINTS
  6
CONTINUOUS
 62
     0
 10
2806.2693673101599
 20
6059.3114200583768
 30
0.0
  0
POINT
  5
7F48
  8
DEFPOINTS
  6
CONTINUOUS
 62
     0
 10
2806.2693673101599
 20
4909.3114200583768
 30
0.0
  0
POINT
  5
7F49
  8
DEFPOINTS
  6
CONTINUOUS
 62
     0
 10
3145.00822931016
 20
4909.3114200583768
 30
0.0
  0
ENDBLK
  5
7DC0
  8
0
  0
BLOCK
  8
0
  2
*D12
 70
     1
 10
0.0
 20
0.0
 30
0.0
  3
*D12
  1

  0
LINE
  5
7F4A
  8
3
  6
CONTINUOUS
 62
     0
 10
4261.5363644396211
 20
2038.5611615989969
 30
0.0
 11
4261.5363644396211
 21
1725.1600553932831
 31
0.0
  0
LINE
  5
7F4B
  8
3
  6
CONTINUOUS
 62
     0
 10
4911.5363644396211
 20
1860.4851125989969
 30
0.0
 11
4911.5363644396211
 21
1725.1600553932831
 31
0.0
  0
LINE
  5
7F4C
  8
3
  6
CONTINUOUS
 62
     0
 10
4321.5363644396211
 20
1755.1600553932831
 30
0.0
 11
4851.5363644396202
 21
1755.1600553932831
 31
0.0
  0
INSERT
  5
7F4D
  8
3
  6
CONTINUOUS
 62
     0
  2
_OPEN
 10
4261.5363644396211
 20
1755.1600553932831
 30
0.0
 41
60.0
 42
60.0
 43
60.0
 50
180.0
  0
INSERT
  5
7F4E
  8
3
  6
CONTINUOUS
 62
     0
  2
_OPEN
 10
4911.5363644396211
 20
1755.1600553932831
 30
0.0
 41
60.0
 42
60.0
 43
60.0
  0
TEXT
  8
3
  40
90
  5
7F8F
  62
0
  72
0
  71
0
 10
4414.10
 20
1670.86
 30
0.000000
  1
650
  0
POINT
  5
7F50
  8
DEFPOINTS
  6
CONTINUOUS
 62
     0
 10
4261.5363644396211
 20
2053.5611615989969
 30
0.0
  0
POINT
  5
7F51
  8
DEFPOINTS
  6
CONTINUOUS
 62
     0
 10
4911.5363644396211
 20
1875.4851125989969
 30
0.0
  0
POINT
  5
7F52
  8
DEFPOINTS
  6
CONTINUOUS
 62
     0
 10
4911.5363644396211
 20
1755.1600553932831
 30
0.0
  0
ENDBLK
  5
7E8A
  8
0
  0
BLOCK
  8
0
  2
*D13
 70
     1
 10
0.0
 20
0.0
 30
0.0
  3
*D13
  1

  0
LINE
  5
7F53
  8
3
  6
CONTINUOUS
 62
     0
 10
4911.5363644396211
 20
1860.4851125989969
 30
0.0
 11
4911.5363644396211
 21
1725.1600553932831
 31
0.0
  0
LINE
  5
7F54
  8
3
  6
CONTINUOUS
 62
     0
 10
5411.5363644396211
 20
2038.5611615989969
 30
0.0
 11
5411.5363644396211
 21
1725.1600553932831
 31
0.0
  0
LINE
  5
7F55
  8
3
  6
CONTINUOUS
 62
     0
 10
4971.5363644396211
 20
1755.1600553932831
 30
0.0
 11
5351.5363644396202
 21
1755.1600553932831
 31
0.0
  0
INSERT
  5
7F56
  8
3
  6
CONTINUOUS
 62
     0
  2
_OPEN
 10
4911.5363644396211
 20
1755.1600553932831
 30
0.0
 41
60.0
 42
60.0
 43
60.0
 50
180.0
  0
INSERT
  5
7F57
  8
3
  6
CONTINUOUS
 62
     0
  2
_OPEN
 10
5411.5363644396211
 20
1755.1600553932831
 30
0.0
 41
60.0
 42
60.0
 43
60.0
  0
TEXT
  8
3
  40
90
  5
7F90
  62
0
  72
0
  71
0
 10
5025.82
 20
1670.86
 30
0.000000
  1
500
  0
POINT
  5
7F59
  8
DEFPOINTS
  6
CONTINUOUS
 62
     0
 10
4911.5363644396211
 20
1875.4851125989969
 30
0.0
  0
POINT
  5
7F5A
  8
DEFPOINTS
  6
CONTINUOUS
 62
     0
 10
5411.5363644396211
 20
2053.5611615989969
 30
0.0
  0
POINT
  5
7F5B
  8
DEFPOINTS
  6
CONTINUOUS
 62
     0
 10
5411.5363644396211
 20
1755.1600553932831
 30
0.0
  0
ENDBLK
  5
7E95
  8
0
  0
BLOCK
  8
0
  2
*D14
 70
     1
 10
0.0
 20
0.0
 30
0.0
  3
*D14
  1

  0
LINE
  5
7F5C
  8
3
  6
CONTINUOUS
 62
     0
 10
2950.5309163101588
 20
3113.5611615989969
 30
0.0
 11
3567.5699239184009
 21
3113.5611615989969
 31
0.0
  0
LINE
  5
7F5D
  8
3
  6
CONTINUOUS
 62
     0
 10
2621.2693673101599
 20
2143.561161598996
 30
0.0
 11
3567.5699239184009
 21
2143.561161598996
 31
0.0
  0
LINE
  5
7F5E
  8
3
  6
CONTINUOUS
 62
     0
 10
3537.5699239184
 20
3053.5611615989969
 30
0.0
 11
3537.5699239184
 21
2203.561161598996
 31
0.0
  0
INSERT
  5
7F5F
  8
3
  6
CONTINUOUS
 62
     0
  2
_OPEN
 10
3537.5699239184009
 20
3113.5611615989969
 30
0.0
 41
60.0
 42
60.0
 43
60.0
 50
90.0
  0
INSERT
  5
7F60
  8
3
  6
CONTINUOUS
 62
     0
  2
_OPEN
 10
3537.5699239184
 20
2143.561161598996
 30
0.0
 41
60.0
 42
60.0
 43
60.0
 50
270.0
  0
TEXT
  8
3
  40
90
  5
7F91
  62
0
  72
0
  71
0
 10
3282.57
 20
2503.12
 30
0.000000
  1
970
  0
POINT
  5
7F62
  8
DEFPOINTS
  6
CONTINUOUS
 62
     0
 10
2935.5309163101588
 20
3113.5611615989969
 30
0.0
  0
POINT
  5
7F63
  8
DEFPOINTS
  6
CONTINUOUS
 62
     0
 10
2606.2693673101599
 20
2143.561161598996
 30
0.0
  0
POINT
  5
7F64
  8
DEFPOINTS
  6
CONTINUOUS
 62
     0
 10
3537.5699239184
 20
2143.561161598996
 30
0.0
  0
ENDBLK
  5
7E7F
  8
0
  0
BLOCK
  8
0
  2
*D15
 70
     1
 10
0.0
 20
0.0
 30
0.0
  3
*D15
  1

  0
LINE
  5
7F65
  8
3
  6
CONTINUOUS
 62
     0
 10
2621.2693673101599
 20
2143.561161598996
 30
0.0
 11
3567.5699239184009
 21
2143.561161598996
 31
0.0
  0
LINE
  5
7F66
  8
3
  6
CONTINUOUS
 62
     0
 10
2821.2693673101599
 20
2053.5611615989969
 30
0.0
 11
3567.5699239184009
 21
2053.5611615989969
 31
0.0
  0
LINE
  5
7F67
  8
3
  6
CONTINUOUS
 62
     0
 10
3537.5699239184
 20
2203.561161598996
 30
0.0
 11
3537.5699239184
 21
2263.561161598996
 31
0.0
  0
LINE
  5
7F68
  8
3
  6
CONTINUOUS
 62
     0
 10
3537.5699239184
 20
1993.5611615989969
 30
0.0
 11
3537.5699239184
 21
1693.5611615989969
 31
0.0
  0
LINE
  5
7F69
  8
3
  6
CONTINUOUS
 62
     0
 10
3537.5699239184
 20
2143.561161598996
 30
0.0
 11
3537.5699239184
 21
2053.5611615989969
 31
0.0
  0
INSERT
  5
7F6A
  8
3
  6
CONTINUOUS
 62
     0
  2
_OPEN
 10
3537.5699239184
 20
2143.561161598996
 30
0.0
 41
60.0
 42
60.0
 43
60.0
 50
270.0
  0
INSERT
  5
7F6B
  8
3
  6
CONTINUOUS
 62
     0
  2
_OPEN
 10
3537.5699239184
 20
2053.5611615989969
 30
0.0
 41
60.0
 42
60.0
 43
60.0
 50
90.0
  0
TEXT
  8
3
  40
90
  5
7F92
  62
0
  72
0
  71
0
 10
3282.57
 20
1637.12
 30
0.000000
  1
90
  0
POINT
  5
7F6D
  8
DEFPOINTS
  6
CONTINUOUS
 62
     0
 10
2606.2693673101599
 20
2143.561161598996
 30
0.0
  0
POINT
  5
7F6E
  8
DEFPOINTS
  6
CONTINUOUS
 62
     0
 10
2806.2693673101599
 20
2053.5611615989969
 30
0.0
  0
POINT
  5
7F6F
  8
DEFPOINTS
  6
CONTINUOUS
 62
     0
 10
3537.5699239184
 20
2053.5611615989969
 30
0.0
  0
ENDBLK
  5
7E69
  8
0
  0
BLOCK
  8
0
  2
*D16
 70
     1
 10
0.0
 20
0.0
 30
0.0
  3
*D16
  1

  0
LINE
  5
7F70
  8
3
 62
     0
 10
2086.2693673101599
 20
3920.6012776882649
 30
0.0
 11
2086.2693673101599
 21
4093.0922265989971
 31
0.0
  0
LINE
  5
7F71
  8
3
 62
     0
 10
1422.2693673101601
 20
3128.5611615989969
 30
0.0
 11
1422.2693673101601
 21
4093.0922265989971
 31
0.0
  0
LINE
  5
7F72
  8
3
 62
     0
 10
2026.2693673101601
 20
4063.0922265989971
 30
0.0
 11
1482.2693673101601
 21
4063.0922265989971
 31
0.0
  0
INSERT
  5
7F73
  8
3
 62
     0
  2
_OPEN
 10
2086.2693673101599
 20
4063.0922265989971
 30
0.0
 41
60.0
 42
60.0
 43
60.0
  0
INSERT
  5
7F74
  8
3
 62
     0
  2
_OPEN
 10
1422.2693673101601
 20
4063.0922265989971
 30
0.0
 41
60.0
 42
60.0
 43
60.0
 50
180.0
  0
TEXT
  8
3
  40
90
  5
7F93
  62
0
  72
0
  71
0
 10
1574.27
 20
3978.79
 30
0.000000
  1
664
  0
POINT
  5
7F76
  8
DEFPOINTS
 62
     0
 10
2086.2693673101599
 20
3905.6012776882649
 30
0.0
  0
POINT
  5
7F77
  8
DEFPOINTS
 62
     0
 10
1422.2693673101601
 20
3113.5611615989969
 30
0.0
  0
POINT
  5
7F78
  8
DEFPOINTS
 62
     0
 10
1422.2693673101601
 20
4063.0922265989971
 30
0.0
  0
ENDBLK
  5
7D87
  8
0
  0
BLOCK
  8
0
  2
*D17
 70
     1
 10
0.0
 20
0.0
 30
0.0
  3
*D17
  1

  0
LINE
  5
7F79
  8
3
 62
     0
 10
2950.5309163101588
 20
3113.5611615989969
 30
0.0
 11
3567.5699239184
 21
3113.5611615989969
 31
0.0
  0
LINE
  5
7F7A
  8
3
 62
     0
 10
2101.2693673101599
 20
3689.5518087058708
 30
0.0
 11
3567.5699239184
 21
3689.5518087058699
 31
0.0
  0
LINE
  5
7F7B
  8
3
 62
     0
 10
3537.5699239184
 20
3173.5611615989969
 30
0.0
 11
3537.5699239184
 21
3629.5518087058699
 31
0.0
  0
INSERT
  5
7F7C
  8
3
 62
     0
  2
_OPEN
 10
3537.5699239184
 20
3113.5611615989969
 30
0.0
 41
60.0
 42
60.0
 43
60.0
 50
270.0
  0
INSERT
  5
7F7D
  8
3
 62
     0
  2
_OPEN
 10
3537.5699239184
 20
3689.5518087058699
 30
0.0
 41
60.0
 42
60.0
 43
60.0
 50
90.0
  0
TEXT
  8
3
  40
90
  5
7F94
  62
0
  72
0
  71
0
 10
3282.57
 20
3242.26
 30
0.000000
  1
576
  0
POINT
  5
7F7F
  8
DEFPOINTS
 62
     0
 10
2935.5309163101588
 20
3113.5611615989969
 30
0.0
  0
POINT
  5
7F80
  8
DEFPOINTS
 62
     0
 10
2086.2693673101599
 20
3689.5518087058708
 30
0.0
  0
POINT
  5
7F81
  8
DEFPOINTS
 62
     0
 10
3537.5699239184
 20
3689.5518087058699
 30
0.0
  0
ENDBLK
  5
7E74
  8
0
  0
BLOCK
  8
0
  2
_DOT
 70
     0
 10
0.0
 20
0.0
 30
0.0
  3
_DOT
  1

  0
POLYLINE
  5
7EC5
  8
0
  6
BYBLOCK
 62
     0
 66
     1
 10
0.0
 20
0.0
 30
0.0
 70
     1
 40
0.5
 41
0.5
  0
VERTEX
  5
7F82
  8
0
  6
BYBLOCK
 62
     0
 10
-0.25
 20
0.0
 30
0.0
 42
1.0
  0
VERTEX
  5
7F83
  8
0
  6
BYBLOCK
 62
     0
 10
0.25
 20
0.0
 30
0.0
 42
1.0
  0
SEQEND
  5
7F84
  8
0
  6
BYBLOCK
 62
     0
  0
LINE
  5
7EC6
  8
0
  6
BYBLOCK
 62
     0
 10
-0.5
 20
0.0
 30
0.0
 11
-1.0
 21
0.0
 31
0.0
  0
ENDBLK
  5
7EC8
  8
0
  0
ENDSEC
  0
SECTION
  2
ENTITIES
  0
LINE
  5
7A7A
  8
1
  6
CONTINUOUS
 10
856.26936731016042
 20
3903.5611615989969
 30
0.0
 11
856.26936731016042
 21
2053.5611615989969
 31
0.0
  0
LINE
  5
7A7B
  8
1
  6
CONTINUOUS
 10
2806.2693673101599
 20
2053.5611615989969
 30
0.0
 11
2806.2693673101599
 21
3903.5611615989969
 31
0.0
  0
LINE
  5
7A7C
  8
1
  6
CONTINUOUS
 10
921.26936731016019
 20
3838.5611615989969
 30
0.0
 11
921.26936731016019
 21
2118.561161598996
 31
0.0
  0
LINE
  5
7A7D
  8
1
  6
CONTINUOUS
 10
2741.2693673101599
 20
2118.561161598996
 30
0.0
 11
2741.2693673101599
 21
3838.5611615989969
 31
0.0
  0
LINE
  5
7A7E
  8
1
  6
CONTINUOUS
 10
5411.5363644396211
 20
3903.5611615989969
 30
0.0
 11
5411.5363644396211
 21
2053.5611615989969
 31
0.0
  0
LINE
  5
7A7F
  8
1
  6
CONTINUOUS
 10
4261.5363644396211
 20
2053.5611615989969
 30
0.0
 11
4261.5363644396211
 21
3903.5611615989969
 31
0.0
  0
LINE
  5
7A80
  8
1
  6
CONTINUOUS
 10
5346.5363644396211
 20
3838.5611615989969
 30
0.0
 11
5346.5363644396211
 21
2118.561161598996
 31
0.0
  0
LINE
  5
7A81
  8
1
  6
CONTINUOUS
 10
4326.5363644396211
 20
2118.561161598996
 30
0.0
 11
4326.5363644396211
 21
3838.5611615989969
 31
0.0
  0
LINE
  5
7A82
  8
1
  6
CONTINUOUS
 10
4611.5363644396211
 20
3691.1111615989962
 30
0.0
 11
4611.5363644396211
 21
2243.561161598996
 31
0.0
  0
LINE
  5
7A83
  8
1
  6
CONTINUOUS
 10
5211.5363644396211
 20
3691.1111615989962
 30
0.0
 11
5211.5363644396211
 21
2243.561161598996
 31
0.0
  0
ARC
  5
7A86
  8
1
  6
CONTINUOUS
 10
2051.2693673101599
 20
3148.5611615989969
 30
0.0
 40
542.03999999999985
 50
0.32
 51
83.499999999999986
  0
ARC
  5
7A87
  8
1
  6
CONTINUOUS
 10
2042.2693673101601
 20
3069.5611615989969
 30
0.0
 40
621.54999999999995
 50
83.499999999999986
 51
175.24000000000001
  0
LINE
  5
7A88
  8
1
  6
CONTINUOUS
 10
5411.5363644396211
 20
2053.5611615989969
 30
0.0
 11
4261.5363644396211
 21
2053.5611615989969
 31
0.0
  0
LINE
  5
7A89
  8
1
  6
CONTINUOUS
 10
5346.5363644396211
 20
2118.561161598996
 30
0.0
 11
4326.5363644396211
 21
2118.561161598996
 31
0.0
  0
LINE
  5
7A8A
  8
1
  6
CONTINUOUS
 10
4611.5363644396211
 20
3151.5611615989969
 30
0.0
 11
5211.5363644396211
 21
3151.5611615989969
 31
0.0
  0
LINE
  5
7A8B
  8
1
  6
CONTINUOUS
 10
4611.5363644396211
 20
2326.561161598996
 30
0.0
 11
5211.5363644396211
 21
2326.561161598996
 31
0.0
  0
LINE
  5
7A8C
  8
1
  6
CONTINUOUS
 10
5263.5363644396211
 20
2143.561161598996
 30
0.0
 11
4443.5363644396211
 21
2143.561161598996
 31
0.0
  0
LINE
  5
7A8D
  8
1
  6
CONTINUOUS
 10
5263.5363644396211
 20
2243.561161598996
 30
0.0
 11
4351.5363644396202
 21
2243.561161598996
 31
0.0
  0
LINE
  5
7A8E
  8
1
  6
CONTINUOUS
 10
5211.5363644396211
 20
2326.561161598996
 30
0.0
 11
4611.5363644396211
 21
3151.5611615989969
 31
0.0
  0
LINE
  5
7A8F
  8
1
  6
CONTINUOUS
 10
4611.5363644396211
 20
2326.561161598996
 30
0.0
 11
5211.5363644396211
 21
3151.5611615989969
 31
0.0
  0
LINE
  5
7A90
  8
1
  6
CONTINUOUS
 10
856.26936731016042
 20
2053.5611615989969
 30
0.0
 11
2806.2693673101599
 21
2053.5611615989969
 31
0.0
  0
LINE
  5
7A91
  8
1
  6
CONTINUOUS
 10
921.26936731016019
 20
2118.561161598996
 30
0.0
 11
2741.2693673101599
 21
2118.561161598996
 31
0.0
  0
LINE
  5
7A92
  8
1
  6
CONTINUOUS
 10
2506.2693673101599
 20
3493.5611615989969
 30
0.0
 11
1936.2693673101601
 21
3493.5611615989969
 31
0.0
  0
LINE
  5
7A93
  8
1
  6
CONTINUOUS
 10
2606.2693673101599
 20
2143.561161598996
 30
0.0
 11
1006.26936731016
 21
2143.561161598996
 31
0.0
  0
LINE
  5
7A96
  8
1
  6
CONTINUOUS
 10
2606.2693673101599
 20
2243.561161598996
 30
0.0
 11
1006.26936731016
 21
2243.561161598996
 31
0.0
  0
LINE
  5
7A97
  8
1
  6
CONTINUOUS
 10
2681.2693673101599
 20
2326.561161598996
 30
0.0
 11
2086.2693673101599
 21
2345.561161598996
 31
0.0
  0
LINE
  5
7A98
  8
1
  6
CONTINUOUS
 10
1221.36936731016
 20
2378.7411615989959
 30
0.0
 11
2186.8793673101609
 21
2940.711161598997
 31
0.0
  0
LINE
  5
7A99
  8
1
  6
CONTINUOUS
 10
1132.5293673101601
 20
2498.4411615989961
 30
0.0
 11
1949.9493673101599
 21
3259.9011615989962
 31
0.0
  0
LINE
  5
7A9A
  8
1
  6
CONTINUOUS
 10
1936.2693673101601
 20
3493.5611615989969
 30
0.0
 11
1026.2693673101601
 21
2543.5611615989969
 31
0.0
  0
ARC
  5
7A9B
  8
1
  6
CONTINUOUS
 10
2138.2693673101599
 20
3061.5611615989969
 30
0.0
 40
717.88999999999987
 50
175.24000000000001
 51
265.85000000000002
  0
ARC
  5
7A9C
  8
1
  6
CONTINUOUS
 10
1183.64936731016
 20
2443.5611615989969
 30
0.0
 40
162.0
 50
324.97000000000003
 51
215.02999999999989
  0
LINE
  5
7A9D
  8
1
  6
CONTINUOUS
 10
1029.64936731016
 20
2243.561161598996
 30
0.0
 11
1029.64936731016
 21
2301.561161598996
 31
0.0
  0
LINE
  5
7A9E
  8
1
  6
CONTINUOUS
 10
1337.64936731016
 20
2243.561161598996
 30
0.0
 11
1337.64936731016
 21
2301.561161598996
 31
0.0
  0
LINE
  5
7A9F
  8
1
  6
CONTINUOUS
 10
1026.2693673101601
 20
2543.5611615989969
 30
0.0
 11
1026.2693673101601
 21
2243.561161598996
 31
0.0
  0
LINE
  5
7AA0
  8
1
  6
CONTINUOUS
 10
1006.26936731016
 20
2243.561161598996
 30
0.0
 11
1006.26936731016
 21
2143.561161598996
 31
0.0
  0
LINE
  5
7AA1
  8
1
  6
CONTINUOUS
 10
1029.64936731016
 20
2301.561161598996
 30
0.0
 11
1050.989367310159
 21
2350.581161598996
 31
0.0
  0
CIRCLE
  5
7AA2
  8
1
  6
CONTINUOUS
 10
1183.64936731016
 20
2443.5611615989969
 30
0.0
 40
75.0
  0
LINE
  5
7AA3
  8
2
  6
CENTER
 10
1108.64936731016
 20
2443.5611615989969
 30
0.0
 11
1258.64936731016
 21
2443.5611615989969
 31
0.0
  0
LINE
  5
7AA4
  8
2
  6
CENTER
 10
1183.64936731016
 20
2368.561161598996
 30
0.0
 11
1183.64936731016
 21
2518.5611615989969
 31
0.0
  0
LINE
  5
7AA5
  8
1
  6
CONTINUOUS
 10
1337.64936731016
 20
2301.561161598996
 30
0.0
 11
1316.2993673101601
 21
2350.581161598996
 31
0.0
  0
LINE
  5
7AA6
  8
2
  6
CENTER
 10
5464.7429334396211
 20
3113.5611615989969
 30
0.0
 11
4182.0425274396221
 21
3113.5611615989969
 31
0.0
  0
CIRCLE
  5
7AA7
  8
1
  6
CONTINUOUS
 10
2086.2693673101599
 20
3113.5611615989969
 30
0.0
 40
200.0
  0
LINE
  5
7AA8
  8
2
  6
CENTER
 10
2086.2693673101599
 20
6144.5713540583774
 30
0.0
 11
2086.2693673101599
 21
4824.8958630583757
 31
0.0
  0
LINE
  5
7AAC
  8
1
  6
CONTINUOUS
 10
2506.2693673101599
 20
2243.561161598996
 30
0.0
 11
2506.2693673101599
 21
3493.5611615989969
 31
0.0
  0
LINE
  5
7AAD
  8
1
  6
CONTINUOUS
 10
2681.2693673101599
 20
3194.0611615989969
 30
0.0
 11
2681.2693673101599
 21
2284.0611615989969
 31
0.0
  0
LINE
  5
7AAE
  8
1
  6
CONTINUOUS
 10
2606.2693673101599
 20
2243.561161598996
 30
0.0
 11
2606.2693673101599
 21
2143.561161598996
 31
0.0
  0
LINE
  5
7AAF
  8
1
  6
CONTINUOUS
 10
2593.2993673101601
 20
3151.5611615989969
 30
0.0
 11
2681.2693673101599
 21
3151.5611615989969
 31
0.0
  0
LINE
  5
7AB0
  8
1
  6
CONTINUOUS
 10
4351.5363644396202
 20
3493.5611615989969
 30
0.0
 11
4351.5363644396202
 21
2243.561161598996
 31
0.0
  0
LINE
  5
7AB1
  8
1
  6
CONTINUOUS
 10
4501.5363644396211
 20
3493.5611615989969
 30
0.0
 11
4501.5363644396211
 21
2243.561161598996
 31
0.0
  0
LINE
  5
7AB2
  8
1
  6
CONTINUOUS
 10
4443.5363644396211
 20
2243.561161598996
 30
0.0
 11
4443.5363644396211
 21
2143.561161598996
 31
0.0
  0
LINE
  5
7AB3
  8
1
  6
CONTINUOUS
 10
4391.5363644396211
 20
3313.5611615989969
 30
0.0
 11
4391.5363644396211
 21
2913.5611615989969
 31
0.0
  0
LINE
  5
7AB4
  8
1
  6
CONTINUOUS
 10
4461.5363644396211
 20
3313.5611615989969
 30
0.0
 11
4461.5363644396211
 21
2913.5611615989969
 31
0.0
  0
LINE
  5
7AB5
  8
1
  6
CONTINUOUS
 10
4391.5363644396211
 20
2913.5611615989969
 30
0.0
 11
4461.5363644396211
 21
2913.5611615989969
 31
0.0
  0
LINE
  5
7AB6
  8
1
  6
CONTINUOUS
 10
4391.5363644396211
 20
2518.5611615989969
 30
0.0
 11
4461.5363644396211
 21
2518.5611615989969
 31
0.0
  0
LINE
  5
7AB7
  8
1
  6
CONTINUOUS
 10
4391.5363644396211
 20
2368.561161598996
 30
0.0
 11
4461.5363644396211
 21
2368.561161598996
 31
0.0
  0
LINE
  5
7AB8
  8
1
  6
CONTINUOUS
 10
4391.5363644396211
 20
2518.5611615989969
 30
0.0
 11
4391.5363644396211
 21
2368.561161598996
 31
0.0
  0
LINE
  5
7AB9
  8
1
  6
CONTINUOUS
 10
4461.5363644396211
 20
2518.5611615989969
 30
0.0
 11
4461.5363644396211
 21
2368.561161598996
 31
0.0
  0
LINE
  5
7ABA
  8
1
  6
CONTINUOUS
 10
4461.5363644396211
 20
2464.5611615989969
 30
0.0
 11
4611.5363644396211
 21
2464.5611615989969
 31
0.0
  0
LINE
  5
7ABB
  8
1
  6
CONTINUOUS
 10
4461.5363644396211
 20
2422.5611615989969
 30
0.0
 11
4611.5363644396211
 21
2422.5611615989969
 31
0.0
  0
LINE
  5
7ABC
  8
1
  6
CONTINUOUS
 10
4501.5363644396211
 20
3493.5611615989969
 30
0.0
 11
4351.5363644396202
 21
3493.5611615989969
 31
0.0
  0
LINE
  5
7ABD
  8
1
  6
CONTINUOUS
 10
4391.5363644396211
 20
3313.5611615989969
 30
0.0
 11
4461.5363644396211
 21
3313.5611615989969
 31
0.0
  0
LINE
  5
7ABE
  8
1
  6
CONTINUOUS
 10
4611.5363644396211
 20
3134.5611615989969
 30
0.0
 11
4461.5363644396211
 21
3134.5611615989969
 31
0.0
  0
LINE
  5
7ABF
  8
1
  6
CONTINUOUS
 10
4611.5363644396211
 20
3092.5611615989969
 30
0.0
 11
4461.5363644396211
 21
3092.5611615989969
 31
0.0
  0
LINE
  5
7AC0
  8
1
  6
CONTINUOUS
 10
5263.5363644396211
 20
2243.561161598996
 30
0.0
 11
5263.5363644396211
 21
2143.561161598996
 31
0.0
  0
LINE
  5
7AC1
  8
1
  6
CONTINUOUS
 10
4261.5363644396211
 20
3903.5611615989969
 30
0.0
 11
5411.5363644396211
 21
3903.5611615989969
 31
0.0
  0
LINE
  5
7AC2
  8
1
  6
CONTINUOUS
 10
4326.5363644396211
 20
3838.5611615989969
 30
0.0
 11
5346.5363644396211
 21
3838.5611615989969
 31
0.0
  0
LINE
  5
7AC3
  8
1
  6
CONTINUOUS
 10
4611.5363644396211
 20
3691.1111615989962
 30
0.0
 11
5211.5363644396211
 21
3691.1111615989962
 31
0.0
  0
LINE
  5
7AC4
  8
1
  6
CONTINUOUS
 10
2741.2693673101599
 20
5994.3114200583768
 30
0.0
 11
921.26936731016019
 21
5994.3114200583768
 31
0.0
  0
LINE
  5
7AC5
  8
1
  6
CONTINUOUS
 10
921.26936731016019
 20
4974.3114200583768
 30
0.0
 11
2741.2693673101599
 21
4974.3114200583768
 31
0.0
  0
LINE
  5
7AC6
  8
1
  6
CONTINUOUS
 10
2806.2693673101599
 20
6059.3114200583768
 30
0.0
 11
856.26936731016042
 21
6059.3114200583768
 31
0.0
  0
LINE
  5
7AC7
  8
1
  6
CONTINUOUS
 10
856.26936731016042
 20
4909.3114200583768
 30
0.0
 11
2806.2693673101599
 21
4909.3114200583768
 31
0.0
  0
LINE
  5
7AC8
  8
1
  6
CONTINUOUS
 10
2806.2693673101599
 20
3903.5611615989969
 30
0.0
 11
856.26936731016042
 21
3903.5611615989969
 31
0.0
  0
LINE
  5
7AC9
  8
1
  6
CONTINUOUS
 10
2741.2693673101599
 20
3838.5611615989969
 30
0.0
 11
921.26936731016019
 21
3838.5611615989969
 31
0.0
  0
LINE
  5
7ACA
  8
1
  6
CONTINUOUS
 10
2286.2693673101599
 20
5091.3114200583768
 30
0.0
 11
2606.2693673101599
 21
5091.3114200583768
 31
0.0
  0
LINE
  5
7ACB
  8
1
  6
CONTINUOUS
 10
1420.3793673101609
 20
5859.3114200583768
 30
0.0
 11
2681.2693673101599
 21
5859.3114200583768
 31
0.0
  0
LINE
  5
7ACC
  8
1
  6
CONTINUOUS
 10
1420.3793673101609
 20
5259.3114200583768
 30
0.0
 11
2681.2693673101599
 21
5259.3114200583768
 31
0.0
  0
LINE
  5
7ACD
  8
1
  6
CONTINUOUS
 10
1006.26936731016
 20
5911.3114200583759
 30
0.0
 11
2606.2693673101599
 21
5911.3114200583759
 31
0.0
  0
LINE
  5
7ACE
  8
1
  6
CONTINUOUS
 10
1026.2693673101601
 20
4999.3114200583768
 30
0.0
 11
2506.2693673101599
 21
4999.3114200583768
 31
0.0
  0
LINE
  5
7ACF
  8
1
  6
CONTINUOUS
 10
1026.2693673101601
 20
5149.3114200583768
 30
0.0
 11
2506.2693673101599
 21
5149.3114200583768
 31
0.0
  0
LINE
  5
7AD1
  8
1
  6
CONTINUOUS
 10
1258.6493673101611
 20
5091.3114200583768
 30
0.0
 11
1886.2693673101601
 21
5091.3114200583768
 31
0.0
  0
LINE
  5
7AD2
  8
1
  6
CONTINUOUS
 10
921.26936731016019
 20
5994.3114200583768
 30
0.0
 11
921.26936731016019
 21
4974.3114200583768
 31
0.0
  0
LINE
  5
7AD3
  8
1
  6
CONTINUOUS
 10
856.26936731016042
 20
6059.3114200583768
 30
0.0
 11
856.26936731016042
 21
4909.3114200583768
 31
0.0
  0
LINE
  5
7AD4
  8
1
  6
CONTINUOUS
 10
1345.6493673101611
 20
5197.3114200583768
 30
0.0
 11
1345.6493673101611
 21
5682.3114200583759
 31
0.0
  0
LINE
  5
7AD5
  8
1
  6
CONTINUOUS
 10
1021.6493673101591
 20
5197.3114200583768
 30
0.0
 11
1021.6493673101591
 21
5682.3114200583759
 31
0.0
  0
LINE
  5
7AD6
  8
1
  6
CONTINUOUS
 10
1006.26936731016
 20
5911.3114200583759
 30
0.0
 11
1006.26936731016
 21
5091.3114200583768
 31
0.0
  0
LINE
  5
7AD7
  8
1
  6
CONTINUOUS
 10
1420.3793673101609
 20
5259.3114200583768
 30
0.0
 11
1420.3793673101609
 21
5859.3114200583768
 31
0.0
  0
LINE
  5
7AD8
  8
1
  6
CONTINUOUS
 10
1021.6493673101591
 20
5197.3114200583768
 30
0.0
 11
1345.6493673101611
 21
5197.3114200583768
 31
0.0
  0
LINE
  5
7AD9
  8
1
  6
CONTINUOUS
 10
1006.26936731016
 20
5091.3114200583768
 30
0.0
 11
1108.6493673101591
 21
5091.3114200583768
 31
0.0
  0
LINE
  5
7ADA
  8
1
  6
CONTINUOUS
 10
1026.2693673101601
 20
5149.3114200583768
 30
0.0
 11
1026.2693673101601
 21
4999.3114200583768
 31
0.0
  0
LINE
  5
7ADB
  8
1
  6
CONTINUOUS
 10
1258.6493673101611
 20
5109.3114200583768
 30
0.0
 11
1108.6493673101591
 21
5109.3114200583768
 31
0.0
  0
LINE
  5
7ADC
  8
1
  6
CONTINUOUS
 10
1258.6493673101611
 20
5039.3114200583768
 30
0.0
 11
1108.6493673101591
 21
5039.3114200583768
 31
0.0
  0
LINE
  5
7ADD
  8
1
  6
CONTINUOUS
 10
1204.6493673101611
 20
5109.3114200583768
 30
0.0
 11
1204.6493673101611
 21
5197.3114200583768
 31
0.0
  0
LINE
  5
7ADE
  8
1
  6
CONTINUOUS
 10
1162.6493673101591
 20
5109.3114200583768
 30
0.0
 11
1162.6493673101591
 21
5197.3114200583768
 31
0.0
  0
LINE
  5
7ADF
  8
1
  6
CONTINUOUS
 10
1108.6493673101591
 20
5039.3114200583768
 30
0.0
 11
1108.6493673101591
 21
5109.3114200583768
 31
0.0
  0
LINE
  5
7AE0
  8
1
  6
CONTINUOUS
 10
1258.6493673101611
 20
5039.3114200583768
 30
0.0
 11
1258.6493673101611
 21
5109.3114200583768
 31
0.0
  0
LINE
  5
7AE1
  8
1
  6
CONTINUOUS
 10
1021.6493673101591
 20
5682.3114200583759
 30
0.0
 11
1345.6493673101611
 21
5682.3114200583759
 31
0.0
  0
LINE
  5
7AE2
  8
1
  6
CONTINUOUS
 10
2286.2693673101599
 20
5109.3114200583768
 30
0.0
 11
1886.2693673101601
 21
5109.3114200583768
 31
0.0
  0
LINE
  5
7AE3
  8
1
  6
CONTINUOUS
 10
2286.2693673101599
 20
5039.3114200583768
 30
0.0
 11
1886.2693673101601
 21
5039.3114200583768
 31
0.0
  0
LINE
  5
7AE4
  8
1
  6
CONTINUOUS
 10
1886.2693673101601
 20
5039.3114200583768
 30
0.0
 11
1886.2693673101601
 21
5109.3114200583768
 31
0.0
  0
LINE
  5
7AE5
  8
1
  6
CONTINUOUS
 10
2065.2693673101599
 20
5109.3114200583768
 30
0.0
 11
2065.2693673101599
 21
5259.3114200583768
 31
0.0
  0
LINE
  5
7AE6
  8
1
  6
CONTINUOUS
 10
2107.2693673101599
 20
5109.3114200583768
 30
0.0
 11
2107.2693673101599
 21
5259.3114200583768
 31
0.0
  0
LINE
  5
7AE7
  8
1
  6
CONTINUOUS
 10
2286.2693673101599
 20
5039.3114200583768
 30
0.0
 11
2286.2693673101599
 21
5109.3114200583768
 31
0.0
  0
LINE
  5
7AE8
  8
1
  6
CONTINUOUS
 10
2741.2693673101599
 20
4974.3114200583768
 30
0.0
 11
2741.2693673101599
 21
5994.3114200583768
 31
0.0
  0
LINE
  5
7AE9
  8
1
  6
CONTINUOUS
 10
2806.2693673101599
 20
4909.3114200583768
 30
0.0
 11
2806.2693673101599
 21
6059.3114200583768
 31
0.0
  0
LINE
  5
7AEA
  8
1
  6
CONTINUOUS
 10
2681.2693673101599
 20
5217.3114200583768
 30
0.0
 11
2681.2693673101599
 21
5901.3114200583768
 31
0.0
  0
LINE
  5
7AEB
  8
1
  6
CONTINUOUS
 10
2506.2693673101599
 20
4999.3114200583768
 30
0.0
 11
2506.2693673101599
 21
5149.3114200583768
 31
0.0
  0
LINE
  5
7AEC
  8
1
  6
CONTINUOUS
 10
2606.2693673101599
 20
5259.3114200583768
 30
0.0
 11
2606.2693673101599
 21
5091.3114200583768
 31
0.0
  0
LINE
  5
7AED
  8
1
  6
CONTINUOUS
 10
2606.2693673101599
 20
5911.3114200583759
 30
0.0
 11
2606.2693673101599
 21
5859.3114200583768
 31
0.0
  0
LINE
  5
7AEE
  8
2
  6
CENTER
 10
767.56355931015958
 20
5559.3114200583768
 30
0.0
 11
2855.3685723101598
 21
5559.3114200583768
 31
0.0
  0
LINE
  5
7AEF
  8
2
  6
CENTER
 10
4911.5363644396211
 20
4102.4201815989973
 30
0.0
 11
4911.5363644396211
 21
1875.4851125989969
 31
0.0
  0
LINE
  5
7AF0
  8
2
  6
CENTER
 10
2086.2693673101599
 20
3916.1562005989972
 30
0.0
 11
2086.2693673101599
 21
1852.496585393287
 31
0.0
  0
LINE
  5
7AF1
  8
2
  6
CENTER
 10
2915.5309163101588
 20
3113.5611615989969
 30
0.0
 11
773.51516131015978
 21
3113.5611615989969
 31
0.0
  0
LINE
  5
7AF2
  8
4
  6
CONTINUOUS
 10
5550.0
 20
1500.0
 30
0.0
 11
5550.0
 21
900.0
 31
0.0
  0
LINE
  5
7AF3
  8
4
  6
CONTINUOUS
 10
3450.0
 20
1500.0
 30
0.0
 11
3450.0
 21
900.0
 31
0.0
  0
LINE
  5
7AF4
  8
4
  6
CONTINUOUS
 10
1950.0
 20
1500.0
 30
0.0
 11
1950.0
 21
900.0
 31
0.0
  0
LINE
  5
7AF7
  8
4
  6
CONTINUOUS
 10
1950.0
 20
900.0
 30
0.0
 11
5550.0
 21
900.0
 31
0.0
  0
LINE
  5
7AF8
  8
4
  6
CONTINUOUS
 10
1950.0
 20
1200.0
 30
0.0
 11
5550.0
 21
1200.0
 31
0.0
  0
TEXT
  5
7AF9
  8
4
  6
CONTINUOUS
 10
2065.50624225
 20
1294.6290772499999
 30
0.0
 40
150.0
  1
機器名称
  0
TEXT
  5
7AFA
  8
4
  6
CONTINUOUS
 10
2058.7743179999989
 20
964.93547024999998
 30
0.0
 40
150.0
  1
機器型番
  0
TEXT
  5
7AFB
  8
4
  6
CONTINUOUS
 10
3533.0362365000001
 20
1267.7153069999999
 30
0.0
 40
150.0
  1
ミツヤ多翼送風機
  0
TEXT
  5
7AFC
  8
4
  6
CONTINUOUS
 10
3559.9634864999998
 20
951.4787527499999
 30
0.0
 40
150.0
  1
MF#5-4
  0
TEXT
  5
7AFE
  8
4
  6
CONTINUOUS
 10
2195.7213029999998
 20
7150.2865237500009
 30
0.0
 40
162.0
  1
天井吊枠防振ベット
  0
TEXT
  5
7AFF
  8
4
  6
CONTINUOUS
 10
948.50277975000017
 20
7601.6429287499996
 30
0.0
 40
216.0
  1
ベルト駆動式片吸込両持多翼ファン
  0
LINE
  5
7B00
  8
4
  6
CONTINUOUS
 10
750.0
 20
7408.2262627500004
 30
0.0
 11
5550.0
 21
7408.2262627500004
 31
0.0
  0
LINE
  5
7B01
  8
4
  6
CONTINUOUS
 10
750.0
 20
8008.2262627500004
 30
0.0
 11
5550.0
 21
8008.2262627500004
 31
0.0
  0
LINE
  5
7B02
  8
4
  6
CONTINUOUS
 10
1950.0
 20
1500.0
 30
0.0
 11
5550.0
 21
1500.0
 31
0.0
  0
LINE
  5
7B03
  8
4
  6
CONTINUOUS
 10
750.0
 20
8008.2262627500004
 30
0.0
 11
750.0
 21
7408.2262627500004
 31
0.0
  0
TEXT
  5
7B04
  8
4
  6
CONTINUOUS
 10
888.14480624999976
 20
7146.9584324999987
 30
0.0
 40
162.0
  1
左回転右横向
  0
TEXT
  5
7B05
  8
4
  6
CONTINUOUS
 10
4406.9086777499988
 20
8118.1832445
 30
0.0
 40
168.0
  1
No.
  0
TEXT
  5
7B06
  8
4
  6
CONTINUOUS
 10
4250.8324012499997
 20
7150.2865237500009
 30
0.0
 40
162.0
  1
縮尺：1/30
  0
LINE
  5
7B07
  8
4
  6
CONTINUOUS
 10
5550.0
 20
8008.2262627500004
 30
0.0
 11
5550.0
 21
7408.2262627500004
 31
0.0
  0
LINE
  5
7B09
  8
4
  6
CONTINUOUS
 10
4321.8522667500001
 20
8043.79074975
 30
0.0
 11
4321.8522667500001
 21
8359.9567845000001
 31
0.0
  0
LINE
  5
7B0A
  8
4
  6
CONTINUOUS
 10
4321.8522667500001
 20
8359.9567845000001
 30
0.0
 11
5550.0
 21
8359.9567845000001
 31
0.0
  0
LINE
  5
7B0B
  8
4
  6
CONTINUOUS
 10
5550.0
 20
8359.9567845000001
 30
0.0
 11
5550.0
 21
8043.79074975
 31
0.0
  0
LINE
  5
7B0C
  8
4
  6
CONTINUOUS
 10
5550.0
 20
8043.79074975
 30
0.0
 11
4321.8522667500001
 21
8043.79074975
 31
0.0
  0
DIMENSION
  5
7B24
  8
3
  6
CONTINUOUS
  2
*D1
 10
3068.4246523101619
 20
3151.5611615989969
 30
0.0
 11
3068.424652310161
 21
2736.072692598997
 31
0.0
 70
   128
 13
2681.2693673101599
 23
2326.561161598996
 33
0.0
 14
2681.2693673101599
 24
3151.5611615989969
 34
0.0
 50
90.0
1001
ACAD
1000
DSTYLE
1002
{
1070
   287
1070
     3
1070
    40
1040
30.0
1070
   143
1040
0.039
1070
   172
1070
     1
1070
   271
1070
     0
1070
   279
1070
     0
1070
   288
1070
     1
1002
}
  0
DIMENSION
  5
7B31
  8
3
  6
CONTINUOUS
  2
*D2
 10
3329.10034331016
 20
2326.561161598996
 30
0.0
 11
3329.1003433101591
 21
2727.9314555989972
 31
0.0
 70
   128
 13
2915.5309163101588
 23
3113.5611615989969
 33
0.0
 14
2741.2693673101599
 24
2326.561161598996
 34
0.0
 50
90.0
1001
ACAD
1000
DSTYLE
1002
{
1070
   287
1070
     3
1070
    40
1040
30.0
1070
   143
1040
0.039
1070
   172
1070
     1
1070
   271
1070
     0
1070
   279
1070
     0
1070
   288
1070
     1
1002
}
  0
DIMENSION
  5
7B74
  8
3
  6
CONTINUOUS
  2
*D3
 10
2086.2693673101599
 20
4063.0922265989971
 30
0.0
 11
2360.5550815958741
 21
4063.0922265989971
 31
0.0
 70
   128
 13
2681.2693673101599
 23
3194.0611615989969
 33
0.0
 14
2086.2693673101599
 24
3905.6012776882649
 34
0.0
1001
ACAD
1000
DSTYLE
1002
{
1070
   287
1070
     3
1070
    40
1040
30.0
1070
   143
1040
0.039
1070
   172
1070
     1
1070
   271
1070
     0
1070
   279
1070
     0
1070
   288
1070
     1
1002
}
  0
DIMENSION
  5
7B8D
  8
3
  6
CONTINUOUS
  2
*D4
 10
2086.2693673101599
 20
1756.763330393286
 30
0.0
 11
2465.6121083101598
 21
1756.763330393286
 31
0.0
 70
   128
 13
2806.2693673101599
 23
2053.5611615989969
 33
0.0
 14
2086.2693673101599
 24
1860.7677615989969
 34
0.0
1001
ACAD
1000
DSTYLE
1002
{
1070
   287
1070
     3
1070
    40
1040
30.0
1070
   143
1040
0.039
1070
   172
1070
     1
1070
   271
1070
     0
1070
   279
1070
     0
1070
   288
1070
     1
1002
}
  0
DIMENSION
  5
7B99
  8
3
  6
CONTINUOUS
  2
*D5
 10
856.26936731016042
 20
1756.763330393286
 30
0.0
 11
1471.2693673101601
 21
1831.763330393286
 31
0.0
 70
     0
 13
2086.2693673101599
 23
1860.7677615989969
 33
0.0
 14
856.26936731016042
 24
2053.5611615989969
 34
0.0
1001
ACAD
1000
DSTYLE
1002
{
1070
   287
1070
     3
1070
    40
1040
30.0
1070
   143
1040
0.039
1070
   172
1070
     1
1070
   271
1070
     0
1070
   279
1070
     0
1070
   288
1070
     1
1002
}
  0
DIMENSION
  5
7BA6
  8
3
  6
CONTINUOUS
  2
*D6
 10
5211.5363644396211
 20
4087.5159125989971
 30
0.0
 11
4885.8220794396211
 21
4087.5159125989971
 31
0.0
 70
   128
 13
4611.5363644396211
 23
3691.1111615989962
 33
0.0
 14
5211.5363644396211
 24
3691.1111615989962
 34
0.0
1001
ACAD
1000
DSTYLE
1002
{
1070
   287
1070
     3
1070
    40
1040
30.0
1070
   143
1040
0.039
1070
   172
1070
     1
1070
   271
1070
     0
1070
   279
1070
     0
1070
   288
1070
     1
1002
}
  0
LINE
  5
7BA7
  8
1
  6
CONTINUOUS
 10
5215.5363644396211
 20
3538.5611615989969
 30
0.0
 11
5215.5363644396211
 21
2688.5611615989969
 31
0.0
  0
DIMENSION
  5
7BB6
  8
3
  6
CONTINUOUS
  2
*D7
 10
5684.688044439622
 20
2688.5611615989969
 30
0.0
 11
5684.6880444396211
 21
3110.5689995989969
 31
0.0
 70
   128
 13
5215.5363644396211
 23
3538.5611615989969
 33
0.0
 14
5215.5363644396211
 24
2688.5611615989969
 34
0.0
 50
90.0
1001
ACAD
1000
DSTYLE
1002
{
1070
   287
1070
     3
1070
     3
1000
φ<>
1070
    40
1040
30.0
1070
   143
1040
0.039
1070
   172
1070
     1
1070
   271
1070
     0
1070
   279
1070
     0
1070
   288
1070
     1
1002
}
  0
DIMENSION
  5
7BC4
  8
3
  6
CONTINUOUS
  2
*D8
 10
4911.5363644396211
 20
4379.7072031310126
 30
0.0
 11
5063.5363644396211
 21
4459.1784700844901
 31
0.0
 70
   128
 13
5215.5363644396211
 23
3538.5611615989969
 33
0.0
 14
4911.5363644396211
 24
4270.3813505989983
 34
0.0
1001
ACAD
1000
DSTYLE
1002
{
1070
   288
1070
     1
1070
   172
1070
     1
1070
    40
1040
30.0
1070
   271
1070
     0
1070
   143
1040
0.039
1002
}
  0
DIMENSION
  5
7BD1
  8
3
  6
CONTINUOUS
  2
*D9
 10
4041.632025439621
 20
2053.5611615989969
 30
0.0
 11
4041.632025439621
 21
3012.874310598997
 31
0.0
 70
   128
 13
4261.5363644396211
 23
3903.5611615989969
 33
0.0
 14
4261.5363644396211
 24
2053.5611615989969
 34
0.0
 50
90.0
1001
ACAD
1000
DSTYLE
1002
{
1070
   287
1070
     3
1070
    40
1040
30.0
1070
   143
1040
0.039
1070
   172
1070
     1
1070
   271
1070
     0
1070
   279
1070
     0
1070
   288
1070
     1
1002
}
  0
DIMENSION
  5
7BF7
  8
3
  6
CONTINUOUS
  2
*D10
 10
2806.2693673101599
 20
6342.6109750583764
 30
0.0
 11
1813.8726403101609
 21
6342.6109750583764
 31
0.0
 70
   128
 13
856.26936731016042
 23
6059.3114200583768
 33
0.0
 14
2806.2693673101599
 24
6059.3114200583768
 34
0.0
1001
ACAD
1000
DSTYLE
1002
{
1070
   287
1070
     3
1070
    40
1040
30.0
1070
   143
1040
0.039
1070
   172
1070
     1
1070
   271
1070
     0
1070
   279
1070
     0
1070
   288
1070
     1
1002
}
  0
DIMENSION
  5
7C04
  8
3
  6
CONTINUOUS
  2
*D11
 10
3145.00822931016
 20
4909.3114200583768
 30
0.0
 11
3145.00822931016
 21
5536.3282690583756
 31
0.0
 70
   128
 13
2806.2693673101599
 23
6059.3114200583768
 33
0.0
 14
2806.2693673101599
 24
4909.3114200583768
 34
0.0
 50
90.0
1001
ACAD
1000
DSTYLE
1002
{
1070
   287
1070
     3
1070
    40
1040
30.0
1070
   143
1040
0.039
1070
   172
1070
     1
1070
   271
1070
     0
1070
   279
1070
     0
1070
   288
1070
     1
1002
}
  0
DIMENSION
  5
7C1D
  8
3
  6
CONTINUOUS
  2
*D12
 10
4911.5363644396211
 20
1755.1600553932831
 30
0.0
 11
4594.0975424396211
 21
1755.1600553932831
 31
0.0
 70
   128
 13
4261.5363644396211
 23
2053.5611615989969
 33
0.0
 14
4911.5363644396211
 24
1875.4851125989969
 34
0.0
1001
ACAD
1000
DSTYLE
1002
{
1070
   287
1070
     3
1070
    40
1040
30.0
1070
   143
1040
0.039
1070
   172
1070
     1
1070
   271
1070
     0
1070
   279
1070
     0
1070
   288
1070
     1
1002
}
  0
DIMENSION
  5
7C2B
  8
3
  6
CONTINUOUS
  2
*D13
 10
5411.5363644396211
 20
1755.1600553932831
 30
0.0
 11
5205.8220787253358
 21
1755.1600553932831
 31
0.0
 70
   128
 13
4911.5363644396211
 23
1875.4851125989969
 33
0.0
 14
5411.5363644396211
 24
2053.5611615989969
 34
0.0
1001
ACAD
1000
DSTYLE
1002
{
1070
   287
1070
     3
1070
    40
1040
30.0
1070
   143
1040
0.039
1070
   172
1070
     1
1070
   271
1070
     0
1070
   279
1070
     0
1070
   288
1070
     1
1002
}
  0
DIMENSION
  5
7C79
  8
3
  6
CONTINUOUS
  2
*D14
 10
3537.5699239184
 20
2143.561161598996
 30
0.0
 11
3537.5699239184
 21
2662.4176315989971
 31
0.0
 70
   128
 13
2935.5309163101588
 23
3113.5611615989969
 33
0.0
 14
2606.2693673101599
 24
2143.561161598996
 34
0.0
 50
90.0
1001
ACAD
1000
DSTYLE
1002
{
1070
   287
1070
     3
1070
    40
1040
30.0
1070
   143
1040
0.039
1070
   172
1070
     1
1070
   271
1070
     0
1070
   279
1070
     0
1070
   288
1070
     1
1002
}
  0
DIMENSION
  5
7C89
  8
3
  6
CONTINUOUS
  2
*D15
 10
3537.5699239184
 20
2053.5611615989969
 30
0.0
 11
3537.5699239184
 21
1796.41830445614
 31
0.0
 70
   128
 13
2606.2693673101599
 23
2143.561161598996
 33
0.0
 14
2806.2693673101599
 24
2053.5611615989969
 34
0.0
 50
90.0
1001
ACAD
1000
DSTYLE
1002
{
1070
   287
1070
     3
1070
    40
1040
30.0
1070
   143
1040
0.039
1070
   172
1070
     1
1070
   271
1070
     0
1070
   279
1070
     0
1070
   288
1070
     1
1002
}
  0
DIMENSION
  5
7D1D
  8
3
  2
*D16
 10
1422.2693673101601
 20
4063.0922265989971
 30
0.0
 11
1754.2693673101601
 21
4138.0922265989966
 31
0.0
 70
     0
 13
2086.2693673101599
 23
3905.6012776882649
 33
0.0
 14
1422.2693673101601
 24
3113.5611615989969
 34
0.0
1001
ACAD
1000
DSTYLE
1002
{
1070
   287
1070
     3
1070
    40
1040
30.0
1070
   143
1040
0.039
1070
   172
1070
     1
1070
   271
1070
     0
1070
   279
1070
     0
1070
   288
1070
     1
1002
}
  0
DIMENSION
  5
7D37
  8
3
  2
*D17
 10
3537.5699239184
 20
3689.5518087058699
 30
0.0
 11
3462.5699239183991
 21
3401.5564851524341
 31
0.0
 70
     0
 13
2935.5309163101588
 23
3113.5611615989969
 33
0.0
 14
2086.2693673101599
 24
3689.5518087058708
 34
0.0
 50
90.0
1001
ACAD
1000
DSTYLE
1002
{
1070
   287
1070
     3
1070
    40
1040
30.0
1070
   143
1040
0.039
1070
   172
1070
     1
1070
   271
1070
     0
1070
   279
1070
     0
1070
   288
1070
     1
1002
}
  0
LINE
  5
7ED0
  8
1
  6
CONTINUOUS
 10
1586.2693673101601
 20
3243.5611615989969
 30
0.0
 11
2586.2693673101599
 21
3243.5611615989969
 31
0.0
  0
LINE
  5
7ED1
  8
1
 10
1586.2693673101601
 20
3243.5611615989969
 30
0.0
 11
1586.2693673101601
 21
2243.561161598996
 31
0.0
  0
LINE
  5
7ED2
  8
1
 10
2586.2693673101599
 20
3243.5611615989969
 30
0.0
 11
2586.2693673101599
 21
2243.561161598996
 31
0.0
  0
ENDSEC
  0
EOF
