  0
SECTION
  2
HEADER
  9
$ACADVER
  1
AC1009
  9
$INSBASE
 10
0.0
 20
0.0
 30
0.0
  9
$EXTMIN
 10
750.0
 20
900.0
 30
0.0
  9
$EXTMAX
 10
5550.0
 20
8359.9567849999985
 30
0.0
  9
$LIMMIN
 10
0.0
 20
0.0
  9
$LIMMAX
 10
297.0
 20
210.0
  9
$ORTHOMODE
 70
     0
  9
$REGENMODE
 70
     1
  9
$FILLMODE
 70
     0
  9
$QTEXTMODE
 70
     0
  9
$MIRRTEXT
 70
     1
  9
$DRAGMODE
 70
     2
  9
$LTSCALE
 40
100.0
  9
$OSMODE
 70
    37
  9
$ATTMODE
 70
     1
  9
$TEXTSIZE
 40
180.0
  9
$TRACEWID
 40
0.05
  9
$TEXTSTYLE
  7
STANDARD
  9
$CLAYER
  8
3
  9
$CELTYPE
  6
BYLAYER
  9
$CECOLOR
 62
   256
  9
$DIMSCALE
 40
30.0
  9
$DIMASZ
 40
2.0
  9
$DIMEXO
 40
0.5
  9
$DIMDLI
 40
10.0
  9
$DIMRND
 40
0.0
  9
$DIMDLE
 40
0.0
  9
$DIMEXE
 40
1.0
  9
$DIMTP
 40
1.0
  9
$DIMTM
 40
1.0
  9
$DIMTXT
 40
3.0
  9
$DIMCEN
 40
0.0
  9
$DIMTSZ
 40
0.0
  9
$DIMTOL
 70
     0
  9
$DIMLIM
 70
     0
  9
$DIMTIH
 70
     0
  9
$DIMTOH
 70
     0
  9
$DIMSE1
 70
     0
  9
$DIMSE2
 70
     0
  9
$DIMTAD
 70
     1
  9
$DIMZIN
 70
     8
  9
$DIMBLK
  1

  9
$DIMASO
 70
     1
  9
$DIMSHO
 70
     1
  9
$DIMPOST
  1

  9
$DIMAPOST
  1

  9
$DIMALT
 70
     0
  9
$DIMALTD
 70
     2
  9
$DIMALTF
 40
0.039
  9
$DIMLFAC
 40
1.0
  9
$DIMTOFL
 70
     1
  9
$DIMTVP
 40
0.0
  9
$DIMTIX
 70
     0
  9
$DIMSOXD
 70
     0
  9
$DIMSAH
 70
     1
  9
$DIMBLK1
  1
OPEN
  9
$DIMBLK2
  1
OPEN
  9
$DIMSTYLE
  2
IGA
  9
$DIMCLRD
 70
     0
  9
$DIMCLRE
 70
     0
  9
$DIMCLRT
 70
     0
  9
$DIMTFAC
 40
10.0
  9
$DIMGAP
 40
1.0
  9
$LUNITS
 70
     2
  9
$LUPREC
 70
     3
  9
$SKETCHINC
 40
0.1
  9
$FILLETRAD
 40
50.0
  9
$AUNITS
 70
     0
  9
$AUPREC
 70
     0
  9
$MENU
  1
acad
  9
$ELEVATION
 40
0.0
  9
$PELEVATION
 40
0.0
  9
$THICKNESS
 40
0.0
  9
$LIMCHECK
 70
     0
  9
$BLIPMODE
 70
     0
  9
$CHAMFERA
 40
0.5
  9
$CHAMFERB
 40
0.5
  9
$SKPOLY
 70
     0
  9
$TDCREATE
 40
2450749.4230260411
  9
$TDUPDATE
 40
2454953.7746912958
  9
$TDINDWG
 40
0.0061666551
  9
$TDUSRTIMER
 40
0.0061666551
  9
$USRTIMER
 70
     1
  9
$ANGBASE
 50
0.0
  9
$ANGDIR
 70
     0
  9
$PDMODE
 70
     0
  9
$PDSIZE
 40
0.0
  9
$PLINEWID
 40
0.0
  9
$COORDS
 70
     1
  9
$SPLFRAME
 70
     0
  9
$SPLINETYPE
 70
     6
  9
$SPLINESEGS
 70
     8
  9
$ATTDIA
 70
     0
  9
$ATTREQ
 70
     1
  9
$HANDLING
 70
 10241
  9
$HANDSEED
  5
7E6A
  9
$SURFTAB1
 70
     6
  9
$SURFTAB2
 70
     6
  9
$SURFTYPE
 70
     6
  9
$SURFU
 70
     6
  9
$SURFV
 70
     6
  9
$UCSNAME
  2

  9
$UCSORG
 10
0.0
 20
0.0
 30
0.0
  9
$UCSXDIR
 10
1.0
 20
0.0
 30
0.0
  9
$UCSYDIR
 10
0.0
 20
1.0
 30
0.0
  9
$PUCSNAME
  2

  9
$PUCSORG
 10
0.0
 20
0.0
 30
0.0
  9
$PUCSXDIR
 10
1.0
 20
0.0
 30
0.0
  9
$PUCSYDIR
 10
0.0
 20
1.0
 30
0.0
  9
$USERI1
 70
     0
  9
$USERI2
 70
     0
  9
$USERI3
 70
     0
  9
$USERI4
 70
     0
  9
$USERI5
 70
     0
  9
$USERR1
 40
0.0
  9
$USERR2
 40
0.0
  9
$USERR3
 40
0.0
  9
$USERR4
 40
0.0
  9
$USERR5
 40
0.0
  9
$WORLDVIEW
 70
     1
  9
$SHADEDGE
 70
     3
  9
$SHADEDIF
 70
    70
  9
$TILEMODE
 70
     1
  9
$MAXACTVP
 70
    16
  9
$PLIMCHECK
 70
     0
  9
$PEXTMIN
 10
1.0000000000000000E+020
 20
1.0000000000000000E+020
 30
1.0000000000000000E+020
  9
$PEXTMAX
 10
-1.0000000000000000E+020
 20
-1.0000000000000000E+020
 30
-1.0000000000000000E+020
  9
$PLIMMIN
 10
0.0
 20
0.0
  9
$PLIMMAX
 10
12.0
 20
9.0
  9
$UNITMODE
 70
     0
  9
$VISRETAIN
 70
     0
  9
$PLINEGEN
 70
     0
  9
$PSLTSCALE
 70
     1
  0
ENDSEC
  0
SECTION
  2
TABLES
  0
TABLE
  2
VPORT
 70
     2
  0
VPORT
  2
*ACTIVE
 70
     0
 10
0.0
 20
0.0
 11
1.0
 21
1.0
 12
9437.9954746499006
 22
4629.9199394653269
 13
0.0
 23
0.0
 14
10.0
 24
10.0
 15
10.0
 25
10.0
 16
0.0
 26
0.0
 36
1.0
 17
0.0
 27
0.0
 37
0.0
 40
7517.061441529765
 41
3.1666666666666661
 42
50.0
 43
0.0
 44
0.0
 50
0.0
 51
0.0
 71
     0
 72
   100
 73
     1
 74
     0
 75
     0
 76
     0
 77
     0
 78
     0
  0
ENDTAB
  0
TABLE
  2
LTYPE
 70
     2
  0
LTYPE
  2
CONTINUOUS
 70
     0
  3
Solid line
 72
    65
 73
     0
 40
0.0
  0
LTYPE
  2
CENTER
 70
     0
  3
____ _ ____ _ ____ _ ____ _ ____ _ ____ _ ____ 
 72
    65
 73
     4
 40
2.0
 49
1.25
 49
-0.25
 49
0.25
 49
-0.25
  0
ENDTAB
  0
TABLE
  2
LAYER
 70
     6
  0
LAYER
  2
0
 70
     0
 62
     7
  6
CONTINUOUS
  0
LAYER
  2
3
 70
     0
 62
     2
  6
CONTINUOUS
  0
LAYER
  2
2
 70
     0
 62
     3
  6
CENTER
  0
LAYER
  2
1
 70
     0
 62
     4
  6
CONTINUOUS
  0
LAYER
  2
4
 70
     0
 62
     7
  6
CONTINUOUS
  0
LAYER
  2
DEFPOINTS
 70
     0
 62
     7
  6
CONTINUOUS
  0
ENDTAB
  0
TABLE
  2
STYLE
 70
     1
  0
STYLE
  2
STANDARD
 70
     0
 40
0.0
 41
1.0
 50
0.0
 71
     0
 42
180.0
  3
simplex.shx
  4
extfont.shx
  0
ENDTAB
  0
TABLE
  2
VIEW
 70
     0
  0
ENDTAB
  0
TABLE
  2
UCS
 70
     0
  0
ENDTAB
  0
TABLE
  2
APPID
 70
     1
  0
APPID
  2
ACAD
 70
     0
  0
ENDTAB
  0
TABLE
  2
DIMSTYLE
 70
     1
  0
DIMSTYLE
  2
IGA
 70
     0
  3

  4

  5

  6
OPEN
  7
OPEN
 40
2.0
 41
2.0
 42
0.5
 43
10.0
 44
1.0
 45
0.0
 46
0.0
 47
1.0
 48
1.0
140
3.0
141
0.0
142
0.0
143
0.03937
144
1.0
145
0.0
146
10.0
147
1.0
 71
     0
 72
     0
 73
     0
 74
     0
 75
     0
 76
     0
 77
     1
 78
     8
170
     0
171
     2
172
     0
173
     1
174
     0
175
     0
176
     0
177
     0
178
     0
  0
ENDTAB
  0
ENDSEC
  0
SECTION
  2
BLOCKS
  0
BLOCK
  8
0
  2
$MODEL_SPACE
 70
     0
 10
0.0
 20
0.0
 30
0.0
  3
$MODEL_SPACE
  1

  0
ENDBLK
  5
1B
  8
0
  0
BLOCK
 67
     1
  8
0
  2
$PAPER_SPACE
 70
     0
 10
0.0
 20
0.0
 30
0.0
  3
$PAPER_SPACE
  1

  0
ENDBLK
  5
18
 67
     1
  8
0
  0
BLOCK
  8
0
  2
_OPEN
 70
     0
 10
0.0
 20
0.0
 30
0.0
  3
_OPEN
  1

  0
LINE
  5
7BB7
  8
0
  6
BYBLOCK
 62
     0
 10
-1.0
 20
0.166667
 30
0.0
 11
0.0
 21
0.0
 31
0.0
  0
LINE
  5
7BB8
  8
0
  6
BYBLOCK
 62
     0
 10
0.0
 20
0.0
 30
0.0
 11
-1.0
 21
-0.166667
 31
0.0
  0
LINE
  5
7BB9
  8
0
  6
BYBLOCK
 62
     0
 10
0.0
 20
0.0
 30
0.0
 11
-1.0
 21
0.0
 31
0.0
  0
ENDBLK
  5
7BBA
  8
0
  0
BLOCK
  8
0
  2
*D1
 70
     1
 10
0.0
 20
0.0
 30
0.0
  3
*D1
  1

  0
LINE
  5
7DC9
  8
3
  6
CONTINUOUS
 62
     0
 10
1584.6812520000001
 20
3905.155659
 30
0.0
 11
1346.3059860000001
 21
3905.155659
 31
0.0
  0
LINE
  5
7DCA
  8
3
  6
CONTINUOUS
 62
     0
 10
1584.6812520000001
 20
3080.155659
 30
0.0
 11
1346.3059860000001
 21
3080.155659
 31
0.0
  0
LINE
  5
7DCB
  8
3
  6
CONTINUOUS
 62
     0
 10
1376.3059860000001
 20
3845.155659
 30
0.0
 11
1376.3059860000001
 21
3140.155659
 31
0.0
  0
INSERT
  5
7DCC
  8
3
  6
CONTINUOUS
 62
     0
  2
_OPEN
 10
1376.3059860000001
 20
3905.155659
 30
0.0
 41
60.0
 42
60.0
 43
60.0
 50
90.0
  0
INSERT
  5
7DCD
  8
3
  6
CONTINUOUS
 62
     0
  2
_OPEN
 10
1376.3059860000001
 20
3080.155659
 30
0.0
 41
60.0
 42
60.0
 43
60.0
 50
270.0
  0
TEXT
  8
3
  40
90
  5
7E5A
  62
0
  72
0
  71
0
 10
1121.31
 20
3304.08
 30
0.000000
  1
825
  0
POINT
  5
7DCF
  8
DEFPOINTS
  6
CONTINUOUS
 62
     0
 10
1599.6812519999989
 20
3905.155659
 30
0.0
  0
POINT
  5
7DD0
  8
DEFPOINTS
  6
CONTINUOUS
 62
     0
 10
1599.6812519999989
 20
3080.155659
 30
0.0
  0
POINT
  5
7DD1
  8
DEFPOINTS
  6
CONTINUOUS
 62
     0
 10
1376.3059860000001
 20
3080.155659
 30
0.0
  0
ENDBLK
  5
7BC7
  8
0
  0
BLOCK
  8
0
  2
*D2
 70
     1
 10
0.0
 20
0.0
 30
0.0
  3
*D2
  1

  0
LINE
  5
7DD2
  8
3
  6
CONTINUOUS
 62
     0
 10
1524.6812519999989
 20
3905.155659
 30
0.0
 11
1163.1258700000001
 21
3905.155659
 31
0.0
  0
LINE
  5
7DD3
  8
3
  6
CONTINUOUS
 62
     0
 10
1390.5870970000001
 20
3118.155659
 30
0.0
 11
1163.1258700000001
 21
3118.155659
 31
0.0
  0
LINE
  5
7DD4
  8
3
  6
CONTINUOUS
 62
     0
 10
1193.1258700000001
 20
3845.155659
 30
0.0
 11
1193.1258700000001
 21
3178.155659
 31
0.0
  0
INSERT
  5
7DD5
  8
3
  6
CONTINUOUS
 62
     0
  2
_OPEN
 10
1193.1258700000001
 20
3905.155659
 30
0.0
 41
60.0
 42
60.0
 43
60.0
 50
90.0
  0
INSERT
  5
7DD6
  8
3
  6
CONTINUOUS
 62
     0
  2
_OPEN
 10
1193.1258700000001
 20
3118.155659
 30
0.0
 41
60.0
 42
60.0
 43
60.0
 50
270.0
  0
TEXT
  8
3
  40
90
  5
7E5B
  62
0
  72
0
  71
0
 10
938.126
 20
3304.08
 30
0.000000
  1
787
  0
POINT
  5
7DD8
  8
DEFPOINTS
  6
CONTINUOUS
 62
     0
 10
1539.6812520000001
 20
3905.155659
 30
0.0
  0
POINT
  5
7DD9
  8
DEFPOINTS
  6
CONTINUOUS
 62
     0
 10
1405.5870970000001
 20
3118.155659
 30
0.0
  0
POINT
  5
7DDA
  8
DEFPOINTS
  6
CONTINUOUS
 62
     0
 10
1193.1258700000001
 20
3118.155659
 30
0.0
  0
ENDBLK
  5
7BD4
  8
0
  0
BLOCK
  8
0
  2
*D3
 70
     1
 10
0.0
 20
0.0
 30
0.0
  3
*D3
  1

  0
LINE
  5
7DDB
  8
3
  6
CONTINUOUS
 62
     0
 10
1659.6812520000001
 20
2423.155659
 30
0.0
 11
1163.1258699999989
 21
2423.155659
 31
0.0
  0
LINE
  5
7DDC
  8
3
  6
CONTINUOUS
 62
     0
 10
1193.1258700000001
 20
3058.155659
 30
0.0
 11
1193.1258700000001
 21
2483.155659
 31
0.0
  0
INSERT
  5
7DDD
  8
3
  6
CONTINUOUS
 62
     0
  2
_OPEN
 10
1193.1258700000001
 20
3118.155659
 30
0.0
 41
60.0
 42
60.0
 43
60.0
 50
90.0
  0
INSERT
  5
7DDE
  8
3
  6
CONTINUOUS
 62
     0
  2
_OPEN
 10
1193.1258700000001
 20
2423.155659
 30
0.0
 41
60.0
 42
60.0
 43
60.0
 50
270.0
  0
TEXT
  8
3
  40
90
  5
7E5C
  62
0
  72
0
  71
0
 10
938.126
 20
2611.36
 30
0.000000
  1
695
  0
POINT
  5
7DE0
  8
DEFPOINTS
  6
CONTINUOUS
 62
     0
 10
1405.5870970000001
 20
3118.155659
 30
0.0
  0
POINT
  5
7DE1
  8
DEFPOINTS
  6
CONTINUOUS
 62
     0
 10
1674.6812520000001
 20
2423.155659
 30
0.0
  0
POINT
  5
7DE2
  8
DEFPOINTS
  6
CONTINUOUS
 62
     0
 10
1193.1258700000001
 20
2423.155659
 30
0.0
  0
ENDBLK
  5
7BE0
  8
0
  0
BLOCK
  8
0
  2
*D4
 70
     1
 10
0.0
 20
0.0
 30
0.0
  3
*D4
  1

  0
LINE
  5
7DE3
  8
3
  6
CONTINUOUS
 62
     0
 10
1659.6812520000001
 20
2423.155659
 30
0.0
 11
1163.1258700000001
 21
2423.155659
 31
0.0
  0
LINE
  5
7DE4
  8
3
  6
CONTINUOUS
 62
     0
 10
1459.6812520000001
 20
2333.155659
 30
0.0
 11
1163.1258700000001
 21
2333.155659
 31
0.0
  0
LINE
  5
7DE5
  8
3
  6
CONTINUOUS
 62
     0
 10
1193.1258700000001
 20
2483.155659
 30
0.0
 11
1193.1258700000001
 21
2543.1556589999991
 31
0.0
  0
LINE
  5
7DE6
  8
3
  6
CONTINUOUS
 62
     0
 10
1193.1258700000001
 20
2273.1556589999991
 30
0.0
 11
1193.1258700000001
 21
2007.441373285714
 31
0.0
  0
LINE
  5
7DE7
  8
3
  6
CONTINUOUS
 62
     0
 10
1193.1258700000001
 20
2423.155659
 30
0.0
 11
1193.1258700000001
 21
2333.155659
 31
0.0
  0
INSERT
  5
7DE8
  8
3
  6
CONTINUOUS
 62
     0
  2
_OPEN
 10
1193.1258700000001
 20
2423.155659
 30
0.0
 41
60.0
 42
60.0
 43
60.0
 50
270.0
  0
INSERT
  5
7DE9
  8
3
  6
CONTINUOUS
 62
     0
  2
_OPEN
 10
1193.1258700000001
 20
2333.155659
 30
0.0
 41
60.0
 42
60.0
 43
60.0
 50
90.0
  0
TEXT
  8
3
  40
90
  5
7E5D
  62
0
  72
0
  71
0
 10
938.126
 20
1951.00
 30
0.000000
  1
90
  0
POINT
  5
7DEB
  8
DEFPOINTS
  6
CONTINUOUS
 62
     0
 10
1674.6812520000001
 20
2423.155659
 30
0.0
  0
POINT
  5
7DEC
  8
DEFPOINTS
  6
CONTINUOUS
 62
     0
 10
1474.6812519999989
 20
2333.155659
 30
0.0
  0
POINT
  5
7DED
  8
DEFPOINTS
  6
CONTINUOUS
 62
     0
 10
1193.1258700000001
 20
2333.155659
 30
0.0
  0
ENDBLK
  5
7D48
  8
0
  0
BLOCK
  8
0
  2
*D5
 70
     1
 10
0.0
 20
0.0
 30
0.0
  3
*D5
  1

  0
LINE
  5
7DEE
  8
3
  6
CONTINUOUS
 62
     0
 10
1584.6812520000001
 20
3947.655659
 30
0.0
 11
965.24476100000061
 21
3947.655659
 31
0.0
  0
LINE
  5
7DEF
  8
3
  6
CONTINUOUS
 62
     0
 10
1459.6812520000001
 20
2333.155659
 30
0.0
 11
965.24476100000015
 21
2333.155659
 31
0.0
  0
LINE
  5
7DF0
  8
3
  6
CONTINUOUS
 62
     0
 10
995.24476100000049
 20
3887.655659
 30
0.0
 11
995.24476100000027
 21
2393.155659
 31
0.0
  0
INSERT
  5
7DF1
  8
3
  6
CONTINUOUS
 62
     0
  2
_OPEN
 10
995.24476100000049
 20
3947.655659
 30
0.0
 41
60.0
 42
60.0
 43
60.0
 50
90.0
  0
INSERT
  5
7DF2
  8
3
  6
CONTINUOUS
 62
     0
  2
_OPEN
 10
995.24476100000027
 20
2333.155659
 30
0.0
 41
60.0
 42
60.0
 43
60.0
 50
270.0
  0
TEXT
  8
3
  40
90
  5
7E5E
  62
0
  72
0
  71
0
 10
740.245
 20
2994.79
 30
0.000000
  1
1615
  0
POINT
  5
7DF4
  8
DEFPOINTS
  6
CONTINUOUS
 62
     0
 10
1599.6812519999989
 20
3947.655659
 30
0.0
  0
POINT
  5
7DF5
  8
DEFPOINTS
  6
CONTINUOUS
 62
     0
 10
1474.6812519999989
 20
2333.155659
 30
0.0
  0
POINT
  5
7DF6
  8
DEFPOINTS
  6
CONTINUOUS
 62
     0
 10
995.24476100000027
 20
2333.155659
 30
0.0
  0
ENDBLK
  5
7CE2
  8
0
  0
BLOCK
  8
0
  2
*D6
 70
     1
 10
0.0
 20
0.0
 30
0.0
  3
*D6
  1

  0
LINE
  5
7DF7
  8
3
  6
CONTINUOUS
 62
     0
 10
1474.6812519999989
 20
2318.1556589999991
 30
0.0
 11
1474.6812519999989
 21
2071.6166409999992
 31
0.0
  0
LINE
  5
7DF8
  8
3
  6
CONTINUOUS
 62
     0
 10
2194.6812519999999
 20
2186.441315
 30
0.0
 11
2194.6812519999999
 21
2071.6166409999992
 31
0.0
  0
LINE
  5
7DF9
  8
3
  6
CONTINUOUS
 62
     0
 10
1534.6812519999989
 20
2101.6166410000001
 30
0.0
 11
2134.6812519999999
 21
2101.6166410000001
 31
0.0
  0
INSERT
  5
7DFA
  8
3
  6
CONTINUOUS
 62
     0
  2
_OPEN
 10
1474.6812519999989
 20
2101.6166410000001
 30
0.0
 41
60.0
 42
60.0
 43
60.0
 50
180.0
  0
INSERT
  5
7DFB
  8
3
  6
CONTINUOUS
 62
     0
  2
_OPEN
 10
2194.6812519999999
 20
2101.6166410000001
 30
0.0
 41
60.0
 42
60.0
 43
60.0
  0
TEXT
  8
3
  40
90
  5
7E5F
  62
0
  72
0
  71
0
 10
1637.83
 20
2017.32
 30
0.000000
  1
720
  0
POINT
  5
7DFD
  8
DEFPOINTS
  6
CONTINUOUS
 62
     0
 10
1474.6812519999989
 20
2333.155659
 30
0.0
  0
POINT
  5
7DFE
  8
DEFPOINTS
  6
CONTINUOUS
 62
     0
 10
2194.6812519999999
 20
2201.4413149999991
 30
0.0
  0
POINT
  5
7DFF
  8
DEFPOINTS
  6
CONTINUOUS
 62
     0
 10
2194.6812519999999
 20
2101.6166410000001
 30
0.0
  0
ENDBLK
  5
7D24
  8
0
  0
BLOCK
  8
0
  2
*D7
 70
     1
 10
0.0
 20
0.0
 30
0.0
  3
*D7
  1

  0
LINE
  5
7E00
  8
3
  6
CONTINUOUS
 62
     0
 10
3424.6812519999999
 20
2318.1556589999991
 30
0.0
 11
3424.6812519999999
 21
2071.6166409999992
 31
0.0
  0
LINE
  5
7E01
  8
3
  6
CONTINUOUS
 62
     0
 10
2254.6812519999999
 20
2101.6166410000001
 30
0.0
 11
3364.6812519999999
 21
2101.6166410000001
 31
0.0
  0
INSERT
  5
7E02
  8
3
  6
CONTINUOUS
 62
     0
  2
_OPEN
 10
2194.6812519999999
 20
2101.6166410000001
 30
0.0
 41
60.0
 42
60.0
 43
60.0
 50
180.0
  0
INSERT
  5
7E03
  8
3
  6
CONTINUOUS
 62
     0
  2
_OPEN
 10
3424.6812519999999
 20
2101.6166410000001
 30
0.0
 41
60.0
 42
60.0
 43
60.0
  0
TEXT
  8
3
  40
90
  5
7E60
  62
0
  72
0
  71
0
 10
2629.68
 20
2017.32
 30
0.000000
  1
1230
  0
POINT
  5
7E05
  8
DEFPOINTS
  6
CONTINUOUS
 62
     0
 10
2194.6812519999999
 20
2201.4413149999991
 30
0.0
  0
POINT
  5
7E06
  8
DEFPOINTS
  6
CONTINUOUS
 62
     0
 10
3424.6812519999999
 20
2333.155659
 30
0.0
  0
POINT
  5
7E07
  8
DEFPOINTS
  6
CONTINUOUS
 62
     0
 10
3424.6812519999999
 20
2101.6166410000001
 30
0.0
  0
ENDBLK
  5
7D19
  8
0
  0
BLOCK
  8
0
  2
*D8
 70
     1
 10
0.0
 20
0.0
 30
0.0
  3
*D8
  1

  0
LINE
  5
7E08
  8
3
  6
CONTINUOUS
 62
     0
 10
1599.6812519999989
 20
3962.6556590000009
 30
0.0
 11
1599.6812519999989
 21
4414.9179169999989
 31
0.0
  0
LINE
  5
7E09
  8
3
  6
CONTINUOUS
 62
     0
 10
2194.6812519999999
 20
4328.4851310000004
 30
0.0
 11
2194.6812519999999
 21
4414.9179169999989
 31
0.0
  0
LINE
  5
7E0A
  8
3
  6
CONTINUOUS
 62
     0
 10
1659.6812520000001
 20
4384.9179169999998
 30
0.0
 11
2134.6812519999999
 21
4384.9179169999998
 31
0.0
  0
INSERT
  5
7E0B
  8
3
  6
CONTINUOUS
 62
     0
  2
_OPEN
 10
1599.6812519999989
 20
4384.9179169999998
 30
0.0
 41
60.0
 42
60.0
 43
60.0
 50
180.0
  0
INSERT
  5
7E0C
  8
3
  6
CONTINUOUS
 62
     0
  2
_OPEN
 10
2194.6812519999999
 20
4384.9179169999998
 30
0.0
 41
60.0
 42
60.0
 43
60.0
  0
TEXT
  8
3
  40
90
  5
7E61
  62
0
  72
0
  71
0
 10
1719.95
 20
4300.62
 30
0.000000
  1
595
  0
POINT
  5
7E0E
  8
DEFPOINTS
  6
CONTINUOUS
 62
     0
 10
1599.6812519999989
 20
3947.655659
 30
0.0
  0
POINT
  5
7E0F
  8
DEFPOINTS
  6
CONTINUOUS
 62
     0
 10
2194.6812519999999
 20
4313.4851310000004
 30
0.0
  0
POINT
  5
7E10
  8
DEFPOINTS
  6
CONTINUOUS
 62
     0
 10
2194.6812519999999
 20
4384.9179169999998
 30
0.0
  0
ENDBLK
  5
7C23
  8
0
  0
BLOCK
  8
0
  2
*D9
 70
     1
 10
0.0
 20
0.0
 30
0.0
  3
*D9
  1

  0
LINE
  5
7E11
  8
3
  6
CONTINUOUS
 62
     0
 10
4980.2953119999993
 20
3920.155659
 30
0.0
 11
4980.2953119999993
 21
4345.4866369999991
 31
0.0
  0
LINE
  5
7E12
  8
3
  6
CONTINUOUS
 62
     0
 10
4380.2953119999993
 20
3920.155659
 30
0.0
 11
4380.2953119999993
 21
4345.4866369999991
 31
0.0
  0
LINE
  5
7E13
  8
3
  6
CONTINUOUS
 62
     0
 10
4920.2953120000002
 20
4315.486637
 30
0.0
 11
4440.2953119999993
 21
4315.486637
 31
0.0
  0
INSERT
  5
7E14
  8
3
  6
CONTINUOUS
 62
     0
  2
_OPEN
 10
4980.2953119999993
 20
4315.486637
 30
0.0
 41
60.0
 42
60.0
 43
60.0
  0
INSERT
  5
7E15
  8
3
  6
CONTINUOUS
 62
     0
  2
_OPEN
 10
4380.2953119999993
 20
4315.486637
 30
0.0
 41
60.0
 42
60.0
 43
60.0
 50
180.0
  0
TEXT
  8
3
  40
90
  5
7E62
  62
0
  72
0
  71
0
 10
4505.55
 20
4231.19
 30
0.000000
  1
600
  0
POINT
  5
7E17
  8
DEFPOINTS
  6
CONTINUOUS
 62
     0
 10
4980.2953119999993
 20
3905.155659
 30
0.0
  0
POINT
  5
7E18
  8
DEFPOINTS
  6
CONTINUOUS
 62
     0
 10
4380.2953119999993
 20
3905.155659
 30
0.0
  0
POINT
  5
7E19
  8
DEFPOINTS
  6
CONTINUOUS
 62
     0
 10
4380.2953119999993
 20
4315.486637
 30
0.0
  0
ENDBLK
  5
7C30
  8
0
  0
BLOCK
  8
0
  2
*D10
 70
     1
 10
0.0
 20
0.0
 30
0.0
  3
*D10
  1

  0
LINE
  5
7E1A
  8
3
  6
CONTINUOUS
 62
     0
 10
4999.2953120000002
 20
3543.155659
 30
0.0
 11
5416.688489000001
 21
3543.1556589999991
 31
0.0
  0
LINE
  5
7E1B
  8
3
  6
CONTINUOUS
 62
     0
 10
4999.2953120000002
 20
2693.155659
 30
0.0
 11
5416.688489000001
 21
2693.1556589999991
 31
0.0
  0
LINE
  5
7E1C
  8
3
  6
CONTINUOUS
 62
     0
 10
5386.6884890000001
 20
3483.1556589999991
 30
0.0
 11
5386.6884890000001
 21
2753.1556589999991
 31
0.0
  0
INSERT
  5
7E1D
  8
3
  6
CONTINUOUS
 62
     0
  2
_OPEN
 10
5386.6884890000001
 20
3543.1556589999991
 30
0.0
 41
60.0
 42
60.0
 43
60.0
 50
90.0
  0
INSERT
  5
7E1E
  8
3
  6
CONTINUOUS
 62
     0
  2
_OPEN
 10
5386.6884890000001
 20
2693.1556589999991
 30
0.0
 41
60.0
 42
60.0
 43
60.0
 50
270.0
  0
TEXT
  8
3
  40
90
  5
7E63
  62
0
  72
0
  71
0
 10
5131.69
 20
2969.54
 30
0.000000
  1
φ850
  0
POINT
  5
7E20
  8
DEFPOINTS
  6
CONTINUOUS
 62
     0
 10
4984.2953120000002
 20
3543.155659
 30
0.0
  0
POINT
  5
7E21
  8
DEFPOINTS
  6
CONTINUOUS
 62
     0
 10
4984.2953120000002
 20
2693.155659
 30
0.0
  0
POINT
  5
7E22
  8
DEFPOINTS
  6
CONTINUOUS
 62
     0
 10
5386.6884890000001
 20
2693.1556589999991
 30
0.0
  0
ENDBLK
  5
7D76
  8
0
  0
BLOCK
  8
0
  2
*D11
 70
     1
 10
0.0
 20
0.0
 30
0.0
  3
*D11
  1

  0
LINE
  5
7D83
  8
0
  6
BYBLOCK
 62
     0
 10
4984.2953120000002
 20
3558.155659
 30
0.0
 11
4984.2953120000002
 21
4552.5127649999986
 31
0.0
  0
LINE
  5
7D84
  8
0
  6
BYBLOCK
 62
     0
 10
4680.2953119999993
 20
4470.5588390905732
 30
0.0
 11
4680.2953119999993
 21
4552.5127649999986
 31
0.0
  0
LINE
  5
7D85
  8
0
  6
BYBLOCK
 62
     0
 10
4924.2953119999993
 20
4522.5127650000004
 30
0.0
 11
4740.2953119999993
 21
4522.5127650000004
 31
0.0
  0
TEXT
  5
7D86
  8
3
 62
     0
 10
4729.4643633439682
 20
4545.0612279752486
 30
0.0
 40
90.0
  1
304
  0
INSERT
  5
7D87
  8
0
  6
BYBLOCK
 62
     0
  2
_OPEN
 10
4984.2953120000002
 20
4522.5127650000004
 30
0.0
 41
60.0
 42
60.0
 43
60.0
  0
INSERT
  5
7D88
  8
0
  6
BYBLOCK
 62
     0
  2
_OPEN
 10
4680.2953119999993
 20
4522.5127650000004
 30
0.0
 41
60.0
 42
60.0
 43
60.0
 50
180.0
  0
POINT
  5
7D89
  8
DEFPOINTS
  6
BYBLOCK
 62
     0
 10
4984.2953120000002
 20
3543.155659
 30
0.0
  0
POINT
  5
7D8A
  8
DEFPOINTS
  6
BYBLOCK
 62
     0
 10
4680.2953119999993
 20
4455.5588390905732
 30
0.0
  0
POINT
  5
7D8B
  8
DEFPOINTS
  6
BYBLOCK
 62
     0
 10
4680.2953119999993
 20
4522.5127650000004
 30
0.0
  0
ENDBLK
  5
7D8C
  8
0
  0
BLOCK
  8
0
  2
*D12
 70
     1
 10
0.0
 20
0.0
 30
0.0
  3
*D12
  1

  0
LINE
  5
7E23
  8
3
  6
CONTINUOUS
 62
     0
 10
4030.2953119999988
 20
2318.1556589999991
 30
0.0
 11
4030.2953119999988
 21
2036.3887199999999
 31
0.0
  0
LINE
  5
7E24
  8
3
  6
CONTINUOUS
 62
     0
 10
4680.2953119999993
 20
2132.8360859999998
 30
0.0
 11
4680.2953119999993
 21
2036.3887199999999
 31
0.0
  0
LINE
  5
7E25
  8
3
  6
CONTINUOUS
 62
     0
 10
4090.2953120000002
 20
2066.3887199999999
 30
0.0
 11
4620.2953119999993
 21
2066.3887199999999
 31
0.0
  0
INSERT
  5
7E26
  8
3
  6
CONTINUOUS
 62
     0
  2
_OPEN
 10
4030.2953119999988
 20
2066.3887199999999
 30
0.0
 41
60.0
 42
60.0
 43
60.0
 50
180.0
  0
INSERT
  5
7E27
  8
3
  6
CONTINUOUS
 62
     0
  2
_OPEN
 10
4680.2953119999993
 20
2066.3887199999999
 30
0.0
 41
60.0
 42
60.0
 43
60.0
  0
TEXT
  8
3
  40
90
  5
7E64
  62
0
  72
0
  71
0
 10
4164.46
 20
1982.09
 30
0.000000
  1
650
  0
POINT
  5
7E29
  8
DEFPOINTS
  6
CONTINUOUS
 62
     0
 10
4030.2953119999988
 20
2333.155659
 30
0.0
  0
POINT
  5
7E2A
  8
DEFPOINTS
  6
CONTINUOUS
 62
     0
 10
4680.2953119999993
 20
2147.8360859999989
 30
0.0
  0
POINT
  5
7E2B
  8
DEFPOINTS
  6
CONTINUOUS
 62
     0
 10
4680.2953119999993
 20
2066.3887199999999
 30
0.0
  0
ENDBLK
  5
7D0F
  8
0
  0
BLOCK
  8
0
  2
*D13
 70
     1
 10
0.0
 20
0.0
 30
0.0
  3
*D13
  1

  0
LINE
  5
7E2C
  8
3
  6
CONTINUOUS
 62
     0
 10
5180.2953119999993
 20
2318.1556589999991
 30
0.0
 11
5180.2953119999993
 21
2036.3887199999999
 31
0.0
  0
LINE
  5
7E2D
  8
3
  6
CONTINUOUS
 62
     0
 10
4740.2953119999993
 20
2066.3887199999999
 30
0.0
 11
5120.2953119999993
 21
2066.3887199999999
 31
0.0
  0
INSERT
  5
7E2E
  8
3
  6
CONTINUOUS
 62
     0
  2
_OPEN
 10
4680.2953119999993
 20
2066.3887199999999
 30
0.0
 41
60.0
 42
60.0
 43
60.0
 50
180.0
  0
INSERT
  5
7E2F
  8
3
  6
CONTINUOUS
 62
     0
  2
_OPEN
 10
5180.2953119999993
 20
2066.3887199999999
 30
0.0
 41
60.0
 42
60.0
 43
60.0
  0
TEXT
  8
3
  40
90
  5
7E65
  62
0
  72
0
  71
0
 10
4750.30
 20
1982.09
 30
0.000000
  1
500
  0
POINT
  5
7E31
  8
DEFPOINTS
  6
CONTINUOUS
 62
     0
 10
4680.2953119999993
 20
2147.8360859999989
 30
0.0
  0
POINT
  5
7E32
  8
DEFPOINTS
  6
CONTINUOUS
 62
     0
 10
5180.2953119999993
 20
2333.155659
 30
0.0
  0
POINT
  5
7E33
  8
DEFPOINTS
  6
CONTINUOUS
 62
     0
 10
5180.2953119999993
 20
2066.3887199999999
 30
0.0
  0
ENDBLK
  5
7D04
  8
0
  0
BLOCK
  8
0
  2
*D14
 70
     1
 10
0.0
 20
0.0
 30
0.0
  3
*D14
  1

  0
LINE
  5
7E34
  8
3
  6
CONTINUOUS
 62
     0
 10
1474.6812519999989
 20
6336.4644840000001
 30
0.0
 11
1474.6812519999989
 21
6592.3824260000001
 31
0.0
  0
LINE
  5
7E35
  8
3
  6
CONTINUOUS
 62
     0
 10
3424.6812519999999
 20
6336.4644840000001
 30
0.0
 11
3424.6812519999999
 21
6592.3824260000001
 31
0.0
  0
LINE
  5
7E36
  8
3
  6
CONTINUOUS
 62
     0
 10
1534.6812519999989
 20
6562.3824260000001
 30
0.0
 11
3364.6812519999999
 21
6562.3824260000001
 31
0.0
  0
INSERT
  5
7E37
  8
3
  6
CONTINUOUS
 62
     0
  2
_OPEN
 10
1474.6812519999989
 20
6562.3824260000001
 30
0.0
 41
60.0
 42
60.0
 43
60.0
 50
180.0
  0
INSERT
  5
7E38
  8
3
  6
CONTINUOUS
 62
     0
  2
_OPEN
 10
3424.6812519999999
 20
6562.3824260000001
 30
0.0
 41
60.0
 42
60.0
 43
60.0
  0
TEXT
  8
3
  40
90
  5
7E66
  62
0
  72
0
  71
0
 10
2193.69
 20
6478.08
 30
0.000000
  1
1950
  0
POINT
  5
7E3A
  8
DEFPOINTS
  6
CONTINUOUS
 62
     0
 10
1474.6812519999989
 20
6321.4644840000001
 30
0.0
  0
POINT
  5
7E3B
  8
DEFPOINTS
  6
CONTINUOUS
 62
     0
 10
3424.6812519999999
 20
6321.4644840000001
 30
0.0
  0
POINT
  5
7E3C
  8
DEFPOINTS
  6
CONTINUOUS
 62
     0
 10
3424.6812519999999
 20
6562.3824260000001
 30
0.0
  0
ENDBLK
  5
7CED
  8
0
  0
BLOCK
  8
0
  2
*D15
 70
     1
 10
0.0
 20
0.0
 30
0.0
  3
*D15
  1

  0
LINE
  5
7E3D
  8
3
  6
CONTINUOUS
 62
     0
 10
3439.6812519999999
 20
6321.4644840000001
 30
0.0
 11
3736.4847760000011
 21
6321.4644840000001
 31
0.0
  0
LINE
  5
7E3E
  8
3
  6
CONTINUOUS
 62
     0
 10
3439.6812519999999
 20
5171.464484000001
 30
0.0
 11
3736.4847760000011
 21
5171.464484000001
 31
0.0
  0
LINE
  5
7E3F
  8
3
  6
CONTINUOUS
 62
     0
 10
3706.4847759999998
 20
6261.464484000001
 30
0.0
 11
3706.4847759999998
 21
5231.4644839999992
 31
0.0
  0
INSERT
  5
7E40
  8
3
  6
CONTINUOUS
 62
     0
  2
_OPEN
 10
3706.4847759999998
 20
6321.4644840000001
 30
0.0
 41
60.0
 42
60.0
 43
60.0
 50
90.0
  0
INSERT
  5
7E41
  8
3
  6
CONTINUOUS
 62
     0
  2
_OPEN
 10
3706.4847759999998
 20
5171.464484000001
 30
0.0
 41
60.0
 42
60.0
 43
60.0
 50
270.0
  0
TEXT
  8
3
  40
90
  5
7E67
  62
0
  72
0
  71
0
 10
3451.48
 20
5604.47
 30
0.000000
  1
1150
  0
POINT
  5
7E43
  8
DEFPOINTS
  6
CONTINUOUS
 62
     0
 10
3424.6812519999999
 20
6321.4644840000001
 30
0.0
  0
POINT
  5
7E44
  8
DEFPOINTS
  6
CONTINUOUS
 62
     0
 10
3424.6812519999999
 20
5171.464484000001
 30
0.0
  0
POINT
  5
7E45
  8
DEFPOINTS
  6
CONTINUOUS
 62
     0
 10
3706.4847759999998
 20
5171.464484000001
 30
0.0
  0
ENDBLK
  5
7C8E
  8
0
  0
BLOCK
  8
0
  2
*D16
 70
     1
 10
0.0
 20
0.0
 30
0.0
  3
*D16
  1

  0
LINE
  5
7E46
  8
3
  6
CONTINUOUS
 62
     0
 10
4015.2953120000002
 20
4183.1556589999991
 30
0.0
 11
3806.4441020000008
 21
4183.1556589999991
 31
0.0
  0
LINE
  5
7E47
  8
3
  6
CONTINUOUS
 62
     0
 10
4015.2953120000002
 20
2333.155659
 30
0.0
 11
3806.4441020000008
 21
2333.155659
 31
0.0
  0
LINE
  5
7E48
  8
3
  6
CONTINUOUS
 62
     0
 10
3836.4441020000008
 20
4123.155659
 30
0.0
 11
3836.4441020000008
 21
2393.155659
 31
0.0
  0
INSERT
  5
7E49
  8
3
  6
CONTINUOUS
 62
     0
  2
_OPEN
 10
3836.4441020000008
 20
4183.1556589999991
 30
0.0
 41
60.0
 42
60.0
 43
60.0
 50
90.0
  0
INSERT
  5
7E4A
  8
3
  6
CONTINUOUS
 62
     0
  2
_OPEN
 10
3836.4441020000008
 20
2333.155659
 30
0.0
 41
60.0
 42
60.0
 43
60.0
 50
270.0
  0
TEXT
  8
3
  40
90
  5
7E68
  62
0
  72
0
  71
0
 10
3581.44
 20
2951.26
 30
0.000000
  1
1850
  0
POINT
  5
7E4C
  8
DEFPOINTS
  6
CONTINUOUS
 62
     0
 10
4030.2953119999988
 20
4183.1556589999991
 30
0.0
  0
POINT
  5
7E4D
  8
DEFPOINTS
  6
CONTINUOUS
 62
     0
 10
4030.2953119999988
 20
2333.155659
 30
0.0
  0
POINT
  5
7E4E
  8
DEFPOINTS
  6
CONTINUOUS
 62
     0
 10
3836.4441020000008
 20
2333.155659
 30
0.0
  0
ENDBLK
  5
7CB7
  8
0
  0
BLOCK
  8
0
  2
*D17
 70
     1
 10
0.0
 20
0.0
 30
0.0
  3
*D17
  1

  0
LINE
  5
7E4F
  8
3
 62
     0
 10
2858.6812519999989
 20
3133.0974982564589
 30
0.0
 11
2858.6812519999989
 21
4414.9179169999989
 31
0.0
  0
LINE
  5
7E50
  8
3
 62
     0
 10
2254.6812519999999
 20
4384.9179169999998
 30
0.0
 11
2798.6812519999989
 21
4384.9179169999998
 31
0.0
  0
INSERT
  5
7E51
  8
3
 62
     0
  2
_OPEN
 10
2194.6812519999999
 20
4384.9179169999998
 30
0.0
 41
60.0
 42
60.0
 43
60.0
 50
180.0
  0
INSERT
  5
7E52
  8
3
 62
     0
  2
_OPEN
 10
2858.6812519999989
 20
4384.9179169999998
 30
0.0
 41
60.0
 42
60.0
 43
60.0
  0
TEXT
  8
3
  40
90
  5
7E69
  62
0
  72
0
  71
0
 10
2346.68
 20
4300.62
 30
0.000000
  1
664
  0
POINT
  5
7E54
  8
DEFPOINTS
 62
     0
 10
2194.6812519999999
 20
4313.4851310000004
 30
0.0
  0
POINT
  5
7E55
  8
DEFPOINTS
 62
     0
 10
2858.6812519999989
 20
3118.097498256458
 30
0.0
  0
POINT
  5
7E56
  8
DEFPOINTS
 62
     0
 10
2858.6812519999989
 20
4384.9179169999998
 30
0.0
  0
ENDBLK
  5
7D54
  8
0
  0
BLOCK
  8
0
  2
_DOT
 70
     0
 10
0.0
 20
0.0
 30
0.0
  3
_DOT
  1

  0
POLYLINE
  5
7DA6
  8
0
  6
BYBLOCK
 62
     0
 66
     1
 10
0.0
 20
0.0
 30
0.0
 70
     1
 40
0.5
 41
0.5
  0
VERTEX
  5
7E57
  8
0
  6
BYBLOCK
 62
     0
 10
-0.25
 20
0.0
 30
0.0
 42
1.0
  0
VERTEX
  5
7E58
  8
0
  6
BYBLOCK
 62
     0
 10
0.25
 20
0.0
 30
0.0
 42
1.0
  0
SEQEND
  5
7E59
  8
0
  6
BYBLOCK
 62
     0
  0
LINE
  5
7DA7
  8
0
  6
BYBLOCK
 62
     0
 10
-0.5
 20
0.0
 30
0.0
 11
-1.0
 21
0.0
 31
0.0
  0
ENDBLK
  5
7DA9
  8
0
  0
ENDSEC
  0
SECTION
  2
ENTITIES
  0
ARC
  5
7ACC
  8
1
  6
CONTINUOUS
 10
2142.6812519999999
 20
3170.155659
 30
0.0
 40
717.88999999999987
 50
355.24000000000001
 51
85.849999999999994
  0
ARC
  5
7ACD
  8
1
  6
CONTINUOUS
 10
2238.6812519999999
 20
3162.155659
 30
0.0
 40
621.54999999999995
 50
263.5
 51
355.24000000000001
  0
LINE
  5
7ACE
  8
1
  6
CONTINUOUS
 10
1674.6812519999989
 20
2523.155659
 30
0.0
 11
3274.6812519999999
 21
2523.155659
 31
0.0
  0
LINE
  5
7ACF
  8
1
  6
CONTINUOUS
 10
1674.6812520000001
 20
2423.155659
 30
0.0
 11
3274.6812519999999
 21
2423.155659
 31
0.0
  0
LINE
  5
7AD0
  8
1
  6
CONTINUOUS
 10
2860.5712519999988
 20
6121.4644840000001
 30
0.0
 11
1599.6812519999989
 21
6121.4644840000001
 31
0.0
  0
LINE
  5
7AD1
  8
1
  6
CONTINUOUS
 10
2860.5712519999988
 20
5521.4644840000001
 30
0.0
 11
1599.6812519999989
 21
5521.4644840000001
 31
0.0
  0
LINE
  5
7AD2
  8
1
  6
CONTINUOUS
 10
3274.6812519999999
 20
6173.4644840000001
 30
0.0
 11
1674.6812520000001
 21
6173.4644840000001
 31
0.0
  0
LINE
  5
7AD3
  8
1
  6
CONTINUOUS
 10
2344.6812519999989
 20
3773.155659
 30
0.0
 11
3254.6812519999989
 21
2823.155659
 31
0.0
  0
LINE
  5
7AD4
  8
1
  6
CONTINUOUS
 10
3254.6812519999989
 20
5261.464484000001
 30
0.0
 11
1774.6812519999989
 21
5261.464484000001
 31
0.0
  0
LINE
  5
7AD5
  8
1
  6
CONTINUOUS
 10
3254.6812519999989
 20
5411.4644840000001
 30
0.0
 11
1774.6812519999989
 21
5411.4644840000001
 31
0.0
  0
LINE
  5
7AD6
  8
1
  6
CONTINUOUS
 10
3022.3012520000002
 20
5353.4644839999992
 30
0.0
 11
2394.6812519999989
 21
5353.4644839999992
 31
0.0
  0
LINE
  5
7AD7
  8
1
  6
CONTINUOUS
 10
2297.4612520000001
 20
3289.7256590000002
 30
0.0
 11
3135.8512519999999
 21
2787.4956590000002
 31
0.0
  0
LINE
  5
7AD8
  8
1
  6
CONTINUOUS
 10
2138.391251999999
 20
2926.235658999999
 30
0.0
 11
3076.2012519999998
 21
2651.1856589999989
 31
0.0
  0
LINE
  5
7AD9
  8
1
  6
CONTINUOUS
 10
3424.6812519999999
 20
5171.464484000001
 30
0.0
 11
1474.6812519999989
 21
5171.464484000001
 31
0.0
  0
LINE
  5
7ADA
  8
1
  6
CONTINUOUS
 10
3424.6812519999999
 20
6321.4644840000001
 30
0.0
 11
1474.6812519999989
 21
6321.4644840000001
 31
0.0
  0
LINE
  5
7ADB
  8
1
  6
CONTINUOUS
 10
1474.6812519999989
 20
2333.155659
 30
0.0
 11
3424.6812519999999
 21
2333.155659
 31
0.0
  0
LINE
  5
7ADC
  8
1
  6
CONTINUOUS
 10
1474.6812519999989
 20
4183.1556589999991
 30
0.0
 11
3424.6812519999999
 21
4183.1556589999991
 31
0.0
  0
LINE
  5
7ADD
  8
1
  6
CONTINUOUS
 10
1539.6812520000001
 20
4118.155659
 30
0.0
 11
3359.6812519999999
 21
4118.155659
 31
0.0
  0
LINE
  5
7ADE
  8
1
  6
CONTINUOUS
 10
1539.6812520000001
 20
2398.1556589999991
 30
0.0
 11
3359.6812519999999
 21
2398.1556589999991
 31
0.0
  0
LINE
  5
7ADF
  8
1
  6
CONTINUOUS
 10
3359.6812519999999
 20
5236.4644840000001
 30
0.0
 11
1539.6812520000001
 21
5236.4644840000001
 31
0.0
  0
LINE
  5
7AE0
  8
1
  6
CONTINUOUS
 10
3359.6812519999999
 20
6256.4644840000001
 30
0.0
 11
1539.6812520000001
 21
6256.4644840000001
 31
0.0
  0
LINE
  5
7AE1
  8
1
  6
CONTINUOUS
 10
1599.6812519999989
 20
3037.655659
 30
0.0
 11
1599.6812519999989
 21
3947.655659
 31
0.0
  0
LINE
  5
7AE2
  8
1
  6
CONTINUOUS
 10
1474.6812519999989
 20
4183.1556589999991
 30
0.0
 11
1474.6812519999989
 21
2333.155659
 31
0.0
  0
LINE
  5
7AE3
  8
1
  6
CONTINUOUS
 10
1539.6812520000001
 20
4118.155659
 30
0.0
 11
1539.6812520000001
 21
2398.1556589999991
 31
0.0
  0
LINE
  5
7AE4
  8
1
  6
CONTINUOUS
 10
1599.6812519999989
 20
3905.155659
 30
0.0
 11
2194.6812519999999
 21
3886.155659
 31
0.0
  0
ARC
  5
7AE5
  8
1
  6
CONTINUOUS
 10
2229.6812519999999
 20
3083.155659
 30
0.0
 40
542.03999999999985
 50
180.31999999999999
 51
263.5
  0
LINE
  5
7AE9
  8
1
  6
CONTINUOUS
 10
1774.6812519999989
 20
3773.155659
 30
0.0
 11
2344.6812519999989
 21
3773.155659
 31
0.0
  0
LINE
  5
7AEB
  8
1
  6
CONTINUOUS
 10
1774.6812519999989
 20
2523.155659
 30
0.0
 11
1774.6812519999989
 21
3773.155659
 31
0.0
  0
LINE
  5
7AEC
  8
1
  6
CONTINUOUS
 10
1674.6812520000001
 20
2523.155659
 30
0.0
 11
1674.6812520000001
 21
2423.155659
 31
0.0
  0
LINE
  5
7AED
  8
1
  6
CONTINUOUS
 10
1639.6812519999989
 20
3080.155659
 30
0.0
 11
1639.6812519999989
 21
3905.155659
 31
0.0
  0
LINE
  5
7AEE
  8
1
  6
CONTINUOUS
 10
1687.6512520000001
 20
3080.155659
 30
0.0
 11
1599.6812519999989
 21
3080.155659
 31
0.0
  0
LINE
  5
7AF0
  8
2
  6
CENTER
 10
1405.5870970000001
 20
3118.155659
 30
0.0
 11
3581.0112259999992
 21
3118.155659
 31
0.0
  0
CIRCLE
  5
7AF1
  8
1
  6
CONTINUOUS
 10
2194.6812519999999
 20
3118.155659
 30
0.0
 40
200.0
  0
LINE
  5
7AF2
  8
2
  6
CENTER
 10
2194.6812519999999
 20
6464.542355999999
 30
0.0
 11
2194.6812519999999
 21
5074.6431169999996
 31
0.0
  0
LINE
  5
7AF3
  8
1
  6
CONTINUOUS
 10
1994.6812519999989
 20
5353.4644839999992
 30
0.0
 11
1674.6812520000001
 21
5353.4644839999992
 31
0.0
  0
LINE
  5
7AF4
  8
1
  6
CONTINUOUS
 10
1599.6812519999989
 20
5479.464484000001
 30
0.0
 11
1599.6812519999989
 21
6163.4644840000001
 31
0.0
  0
LINE
  5
7AF5
  8
1
  6
CONTINUOUS
 10
1474.6812519999989
 20
6321.4644840000001
 30
0.0
 11
1474.6812519999989
 21
5171.464484000001
 31
0.0
  0
LINE
  5
7AF6
  8
1
  6
CONTINUOUS
 10
1539.6812520000001
 20
6256.4644840000001
 30
0.0
 11
1539.6812520000001
 21
5236.4644840000001
 31
0.0
  0
LINE
  5
7AF7
  8
1
  6
CONTINUOUS
 10
1774.6812519999989
 20
5261.464484000001
 30
0.0
 11
1774.6812519999989
 21
5411.4644840000001
 31
0.0
  0
LINE
  5
7AF8
  8
1
  6
CONTINUOUS
 10
1674.6812520000001
 20
5521.4644840000001
 30
0.0
 11
1674.6812520000001
 21
5353.4644839999992
 31
0.0
  0
LINE
  5
7AF9
  8
1
  6
CONTINUOUS
 10
1674.6812520000001
 20
6173.4644840000001
 30
0.0
 11
1674.6812520000001
 21
6121.4644840000001
 31
0.0
  0
LINE
  5
7AFA
  8
1
  6
CONTINUOUS
 10
1994.6812519999989
 20
5371.4644840000001
 30
0.0
 11
2394.6812519999989
 21
5371.4644840000001
 31
0.0
  0
LINE
  5
7AFB
  8
1
  6
CONTINUOUS
 10
1994.6812519999989
 20
5301.4644840000001
 30
0.0
 11
2394.6812519999989
 21
5301.4644840000001
 31
0.0
  0
LINE
  5
7AFC
  8
1
  6
CONTINUOUS
 10
1994.6812519999989
 20
5301.4644840000001
 30
0.0
 11
1994.6812519999989
 21
5371.4644840000001
 31
0.0
  0
LINE
  5
7AFD
  8
1
  6
CONTINUOUS
 10
2215.6812519999989
 20
5371.4644840000001
 30
0.0
 11
2215.6812519999989
 21
5521.4644840000001
 31
0.0
  0
LINE
  5
7AFE
  8
1
  6
CONTINUOUS
 10
2173.6812519999989
 20
5371.4644840000001
 30
0.0
 11
2173.6812519999989
 21
5521.4644840000001
 31
0.0
  0
LINE
  5
7AFF
  8
1
  6
CONTINUOUS
 10
2394.6812519999989
 20
5301.4644840000001
 30
0.0
 11
2394.6812519999989
 21
5371.4644840000001
 31
0.0
  0
LINE
  5
7B00
  8
1
  6
CONTINUOUS
 10
3424.6812519999999
 20
4183.1556589999991
 30
0.0
 11
3424.6812519999999
 21
2333.155659
 31
0.0
  0
LINE
  5
7B01
  8
1
  6
CONTINUOUS
 10
3359.6812519999999
 20
4118.155659
 30
0.0
 11
3359.6812519999999
 21
2398.1556589999991
 31
0.0
  0
LINE
  5
7B02
  8
1
  6
CONTINUOUS
 10
4095.2953120000002
 20
4118.155659
 30
0.0
 11
4095.2953120000002
 21
2398.1556589999991
 31
0.0
  0
LINE
  5
7B03
  8
1
  6
CONTINUOUS
 10
5115.2953119999993
 20
4118.155659
 30
0.0
 11
5115.2953119999993
 21
2398.1556589999991
 31
0.0
  0
LINE
  5
7B08
  8
1
  6
CONTINUOUS
 10
5180.2953119999993
 20
4183.1556589999991
 30
0.0
 11
5180.2953119999993
 21
2333.155659
 31
0.0
  0
LINE
  5
7B09
  8
1
  6
CONTINUOUS
 10
4030.2953119999988
 20
4183.1556589999991
 30
0.0
 11
4030.2953119999988
 21
2333.155659
 31
0.0
  0
LINE
  5
7B0E
  8
1
  6
CONTINUOUS
 10
5115.2953119999993
 20
2398.1556589999991
 30
0.0
 11
4095.2953120000002
 21
2398.1556589999991
 31
0.0
  0
LINE
  5
7B0F
  8
1
  6
CONTINUOUS
 10
5180.2953119999993
 20
2333.155659
 30
0.0
 11
4030.2953119999988
 21
2333.155659
 31
0.0
  0
LINE
  5
7B10
  8
1
  6
CONTINUOUS
 10
4270.2953120000002
 20
3773.155659
 30
0.0
 11
4120.2953119999993
 21
3773.155659
 31
0.0
  0
LINE
  5
7B11
  8
1
  6
CONTINUOUS
 10
5032.2953119999993
 20
2523.155659
 30
0.0
 11
4120.2953119999993
 21
2523.155659
 31
0.0
  0
ARC
  5
7B1C
  8
1
  6
CONTINUOUS
 10
3097.3012519999988
 20
2723.155659
 30
0.0
 40
162.0
 50
324.97000000000003
 51
215.02999999999989
  0
LINE
  5
7B1D
  8
1
  6
CONTINUOUS
 10
3251.3012519999988
 20
2523.155659
 30
0.0
 11
3251.3012519999988
 21
2581.155659
 31
0.0
  0
LINE
  5
7B1E
  8
1
  6
CONTINUOUS
 10
2943.3012519999988
 20
2523.155659
 30
0.0
 11
2943.3012519999988
 21
2581.155659
 31
0.0
  0
LINE
  5
7B1F
  8
1
  6
CONTINUOUS
 10
3254.6812519999989
 20
2823.155659
 30
0.0
 11
3254.6812519999989
 21
2523.155659
 31
0.0
  0
LINE
  5
7B20
  8
1
  6
CONTINUOUS
 10
3251.3012519999988
 20
2523.155659
 30
0.0
 11
2943.3012519999988
 21
2523.155659
 31
0.0
  0
LINE
  5
7B21
  8
1
  6
CONTINUOUS
 10
3274.6812519999999
 20
2523.155659
 30
0.0
 11
3274.6812519999999
 21
2423.155659
 31
0.0
  0
LINE
  5
7B22
  8
1
  6
CONTINUOUS
 10
2943.3012519999988
 20
2581.155659
 30
0.0
 11
2964.6512520000001
 21
2630.175659
 31
0.0
  0
CIRCLE
  5
7B23
  8
1
  6
CONTINUOUS
 10
3097.3012519999988
 20
2723.155659
 30
0.0
 40
75.0
  0
LINE
  5
7B24
  8
2
  6
CENTER
 10
3097.3012519999988
 20
2648.155659
 30
0.0
 11
3097.3012519999988
 21
2798.155659
 31
0.0
  0
LINE
  5
7B25
  8
2
  6
CENTER
 10
3172.3012520000002
 20
2723.155659
 30
0.0
 11
3022.3012520000002
 21
2723.155659
 31
0.0
  0
LINE
  5
7B26
  8
1
  6
CONTINUOUS
 10
3251.3012519999988
 20
2581.155659
 30
0.0
 11
3229.9612520000001
 21
2630.175659
 31
0.0
  0
LINE
  5
7B3C
  8
1
  6
CONTINUOUS
 10
4120.2953119999993
 20
3773.155659
 30
0.0
 11
4120.2953119999993
 21
2523.155659
 31
0.0
  0
LINE
  5
7B41
  8
1
  6
CONTINUOUS
 10
5032.2953119999993
 20
2423.155659
 30
0.0
 11
4212.2953119999993
 21
2423.155659
 31
0.0
  0
LINE
  5
7B42
  8
1
  6
CONTINUOUS
 10
4270.2953120000002
 20
3773.155659
 30
0.0
 11
4270.2953120000002
 21
2523.155659
 31
0.0
  0
LINE
  5
7B43
  8
1
  6
CONTINUOUS
 10
4980.2953119999993
 20
3905.155659
 30
0.0
 11
4980.2953119999993
 21
2523.155659
 31
0.0
  0
LINE
  5
7B44
  8
1
  6
CONTINUOUS
 10
4380.2953119999993
 20
3905.155659
 30
0.0
 11
4380.2953119999993
 21
2523.155659
 31
0.0
  0
LINE
  5
7B45
  8
1
  6
CONTINUOUS
 10
4212.2953119999993
 20
2523.155659
 30
0.0
 11
4212.2953119999993
 21
2423.155659
 31
0.0
  0
LINE
  5
7B46
  8
1
  6
CONTINUOUS
 10
4380.2953119999993
 20
3080.155659
 30
0.0
 11
4980.2953119999993
 21
3905.155659
 31
0.0
  0
LINE
  5
7B47
  8
1
  6
CONTINUOUS
 10
4980.2953119999993
 20
3080.155659
 30
0.0
 11
4380.2953119999993
 21
3905.155659
 31
0.0
  0
LINE
  5
7B48
  8
1
  6
CONTINUOUS
 10
4380.2953119999993
 20
3080.155659
 30
0.0
 11
4980.2953119999993
 21
3080.155659
 31
0.0
  0
LINE
  5
7B49
  8
1
  6
CONTINUOUS
 10
4380.2953119999993
 20
3905.155659
 30
0.0
 11
4980.2953119999993
 21
3905.155659
 31
0.0
  0
LINE
  5
7B4A
  8
1
  6
CONTINUOUS
 10
4230.2953119999993
 20
3318.155659
 30
0.0
 11
4230.2953119999993
 21
2918.1556589999991
 31
0.0
  0
LINE
  5
7B4B
  8
1
  6
CONTINUOUS
 10
4160.2953119999993
 20
3318.155659
 30
0.0
 11
4160.2953119999993
 21
2918.1556589999991
 31
0.0
  0
LINE
  5
7B4C
  8
1
  6
CONTINUOUS
 10
4380.2953119999993
 20
3097.155659
 30
0.0
 11
4230.2953119999993
 21
3097.155659
 31
0.0
  0
LINE
  5
7B4D
  8
1
  6
CONTINUOUS
 10
4380.2953119999993
 20
3139.155659
 30
0.0
 11
4230.2953119999993
 21
3139.155659
 31
0.0
  0
LINE
  5
7B4E
  8
1
  6
CONTINUOUS
 10
4230.2953119999993
 20
2702.155659
 30
0.0
 11
4380.2953119999993
 21
2702.155659
 31
0.0
  0
LINE
  5
7B4F
  8
1
  6
CONTINUOUS
 10
4230.2953119999993
 20
2744.155659
 30
0.0
 11
4380.2953119999993
 21
2744.155659
 31
0.0
  0
LINE
  5
7B50
  8
1
  6
CONTINUOUS
 10
4230.2953119999993
 20
2798.155659
 30
0.0
 11
4230.2953119999993
 21
2648.155659
 31
0.0
  0
LINE
  5
7B51
  8
1
  6
CONTINUOUS
 10
4160.2953119999993
 20
2798.155659
 30
0.0
 11
4160.2953119999993
 21
2648.155659
 31
0.0
  0
LINE
  5
7B52
  8
1
  6
CONTINUOUS
 10
4160.2953119999993
 20
2648.155659
 30
0.0
 11
4230.2953119999993
 21
2648.155659
 31
0.0
  0
LINE
  5
7B53
  8
1
  6
CONTINUOUS
 10
4160.2953119999993
 20
2798.155659
 30
0.0
 11
4230.2953119999993
 21
2798.155659
 31
0.0
  0
LINE
  5
7B54
  8
1
  6
CONTINUOUS
 10
4160.2953119999993
 20
2918.1556589999991
 30
0.0
 11
4230.2953119999993
 21
2918.1556589999991
 31
0.0
  0
LINE
  5
7B55
  8
1
  6
CONTINUOUS
 10
4160.2953119999993
 20
3318.155659
 30
0.0
 11
4230.2953119999993
 21
3318.155659
 31
0.0
  0
LINE
  5
7B56
  8
1
  6
CONTINUOUS
 10
5032.2953119999993
 20
2523.155659
 30
0.0
 11
5032.2953119999993
 21
2423.155659
 31
0.0
  0
LINE
  5
7B57
  8
1
  6
CONTINUOUS
 10
5115.2953119999993
 20
4118.155659
 30
0.0
 11
4095.2953120000002
 21
4118.155659
 31
0.0
  0
LINE
  5
7B58
  8
1
  6
CONTINUOUS
 10
5180.2953119999993
 20
4183.1556589999991
 30
0.0
 11
4030.2953119999988
 21
4183.1556589999991
 31
0.0
  0
LINE
  5
7B65
  8
1
  6
CONTINUOUS
 10
2935.3012520000002
 20
5459.4644840000001
 30
0.0
 11
2935.3012520000002
 21
5944.4644840000001
 31
0.0
  0
LINE
  5
7B66
  8
1
  6
CONTINUOUS
 10
3259.3012519999988
 20
5459.4644840000001
 30
0.0
 11
3259.3012519999988
 21
5944.4644840000001
 31
0.0
  0
LINE
  5
7B67
  8
1
  6
CONTINUOUS
 10
3274.6812519999999
 20
6173.4644840000001
 30
0.0
 11
3274.6812519999999
 21
5353.4644839999992
 31
0.0
  0
LINE
  5
7B68
  8
1
  6
CONTINUOUS
 10
2860.5712519999988
 20
5521.4644840000001
 30
0.0
 11
2860.5712519999988
 21
6121.4644840000001
 31
0.0
  0
LINE
  5
7B69
  8
1
  6
CONTINUOUS
 10
3424.6812519999999
 20
6321.4644840000001
 30
0.0
 11
3424.6812519999999
 21
5171.464484000001
 31
0.0
  0
LINE
  5
7B6A
  8
1
  6
CONTINUOUS
 10
3359.6812519999999
 20
6256.4644840000001
 30
0.0
 11
3359.6812519999999
 21
5236.4644840000001
 31
0.0
  0
LINE
  5
7B6B
  8
1
  6
CONTINUOUS
 10
3259.3012519999988
 20
5459.4644840000001
 30
0.0
 11
2935.3012520000002
 21
5459.4644840000001
 31
0.0
  0
LINE
  5
7B6C
  8
1
  6
CONTINUOUS
 10
3274.6812519999999
 20
5353.4644839999992
 30
0.0
 11
3172.3012520000002
 21
5353.4644839999992
 31
0.0
  0
LINE
  5
7B6D
  8
1
  6
CONTINUOUS
 10
3076.3012519999988
 20
5371.4644840000001
 30
0.0
 11
3076.3012519999988
 21
5459.4644840000001
 31
0.0
  0
LINE
  5
7B6E
  8
1
  6
CONTINUOUS
 10
3118.3012520000002
 20
5371.4644840000001
 30
0.0
 11
3118.3012520000002
 21
5459.4644840000001
 31
0.0
  0
LINE
  5
7B6F
  8
1
  6
CONTINUOUS
 10
3172.3012520000002
 20
5301.4644840000001
 30
0.0
 11
3172.3012520000002
 21
5371.4644840000001
 31
0.0
  0
LINE
  5
7B70
  8
1
  6
CONTINUOUS
 10
3022.3012520000002
 20
5301.4644840000001
 30
0.0
 11
3022.3012520000002
 21
5371.4644840000001
 31
0.0
  0
LINE
  5
7B71
  8
1
  6
CONTINUOUS
 10
3022.3012520000002
 20
5371.4644840000001
 30
0.0
 11
3172.3012520000002
 21
5371.4644840000001
 31
0.0
  0
LINE
  5
7B72
  8
1
  6
CONTINUOUS
 10
3022.3012520000002
 20
5301.4644840000001
 30
0.0
 11
3172.3012520000002
 21
5301.4644840000001
 31
0.0
  0
LINE
  5
7B73
  8
1
  6
CONTINUOUS
 10
3254.6812519999989
 20
5411.4644840000001
 30
0.0
 11
3254.6812519999989
 21
5261.464484000001
 31
0.0
  0
LINE
  5
7B74
  8
1
  6
CONTINUOUS
 10
3259.3012519999988
 20
5944.4644840000001
 30
0.0
 11
2935.3012520000002
 21
5944.4644840000001
 31
0.0
  0
LINE
  5
7B92
  8
2
  6
CENTER
 10
3515.1203220000002
 20
5821.4644840000001
 30
0.0
 11
1339.1807080000001
 21
5821.4644840000001
 31
0.0
  0
LINE
  5
7B93
  8
2
  6
CENTER
 10
4680.2953119999993
 20
4299.7825709999997
 30
0.0
 11
4680.2953119999993
 21
2147.8360859999989
 31
0.0
  0
LINE
  5
7B94
  8
2
  6
CENTER
 10
2194.6812519999999
 20
4313.4851310000004
 30
0.0
 11
2194.6812519999999
 21
2201.4413149999991
 31
0.0
  0
LINE
  5
7B95
  8
2
  6
CENTER
 10
3910.2754319999999
 20
3118.155659
 30
0.0
 11
5216.1414960000002
 21
3118.155659
 31
0.0
  0
LINE
  5
7B96
  8
4
  6
CONTINUOUS
 10
5550.0
 20
1500.0
 30
0.0
 11
5550.0
 21
900.0
 31
0.0
  0
LINE
  5
7B97
  8
4
  6
CONTINUOUS
 10
3450.0
 20
1500.0
 30
0.0
 11
3450.0
 21
900.0
 31
0.0
  0
LINE
  5
7B98
  8
4
  6
CONTINUOUS
 10
1950.0
 20
1500.0
 30
0.0
 11
1950.0
 21
900.0
 31
0.0
  0
LINE
  5
7B9B
  8
4
  6
CONTINUOUS
 10
1950.0
 20
900.0
 30
0.0
 11
5550.0
 21
900.0
 31
0.0
  0
LINE
  5
7B9C
  8
4
  6
CONTINUOUS
 10
1950.0
 20
1200.0
 30
0.0
 11
5550.0
 21
1200.0
 31
0.0
  0
TEXT
  5
7B9D
  8
4
  6
CONTINUOUS
 10
2065.5062429999989
 20
1294.6290779999999
 30
0.0
 40
150.0
  1
機器名称
  0
TEXT
  5
7B9E
  8
4
  6
CONTINUOUS
 10
2058.7743179999989
 20
964.9354699999999
 30
0.0
 40
150.0
  1
機器型番
  0
TEXT
  5
7B9F
  8
4
  6
CONTINUOUS
 10
3533.0362359999999
 20
1267.7153069999999
 30
0.0
 40
150.0
  1
ミツヤ多翼送風機
  0
TEXT
  5
7BA0
  8
4
  6
CONTINUOUS
 10
3559.9634869999991
 20
951.47875299999987
 30
0.0
 40
150.0
  1
MF#5-4
  0
TEXT
  5
7BA2
  8
4
  6
CONTINUOUS
 10
2125.7465999999999
 20
7150.2865239999992
 30
0.0
 40
162.0
  1
天井吊枠防振ベット
  0
TEXT
  5
7BA3
  8
4
  6
CONTINUOUS
 10
948.50278000000014
 20
7601.6429289999996
 30
0.0
 40
216.0
  1
ベルト駆動式片吸込両持多翼ファン
  0
LINE
  5
7BA4
  8
4
  6
CONTINUOUS
 10
750.0
 20
7408.2262629999996
 30
0.0
 11
5550.0
 21
7408.2262629999996
 31
0.0
  0
LINE
  5
7BA5
  8
4
  6
CONTINUOUS
 10
750.0
 20
8008.2262629999996
 30
0.0
 11
5550.0
 21
8008.2262629999996
 31
0.0
  0
LINE
  5
7BA6
  8
4
  6
CONTINUOUS
 10
1950.0
 20
1500.0
 30
0.0
 11
5550.0
 21
1500.0
 31
0.0
  0
LINE
  5
7BA7
  8
4
  6
CONTINUOUS
 10
750.0
 20
8008.2262629999996
 30
0.0
 11
750.0
 21
7408.2262629999996
 31
0.0
  0
TEXT
  5
7BA8
  8
4
  6
CONTINUOUS
 10
818.17010300000015
 20
7146.9584329999998
 30
0.0
 40
162.0
  1
左回転左横向
  0
TEXT
  5
7BA9
  8
4
  6
CONTINUOUS
 10
4406.9086779999989
 20
8118.1832439999989
 30
0.0
 40
168.0
  1
No.
  0
TEXT
  5
7BAA
  8
4
  6
CONTINUOUS
 10
4119.7652479999988
 20
7150.2865239999992
 30
0.0
 40
162.0
  1
縮尺：1/30
  0
LINE
  5
7BAB
  8
4
  6
CONTINUOUS
 10
5550.0
 20
8008.2262629999996
 30
0.0
 11
5550.0
 21
7408.2262629999996
 31
0.0
  0
LINE
  5
7BAD
  8
4
  6
CONTINUOUS
 10
4321.8522670000002
 20
8043.7907490000007
 30
0.0
 11
4321.8522670000002
 21
8359.9567849999985
 31
0.0
  0
LINE
  5
7BAE
  8
4
  6
CONTINUOUS
 10
4321.8522670000002
 20
8359.9567849999985
 30
0.0
 11
5550.0
 21
8359.9567849999985
 31
0.0
  0
LINE
  5
7BAF
  8
4
  6
CONTINUOUS
 10
5550.0
 20
8359.9567849999985
 30
0.0
 11
5550.0
 21
8043.7907490000007
 31
0.0
  0
LINE
  5
7BB0
  8
4
  6
CONTINUOUS
 10
5550.0
 20
8043.7907490000007
 30
0.0
 11
4321.8522670000002
 21
8043.7907490000007
 31
0.0
  0
DIMENSION
  5
7BC8
  8
3
  6
CONTINUOUS
  2
*D1
 10
1376.3059860000001
 20
3080.155659
 30
0.0
 11
1376.3059859999989
 21
3463.3754689999992
 31
0.0
 70
   128
 13
1599.6812519999989
 23
3905.155659
 33
0.0
 14
1599.6812519999989
 24
3080.155659
 34
0.0
 50
90.0
1001
ACAD
1000
DSTYLE
1002
{
1070
   287
1070
     3
1070
    40
1040
30.0
1070
   143
1040
0.039
1070
   172
1070
     1
1070
   271
1070
     0
1070
   279
1070
     0
1070
   288
1070
     1
1002
}
  0
DIMENSION
  5
7BD5
  8
3
  6
CONTINUOUS
  2
*D2
 10
1193.1258700000001
 20
3118.155659
 30
0.0
 11
1193.1258700000001
 21
3463.3754689999992
 31
0.0
 70
   128
 13
1539.6812520000001
 23
3905.155659
 33
0.0
 14
1405.5870970000001
 24
3118.155659
 34
0.0
 50
90.0
1001
ACAD
1000
DSTYLE
1002
{
1070
   287
1070
     3
1070
    40
1040
30.0
1070
   143
1040
0.039
1070
   172
1070
     1
1070
   271
1070
     0
1070
   279
1070
     0
1070
   288
1070
     1
1002
}
  0
DIMENSION
  5
7BE1
  8
3
  6
CONTINUOUS
  2
*D3
 10
1193.1258700000001
 20
2423.155659
 30
0.0
 11
1118.1258699999989
 21
2770.655659
 31
0.0
 70
     0
 13
1405.5870970000001
 23
3118.155659
 33
0.0
 14
1674.6812520000001
 24
2423.155659
 34
0.0
 50
90.0
1001
ACAD
1000
DSTYLE
1002
{
1070
   287
1070
     4
1070
    40
1040
30.0
1070
    75
1070
     1
1070
   143
1040
0.039
1070
   172
1070
     1
1070
   271
1070
     0
1070
   279
1070
     1
1070
   288
1070
     1
1002
}
  0
DIMENSION
  5
7BF1
  8
3
  6
CONTINUOUS
  2
*D4
 10
1193.1258700000001
 20
2333.155659
 30
0.0
 11
1193.1258700000001
 21
2110.2985161428578
 31
0.0
 70
   128
 13
1674.6812520000001
 23
2423.155659
 33
0.0
 14
1474.6812519999989
 24
2333.155659
 34
0.0
 50
90.0
1001
ACAD
1000
DSTYLE
1002
{
1070
   287
1070
     3
1070
    40
1040
30.0
1070
   143
1040
0.039
1070
   172
1070
     1
1070
   271
1070
     0
1070
   279
1070
     0
1070
   288
1070
     1
1002
}
  0
DIMENSION
  5
7BFE
  8
3
  6
CONTINUOUS
  2
*D5
 10
995.24476100000027
 20
2333.155659
 30
0.0
 11
995.24476100000004
 21
3154.0906599999998
 31
0.0
 70
   128
 13
1599.6812519999989
 23
3947.655659
 33
0.0
 14
1474.6812519999989
 24
2333.155659
 34
0.0
 50
90.0
1001
ACAD
1000
DSTYLE
1002
{
1070
   287
1070
     3
1070
    40
1040
30.0
1070
   143
1040
0.039
1070
   172
1070
     1
1070
   271
1070
     0
1070
   279
1070
     0
1070
   288
1070
     1
1002
}
  0
DIMENSION
  5
7C0B
  8
3
  6
CONTINUOUS
  2
*D6
 10
2194.6812519999999
 20
2101.6166410000001
 30
0.0
 11
1817.834668
 21
2101.6166410000001
 31
0.0
 70
   128
 13
1474.6812519999989
 23
2333.155659
 33
0.0
 14
2194.6812519999999
 24
2201.4413149999991
 34
0.0
1001
ACAD
1000
DSTYLE
1002
{
1070
   287
1070
     3
1070
    40
1040
30.0
1070
   143
1040
0.039
1070
   172
1070
     1
1070
   271
1070
     0
1070
   279
1070
     0
1070
   288
1070
     1
1002
}
  0
DIMENSION
  5
7C17
  8
3
  6
CONTINUOUS
  2
*D7
 10
3424.6812519999999
 20
2101.6166410000001
 30
0.0
 11
2809.6812519999999
 21
2176.6166410000001
 31
0.0
 70
     0
 13
2194.6812519999999
 23
2201.4413149999991
 33
0.0
 14
3424.6812519999999
 24
2333.155659
 34
0.0
1001
ACAD
1000
DSTYLE
1002
{
1070
   287
1070
     4
1070
    40
1040
30.0
1070
    75
1070
     1
1070
   143
1040
0.039
1070
   172
1070
     1
1070
   271
1070
     0
1070
   279
1070
     1
1070
   288
1070
     1
1002
}
  0
DIMENSION
  5
7C24
  8
3
  6
CONTINUOUS
  2
*D8
 10
2194.6812519999999
 20
4384.9179169999998
 30
0.0
 11
1899.949891
 21
4384.9179169999998
 31
0.0
 70
   128
 13
1599.6812519999989
 23
3947.655659
 33
0.0
 14
2194.6812519999999
 24
4313.4851310000004
 34
0.0
1001
ACAD
1000
DSTYLE
1002
{
1070
   287
1070
     3
1070
    40
1040
30.0
1070
   143
1040
0.039
1070
   172
1070
     1
1070
   271
1070
     0
1070
   279
1070
     0
1070
   288
1070
     1
1002
}
  0
DIMENSION
  5
7C31
  8
3
  6
CONTINUOUS
  2
*D9
 10
4380.2953119999993
 20
4315.486637
 30
0.0
 11
4685.5508479999999
 21
4315.486637
 31
0.0
 70
   128
 13
4980.2953119999993
 23
3905.155659
 33
0.0
 14
4380.2953119999993
 24
3905.155659
 34
0.0
1001
ACAD
1000
DSTYLE
1002
{
1070
   287
1070
     3
1070
    40
1040
30.0
1070
   143
1040
0.039
1070
   172
1070
     1
1070
   271
1070
     0
1070
   279
1070
     0
1070
   288
1070
     1
1002
}
  0
LINE
  5
7C32
  8
1
  6
CONTINUOUS
 10
4984.2953120000002
 20
3543.155659
 30
0.0
 11
4984.2953120000002
 21
2693.155659
 31
0.0
  0
DIMENSION
  5
7C41
  8
3
  6
CONTINUOUS
  2
*D10
 10
5386.6884890000001
 20
2693.1556589999991
 30
0.0
 11
5386.6884890000001
 21
3128.842932
 31
0.0
 70
   128
 13
4984.2953120000002
 23
3543.155659
 33
0.0
 14
4984.2953120000002
 24
2693.155659
 34
0.0
 50
90.0
1001
ACAD
1000
DSTYLE
1002
{
1070
   287
1070
     3
1070
     3
1000
φ<>
1070
    40
1040
30.0
1070
   143
1040
0.039
1070
   172
1070
     1
1070
   271
1070
     0
1070
   279
1070
     0
1070
   288
1070
     1
1002
}
  0
DIMENSION
  5
7C50
  8
3
  6
CONTINUOUS
  2
*D11
 10
4680.2953119999993
 20
4522.5127650000004
 30
0.0
 11
4847.3215062011122
 21
4590.0612279752486
 31
0.0
 70
   128
 13
4984.2953120000002
 23
3543.155659
 33
0.0
 14
4680.2953119999993
 24
4455.5588390905732
 34
0.0
1001
ACAD
1000
DSTYLE
1002
{
1070
   288
1070
     1
1070
   172
1070
     1
1070
    40
1040
30.0
1070
   271
1070
     0
1070
   143
1040
0.039
1002
}
  0
DIMENSION
  5
7C69
  8
3
  6
CONTINUOUS
  2
*D12
 10
4680.2953119999993
 20
2066.3887199999999
 30
0.0
 11
4344.4568310000013
 21
2066.3887199999999
 31
0.0
 70
   128
 13
4030.2953119999988
 23
2333.155659
 33
0.0
 14
4680.2953119999993
 24
2147.8360859999989
 34
0.0
1001
ACAD
1000
DSTYLE
1002
{
1070
   287
1070
     3
1070
    40
1040
30.0
1070
   143
1040
0.039
1070
   172
1070
     1
1070
   271
1070
     0
1070
   279
1070
     0
1070
   288
1070
     1
1002
}
  0
DIMENSION
  5
7C75
  8
3
  6
CONTINUOUS
  2
*D13
 10
5180.2953119999993
 20
2066.3887199999999
 30
0.0
 11
4930.2953119999993
 21
2141.3887199999999
 31
0.0
 70
     0
 13
4680.2953119999993
 23
2147.8360859999989
 33
0.0
 14
5180.2953119999993
 24
2333.155659
 34
0.0
1001
ACAD
1000
DSTYLE
1002
{
1070
   287
1070
     4
1070
    40
1040
30.0
1070
    75
1070
     1
1070
   143
1040
0.039
1070
   172
1070
     1
1070
   271
1070
     0
1070
   279
1070
     1
1070
   288
1070
     1
1002
}
  0
DIMENSION
  5
7C82
  8
3
  6
CONTINUOUS
  2
*D14
 10
3424.6812519999999
 20
6562.3824260000001
 30
0.0
 11
2373.691562999999
 21
6562.3824260000001
 31
0.0
 70
   128
 13
1474.6812519999989
 23
6321.4644840000001
 33
0.0
 14
3424.6812519999999
 24
6321.4644840000001
 34
0.0
1001
ACAD
1000
DSTYLE
1002
{
1070
   287
1070
     3
1070
    40
1040
30.0
1070
   143
1040
0.039
1070
   172
1070
     1
1070
   271
1070
     0
1070
   279
1070
     0
1070
   288
1070
     1
1002
}
  0
DIMENSION
  5
7C8F
  8
3
  6
CONTINUOUS
  2
*D15
 10
3706.4847759999998
 20
5171.464484000001
 30
0.0
 11
3706.4847759999989
 21
5763.7709329999989
 31
0.0
 70
   128
 13
3424.6812519999999
 23
6321.4644840000001
 33
0.0
 14
3424.6812519999999
 24
5171.464484000001
 34
0.0
 50
90.0
1001
ACAD
1000
DSTYLE
1002
{
1070
   287
1070
     3
1070
    40
1040
30.0
1070
   143
1040
0.039
1070
   172
1070
     1
1070
   271
1070
     0
1070
   279
1070
     0
1070
   288
1070
     1
1002
}
  0
DIMENSION
  5
7CB8
  8
3
  6
CONTINUOUS
  2
*D16
 10
3836.4441020000008
 20
2333.155659
 30
0.0
 11
3836.4441020000008
 21
3110.563686
 31
0.0
 70
   128
 13
4030.2953119999988
 23
4183.1556589999991
 33
0.0
 14
4030.2953119999988
 24
2333.155659
 34
0.0
 50
90.0
1001
ACAD
1000
DSTYLE
1002
{
1070
   287
1070
     3
1070
    40
1040
30.0
1070
   143
1040
0.039
1070
   172
1070
     1
1070
   271
1070
     0
1070
   279
1070
     0
1070
   288
1070
     1
1002
}
  0
DIMENSION
  5
7D55
  8
3
  2
*D17
 10
2858.6812519999989
 20
4384.9179169999998
 30
0.0
 11
2526.6812519999989
 21
4459.9179169999998
 31
0.0
 70
     0
 13
2194.6812519999999
 23
4313.4851310000004
 33
0.0
 14
2858.6812519999989
 24
3118.097498256458
 34
0.0
1001
ACAD
1000
DSTYLE
1002
{
1070
   287
1070
     4
1070
    40
1040
30.0
1070
    75
1070
     1
1070
   143
1040
0.039
1070
   172
1070
     1
1070
   271
1070
     0
1070
   279
1070
     1
1070
   288
1070
     1
1002
}
  0
LINE
  5
7DB1
  8
1
  6
CONTINUOUS
 10
1694.6812519999989
 20
3523.155659
 30
0.0
 11
2694.6812519999989
 21
3523.155659
 31
0.0
  0
LINE
  5
7DB2
  8
1
 10
1694.6812519999989
 20
3523.155659
 30
0.0
 11
1694.6812519999989
 21
2523.155659
 31
0.0
  0
LINE
  5
7DB3
  8
1
 10
2694.6812519999989
 20
3523.155659
 30
0.0
 11
2694.6812519999999
 21
2523.155659
 31
0.0
  0
ENDSEC
  0
EOF
