  0
SECTION
  2
HEADER
  9
$ACADVER
  1
AC1009
  9
$INSBASE
 10
0.0
 20
0.0
 30
0.0
  9
$EXTMIN
 10
750.0
 20
900.0
 30
0.0
  9
$EXTMAX
 10
5550.0
 20
8359.9567849999985
 30
0.0
  9
$LIMMIN
 10
0.0
 20
0.0
  9
$LIMMAX
 10
297.0
 20
210.0
  9
$ORTHOMODE
 70
     0
  9
$REGENMODE
 70
     1
  9
$FILLMODE
 70
     0
  9
$QTEXTMODE
 70
     0
  9
$MIRRTEXT
 70
     1
  9
$DRAGMODE
 70
     2
  9
$LTSCALE
 40
100.0
  9
$OSMODE
 70
    37
  9
$ATTMODE
 70
     1
  9
$TEXTSIZE
 40
180.0
  9
$TRACEWID
 40
0.05
  9
$TEXTSTYLE
  7
STANDARD
  9
$CLAYER
  8
3
  9
$CELTYPE
  6
BYLAYER
  9
$CECOLOR
 62
   256
  9
$DIMSCALE
 40
30.0
  9
$DIMASZ
 40
2.0
  9
$DIMEXO
 40
0.5
  9
$DIMDLI
 40
10.0
  9
$DIMRND
 40
0.0
  9
$DIMDLE
 40
0.0
  9
$DIMEXE
 40
1.0
  9
$DIMTP
 40
1.0
  9
$DIMTM
 40
1.0
  9
$DIMTXT
 40
3.0
  9
$DIMCEN
 40
0.0
  9
$DIMTSZ
 40
0.0
  9
$DIMTOL
 70
     0
  9
$DIMLIM
 70
     0
  9
$DIMTIH
 70
     0
  9
$DIMTOH
 70
     0
  9
$DIMSE1
 70
     0
  9
$DIMSE2
 70
     0
  9
$DIMTAD
 70
     1
  9
$DIMZIN
 70
     8
  9
$DIMBLK
  1

  9
$DIMASO
 70
     1
  9
$DIMSHO
 70
     1
  9
$DIMPOST
  1

  9
$DIMAPOST
  1

  9
$DIMALT
 70
     0
  9
$DIMALTD
 70
     2
  9
$DIMALTF
 40
0.039
  9
$DIMLFAC
 40
1.0
  9
$DIMTOFL
 70
     1
  9
$DIMTVP
 40
0.0
  9
$DIMTIX
 70
     0
  9
$DIMSOXD
 70
     0
  9
$DIMSAH
 70
     1
  9
$DIMBLK1
  1
OPEN
  9
$DIMBLK2
  1
OPEN
  9
$DIMSTYLE
  2
IGA
  9
$DIMCLRD
 70
     0
  9
$DIMCLRE
 70
     0
  9
$DIMCLRT
 70
     0
  9
$DIMTFAC
 40
10.0
  9
$DIMGAP
 40
1.0
  9
$LUNITS
 70
     2
  9
$LUPREC
 70
     3
  9
$SKETCHINC
 40
0.1
  9
$FILLETRAD
 40
50.0
  9
$AUNITS
 70
     0
  9
$AUPREC
 70
     0
  9
$MENU
  1
acad
  9
$ELEVATION
 40
0.0
  9
$PELEVATION
 40
0.0
  9
$THICKNESS
 40
0.0
  9
$LIMCHECK
 70
     0
  9
$BLIPMODE
 70
     0
  9
$CHAMFERA
 40
0.5
  9
$CHAMFERB
 40
0.5
  9
$SKPOLY
 70
     0
  9
$TDCREATE
 40
2450749.3953172448
  9
$TDUPDATE
 40
2454953.7746364921
  9
$TDINDWG
 40
0.010658912
  9
$TDUSRTIMER
 40
0.010658912
  9
$USRTIMER
 70
     1
  9
$ANGBASE
 50
0.0
  9
$ANGDIR
 70
     0
  9
$PDMODE
 70
     0
  9
$PDSIZE
 40
0.0
  9
$PLINEWID
 40
0.0
  9
$COORDS
 70
     1
  9
$SPLFRAME
 70
     0
  9
$SPLINETYPE
 70
     6
  9
$SPLINESEGS
 70
     8
  9
$ATTDIA
 70
     0
  9
$ATTREQ
 70
     1
  9
$HANDLING
 70
 10241
  9
$HANDSEED
  5
7E5B
  9
$SURFTAB1
 70
     6
  9
$SURFTAB2
 70
     6
  9
$SURFTYPE
 70
     6
  9
$SURFU
 70
     6
  9
$SURFV
 70
     6
  9
$UCSNAME
  2

  9
$UCSORG
 10
0.0
 20
0.0
 30
0.0
  9
$UCSXDIR
 10
1.0
 20
0.0
 30
0.0
  9
$UCSYDIR
 10
0.0
 20
1.0
 30
0.0
  9
$PUCSNAME
  2

  9
$PUCSORG
 10
0.0
 20
0.0
 30
0.0
  9
$PUCSXDIR
 10
1.0
 20
0.0
 30
0.0
  9
$PUCSYDIR
 10
0.0
 20
1.0
 30
0.0
  9
$USERI1
 70
     0
  9
$USERI2
 70
     0
  9
$USERI3
 70
     0
  9
$USERI4
 70
     0
  9
$USERI5
 70
     0
  9
$USERR1
 40
0.0
  9
$USERR2
 40
0.0
  9
$USERR3
 40
0.0
  9
$USERR4
 40
0.0
  9
$USERR5
 40
0.0
  9
$WORLDVIEW
 70
     1
  9
$SHADEDGE
 70
     3
  9
$SHADEDIF
 70
    70
  9
$TILEMODE
 70
     1
  9
$MAXACTVP
 70
    16
  9
$PLIMCHECK
 70
     0
  9
$PEXTMIN
 10
1.0000000000000000E+020
 20
1.0000000000000000E+020
 30
1.0000000000000000E+020
  9
$PEXTMAX
 10
-1.0000000000000000E+020
 20
-1.0000000000000000E+020
 30
-1.0000000000000000E+020
  9
$PLIMMIN
 10
0.0
 20
0.0
  9
$PLIMMAX
 10
12.0
 20
9.0
  9
$UNITMODE
 70
     0
  9
$VISRETAIN
 70
     0
  9
$PLINEGEN
 70
     0
  9
$PSLTSCALE
 70
     1
  0
ENDSEC
  0
SECTION
  2
TABLES
  0
TABLE
  2
VPORT
 70
     2
  0
VPORT
  2
*ACTIVE
 70
     0
 10
0.0
 20
0.0
 11
1.0
 21
1.0
 12
9437.9954746499006
 22
4629.9199394653269
 13
0.0
 23
0.0
 14
10.0
 24
10.0
 15
10.0
 25
10.0
 16
0.0
 26
0.0
 36
1.0
 17
0.0
 27
0.0
 37
0.0
 40
7517.061441529765
 41
3.1666666666666661
 42
50.0
 43
0.0
 44
0.0
 50
0.0
 51
0.0
 71
     0
 72
   100
 73
     1
 74
     0
 75
     0
 76
     1
 77
     0
 78
     0
  0
ENDTAB
  0
TABLE
  2
LTYPE
 70
     2
  0
LTYPE
  2
CONTINUOUS
 70
     0
  3
Solid line
 72
    65
 73
     0
 40
0.0
  0
LTYPE
  2
CENTER
 70
     0
  3
____ _ ____ _ ____ _ ____ _ ____ _ ____ _ ____ 
 72
    65
 73
     4
 40
2.0
 49
1.25
 49
-0.25
 49
0.25
 49
-0.25
  0
ENDTAB
  0
TABLE
  2
LAYER
 70
     6
  0
LAYER
  2
0
 70
     0
 62
     7
  6
CONTINUOUS
  0
LAYER
  2
3
 70
     0
 62
     2
  6
CONTINUOUS
  0
LAYER
  2
2
 70
     0
 62
     3
  6
CENTER
  0
LAYER
  2
1
 70
     0
 62
     4
  6
CONTINUOUS
  0
LAYER
  2
4
 70
     0
 62
     7
  6
CONTINUOUS
  0
LAYER
  2
DEFPOINTS
 70
     0
 62
     7
  6
CONTINUOUS
  0
ENDTAB
  0
TABLE
  2
STYLE
 70
     1
  0
STYLE
  2
STANDARD
 70
     0
 40
0.0
 41
1.0
 50
0.0
 71
     0
 42
180.0
  3
simplex.shx
  4
extfont.shx
  0
ENDTAB
  0
TABLE
  2
VIEW
 70
     0
  0
ENDTAB
  0
TABLE
  2
UCS
 70
     0
  0
ENDTAB
  0
TABLE
  2
APPID
 70
     1
  0
APPID
  2
ACAD
 70
     0
  0
ENDTAB
  0
TABLE
  2
DIMSTYLE
 70
     1
  0
DIMSTYLE
  2
IGA
 70
     0
  3

  4

  5

  6
OPEN
  7
OPEN
 40
2.0
 41
2.0
 42
0.5
 43
10.0
 44
1.0
 45
0.0
 46
0.0
 47
1.0
 48
1.0
140
3.0
141
0.0
142
0.0
143
0.03937
144
1.0
145
0.0
146
10.0
147
1.0
 71
     0
 72
     0
 73
     0
 74
     0
 75
     0
 76
     0
 77
     1
 78
     8
170
     0
171
     2
172
     0
173
     1
174
     0
175
     0
176
     0
177
     0
178
     0
  0
ENDTAB
  0
ENDSEC
  0
SECTION
  2
BLOCKS
  0
BLOCK
  8
0
  2
$MODEL_SPACE
 70
     0
 10
0.0
 20
0.0
 30
0.0
  3
$MODEL_SPACE
  1

  0
ENDBLK
  5
1B
  8
0
  0
BLOCK
 67
     1
  8
0
  2
$PAPER_SPACE
 70
     0
 10
0.0
 20
0.0
 30
0.0
  3
$PAPER_SPACE
  1

  0
ENDBLK
  5
18
 67
     1
  8
0
  0
BLOCK
  8
0
  2
_OPEN
 70
     0
 10
0.0
 20
0.0
 30
0.0
  3
_OPEN
  1

  0
LINE
  5
7B99
  8
0
  6
BYBLOCK
 62
     0
 10
-1.0
 20
0.166667
 30
0.0
 11
0.0
 21
0.0
 31
0.0
  0
LINE
  5
7B9A
  8
0
  6
BYBLOCK
 62
     0
 10
0.0
 20
0.0
 30
0.0
 11
-1.0
 21
-0.166667
 31
0.0
  0
LINE
  5
7B9B
  8
0
  6
BYBLOCK
 62
     0
 10
0.0
 20
0.0
 30
0.0
 11
-1.0
 21
0.0
 31
0.0
  0
ENDBLK
  5
7B9C
  8
0
  0
BLOCK
  8
0
  2
*D1
 70
     1
 10
0.0
 20
0.0
 30
0.0
  3
*D1
  1

  0
LINE
  5
7DB0
  8
3
  6
CONTINUOUS
 62
     0
 10
1744.520078999999
 20
3578.424888
 30
0.0
 11
1575.4496549999999
 21
3578.424888
 31
0.0
  0
LINE
  5
7DB1
  8
3
  6
CONTINUOUS
 62
     0
 10
1744.520078999999
 20
2753.424888
 30
0.0
 11
1575.4496549999999
 21
2753.424888
 31
0.0
  0
LINE
  5
7DB2
  8
3
  6
CONTINUOUS
 62
     0
 10
1605.4496549999999
 20
3518.424888
 30
0.0
 11
1605.4496549999999
 21
2813.424888
 31
0.0
  0
INSERT
  5
7DB3
  8
3
  6
CONTINUOUS
 62
     0
  2
_OPEN
 10
1605.4496549999999
 20
3578.424888
 30
0.0
 41
60.0
 42
60.0
 43
60.0
 50
90.0
  0
INSERT
  5
7DB4
  8
3
  6
CONTINUOUS
 62
     0
  2
_OPEN
 10
1605.4496549999999
 20
2753.424888
 30
0.0
 41
60.0
 42
60.0
 43
60.0
 50
270.0
  0
TEXT
  8
3
  40
90
  5
7E49
  62
0
  72
0
  71
0
 10
1350.45
 20
2985.05
 30
0.000000
  1
825
  0
POINT
  5
7DB6
  8
DEFPOINTS
  6
CONTINUOUS
 62
     0
 10
1759.5200789999999
 20
3578.424888
 30
0.0
  0
POINT
  5
7DB7
  8
DEFPOINTS
  6
CONTINUOUS
 62
     0
 10
1759.5200789999999
 20
2753.424888
 30
0.0
  0
POINT
  5
7DB8
  8
DEFPOINTS
  6
CONTINUOUS
 62
     0
 10
1605.4496549999999
 20
2753.424888
 30
0.0
  0
ENDBLK
  5
7BA9
  8
0
  0
BLOCK
  8
0
  2
*D2
 70
     1
 10
0.0
 20
0.0
 30
0.0
  3
*D2
  1

  0
LINE
  5
7DB9
  8
3
  6
CONTINUOUS
 62
     0
 10
1654.440560999999
 20
3540.424888
 30
0.0
 11
1380.0977740000001
 21
3540.424888
 31
0.0
  0
LINE
  5
7DBA
  8
3
  6
CONTINUOUS
 62
     0
 10
1744.520078999999
 20
2753.424888
 30
0.0
 11
1380.0977740000001
 21
2753.424888
 31
0.0
  0
LINE
  5
7DBB
  8
3
  6
CONTINUOUS
 62
     0
 10
1410.0977740000001
 20
3480.424888
 30
0.0
 11
1410.0977740000001
 21
2813.424888
 31
0.0
  0
INSERT
  5
7DBC
  8
3
  6
CONTINUOUS
 62
     0
  2
_OPEN
 10
1410.0977740000001
 20
3540.424888
 30
0.0
 41
60.0
 42
60.0
 43
60.0
 50
90.0
  0
INSERT
  5
7DBD
  8
3
  6
CONTINUOUS
 62
     0
  2
_OPEN
 10
1410.0977740000001
 20
2753.424888
 30
0.0
 41
60.0
 42
60.0
 43
60.0
 50
270.0
  0
TEXT
  8
3
  40
90
  5
7E4A
  62
0
  72
0
  71
0
 10
1155.10
 20
2985.05
 30
0.000000
  1
787
  0
POINT
  5
7DBF
  8
DEFPOINTS
  6
CONTINUOUS
 62
     0
 10
1669.4405609999999
 20
3540.424888
 30
0.0
  0
POINT
  5
7DC0
  8
DEFPOINTS
  6
CONTINUOUS
 62
     0
 10
1759.5200789999999
 20
2753.424888
 30
0.0
  0
POINT
  5
7DC1
  8
DEFPOINTS
  6
CONTINUOUS
 62
     0
 10
1410.0977740000001
 20
2753.424888
 30
0.0
  0
ENDBLK
  5
7BB6
  8
0
  0
BLOCK
  8
0
  2
*D3
 70
     1
 10
0.0
 20
0.0
 30
0.0
  3
*D3
  1

  0
LINE
  5
7DC2
  8
3
  6
CONTINUOUS
 62
     0
 10
1654.440560999999
 20
3540.424888
 30
0.0
 11
1178.2341449999999
 21
3540.424888
 31
0.0
  0
LINE
  5
7DC3
  8
3
  6
CONTINUOUS
 62
     0
 10
1819.520078999999
 20
2570.424888
 30
0.0
 11
1178.2341449999999
 21
2570.424888
 31
0.0
  0
LINE
  5
7DC4
  8
3
  6
CONTINUOUS
 62
     0
 10
1208.2341449999999
 20
3480.424888
 30
0.0
 11
1208.2341449999999
 21
2630.424888
 31
0.0
  0
INSERT
  5
7DC5
  8
3
  6
CONTINUOUS
 62
     0
  2
_OPEN
 10
1208.2341449999999
 20
3540.424888
 30
0.0
 41
60.0
 42
60.0
 43
60.0
 50
90.0
  0
INSERT
  5
7DC6
  8
3
  6
CONTINUOUS
 62
     0
  2
_OPEN
 10
1208.2341449999999
 20
2570.424888
 30
0.0
 41
60.0
 42
60.0
 43
60.0
 50
270.0
  0
TEXT
  8
3
  40
90
  5
7E4B
  62
0
  72
0
  71
0
 10
953.234
 20
2896.12
 30
0.000000
  1
970
  0
POINT
  5
7DC8
  8
DEFPOINTS
  6
CONTINUOUS
 62
     0
 10
1669.4405609999999
 20
3540.424888
 30
0.0
  0
POINT
  5
7DC9
  8
DEFPOINTS
  6
CONTINUOUS
 62
     0
 10
1834.520078999999
 20
2570.424888
 30
0.0
  0
POINT
  5
7DCA
  8
DEFPOINTS
  6
CONTINUOUS
 62
     0
 10
1208.2341449999999
 20
2570.424888
 30
0.0
  0
ENDBLK
  5
7D3C
  8
0
  0
BLOCK
  8
0
  2
*D4
 70
     1
 10
0.0
 20
0.0
 30
0.0
  3
*D4
  1

  0
LINE
  5
7DCB
  8
3
  6
CONTINUOUS
 62
     0
 10
1819.520078999999
 20
2570.424888
 30
0.0
 11
1178.893998
 21
2570.424888
 31
0.0
  0
LINE
  5
7DCC
  8
3
  6
CONTINUOUS
 62
     0
 10
1769.520078999999
 20
2445.424888
 30
0.0
 11
1178.893998
 21
2445.424888
 31
0.0
  0
LINE
  5
7DCD
  8
3
  6
CONTINUOUS
 62
     0
 10
1208.893998
 20
2630.424888
 30
0.0
 11
1208.893998
 21
2690.424888
 31
0.0
  0
LINE
  5
7DCE
  8
3
  6
CONTINUOUS
 62
     0
 10
1208.893998
 20
2385.424888
 30
0.0
 11
1208.893998
 21
2051.1391737142858
 31
0.0
  0
LINE
  5
7DCF
  8
3
  6
CONTINUOUS
 62
     0
 10
1208.893998
 20
2570.424888
 30
0.0
 11
1208.893998
 21
2445.424888
 31
0.0
  0
INSERT
  5
7DD0
  8
3
  6
CONTINUOUS
 62
     0
  2
_OPEN
 10
1208.893998
 20
2570.424888
 30
0.0
 41
60.0
 42
60.0
 43
60.0
 50
270.0
  0
INSERT
  5
7DD1
  8
3
  6
CONTINUOUS
 62
     0
  2
_OPEN
 10
1208.893998
 20
2445.424888
 30
0.0
 41
60.0
 42
60.0
 43
60.0
 50
90.0
  0
TEXT
  8
3
  40
90
  5
7E4C
  62
0
  72
0
  71
0
 10
953.894
 20
2028.98
 30
0.000000
  1
125
  0
POINT
  5
7DD3
  8
DEFPOINTS
  6
CONTINUOUS
 62
     0
 10
1834.520078999999
 20
2570.424888
 30
0.0
  0
POINT
  5
7DD4
  8
DEFPOINTS
  6
CONTINUOUS
 62
     0
 10
1784.520078999999
 20
2445.424888
 30
0.0
  0
POINT
  5
7DD5
  8
DEFPOINTS
  6
CONTINUOUS
 62
     0
 10
1208.893998
 20
2445.424888
 30
0.0
  0
ENDBLK
  5
7D31
  8
0
  0
BLOCK
  8
0
  2
*D5
 70
     1
 10
0.0
 20
0.0
 30
0.0
  3
*D5
  1

  0
LINE
  5
7DD6
  8
3
  6
CONTINUOUS
 62
     0
 10
1784.520078999999
 20
2430.424888
 30
0.0
 11
1784.520078999999
 21
2148.0657540000002
 31
0.0
  0
LINE
  5
7DD7
  8
3
  6
CONTINUOUS
 62
     0
 10
2354.520078999999
 20
2261.8467019999989
 30
0.0
 11
2354.520078999999
 21
2148.0657540000002
 31
0.0
  0
LINE
  5
7DD8
  8
3
  6
CONTINUOUS
 62
     0
 10
1844.520078999999
 20
2178.0657539999988
 30
0.0
 11
2294.520078999999
 21
2178.0657539999988
 31
0.0
  0
INSERT
  5
7DD9
  8
3
  6
CONTINUOUS
 62
     0
  2
_OPEN
 10
1784.520078999999
 20
2178.0657539999988
 30
0.0
 41
60.0
 42
60.0
 43
60.0
 50
180.0
  0
INSERT
  5
7DDA
  8
3
  6
CONTINUOUS
 62
     0
  2
_OPEN
 10
2354.520078999999
 20
2178.0657539999988
 30
0.0
 41
60.0
 42
60.0
 43
60.0
  0
TEXT
  8
3
  40
90
  5
7E4D
  62
0
  72
0
  71
0
 10
1880.62
 20
2093.77
 30
0.000000
  1
570
  0
POINT
  5
7DDC
  8
DEFPOINTS
  6
CONTINUOUS
 62
     0
 10
1784.520078999999
 20
2445.424888
 30
0.0
  0
POINT
  5
7DDD
  8
DEFPOINTS
  6
CONTINUOUS
 62
     0
 10
2354.520078999999
 20
2276.8467019999989
 30
0.0
  0
POINT
  5
7DDE
  8
DEFPOINTS
  6
CONTINUOUS
 62
     0
 10
2354.520078999999
 20
2178.0657539999988
 30
0.0
  0
ENDBLK
  5
7CEE
  8
0
  0
BLOCK
  8
0
  2
*D6
 70
     1
 10
0.0
 20
0.0
 30
0.0
  3
*D6
  1

  0
LINE
  5
7DDF
  8
3
  6
CONTINUOUS
 62
     0
 10
3484.5200789999999
 20
2430.424888
 30
0.0
 11
3484.5200789999999
 21
2148.0657540000002
 31
0.0
  0
LINE
  5
7DE0
  8
3
  6
CONTINUOUS
 62
     0
 10
2414.5200789999999
 20
2178.0657539999988
 30
0.0
 11
3424.5200789999999
 21
2178.0657539999988
 31
0.0
  0
INSERT
  5
7DE1
  8
3
  6
CONTINUOUS
 62
     0
  2
_OPEN
 10
2354.520078999999
 20
2178.0657539999988
 30
0.0
 41
60.0
 42
60.0
 43
60.0
 50
180.0
  0
INSERT
  5
7DE2
  8
3
  6
CONTINUOUS
 62
     0
  2
_OPEN
 10
3484.5200789999999
 20
2178.0657539999988
 30
0.0
 41
60.0
 42
60.0
 43
60.0
  0
TEXT
  8
3
  40
90
  5
7E4E
  62
0
  72
0
  71
0
 10
2739.52
 20
2093.77
 30
0.000000
  1
1130
  0
POINT
  5
7DE4
  8
DEFPOINTS
  6
CONTINUOUS
 62
     0
 10
2354.520078999999
 20
2276.8467019999989
 30
0.0
  0
POINT
  5
7DE5
  8
DEFPOINTS
  6
CONTINUOUS
 62
     0
 10
3484.5200789999999
 20
2445.424888
 30
0.0
  0
POINT
  5
7DE6
  8
DEFPOINTS
  6
CONTINUOUS
 62
     0
 10
3484.5200789999999
 20
2178.0657539999988
 30
0.0
  0
ENDBLK
  5
7CE3
  8
0
  0
BLOCK
  8
0
  2
*D7
 70
     1
 10
0.0
 20
0.0
 30
0.0
  3
*D7
  1

  0
LINE
  5
7DE7
  8
3
  6
CONTINUOUS
 62
     0
 10
1759.5200789999999
 20
3635.924888
 30
0.0
 11
1759.5200789999999
 21
4326.0810060000003
 31
0.0
  0
LINE
  5
7DE8
  8
3
  6
CONTINUOUS
 62
     0
 10
2354.520078999999
 20
4252.9592909999983
 30
0.0
 11
2354.520078999999
 21
4326.0810060000003
 31
0.0
  0
LINE
  5
7DE9
  8
3
  6
CONTINUOUS
 62
     0
 10
1819.520078999999
 20
4296.0810060000003
 30
0.0
 11
2294.520078999999
 21
4296.0810060000003
 31
0.0
  0
INSERT
  5
7DEA
  8
3
  6
CONTINUOUS
 62
     0
  2
_OPEN
 10
1759.5200789999999
 20
4296.0810060000003
 30
0.0
 41
60.0
 42
60.0
 43
60.0
 50
180.0
  0
INSERT
  5
7DEB
  8
3
  6
CONTINUOUS
 62
     0
  2
_OPEN
 10
2354.520078999999
 20
4296.0810060000003
 30
0.0
 41
60.0
 42
60.0
 43
60.0
  0
TEXT
  8
3
  40
90
  5
7E4F
  62
0
  72
0
  71
0
 10
1880.62
 20
4211.78
 30
0.000000
  1
595
  0
POINT
  5
7DED
  8
DEFPOINTS
  6
CONTINUOUS
 62
     0
 10
1759.5200789999999
 20
3620.924888
 30
0.0
  0
POINT
  5
7DEE
  8
DEFPOINTS
  6
CONTINUOUS
 62
     0
 10
2354.520078999999
 20
4237.9592909999992
 30
0.0
  0
POINT
  5
7DEF
  8
DEFPOINTS
  6
CONTINUOUS
 62
     0
 10
2354.520078999999
 20
4296.0810060000003
 30
0.0
  0
ENDBLK
  5
7C12
  8
0
  0
BLOCK
  8
0
  2
*D8
 70
     1
 10
0.0
 20
0.0
 30
0.0
  3
*D8
  1

  0
LINE
  5
7DF0
  8
3
  6
CONTINUOUS
 62
     0
 10
3018.5243049999999
 20
3555.424888
 30
0.0
 11
3018.5243049999999
 21
4326.0810060000003
 31
0.0
  0
LINE
  5
7DF1
  8
3
  6
CONTINUOUS
 62
     0
 10
2414.5200789999999
 20
4296.0810060000003
 30
0.0
 11
2958.5243049999999
 21
4296.0810060000003
 31
0.0
  0
INSERT
  5
7DF2
  8
3
  6
CONTINUOUS
 62
     0
  2
_OPEN
 10
2354.520078999999
 20
4296.0810060000003
 30
0.0
 41
60.0
 42
60.0
 43
60.0
 50
180.0
  0
INSERT
  5
7DF3
  8
3
  6
CONTINUOUS
 62
     0
  2
_OPEN
 10
3018.5243049999999
 20
4296.0810060000003
 30
0.0
 41
60.0
 42
60.0
 43
60.0
  0
TEXT
  8
3
  40
90
  5
7E50
  62
0
  72
0
  71
0
 10
2506.52
 20
4211.78
 30
0.000000
  1
664
  0
POINT
  5
7DF5
  8
DEFPOINTS
  6
CONTINUOUS
 62
     0
 10
2354.520078999999
 20
4237.9592909999992
 30
0.0
  0
POINT
  5
7DF6
  8
DEFPOINTS
  6
CONTINUOUS
 62
     0
 10
3018.5243049999999
 20
3540.424888
 30
0.0
  0
POINT
  5
7DF7
  8
DEFPOINTS
  6
CONTINUOUS
 62
     0
 10
3018.5243049999999
 20
4296.0810060000003
 30
0.0
  0
ENDBLK
  5
7C1E
  8
0
  0
BLOCK
  8
0
  2
*D9
 70
     1
 10
0.0
 20
0.0
 30
0.0
  3
*D9
  1

  0
LINE
  5
7DF8
  8
3
  6
CONTINUOUS
 62
     0
 10
5089.5447089999998
 20
4132.9748879999997
 30
0.0
 11
5089.5447089999998
 21
4274.0252810000002
 31
0.0
  0
LINE
  5
7DF9
  8
3
  6
CONTINUOUS
 62
     0
 10
4489.5447089999998
 20
4132.9748879999997
 30
0.0
 11
4489.5447089999998
 21
4274.0252810000002
 31
0.0
  0
LINE
  5
7DFA
  8
3
  6
CONTINUOUS
 62
     0
 10
5029.5447090000007
 20
4244.0252810000002
 30
0.0
 11
4549.5447089999998
 21
4244.0252810000002
 31
0.0
  0
INSERT
  5
7DFB
  8
3
  6
CONTINUOUS
 62
     0
  2
_OPEN
 10
5089.5447089999998
 20
4244.0252810000002
 30
0.0
 41
60.0
 42
60.0
 43
60.0
  0
INSERT
  5
7DFC
  8
3
  6
CONTINUOUS
 62
     0
  2
_OPEN
 10
4489.5447089999998
 20
4244.0252810000002
 30
0.0
 41
60.0
 42
60.0
 43
60.0
 50
180.0
  0
TEXT
  8
3
  40
90
  5
7E51
  62
0
  72
0
  71
0
 10
4601.74
 20
4159.73
 30
0.000000
  1
600
  0
POINT
  5
7DFE
  8
DEFPOINTS
  6
CONTINUOUS
 62
     0
 10
5089.5447089999998
 20
4117.9748879999997
 30
0.0
  0
POINT
  5
7DFF
  8
DEFPOINTS
  6
CONTINUOUS
 62
     0
 10
4489.5447089999998
 20
4117.9748879999997
 30
0.0
  0
POINT
  5
7E00
  8
DEFPOINTS
  6
CONTINUOUS
 62
     0
 10
4489.5447089999998
 20
4244.0252810000002
 30
0.0
  0
ENDBLK
  5
7C2B
  8
0
  0
BLOCK
  8
0
  2
*D10
 70
     1
 10
0.0
 20
0.0
 30
0.0
  3
*D10
  1

  0
LINE
  5
7E01
  8
3
  6
CONTINUOUS
 62
     0
 10
5108.5447090000007
 20
3965.424888
 30
0.0
 11
5378.2634340000013
 21
3965.424888
 31
0.0
  0
LINE
  5
7E02
  8
3
  6
CONTINUOUS
 62
     0
 10
5108.5447090000007
 20
3115.424888
 30
0.0
 11
5378.2634340000013
 21
3115.4248879999991
 31
0.0
  0
LINE
  5
7E03
  8
3
  6
CONTINUOUS
 62
     0
 10
5348.2634340000013
 20
3905.424888
 30
0.0
 11
5348.2634340000013
 21
3175.4248879999991
 31
0.0
  0
INSERT
  5
7E04
  8
3
  6
CONTINUOUS
 62
     0
  2
_OPEN
 10
5348.2634340000013
 20
3965.424888
 30
0.0
 41
60.0
 42
60.0
 43
60.0
 50
90.0
  0
INSERT
  5
7E05
  8
3
  6
CONTINUOUS
 62
     0
  2
_OPEN
 10
5348.2634340000013
 20
3115.4248879999991
 30
0.0
 41
60.0
 42
60.0
 43
60.0
 50
270.0
  0
TEXT
  8
3
  40
90
  5
7E52
  62
0
  72
0
  71
0
 10
5093.26
 20
3381.97
 30
0.000000
  1
φ850
  0
POINT
  5
7E07
  8
DEFPOINTS
  6
CONTINUOUS
 62
     0
 10
5093.5447090000007
 20
3965.424888
 30
0.0
  0
POINT
  5
7E08
  8
DEFPOINTS
  6
CONTINUOUS
 62
     0
 10
5093.5447090000007
 20
3115.424888
 30
0.0
  0
POINT
  5
7E09
  8
DEFPOINTS
  6
CONTINUOUS
 62
     0
 10
5348.2634340000013
 20
3115.4248879999991
 30
0.0
  0
ENDBLK
  5
7D47
  8
0
  0
BLOCK
  8
0
  2
*D11
 70
     1
 10
0.0
 20
0.0
 30
0.0
  3
*D11
  1

  0
LINE
  5
7D54
  8
0
  6
BYBLOCK
 62
     0
 10
5093.5447090000007
 20
3980.424888
 30
0.0
 11
5093.5447090000007
 21
4449.7133780000013
 31
0.0
  0
LINE
  5
7D55
  8
0
  6
BYBLOCK
 62
     0
 10
4789.5447089999998
 20
4393.5401709999996
 30
0.0
 11
4789.5447089999998
 21
4449.7133780000013
 31
0.0
  0
LINE
  5
7D56
  8
0
  6
BYBLOCK
 62
     0
 10
5033.5447089999998
 20
4419.7133779999986
 30
0.0
 11
4849.5447089999998
 21
4419.7133779999986
 31
0.0
  0
TEXT
  5
7D57
  8
3
 62
     0
 10
4823.6875661428576
 20
4458.917969220699
 30
0.0
 40
90.0
  1
304
  0
INSERT
  5
7D58
  8
0
  6
BYBLOCK
 62
     0
  2
_OPEN
 10
5093.5447090000007
 20
4419.7133779999986
 30
0.0
 41
60.0
 42
60.0
 43
60.0
  0
INSERT
  5
7D59
  8
0
  6
BYBLOCK
 62
     0
  2
_OPEN
 10
4789.5447089999998
 20
4419.7133779999986
 30
0.0
 41
60.0
 42
60.0
 43
60.0
 50
180.0
  0
POINT
  5
7D5A
  8
DEFPOINTS
  6
BYBLOCK
 62
     0
 10
5093.5447090000007
 20
3965.424888
 30
0.0
  0
POINT
  5
7D5B
  8
DEFPOINTS
  6
BYBLOCK
 62
     0
 10
4789.5447089999998
 20
4378.5401709999996
 30
0.0
  0
POINT
  5
7D5C
  8
DEFPOINTS
  6
BYBLOCK
 62
     0
 10
4789.5447089999998
 20
4419.7133779999986
 30
0.0
  0
ENDBLK
  5
7D5D
  8
0
  0
BLOCK
  8
0
  2
*D12
 70
     1
 10
0.0
 20
0.0
 30
0.0
  3
*D12
  1

  0
LINE
  5
7E0A
  8
3
  6
CONTINUOUS
 62
     0
 10
4229.5447090000007
 20
3935.424888
 30
0.0
 11
4229.5447090000007
 21
4449.7133780000013
 31
0.0
  0
LINE
  5
7E0B
  8
3
  6
CONTINUOUS
 62
     0
 10
4729.5447090000007
 20
4419.7133779999986
 30
0.0
 11
4289.5447089999998
 21
4419.7133779999986
 31
0.0
  0
INSERT
  5
7E0C
  8
3
  6
CONTINUOUS
 62
     0
  2
_OPEN
 10
4789.5447089999998
 20
4419.7133779999986
 30
0.0
 41
60.0
 42
60.0
 43
60.0
  0
INSERT
  5
7E0D
  8
3
  6
CONTINUOUS
 62
     0
  2
_OPEN
 10
4229.5447090000007
 20
4419.7133779999986
 30
0.0
 41
60.0
 42
60.0
 43
60.0
 50
180.0
  0
TEXT
  8
3
  40
90
  5
7E53
  62
0
  72
0
  71
0
 10
4329.54
 20
4410.41
 30
0.000000
  1
MAX
  0
TEXT
  8
3
  40
90
  5
7E54
  62
0
  72
0
  71
0
 10
4329.54
 20
4293.41
 30
0.000000
  1
610
  0
POINT
  5
7E0F
  8
DEFPOINTS
  6
CONTINUOUS
 62
     0
 10
4789.5447089999998
 20
4378.5401709999996
 30
0.0
  0
POINT
  5
7E10
  8
DEFPOINTS
  6
CONTINUOUS
 62
     0
 10
4229.5447090000007
 20
3920.4248880000009
 30
0.0
  0
POINT
  5
7E11
  8
DEFPOINTS
  6
CONTINUOUS
 62
     0
 10
4229.5447090000007
 20
4419.7133779999986
 30
0.0
  0
ENDBLK
  5
7D67
  8
0
  0
BLOCK
  8
0
  2
*D13
 70
     1
 10
0.0
 20
0.0
 30
0.0
  3
*D13
  1

  0
LINE
  5
7E12
  8
3
  6
CONTINUOUS
 62
     0
 10
4206.5447089999998
 20
2430.424888
 30
0.0
 11
4206.5447089999998
 21
2178.347264
 31
0.0
  0
LINE
  5
7E13
  8
3
  6
CONTINUOUS
 62
     0
 10
4789.5447089999998
 20
2246.0212689999998
 30
0.0
 11
4789.5447089999998
 21
2178.347264
 31
0.0
  0
LINE
  5
7E14
  8
3
  6
CONTINUOUS
 62
     0
 10
4266.5447089999998
 20
2208.3472639999991
 30
0.0
 11
4729.5447090000007
 21
2208.3472639999991
 31
0.0
  0
INSERT
  5
7E15
  8
3
  6
CONTINUOUS
 62
     0
  2
_OPEN
 10
4206.5447089999998
 20
2208.3472639999991
 30
0.0
 41
60.0
 42
60.0
 43
60.0
 50
180.0
  0
INSERT
  5
7E16
  8
3
  6
CONTINUOUS
 62
     0
  2
_OPEN
 10
4789.5447089999998
 20
2208.3472639999991
 30
0.0
 41
60.0
 42
60.0
 43
60.0
  0
TEXT
  8
3
  40
90
  5
7E55
  62
0
  72
0
  71
0
 10
4341.27
 20
2124.05
 30
0.000000
  1
583
  0
POINT
  5
7E18
  8
DEFPOINTS
  6
CONTINUOUS
 62
     0
 10
4206.5447089999998
 20
2445.424888
 30
0.0
  0
POINT
  5
7E19
  8
DEFPOINTS
  6
CONTINUOUS
 62
     0
 10
4789.5447089999998
 20
2261.0212689999998
 30
0.0
  0
POINT
  5
7E1A
  8
DEFPOINTS
  6
CONTINUOUS
 62
     0
 10
4789.5447089999998
 20
2208.3472639999991
 30
0.0
  0
ENDBLK
  5
7D04
  8
0
  0
BLOCK
  8
0
  2
*D14
 70
     1
 10
0.0
 20
0.0
 30
0.0
  3
*D14
  1

  0
LINE
  5
7E1B
  8
3
  6
CONTINUOUS
 62
     0
 10
5256.5447089999998
 20
2430.424888
 30
0.0
 11
5256.5447089999998
 21
2178.347264
 31
0.0
  0
LINE
  5
7E1C
  8
3
  6
CONTINUOUS
 62
     0
 10
4849.5447089999998
 20
2208.3472639999991
 30
0.0
 11
5196.5447090000007
 21
2208.3472639999991
 31
0.0
  0
INSERT
  5
7E1D
  8
3
  6
CONTINUOUS
 62
     0
  2
_OPEN
 10
4789.5447089999998
 20
2208.3472639999991
 30
0.0
 41
60.0
 42
60.0
 43
60.0
 50
180.0
  0
INSERT
  5
7E1E
  8
3
  6
CONTINUOUS
 62
     0
  2
_OPEN
 10
5256.5447089999998
 20
2208.3472639999991
 30
0.0
 41
60.0
 42
60.0
 43
60.0
  0
TEXT
  8
3
  40
90
  5
7E56
  62
0
  72
0
  71
0
 10
4843.04
 20
2124.05
 30
0.000000
  1
467
  0
POINT
  5
7E20
  8
DEFPOINTS
  6
CONTINUOUS
 62
     0
 10
4789.5447089999998
 20
2261.0212689999998
 30
0.0
  0
POINT
  5
7E21
  8
DEFPOINTS
  6
CONTINUOUS
 62
     0
 10
5256.5447089999998
 20
2445.424888
 30
0.0
  0
POINT
  5
7E22
  8
DEFPOINTS
  6
CONTINUOUS
 62
     0
 10
5256.5447089999998
 20
2208.3472639999991
 30
0.0
  0
ENDBLK
  5
7D0E
  8
0
  0
BLOCK
  8
0
  2
*D15
 70
     1
 10
0.0
 20
0.0
 30
0.0
  3
*D15
  1

  0
LINE
  5
7E23
  8
3
  6
CONTINUOUS
 62
     0
 10
1784.520078999999
 20
6390.0719520000002
 30
0.0
 11
1784.520078999999
 21
6559.6982459999999
 31
0.0
  0
LINE
  5
7E24
  8
3
  6
CONTINUOUS
 62
     0
 10
3484.5200789999999
 20
6390.0719520000002
 30
0.0
 11
3484.5200789999999
 21
6559.6982459999999
 31
0.0
  0
LINE
  5
7E25
  8
3
  6
CONTINUOUS
 62
     0
 10
1844.520078999999
 20
6529.698245999999
 30
0.0
 11
3424.5200789999999
 21
6529.698245999999
 31
0.0
  0
INSERT
  5
7E26
  8
3
  6
CONTINUOUS
 62
     0
  2
_OPEN
 10
1784.520078999999
 20
6529.698245999999
 30
0.0
 41
60.0
 42
60.0
 43
60.0
 50
180.0
  0
INSERT
  5
7E27
  8
3
  6
CONTINUOUS
 62
     0
  2
_OPEN
 10
3484.5200789999999
 20
6529.698245999999
 30
0.0
 41
60.0
 42
60.0
 43
60.0
  0
TEXT
  8
3
  40
90
  5
7E57
  62
0
  72
0
  71
0
 10
2447.14
 20
6445.40
 30
0.000000
  1
1700
  0
POINT
  5
7E29
  8
DEFPOINTS
  6
CONTINUOUS
 62
     0
 10
1784.520078999999
 20
6375.0719520000002
 30
0.0
  0
POINT
  5
7E2A
  8
DEFPOINTS
  6
CONTINUOUS
 62
     0
 10
3484.5200789999999
 20
6375.0719520000002
 30
0.0
  0
POINT
  5
7E2B
  8
DEFPOINTS
  6
CONTINUOUS
 62
     0
 10
3484.5200789999999
 20
6529.698245999999
 30
0.0
  0
ENDBLK
  5
7CF9
  8
0
  0
BLOCK
  8
0
  2
*D16
 70
     1
 10
0.0
 20
0.0
 30
0.0
  3
*D16
  1

  0
LINE
  5
7E2C
  8
3
  6
CONTINUOUS
 62
     0
 10
3499.520078999999
 20
6375.0719520000002
 30
0.0
 11
3790.1827160000012
 21
6375.0719520000002
 31
0.0
  0
LINE
  5
7E2D
  8
3
  6
CONTINUOUS
 62
     0
 10
3499.520078999999
 20
5325.0719520000002
 30
0.0
 11
3790.1827160000012
 21
5325.0719520000002
 31
0.0
  0
LINE
  5
7E2E
  8
3
  6
CONTINUOUS
 62
     0
 10
3760.1827159999998
 20
6315.0719520000002
 30
0.0
 11
3760.1827159999998
 21
5385.0719520000002
 31
0.0
  0
INSERT
  5
7E2F
  8
3
  6
CONTINUOUS
 62
     0
  2
_OPEN
 10
3760.1827159999998
 20
6375.0719520000002
 30
0.0
 41
60.0
 42
60.0
 43
60.0
 50
90.0
  0
INSERT
  5
7E30
  8
3
  6
CONTINUOUS
 62
     0
  2
_OPEN
 10
3760.1827159999998
 20
5325.0719520000002
 30
0.0
 41
60.0
 42
60.0
 43
60.0
 50
270.0
  0
TEXT
  8
3
  40
90
  5
7E58
  62
0
  72
0
  71
0
 10
3505.18
 20
5670.40
 30
0.000000
  1
1050
  0
POINT
  5
7E32
  8
DEFPOINTS
  6
CONTINUOUS
 62
     0
 10
3484.5200789999999
 20
6375.0719520000002
 30
0.0
  0
POINT
  5
7E33
  8
DEFPOINTS
  6
CONTINUOUS
 62
     0
 10
3484.5200789999999
 20
5325.0719520000002
 30
0.0
  0
POINT
  5
7E34
  8
DEFPOINTS
  6
CONTINUOUS
 62
     0
 10
3760.1827159999998
 20
5325.0719520000002
 30
0.0
  0
ENDBLK
  5
7CA0
  8
0
  0
BLOCK
  8
0
  2
*D17
 70
     1
 10
0.0
 20
0.0
 30
0.0
  3
*D17
  1

  0
LINE
  5
7E35
  8
3
  6
CONTINUOUS
 62
     0
 10
2339.5200789999999
 20
4116.4155350000001
 30
0.0
 11
1178.2341449999999
 21
4116.4155350000001
 31
0.0
  0
LINE
  5
7E36
  8
3
  6
CONTINUOUS
 62
     0
 10
1208.2341449999999
 20
3600.424888
 30
0.0
 11
1208.2341449999999
 21
4056.415535000001
 31
0.0
  0
INSERT
  5
7E37
  8
3
  6
CONTINUOUS
 62
     0
  2
_OPEN
 10
1208.234144999999
 20
3540.424888
 30
0.0
 41
60.0
 42
60.0
 43
60.0
 50
270.0
  0
INSERT
  5
7E38
  8
3
  6
CONTINUOUS
 62
     0
  2
_OPEN
 10
1208.2341449999999
 20
4116.4155350000001
 30
0.0
 41
60.0
 42
60.0
 43
60.0
 50
90.0
  0
TEXT
  8
3
  40
90
  5
7E59
  62
0
  72
0
  71
0
 10
953.234
 20
3669.12
 30
0.000000
  1
576
  0
POINT
  5
7E3A
  8
DEFPOINTS
  6
CONTINUOUS
 62
     0
 10
1669.4405609999999
 20
3540.424888
 30
0.0
  0
POINT
  5
7E3B
  8
DEFPOINTS
  6
CONTINUOUS
 62
     0
 10
2354.520078999999
 20
4116.4155350000001
 30
0.0
  0
POINT
  5
7E3C
  8
DEFPOINTS
  6
CONTINUOUS
 62
     0
 10
1208.2341449999999
 20
4116.4155350000001
 30
0.0
  0
ENDBLK
  5
7CB1
  8
0
  0
BLOCK
  8
0
  2
*D18
 70
     1
 10
0.0
 20
0.0
 30
0.0
  3
*D18
  1

  0
LINE
  5
7E3D
  8
3
 62
     0
 10
1759.5200789999999
 20
3635.924888
 30
0.0
 11
1759.5200789999999
 21
4483.6841071654299
 31
0.0
  0
LINE
  5
7E3E
  8
3
 62
     0
 10
3484.5200789999999
 20
2560.424888
 30
0.0
 11
3484.5200789999999
 21
4483.6841071654299
 31
0.0
  0
LINE
  5
7E3F
  8
3
 62
     0
 10
1819.520078999999
 20
4453.6841071654308
 30
0.0
 11
3424.5200789999999
 21
4453.6841071654308
 31
0.0
  0
INSERT
  5
7E40
  8
3
 62
     0
  2
_OPEN
 10
1759.5200789999999
 20
4453.6841071654308
 30
0.0
 41
60.0
 42
60.0
 43
60.0
 50
180.0
  0
INSERT
  5
7E41
  8
3
 62
     0
  2
_OPEN
 10
3484.5200789999999
 20
4453.6841071654308
 30
0.0
 41
60.0
 42
60.0
 43
60.0
  0
TEXT
  8
3
  40
90
  5
7E5A
  62
0
  72
0
  71
0
 10
2399.75
 20
4369.38
 30
0.000000
  1
1725
  0
POINT
  5
7E43
  8
DEFPOINTS
 62
     0
 10
1759.5200789999999
 20
3620.924888
 30
0.0
  0
POINT
  5
7E44
  8
DEFPOINTS
 62
     0
 10
3484.5200789999999
 20
2545.424888
 30
0.0
  0
POINT
  5
7E45
  8
DEFPOINTS
 62
     0
 10
3484.5200789999999
 20
4453.6841071654308
 30
0.0
  0
ENDBLK
  5
7D73
  8
0
  0
BLOCK
  8
0
  2
_DOT
 70
     0
 10
0.0
 20
0.0
 30
0.0
  3
_DOT
  1

  0
POLYLINE
  5
7D8E
  8
0
  6
BYBLOCK
 62
     0
 66
     1
 10
0.0
 20
0.0
 30
0.0
 70
     1
 40
0.5
 41
0.5
  0
VERTEX
  5
7E46
  8
0
  6
BYBLOCK
 62
     0
 10
-0.25
 20
0.0
 30
0.0
 42
1.0
  0
VERTEX
  5
7E47
  8
0
  6
BYBLOCK
 62
     0
 10
0.25
 20
0.0
 30
0.0
 42
1.0
  0
SEQEND
  5
7E48
  8
0
  6
BYBLOCK
 62
     0
  0
LINE
  5
7D8F
  8
0
  6
BYBLOCK
 62
     0
 10
-0.5
 20
0.0
 30
0.0
 11
-1.0
 21
0.0
 31
0.0
  0
ENDBLK
  5
7D91
  8
0
  0
ENDSEC
  0
SECTION
  2
ENTITIES
  0
ARC
  5
7ABD
  8
1
  6
CONTINUOUS
 10
2398.5200789999999
 20
3496.424888
 30
0.0
 40
621.54999999999995
 50
4.7599999999999989
 51
96.5
  0
LINE
  5
7ABE
  8
1
  6
CONTINUOUS
 10
1847.490078999999
 20
3578.424888
 30
0.0
 11
1759.5200789999999
 21
3578.424888
 31
0.0
  0
LINE
  5
7ABF
  8
1
  6
CONTINUOUS
 10
1759.5200789999999
 20
2753.424888
 30
0.0
 11
2354.520078999999
 21
2772.424888
 31
0.0
  0
ARC
  5
7AC0
  8
1
  6
CONTINUOUS
 10
2389.520078999999
 20
3575.424888
 30
0.0
 40
542.03999999999985
 50
96.5
 51
179.68000000000001
  0
LINE
  5
7AC2
  8
1
  6
CONTINUOUS
 10
1834.520078999999
 20
2670.4248879999991
 30
0.0
 11
3434.5200789999999
 21
2670.424888
 31
0.0
  0
LINE
  5
7AC3
  8
1
  6
CONTINUOUS
 10
1834.520078999999
 20
2570.424888
 30
0.0
 11
3434.5200789999999
 21
2570.424888
 31
0.0
  0
LINE
  5
7AC4
  8
1
  6
CONTINUOUS
 10
1784.520078999999
 20
2445.424888
 30
0.0
 11
3484.5200789999999
 21
2445.424888
 31
0.0
  0
LINE
  5
7AC5
  8
1
  6
CONTINUOUS
 10
1784.520078999999
 20
2545.424888
 30
0.0
 11
3484.5200789999999
 21
2545.424888
 31
0.0
  0
LINE
  5
7AC6
  8
1
  6
CONTINUOUS
 10
1759.5200789999999
 20
3620.924888
 30
0.0
 11
1759.5200789999999
 21
2710.924888
 31
0.0
  0
LINE
  5
7AC8
  8
1
  6
CONTINUOUS
 10
1834.520078999999
 20
2670.424888
 30
0.0
 11
1834.520078999999
 21
2570.424888
 31
0.0
  0
LINE
  5
7AC9
  8
1
  6
CONTINUOUS
 10
1784.520078999999
 20
2545.424888
 30
0.0
 11
1784.520078999999
 21
2445.424888
 31
0.0
  0
ARC
  5
7ACA
  8
1
  6
CONTINUOUS
 10
2302.5200789999999
 20
3488.424888
 30
0.0
 40
717.88999999999987
 50
274.14999999999992
 51
4.7599999999999989
  0
LINE
  5
7ACD
  8
1
  6
CONTINUOUS
 10
2504.5200789999999
 20
3920.4248880000009
 30
0.0
 11
3414.520078999999
 21
2970.424888
 31
0.0
  0
LINE
  5
7ACE
  8
1
  6
CONTINUOUS
 10
3308.2600790000001
 20
2925.3048880000001
 30
0.0
 11
2490.8400790000001
 21
3686.7648880000002
 31
0.0
  0
LINE
  5
7ACF
  8
1
  6
CONTINUOUS
 10
3219.420079
 20
2805.6048879999989
 30
0.0
 11
2253.9100790000002
 21
3367.5748880000001
 31
0.0
  0
LINE
  5
7AD0
  8
1
  6
CONTINUOUS
 10
1934.5200789999999
 20
2670.424888
 30
0.0
 11
1934.5200789999999
 21
3920.4248880000009
 31
0.0
  0
LINE
  5
7AD1
  8
1
  6
CONTINUOUS
 10
1934.5200789999999
 20
3920.4248880000009
 30
0.0
 11
2504.5200789999999
 21
3920.4248880000009
 31
0.0
  0
CIRCLE
  5
7AD2
  8
1
  6
CONTINUOUS
 10
2354.520078999999
 20
3540.424888
 30
0.0
 40
200.0
  0
LINE
  5
7AD3
  8
2
  6
CENTER
 10
1669.4405609999999
 20
3540.424888
 30
0.0
 11
3217.251213
 21
3540.424888
 31
0.0
  0
LINE
  5
7AD4
  8
2
  6
CENTER
 10
2354.520078999999
 20
6419.505056
 30
0.0
 11
2354.520078999999
 21
5223.8508570000013
 31
0.0
  0
LINE
  5
7AD6
  8
2
  6
CENTER
 10
3257.1400789999998
 20
2795.424888
 30
0.0
 11
3257.1400789999998
 21
2945.424888
 31
0.0
  0
LINE
  5
7AD7
  8
1
  6
CONTINUOUS
 10
3414.520078999999
 20
2970.424888
 30
0.0
 11
3414.520078999999
 21
2670.424888
 31
0.0
  0
CIRCLE
  5
7AD8
  8
1
  6
CONTINUOUS
 10
3257.1400789999998
 20
2870.424888
 30
0.0
 40
75.0
  0
ARC
  5
7AD9
  8
1
  6
CONTINUOUS
 10
3257.1400789999998
 20
2870.424888
 30
0.0
 40
162.0
 50
324.97000000000003
 51
215.02999999999989
  0
LINE
  5
7ADA
  8
1
  6
CONTINUOUS
 10
3103.1400789999998
 20
2670.424888
 30
0.0
 11
3103.1400789999998
 21
2728.424888
 31
0.0
  0
LINE
  5
7ADB
  8
1
  6
CONTINUOUS
 10
3103.1400789999998
 20
2728.424888
 30
0.0
 11
3124.4900790000002
 21
2777.444888
 31
0.0
  0
LINE
  5
7ADC
  8
1
  6
CONTINUOUS
 10
3411.1400789999989
 20
2728.424888
 30
0.0
 11
3389.8000790000001
 21
2777.444888
 31
0.0
  0
LINE
  5
7ADD
  8
2
  6
CENTER
 10
3332.1400789999998
 20
2870.424888
 30
0.0
 11
3182.1400789999989
 21
2870.424888
 31
0.0
  0
LINE
  5
7ADE
  8
1
  6
CONTINUOUS
 10
3434.5200789999999
 20
2670.424888
 30
0.0
 11
3434.5200789999999
 21
2570.424888
 31
0.0
  0
LINE
  5
7ADF
  8
1
  6
CONTINUOUS
 10
3411.1400789999989
 20
2670.424888
 30
0.0
 11
3411.1400789999989
 21
2728.424888
 31
0.0
  0
LINE
  5
7AE0
  8
1
  6
CONTINUOUS
 10
3484.5200789999999
 20
2545.424888
 30
0.0
 11
3484.5200789999999
 21
2445.424888
 31
0.0
  0
LINE
  5
7AE1
  8
1
  6
CONTINUOUS
 10
3434.5200789999999
 20
6260.0719520000002
 30
0.0
 11
1834.520078999999
 21
6260.0719520000002
 31
0.0
  0
LINE
  5
7AE2
  8
1
  6
CONTINUOUS
 10
3020.4100789999989
 20
5608.0719520000002
 30
0.0
 11
1759.5200789999999
 21
5608.0719520000002
 31
0.0
  0
LINE
  5
7AE3
  8
1
  6
CONTINUOUS
 10
3020.4100789999989
 20
6208.0719520000002
 30
0.0
 11
1759.5200789999999
 21
6208.0719520000002
 31
0.0
  0
LINE
  5
7AE4
  8
1
  6
CONTINUOUS
 10
2154.5200789999999
 20
5440.0719520000002
 30
0.0
 11
1834.520078999999
 21
5440.0719520000002
 31
0.0
  0
LINE
  5
7AE5
  8
1
  6
CONTINUOUS
 10
1759.5200789999999
 20
5566.0719520000002
 30
0.0
 11
1759.5200789999999
 21
6250.0719520000002
 31
0.0
  0
LINE
  5
7AE6
  8
1
  6
CONTINUOUS
 10
1799.520078999999
 20
5608.0719520000002
 30
0.0
 11
1799.520078999999
 21
6208.0719520000002
 31
0.0
  0
LINE
  5
7AE7
  8
1
  6
CONTINUOUS
 10
1834.520078999999
 20
5608.0719520000002
 30
0.0
 11
1834.520078999999
 21
5325.0719520000002
 31
0.0
  0
LINE
  5
7AE8
  8
1
  6
CONTINUOUS
 10
1784.520078999999
 20
5608.0719520000002
 30
0.0
 11
1784.520078999999
 21
5325.0719520000002
 31
0.0
  0
LINE
  5
7AE9
  8
1
  6
CONTINUOUS
 10
1834.520078999999
 20
5325.0719520000002
 30
0.0
 11
1784.520078999999
 21
5325.0719520000002
 31
0.0
  0
LINE
  5
7AEA
  8
1
  6
CONTINUOUS
 10
1834.520078999999
 20
6375.0719520000002
 30
0.0
 11
1834.520078999999
 21
6208.0719520000002
 31
0.0
  0
LINE
  5
7AEB
  8
1
  6
CONTINUOUS
 10
1834.520078999999
 20
6375.0719520000002
 30
0.0
 11
1784.520078999999
 21
6375.0719520000002
 31
0.0
  0
LINE
  5
7AEC
  8
1
  6
CONTINUOUS
 10
1784.520078999999
 20
6375.0719520000002
 30
0.0
 11
1784.520078999999
 21
6208.0719520000002
 31
0.0
  0
LINE
  5
7AED
  8
1
  6
CONTINUOUS
 10
3414.520078999999
 20
5498.0719520000002
 30
0.0
 11
1934.5200789999999
 21
5498.0719520000002
 31
0.0
  0
LINE
  5
7AEE
  8
1
  6
CONTINUOUS
 10
3414.520078999999
 20
5348.0719520000002
 30
0.0
 11
1934.5200789999999
 21
5348.0719520000002
 31
0.0
  0
LINE
  5
7AEF
  8
1
  6
CONTINUOUS
 10
3182.1400789999989
 20
5440.0719520000002
 30
0.0
 11
2554.520078999999
 21
5440.0719520000002
 31
0.0
  0
LINE
  5
7AF0
  8
1
  6
CONTINUOUS
 10
2154.5200789999999
 20
5388.0719520000002
 30
0.0
 11
2554.520078999999
 21
5388.0719520000002
 31
0.0
  0
LINE
  5
7AF1
  8
1
  6
CONTINUOUS
 10
2154.5200789999999
 20
5458.0719520000002
 30
0.0
 11
2554.520078999999
 21
5458.0719520000002
 31
0.0
  0
LINE
  5
7AF2
  8
1
  6
CONTINUOUS
 10
1934.5200789999999
 20
5348.0719520000002
 30
0.0
 11
1934.5200789999999
 21
5498.0719520000002
 31
0.0
  0
LINE
  5
7AF3
  8
1
  6
CONTINUOUS
 10
2154.5200789999999
 20
5388.0719520000002
 30
0.0
 11
2154.5200789999999
 21
5458.0719520000002
 31
0.0
  0
LINE
  5
7AF4
  8
1
  6
CONTINUOUS
 10
2333.520078999999
 20
5458.0719520000002
 30
0.0
 11
2333.520078999999
 21
5608.0719520000002
 31
0.0
  0
LINE
  5
7AF5
  8
1
  6
CONTINUOUS
 10
2375.5200789999999
 20
5458.0719520000002
 30
0.0
 11
2375.5200789999999
 21
5608.0719520000002
 31
0.0
  0
LINE
  5
7AF6
  8
1
  6
CONTINUOUS
 10
2554.520078999999
 20
5388.0719520000002
 30
0.0
 11
2554.520078999999
 21
5458.0719520000002
 31
0.0
  0
LINE
  5
7AF7
  8
1
  6
CONTINUOUS
 10
3020.4100789999989
 20
5608.0719520000002
 30
0.0
 11
3020.4100789999989
 21
6208.0719520000002
 31
0.0
  0
LINE
  5
7AF8
  8
1
  6
CONTINUOUS
 10
3434.5200789999999
 20
6375.0719520000002
 30
0.0
 11
3434.5200789999999
 21
5325.0719520000002
 31
0.0
  0
LINE
  5
7AF9
  8
1
  6
CONTINUOUS
 10
3419.1400789999989
 20
5546.0719520000011
 30
0.0
 11
3419.1400789999989
 21
6031.0719520000011
 31
0.0
  0
LINE
  5
7AFA
  8
1
  6
CONTINUOUS
 10
3095.1400789999998
 20
5546.0719520000011
 30
0.0
 11
3095.1400789999998
 21
6031.0719520000011
 31
0.0
  0
LINE
  5
7AFB
  8
1
  6
CONTINUOUS
 10
3484.5200789999999
 20
6375.0719520000002
 30
0.0
 11
3484.5200789999999
 21
5325.0719520000002
 31
0.0
  0
LINE
  5
7AFC
  8
1
  6
CONTINUOUS
 10
3419.1400789999989
 20
5546.0719520000011
 30
0.0
 11
3095.1400789999998
 21
5546.0719520000011
 31
0.0
  0
LINE
  5
7AFD
  8
1
  6
CONTINUOUS
 10
3434.5200789999999
 20
5440.0719520000002
 30
0.0
 11
3332.1400789999998
 21
5440.0719520000002
 31
0.0
  0
LINE
  5
7AFE
  8
1
  6
CONTINUOUS
 10
3182.1400789999989
 20
5388.0719520000002
 30
0.0
 11
3332.1400789999998
 21
5388.0719520000002
 31
0.0
  0
LINE
  5
7AFF
  8
1
  6
CONTINUOUS
 10
3182.1400789999989
 20
5458.0719520000002
 30
0.0
 11
3332.1400789999998
 21
5458.0719520000002
 31
0.0
  0
LINE
  5
7B00
  8
1
  6
CONTINUOUS
 10
3182.1400789999989
 20
5388.0719520000002
 30
0.0
 11
3182.1400789999989
 21
5458.0719520000002
 31
0.0
  0
LINE
  5
7B01
  8
1
  6
CONTINUOUS
 10
3332.1400789999998
 20
5388.0719520000002
 30
0.0
 11
3332.1400789999998
 21
5458.0719520000002
 31
0.0
  0
LINE
  5
7B02
  8
1
  6
CONTINUOUS
 10
3278.1400789999989
 20
5458.0719520000002
 30
0.0
 11
3278.1400789999989
 21
5546.0719520000011
 31
0.0
  0
LINE
  5
7B03
  8
1
  6
CONTINUOUS
 10
3236.1400789999998
 20
5458.0719520000002
 30
0.0
 11
3236.1400789999998
 21
5546.0719520000011
 31
0.0
  0
LINE
  5
7B04
  8
1
  6
CONTINUOUS
 10
3414.520078999999
 20
5498.0719520000002
 30
0.0
 11
3414.520078999999
 21
5348.0719520000002
 31
0.0
  0
LINE
  5
7B05
  8
1
  6
CONTINUOUS
 10
3484.5200789999999
 20
5325.0719520000002
 30
0.0
 11
3434.5200789999999
 21
5325.0719520000002
 31
0.0
  0
LINE
  5
7B06
  8
1
  6
CONTINUOUS
 10
3419.1400789999989
 20
6031.0719520000011
 30
0.0
 11
3095.1400789999998
 21
6031.0719520000011
 31
0.0
  0
LINE
  5
7B07
  8
1
  6
CONTINUOUS
 10
3484.5200789999999
 20
6375.0719520000002
 30
0.0
 11
3434.5200789999999
 21
6375.0719520000002
 31
0.0
  0
LINE
  5
7B08
  8
1
  6
CONTINUOUS
 10
5256.5447089999998
 20
2545.424888
 30
0.0
 11
4206.5447089999998
 21
2545.424888
 31
0.0
  0
LINE
  5
7B09
  8
1
  6
CONTINUOUS
 10
5256.5447089999998
 20
2445.424888
 30
0.0
 11
4206.5447089999998
 21
2445.424888
 31
0.0
  0
LINE
  5
7B0A
  8
1
  6
CONTINUOUS
 10
4489.5447089999998
 20
3578.424888
 30
0.0
 11
5089.5447089999998
 21
3578.424888
 31
0.0
  0
LINE
  5
7B0B
  8
1
  6
CONTINUOUS
 10
4489.5447089999998
 20
2753.424888
 30
0.0
 11
5089.5447089999998
 21
2753.424888
 31
0.0
  0
LINE
  5
7B0C
  8
1
  6
CONTINUOUS
 10
5141.5447090000007
 20
2570.424888
 30
0.0
 11
4321.5447089999998
 21
2570.424888
 31
0.0
  0
LINE
  5
7B0D
  8
1
  6
CONTINUOUS
 10
5141.5447090000007
 20
2670.424888
 30
0.0
 11
4229.5447090000007
 21
2670.424888
 31
0.0
  0
LINE
  5
7B0E
  8
1
  6
CONTINUOUS
 10
4489.5447089999998
 20
4117.9748879999997
 30
0.0
 11
5089.5447089999998
 21
4117.9748879999997
 31
0.0
  0
LINE
  5
7B0F
  8
1
  6
CONTINUOUS
 10
5089.5447089999998
 20
2753.424888
 30
0.0
 11
4489.5447089999998
 21
3578.424888
 31
0.0
  0
LINE
  5
7B10
  8
1
  6
CONTINUOUS
 10
4489.5447089999998
 20
2753.424888
 30
0.0
 11
5089.5447089999998
 21
3578.424888
 31
0.0
  0
LINE
  5
7B38
  8
1
  6
CONTINUOUS
 10
4489.5447089999998
 20
4117.9748879999997
 30
0.0
 11
4489.5447089999998
 21
2670.424888
 31
0.0
  0
LINE
  5
7B39
  8
1
  6
CONTINUOUS
 10
4229.5447090000007
 20
3920.4248880000009
 30
0.0
 11
4229.5447090000007
 21
2670.424888
 31
0.0
  0
LINE
  5
7B3A
  8
1
  6
CONTINUOUS
 10
4379.5447090000007
 20
3920.4248880000009
 30
0.0
 11
4379.5447090000007
 21
2670.424888
 31
0.0
  0
LINE
  5
7B3B
  8
1
  6
CONTINUOUS
 10
4269.5447089999998
 20
2945.424888
 30
0.0
 11
4269.5447089999998
 21
2795.424888
 31
0.0
  0
LINE
  5
7B3C
  8
1
  6
CONTINUOUS
 10
4339.5447089999998
 20
2945.424888
 30
0.0
 11
4339.5447089999998
 21
2795.424888
 31
0.0
  0
LINE
  5
7B3D
  8
1
  6
CONTINUOUS
 10
4269.5447089999998
 20
2795.424888
 30
0.0
 11
4339.5447089999998
 21
2795.424888
 31
0.0
  0
LINE
  5
7B3E
  8
1
  6
CONTINUOUS
 10
4206.5447089999998
 20
2545.424888
 30
0.0
 11
4206.5447089999998
 21
2445.424888
 31
0.0
  0
LINE
  5
7B3F
  8
1
  6
CONTINUOUS
 10
4321.5447089999998
 20
2670.424888
 30
0.0
 11
4321.5447089999998
 21
2570.424888
 31
0.0
  0
LINE
  5
7B40
  8
1
  6
CONTINUOUS
 10
4339.5447089999998
 20
2891.424888
 30
0.0
 11
4489.5447089999998
 21
2891.424888
 31
0.0
  0
LINE
  5
7B41
  8
1
  6
CONTINUOUS
 10
4339.5447089999998
 20
2849.424888
 30
0.0
 11
4489.5447089999998
 21
2849.424888
 31
0.0
  0
LINE
  5
7B42
  8
1
  6
CONTINUOUS
 10
4269.5447089999998
 20
3740.424888
 30
0.0
 11
4269.5447089999998
 21
3340.4248879999991
 31
0.0
  0
LINE
  5
7B43
  8
1
  6
CONTINUOUS
 10
4339.5447089999998
 20
3740.424888
 30
0.0
 11
4339.5447089999998
 21
3340.4248879999991
 31
0.0
  0
LINE
  5
7B44
  8
1
  6
CONTINUOUS
 10
4269.5447089999998
 20
3340.4248879999991
 30
0.0
 11
4339.5447089999998
 21
3340.4248879999991
 31
0.0
  0
LINE
  5
7B45
  8
1
  6
CONTINUOUS
 10
4269.5447089999998
 20
2945.424888
 30
0.0
 11
4339.5447089999998
 21
2945.424888
 31
0.0
  0
LINE
  5
7B46
  8
1
  6
CONTINUOUS
 10
4489.5447089999998
 20
3561.424888
 30
0.0
 11
4339.5447089999998
 21
3561.424888
 31
0.0
  0
LINE
  5
7B47
  8
1
  6
CONTINUOUS
 10
4489.5447089999998
 20
3519.424888
 30
0.0
 11
4339.5447089999998
 21
3519.424888
 31
0.0
  0
LINE
  5
7B48
  8
1
  6
CONTINUOUS
 10
4379.5447090000007
 20
3920.4248880000009
 30
0.0
 11
4229.5447090000007
 21
3920.4248880000009
 31
0.0
  0
LINE
  5
7B49
  8
1
  6
CONTINUOUS
 10
4269.5447089999998
 20
3740.424888
 30
0.0
 11
4339.5447089999998
 21
3740.424888
 31
0.0
  0
LINE
  5
7B71
  8
1
  6
CONTINUOUS
 10
5089.5447089999998
 20
4117.9748879999997
 30
0.0
 11
5089.5447089999998
 21
2670.424888
 31
0.0
  0
LINE
  5
7B72
  8
1
  6
CONTINUOUS
 10
5141.5447090000007
 20
2670.424888
 30
0.0
 11
5141.5447090000007
 21
2570.424888
 31
0.0
  0
LINE
  5
7B73
  8
1
  6
CONTINUOUS
 10
5256.5447089999998
 20
2545.424888
 30
0.0
 11
5256.5447089999998
 21
2445.424888
 31
0.0
  0
LINE
  5
7B74
  8
2
  6
CENTER
 10
4789.5447089999998
 20
4256.111382
 30
0.0
 11
4789.5447089999998
 21
2261.0212689999998
 31
0.0
  0
LINE
  5
7B75
  8
2
  6
CENTER
 10
3602.5055170000001
 20
5908.0719520000002
 30
0.0
 11
1616.488779
 21
5908.0719520000002
 31
0.0
  0
LINE
  5
7B76
  8
2
  6
CENTER
 10
2354.520078999999
 20
4237.9592909999992
 30
0.0
 11
2354.520078999999
 21
2276.8467019999989
 31
0.0
  0
LINE
  5
7B77
  8
2
  6
CENTER
 10
4112.9541449999997
 20
3540.424888
 30
0.0
 11
5178.9584750000004
 21
3540.424888
 31
0.0
  0
LINE
  5
7B78
  8
4
  6
CONTINUOUS
 10
5550.0
 20
1500.0
 30
0.0
 11
5550.0
 21
900.0
 31
0.0
  0
LINE
  5
7B79
  8
4
  6
CONTINUOUS
 10
3450.0
 20
1500.0
 30
0.0
 11
3450.0
 21
900.0
 31
0.0
  0
LINE
  5
7B7A
  8
4
  6
CONTINUOUS
 10
1950.0
 20
1500.0
 30
0.0
 11
1950.0
 21
900.0
 31
0.0
  0
LINE
  5
7B7D
  8
4
  6
CONTINUOUS
 10
1950.0
 20
900.0
 30
0.0
 11
5550.0
 21
900.0
 31
0.0
  0
LINE
  5
7B7E
  8
4
  6
CONTINUOUS
 10
1950.0
 20
1200.0
 30
0.0
 11
5550.0
 21
1200.0
 31
0.0
  0
TEXT
  5
7B7F
  8
4
  6
CONTINUOUS
 10
2065.5062429999989
 20
1294.6290779999999
 30
0.0
 40
150.0
  1
機器名称
  0
TEXT
  5
7B80
  8
4
  6
CONTINUOUS
 10
2058.7743179999989
 20
964.9354699999999
 30
0.0
 40
150.0
  1
機器型番
  0
TEXT
  5
7B81
  8
4
  6
CONTINUOUS
 10
3533.0362359999999
 20
1267.7153069999999
 30
0.0
 40
150.0
  1
ミツヤ多翼送風機
  0
TEXT
  5
7B82
  8
4
  6
CONTINUOUS
 10
3559.9634869999991
 20
951.47875299999987
 30
0.0
 40
150.0
  1
MF#5-4
  0
TEXT
  5
7B84
  8
4
  6
CONTINUOUS
 10
2218.6851459999998
 20
7150.2865239999992
 30
0.0
 40
162.0
  1
天井吊防振ベット
  0
TEXT
  5
7B85
  8
4
  6
CONTINUOUS
 10
948.50278000000014
 20
7601.6429289999996
 30
0.0
 40
216.0
  1
ベルト駆動式片吸込両持多翼ファン
  0
LINE
  5
7B86
  8
4
  6
CONTINUOUS
 10
750.0
 20
7408.2262629999996
 30
0.0
 11
5550.0
 21
7408.2262629999996
 31
0.0
  0
LINE
  5
7B87
  8
4
  6
CONTINUOUS
 10
750.0
 20
8008.2262629999996
 30
0.0
 11
5550.0
 21
8008.2262629999996
 31
0.0
  0
LINE
  5
7B88
  8
4
  6
CONTINUOUS
 10
1950.0
 20
1500.0
 30
0.0
 11
5550.0
 21
1500.0
 31
0.0
  0
LINE
  5
7B89
  8
4
  6
CONTINUOUS
 10
750.0
 20
8008.2262629999996
 30
0.0
 11
750.0
 21
7408.2262629999996
 31
0.0
  0
TEXT
  5
7B8A
  8
4
  6
CONTINUOUS
 10
911.1086489999999
 20
7146.9584329999998
 30
0.0
 40
162.0
  1
右回転左横向
  0
TEXT
  5
7B8B
  8
4
  6
CONTINUOUS
 10
4406.9086779999989
 20
8118.1832439999989
 30
0.0
 40
168.0
  1
No.
  0
TEXT
  5
7B8C
  8
4
  6
CONTINUOUS
 10
3933.8881879999999
 20
7150.2865239999992
 30
0.0
 40
162.0
  1
縮尺：1/30
  0
LINE
  5
7B8D
  8
4
  6
CONTINUOUS
 10
5550.0
 20
8008.2262629999996
 30
0.0
 11
5550.0
 21
7408.2262629999996
 31
0.0
  0
LINE
  5
7B8F
  8
4
  6
CONTINUOUS
 10
4321.8522670000002
 20
8043.7907490000007
 30
0.0
 11
4321.8522670000002
 21
8359.9567849999985
 31
0.0
  0
LINE
  5
7B90
  8
4
  6
CONTINUOUS
 10
4321.8522670000002
 20
8359.9567849999985
 30
0.0
 11
5550.0
 21
8359.9567849999985
 31
0.0
  0
LINE
  5
7B91
  8
4
  6
CONTINUOUS
 10
5550.0
 20
8359.9567849999985
 30
0.0
 11
5550.0
 21
8043.7907490000007
 31
0.0
  0
LINE
  5
7B92
  8
4
  6
CONTINUOUS
 10
5550.0
 20
8043.7907490000007
 30
0.0
 11
4321.8522670000002
 21
8043.7907490000007
 31
0.0
  0
DIMENSION
  5
7BAA
  8
3
  6
CONTINUOUS
  2
*D1
 10
1605.4496549999999
 20
2753.424888
 30
0.0
 11
1605.4496549999999
 21
3144.3479480000001
 31
0.0
 70
   128
 13
1759.5200789999999
 23
3578.424888
 33
0.0
 14
1759.5200789999999
 24
2753.424888
 34
0.0
 50
90.0
1001
ACAD
1000
DSTYLE
1002
{
1070
   287
1070
     3
1070
    40
1040
30.0
1070
   143
1040
0.039
1070
   172
1070
     1
1070
   271
1070
     0
1070
   279
1070
     0
1070
   288
1070
     1
1002
}
  0
DIMENSION
  5
7BB7
  8
3
  6
CONTINUOUS
  2
*D2
 10
1410.0977740000001
 20
2753.424888
 30
0.0
 11
1410.0977740000001
 21
3144.3479480000001
 31
0.0
 70
   128
 13
1669.4405609999999
 23
3540.424888
 33
0.0
 14
1759.5200789999999
 24
2753.424888
 34
0.0
 50
90.0
1001
ACAD
1000
DSTYLE
1002
{
1070
   287
1070
     3
1070
    40
1040
30.0
1070
   143
1040
0.039
1070
   172
1070
     1
1070
   271
1070
     0
1070
   279
1070
     0
1070
   288
1070
     1
1002
}
  0
DIMENSION
  5
7BD0
  8
3
  6
CONTINUOUS
  2
*D3
 10
1208.2341449999999
 20
2570.424888
 30
0.0
 11
1133.234144999999
 21
3055.4248880000009
 31
0.0
 70
     0
 13
1669.4405609999999
 23
3540.424888
 33
0.0
 14
1834.520078999999
 24
2570.424888
 34
0.0
 50
90.0
1001
ACAD
1000
DSTYLE
1002
{
1070
   287
1070
     3
1070
    40
1040
30.0
1070
   143
1040
0.039
1070
   172
1070
     1
1070
   271
1070
     0
1070
   279
1070
     0
1070
   288
1070
     1
1002
}
  0
DIMENSION
  5
7BE0
  8
3
  6
CONTINUOUS
  2
*D4
 10
1208.893998
 20
2445.424888
 30
0.0
 11
1208.893998
 21
2188.2820308571431
 31
0.0
 70
   128
 13
1834.520078999999
 23
2570.424888
 33
0.0
 14
1784.520078999999
 24
2445.424888
 34
0.0
 50
90.0
1001
ACAD
1000
DSTYLE
1002
{
1070
   287
1070
     3
1070
    40
1040
30.0
1070
   143
1040
0.039
1070
   172
1070
     1
1070
   271
1070
     0
1070
   279
1070
     0
1070
   288
1070
     1
1002
}
  0
DIMENSION
  5
7BFA
  8
3
  6
CONTINUOUS
  2
*D5
 10
2354.520078999999
 20
2178.0657539999988
 30
0.0
 11
2060.6211050000002
 21
2178.0657539999988
 31
0.0
 70
   128
 13
1784.520078999999
 23
2445.424888
 33
0.0
 14
2354.520078999999
 24
2276.8467019999989
 34
0.0
1001
ACAD
1000
DSTYLE
1002
{
1070
   287
1070
     3
1070
    40
1040
30.0
1070
   143
1040
0.039
1070
   172
1070
     1
1070
   271
1070
     0
1070
   279
1070
     0
1070
   288
1070
     1
1002
}
  0
DIMENSION
  5
7C06
  8
3
  6
CONTINUOUS
  2
*D6
 10
3484.5200789999999
 20
2178.0657539999988
 30
0.0
 11
2919.5200789999999
 21
2253.0657539999988
 31
0.0
 70
     0
 13
2354.520078999999
 23
2276.8467019999989
 33
0.0
 14
3484.5200789999999
 24
2445.424888
 34
0.0
1001
ACAD
1000
DSTYLE
1002
{
1070
   287
1070
     4
1070
    40
1040
30.0
1070
    75
1070
     1
1070
   143
1040
0.039
1070
   172
1070
     1
1070
   271
1070
     0
1070
   279
1070
     1
1070
   288
1070
     1
1002
}
  0
DIMENSION
  5
7C13
  8
3
  6
CONTINUOUS
  2
*D7
 10
2354.520078999999
 20
4296.0810060000003
 30
0.0
 11
2060.6211050000002
 21
4296.0810060000003
 31
0.0
 70
   128
 13
1759.5200789999999
 23
3620.924888
 33
0.0
 14
2354.520078999999
 24
4237.9592909999992
 34
0.0
1001
ACAD
1000
DSTYLE
1002
{
1070
   287
1070
     3
1070
    40
1040
30.0
1070
   143
1040
0.039
1070
   172
1070
     1
1070
   271
1070
     0
1070
   279
1070
     0
1070
   288
1070
     1
1002
}
  0
DIMENSION
  5
7C1F
  8
3
  6
CONTINUOUS
  2
*D8
 10
3018.5243049999999
 20
4296.0810060000003
 30
0.0
 11
2686.522191999999
 21
4371.0810060000003
 31
0.0
 70
     0
 13
2354.520078999999
 23
4237.9592909999992
 33
0.0
 14
3018.5243049999999
 24
3540.424888
 34
0.0
1001
ACAD
1000
DSTYLE
1002
{
1070
   287
1070
     4
1070
    40
1040
30.0
1070
    75
1070
     1
1070
   143
1040
0.039
1070
   172
1070
     1
1070
   271
1070
     0
1070
   279
1070
     1
1070
   288
1070
     1
1002
}
  0
DIMENSION
  5
7C2C
  8
3
  6
CONTINUOUS
  2
*D9
 10
4489.5447089999998
 20
4244.0252810000002
 30
0.0
 11
4781.7429310000007
 21
4244.0252810000002
 31
0.0
 70
   128
 13
5089.5447089999998
 23
4117.9748879999997
 33
0.0
 14
4489.5447089999998
 24
4117.9748879999997
 34
0.0
1001
ACAD
1000
DSTYLE
1002
{
1070
   287
1070
     3
1070
    40
1040
30.0
1070
   143
1040
0.039
1070
   172
1070
     1
1070
   271
1070
     0
1070
   279
1070
     0
1070
   288
1070
     1
1002
}
  0
LINE
  5
7C2D
  8
1
  6
CONTINUOUS
 10
5093.5447090000007
 20
3965.424888
 30
0.0
 11
5093.5447090000007
 21
3115.424888
 31
0.0
  0
DIMENSION
  5
7C3C
  8
3
  6
CONTINUOUS
  2
*D10
 10
5348.2634340000013
 20
3115.4248879999991
 30
0.0
 11
5348.2634340000004
 21
3541.2728940000002
 31
0.0
 70
   128
 13
5093.5447090000007
 23
3965.424888
 33
0.0
 14
5093.5447090000007
 24
3115.424888
 34
0.0
 50
90.0
1001
ACAD
1000
DSTYLE
1002
{
1070
   287
1070
     3
1070
     3
1000
φ<>
1070
    40
1040
30.0
1070
   143
1040
0.039
1070
   172
1070
     1
1070
   271
1070
     0
1070
   279
1070
     0
1070
   288
1070
     1
1002
}
  0
DIMENSION
  5
7C4B
  8
3
  6
CONTINUOUS
  2
*D11
 10
4789.5447089999998
 20
4419.7133779999986
 30
0.0
 11
4941.5447090000007
 21
4503.9179692206999
 31
0.0
 70
   128
 13
5093.5447090000007
 23
3965.424888
 33
0.0
 14
4789.5447089999998
 24
4378.5401709999996
 34
0.0
1001
ACAD
1000
DSTYLE
1002
{
1070
   288
1070
     1
1070
   172
1070
     1
1070
    40
1040
30.0
1070
   271
1070
     0
1070
   143
1040
0.039
1002
}
  0
DIMENSION
  5
7C57
  8
3
  6
CONTINUOUS
  2
*D12
 10
4229.5447090000007
 20
4419.7133779999986
 30
0.0
 11
4509.5447089999998
 21
4569.7133780000004
 31
0.0
 70
     0
  1
MAX\P610
 13
4789.5447089999998
 23
4378.5401709999996
 33
0.0
 14
4229.5447090000007
 24
3920.4248880000009
 34
0.0
1001
ACAD
1000
DSTYLE
1002
{
1070
   287
1070
     4
1070
    40
1040
30.0
1070
    75
1070
     1
1070
   143
1040
0.039
1070
   172
1070
     1
1070
   271
1070
     0
1070
   279
1070
     1
1070
   288
1070
     1
1002
}
  0
DIMENSION
  5
7C64
  8
3
  6
CONTINUOUS
  2
*D13
 10
4789.5447089999998
 20
2208.3472639999991
 30
0.0
 11
4521.2737450000013
 21
2208.3472639999991
 31
0.0
 70
   128
 13
4206.5447089999998
 23
2445.424888
 33
0.0
 14
4789.5447089999998
 24
2261.0212689999998
 34
0.0
1001
ACAD
1000
DSTYLE
1002
{
1070
   287
1070
     3
1070
    40
1040
30.0
1070
   143
1040
0.039
1070
   172
1070
     1
1070
   271
1070
     0
1070
   279
1070
     0
1070
   288
1070
     1
1002
}
  0
DIMENSION
  5
7C70
  8
3
  6
CONTINUOUS
  2
*D14
 10
5256.5447089999998
 20
2208.3472639999991
 30
0.0
 11
5023.0447089999998
 21
2283.347264
 31
0.0
 70
     0
 13
4789.5447089999998
 23
2261.0212689999998
 33
0.0
 14
5256.5447089999998
 24
2445.424888
 34
0.0
1001
ACAD
1000
DSTYLE
1002
{
1070
   287
1070
     4
1070
    40
1040
30.0
1070
    75
1070
     1
1070
   143
1040
0.039
1070
   172
1070
     1
1070
   271
1070
     0
1070
   279
1070
     1
1070
   288
1070
     1
1002
}
  0
DIMENSION
  5
7C94
  8
3
  6
CONTINUOUS
  2
*D15
 10
3484.5200789999999
 20
6529.698245999999
 30
0.0
 11
2627.1416760000002
 21
6529.698245999999
 31
0.0
 70
   128
 13
1784.520078999999
 23
6375.0719520000002
 33
0.0
 14
3484.5200789999999
 24
6375.0719520000002
 34
0.0
1001
ACAD
1000
DSTYLE
1002
{
1070
   287
1070
     3
1070
    40
1040
30.0
1070
   143
1040
0.039
1070
   172
1070
     1
1070
   271
1070
     0
1070
   279
1070
     0
1070
   288
1070
     1
1002
}
  0
DIMENSION
  5
7CA1
  8
3
  6
CONTINUOUS
  2
*D16
 10
3760.1827159999998
 20
5325.0719520000002
 30
0.0
 11
3760.1827159999998
 21
5829.7004040000002
 31
0.0
 70
   128
 13
3484.5200789999999
 23
6375.0719520000002
 33
0.0
 14
3484.5200789999999
 24
5325.0719520000002
 34
0.0
 50
90.0
1001
ACAD
1000
DSTYLE
1002
{
1070
   287
1070
     3
1070
    40
1040
30.0
1070
   143
1040
0.039
1070
   172
1070
     1
1070
   271
1070
     0
1070
   279
1070
     0
1070
   288
1070
     1
1002
}
  0
DIMENSION
  5
7CB2
  8
3
  6
CONTINUOUS
  2
*D17
 10
1208.2341449999999
 20
4116.4155350000001
 30
0.0
 11
1133.234144999999
 21
3828.4202115000012
 31
0.0
 70
     0
 13
1669.4405609999999
 23
3540.424888
 33
0.0
 14
2354.520078999999
 24
4116.4155350000001
 34
0.0
 50
90.0
1001
ACAD
1000
DSTYLE
1002
{
1070
   287
1070
     4
1070
    40
1040
30.0
1070
    75
1070
     1
1070
   143
1040
0.039
1070
   172
1070
     1
1070
   271
1070
     0
1070
   279
1070
     1
1070
   288
1070
     1
1002
}
  0
DIMENSION
  5
7D74
  8
3
  2
*D18
 10
3484.5200789999999
 20
4453.6841071654308
 30
0.0
 11
2579.7484055545392
 21
4453.6841071654308
 31
0.0
 70
   128
 13
1759.5200789999999
 23
3620.924888
 33
0.0
 14
3484.5200789999999
 24
2545.424888
 34
0.0
1001
ACAD
1000
DSTYLE
1002
{
1070
   287
1070
     3
1070
    40
1040
30.0
1070
   143
1040
0.039
1070
   172
1070
     1
1070
   271
1070
     0
1070
   279
1070
     0
1070
   288
1070
     1
1002
}
  0
LINE
  5
7D99
  8
1
  6
CONTINUOUS
 10
1854.520078999999
 20
3670.4248880000009
 30
0.0
 11
2854.520078999999
 21
3670.4248880000009
 31
0.0
  0
LINE
  5
7D9A
  8
1
 10
1854.520078999999
 20
3670.4248880000009
 30
0.0
 11
1854.5200789999999
 21
2670.424888
 31
0.0
  0
LINE
  5
7D9B
  8
1
 10
2854.520078999999
 20
3670.4248880000009
 30
0.0
 11
2854.5200789999999
 21
2670.424888
 31
0.0
  0
ENDSEC
  0
EOF
