  0
SECTION
  2
HEADER
  9
$ACADVER
  1
AC1009
  9
$INSBASE
 10
0.0
 20
0.0
 30
0.0
  9
$EXTMIN
 10
750.0
 20
900.0
 30
0.0
  9
$EXTMAX
 10
5550.0
 20
8359.9567849999985
 30
0.0
  9
$LIMMIN
 10
0.0
 20
0.0
  9
$LIMMAX
 10
297.0
 20
210.0
  9
$ORTHOMODE
 70
     0
  9
$REGENMODE
 70
     1
  9
$FILLMODE
 70
     0
  9
$QTEXTMODE
 70
     0
  9
$MIRRTEXT
 70
     1
  9
$DRAGMODE
 70
     2
  9
$LTSCALE
 40
100.0
  9
$OSMODE
 70
    37
  9
$ATTMODE
 70
     1
  9
$TEXTSIZE
 40
180.0
  9
$TRACEWID
 40
0.05
  9
$TEXTSTYLE
  7
STANDARD
  9
$CLAYER
  8
3
  9
$CELTYPE
  6
BYLAYER
  9
$CECOLOR
 62
   256
  9
$DIMSCALE
 40
30.0
  9
$DIMASZ
 40
2.0
  9
$DIMEXO
 40
0.5
  9
$DIMDLI
 40
10.0
  9
$DIMRND
 40
0.0
  9
$DIMDLE
 40
0.0
  9
$DIMEXE
 40
1.0
  9
$DIMTP
 40
1.0
  9
$DIMTM
 40
1.0
  9
$DIMTXT
 40
3.0
  9
$DIMCEN
 40
0.0
  9
$DIMTSZ
 40
0.0
  9
$DIMTOL
 70
     0
  9
$DIMLIM
 70
     0
  9
$DIMTIH
 70
     0
  9
$DIMTOH
 70
     0
  9
$DIMSE1
 70
     0
  9
$DIMSE2
 70
     0
  9
$DIMTAD
 70
     1
  9
$DIMZIN
 70
     8
  9
$DIMBLK
  1

  9
$DIMASO
 70
     1
  9
$DIMSHO
 70
     1
  9
$DIMPOST
  1

  9
$DIMAPOST
  1

  9
$DIMALT
 70
     0
  9
$DIMALTD
 70
     2
  9
$DIMALTF
 40
0.039
  9
$DIMLFAC
 40
1.0
  9
$DIMTOFL
 70
     1
  9
$DIMTVP
 40
0.0
  9
$DIMTIX
 70
     0
  9
$DIMSOXD
 70
     0
  9
$DIMSAH
 70
     1
  9
$DIMBLK1
  1
OPEN
  9
$DIMBLK2
  1
OPEN
  9
$DIMSTYLE
  2
IGA
  9
$DIMCLRD
 70
     0
  9
$DIMCLRE
 70
     0
  9
$DIMCLRT
 70
     0
  9
$DIMTFAC
 40
10.0
  9
$DIMGAP
 40
1.0
  9
$LUNITS
 70
     2
  9
$LUPREC
 70
     3
  9
$SKETCHINC
 40
0.1
  9
$FILLETRAD
 40
50.0
  9
$AUNITS
 70
     0
  9
$AUPREC
 70
     0
  9
$MENU
  1
acad
  9
$ELEVATION
 40
0.0
  9
$PELEVATION
 40
0.0
  9
$THICKNESS
 40
0.0
  9
$LIMCHECK
 70
     0
  9
$BLIPMODE
 70
     0
  9
$CHAMFERA
 40
0.5
  9
$CHAMFERB
 40
0.5
  9
$SKPOLY
 70
     0
  9
$TDCREATE
 40
2450749.3866347219
  9
$TDUPDATE
 40
2454953.7745871302
  9
$TDINDWG
 40
0.013030706
  9
$TDUSRTIMER
 40
0.013030706
  9
$USRTIMER
 70
     1
  9
$ANGBASE
 50
0.0
  9
$ANGDIR
 70
     0
  9
$PDMODE
 70
     0
  9
$PDSIZE
 40
0.0
  9
$PLINEWID
 40
0.0
  9
$COORDS
 70
     1
  9
$SPLFRAME
 70
     0
  9
$SPLINETYPE
 70
     6
  9
$SPLINESEGS
 70
     8
  9
$ATTDIA
 70
     0
  9
$ATTREQ
 70
     1
  9
$HANDLING
 70
 10241
  9
$HANDSEED
  5
7F98
  9
$SURFTAB1
 70
     6
  9
$SURFTAB2
 70
     6
  9
$SURFTYPE
 70
     6
  9
$SURFU
 70
     6
  9
$SURFV
 70
     6
  9
$UCSNAME
  2

  9
$UCSORG
 10
0.0
 20
0.0
 30
0.0
  9
$UCSXDIR
 10
1.0
 20
0.0
 30
0.0
  9
$UCSYDIR
 10
0.0
 20
1.0
 30
0.0
  9
$PUCSNAME
  2

  9
$PUCSORG
 10
0.0
 20
0.0
 30
0.0
  9
$PUCSXDIR
 10
1.0
 20
0.0
 30
0.0
  9
$PUCSYDIR
 10
0.0
 20
1.0
 30
0.0
  9
$USERI1
 70
     0
  9
$USERI2
 70
     0
  9
$USERI3
 70
     0
  9
$USERI4
 70
     0
  9
$USERI5
 70
     0
  9
$USERR1
 40
0.0
  9
$USERR2
 40
0.0
  9
$USERR3
 40
0.0
  9
$USERR4
 40
0.0
  9
$USERR5
 40
0.0
  9
$WORLDVIEW
 70
     1
  9
$SHADEDGE
 70
     3
  9
$SHADEDIF
 70
    70
  9
$TILEMODE
 70
     1
  9
$MAXACTVP
 70
    16
  9
$PLIMCHECK
 70
     0
  9
$PEXTMIN
 10
1.0000000000000000E+020
 20
1.0000000000000000E+020
 30
1.0000000000000000E+020
  9
$PEXTMAX
 10
-1.0000000000000000E+020
 20
-1.0000000000000000E+020
 30
-1.0000000000000000E+020
  9
$PLIMMIN
 10
0.0
 20
0.0
  9
$PLIMMAX
 10
12.0
 20
9.0
  9
$UNITMODE
 70
     0
  9
$VISRETAIN
 70
     0
  9
$PLINEGEN
 70
     0
  9
$PSLTSCALE
 70
     1
  0
ENDSEC
  0
SECTION
  2
TABLES
  0
TABLE
  2
VPORT
 70
     2
  0
VPORT
  2
*ACTIVE
 70
     0
 10
0.0
 20
0.0
 11
1.0
 21
1.0
 12
9437.8514930316342
 22
4629.8493075851729
 13
0.0
 23
0.0
 14
10.0
 24
10.0
 15
10.0
 25
10.0
 16
0.0
 26
0.0
 36
1.0
 17
0.0
 27
0.0
 37
0.0
 40
7516.9467647772872
 41
3.1666666666666661
 42
50.0
 43
0.0
 44
0.0
 50
0.0
 51
0.0
 71
     0
 72
   100
 73
     1
 74
     0
 75
     0
 76
     0
 77
     0
 78
     0
  0
ENDTAB
  0
TABLE
  2
LTYPE
 70
     2
  0
LTYPE
  2
CONTINUOUS
 70
     0
  3
Solid line
 72
    65
 73
     0
 40
0.0
  0
LTYPE
  2
CENTER
 70
     0
  3
____ _ ____ _ ____ _ ____ _ ____ _ ____ _ ____ 
 72
    65
 73
     4
 40
2.0
 49
1.25
 49
-0.25
 49
0.25
 49
-0.25
  0
ENDTAB
  0
TABLE
  2
LAYER
 70
     6
  0
LAYER
  2
0
 70
     0
 62
     7
  6
CONTINUOUS
  0
LAYER
  2
3
 70
     0
 62
     2
  6
CONTINUOUS
  0
LAYER
  2
2
 70
     0
 62
     3
  6
CENTER
  0
LAYER
  2
1
 70
     0
 62
     4
  6
CONTINUOUS
  0
LAYER
  2
4
 70
     0
 62
     7
  6
CONTINUOUS
  0
LAYER
  2
DEFPOINTS
 70
     0
 62
     7
  6
CONTINUOUS
  0
ENDTAB
  0
TABLE
  2
STYLE
 70
     1
  0
STYLE
  2
STANDARD
 70
     0
 40
0.0
 41
1.0
 50
0.0
 71
     0
 42
180.0
  3
simplex.shx
  4
extfont.shx
  0
ENDTAB
  0
TABLE
  2
VIEW
 70
     0
  0
ENDTAB
  0
TABLE
  2
UCS
 70
     0
  0
ENDTAB
  0
TABLE
  2
APPID
 70
     1
  0
APPID
  2
ACAD
 70
     0
  0
ENDTAB
  0
TABLE
  2
DIMSTYLE
 70
     1
  0
DIMSTYLE
  2
IGA
 70
     0
  3

  4

  5

  6
OPEN
  7
OPEN
 40
2.0
 41
2.0
 42
0.5
 43
10.0
 44
1.0
 45
0.0
 46
0.0
 47
1.0
 48
1.0
140
3.0
141
0.0
142
0.0
143
0.03937
144
1.0
145
0.0
146
10.0
147
1.0
 71
     0
 72
     0
 73
     0
 74
     0
 75
     0
 76
     0
 77
     1
 78
     8
170
     0
171
     2
172
     0
173
     1
174
     0
175
     0
176
     0
177
     0
178
     0
  0
ENDTAB
  0
ENDSEC
  0
SECTION
  2
BLOCKS
  0
BLOCK
  8
0
  2
$MODEL_SPACE
 70
     0
 10
0.0
 20
0.0
 30
0.0
  3
$MODEL_SPACE
  1

  0
ENDBLK
  5
1B
  8
0
  0
BLOCK
 67
     1
  8
0
  2
$PAPER_SPACE
 70
     0
 10
0.0
 20
0.0
 30
0.0
  3
$PAPER_SPACE
  1

  0
ENDBLK
  5
18
 67
     1
  8
0
  0
BLOCK
  8
0
  2
_OPEN
 70
     0
 10
0.0
 20
0.0
 30
0.0
  3
_OPEN
  1

  0
LINE
  5
7AFF
  8
0
  6
BYBLOCK
 62
     0
 10
-1.0
 20
0.166667
 30
0.0
 11
0.0
 21
0.0
 31
0.0
  0
LINE
  5
7B00
  8
0
  6
BYBLOCK
 62
     0
 10
0.0
 20
0.0
 30
0.0
 11
-1.0
 21
-0.166667
 31
0.0
  0
LINE
  5
7B01
  8
0
  6
BYBLOCK
 62
     0
 10
0.0
 20
0.0
 30
0.0
 11
-1.0
 21
0.0
 31
0.0
  0
ENDBLK
  5
7B02
  8
0
  0
BLOCK
  8
0
  2
*D1
 70
     1
 10
0.0
 20
0.0
 30
0.0
  3
*D1
  1

  0
LINE
  5
7F01
  8
3
  6
CONTINUOUS
 62
     0
 10
1444.703863
 20
3863.0542740000001
 30
0.0
 11
1444.703863
 21
4029.3048239999998
 31
0.0
  0
LINE
  5
7F02
  8
3
  6
CONTINUOUS
 62
     0
 10
2269.7038629999988
 20
3863.0542740000001
 30
0.0
 11
2269.7038629999988
 21
4029.3048239999998
 31
0.0
  0
LINE
  5
7F03
  8
3
  6
CONTINUOUS
 62
     0
 10
1504.703863
 20
3999.3048239999998
 30
0.0
 11
2209.7038629999988
 21
3999.3048239999998
 31
0.0
  0
INSERT
  5
7F04
  8
3
  6
CONTINUOUS
 62
     0
  2
_OPEN
 10
1444.703863
 20
3999.3048239999998
 30
0.0
 41
60.0
 42
60.0
 43
60.0
 50
180.0
  0
INSERT
  5
7F05
  8
3
  6
CONTINUOUS
 62
     0
  2
_OPEN
 10
2269.7038629999988
 20
3999.3048239999998
 30
0.0
 41
60.0
 42
60.0
 43
60.0
  0
TEXT
  8
3
  40
90
  5
7F88
  62
0
  72
0
  71
0
 10
1663.60
 20
3915.00
 30
0.000000
  1
825
  0
POINT
  5
7F07
  8
DEFPOINTS
  6
CONTINUOUS
 62
     0
 10
1444.703863
 20
3848.0542740000001
 30
0.0
  0
POINT
  5
7F08
  8
DEFPOINTS
  6
CONTINUOUS
 62
     0
 10
2269.7038629999988
 20
3848.0542740000001
 30
0.0
  0
POINT
  5
7F09
  8
DEFPOINTS
  6
CONTINUOUS
 62
     0
 10
2269.7038629999988
 20
3999.3048239999998
 30
0.0
  0
ENDBLK
  5
7B0F
  8
0
  0
BLOCK
  8
0
  2
*D2
 70
     1
 10
0.0
 20
0.0
 30
0.0
  3
*D2
  1

  0
LINE
  5
7F0A
  8
3
  6
CONTINUOUS
 62
     0
 10
1444.703863
 20
3863.0542740000001
 30
0.0
 11
1444.703863
 21
4184.4436619999988
 31
0.0
  0
LINE
  5
7F0B
  8
3
  6
CONTINUOUS
 62
     0
 10
2231.7038629999988
 20
4020.4763049999988
 30
0.0
 11
2231.7038629999988
 21
4184.4436619999988
 31
0.0
  0
LINE
  5
7F0C
  8
3
  6
CONTINUOUS
 62
     0
 10
1504.703863
 20
4154.4436619999997
 30
0.0
 11
2171.7038629999988
 21
4154.4436619999997
 31
0.0
  0
INSERT
  5
7F0D
  8
3
  6
CONTINUOUS
 62
     0
  2
_OPEN
 10
1444.703863
 20
4154.4436619999997
 30
0.0
 41
60.0
 42
60.0
 43
60.0
 50
180.0
  0
INSERT
  5
7F0E
  8
3
  6
CONTINUOUS
 62
     0
  2
_OPEN
 10
2231.7038629999988
 20
4154.4436619999997
 30
0.0
 41
60.0
 42
60.0
 43
60.0
  0
TEXT
  8
3
  40
90
  5
7F89
  62
0
  72
0
  71
0
 10
1663.60
 20
4070.14
 30
0.000000
  1
787
  0
POINT
  5
7F10
  8
DEFPOINTS
  6
CONTINUOUS
 62
     0
 10
1444.703863
 20
3848.0542740000001
 30
0.0
  0
POINT
  5
7F11
  8
DEFPOINTS
  6
CONTINUOUS
 62
     0
 10
2231.7038629999988
 20
4005.4763050000001
 30
0.0
  0
POINT
  5
7F12
  8
DEFPOINTS
  6
CONTINUOUS
 62
     0
 10
2231.7038629999988
 20
4154.4436619999997
 30
0.0
  0
ENDBLK
  5
7B1C
  8
0
  0
BLOCK
  8
0
  2
*D3
 70
     1
 10
0.0
 20
0.0
 30
0.0
  3
*D3
  1

  0
LINE
  5
7F13
  8
3
  6
CONTINUOUS
 62
     0
 10
2327.2038629999988
 20
3848.0542740000001
 30
0.0
 11
3146.6736170000008
 21
3848.0542739999992
 31
0.0
  0
LINE
  5
7F14
  8
3
  6
CONTINUOUS
 62
     0
 10
3001.8015489999998
 20
3253.0542739999992
 30
0.0
 11
3146.6736170000008
 21
3253.0542739999992
 31
0.0
  0
LINE
  5
7F15
  8
3
  6
CONTINUOUS
 62
     0
 10
3116.6736170000008
 20
3788.0542739999992
 30
0.0
 11
3116.6736170000008
 21
3313.0542739999992
 31
0.0
  0
INSERT
  5
7F16
  8
3
  6
CONTINUOUS
 62
     0
  2
_OPEN
 10
3116.6736170000008
 20
3848.0542739999992
 30
0.0
 41
60.0
 42
60.0
 43
60.0
 50
90.0
  0
INSERT
  5
7F17
  8
3
  6
CONTINUOUS
 62
     0
  2
_OPEN
 10
3116.6736170000008
 20
3253.0542739999992
 30
0.0
 41
60.0
 42
60.0
 43
60.0
 50
270.0
  0
TEXT
  8
3
  40
90
  5
7F8A
  62
0
  72
0
  71
0
 10
2861.67
 20
3387.00
 30
0.000000
  1
595
  0
POINT
  5
7F19
  8
DEFPOINTS
  6
CONTINUOUS
 62
     0
 10
2312.2038630000002
 20
3848.0542740000001
 30
0.0
  0
POINT
  5
7F1A
  8
DEFPOINTS
  6
CONTINUOUS
 62
     0
 10
2986.8015489999989
 20
3253.0542739999992
 30
0.0
  0
POINT
  5
7F1B
  8
DEFPOINTS
  6
CONTINUOUS
 62
     0
 10
3116.6736170000008
 20
3253.0542739999992
 30
0.0
  0
ENDBLK
  5
7B35
  8
0
  0
BLOCK
  8
0
  2
*D4
 70
     1
 10
0.0
 20
0.0
 30
0.0
  3
*D4
  1

  0
LINE
  5
7F1C
  8
3
  6
CONTINUOUS
 62
     0
 10
2766.7038630000002
 20
2558.0542739999992
 30
0.0
 11
3146.6736169999999
 21
2558.0542739999992
 31
0.0
  0
LINE
  5
7F1D
  8
3
  6
CONTINUOUS
 62
     0
 10
3116.6736170000008
 20
3193.0542739999992
 30
0.0
 11
3116.6736169999999
 21
2618.0542739999992
 31
0.0
  0
INSERT
  5
7F1E
  8
3
  6
CONTINUOUS
 62
     0
  2
_OPEN
 10
3116.6736170000008
 20
3253.0542739999992
 30
0.0
 41
60.0
 42
60.0
 43
60.0
 50
90.0
  0
INSERT
  5
7F1F
  8
3
  6
CONTINUOUS
 62
     0
  2
_OPEN
 10
3116.6736169999999
 20
2558.0542739999992
 30
0.0
 41
60.0
 42
60.0
 43
60.0
 50
270.0
  0
TEXT
  8
3
  40
90
  5
7F8B
  62
0
  72
0
  71
0
 10
2861.67
 20
2746.25
 30
0.000000
  1
695
  0
POINT
  5
7F21
  8
DEFPOINTS
  6
CONTINUOUS
 62
     0
 10
2986.8015489999989
 20
3253.0542739999992
 30
0.0
  0
POINT
  5
7F22
  8
DEFPOINTS
  6
CONTINUOUS
 62
     0
 10
2751.7038629999988
 20
2558.0542739999992
 30
0.0
  0
POINT
  5
7F23
  8
DEFPOINTS
  6
CONTINUOUS
 62
     0
 10
3116.6736169999999
 20
2558.0542739999992
 30
0.0
  0
ENDBLK
  5
7B41
  8
0
  0
BLOCK
  8
0
  2
*D5
 70
     1
 10
0.0
 20
0.0
 30
0.0
  3
*D5
  1

  0
LINE
  5
7F24
  8
3
  6
CONTINUOUS
 62
     0
 10
2766.7038630000002
 20
2558.0542739999992
 30
0.0
 11
3145.0921130000002
 21
2558.0542739999992
 31
0.0
  0
LINE
  5
7F25
  8
3
  6
CONTINUOUS
 62
     0
 10
2816.7038629999988
 20
2433.0542739999992
 30
0.0
 11
3145.0921130000002
 21
2433.0542739999992
 31
0.0
  0
LINE
  5
7F26
  8
3
  6
CONTINUOUS
 62
     0
 10
3115.0921130000002
 20
2618.0542739999992
 30
0.0
 11
3115.0921130000002
 21
2678.0542739999992
 31
0.0
  0
LINE
  5
7F27
  8
3
  6
CONTINUOUS
 62
     0
 10
3115.0921130000002
 20
2373.0542739999992
 30
0.0
 11
3115.0921130000002
 21
2038.7685597142849
 31
0.0
  0
LINE
  5
7F28
  8
3
  6
CONTINUOUS
 62
     0
 10
3115.0921130000002
 20
2558.0542739999992
 30
0.0
 11
3115.0921130000002
 21
2433.0542739999992
 31
0.0
  0
INSERT
  5
7F29
  8
3
  6
CONTINUOUS
 62
     0
  2
_OPEN
 10
3115.0921130000002
 20
2558.0542739999992
 30
0.0
 41
60.0
 42
60.0
 43
60.0
 50
270.0
  0
INSERT
  5
7F2A
  8
3
  6
CONTINUOUS
 62
     0
  2
_OPEN
 10
3115.0921130000002
 20
2433.0542739999992
 30
0.0
 41
60.0
 42
60.0
 43
60.0
 50
90.0
  0
TEXT
  8
3
  40
90
  5
7F8C
  62
0
  72
0
  71
0
 10
2860.09
 20
2016.61
 30
0.000000
  1
125
  0
POINT
  5
7F2C
  8
DEFPOINTS
  6
CONTINUOUS
 62
     0
 10
2751.7038629999988
 20
2558.0542739999992
 30
0.0
  0
POINT
  5
7F2D
  8
DEFPOINTS
  6
CONTINUOUS
 62
     0
 10
2801.7038630000002
 20
2433.0542739999992
 30
0.0
  0
POINT
  5
7F2E
  8
DEFPOINTS
  6
CONTINUOUS
 62
     0
 10
3115.0921130000002
 20
2433.0542739999992
 30
0.0
  0
ENDBLK
  5
7C67
  8
0
  0
BLOCK
  8
0
  2
*D6
 70
     1
 10
0.0
 20
0.0
 30
0.0
  3
*D6
  1

  0
LINE
  5
7F2F
  8
3
  6
CONTINUOUS
 62
     0
 10
1101.703863
 20
2418.0542739999992
 30
0.0
 11
1101.703863
 21
2182.1053179999999
 31
0.0
  0
LINE
  5
7F30
  8
3
  6
CONTINUOUS
 62
     0
 10
2231.7038629999988
 20
2280.8339689999998
 30
0.0
 11
2231.7038629999988
 21
2182.1053179999999
 31
0.0
  0
LINE
  5
7F31
  8
3
  6
CONTINUOUS
 62
     0
 10
1161.703863
 20
2212.1053179999999
 30
0.0
 11
2171.7038629999988
 21
2212.1053179999999
 31
0.0
  0
INSERT
  5
7F32
  8
3
  6
CONTINUOUS
 62
     0
  2
_OPEN
 10
1101.703863
 20
2212.1053179999999
 30
0.0
 41
60.0
 42
60.0
 43
60.0
 50
180.0
  0
INSERT
  5
7F33
  8
3
  6
CONTINUOUS
 62
     0
  2
_OPEN
 10
2231.7038629999988
 20
2212.1053179999999
 30
0.0
 41
60.0
 42
60.0
 43
60.0
  0
TEXT
  8
3
  40
90
  5
7F8D
  62
0
  72
0
  71
0
 10
1520.77
 20
2127.81
 30
0.000000
  1
1130
  0
POINT
  5
7F35
  8
DEFPOINTS
  6
CONTINUOUS
 62
     0
 10
1101.703863
 20
2433.0542739999992
 30
0.0
  0
POINT
  5
7F36
  8
DEFPOINTS
  6
CONTINUOUS
 62
     0
 10
2231.7038629999988
 20
2295.8339689999998
 30
0.0
  0
POINT
  5
7F37
  8
DEFPOINTS
  6
CONTINUOUS
 62
     0
 10
2231.7038629999988
 20
2212.1053179999999
 30
0.0
  0
ENDBLK
  5
7B6B
  8
0
  0
BLOCK
  8
0
  2
*D7
 70
     1
 10
0.0
 20
0.0
 30
0.0
  3
*D7
  1

  0
LINE
  5
7F38
  8
3
  6
CONTINUOUS
 62
     0
 10
2801.7038630000002
 20
2418.0542739999992
 30
0.0
 11
2801.7038630000002
 21
2182.1053179999999
 31
0.0
  0
LINE
  5
7F39
  8
3
  6
CONTINUOUS
 62
     0
 10
2291.7038629999988
 20
2212.1053179999999
 30
0.0
 11
2741.7038629999988
 21
2212.1053179999999
 31
0.0
  0
INSERT
  5
7F3A
  8
3
  6
CONTINUOUS
 62
     0
  2
_OPEN
 10
2231.7038629999988
 20
2212.1053179999999
 30
0.0
 41
60.0
 42
60.0
 43
60.0
 50
180.0
  0
INSERT
  5
7F3B
  8
3
  6
CONTINUOUS
 62
     0
  2
_OPEN
 10
2801.7038630000002
 20
2212.1053179999999
 30
0.0
 41
60.0
 42
60.0
 43
60.0
  0
TEXT
  8
3
  40
90
  5
7F8E
  62
0
  72
0
  71
0
 10
2336.70
 20
2127.81
 30
0.000000
  1
570
  0
POINT
  5
7F3D
  8
DEFPOINTS
  6
CONTINUOUS
 62
     0
 10
2231.7038629999988
 20
2295.8339689999998
 30
0.0
  0
POINT
  5
7F3E
  8
DEFPOINTS
  6
CONTINUOUS
 62
     0
 10
2801.7038630000002
 20
2433.0542739999992
 30
0.0
  0
POINT
  5
7F3F
  8
DEFPOINTS
  6
CONTINUOUS
 62
     0
 10
2801.7038630000002
 20
2212.1053179999999
 30
0.0
  0
ENDBLK
  5
7B77
  8
0
  0
BLOCK
  8
0
  2
*D8
 70
     1
 10
0.0
 20
0.0
 30
0.0
  3
*D8
  1

  0
LINE
  5
7F40
  8
3
  6
CONTINUOUS
 62
     0
 10
5050.5782909999998
 20
3863.0542740000001
 30
0.0
 11
5050.5782909999998
 21
4016.8937119999991
 31
0.0
  0
LINE
  5
7F41
  8
3
  6
CONTINUOUS
 62
     0
 10
4450.5782909999998
 20
3863.0542740000001
 30
0.0
 11
4450.5782909999998
 21
4016.8937119999991
 31
0.0
  0
LINE
  5
7F42
  8
3
  6
CONTINUOUS
 62
     0
 10
4990.5782909999998
 20
3986.8937120000001
 30
0.0
 11
4510.5782909999998
 21
3986.8937120000001
 31
0.0
  0
INSERT
  5
7F43
  8
3
  6
CONTINUOUS
 62
     0
  2
_OPEN
 10
5050.5782909999998
 20
3986.8937120000001
 30
0.0
 41
60.0
 42
60.0
 43
60.0
  0
INSERT
  5
7F44
  8
3
  6
CONTINUOUS
 62
     0
  2
_OPEN
 10
4450.5782909999998
 20
3986.8937120000001
 30
0.0
 41
60.0
 42
60.0
 43
60.0
 50
180.0
  0
TEXT
  8
3
  40
90
  5
7F8F
  62
0
  72
0
  71
0
 10
4561.58
 20
3902.59
 30
0.000000
  1
600
  0
POINT
  5
7F46
  8
DEFPOINTS
  6
CONTINUOUS
 62
     0
 10
5050.5782909999998
 20
3848.0542740000001
 30
0.0
  0
POINT
  5
7F47
  8
DEFPOINTS
  6
CONTINUOUS
 62
     0
 10
4450.5782909999998
 20
3848.0542740000001
 30
0.0
  0
POINT
  5
7F48
  8
DEFPOINTS
  6
CONTINUOUS
 62
     0
 10
4450.5782909999998
 20
3986.8937120000001
 30
0.0
  0
ENDBLK
  5
7B84
  8
0
  0
BLOCK
  8
0
  2
*D9
 70
     1
 10
0.0
 20
0.0
 30
0.0
  3
*D9
  1

  0
LINE
  5
7F49
  8
3
  6
CONTINUOUS
 62
     0
 10
5069.5782909999998
 20
3678.0542740000001
 30
0.0
 11
5349.1226619999998
 21
3678.0542739999992
 31
0.0
  0
LINE
  5
7F4A
  8
3
  6
CONTINUOUS
 62
     0
 10
5069.5782909999998
 20
2828.0542739999992
 30
0.0
 11
5349.1226619999998
 21
2828.0542739999992
 31
0.0
  0
LINE
  5
7F4B
  8
3
  6
CONTINUOUS
 62
     0
 10
5319.1226620000007
 20
3618.0542740000001
 30
0.0
 11
5319.1226620000007
 21
2888.0542739999992
 31
0.0
  0
INSERT
  5
7F4C
  8
3
  6
CONTINUOUS
 62
     0
  2
_OPEN
 10
5319.1226620000007
 20
3678.0542739999992
 30
0.0
 41
60.0
 42
60.0
 43
60.0
 50
90.0
  0
INSERT
  5
7F4D
  8
3
  6
CONTINUOUS
 62
     0
  2
_OPEN
 10
5319.1226620000007
 20
2828.0542739999992
 30
0.0
 41
60.0
 42
60.0
 43
60.0
 50
270.0
  0
TEXT
  8
3
  40
90
  5
7F90
  62
0
  72
0
  71
0
 10
5064.12
 20
3095.34
 30
0.000000
  1
φ850
  0
POINT
  5
7F4F
  8
DEFPOINTS
  6
CONTINUOUS
 62
     0
 10
5054.5782909999998
 20
3678.0542740000001
 30
0.0
  0
POINT
  5
7F50
  8
DEFPOINTS
  6
CONTINUOUS
 62
     0
 10
5054.5782909999998
 20
2828.0542739999992
 30
0.0
  0
POINT
  5
7F51
  8
DEFPOINTS
  6
CONTINUOUS
 62
     0
 10
5319.1226620000007
 20
2828.0542739999992
 30
0.0
  0
ENDBLK
  5
7C5A
  8
0
  0
BLOCK
  8
0
  2
*D10
 70
     1
 10
0.0
 20
0.0
 30
0.0
  3
*D10
  1

  0
LINE
  5
7C3C
  8
0
  6
BYBLOCK
 62
     0
 10
5054.5782909999998
 20
3693.0542740000001
 30
0.0
 11
5054.5782909999998
 21
4203.0603299999993
 31
0.0
  0
LINE
  5
7C3D
  8
0
  6
BYBLOCK
 62
     0
 10
4750.5782909999998
 20
4146.9718819999989
 30
0.0
 11
4750.5782909999998
 21
4203.0603299999993
 31
0.0
  0
LINE
  5
7C3E
  8
0
  6
BYBLOCK
 62
     0
 10
4994.5782909999989
 20
4173.0603299999993
 30
0.0
 11
4810.5782909999998
 21
4173.0603299999993
 31
0.0
  0
TEXT
  5
7C3F
  8
3
 62
     0
 10
4784.7211481428558
 20
4204.8655646158732
 30
0.0
 40
90.0
  1
304
  0
INSERT
  5
7C40
  8
0
  6
BYBLOCK
 62
     0
  2
_OPEN
 10
5054.5782909999998
 20
4173.0603299999993
 30
0.0
 41
60.0
 42
60.0
 43
60.0
  0
INSERT
  5
7C41
  8
0
  6
BYBLOCK
 62
     0
  2
_OPEN
 10
4750.5782909999998
 20
4173.0603299999993
 30
0.0
 41
60.0
 42
60.0
 43
60.0
 50
180.0
  0
POINT
  5
7C42
  8
DEFPOINTS
  6
BYBLOCK
 62
     0
 10
5054.5782909999998
 20
3678.0542740000001
 30
0.0
  0
POINT
  5
7C43
  8
DEFPOINTS
  6
BYBLOCK
 62
     0
 10
4750.5782909999998
 20
4131.9718819999998
 30
0.0
  0
POINT
  5
7C44
  8
DEFPOINTS
  6
BYBLOCK
 62
     0
 10
4750.5782909999998
 20
4173.0603299999993
 30
0.0
  0
ENDBLK
  5
7C45
  8
0
  0
BLOCK
  8
0
  2
*D11
 70
     1
 10
0.0
 20
0.0
 30
0.0
  3
*D11
  1

  0
LINE
  5
7F52
  8
3
  6
CONTINUOUS
 62
     0
 10
4190.5782909999998
 20
3923.0542740000001
 30
0.0
 11
4190.5782909999998
 21
4203.0603299999993
 31
0.0
  0
LINE
  5
7F53
  8
3
  6
CONTINUOUS
 62
     0
 10
4690.5782909999998
 20
4173.0603299999993
 30
0.0
 11
4250.5782909999998
 21
4173.0603299999993
 31
0.0
  0
INSERT
  5
7F54
  8
3
  6
CONTINUOUS
 62
     0
  2
_OPEN
 10
4750.5782909999998
 20
4173.0603299999993
 30
0.0
 41
60.0
 42
60.0
 43
60.0
  0
INSERT
  5
7F55
  8
3
  6
CONTINUOUS
 62
     0
  2
_OPEN
 10
4190.5782909999998
 20
4173.0603299999993
 30
0.0
 41
60.0
 42
60.0
 43
60.0
 50
180.0
  0
TEXT
  8
3
  40
90
  5
7F91
  62
0
  72
0
  71
0
 10
4290.58
 20
4163.76
 30
0.000000
  1
MAX
  0
TEXT
  8
3
  40
90
  5
7F92
  62
0
  72
0
  71
0
 10
4290.58
 20
4046.76
 30
0.000000
  1
610
  0
POINT
  5
7F57
  8
DEFPOINTS
  6
CONTINUOUS
 62
     0
 10
4750.5782909999998
 20
4131.9718819999998
 30
0.0
  0
POINT
  5
7F58
  8
DEFPOINTS
  6
CONTINUOUS
 62
     0
 10
4190.5782909999998
 20
3908.0542739999992
 30
0.0
  0
POINT
  5
7F59
  8
DEFPOINTS
  6
CONTINUOUS
 62
     0
 10
4190.5782909999998
 20
4173.0603299999993
 30
0.0
  0
ENDBLK
  5
7C4F
  8
0
  0
BLOCK
  8
0
  2
*D12
 70
     1
 10
0.0
 20
0.0
 30
0.0
  3
*D12
  1

  0
LINE
  5
7F5A
  8
3
  6
CONTINUOUS
 62
     0
 10
4167.5782909999998
 20
2418.0542739999992
 30
0.0
 11
4167.5782909999998
 21
2169.694227
 31
0.0
  0
LINE
  5
7F5B
  8
3
  6
CONTINUOUS
 62
     0
 10
4750.5782909999998
 20
2266.591782
 30
0.0
 11
4750.5782909999998
 21
2169.694227
 31
0.0
  0
LINE
  5
7F5C
  8
3
  6
CONTINUOUS
 62
     0
 10
4227.5782909999989
 20
2199.694227
 30
0.0
 11
4690.5782909999998
 21
2199.694227
 31
0.0
  0
INSERT
  5
7F5D
  8
3
  6
CONTINUOUS
 62
     0
  2
_OPEN
 10
4167.5782909999998
 20
2199.694227
 30
0.0
 41
60.0
 42
60.0
 43
60.0
 50
180.0
  0
INSERT
  5
7F5E
  8
3
  6
CONTINUOUS
 62
     0
  2
_OPEN
 10
4750.5782909999998
 20
2199.694227
 30
0.0
 41
60.0
 42
60.0
 43
60.0
  0
TEXT
  8
3
  40
90
  5
7F93
  62
0
  72
0
  71
0
 10
4288.34
 20
2115.39
 30
0.000000
  1
583
  0
POINT
  5
7F60
  8
DEFPOINTS
  6
CONTINUOUS
 62
     0
 10
4167.5782909999998
 20
2433.0542739999992
 30
0.0
  0
POINT
  5
7F61
  8
DEFPOINTS
  6
CONTINUOUS
 62
     0
 10
4750.5782909999998
 20
2281.591782
 30
0.0
  0
POINT
  5
7F62
  8
DEFPOINTS
  6
CONTINUOUS
 62
     0
 10
4750.5782909999998
 20
2199.694227
 30
0.0
  0
ENDBLK
  5
7BBC
  8
0
  0
BLOCK
  8
0
  2
*D13
 70
     1
 10
0.0
 20
0.0
 30
0.0
  3
*D13
  1

  0
LINE
  5
7F63
  8
3
  6
CONTINUOUS
 62
     0
 10
5217.5782909999998
 20
2418.0542739999992
 30
0.0
 11
5217.5782909999998
 21
2169.694227
 31
0.0
  0
LINE
  5
7F64
  8
3
  6
CONTINUOUS
 62
     0
 10
4810.5782909999998
 20
2199.694227
 30
0.0
 11
5157.5782909999998
 21
2199.694227
 31
0.0
  0
INSERT
  5
7F65
  8
3
  6
CONTINUOUS
 62
     0
  2
_OPEN
 10
4750.5782909999998
 20
2199.694227
 30
0.0
 41
60.0
 42
60.0
 43
60.0
 50
180.0
  0
INSERT
  5
7F66
  8
3
  6
CONTINUOUS
 62
     0
  2
_OPEN
 10
5217.5782909999998
 20
2199.694227
 30
0.0
 41
60.0
 42
60.0
 43
60.0
  0
TEXT
  8
3
  40
90
  5
7F94
  62
0
  72
0
  71
0
 10
4804.08
 20
2115.39
 30
0.000000
  1
467
  0
POINT
  5
7F68
  8
DEFPOINTS
  6
CONTINUOUS
 62
     0
 10
4750.5782909999998
 20
2281.591782
 30
0.0
  0
POINT
  5
7F69
  8
DEFPOINTS
  6
CONTINUOUS
 62
     0
 10
5217.5782909999998
 20
2433.0542739999992
 30
0.0
  0
POINT
  5
7F6A
  8
DEFPOINTS
  6
CONTINUOUS
 62
     0
 10
5217.5782909999998
 20
2199.694227
 30
0.0
  0
ENDBLK
  5
7BC8
  8
0
  0
BLOCK
  8
0
  2
*D14
 70
     1
 10
0.0
 20
0.0
 30
0.0
  3
*D14
  1

  0
LINE
  5
7F6B
  8
3
  6
CONTINUOUS
 62
     0
 10
1101.703863
 20
6438.3630990000001
 30
0.0
 11
1101.703863
 21
6563.4985610000003
 31
0.0
  0
LINE
  5
7F6C
  8
3
  6
CONTINUOUS
 62
     0
 10
2801.7038630000002
 20
6438.3630990000001
 30
0.0
 11
2801.7038630000002
 21
6563.4985610000003
 31
0.0
  0
LINE
  5
7F6D
  8
3
  6
CONTINUOUS
 62
     0
 10
1161.703863
 20
6533.4985610000003
 30
0.0
 11
2741.7038629999988
 21
6533.4985610000003
 31
0.0
  0
INSERT
  5
7F6E
  8
3
  6
CONTINUOUS
 62
     0
  2
_OPEN
 10
1101.703863
 20
6533.4985610000003
 30
0.0
 41
60.0
 42
60.0
 43
60.0
 50
180.0
  0
INSERT
  5
7F6F
  8
3
  6
CONTINUOUS
 62
     0
  2
_OPEN
 10
2801.7038630000002
 20
6533.4985610000003
 30
0.0
 41
60.0
 42
60.0
 43
60.0
  0
TEXT
  8
3
  40
90
  5
7F95
  62
0
  72
0
  71
0
 10
1719.49
 20
6449.20
 30
0.000000
  1
1700
  0
POINT
  5
7F71
  8
DEFPOINTS
  6
CONTINUOUS
 62
     0
 10
1101.703863
 20
6423.3630990000011
 30
0.0
  0
POINT
  5
7F72
  8
DEFPOINTS
  6
CONTINUOUS
 62
     0
 10
2801.7038630000002
 20
6423.3630990000011
 30
0.0
  0
POINT
  5
7F73
  8
DEFPOINTS
  6
CONTINUOUS
 62
     0
 10
2801.7038630000002
 20
6533.4985610000003
 30
0.0
  0
ENDBLK
  5
7BD5
  8
0
  0
BLOCK
  8
0
  2
*D15
 70
     1
 10
0.0
 20
0.0
 30
0.0
  3
*D15
  1

  0
LINE
  5
7F74
  8
3
  6
CONTINUOUS
 62
     0
 10
2816.7038629999988
 20
6423.3630990000011
 30
0.0
 11
3134.2534020000012
 21
6423.3630990000011
 31
0.0
  0
LINE
  5
7F75
  8
3
  6
CONTINUOUS
 62
     0
 10
2816.7038629999988
 20
5373.3630990000001
 30
0.0
 11
3134.2534020000012
 21
5373.3630990000001
 31
0.0
  0
LINE
  5
7F76
  8
3
  6
CONTINUOUS
 62
     0
 10
3104.2534020000012
 20
6363.3630990000001
 30
0.0
 11
3104.2534020000012
 21
5433.3630990000011
 31
0.0
  0
INSERT
  5
7F77
  8
3
  6
CONTINUOUS
 62
     0
  2
_OPEN
 10
3104.2534020000012
 20
6423.3630990000011
 30
0.0
 41
60.0
 42
60.0
 43
60.0
 50
90.0
  0
INSERT
  5
7F78
  8
3
  6
CONTINUOUS
 62
     0
  2
_OPEN
 10
3104.2534020000012
 20
5373.3630990000001
 30
0.0
 41
60.0
 42
60.0
 43
60.0
 50
270.0
  0
TEXT
  8
3
  40
90
  5
7F96
  62
0
  72
0
  71
0
 10
2849.25
 20
5772.26
 30
0.000000
  1
1050
  0
POINT
  5
7F7A
  8
DEFPOINTS
  6
CONTINUOUS
 62
     0
 10
2801.7038630000002
 20
6423.3630990000011
 30
0.0
  0
POINT
  5
7F7B
  8
DEFPOINTS
  6
CONTINUOUS
 62
     0
 10
2801.7038630000002
 20
5373.3630990000001
 30
0.0
  0
POINT
  5
7F7C
  8
DEFPOINTS
  6
CONTINUOUS
 62
     0
 10
3104.2534020000012
 20
5373.3630990000001
 30
0.0
  0
ENDBLK
  5
7BE2
  8
0
  0
BLOCK
  8
0
  2
*D16
 70
     1
 10
0.0
 20
0.0
 30
0.0
  3
*D16
  1

  0
LINE
  5
7F7D
  8
3
  6
CONTINUOUS
 62
     0
 10
2807.6945101068732
 20
3268.0542740000001
 30
0.0
 11
2807.6945101068732
 21
4184.4436619999988
 31
0.0
  0
LINE
  5
7F7E
  8
3
  6
CONTINUOUS
 62
     0
 10
2291.7038629999988
 20
4154.4436619999997
 30
0.0
 11
2747.6945101068732
 21
4154.4436619999997
 31
0.0
  0
INSERT
  5
7F7F
  8
3
  6
CONTINUOUS
 62
     0
  2
_OPEN
 10
2231.7038629999988
 20
4154.4436619999997
 30
0.0
 41
60.0
 42
60.0
 43
60.0
 50
180.0
  0
INSERT
  5
7F80
  8
3
  6
CONTINUOUS
 62
     0
  2
_OPEN
 10
2807.6945101068732
 20
4154.4436619999997
 30
0.0
 41
60.0
 42
60.0
 43
60.0
  0
TEXT
  8
3
  40
90
  5
7F97
  62
0
  72
0
  71
0
 10
2339.70
 20
4070.14
 30
0.000000
  1
576
  0
POINT
  5
7F82
  8
DEFPOINTS
  6
CONTINUOUS
 62
     0
 10
2231.7038629999988
 20
4005.4763050000001
 30
0.0
  0
POINT
  5
7F83
  8
DEFPOINTS
  6
CONTINUOUS
 62
     0
 10
2807.6945101068732
 20
3253.0542740000001
 30
0.0
  0
POINT
  5
7F84
  8
DEFPOINTS
  6
CONTINUOUS
 62
     0
 10
2807.6945101068732
 20
4154.4436619999997
 30
0.0
  0
ENDBLK
  5
7C72
  8
0
  0
BLOCK
  8
0
  2
_DOT
 70
     0
 10
0.0
 20
0.0
 30
0.0
  3
_DOT
  1

  0
POLYLINE
  5
7C99
  8
0
  6
BYBLOCK
 62
     0
 66
     1
 10
0.0
 20
0.0
 30
0.0
 70
     1
 40
0.5
 41
0.5
  0
VERTEX
  5
7F85
  8
0
  6
BYBLOCK
 62
     0
 10
-0.25
 20
0.0
 30
0.0
 42
1.0
  0
VERTEX
  5
7F86
  8
0
  6
BYBLOCK
 62
     0
 10
0.25
 20
0.0
 30
0.0
 42
1.0
  0
SEQEND
  5
7F87
  8
0
  6
BYBLOCK
 62
     0
  0
LINE
  5
7C9A
  8
0
  6
BYBLOCK
 62
     0
 10
-0.5
 20
0.0
 30
0.0
 11
-1.0
 21
0.0
 31
0.0
  0
ENDBLK
  5
7C9C
  8
0
  0
ENDSEC
  0
SECTION
  2
ENTITIES
  0
LINE
  5
7A70
  8
1
  6
CONTINUOUS
 10
5217.5782909999998
 20
2533.0542739999992
 30
0.0
 11
4167.5782909999998
 21
2533.0542739999992
 31
0.0
  0
LINE
  5
7A71
  8
1
  6
CONTINUOUS
 10
5217.5782909999998
 20
2433.0542739999992
 30
0.0
 11
4167.5782909999998
 21
2433.0542739999992
 31
0.0
  0
LINE
  5
7A72
  8
1
  6
CONTINUOUS
 10
5102.5782909999998
 20
2558.0542739999992
 30
0.0
 11
4282.5782909999998
 21
2558.0542739999992
 31
0.0
  0
LINE
  5
7A73
  8
1
  6
CONTINUOUS
 10
5102.5782909999998
 20
2658.0542739999992
 30
0.0
 11
4190.5782909999998
 21
2658.0542739999992
 31
0.0
  0
LINE
  5
7A74
  8
1
  6
CONTINUOUS
 10
4408.5782909999998
 20
3848.0542740000001
 30
0.0
 11
5092.5782909999998
 21
3848.0542740000001
 31
0.0
  0
LINE
  5
7A75
  8
1
  6
CONTINUOUS
 10
2801.7038630000002
 20
2533.054274000001
 30
0.0
 11
1101.703863
 21
2533.0542739999992
 31
0.0
  0
LINE
  5
7A76
  8
1
  6
CONTINUOUS
 10
2801.7038630000002
 20
2433.0542739999992
 30
0.0
 11
1101.703863
 21
2433.0542739999992
 31
0.0
  0
LINE
  5
7A77
  8
1
  6
CONTINUOUS
 10
1350.183863
 20
2786.0842739999998
 30
0.0
 11
2287.9938630000001
 21
3061.134274
 31
0.0
  0
LINE
  5
7A79
  8
2
  6
CENTER
 10
5139.0298739999998
 20
3253.0542739999992
 30
0.0
 11
4105.4847929999987
 21
3253.0542739999992
 31
0.0
  0
CIRCLE
  5
7A7A
  8
1
  6
CONTINUOUS
 10
2231.7038629999988
 20
3253.0542739999992
 30
0.0
 40
200.0
  0
LINE
  5
7A7B
  8
1
  6
CONTINUOUS
 10
2651.7038629999988
 20
3908.0542739999992
 30
0.0
 11
2081.7038629999988
 21
3908.0542739999992
 31
0.0
  0
LINE
  5
7A7C
  8
1
  6
CONTINUOUS
 10
2751.7038629999988
 20
2558.0542739999992
 30
0.0
 11
1151.703863
 21
2558.0542739999992
 31
0.0
  0
LINE
  5
7A7F
  8
1
  6
CONTINUOUS
 10
1151.703863
 20
2658.0542739999992
 30
0.0
 11
2751.7038629999988
 21
2658.0542739999992
 31
0.0
  0
LINE
  5
7A80
  8
1
  6
CONTINUOUS
 10
2312.2038630000002
 20
3848.0542740000001
 30
0.0
 11
1402.203863
 21
3848.0542740000001
 31
0.0
  0
ARC
  5
7A81
  8
1
  6
CONTINUOUS
 10
2179.7038629999988
 20
3305.0542739999992
 30
0.0
 40
717.88999999999987
 50
184.15000000000001
 51
274.75999999999988
  0
ARC
  5
7A82
  8
1
  6
CONTINUOUS
 10
1329.0838630000001
 20
2858.0542740000001
 30
0.0
 40
162.0
 50
324.97000000000003
 51
215.02999999999989
  0
CIRCLE
  5
7A83
  8
1
  6
CONTINUOUS
 10
1329.0838630000001
 20
2858.0542740000001
 30
0.0
 40
75.0
  0
LINE
  5
7A84
  8
1
  6
CONTINUOUS
 10
2081.7038629999988
 20
3908.0542739999992
 30
0.0
 11
1171.703863
 21
2958.0542740000001
 31
0.0
  0
LINE
  5
7A85
  8
2
  6
CENTER
 10
1254.0838630000001
 20
2858.0542740000001
 30
0.0
 11
1404.0838630000001
 21
2858.0542740000001
 31
0.0
  0
LINE
  5
7A86
  8
1
  6
CONTINUOUS
 10
1171.703863
 20
2958.0542740000001
 30
0.0
 11
1171.703863
 21
2658.0542739999992
 31
0.0
  0
LINE
  5
7A87
  8
1
  6
CONTINUOUS
 10
1101.703863
 20
2533.0542739999992
 30
0.0
 11
1101.703863
 21
2433.0542739999992
 31
0.0
  0
LINE
  5
7A88
  8
1
  6
CONTINUOUS
 10
1175.0838630000001
 20
2658.0542739999992
 30
0.0
 11
1175.0838630000001
 21
2716.0542739999992
 31
0.0
  0
LINE
  5
7A89
  8
1
  6
CONTINUOUS
 10
1175.0838630000001
 20
2716.0542739999992
 30
0.0
 11
1196.423863
 21
2765.0742740000001
 31
0.0
  0
LINE
  5
7A8A
  8
1
  6
CONTINUOUS
 10
1151.703863
 20
2658.0542739999992
 30
0.0
 11
1151.703863
 21
2558.0542739999992
 31
0.0
  0
LINE
  5
7A8B
  8
2
  6
CENTER
 10
1329.0838630000001
 20
2783.0542739999992
 30
0.0
 11
1329.0838630000001
 21
2933.0542739999992
 31
0.0
  0
LINE
  5
7A8D
  8
1
  6
CONTINUOUS
 10
1483.0838630000001
 20
2716.0542739999992
 30
0.0
 11
1461.7338629999999
 21
2765.0742740000001
 31
0.0
  0
LINE
  5
7A8E
  8
1
  6
CONTINUOUS
 10
1483.0838630000001
 20
2658.0542739999992
 30
0.0
 11
1483.0838630000001
 21
2716.0542739999992
 31
0.0
  0
LINE
  5
7A8F
  8
1
  6
CONTINUOUS
 10
1290.5338630000001
 20
2922.3942740000002
 30
0.0
 11
2128.923863
 21
3424.6242740000012
 31
0.0
  0
LINE
  5
7A90
  8
1
  6
CONTINUOUS
 10
1444.703863
 20
3848.0542740000001
 30
0.0
 11
1463.703863
 21
3253.0542739999992
 31
0.0
  0
LINE
  5
7A91
  8
1
  6
CONTINUOUS
 10
2651.7038629999988
 20
2658.0542739999992
 30
0.0
 11
2651.7038629999988
 21
3908.0542739999992
 31
0.0
  0
ARC
  5
7A92
  8
1
  6
CONTINUOUS
 10
2187.7038629999988
 20
3209.0542739999992
 30
0.0
 40
621.54999999999995
 50
274.75999999999988
 51
6.5
  0
LINE
  5
7A94
  8
1
  6
CONTINUOUS
 10
2801.7038630000002
 20
2533.0542739999992
 30
0.0
 11
2801.7038630000002
 21
2433.0542739999992
 31
0.0
  0
LINE
  5
7A95
  8
1
  6
CONTINUOUS
 10
2751.7038629999988
 20
2658.0542739999992
 30
0.0
 11
2751.7038629999988
 21
2558.0542739999992
 31
0.0
  0
ARC
  5
7A96
  8
1
  6
CONTINUOUS
 10
2266.7038629999988
 20
3218.0542739999992
 30
0.0
 40
542.03999999999985
 50
6.5
 51
89.680000000000007
  0
LINE
  5
7A97
  8
2
  6
CENTER
 10
2231.7038629999988
 20
6451.5574809999998
 30
0.0
 11
2231.7038629999988
 21
5259.3382780000011
 31
0.0
  0
LINE
  5
7A98
  8
1
  6
CONTINUOUS
 10
2269.7038629999988
 20
3760.0842739999998
 30
0.0
 11
2269.7038629999988
 21
3848.0542740000001
 31
0.0
  0
LINE
  5
7A99
  8
1
  6
CONTINUOUS
 10
4450.5782909999998
 20
3848.0542740000001
 30
0.0
 11
4450.5782909999998
 21
2658.0542739999992
 31
0.0
  0
LINE
  5
7A9A
  8
1
  6
CONTINUOUS
 10
4190.5782909999998
 20
3908.0542739999992
 30
0.0
 11
4190.5782909999998
 21
2658.0542739999992
 31
0.0
  0
LINE
  5
7A9B
  8
1
  6
CONTINUOUS
 10
4340.5782909999989
 20
3908.0542739999992
 30
0.0
 11
4340.5782909999989
 21
2658.0542739999992
 31
0.0
  0
LINE
  5
7A9C
  8
1
  6
CONTINUOUS
 10
4230.5782909999989
 20
2933.0542739999992
 30
0.0
 11
4230.5782909999989
 21
2783.0542739999992
 31
0.0
  0
LINE
  5
7A9D
  8
1
  6
CONTINUOUS
 10
4300.5782909999989
 20
2933.0542739999992
 30
0.0
 11
4300.5782909999989
 21
2783.0542739999992
 31
0.0
  0
LINE
  5
7AA1
  8
1
  6
CONTINUOUS
 10
4300.5782909999989
 20
2879.0542739999992
 30
0.0
 11
4450.5782909999998
 21
2879.0542739999992
 31
0.0
  0
LINE
  5
7AA2
  8
1
  6
CONTINUOUS
 10
4300.5782909999989
 20
2837.0542739999992
 30
0.0
 11
4450.5782909999998
 21
2837.0542739999992
 31
0.0
  0
LINE
  5
7AA3
  8
1
  6
CONTINUOUS
 10
4167.5782909999998
 20
2533.0542739999992
 30
0.0
 11
4167.5782909999998
 21
2433.0542739999992
 31
0.0
  0
LINE
  5
7AA4
  8
1
  6
CONTINUOUS
 10
4282.5782909999998
 20
2658.0542739999992
 30
0.0
 11
4282.5782909999998
 21
2558.0542739999992
 31
0.0
  0
LINE
  5
7AA5
  8
1
  6
CONTINUOUS
 10
4230.5782909999989
 20
2783.0542739999992
 30
0.0
 11
4300.5782909999989
 21
2783.0542739999992
 31
0.0
  0
LINE
  5
7AA6
  8
1
  6
CONTINUOUS
 10
4450.5782909999998
 20
3274.0542739999992
 30
0.0
 11
4300.5782909999989
 21
3274.0542739999992
 31
0.0
  0
LINE
  5
7AA7
  8
1
  6
CONTINUOUS
 10
4450.5782909999998
 20
3232.0542739999992
 30
0.0
 11
4300.5782909999989
 21
3232.0542739999992
 31
0.0
  0
LINE
  5
7AA8
  8
1
  6
CONTINUOUS
 10
4230.5782909999989
 20
3453.0542740000001
 30
0.0
 11
4300.5782909999989
 21
3453.0542740000001
 31
0.0
  0
LINE
  5
7AA9
  8
1
  6
CONTINUOUS
 10
4230.5782909999989
 20
3053.0542739999992
 30
0.0
 11
4300.5782909999989
 21
3053.0542739999992
 31
0.0
  0
LINE
  5
7AAA
  8
1
  6
CONTINUOUS
 10
4230.5782909999989
 20
2933.0542739999992
 30
0.0
 11
4300.5782909999989
 21
2933.0542739999992
 31
0.0
  0
LINE
  5
7AAB
  8
1
  6
CONTINUOUS
 10
4230.5782909999989
 20
3453.0542740000001
 30
0.0
 11
4230.5782909999989
 21
3053.0542739999992
 31
0.0
  0
LINE
  5
7AAC
  8
1
  6
CONTINUOUS
 10
4300.5782909999989
 20
3453.0542740000001
 30
0.0
 11
4300.5782909999989
 21
3053.0542739999992
 31
0.0
  0
LINE
  5
7AAD
  8
1
  6
CONTINUOUS
 10
4340.5782909999989
 20
3908.0542739999992
 30
0.0
 11
4190.5782909999998
 21
3908.0542739999992
 31
0.0
  0
LINE
  5
7AAE
  8
1
  6
CONTINUOUS
 10
2269.7038629999988
 20
5656.3630990000001
 30
0.0
 11
1444.703863
 21
6256.3630990000001
 31
0.0
  0
LINE
  5
7AAF
  8
1
  6
CONTINUOUS
 10
2269.7038629999988
 20
6256.3630990000001
 30
0.0
 11
1444.703863
 21
5656.3630990000001
 31
0.0
  0
LINE
  5
7AB0
  8
1
  6
CONTINUOUS
 10
1444.703863
 20
6256.3630990000001
 30
0.0
 11
2809.2538629999999
 21
6256.3630990000001
 31
0.0
  0
LINE
  5
7AB1
  8
1
  6
CONTINUOUS
 10
1444.703863
 20
5656.3630990000001
 30
0.0
 11
2809.2538629999999
 21
5656.3630990000001
 31
0.0
  0
LINE
  5
7AB2
  8
1
  6
CONTINUOUS
 10
1151.703863
 20
6308.3630990000011
 30
0.0
 11
2751.7038629999988
 21
6308.3630990000011
 31
0.0
  0
LINE
  5
7AB3
  8
1
  6
CONTINUOUS
 10
1171.703863
 20
5396.3630990000011
 30
0.0
 11
2651.7038629999988
 21
5396.3630990000011
 31
0.0
  0
LINE
  5
7AB4
  8
1
  6
CONTINUOUS
 10
1171.703863
 20
5546.3630990000001
 30
0.0
 11
2651.7038629999988
 21
5546.3630990000001
 31
0.0
  0
LINE
  5
7AB5
  8
1
  6
CONTINUOUS
 10
2431.7038630000002
 20
5506.3630990000001
 30
0.0
 11
2031.703863
 21
5506.3630990000001
 31
0.0
  0
LINE
  5
7AB6
  8
1
  6
CONTINUOUS
 10
2431.7038630000002
 20
5436.3630990000011
 30
0.0
 11
2031.703863
 21
5436.3630990000011
 31
0.0
  0
LINE
  5
7AB7
  8
1
  6
CONTINUOUS
 10
1167.0838629999989
 20
6079.3630990000001
 30
0.0
 11
1444.703863
 21
6079.3630990000001
 31
0.0
  0
LINE
  5
7AB8
  8
1
  6
CONTINUOUS
 10
1167.0838629999989
 20
5594.3630990000001
 30
0.0
 11
1491.0838630000001
 21
5594.3630990000001
 31
0.0
  0
LINE
  5
7AB9
  8
1
  6
CONTINUOUS
 10
1404.0838630000001
 20
5506.3630990000001
 30
0.0
 11
1254.0838630000001
 21
5506.3630990000001
 31
0.0
  0
LINE
  5
7ABA
  8
1
  6
CONTINUOUS
 10
1404.0838630000001
 20
5436.3630990000011
 30
0.0
 11
1254.0838630000001
 21
5436.3630990000011
 31
0.0
  0
LINE
  5
7ABB
  8
1
  6
CONTINUOUS
 10
1101.703863
 20
6423.3630990000011
 30
0.0
 11
1101.703863
 21
5373.3630990000001
 31
0.0
  0
LINE
  5
7ABC
  8
1
  6
CONTINUOUS
 10
1167.0838629999989
 20
5594.3630990000001
 30
0.0
 11
1167.0838629999989
 21
6079.3630990000001
 31
0.0
  0
LINE
  5
7ABD
  8
1
  6
CONTINUOUS
 10
1151.703863
 20
6423.3630990000011
 30
0.0
 11
1151.703863
 21
5373.3630990000001
 31
0.0
  0
LINE
  5
7ABE
  8
1
  6
CONTINUOUS
 10
1101.703863
 20
5373.3630990000001
 30
0.0
 11
1151.703863
 21
5373.3630990000001
 31
0.0
  0
LINE
  5
7ABF
  8
1
  6
CONTINUOUS
 10
1151.703863
 20
5488.3630990000001
 30
0.0
 11
1254.0838630000001
 21
5488.3630990000001
 31
0.0
  0
LINE
  5
7AC0
  8
1
  6
CONTINUOUS
 10
1171.703863
 20
5546.3630990000001
 30
0.0
 11
1171.703863
 21
5396.3630990000011
 31
0.0
  0
LINE
  5
7AC1
  8
1
  6
CONTINUOUS
 10
1254.0838630000001
 20
5436.3630990000011
 30
0.0
 11
1254.0838630000001
 21
5506.3630990000001
 31
0.0
  0
LINE
  5
7AC2
  8
1
  6
CONTINUOUS
 10
1101.703863
 20
6423.3630990000011
 30
0.0
 11
1151.703863
 21
6423.3630990000011
 31
0.0
  0
LINE
  5
7AC3
  8
1
  6
CONTINUOUS
 10
1444.703863
 20
5656.3630990000001
 30
0.0
 11
1444.703863
 21
6256.3630990000001
 31
0.0
  0
LINE
  5
7AC4
  8
1
  6
CONTINUOUS
 10
1404.0838630000001
 20
5488.3630990000001
 30
0.0
 11
2031.703863
 21
5488.3630990000001
 31
0.0
  0
LINE
  5
7AC5
  8
1
  6
CONTINUOUS
 10
1350.0838630000001
 20
5506.3630990000001
 30
0.0
 11
1350.0838630000001
 21
5594.3630990000001
 31
0.0
  0
LINE
  5
7AC6
  8
1
  6
CONTINUOUS
 10
1308.0838630000001
 20
5506.3630990000001
 30
0.0
 11
1308.0838630000001
 21
5594.3630990000001
 31
0.0
  0
LINE
  5
7AC7
  8
1
  6
CONTINUOUS
 10
1404.0838630000001
 20
5436.3630990000011
 30
0.0
 11
1404.0838630000001
 21
5506.3630990000001
 31
0.0
  0
LINE
  5
7AC8
  8
1
  6
CONTINUOUS
 10
1491.0838630000001
 20
5594.3630990000001
 30
0.0
 11
1491.0838630000001
 21
5656.3630990000001
 31
0.0
  0
LINE
  5
7AC9
  8
1
  6
CONTINUOUS
 10
2031.703863
 20
5436.3630990000011
 30
0.0
 11
2031.703863
 21
5506.3630990000001
 31
0.0
  0
LINE
  5
7ACA
  8
1
  6
CONTINUOUS
 10
2809.2538629999999
 20
5656.3630990000001
 30
0.0
 11
2809.2538629999999
 21
6256.3630990000001
 31
0.0
  0
LINE
  5
7ACB
  8
1
  6
CONTINUOUS
 10
2269.7038629999988
 20
5656.3630990000001
 30
0.0
 11
2269.7038629999988
 21
6256.3630990000001
 31
0.0
  0
LINE
  5
7ACC
  8
1
  6
CONTINUOUS
 10
2431.7038630000002
 20
5488.3630990000001
 30
0.0
 11
2751.7038629999988
 21
5488.3630990000001
 31
0.0
  0
LINE
  5
7ACD
  8
1
  6
CONTINUOUS
 10
2210.7038629999988
 20
5506.3630990000001
 30
0.0
 11
2210.7038629999988
 21
5656.3630990000001
 31
0.0
  0
LINE
  5
7ACE
  8
1
  6
CONTINUOUS
 10
2252.7038629999988
 20
5506.3630990000001
 30
0.0
 11
2252.7038629999988
 21
5656.3630990000001
 31
0.0
  0
LINE
  5
7ACF
  8
1
  6
CONTINUOUS
 10
2431.7038630000002
 20
5436.3630990000011
 30
0.0
 11
2431.7038630000002
 21
5506.3630990000001
 31
0.0
  0
LINE
  5
7AD0
  8
1
  6
CONTINUOUS
 10
2751.7038629999988
 20
5373.3630990000001
 30
0.0
 11
2801.7038630000002
 21
5373.3630990000001
 31
0.0
  0
LINE
  5
7AD1
  8
1
  6
CONTINUOUS
 10
2801.7038630000002
 20
5656.3630990000001
 30
0.0
 11
2801.7038630000002
 21
5373.3630990000001
 31
0.0
  0
LINE
  5
7AD2
  8
1
  6
CONTINUOUS
 10
2751.7038629999988
 20
5656.3630990000001
 30
0.0
 11
2751.7038629999988
 21
5373.3630990000001
 31
0.0
  0
LINE
  5
7AD3
  8
1
  6
CONTINUOUS
 10
2651.7038629999988
 20
5396.3630990000011
 30
0.0
 11
2651.7038629999988
 21
5546.3630990000001
 31
0.0
  0
LINE
  5
7AD4
  8
1
  6
CONTINUOUS
 10
2801.7038630000002
 20
6423.3630990000011
 30
0.0
 11
2801.7038630000002
 21
6256.3630990000001
 31
0.0
  0
LINE
  5
7AD5
  8
1
  6
CONTINUOUS
 10
2751.7038629999988
 20
6423.3630990000011
 30
0.0
 11
2801.7038630000002
 21
6423.3630990000011
 31
0.0
  0
LINE
  5
7AD6
  8
1
  6
CONTINUOUS
 10
2751.7038629999988
 20
6423.3630990000011
 30
0.0
 11
2751.7038629999988
 21
6256.3630990000001
 31
0.0
  0
LINE
  5
7AD7
  8
1
  6
CONTINUOUS
 10
5050.5782909999998
 20
3848.0542740000001
 30
0.0
 11
5050.5782909999998
 21
2658.0542739999992
 31
0.0
  0
LINE
  5
7AD8
  8
1
  6
CONTINUOUS
 10
5102.5782909999998
 20
2658.0542739999992
 30
0.0
 11
5102.5782909999998
 21
2558.0542739999992
 31
0.0
  0
LINE
  5
7AD9
  8
1
  6
CONTINUOUS
 10
5217.5782909999998
 20
2533.0542739999992
 30
0.0
 11
5217.5782909999998
 21
2433.0542739999992
 31
0.0
  0
LINE
  5
7ADA
  8
2
  6
CENTER
 10
1041.632233
 20
5956.3630990000001
 30
0.0
 11
2905.5303239999998
 21
5956.3630990000001
 31
0.0
  0
LINE
  5
7ADB
  8
2
  6
CENTER
 10
4750.5782909999998
 20
3999.779207
 30
0.0
 11
4750.5782909999998
 21
2281.591782
 31
0.0
  0
LINE
  5
7ADC
  8
2
  6
CENTER
 10
2231.7038629999988
 20
4005.4763050000001
 30
0.0
 11
2231.7038629999988
 21
2295.8339689999998
 31
0.0
  0
LINE
  5
7ADD
  8
2
  6
CENTER
 10
2986.8015489999989
 20
3253.0542739999992
 30
0.0
 11
1144.9463000000001
 21
3253.0542739999992
 31
0.0
  0
LINE
  5
7ADE
  8
4
  6
CONTINUOUS
 10
5550.0
 20
1500.0
 30
0.0
 11
5550.0
 21
900.0
 31
0.0
  0
LINE
  5
7ADF
  8
4
  6
CONTINUOUS
 10
3450.0
 20
1500.0
 30
0.0
 11
3450.0
 21
900.0
 31
0.0
  0
LINE
  5
7AE0
  8
4
  6
CONTINUOUS
 10
1950.0
 20
1500.0
 30
0.0
 11
1950.0
 21
900.0
 31
0.0
  0
LINE
  5
7AE3
  8
4
  6
CONTINUOUS
 10
1950.0
 20
900.0
 30
0.0
 11
5550.0
 21
900.0
 31
0.0
  0
LINE
  5
7AE4
  8
4
  6
CONTINUOUS
 10
1950.0
 20
1200.0
 30
0.0
 11
5550.0
 21
1200.0
 31
0.0
  0
TEXT
  5
7AE5
  8
4
  6
CONTINUOUS
 10
2065.5062429999989
 20
1294.6290779999999
 30
0.0
 40
150.0
  1
機器名称
  0
TEXT
  5
7AE6
  8
4
  6
CONTINUOUS
 10
2058.7743179999989
 20
964.9354699999999
 30
0.0
 40
150.0
  1
機器型番
  0
TEXT
  5
7AE7
  8
4
  6
CONTINUOUS
 10
3533.0362359999999
 20
1267.7153069999999
 30
0.0
 40
150.0
  1
ミツヤ多翼送風機
  0
TEXT
  5
7AE8
  8
4
  6
CONTINUOUS
 10
3559.9634869999991
 20
951.47875299999987
 30
0.0
 40
150.0
  1
MF#5-4
  0
TEXT
  5
7AEA
  8
4
  6
CONTINUOUS
 10
2172.2158730000001
 20
7150.2865239999992
 30
0.0
 40
162.0
  1
天井吊防振ベット
  0
TEXT
  5
7AEB
  8
4
  6
CONTINUOUS
 10
948.50278000000014
 20
7601.6429289999996
 30
0.0
 40
216.0
  1
ベルト駆動式片吸込両持多翼ファン
  0
LINE
  5
7AEC
  8
4
  6
CONTINUOUS
 10
750.0
 20
7408.2262629999996
 30
0.0
 11
5550.0
 21
7408.2262629999996
 31
0.0
  0
LINE
  5
7AED
  8
4
  6
CONTINUOUS
 10
750.0
 20
8008.2262629999996
 30
0.0
 11
5550.0
 21
8008.2262629999996
 31
0.0
  0
LINE
  5
7AEE
  8
4
  6
CONTINUOUS
 10
1950.0
 20
1500.0
 30
0.0
 11
5550.0
 21
1500.0
 31
0.0
  0
LINE
  5
7AEF
  8
4
  6
CONTINUOUS
 10
750.0
 20
8008.2262629999996
 30
0.0
 11
750.0
 21
7408.2262629999996
 31
0.0
  0
TEXT
  5
7AF0
  8
4
  6
CONTINUOUS
 10
864.63937599999997
 20
7146.9584329999998
 30
0.0
 40
162.0
  1
右回転上向
  0
TEXT
  5
7AF1
  8
4
  6
CONTINUOUS
 10
4406.9086779999989
 20
8118.1832439999989
 30
0.0
 40
168.0
  1
No.
  0
TEXT
  5
7AF2
  8
4
  6
CONTINUOUS
 10
3933.8881879999999
 20
7150.2865239999992
 30
0.0
 40
162.0
  1
縮尺：1/30
  0
LINE
  5
7AF3
  8
4
  6
CONTINUOUS
 10
5550.0
 20
8008.2262629999996
 30
0.0
 11
5550.0
 21
7408.2262629999996
 31
0.0
  0
LINE
  5
7AF5
  8
4
  6
CONTINUOUS
 10
4321.8522670000002
 20
8043.7907490000007
 30
0.0
 11
4321.8522670000002
 21
8359.9567849999985
 31
0.0
  0
LINE
  5
7AF6
  8
4
  6
CONTINUOUS
 10
4321.8522670000002
 20
8359.9567849999985
 30
0.0
 11
5550.0
 21
8359.9567849999985
 31
0.0
  0
LINE
  5
7AF7
  8
4
  6
CONTINUOUS
 10
5550.0
 20
8359.9567849999985
 30
0.0
 11
5550.0
 21
8043.7907490000007
 31
0.0
  0
LINE
  5
7AF8
  8
4
  6
CONTINUOUS
 10
5550.0
 20
8043.7907490000007
 30
0.0
 11
4321.8522670000002
 21
8043.7907490000007
 31
0.0
  0
DIMENSION
  5
7B10
  8
3
  6
CONTINUOUS
  2
*D1
 10
2269.7038629999988
 20
3999.3048239999998
 30
0.0
 11
1843.603783
 21
3999.3048239999998
 31
0.0
 70
   128
 13
1444.703863
 23
3848.0542740000001
 33
0.0
 14
2269.7038629999988
 24
3848.0542740000001
 34
0.0
1001
ACAD
1000
DSTYLE
1002
{
1070
   287
1070
     3
1070
   287
1070
     3
1070
   287
1070
     3
1070
    40
1040
30.0
1070
   143
1040
0.039
1070
   172
1070
     1
1070
   271
1070
     0
1070
   279
1070
     0
1070
   288
1070
     1
1002
}
  0
DIMENSION
  5
7B1D
  8
3
  6
CONTINUOUS
  2
*D2
 10
2231.7038629999988
 20
4154.4436619999997
 30
0.0
 11
1843.603783
 21
4154.4436619999997
 31
0.0
 70
   128
 13
1444.703863
 23
3848.0542740000001
 33
0.0
 14
2231.7038629999988
 24
4005.4763050000001
 34
0.0
1001
ACAD
1000
DSTYLE
1002
{
1070
   287
1070
     3
1070
   287
1070
     3
1070
   287
1070
     3
1070
    40
1040
30.0
1070
   143
1040
0.039
1070
   172
1070
     1
1070
   271
1070
     0
1070
   279
1070
     0
1070
   288
1070
     1
1002
}
  0
DIMENSION
  5
7B36
  8
3
  6
CONTINUOUS
  2
*D3
 10
3116.6736170000008
 20
3253.0542739999992
 30
0.0
 11
3116.6736169999999
 21
3546.2993820000002
 31
0.0
 70
   128
 13
2312.2038630000002
 23
3848.0542740000001
 33
0.0
 14
2986.8015489999989
 24
3253.0542739999992
 34
0.0
 50
90.0
1001
ACAD
1000
DSTYLE
1002
{
1070
   287
1070
     3
1070
   287
1070
     3
1070
   287
1070
     3
1070
    40
1040
30.0
1070
   143
1040
0.039
1070
   172
1070
     1
1070
   271
1070
     0
1070
   279
1070
     0
1070
   288
1070
     1
1002
}
  0
DIMENSION
  5
7B42
  8
3
  6
CONTINUOUS
  2
*D4
 10
3116.6736169999999
 20
2558.0542739999992
 30
0.0
 11
3041.6736169999999
 21
2905.5542739999992
 31
0.0
 70
     0
 13
2986.8015489999989
 23
3253.0542739999992
 33
0.0
 14
2751.7038629999988
 24
2558.0542739999992
 34
0.0
 50
90.0
1001
ACAD
1000
DSTYLE
1002
{
1070
   287
1070
     4
1070
   287
1070
     4
1070
   287
1070
     4
1070
    40
1040
30.0
1070
    75
1070
     1
1070
   143
1040
0.039
1070
   172
1070
     1
1070
   271
1070
     0
1070
   279
1070
     1
1070
   288
1070
     1
1002
}
  0
DIMENSION
  5
7B52
  8
3
  6
CONTINUOUS
  2
*D5
 10
3115.0921130000002
 20
2433.0542739999992
 30
0.0
 11
3115.0921129999988
 21
2175.9114168571432
 31
0.0
 70
   128
 13
2751.7038629999988
 23
2558.0542739999992
 33
0.0
 14
2801.7038630000002
 24
2433.0542739999992
 34
0.0
 50
90.0
1001
ACAD
1000
DSTYLE
1002
{
1070
   287
1070
     3
1070
   287
1070
     3
1070
   287
1070
     3
1070
    40
1040
30.0
1070
   143
1040
0.039
1070
   172
1070
     1
1070
   271
1070
     0
1070
   279
1070
     0
1070
   288
1070
     1
1002
}
  0
DIMENSION
  5
7B6C
  8
3
  6
CONTINUOUS
  2
*D6
 10
2231.7038629999988
 20
2212.1053179999999
 30
0.0
 11
1700.7715740000001
 21
2212.1053179999999
 31
0.0
 70
   128
 13
1101.703863
 23
2433.0542739999992
 33
0.0
 14
2231.7038629999988
 24
2295.8339689999998
 34
0.0
1001
ACAD
1000
DSTYLE
1002
{
1070
   287
1070
     3
1070
   287
1070
     3
1070
   287
1070
     3
1070
    40
1040
30.0
1070
   143
1040
0.039
1070
   172
1070
     1
1070
   271
1070
     0
1070
   279
1070
     0
1070
   288
1070
     1
1002
}
  0
DIMENSION
  5
7B78
  8
3
  6
CONTINUOUS
  2
*D7
 10
2801.7038630000002
 20
2212.1053179999999
 30
0.0
 11
2516.7038630000002
 21
2287.1053179999999
 31
0.0
 70
     0
 13
2231.7038629999988
 23
2295.8339689999998
 33
0.0
 14
2801.7038630000002
 24
2433.0542739999992
 34
0.0
1001
ACAD
1000
DSTYLE
1002
{
1070
   287
1070
     4
1070
   287
1070
     4
1070
   287
1070
     4
1070
    40
1040
30.0
1070
    75
1070
     1
1070
   143
1040
0.039
1070
   172
1070
     1
1070
   271
1070
     0
1070
   279
1070
     1
1070
   288
1070
     1
1002
}
  0
DIMENSION
  5
7B85
  8
3
  6
CONTINUOUS
  2
*D8
 10
4450.5782909999998
 20
3986.8937120000001
 30
0.0
 11
4741.5836840000002
 21
3986.8937120000001
 31
0.0
 70
   128
 13
5050.5782909999998
 23
3848.0542740000001
 33
0.0
 14
4450.5782909999998
 24
3848.0542740000001
 34
0.0
1001
ACAD
1000
DSTYLE
1002
{
1070
   287
1070
     3
1070
   287
1070
     3
1070
   287
1070
     3
1070
    40
1040
30.0
1070
   143
1040
0.039
1070
   172
1070
     1
1070
   271
1070
     0
1070
   279
1070
     0
1070
   288
1070
     1
1002
}
  0
LINE
  5
7B86
  8
1
  6
CONTINUOUS
 10
5054.5782909999998
 20
3678.0542740000001
 30
0.0
 11
5054.5782909999998
 21
2828.0542739999992
 31
0.0
  0
DIMENSION
  5
7B95
  8
3
  6
CONTINUOUS
  2
*D9
 10
5319.1226620000007
 20
2828.0542739999992
 30
0.0
 11
5319.1226619999998
 21
3254.6383529999998
 31
0.0
 70
   128
 13
5054.5782909999998
 23
3678.0542740000001
 33
0.0
 14
5054.5782909999998
 24
2828.0542739999992
 34
0.0
 50
90.0
1001
ACAD
1000
DSTYLE
1002
{
1070
   287
1070
     3
1070
   287
1070
     3
1070
   287
1070
     3
1070
     3
1000
φ<>
1070
    40
1040
30.0
1070
   143
1040
0.039
1070
   172
1070
     1
1070
   271
1070
     0
1070
   279
1070
     0
1070
   288
1070
     1
1002
}
  0
DIMENSION
  5
7BA4
  8
3
  6
CONTINUOUS
  2
*D10
 10
4750.5782909999998
 20
4173.0603299999993
 30
0.0
 11
4902.5782909999998
 21
4249.8655646158722
 31
0.0
 70
   128
 13
5054.5782909999998
 23
3678.0542740000001
 33
0.0
 14
4750.5782909999998
 24
4131.9718819999998
 34
0.0
1001
ACAD
1000
DSTYLE
1002
{
1070
   288
1070
     1
1070
   172
1070
     1
1070
    40
1040
30.0
1070
   271
1070
     0
1070
   143
1040
0.039
1002
}
  0
DIMENSION
  5
7BB0
  8
3
  6
CONTINUOUS
  2
*D11
 10
4190.5782909999998
 20
4173.0603299999993
 30
0.0
 11
4470.5782909999989
 21
4323.0603299999993
 31
0.0
 70
     0
  1
MAX\P610
 13
4750.5782909999998
 23
4131.9718819999998
 33
0.0
 14
4190.5782909999998
 24
3908.0542739999992
 34
0.0
1001
ACAD
1000
DSTYLE
1002
{
1070
   287
1070
     4
1070
   287
1070
     4
1070
   287
1070
     4
1070
    40
1040
30.0
1070
    75
1070
     1
1070
   143
1040
0.039
1070
   172
1070
     1
1070
   271
1070
     0
1070
   279
1070
     1
1070
   288
1070
     1
1002
}
  0
DIMENSION
  5
7BBD
  8
3
  6
CONTINUOUS
  2
*D12
 10
4750.5782909999998
 20
2199.694227
 30
0.0
 11
4468.339414
 21
2199.694227
 31
0.0
 70
   128
 13
4167.5782909999998
 23
2433.0542739999992
 33
0.0
 14
4750.5782909999998
 24
2281.591782
 34
0.0
1001
ACAD
1000
DSTYLE
1002
{
1070
   287
1070
     3
1070
   287
1070
     3
1070
   287
1070
     3
1070
    40
1040
30.0
1070
   143
1040
0.039
1070
   172
1070
     1
1070
   271
1070
     0
1070
   279
1070
     0
1070
   288
1070
     1
1002
}
  0
DIMENSION
  5
7BC9
  8
3
  6
CONTINUOUS
  2
*D13
 10
5217.5782909999998
 20
2199.694227
 30
0.0
 11
4984.0782909999998
 21
2274.694227
 31
0.0
 70
     0
 13
4750.5782909999998
 23
2281.591782
 33
0.0
 14
5217.5782909999998
 24
2433.0542739999992
 34
0.0
1001
ACAD
1000
DSTYLE
1002
{
1070
   287
1070
     4
1070
   287
1070
     4
1070
   287
1070
     4
1070
    40
1040
30.0
1070
    75
1070
     1
1070
   143
1040
0.039
1070
   172
1070
     1
1070
   271
1070
     0
1070
   279
1070
     1
1070
   288
1070
     1
1002
}
  0
DIMENSION
  5
7BD6
  8
3
  6
CONTINUOUS
  2
*D14
 10
2801.7038630000002
 20
6533.4985610000003
 30
0.0
 11
1899.494651
 21
6533.4985610000003
 31
0.0
 70
   128
 13
1101.703863
 23
6423.3630990000011
 33
0.0
 14
2801.7038630000002
 24
6423.3630990000011
 34
0.0
1001
ACAD
1000
DSTYLE
1002
{
1070
   287
1070
     3
1070
   287
1070
     3
1070
   287
1070
     3
1070
    40
1040
30.0
1070
   143
1040
0.039
1070
   172
1070
     1
1070
   271
1070
     0
1070
   279
1070
     0
1070
   288
1070
     1
1002
}
  0
DIMENSION
  5
7BE3
  8
3
  6
CONTINUOUS
  2
*D15
 10
3104.2534020000012
 20
5373.3630990000001
 30
0.0
 11
3104.2534019999989
 21
5931.5598360000004
 31
0.0
 70
   128
 13
2801.7038630000002
 23
6423.3630990000011
 33
0.0
 14
2801.7038630000002
 24
5373.3630990000001
 34
0.0
 50
90.0
1001
ACAD
1000
DSTYLE
1002
{
1070
   287
1070
     3
1070
   287
1070
     3
1070
   287
1070
     3
1070
    40
1040
30.0
1070
   143
1040
0.039
1070
   172
1070
     1
1070
   271
1070
     0
1070
   279
1070
     0
1070
   288
1070
     1
1002
}
  0
DIMENSION
  5
7C0B
  8
3
  6
CONTINUOUS
  2
*D16
 10
2807.6945101068732
 20
4154.4436619999997
 30
0.0
 11
2519.699186553436
 21
4229.4436619999997
 31
0.0
 70
     0
 13
2231.7038629999988
 23
4005.4763050000001
 33
0.0
 14
2807.6945101068732
 24
3253.0542740000001
 34
0.0
1001
ACAD
1000
DSTYLE
1002
{
1070
   287
1070
     4
1070
   287
1070
     4
1070
   287
1070
     4
1070
    40
1040
30.0
1070
    75
1070
     1
1070
   143
1040
0.039
1070
   172
1070
     1
1070
   271
1070
     0
1070
   279
1070
     1
1070
   288
1070
     1
1002
}
  0
LINE
  5
7CA4
  8
1
  6
CONTINUOUS
 10
1731.703862999999
 20
3658.0542739999992
 30
0.0
 11
2731.7038629999988
 21
3658.0542739999992
 31
0.0
  0
LINE
  5
7CA5
  8
1
 10
1731.703862999999
 20
3658.0542739999992
 30
0.0
 11
1731.703862999999
 21
2658.0542739999992
 31
0.0
  0
LINE
  5
7CA6
  8
1
 10
2731.7038629999988
 20
3658.0542739999992
 30
0.0
 11
2731.7038629999988
 21
2658.0542739999992
 31
0.0
  0
ENDSEC
  0
EOF
