  0
SECTION
  2
HEADER
  9
$ACADVER
  1
AC1009
  9
$INSBASE
 10
0.0
 20
0.0
 30
0.0
  9
$EXTMIN
 10
750.0
 20
900.0
 30
0.0
  9
$EXTMAX
 10
5550.0
 20
8359.9567849999985
 30
0.0
  9
$LIMMIN
 10
0.0
 20
0.0
  9
$LIMMAX
 10
297.0
 20
210.0
  9
$ORTHOMODE
 70
     0
  9
$REGENMODE
 70
     1
  9
$FILLMODE
 70
     0
  9
$QTEXTMODE
 70
     0
  9
$MIRRTEXT
 70
     1
  9
$DRAGMODE
 70
     2
  9
$LTSCALE
 40
100.0
  9
$OSMODE
 70
    37
  9
$ATTMODE
 70
     1
  9
$TEXTSIZE
 40
180.0
  9
$TRACEWID
 40
0.05
  9
$TEXTSTYLE
  7
STANDARD
  9
$CLAYER
  8
3
  9
$CELTYPE
  6
BYLAYER
  9
$CECOLOR
 62
   256
  9
$DIMSCALE
 40
30.0
  9
$DIMASZ
 40
2.0
  9
$DIMEXO
 40
0.5
  9
$DIMDLI
 40
10.0
  9
$DIMRND
 40
0.0
  9
$DIMDLE
 40
0.0
  9
$DIMEXE
 40
1.0
  9
$DIMTP
 40
1.0
  9
$DIMTM
 40
1.0
  9
$DIMTXT
 40
3.0
  9
$DIMCEN
 40
0.0
  9
$DIMTSZ
 40
0.0
  9
$DIMTOL
 70
     0
  9
$DIMLIM
 70
     0
  9
$DIMTIH
 70
     0
  9
$DIMTOH
 70
     0
  9
$DIMSE1
 70
     0
  9
$DIMSE2
 70
     0
  9
$DIMTAD
 70
     1
  9
$DIMZIN
 70
     8
  9
$DIMBLK
  1

  9
$DIMASO
 70
     1
  9
$DIMSHO
 70
     1
  9
$DIMPOST
  1

  9
$DIMAPOST
  1

  9
$DIMALT
 70
     0
  9
$DIMALTD
 70
     2
  9
$DIMALTF
 40
0.039
  9
$DIMLFAC
 40
1.0
  9
$DIMTOFL
 70
     1
  9
$DIMTVP
 40
0.0
  9
$DIMTIX
 70
     0
  9
$DIMSOXD
 70
     0
  9
$DIMSAH
 70
     1
  9
$DIMBLK1
  1
OPEN
  9
$DIMBLK2
  1
OPEN
  9
$DIMSTYLE
  2
IGA
  9
$DIMCLRD
 70
     0
  9
$DIMCLRE
 70
     0
  9
$DIMCLRT
 70
     0
  9
$DIMTFAC
 40
10.0
  9
$DIMGAP
 40
1.0
  9
$LUNITS
 70
     2
  9
$LUPREC
 70
     3
  9
$SKETCHINC
 40
0.1
  9
$FILLETRAD
 40
50.0
  9
$AUNITS
 70
     0
  9
$AUPREC
 70
     0
  9
$MENU
  1
acad
  9
$ELEVATION
 40
0.0
  9
$PELEVATION
 40
0.0
  9
$THICKNESS
 40
0.0
  9
$LIMCHECK
 70
     0
  9
$BLIPMODE
 70
     0
  9
$CHAMFERA
 40
0.5
  9
$CHAMFERB
 40
0.5
  9
$SKPOLY
 70
     0
  9
$TDCREATE
 40
2450746.5687540509
  9
$TDUPDATE
 40
2454953.7745373962
  9
$TDINDWG
 40
0.0128534954
  9
$TDUSRTIMER
 40
0.0128534954
  9
$USRTIMER
 70
     1
  9
$ANGBASE
 50
0.0
  9
$ANGDIR
 70
     0
  9
$PDMODE
 70
     0
  9
$PDSIZE
 40
0.0
  9
$PLINEWID
 40
0.0
  9
$COORDS
 70
     1
  9
$SPLFRAME
 70
     0
  9
$SPLINETYPE
 70
     6
  9
$SPLINESEGS
 70
     8
  9
$ATTDIA
 70
     0
  9
$ATTREQ
 70
     1
  9
$HANDLING
 70
 10241
  9
$HANDSEED
  5
7DC4
  9
$SURFTAB1
 70
     6
  9
$SURFTAB2
 70
     6
  9
$SURFTYPE
 70
     6
  9
$SURFU
 70
     6
  9
$SURFV
 70
     6
  9
$UCSNAME
  2

  9
$UCSORG
 10
0.0
 20
0.0
 30
0.0
  9
$UCSXDIR
 10
1.0
 20
0.0
 30
0.0
  9
$UCSYDIR
 10
0.0
 20
1.0
 30
0.0
  9
$PUCSNAME
  2

  9
$PUCSORG
 10
0.0
 20
0.0
 30
0.0
  9
$PUCSXDIR
 10
1.0
 20
0.0
 30
0.0
  9
$PUCSYDIR
 10
0.0
 20
1.0
 30
0.0
  9
$USERI1
 70
     0
  9
$USERI2
 70
     0
  9
$USERI3
 70
     0
  9
$USERI4
 70
     0
  9
$USERI5
 70
     0
  9
$USERR1
 40
0.0
  9
$USERR2
 40
0.0
  9
$USERR3
 40
0.0
  9
$USERR4
 40
0.0
  9
$USERR5
 40
0.0
  9
$WORLDVIEW
 70
     1
  9
$SHADEDGE
 70
     3
  9
$SHADEDIF
 70
    70
  9
$TILEMODE
 70
     1
  9
$MAXACTVP
 70
    16
  9
$PLIMCHECK
 70
     0
  9
$PEXTMIN
 10
1.0000000000000000E+020
 20
1.0000000000000000E+020
 30
1.0000000000000000E+020
  9
$PEXTMAX
 10
-1.0000000000000000E+020
 20
-1.0000000000000000E+020
 30
-1.0000000000000000E+020
  9
$PLIMMIN
 10
0.0
 20
0.0
  9
$PLIMMAX
 10
12.0
 20
9.0
  9
$UNITMODE
 70
     0
  9
$VISRETAIN
 70
     0
  9
$PLINEGEN
 70
     0
  9
$PSLTSCALE
 70
     1
  0
ENDSEC
  0
SECTION
  2
TABLES
  0
TABLE
  2
VPORT
 70
     2
  0
VPORT
  2
*ACTIVE
 70
     0
 10
0.0
 20
0.0
 11
1.0
 21
1.0
 12
9437.9954746499006
 22
4629.9199394653269
 13
0.0
 23
0.0
 14
10.0
 24
10.0
 15
10.0
 25
10.0
 16
0.0
 26
0.0
 36
1.0
 17
0.0
 27
0.0
 37
0.0
 40
7517.061441529765
 41
3.1666666666666661
 42
50.0
 43
0.0
 44
0.0
 50
0.0
 51
0.0
 71
     0
 72
   100
 73
     1
 74
     0
 75
     0
 76
     0
 77
     0
 78
     0
  0
ENDTAB
  0
TABLE
  2
LTYPE
 70
     2
  0
LTYPE
  2
CONTINUOUS
 70
     0
  3
Solid line
 72
    65
 73
     0
 40
0.0
  0
LTYPE
  2
CENTER
 70
     0
  3
____ _ ____ _ ____ _ ____ _ ____ _ ____ _ ____ 
 72
    65
 73
     4
 40
2.0
 49
1.25
 49
-0.25
 49
0.25
 49
-0.25
  0
ENDTAB
  0
TABLE
  2
LAYER
 70
     6
  0
LAYER
  2
0
 70
     0
 62
     7
  6
CONTINUOUS
  0
LAYER
  2
3
 70
     0
 62
     2
  6
CONTINUOUS
  0
LAYER
  2
2
 70
     0
 62
     3
  6
CENTER
  0
LAYER
  2
1
 70
     0
 62
     4
  6
CONTINUOUS
  0
LAYER
  2
4
 70
     0
 62
     7
  6
CONTINUOUS
  0
LAYER
  2
DEFPOINTS
 70
     0
 62
     7
  6
CONTINUOUS
  0
ENDTAB
  0
TABLE
  2
STYLE
 70
     1
  0
STYLE
  2
STANDARD
 70
     0
 40
0.0
 41
1.0
 50
0.0
 71
     0
 42
180.0
  3
simplex.shx
  4
extfont.shx
  0
ENDTAB
  0
TABLE
  2
VIEW
 70
     0
  0
ENDTAB
  0
TABLE
  2
UCS
 70
     0
  0
ENDTAB
  0
TABLE
  2
APPID
 70
     1
  0
APPID
  2
ACAD
 70
     0
  0
ENDTAB
  0
TABLE
  2
DIMSTYLE
 70
     1
  0
DIMSTYLE
  2
IGA
 70
     0
  3

  4

  5

  6
OPEN
  7
OPEN
 40
2.0
 41
2.0
 42
0.5
 43
10.0
 44
1.0
 45
0.0
 46
0.0
 47
1.0
 48
1.0
140
3.0
141
0.0
142
0.0
143
0.03937
144
1.0
145
0.0
146
10.0
147
1.0
 71
     0
 72
     0
 73
     0
 74
     0
 75
     0
 76
     0
 77
     1
 78
     8
170
     0
171
     2
172
     0
173
     1
174
     0
175
     0
176
     0
177
     0
178
     0
  0
ENDTAB
  0
ENDSEC
  0
SECTION
  2
BLOCKS
  0
BLOCK
  8
0
  2
$MODEL_SPACE
 70
     0
 10
0.0
 20
0.0
 30
0.0
  3
$MODEL_SPACE
  1

  0
ENDBLK
  5
1B
  8
0
  0
BLOCK
 67
     1
  8
0
  2
$PAPER_SPACE
 70
     0
 10
0.0
 20
0.0
 30
0.0
  3
$PAPER_SPACE
  1

  0
ENDBLK
  5
18
 67
     1
  8
0
  0
BLOCK
  8
0
  2
_OPEN
 70
     0
 10
0.0
 20
0.0
 30
0.0
  3
_OPEN
  1

  0
LINE
  5
7B0B
  8
0
  6
BYBLOCK
 62
     0
 10
-1.0
 20
0.166667
 30
0.0
 11
0.0
 21
0.0
 31
0.0
  0
LINE
  5
7B0C
  8
0
  6
BYBLOCK
 62
     0
 10
0.0
 20
0.0
 30
0.0
 11
-1.0
 21
-0.166667
 31
0.0
  0
LINE
  5
7B0D
  8
0
  6
BYBLOCK
 62
     0
 10
0.0
 20
0.0
 30
0.0
 11
-1.0
 21
0.0
 31
0.0
  0
ENDBLK
  5
7B0E
  8
0
  0
BLOCK
  8
0
  2
*D1
 70
     1
 10
0.0
 20
0.0
 30
0.0
  3
*D1
  1

  0
LINE
  5
7D19
  8
3
  6
CONTINUOUS
 62
     0
 10
2724.265277
 20
4126.6743399999996
 30
0.0
 11
2954.8596440000001
 21
4126.6743399999996
 31
0.0
  0
LINE
  5
7D1A
  8
3
  6
CONTINUOUS
 62
     0
 10
2724.265277
 20
3301.67434
 30
0.0
 11
2954.8596440000001
 21
3301.67434
 31
0.0
  0
LINE
  5
7D1B
  8
3
  6
CONTINUOUS
 62
     0
 10
2924.859644000001
 20
4066.67434
 30
0.0
 11
2924.859644000001
 21
3361.67434
 31
0.0
  0
INSERT
  5
7D1C
  8
3
  6
CONTINUOUS
 62
     0
  2
_OPEN
 10
2924.859644000001
 20
4126.6743399999996
 30
0.0
 41
60.0
 42
60.0
 43
60.0
 50
90.0
  0
INSERT
  5
7D1D
  8
3
  6
CONTINUOUS
 62
     0
  2
_OPEN
 10
2924.859644000001
 20
3301.67434
 30
0.0
 41
60.0
 42
60.0
 43
60.0
 50
270.0
  0
TEXT
  8
3
  40
90
  5
7DB2
  62
0
  72
0
  71
0
 10
2669.86
 20
3565.84
 30
0.000000
  1
825
  0
POINT
  5
7D1F
  8
DEFPOINTS
  6
CONTINUOUS
 62
     0
 10
2709.265277
 20
4126.6743399999996
 30
0.0
  0
POINT
  5
7D20
  8
DEFPOINTS
  6
CONTINUOUS
 62
     0
 10
2709.265277
 20
3301.67434
 30
0.0
  0
POINT
  5
7D21
  8
DEFPOINTS
  6
CONTINUOUS
 62
     0
 10
2924.859644000001
 20
3301.67434
 30
0.0
  0
ENDBLK
  5
7B1B
  8
0
  0
BLOCK
  8
0
  2
*D2
 70
     1
 10
0.0
 20
0.0
 30
0.0
  3
*D2
  1

  0
LINE
  5
7D22
  8
3
  6
CONTINUOUS
 62
     0
 10
2724.265277
 20
4126.6743399999996
 30
0.0
 11
3156.4216329999999
 21
4126.6743399999996
 31
0.0
  0
LINE
  5
7D23
  8
3
  6
CONTINUOUS
 62
     0
 10
2774.2015711676472
 20
3339.67434
 30
0.0
 11
3156.4216329999999
 21
3339.67434
 31
0.0
  0
LINE
  5
7D24
  8
3
  6
CONTINUOUS
 62
     0
 10
3126.4216329999999
 20
4066.6743399999991
 30
0.0
 11
3126.4216329999999
 21
3399.67434
 31
0.0
  0
INSERT
  5
7D25
  8
3
  6
CONTINUOUS
 62
     0
  2
_OPEN
 10
3126.4216329999999
 20
4126.6743399999996
 30
0.0
 41
60.0
 42
60.0
 43
60.0
 50
90.0
  0
INSERT
  5
7D26
  8
3
  6
CONTINUOUS
 62
     0
  2
_OPEN
 10
3126.4216329999999
 20
3339.67434
 30
0.0
 41
60.0
 42
60.0
 43
60.0
 50
270.0
  0
TEXT
  8
3
  40
90
  5
7DB3
  62
0
  72
0
  71
0
 10
2871.42
 20
3565.84
 30
0.000000
  1
787
  0
POINT
  5
7D28
  8
DEFPOINTS
  6
CONTINUOUS
 62
     0
 10
2709.265277
 20
4126.6743399999996
 30
0.0
  0
POINT
  5
7D29
  8
DEFPOINTS
  6
CONTINUOUS
 62
     0
 10
2759.2015711676459
 20
3339.67434
 30
0.0
  0
POINT
  5
7D2A
  8
DEFPOINTS
  6
CONTINUOUS
 62
     0
 10
3126.4216329999999
 20
3339.67434
 30
0.0
  0
ENDBLK
  5
7B28
  8
0
  0
BLOCK
  8
0
  2
*D3
 70
     1
 10
0.0
 20
0.0
 30
0.0
  3
*D3
  1

  0
LINE
  5
7D2B
  8
3
  6
CONTINUOUS
 62
     0
 10
2649.265277
 20
2644.67434
 30
0.0
 11
3156.4216329999999
 21
2644.6743399999991
 31
0.0
  0
LINE
  5
7D2C
  8
3
  6
CONTINUOUS
 62
     0
 10
3126.4216329999999
 20
3279.6743399999991
 30
0.0
 11
3126.4216329999999
 21
2704.6743399999991
 31
0.0
  0
INSERT
  5
7D2D
  8
3
  6
CONTINUOUS
 62
     0
  2
_OPEN
 10
3126.4216329999999
 20
3339.67434
 30
0.0
 41
60.0
 42
60.0
 43
60.0
 50
90.0
  0
INSERT
  5
7D2E
  8
3
  6
CONTINUOUS
 62
     0
  2
_OPEN
 10
3126.4216329999999
 20
2644.6743399999991
 30
0.0
 41
60.0
 42
60.0
 43
60.0
 50
270.0
  0
TEXT
  8
3
  40
90
  5
7DB4
  62
0
  72
0
  71
0
 10
2871.42
 20
2832.87
 30
0.000000
  1
695
  0
POINT
  5
7D30
  8
DEFPOINTS
  6
CONTINUOUS
 62
     0
 10
2759.2015711676459
 20
3339.67434
 30
0.0
  0
POINT
  5
7D31
  8
DEFPOINTS
  6
CONTINUOUS
 62
     0
 10
2634.265277
 20
2644.67434
 30
0.0
  0
POINT
  5
7D32
  8
DEFPOINTS
  6
CONTINUOUS
 62
     0
 10
3126.4216329999999
 20
2644.6743399999991
 30
0.0
  0
ENDBLK
  5
7B34
  8
0
  0
BLOCK
  8
0
  2
*D4
 70
     1
 10
0.0
 20
0.0
 30
0.0
  3
*D4
  1

  0
LINE
  5
7D33
  8
3
  6
CONTINUOUS
 62
     0
 10
2649.265277
 20
2644.67434
 30
0.0
 11
3154.752524
 21
2644.6743399999991
 31
0.0
  0
LINE
  5
7D34
  8
3
  6
CONTINUOUS
 62
     0
 10
2699.265277
 20
2519.67434
 30
0.0
 11
3154.752524
 21
2519.6743399999991
 31
0.0
  0
LINE
  5
7D35
  8
3
  6
CONTINUOUS
 62
     0
 10
3124.752524
 20
2704.6743399999991
 30
0.0
 11
3124.752524
 21
2764.6743399999991
 31
0.0
  0
LINE
  5
7D36
  8
3
  6
CONTINUOUS
 62
     0
 10
3124.752524
 20
2459.6743399999991
 30
0.0
 11
3124.752524
 21
2125.3886257142849
 31
0.0
  0
LINE
  5
7D37
  8
3
  6
CONTINUOUS
 62
     0
 10
3124.752524
 20
2644.6743399999991
 30
0.0
 11
3124.752524
 21
2519.6743399999991
 31
0.0
  0
INSERT
  5
7D38
  8
3
  6
CONTINUOUS
 62
     0
  2
_OPEN
 10
3124.752524
 20
2644.6743399999991
 30
0.0
 41
60.0
 42
60.0
 43
60.0
 50
270.0
  0
INSERT
  5
7D39
  8
3
  6
CONTINUOUS
 62
     0
  2
_OPEN
 10
3124.752524
 20
2519.6743399999991
 30
0.0
 41
60.0
 42
60.0
 43
60.0
 50
90.0
  0
TEXT
  8
3
  40
90
  5
7DB5
  62
0
  72
0
  71
0
 10
2869.75
 20
2103.23
 30
0.000000
  1
125
  0
POINT
  5
7D3B
  8
DEFPOINTS
  6
CONTINUOUS
 62
     0
 10
2634.265277
 20
2644.67434
 30
0.0
  0
POINT
  5
7D3C
  8
DEFPOINTS
  6
CONTINUOUS
 62
     0
 10
2684.265277
 20
2519.67434
 30
0.0
  0
POINT
  5
7D3D
  8
DEFPOINTS
  6
CONTINUOUS
 62
     0
 10
3124.752524
 20
2519.6743399999991
 30
0.0
  0
ENDBLK
  5
7C94
  8
0
  0
BLOCK
  8
0
  2
*D5
 70
     1
 10
0.0
 20
0.0
 30
0.0
  3
*D5
  1

  0
LINE
  5
7D3E
  8
3
  6
CONTINUOUS
 62
     0
 10
2724.265277
 20
4169.1743399999996
 30
0.0
 11
3358.1565810000011
 21
4169.1743399999996
 31
0.0
  0
LINE
  5
7D3F
  8
3
  6
CONTINUOUS
 62
     0
 10
2699.265277
 20
2519.67434
 30
0.0
 11
3358.1565810000002
 21
2519.6743399999991
 31
0.0
  0
LINE
  5
7D40
  8
3
  6
CONTINUOUS
 62
     0
 10
3328.1565810000002
 20
4109.1743399999996
 30
0.0
 11
3328.1565810000002
 21
2579.6743399999991
 31
0.0
  0
INSERT
  5
7D41
  8
3
  6
CONTINUOUS
 62
     0
  2
_OPEN
 10
3328.1565810000002
 20
4169.1743399999996
 30
0.0
 41
60.0
 42
60.0
 43
60.0
 50
90.0
  0
INSERT
  5
7D42
  8
3
  6
CONTINUOUS
 62
     0
  2
_OPEN
 10
3328.1565810000002
 20
2519.6743399999991
 30
0.0
 41
60.0
 42
60.0
 43
60.0
 50
270.0
  0
TEXT
  8
3
  40
90
  5
7DB6
  62
0
  72
0
  71
0
 10
3073.16
 20
3194.48
 30
0.000000
  1
1650
  0
POINT
  5
7D44
  8
DEFPOINTS
  6
CONTINUOUS
 62
     0
 10
2709.265277
 20
4169.1743399999996
 30
0.0
  0
POINT
  5
7D45
  8
DEFPOINTS
  6
CONTINUOUS
 62
     0
 10
2684.265277
 20
2519.67434
 30
0.0
  0
POINT
  5
7D46
  8
DEFPOINTS
  6
CONTINUOUS
 62
     0
 10
3328.1565810000002
 20
2519.6743399999991
 30
0.0
  0
ENDBLK
  5
7C3C
  8
0
  0
BLOCK
  8
0
  2
*D6
 70
     1
 10
0.0
 20
0.0
 30
0.0
  3
*D6
  1

  0
LINE
  5
7D47
  8
3
  6
CONTINUOUS
 62
     0
 10
984.26527699999986
 20
2504.67434
 30
0.0
 11
984.26527699999986
 21
2272.650862
 31
0.0
  0
LINE
  5
7D48
  8
3
  6
CONTINUOUS
 62
     0
 10
2114.265277
 20
2431.7904979999989
 30
0.0
 11
2114.265277
 21
2272.650862
 31
0.0
  0
LINE
  5
7D49
  8
3
  6
CONTINUOUS
 62
     0
 10
1044.265277
 20
2302.650862
 30
0.0
 11
2054.265277
 21
2302.650862
 31
0.0
  0
INSERT
  5
7D4A
  8
3
  6
CONTINUOUS
 62
     0
  2
_OPEN
 10
984.26527699999986
 20
2302.650862
 30
0.0
 41
60.0
 42
60.0
 43
60.0
 50
180.0
  0
INSERT
  5
7D4B
  8
3
  6
CONTINUOUS
 62
     0
  2
_OPEN
 10
2114.265277
 20
2302.650862
 30
0.0
 41
60.0
 42
60.0
 43
60.0
  0
TEXT
  8
3
  40
90
  5
7DB7
  62
0
  72
0
  71
0
 10
1434.71
 20
2218.35
 30
0.000000
  1
1130
  0
POINT
  5
7D4D
  8
DEFPOINTS
  6
CONTINUOUS
 62
     0
 10
984.26527699999986
 20
2519.67434
 30
0.0
  0
POINT
  5
7D4E
  8
DEFPOINTS
  6
CONTINUOUS
 62
     0
 10
2114.265277
 20
2446.7904979999998
 30
0.0
  0
POINT
  5
7D4F
  8
DEFPOINTS
  6
CONTINUOUS
 62
     0
 10
2114.265277
 20
2302.650862
 30
0.0
  0
ENDBLK
  5
7B5E
  8
0
  0
BLOCK
  8
0
  2
*D7
 70
     1
 10
0.0
 20
0.0
 30
0.0
  3
*D7
  1

  0
LINE
  5
7D50
  8
3
  6
CONTINUOUS
 62
     0
 10
2684.265277
 20
2504.67434
 30
0.0
 11
2684.265277
 21
2272.650862
 31
0.0
  0
LINE
  5
7D51
  8
3
  6
CONTINUOUS
 62
     0
 10
2174.2652769999991
 20
2302.650862
 30
0.0
 11
2624.265277
 21
2302.650862
 31
0.0
  0
INSERT
  5
7D52
  8
3
  6
CONTINUOUS
 62
     0
  2
_OPEN
 10
2114.265277
 20
2302.650862
 30
0.0
 41
60.0
 42
60.0
 43
60.0
 50
180.0
  0
INSERT
  5
7D53
  8
3
  6
CONTINUOUS
 62
     0
  2
_OPEN
 10
2684.265277
 20
2302.650862
 30
0.0
 41
60.0
 42
60.0
 43
60.0
  0
TEXT
  8
3
  40
90
  5
7DB8
  62
0
  72
0
  71
0
 10
2219.27
 20
2218.35
 30
0.000000
  1
570
  0
POINT
  5
7D55
  8
DEFPOINTS
  6
CONTINUOUS
 62
     0
 10
2114.265277
 20
2446.7904979999998
 30
0.0
  0
POINT
  5
7D56
  8
DEFPOINTS
  6
CONTINUOUS
 62
     0
 10
2684.265277
 20
2519.67434
 30
0.0
  0
POINT
  5
7D57
  8
DEFPOINTS
  6
CONTINUOUS
 62
     0
 10
2684.265277
 20
2302.650862
 30
0.0
  0
ENDBLK
  5
7B6A
  8
0
  0
BLOCK
  8
0
  2
*D8
 70
     1
 10
0.0
 20
0.0
 30
0.0
  3
*D8
  1

  0
LINE
  5
7D58
  8
3
  6
CONTINUOUS
 62
     0
 10
2709.265277
 20
4184.1743399999996
 30
0.0
 11
2709.265277
 21
4302.736918999999
 31
0.0
  0
LINE
  5
7D59
  8
3
  6
CONTINUOUS
 62
     0
 10
2114.265277
 20
4205.2851780000001
 30
0.0
 11
2114.265277
 21
4302.736918999999
 31
0.0
  0
LINE
  5
7D5A
  8
3
  6
CONTINUOUS
 62
     0
 10
2649.265277
 20
4272.736918999999
 30
0.0
 11
2174.2652769999991
 21
4272.736918999999
 31
0.0
  0
INSERT
  5
7D5B
  8
3
  6
CONTINUOUS
 62
     0
  2
_OPEN
 10
2709.265277
 20
4272.736918999999
 30
0.0
 41
60.0
 42
60.0
 43
60.0
  0
INSERT
  5
7D5C
  8
3
  6
CONTINUOUS
 62
     0
  2
_OPEN
 10
2114.265277
 20
4272.736918999999
 30
0.0
 41
60.0
 42
60.0
 43
60.0
 50
180.0
  0
TEXT
  8
3
  40
90
  5
7DB9
  62
0
  72
0
  71
0
 10
2228.36
 20
4188.44
 30
0.000000
  1
595
  0
POINT
  5
7D5E
  8
DEFPOINTS
  6
CONTINUOUS
 62
     0
 10
2709.265277
 20
4169.1743399999996
 30
0.0
  0
POINT
  5
7D5F
  8
DEFPOINTS
  6
CONTINUOUS
 62
     0
 10
2114.265277
 20
4190.2851779999992
 30
0.0
  0
POINT
  5
7D60
  8
DEFPOINTS
  6
CONTINUOUS
 62
     0
 10
2114.265277
 20
4272.736918999999
 30
0.0
  0
ENDBLK
  5
7B77
  8
0
  0
BLOCK
  8
0
  2
*D9
 70
     1
 10
0.0
 20
0.0
 30
0.0
  3
*D9
  1

  0
LINE
  5
7D61
  8
3
  6
CONTINUOUS
 62
     0
 10
4476.1603709999999
 20
4141.6743399999987
 30
0.0
 11
4476.1603709999999
 21
4302.736918999999
 31
0.0
  0
LINE
  5
7D62
  8
3
  6
CONTINUOUS
 62
     0
 10
5076.1603709999999
 20
4141.6743399999987
 30
0.0
 11
5076.1603709999999
 21
4302.736918999999
 31
0.0
  0
LINE
  5
7D63
  8
3
  6
CONTINUOUS
 62
     0
 10
4536.1603709999999
 20
4272.736918999999
 30
0.0
 11
5016.1603709999999
 21
4272.736918999999
 31
0.0
  0
INSERT
  5
7D64
  8
3
  6
CONTINUOUS
 62
     0
  2
_OPEN
 10
4476.1603709999999
 20
4272.736918999999
 30
0.0
 41
60.0
 42
60.0
 43
60.0
 50
180.0
  0
INSERT
  5
7D65
  8
3
  6
CONTINUOUS
 62
     0
  2
_OPEN
 10
5076.1603709999999
 20
4272.736918999999
 30
0.0
 41
60.0
 42
60.0
 43
60.0
  0
TEXT
  8
3
  40
90
  5
7DBA
  62
0
  72
0
  71
0
 10
4583.85
 20
4188.44
 30
0.000000
  1
600
  0
POINT
  5
7D67
  8
DEFPOINTS
  6
CONTINUOUS
 62
     0
 10
4476.1603709999999
 20
4126.6743399999996
 30
0.0
  0
POINT
  5
7D68
  8
DEFPOINTS
  6
CONTINUOUS
 62
     0
 10
5076.1603709999999
 20
4126.6743399999996
 30
0.0
  0
POINT
  5
7D69
  8
DEFPOINTS
  6
CONTINUOUS
 62
     0
 10
5076.1603709999999
 20
4272.736918999999
 30
0.0
  0
ENDBLK
  5
7B90
  8
0
  0
BLOCK
  8
0
  2
*D10
 70
     1
 10
0.0
 20
0.0
 30
0.0
  3
*D10
  1

  0
LINE
  5
7D6A
  8
3
  6
CONTINUOUS
 62
     0
 10
5095.1603709999999
 20
3764.67434
 30
0.0
 11
5379.6412150000006
 21
3764.67434
 31
0.0
  0
LINE
  5
7D6B
  8
3
  6
CONTINUOUS
 62
     0
 10
5095.1603709999999
 20
2914.67434
 30
0.0
 11
5379.6412150000006
 21
2914.6743399999991
 31
0.0
  0
LINE
  5
7D6C
  8
3
  6
CONTINUOUS
 62
     0
 10
5349.6412150000006
 20
3704.6743399999991
 30
0.0
 11
5349.6412150000006
 21
2974.6743399999991
 31
0.0
  0
INSERT
  5
7D6D
  8
3
  6
CONTINUOUS
 62
     0
  2
_OPEN
 10
5349.6412150000006
 20
3764.67434
 30
0.0
 41
60.0
 42
60.0
 43
60.0
 50
90.0
  0
INSERT
  5
7D6E
  8
3
  6
CONTINUOUS
 62
     0
  2
_OPEN
 10
5349.6412150000006
 20
2914.6743399999991
 30
0.0
 41
60.0
 42
60.0
 43
60.0
 50
270.0
  0
TEXT
  8
3
  40
90
  5
7DBB
  62
0
  72
0
  71
0
 10
5094.64
 20
3181.89
 30
0.000000
  1
φ850
  0
POINT
  5
7D70
  8
DEFPOINTS
  6
CONTINUOUS
 62
     0
 10
5080.1603709999999
 20
3764.67434
 30
0.0
  0
POINT
  5
7D71
  8
DEFPOINTS
  6
CONTINUOUS
 62
     0
 10
5080.1603709999999
 20
2914.67434
 30
0.0
  0
POINT
  5
7D72
  8
DEFPOINTS
  6
CONTINUOUS
 62
     0
 10
5349.6412150000006
 20
2914.6743399999991
 30
0.0
  0
ENDBLK
  5
7C9F
  8
0
  0
BLOCK
  8
0
  2
*D11
 70
     1
 10
0.0
 20
0.0
 30
0.0
  3
*D11
  1

  0
LINE
  5
7C74
  8
0
  6
BYBLOCK
 62
     0
 10
5080.1603709999999
 20
3779.67434
 30
0.0
 11
5080.1603709999999
 21
4491.5630490000003
 31
0.0
  0
LINE
  5
7C75
  8
0
  6
BYBLOCK
 62
     0
 10
4776.1603709999999
 20
4425.5482729999994
 30
0.0
 11
4776.1603709999999
 21
4491.5630490000003
 31
0.0
  0
LINE
  5
7C76
  8
0
  6
BYBLOCK
 62
     0
 10
5020.1603709999999
 20
4461.5630490000003
 30
0.0
 11
4836.1603709999999
 21
4461.5630490000003
 31
0.0
  0
TEXT
  5
7C77
  8
3
 62
     0
 10
4810.3032281428559
 20
4493.4839707610299
 30
0.0
 40
90.0
  1
304
  0
INSERT
  5
7C78
  8
0
  6
BYBLOCK
 62
     0
  2
_OPEN
 10
5080.1603709999999
 20
4461.5630490000003
 30
0.0
 41
60.0
 42
60.0
 43
60.0
  0
INSERT
  5
7C79
  8
0
  6
BYBLOCK
 62
     0
  2
_OPEN
 10
4776.1603709999999
 20
4461.5630490000003
 30
0.0
 41
60.0
 42
60.0
 43
60.0
 50
180.0
  0
POINT
  5
7C7A
  8
DEFPOINTS
  6
BYBLOCK
 62
     0
 10
5080.1603709999999
 20
3764.67434
 30
0.0
  0
POINT
  5
7C7B
  8
DEFPOINTS
  6
BYBLOCK
 62
     0
 10
4776.1603709999999
 20
4410.5482729999994
 30
0.0
  0
POINT
  5
7C7C
  8
DEFPOINTS
  6
BYBLOCK
 62
     0
 10
4776.1603709999999
 20
4461.5630490000003
 30
0.0
  0
ENDBLK
  5
7C7D
  8
0
  0
BLOCK
  8
0
  2
*D12
 70
     1
 10
0.0
 20
0.0
 30
0.0
  3
*D12
  1

  0
LINE
  5
7D73
  8
3
  6
CONTINUOUS
 62
     0
 10
4216.160370999999
 20
4009.67434
 30
0.0
 11
4216.160370999999
 21
4491.5630490000003
 31
0.0
  0
LINE
  5
7D74
  8
3
  6
CONTINUOUS
 62
     0
 10
4716.160370999999
 20
4461.5630490000003
 30
0.0
 11
4276.1603709999999
 21
4461.5630490000003
 31
0.0
  0
INSERT
  5
7D75
  8
3
  6
CONTINUOUS
 62
     0
  2
_OPEN
 10
4776.1603709999999
 20
4461.5630490000003
 30
0.0
 41
60.0
 42
60.0
 43
60.0
  0
INSERT
  5
7D76
  8
3
  6
CONTINUOUS
 62
     0
  2
_OPEN
 10
4216.160370999999
 20
4461.5630490000003
 30
0.0
 41
60.0
 42
60.0
 43
60.0
 50
180.0
  0
TEXT
  8
3
  40
90
  5
7DBC
  62
0
  72
0
  71
0
 10
4316.16
 20
4452.26
 30
0.000000
  1
MAX
  0
TEXT
  8
3
  40
90
  5
7DBD
  62
0
  72
0
  71
0
 10
4316.16
 20
4335.26
 30
0.000000
  1
610
  0
POINT
  5
7D78
  8
DEFPOINTS
  6
CONTINUOUS
 62
     0
 10
4776.1603709999999
 20
4410.5482729999994
 30
0.0
  0
POINT
  5
7D79
  8
DEFPOINTS
  6
CONTINUOUS
 62
     0
 10
4216.160370999999
 20
3994.67434
 30
0.0
  0
POINT
  5
7D7A
  8
DEFPOINTS
  6
CONTINUOUS
 62
     0
 10
4216.160370999999
 20
4461.5630490000003
 30
0.0
  0
ENDBLK
  5
7C87
  8
0
  0
BLOCK
  8
0
  2
*D13
 70
     1
 10
0.0
 20
0.0
 30
0.0
  3
*D13
  1

  0
LINE
  5
7D7B
  8
3
  6
CONTINUOUS
 62
     0
 10
4193.1603709999999
 20
2504.67434
 30
0.0
 11
4193.1603709999999
 21
2251.7738100000001
 31
0.0
  0
LINE
  5
7D7C
  8
3
  6
CONTINUOUS
 62
     0
 10
4776.1603709999999
 20
2398.3250449999991
 30
0.0
 11
4776.1603709999999
 21
2251.7738100000001
 31
0.0
  0
LINE
  5
7D7D
  8
3
  6
CONTINUOUS
 62
     0
 10
4253.160370999999
 20
2281.7738100000001
 30
0.0
 11
4716.160370999999
 21
2281.7738100000001
 31
0.0
  0
INSERT
  5
7D7E
  8
3
  6
CONTINUOUS
 62
     0
  2
_OPEN
 10
4193.1603709999999
 20
2281.7738100000001
 30
0.0
 41
60.0
 42
60.0
 43
60.0
 50
180.0
  0
INSERT
  5
7D7F
  8
3
  6
CONTINUOUS
 62
     0
  2
_OPEN
 10
4776.1603709999999
 20
2281.7738100000001
 30
0.0
 41
60.0
 42
60.0
 43
60.0
  0
TEXT
  8
3
  40
90
  5
7DBE
  62
0
  72
0
  71
0
 10
4325.60
 20
2197.47
 30
0.000000
  1
583
  0
POINT
  5
7D81
  8
DEFPOINTS
  6
CONTINUOUS
 62
     0
 10
4193.1603709999999
 20
2519.67434
 30
0.0
  0
POINT
  5
7D82
  8
DEFPOINTS
  6
CONTINUOUS
 62
     0
 10
4776.1603709999999
 20
2413.325045
 30
0.0
  0
POINT
  5
7D83
  8
DEFPOINTS
  6
CONTINUOUS
 62
     0
 10
4776.1603709999999
 20
2281.7738100000001
 30
0.0
  0
ENDBLK
  5
7C5D
  8
0
  0
BLOCK
  8
0
  2
*D14
 70
     1
 10
0.0
 20
0.0
 30
0.0
  3
*D14
  1

  0
LINE
  5
7D84
  8
3
  6
CONTINUOUS
 62
     0
 10
5243.1603709999999
 20
2504.67434
 30
0.0
 11
5243.1603709999999
 21
2251.7738100000001
 31
0.0
  0
LINE
  5
7D85
  8
3
  6
CONTINUOUS
 62
     0
 10
4836.1603709999999
 20
2281.7738100000001
 30
0.0
 11
5183.1603709999999
 21
2281.7738100000001
 31
0.0
  0
INSERT
  5
7D86
  8
3
  6
CONTINUOUS
 62
     0
  2
_OPEN
 10
4776.1603709999999
 20
2281.7738100000001
 30
0.0
 41
60.0
 42
60.0
 43
60.0
 50
180.0
  0
INSERT
  5
7D87
  8
3
  6
CONTINUOUS
 62
     0
  2
_OPEN
 10
5243.1603709999999
 20
2281.7738100000001
 30
0.0
 41
60.0
 42
60.0
 43
60.0
  0
TEXT
  8
3
  40
90
  5
7DBF
  62
0
  72
0
  71
0
 10
4829.66
 20
2197.47
 30
0.000000
  1
467
  0
POINT
  5
7D89
  8
DEFPOINTS
  6
CONTINUOUS
 62
     0
 10
4776.1603709999999
 20
2413.325045
 30
0.0
  0
POINT
  5
7D8A
  8
DEFPOINTS
  6
CONTINUOUS
 62
     0
 10
5243.1603709999999
 20
2519.67434
 30
0.0
  0
POINT
  5
7D8B
  8
DEFPOINTS
  6
CONTINUOUS
 62
     0
 10
5243.1603709999999
 20
2281.7738100000001
 30
0.0
  0
ENDBLK
  5
7C52
  8
0
  0
BLOCK
  8
0
  2
*D15
 70
     1
 10
0.0
 20
0.0
 30
0.0
  3
*D15
  1

  0
LINE
  5
7D8C
  8
3
  6
CONTINUOUS
 62
     0
 10
984.26527699999986
 20
6449.1559639999996
 30
0.0
 11
984.26527699999986
 21
6584.637479
 31
0.0
  0
LINE
  5
7D8D
  8
3
  6
CONTINUOUS
 62
     0
 10
2684.265277
 20
6449.1559639999996
 30
0.0
 11
2684.265277
 21
6584.637479
 31
0.0
  0
LINE
  5
7D8E
  8
3
  6
CONTINUOUS
 62
     0
 10
1044.265277
 20
6554.637479
 30
0.0
 11
2624.265277
 21
6554.637479
 31
0.0
  0
INSERT
  5
7D8F
  8
3
  6
CONTINUOUS
 62
     0
  2
_OPEN
 10
984.26527699999986
 20
6554.637479
 30
0.0
 41
60.0
 42
60.0
 43
60.0
 50
180.0
  0
INSERT
  5
7D90
  8
3
  6
CONTINUOUS
 62
     0
  2
_OPEN
 10
2684.265277
 20
6554.637479
 30
0.0
 41
60.0
 42
60.0
 43
60.0
  0
TEXT
  8
3
  40
90
  5
7DC0
  62
0
  72
0
  71
0
 10
1598.48
 20
6470.34
 30
0.000000
  1
1700
  0
POINT
  5
7D92
  8
DEFPOINTS
  6
CONTINUOUS
 62
     0
 10
984.26527699999986
 20
6434.1559639999996
 30
0.0
  0
POINT
  5
7D93
  8
DEFPOINTS
  6
CONTINUOUS
 62
     0
 10
2684.265277
 20
6434.1559639999996
 30
0.0
  0
POINT
  5
7D94
  8
DEFPOINTS
  6
CONTINUOUS
 62
     0
 10
2684.265277
 20
6554.637479
 30
0.0
  0
ENDBLK
  5
7BE1
  8
0
  0
BLOCK
  8
0
  2
*D16
 70
     1
 10
0.0
 20
0.0
 30
0.0
  3
*D16
  1

  0
LINE
  5
7D95
  8
3
  6
CONTINUOUS
 62
     0
 10
2699.265277
 20
6434.1559639999996
 30
0.0
 11
2967.457276000001
 21
6434.1559639999996
 31
0.0
  0
LINE
  5
7D96
  8
3
  6
CONTINUOUS
 62
     0
 10
2699.265277
 20
5384.1559640000014
 30
0.0
 11
2967.457276000001
 21
5384.1559640000014
 31
0.0
  0
LINE
  5
7D97
  8
3
  6
CONTINUOUS
 62
     0
 10
2937.457276000001
 20
6374.1559639999996
 30
0.0
 11
2937.457276000001
 21
5444.1559640000014
 31
0.0
  0
INSERT
  5
7D98
  8
3
  6
CONTINUOUS
 62
     0
  2
_OPEN
 10
2937.457276000001
 20
6434.1559639999996
 30
0.0
 41
60.0
 42
60.0
 43
60.0
 50
90.0
  0
INSERT
  5
7D99
  8
3
  6
CONTINUOUS
 62
     0
  2
_OPEN
 10
2937.457276000001
 20
5384.1559640000014
 30
0.0
 41
60.0
 42
60.0
 43
60.0
 50
270.0
  0
TEXT
  8
3
  40
90
  5
7DC1
  62
0
  72
0
  71
0
 10
2682.46
 20
5740.74
 30
0.000000
  1
1050
  0
POINT
  5
7D9B
  8
DEFPOINTS
  6
CONTINUOUS
 62
     0
 10
2684.265277
 20
6434.1559639999996
 30
0.0
  0
POINT
  5
7D9C
  8
DEFPOINTS
  6
CONTINUOUS
 62
     0
 10
2684.265277
 20
5384.1559640000014
 30
0.0
  0
POINT
  5
7D9D
  8
DEFPOINTS
  6
CONTINUOUS
 62
     0
 10
2937.457276000001
 20
5384.1559640000014
 30
0.0
  0
ENDBLK
  5
7BFA
  8
0
  0
BLOCK
  8
0
  2
*D17
 70
     1
 10
0.0
 20
0.0
 30
0.0
  3
*D17
  1

  0
LINE
  5
7D9E
  8
3
  6
CONTINUOUS
 62
     0
 10
1450.261051
 20
3354.67434
 30
0.0
 11
1450.261051
 21
4302.736918999999
 31
0.0
  0
LINE
  5
7D9F
  8
3
  6
CONTINUOUS
 62
     0
 10
2054.265277
 20
4272.736918999999
 30
0.0
 11
1510.261051
 21
4272.736918999999
 31
0.0
  0
INSERT
  5
7DA0
  8
3
  6
CONTINUOUS
 62
     0
  2
_OPEN
 10
2114.265277
 20
4272.736918999999
 30
0.0
 41
60.0
 42
60.0
 43
60.0
  0
INSERT
  5
7DA1
  8
3
  6
CONTINUOUS
 62
     0
  2
_OPEN
 10
1450.261051
 20
4272.736918999999
 30
0.0
 41
60.0
 42
60.0
 43
60.0
 50
180.0
  0
TEXT
  8
3
  40
90
  5
7DC2
  62
0
  72
0
  71
0
 10
1602.26
 20
4188.44
 30
0.000000
  1
664
  0
POINT
  5
7DA3
  8
DEFPOINTS
  6
CONTINUOUS
 62
     0
 10
2114.265277
 20
4190.2851779999992
 30
0.0
  0
POINT
  5
7DA4
  8
DEFPOINTS
  6
CONTINUOUS
 62
     0
 10
1450.261051
 20
3339.67434
 30
0.0
  0
POINT
  5
7DA5
  8
DEFPOINTS
  6
CONTINUOUS
 62
     0
 10
1450.261051
 20
4272.736918999999
 30
0.0
  0
ENDBLK
  5
7C47
  8
0
  0
BLOCK
  8
0
  2
*D18
 70
     1
 10
0.0
 20
0.0
 30
0.0
  3
*D18
  1

  0
LINE
  5
7DA6
  8
3
 62
     0
 10
2709.265277
 20
4184.1743399999996
 30
0.0
 11
2709.265277
 21
4483.9558070928069
 31
0.0
  0
LINE
  5
7DA7
  8
3
 62
     0
 10
984.26527699999986
 20
2634.67434
 30
0.0
 11
984.26527699999997
 21
4483.9558070928069
 31
0.0
  0
LINE
  5
7DA8
  8
3
 62
     0
 10
2649.265277
 20
4453.9558070928069
 30
0.0
 11
1044.265277
 21
4453.9558070928069
 31
0.0
  0
INSERT
  5
7DA9
  8
3
 62
     0
  2
_OPEN
 10
2709.265277
 20
4453.9558070928069
 30
0.0
 41
60.0
 42
60.0
 43
60.0
  0
INSERT
  5
7DAA
  8
3
 62
     0
  2
_OPEN
 10
984.26527699999997
 20
4453.9558070928069
 30
0.0
 41
60.0
 42
60.0
 43
60.0
 50
180.0
  0
TEXT
  8
3
  40
90
  5
7DC3
  62
0
  72
0
  71
0
 10
1718.40
 20
4369.66
 30
0.000000
  1
1725
  0
POINT
  5
7DAC
  8
DEFPOINTS
 62
     0
 10
2709.265277
 20
4169.1743399999996
 30
0.0
  0
POINT
  5
7DAD
  8
DEFPOINTS
 62
     0
 10
984.26527699999986
 20
2619.67434
 30
0.0
  0
POINT
  5
7DAE
  8
DEFPOINTS
 62
     0
 10
984.26527699999997
 20
4453.9558070928069
 30
0.0
  0
ENDBLK
  5
7CAB
  8
0
  0
BLOCK
  8
0
  2
_DOT
 70
     0
 10
0.0
 20
0.0
 30
0.0
  3
_DOT
  1

  0
POLYLINE
  5
7CCB
  8
0
  6
BYBLOCK
 62
     0
 66
     1
 10
0.0
 20
0.0
 30
0.0
 70
     1
 40
0.5
 41
0.5
  0
VERTEX
  5
7DAF
  8
0
  6
BYBLOCK
 62
     0
 10
-0.25
 20
0.0
 30
0.0
 42
1.0
  0
VERTEX
  5
7DB0
  8
0
  6
BYBLOCK
 62
     0
 10
0.25
 20
0.0
 30
0.0
 42
1.0
  0
SEQEND
  5
7DB1
  8
0
  6
BYBLOCK
 62
     0
  0
LINE
  5
7CCC
  8
0
  6
BYBLOCK
 62
     0
 10
-0.5
 20
0.0
 30
0.0
 11
-1.0
 21
0.0
 31
0.0
  0
ENDBLK
  5
7CCE
  8
0
  0
ENDSEC
  0
SECTION
  2
ENTITIES
  0
LINE
  5
7A78
  8
1
  6
CONTINUOUS
 10
4366.1603709999999
 20
3994.67434
 30
0.0
 11
4216.160370999999
 21
3994.67434
 31
0.0
  0
LINE
  5
7A79
  8
1
  6
CONTINUOUS
 10
5128.160370999999
 20
2744.67434
 30
0.0
 11
4216.160370999999
 21
2744.67434
 31
0.0
  0
LINE
  5
7A7A
  8
1
  6
CONTINUOUS
 10
5243.1603709999999
 20
2519.67434
 30
0.0
 11
4193.1603709999999
 21
2519.67434
 31
0.0
  0
LINE
  5
7A7B
  8
1
  6
CONTINUOUS
 10
5243.1603709999999
 20
2619.67434
 30
0.0
 11
4193.1603709999999
 21
2619.67434
 31
0.0
  0
LINE
  5
7A7C
  8
1
  6
CONTINUOUS
 10
2170.5552769999999
 20
3147.75434
 30
0.0
 11
1232.745277
 21
2872.7043399999998
 31
0.0
  0
LINE
  5
7A7D
  8
1
  6
CONTINUOUS
 10
2011.4852769999991
 20
3511.2443399999988
 30
0.0
 11
1173.0952769999999
 21
3009.0143400000002
 31
0.0
  0
LINE
  5
7A7E
  8
1
  6
CONTINUOUS
 10
1964.265277
 20
3994.67434
 30
0.0
 11
1054.265277
 21
3044.67434
 31
0.0
  0
LINE
  5
7A80
  8
1
  6
CONTINUOUS
 10
2634.265277
 20
2644.67434
 30
0.0
 11
1034.265277
 21
2644.67434
 31
0.0
  0
LINE
  5
7A82
  8
1
  6
CONTINUOUS
 10
2634.2652769999991
 20
2744.67434
 30
0.0
 11
1034.265277
 21
2744.67434
 31
0.0
  0
ARC
  5
7A83
  8
1
  6
CONTINUOUS
 10
2070.265277
 20
3383.67434
 30
0.0
 40
621.54999999999995
 50
184.75999999999991
 51
276.5
  0
ARC
  5
7A84
  8
1
  6
CONTINUOUS
 10
2166.265277
 20
3391.67434
 30
0.0
 40
717.88999999999987
 50
94.150000000000006
 51
184.75999999999991
  0
LINE
  5
7A85
  8
1
  6
CONTINUOUS
 10
2684.265277
 20
2519.67434
 30
0.0
 11
984.26527699999986
 21
2519.67434
 31
0.0
  0
LINE
  5
7A86
  8
1
  6
CONTINUOUS
 10
2684.265277
 20
2619.67434
 30
0.0
 11
984.26527699999986
 21
2619.67434
 31
0.0
  0
LINE
  5
7A87
  8
2
  6
CENTER
 10
1211.6452769999989
 20
2869.67434
 30
0.0
 11
1211.6452769999989
 21
3019.67434
 31
0.0
  0
LINE
  5
7A88
  8
1
  6
CONTINUOUS
 10
1054.265277
 20
3044.67434
 30
0.0
 11
1054.265277
 21
2744.67434
 31
0.0
  0
CIRCLE
  5
7A89
  8
1
  6
CONTINUOUS
 10
1211.6452769999989
 20
2944.67434
 30
0.0
 40
75.0
  0
ARC
  5
7A8A
  8
1
  6
CONTINUOUS
 10
1211.6452769999989
 20
2944.67434
 30
0.0
 40
162.0
 50
324.97000000000003
 51
215.02999999999989
  0
LINE
  5
7A8C
  8
2
  6
CENTER
 10
1136.6452769999989
 20
2944.67434
 30
0.0
 11
1286.6452769999989
 21
2944.67434
 31
0.0
  0
LINE
  5
7A8D
  8
1
  6
CONTINUOUS
 10
1057.6452769999989
 20
2744.67434
 30
0.0
 11
1365.6452770000001
 21
2744.67434
 31
0.0
  0
LINE
  5
7A8E
  8
1
  6
CONTINUOUS
 10
984.26527699999986
 20
2619.67434
 30
0.0
 11
984.26527699999986
 21
2519.67434
 31
0.0
  0
LINE
  5
7A8F
  8
1
  6
CONTINUOUS
 10
1057.6452769999989
 20
2802.67434
 30
0.0
 11
1078.9852769999991
 21
2851.69434
 31
0.0
  0
LINE
  5
7A90
  8
1
  6
CONTINUOUS
 10
1057.6452769999989
 20
2744.67434
 30
0.0
 11
1057.6452769999989
 21
2802.67434
 31
0.0
  0
LINE
  5
7A91
  8
1
  6
CONTINUOUS
 10
1034.265277
 20
2744.67434
 30
0.0
 11
1034.265277
 21
2644.67434
 31
0.0
  0
LINE
  5
7A92
  8
1
  6
CONTINUOUS
 10
1365.6452770000001
 20
2744.67434
 30
0.0
 11
1365.6452770000001
 21
2802.67434
 31
0.0
  0
LINE
  5
7A93
  8
1
  6
CONTINUOUS
 10
1365.6452770000001
 20
2802.67434
 30
0.0
 11
1344.2952769999999
 21
2851.69434
 31
0.0
  0
ARC
  5
7A94
  8
1
  6
CONTINUOUS
 10
2079.265277
 20
3304.67434
 30
0.0
 40
542.03999999999985
 50
276.5
 51
359.67999999999989
  0
LINE
  5
7A95
  8
1
  6
CONTINUOUS
 10
2709.265277
 20
4126.6743399999996
 30
0.0
 11
2114.265277
 21
4107.6743399999987
 31
0.0
  0
LINE
  5
7A96
  8
1
  6
CONTINUOUS
 10
2534.265277
 20
2744.67434
 30
0.0
 11
2534.265277
 21
3994.67434
 31
0.0
  0
LINE
  5
7A98
  8
1
  6
CONTINUOUS
 10
2534.265277
 20
3994.67434
 30
0.0
 11
1964.265277
 21
3994.67434
 31
0.0
  0
CIRCLE
  5
7A99
  8
1
  6
CONTINUOUS
 10
2114.265277
 20
3339.67434
 30
0.0
 40
200.0
  0
LINE
  5
7A9A
  8
2
  6
CENTER
 10
5160.6768249999986
 20
3339.67434
 30
0.0
 11
4146.5680119999988
 21
3339.67434
 31
0.0
  0
LINE
  5
7A9B
  8
2
  6
CENTER
 10
2114.265277
 20
6390.9881109999997
 30
0.0
 11
2114.265277
 21
5333.561721
 31
0.0
  0
LINE
  5
7A9C
  8
1
  6
CONTINUOUS
 10
4216.160370999999
 20
3994.67434
 30
0.0
 11
4216.160370999999
 21
2744.67434
 31
0.0
  0
LINE
  5
7A9F
  8
1
  6
CONTINUOUS
 10
2684.265277
 20
2619.67434
 30
0.0
 11
2684.265277
 21
2519.67434
 31
0.0
  0
LINE
  5
7AA0
  8
1
  6
CONTINUOUS
 10
2634.265277
 20
2744.67434
 30
0.0
 11
2634.265277
 21
2644.67434
 31
0.0
  0
LINE
  5
7AA2
  8
1
  6
CONTINUOUS
 10
4193.1603709999999
 20
2619.67434
 30
0.0
 11
4193.1603709999999
 21
2519.67434
 31
0.0
  0
LINE
  5
7AA3
  8
1
  6
CONTINUOUS
 10
2669.265277
 20
3301.67434
 30
0.0
 11
2669.265277
 21
4126.6743399999996
 31
0.0
  0
LINE
  5
7AA4
  8
1
  6
CONTINUOUS
 10
2709.265277
 20
3259.1743399999991
 30
0.0
 11
2709.265277
 21
4169.1743399999996
 31
0.0
  0
LINE
  5
7AA5
  8
1
  6
CONTINUOUS
 10
2621.2952770000002
 20
3301.67434
 30
0.0
 11
2709.265277
 21
3301.67434
 31
0.0
  0
LINE
  5
7AA6
  8
1
  6
CONTINUOUS
 10
1286.6452769999989
 20
5499.1559639999996
 30
0.0
 11
1914.265277
 21
5499.1559639999996
 31
0.0
  0
LINE
  5
7AA7
  8
1
  6
CONTINUOUS
 10
1054.265277
 20
5557.1559639999996
 30
0.0
 11
2534.265277
 21
5557.1559639999996
 31
0.0
  0
LINE
  5
7AA8
  8
1
  6
CONTINUOUS
 10
1054.265277
 20
5407.1559640000014
 30
0.0
 11
2534.265277
 21
5407.1559640000014
 31
0.0
  0
LINE
  5
7AA9
  8
1
  6
CONTINUOUS
 10
1034.265277
 20
6319.1559640000014
 30
0.0
 11
2634.265277
 21
6319.1559640000014
 31
0.0
  0
LINE
  5
7AAA
  8
1
  6
CONTINUOUS
 10
1448.3752770000001
 20
5667.1559639999996
 30
0.0
 11
2709.265277
 21
5667.1559639999996
 31
0.0
  0
LINE
  5
7AAB
  8
1
  6
CONTINUOUS
 10
1448.3752770000001
 20
6267.1559639999996
 30
0.0
 11
2709.265277
 21
6267.1559639999996
 31
0.0
  0
LINE
  5
7AAC
  8
1
  6
CONTINUOUS
 10
984.26527699999986
 20
6434.1559639999996
 30
0.0
 11
984.26527699999986
 21
5384.1559640000014
 31
0.0
  0
LINE
  5
7AAD
  8
1
  6
CONTINUOUS
 10
1448.3752770000001
 20
5667.1559639999996
 30
0.0
 11
1448.3752770000001
 21
6267.1559639999996
 31
0.0
  0
LINE
  5
7AAE
  8
1
  6
CONTINUOUS
 10
1034.265277
 20
6434.1559639999996
 30
0.0
 11
1034.265277
 21
5384.1559640000014
 31
0.0
  0
LINE
  5
7AAF
  8
1
  6
CONTINUOUS
 10
1049.6452769999989
 20
5605.1559640000014
 30
0.0
 11
1049.6452769999989
 21
6090.1559639999996
 31
0.0
  0
LINE
  5
7AB0
  8
1
  6
CONTINUOUS
 10
1373.6452770000001
 20
5605.1559640000014
 30
0.0
 11
1373.6452770000001
 21
6090.1559639999996
 31
0.0
  0
LINE
  5
7AB1
  8
1
  6
CONTINUOUS
 10
1286.6452769999989
 20
5447.1559640000014
 30
0.0
 11
1136.6452769999989
 21
5447.1559640000014
 31
0.0
  0
LINE
  5
7AB2
  8
1
  6
CONTINUOUS
 10
1286.6452769999989
 20
5517.1559639999996
 30
0.0
 11
1136.6452769999989
 21
5517.1559639999996
 31
0.0
  0
LINE
  5
7AB3
  8
1
  6
CONTINUOUS
 10
1049.6452769999989
 20
5605.1559640000014
 30
0.0
 11
1373.6452770000001
 21
5605.1559640000014
 31
0.0
  0
LINE
  5
7AB4
  8
1
  6
CONTINUOUS
 10
984.26527699999986
 20
5384.1559640000014
 30
0.0
 11
1034.265277
 21
5384.1559640000014
 31
0.0
  0
LINE
  5
7AB5
  8
1
  6
CONTINUOUS
 10
1136.6452769999989
 20
5447.1559640000014
 30
0.0
 11
1136.6452769999989
 21
5517.1559639999996
 31
0.0
  0
LINE
  5
7AB6
  8
1
  6
CONTINUOUS
 10
1054.265277
 20
5557.1559639999996
 30
0.0
 11
1054.265277
 21
5407.1559640000014
 31
0.0
  0
LINE
  5
7AB7
  8
1
  6
CONTINUOUS
 10
1034.265277
 20
5499.1559639999996
 30
0.0
 11
1136.6452769999989
 21
5499.1559639999996
 31
0.0
  0
LINE
  5
7AB8
  8
1
  6
CONTINUOUS
 10
1190.6452769999989
 20
5517.1559639999996
 30
0.0
 11
1190.6452769999989
 21
5605.1559640000014
 31
0.0
  0
LINE
  5
7AB9
  8
1
  6
CONTINUOUS
 10
1232.6452770000001
 20
5517.1559639999996
 30
0.0
 11
1232.6452770000001
 21
5605.1559640000014
 31
0.0
  0
LINE
  5
7ABA
  8
1
  6
CONTINUOUS
 10
1286.6452769999989
 20
5447.1559640000014
 30
0.0
 11
1286.6452769999989
 21
5517.1559639999996
 31
0.0
  0
LINE
  5
7ABB
  8
1
  6
CONTINUOUS
 10
1049.6452769999989
 20
6090.1559639999996
 30
0.0
 11
1373.6452770000001
 21
6090.1559639999996
 31
0.0
  0
LINE
  5
7ABC
  8
1
  6
CONTINUOUS
 10
984.26527699999986
 20
6434.1559639999996
 30
0.0
 11
1034.265277
 21
6434.1559639999996
 31
0.0
  0
LINE
  5
7ABD
  8
1
  6
CONTINUOUS
 10
2314.265277
 20
5499.1559639999996
 30
0.0
 11
2634.265277
 21
5499.1559639999996
 31
0.0
  0
LINE
  5
7ABE
  8
1
  6
CONTINUOUS
 10
2314.265277
 20
5447.1559640000014
 30
0.0
 11
1914.265277
 21
5447.1559640000014
 31
0.0
  0
LINE
  5
7ABF
  8
1
  6
CONTINUOUS
 10
2314.265277
 20
5517.1559639999996
 30
0.0
 11
1914.265277
 21
5517.1559639999996
 31
0.0
  0
LINE
  5
7AC0
  8
1
  6
CONTINUOUS
 10
2093.2652769999991
 20
5517.1559639999996
 30
0.0
 11
2093.2652769999991
 21
5667.1559639999996
 31
0.0
  0
LINE
  5
7AC1
  8
1
  6
CONTINUOUS
 10
1914.265277
 20
5447.1559640000014
 30
0.0
 11
1914.265277
 21
5517.1559639999996
 31
0.0
  0
LINE
  5
7AC2
  8
1
  6
CONTINUOUS
 10
2135.2652769999991
 20
5517.1559639999996
 30
0.0
 11
2135.2652769999991
 21
5667.1559639999996
 31
0.0
  0
LINE
  5
7AC3
  8
1
  6
CONTINUOUS
 10
2314.265277
 20
5447.1559640000014
 30
0.0
 11
2314.265277
 21
5517.1559639999996
 31
0.0
  0
LINE
  5
7AC4
  8
1
  6
CONTINUOUS
 10
2534.265277
 20
5407.1559640000014
 30
0.0
 11
2534.265277
 21
5557.1559639999996
 31
0.0
  0
LINE
  5
7AC5
  8
1
  6
CONTINUOUS
 10
2669.265277
 20
5667.1559639999996
 30
0.0
 11
2669.265277
 21
6267.1559639999996
 31
0.0
  0
LINE
  5
7AC6
  8
1
  6
CONTINUOUS
 10
2709.265277
 20
5625.1559640000014
 30
0.0
 11
2709.265277
 21
6309.1559640000014
 31
0.0
  0
LINE
  5
7AC7
  8
1
  6
CONTINUOUS
 10
2684.265277
 20
5667.1559639999996
 30
0.0
 11
2684.265277
 21
5384.1559640000014
 31
0.0
  0
LINE
  5
7AC8
  8
1
  6
CONTINUOUS
 10
2634.265277
 20
5667.1559639999996
 30
0.0
 11
2634.265277
 21
5384.1559640000014
 31
0.0
  0
LINE
  5
7AC9
  8
1
  6
CONTINUOUS
 10
2634.265277
 20
5384.1559640000014
 30
0.0
 11
2684.265277
 21
5384.1559640000014
 31
0.0
  0
LINE
  5
7ACA
  8
1
  6
CONTINUOUS
 10
2634.265277
 20
5667.1559639999996
 30
0.0
 11
2634.265277
 21
5499.1559639999996
 31
0.0
  0
LINE
  5
7ACB
  8
1
  6
CONTINUOUS
 10
2634.265277
 20
6434.1559639999996
 30
0.0
 11
2684.265277
 21
6434.1559639999996
 31
0.0
  0
LINE
  5
7ACC
  8
1
  6
CONTINUOUS
 10
2634.265277
 20
6434.1559639999996
 30
0.0
 11
2634.265277
 21
6267.1559639999996
 31
0.0
  0
LINE
  5
7ACD
  8
1
  6
CONTINUOUS
 10
2684.265277
 20
6434.1559639999996
 30
0.0
 11
2684.265277
 21
6267.1559639999996
 31
0.0
  0
LINE
  5
7ACE
  8
1
  6
CONTINUOUS
 10
2634.265277
 20
6319.1559640000014
 30
0.0
 11
2634.265277
 21
6267.1559639999996
 31
0.0
  0
LINE
  5
7ACF
  8
1
  6
CONTINUOUS
 10
5128.160370999999
 20
2644.67434
 30
0.0
 11
4308.1603709999999
 21
2644.67434
 31
0.0
  0
LINE
  5
7AD0
  8
1
  6
CONTINUOUS
 10
4326.1603709999999
 20
3019.67434
 30
0.0
 11
4326.1603709999999
 21
2869.67434
 31
0.0
  0
LINE
  5
7AD1
  8
1
  6
CONTINUOUS
 10
4256.160370999999
 20
3019.67434
 30
0.0
 11
4256.160370999999
 21
2869.67434
 31
0.0
  0
LINE
  5
7AD2
  8
1
  6
CONTINUOUS
 10
4366.1603709999999
 20
3994.67434
 30
0.0
 11
4366.1603709999999
 21
2744.67434
 31
0.0
  0
LINE
  5
7AD3
  8
1
  6
CONTINUOUS
 10
5076.1603709999999
 20
4126.6743399999996
 30
0.0
 11
5076.1603709999999
 21
2744.67434
 31
0.0
  0
LINE
  5
7AD4
  8
1
  6
CONTINUOUS
 10
4476.1603709999999
 20
4126.6743399999996
 30
0.0
 11
4476.1603709999999
 21
2744.67434
 31
0.0
  0
LINE
  5
7AD5
  8
1
  6
CONTINUOUS
 10
4326.1603709999999
 20
2923.67434
 30
0.0
 11
4476.1603709999999
 21
2923.67434
 31
0.0
  0
LINE
  5
7AD6
  8
1
  6
CONTINUOUS
 10
4326.1603709999999
 20
2965.6743399999991
 30
0.0
 11
4476.1603709999999
 21
2965.6743399999991
 31
0.0
  0
LINE
  5
7AD7
  8
1
  6
CONTINUOUS
 10
4256.160370999999
 20
2869.67434
 30
0.0
 11
4326.1603709999999
 21
2869.67434
 31
0.0
  0
LINE
  5
7AD8
  8
1
  6
CONTINUOUS
 10
4308.1603709999999
 20
2744.67434
 30
0.0
 11
4308.1603709999999
 21
2644.67434
 31
0.0
  0
LINE
  5
7AD9
  8
1
  6
CONTINUOUS
 10
4476.1603709999999
 20
3301.67434
 30
0.0
 11
5076.1603709999999
 21
4126.6743399999996
 31
0.0
  0
LINE
  5
7ADA
  8
1
  6
CONTINUOUS
 10
5076.1603709999999
 20
3301.67434
 30
0.0
 11
4476.1603709999999
 21
4126.6743399999996
 31
0.0
  0
LINE
  5
7ADB
  8
1
  6
CONTINUOUS
 10
4476.1603709999999
 20
3301.67434
 30
0.0
 11
5076.1603709999999
 21
3301.67434
 31
0.0
  0
LINE
  5
7ADC
  8
1
  6
CONTINUOUS
 10
4476.1603709999999
 20
4126.6743399999996
 30
0.0
 11
5076.1603709999999
 21
4126.6743399999996
 31
0.0
  0
LINE
  5
7ADD
  8
1
  6
CONTINUOUS
 10
4476.1603709999999
 20
3318.6743399999991
 30
0.0
 11
4326.1603709999999
 21
3318.6743399999991
 31
0.0
  0
LINE
  5
7ADE
  8
1
  6
CONTINUOUS
 10
4476.1603709999999
 20
3360.67434
 30
0.0
 11
4326.1603709999999
 21
3360.67434
 31
0.0
  0
LINE
  5
7ADF
  8
1
  6
CONTINUOUS
 10
4326.1603709999999
 20
3539.6743399999991
 30
0.0
 11
4326.1603709999999
 21
3139.67434
 31
0.0
  0
LINE
  5
7AE0
  8
1
  6
CONTINUOUS
 10
4256.160370999999
 20
3539.6743399999991
 30
0.0
 11
4256.160370999999
 21
3139.67434
 31
0.0
  0
LINE
  5
7AE1
  8
1
  6
CONTINUOUS
 10
4256.160370999999
 20
3019.67434
 30
0.0
 11
4326.1603709999999
 21
3019.67434
 31
0.0
  0
LINE
  5
7AE2
  8
1
  6
CONTINUOUS
 10
4256.160370999999
 20
3139.67434
 30
0.0
 11
4326.1603709999999
 21
3139.67434
 31
0.0
  0
LINE
  5
7AE3
  8
1
  6
CONTINUOUS
 10
4256.160370999999
 20
3539.6743399999991
 30
0.0
 11
4326.1603709999999
 21
3539.6743399999991
 31
0.0
  0
LINE
  5
7AE4
  8
1
  6
CONTINUOUS
 10
5243.1603709999999
 20
2619.67434
 30
0.0
 11
5243.1603709999999
 21
2519.67434
 31
0.0
  0
LINE
  5
7AE5
  8
1
  6
CONTINUOUS
 10
5128.160370999999
 20
2744.67434
 30
0.0
 11
5128.160370999999
 21
2644.67434
 31
0.0
  0
LINE
  5
7AE6
  8
2
  6
CENTER
 10
912.32269999999994
 20
5967.1559639999996
 30
0.0
 11
2786.2857509999999
 21
5967.1559639999996
 31
0.0
  0
LINE
  5
7AE7
  8
2
  6
CENTER
 10
4776.1603709999999
 20
4271.9090719999986
 30
0.0
 11
4776.1603709999999
 21
2413.325045
 31
0.0
  0
LINE
  5
7AE8
  8
2
  6
CENTER
 10
2114.265277
 20
4190.2851779999992
 30
0.0
 11
2114.265277
 21
2446.7904979999998
 31
0.0
  0
LINE
  5
7AE9
  8
2
  6
CENTER
 10
2759.2015711676459
 20
3339.67434
 30
0.0
 11
1024.871619
 21
3339.67434
 31
0.0
  0
LINE
  5
7AEA
  8
4
  6
CONTINUOUS
 10
5550.0
 20
1500.0
 30
0.0
 11
5550.0
 21
900.0
 31
0.0
  0
LINE
  5
7AEB
  8
4
  6
CONTINUOUS
 10
3450.0
 20
1500.0
 30
0.0
 11
3450.0
 21
900.0
 31
0.0
  0
LINE
  5
7AEC
  8
4
  6
CONTINUOUS
 10
1950.0
 20
1500.0
 30
0.0
 11
1950.0
 21
900.0
 31
0.0
  0
LINE
  5
7AEF
  8
4
  6
CONTINUOUS
 10
1950.0
 20
900.0
 30
0.0
 11
5550.0
 21
900.0
 31
0.0
  0
LINE
  5
7AF0
  8
4
  6
CONTINUOUS
 10
1950.0
 20
1200.0
 30
0.0
 11
5550.0
 21
1200.0
 31
0.0
  0
TEXT
  5
7AF1
  8
4
  6
CONTINUOUS
 10
2065.5062429999989
 20
1294.6290779999999
 30
0.0
 40
150.0
  1
機器名称
  0
TEXT
  5
7AF2
  8
4
  6
CONTINUOUS
 10
2058.7743179999989
 20
964.9354699999999
 30
0.0
 40
150.0
  1
機器型番
  0
TEXT
  5
7AF3
  8
4
  6
CONTINUOUS
 10
3533.0362359999999
 20
1267.7153069999999
 30
0.0
 40
150.0
  1
ミツヤ多翼送風機
  0
TEXT
  5
7AF4
  8
4
  6
CONTINUOUS
 10
3559.9634869999991
 20
951.47875299999987
 30
0.0
 40
150.0
  1
MF#5-4
  0
TEXT
  5
7AF6
  8
4
  6
CONTINUOUS
 10
2234.1748720000001
 20
7150.2865239999992
 30
0.0
 40
162.0
  1
天井吊防振ベット
  0
TEXT
  5
7AF7
  8
4
  6
CONTINUOUS
 10
948.50278000000014
 20
7601.6429289999996
 30
0.0
 40
216.0
  1
ベルト駆動式片吸込両持多翼ファン
  0
LINE
  5
7AF8
  8
4
  6
CONTINUOUS
 10
750.0
 20
7408.2262629999996
 30
0.0
 11
5550.0
 21
7408.2262629999996
 31
0.0
  0
LINE
  5
7AF9
  8
4
  6
CONTINUOUS
 10
750.0
 20
8008.2262629999996
 30
0.0
 11
5550.0
 21
8008.2262629999996
 31
0.0
  0
LINE
  5
7AFA
  8
4
  6
CONTINUOUS
 10
1950.0
 20
1500.0
 30
0.0
 11
5550.0
 21
1500.0
 31
0.0
  0
LINE
  5
7AFB
  8
4
  6
CONTINUOUS
 10
750.0
 20
8008.2262629999996
 30
0.0
 11
750.0
 21
7408.2262629999996
 31
0.0
  0
TEXT
  5
7AFC
  8
4
  6
CONTINUOUS
 10
926.59837500000003
 20
7146.9584329999998
 30
0.0
 40
162.0
  1
右回転右横向
  0
TEXT
  5
7AFD
  8
4
  6
CONTINUOUS
 10
4406.9086779999989
 20
8118.1832439999989
 30
0.0
 40
168.0
  1
No.
  0
TEXT
  5
7AFE
  8
4
  6
CONTINUOUS
 10
3933.8881879999999
 20
7150.2865239999992
 30
0.0
 40
162.0
  1
縮尺：1/30
  0
LINE
  5
7AFF
  8
4
  6
CONTINUOUS
 10
5550.0
 20
8008.2262629999996
 30
0.0
 11
5550.0
 21
7408.2262629999996
 31
0.0
  0
LINE
  5
7B01
  8
4
  6
CONTINUOUS
 10
4321.8522670000002
 20
8043.7907490000007
 30
0.0
 11
4321.8522670000002
 21
8359.9567849999985
 31
0.0
  0
LINE
  5
7B02
  8
4
  6
CONTINUOUS
 10
4321.8522670000002
 20
8359.9567849999985
 30
0.0
 11
5550.0
 21
8359.9567849999985
 31
0.0
  0
LINE
  5
7B03
  8
4
  6
CONTINUOUS
 10
5550.0
 20
8359.9567849999985
 30
0.0
 11
5550.0
 21
8043.7907490000007
 31
0.0
  0
LINE
  5
7B04
  8
4
  6
CONTINUOUS
 10
5550.0
 20
8043.7907490000007
 30
0.0
 11
4321.8522670000002
 21
8043.7907490000007
 31
0.0
  0
DIMENSION
  5
7B1C
  8
3
  6
CONTINUOUS
  2
*D1
 10
2924.859644000001
 20
3301.67434
 30
0.0
 11
2924.8596440000001
 21
3725.1411109999999
 31
0.0
 70
   128
 13
2709.265277
 23
4126.6743399999996
 33
0.0
 14
2709.265277
 24
3301.67434
 34
0.0
 50
90.0
1001
ACAD
1000
DSTYLE
1002
{
1070
   287
1070
     3
1070
    40
1040
30.0
1070
   143
1040
0.039
1070
   172
1070
     1
1070
   271
1070
     0
1070
   279
1070
     0
1070
   288
1070
     1
1002
}
  0
DIMENSION
  5
7B29
  8
3
  6
CONTINUOUS
  2
*D2
 10
3126.4216329999999
 20
3339.67434
 30
0.0
 11
3126.4216329999999
 21
3725.1411109999999
 31
0.0
 70
   128
 13
2709.265277
 23
4126.6743399999996
 33
0.0
 14
2759.2015711676459
 24
3339.67434
 34
0.0
 50
90.0
1001
ACAD
1000
DSTYLE
1002
{
1070
   287
1070
     3
1070
    40
1040
30.0
1070
   143
1040
0.039
1070
   172
1070
     1
1070
   271
1070
     0
1070
   279
1070
     0
1070
   288
1070
     1
1002
}
  0
DIMENSION
  5
7B35
  8
3
  6
CONTINUOUS
  2
*D3
 10
3126.4216329999999
 20
2644.6743399999991
 30
0.0
 11
3051.421632999999
 21
2992.17434
 31
0.0
 70
     0
 13
2759.2015711676459
 23
3339.67434
 33
0.0
 14
2634.265277
 24
2644.67434
 34
0.0
 50
90.0
1001
ACAD
1000
DSTYLE
1002
{
1070
   287
1070
     4
1070
    40
1040
30.0
1070
    75
1070
     1
1070
   143
1040
0.039
1070
   172
1070
     1
1070
   271
1070
     0
1070
   279
1070
     1
1070
   288
1070
     1
1002
}
  0
DIMENSION
  5
7B45
  8
3
  6
CONTINUOUS
  2
*D4
 10
3124.752524
 20
2519.6743399999991
 30
0.0
 11
3124.752524
 21
2262.5314828571431
 31
0.0
 70
   128
 13
2634.265277
 23
2644.67434
 33
0.0
 14
2684.265277
 24
2519.67434
 34
0.0
 50
90.0
1001
ACAD
1000
DSTYLE
1002
{
1070
   287
1070
     3
1070
    40
1040
30.0
1070
   143
1040
0.039
1070
   172
1070
     1
1070
   271
1070
     0
1070
   279
1070
     0
1070
   288
1070
     1
1002
}
  0
DIMENSION
  5
7B52
  8
3
  6
CONTINUOUS
  2
*D5
 10
3328.1565810000002
 20
2519.6743399999991
 30
0.0
 11
3328.1565810000002
 21
3353.783030999999
 31
0.0
 70
   128
 13
2709.265277
 23
4169.1743399999996
 33
0.0
 14
2684.265277
 24
2519.67434
 34
0.0
 50
90.0
1001
ACAD
1000
DSTYLE
1002
{
1070
   287
1070
     3
1070
    40
1040
30.0
1070
   143
1040
0.039
1070
   172
1070
     1
1070
   271
1070
     0
1070
   279
1070
     0
1070
   288
1070
     1
1002
}
  0
DIMENSION
  5
7B5F
  8
3
  6
CONTINUOUS
  2
*D6
 10
2114.265277
 20
2302.650862
 30
0.0
 11
1614.706647
 21
2302.650862
 31
0.0
 70
   128
 13
984.26527699999986
 23
2519.67434
 33
0.0
 14
2114.265277
 24
2446.7904979999998
 34
0.0
1001
ACAD
1000
DSTYLE
1002
{
1070
   287
1070
     3
1070
    40
1040
30.0
1070
   143
1040
0.039
1070
   172
1070
     1
1070
   271
1070
     0
1070
   279
1070
     0
1070
   288
1070
     1
1002
}
  0
DIMENSION
  5
7B6B
  8
3
  6
CONTINUOUS
  2
*D7
 10
2684.265277
 20
2302.650862
 30
0.0
 11
2399.265277
 21
2377.650862
 31
0.0
 70
     0
 13
2114.265277
 23
2446.7904979999998
 33
0.0
 14
2684.265277
 24
2519.67434
 34
0.0
1001
ACAD
1000
DSTYLE
1002
{
1070
   287
1070
     4
1070
    40
1040
30.0
1070
    75
1070
     1
1070
   143
1040
0.039
1070
   172
1070
     1
1070
   271
1070
     0
1070
   279
1070
     1
1070
   288
1070
     1
1002
}
  0
DIMENSION
  5
7B78
  8
3
  6
CONTINUOUS
  2
*D8
 10
2114.265277
 20
4272.736918999999
 30
0.0
 11
2408.357004
 21
4272.736918999999
 31
0.0
 70
   128
 13
2709.265277
 23
4169.1743399999996
 33
0.0
 14
2114.265277
 24
4190.2851779999992
 34
0.0
1001
ACAD
1000
DSTYLE
1002
{
1070
   287
1070
     3
1070
    40
1040
30.0
1070
   143
1040
0.039
1070
   172
1070
     1
1070
   271
1070
     0
1070
   279
1070
     0
1070
   288
1070
     1
1002
}
  0
DIMENSION
  5
7B91
  8
3
  6
CONTINUOUS
  2
*D9
 10
5076.1603709999999
 20
4272.736918999999
 30
0.0
 11
4763.8516459999992
 21
4272.736918999999
 31
0.0
 70
   128
 13
4476.1603709999999
 23
4126.6743399999996
 33
0.0
 14
5076.1603709999999
 24
4126.6743399999996
 34
0.0
1001
ACAD
1000
DSTYLE
1002
{
1070
   287
1070
     3
1070
    40
1040
30.0
1070
   143
1040
0.039
1070
   172
1070
     1
1070
   271
1070
     0
1070
   279
1070
     0
1070
   288
1070
     1
1002
}
  0
LINE
  5
7B92
  8
1
  6
CONTINUOUS
 10
5080.1603709999999
 20
3764.67434
 30
0.0
 11
5080.1603709999999
 21
2914.67434
 31
0.0
  0
DIMENSION
  5
7BA1
  8
3
  6
CONTINUOUS
  2
*D10
 10
5349.6412150000006
 20
2914.6743399999991
 30
0.0
 11
5349.6412149999996
 21
3341.1946290000001
 31
0.0
 70
   128
 13
5080.1603709999999
 23
3764.67434
 33
0.0
 14
5080.1603709999999
 24
2914.67434
 34
0.0
 50
90.0
1001
ACAD
1000
DSTYLE
1002
{
1070
   287
1070
     3
1070
     3
1000
φ<>
1070
    40
1040
30.0
1070
   143
1040
0.039
1070
   172
1070
     1
1070
   271
1070
     0
1070
   279
1070
     0
1070
   288
1070
     1
1002
}
  0
DIMENSION
  5
7BB0
  8
3
  6
CONTINUOUS
  2
*D11
 10
4776.1603709999999
 20
4461.5630490000003
 30
0.0
 11
4928.1603709999999
 21
4538.4839707610299
 31
0.0
 70
   128
 13
5080.1603709999999
 23
3764.67434
 33
0.0
 14
4776.1603709999999
 24
4410.5482729999994
 34
0.0
1001
ACAD
1000
DSTYLE
1002
{
1070
   288
1070
     1
1070
   172
1070
     1
1070
    40
1040
30.0
1070
   271
1070
     0
1070
   143
1040
0.039
1002
}
  0
DIMENSION
  5
7BBC
  8
3
  6
CONTINUOUS
  2
*D12
 10
4216.160370999999
 20
4461.5630490000003
 30
0.0
 11
4496.1603709999999
 21
4611.5630489999994
 31
0.0
 70
     0
  1
MAX\P610
 13
4776.1603709999999
 23
4410.5482729999994
 33
0.0
 14
4216.160370999999
 24
3994.67434
 34
0.0
1001
ACAD
1000
DSTYLE
1002
{
1070
   287
1070
     4
1070
    40
1040
30.0
1070
    75
1070
     1
1070
   143
1040
0.039
1070
   172
1070
     1
1070
   271
1070
     0
1070
   279
1070
     1
1070
   288
1070
     1
1002
}
  0
DIMENSION
  5
7BC9
  8
3
  6
CONTINUOUS
  2
*D13
 10
4776.1603709999999
 20
2281.7738100000001
 30
0.0
 11
4505.6003600000004
 21
2281.7738100000001
 31
0.0
 70
   128
 13
4193.1603709999999
 23
2519.67434
 33
0.0
 14
4776.1603709999999
 24
2413.325045
 34
0.0
1001
ACAD
1000
DSTYLE
1002
{
1070
   287
1070
     3
1070
    40
1040
30.0
1070
   143
1040
0.039
1070
   172
1070
     1
1070
   271
1070
     0
1070
   279
1070
     0
1070
   288
1070
     1
1002
}
  0
DIMENSION
  5
7BD5
  8
3
  6
CONTINUOUS
  2
*D14
 10
5243.1603709999999
 20
2281.7738100000001
 30
0.0
 11
5009.6603709999999
 21
2356.7738100000001
 31
0.0
 70
     0
 13
4776.1603709999999
 23
2413.325045
 33
0.0
 14
5243.1603709999999
 24
2519.67434
 34
0.0
1001
ACAD
1000
DSTYLE
1002
{
1070
   287
1070
     4
1070
    40
1040
30.0
1070
    75
1070
     1
1070
   143
1040
0.039
1070
   172
1070
     1
1070
   271
1070
     0
1070
   279
1070
     1
1070
   288
1070
     1
1002
}
  0
DIMENSION
  5
7BE2
  8
3
  6
CONTINUOUS
  2
*D15
 10
2684.265277
 20
6554.637479
 30
0.0
 11
1778.4757719999991
 21
6554.637479
 31
0.0
 70
   128
 13
984.26527699999986
 23
6434.1559639999996
 33
0.0
 14
2684.265277
 24
6434.1559639999996
 34
0.0
1001
ACAD
1000
DSTYLE
1002
{
1070
   287
1070
     3
1070
    40
1040
30.0
1070
   143
1040
0.039
1070
   172
1070
     1
1070
   271
1070
     0
1070
   279
1070
     0
1070
   288
1070
     1
1002
}
  0
DIMENSION
  5
7BEF
  8
3
  6
CONTINUOUS
  2
*D16
 10
2937.457276000001
 20
5384.1559640000014
 30
0.0
 11
2937.4572760000001
 21
5900.0401729999994
 31
0.0
 70
   128
 13
2684.265277
 23
6434.1559639999996
 33
0.0
 14
2684.265277
 24
5384.1559640000014
 34
0.0
 50
90.0
1001
ACAD
1000
DSTYLE
1002
{
1070
   287
1070
     3
1070
    40
1040
30.0
1070
   143
1040
0.039
1070
   172
1070
     1
1070
   271
1070
     0
1070
   279
1070
     0
1070
   288
1070
     1
1002
}
  0
DIMENSION
  5
7C48
  8
3
  6
CONTINUOUS
  2
*D17
 10
1450.261051
 20
4272.736918999999
 30
0.0
 11
1782.263164
 21
4347.736918999999
 31
0.0
 70
     0
 13
2114.265277
 23
4190.2851779999992
 33
0.0
 14
1450.261051
 24
3339.67434
 34
0.0
1001
ACAD
1000
DSTYLE
1002
{
1070
   287
1070
     4
1070
    40
1040
30.0
1070
    75
1070
     1
1070
   143
1040
0.039
1070
   172
1070
     1
1070
   271
1070
     0
1070
   279
1070
     1
1070
   288
1070
     1
1002
}
  0
DIMENSION
  5
7CAC
  8
3
  2
*D18
 10
984.26527699999997
 20
4453.9558070928069
 30
0.0
 11
1898.4023580408209
 21
4453.9558070928069
 31
0.0
 70
   128
 13
2709.265277
 23
4169.1743399999996
 33
0.0
 14
984.26527699999986
 24
2619.67434
 34
0.0
1001
ACAD
1000
DSTYLE
1002
{
1070
   287
1070
     3
1070
    40
1040
30.0
1070
   143
1040
0.039
1070
   172
1070
     1
1070
   271
1070
     0
1070
   279
1070
     0
1070
   288
1070
     1
1002
}
  0
LINE
  5
7CD6
  8
1
  6
CONTINUOUS
 10
1614.2652769999991
 20
3744.67434
 30
0.0
 11
2614.2652769999991
 21
3744.67434
 31
0.0
  0
LINE
  5
7CD7
  8
1
 10
1614.2652769999991
 20
3744.67434
 30
0.0
 11
1614.265277
 21
2744.67434
 31
0.0
  0
LINE
  5
7CD8
  8
1
 10
2614.2652769999991
 20
3744.67434
 30
0.0
 11
2614.265277
 21
2744.67434
 31
0.0
  0
ENDSEC
  0
EOF
