  0
SECTION
  2
HEADER
  9
$ACADVER
  1
AC1009
  9
$INSBASE
 10
0.0
 20
0.0
 30
0.0
  9
$EXTMIN
 10
750.0
 20
900.0
 30
0.0
  9
$EXTMAX
 10
5550.0
 20
8359.9567849999985
 30
0.0
  9
$LIMMIN
 10
0.0
 20
0.0
  9
$LIMMAX
 10
297.0
 20
210.0
  9
$ORTHOMODE
 70
     0
  9
$REGENMODE
 70
     1
  9
$FILLMODE
 70
     0
  9
$QTEXTMODE
 70
     0
  9
$MIRRTEXT
 70
     1
  9
$DRAGMODE
 70
     2
  9
$LTSCALE
 40
100.0
  9
$OSMODE
 70
    37
  9
$ATTMODE
 70
     1
  9
$TEXTSIZE
 40
180.0
  9
$TRACEWID
 40
0.05
  9
$TEXTSTYLE
  7
STANDARD
  9
$CLAYER
  8
3
  9
$CELTYPE
  6
BYLAYER
  9
$CECOLOR
 62
   256
  9
$DIMSCALE
 40
30.0
  9
$DIMASZ
 40
2.0
  9
$DIMEXO
 40
0.5
  9
$DIMDLI
 40
10.0
  9
$DIMRND
 40
0.0
  9
$DIMDLE
 40
0.0
  9
$DIMEXE
 40
1.0
  9
$DIMTP
 40
1.0
  9
$DIMTM
 40
1.0
  9
$DIMTXT
 40
3.0
  9
$DIMCEN
 40
0.0
  9
$DIMTSZ
 40
0.0
  9
$DIMTOL
 70
     0
  9
$DIMLIM
 70
     0
  9
$DIMTIH
 70
     0
  9
$DIMTOH
 70
     0
  9
$DIMSE1
 70
     0
  9
$DIMSE2
 70
     0
  9
$DIMTAD
 70
     1
  9
$DIMZIN
 70
     8
  9
$DIMBLK
  1

  9
$DIMASO
 70
     1
  9
$DIMSHO
 70
     1
  9
$DIMPOST
  1

  9
$DIMAPOST
  1

  9
$DIMALT
 70
     0
  9
$DIMALTD
 70
     2
  9
$DIMALTF
 40
0.039
  9
$DIMLFAC
 40
1.0
  9
$DIMTOFL
 70
     1
  9
$DIMTVP
 40
0.0
  9
$DIMTIX
 70
     0
  9
$DIMSOXD
 70
     0
  9
$DIMSAH
 70
     1
  9
$DIMBLK1
  1
OPEN
  9
$DIMBLK2
  1
OPEN
  9
$DIMSTYLE
  2
IGA
  9
$DIMCLRD
 70
     0
  9
$DIMCLRE
 70
     0
  9
$DIMCLRT
 70
     0
  9
$DIMTFAC
 40
10.0
  9
$DIMGAP
 40
1.0
  9
$LUNITS
 70
     2
  9
$LUPREC
 70
     3
  9
$SKETCHINC
 40
0.1
  9
$FILLETRAD
 40
50.0
  9
$AUNITS
 70
     0
  9
$AUPREC
 70
     0
  9
$MENU
  1
acad
  9
$ELEVATION
 40
0.0
  9
$PELEVATION
 40
0.0
  9
$THICKNESS
 40
0.0
  9
$LIMCHECK
 70
     0
  9
$BLIPMODE
 70
     0
  9
$CHAMFERA
 40
0.5
  9
$CHAMFERB
 40
0.5
  9
$SKPOLY
 70
     0
  9
$TDCREATE
 40
2450749.4055909719
  9
$TDUPDATE
 40
2454953.7744806129
  9
$TDINDWG
 40
0.0094019097
  9
$TDUSRTIMER
 40
0.0094019097
  9
$USRTIMER
 70
     1
  9
$ANGBASE
 50
0.0
  9
$ANGDIR
 70
     0
  9
$PDMODE
 70
     0
  9
$PDSIZE
 40
0.0
  9
$PLINEWID
 40
0.0
  9
$COORDS
 70
     1
  9
$SPLFRAME
 70
     0
  9
$SPLINETYPE
 70
     6
  9
$SPLINESEGS
 70
     8
  9
$ATTDIA
 70
     0
  9
$ATTREQ
 70
     1
  9
$HANDLING
 70
 10241
  9
$HANDSEED
  5
7DC6
  9
$SURFTAB1
 70
     6
  9
$SURFTAB2
 70
     6
  9
$SURFTYPE
 70
     6
  9
$SURFU
 70
     6
  9
$SURFV
 70
     6
  9
$UCSNAME
  2

  9
$UCSORG
 10
0.0
 20
0.0
 30
0.0
  9
$UCSXDIR
 10
1.0
 20
0.0
 30
0.0
  9
$UCSYDIR
 10
0.0
 20
1.0
 30
0.0
  9
$PUCSNAME
  2

  9
$PUCSORG
 10
0.0
 20
0.0
 30
0.0
  9
$PUCSXDIR
 10
1.0
 20
0.0
 30
0.0
  9
$PUCSYDIR
 10
0.0
 20
1.0
 30
0.0
  9
$USERI1
 70
     0
  9
$USERI2
 70
     0
  9
$USERI3
 70
     0
  9
$USERI4
 70
     0
  9
$USERI5
 70
     0
  9
$USERR1
 40
0.0
  9
$USERR2
 40
0.0
  9
$USERR3
 40
0.0
  9
$USERR4
 40
0.0
  9
$USERR5
 40
0.0
  9
$WORLDVIEW
 70
     1
  9
$SHADEDGE
 70
     3
  9
$SHADEDIF
 70
    70
  9
$TILEMODE
 70
     1
  9
$MAXACTVP
 70
    16
  9
$PLIMCHECK
 70
     0
  9
$PEXTMIN
 10
1.0000000000000000E+020
 20
1.0000000000000000E+020
 30
1.0000000000000000E+020
  9
$PEXTMAX
 10
-1.0000000000000000E+020
 20
-1.0000000000000000E+020
 30
-1.0000000000000000E+020
  9
$PLIMMIN
 10
0.0
 20
0.0
  9
$PLIMMAX
 10
12.0
 20
9.0
  9
$UNITMODE
 70
     0
  9
$VISRETAIN
 70
     0
  9
$PLINEGEN
 70
     0
  9
$PSLTSCALE
 70
     1
  0
ENDSEC
  0
SECTION
  2
TABLES
  0
TABLE
  2
VPORT
 70
     2
  0
VPORT
  2
*ACTIVE
 70
     0
 10
0.0
 20
0.0
 11
1.0
 21
1.0
 12
9438.1687158055174
 22
4629.9562499988788
 13
0.0
 23
0.0
 14
10.0
 24
10.0
 15
10.0
 25
10.0
 16
0.0
 26
0.0
 36
1.0
 17
0.0
 27
0.0
 37
0.0
 40
7517.2452868940854
 41
3.1666666666666661
 42
50.0
 43
0.0
 44
0.0
 50
0.0
 51
0.0
 71
     0
 72
   100
 73
     1
 74
     0
 75
     0
 76
     0
 77
     0
 78
     0
  0
ENDTAB
  0
TABLE
  2
LTYPE
 70
     2
  0
LTYPE
  2
CONTINUOUS
 70
     0
  3
Solid line
 72
    65
 73
     0
 40
0.0
  0
LTYPE
  2
CENTER
 70
     0
  3
____ _ ____ _ ____ _ ____ _ ____ _ ____ _ ____ 
 72
    65
 73
     4
 40
2.0
 49
1.25
 49
-0.25
 49
0.25
 49
-0.25
  0
ENDTAB
  0
TABLE
  2
LAYER
 70
     6
  0
LAYER
  2
0
 70
     0
 62
     7
  6
CONTINUOUS
  0
LAYER
  2
3
 70
     0
 62
     2
  6
CONTINUOUS
  0
LAYER
  2
2
 70
     0
 62
     3
  6
CENTER
  0
LAYER
  2
1
 70
     0
 62
     4
  6
CONTINUOUS
  0
LAYER
  2
4
 70
     0
 62
     7
  6
CONTINUOUS
  0
LAYER
  2
DEFPOINTS
 70
     0
 62
     7
  6
CONTINUOUS
  0
ENDTAB
  0
TABLE
  2
STYLE
 70
     1
  0
STYLE
  2
STANDARD
 70
     0
 40
0.0
 41
1.0
 50
0.0
 71
     0
 42
180.0
  3
simplex.shx
  4
extfont.shx
  0
ENDTAB
  0
TABLE
  2
VIEW
 70
     0
  0
ENDTAB
  0
TABLE
  2
UCS
 70
     0
  0
ENDTAB
  0
TABLE
  2
APPID
 70
     1
  0
APPID
  2
ACAD
 70
     0
  0
ENDTAB
  0
TABLE
  2
DIMSTYLE
 70
     1
  0
DIMSTYLE
  2
IGA
 70
     0
  3

  4

  5

  6
OPEN
  7
OPEN
 40
2.0
 41
2.0
 42
0.5
 43
10.0
 44
1.0
 45
0.0
 46
0.0
 47
1.0
 48
1.0
140
3.0
141
0.0
142
0.0
143
0.03937
144
1.0
145
0.0
146
10.0
147
1.0
 71
     0
 72
     0
 73
     0
 74
     0
 75
     0
 76
     0
 77
     1
 78
     8
170
     0
171
     2
172
     0
173
     1
174
     0
175
     0
176
     0
177
     0
178
     0
  0
ENDTAB
  0
ENDSEC
  0
SECTION
  2
BLOCKS
  0
BLOCK
  8
0
  2
$MODEL_SPACE
 70
     0
 10
0.0
 20
0.0
 30
0.0
  3
$MODEL_SPACE
  1

  0
ENDBLK
  5
1B
  8
0
  0
BLOCK
 67
     1
  8
0
  2
$PAPER_SPACE
 70
     0
 10
0.0
 20
0.0
 30
0.0
  3
$PAPER_SPACE
  1

  0
ENDBLK
  5
18
 67
     1
  8
0
  0
BLOCK
  8
0
  2
_OPEN
 70
     0
 10
0.0
 20
0.0
 30
0.0
  3
_OPEN
  1

  0
LINE
  5
7B22
  8
0
  6
BYBLOCK
 62
     0
 10
-1.0
 20
0.166667
 30
0.0
 11
0.0
 21
0.0
 31
0.0
  0
LINE
  5
7B23
  8
0
  6
BYBLOCK
 62
     0
 10
0.0
 20
0.0
 30
0.0
 11
-1.0
 21
-0.166667
 31
0.0
  0
LINE
  5
7B24
  8
0
  6
BYBLOCK
 62
     0
 10
0.0
 20
0.0
 30
0.0
 11
-1.0
 21
0.0
 31
0.0
  0
ENDBLK
  5
7B25
  8
0
  0
BLOCK
  8
0
  2
*D1
 70
     1
 10
0.0
 20
0.0
 30
0.0
  3
*D1
  1

  0
LINE
  5
7D1B
  8
3
  6
CONTINUOUS
 62
     0
 10
2725.8504579999999
 20
3664.991767
 30
0.0
 11
2977.8948410000012
 21
3664.991767
 31
0.0
  0
LINE
  5
7D1C
  8
3
  6
CONTINUOUS
 62
     0
 10
2725.8504579999999
 20
2839.991767
 30
0.0
 11
2977.8948409999998
 21
2839.991767
 31
0.0
  0
LINE
  5
7D1D
  8
3
  6
CONTINUOUS
 62
     0
 10
2947.8948409999998
 20
3604.991767
 30
0.0
 11
2947.8948409999998
 21
2899.991767
 31
0.0
  0
INSERT
  5
7D1E
  8
3
  6
CONTINUOUS
 62
     0
  2
_OPEN
 10
2947.8948409999998
 20
3664.991767
 30
0.0
 41
60.0
 42
60.0
 43
60.0
 50
90.0
  0
INSERT
  5
7D1F
  8
3
  6
CONTINUOUS
 62
     0
  2
_OPEN
 10
2947.8948409999998
 20
2839.991767
 30
0.0
 41
60.0
 42
60.0
 43
60.0
 50
270.0
  0
TEXT
  8
3
  40
90
  5
7DB4
  62
0
  72
0
  71
0
 10
2692.89
 20
3069.74
 30
0.000000
  1
825
  0
POINT
  5
7D21
  8
DEFPOINTS
  6
CONTINUOUS
 62
     0
 10
2710.850457999999
 20
3664.991767
 30
0.0
  0
POINT
  5
7D22
  8
DEFPOINTS
  6
CONTINUOUS
 62
     0
 10
2710.850457999999
 20
2839.991767
 30
0.0
  0
POINT
  5
7D23
  8
DEFPOINTS
  6
CONTINUOUS
 62
     0
 10
2947.8948409999998
 20
2839.991767
 30
0.0
  0
ENDBLK
  5
7B32
  8
0
  0
BLOCK
  8
0
  2
*D2
 70
     1
 10
0.0
 20
0.0
 30
0.0
  3
*D2
  1

  0
LINE
  5
7D24
  8
3
  6
CONTINUOUS
 62
     0
 10
2860.2923890000002
 20
3626.9917669999991
 30
0.0
 11
3184.566870000001
 21
3626.9917669999991
 31
0.0
  0
LINE
  5
7D25
  8
3
  6
CONTINUOUS
 62
     0
 10
2725.8504579999999
 20
2839.991767
 30
0.0
 11
3184.566870000001
 21
2839.9917669999991
 31
0.0
  0
LINE
  5
7D26
  8
3
  6
CONTINUOUS
 62
     0
 10
3154.566870000001
 20
3566.9917669999991
 30
0.0
 11
3154.5668700000001
 21
2899.9917669999991
 31
0.0
  0
INSERT
  5
7D27
  8
3
  6
CONTINUOUS
 62
     0
  2
_OPEN
 10
3154.566870000001
 20
3626.9917669999991
 30
0.0
 41
60.0
 42
60.0
 43
60.0
 50
90.0
  0
INSERT
  5
7D28
  8
3
  6
CONTINUOUS
 62
     0
  2
_OPEN
 10
3154.5668700000001
 20
2839.9917669999991
 30
0.0
 41
60.0
 42
60.0
 43
60.0
 50
270.0
  0
TEXT
  8
3
  40
90
  5
7DB5
  62
0
  72
0
  71
0
 10
2899.57
 20
3069.74
 30
0.000000
  1
787
  0
POINT
  5
7D2A
  8
DEFPOINTS
  6
CONTINUOUS
 62
     0
 10
2845.2923890000002
 20
3626.9917669999991
 30
0.0
  0
POINT
  5
7D2B
  8
DEFPOINTS
  6
CONTINUOUS
 62
     0
 10
2710.850457999999
 20
2839.991767
 30
0.0
  0
POINT
  5
7D2C
  8
DEFPOINTS
  6
CONTINUOUS
 62
     0
 10
3154.5668700000001
 20
2839.9917669999991
 30
0.0
  0
ENDBLK
  5
7B3F
  8
0
  0
BLOCK
  8
0
  2
*D3
 70
     1
 10
0.0
 20
0.0
 30
0.0
  3
*D3
  1

  0
LINE
  5
7D2D
  8
3
  6
CONTINUOUS
 62
     0
 10
2860.2923890000002
 20
3626.9917669999991
 30
0.0
 11
3391.2388660000001
 21
3626.9917669999991
 31
0.0
  0
LINE
  5
7D2E
  8
3
  6
CONTINUOUS
 62
     0
 10
2650.8504579999999
 20
2656.991767
 30
0.0
 11
3391.2388660000001
 21
2656.9917669999991
 31
0.0
  0
LINE
  5
7D2F
  8
3
  6
CONTINUOUS
 62
     0
 10
3361.2388660000001
 20
3566.9917669999991
 30
0.0
 11
3361.2388660000001
 21
2716.9917669999991
 31
0.0
  0
INSERT
  5
7D30
  8
3
  6
CONTINUOUS
 62
     0
  2
_OPEN
 10
3361.2388660000001
 20
3626.9917669999991
 30
0.0
 41
60.0
 42
60.0
 43
60.0
 50
90.0
  0
INSERT
  5
7D31
  8
3
  6
CONTINUOUS
 62
     0
  2
_OPEN
 10
3361.2388660000001
 20
2656.9917669999991
 30
0.0
 41
60.0
 42
60.0
 43
60.0
 50
270.0
  0
TEXT
  8
3
  40
90
  5
7DB6
  62
0
  72
0
  71
0
 10
3106.24
 20
2982.69
 30
0.000000
  1
970
  0
POINT
  5
7D33
  8
DEFPOINTS
  6
CONTINUOUS
 62
     0
 10
2845.2923890000002
 20
3626.9917669999991
 30
0.0
  0
POINT
  5
7D34
  8
DEFPOINTS
  6
CONTINUOUS
 62
     0
 10
2635.8504579999999
 20
2656.991767
 30
0.0
  0
POINT
  5
7D35
  8
DEFPOINTS
  6
CONTINUOUS
 62
     0
 10
3361.2388660000001
 20
2656.9917669999991
 30
0.0
  0
ENDBLK
  5
7C83
  8
0
  0
BLOCK
  8
0
  2
*D4
 70
     1
 10
0.0
 20
0.0
 30
0.0
  3
*D4
  1

  0
LINE
  5
7D36
  8
3
  6
CONTINUOUS
 62
     0
 10
2650.8504579999999
 20
2656.991767
 30
0.0
 11
3393.0799390000002
 21
2656.9917669999991
 31
0.0
  0
LINE
  5
7D37
  8
3
  6
CONTINUOUS
 62
     0
 10
2700.8504579999999
 20
2531.991767
 30
0.0
 11
3393.0799390000002
 21
2531.9917669999991
 31
0.0
  0
LINE
  5
7D38
  8
3
  6
CONTINUOUS
 62
     0
 10
3363.0799390000002
 20
2716.9917669999991
 30
0.0
 11
3363.0799390000002
 21
2776.9917669999991
 31
0.0
  0
LINE
  5
7D39
  8
3
  6
CONTINUOUS
 62
     0
 10
3363.0799390000002
 20
2471.991767
 30
0.0
 11
3363.0799390000002
 21
2137.7060527142849
 31
0.0
  0
LINE
  5
7D3A
  8
3
  6
CONTINUOUS
 62
     0
 10
3363.0799390000002
 20
2656.9917669999991
 30
0.0
 11
3363.0799390000002
 21
2531.9917669999991
 31
0.0
  0
INSERT
  5
7D3B
  8
3
  6
CONTINUOUS
 62
     0
  2
_OPEN
 10
3363.0799390000002
 20
2656.9917669999991
 30
0.0
 41
60.0
 42
60.0
 43
60.0
 50
270.0
  0
INSERT
  5
7D3C
  8
3
  6
CONTINUOUS
 62
     0
  2
_OPEN
 10
3363.0799390000002
 20
2531.9917669999991
 30
0.0
 41
60.0
 42
60.0
 43
60.0
 50
90.0
  0
TEXT
  8
3
  40
90
  5
7DB7
  62
0
  72
0
  71
0
 10
3108.08
 20
2115.55
 30
0.000000
  1
125
  0
POINT
  5
7D3E
  8
DEFPOINTS
  6
CONTINUOUS
 62
     0
 10
2635.8504579999999
 20
2656.991767
 30
0.0
  0
POINT
  5
7D3F
  8
DEFPOINTS
  6
CONTINUOUS
 62
     0
 10
2685.850457999999
 20
2531.991767
 30
0.0
  0
POINT
  5
7D40
  8
DEFPOINTS
  6
CONTINUOUS
 62
     0
 10
3363.0799390000002
 20
2531.9917669999991
 30
0.0
  0
ENDBLK
  5
7C78
  8
0
  0
BLOCK
  8
0
  2
*D5
 70
     1
 10
0.0
 20
0.0
 30
0.0
  3
*D5
  1

  0
LINE
  5
7D41
  8
3
  6
CONTINUOUS
 62
     0
 10
5040.4164049999999
 20
4219.5417669999997
 30
0.0
 11
5040.4164049999999
 21
4369.0854929999987
 31
0.0
  0
LINE
  5
7D42
  8
3
  6
CONTINUOUS
 62
     0
 10
4440.416404999999
 20
4219.5417669999997
 30
0.0
 11
4440.416404999999
 21
4369.0854929999987
 31
0.0
  0
LINE
  5
7D43
  8
3
  6
CONTINUOUS
 62
     0
 10
4980.416404999999
 20
4339.0854929999987
 30
0.0
 11
4500.4164049999999
 21
4339.0854929999987
 31
0.0
  0
INSERT
  5
7D44
  8
3
  6
CONTINUOUS
 62
     0
  2
_OPEN
 10
5040.4164049999999
 20
4339.0854929999987
 30
0.0
 41
60.0
 42
60.0
 43
60.0
  0
INSERT
  5
7D45
  8
3
  6
CONTINUOUS
 62
     0
  2
_OPEN
 10
4440.416404999999
 20
4339.0854929999987
 30
0.0
 41
60.0
 42
60.0
 43
60.0
 50
180.0
  0
TEXT
  8
3
  40
90
  5
7DB8
  62
0
  72
0
  71
0
 10
4558.38
 20
4254.79
 30
0.000000
  1
600
  0
POINT
  5
7D47
  8
DEFPOINTS
  6
CONTINUOUS
 62
     0
 10
5040.4164049999999
 20
4204.5417670000006
 30
0.0
  0
POINT
  5
7D48
  8
DEFPOINTS
  6
CONTINUOUS
 62
     0
 10
4440.416404999999
 20
4204.5417670000006
 30
0.0
  0
POINT
  5
7D49
  8
DEFPOINTS
  6
CONTINUOUS
 62
     0
 10
4440.416404999999
 20
4339.0854929999987
 30
0.0
  0
ENDBLK
  5
7B82
  8
0
  0
BLOCK
  8
0
  2
*D6
 70
     1
 10
0.0
 20
0.0
 30
0.0
  3
*D6
  1

  0
LINE
  5
7D4A
  8
3
  6
CONTINUOUS
 62
     0
 10
5059.4164049999999
 20
4051.9917669999991
 30
0.0
 11
5323.8105720000012
 21
4051.9917669999991
 31
0.0
  0
LINE
  5
7D4B
  8
3
  6
CONTINUOUS
 62
     0
 10
5059.4164049999999
 20
3201.9917669999991
 30
0.0
 11
5323.8105720000012
 21
3201.9917669999991
 31
0.0
  0
LINE
  5
7D4C
  8
3
  6
CONTINUOUS
 62
     0
 10
5293.8105720000012
 20
3991.991767
 30
0.0
 11
5293.8105720000012
 21
3261.9917669999991
 31
0.0
  0
INSERT
  5
7D4D
  8
3
  6
CONTINUOUS
 62
     0
  2
_OPEN
 10
5293.8105720000012
 20
4051.9917669999991
 30
0.0
 41
60.0
 42
60.0
 43
60.0
 50
90.0
  0
INSERT
  5
7D4E
  8
3
  6
CONTINUOUS
 62
     0
  2
_OPEN
 10
5293.8105720000012
 20
3201.9917669999991
 30
0.0
 41
60.0
 42
60.0
 43
60.0
 50
270.0
  0
TEXT
  8
3
  40
90
  5
7DB9
  62
0
  72
0
  71
0
 10
5038.81
 20
3463.42
 30
0.000000
  1
φ850
  0
POINT
  5
7D50
  8
DEFPOINTS
  6
CONTINUOUS
 62
     0
 10
5044.416404999999
 20
4051.9917669999991
 30
0.0
  0
POINT
  5
7D51
  8
DEFPOINTS
  6
CONTINUOUS
 62
     0
 10
5044.416404999999
 20
3201.9917669999991
 30
0.0
  0
POINT
  5
7D52
  8
DEFPOINTS
  6
CONTINUOUS
 62
     0
 10
5293.8105720000012
 20
3201.9917669999991
 30
0.0
  0
ENDBLK
  5
7CB9
  8
0
  0
BLOCK
  8
0
  2
*D7
 70
     1
 10
0.0
 20
0.0
 30
0.0
  3
*D7
  1

  0
LINE
  5
7C9B
  8
0
  6
BYBLOCK
 62
     0
 10
5044.416404999999
 20
4066.991767
 30
0.0
 11
5044.416404999999
 21
4556.244987
 31
0.0
  0
LINE
  5
7C9C
  8
0
  6
BYBLOCK
 62
     0
 10
4740.4164049999999
 20
4503.1948249999996
 30
0.0
 11
4740.4164049999999
 21
4556.244987
 31
0.0
  0
LINE
  5
7C9D
  8
0
  6
BYBLOCK
 62
     0
 10
4984.4164050000009
 20
4526.244987
 30
0.0
 11
4800.416404999999
 21
4526.244987
 31
0.0
  0
TEXT
  5
7C9E
  8
3
 62
     0
 10
4774.5592621428568
 20
4549.7706632705449
 30
0.0
 40
90.0
  1
304
  0
INSERT
  5
7C9F
  8
0
  6
BYBLOCK
 62
     0
  2
_OPEN
 10
5044.416404999999
 20
4526.244987
 30
0.0
 41
60.0
 42
60.0
 43
60.0
  0
INSERT
  5
7CA0
  8
0
  6
BYBLOCK
 62
     0
  2
_OPEN
 10
4740.4164049999999
 20
4526.244987
 30
0.0
 41
60.0
 42
60.0
 43
60.0
 50
180.0
  0
POINT
  5
7CA1
  8
DEFPOINTS
  6
BYBLOCK
 62
     0
 10
5044.416404999999
 20
4051.9917669999991
 30
0.0
  0
POINT
  5
7CA2
  8
DEFPOINTS
  6
BYBLOCK
 62
     0
 10
4740.4164049999999
 20
4488.1948249999987
 30
0.0
  0
POINT
  5
7CA3
  8
DEFPOINTS
  6
BYBLOCK
 62
     0
 10
4740.4164049999999
 20
4526.244987
 30
0.0
  0
ENDBLK
  5
7CA4
  8
0
  0
BLOCK
  8
0
  2
*D8
 70
     1
 10
0.0
 20
0.0
 30
0.0
  3
*D8
  1

  0
LINE
  5
7D53
  8
3
  6
CONTINUOUS
 62
     0
 10
4180.416404999999
 20
4021.991767
 30
0.0
 11
4180.416404999999
 21
4556.244987
 31
0.0
  0
LINE
  5
7D54
  8
3
  6
CONTINUOUS
 62
     0
 10
4680.416404999999
 20
4526.244987
 30
0.0
 11
4240.4164049999999
 21
4526.244987
 31
0.0
  0
INSERT
  5
7D55
  8
3
  6
CONTINUOUS
 62
     0
  2
_OPEN
 10
4740.4164049999999
 20
4526.244987
 30
0.0
 41
60.0
 42
60.0
 43
60.0
  0
INSERT
  5
7D56
  8
3
  6
CONTINUOUS
 62
     0
  2
_OPEN
 10
4180.416404999999
 20
4526.244987
 30
0.0
 41
60.0
 42
60.0
 43
60.0
 50
180.0
  0
TEXT
  8
3
  40
90
  5
7DBA
  62
0
  72
0
  71
0
 10
4280.42
 20
4516.94
 30
0.000000
  1
MAX
  0
TEXT
  8
3
  40
90
  5
7DBB
  62
0
  72
0
  71
0
 10
4280.42
 20
4399.94
 30
0.000000
  1
610
  0
POINT
  5
7D58
  8
DEFPOINTS
  6
CONTINUOUS
 62
     0
 10
4740.4164049999999
 20
4488.1948249999987
 30
0.0
  0
POINT
  5
7D59
  8
DEFPOINTS
  6
CONTINUOUS
 62
     0
 10
4180.416404999999
 20
4006.991767
 30
0.0
  0
POINT
  5
7D5A
  8
DEFPOINTS
  6
CONTINUOUS
 62
     0
 10
4180.416404999999
 20
4526.244987
 30
0.0
  0
ENDBLK
  5
7CAE
  8
0
  0
BLOCK
  8
0
  2
*D9
 70
     1
 10
0.0
 20
0.0
 30
0.0
  3
*D9
  1

  0
LINE
  5
7D5B
  8
3
  6
CONTINUOUS
 62
     0
 10
4157.4164049999999
 20
2516.991767
 30
0.0
 11
4157.4164049999999
 21
2289.0536120000002
 31
0.0
  0
LINE
  5
7D5C
  8
3
  6
CONTINUOUS
 62
     0
 10
4740.4164049999999
 20
2366.1436799999992
 30
0.0
 11
4740.4164049999999
 21
2289.0536120000002
 31
0.0
  0
LINE
  5
7D5D
  8
3
  6
CONTINUOUS
 62
     0
 10
4217.4164049999999
 20
2319.0536120000002
 30
0.0
 11
4680.416404999999
 21
2319.0536120000002
 31
0.0
  0
INSERT
  5
7D5E
  8
3
  6
CONTINUOUS
 62
     0
  2
_OPEN
 10
4157.4164049999999
 20
2319.0536120000002
 30
0.0
 41
60.0
 42
60.0
 43
60.0
 50
180.0
  0
INSERT
  5
7D5F
  8
3
  6
CONTINUOUS
 62
     0
  2
_OPEN
 10
4740.4164049999999
 20
2319.0536120000002
 30
0.0
 41
60.0
 42
60.0
 43
60.0
  0
TEXT
  8
3
  40
90
  5
7DBC
  62
0
  72
0
  71
0
 10
4280.66
 20
2234.75
 30
0.000000
  1
583
  0
POINT
  5
7D61
  8
DEFPOINTS
  6
CONTINUOUS
 62
     0
 10
4157.4164049999999
 20
2531.991767
 30
0.0
  0
POINT
  5
7D62
  8
DEFPOINTS
  6
CONTINUOUS
 62
     0
 10
4740.4164049999999
 20
2381.1436800000001
 30
0.0
  0
POINT
  5
7D63
  8
DEFPOINTS
  6
CONTINUOUS
 62
     0
 10
4740.4164049999999
 20
2319.0536120000002
 30
0.0
  0
ENDBLK
  5
7BBA
  8
0
  0
BLOCK
  8
0
  2
*D10
 70
     1
 10
0.0
 20
0.0
 30
0.0
  3
*D10
  1

  0
LINE
  5
7D64
  8
3
  6
CONTINUOUS
 62
     0
 10
5207.4164049999999
 20
2516.991767
 30
0.0
 11
5207.4164049999999
 21
2289.0536120000002
 31
0.0
  0
LINE
  5
7D65
  8
3
  6
CONTINUOUS
 62
     0
 10
4800.416404999999
 20
2319.0536120000002
 30
0.0
 11
5147.4164049999999
 21
2319.0536120000002
 31
0.0
  0
INSERT
  5
7D66
  8
3
  6
CONTINUOUS
 62
     0
  2
_OPEN
 10
4740.4164049999999
 20
2319.0536120000002
 30
0.0
 41
60.0
 42
60.0
 43
60.0
 50
180.0
  0
INSERT
  5
7D67
  8
3
  6
CONTINUOUS
 62
     0
  2
_OPEN
 10
5207.4164049999999
 20
2319.0536120000002
 30
0.0
 41
60.0
 42
60.0
 43
60.0
  0
TEXT
  8
3
  40
90
  5
7DBD
  62
0
  72
0
  71
0
 10
4793.92
 20
2234.75
 30
0.000000
  1
467
  0
POINT
  5
7D69
  8
DEFPOINTS
  6
CONTINUOUS
 62
     0
 10
4740.4164049999999
 20
2381.1436800000001
 30
0.0
  0
POINT
  5
7D6A
  8
DEFPOINTS
  6
CONTINUOUS
 62
     0
 10
5207.4164049999999
 20
2531.991767
 30
0.0
  0
POINT
  5
7D6B
  8
DEFPOINTS
  6
CONTINUOUS
 62
     0
 10
5207.4164049999999
 20
2319.0536120000002
 30
0.0
  0
ENDBLK
  5
7BC6
  8
0
  0
BLOCK
  8
0
  2
*D11
 70
     1
 10
0.0
 20
0.0
 30
0.0
  3
*D11
  1

  0
LINE
  5
7D6C
  8
3
  6
CONTINUOUS
 62
     0
 10
985.85045799999989
 20
6415.9770500000013
 30
0.0
 11
985.85045799999989
 21
6528.4979989999993
 31
0.0
  0
LINE
  5
7D6D
  8
3
  6
CONTINUOUS
 62
     0
 10
2685.850457999999
 20
6415.9770500000013
 30
0.0
 11
2685.850457999999
 21
6528.4979989999993
 31
0.0
  0
LINE
  5
7D6E
  8
3
  6
CONTINUOUS
 62
     0
 10
1045.8504579999999
 20
6498.4979990000002
 30
0.0
 11
2625.8504579999999
 21
6498.4979990000002
 31
0.0
  0
INSERT
  5
7D6F
  8
3
  6
CONTINUOUS
 62
     0
  2
_OPEN
 10
985.85045799999989
 20
6498.4979990000002
 30
0.0
 41
60.0
 42
60.0
 43
60.0
 50
180.0
  0
INSERT
  5
7D70
  8
3
  6
CONTINUOUS
 62
     0
  2
_OPEN
 10
2685.850457999999
 20
6498.4979990000002
 30
0.0
 41
60.0
 42
60.0
 43
60.0
  0
TEXT
  8
3
  40
90
  5
7DBE
  62
0
  72
0
  71
0
 10
1618.28
 20
6414.20
 30
0.000000
  1
1700
  0
POINT
  5
7D72
  8
DEFPOINTS
  6
CONTINUOUS
 62
     0
 10
985.85045799999989
 20
6400.9770500000004
 30
0.0
  0
POINT
  5
7D73
  8
DEFPOINTS
  6
CONTINUOUS
 62
     0
 10
2685.850457999999
 20
6400.9770500000004
 30
0.0
  0
POINT
  5
7D74
  8
DEFPOINTS
  6
CONTINUOUS
 62
     0
 10
2685.850457999999
 20
6498.4979990000002
 30
0.0
  0
ENDBLK
  5
7BEA
  8
0
  0
BLOCK
  8
0
  2
*D12
 70
     1
 10
0.0
 20
0.0
 30
0.0
  3
*D12
  1

  0
LINE
  5
7D75
  8
3
  6
CONTINUOUS
 62
     0
 10
2700.8504579999999
 20
6400.9770500000004
 30
0.0
 11
3055.3968640000012
 21
6400.9770500000004
 31
0.0
  0
LINE
  5
7D76
  8
3
  6
CONTINUOUS
 62
     0
 10
2700.8504579999999
 20
5350.9770500000004
 30
0.0
 11
3055.3968640000012
 21
5350.9770500000004
 31
0.0
  0
LINE
  5
7D77
  8
3
  6
CONTINUOUS
 62
     0
 10
3025.3968640000012
 20
6340.9770500000013
 30
0.0
 11
3025.3968640000012
 21
5410.9770500000004
 31
0.0
  0
INSERT
  5
7D78
  8
3
  6
CONTINUOUS
 62
     0
  2
_OPEN
 10
3025.3968640000012
 20
6400.9770500000004
 30
0.0
 41
60.0
 42
60.0
 43
60.0
 50
90.0
  0
INSERT
  5
7D79
  8
3
  6
CONTINUOUS
 62
     0
  2
_OPEN
 10
3025.3968640000012
 20
5350.9770500000004
 30
0.0
 41
60.0
 42
60.0
 43
60.0
 50
270.0
  0
TEXT
  8
3
  40
90
  5
7DBF
  62
0
  72
0
  71
0
 10
2770.40
 20
5745.45
 30
0.000000
  1
1050
  0
POINT
  5
7D7B
  8
DEFPOINTS
  6
CONTINUOUS
 62
     0
 10
2685.850457999999
 20
6400.9770500000004
 30
0.0
  0
POINT
  5
7D7C
  8
DEFPOINTS
  6
CONTINUOUS
 62
     0
 10
2685.850457999999
 20
5350.9770500000004
 30
0.0
  0
POINT
  5
7D7D
  8
DEFPOINTS
  6
CONTINUOUS
 62
     0
 10
3025.3968640000012
 20
5350.9770500000004
 30
0.0
  0
ENDBLK
  5
7BF7
  8
0
  0
BLOCK
  8
0
  2
*D13
 70
     1
 10
0.0
 20
0.0
 30
0.0
  3
*D13
  1

  0
LINE
  5
7D7E
  8
3
  6
CONTINUOUS
 62
     0
 10
985.85045799999989
 20
2516.991767
 30
0.0
 11
985.85045799999989
 21
2245.5399630000002
 31
0.0
  0
LINE
  5
7D7F
  8
3
  6
CONTINUOUS
 62
     0
 10
2115.8504579999999
 20
2413.2652950000002
 30
0.0
 11
2115.8504579999999
 21
2245.5399630000002
 31
0.0
  0
LINE
  5
7D80
  8
3
  6
CONTINUOUS
 62
     0
 10
1045.8504579999999
 20
2275.5399629999988
 30
0.0
 11
2055.8504579999999
 21
2275.5399629999988
 31
0.0
  0
INSERT
  5
7D81
  8
3
  6
CONTINUOUS
 62
     0
  2
_OPEN
 10
985.85045799999989
 20
2275.5399629999988
 30
0.0
 41
60.0
 42
60.0
 43
60.0
 50
180.0
  0
INSERT
  5
7D82
  8
3
  6
CONTINUOUS
 62
     0
  2
_OPEN
 10
2115.8504579999999
 20
2275.5399629999988
 30
0.0
 41
60.0
 42
60.0
 43
60.0
  0
TEXT
  8
3
  40
90
  5
7DC0
  62
0
  72
0
  71
0
 10
1327.21
 20
2191.24
 30
0.000000
  1
1130
  0
POINT
  5
7D84
  8
DEFPOINTS
  6
CONTINUOUS
 62
     0
 10
985.85045799999989
 20
2531.991767
 30
0.0
  0
POINT
  5
7D85
  8
DEFPOINTS
  6
CONTINUOUS
 62
     0
 10
2115.8504579999999
 20
2428.2652950000002
 30
0.0
  0
POINT
  5
7D86
  8
DEFPOINTS
  6
CONTINUOUS
 62
     0
 10
2115.8504579999999
 20
2275.5399629999988
 30
0.0
  0
ENDBLK
  5
7C0A
  8
0
  0
BLOCK
  8
0
  2
*D14
 70
     1
 10
0.0
 20
0.0
 30
0.0
  3
*D14
  1

  0
LINE
  5
7D87
  8
3
  6
CONTINUOUS
 62
     0
 10
2685.850457999999
 20
2516.991767
 30
0.0
 11
2685.850457999999
 21
2245.5399630000002
 31
0.0
  0
LINE
  5
7D88
  8
3
  6
CONTINUOUS
 62
     0
 10
2175.8504579999999
 20
2275.5399629999988
 30
0.0
 11
2625.8504579999999
 21
2275.5399629999988
 31
0.0
  0
INSERT
  5
7D89
  8
3
  6
CONTINUOUS
 62
     0
  2
_OPEN
 10
2115.8504579999999
 20
2275.5399629999988
 30
0.0
 41
60.0
 42
60.0
 43
60.0
 50
180.0
  0
INSERT
  5
7D8A
  8
3
  6
CONTINUOUS
 62
     0
  2
_OPEN
 10
2685.850457999999
 20
2275.5399629999988
 30
0.0
 41
60.0
 42
60.0
 43
60.0
  0
TEXT
  8
3
  40
90
  5
7DC1
  62
0
  72
0
  71
0
 10
2220.85
 20
2191.24
 30
0.000000
  1
570
  0
POINT
  5
7D8C
  8
DEFPOINTS
  6
CONTINUOUS
 62
     0
 10
2115.8504579999999
 20
2428.2652950000002
 30
0.0
  0
POINT
  5
7D8D
  8
DEFPOINTS
  6
CONTINUOUS
 62
     0
 10
2685.850457999999
 20
2531.991767
 30
0.0
  0
POINT
  5
7D8E
  8
DEFPOINTS
  6
CONTINUOUS
 62
     0
 10
2685.850457999999
 20
2275.5399629999988
 30
0.0
  0
ENDBLK
  5
7C16
  8
0
  0
BLOCK
  8
0
  2
*D15
 70
     1
 10
0.0
 20
0.0
 30
0.0
  3
*D15
  1

  0
LINE
  5
7D8F
  8
3
  6
CONTINUOUS
 62
     0
 10
1451.8462320000001
 20
3641.991767
 30
0.0
 11
1451.8462320000001
 21
4404.9702600000001
 31
0.0
  0
LINE
  5
7D90
  8
3
  6
CONTINUOUS
 62
     0
 10
2115.8504579999999
 20
4320.7087080000001
 30
0.0
 11
2115.8504579999999
 21
4404.9702600000001
 31
0.0
  0
LINE
  5
7D91
  8
3
  6
CONTINUOUS
 62
     0
 10
1511.8462320000001
 20
4374.9702600000001
 30
0.0
 11
2055.8504579999999
 21
4374.9702600000001
 31
0.0
  0
INSERT
  5
7D92
  8
3
  6
CONTINUOUS
 62
     0
  2
_OPEN
 10
1451.8462320000001
 20
4374.9702600000001
 30
0.0
 41
60.0
 42
60.0
 43
60.0
 50
180.0
  0
INSERT
  5
7D93
  8
3
  6
CONTINUOUS
 62
     0
  2
_OPEN
 10
2115.8504579999999
 20
4374.9702600000001
 30
0.0
 41
60.0
 42
60.0
 43
60.0
  0
TEXT
  8
3
  40
90
  5
7DC2
  62
0
  72
0
  71
0
 10
1595.82
 20
4290.67
 30
0.000000
  1
664
  0
POINT
  5
7D95
  8
DEFPOINTS
  6
CONTINUOUS
 62
     0
 10
1451.8462320000001
 20
3626.9917669999991
 30
0.0
  0
POINT
  5
7D96
  8
DEFPOINTS
  6
CONTINUOUS
 62
     0
 10
2115.8504579999999
 20
4305.7087080000001
 30
0.0
  0
POINT
  5
7D97
  8
DEFPOINTS
  6
CONTINUOUS
 62
     0
 10
2115.8504579999999
 20
4374.9702600000001
 30
0.0
  0
ENDBLK
  5
7C48
  8
0
  0
BLOCK
  8
0
  2
*D16
 70
     1
 10
0.0
 20
0.0
 30
0.0
  3
*D16
  1

  0
LINE
  5
7D98
  8
3
  6
CONTINUOUS
 62
     0
 10
2710.850457999999
 20
3722.491767
 30
0.0
 11
2710.850457999999
 21
4404.9702600000001
 31
0.0
  0
LINE
  5
7D99
  8
3
  6
CONTINUOUS
 62
     0
 10
2175.8504579999999
 20
4374.9702600000001
 30
0.0
 11
2650.8504579999999
 21
4374.9702600000001
 31
0.0
  0
INSERT
  5
7D9A
  8
3
  6
CONTINUOUS
 62
     0
  2
_OPEN
 10
2115.8504579999999
 20
4374.9702600000001
 30
0.0
 41
60.0
 42
60.0
 43
60.0
 50
180.0
  0
INSERT
  5
7D9B
  8
3
  6
CONTINUOUS
 62
     0
  2
_OPEN
 10
2710.850457999999
 20
4374.9702600000001
 30
0.0
 41
60.0
 42
60.0
 43
60.0
  0
TEXT
  8
3
  40
90
  5
7DC3
  62
0
  72
0
  71
0
 10
2233.35
 20
4290.67
 30
0.000000
  1
595
  0
POINT
  5
7D9D
  8
DEFPOINTS
  6
CONTINUOUS
 62
     0
 10
2115.8504579999999
 20
4305.7087080000001
 30
0.0
  0
POINT
  5
7D9E
  8
DEFPOINTS
  6
CONTINUOUS
 62
     0
 10
2710.850457999999
 20
3707.491767
 30
0.0
  0
POINT
  5
7D9F
  8
DEFPOINTS
  6
CONTINUOUS
 62
     0
 10
2710.850457999999
 20
4374.9702600000001
 30
0.0
  0
ENDBLK
  5
7C54
  8
0
  0
BLOCK
  8
0
  2
*D17
 70
     1
 10
0.0
 20
0.0
 30
0.0
  3
*D17
  1

  0
LINE
  5
7DA0
  8
3
  6
CONTINUOUS
 62
     0
 10
2130.8504579999999
 20
4202.982414106873
 30
0.0
 11
3391.2388660000001
 21
4202.982414106873
 31
0.0
  0
LINE
  5
7DA1
  8
3
  6
CONTINUOUS
 62
     0
 10
3361.2388660000001
 20
3686.991767
 30
0.0
 11
3361.2388660000001
 21
4142.9824141068739
 31
0.0
  0
INSERT
  5
7DA2
  8
3
  6
CONTINUOUS
 62
     0
  2
_OPEN
 10
3361.2388660000001
 20
3626.9917669999991
 30
0.0
 41
60.0
 42
60.0
 43
60.0
 50
270.0
  0
INSERT
  5
7DA3
  8
3
  6
CONTINUOUS
 62
     0
  2
_OPEN
 10
3361.2388660000001
 20
4202.982414106873
 30
0.0
 41
60.0
 42
60.0
 43
60.0
 50
90.0
  0
TEXT
  8
3
  40
90
  5
7DC4
  62
0
  72
0
  71
0
 10
3106.24
 20
3755.69
 30
0.000000
  1
576
  0
POINT
  5
7DA5
  8
DEFPOINTS
  6
CONTINUOUS
 62
     0
 10
2845.2923890000002
 20
3626.9917669999991
 30
0.0
  0
POINT
  5
7DA6
  8
DEFPOINTS
  6
CONTINUOUS
 62
     0
 10
2115.8504579999999
 20
4202.982414106873
 30
0.0
  0
POINT
  5
7DA7
  8
DEFPOINTS
  6
CONTINUOUS
 62
     0
 10
3361.2388660000001
 20
4202.982414106873
 30
0.0
  0
ENDBLK
  5
7C8E
  8
0
  0
BLOCK
  8
0
  2
*D18
 70
     1
 10
0.0
 20
0.0
 30
0.0
  3
*D18
  1

  0
LINE
  5
7DA8
  8
3
 62
     0
 10
2710.850457999999
 20
3722.491767
 30
0.0
 11
2710.850457999999
 21
4560.0160499162657
 31
0.0
  0
LINE
  5
7DA9
  8
3
 62
     0
 10
985.85045799999989
 20
2646.991767
 30
0.0
 11
985.85045799999989
 21
4560.0160499162657
 31
0.0
  0
LINE
  5
7DAA
  8
3
 62
     0
 10
2650.8504579999999
 20
4530.0160499162657
 30
0.0
 11
1045.8504579999999
 21
4530.0160499162657
 31
0.0
  0
INSERT
  5
7DAB
  8
3
 62
     0
  2
_OPEN
 10
2710.850457999999
 20
4530.0160499162657
 30
0.0
 41
60.0
 42
60.0
 43
60.0
  0
INSERT
  5
7DAC
  8
3
 62
     0
  2
_OPEN
 10
985.85045799999989
 20
4530.0160499162657
 30
0.0
 41
60.0
 42
60.0
 43
60.0
 50
180.0
  0
TEXT
  8
3
  40
90
  5
7DC5
  62
0
  72
0
  71
0
 10
1711.80
 20
4445.72
 30
0.000000
  1
1725
  0
POINT
  5
7DAE
  8
DEFPOINTS
 62
     0
 10
2710.850457999999
 20
3707.491767
 30
0.0
  0
POINT
  5
7DAF
  8
DEFPOINTS
 62
     0
 10
985.85045799999989
 20
2631.991767
 30
0.0
  0
POINT
  5
7DB0
  8
DEFPOINTS
 62
     0
 10
985.85045799999989
 20
4530.0160499162657
 30
0.0
  0
ENDBLK
  5
7CC5
  8
0
  0
BLOCK
  8
0
  2
_DOT
 70
     0
 10
0.0
 20
0.0
 30
0.0
  3
_DOT
  1

  0
POLYLINE
  5
7CE0
  8
0
  6
BYBLOCK
 62
     0
 66
     1
 10
0.0
 20
0.0
 30
0.0
 70
     1
 40
0.5
 41
0.5
  0
VERTEX
  5
7DB1
  8
0
  6
BYBLOCK
 62
     0
 10
-0.25
 20
0.0
 30
0.0
 42
1.0
  0
VERTEX
  5
7DB2
  8
0
  6
BYBLOCK
 62
     0
 10
0.25
 20
0.0
 30
0.0
 42
1.0
  0
SEQEND
  5
7DB3
  8
0
  6
BYBLOCK
 62
     0
  0
LINE
  5
7CE1
  8
0
  6
BYBLOCK
 62
     0
 10
-0.5
 20
0.0
 30
0.0
 11
-1.0
 21
0.0
 31
0.0
  0
ENDBLK
  5
7CE3
  8
0
  0
ENDSEC
  0
SECTION
  2
ENTITIES
  0
LINE
  5
7A72
  8
1
  6
CONTINUOUS
 10
5207.4164049999999
 20
2631.991767
 30
0.0
 11
4157.4164049999999
 21
2631.991767
 31
0.0
  0
LINE
  5
7A73
  8
1
  6
CONTINUOUS
 10
5207.4164049999999
 20
2531.991767
 30
0.0
 11
4157.4164049999999
 21
2531.991767
 31
0.0
  0
LINE
  5
7A74
  8
1
  6
CONTINUOUS
 10
4440.416404999999
 20
3664.991767
 30
0.0
 11
5040.4164049999999
 21
3664.991767
 31
0.0
  0
LINE
  5
7A75
  8
1
  6
CONTINUOUS
 10
4440.416404999999
 20
2839.991767
 30
0.0
 11
5040.4164049999999
 21
2839.991767
 31
0.0
  0
LINE
  5
7A76
  8
1
  6
CONTINUOUS
 10
5092.4164049999999
 20
2656.991767
 30
0.0
 11
4272.4164049999999
 21
2656.991767
 31
0.0
  0
LINE
  5
7A77
  8
1
  6
CONTINUOUS
 10
5092.4164049999999
 20
2756.991767
 30
0.0
 11
4180.416404999999
 21
2756.991767
 31
0.0
  0
LINE
  5
7A78
  8
1
  6
CONTINUOUS
 10
4440.416404999999
 20
4204.5417670000006
 30
0.0
 11
5040.4164049999999
 21
4204.5417670000006
 31
0.0
  0
LINE
  5
7A79
  8
1
  6
CONTINUOUS
 10
5040.4164049999999
 20
2839.991767
 30
0.0
 11
4440.416404999999
 21
3664.991767
 31
0.0
  0
LINE
  5
7A7A
  8
1
  6
CONTINUOUS
 10
4440.416404999999
 20
2839.991767
 30
0.0
 11
5040.4164049999999
 21
3664.991767
 31
0.0
  0
ARC
  5
7A7B
  8
1
  6
CONTINUOUS
 10
2071.850457999999
 20
3582.991767
 30
0.0
 40
621.54999999999995
 50
83.499999999999986
 51
175.24000000000001
  0
LINE
  5
7A7C
  8
1
  6
CONTINUOUS
 10
2685.850457999999
 20
2631.991767
 30
0.0
 11
985.85045799999989
 21
2631.991767
 31
0.0
  0
LINE
  5
7A7D
  8
1
  6
CONTINUOUS
 10
2685.850457999999
 20
2531.991767
 30
0.0
 11
985.85045799999989
 21
2531.991767
 31
0.0
  0
LINE
  5
7A7E
  8
1
  6
CONTINUOUS
 10
2535.8504579999999
 20
4006.991767
 30
0.0
 11
1965.8504579999999
 21
4006.991767
 31
0.0
  0
LINE
  5
7A7F
  8
1
  6
CONTINUOUS
 10
2635.8504579999999
 20
2656.991767
 30
0.0
 11
1035.8504579999999
 21
2656.991767
 31
0.0
  0
LINE
  5
7A82
  8
1
  6
CONTINUOUS
 10
2635.850457999999
 20
2756.991767
 30
0.0
 11
1035.8504579999999
 21
2756.991767
 31
0.0
  0
ARC
  5
7A84
  8
1
  6
CONTINUOUS
 10
2080.8504579999999
 20
3661.9917669999991
 30
0.0
 40
542.03999999999985
 50
0.32
 51
83.499999999999986
  0
LINE
  5
7A85
  8
1
  6
CONTINUOUS
 10
2710.850457999999
 20
2839.991767
 30
0.0
 11
2115.8504579999999
 21
2858.991767
 31
0.0
  0
LINE
  5
7A86
  8
1
  6
CONTINUOUS
 10
1250.950458
 20
2892.1717669999998
 30
0.0
 11
2216.4604579999991
 21
3454.1417670000001
 31
0.0
  0
LINE
  5
7A87
  8
1
  6
CONTINUOUS
 10
1162.1104580000001
 20
3011.8717670000001
 30
0.0
 11
1979.530457999999
 21
3773.3317670000001
 31
0.0
  0
LINE
  5
7A88
  8
1
  6
CONTINUOUS
 10
1965.8504579999999
 20
4006.991767
 30
0.0
 11
1055.8504579999999
 21
3056.9917669999991
 31
0.0
  0
ARC
  5
7A89
  8
1
  6
CONTINUOUS
 10
2167.850457999999
 20
3574.991767
 30
0.0
 40
717.88999999999987
 50
175.24000000000001
 51
265.85000000000002
  0
ARC
  5
7A8A
  8
1
  6
CONTINUOUS
 10
1213.2304579999991
 20
2956.9917669999991
 30
0.0
 40
162.0
 50
324.97000000000003
 51
215.02999999999989
  0
CIRCLE
  5
7A8B
  8
1
  6
CONTINUOUS
 10
1213.2304579999991
 20
2956.9917669999991
 30
0.0
 40
75.0
  0
LINE
  5
7A8C
  8
1
  6
CONTINUOUS
 10
1055.8504579999999
 20
3056.9917669999991
 30
0.0
 11
1055.8504579999999
 21
2756.991767
 31
0.0
  0
LINE
  5
7A8D
  8
2
  6
CENTER
 10
1213.2304579999991
 20
2881.991767
 30
0.0
 11
1213.2304579999991
 21
3031.991767
 31
0.0
  0
LINE
  5
7A8E
  8
1
  6
CONTINUOUS
 10
1059.230458
 20
2814.991767
 30
0.0
 11
1080.570457999999
 21
2864.011767
 31
0.0
  0
LINE
  5
7A8F
  8
1
  6
CONTINUOUS
 10
985.85045799999989
 20
2631.991767
 30
0.0
 11
985.85045799999989
 21
2531.991767
 31
0.0
  0
LINE
  5
7A90
  8
1
  6
CONTINUOUS
 10
1059.230458
 20
2756.991767
 30
0.0
 11
1059.230458
 21
2814.991767
 31
0.0
  0
LINE
  5
7A91
  8
1
  6
CONTINUOUS
 10
1035.8504579999999
 20
2756.991767
 30
0.0
 11
1035.8504579999999
 21
2656.991767
 31
0.0
  0
LINE
  5
7A92
  8
2
  6
CENTER
 10
1138.230458
 20
2956.9917669999991
 30
0.0
 11
1288.230458
 21
2956.9917669999991
 31
0.0
  0
LINE
  5
7A93
  8
1
  6
CONTINUOUS
 10
1367.230458
 20
2814.991767
 30
0.0
 11
1345.8804580000001
 21
2864.011767
 31
0.0
  0
LINE
  5
7A94
  8
1
  6
CONTINUOUS
 10
1367.230458
 20
2756.991767
 30
0.0
 11
1367.230458
 21
2814.991767
 31
0.0
  0
LINE
  5
7A96
  8
2
  6
CENTER
 10
5119.4310350000014
 20
3626.9917669999991
 30
0.0
 11
4069.5871350000002
 21
3626.9917669999991
 31
0.0
  0
CIRCLE
  5
7A97
  8
1
  6
CONTINUOUS
 10
2115.8504579999999
 20
3626.9917669999991
 30
0.0
 40
200.0
  0
LINE
  5
7A98
  8
2
  6
CENTER
 10
2115.8504579999999
 20
6413.0584280000012
 30
0.0
 11
2115.8504579999999
 21
5269.3555319999987
 31
0.0
  0
LINE
  5
7A9B
  8
1
  6
CONTINUOUS
 10
2535.8504579999999
 20
2756.991767
 30
0.0
 11
2535.8504579999999
 21
4006.991767
 31
0.0
  0
LINE
  5
7A9D
  8
1
  6
CONTINUOUS
 10
2710.850457999999
 20
3707.491767
 30
0.0
 11
2710.850457999999
 21
2797.491767
 31
0.0
  0
LINE
  5
7A9E
  8
1
  6
CONTINUOUS
 10
2685.850457999999
 20
2631.991767
 30
0.0
 11
2685.850457999999
 21
2531.991767
 31
0.0
  0
LINE
  5
7A9F
  8
1
  6
CONTINUOUS
 10
2635.8504579999999
 20
2756.991767
 30
0.0
 11
2635.8504579999999
 21
2656.991767
 31
0.0
  0
LINE
  5
7AA1
  8
1
  6
CONTINUOUS
 10
2622.8804580000001
 20
3664.991767
 30
0.0
 11
2710.850457999999
 21
3664.991767
 31
0.0
  0
LINE
  5
7AA2
  8
1
  6
CONTINUOUS
 10
4440.416404999999
 20
4204.5417670000006
 30
0.0
 11
4440.416404999999
 21
2756.991767
 31
0.0
  0
LINE
  5
7AA3
  8
1
  6
CONTINUOUS
 10
4180.416404999999
 20
4006.991767
 30
0.0
 11
4180.416404999999
 21
2756.991767
 31
0.0
  0
LINE
  5
7AA4
  8
1
  6
CONTINUOUS
 10
4330.4164049999999
 20
4006.991767
 30
0.0
 11
4330.4164049999999
 21
2756.991767
 31
0.0
  0
LINE
  5
7AA5
  8
1
  6
CONTINUOUS
 10
4220.4164049999999
 20
3031.991767
 30
0.0
 11
4220.4164049999999
 21
2881.991767
 31
0.0
  0
LINE
  5
7AA6
  8
1
  6
CONTINUOUS
 10
4290.4164049999999
 20
3031.991767
 30
0.0
 11
4290.4164049999999
 21
2881.991767
 31
0.0
  0
LINE
  5
7AA7
  8
1
  6
CONTINUOUS
 10
4220.4164049999999
 20
2881.991767
 30
0.0
 11
4290.4164049999999
 21
2881.991767
 31
0.0
  0
LINE
  5
7AA8
  8
1
  6
CONTINUOUS
 10
4157.4164049999999
 20
2631.991767
 30
0.0
 11
4157.4164049999999
 21
2531.991767
 31
0.0
  0
LINE
  5
7AA9
  8
1
  6
CONTINUOUS
 10
4272.4164049999999
 20
2756.991767
 30
0.0
 11
4272.4164049999999
 21
2656.991767
 31
0.0
  0
LINE
  5
7AAA
  8
1
  6
CONTINUOUS
 10
4290.4164049999999
 20
2977.991767
 30
0.0
 11
4440.416404999999
 21
2977.991767
 31
0.0
  0
LINE
  5
7AAB
  8
1
  6
CONTINUOUS
 10
4290.4164049999999
 20
2935.991767
 30
0.0
 11
4440.416404999999
 21
2935.991767
 31
0.0
  0
LINE
  5
7AAC
  8
1
  6
CONTINUOUS
 10
4220.4164049999999
 20
3826.9917669999991
 30
0.0
 11
4220.4164049999999
 21
3426.991767
 31
0.0
  0
LINE
  5
7AAD
  8
1
  6
CONTINUOUS
 10
4290.4164049999999
 20
3826.9917669999991
 30
0.0
 11
4290.4164049999999
 21
3426.991767
 31
0.0
  0
LINE
  5
7AAE
  8
1
  6
CONTINUOUS
 10
4220.4164049999999
 20
3426.991767
 30
0.0
 11
4290.4164049999999
 21
3426.991767
 31
0.0
  0
LINE
  5
7AAF
  8
1
  6
CONTINUOUS
 10
4220.4164049999999
 20
3031.991767
 30
0.0
 11
4290.4164049999999
 21
3031.991767
 31
0.0
  0
LINE
  5
7AB0
  8
1
  6
CONTINUOUS
 10
4440.416404999999
 20
3647.991767
 30
0.0
 11
4290.4164049999999
 21
3647.991767
 31
0.0
  0
LINE
  5
7AB1
  8
1
  6
CONTINUOUS
 10
4440.416404999999
 20
3605.9917669999991
 30
0.0
 11
4290.4164049999999
 21
3605.9917669999991
 31
0.0
  0
LINE
  5
7AB2
  8
1
  6
CONTINUOUS
 10
4330.4164049999999
 20
4006.991767
 30
0.0
 11
4180.416404999999
 21
4006.991767
 31
0.0
  0
LINE
  5
7AB3
  8
1
  6
CONTINUOUS
 10
4220.4164049999999
 20
3826.9917669999991
 30
0.0
 11
4290.4164049999999
 21
3826.9917669999991
 31
0.0
  0
LINE
  5
7AB4
  8
1
  6
CONTINUOUS
 10
2315.850457999999
 20
5465.9770500000013
 30
0.0
 11
2635.8504579999999
 21
5465.9770500000013
 31
0.0
  0
LINE
  5
7AB5
  8
1
  6
CONTINUOUS
 10
1449.960458
 20
6233.9770500000004
 30
0.0
 11
2710.850457999999
 21
6233.9770500000004
 31
0.0
  0
LINE
  5
7AB6
  8
1
  6
CONTINUOUS
 10
1449.960458
 20
5633.9770500000013
 30
0.0
 11
2710.850457999999
 21
5633.9770500000013
 31
0.0
  0
LINE
  5
7AB7
  8
1
  6
CONTINUOUS
 10
1035.8504579999999
 20
6285.9770500000004
 30
0.0
 11
2635.8504579999999
 21
6285.9770500000004
 31
0.0
  0
LINE
  5
7AB8
  8
1
  6
CONTINUOUS
 10
1055.8504579999999
 20
5373.9770500000004
 30
0.0
 11
2535.8504579999999
 21
5373.9770500000004
 31
0.0
  0
LINE
  5
7AB9
  8
1
  6
CONTINUOUS
 10
1055.8504579999999
 20
5523.9770500000004
 30
0.0
 11
2535.8504579999999
 21
5523.9770500000004
 31
0.0
  0
LINE
  5
7ABA
  8
1
  6
CONTINUOUS
 10
1288.230458
 20
5465.9770500000013
 30
0.0
 11
1915.850457999999
 21
5465.9770500000013
 31
0.0
  0
LINE
  5
7ABB
  8
1
  6
CONTINUOUS
 10
985.85045799999989
 20
6400.9770500000004
 30
0.0
 11
985.85045799999989
 21
5350.9770500000004
 31
0.0
  0
LINE
  5
7ABC
  8
1
  6
CONTINUOUS
 10
1375.230458
 20
5571.9770500000004
 30
0.0
 11
1375.230458
 21
6056.9770500000004
 31
0.0
  0
LINE
  5
7ABD
  8
1
  6
CONTINUOUS
 10
1051.230458
 20
5571.9770500000004
 30
0.0
 11
1051.230458
 21
6056.9770500000004
 31
0.0
  0
LINE
  5
7ABE
  8
1
  6
CONTINUOUS
 10
1035.8504579999999
 20
6400.9770500000004
 30
0.0
 11
1035.8504579999999
 21
5350.9770500000004
 31
0.0
  0
LINE
  5
7ABF
  8
1
  6
CONTINUOUS
 10
1449.960458
 20
5633.9770500000013
 30
0.0
 11
1449.960458
 21
6233.9770500000004
 31
0.0
  0
LINE
  5
7AC0
  8
1
  6
CONTINUOUS
 10
1051.230458
 20
5571.9770500000004
 30
0.0
 11
1375.230458
 21
5571.9770500000004
 31
0.0
  0
LINE
  5
7AC1
  8
1
  6
CONTINUOUS
 10
1035.8504579999999
 20
5465.9770500000013
 30
0.0
 11
1138.230458
 21
5465.9770500000013
 31
0.0
  0
LINE
  5
7AC2
  8
1
  6
CONTINUOUS
 10
985.85045799999989
 20
5350.9770500000004
 30
0.0
 11
1035.8504579999999
 21
5350.9770500000004
 31
0.0
  0
LINE
  5
7AC3
  8
1
  6
CONTINUOUS
 10
1055.8504579999999
 20
5523.9770500000004
 30
0.0
 11
1055.8504579999999
 21
5373.9770500000004
 31
0.0
  0
LINE
  5
7AC4
  8
1
  6
CONTINUOUS
 10
1288.230458
 20
5483.9770500000004
 30
0.0
 11
1138.230458
 21
5483.9770500000004
 31
0.0
  0
LINE
  5
7AC5
  8
1
  6
CONTINUOUS
 10
1288.230458
 20
5413.9770500000004
 30
0.0
 11
1138.230458
 21
5413.9770500000004
 31
0.0
  0
LINE
  5
7AC6
  8
1
  6
CONTINUOUS
 10
1234.230458
 20
5483.9770500000004
 30
0.0
 11
1234.230458
 21
5571.9770500000004
 31
0.0
  0
LINE
  5
7AC7
  8
1
  6
CONTINUOUS
 10
1192.230458
 20
5483.9770500000004
 30
0.0
 11
1192.230458
 21
5571.9770500000004
 31
0.0
  0
LINE
  5
7AC8
  8
1
  6
CONTINUOUS
 10
1138.230458
 20
5413.9770500000004
 30
0.0
 11
1138.230458
 21
5483.9770500000004
 31
0.0
  0
LINE
  5
7AC9
  8
1
  6
CONTINUOUS
 10
1288.230458
 20
5413.9770500000004
 30
0.0
 11
1288.230458
 21
5483.9770500000004
 31
0.0
  0
LINE
  5
7ACA
  8
1
  6
CONTINUOUS
 10
1051.230458
 20
6056.9770500000004
 30
0.0
 11
1375.230458
 21
6056.9770500000004
 31
0.0
  0
LINE
  5
7ACB
  8
1
  6
CONTINUOUS
 10
985.85045799999989
 20
6400.9770500000004
 30
0.0
 11
1035.8504579999999
 21
6400.9770500000004
 31
0.0
  0
LINE
  5
7ACC
  8
1
  6
CONTINUOUS
 10
2315.850457999999
 20
5483.9770500000004
 30
0.0
 11
1915.850457999999
 21
5483.9770500000004
 31
0.0
  0
LINE
  5
7ACD
  8
1
  6
CONTINUOUS
 10
2315.850457999999
 20
5413.9770500000004
 30
0.0
 11
1915.850457999999
 21
5413.9770500000004
 31
0.0
  0
LINE
  5
7ACE
  8
1
  6
CONTINUOUS
 10
1915.850457999999
 20
5413.9770500000004
 30
0.0
 11
1915.850457999999
 21
5483.9770500000004
 31
0.0
  0
LINE
  5
7ACF
  8
1
  6
CONTINUOUS
 10
2094.850457999999
 20
5483.9770500000004
 30
0.0
 11
2094.850457999999
 21
5633.9770500000013
 31
0.0
  0
LINE
  5
7AD0
  8
1
  6
CONTINUOUS
 10
2136.8504579999999
 20
5483.9770500000004
 30
0.0
 11
2136.8504579999999
 21
5633.9770500000013
 31
0.0
  0
LINE
  5
7AD1
  8
1
  6
CONTINUOUS
 10
2315.850457999999
 20
5413.9770500000004
 30
0.0
 11
2315.850457999999
 21
5483.9770500000004
 31
0.0
  0
LINE
  5
7AD2
  8
1
  6
CONTINUOUS
 10
2670.8504579999999
 20
5633.9770500000013
 30
0.0
 11
2670.8504579999999
 21
6233.9770500000004
 31
0.0
  0
LINE
  5
7AD3
  8
1
  6
CONTINUOUS
 10
2710.850457999999
 20
5591.9770500000004
 30
0.0
 11
2710.850457999999
 21
6275.9770500000013
 31
0.0
  0
LINE
  5
7AD4
  8
1
  6
CONTINUOUS
 10
2535.8504579999999
 20
5373.9770500000004
 30
0.0
 11
2535.8504579999999
 21
5523.9770500000004
 31
0.0
  0
LINE
  5
7AD5
  8
1
  6
CONTINUOUS
 10
2635.8504579999999
 20
5350.9770500000004
 30
0.0
 11
2685.850457999999
 21
5350.9770500000004
 31
0.0
  0
LINE
  5
7AD6
  8
1
  6
CONTINUOUS
 10
2685.850457999999
 20
5633.9770500000013
 30
0.0
 11
2685.850457999999
 21
5350.9770500000004
 31
0.0
  0
LINE
  5
7AD7
  8
1
  6
CONTINUOUS
 10
2635.8504579999999
 20
5633.9770500000013
 30
0.0
 11
2635.8504579999999
 21
5350.9770500000004
 31
0.0
  0
LINE
  5
7AD8
  8
1
  6
CONTINUOUS
 10
2685.850457999999
 20
6400.9770500000004
 30
0.0
 11
2685.850457999999
 21
6233.9770500000004
 31
0.0
  0
LINE
  5
7AD9
  8
1
  6
CONTINUOUS
 10
2635.8504579999999
 20
6400.9770500000004
 30
0.0
 11
2685.850457999999
 21
6400.9770500000004
 31
0.0
  0
LINE
  5
7ADA
  8
1
  6
CONTINUOUS
 10
2635.8504579999999
 20
6400.9770500000004
 30
0.0
 11
2635.8504579999999
 21
6233.9770500000004
 31
0.0
  0
LINE
  5
7ADB
  8
1
  6
CONTINUOUS
 10
5040.4164049999999
 20
4204.5417670000006
 30
0.0
 11
5040.4164049999999
 21
2756.991767
 31
0.0
  0
LINE
  5
7ADC
  8
1
  6
CONTINUOUS
 10
5092.4164049999999
 20
2756.991767
 30
0.0
 11
5092.4164049999999
 21
2656.991767
 31
0.0
  0
LINE
  5
7ADD
  8
1
  6
CONTINUOUS
 10
5207.4164049999999
 20
2631.991767
 30
0.0
 11
5207.4164049999999
 21
2531.991767
 31
0.0
  0
LINE
  5
7ADE
  8
2
  6
CENTER
 10
917.99108699999977
 20
5933.9770500000013
 30
0.0
 11
2786.4323420000001
 21
5933.9770500000013
 31
0.0
  0
LINE
  5
7ADF
  8
2
  6
CENTER
 10
4740.4164049999999
 20
4352.556079
 30
0.0
 11
4740.4164049999999
 21
2381.1436800000001
 31
0.0
  0
LINE
  5
7AE0
  8
2
  6
CENTER
 10
2115.8504579999999
 20
4305.7087080000001
 30
0.0
 11
2115.8504579999999
 21
2387.5943619999998
 31
0.0
  0
LINE
  5
7AE1
  8
2
  6
CENTER
 10
2845.2923890000002
 20
3626.9917669999991
 30
0.0
 11
1168.782844999999
 21
3626.9917669999991
 31
0.0
  0
LINE
  5
7B01
  8
4
  6
CONTINUOUS
 10
5550.0
 20
1500.0
 30
0.0
 11
5550.0
 21
900.0
 31
0.0
  0
LINE
  5
7B02
  8
4
  6
CONTINUOUS
 10
3450.0
 20
1500.0
 30
0.0
 11
3450.0
 21
900.0
 31
0.0
  0
LINE
  5
7B03
  8
4
  6
CONTINUOUS
 10
1950.0
 20
1500.0
 30
0.0
 11
1950.0
 21
900.0
 31
0.0
  0
LINE
  5
7B06
  8
4
  6
CONTINUOUS
 10
1950.0
 20
900.0
 30
0.0
 11
5550.0
 21
900.0
 31
0.0
  0
LINE
  5
7B07
  8
4
  6
CONTINUOUS
 10
1950.0
 20
1200.0
 30
0.0
 11
5550.0
 21
1200.0
 31
0.0
  0
TEXT
  5
7B08
  8
4
  6
CONTINUOUS
 10
2065.5062429999989
 20
1294.6290779999999
 30
0.0
 40
150.0
  1
機器名称
  0
TEXT
  5
7B09
  8
4
  6
CONTINUOUS
 10
2058.7743179999989
 20
964.9354699999999
 30
0.0
 40
150.0
  1
機器型番
  0
TEXT
  5
7B0A
  8
4
  6
CONTINUOUS
 10
3533.0362359999999
 20
1267.7153069999999
 30
0.0
 40
150.0
  1
ミツヤ多翼送風機
  0
TEXT
  5
7B0B
  8
4
  6
CONTINUOUS
 10
3559.9634869999991
 20
951.47875299999987
 30
0.0
 40
150.0
  1
MF#5-4
  0
TEXT
  5
7B0D
  8
4
  6
CONTINUOUS
 10
2156.7261149999999
 20
7150.2865239999992
 30
0.0
 40
162.0
  1
天井吊防振ベット
  0
TEXT
  5
7B0E
  8
4
  6
CONTINUOUS
 10
948.50278000000014
 20
7601.6429289999996
 30
0.0
 40
216.0
  1
ベルト駆動式片吸込両持多翼ファン
  0
LINE
  5
7B0F
  8
4
  6
CONTINUOUS
 10
750.0
 20
7408.2262629999996
 30
0.0
 11
5550.0
 21
7408.2262629999996
 31
0.0
  0
LINE
  5
7B10
  8
4
  6
CONTINUOUS
 10
750.0
 20
8008.2262629999996
 30
0.0
 11
5550.0
 21
8008.2262629999996
 31
0.0
  0
LINE
  5
7B11
  8
4
  6
CONTINUOUS
 10
1950.0
 20
1500.0
 30
0.0
 11
5550.0
 21
1500.0
 31
0.0
  0
LINE
  5
7B12
  8
4
  6
CONTINUOUS
 10
750.0
 20
8008.2262629999996
 30
0.0
 11
750.0
 21
7408.2262629999996
 31
0.0
  0
TEXT
  5
7B13
  8
4
  6
CONTINUOUS
 10
849.14961899999992
 20
7146.9584329999998
 30
0.0
 40
162.0
  1
左回転右横向
  0
TEXT
  5
7B14
  8
4
  6
CONTINUOUS
 10
4406.9086779999989
 20
8118.1832439999989
 30
0.0
 40
168.0
  1
No.
  0
TEXT
  5
7B15
  8
4
  6
CONTINUOUS
 10
3933.8881879999999
 20
7150.2865239999992
 30
0.0
 40
162.0
  1
縮尺：1/30
  0
LINE
  5
7B16
  8
4
  6
CONTINUOUS
 10
5550.0
 20
8008.2262629999996
 30
0.0
 11
5550.0
 21
7408.2262629999996
 31
0.0
  0
LINE
  5
7B18
  8
4
  6
CONTINUOUS
 10
4321.8522670000002
 20
8043.7907490000007
 30
0.0
 11
4321.8522670000002
 21
8359.9567849999985
 31
0.0
  0
LINE
  5
7B19
  8
4
  6
CONTINUOUS
 10
4321.8522670000002
 20
8359.9567849999985
 30
0.0
 11
5550.0
 21
8359.9567849999985
 31
0.0
  0
LINE
  5
7B1A
  8
4
  6
CONTINUOUS
 10
5550.0
 20
8359.9567849999985
 30
0.0
 11
5550.0
 21
8043.7907490000007
 31
0.0
  0
LINE
  5
7B1B
  8
4
  6
CONTINUOUS
 10
5550.0
 20
8043.7907490000007
 30
0.0
 11
4321.8522670000002
 21
8043.7907490000007
 31
0.0
  0
DIMENSION
  5
7B33
  8
3
  6
CONTINUOUS
  2
*D1
 10
2947.8948409999998
 20
2839.991767
 30
0.0
 11
2947.8948409999998
 21
3229.0360249999999
 31
0.0
 70
   128
 13
2710.850457999999
 23
3664.991767
 33
0.0
 14
2710.850457999999
 24
2839.991767
 34
0.0
 50
90.0
1001
ACAD
1000
DSTYLE
1002
{
1070
   287
1070
     3
1070
    40
1040
30.0
1070
   143
1040
0.039
1070
   172
1070
     1
1070
   271
1070
     0
1070
   279
1070
     0
1070
   288
1070
     1
1002
}
  0
DIMENSION
  5
7B40
  8
3
  6
CONTINUOUS
  2
*D2
 10
3154.5668700000001
 20
2839.9917669999991
 30
0.0
 11
3154.5668700000001
 21
3229.0360249999999
 31
0.0
 70
   128
 13
2845.2923890000002
 23
3626.9917669999991
 33
0.0
 14
2710.850457999999
 24
2839.991767
 34
0.0
 50
90.0
1001
ACAD
1000
DSTYLE
1002
{
1070
   287
1070
     3
1070
    40
1040
30.0
1070
   143
1040
0.039
1070
   172
1070
     1
1070
   271
1070
     0
1070
   279
1070
     0
1070
   288
1070
     1
1002
}
  0
DIMENSION
  5
7B59
  8
3
  6
CONTINUOUS
  2
*D3
 10
3361.2388660000001
 20
2656.9917669999991
 30
0.0
 11
3286.2388659999988
 21
3141.991767
 31
0.0
 70
     0
 13
2845.2923890000002
 23
3626.9917669999991
 33
0.0
 14
2635.8504579999999
 24
2656.991767
 34
0.0
 50
90.0
1001
ACAD
1000
DSTYLE
1002
{
1070
   287
1070
     3
1070
    40
1040
30.0
1070
   143
1040
0.039
1070
   172
1070
     1
1070
   271
1070
     0
1070
   279
1070
     0
1070
   288
1070
     1
1002
}
  0
DIMENSION
  5
7B69
  8
3
  6
CONTINUOUS
  2
*D4
 10
3363.0799390000002
 20
2531.9917669999991
 30
0.0
 11
3363.0799390000002
 21
2274.8489098571431
 31
0.0
 70
   128
 13
2635.8504579999999
 23
2656.991767
 33
0.0
 14
2685.850457999999
 24
2531.991767
 34
0.0
 50
90.0
1001
ACAD
1000
DSTYLE
1002
{
1070
   287
1070
     3
1070
    40
1040
30.0
1070
   143
1040
0.039
1070
   172
1070
     1
1070
   271
1070
     0
1070
   279
1070
     0
1070
   288
1070
     1
1002
}
  0
DIMENSION
  5
7B83
  8
3
  6
CONTINUOUS
  2
*D5
 10
4440.416404999999
 20
4339.0854929999987
 30
0.0
 11
4738.3795029999992
 21
4339.0854929999987
 31
0.0
 70
   128
 13
5040.4164049999999
 23
4204.5417670000006
 33
0.0
 14
4440.416404999999
 24
4204.5417670000006
 34
0.0
1001
ACAD
1000
DSTYLE
1002
{
1070
   287
1070
     3
1070
    40
1040
30.0
1070
   143
1040
0.039
1070
   172
1070
     1
1070
   271
1070
     0
1070
   279
1070
     0
1070
   288
1070
     1
1002
}
  0
LINE
  5
7B84
  8
1
  6
CONTINUOUS
 10
5044.416404999999
 20
4051.9917669999991
 30
0.0
 11
5044.416404999999
 21
3201.9917669999991
 31
0.0
  0
DIMENSION
  5
7B93
  8
3
  6
CONTINUOUS
  2
*D6
 10
5293.8105720000012
 20
3201.9917669999991
 30
0.0
 11
5293.8105720000003
 21
3622.7163650000002
 31
0.0
 70
   128
 13
5044.416404999999
 23
4051.9917669999991
 33
0.0
 14
5044.416404999999
 24
3201.9917669999991
 34
0.0
 50
90.0
1001
ACAD
1000
DSTYLE
1002
{
1070
   287
1070
     3
1070
     3
1000
φ<>
1070
    40
1040
30.0
1070
   143
1040
0.039
1070
   172
1070
     1
1070
   271
1070
     0
1070
   279
1070
     0
1070
   288
1070
     1
1002
}
  0
DIMENSION
  5
7BA2
  8
3
  6
CONTINUOUS
  2
*D7
 10
4740.4164049999999
 20
4526.244987
 30
0.0
 11
4892.4164049999999
 21
4594.770663270544
 31
0.0
 70
   128
 13
5044.416404999999
 23
4051.9917669999991
 33
0.0
 14
4740.4164049999999
 24
4488.1948249999987
 34
0.0
1001
ACAD
1000
DSTYLE
1002
{
1070
   288
1070
     1
1070
   172
1070
     1
1070
    40
1040
30.0
1070
   271
1070
     0
1070
   143
1040
0.039
1002
}
  0
DIMENSION
  5
7BAE
  8
3
  6
CONTINUOUS
  2
*D8
 10
4180.416404999999
 20
4526.244987
 30
0.0
 11
4460.4164049999999
 21
4676.244987
 31
0.0
 70
     0
  1
MAX\P610
 13
4740.4164049999999
 23
4488.1948249999987
 33
0.0
 14
4180.416404999999
 24
4006.991767
 34
0.0
1001
ACAD
1000
DSTYLE
1002
{
1070
   287
1070
     4
1070
    40
1040
30.0
1070
    75
1070
     1
1070
   143
1040
0.039
1070
   172
1070
     1
1070
   271
1070
     0
1070
   279
1070
     1
1070
   288
1070
     1
1002
}
  0
DIMENSION
  5
7BBB
  8
3
  6
CONTINUOUS
  2
*D9
 10
4740.4164049999999
 20
2319.0536120000002
 30
0.0
 11
4460.6639690000002
 21
2319.0536120000002
 31
0.0
 70
   128
 13
4157.4164049999999
 23
2531.991767
 33
0.0
 14
4740.4164049999999
 24
2381.1436800000001
 34
0.0
1001
ACAD
1000
DSTYLE
1002
{
1070
   287
1070
     3
1070
    40
1040
30.0
1070
   143
1040
0.039
1070
   172
1070
     1
1070
   271
1070
     0
1070
   279
1070
     0
1070
   288
1070
     1
1002
}
  0
DIMENSION
  5
7BC7
  8
3
  6
CONTINUOUS
  2
*D10
 10
5207.4164049999999
 20
2319.0536120000002
 30
0.0
 11
4973.9164049999999
 21
2394.0536119999988
 31
0.0
 70
     0
 13
4740.4164049999999
 23
2381.1436800000001
 33
0.0
 14
5207.4164049999999
 24
2531.991767
 34
0.0
1001
ACAD
1000
DSTYLE
1002
{
1070
   287
1070
     4
1070
    40
1040
30.0
1070
    75
1070
     1
1070
   143
1040
0.039
1070
   172
1070
     1
1070
   271
1070
     0
1070
   279
1070
     1
1070
   288
1070
     1
1002
}
  0
DIMENSION
  5
7BEB
  8
3
  6
CONTINUOUS
  2
*D11
 10
2685.850457999999
 20
6498.4979990000002
 30
0.0
 11
1798.2817259999999
 21
6498.4979990000002
 31
0.0
 70
   128
 13
985.85045799999989
 23
6400.9770500000004
 33
0.0
 14
2685.850457999999
 24
6400.9770500000004
 34
0.0
1001
ACAD
1000
DSTYLE
1002
{
1070
   287
1070
     3
1070
    40
1040
30.0
1070
   143
1040
0.039
1070
   172
1070
     1
1070
   271
1070
     0
1070
   279
1070
     0
1070
   288
1070
     1
1002
}
  0
DIMENSION
  5
7BF8
  8
3
  6
CONTINUOUS
  2
*D12
 10
3025.3968640000012
 20
5350.9770500000004
 30
0.0
 11
3025.3968639999998
 21
5904.7506039999998
 31
0.0
 70
   128
 13
2685.850457999999
 23
6400.9770500000004
 33
0.0
 14
2685.850457999999
 24
5350.9770500000004
 34
0.0
 50
90.0
1001
ACAD
1000
DSTYLE
1002
{
1070
   287
1070
     3
1070
    40
1040
30.0
1070
   143
1040
0.039
1070
   172
1070
     1
1070
   271
1070
     0
1070
   279
1070
     0
1070
   288
1070
     1
1002
}
  0
DIMENSION
  5
7C0B
  8
3
  6
CONTINUOUS
  2
*D13
 10
2115.8504579999999
 20
2275.5399629999988
 30
0.0
 11
1507.2069449999999
 21
2275.5399629999988
 31
0.0
 70
   128
 13
985.85045799999989
 23
2531.991767
 33
0.0
 14
2115.8504579999999
 24
2428.2652950000002
 34
0.0
1001
ACAD
1000
DSTYLE
1002
{
1070
   287
1070
     3
1070
    40
1040
30.0
1070
   143
1040
0.039
1070
   172
1070
     1
1070
   271
1070
     0
1070
   279
1070
     0
1070
   288
1070
     1
1002
}
  0
DIMENSION
  5
7C17
  8
3
  6
CONTINUOUS
  2
*D14
 10
2685.850457999999
 20
2275.5399629999988
 30
0.0
 11
2400.8504579999999
 21
2350.5399629999988
 31
0.0
 70
     0
 13
2115.8504579999999
 23
2428.2652950000002
 33
0.0
 14
2685.850457999999
 24
2531.991767
 34
0.0
1001
ACAD
1000
DSTYLE
1002
{
1070
   287
1070
     4
1070
    40
1040
30.0
1070
    75
1070
     1
1070
   143
1040
0.039
1070
   172
1070
     1
1070
   271
1070
     0
1070
   279
1070
     1
1070
   288
1070
     1
1002
}
  0
DIMENSION
  5
7C49
  8
3
  6
CONTINUOUS
  2
*D15
 10
2115.8504579999999
 20
4374.9702600000001
 30
0.0
 11
1775.8201610000001
 21
4374.9702600000001
 31
0.0
 70
   128
 13
1451.8462320000001
 23
3626.9917669999991
 33
0.0
 14
2115.8504579999999
 24
4305.7087080000001
 34
0.0
1001
ACAD
1000
DSTYLE
1002
{
1070
   287
1070
     3
1070
    40
1040
30.0
1070
   143
1040
0.039
1070
   172
1070
     1
1070
   271
1070
     0
1070
   279
1070
     0
1070
   288
1070
     1
1002
}
  0
DIMENSION
  5
7C55
  8
3
  6
CONTINUOUS
  2
*D16
 10
2710.850457999999
 20
4374.9702600000001
 30
0.0
 11
2413.3504579999999
 21
4449.9702599999991
 31
0.0
 70
     0
 13
2115.8504579999999
 23
4305.7087080000001
 33
0.0
 14
2710.850457999999
 24
3707.491767
 34
0.0
1001
ACAD
1000
DSTYLE
1002
{
1070
   287
1070
     4
1070
    40
1040
30.0
1070
    75
1070
     1
1070
   143
1040
0.039
1070
   172
1070
     1
1070
   271
1070
     0
1070
   279
1070
     1
1070
   288
1070
     1
1002
}
  0
DIMENSION
  5
7C61
  8
3
  6
CONTINUOUS
  2
*D17
 10
3361.2388660000001
 20
4202.982414106873
 30
0.0
 11
3286.2388659999988
 21
3914.9870905534381
 31
0.0
 70
     0
 13
2845.2923890000002
 23
3626.9917669999991
 33
0.0
 14
2115.8504579999999
 24
4202.982414106873
 34
0.0
 50
90.0
1001
ACAD
1000
DSTYLE
1002
{
1070
   287
1070
     4
1070
    40
1040
30.0
1070
    75
1070
     1
1070
   143
1040
0.039
1070
   172
1070
     1
1070
   271
1070
     0
1070
   279
1070
     1
1070
   288
1070
     1
1002
}
  0
DIMENSION
  5
7CC6
  8
3
  2
*D18
 10
985.85045799999989
 20
4530.0160499162657
 30
0.0
 11
1891.8006900397811
 21
4530.0160499162657
 31
0.0
 70
   128
 13
2710.850457999999
 23
3707.491767
 33
0.0
 14
985.85045799999989
 24
2631.991767
 34
0.0
1001
ACAD
1000
DSTYLE
1002
{
1070
   287
1070
     3
1070
    40
1040
30.0
1070
   143
1040
0.039
1070
   172
1070
     1
1070
   271
1070
     0
1070
   279
1070
     0
1070
   288
1070
     1
1002
}
  0
LINE
  5
7CEB
  8
1
  6
CONTINUOUS
 10
1615.850457999999
 20
3756.991767
 30
0.0
 11
2615.850457999999
 21
3756.991767
 31
0.0
  0
LINE
  5
7CEC
  8
1
 10
1615.850457999999
 20
3756.991767
 30
0.0
 11
1615.850457999999
 21
2756.991767
 31
0.0
  0
LINE
  5
7CED
  8
1
 10
2615.850457999999
 20
3756.991767
 30
0.0
 11
2615.8504579999999
 21
2756.991767
 31
0.0
  0
ENDSEC
  0
EOF
