  0
SECTION
  2
HEADER
  9
$ACADVER
  1
AC1009
  9
$INSBASE
 10
0.0
 20
0.0
 30
0.0
  9
$EXTMIN
 10
750.0
 20
900.0
 30
0.0
  9
$EXTMAX
 10
5550.0
 20
8359.9567849999985
 30
0.0
  9
$LIMMIN
 10
0.0
 20
0.0
  9
$LIMMAX
 10
297.0
 20
210.0
  9
$ORTHOMODE
 70
     0
  9
$REGENMODE
 70
     1
  9
$FILLMODE
 70
     0
  9
$QTEXTMODE
 70
     0
  9
$MIRRTEXT
 70
     1
  9
$DRAGMODE
 70
     2
  9
$LTSCALE
 40
100.0
  9
$OSMODE
 70
    37
  9
$ATTMODE
 70
     1
  9
$TEXTSIZE
 40
180.0
  9
$TRACEWID
 40
0.05
  9
$TEXTSTYLE
  7
STANDARD
  9
$CLAYER
  8
3
  9
$CELTYPE
  6
BYLAYER
  9
$CECOLOR
 62
   256
  9
$DIMSCALE
 40
30.0
  9
$DIMASZ
 40
2.0
  9
$DIMEXO
 40
0.5
  9
$DIMDLI
 40
10.0
  9
$DIMRND
 40
0.0
  9
$DIMDLE
 40
0.0
  9
$DIMEXE
 40
1.0
  9
$DIMTP
 40
1.0
  9
$DIMTM
 40
1.0
  9
$DIMTXT
 40
3.0
  9
$DIMCEN
 40
0.0
  9
$DIMTSZ
 40
0.0
  9
$DIMTOL
 70
     0
  9
$DIMLIM
 70
     0
  9
$DIMTIH
 70
     0
  9
$DIMTOH
 70
     0
  9
$DIMSE1
 70
     0
  9
$DIMSE2
 70
     0
  9
$DIMTAD
 70
     1
  9
$DIMZIN
 70
     8
  9
$DIMBLK
  1

  9
$DIMASO
 70
     1
  9
$DIMSHO
 70
     1
  9
$DIMPOST
  1

  9
$DIMAPOST
  1

  9
$DIMALT
 70
     0
  9
$DIMALTD
 70
     2
  9
$DIMALTF
 40
0.039
  9
$DIMLFAC
 40
1.0
  9
$DIMTOFL
 70
     1
  9
$DIMTVP
 40
0.0
  9
$DIMTIX
 70
     0
  9
$DIMSOXD
 70
     0
  9
$DIMSAH
 70
     1
  9
$DIMBLK1
  1
OPEN
  9
$DIMBLK2
  1
OPEN
  9
$DIMSTYLE
  2
IGA
  9
$DIMCLRD
 70
     0
  9
$DIMCLRE
 70
     0
  9
$DIMCLRT
 70
     0
  9
$DIMTFAC
 40
10.0
  9
$DIMGAP
 40
1.0
  9
$LUNITS
 70
     2
  9
$LUPREC
 70
     3
  9
$SKETCHINC
 40
0.1
  9
$FILLETRAD
 40
50.0
  9
$AUNITS
 70
     0
  9
$AUPREC
 70
     0
  9
$MENU
  1
acad
  9
$ELEVATION
 40
0.0
  9
$PELEVATION
 40
0.0
  9
$THICKNESS
 40
0.0
  9
$LIMCHECK
 70
     0
  9
$BLIPMODE
 70
     0
  9
$CHAMFERA
 40
0.5
  9
$CHAMFERB
 40
0.5
  9
$SKPOLY
 70
     0
  9
$TDCREATE
 40
2450749.3749916661
  9
$TDUPDATE
 40
2454953.7744305092
  9
$TDINDWG
 40
0.0093864236
  9
$TDUSRTIMER
 40
0.0093864236
  9
$USRTIMER
 70
     1
  9
$ANGBASE
 50
0.0
  9
$ANGDIR
 70
     0
  9
$PDMODE
 70
     0
  9
$PDSIZE
 40
0.0
  9
$PLINEWID
 40
0.0
  9
$COORDS
 70
     1
  9
$SPLFRAME
 70
     0
  9
$SPLINETYPE
 70
     6
  9
$SPLINESEGS
 70
     8
  9
$ATTDIA
 70
     0
  9
$ATTREQ
 70
     1
  9
$HANDLING
 70
 10241
  9
$HANDSEED
  5
7E3E
  9
$SURFTAB1
 70
     6
  9
$SURFTAB2
 70
     6
  9
$SURFTYPE
 70
     6
  9
$SURFU
 70
     6
  9
$SURFV
 70
     6
  9
$UCSNAME
  2

  9
$UCSORG
 10
0.0
 20
0.0
 30
0.0
  9
$UCSXDIR
 10
1.0
 20
0.0
 30
0.0
  9
$UCSYDIR
 10
0.0
 20
1.0
 30
0.0
  9
$PUCSNAME
  2

  9
$PUCSORG
 10
0.0
 20
0.0
 30
0.0
  9
$PUCSXDIR
 10
1.0
 20
0.0
 30
0.0
  9
$PUCSYDIR
 10
0.0
 20
1.0
 30
0.0
  9
$USERI1
 70
     0
  9
$USERI2
 70
     0
  9
$USERI3
 70
     0
  9
$USERI4
 70
     0
  9
$USERI5
 70
     0
  9
$USERR1
 40
0.0
  9
$USERR2
 40
0.0
  9
$USERR3
 40
0.0
  9
$USERR4
 40
0.0
  9
$USERR5
 40
0.0
  9
$WORLDVIEW
 70
     1
  9
$SHADEDGE
 70
     3
  9
$SHADEDIF
 70
    70
  9
$TILEMODE
 70
     1
  9
$MAXACTVP
 70
    16
  9
$PLIMCHECK
 70
     0
  9
$PEXTMIN
 10
1.0000000000000000E+020
 20
1.0000000000000000E+020
 30
1.0000000000000000E+020
  9
$PEXTMAX
 10
-1.0000000000000000E+020
 20
-1.0000000000000000E+020
 30
-1.0000000000000000E+020
  9
$PLIMMIN
 10
0.0
 20
0.0
  9
$PLIMMAX
 10
12.0
 20
9.0
  9
$UNITMODE
 70
     0
  9
$VISRETAIN
 70
     0
  9
$PLINEGEN
 70
     0
  9
$PSLTSCALE
 70
     1
  0
ENDSEC
  0
SECTION
  2
TABLES
  0
TABLE
  2
VPORT
 70
     2
  0
VPORT
  2
*ACTIVE
 70
     0
 10
0.0
 20
0.0
 11
1.0
 21
1.0
 12
9437.9954746499006
 22
4629.9199394653269
 13
0.0
 23
0.0
 14
10.0
 24
10.0
 15
10.0
 25
10.0
 16
0.0
 26
0.0
 36
1.0
 17
0.0
 27
0.0
 37
0.0
 40
7517.061441529765
 41
3.1666666666666661
 42
50.0
 43
0.0
 44
0.0
 50
0.0
 51
0.0
 71
     0
 72
   100
 73
     1
 74
     0
 75
     0
 76
     0
 77
     0
 78
     0
  0
ENDTAB
  0
TABLE
  2
LTYPE
 70
     2
  0
LTYPE
  2
CONTINUOUS
 70
     0
  3
Solid line
 72
    65
 73
     0
 40
0.0
  0
LTYPE
  2
CENTER
 70
     0
  3
____ _ ____ _ ____ _ ____ _ ____ _ ____ _ ____ 
 72
    65
 73
     4
 40
2.0
 49
1.25
 49
-0.25
 49
0.25
 49
-0.25
  0
ENDTAB
  0
TABLE
  2
LAYER
 70
     6
  0
LAYER
  2
0
 70
     0
 62
     7
  6
CONTINUOUS
  0
LAYER
  2
3
 70
     0
 62
     2
  6
CONTINUOUS
  0
LAYER
  2
2
 70
     0
 62
     3
  6
CENTER
  0
LAYER
  2
1
 70
     0
 62
     4
  6
CONTINUOUS
  0
LAYER
  2
4
 70
     0
 62
     7
  6
CONTINUOUS
  0
LAYER
  2
DEFPOINTS
 70
     0
 62
     7
  6
CONTINUOUS
  0
ENDTAB
  0
TABLE
  2
STYLE
 70
     1
  0
STYLE
  2
STANDARD
 70
     0
 40
0.0
 41
1.0
 50
0.0
 71
     0
 42
180.0
  3
simplex.shx
  4
extfont.shx
  0
ENDTAB
  0
TABLE
  2
VIEW
 70
     0
  0
ENDTAB
  0
TABLE
  2
UCS
 70
     0
  0
ENDTAB
  0
TABLE
  2
APPID
 70
     1
  0
APPID
  2
ACAD
 70
     0
  0
ENDTAB
  0
TABLE
  2
DIMSTYLE
 70
     1
  0
DIMSTYLE
  2
IGA
 70
     0
  3

  4

  5

  6
OPEN
  7
OPEN
 40
2.0
 41
2.0
 42
0.5
 43
10.0
 44
1.0
 45
0.0
 46
0.0
 47
1.0
 48
1.0
140
3.0
141
0.0
142
0.0
143
0.03937
144
1.0
145
0.0
146
10.0
147
1.0
 71
     0
 72
     0
 73
     0
 74
     0
 75
     0
 76
     0
 77
     1
 78
     8
170
     0
171
     2
172
     0
173
     1
174
     0
175
     0
176
     0
177
     0
178
     0
  0
ENDTAB
  0
ENDSEC
  0
SECTION
  2
BLOCKS
  0
BLOCK
  8
0
  2
$MODEL_SPACE
 70
     0
 10
0.0
 20
0.0
 30
0.0
  3
$MODEL_SPACE
  1

  0
ENDBLK
  5
1B
  8
0
  0
BLOCK
 67
     1
  8
0
  2
$PAPER_SPACE
 70
     0
 10
0.0
 20
0.0
 30
0.0
  3
$PAPER_SPACE
  1

  0
ENDBLK
  5
18
 67
     1
  8
0
  0
BLOCK
  8
0
  2
_OPEN
 70
     0
 10
0.0
 20
0.0
 30
0.0
  3
_OPEN
  1

  0
LINE
  5
7B99
  8
0
  6
BYBLOCK
 62
     0
 10
-1.0
 20
0.166667
 30
0.0
 11
0.0
 21
0.0
 31
0.0
  0
LINE
  5
7B9A
  8
0
  6
BYBLOCK
 62
     0
 10
0.0
 20
0.0
 30
0.0
 11
-1.0
 21
-0.166667
 31
0.0
  0
LINE
  5
7B9B
  8
0
  6
BYBLOCK
 62
     0
 10
0.0
 20
0.0
 30
0.0
 11
-1.0
 21
0.0
 31
0.0
  0
ENDBLK
  5
7B9C
  8
0
  0
BLOCK
  8
0
  2
*D1
 70
     1
 10
0.0
 20
0.0
 30
0.0
  3
*D1
  1

  0
LINE
  5
7D9D
  8
3
  6
CONTINUOUS
 62
     0
 10
2753.729793
 20
3891.919077
 30
0.0
 11
2753.729793
 21
4071.7951210000001
 31
0.0
  0
LINE
  5
7D9E
  8
3
  6
CONTINUOUS
 62
     0
 10
1928.729793
 20
3891.919077
 30
0.0
 11
1928.729793
 21
4071.7951210000001
 31
0.0
  0
LINE
  5
7D9F
  8
3
  6
CONTINUOUS
 62
     0
 10
2693.729793
 20
4041.7951210000001
 30
0.0
 11
1988.729793
 21
4041.7951210000001
 31
0.0
  0
INSERT
  5
7DA0
  8
3
  6
CONTINUOUS
 62
     0
  2
_OPEN
 10
2753.729793
 20
4041.7951210000001
 30
0.0
 41
60.0
 42
60.0
 43
60.0
  0
INSERT
  5
7DA1
  8
3
  6
CONTINUOUS
 62
     0
  2
_OPEN
 10
1928.729793
 20
4041.7951210000001
 30
0.0
 41
60.0
 42
60.0
 43
60.0
 50
180.0
  0
TEXT
  8
3
  40
90
  5
7E2D
  62
0
  72
0
  71
0
 10
2107.62
 20
3957.50
 30
0.000000
  1
825
  0
POINT
  5
7DA3
  8
DEFPOINTS
  6
CONTINUOUS
 62
     0
 10
2753.729793
 20
3876.9190770000009
 30
0.0
  0
POINT
  5
7DA4
  8
DEFPOINTS
  6
CONTINUOUS
 62
     0
 10
1928.729793
 20
3876.9190770000009
 30
0.0
  0
POINT
  5
7DA5
  8
DEFPOINTS
  6
CONTINUOUS
 62
     0
 10
1928.729793
 20
4041.7951210000001
 30
0.0
  0
ENDBLK
  5
7BA9
  8
0
  0
BLOCK
  8
0
  2
*D2
 70
     1
 10
0.0
 20
0.0
 30
0.0
  3
*D2
  1

  0
LINE
  5
7DA6
  8
3
  6
CONTINUOUS
 62
     0
 10
2753.729793
 20
3891.919077
 30
0.0
 11
2753.729793
 21
4252.2703519999995
 31
0.0
  0
LINE
  5
7DA7
  8
3
  6
CONTINUOUS
 62
     0
 10
1966.729793
 20
4067.5640920000001
 30
0.0
 11
1966.729793
 21
4252.2703519999995
 31
0.0
  0
LINE
  5
7DA8
  8
3
  6
CONTINUOUS
 62
     0
 10
2693.729793
 20
4222.2703519999995
 30
0.0
 11
2026.729793
 21
4222.2703519999995
 31
0.0
  0
INSERT
  5
7DA9
  8
3
  6
CONTINUOUS
 62
     0
  2
_OPEN
 10
2753.729793
 20
4222.2703519999995
 30
0.0
 41
60.0
 42
60.0
 43
60.0
  0
INSERT
  5
7DAA
  8
3
  6
CONTINUOUS
 62
     0
  2
_OPEN
 10
1966.729793
 20
4222.2703519999995
 30
0.0
 41
60.0
 42
60.0
 43
60.0
 50
180.0
  0
TEXT
  8
3
  40
90
  5
7E2E
  62
0
  72
0
  71
0
 10
2094.24
 20
4137.97
 30
0.000000
  1
787
  0
POINT
  5
7DAC
  8
DEFPOINTS
  6
CONTINUOUS
 62
     0
 10
2753.729793
 20
3876.9190770000009
 30
0.0
  0
POINT
  5
7DAD
  8
DEFPOINTS
  6
CONTINUOUS
 62
     0
 10
1966.729793
 20
4052.5640919999992
 30
0.0
  0
POINT
  5
7DAE
  8
DEFPOINTS
  6
CONTINUOUS
 62
     0
 10
1966.729793
 20
4222.2703519999995
 30
0.0
  0
ENDBLK
  5
7BB6
  8
0
  0
BLOCK
  8
0
  2
*D3
 70
     1
 10
0.0
 20
0.0
 30
0.0
  3
*D3
  1

  0
LINE
  5
7DAF
  8
3
  6
CONTINUOUS
 62
     0
 10
1871.229793
 20
3876.9190770000009
 30
0.0
 11
1173.975794
 21
3876.9190770000009
 31
0.0
  0
LINE
  5
7DB0
  8
3
  6
CONTINUOUS
 62
     0
 10
1264.792144999999
 20
3281.9190769999991
 30
0.0
 11
1173.975794
 21
3281.9190769999991
 31
0.0
  0
LINE
  5
7DB1
  8
3
  6
CONTINUOUS
 62
     0
 10
1203.975794
 20
3816.9190770000009
 30
0.0
 11
1203.975794
 21
3341.919077
 31
0.0
  0
INSERT
  5
7DB2
  8
3
  6
CONTINUOUS
 62
     0
  2
_OPEN
 10
1203.975794
 20
3876.9190770000009
 30
0.0
 41
60.0
 42
60.0
 43
60.0
 50
90.0
  0
INSERT
  5
7DB3
  8
3
  6
CONTINUOUS
 62
     0
  2
_OPEN
 10
1203.975794
 20
3281.9190769999991
 30
0.0
 41
60.0
 42
60.0
 43
60.0
 50
270.0
  0
TEXT
  8
3
  40
90
  5
7E2F
  62
0
  72
0
  71
0
 10
948.976
 20
3414.60
 30
0.000000
  1
595
  0
POINT
  5
7DB5
  8
DEFPOINTS
  6
CONTINUOUS
 62
     0
 10
1886.229793
 20
3876.9190770000009
 30
0.0
  0
POINT
  5
7DB6
  8
DEFPOINTS
  6
CONTINUOUS
 62
     0
 10
1279.7921449999999
 20
3281.9190769999991
 30
0.0
  0
POINT
  5
7DB7
  8
DEFPOINTS
  6
CONTINUOUS
 62
     0
 10
1203.975794
 20
3281.9190769999991
 30
0.0
  0
ENDBLK
  5
7BCF
  8
0
  0
BLOCK
  8
0
  2
*D4
 70
     1
 10
0.0
 20
0.0
 30
0.0
  3
*D4
  1

  0
LINE
  5
7DB8
  8
3
  6
CONTINUOUS
 62
     0
 10
1431.729793
 20
2586.919077
 30
0.0
 11
1173.975794
 21
2586.919077
 31
0.0
  0
LINE
  5
7DB9
  8
3
  6
CONTINUOUS
 62
     0
 10
1203.975793999999
 20
3221.9190769999991
 30
0.0
 11
1203.975793999999
 21
2646.919077
 31
0.0
  0
INSERT
  5
7DBA
  8
3
  6
CONTINUOUS
 62
     0
  2
_OPEN
 10
1203.975793999999
 20
3281.9190769999991
 30
0.0
 41
60.0
 42
60.0
 43
60.0
 50
90.0
  0
INSERT
  5
7DBB
  8
3
  6
CONTINUOUS
 62
     0
  2
_OPEN
 10
1203.975793999999
 20
2586.919077
 30
0.0
 41
60.0
 42
60.0
 43
60.0
 50
270.0
  0
TEXT
  8
3
  40
90
  5
7E30
  62
0
  72
0
  71
0
 10
948.976
 20
2775.12
 30
0.000000
  1
695
  0
POINT
  5
7DBD
  8
DEFPOINTS
  6
CONTINUOUS
 62
     0
 10
1279.7921449999999
 20
3281.9190769999991
 30
0.0
  0
POINT
  5
7DBE
  8
DEFPOINTS
  6
CONTINUOUS
 62
     0
 10
1446.729793
 20
2586.919077
 30
0.0
  0
POINT
  5
7DBF
  8
DEFPOINTS
  6
CONTINUOUS
 62
     0
 10
1203.975793999999
 20
2586.919077
 30
0.0
  0
ENDBLK
  5
7BDB
  8
0
  0
BLOCK
  8
0
  2
*D5
 70
     1
 10
0.0
 20
0.0
 30
0.0
  3
*D5
  1

  0
LINE
  5
7DC0
  8
3
  6
CONTINUOUS
 62
     0
 10
1431.729793
 20
2586.919077
 30
0.0
 11
1173.193174
 21
2586.919077
 31
0.0
  0
LINE
  5
7DC1
  8
3
  6
CONTINUOUS
 62
     0
 10
1381.729793
 20
2461.919077
 30
0.0
 11
1173.193174
 21
2461.919077
 31
0.0
  0
LINE
  5
7DC2
  8
3
  6
CONTINUOUS
 62
     0
 10
1203.193174
 20
2646.919077
 30
0.0
 11
1203.193174
 21
2706.919077
 31
0.0
  0
LINE
  5
7DC3
  8
3
  6
CONTINUOUS
 62
     0
 10
1203.193174
 20
2401.919077
 30
0.0
 11
1203.193174
 21
2067.6333627142849
 31
0.0
  0
LINE
  5
7DC4
  8
3
  6
CONTINUOUS
 62
     0
 10
1203.193174
 20
2586.919077
 30
0.0
 11
1203.193174
 21
2461.919077
 31
0.0
  0
INSERT
  5
7DC5
  8
3
  6
CONTINUOUS
 62
     0
  2
_OPEN
 10
1203.193174
 20
2586.919077
 30
0.0
 41
60.0
 42
60.0
 43
60.0
 50
270.0
  0
INSERT
  5
7DC6
  8
3
  6
CONTINUOUS
 62
     0
  2
_OPEN
 10
1203.193174
 20
2461.919077
 30
0.0
 41
60.0
 42
60.0
 43
60.0
 50
90.0
  0
TEXT
  8
3
  40
90
  5
7E31
  62
0
  72
0
  71
0
 10
948.193
 20
2045.48
 30
0.000000
  1
125
  0
POINT
  5
7DC8
  8
DEFPOINTS
  6
CONTINUOUS
 62
     0
 10
1446.729793
 20
2586.919077
 30
0.0
  0
POINT
  5
7DC9
  8
DEFPOINTS
  6
CONTINUOUS
 62
     0
 10
1396.729793
 20
2461.919077
 30
0.0
  0
POINT
  5
7DCA
  8
DEFPOINTS
  6
CONTINUOUS
 62
     0
 10
1203.193174
 20
2461.919077
 30
0.0
  0
ENDBLK
  5
7D16
  8
0
  0
BLOCK
  8
0
  2
*D6
 70
     1
 10
0.0
 20
0.0
 30
0.0
  3
*D6
  1

  0
LINE
  5
7DCB
  8
3
  6
CONTINUOUS
 62
     0
 10
1396.729793
 20
2446.919077
 30
0.0
 11
1396.729793
 21
2173.5490429999991
 31
0.0
  0
LINE
  5
7DCC
  8
3
  6
CONTINUOUS
 62
     0
 10
1966.729793
 20
2337.0469320000002
 30
0.0
 11
1966.729793
 21
2173.5490429999991
 31
0.0
  0
LINE
  5
7DCD
  8
3
  6
CONTINUOUS
 62
     0
 10
1456.729793
 20
2203.549043
 30
0.0
 11
1906.729793
 21
2203.549043
 31
0.0
  0
INSERT
  5
7DCE
  8
3
  6
CONTINUOUS
 62
     0
  2
_OPEN
 10
1396.729793
 20
2203.549043
 30
0.0
 41
60.0
 42
60.0
 43
60.0
 50
180.0
  0
INSERT
  5
7DCF
  8
3
  6
CONTINUOUS
 62
     0
  2
_OPEN
 10
1966.729793
 20
2203.549043
 30
0.0
 41
60.0
 42
60.0
 43
60.0
  0
TEXT
  8
3
  40
90
  5
7E32
  62
0
  72
0
  71
0
 10
1512.28
 20
2119.25
 30
0.000000
  1
570
  0
POINT
  5
7DD1
  8
DEFPOINTS
  6
CONTINUOUS
 62
     0
 10
1396.729793
 20
2461.919077
 30
0.0
  0
POINT
  5
7DD2
  8
DEFPOINTS
  6
CONTINUOUS
 62
     0
 10
1966.729793
 20
2352.0469320000002
 30
0.0
  0
POINT
  5
7DD3
  8
DEFPOINTS
  6
CONTINUOUS
 62
     0
 10
1966.729793
 20
2203.549043
 30
0.0
  0
ENDBLK
  5
7CD3
  8
0
  0
BLOCK
  8
0
  2
*D7
 70
     1
 10
0.0
 20
0.0
 30
0.0
  3
*D7
  1

  0
LINE
  5
7DD4
  8
3
  6
CONTINUOUS
 62
     0
 10
3096.729793
 20
2446.919077
 30
0.0
 11
3096.729793
 21
2173.5490429999991
 31
0.0
  0
LINE
  5
7DD5
  8
3
  6
CONTINUOUS
 62
     0
 10
2026.729793
 20
2203.549043
 30
0.0
 11
3036.729793
 21
2203.549043
 31
0.0
  0
INSERT
  5
7DD6
  8
3
  6
CONTINUOUS
 62
     0
  2
_OPEN
 10
1966.729793
 20
2203.549043
 30
0.0
 41
60.0
 42
60.0
 43
60.0
 50
180.0
  0
INSERT
  5
7DD7
  8
3
  6
CONTINUOUS
 62
     0
  2
_OPEN
 10
3096.729793
 20
2203.549043
 30
0.0
 41
60.0
 42
60.0
 43
60.0
  0
TEXT
  8
3
  40
90
  5
7E33
  62
0
  72
0
  71
0
 10
2351.73
 20
2119.25
 30
0.000000
  1
1130
  0
POINT
  5
7DD9
  8
DEFPOINTS
  6
CONTINUOUS
 62
     0
 10
1966.729793
 20
2352.0469320000002
 30
0.0
  0
POINT
  5
7DDA
  8
DEFPOINTS
  6
CONTINUOUS
 62
     0
 10
3096.729793
 20
2461.919077
 30
0.0
  0
POINT
  5
7DDB
  8
DEFPOINTS
  6
CONTINUOUS
 62
     0
 10
3096.729793
 20
2203.549043
 30
0.0
  0
ENDBLK
  5
7CC8
  8
0
  0
BLOCK
  8
0
  2
*D8
 70
     1
 10
0.0
 20
0.0
 30
0.0
  3
*D8
  1

  0
LINE
  5
7DDC
  8
3
  6
CONTINUOUS
 62
     0
 10
1856.2297929999991
 20
3876.9190770000009
 30
0.0
 11
982.70262900000057
 21
3876.9190770000009
 31
0.0
  0
LINE
  5
7DDD
  8
3
  6
CONTINUOUS
 62
     0
 10
1381.729793
 20
2461.919077
 30
0.0
 11
982.70262900000023
 21
2461.9190770000009
 31
0.0
  0
LINE
  5
7DDE
  8
3
  6
CONTINUOUS
 62
     0
 10
1012.702629
 20
3816.9190770000009
 30
0.0
 11
1012.702629
 21
2521.919077
 31
0.0
  0
INSERT
  5
7DDF
  8
3
  6
CONTINUOUS
 62
     0
  2
_OPEN
 10
1012.702629
 20
3876.9190770000009
 30
0.0
 41
60.0
 42
60.0
 43
60.0
 50
90.0
  0
INSERT
  5
7DE0
  8
3
  6
CONTINUOUS
 62
     0
  2
_OPEN
 10
1012.702629
 20
2461.9190770000009
 30
0.0
 41
60.0
 42
60.0
 43
60.0
 50
270.0
  0
TEXT
  8
3
  40
90
  5
7E34
  62
0
  72
0
  71
0
 10
757.703
 20
3020.22
 30
0.000000
  1
1415
  0
POINT
  5
7DE2
  8
DEFPOINTS
  6
CONTINUOUS
 62
     0
 10
1871.229793
 20
3876.9190770000009
 30
0.0
  0
POINT
  5
7DE3
  8
DEFPOINTS
  6
CONTINUOUS
 62
     0
 10
1396.729793
 20
2461.919077
 30
0.0
  0
POINT
  5
7DE4
  8
DEFPOINTS
  6
CONTINUOUS
 62
     0
 10
1012.702629
 20
2461.9190770000009
 30
0.0
  0
ENDBLK
  5
7CBE
  8
0
  0
BLOCK
  8
0
  2
*D9
 70
     1
 10
0.0
 20
0.0
 30
0.0
  3
*D9
  1

  0
LINE
  5
7DE5
  8
3
  6
CONTINUOUS
 62
     0
 10
5008.6763650000003
 20
3891.919077
 30
0.0
 11
5008.6763650000003
 21
4045.058047
 31
0.0
  0
LINE
  5
7DE6
  8
3
  6
CONTINUOUS
 62
     0
 10
4408.6763650000003
 20
3891.919077
 30
0.0
 11
4408.6763650000003
 21
4045.058047
 31
0.0
  0
LINE
  5
7DE7
  8
3
  6
CONTINUOUS
 62
     0
 10
4948.6763650000003
 20
4015.058047
 30
0.0
 11
4468.6763650000003
 21
4015.058047
 31
0.0
  0
INSERT
  5
7DE8
  8
3
  6
CONTINUOUS
 62
     0
  2
_OPEN
 10
5008.6763650000003
 20
4015.058047
 30
0.0
 41
60.0
 42
60.0
 43
60.0
  0
INSERT
  5
7DE9
  8
3
  6
CONTINUOUS
 62
     0
  2
_OPEN
 10
4408.6763650000003
 20
4015.058047
 30
0.0
 41
60.0
 42
60.0
 43
60.0
 50
180.0
  0
TEXT
  8
3
  40
90
  5
7E35
  62
0
  72
0
  71
0
 10
4527.34
 20
3930.76
 30
0.000000
  1
600
  0
POINT
  5
7DEB
  8
DEFPOINTS
  6
CONTINUOUS
 62
     0
 10
5008.6763650000003
 20
3876.9190770000009
 30
0.0
  0
POINT
  5
7DEC
  8
DEFPOINTS
  6
CONTINUOUS
 62
     0
 10
4408.6763650000003
 20
3876.9190770000009
 30
0.0
  0
POINT
  5
7DED
  8
DEFPOINTS
  6
CONTINUOUS
 62
     0
 10
4408.6763650000003
 20
4015.058047
 30
0.0
  0
ENDBLK
  5
7C1E
  8
0
  0
BLOCK
  8
0
  2
*D10
 70
     1
 10
0.0
 20
0.0
 30
0.0
  3
*D10
  1

  0
LINE
  5
7DEE
  8
3
  6
CONTINUOUS
 62
     0
 10
5027.6763650000012
 20
3706.919077
 30
0.0
 11
5305.917985000001
 21
3706.919077
 31
0.0
  0
LINE
  5
7DEF
  8
3
  6
CONTINUOUS
 62
     0
 10
5027.6763650000012
 20
2856.919077
 30
0.0
 11
5305.917985000001
 21
2856.9190769999991
 31
0.0
  0
LINE
  5
7DF0
  8
3
  6
CONTINUOUS
 62
     0
 10
5275.917985000001
 20
3646.919077
 30
0.0
 11
5275.917985000001
 21
2916.9190769999991
 31
0.0
  0
INSERT
  5
7DF1
  8
3
  6
CONTINUOUS
 62
     0
  2
_OPEN
 10
5275.917985000001
 20
3706.919077
 30
0.0
 41
60.0
 42
60.0
 43
60.0
 50
90.0
  0
INSERT
  5
7DF2
  8
3
  6
CONTINUOUS
 62
     0
  2
_OPEN
 10
5275.917985000001
 20
2856.9190769999991
 30
0.0
 41
60.0
 42
60.0
 43
60.0
 50
270.0
  0
TEXT
  8
3
  40
90
  5
7E36
  62
0
  72
0
  71
0
 10
5020.92
 20
3113.80
 30
0.000000
  1
φ850
  0
POINT
  5
7DF4
  8
DEFPOINTS
  6
CONTINUOUS
 62
     0
 10
5012.6763650000003
 20
3706.919077
 30
0.0
  0
POINT
  5
7DF5
  8
DEFPOINTS
  6
CONTINUOUS
 62
     0
 10
5012.6763650000003
 20
2856.919077
 30
0.0
  0
POINT
  5
7DF6
  8
DEFPOINTS
  6
CONTINUOUS
 62
     0
 10
5275.917985000001
 20
2856.9190769999991
 30
0.0
  0
ENDBLK
  5
7D37
  8
0
  0
BLOCK
  8
0
  2
*D11
 70
     1
 10
0.0
 20
0.0
 30
0.0
  3
*D11
  1

  0
LINE
  5
7D23
  8
0
  6
BYBLOCK
 62
     0
 10
5012.6763650000003
 20
3721.919077
 30
0.0
 11
5012.6763650000003
 21
4232.2175630000002
 31
0.0
  0
LINE
  5
7D24
  8
0
  6
BYBLOCK
 62
     0
 10
4708.6763650000003
 20
4175.2959080000001
 30
0.0
 11
4708.6763650000003
 21
4232.2175630000002
 31
0.0
  0
LINE
  5
7D25
  8
0
  6
BYBLOCK
 62
     0
 10
4952.6763650000012
 20
4202.2175630000002
 30
0.0
 11
4768.6763650000003
 21
4202.2175630000002
 31
0.0
  0
TEXT
  5
7D26
  8
3
 62
     0
 10
4742.8192221428571
 20
4240.4334122110704
 30
0.0
 40
90.0
  1
304
  0
INSERT
  5
7D27
  8
0
  6
BYBLOCK
 62
     0
  2
_OPEN
 10
5012.6763650000003
 20
4202.2175630000002
 30
0.0
 41
60.0
 42
60.0
 43
60.0
  0
INSERT
  5
7D28
  8
0
  6
BYBLOCK
 62
     0
  2
_OPEN
 10
4708.6763650000003
 20
4202.2175630000002
 30
0.0
 41
60.0
 42
60.0
 43
60.0
 50
180.0
  0
POINT
  5
7D29
  8
DEFPOINTS
  6
BYBLOCK
 62
     0
 10
5012.6763650000003
 20
3706.919077
 30
0.0
  0
POINT
  5
7D2A
  8
DEFPOINTS
  6
BYBLOCK
 62
     0
 10
4708.6763650000003
 20
4160.2959080000001
 30
0.0
  0
POINT
  5
7D2B
  8
DEFPOINTS
  6
BYBLOCK
 62
     0
 10
4708.6763650000003
 20
4202.2175630000002
 30
0.0
  0
ENDBLK
  5
7D2C
  8
0
  0
BLOCK
  8
0
  2
*D12
 70
     1
 10
0.0
 20
0.0
 30
0.0
  3
*D12
  1

  0
LINE
  5
7DF7
  8
3
  6
CONTINUOUS
 62
     0
 10
4148.6763650000003
 20
3951.9190770000009
 30
0.0
 11
4148.6763650000003
 21
4232.2175630000002
 31
0.0
  0
LINE
  5
7DF8
  8
3
  6
CONTINUOUS
 62
     0
 10
4648.6763650000003
 20
4202.2175630000002
 30
0.0
 11
4208.6763650000003
 21
4202.2175630000002
 31
0.0
  0
INSERT
  5
7DF9
  8
3
  6
CONTINUOUS
 62
     0
  2
_OPEN
 10
4708.6763650000003
 20
4202.2175630000002
 30
0.0
 41
60.0
 42
60.0
 43
60.0
  0
INSERT
  5
7DFA
  8
3
  6
CONTINUOUS
 62
     0
  2
_OPEN
 10
4148.6763650000003
 20
4202.2175630000002
 30
0.0
 41
60.0
 42
60.0
 43
60.0
 50
180.0
  0
TEXT
  8
3
  40
90
  5
7E37
  62
0
  72
0
  71
0
 10
4248.68
 20
4192.92
 30
0.000000
  1
MAX
  0
TEXT
  8
3
  40
90
  5
7E38
  62
0
  72
0
  71
0
 10
4248.68
 20
4075.92
 30
0.000000
  1
610
  0
POINT
  5
7DFC
  8
DEFPOINTS
  6
CONTINUOUS
 62
     0
 10
4708.6763650000003
 20
4160.2959080000001
 30
0.0
  0
POINT
  5
7DFD
  8
DEFPOINTS
  6
CONTINUOUS
 62
     0
 10
4148.6763650000003
 20
3936.919077
 30
0.0
  0
POINT
  5
7DFE
  8
DEFPOINTS
  6
CONTINUOUS
 62
     0
 10
4148.6763650000003
 20
4202.2175630000002
 30
0.0
  0
ENDBLK
  5
7D59
  8
0
  0
BLOCK
  8
0
  2
*D13
 70
     1
 10
0.0
 20
0.0
 30
0.0
  3
*D13
  1

  0
LINE
  5
7DFF
  8
3
  6
CONTINUOUS
 62
     0
 10
4125.6763650000003
 20
2446.919077
 30
0.0
 11
4125.6763650000003
 21
2197.788564
 31
0.0
  0
LINE
  5
7E00
  8
3
  6
CONTINUOUS
 62
     0
 10
4708.6763650000003
 20
2272.7833110000001
 30
0.0
 11
4708.6763650000003
 21
2197.788564
 31
0.0
  0
LINE
  5
7E01
  8
3
  6
CONTINUOUS
 62
     0
 10
4185.6763650000003
 20
2227.788564
 30
0.0
 11
4648.6763650000003
 21
2227.788564
 31
0.0
  0
INSERT
  5
7E02
  8
3
  6
CONTINUOUS
 62
     0
  2
_OPEN
 10
4125.6763650000003
 20
2227.788564
 30
0.0
 41
60.0
 42
60.0
 43
60.0
 50
180.0
  0
INSERT
  5
7E03
  8
3
  6
CONTINUOUS
 62
     0
  2
_OPEN
 10
4708.6763650000003
 20
2227.788564
 30
0.0
 41
60.0
 42
60.0
 43
60.0
  0
TEXT
  8
3
  40
90
  5
7E39
  62
0
  72
0
  71
0
 10
4246.39
 20
2143.49
 30
0.000000
  1
583
  0
POINT
  5
7E05
  8
DEFPOINTS
  6
CONTINUOUS
 62
     0
 10
4125.6763650000003
 20
2461.919077
 30
0.0
  0
POINT
  5
7E06
  8
DEFPOINTS
  6
CONTINUOUS
 62
     0
 10
4708.6763650000003
 20
2287.7833110000001
 30
0.0
  0
POINT
  5
7E07
  8
DEFPOINTS
  6
CONTINUOUS
 62
     0
 10
4708.6763650000003
 20
2227.788564
 30
0.0
  0
ENDBLK
  5
7CF5
  8
0
  0
BLOCK
  8
0
  2
*D14
 70
     1
 10
0.0
 20
0.0
 30
0.0
  3
*D14
  1

  0
LINE
  5
7E08
  8
3
  6
CONTINUOUS
 62
     0
 10
5175.6763650000012
 20
2446.919077
 30
0.0
 11
5175.6763650000012
 21
2197.788564
 31
0.0
  0
LINE
  5
7E09
  8
3
  6
CONTINUOUS
 62
     0
 10
4768.6763650000003
 20
2227.788564
 30
0.0
 11
5115.6763650000003
 21
2227.788564
 31
0.0
  0
INSERT
  5
7E0A
  8
3
  6
CONTINUOUS
 62
     0
  2
_OPEN
 10
4708.6763650000003
 20
2227.788564
 30
0.0
 41
60.0
 42
60.0
 43
60.0
 50
180.0
  0
INSERT
  5
7E0B
  8
3
  6
CONTINUOUS
 62
     0
  2
_OPEN
 10
5175.6763650000012
 20
2227.788564
 30
0.0
 41
60.0
 42
60.0
 43
60.0
  0
TEXT
  8
3
  40
90
  5
7E3A
  62
0
  72
0
  71
0
 10
4762.18
 20
2143.49
 30
0.000000
  1
467
  0
POINT
  5
7E0D
  8
DEFPOINTS
  6
CONTINUOUS
 62
     0
 10
4708.6763650000003
 20
2287.7833110000001
 30
0.0
  0
POINT
  5
7E0E
  8
DEFPOINTS
  6
CONTINUOUS
 62
     0
 10
5175.6763650000012
 20
2461.919077
 30
0.0
  0
POINT
  5
7E0F
  8
DEFPOINTS
  6
CONTINUOUS
 62
     0
 10
5175.6763650000012
 20
2227.788564
 30
0.0
  0
ENDBLK
  5
7CFF
  8
0
  0
BLOCK
  8
0
  2
*D15
 70
     1
 10
0.0
 20
0.0
 30
0.0
  3
*D15
  1

  0
LINE
  5
7E10
  8
3
  6
CONTINUOUS
 62
     0
 10
1396.729793
 20
6376.2352409999994
 30
0.0
 11
1396.729793
 21
6545.321473
 31
0.0
  0
LINE
  5
7E11
  8
3
  6
CONTINUOUS
 62
     0
 10
3096.729793
 20
6376.2352409999994
 30
0.0
 11
3096.729793
 21
6545.321473
 31
0.0
  0
LINE
  5
7E12
  8
3
  6
CONTINUOUS
 62
     0
 10
1456.729793
 20
6515.321473
 30
0.0
 11
3036.729793
 21
6515.321473
 31
0.0
  0
INSERT
  5
7E13
  8
3
  6
CONTINUOUS
 62
     0
  2
_OPEN
 10
1396.729793
 20
6515.321473
 30
0.0
 41
60.0
 42
60.0
 43
60.0
 50
180.0
  0
INSERT
  5
7E14
  8
3
  6
CONTINUOUS
 62
     0
  2
_OPEN
 10
3096.729793
 20
6515.321473
 30
0.0
 41
60.0
 42
60.0
 43
60.0
  0
TEXT
  8
3
  40
90
  5
7E3B
  62
0
  72
0
  71
0
 10
2046.75
 20
6431.02
 30
0.000000
  1
1700
  0
POINT
  5
7E16
  8
DEFPOINTS
  6
CONTINUOUS
 62
     0
 10
1396.729793
 20
6361.2352409999994
 30
0.0
  0
POINT
  5
7E17
  8
DEFPOINTS
  6
CONTINUOUS
 62
     0
 10
3096.729793
 20
6361.2352409999994
 30
0.0
  0
POINT
  5
7E18
  8
DEFPOINTS
  6
CONTINUOUS
 62
     0
 10
3096.729793
 20
6515.321473
 30
0.0
  0
ENDBLK
  5
7CEA
  8
0
  0
BLOCK
  8
0
  2
*D16
 70
     1
 10
0.0
 20
0.0
 30
0.0
  3
*D16
  1

  0
LINE
  5
7E19
  8
3
  6
CONTINUOUS
 62
     0
 10
3111.729793
 20
6361.2352409999994
 30
0.0
 11
3380.5291900000002
 21
6361.2352409999994
 31
0.0
  0
LINE
  5
7E1A
  8
3
  6
CONTINUOUS
 62
     0
 10
3111.729793
 20
5311.2352409999994
 30
0.0
 11
3380.5291900000002
 21
5311.2352409999994
 31
0.0
  0
LINE
  5
7E1B
  8
3
  6
CONTINUOUS
 62
     0
 10
3350.5291900000011
 20
6301.2352410000003
 30
0.0
 11
3350.5291900000011
 21
5371.2352409999994
 31
0.0
  0
INSERT
  5
7E1C
  8
3
  6
CONTINUOUS
 62
     0
  2
_OPEN
 10
3350.5291900000011
 20
6361.2352409999994
 30
0.0
 41
60.0
 42
60.0
 43
60.0
 50
90.0
  0
INSERT
  5
7E1D
  8
3
  6
CONTINUOUS
 62
     0
  2
_OPEN
 10
3350.5291900000011
 20
5311.2352409999994
 30
0.0
 41
60.0
 42
60.0
 43
60.0
 50
270.0
  0
TEXT
  8
3
  40
90
  5
7E3C
  62
0
  72
0
  71
0
 10
3095.53
 20
5708.38
 30
0.000000
  1
1050
  0
POINT
  5
7E1F
  8
DEFPOINTS
  6
CONTINUOUS
 62
     0
 10
3096.729793
 20
6361.2352409999994
 30
0.0
  0
POINT
  5
7E20
  8
DEFPOINTS
  6
CONTINUOUS
 62
     0
 10
3096.729793
 20
5311.2352409999994
 30
0.0
  0
POINT
  5
7E21
  8
DEFPOINTS
  6
CONTINUOUS
 62
     0
 10
3350.5291900000011
 20
5311.2352409999994
 30
0.0
  0
ENDBLK
  5
7C7C
  8
0
  0
BLOCK
  8
0
  2
*D17
 70
     1
 10
0.0
 20
0.0
 30
0.0
  3
*D17
  1

  0
LINE
  5
7E22
  8
3
  6
CONTINUOUS
 62
     0
 10
1390.7391458931261
 20
3296.919077
 30
0.0
 11
1390.7391458931261
 21
4252.2703519999995
 31
0.0
  0
LINE
  5
7E23
  8
3
  6
CONTINUOUS
 62
     0
 10
1906.729793
 20
4222.2703519999995
 30
0.0
 11
1450.7391458931261
 21
4222.2703519999995
 31
0.0
  0
INSERT
  5
7E24
  8
3
  6
CONTINUOUS
 62
     0
  2
_OPEN
 10
1966.729793
 20
4222.2703519999995
 30
0.0
 41
60.0
 42
60.0
 43
60.0
  0
INSERT
  5
7E25
  8
3
  6
CONTINUOUS
 62
     0
  2
_OPEN
 10
1390.7391458931261
 20
4222.2703519999995
 30
0.0
 41
60.0
 42
60.0
 43
60.0
 50
180.0
  0
TEXT
  8
3
  40
90
  5
7E3D
  62
0
  72
0
  71
0
 10
1498.73
 20
4137.97
 30
0.000000
  1
576
  0
POINT
  5
7E27
  8
DEFPOINTS
  6
CONTINUOUS
 62
     0
 10
1966.729793
 20
4052.5640919999992
 30
0.0
  0
POINT
  5
7E28
  8
DEFPOINTS
  6
CONTINUOUS
 62
     0
 10
1390.7391458931261
 20
3281.9190769999991
 30
0.0
  0
POINT
  5
7E29
  8
DEFPOINTS
  6
CONTINUOUS
 62
     0
 10
1390.7391458931261
 20
4222.2703519999995
 30
0.0
  0
ENDBLK
  5
7D42
  8
0
  0
BLOCK
  8
0
  2
_DOT
 70
     0
 10
0.0
 20
0.0
 30
0.0
  3
_DOT
  1

  0
POLYLINE
  5
7D73
  8
0
  6
BYBLOCK
 62
     0
 66
     1
 10
0.0
 20
0.0
 30
0.0
 70
     1
 40
0.5
 41
0.5
  0
VERTEX
  5
7E2A
  8
0
  6
BYBLOCK
 62
     0
 10
-0.25
 20
0.0
 30
0.0
 42
1.0
  0
VERTEX
  5
7E2B
  8
0
  6
BYBLOCK
 62
     0
 10
0.25
 20
0.0
 30
0.0
 42
1.0
  0
SEQEND
  5
7E2C
  8
0
  6
BYBLOCK
 62
     0
  0
LINE
  5
7D74
  8
0
  6
BYBLOCK
 62
     0
 10
-0.5
 20
0.0
 30
0.0
 11
-1.0
 21
0.0
 31
0.0
  0
ENDBLK
  5
7D76
  8
0
  0
ENDSEC
  0
SECTION
  2
ENTITIES
  0
ARC
  5
7ABD
  8
1
  6
CONTINUOUS
 10
2018.7297929999991
 20
3333.919077
 30
0.0
 40
717.88999999999987
 50
265.24000000000001
 51
355.85000000000002
  0
LINE
  5
7ABE
  8
1
  6
CONTINUOUS
 10
3046.729793
 20
2686.919077
 30
0.0
 11
1446.729793
 21
2686.919077
 31
0.0
  0
LINE
  5
7ABF
  8
1
  6
CONTINUOUS
 10
2794.3497929999999
 20
5374.2352410000003
 30
0.0
 11
2944.3497929999999
 21
5374.2352410000003
 31
0.0
  0
LINE
  5
7AC0
  8
1
  6
CONTINUOUS
 10
2794.3497929999999
 20
5444.2352410000003
 30
0.0
 11
2944.3497929999999
 21
5444.2352410000003
 31
0.0
  0
LINE
  5
7AC1
  8
1
  6
CONTINUOUS
 10
3026.729793
 20
5484.2352410000003
 30
0.0
 11
1546.729793
 21
5484.2352410000003
 31
0.0
  0
LINE
  5
7AC2
  8
1
  6
CONTINUOUS
 10
3026.729793
 20
5334.2352410000003
 30
0.0
 11
1546.729793
 21
5334.2352410000003
 31
0.0
  0
LINE
  5
7AC3
  8
1
  6
CONTINUOUS
 10
3046.729793
 20
6246.2352409999994
 30
0.0
 11
1446.729793
 21
6246.2352409999994
 31
0.0
  0
LINE
  5
7AC4
  8
1
  6
CONTINUOUS
 10
3031.3497929999999
 20
5532.2352409999994
 30
0.0
 11
2707.3497929999999
 21
5532.2352409999994
 31
0.0
  0
LINE
  5
7AC5
  8
1
  6
CONTINUOUS
 10
3031.3497929999999
 20
6017.2352409999994
 30
0.0
 11
2753.729793
 21
6017.2352409999994
 31
0.0
  0
LINE
  5
7AC6
  8
1
  6
CONTINUOUS
 10
1446.729793
 20
2586.919077
 30
0.0
 11
3046.729793
 21
2586.919077
 31
0.0
  0
LINE
  5
7AC7
  8
2
  6
CENTER
 10
2944.3497929999999
 20
2886.9190769999991
 30
0.0
 11
2794.3497929999999
 21
2886.9190769999991
 31
0.0
  0
LINE
  5
7AC8
  8
1
  6
CONTINUOUS
 10
2116.729793
 20
3936.919077
 30
0.0
 11
3026.729793
 21
2986.9190769999991
 31
0.0
  0
CIRCLE
  5
7AC9
  8
1
  6
CONTINUOUS
 10
2869.349792999999
 20
2886.9190769999991
 30
0.0
 40
75.0
  0
ARC
  5
7ACA
  8
1
  6
CONTINUOUS
 10
2869.349792999999
 20
2886.9190769999991
 30
0.0
 40
162.0
 50
324.97000000000003
 51
215.02999999999989
  0
LINE
  5
7ACB
  8
1
  6
CONTINUOUS
 10
2907.899793
 20
2951.2590770000002
 30
0.0
 11
2069.5097930000002
 21
3453.4890770000002
 31
0.0
  0
LINE
  5
7ACC
  8
1
  6
CONTINUOUS
 10
1396.729793
 20
2461.919077
 30
0.0
 11
3096.729793
 21
2461.919077
 31
0.0
  0
LINE
  5
7ACD
  8
1
  6
CONTINUOUS
 10
1396.729793
 20
2561.919077
 30
0.0
 11
3096.729793
 21
2561.919077
 31
0.0
  0
LINE
  5
7ACE
  8
1
  6
CONTINUOUS
 10
1886.229793
 20
3876.9190770000009
 30
0.0
 11
2796.229793
 21
3876.9190770000009
 31
0.0
  0
LINE
  5
7AD1
  8
1
  6
CONTINUOUS
 10
1546.729793
 20
3936.919077
 30
0.0
 11
2116.729793
 21
3936.919077
 31
0.0
  0
CIRCLE
  5
7AD2
  8
1
  6
CONTINUOUS
 10
1966.729793
 20
3281.9190769999991
 30
0.0
 40
200.0
  0
LINE
  5
7AD3
  8
2
  6
CENTER
 10
1279.7921449999999
 20
3281.9190769999991
 30
0.0
 11
3046.9429230000001
 21
3281.9190769999991
 31
0.0
  0
LINE
  5
7AD5
  8
1
  6
CONTINUOUS
 10
2848.249793
 20
2814.9490769999989
 30
0.0
 11
1910.439793
 21
3089.999076999999
 31
0.0
  0
ARC
  5
7AD7
  8
1
  6
CONTINUOUS
 10
2010.729793
 20
3237.919077
 30
0.0
 40
621.54999999999995
 50
173.5
 51
265.24000000000001
  0
LINE
  5
7AD8
  8
1
  6
CONTINUOUS
 10
1546.729793
 20
2686.919077
 30
0.0
 11
1546.729793
 21
3936.919077
 31
0.0
  0
LINE
  5
7AD9
  8
1
  6
CONTINUOUS
 10
1446.729793
 20
2686.919077
 30
0.0
 11
1446.729793
 21
2586.919077
 31
0.0
  0
LINE
  5
7ADA
  8
1
  6
CONTINUOUS
 10
1396.729793
 20
2561.919077
 30
0.0
 11
1396.729793
 21
2461.919077
 31
0.0
  0
ARC
  5
7ADB
  8
1
  6
CONTINUOUS
 10
1931.7297929999991
 20
3246.9190769999991
 30
0.0
 40
542.03999999999985
 50
90.319999999999993
 51
173.5
  0
LINE
  5
7ADC
  8
2
  6
CENTER
 10
1966.729793
 20
6422.0579290000014
 30
0.0
 11
1966.729793
 21
5189.3849729999993
 31
0.0
  0
LINE
  5
7ADD
  8
1
  6
CONTINUOUS
 10
1928.729793
 20
3788.9490770000002
 30
0.0
 11
1928.729793
 21
3876.9190770000009
 31
0.0
  0
LINE
  5
7ADF
  8
2
  6
CENTER
 10
2869.349792999999
 20
2811.919077
 30
0.0
 11
2869.349792999999
 21
2961.919077
 31
0.0
  0
LINE
  5
7AE0
  8
1
  6
CONTINUOUS
 10
2715.3497929999999
 20
2686.919077
 30
0.0
 11
2715.3497929999999
 21
2744.919077
 31
0.0
  0
LINE
  5
7AE1
  8
1
  6
CONTINUOUS
 10
2715.3497929999999
 20
2744.919077
 30
0.0
 11
2736.6997929999989
 21
2793.939077
 31
0.0
  0
LINE
  5
7AE2
  8
1
  6
CONTINUOUS
 10
2753.729793
 20
3876.9190770000009
 30
0.0
 11
2734.729793
 21
3281.9190769999991
 31
0.0
  0
LINE
  5
7AE3
  8
1
  6
CONTINUOUS
 10
1766.729793
 20
5374.2352410000003
 30
0.0
 11
2166.729793
 21
5374.2352410000003
 31
0.0
  0
LINE
  5
7AE4
  8
1
  6
CONTINUOUS
 10
1766.729793
 20
5444.2352410000003
 30
0.0
 11
2166.729793
 21
5444.2352410000003
 31
0.0
  0
LINE
  5
7AE5
  8
1
  6
CONTINUOUS
 10
2753.729793
 20
5594.2352409999994
 30
0.0
 11
1389.179793
 21
5594.2352409999994
 31
0.0
  0
LINE
  5
7AE6
  8
1
  6
CONTINUOUS
 10
2753.729793
 20
6194.2352410000003
 30
0.0
 11
1389.179793
 21
6194.2352410000003
 31
0.0
  0
LINE
  5
7AE7
  8
1
  6
CONTINUOUS
 10
1928.729793
 20
6194.2352410000003
 30
0.0
 11
2753.729793
 21
5594.2352409999994
 31
0.0
  0
LINE
  5
7AE8
  8
1
  6
CONTINUOUS
 10
1928.729793
 20
5594.2352409999994
 30
0.0
 11
2753.729793
 21
6194.2352410000003
 31
0.0
  0
LINE
  5
7AE9
  8
1
  6
CONTINUOUS
 10
1928.729793
 20
5594.2352409999994
 30
0.0
 11
1928.729793
 21
6194.2352410000003
 31
0.0
  0
LINE
  5
7AEA
  8
1
  6
CONTINUOUS
 10
1389.179793
 20
5594.2352409999994
 30
0.0
 11
1389.179793
 21
6194.2352410000003
 31
0.0
  0
LINE
  5
7AEB
  8
1
  6
CONTINUOUS
 10
1766.729793
 20
5426.2352410000003
 30
0.0
 11
1446.729793
 21
5426.2352410000003
 31
0.0
  0
LINE
  5
7AEC
  8
1
  6
CONTINUOUS
 10
1446.729793
 20
5594.2352409999994
 30
0.0
 11
1446.729793
 21
5311.2352409999994
 31
0.0
  0
LINE
  5
7AED
  8
1
  6
CONTINUOUS
 10
1396.729793
 20
5594.2352409999994
 30
0.0
 11
1396.729793
 21
5311.2352409999994
 31
0.0
  0
LINE
  5
7AEE
  8
1
  6
CONTINUOUS
 10
1446.729793
 20
5311.2352409999994
 30
0.0
 11
1396.729793
 21
5311.2352409999994
 31
0.0
  0
LINE
  5
7AEF
  8
1
  6
CONTINUOUS
 10
1546.729793
 20
5334.2352410000003
 30
0.0
 11
1546.729793
 21
5484.2352410000003
 31
0.0
  0
LINE
  5
7AF0
  8
1
  6
CONTINUOUS
 10
1945.7297929999991
 20
5444.2352410000003
 30
0.0
 11
1945.7297929999991
 21
5594.2352409999994
 31
0.0
  0
LINE
  5
7AF1
  8
1
  6
CONTINUOUS
 10
1766.729793
 20
5374.2352410000003
 30
0.0
 11
1766.729793
 21
5444.2352410000003
 31
0.0
  0
LINE
  5
7AF2
  8
1
  6
CONTINUOUS
 10
1446.729793
 20
6361.2352409999994
 30
0.0
 11
1446.729793
 21
6194.2352410000003
 31
0.0
  0
LINE
  5
7AF3
  8
1
  6
CONTINUOUS
 10
1446.729793
 20
6361.2352409999994
 30
0.0
 11
1396.729793
 21
6361.2352409999994
 31
0.0
  0
LINE
  5
7AF4
  8
1
  6
CONTINUOUS
 10
1396.729793
 20
6361.2352409999994
 30
0.0
 11
1396.729793
 21
6194.2352410000003
 31
0.0
  0
LINE
  5
7AF5
  8
1
  6
CONTINUOUS
 10
2753.729793
 20
5594.2352409999994
 30
0.0
 11
2753.729793
 21
6194.2352410000003
 31
0.0
  0
LINE
  5
7AF6
  8
1
  6
CONTINUOUS
 10
2794.3497929999999
 20
5426.2352410000003
 30
0.0
 11
2166.729793
 21
5426.2352410000003
 31
0.0
  0
LINE
  5
7AF7
  8
1
  6
CONTINUOUS
 10
1987.729793
 20
5444.2352410000003
 30
0.0
 11
1987.729793
 21
5594.2352409999994
 31
0.0
  0
LINE
  5
7AF8
  8
1
  6
CONTINUOUS
 10
2166.729793
 20
5374.2352410000003
 30
0.0
 11
2166.729793
 21
5444.2352410000003
 31
0.0
  0
LINE
  5
7AF9
  8
1
  6
CONTINUOUS
 10
2794.3497929999999
 20
5374.2352410000003
 30
0.0
 11
2794.3497929999999
 21
5444.2352410000003
 31
0.0
  0
LINE
  5
7AFA
  8
1
  6
CONTINUOUS
 10
2707.3497929999999
 20
5532.2352409999994
 30
0.0
 11
2707.3497929999999
 21
5594.2352409999994
 31
0.0
  0
LINE
  5
7AFB
  8
1
  6
CONTINUOUS
 10
2848.3497929999999
 20
5444.2352410000003
 30
0.0
 11
2848.3497929999999
 21
5532.2352409999994
 31
0.0
  0
LINE
  5
7AFC
  8
1
  6
CONTINUOUS
 10
5175.6763650000012
 20
2561.919077
 30
0.0
 11
4125.6763650000003
 21
2561.919077
 31
0.0
  0
LINE
  5
7AFD
  8
1
  6
CONTINUOUS
 10
5175.6763650000012
 20
2461.919077
 30
0.0
 11
4125.6763650000003
 21
2461.919077
 31
0.0
  0
LINE
  5
7AFE
  8
1
  6
CONTINUOUS
 10
5060.6763650000003
 20
2586.919077
 30
0.0
 11
4240.6763650000003
 21
2586.919077
 31
0.0
  0
LINE
  5
7AFF
  8
1
  6
CONTINUOUS
 10
5060.6763650000003
 20
2686.919077
 30
0.0
 11
4148.6763650000003
 21
2686.919077
 31
0.0
  0
LINE
  5
7B00
  8
1
  6
CONTINUOUS
 10
4366.6763650000003
 20
3876.9190770000009
 30
0.0
 11
5050.6763650000012
 21
3876.9190770000009
 31
0.0
  0
LINE
  5
7B12
  8
1
  6
CONTINUOUS
 10
3026.729793
 20
2986.9190769999991
 30
0.0
 11
3026.729793
 21
2686.919077
 31
0.0
  0
LINE
  5
7B14
  8
1
  6
CONTINUOUS
 10
3046.729793
 20
2686.919077
 30
0.0
 11
3046.729793
 21
2586.919077
 31
0.0
  0
LINE
  5
7B15
  8
1
  6
CONTINUOUS
 10
3023.349792999999
 20
2744.919077
 30
0.0
 11
3002.0097930000002
 21
2793.939077
 31
0.0
  0
LINE
  5
7B16
  8
1
  6
CONTINUOUS
 10
3023.349792999999
 20
2686.919077
 30
0.0
 11
3023.349792999999
 21
2744.919077
 31
0.0
  0
LINE
  5
7B17
  8
1
  6
CONTINUOUS
 10
3096.729793
 20
2561.919077
 30
0.0
 11
3096.729793
 21
2461.919077
 31
0.0
  0
LINE
  5
7B2A
  8
1
  6
CONTINUOUS
 10
4408.6763650000003
 20
3876.9190770000009
 30
0.0
 11
4408.6763650000003
 21
2686.919077
 31
0.0
  0
LINE
  5
7B2B
  8
1
  6
CONTINUOUS
 10
4148.6763650000003
 20
3936.919077
 30
0.0
 11
4148.6763650000003
 21
2686.919077
 31
0.0
  0
LINE
  5
7B2C
  8
1
  6
CONTINUOUS
 10
4298.6763650000003
 20
3936.919077
 30
0.0
 11
4298.6763650000003
 21
2686.919077
 31
0.0
  0
LINE
  5
7B2D
  8
1
  6
CONTINUOUS
 10
4188.6763650000003
 20
2961.919077
 30
0.0
 11
4188.6763650000003
 21
2811.919077
 31
0.0
  0
LINE
  5
7B2E
  8
1
  6
CONTINUOUS
 10
4258.6763650000003
 20
2961.919077
 30
0.0
 11
4258.6763650000003
 21
2811.919077
 31
0.0
  0
LINE
  5
7B32
  8
1
  6
CONTINUOUS
 10
4258.6763650000003
 20
2907.919077
 30
0.0
 11
4408.6763650000003
 21
2907.919077
 31
0.0
  0
LINE
  5
7B33
  8
1
  6
CONTINUOUS
 10
4258.6763650000003
 20
2865.919077
 30
0.0
 11
4408.6763650000003
 21
2865.919077
 31
0.0
  0
LINE
  5
7B34
  8
1
  6
CONTINUOUS
 10
4125.6763650000003
 20
2561.919077
 30
0.0
 11
4125.6763650000003
 21
2461.919077
 31
0.0
  0
LINE
  5
7B35
  8
1
  6
CONTINUOUS
 10
4240.6763650000003
 20
2686.919077
 30
0.0
 11
4240.6763650000003
 21
2586.919077
 31
0.0
  0
LINE
  5
7B36
  8
1
  6
CONTINUOUS
 10
4188.6763650000003
 20
2811.919077
 30
0.0
 11
4258.6763650000003
 21
2811.919077
 31
0.0
  0
LINE
  5
7B37
  8
1
  6
CONTINUOUS
 10
4408.6763650000003
 20
3302.919077
 30
0.0
 11
4258.6763650000003
 21
3302.919077
 31
0.0
  0
LINE
  5
7B38
  8
1
  6
CONTINUOUS
 10
4408.6763650000003
 20
3260.919077
 30
0.0
 11
4258.6763650000003
 21
3260.919077
 31
0.0
  0
LINE
  5
7B39
  8
1
  6
CONTINUOUS
 10
4188.6763650000003
 20
3481.919077
 30
0.0
 11
4258.6763650000003
 21
3481.919077
 31
0.0
  0
LINE
  5
7B3A
  8
1
  6
CONTINUOUS
 10
4188.6763650000003
 20
3081.919077
 30
0.0
 11
4258.6763650000003
 21
3081.919077
 31
0.0
  0
LINE
  5
7B3B
  8
1
  6
CONTINUOUS
 10
4188.6763650000003
 20
2961.919077
 30
0.0
 11
4258.6763650000003
 21
2961.919077
 31
0.0
  0
LINE
  5
7B3C
  8
1
  6
CONTINUOUS
 10
4188.6763650000003
 20
3481.919077
 30
0.0
 11
4188.6763650000003
 21
3081.919077
 31
0.0
  0
LINE
  5
7B3D
  8
1
  6
CONTINUOUS
 10
4258.6763650000003
 20
3481.919077
 30
0.0
 11
4258.6763650000003
 21
3081.919077
 31
0.0
  0
LINE
  5
7B3E
  8
1
  6
CONTINUOUS
 10
4298.6763650000003
 20
3936.919077
 30
0.0
 11
4148.6763650000003
 21
3936.919077
 31
0.0
  0
LINE
  5
7B4C
  8
1
  6
CONTINUOUS
 10
3046.729793
 20
6361.2352409999994
 30
0.0
 11
3046.729793
 21
5311.2352409999994
 31
0.0
  0
LINE
  5
7B4D
  8
1
  6
CONTINUOUS
 10
3031.3497929999999
 20
5532.2352409999994
 30
0.0
 11
3031.3497929999999
 21
6017.2352409999994
 31
0.0
  0
LINE
  5
7B4E
  8
1
  6
CONTINUOUS
 10
3096.729793
 20
6361.2352409999994
 30
0.0
 11
3096.729793
 21
5311.2352409999994
 31
0.0
  0
LINE
  5
7B52
  8
1
  6
CONTINUOUS
 10
3096.729793
 20
5311.2352409999994
 30
0.0
 11
3046.729793
 21
5311.2352409999994
 31
0.0
  0
LINE
  5
7B53
  8
1
  6
CONTINUOUS
 10
2944.3497929999999
 20
5374.2352410000003
 30
0.0
 11
2944.3497929999999
 21
5444.2352410000003
 31
0.0
  0
LINE
  5
7B54
  8
1
  6
CONTINUOUS
 10
3026.729793
 20
5484.2352410000003
 30
0.0
 11
3026.729793
 21
5334.2352410000003
 31
0.0
  0
LINE
  5
7B55
  8
1
  6
CONTINUOUS
 10
3046.729793
 20
5426.2352410000003
 30
0.0
 11
2944.3497929999999
 21
5426.2352410000003
 31
0.0
  0
LINE
  5
7B56
  8
1
  6
CONTINUOUS
 10
2890.3497929999999
 20
5444.2352410000003
 30
0.0
 11
2890.3497929999999
 21
5532.2352409999994
 31
0.0
  0
LINE
  5
7B5B
  8
1
  6
CONTINUOUS
 10
3096.729793
 20
6361.2352409999994
 30
0.0
 11
3046.729793
 21
6361.2352409999994
 31
0.0
  0
LINE
  5
7B71
  8
1
  6
CONTINUOUS
 10
5008.6763650000003
 20
3876.9190770000009
 30
0.0
 11
5008.6763650000003
 21
2686.919077
 31
0.0
  0
LINE
  5
7B72
  8
1
  6
CONTINUOUS
 10
5060.6763650000003
 20
2686.919077
 30
0.0
 11
5060.6763650000003
 21
2586.919077
 31
0.0
  0
LINE
  5
7B73
  8
1
  6
CONTINUOUS
 10
5175.6763650000012
 20
2561.919077
 30
0.0
 11
5175.6763650000012
 21
2461.919077
 31
0.0
  0
LINE
  5
7B74
  8
2
  6
CENTER
 10
4708.6763650000003
 20
4029.5018490000002
 30
0.0
 11
4708.6763650000003
 21
2287.7833110000001
 31
0.0
  0
LINE
  5
7B75
  8
2
  6
CENTER
 10
3208.2049270000002
 20
5894.2352410000003
 30
0.0
 11
1245.273659
 21
5894.2352410000003
 31
0.0
  0
LINE
  5
7B76
  8
2
  6
CENTER
 10
1966.729793
 20
4052.5640919999992
 30
0.0
 11
1966.729793
 21
2352.0469320000002
 31
0.0
  0
LINE
  5
7B77
  8
2
  6
CENTER
 10
4034.284095999999
 20
3281.9190769999991
 30
0.0
 11
5101.9997739999999
 21
3281.9190769999991
 31
0.0
  0
LINE
  5
7B78
  8
4
  6
CONTINUOUS
 10
5550.0
 20
1500.0
 30
0.0
 11
5550.0
 21
900.0
 31
0.0
  0
LINE
  5
7B79
  8
4
  6
CONTINUOUS
 10
3450.0
 20
1500.0
 30
0.0
 11
3450.0
 21
900.0
 31
0.0
  0
LINE
  5
7B7A
  8
4
  6
CONTINUOUS
 10
1950.0
 20
1500.0
 30
0.0
 11
1950.0
 21
900.0
 31
0.0
  0
LINE
  5
7B7D
  8
4
  6
CONTINUOUS
 10
1950.0
 20
900.0
 30
0.0
 11
5550.0
 21
900.0
 31
0.0
  0
LINE
  5
7B7E
  8
4
  6
CONTINUOUS
 10
1950.0
 20
1200.0
 30
0.0
 11
5550.0
 21
1200.0
 31
0.0
  0
TEXT
  5
7B7F
  8
4
  6
CONTINUOUS
 10
2065.5062429999989
 20
1294.6290779999999
 30
0.0
 40
150.0
  1
機器名称
  0
TEXT
  5
7B80
  8
4
  6
CONTINUOUS
 10
2058.7743179999989
 20
964.9354699999999
 30
0.0
 40
150.0
  1
機器型番
  0
TEXT
  5
7B81
  8
4
  6
CONTINUOUS
 10
3533.0362359999999
 20
1267.7153069999999
 30
0.0
 40
150.0
  1
ミツヤ多翼送風機
  0
TEXT
  5
7B82
  8
4
  6
CONTINUOUS
 10
3559.9634869999991
 20
951.47875299999987
 30
0.0
 40
150.0
  1
MF#5-4
  0
TEXT
  5
7B84
  8
4
  6
CONTINUOUS
 10
2156.7261149999999
 20
7150.2865239999992
 30
0.0
 40
162.0
  1
天井吊防振ベット
  0
TEXT
  5
7B85
  8
4
  6
CONTINUOUS
 10
948.50278000000014
 20
7601.6429289999996
 30
0.0
 40
216.0
  1
ベルト駆動式片吸込両持多翼ファン
  0
LINE
  5
7B86
  8
4
  6
CONTINUOUS
 10
750.0
 20
7408.2262629999996
 30
0.0
 11
5550.0
 21
7408.2262629999996
 31
0.0
  0
LINE
  5
7B87
  8
4
  6
CONTINUOUS
 10
750.0
 20
8008.2262629999996
 30
0.0
 11
5550.0
 21
8008.2262629999996
 31
0.0
  0
LINE
  5
7B88
  8
4
  6
CONTINUOUS
 10
1950.0
 20
1500.0
 30
0.0
 11
5550.0
 21
1500.0
 31
0.0
  0
LINE
  5
7B89
  8
4
  6
CONTINUOUS
 10
750.0
 20
8008.2262629999996
 30
0.0
 11
750.0
 21
7408.2262629999996
 31
0.0
  0
TEXT
  5
7B8A
  8
4
  6
CONTINUOUS
 10
849.14961899999992
 20
7146.9584329999998
 30
0.0
 40
162.0
  1
左回転上向
  0
TEXT
  5
7B8B
  8
4
  6
CONTINUOUS
 10
4406.9086779999989
 20
8118.1832439999989
 30
0.0
 40
168.0
  1
No.
  0
TEXT
  5
7B8C
  8
4
  6
CONTINUOUS
 10
3933.8881879999999
 20
7150.2865239999992
 30
0.0
 40
162.0
  1
縮尺：1/30
  0
LINE
  5
7B8D
  8
4
  6
CONTINUOUS
 10
5550.0
 20
8008.2262629999996
 30
0.0
 11
5550.0
 21
7408.2262629999996
 31
0.0
  0
LINE
  5
7B8F
  8
4
  6
CONTINUOUS
 10
4321.8522670000002
 20
8043.7907490000007
 30
0.0
 11
4321.8522670000002
 21
8359.9567849999985
 31
0.0
  0
LINE
  5
7B90
  8
4
  6
CONTINUOUS
 10
4321.8522670000002
 20
8359.9567849999985
 30
0.0
 11
5550.0
 21
8359.9567849999985
 31
0.0
  0
LINE
  5
7B91
  8
4
  6
CONTINUOUS
 10
5550.0
 20
8359.9567849999985
 30
0.0
 11
5550.0
 21
8043.7907490000007
 31
0.0
  0
LINE
  5
7B92
  8
4
  6
CONTINUOUS
 10
5550.0
 20
8043.7907490000007
 30
0.0
 11
4321.8522670000002
 21
8043.7907490000007
 31
0.0
  0
DIMENSION
  5
7BAA
  8
3
  6
CONTINUOUS
  2
*D1
 10
1928.729793
 20
4041.7951210000001
 30
0.0
 11
2287.619913999999
 21
4041.7951210000001
 31
0.0
 70
   128
 13
2753.729793
 23
3876.9190770000009
 33
0.0
 14
1928.729793
 24
3876.9190770000009
 34
0.0
1001
ACAD
1000
DSTYLE
1002
{
1070
   287
1070
     3
1070
    40
1040
30.0
1070
   143
1040
0.039
1070
   172
1070
     1
1070
   271
1070
     0
1070
   279
1070
     0
1070
   288
1070
     1
1002
}
  0
DIMENSION
  5
7BB7
  8
3
  6
CONTINUOUS
  2
*D2
 10
1966.729793
 20
4222.2703519999995
 30
0.0
 11
2274.2415850000002
 21
4222.2703519999995
 31
0.0
 70
   128
 13
2753.729793
 23
3876.9190770000009
 33
0.0
 14
1966.729793
 24
4052.5640919999992
 34
0.0
1001
ACAD
1000
DSTYLE
1002
{
1070
   287
1070
     3
1070
    40
1040
30.0
1070
   143
1040
0.039
1070
   172
1070
     1
1070
   271
1070
     0
1070
   279
1070
     0
1070
   288
1070
     1
1002
}
  0
DIMENSION
  5
7BD0
  8
3
  6
CONTINUOUS
  2
*D3
 10
1203.975794
 20
3281.9190769999991
 30
0.0
 11
1203.975793999999
 21
3573.8963640000002
 31
0.0
 70
   128
 13
1886.229793
 23
3876.9190770000009
 33
0.0
 14
1279.7921449999999
 24
3281.9190769999991
 34
0.0
 50
90.0
1001
ACAD
1000
DSTYLE
1002
{
1070
   287
1070
     3
1070
    40
1040
30.0
1070
   143
1040
0.039
1070
   172
1070
     1
1070
   271
1070
     0
1070
   279
1070
     0
1070
   288
1070
     1
1002
}
  0
DIMENSION
  5
7BDC
  8
3
  6
CONTINUOUS
  2
*D4
 10
1203.975793999999
 20
2586.919077
 30
0.0
 11
1128.975793999999
 21
2934.419077
 31
0.0
 70
     0
 13
1279.7921449999999
 23
3281.9190769999991
 33
0.0
 14
1446.729793
 24
2586.919077
 34
0.0
 50
90.0
1001
ACAD
1000
DSTYLE
1002
{
1070
   287
1070
     4
1070
    40
1040
30.0
1070
    75
1070
     1
1070
   143
1040
0.039
1070
   172
1070
     1
1070
   271
1070
     0
1070
   279
1070
     1
1070
   288
1070
     1
1002
}
  0
DIMENSION
  5
7BEC
  8
3
  6
CONTINUOUS
  2
*D5
 10
1203.193174
 20
2461.919077
 30
0.0
 11
1203.193174
 21
2204.7762198571431
 31
0.0
 70
   128
 13
1446.729793
 23
2586.919077
 33
0.0
 14
1396.729793
 24
2461.919077
 34
0.0
 50
90.0
1001
ACAD
1000
DSTYLE
1002
{
1070
   287
1070
     3
1070
    40
1040
30.0
1070
   143
1040
0.039
1070
   172
1070
     1
1070
   271
1070
     0
1070
   279
1070
     0
1070
   288
1070
     1
1002
}
  0
DIMENSION
  5
7BF9
  8
3
  6
CONTINUOUS
  2
*D6
 10
1966.729793
 20
2203.549043
 30
0.0
 11
1692.284537
 21
2203.549043
 31
0.0
 70
   128
 13
1396.729793
 23
2461.919077
 33
0.0
 14
1966.729793
 24
2352.0469320000002
 34
0.0
1001
ACAD
1000
DSTYLE
1002
{
1070
   287
1070
     3
1070
    40
1040
30.0
1070
   143
1040
0.039
1070
   172
1070
     1
1070
   271
1070
     0
1070
   279
1070
     0
1070
   288
1070
     1
1002
}
  0
DIMENSION
  5
7C05
  8
3
  6
CONTINUOUS
  2
*D7
 10
3096.729793
 20
2203.549043
 30
0.0
 11
2531.729793
 21
2278.5490429999991
 31
0.0
 70
     0
 13
1966.729793
 23
2352.0469320000002
 33
0.0
 14
3096.729793
 24
2461.919077
 34
0.0
1001
ACAD
1000
DSTYLE
1002
{
1070
   287
1070
     4
1070
    40
1040
30.0
1070
    75
1070
     1
1070
   143
1040
0.039
1070
   172
1070
     1
1070
   271
1070
     0
1070
   279
1070
     1
1070
   288
1070
     1
1002
}
  0
DIMENSION
  5
7C12
  8
3
  6
CONTINUOUS
  2
*D8
 10
1012.702629
 20
2461.9190770000009
 30
0.0
 11
1012.702629
 21
3179.5245649999988
 31
0.0
 70
   128
 13
1871.229793
 23
3876.9190770000009
 33
0.0
 14
1396.729793
 24
2461.919077
 34
0.0
 50
90.0
1001
ACAD
1000
DSTYLE
1002
{
1070
   287
1070
     3
1070
    40
1040
30.0
1070
   143
1040
0.039
1070
   172
1070
     1
1070
   271
1070
     0
1070
   279
1070
     0
1070
   288
1070
     1
1002
}
  0
DIMENSION
  5
7C1F
  8
3
  6
CONTINUOUS
  2
*D9
 10
4408.6763650000003
 20
4015.058047
 30
0.0
 11
4707.3392670000003
 21
4015.058047
 31
0.0
 70
   128
 13
5008.6763650000003
 23
3876.9190770000009
 33
0.0
 14
4408.6763650000003
 24
3876.9190770000009
 34
0.0
1001
ACAD
1000
DSTYLE
1002
{
1070
   287
1070
     3
1070
    40
1040
30.0
1070
   143
1040
0.039
1070
   172
1070
     1
1070
   271
1070
     0
1070
   279
1070
     0
1070
   288
1070
     1
1002
}
  0
LINE
  5
7C20
  8
1
  6
CONTINUOUS
 10
5012.6763650000003
 20
3706.919077
 30
0.0
 11
5012.6763650000003
 21
2856.919077
 31
0.0
  0
DIMENSION
  5
7C2F
  8
3
  6
CONTINUOUS
  2
*D10
 10
5275.917985000001
 20
2856.9190769999991
 30
0.0
 11
5275.917985
 21
3273.1043119999999
 31
0.0
 70
   128
 13
5012.6763650000003
 23
3706.919077
 33
0.0
 14
5012.6763650000003
 24
2856.919077
 34
0.0
 50
90.0
1001
ACAD
1000
DSTYLE
1002
{
1070
   287
1070
     3
1070
     3
1000
φ<>
1070
    40
1040
30.0
1070
   143
1040
0.039
1070
   172
1070
     1
1070
   271
1070
     0
1070
   279
1070
     0
1070
   288
1070
     1
1002
}
  0
DIMENSION
  5
7C3E
  8
3
  6
CONTINUOUS
  2
*D11
 10
4708.6763650000003
 20
4202.2175630000002
 30
0.0
 11
4860.6763650000003
 21
4285.4334122110704
 31
0.0
 70
   128
 13
5012.6763650000003
 23
3706.919077
 33
0.0
 14
4708.6763650000003
 24
4160.2959080000001
 34
0.0
1001
ACAD
1000
DSTYLE
1002
{
1070
   288
1070
     1
1070
   172
1070
     1
1070
    40
1040
30.0
1070
   271
1070
     0
1070
   143
1040
0.039
1002
}
  0
DIMENSION
  5
7C4A
  8
3
  6
CONTINUOUS
  2
*D12
 10
4148.6763650000003
 20
4202.2175630000002
 30
0.0
 11
4428.6763650000003
 21
4352.2175629999992
 31
0.0
 70
     0
  1
MAX\P610
 13
4708.6763650000003
 23
4160.2959080000001
 33
0.0
 14
4148.6763650000003
 24
3936.919077
 34
0.0
1001
ACAD
1000
DSTYLE
1002
{
1070
   287
1070
     4
1070
    40
1040
30.0
1070
    75
1070
     1
1070
   143
1040
0.039
1070
   172
1070
     1
1070
   271
1070
     0
1070
   279
1070
     1
1070
   288
1070
     1
1002
}
  0
DIMENSION
  5
7C57
  8
3
  6
CONTINUOUS
  2
*D13
 10
4708.6763650000003
 20
2227.788564
 30
0.0
 11
4426.3944909999991
 21
2227.788564
 31
0.0
 70
   128
 13
4125.6763650000003
 23
2461.919077
 33
0.0
 14
4708.6763650000003
 24
2287.7833110000001
 34
0.0
1001
ACAD
1000
DSTYLE
1002
{
1070
   287
1070
     3
1070
    40
1040
30.0
1070
   143
1040
0.039
1070
   172
1070
     1
1070
   271
1070
     0
1070
   279
1070
     0
1070
   288
1070
     1
1002
}
  0
DIMENSION
  5
7C63
  8
3
  6
CONTINUOUS
  2
*D14
 10
5175.6763650000012
 20
2227.788564
 30
0.0
 11
4942.1763650000003
 21
2302.788564
 31
0.0
 70
     0
 13
4708.6763650000003
 23
2287.7833110000001
 33
0.0
 14
5175.6763650000012
 24
2461.919077
 34
0.0
1001
ACAD
1000
DSTYLE
1002
{
1070
   287
1070
     4
1070
    40
1040
30.0
1070
    75
1070
     1
1070
   143
1040
0.039
1070
   172
1070
     1
1070
   271
1070
     0
1070
   279
1070
     1
1070
   288
1070
     1
1002
}
  0
DIMENSION
  5
7C70
  8
3
  6
CONTINUOUS
  2
*D15
 10
3096.729793
 20
6515.321473
 30
0.0
 11
2226.7501169999991
 21
6515.321473
 31
0.0
 70
   128
 13
1396.729793
 23
6361.2352409999994
 33
0.0
 14
3096.729793
 24
6361.2352409999994
 34
0.0
1001
ACAD
1000
DSTYLE
1002
{
1070
   287
1070
     3
1070
    40
1040
30.0
1070
   143
1040
0.039
1070
   172
1070
     1
1070
   271
1070
     0
1070
   279
1070
     0
1070
   288
1070
     1
1002
}
  0
DIMENSION
  5
7C7D
  8
3
  6
CONTINUOUS
  2
*D16
 10
3350.5291900000011
 20
5311.2352409999994
 30
0.0
 11
3350.5291899999988
 21
5867.683473
 31
0.0
 70
   128
 13
3096.729793
 23
6361.2352409999994
 33
0.0
 14
3096.729793
 24
5311.2352409999994
 34
0.0
 50
90.0
1001
ACAD
1000
DSTYLE
1002
{
1070
   287
1070
     3
1070
    40
1040
30.0
1070
   143
1040
0.039
1070
   172
1070
     1
1070
   271
1070
     0
1070
   279
1070
     0
1070
   288
1070
     1
1002
}
  0
DIMENSION
  5
7CDF
  8
3
  6
CONTINUOUS
  2
*D17
 10
1390.7391458931261
 20
4222.2703519999995
 30
0.0
 11
1678.734469446563
 21
4297.2703519999995
 31
0.0
 70
     0
 13
1966.729793
 23
4052.5640919999992
 33
0.0
 14
1390.7391458931261
 24
3281.9190769999991
 34
0.0
1001
ACAD
1000
DSTYLE
1002
{
1070
   287
1070
     4
1070
    40
1040
30.0
1070
    75
1070
     1
1070
   143
1040
0.039
1070
   172
1070
     1
1070
   271
1070
     0
1070
   279
1070
     1
1070
   288
1070
     1
1002
}
  0
LINE
  5
7D7E
  8
1
  6
CONTINUOUS
 10
1466.7297929999991
 20
3686.919077
 30
0.0
 11
2466.7297929999991
 21
3686.919077
 31
0.0
  0
LINE
  5
7D7F
  8
1
 10
1466.7297929999991
 20
3686.919077
 30
0.0
 11
1466.729793
 21
2686.919077
 31
0.0
  0
LINE
  5
7D80
  8
1
 10
2466.7297929999991
 20
3686.919077
 30
0.0
 11
2466.729793
 21
2686.919077
 31
0.0
  0
ENDSEC
  0
EOF
