  0
SECTION
  2
HEADER
  9
$ACADVER
  1
AC1009
  9
$INSBASE
 10
0.0
 20
0.0
 30
0.0
  9
$EXTMIN
 10
750.0
 20
900.0
 30
0.0
  9
$EXTMAX
 10
5550.0
 20
8359.9567849999985
 30
0.0
  9
$LIMMIN
 10
0.0
 20
0.0
  9
$LIMMAX
 10
297.0
 20
210.0
  9
$ORTHOMODE
 70
     0
  9
$REGENMODE
 70
     1
  9
$FILLMODE
 70
     0
  9
$QTEXTMODE
 70
     0
  9
$MIRRTEXT
 70
     1
  9
$DRAGMODE
 70
     2
  9
$LTSCALE
 40
100.0
  9
$OSMODE
 70
    37
  9
$ATTMODE
 70
     1
  9
$TEXTSIZE
 40
180.0
  9
$TRACEWID
 40
0.05
  9
$TEXTSTYLE
  7
STANDARD
  9
$CLAYER
  8
3
  9
$CELTYPE
  6
BYLAYER
  9
$CECOLOR
 62
   256
  9
$DIMSCALE
 40
30.0
  9
$DIMASZ
 40
2.0
  9
$DIMEXO
 40
0.5
  9
$DIMDLI
 40
10.0
  9
$DIMRND
 40
0.0
  9
$DIMDLE
 40
0.0
  9
$DIMEXE
 40
1.0
  9
$DIMTP
 40
1.0
  9
$DIMTM
 40
1.0
  9
$DIMTXT
 40
3.0
  9
$DIMCEN
 40
0.0
  9
$DIMTSZ
 40
0.0
  9
$DIMTOL
 70
     0
  9
$DIMLIM
 70
     0
  9
$DIMTIH
 70
     0
  9
$DIMTOH
 70
     0
  9
$DIMSE1
 70
     0
  9
$DIMSE2
 70
     0
  9
$DIMTAD
 70
     1
  9
$DIMZIN
 70
     8
  9
$DIMBLK
  1

  9
$DIMASO
 70
     1
  9
$DIMSHO
 70
     1
  9
$DIMPOST
  1

  9
$DIMAPOST
  1

  9
$DIMALT
 70
     0
  9
$DIMALTD
 70
     2
  9
$DIMALTF
 40
0.039
  9
$DIMLFAC
 40
1.0
  9
$DIMTOFL
 70
     1
  9
$DIMTVP
 40
0.0
  9
$DIMTIX
 70
     0
  9
$DIMSOXD
 70
     0
  9
$DIMSAH
 70
     1
  9
$DIMBLK1
  1
OPEN
  9
$DIMBLK2
  1
OPEN
  9
$DIMSTYLE
  2
IGA
  9
$DIMCLRD
 70
     0
  9
$DIMCLRE
 70
     0
  9
$DIMCLRT
 70
     0
  9
$DIMTFAC
 40
10.0
  9
$DIMGAP
 40
1.0
  9
$LUNITS
 70
     2
  9
$LUPREC
 70
     3
  9
$SKETCHINC
 40
0.1
  9
$FILLETRAD
 40
50.0
  9
$AUNITS
 70
     0
  9
$AUPREC
 70
     0
  9
$MENU
  1
acad
  9
$ELEVATION
 40
0.0
  9
$PELEVATION
 40
0.0
  9
$THICKNESS
 40
0.0
  9
$LIMCHECK
 70
     0
  9
$BLIPMODE
 70
     0
  9
$CHAMFERA
 40
0.5
  9
$CHAMFERB
 40
0.5
  9
$SKPOLY
 70
     0
  9
$TDCREATE
 40
2450746.6522115739
  9
$TDUPDATE
 40
2454953.7743806019
  9
$TDINDWG
 40
0.0099499653
  9
$TDUSRTIMER
 40
0.0099499653
  9
$USRTIMER
 70
     1
  9
$ANGBASE
 50
0.0
  9
$ANGDIR
 70
     0
  9
$PDMODE
 70
     0
  9
$PDSIZE
 40
0.0
  9
$PLINEWID
 40
0.0
  9
$COORDS
 70
     1
  9
$SPLFRAME
 70
     0
  9
$SPLINETYPE
 70
     6
  9
$SPLINESEGS
 70
     8
  9
$ATTDIA
 70
     0
  9
$ATTREQ
 70
     1
  9
$HANDLING
 70
 10241
  9
$HANDSEED
  5
7E1B
  9
$SURFTAB1
 70
     6
  9
$SURFTAB2
 70
     6
  9
$SURFTYPE
 70
     6
  9
$SURFU
 70
     6
  9
$SURFV
 70
     6
  9
$UCSNAME
  2

  9
$UCSORG
 10
0.0
 20
0.0
 30
0.0
  9
$UCSXDIR
 10
1.0
 20
0.0
 30
0.0
  9
$UCSYDIR
 10
0.0
 20
1.0
 30
0.0
  9
$PUCSNAME
  2

  9
$PUCSORG
 10
0.0
 20
0.0
 30
0.0
  9
$PUCSXDIR
 10
1.0
 20
0.0
 30
0.0
  9
$PUCSYDIR
 10
0.0
 20
1.0
 30
0.0
  9
$USERI1
 70
     0
  9
$USERI2
 70
     0
  9
$USERI3
 70
     0
  9
$USERI4
 70
     0
  9
$USERI5
 70
     0
  9
$USERR1
 40
0.0
  9
$USERR2
 40
0.0
  9
$USERR3
 40
0.0
  9
$USERR4
 40
0.0
  9
$USERR5
 40
0.0
  9
$WORLDVIEW
 70
     1
  9
$SHADEDGE
 70
     3
  9
$SHADEDIF
 70
    70
  9
$TILEMODE
 70
     1
  9
$MAXACTVP
 70
    16
  9
$PLIMCHECK
 70
     0
  9
$PEXTMIN
 10
1.0000000000000000E+020
 20
1.0000000000000000E+020
 30
1.0000000000000000E+020
  9
$PEXTMAX
 10
-1.0000000000000000E+020
 20
-1.0000000000000000E+020
 30
-1.0000000000000000E+020
  9
$PLIMMIN
 10
0.0
 20
0.0
  9
$PLIMMAX
 10
12.0
 20
9.0
  9
$UNITMODE
 70
     0
  9
$VISRETAIN
 70
     0
  9
$PLINEGEN
 70
     0
  9
$PSLTSCALE
 70
     1
  0
ENDSEC
  0
SECTION
  2
TABLES
  0
TABLE
  2
VPORT
 70
     2
  0
VPORT
  2
*ACTIVE
 70
     0
 10
0.0
 20
0.0
 11
1.0
 21
1.0
 12
9437.9954746499006
 22
4629.9199394653269
 13
0.0
 23
0.0
 14
10.0
 24
10.0
 15
10.0
 25
10.0
 16
0.0
 26
0.0
 36
1.0
 17
0.0
 27
0.0
 37
0.0
 40
7517.061441529765
 41
3.1666666666666661
 42
50.0
 43
0.0
 44
0.0
 50
0.0
 51
0.0
 71
     0
 72
   100
 73
     1
 74
     0
 75
     0
 76
     0
 77
     0
 78
     0
  0
ENDTAB
  0
TABLE
  2
LTYPE
 70
     2
  0
LTYPE
  2
CONTINUOUS
 70
     0
  3
Solid line
 72
    65
 73
     0
 40
0.0
  0
LTYPE
  2
CENTER
 70
     0
  3
____ _ ____ _ ____ _ ____ _ ____ _ ____ _ ____ 
 72
    65
 73
     4
 40
2.0
 49
1.25
 49
-0.25
 49
0.25
 49
-0.25
  0
ENDTAB
  0
TABLE
  2
LAYER
 70
     6
  0
LAYER
  2
0
 70
     0
 62
     7
  6
CONTINUOUS
  0
LAYER
  2
3
 70
     0
 62
     2
  6
CONTINUOUS
  0
LAYER
  2
2
 70
     0
 62
     3
  6
CENTER
  0
LAYER
  2
1
 70
     0
 62
     4
  6
CONTINUOUS
  0
LAYER
  2
4
 70
     0
 62
     7
  6
CONTINUOUS
  0
LAYER
  2
DEFPOINTS
 70
     0
 62
     7
  6
CONTINUOUS
  0
ENDTAB
  0
TABLE
  2
STYLE
 70
     1
  0
STYLE
  2
STANDARD
 70
     0
 40
0.0
 41
1.0
 50
0.0
 71
     0
 42
180.0
  3
simplex.shx
  4
extfont.shx
  0
ENDTAB
  0
TABLE
  2
VIEW
 70
     0
  0
ENDTAB
  0
TABLE
  2
UCS
 70
     0
  0
ENDTAB
  0
TABLE
  2
APPID
 70
     1
  0
APPID
  2
ACAD
 70
     0
  0
ENDTAB
  0
TABLE
  2
DIMSTYLE
 70
     1
  0
DIMSTYLE
  2
IGA
 70
     0
  3

  4

  5

  6
OPEN
  7
OPEN
 40
2.0
 41
2.0
 42
0.5
 43
10.0
 44
1.0
 45
0.0
 46
0.0
 47
1.0
 48
1.0
140
3.0
141
0.0
142
0.0
143
0.03937
144
1.0
145
0.0
146
10.0
147
1.0
 71
     0
 72
     0
 73
     0
 74
     0
 75
     0
 76
     0
 77
     1
 78
     8
170
     0
171
     2
172
     0
173
     1
174
     0
175
     0
176
     0
177
     0
178
     0
  0
ENDTAB
  0
ENDSEC
  0
SECTION
  2
BLOCKS
  0
BLOCK
  8
0
  2
$MODEL_SPACE
 70
     0
 10
0.0
 20
0.0
 30
0.0
  3
$MODEL_SPACE
  1

  0
ENDBLK
  5
1B
  8
0
  0
BLOCK
 67
     1
  8
0
  2
$PAPER_SPACE
 70
     0
 10
0.0
 20
0.0
 30
0.0
  3
$PAPER_SPACE
  1

  0
ENDBLK
  5
18
 67
     1
  8
0
  0
BLOCK
  8
0
  2
_OPEN
 70
     0
 10
0.0
 20
0.0
 30
0.0
  3
_OPEN
  1

  0
LINE
  5
7BA7
  8
0
  6
BYBLOCK
 62
     0
 10
-1.0
 20
0.166667
 30
0.0
 11
0.0
 21
0.0
 31
0.0
  0
LINE
  5
7BA8
  8
0
  6
BYBLOCK
 62
     0
 10
0.0
 20
0.0
 30
0.0
 11
-1.0
 21
-0.166667
 31
0.0
  0
LINE
  5
7BA9
  8
0
  6
BYBLOCK
 62
     0
 10
0.0
 20
0.0
 30
0.0
 11
-1.0
 21
0.0
 31
0.0
  0
ENDBLK
  5
7BAA
  8
0
  0
BLOCK
  8
0
  2
*D1
 70
     1
 10
0.0
 20
0.0
 30
0.0
  3
*D1
  1

  0
LINE
  5
7D70
  8
3
  6
CONTINUOUS
 62
     0
 10
1440.986795
 20
3890.5095159999992
 30
0.0
 11
1283.77764
 21
3890.5095159999992
 31
0.0
  0
LINE
  5
7D71
  8
3
  6
CONTINUOUS
 62
     0
 10
1440.986795
 20
3065.5095160000001
 30
0.0
 11
1283.77764
 21
3065.5095160000001
 31
0.0
  0
LINE
  5
7D72
  8
3
  6
CONTINUOUS
 62
     0
 10
1313.77764
 20
3830.5095160000001
 30
0.0
 11
1313.77764
 21
3125.5095160000001
 31
0.0
  0
INSERT
  5
7D73
  8
3
  6
CONTINUOUS
 62
     0
  2
_OPEN
 10
1313.77764
 20
3890.5095159999992
 30
0.0
 41
60.0
 42
60.0
 43
60.0
 50
90.0
  0
INSERT
  5
7D74
  8
3
  6
CONTINUOUS
 62
     0
  2
_OPEN
 10
1313.77764
 20
3065.5095160000001
 30
0.0
 41
60.0
 42
60.0
 43
60.0
 50
270.0
  0
TEXT
  8
3
  40
90
  5
7E09
  62
0
  72
0
  71
0
 10
1058.78
 20
3341.51
 30
0.000000
  1
825
  0
POINT
  5
7D76
  8
DEFPOINTS
  6
CONTINUOUS
 62
     0
 10
1455.986795
 20
3890.5095159999992
 30
0.0
  0
POINT
  5
7D77
  8
DEFPOINTS
  6
CONTINUOUS
 62
     0
 10
1455.986795
 20
3065.5095160000001
 30
0.0
  0
POINT
  5
7D78
  8
DEFPOINTS
  6
CONTINUOUS
 62
     0
 10
1313.77764
 20
3065.5095160000001
 30
0.0
  0
ENDBLK
  5
7BB7
  8
0
  0
BLOCK
  8
0
  2
*D2
 70
     1
 10
0.0
 20
0.0
 30
0.0
  3
*D2
  1

  0
LINE
  5
7D79
  8
3
  6
CONTINUOUS
 62
     0
 10
1440.986795
 20
3890.5095159999992
 30
0.0
 11
1088.484661
 21
3890.5095159999992
 31
0.0
  0
LINE
  5
7D7A
  8
3
  6
CONTINUOUS
 62
     0
 10
1363.0109759999989
 20
3103.5095160000001
 30
0.0
 11
1088.484661
 21
3103.5095160000001
 31
0.0
  0
LINE
  5
7D7B
  8
3
  6
CONTINUOUS
 62
     0
 10
1118.484661
 20
3830.5095160000001
 30
0.0
 11
1118.484661
 21
3163.5095160000001
 31
0.0
  0
INSERT
  5
7D7C
  8
3
  6
CONTINUOUS
 62
     0
  2
_OPEN
 10
1118.484661
 20
3890.5095159999992
 30
0.0
 41
60.0
 42
60.0
 43
60.0
 50
90.0
  0
INSERT
  5
7D7D
  8
3
  6
CONTINUOUS
 62
     0
  2
_OPEN
 10
1118.484661
 20
3103.5095160000001
 30
0.0
 41
60.0
 42
60.0
 43
60.0
 50
270.0
  0
TEXT
  8
3
  40
90
  5
7E0A
  62
0
  72
0
  71
0
 10
863.485
 20
3359.81
 30
0.000000
  1
787
  0
POINT
  5
7D7F
  8
DEFPOINTS
  6
CONTINUOUS
 62
     0
 10
1455.986795
 20
3890.5095159999992
 30
0.0
  0
POINT
  5
7D80
  8
DEFPOINTS
  6
CONTINUOUS
 62
     0
 10
1378.010976
 20
3103.5095160000001
 30
0.0
  0
POINT
  5
7D81
  8
DEFPOINTS
  6
CONTINUOUS
 62
     0
 10
1118.484661
 20
3103.5095160000001
 30
0.0
  0
ENDBLK
  5
7BD1
  8
0
  0
BLOCK
  8
0
  2
*D3
 70
     1
 10
0.0
 20
0.0
 30
0.0
  3
*D3
  1

  0
LINE
  5
7D82
  8
3
  6
CONTINUOUS
 62
     0
 10
1515.986795
 20
2408.5095160000001
 30
0.0
 11
1088.484661
 21
2408.5095160000001
 31
0.0
  0
LINE
  5
7D83
  8
3
  6
CONTINUOUS
 62
     0
 10
1118.484661
 20
3043.5095160000001
 30
0.0
 11
1118.4846609999991
 21
2468.5095160000001
 31
0.0
  0
INSERT
  5
7D84
  8
3
  6
CONTINUOUS
 62
     0
  2
_OPEN
 10
1118.484661
 20
3103.5095160000001
 30
0.0
 41
60.0
 42
60.0
 43
60.0
 50
90.0
  0
INSERT
  5
7D85
  8
3
  6
CONTINUOUS
 62
     0
  2
_OPEN
 10
1118.4846609999991
 20
2408.5095160000001
 30
0.0
 41
60.0
 42
60.0
 43
60.0
 50
270.0
  0
TEXT
  8
3
  40
90
  5
7E0B
  62
0
  72
0
  71
0
 10
863.485
 20
2596.71
 30
0.000000
  1
695
  0
POINT
  5
7D87
  8
DEFPOINTS
  6
CONTINUOUS
 62
     0
 10
1378.010976
 20
3103.5095160000001
 30
0.0
  0
POINT
  5
7D88
  8
DEFPOINTS
  6
CONTINUOUS
 62
     0
 10
1530.986795
 20
2408.5095160000001
 30
0.0
  0
POINT
  5
7D89
  8
DEFPOINTS
  6
CONTINUOUS
 62
     0
 10
1118.4846609999991
 20
2408.5095160000001
 30
0.0
  0
ENDBLK
  5
7BDD
  8
0
  0
BLOCK
  8
0
  2
*D4
 70
     1
 10
0.0
 20
0.0
 30
0.0
  3
*D4
  1

  0
LINE
  5
7D8A
  8
3
  6
CONTINUOUS
 62
     0
 10
1515.986795
 20
2408.5095160000001
 30
0.0
 11
1087.6954029999999
 21
2408.5095160000001
 31
0.0
  0
LINE
  5
7D8B
  8
3
  6
CONTINUOUS
 62
     0
 10
1465.986795
 20
2283.5095160000001
 30
0.0
 11
1087.6954029999999
 21
2283.5095160000001
 31
0.0
  0
LINE
  5
7D8C
  8
3
  6
CONTINUOUS
 62
     0
 10
1117.6954029999999
 20
2468.5095160000001
 30
0.0
 11
1117.6954029999999
 21
2528.5095160000001
 31
0.0
  0
LINE
  5
7D8D
  8
3
  6
CONTINUOUS
 62
     0
 10
1117.6954029999999
 20
2223.5095160000001
 30
0.0
 11
1117.6954029999999
 21
1889.2238017142861
 31
0.0
  0
LINE
  5
7D8E
  8
3
  6
CONTINUOUS
 62
     0
 10
1117.6954029999999
 20
2408.5095160000001
 30
0.0
 11
1117.6954029999999
 21
2283.5095160000001
 31
0.0
  0
INSERT
  5
7D8F
  8
3
  6
CONTINUOUS
 62
     0
  2
_OPEN
 10
1117.6954029999999
 20
2408.5095160000001
 30
0.0
 41
60.0
 42
60.0
 43
60.0
 50
270.0
  0
INSERT
  5
7D90
  8
3
  6
CONTINUOUS
 62
     0
  2
_OPEN
 10
1117.6954029999999
 20
2283.5095160000001
 30
0.0
 41
60.0
 42
60.0
 43
60.0
 50
90.0
  0
TEXT
  8
3
  40
90
  5
7E0C
  62
0
  72
0
  71
0
 10
862.695
 20
1867.07
 30
0.000000
  1
125
  0
POINT
  5
7D92
  8
DEFPOINTS
  6
CONTINUOUS
 62
     0
 10
1530.986795
 20
2408.5095160000001
 30
0.0
  0
POINT
  5
7D93
  8
DEFPOINTS
  6
CONTINUOUS
 62
     0
 10
1480.986795
 20
2283.5095160000001
 30
0.0
  0
POINT
  5
7D94
  8
DEFPOINTS
  6
CONTINUOUS
 62
     0
 10
1117.6954029999999
 20
2283.5095160000001
 30
0.0
  0
ENDBLK
  5
7CFC
  8
0
  0
BLOCK
  8
0
  2
*D5
 70
     1
 10
0.0
 20
0.0
 30
0.0
  3
*D5
  1

  0
LINE
  5
7D95
  8
3
  6
CONTINUOUS
 62
     0
 10
1440.986795
 20
3933.0095160000001
 30
0.0
 11
887.88173600000061
 21
3933.0095160000001
 31
0.0
  0
LINE
  5
7D96
  8
3
  6
CONTINUOUS
 62
     0
 10
1465.986795
 20
2283.5095160000001
 30
0.0
 11
887.88173600000005
 21
2283.5095160000001
 31
0.0
  0
LINE
  5
7D97
  8
3
  6
CONTINUOUS
 62
     0
 10
917.88173600000073
 20
3873.0095160000001
 30
0.0
 11
917.88173600000027
 21
2343.5095160000001
 31
0.0
  0
INSERT
  5
7D98
  8
3
  6
CONTINUOUS
 62
     0
  2
_OPEN
 10
917.88173600000073
 20
3933.0095160000001
 30
0.0
 41
60.0
 42
60.0
 43
60.0
 50
90.0
  0
INSERT
  5
7D99
  8
3
  6
CONTINUOUS
 62
     0
  2
_OPEN
 10
917.88173600000005
 20
2283.5095160000001
 30
0.0
 41
60.0
 42
60.0
 43
60.0
 50
270.0
  0
TEXT
  8
3
  40
90
  5
7E0D
  62
0
  72
0
  71
0
 10
662.882
 20
2890.23
 30
0.000000
  1
1650
  0
POINT
  5
7D9B
  8
DEFPOINTS
  6
CONTINUOUS
 62
     0
 10
1455.986795
 20
3933.0095160000001
 30
0.0
  0
POINT
  5
7D9C
  8
DEFPOINTS
  6
CONTINUOUS
 62
     0
 10
1480.986795
 20
2283.5095160000001
 30
0.0
  0
POINT
  5
7D9D
  8
DEFPOINTS
  6
CONTINUOUS
 62
     0
 10
917.88173600000005
 20
2283.5095160000001
 30
0.0
  0
ENDBLK
  5
7CD9
  8
0
  0
BLOCK
  8
0
  2
*D6
 70
     1
 10
0.0
 20
0.0
 30
0.0
  3
*D6
  1

  0
LINE
  5
7D9E
  8
3
  6
CONTINUOUS
 62
     0
 10
1480.986795
 20
2268.5095159999992
 30
0.0
 11
1480.986795
 21
2055.9722409999999
 31
0.0
  0
LINE
  5
7D9F
  8
3
  6
CONTINUOUS
 62
     0
 10
2050.9867949999989
 20
2155.118422
 30
0.0
 11
2050.9867949999989
 21
2055.9722409999999
 31
0.0
  0
LINE
  5
7DA0
  8
3
  6
CONTINUOUS
 62
     0
 10
1540.986795
 20
2085.972240999999
 30
0.0
 11
1990.9867949999989
 21
2085.972240999999
 31
0.0
  0
INSERT
  5
7DA1
  8
3
  6
CONTINUOUS
 62
     0
  2
_OPEN
 10
1480.986795
 20
2085.972240999999
 30
0.0
 41
60.0
 42
60.0
 43
60.0
 50
180.0
  0
INSERT
  5
7DA2
  8
3
  6
CONTINUOUS
 62
     0
  2
_OPEN
 10
2050.9867949999989
 20
2085.972240999999
 30
0.0
 41
60.0
 42
60.0
 43
60.0
  0
TEXT
  8
3
  40
90
  5
7E0E
  62
0
  72
0
  71
0
 10
1590.89
 20
2001.67
 30
0.000000
  1
570
  0
POINT
  5
7DA4
  8
DEFPOINTS
  6
CONTINUOUS
 62
     0
 10
1480.986795
 20
2283.5095160000001
 30
0.0
  0
POINT
  5
7DA5
  8
DEFPOINTS
  6
CONTINUOUS
 62
     0
 10
2050.9867949999989
 20
2170.118422
 30
0.0
  0
POINT
  5
7DA6
  8
DEFPOINTS
  6
CONTINUOUS
 62
     0
 10
2050.9867949999989
 20
2085.972240999999
 30
0.0
  0
ENDBLK
  5
7C07
  8
0
  0
BLOCK
  8
0
  2
*D7
 70
     1
 10
0.0
 20
0.0
 30
0.0
  3
*D7
  1

  0
LINE
  5
7DA7
  8
3
  6
CONTINUOUS
 62
     0
 10
3180.9867949999989
 20
2268.5095159999992
 30
0.0
 11
3180.9867949999989
 21
2055.9722409999999
 31
0.0
  0
LINE
  5
7DA8
  8
3
  6
CONTINUOUS
 62
     0
 10
2110.9867949999998
 20
2085.972240999999
 30
0.0
 11
3120.9867949999998
 21
2085.972240999999
 31
0.0
  0
INSERT
  5
7DA9
  8
3
  6
CONTINUOUS
 62
     0
  2
_OPEN
 10
2050.9867949999989
 20
2085.972240999999
 30
0.0
 41
60.0
 42
60.0
 43
60.0
 50
180.0
  0
INSERT
  5
7DAA
  8
3
  6
CONTINUOUS
 62
     0
  2
_OPEN
 10
3180.9867949999989
 20
2085.972240999999
 30
0.0
 41
60.0
 42
60.0
 43
60.0
  0
TEXT
  8
3
  40
90
  5
7E0F
  62
0
  72
0
  71
0
 10
2435.99
 20
2001.67
 30
0.000000
  1
1130
  0
POINT
  5
7DAC
  8
DEFPOINTS
  6
CONTINUOUS
 62
     0
 10
2050.9867949999989
 20
2170.118422
 30
0.0
  0
POINT
  5
7DAD
  8
DEFPOINTS
  6
CONTINUOUS
 62
     0
 10
3180.9867949999989
 20
2283.5095160000001
 30
0.0
  0
POINT
  5
7DAE
  8
DEFPOINTS
  6
CONTINUOUS
 62
     0
 10
3180.9867949999989
 20
2085.972240999999
 30
0.0
  0
ENDBLK
  5
7C13
  8
0
  0
BLOCK
  8
0
  2
*D8
 70
     1
 10
0.0
 20
0.0
 30
0.0
  3
*D8
  1

  0
LINE
  5
7DAF
  8
3
  6
CONTINUOUS
 62
     0
 10
1455.986795
 20
3948.0095159999992
 30
0.0
 11
1455.986795
 21
4122.3593579999988
 31
0.0
  0
LINE
  5
7DB0
  8
3
  6
CONTINUOUS
 62
     0
 10
2050.9867949999989
 20
4058.3207069999999
 30
0.0
 11
2050.9867949999989
 21
4122.3593579999988
 31
0.0
  0
LINE
  5
7DB1
  8
3
  6
CONTINUOUS
 62
     0
 10
1515.986795
 20
4092.3593579999988
 30
0.0
 11
1990.9867949999989
 21
4092.3593579999988
 31
0.0
  0
INSERT
  5
7DB2
  8
3
  6
CONTINUOUS
 62
     0
  2
_OPEN
 10
1455.986795
 20
4092.3593579999988
 30
0.0
 41
60.0
 42
60.0
 43
60.0
 50
180.0
  0
INSERT
  5
7DB3
  8
3
  6
CONTINUOUS
 62
     0
  2
_OPEN
 10
2050.9867949999989
 20
4092.3593579999988
 30
0.0
 41
60.0
 42
60.0
 43
60.0
  0
TEXT
  8
3
  40
90
  5
7E10
  62
0
  72
0
  71
0
 10
1560.37
 20
4008.06
 30
0.000000
  1
595
  0
POINT
  5
7DB5
  8
DEFPOINTS
  6
CONTINUOUS
 62
     0
 10
1455.986795
 20
3933.0095160000001
 30
0.0
  0
POINT
  5
7DB6
  8
DEFPOINTS
  6
CONTINUOUS
 62
     0
 10
2050.9867949999989
 20
4043.3207069999999
 30
0.0
  0
POINT
  5
7DB7
  8
DEFPOINTS
  6
CONTINUOUS
 62
     0
 10
2050.9867949999989
 20
4092.3593579999988
 30
0.0
  0
ENDBLK
  5
7C20
  8
0
  0
BLOCK
  8
0
  2
*D9
 70
     1
 10
0.0
 20
0.0
 30
0.0
  3
*D9
  1

  0
LINE
  5
7DB8
  8
3
  6
CONTINUOUS
 62
     0
 10
4960.9616829999986
 20
3905.5095160000001
 30
0.0
 11
4960.9616829999986
 21
4055.2765060000011
 31
0.0
  0
LINE
  5
7DB9
  8
3
  6
CONTINUOUS
 62
     0
 10
4360.9616829999986
 20
3905.5095160000001
 30
0.0
 11
4360.9616829999986
 21
4055.2765060000011
 31
0.0
  0
LINE
  5
7DBA
  8
3
  6
CONTINUOUS
 62
     0
 10
4900.9616830000004
 20
4025.2765059999988
 30
0.0
 11
4420.9616829999986
 21
4025.2765059999988
 31
0.0
  0
INSERT
  5
7DBB
  8
3
  6
CONTINUOUS
 62
     0
  2
_OPEN
 10
4960.9616829999986
 20
4025.2765059999988
 30
0.0
 41
60.0
 42
60.0
 43
60.0
  0
INSERT
  5
7DBC
  8
3
  6
CONTINUOUS
 62
     0
  2
_OPEN
 10
4360.9616829999986
 20
4025.2765059999988
 30
0.0
 41
60.0
 42
60.0
 43
60.0
 50
180.0
  0
TEXT
  8
3
  40
90
  5
7E11
  62
0
  72
0
  71
0
 10
4476.75
 20
3940.98
 30
0.000000
  1
600
  0
POINT
  5
7DBE
  8
DEFPOINTS
  6
CONTINUOUS
 62
     0
 10
4960.9616829999986
 20
3890.5095159999992
 30
0.0
  0
POINT
  5
7DBF
  8
DEFPOINTS
  6
CONTINUOUS
 62
     0
 10
4360.9616829999986
 20
3890.5095159999992
 30
0.0
  0
POINT
  5
7DC0
  8
DEFPOINTS
  6
CONTINUOUS
 62
     0
 10
4360.9616829999986
 20
4025.2765059999988
 30
0.0
  0
ENDBLK
  5
7C39
  8
0
  0
BLOCK
  8
0
  2
*D10
 70
     1
 10
0.0
 20
0.0
 30
0.0
  3
*D10
  1

  0
LINE
  5
7DC1
  8
3
  6
CONTINUOUS
 62
     0
 10
4979.9616829999986
 20
3528.5095159999992
 30
0.0
 11
5290.9348880000016
 21
3528.5095159999992
 31
0.0
  0
LINE
  5
7DC2
  8
3
  6
CONTINUOUS
 62
     0
 10
4979.9616829999986
 20
2678.5095160000001
 30
0.0
 11
5290.9348880000016
 21
2678.5095160000001
 31
0.0
  0
LINE
  5
7DC3
  8
3
  6
CONTINUOUS
 62
     0
 10
5260.9348880000016
 20
3468.5095159999992
 30
0.0
 11
5260.9348880000016
 21
2738.5095159999992
 31
0.0
  0
INSERT
  5
7DC4
  8
3
  6
CONTINUOUS
 62
     0
  2
_OPEN
 10
5260.9348880000016
 20
3528.5095159999992
 30
0.0
 41
60.0
 42
60.0
 43
60.0
 50
90.0
  0
INSERT
  5
7DC5
  8
3
  6
CONTINUOUS
 62
     0
  2
_OPEN
 10
5260.9348880000016
 20
2678.5095160000001
 30
0.0
 41
60.0
 42
60.0
 43
60.0
 50
270.0
  0
TEXT
  8
3
  40
90
  5
7E12
  62
0
  72
0
  71
0
 10
5005.93
 20
2932.92
 30
0.000000
  1
φ850
  0
POINT
  5
7DC7
  8
DEFPOINTS
  6
CONTINUOUS
 62
     0
 10
4964.9616830000004
 20
3528.5095159999992
 30
0.0
  0
POINT
  5
7DC8
  8
DEFPOINTS
  6
CONTINUOUS
 62
     0
 10
4964.9616830000004
 20
2678.5095160000001
 30
0.0
  0
POINT
  5
7DC9
  8
DEFPOINTS
  6
CONTINUOUS
 62
     0
 10
5260.9348880000016
 20
2678.5095160000001
 30
0.0
  0
ENDBLK
  5
7D07
  8
0
  0
BLOCK
  8
0
  2
*D11
 70
     1
 10
0.0
 20
0.0
 30
0.0
  3
*D11
  1

  0
LINE
  5
7D14
  8
0
  6
BYBLOCK
 62
     0
 10
4964.9616830000004
 20
3543.5095159999992
 30
0.0
 11
4964.9616830000004
 21
4244.3281639999996
 31
0.0
  0
LINE
  5
7D15
  8
0
  6
BYBLOCK
 62
     0
 10
4660.9616829999986
 20
4188.6525389999988
 30
0.0
 11
4660.9616829999986
 21
4244.3281639999996
 31
0.0
  0
LINE
  5
7D16
  8
0
  6
BYBLOCK
 62
     0
 10
4904.9616829999986
 20
4214.3281639999996
 30
0.0
 11
4720.9616829999986
 21
4214.3281639999996
 31
0.0
  0
TEXT
  5
7D17
  8
3
 62
     0
 10
4695.1045401428564
 20
4250.8011728459451
 30
0.0
 40
90.0
  1
304
  0
INSERT
  5
7D18
  8
0
  6
BYBLOCK
 62
     0
  2
_OPEN
 10
4964.9616830000004
 20
4214.3281639999996
 30
0.0
 41
60.0
 42
60.0
 43
60.0
  0
INSERT
  5
7D19
  8
0
  6
BYBLOCK
 62
     0
  2
_OPEN
 10
4660.9616829999986
 20
4214.3281639999996
 30
0.0
 41
60.0
 42
60.0
 43
60.0
 50
180.0
  0
POINT
  5
7D1A
  8
DEFPOINTS
  6
BYBLOCK
 62
     0
 10
4964.9616830000004
 20
3528.5095159999992
 30
0.0
  0
POINT
  5
7D1B
  8
DEFPOINTS
  6
BYBLOCK
 62
     0
 10
4660.9616829999986
 20
4173.6525389999988
 30
0.0
  0
POINT
  5
7D1C
  8
DEFPOINTS
  6
BYBLOCK
 62
     0
 10
4660.9616829999986
 20
4214.3281639999996
 30
0.0
  0
ENDBLK
  5
7D1D
  8
0
  0
BLOCK
  8
0
  2
*D12
 70
     1
 10
0.0
 20
0.0
 30
0.0
  3
*D12
  1

  0
LINE
  5
7DCA
  8
3
  6
CONTINUOUS
 62
     0
 10
4100.9616830000004
 20
3773.5095160000001
 30
0.0
 11
4100.9616830000004
 21
4244.3281639999996
 31
0.0
  0
LINE
  5
7DCB
  8
3
  6
CONTINUOUS
 62
     0
 10
4600.9616830000004
 20
4214.3281639999996
 30
0.0
 11
4160.9616829999986
 21
4214.3281639999996
 31
0.0
  0
INSERT
  5
7DCC
  8
3
  6
CONTINUOUS
 62
     0
  2
_OPEN
 10
4660.9616829999986
 20
4214.3281639999996
 30
0.0
 41
60.0
 42
60.0
 43
60.0
  0
INSERT
  5
7DCD
  8
3
  6
CONTINUOUS
 62
     0
  2
_OPEN
 10
4100.9616830000004
 20
4214.3281639999996
 30
0.0
 41
60.0
 42
60.0
 43
60.0
 50
180.0
  0
TEXT
  8
3
  40
90
  5
7E13
  62
0
  72
0
  71
0
 10
4200.96
 20
4205.03
 30
0.000000
  1
MAX
  0
TEXT
  8
3
  40
90
  5
7E14
  62
0
  72
0
  71
0
 10
4200.96
 20
4088.03
 30
0.000000
  1
610
  0
POINT
  5
7DCF
  8
DEFPOINTS
  6
CONTINUOUS
 62
     0
 10
4660.9616829999986
 20
4173.6525389999988
 30
0.0
  0
POINT
  5
7DD0
  8
DEFPOINTS
  6
CONTINUOUS
 62
     0
 10
4100.9616830000004
 20
3758.5095159999992
 30
0.0
  0
POINT
  5
7DD1
  8
DEFPOINTS
  6
CONTINUOUS
 62
     0
 10
4100.9616830000004
 20
4214.3281639999996
 30
0.0
  0
ENDBLK
  5
7D27
  8
0
  0
BLOCK
  8
0
  2
*D13
 70
     1
 10
0.0
 20
0.0
 30
0.0
  3
*D13
  1

  0
LINE
  5
7DD2
  8
3
  6
CONTINUOUS
 62
     0
 10
4077.961683
 20
2268.5095159999992
 30
0.0
 11
4077.961683
 21
2055.9722409999999
 31
0.0
  0
LINE
  5
7DD3
  8
3
  6
CONTINUOUS
 62
     0
 10
4660.9616829999986
 20
2137.8014429999998
 30
0.0
 11
4660.9616829999986
 21
2055.9722409999999
 31
0.0
  0
LINE
  5
7DD4
  8
3
  6
CONTINUOUS
 62
     0
 10
4137.9616829999986
 20
2085.972240999999
 30
0.0
 11
4600.9616830000004
 21
2085.972240999999
 31
0.0
  0
INSERT
  5
7DD5
  8
3
  6
CONTINUOUS
 62
     0
  2
_OPEN
 10
4077.961683
 20
2085.972240999999
 30
0.0
 41
60.0
 42
60.0
 43
60.0
 50
180.0
  0
INSERT
  5
7DD6
  8
3
  6
CONTINUOUS
 62
     0
  2
_OPEN
 10
4660.9616829999986
 20
2085.972240999999
 30
0.0
 41
60.0
 42
60.0
 43
60.0
  0
TEXT
  8
3
  40
90
  5
7E15
  62
0
  72
0
  71
0
 10
4202.12
 20
2001.67
 30
0.000000
  1
583
  0
POINT
  5
7DD8
  8
DEFPOINTS
  6
CONTINUOUS
 62
     0
 10
4077.961683
 20
2283.5095160000001
 30
0.0
  0
POINT
  5
7DD9
  8
DEFPOINTS
  6
CONTINUOUS
 62
     0
 10
4660.9616829999986
 20
2152.8014429999989
 30
0.0
  0
POINT
  5
7DDA
  8
DEFPOINTS
  6
CONTINUOUS
 62
     0
 10
4660.9616829999986
 20
2085.972240999999
 30
0.0
  0
ENDBLK
  5
7C71
  8
0
  0
BLOCK
  8
0
  2
*D14
 70
     1
 10
0.0
 20
0.0
 30
0.0
  3
*D14
  1

  0
LINE
  5
7DDB
  8
3
  6
CONTINUOUS
 62
     0
 10
5127.9616829999986
 20
2268.5095159999992
 30
0.0
 11
5127.9616829999986
 21
2055.9722409999999
 31
0.0
  0
LINE
  5
7DDC
  8
3
  6
CONTINUOUS
 62
     0
 10
4720.9616829999986
 20
2085.972240999999
 30
0.0
 11
5067.9616830000004
 21
2085.972240999999
 31
0.0
  0
INSERT
  5
7DDD
  8
3
  6
CONTINUOUS
 62
     0
  2
_OPEN
 10
4660.9616829999986
 20
2085.972240999999
 30
0.0
 41
60.0
 42
60.0
 43
60.0
 50
180.0
  0
INSERT
  5
7DDE
  8
3
  6
CONTINUOUS
 62
     0
  2
_OPEN
 10
5127.9616829999986
 20
2085.972240999999
 30
0.0
 41
60.0
 42
60.0
 43
60.0
  0
TEXT
  8
3
  40
90
  5
7E16
  62
0
  72
0
  71
0
 10
4714.46
 20
2001.67
 30
0.000000
  1
467
  0
POINT
  5
7DE0
  8
DEFPOINTS
  6
CONTINUOUS
 62
     0
 10
4660.9616829999986
 20
2152.8014429999989
 30
0.0
  0
POINT
  5
7DE1
  8
DEFPOINTS
  6
CONTINUOUS
 62
     0
 10
5127.9616829999986
 20
2283.5095160000001
 30
0.0
  0
POINT
  5
7DE2
  8
DEFPOINTS
  6
CONTINUOUS
 62
     0
 10
5127.9616829999986
 20
2085.972240999999
 30
0.0
  0
ENDBLK
  5
7C7D
  8
0
  0
BLOCK
  8
0
  2
*D15
 70
     1
 10
0.0
 20
0.0
 30
0.0
  3
*D15
  1

  0
LINE
  5
7DE3
  8
3
  6
CONTINUOUS
 62
     0
 10
1480.986795
 20
6288.8183409999992
 30
0.0
 11
1480.986795
 21
6441.1915159999999
 31
0.0
  0
LINE
  5
7DE4
  8
3
  6
CONTINUOUS
 62
     0
 10
3180.9867949999989
 20
6288.8183409999992
 30
0.0
 11
3180.9867949999989
 21
6441.1915159999999
 31
0.0
  0
LINE
  5
7DE5
  8
3
  6
CONTINUOUS
 62
     0
 10
1540.986795
 20
6411.191515999999
 30
0.0
 11
3120.9867949999998
 21
6411.191515999999
 31
0.0
  0
INSERT
  5
7DE6
  8
3
  6
CONTINUOUS
 62
     0
  2
_OPEN
 10
1480.986795
 20
6411.191515999999
 30
0.0
 41
60.0
 42
60.0
 43
60.0
 50
180.0
  0
INSERT
  5
7DE7
  8
3
  6
CONTINUOUS
 62
     0
  2
_OPEN
 10
3180.9867949999989
 20
6411.191515999999
 30
0.0
 41
60.0
 42
60.0
 43
60.0
  0
TEXT
  8
3
  40
90
  5
7E17
  62
0
  72
0
  71
0
 10
2152.35
 20
6326.89
 30
0.000000
  1
1700
  0
POINT
  5
7DE9
  8
DEFPOINTS
  6
CONTINUOUS
 62
     0
 10
1480.986795
 20
6273.8183409999992
 30
0.0
  0
POINT
  5
7DEA
  8
DEFPOINTS
  6
CONTINUOUS
 62
     0
 10
3180.9867949999989
 20
6273.8183409999992
 30
0.0
  0
POINT
  5
7DEB
  8
DEFPOINTS
  6
CONTINUOUS
 62
     0
 10
3180.9867949999989
 20
6411.191515999999
 30
0.0
  0
ENDBLK
  5
7C8A
  8
0
  0
BLOCK
  8
0
  2
*D16
 70
     1
 10
0.0
 20
0.0
 30
0.0
  3
*D16
  1

  0
LINE
  5
7DEC
  8
3
  6
CONTINUOUS
 62
     0
 10
3195.9867949999998
 20
6273.8183409999992
 30
0.0
 11
3466.9798890000002
 21
6273.8183409999992
 31
0.0
  0
LINE
  5
7DED
  8
3
  6
CONTINUOUS
 62
     0
 10
3195.9867949999998
 20
5223.8183409999992
 30
0.0
 11
3466.9798890000002
 21
5223.8183409999992
 31
0.0
  0
LINE
  5
7DEE
  8
3
  6
CONTINUOUS
 62
     0
 10
3436.9798890000011
 20
6213.8183409999992
 30
0.0
 11
3436.9798890000011
 21
5283.8183409999992
 31
0.0
  0
INSERT
  5
7DEF
  8
3
  6
CONTINUOUS
 62
     0
  2
_OPEN
 10
3436.9798890000011
 20
6273.8183409999992
 30
0.0
 41
60.0
 42
60.0
 43
60.0
 50
90.0
  0
INSERT
  5
7DF0
  8
3
  6
CONTINUOUS
 62
     0
  2
_OPEN
 10
3436.9798890000011
 20
5223.8183409999992
 30
0.0
 41
60.0
 42
60.0
 43
60.0
 50
270.0
  0
TEXT
  8
3
  40
90
  5
7E18
  62
0
  72
0
  71
0
 10
3181.98
 20
5574.96
 30
0.000000
  1
1050
  0
POINT
  5
7DF2
  8
DEFPOINTS
  6
CONTINUOUS
 62
     0
 10
3180.9867949999989
 20
6273.8183409999992
 30
0.0
  0
POINT
  5
7DF3
  8
DEFPOINTS
  6
CONTINUOUS
 62
     0
 10
3180.9867949999989
 20
5223.8183409999992
 30
0.0
  0
POINT
  5
7DF4
  8
DEFPOINTS
  6
CONTINUOUS
 62
     0
 10
3436.9798890000011
 20
5223.8183409999992
 30
0.0
  0
ENDBLK
  5
7C97
  8
0
  0
BLOCK
  8
0
  2
*D17
 70
     1
 10
0.0
 20
0.0
 30
0.0
  3
*D17
  1

  0
LINE
  5
7DF5
  8
3
  6
CONTINUOUS
 62
     0
 10
2714.9910209999998
 20
3118.5095160000001
 30
0.0
 11
2714.9910209999998
 21
4122.3593579999988
 31
0.0
  0
LINE
  5
7DF6
  8
3
  6
CONTINUOUS
 62
     0
 10
2110.9867949999998
 20
4092.3593579999988
 30
0.0
 11
2654.9910209999998
 21
4092.3593579999988
 31
0.0
  0
INSERT
  5
7DF7
  8
3
  6
CONTINUOUS
 62
     0
  2
_OPEN
 10
2050.9867949999989
 20
4092.3593579999988
 30
0.0
 41
60.0
 42
60.0
 43
60.0
 50
180.0
  0
INSERT
  5
7DF8
  8
3
  6
CONTINUOUS
 62
     0
  2
_OPEN
 10
2714.9910209999998
 20
4092.3593579999988
 30
0.0
 41
60.0
 42
60.0
 43
60.0
  0
TEXT
  8
3
  40
90
  5
7E19
  62
0
  72
0
  71
0
 10
2202.99
 20
4008.06
 30
0.000000
  1
664
  0
POINT
  5
7DFA
  8
DEFPOINTS
  6
CONTINUOUS
 62
     0
 10
2050.9867949999989
 20
4043.3207069999999
 30
0.0
  0
POINT
  5
7DFB
  8
DEFPOINTS
  6
CONTINUOUS
 62
     0
 10
2714.9910209999998
 20
3103.5095160000001
 30
0.0
  0
POINT
  5
7DFC
  8
DEFPOINTS
  6
CONTINUOUS
 62
     0
 10
2714.9910209999998
 20
4092.3593579999988
 30
0.0
  0
ENDBLK
  5
7CE4
  8
0
  0
BLOCK
  8
0
  2
*D18
 70
     1
 10
0.0
 20
0.0
 30
0.0
  3
*D18
  1

  0
LINE
  5
7DFD
  8
3
 62
     0
 10
1455.986795
 20
3948.0095159999992
 30
0.0
 11
1455.986795
 21
4301.6214331192132
 31
0.0
  0
LINE
  5
7DFE
  8
3
 62
     0
 10
3180.9867949999989
 20
2398.5095160000001
 30
0.0
 11
3180.9867949999989
 21
4301.6214331192132
 31
0.0
  0
LINE
  5
7DFF
  8
3
 62
     0
 10
1515.986795
 20
4271.6214331192132
 30
0.0
 11
3120.9867949999998
 21
4271.6214331192132
 31
0.0
  0
INSERT
  5
7E00
  8
3
 62
     0
  2
_OPEN
 10
1455.986795
 20
4271.6214331192132
 30
0.0
 41
60.0
 42
60.0
 43
60.0
 50
180.0
  0
INSERT
  5
7E01
  8
3
 62
     0
  2
_OPEN
 10
3180.9867949999989
 20
4271.6214331192132
 30
0.0
 41
60.0
 42
60.0
 43
60.0
  0
TEXT
  8
3
  40
90
  5
7E1A
  62
0
  72
0
  71
0
 10
2166.15
 20
4187.32
 30
0.000000
  1
1725
  0
POINT
  5
7E03
  8
DEFPOINTS
 62
     0
 10
1455.986795
 20
3933.0095160000001
 30
0.0
  0
POINT
  5
7E04
  8
DEFPOINTS
 62
     0
 10
3180.9867949999989
 20
2383.5095160000001
 30
0.0
  0
POINT
  5
7E05
  8
DEFPOINTS
 62
     0
 10
3180.9867949999989
 20
4271.6214331192132
 30
0.0
  0
ENDBLK
  5
7D33
  8
0
  0
BLOCK
  8
0
  2
_DOT
 70
     0
 10
0.0
 20
0.0
 30
0.0
  3
_DOT
  1

  0
POLYLINE
  5
7D4E
  8
0
  6
BYBLOCK
 62
     0
 66
     1
 10
0.0
 20
0.0
 30
0.0
 70
     1
 40
0.5
 41
0.5
  0
VERTEX
  5
7E06
  8
0
  6
BYBLOCK
 62
     0
 10
-0.25
 20
0.0
 30
0.0
 42
1.0
  0
VERTEX
  5
7E07
  8
0
  6
BYBLOCK
 62
     0
 10
0.25
 20
0.0
 30
0.0
 42
1.0
  0
SEQEND
  5
7E08
  8
0
  6
BYBLOCK
 62
     0
  0
LINE
  5
7D4F
  8
0
  6
BYBLOCK
 62
     0
 10
-0.5
 20
0.0
 30
0.0
 11
-1.0
 21
0.0
 31
0.0
  0
ENDBLK
  5
7D51
  8
0
  0
ENDSEC
  0
SECTION
  2
ENTITIES
  0
LINE
  5
7AC4
  8
1
  6
CONTINUOUS
 10
1480.986795
 20
2383.5095160000001
 30
0.0
 11
3180.9867949999989
 21
2383.5095160000001
 31
0.0
  0
LINE
  5
7AC5
  8
1
  6
CONTINUOUS
 10
1480.986795
 20
2283.5095160000001
 30
0.0
 11
3180.9867949999989
 21
2283.5095160000001
 31
0.0
  0
ARC
  5
7AC6
  8
1
  6
CONTINUOUS
 10
1998.986795
 20
3155.5095160000001
 30
0.0
 40
717.88999999999987
 50
355.24000000000001
 51
85.849999999999994
  0
ARC
  5
7AC7
  8
1
  6
CONTINUOUS
 10
2094.9867949999998
 20
3147.5095160000001
 30
0.0
 40
621.54999999999995
 50
263.5
 51
355.24000000000001
  0
LINE
  5
7AC8
  8
1
  6
CONTINUOUS
 10
1530.986795
 20
2508.5095160000001
 30
0.0
 11
3130.9867949999998
 21
2508.5095160000001
 31
0.0
  0
LINE
  5
7AC9
  8
1
  6
CONTINUOUS
 10
1530.986795
 20
2408.5095160000001
 30
0.0
 11
3130.9867949999998
 21
2408.5095160000001
 31
0.0
  0
LINE
  5
7ACA
  8
1
  6
CONTINUOUS
 10
2716.8767950000001
 20
6106.8183410000001
 30
0.0
 11
1455.986795
 21
6106.8183410000001
 31
0.0
  0
LINE
  5
7ACB
  8
1
  6
CONTINUOUS
 10
2716.8767950000001
 20
5506.8183409999992
 30
0.0
 11
1455.986795
 21
5506.8183409999992
 31
0.0
  0
LINE
  5
7ACC
  8
1
  6
CONTINUOUS
 10
3130.9867949999998
 20
6158.8183409999992
 30
0.0
 11
1530.986795
 21
6158.8183409999992
 31
0.0
  0
LINE
  5
7ACD
  8
1
  6
CONTINUOUS
 10
2200.9867949999989
 20
3758.5095159999992
 30
0.0
 11
3110.9867949999998
 21
2808.5095160000001
 31
0.0
  0
LINE
  5
7ACE
  8
1
  6
CONTINUOUS
 10
3110.9867949999998
 20
5246.8183409999992
 30
0.0
 11
1630.986795
 21
5246.8183409999992
 31
0.0
  0
LINE
  5
7ACF
  8
1
  6
CONTINUOUS
 10
3110.9867949999998
 20
5396.8183409999992
 30
0.0
 11
1630.986795
 21
5396.8183409999992
 31
0.0
  0
LINE
  5
7AD0
  8
1
  6
CONTINUOUS
 10
2878.6067950000001
 20
5338.8183409999992
 30
0.0
 11
2250.9867949999989
 21
5338.8183409999992
 31
0.0
  0
LINE
  5
7AD1
  8
1
  6
CONTINUOUS
 10
2153.766795
 20
3275.0795159999998
 30
0.0
 11
2992.1567949999999
 21
2772.8495160000002
 31
0.0
  0
LINE
  5
7AD2
  8
1
  6
CONTINUOUS
 10
1994.6967949999989
 20
2911.589516
 30
0.0
 11
2932.5067949999998
 21
2636.5395159999998
 31
0.0
  0
LINE
  5
7AD3
  8
1
  6
CONTINUOUS
 10
1455.986795
 20
3890.5095159999992
 30
0.0
 11
2050.9867949999989
 21
3871.5095159999992
 31
0.0
  0
ARC
  5
7AD4
  8
1
  6
CONTINUOUS
 10
2085.9867949999989
 20
3068.5095160000001
 30
0.0
 40
542.03999999999985
 50
180.31999999999999
 51
263.5
  0
LINE
  5
7AD8
  8
1
  6
CONTINUOUS
 10
1630.986795
 20
3758.5095159999992
 30
0.0
 11
2200.9867949999989
 21
3758.5095159999992
 31
0.0
  0
LINE
  5
7ADA
  8
1
  6
CONTINUOUS
 10
1630.986795
 20
2508.5095160000001
 30
0.0
 11
1630.986795
 21
3758.5095159999992
 31
0.0
  0
LINE
  5
7ADB
  8
1
  6
CONTINUOUS
 10
1480.986795
 20
2383.5095160000001
 30
0.0
 11
1480.986795
 21
2283.5095160000001
 31
0.0
  0
LINE
  5
7ADC
  8
1
  6
CONTINUOUS
 10
1530.986795
 20
2508.5095160000001
 30
0.0
 11
1530.986795
 21
2408.5095160000001
 31
0.0
  0
LINE
  5
7ADD
  8
1
  6
CONTINUOUS
 10
1455.986795
 20
3023.0095160000001
 30
0.0
 11
1455.986795
 21
3933.0095160000001
 31
0.0
  0
LINE
  5
7ADE
  8
1
  6
CONTINUOUS
 10
1495.986795
 20
3065.5095160000001
 30
0.0
 11
1495.986795
 21
3890.5095159999992
 31
0.0
  0
LINE
  5
7ADF
  8
1
  6
CONTINUOUS
 10
1543.9567949999989
 20
3065.5095160000001
 30
0.0
 11
1455.986795
 21
3065.5095160000001
 31
0.0
  0
LINE
  5
7AE1
  8
2
  6
CENTER
 10
1378.010976
 20
3103.5095160000001
 30
0.0
 11
3057.8933179999999
 21
3103.5095160000001
 31
0.0
  0
CIRCLE
  5
7AE2
  8
1
  6
CONTINUOUS
 10
2050.9867949999989
 20
3103.5095160000001
 30
0.0
 40
200.0
  0
LINE
  5
7AE3
  8
2
  6
CENTER
 10
2050.9867949999989
 20
6286.0415350000003
 30
0.0
 11
2050.9867949999989
 21
5145.2109450000007
 31
0.0
  0
LINE
  5
7AE4
  8
1
  6
CONTINUOUS
 10
1850.986795
 20
5338.8183409999992
 30
0.0
 11
1530.986795
 21
5338.8183409999992
 31
0.0
  0
LINE
  5
7AE5
  8
1
  6
CONTINUOUS
 10
1455.986795
 20
5464.8183409999992
 30
0.0
 11
1455.986795
 21
6148.8183409999992
 31
0.0
  0
LINE
  5
7AE6
  8
1
  6
CONTINUOUS
 10
1495.986795
 20
5506.8183409999992
 30
0.0
 11
1495.986795
 21
6106.8183410000001
 31
0.0
  0
LINE
  5
7AE7
  8
1
  6
CONTINUOUS
 10
1530.986795
 20
5223.8183409999992
 30
0.0
 11
1480.986795
 21
5223.8183409999992
 31
0.0
  0
LINE
  5
7AE8
  8
1
  6
CONTINUOUS
 10
1480.986795
 20
5506.8183409999992
 30
0.0
 11
1480.986795
 21
5223.8183409999992
 31
0.0
  0
LINE
  5
7AE9
  8
1
  6
CONTINUOUS
 10
1630.986795
 20
5246.8183409999992
 30
0.0
 11
1630.986795
 21
5396.8183409999992
 31
0.0
  0
LINE
  5
7AEA
  8
1
  6
CONTINUOUS
 10
1530.986795
 20
5506.8183409999992
 30
0.0
 11
1530.986795
 21
5338.8183409999992
 31
0.0
  0
LINE
  5
7AEB
  8
1
  6
CONTINUOUS
 10
1530.986795
 20
5506.8183409999992
 30
0.0
 11
1530.986795
 21
5223.8183409999992
 31
0.0
  0
LINE
  5
7AEC
  8
1
  6
CONTINUOUS
 10
1530.986795
 20
6273.8183409999992
 30
0.0
 11
1480.986795
 21
6273.8183409999992
 31
0.0
  0
LINE
  5
7AED
  8
1
  6
CONTINUOUS
 10
1480.986795
 20
6273.8183409999992
 30
0.0
 11
1480.986795
 21
6106.8183410000001
 31
0.0
  0
LINE
  5
7AEE
  8
1
  6
CONTINUOUS
 10
1530.986795
 20
6158.8183409999992
 30
0.0
 11
1530.986795
 21
6106.8183410000001
 31
0.0
  0
LINE
  5
7AEF
  8
1
  6
CONTINUOUS
 10
1530.986795
 20
6273.8183409999992
 30
0.0
 11
1530.986795
 21
6106.8183410000001
 31
0.0
  0
LINE
  5
7AF0
  8
1
  6
CONTINUOUS
 10
1850.986795
 20
5356.8183410000001
 30
0.0
 11
2250.9867949999989
 21
5356.8183410000001
 31
0.0
  0
LINE
  5
7AF1
  8
1
  6
CONTINUOUS
 10
1850.986795
 20
5286.8183410000001
 30
0.0
 11
2250.9867949999989
 21
5286.8183410000001
 31
0.0
  0
LINE
  5
7AF2
  8
1
  6
CONTINUOUS
 10
1850.986795
 20
5286.8183410000001
 30
0.0
 11
1850.986795
 21
5356.8183410000001
 31
0.0
  0
LINE
  5
7AF3
  8
1
  6
CONTINUOUS
 10
2071.9867949999989
 20
5356.8183410000001
 30
0.0
 11
2071.9867949999989
 21
5506.8183409999992
 31
0.0
  0
LINE
  5
7AF4
  8
1
  6
CONTINUOUS
 10
2029.986795
 20
5356.8183410000001
 30
0.0
 11
2029.986795
 21
5506.8183409999992
 31
0.0
  0
LINE
  5
7AF5
  8
1
  6
CONTINUOUS
 10
2250.9867949999989
 20
5286.8183410000001
 30
0.0
 11
2250.9867949999989
 21
5356.8183410000001
 31
0.0
  0
LINE
  5
7AF8
  8
1
  6
CONTINUOUS
 10
4250.9616829999986
 20
3758.5095159999992
 30
0.0
 11
4100.9616830000004
 21
3758.5095159999992
 31
0.0
  0
LINE
  5
7AF9
  8
1
  6
CONTINUOUS
 10
5012.9616830000004
 20
2508.5095160000001
 30
0.0
 11
4100.9616830000004
 21
2508.5095160000001
 31
0.0
  0
LINE
  5
7AFA
  8
1
  6
CONTINUOUS
 10
5127.9616829999986
 20
2283.5095160000001
 30
0.0
 11
4077.961683
 21
2283.5095160000001
 31
0.0
  0
LINE
  5
7AFB
  8
1
  6
CONTINUOUS
 10
5127.9616829999986
 20
2383.5095160000001
 30
0.0
 11
4077.961683
 21
2383.5095160000001
 31
0.0
  0
ARC
  5
7B07
  8
1
  6
CONTINUOUS
 10
2953.6067950000001
 20
2708.5095160000001
 30
0.0
 40
162.0
 50
324.97000000000003
 51
215.02999999999989
  0
CIRCLE
  5
7B08
  8
1
  6
CONTINUOUS
 10
2953.6067950000001
 20
2708.5095160000001
 30
0.0
 40
75.0
  0
LINE
  5
7B09
  8
1
  6
CONTINUOUS
 10
3110.9867949999998
 20
2808.5095160000001
 30
0.0
 11
3110.9867949999998
 21
2508.5095160000001
 31
0.0
  0
LINE
  5
7B0A
  8
2
  6
CENTER
 10
2953.6067950000001
 20
2633.5095160000001
 30
0.0
 11
2953.6067950000001
 21
2783.5095160000001
 31
0.0
  0
LINE
  5
7B0B
  8
1
  6
CONTINUOUS
 10
3107.6067950000001
 20
2508.5095160000001
 30
0.0
 11
2799.6067950000001
 21
2508.5095160000001
 31
0.0
  0
LINE
  5
7B0C
  8
1
  6
CONTINUOUS
 10
2799.6067950000001
 20
2566.5095159999992
 30
0.0
 11
2820.9567950000001
 21
2615.5295160000001
 31
0.0
  0
LINE
  5
7B0D
  8
1
  6
CONTINUOUS
 10
2799.6067950000001
 20
2508.5095160000001
 30
0.0
 11
2799.6067950000001
 21
2566.5095159999992
 31
0.0
  0
LINE
  5
7B0E
  8
2
  6
CENTER
 10
3028.6067950000001
 20
2708.5095160000001
 30
0.0
 11
2878.6067950000001
 21
2708.5095160000001
 31
0.0
  0
LINE
  5
7B0F
  8
1
  6
CONTINUOUS
 10
3130.9867949999998
 20
2508.5095160000001
 30
0.0
 11
3130.9867949999998
 21
2408.5095160000001
 31
0.0
  0
LINE
  5
7B10
  8
1
  6
CONTINUOUS
 10
3107.6067950000001
 20
2508.5095160000001
 30
0.0
 11
3107.6067950000001
 21
2566.5095159999992
 31
0.0
  0
LINE
  5
7B11
  8
1
  6
CONTINUOUS
 10
3107.6067950000001
 20
2566.5095159999992
 30
0.0
 11
3086.266795
 21
2615.5295160000001
 31
0.0
  0
LINE
  5
7B12
  8
1
  6
CONTINUOUS
 10
3180.9867949999989
 20
2383.5095160000001
 30
0.0
 11
3180.9867949999989
 21
2283.5095160000001
 31
0.0
  0
LINE
  5
7B28
  8
1
  6
CONTINUOUS
 10
4100.9616830000004
 20
3758.5095159999992
 30
0.0
 11
4100.9616830000004
 21
2508.5095160000001
 31
0.0
  0
LINE
  5
7B2D
  8
1
  6
CONTINUOUS
 10
4077.961683
 20
2383.5095160000001
 30
0.0
 11
4077.961683
 21
2283.5095160000001
 31
0.0
  0
LINE
  5
7B37
  8
1
  6
CONTINUOUS
 10
2791.6067950000001
 20
5444.8183409999992
 30
0.0
 11
2791.6067950000001
 21
5929.8183409999992
 31
0.0
  0
LINE
  5
7B38
  8
1
  6
CONTINUOUS
 10
3115.6067950000001
 20
5444.8183409999992
 30
0.0
 11
3115.6067950000001
 21
5929.8183409999992
 31
0.0
  0
LINE
  5
7B39
  8
1
  6
CONTINUOUS
 10
3130.9867949999998
 20
6273.8183409999992
 30
0.0
 11
3130.9867949999998
 21
5223.8183409999992
 31
0.0
  0
LINE
  5
7B3A
  8
1
  6
CONTINUOUS
 10
2716.8767950000001
 20
5506.8183409999992
 30
0.0
 11
2716.8767950000001
 21
6106.8183410000001
 31
0.0
  0
LINE
  5
7B3B
  8
1
  6
CONTINUOUS
 10
3180.9867949999989
 20
6273.8183409999992
 30
0.0
 11
3180.9867949999989
 21
5223.8183409999992
 31
0.0
  0
LINE
  5
7B3C
  8
1
  6
CONTINUOUS
 10
3115.6067950000001
 20
5444.8183409999992
 30
0.0
 11
2791.6067950000001
 21
5444.8183409999992
 31
0.0
  0
LINE
  5
7B3D
  8
1
  6
CONTINUOUS
 10
3130.9867949999998
 20
5338.8183409999992
 30
0.0
 11
3028.6067950000001
 21
5338.8183409999992
 31
0.0
  0
LINE
  5
7B3E
  8
1
  6
CONTINUOUS
 10
2932.6067950000001
 20
5356.8183410000001
 30
0.0
 11
2932.6067950000001
 21
5444.8183409999992
 31
0.0
  0
LINE
  5
7B3F
  8
1
  6
CONTINUOUS
 10
2974.6067950000001
 20
5356.8183410000001
 30
0.0
 11
2974.6067950000001
 21
5444.8183409999992
 31
0.0
  0
LINE
  5
7B40
  8
1
  6
CONTINUOUS
 10
3028.6067950000001
 20
5286.8183410000001
 30
0.0
 11
3028.6067950000001
 21
5356.8183410000001
 31
0.0
  0
LINE
  5
7B41
  8
1
  6
CONTINUOUS
 10
2878.6067950000001
 20
5286.8183410000001
 30
0.0
 11
2878.6067950000001
 21
5356.8183410000001
 31
0.0
  0
LINE
  5
7B42
  8
1
  6
CONTINUOUS
 10
2878.6067950000001
 20
5356.8183410000001
 30
0.0
 11
3028.6067950000001
 21
5356.8183410000001
 31
0.0
  0
LINE
  5
7B43
  8
1
  6
CONTINUOUS
 10
2878.6067950000001
 20
5286.8183410000001
 30
0.0
 11
3028.6067950000001
 21
5286.8183410000001
 31
0.0
  0
LINE
  5
7B44
  8
1
  6
CONTINUOUS
 10
3110.9867949999998
 20
5396.8183409999992
 30
0.0
 11
3110.9867949999998
 21
5246.8183409999992
 31
0.0
  0
LINE
  5
7B45
  8
1
  6
CONTINUOUS
 10
3180.9867949999989
 20
5223.8183409999992
 30
0.0
 11
3130.9867949999998
 21
5223.8183409999992
 31
0.0
  0
LINE
  5
7B46
  8
1
  6
CONTINUOUS
 10
3115.6067950000001
 20
5929.8183409999992
 30
0.0
 11
2791.6067950000001
 21
5929.8183409999992
 31
0.0
  0
LINE
  5
7B47
  8
1
  6
CONTINUOUS
 10
3180.9867949999989
 20
6273.8183409999992
 30
0.0
 11
3130.9867949999998
 21
6273.8183409999992
 31
0.0
  0
LINE
  5
7B6B
  8
1
  6
CONTINUOUS
 10
5012.9616830000004
 20
2408.5095160000001
 30
0.0
 11
4192.9616829999986
 21
2408.5095160000001
 31
0.0
  0
LINE
  5
7B6C
  8
1
  6
CONTINUOUS
 10
4210.9616829999986
 20
2783.5095160000001
 30
0.0
 11
4210.9616829999986
 21
2633.5095160000001
 31
0.0
  0
LINE
  5
7B6D
  8
1
  6
CONTINUOUS
 10
4140.9616829999986
 20
2783.5095160000001
 30
0.0
 11
4140.9616829999986
 21
2633.5095160000001
 31
0.0
  0
LINE
  5
7B6E
  8
1
  6
CONTINUOUS
 10
4250.9616829999986
 20
3758.5095159999992
 30
0.0
 11
4250.9616829999986
 21
2508.5095160000001
 31
0.0
  0
LINE
  5
7B6F
  8
1
  6
CONTINUOUS
 10
4960.9616829999986
 20
3890.5095159999992
 30
0.0
 11
4960.9616829999986
 21
2508.5095160000001
 31
0.0
  0
LINE
  5
7B70
  8
1
  6
CONTINUOUS
 10
4360.9616829999986
 20
3890.5095159999992
 30
0.0
 11
4360.9616829999986
 21
2508.5095160000001
 31
0.0
  0
LINE
  5
7B71
  8
1
  6
CONTINUOUS
 10
4210.9616829999986
 20
2687.5095160000001
 30
0.0
 11
4360.9616829999986
 21
2687.5095160000001
 31
0.0
  0
LINE
  5
7B72
  8
1
  6
CONTINUOUS
 10
4210.9616829999986
 20
2729.5095160000001
 30
0.0
 11
4360.9616829999986
 21
2729.5095160000001
 31
0.0
  0
LINE
  5
7B73
  8
1
  6
CONTINUOUS
 10
4140.9616829999986
 20
2633.5095160000001
 30
0.0
 11
4210.9616829999986
 21
2633.5095160000001
 31
0.0
  0
LINE
  5
7B74
  8
1
  6
CONTINUOUS
 10
4192.9616829999986
 20
2508.5095160000001
 30
0.0
 11
4192.9616829999986
 21
2408.5095160000001
 31
0.0
  0
LINE
  5
7B75
  8
1
  6
CONTINUOUS
 10
4360.9616829999986
 20
3065.5095160000001
 30
0.0
 11
4960.9616829999986
 21
3890.5095159999992
 31
0.0
  0
LINE
  5
7B76
  8
1
  6
CONTINUOUS
 10
4960.9616829999986
 20
3065.5095160000001
 30
0.0
 11
4360.9616829999986
 21
3890.5095159999992
 31
0.0
  0
LINE
  5
7B77
  8
1
  6
CONTINUOUS
 10
4360.9616829999986
 20
3065.5095160000001
 30
0.0
 11
4960.9616829999986
 21
3065.5095160000001
 31
0.0
  0
LINE
  5
7B78
  8
1
  6
CONTINUOUS
 10
4360.9616829999986
 20
3890.5095159999992
 30
0.0
 11
4960.9616829999986
 21
3890.5095159999992
 31
0.0
  0
LINE
  5
7B79
  8
1
  6
CONTINUOUS
 10
4360.9616829999986
 20
3082.5095160000001
 30
0.0
 11
4210.9616829999986
 21
3082.5095160000001
 31
0.0
  0
LINE
  5
7B7A
  8
1
  6
CONTINUOUS
 10
4360.9616829999986
 20
3124.5095160000001
 30
0.0
 11
4210.9616829999986
 21
3124.5095160000001
 31
0.0
  0
LINE
  5
7B7B
  8
1
  6
CONTINUOUS
 10
4210.9616829999986
 20
3303.5095160000001
 30
0.0
 11
4210.9616829999986
 21
2903.5095160000001
 31
0.0
  0
LINE
  5
7B7C
  8
1
  6
CONTINUOUS
 10
4140.9616829999986
 20
3303.5095160000001
 30
0.0
 11
4140.9616829999986
 21
2903.5095160000001
 31
0.0
  0
LINE
  5
7B7D
  8
1
  6
CONTINUOUS
 10
4140.9616829999986
 20
2783.5095160000001
 30
0.0
 11
4210.9616829999986
 21
2783.5095160000001
 31
0.0
  0
LINE
  5
7B7E
  8
1
  6
CONTINUOUS
 10
4140.9616829999986
 20
2903.5095160000001
 30
0.0
 11
4210.9616829999986
 21
2903.5095160000001
 31
0.0
  0
LINE
  5
7B7F
  8
1
  6
CONTINUOUS
 10
4140.9616829999986
 20
3303.5095160000001
 30
0.0
 11
4210.9616829999986
 21
3303.5095160000001
 31
0.0
  0
LINE
  5
7B80
  8
1
  6
CONTINUOUS
 10
5127.9616829999986
 20
2383.5095160000001
 30
0.0
 11
5127.9616829999986
 21
2283.5095160000001
 31
0.0
  0
LINE
  5
7B81
  8
1
  6
CONTINUOUS
 10
5012.9616830000004
 20
2508.5095160000001
 30
0.0
 11
5012.9616830000004
 21
2408.5095160000001
 31
0.0
  0
LINE
  5
7B82
  8
2
  6
CENTER
 10
3271.4001629999998
 20
5806.8183409999992
 30
0.0
 11
1296.4661490000001
 21
5806.8183409999992
 31
0.0
  0
LINE
  5
7B83
  8
2
  6
CENTER
 10
4660.9616829999986
 20
4007.5910269999999
 30
0.0
 11
4660.9616829999986
 21
2152.8014429999989
 31
0.0
  0
LINE
  5
7B84
  8
2
  6
CENTER
 10
2050.9867949999989
 20
4043.3207069999999
 30
0.0
 11
2050.9867949999989
 21
2170.118422
 31
0.0
  0
LINE
  5
7B85
  8
2
  6
CENTER
 10
4008.818217
 20
3103.5095160000001
 30
0.0
 11
5101.5554400000001
 21
3103.5095160000001
 31
0.0
  0
LINE
  5
7B86
  8
4
  6
CONTINUOUS
 10
5550.0
 20
1500.0
 30
0.0
 11
5550.0
 21
900.0
 31
0.0
  0
LINE
  5
7B87
  8
4
  6
CONTINUOUS
 10
3450.0
 20
1500.0
 30
0.0
 11
3450.0
 21
900.0
 31
0.0
  0
LINE
  5
7B88
  8
4
  6
CONTINUOUS
 10
1950.0
 20
1500.0
 30
0.0
 11
1950.0
 21
900.0
 31
0.0
  0
LINE
  5
7B8B
  8
4
  6
CONTINUOUS
 10
1950.0
 20
900.0
 30
0.0
 11
5550.0
 21
900.0
 31
0.0
  0
LINE
  5
7B8C
  8
4
  6
CONTINUOUS
 10
1950.0
 20
1200.0
 30
0.0
 11
5550.0
 21
1200.0
 31
0.0
  0
TEXT
  5
7B8D
  8
4
  6
CONTINUOUS
 10
2065.5062429999989
 20
1294.6290779999999
 30
0.0
 40
150.0
  1
機器名称
  0
TEXT
  5
7B8E
  8
4
  6
CONTINUOUS
 10
2058.7743179999989
 20
964.9354699999999
 30
0.0
 40
150.0
  1
機器型番
  0
TEXT
  5
7B8F
  8
4
  6
CONTINUOUS
 10
3533.0362359999999
 20
1267.7153069999999
 30
0.0
 40
150.0
  1
ミツヤ多翼送風機
  0
TEXT
  5
7B90
  8
4
  6
CONTINUOUS
 10
3559.9634869999991
 20
951.47875299999987
 30
0.0
 40
150.0
  1
MF#5-4
  0
TEXT
  5
7B92
  8
4
  6
CONTINUOUS
 10
2234.174904
 20
7150.2865239999992
 30
0.0
 40
162.0
  1
天井吊防振ベット
  0
TEXT
  5
7B93
  8
4
  6
CONTINUOUS
 10
948.50278000000014
 20
7601.6429289999996
 30
0.0
 40
216.0
  1
ベルト駆動式片吸込両持多翼ファン
  0
LINE
  5
7B94
  8
4
  6
CONTINUOUS
 10
750.0
 20
7408.2262629999996
 30
0.0
 11
5550.0
 21
7408.2262629999996
 31
0.0
  0
LINE
  5
7B95
  8
4
  6
CONTINUOUS
 10
750.0
 20
8008.2262629999996
 30
0.0
 11
5550.0
 21
8008.2262629999996
 31
0.0
  0
LINE
  5
7B96
  8
4
  6
CONTINUOUS
 10
1950.0
 20
1500.0
 30
0.0
 11
5550.0
 21
1500.0
 31
0.0
  0
LINE
  5
7B97
  8
4
  6
CONTINUOUS
 10
750.0
 20
8008.2262629999996
 30
0.0
 11
750.0
 21
7408.2262629999996
 31
0.0
  0
TEXT
  5
7B98
  8
4
  6
CONTINUOUS
 10
926.59840699999995
 20
7146.9584329999998
 30
0.0
 40
162.0
  1
左回転左横向
  0
TEXT
  5
7B99
  8
4
  6
CONTINUOUS
 10
4406.9086779999989
 20
8118.1832439999989
 30
0.0
 40
168.0
  1
No.
  0
TEXT
  5
7B9A
  8
4
  6
CONTINUOUS
 10
3933.8881879999999
 20
7150.2865239999992
 30
0.0
 40
162.0
  1
縮尺：1/30
  0
LINE
  5
7B9B
  8
4
  6
CONTINUOUS
 10
5550.0
 20
8008.2262629999996
 30
0.0
 11
5550.0
 21
7408.2262629999996
 31
0.0
  0
LINE
  5
7B9D
  8
4
  6
CONTINUOUS
 10
4321.8522670000002
 20
8043.7907490000007
 30
0.0
 11
4321.8522670000002
 21
8359.9567849999985
 31
0.0
  0
LINE
  5
7B9E
  8
4
  6
CONTINUOUS
 10
4321.8522670000002
 20
8359.9567849999985
 30
0.0
 11
5550.0
 21
8359.9567849999985
 31
0.0
  0
LINE
  5
7B9F
  8
4
  6
CONTINUOUS
 10
5550.0
 20
8359.9567849999985
 30
0.0
 11
5550.0
 21
8043.7907490000007
 31
0.0
  0
LINE
  5
7BA0
  8
4
  6
CONTINUOUS
 10
5550.0
 20
8043.7907490000007
 30
0.0
 11
4321.8522670000002
 21
8043.7907490000007
 31
0.0
  0
DIMENSION
  5
7BB8
  8
3
  6
CONTINUOUS
  2
*D1
 10
1313.77764
 20
3065.5095160000001
 30
0.0
 11
1313.77764
 21
3500.810571
 31
0.0
 70
   128
 13
1455.986795
 23
3890.5095159999992
 33
0.0
 14
1455.986795
 24
3065.5095160000001
 34
0.0
 50
90.0
1001
ACAD
1000
DSTYLE
1002
{
1070
   287
1070
     3
1070
    40
1040
30.0
1070
   143
1040
0.039
1070
   172
1070
     1
1070
   271
1070
     0
1070
   279
1070
     0
1070
   288
1070
     1
1002
}
  0
DIMENSION
  5
7BD2
  8
3
  6
CONTINUOUS
  2
*D2
 10
1118.484661
 20
3103.5095160000001
 30
0.0
 11
1118.4846609999991
 21
3519.105896
 31
0.0
 70
   128
 13
1455.986795
 23
3890.5095159999992
 33
0.0
 14
1378.010976
 24
3103.5095160000001
 34
0.0
 50
90.0
1001
ACAD
1000
DSTYLE
1002
{
1070
   287
1070
     3
1070
    40
1040
30.0
1070
   143
1040
0.039
1070
   172
1070
     1
1070
   271
1070
     0
1070
   279
1070
     0
1070
   288
1070
     1
1002
}
  0
DIMENSION
  5
7BDE
  8
3
  6
CONTINUOUS
  2
*D3
 10
1118.4846609999991
 20
2408.5095160000001
 30
0.0
 11
1043.4846609999991
 21
2756.0095160000001
 31
0.0
 70
     0
 13
1378.010976
 23
3103.5095160000001
 33
0.0
 14
1530.986795
 24
2408.5095160000001
 34
0.0
 50
90.0
1001
ACAD
1000
DSTYLE
1002
{
1070
   287
1070
     4
1070
    40
1040
30.0
1070
    75
1070
     1
1070
   143
1040
0.039
1070
   172
1070
     1
1070
   271
1070
     0
1070
   279
1070
     1
1070
   288
1070
     1
1002
}
  0
DIMENSION
  5
7BEE
  8
3
  6
CONTINUOUS
  2
*D4
 10
1117.6954029999999
 20
2283.5095160000001
 30
0.0
 11
1117.695402999999
 21
2026.366658857143
 31
0.0
 70
   128
 13
1530.986795
 23
2408.5095160000001
 33
0.0
 14
1480.986795
 24
2283.5095160000001
 34
0.0
 50
90.0
1001
ACAD
1000
DSTYLE
1002
{
1070
   287
1070
     3
1070
    40
1040
30.0
1070
   143
1040
0.039
1070
   172
1070
     1
1070
   271
1070
     0
1070
   279
1070
     0
1070
   288
1070
     1
1002
}
  0
DIMENSION
  5
7BFB
  8
3
  6
CONTINUOUS
  2
*D5
 10
917.88173600000005
 20
2283.5095160000001
 30
0.0
 11
917.88173600000005
 21
3049.5259350000001
 31
0.0
 70
   128
 13
1455.986795
 23
3933.0095160000001
 33
0.0
 14
1480.986795
 24
2283.5095160000001
 34
0.0
 50
90.0
1001
ACAD
1000
DSTYLE
1002
{
1070
   287
1070
     3
1070
    40
1040
30.0
1070
   143
1040
0.039
1070
   172
1070
     1
1070
   271
1070
     0
1070
   279
1070
     0
1070
   288
1070
     1
1002
}
  0
DIMENSION
  5
7C08
  8
3
  6
CONTINUOUS
  2
*D6
 10
2050.9867949999989
 20
2085.972240999999
 30
0.0
 11
1770.886696
 21
2085.972240999999
 31
0.0
 70
   128
 13
1480.986795
 23
2283.5095160000001
 33
0.0
 14
2050.9867949999989
 24
2170.118422
 34
0.0
1001
ACAD
1000
DSTYLE
1002
{
1070
   287
1070
     3
1070
    40
1040
30.0
1070
   143
1040
0.039
1070
   172
1070
     1
1070
   271
1070
     0
1070
   279
1070
     0
1070
   288
1070
     1
1002
}
  0
DIMENSION
  5
7C14
  8
3
  6
CONTINUOUS
  2
*D7
 10
3180.9867949999989
 20
2085.972240999999
 30
0.0
 11
2615.9867949999989
 21
2160.9722409999999
 31
0.0
 70
     0
 13
2050.9867949999989
 23
2170.118422
 33
0.0
 14
3180.9867949999989
 24
2283.5095160000001
 34
0.0
1001
ACAD
1000
DSTYLE
1002
{
1070
   287
1070
     4
1070
    40
1040
30.0
1070
    75
1070
     1
1070
   143
1040
0.039
1070
   172
1070
     1
1070
   271
1070
     0
1070
   279
1070
     1
1070
   288
1070
     1
1002
}
  0
DIMENSION
  5
7C21
  8
3
  6
CONTINUOUS
  2
*D8
 10
2050.9867949999989
 20
4092.3593579999988
 30
0.0
 11
1740.3721579999999
 21
4092.3593579999988
 31
0.0
 70
   128
 13
1455.986795
 23
3933.0095160000001
 33
0.0
 14
2050.9867949999989
 24
4043.3207069999999
 34
0.0
1001
ACAD
1000
DSTYLE
1002
{
1070
   287
1070
     3
1070
    40
1040
30.0
1070
   143
1040
0.039
1070
   172
1070
     1
1070
   271
1070
     0
1070
   279
1070
     0
1070
   288
1070
     1
1002
}
  0
DIMENSION
  5
7C3A
  8
3
  6
CONTINUOUS
  2
*D9
 10
4360.9616829999986
 20
4025.2765059999988
 30
0.0
 11
4656.7472289999987
 21
4025.2765059999988
 31
0.0
 70
   128
 13
4960.9616829999986
 23
3890.5095159999992
 33
0.0
 14
4360.9616829999986
 24
3890.5095159999992
 34
0.0
1001
ACAD
1000
DSTYLE
1002
{
1070
   287
1070
     3
1070
    40
1040
30.0
1070
   143
1040
0.039
1070
   172
1070
     1
1070
   271
1070
     0
1070
   279
1070
     0
1070
   288
1070
     1
1002
}
  0
LINE
  5
7C3B
  8
1
  6
CONTINUOUS
 10
4964.9616830000004
 20
3528.5095159999992
 30
0.0
 11
4964.9616830000004
 21
2678.5095160000001
 31
0.0
  0
DIMENSION
  5
7C4A
  8
3
  6
CONTINUOUS
  2
*D10
 10
5260.9348880000016
 20
2678.5095160000001
 30
0.0
 11
5260.9348880000007
 21
3092.215013
 31
0.0
 70
   128
 13
4964.9616830000004
 23
3528.5095159999992
 33
0.0
 14
4964.9616830000004
 24
2678.5095160000001
 34
0.0
 50
90.0
1001
ACAD
1000
DSTYLE
1002
{
1070
   287
1070
     3
1070
     3
1000
φ<>
1070
    40
1040
30.0
1070
   143
1040
0.039
1070
   172
1070
     1
1070
   271
1070
     0
1070
   279
1070
     0
1070
   288
1070
     1
1002
}
  0
DIMENSION
  5
7C59
  8
3
  6
CONTINUOUS
  2
*D11
 10
4660.9616829999986
 20
4214.3281639999996
 30
0.0
 11
4812.9616830000004
 21
4295.801172845946
 31
0.0
 70
   128
 13
4964.9616830000004
 23
3528.5095159999992
 33
0.0
 14
4660.9616829999986
 24
4173.6525389999988
 34
0.0
1001
ACAD
1000
DSTYLE
1002
{
1070
   288
1070
     1
1070
   172
1070
     1
1070
    40
1040
30.0
1070
   271
1070
     0
1070
   143
1040
0.039
1002
}
  0
DIMENSION
  5
7C65
  8
3
  6
CONTINUOUS
  2
*D12
 10
4100.9616830000004
 20
4214.3281639999996
 30
0.0
 11
4380.9616829999986
 21
4364.3281639999996
 31
0.0
 70
     0
  1
MAX\P610
 13
4660.9616829999986
 23
4173.6525389999988
 33
0.0
 14
4100.9616830000004
 24
3758.5095159999992
 34
0.0
1001
ACAD
1000
DSTYLE
1002
{
1070
   287
1070
     4
1070
    40
1040
30.0
1070
    75
1070
     1
1070
   143
1040
0.039
1070
   172
1070
     1
1070
   271
1070
     0
1070
   279
1070
     1
1070
   288
1070
     1
1002
}
  0
DIMENSION
  5
7C72
  8
3
  6
CONTINUOUS
  2
*D13
 10
4660.9616829999986
 20
2085.972240999999
 30
0.0
 11
4382.1164839999992
 21
2085.972240999999
 31
0.0
 70
   128
 13
4077.961683
 23
2283.5095160000001
 33
0.0
 14
4660.9616829999986
 24
2152.8014429999989
 34
0.0
1001
ACAD
1000
DSTYLE
1002
{
1070
   287
1070
     3
1070
    40
1040
30.0
1070
   143
1040
0.039
1070
   172
1070
     1
1070
   271
1070
     0
1070
   279
1070
     0
1070
   288
1070
     1
1002
}
  0
DIMENSION
  5
7C7E
  8
3
  6
CONTINUOUS
  2
*D14
 10
5127.9616829999986
 20
2085.972240999999
 30
0.0
 11
4894.4616829999986
 21
2160.9722409999999
 31
0.0
 70
     0
 13
4660.9616829999986
 23
2152.8014429999989
 33
0.0
 14
5127.9616829999986
 24
2283.5095160000001
 34
0.0
1001
ACAD
1000
DSTYLE
1002
{
1070
   287
1070
     4
1070
    40
1040
30.0
1070
    75
1070
     1
1070
   143
1040
0.039
1070
   172
1070
     1
1070
   271
1070
     0
1070
   279
1070
     1
1070
   288
1070
     1
1002
}
  0
DIMENSION
  5
7C8B
  8
3
  6
CONTINUOUS
  2
*D15
 10
3180.9867949999989
 20
6411.191515999999
 30
0.0
 11
2332.3540010000002
 21
6411.191515999999
 31
0.0
 70
   128
 13
1480.986795
 23
6273.8183409999992
 33
0.0
 14
3180.9867949999989
 24
6273.8183409999992
 34
0.0
1001
ACAD
1000
DSTYLE
1002
{
1070
   287
1070
     3
1070
    40
1040
30.0
1070
   143
1040
0.039
1070
   172
1070
     1
1070
   271
1070
     0
1070
   279
1070
     0
1070
   288
1070
     1
1002
}
  0
DIMENSION
  5
7C98
  8
3
  6
CONTINUOUS
  2
*D16
 10
3436.9798890000011
 20
5223.8183409999992
 30
0.0
 11
3436.9798890000002
 21
5734.2645519999996
 31
0.0
 70
   128
 13
3180.9867949999989
 23
6273.8183409999992
 33
0.0
 14
3180.9867949999989
 24
5223.8183409999992
 34
0.0
 50
90.0
1001
ACAD
1000
DSTYLE
1002
{
1070
   287
1070
     3
1070
    40
1040
30.0
1070
   143
1040
0.039
1070
   172
1070
     1
1070
   271
1070
     0
1070
   279
1070
     0
1070
   288
1070
     1
1002
}
  0
DIMENSION
  5
7CE5
  8
3
  6
CONTINUOUS
  2
*D17
 10
2714.9910209999998
 20
4092.3593579999988
 30
0.0
 11
2382.9889079999998
 21
4167.3593579999988
 31
0.0
 70
     0
 13
2050.9867949999989
 23
4043.3207069999999
 33
0.0
 14
2714.9910209999998
 24
3103.5095160000001
 34
0.0
1001
ACAD
1000
DSTYLE
1002
{
1070
   287
1070
     4
1070
    40
1040
30.0
1070
    75
1070
     1
1070
   143
1040
0.039
1070
   172
1070
     1
1070
   271
1070
     0
1070
   279
1070
     1
1070
   288
1070
     1
1002
}
  0
DIMENSION
  5
7D34
  8
3
  2
*D18
 10
3180.9867949999989
 20
4271.6214331192132
 30
0.0
 11
2346.1520025390009
 21
4271.6214331192132
 31
0.0
 70
   128
 13
1455.986795
 23
3933.0095160000001
 33
0.0
 14
3180.9867949999989
 24
2383.5095160000001
 34
0.0
1001
ACAD
1000
DSTYLE
1002
{
1070
   287
1070
     3
1070
    40
1040
30.0
1070
   143
1040
0.039
1070
   172
1070
     1
1070
   271
1070
     0
1070
   279
1070
     0
1070
   288
1070
     1
1002
}
  0
LINE
  5
7D59
  8
1
  6
CONTINUOUS
 10
1550.9867949999989
 20
3508.509516000001
 30
0.0
 11
2550.9867949999989
 21
3508.509516000001
 31
0.0
  0
LINE
  5
7D5A
  8
1
 10
1550.9867949999989
 20
3508.509516000001
 30
0.0
 11
1550.986795
 21
2508.5095160000001
 31
0.0
  0
LINE
  5
7D5B
  8
1
 10
2550.9867949999989
 20
3508.509516000001
 30
0.0
 11
2550.9867949999998
 21
2508.5095160000001
 31
0.0
  0
ENDSEC
  0
EOF
