  0
SECTION
  2
HEADER
  9
$ACADVER
  1
AC1009
  9
$INSBASE
 10
0.0
 20
0.0
 30
0.0
  9
$EXTMIN
 10
750.0
 20
900.0
 30
0.0
  9
$EXTMAX
 10
5550.0
 20
8359.9567849999985
 30
0.0
  9
$LIMMIN
 10
0.0
 20
0.0
  9
$LIMMAX
 10
297.0
 20
210.0
  9
$ORTHOMODE
 70
     0
  9
$REGENMODE
 70
     1
  9
$FILLMODE
 70
     0
  9
$QTEXTMODE
 70
     0
  9
$MIRRTEXT
 70
     1
  9
$DRAGMODE
 70
     2
  9
$LTSCALE
 40
100.0
  9
$OSMODE
 70
    37
  9
$ATTMODE
 70
     1
  9
$TEXTSIZE
 40
180.0
  9
$TRACEWID
 40
0.05
  9
$TEXTSTYLE
  7
STANDARD
  9
$CLAYER
  8
3
  9
$CELTYPE
  6
BYLAYER
  9
$CECOLOR
 62
   256
  9
$DIMSCALE
 40
30.0
  9
$DIMASZ
 40
2.0
  9
$DIMEXO
 40
0.5
  9
$DIMDLI
 40
10.0
  9
$DIMRND
 40
0.0
  9
$DIMDLE
 40
0.0
  9
$DIMEXE
 40
1.0
  9
$DIMTP
 40
1.0
  9
$DIMTM
 40
1.0
  9
$DIMTXT
 40
3.0
  9
$DIMCEN
 40
0.0
  9
$DIMTSZ
 40
0.0
  9
$DIMTOL
 70
     0
  9
$DIMLIM
 70
     0
  9
$DIMTIH
 70
     0
  9
$DIMTOH
 70
     0
  9
$DIMSE1
 70
     0
  9
$DIMSE2
 70
     0
  9
$DIMTAD
 70
     1
  9
$DIMZIN
 70
     8
  9
$DIMBLK
  1

  9
$DIMASO
 70
     1
  9
$DIMSHO
 70
     1
  9
$DIMPOST
  1

  9
$DIMAPOST
  1

  9
$DIMALT
 70
     0
  9
$DIMALTD
 70
     2
  9
$DIMALTF
 40
0.039
  9
$DIMLFAC
 40
1.0
  9
$DIMTOFL
 70
     1
  9
$DIMTVP
 40
0.0
  9
$DIMTIX
 70
     0
  9
$DIMSOXD
 70
     0
  9
$DIMSAH
 70
     1
  9
$DIMBLK1
  1
OPEN
  9
$DIMBLK2
  1
OPEN
  9
$DIMSTYLE
  2
IGA
  9
$DIMCLRD
 70
     0
  9
$DIMCLRE
 70
     0
  9
$DIMCLRT
 70
     0
  9
$DIMTFAC
 40
10.0
  9
$DIMGAP
 40
1.0
  9
$LUNITS
 70
     2
  9
$LUPREC
 70
     3
  9
$SKETCHINC
 40
0.1
  9
$FILLETRAD
 40
0.0
  9
$AUNITS
 70
     0
  9
$AUPREC
 70
     0
  9
$MENU
  1
acad
  9
$ELEVATION
 40
0.0
  9
$PELEVATION
 40
0.0
  9
$THICKNESS
 40
0.0
  9
$LIMCHECK
 70
     0
  9
$BLIPMODE
 70
     0
  9
$CHAMFERA
 40
0.5
  9
$CHAMFERB
 40
0.5
  9
$SKPOLY
 70
     0
  9
$TDCREATE
 40
2450746.5963878469
  9
$TDUPDATE
 40
2454953.7742234492
  9
$TDINDWG
 40
0.0116220023
  9
$TDUSRTIMER
 40
0.0116220023
  9
$USRTIMER
 70
     1
  9
$ANGBASE
 50
0.0
  9
$ANGDIR
 70
     0
  9
$PDMODE
 70
     0
  9
$PDSIZE
 40
0.0
  9
$PLINEWID
 40
0.0
  9
$COORDS
 70
     1
  9
$SPLFRAME
 70
     0
  9
$SPLINETYPE
 70
     6
  9
$SPLINESEGS
 70
     8
  9
$ATTDIA
 70
     0
  9
$ATTREQ
 70
     1
  9
$HANDLING
 70
 10241
  9
$HANDSEED
  5
7D1D
  9
$SURFTAB1
 70
     6
  9
$SURFTAB2
 70
     6
  9
$SURFTYPE
 70
     6
  9
$SURFU
 70
     6
  9
$SURFV
 70
     6
  9
$UCSNAME
  2

  9
$UCSORG
 10
0.0
 20
0.0
 30
0.0
  9
$UCSXDIR
 10
1.0
 20
0.0
 30
0.0
  9
$UCSYDIR
 10
0.0
 20
1.0
 30
0.0
  9
$PUCSNAME
  2

  9
$PUCSORG
 10
0.0
 20
0.0
 30
0.0
  9
$PUCSXDIR
 10
1.0
 20
0.0
 30
0.0
  9
$PUCSYDIR
 10
0.0
 20
1.0
 30
0.0
  9
$USERI1
 70
     0
  9
$USERI2
 70
     0
  9
$USERI3
 70
     0
  9
$USERI4
 70
     0
  9
$USERI5
 70
     0
  9
$USERR1
 40
0.0
  9
$USERR2
 40
0.0
  9
$USERR3
 40
0.0
  9
$USERR4
 40
0.0
  9
$USERR5
 40
0.0
  9
$WORLDVIEW
 70
     1
  9
$SHADEDGE
 70
     3
  9
$SHADEDIF
 70
    70
  9
$TILEMODE
 70
     1
  9
$MAXACTVP
 70
    16
  9
$PLIMCHECK
 70
     0
  9
$PEXTMIN
 10
1.0000000000000000E+020
 20
1.0000000000000000E+020
 30
1.0000000000000000E+020
  9
$PEXTMAX
 10
-1.0000000000000000E+020
 20
-1.0000000000000000E+020
 30
-1.0000000000000000E+020
  9
$PLIMMIN
 10
0.0
 20
0.0
  9
$PLIMMAX
 10
12.0
 20
9.0
  9
$UNITMODE
 70
     0
  9
$VISRETAIN
 70
     0
  9
$PLINEGEN
 70
     0
  9
$PSLTSCALE
 70
     1
  0
ENDSEC
  0
SECTION
  2
TABLES
  0
TABLE
  2
VPORT
 70
     2
  0
VPORT
  2
*ACTIVE
 70
     0
 10
0.0
 20
0.0
 11
1.0
 21
1.0
 12
9438.4567678319436
 22
4630.0975558305709
 13
0.0
 23
0.0
 14
10.0
 24
10.0
 15
10.0
 25
10.0
 16
0.0
 26
0.0
 36
1.0
 17
0.0
 27
0.0
 37
0.0
 40
7517.4747125171307
 41
3.1666666666666661
 42
50.0
 43
0.0
 44
0.0
 50
0.0
 51
0.0
 71
     0
 72
   100
 73
     1
 74
     0
 75
     0
 76
     0
 77
     0
 78
     0
  0
ENDTAB
  0
TABLE
  2
LTYPE
 70
     2
  0
LTYPE
  2
CONTINUOUS
 70
     0
  3
Solid line
 72
    65
 73
     0
 40
0.0
  0
LTYPE
  2
CENTER
 70
     0
  3
____ _ ____ _ ____ _ ____ _ ____ _ ____ _ ____ 
 72
    65
 73
     4
 40
2.0
 49
1.25
 49
-0.25
 49
0.25
 49
-0.25
  0
ENDTAB
  0
TABLE
  2
LAYER
 70
     6
  0
LAYER
  2
0
 70
     0
 62
     7
  6
CONTINUOUS
  0
LAYER
  2
3
 70
     0
 62
     2
  6
CONTINUOUS
  0
LAYER
  2
2
 70
     0
 62
     3
  6
CENTER
  0
LAYER
  2
1
 70
     0
 62
     4
  6
CONTINUOUS
  0
LAYER
  2
4
 70
     0
 62
     7
  6
CONTINUOUS
  0
LAYER
  2
DEFPOINTS
 70
     0
 62
     7
  6
CONTINUOUS
  0
ENDTAB
  0
TABLE
  2
STYLE
 70
     1
  0
STYLE
  2
STANDARD
 70
     0
 40
0.0
 41
1.0
 50
0.0
 71
     0
 42
180.0
  3
simplex.shx
  4
extfont.shx
  0
ENDTAB
  0
TABLE
  2
VIEW
 70
     0
  0
ENDTAB
  0
TABLE
  2
UCS
 70
     0
  0
ENDTAB
  0
TABLE
  2
APPID
 70
     1
  0
APPID
  2
ACAD
 70
     0
  0
ENDTAB
  0
TABLE
  2
DIMSTYLE
 70
     1
  0
DIMSTYLE
  2
IGA
 70
     0
  3

  4

  5

  6
OPEN
  7
OPEN
 40
2.0
 41
2.0
 42
0.5
 43
10.0
 44
1.0
 45
0.0
 46
0.0
 47
1.0
 48
1.0
140
3.0
141
0.0
142
0.0
143
0.03937
144
1.0
145
0.0
146
10.0
147
1.0
 71
     0
 72
     0
 73
     0
 74
     0
 75
     0
 76
     0
 77
     1
 78
     8
170
     0
171
     2
172
     0
173
     1
174
     0
175
     0
176
     0
177
     0
178
     0
  0
ENDTAB
  0
ENDSEC
  0
SECTION
  2
BLOCKS
  0
BLOCK
  8
0
  2
$MODEL_SPACE
 70
     0
 10
0.0
 20
0.0
 30
0.0
  3
$MODEL_SPACE
  1

  0
ENDBLK
  5
1B
  8
0
  0
BLOCK
 67
     1
  8
0
  2
$PAPER_SPACE
 70
     0
 10
0.0
 20
0.0
 30
0.0
  3
$PAPER_SPACE
  1

  0
ENDBLK
  5
18
 67
     1
  8
0
  0
BLOCK
  8
0
  2
_OPEN
 70
     0
 10
0.0
 20
0.0
 30
0.0
  3
_OPEN
  1

  0
LINE
  5
7ADF
  8
0
  6
BYBLOCK
 62
     0
 10
-1.0
 20
0.166667
 30
0.0
 11
0.0
 21
0.0
 31
0.0
  0
LINE
  5
7AE0
  8
0
  6
BYBLOCK
 62
     0
 10
0.0
 20
0.0
 30
0.0
 11
-1.0
 21
-0.166667
 31
0.0
  0
LINE
  5
7AE1
  8
0
  6
BYBLOCK
 62
     0
 10
0.0
 20
0.0
 30
0.0
 11
-1.0
 21
0.0
 31
0.0
  0
ENDBLK
  5
7AE2
  8
0
  0
BLOCK
  8
0
  2
*D1
 70
     1
 10
0.0
 20
0.0
 30
0.0
  3
*D1
  1

  0
LINE
  5
7C81
  8
3
  6
CONTINUOUS
 62
     0
 10
2874.7410180000002
 20
3991.675346
 30
0.0
 11
3128.2008880000012
 21
3991.6753459999991
 31
0.0
  0
LINE
  5
7C82
  8
3
  6
CONTINUOUS
 62
     0
 10
2874.7410180000002
 20
3166.6753459999991
 30
0.0
 11
3128.2008880000012
 21
3166.6753459999991
 31
0.0
  0
LINE
  5
7C83
  8
3
  6
CONTINUOUS
 62
     0
 10
3098.2008879999998
 20
3931.6753459999991
 30
0.0
 11
3098.2008879999998
 21
3226.6753459999991
 31
0.0
  0
INSERT
  5
7C84
  8
3
  6
CONTINUOUS
 62
     0
  2
_OPEN
 10
3098.2008879999998
 20
3991.6753459999991
 30
0.0
 41
60.0
 42
60.0
 43
60.0
 50
90.0
  0
INSERT
  5
7C85
  8
3
  6
CONTINUOUS
 62
     0
  2
_OPEN
 10
3098.2008879999998
 20
3166.6753459999991
 30
0.0
 41
60.0
 42
60.0
 43
60.0
 50
270.0
  0
TEXT
  8
3
  40
90
  5
7D0C
  62
0
  72
0
  71
0
 10
2843.20
 20
3444.26
 30
0.000000
  1
825
  0
POINT
  5
7C87
  8
DEFPOINTS
  6
CONTINUOUS
 62
     0
 10
2859.7410180000002
 20
3991.675346
 30
0.0
  0
POINT
  5
7C88
  8
DEFPOINTS
  6
CONTINUOUS
 62
     0
 10
2859.7410180000002
 20
3166.6753459999991
 30
0.0
  0
POINT
  5
7C89
  8
DEFPOINTS
  6
CONTINUOUS
 62
     0
 10
3098.2008879999998
 20
3166.6753459999991
 30
0.0
  0
ENDBLK
  5
7AEF
  8
0
  0
BLOCK
  8
0
  2
*D2
 70
     1
 10
0.0
 20
0.0
 30
0.0
  3
*D2
  1

  0
LINE
  5
7C8A
  8
3
  6
CONTINUOUS
 62
     0
 10
2874.7410180000002
 20
3991.675346
 30
0.0
 11
3351.125621000001
 21
3991.6753459999991
 31
0.0
  0
LINE
  5
7C8B
  8
3
  6
CONTINUOUS
 62
     0
 10
3007.9060209999998
 20
3204.675346
 30
0.0
 11
3351.125621000001
 21
3204.675346
 31
0.0
  0
LINE
  5
7C8C
  8
3
  6
CONTINUOUS
 62
     0
 10
3321.125621000001
 20
3931.6753459999991
 30
0.0
 11
3321.125621000001
 21
3264.675346
 31
0.0
  0
INSERT
  5
7C8D
  8
3
  6
CONTINUOUS
 62
     0
  2
_OPEN
 10
3321.125621000001
 20
3991.6753459999991
 30
0.0
 41
60.0
 42
60.0
 43
60.0
 50
90.0
  0
INSERT
  5
7C8E
  8
3
  6
CONTINUOUS
 62
     0
  2
_OPEN
 10
3321.125621000001
 20
3204.675346
 30
0.0
 41
60.0
 42
60.0
 43
60.0
 50
270.0
  0
TEXT
  8
3
  40
90
  5
7D0D
  62
0
  72
0
  71
0
 10
3066.13
 20
3425.70
 30
0.000000
  1
787
  0
POINT
  5
7C90
  8
DEFPOINTS
  6
CONTINUOUS
 62
     0
 10
2859.7410180000002
 20
3991.675346
 30
0.0
  0
POINT
  5
7C91
  8
DEFPOINTS
  6
CONTINUOUS
 62
     0
 10
2992.9060209999998
 20
3204.675346
 30
0.0
  0
POINT
  5
7C92
  8
DEFPOINTS
  6
CONTINUOUS
 62
     0
 10
3321.125621000001
 20
3204.675346
 30
0.0
  0
ENDBLK
  5
7AFC
  8
0
  0
BLOCK
  8
0
  2
*D3
 70
     1
 10
0.0
 20
0.0
 30
0.0
  3
*D3
  1

  0
LINE
  5
7C93
  8
3
  6
CONTINUOUS
 62
     0
 10
2869.7410180000002
 20
2509.675346
 30
0.0
 11
3351.1256209999988
 21
2509.6753459999991
 31
0.0
  0
LINE
  5
7C94
  8
3
  6
CONTINUOUS
 62
     0
 10
3321.125621000001
 20
3144.6753459999991
 30
0.0
 11
3321.1256210000001
 21
2569.6753459999991
 31
0.0
  0
INSERT
  5
7C95
  8
3
  6
CONTINUOUS
 62
     0
  2
_OPEN
 10
3321.125621000001
 20
3204.675346
 30
0.0
 41
60.0
 42
60.0
 43
60.0
 50
90.0
  0
INSERT
  5
7C96
  8
3
  6
CONTINUOUS
 62
     0
  2
_OPEN
 10
3321.1256210000001
 20
2509.6753459999991
 30
0.0
 41
60.0
 42
60.0
 43
60.0
 50
270.0
  0
TEXT
  8
3
  40
90
  5
7D0E
  62
0
  72
0
  71
0
 10
3066.13
 20
2697.88
 30
0.000000
  1
695
  0
POINT
  5
7C98
  8
DEFPOINTS
  6
CONTINUOUS
 62
     0
 10
2992.9060209999998
 20
3204.675346
 30
0.0
  0
POINT
  5
7C99
  8
DEFPOINTS
  6
CONTINUOUS
 62
     0
 10
2854.7410180000002
 20
2509.675346
 30
0.0
  0
POINT
  5
7C9A
  8
DEFPOINTS
  6
CONTINUOUS
 62
     0
 10
3321.1256210000001
 20
2509.6753459999991
 30
0.0
  0
ENDBLK
  5
7B08
  8
0
  0
BLOCK
  8
0
  2
*D4
 70
     1
 10
0.0
 20
0.0
 30
0.0
  3
*D4
  1

  0
LINE
  5
7C9B
  8
3
  6
CONTINUOUS
 62
     0
 10
2874.7410180000002
 20
4034.175346
 30
0.0
 11
3586.4350390000009
 21
4034.175346
 31
0.0
  0
LINE
  5
7C9C
  8
3
  6
CONTINUOUS
 62
     0
 10
2869.7410180000002
 20
2509.675346
 30
0.0
 11
3586.435039
 21
2509.6753459999991
 31
0.0
  0
LINE
  5
7C9D
  8
3
  6
CONTINUOUS
 62
     0
 10
3556.4350390000009
 20
3974.1753459999991
 30
0.0
 11
3556.4350390000009
 21
2569.6753459999991
 31
0.0
  0
INSERT
  5
7C9E
  8
3
  6
CONTINUOUS
 62
     0
  2
_OPEN
 10
3556.4350390000009
 20
4034.175346
 30
0.0
 41
60.0
 42
60.0
 43
60.0
 50
90.0
  0
INSERT
  5
7C9F
  8
3
  6
CONTINUOUS
 62
     0
  2
_OPEN
 10
3556.4350390000009
 20
2509.6753459999991
 30
0.0
 41
60.0
 42
60.0
 43
60.0
 50
270.0
  0
TEXT
  8
3
  40
90
  5
7D0F
  62
0
  72
0
  71
0
 10
3301.44
 20
3072.99
 30
0.000000
  1
1525
  0
POINT
  5
7CA1
  8
DEFPOINTS
  6
CONTINUOUS
 62
     0
 10
2859.7410180000002
 20
4034.175346
 30
0.0
  0
POINT
  5
7CA2
  8
DEFPOINTS
  6
CONTINUOUS
 62
     0
 10
2854.7410180000002
 20
2509.675346
 30
0.0
  0
POINT
  5
7CA3
  8
DEFPOINTS
  6
CONTINUOUS
 62
     0
 10
3556.4350390000009
 20
2509.6753459999991
 30
0.0
  0
ENDBLK
  5
7B15
  8
0
  0
BLOCK
  8
0
  2
*D5
 70
     1
 10
0.0
 20
0.0
 30
0.0
  3
*D5
  1

  0
LINE
  5
7CA4
  8
3
  6
CONTINUOUS
 62
     0
 10
1064.7410179999999
 20
2494.675346
 30
0.0
 11
1064.7410179999999
 21
2249.3646560000002
 31
0.0
  0
LINE
  5
7CA5
  8
3
  6
CONTINUOUS
 62
     0
 10
2264.7410180000002
 20
2381.749303999999
 30
0.0
 11
2264.7410180000002
 21
2249.3646560000002
 31
0.0
  0
LINE
  5
7CA6
  8
3
  6
CONTINUOUS
 62
     0
 10
1124.741017999999
 20
2279.3646559999988
 30
0.0
 11
2204.7410180000002
 21
2279.3646559999988
 31
0.0
  0
INSERT
  5
7CA7
  8
3
  6
CONTINUOUS
 62
     0
  2
_OPEN
 10
1064.7410179999999
 20
2279.3646559999988
 30
0.0
 41
60.0
 42
60.0
 43
60.0
 50
180.0
  0
INSERT
  5
7CA8
  8
3
  6
CONTINUOUS
 62
     0
  2
_OPEN
 10
2264.7410180000002
 20
2279.3646559999988
 30
0.0
 41
60.0
 42
60.0
 43
60.0
  0
TEXT
  8
3
  40
90
  5
7D10
  62
0
  72
0
  71
0
 10
1518.73
 20
2195.06
 30
0.000000
  1
1200
  0
POINT
  5
7CAA
  8
DEFPOINTS
  6
CONTINUOUS
 62
     0
 10
1064.7410179999999
 20
2509.675346
 30
0.0
  0
POINT
  5
7CAB
  8
DEFPOINTS
  6
CONTINUOUS
 62
     0
 10
2264.7410180000002
 20
2396.7493039999999
 30
0.0
  0
POINT
  5
7CAC
  8
DEFPOINTS
  6
CONTINUOUS
 62
     0
 10
2264.7410180000002
 20
2279.3646559999988
 30
0.0
  0
ENDBLK
  5
7B22
  8
0
  0
BLOCK
  8
0
  2
*D6
 70
     1
 10
0.0
 20
0.0
 30
0.0
  3
*D6
  1

  0
LINE
  5
7CAD
  8
3
  6
CONTINUOUS
 62
     0
 10
2854.7410180000002
 20
2494.675346
 30
0.0
 11
2854.7410180000002
 21
2249.3646560000002
 31
0.0
  0
LINE
  5
7CAE
  8
3
  6
CONTINUOUS
 62
     0
 10
2324.7410180000002
 20
2279.3646559999988
 30
0.0
 11
2794.7410180000002
 21
2279.3646559999988
 31
0.0
  0
INSERT
  5
7CAF
  8
3
  6
CONTINUOUS
 62
     0
  2
_OPEN
 10
2264.7410180000002
 20
2279.3646559999988
 30
0.0
 41
60.0
 42
60.0
 43
60.0
 50
180.0
  0
INSERT
  5
7CB0
  8
3
  6
CONTINUOUS
 62
     0
  2
_OPEN
 10
2854.7410180000002
 20
2279.3646559999988
 30
0.0
 41
60.0
 42
60.0
 43
60.0
  0
TEXT
  8
3
  40
90
  5
7D11
  62
0
  72
0
  71
0
 10
2379.74
 20
2195.06
 30
0.000000
  1
590
  0
POINT
  5
7CB2
  8
DEFPOINTS
  6
CONTINUOUS
 62
     0
 10
2264.7410180000002
 20
2396.7493039999999
 30
0.0
  0
POINT
  5
7CB3
  8
DEFPOINTS
  6
CONTINUOUS
 62
     0
 10
2854.7410180000002
 20
2509.675346
 30
0.0
  0
POINT
  5
7CB4
  8
DEFPOINTS
  6
CONTINUOUS
 62
     0
 10
2854.7410180000002
 20
2279.3646559999988
 30
0.0
  0
ENDBLK
  5
7B2E
  8
0
  0
BLOCK
  8
0
  2
*D7
 70
     1
 10
0.0
 20
0.0
 30
0.0
  3
*D7
  1

  0
LINE
  5
7CB5
  8
3
  6
CONTINUOUS
 62
     0
 10
2859.7410180000002
 20
4049.175346
 30
0.0
 11
2859.7410180000002
 21
4196.6508620000004
 31
0.0
  0
LINE
  5
7CB6
  8
3
  6
CONTINUOUS
 62
     0
 10
2264.7410180000002
 20
4111.5440979999994
 30
0.0
 11
2264.7410180000002
 21
4196.6508620000004
 31
0.0
  0
LINE
  5
7CB7
  8
3
  6
CONTINUOUS
 62
     0
 10
2799.7410180000002
 20
4166.6508620000004
 30
0.0
 11
2324.7410180000002
 21
4166.6508620000004
 31
0.0
  0
INSERT
  5
7CB8
  8
3
  6
CONTINUOUS
 62
     0
  2
_OPEN
 10
2859.7410180000002
 20
4166.6508620000004
 30
0.0
 41
60.0
 42
60.0
 43
60.0
  0
INSERT
  5
7CB9
  8
3
  6
CONTINUOUS
 62
     0
  2
_OPEN
 10
2264.7410180000002
 20
4166.6508620000004
 30
0.0
 41
60.0
 42
60.0
 43
60.0
 50
180.0
  0
TEXT
  8
3
  40
90
  5
7D12
  62
0
  72
0
  71
0
 10
2385.66
 20
4082.35
 30
0.000000
  1
595
  0
POINT
  5
7CBB
  8
DEFPOINTS
  6
CONTINUOUS
 62
     0
 10
2859.7410180000002
 20
4034.175346
 30
0.0
  0
POINT
  5
7CBC
  8
DEFPOINTS
  6
CONTINUOUS
 62
     0
 10
2264.7410180000002
 20
4096.5440979999994
 30
0.0
  0
POINT
  5
7CBD
  8
DEFPOINTS
  6
CONTINUOUS
 62
     0
 10
2264.7410180000002
 20
4166.6508620000004
 30
0.0
  0
ENDBLK
  5
7B3B
  8
0
  0
BLOCK
  8
0
  2
*D8
 70
     1
 10
0.0
 20
0.0
 30
0.0
  3
*D8
  1

  0
LINE
  5
7CBE
  8
3
  6
CONTINUOUS
 62
     0
 10
4483.9763759999996
 20
4006.675346
 30
0.0
 11
4483.9763759999996
 21
4147.1482829999986
 31
0.0
  0
LINE
  5
7CBF
  8
3
  6
CONTINUOUS
 62
     0
 10
5083.9763759999987
 20
4006.675346
 30
0.0
 11
5083.9763759999987
 21
4147.1482829999986
 31
0.0
  0
LINE
  5
7CC0
  8
3
  6
CONTINUOUS
 62
     0
 10
4543.9763759999987
 20
4117.1482829999986
 30
0.0
 11
5023.9763759999996
 21
4117.1482829999986
 31
0.0
  0
INSERT
  5
7CC1
  8
3
  6
CONTINUOUS
 62
     0
  2
_OPEN
 10
4483.9763759999996
 20
4117.1482829999986
 30
0.0
 41
60.0
 42
60.0
 43
60.0
 50
180.0
  0
INSERT
  5
7CC2
  8
3
  6
CONTINUOUS
 62
     0
  2
_OPEN
 10
5083.9763759999987
 20
4117.1482829999986
 30
0.0
 41
60.0
 42
60.0
 43
60.0
  0
TEXT
  8
3
  40
90
  5
7D13
  62
0
  72
0
  71
0
 10
4596.33
 20
4032.85
 30
0.000000
  1
600
  0
POINT
  5
7CC4
  8
DEFPOINTS
  6
CONTINUOUS
 62
     0
 10
4483.9763759999996
 20
3991.675346
 30
0.0
  0
POINT
  5
7CC5
  8
DEFPOINTS
  6
CONTINUOUS
 62
     0
 10
5083.9763759999987
 20
3991.675346
 30
0.0
  0
POINT
  5
7CC6
  8
DEFPOINTS
  6
CONTINUOUS
 62
     0
 10
5083.9763759999987
 20
4117.1482829999986
 30
0.0
  0
ENDBLK
  5
7B54
  8
0
  0
BLOCK
  8
0
  2
*D9
 70
     1
 10
0.0
 20
0.0
 30
0.0
  3
*D9
  1

  0
LINE
  5
7C2B
  8
0
  6
BYBLOCK
 62
     0
 10
5087.9763759999996
 20
3644.675346
 30
0.0
 11
5087.9763759999996
 21
4338.9708049999999
 31
0.0
  0
LINE
  5
7C2C
  8
0
  6
BYBLOCK
 62
     0
 10
4783.9763759999996
 20
4277.6452820000004
 30
0.0
 11
4783.9763759999996
 21
4338.9708049999999
 31
0.0
  0
LINE
  5
7C2D
  8
0
  6
BYBLOCK
 62
     0
 10
5027.9763759999987
 20
4308.9708049999999
 30
0.0
 11
4843.9763759999996
 21
4308.9708049999999
 31
0.0
  0
TEXT
  5
7C2E
  8
3
 62
     0
 10
4818.1192331428574
 20
4346.8787334670669
 30
0.0
 40
90.0
  1
304
  0
INSERT
  5
7C2F
  8
0
  6
BYBLOCK
 62
     0
  2
_OPEN
 10
5087.9763759999996
 20
4308.9708049999999
 30
0.0
 41
60.0
 42
60.0
 43
60.0
  0
INSERT
  5
7C30
  8
0
  6
BYBLOCK
 62
     0
  2
_OPEN
 10
4783.9763759999996
 20
4308.9708049999999
 30
0.0
 41
60.0
 42
60.0
 43
60.0
 50
180.0
  0
POINT
  5
7C31
  8
DEFPOINTS
  6
BYBLOCK
 62
     0
 10
5087.9763759999996
 20
3629.6753459999991
 30
0.0
  0
POINT
  5
7C32
  8
DEFPOINTS
  6
BYBLOCK
 62
     0
 10
4783.9763759999996
 20
4262.6452820000004
 30
0.0
  0
POINT
  5
7C33
  8
DEFPOINTS
  6
BYBLOCK
 62
     0
 10
4783.9763759999996
 20
4308.9708049999999
 30
0.0
  0
ENDBLK
  5
7C34
  8
0
  0
BLOCK
  8
0
  2
*D10
 70
     1
 10
0.0
 20
0.0
 30
0.0
  3
*D10
  1

  0
LINE
  5
7CC7
  8
3
  6
CONTINUOUS
 62
     0
 10
4223.9763759999987
 20
3874.675346
 30
0.0
 11
4223.9763759999987
 21
4338.9708049999999
 31
0.0
  0
LINE
  5
7CC8
  8
3
  6
CONTINUOUS
 62
     0
 10
4723.9763759999987
 20
4308.9708049999999
 30
0.0
 11
4283.9763759999996
 21
4308.9708049999999
 31
0.0
  0
INSERT
  5
7CC9
  8
3
  6
CONTINUOUS
 62
     0
  2
_OPEN
 10
4783.9763759999996
 20
4308.9708049999999
 30
0.0
 41
60.0
 42
60.0
 43
60.0
  0
INSERT
  5
7CCA
  8
3
  6
CONTINUOUS
 62
     0
  2
_OPEN
 10
4223.9763759999987
 20
4308.9708049999999
 30
0.0
 41
60.0
 42
60.0
 43
60.0
 50
180.0
  0
TEXT
  8
3
  40
90
  5
7D14
  62
0
  72
0
  71
0
 10
4323.98
 20
4299.67
 30
0.000000
  1
MAX
  0
TEXT
  8
3
  40
90
  5
7D15
  62
0
  72
0
  71
0
 10
4323.98
 20
4182.67
 30
0.000000
  1
610
  0
POINT
  5
7CCC
  8
DEFPOINTS
  6
CONTINUOUS
 62
     0
 10
4783.9763759999996
 20
4262.6452820000004
 30
0.0
  0
POINT
  5
7CCD
  8
DEFPOINTS
  6
CONTINUOUS
 62
     0
 10
4223.9763759999987
 20
3859.675346
 30
0.0
  0
POINT
  5
7CCE
  8
DEFPOINTS
  6
CONTINUOUS
 62
     0
 10
4223.9763759999987
 20
4308.9708049999999
 30
0.0
  0
ENDBLK
  5
7C49
  8
0
  0
BLOCK
  8
0
  2
*D11
 70
     1
 10
0.0
 20
0.0
 30
0.0
  3
*D11
  1

  0
LINE
  5
7CCF
  8
3
  6
CONTINUOUS
 62
     0
 10
4365.9763759999987
 20
2494.675346
 30
0.0
 11
4365.9763759999987
 21
2245.853106
 31
0.0
  0
LINE
  5
7CD0
  8
3
  6
CONTINUOUS
 62
     0
 10
4783.9763759999996
 20
2347.6637959999998
 30
0.0
 11
4783.9763759999996
 21
2245.853106
 31
0.0
  0
LINE
  5
7CD1
  8
3
  6
CONTINUOUS
 62
     0
 10
4425.9763759999996
 20
2275.853106
 30
0.0
 11
4723.9763759999987
 21
2275.853106
 31
0.0
  0
INSERT
  5
7CD2
  8
3
  6
CONTINUOUS
 62
     0
  2
_OPEN
 10
4365.9763759999987
 20
2275.853106
 30
0.0
 41
60.0
 42
60.0
 43
60.0
 50
180.0
  0
INSERT
  5
7CD3
  8
3
  6
CONTINUOUS
 62
     0
  2
_OPEN
 10
4783.9763759999996
 20
2275.853106
 30
0.0
 41
60.0
 42
60.0
 43
60.0
  0
TEXT
  8
3
  40
90
  5
7D16
  62
0
  72
0
  71
0
 10
4383.12
 20
2191.55
 30
0.000000
  1
418
  0
POINT
  5
7CD5
  8
DEFPOINTS
  6
CONTINUOUS
 62
     0
 10
4365.9763759999987
 20
2509.675346
 30
0.0
  0
POINT
  5
7CD6
  8
DEFPOINTS
  6
CONTINUOUS
 62
     0
 10
4783.9763759999996
 20
2362.6637959999998
 30
0.0
  0
POINT
  5
7CD7
  8
DEFPOINTS
  6
CONTINUOUS
 62
     0
 10
4783.9763759999996
 20
2275.853106
 30
0.0
  0
ENDBLK
  5
7C14
  8
0
  0
BLOCK
  8
0
  2
*D12
 70
     1
 10
0.0
 20
0.0
 30
0.0
  3
*D12
  1

  0
LINE
  5
7CD8
  8
3
  6
CONTINUOUS
 62
     0
 10
5185.9763759999996
 20
2494.675346
 30
0.0
 11
5185.9763759999996
 21
2245.853106
 31
0.0
  0
LINE
  5
7CD9
  8
3
  6
CONTINUOUS
 62
     0
 10
4843.9763759999996
 20
2275.853106
 30
0.0
 11
5125.9763759999996
 21
2275.853106
 31
0.0
  0
TEXT
  8
3
  40
90
  5
7D17
  62
0
  72
0
  71
0
 10
4815.40
 20
2190.71
 30
0.000000
  1
402
  0
INSERT
  5
7CDB
  8
3
  6
CONTINUOUS
 62
     0
  2
_OPEN
 10
4783.9763759999996
 20
2275.853106
 30
0.0
 41
60.0
 42
60.0
 43
60.0
 50
180.0
  0
INSERT
  5
7CDC
  8
3
  6
CONTINUOUS
 62
     0
  2
_OPEN
 10
5185.9763759999996
 20
2275.853106
 30
0.0
 41
60.0
 42
60.0
 43
60.0
  0
POINT
  5
7CDD
  8
DEFPOINTS
  6
CONTINUOUS
 62
     0
 10
4783.9763759999996
 20
2362.6637959999998
 30
0.0
  0
POINT
  5
7CDE
  8
DEFPOINTS
  6
CONTINUOUS
 62
     0
 10
5185.9763759999996
 20
2509.675346
 30
0.0
  0
POINT
  5
7CDF
  8
DEFPOINTS
  6
CONTINUOUS
 62
     0
 10
5185.9763759999996
 20
2275.853106
 30
0.0
  0
ENDBLK
  5
7C09
  8
0
  0
BLOCK
  8
0
  2
*D13
 70
     1
 10
0.0
 20
0.0
 30
0.0
  3
*D13
  1

  0
LINE
  5
7CE0
  8
3
  6
CONTINUOUS
 62
     0
 10
5102.9763759999987
 20
3629.6753459999991
 30
0.0
 11
5400.794648000001
 21
3629.6753459999991
 31
0.0
  0
LINE
  5
7CE1
  8
3
  6
CONTINUOUS
 62
     0
 10
5102.9763759999987
 20
2779.675346
 30
0.0
 11
5400.794648000001
 21
2779.6753459999991
 31
0.0
  0
LINE
  5
7CE2
  8
3
  6
CONTINUOUS
 62
     0
 10
5370.794648000001
 20
3569.6753459999991
 30
0.0
 11
5370.794648000001
 21
2839.6753459999991
 31
0.0
  0
INSERT
  5
7CE3
  8
3
  6
CONTINUOUS
 62
     0
  2
_OPEN
 10
5370.794648000001
 20
3629.6753459999991
 30
0.0
 41
60.0
 42
60.0
 43
60.0
 50
90.0
  0
INSERT
  5
7CE4
  8
3
  6
CONTINUOUS
 62
     0
  2
_OPEN
 10
5370.794648000001
 20
2779.6753459999991
 30
0.0
 41
60.0
 42
60.0
 43
60.0
 50
270.0
  0
TEXT
  8
3
  40
90
  5
7D18
  62
0
  72
0
  71
0
 10
5115.79
 20
3054.43
 30
0.000000
  1
φ850
  0
POINT
  5
7CE6
  8
DEFPOINTS
  6
CONTINUOUS
 62
     0
 10
5087.9763759999996
 20
3629.6753459999991
 30
0.0
  0
POINT
  5
7CE7
  8
DEFPOINTS
  6
CONTINUOUS
 62
     0
 10
5087.9763759999996
 20
2779.675346
 30
0.0
  0
POINT
  5
7CE8
  8
DEFPOINTS
  6
CONTINUOUS
 62
     0
 10
5370.794648000001
 20
2779.6753459999991
 30
0.0
  0
ENDBLK
  5
7C3F
  8
0
  0
BLOCK
  8
0
  2
*D14
 70
     1
 10
0.0
 20
0.0
 30
0.0
  3
*D14
  1

  0
LINE
  5
7CE9
  8
3
  6
CONTINUOUS
 62
     0
 10
1064.7410179999999
 20
6264.3224099999998
 30
0.0
 11
1064.7410179999999
 21
6499.0162909999999
 31
0.0
  0
LINE
  5
7CEA
  8
3
  6
CONTINUOUS
 62
     0
 10
2854.7410180000002
 20
6264.3224099999998
 30
0.0
 11
2854.7410180000002
 21
6499.0162909999999
 31
0.0
  0
LINE
  5
7CEB
  8
3
  6
CONTINUOUS
 62
     0
 10
1124.741017999999
 20
6469.016290999999
 30
0.0
 11
2794.7410180000002
 21
6469.016290999999
 31
0.0
  0
INSERT
  5
7CEC
  8
3
  6
CONTINUOUS
 62
     0
  2
_OPEN
 10
1064.7410179999999
 20
6469.016290999999
 30
0.0
 41
60.0
 42
60.0
 43
60.0
 50
180.0
  0
INSERT
  5
7CED
  8
3
  6
CONTINUOUS
 62
     0
  2
_OPEN
 10
2854.7410180000002
 20
6469.016290999999
 30
0.0
 41
60.0
 42
60.0
 43
60.0
  0
TEXT
  8
3
  40
90
  5
7D19
  62
0
  72
0
  71
0
 10
1791.19
 20
6384.72
 30
0.000000
  1
1790
  0
POINT
  5
7CEF
  8
DEFPOINTS
  6
CONTINUOUS
 62
     0
 10
1064.7410179999999
 20
6249.3224099999998
 30
0.0
  0
POINT
  5
7CF0
  8
DEFPOINTS
  6
CONTINUOUS
 62
     0
 10
2854.7410180000002
 20
6249.3224099999998
 30
0.0
  0
POINT
  5
7CF1
  8
DEFPOINTS
  6
CONTINUOUS
 62
     0
 10
2854.7410180000002
 20
6469.016290999999
 30
0.0
  0
ENDBLK
  5
7BE9
  8
0
  0
BLOCK
  8
0
  2
*D15
 70
     1
 10
0.0
 20
0.0
 30
0.0
  3
*D15
  1

  0
LINE
  5
7CF2
  8
3
  6
CONTINUOUS
 62
     0
 10
2869.7410180000002
 20
6249.3224099999998
 30
0.0
 11
3165.3550100000011
 21
6249.3224099999998
 31
0.0
  0
LINE
  5
7CF3
  8
3
  6
CONTINUOUS
 62
     0
 10
2869.7410180000002
 20
5429.3224099999998
 30
0.0
 11
3165.3550100000011
 21
5429.3224099999998
 31
0.0
  0
LINE
  5
7CF4
  8
3
  6
CONTINUOUS
 62
     0
 10
3135.3550100000011
 20
6189.3224099999989
 30
0.0
 11
3135.3550100000011
 21
5489.3224099999989
 31
0.0
  0
INSERT
  5
7CF5
  8
3
  6
CONTINUOUS
 62
     0
  2
_OPEN
 10
3135.3550100000011
 20
6249.3224099999998
 30
0.0
 41
60.0
 42
60.0
 43
60.0
 50
90.0
  0
INSERT
  5
7CF6
  8
3
  6
CONTINUOUS
 62
     0
  2
_OPEN
 10
3135.3550100000011
 20
5429.3224099999998
 30
0.0
 41
60.0
 42
60.0
 43
60.0
 50
270.0
  0
TEXT
  8
3
  40
90
  5
7D1A
  62
0
  72
0
  71
0
 10
2880.36
 20
5687.42
 30
0.000000
  1
820
  0
POINT
  5
7CF8
  8
DEFPOINTS
  6
CONTINUOUS
 62
     0
 10
2854.7410180000002
 20
6249.3224099999998
 30
0.0
  0
POINT
  5
7CF9
  8
DEFPOINTS
  6
CONTINUOUS
 62
     0
 10
2854.7410180000002
 20
5429.3224099999998
 30
0.0
  0
POINT
  5
7CFA
  8
DEFPOINTS
  6
CONTINUOUS
 62
     0
 10
3135.3550100000011
 20
5429.3224099999998
 30
0.0
  0
ENDBLK
  5
7BB4
  8
0
  0
BLOCK
  8
0
  2
*D16
 70
     1
 10
0.0
 20
0.0
 30
0.0
  3
*D16
  1

  0
LINE
  5
7CFB
  8
3
  6
CONTINUOUS
 62
     0
 10
1600.7367919999999
 20
3219.675346
 30
0.0
 11
1600.7367919999999
 21
4196.6508620000004
 31
0.0
  0
LINE
  5
7CFC
  8
3
  6
CONTINUOUS
 62
     0
 10
2204.7410180000002
 20
4166.6508620000004
 30
0.0
 11
1660.736791999999
 21
4166.6508620000004
 31
0.0
  0
INSERT
  5
7CFD
  8
3
  6
CONTINUOUS
 62
     0
  2
_OPEN
 10
2264.7410180000002
 20
4166.6508620000004
 30
0.0
 41
60.0
 42
60.0
 43
60.0
  0
INSERT
  5
7CFE
  8
3
  6
CONTINUOUS
 62
     0
  2
_OPEN
 10
1600.7367919999999
 20
4166.6508620000004
 30
0.0
 41
60.0
 42
60.0
 43
60.0
 50
180.0
  0
TEXT
  8
3
  40
90
  5
7D1B
  62
0
  72
0
  71
0
 10
1752.74
 20
4082.35
 30
0.000000
  1
664
  0
POINT
  5
7D00
  8
DEFPOINTS
  6
CONTINUOUS
 62
     0
 10
2264.7410180000002
 20
4096.5440979999994
 30
0.0
  0
POINT
  5
7D01
  8
DEFPOINTS
  6
CONTINUOUS
 62
     0
 10
1600.7367919999999
 20
3204.675346
 30
0.0
  0
POINT
  5
7D02
  8
DEFPOINTS
  6
CONTINUOUS
 62
     0
 10
1600.7367919999999
 20
4166.6508620000004
 30
0.0
  0
ENDBLK
  5
7BDD
  8
0
  0
BLOCK
  8
0
  2
*D17
 70
     1
 10
0.0
 20
0.0
 30
0.0
  3
*D17
  1

  0
LINE
  5
7D03
  8
3
 62
     0
 10
2859.7410180000002
 20
4049.175346
 30
0.0
 11
2859.7410180000002
 21
4392.2690965282891
 31
0.0
  0
LINE
  5
7D04
  8
3
 62
     0
 10
1064.7410179999999
 20
2624.675346
 30
0.0
 11
1064.7410179999999
 21
4392.2690965282891
 31
0.0
  0
LINE
  5
7D05
  8
3
 62
     0
 10
2799.7410180000002
 20
4362.2690965282891
 30
0.0
 11
1124.741017999999
 21
4362.2690965282891
 31
0.0
  0
INSERT
  5
7D06
  8
3
 62
     0
  2
_OPEN
 10
2859.7410180000002
 20
4362.2690965282891
 30
0.0
 41
60.0
 42
60.0
 43
60.0
  0
INSERT
  5
7D07
  8
3
 62
     0
  2
_OPEN
 10
1064.7410179999999
 20
4362.2690965282891
 30
0.0
 41
60.0
 42
60.0
 43
60.0
 50
180.0
  0
TEXT
  8
3
  40
90
  5
7D1C
  62
0
  72
0
  71
0
 10
1813.49
 20
4277.97
 30
0.000000
  1
1795
  0
POINT
  5
7D09
  8
DEFPOINTS
 62
     0
 10
2859.7410180000002
 20
4034.175346
 30
0.0
  0
POINT
  5
7D0A
  8
DEFPOINTS
 62
     0
 10
1064.7410179999999
 20
2609.675346
 30
0.0
  0
POINT
  5
7D0B
  8
DEFPOINTS
 62
     0
 10
1064.7410179999999
 20
4362.2690965282891
 30
0.0
  0
ENDBLK
  5
7C55
  8
0
  0
ENDSEC
  0
SECTION
  2
ENTITIES
  0
LINE
  5
7A60
  8
1
  6
CONTINUOUS
 10
5185.9763759999996
 20
2609.675346
 30
0.0
 11
4223.9763759999987
 21
2609.675346
 31
0.0
  0
LINE
  5
7A61
  8
1
  6
CONTINUOUS
 10
4373.9763759999987
 20
3859.675346
 30
0.0
 11
4223.9763759999987
 21
3859.675346
 31
0.0
  0
ARC
  5
7A62
  8
1
  6
CONTINUOUS
 10
2316.7410180000002
 20
3256.675346
 30
0.0
 40
717.88999999999987
 50
94.150000000000006
 51
184.75999999999991
  0
ARC
  5
7A63
  8
1
  6
CONTINUOUS
 10
2220.7410180000002
 20
3248.675346
 30
0.0
 40
621.54999999999995
 50
184.75999999999991
 51
276.5
  0
LINE
  5
7A64
  8
1
  6
CONTINUOUS
 10
2854.7410180000002
 20
2609.675346
 30
0.0
 11
1064.7410179999999
 21
2609.675346
 31
0.0
  0
LINE
  5
7A66
  8
1
  6
CONTINUOUS
 10
2854.7410180000002
 20
2509.675346
 30
0.0
 11
1064.7410179999999
 21
2509.675346
 31
0.0
  0
LINE
  5
7A68
  8
1
  6
CONTINUOUS
 10
2114.7410180000002
 20
3859.675346
 30
0.0
 11
1204.741017999999
 21
2909.675346
 31
0.0
  0
LINE
  5
7A69
  8
1
  6
CONTINUOUS
 10
2161.9610179999991
 20
3376.2453460000002
 30
0.0
 11
1323.571017999999
 21
2874.0153460000001
 31
0.0
  0
LINE
  5
7A6A
  8
1
  6
CONTINUOUS
 10
2321.0310180000001
 20
3012.7553459999999
 30
0.0
 11
1383.221018
 21
2737.7053460000002
 31
0.0
  0
ARC
  5
7A6C
  8
1
  6
CONTINUOUS
 10
1362.121018
 20
2809.675346
 30
0.0
 40
162.0
 50
324.97000000000003
 51
215.02999999999989
  0
LINE
  5
7A6D
  8
1
  6
CONTINUOUS
 10
1208.121018
 20
2609.675346
 30
0.0
 11
1516.121018
 21
2609.675346
 31
0.0
  0
CIRCLE
  5
7A6E
  8
1
  6
CONTINUOUS
 10
1362.121018
 20
2809.675346
 30
0.0
 40
75.0
  0
LINE
  5
7A6F
  8
2
  6
CENTER
 10
1287.121018
 20
2809.675346
 30
0.0
 11
1437.121018
 21
2809.675346
 31
0.0
  0
LINE
  5
7A70
  8
1
  6
CONTINUOUS
 10
1064.7410179999999
 20
2609.675346
 30
0.0
 11
1064.7410179999999
 21
2509.675346
 31
0.0
  0
LINE
  5
7A71
  8
1
  6
CONTINUOUS
 10
1208.121018
 20
2609.675346
 30
0.0
 11
1208.121018
 21
2667.675346
 31
0.0
  0
LINE
  5
7A72
  8
1
  6
CONTINUOUS
 10
1208.121018
 20
2667.675346
 30
0.0
 11
1229.461018
 21
2716.695346
 31
0.0
  0
LINE
  5
7A73
  8
1
  6
CONTINUOUS
 10
1204.741017999999
 20
2909.675346
 30
0.0
 11
1204.741017999999
 21
2609.675346
 31
0.0
  0
LINE
  5
7A74
  8
2
  6
CENTER
 10
1362.121018
 20
2734.675346
 30
0.0
 11
1362.121018
 21
2884.675346
 31
0.0
  0
LINE
  5
7A75
  8
1
  6
CONTINUOUS
 10
1516.121018
 20
2667.675346
 30
0.0
 11
1494.771017999999
 21
2716.695346
 31
0.0
  0
LINE
  5
7A76
  8
1
  6
CONTINUOUS
 10
1516.121018
 20
2609.675346
 30
0.0
 11
1516.121018
 21
2667.675346
 31
0.0
  0
LINE
  5
7A77
  8
1
  6
CONTINUOUS
 10
2859.7410180000002
 20
3991.675346
 30
0.0
 11
2264.7410180000002
 21
3972.6753459999991
 31
0.0
  0
ARC
  5
7A78
  8
1
  6
CONTINUOUS
 10
2229.7410180000002
 20
3169.675346
 30
0.0
 40
542.03999999999985
 50
276.5
 51
359.67999999999989
  0
LINE
  5
7A79
  8
2
  6
CENTER
 10
2264.7410180000002
 20
6397.8498030000001
 30
0.0
 11
2264.7410180000002
 21
5168.1812190000001
 31
0.0
  0
CIRCLE
  5
7A7B
  8
1
  6
CONTINUOUS
 10
2264.7410180000002
 20
3204.675346
 30
0.0
 40
200.0
  0
LINE
  5
7A7C
  8
1
  6
CONTINUOUS
 10
2684.7410180000002
 20
2609.675346
 30
0.0
 11
2684.7410180000002
 21
3859.675346
 31
0.0
  0
LINE
  5
7A7D
  8
2
  6
CENTER
 10
5216.028789
 20
3204.675346
 30
0.0
 11
4123.726161999999
 21
3204.675346
 31
0.0
  0
LINE
  5
7A7E
  8
1
  6
CONTINUOUS
 10
2684.7410180000002
 20
3859.675346
 30
0.0
 11
2114.7410180000002
 21
3859.675346
 31
0.0
  0
LINE
  5
7A80
  8
1
  6
CONTINUOUS
 10
4223.9763759999987
 20
3859.675346
 30
0.0
 11
4223.9763759999987
 21
2609.675346
 31
0.0
  0
LINE
  5
7A81
  8
1
  6
CONTINUOUS
 10
2854.7410180000002
 20
2609.675346
 30
0.0
 11
2854.7410180000002
 21
2509.675346
 31
0.0
  0
LINE
  5
7A82
  8
1
  6
CONTINUOUS
 10
2859.7410180000002
 20
3124.175346
 30
0.0
 11
2859.7410180000002
 21
4034.175346
 31
0.0
  0
LINE
  5
7A83
  8
1
  6
CONTINUOUS
 10
2819.7410180000002
 20
3166.6753459999991
 30
0.0
 11
2819.7410180000002
 21
3991.675346
 31
0.0
  0
LINE
  5
7A84
  8
1
  6
CONTINUOUS
 10
2771.7710179999999
 20
3166.6753459999991
 30
0.0
 11
2859.7410180000002
 21
3166.6753459999991
 31
0.0
  0
LINE
  5
7A85
  8
1
  6
CONTINUOUS
 10
5185.9763759999996
 20
2509.675346
 30
0.0
 11
4365.9763759999987
 21
2509.675346
 31
0.0
  0
LINE
  5
7A86
  8
1
  6
CONTINUOUS
 10
4483.9763759999996
 20
3991.675346
 30
0.0
 11
4483.9763759999996
 21
2609.675346
 31
0.0
  0
LINE
  5
7A87
  8
1
  6
CONTINUOUS
 10
5083.9763759999987
 20
3991.675346
 30
0.0
 11
5083.9763759999987
 21
2609.675346
 31
0.0
  0
LINE
  5
7A88
  8
1
  6
CONTINUOUS
 10
4373.9763759999987
 20
3859.675346
 30
0.0
 11
4373.9763759999987
 21
2609.675346
 31
0.0
  0
LINE
  5
7A89
  8
1
  6
CONTINUOUS
 10
4263.9763759999987
 20
3404.6753459999991
 30
0.0
 11
4263.9763759999987
 21
3004.675346
 31
0.0
  0
LINE
  5
7A8A
  8
1
  6
CONTINUOUS
 10
4333.9763759999987
 20
3404.6753459999991
 30
0.0
 11
4333.9763759999987
 21
3004.675346
 31
0.0
  0
LINE
  5
7A8B
  8
1
  6
CONTINUOUS
 10
4333.9763759999987
 20
2830.6753459999991
 30
0.0
 11
4483.9763759999996
 21
2830.6753459999991
 31
0.0
  0
LINE
  5
7A8C
  8
1
  6
CONTINUOUS
 10
4333.9763759999987
 20
2788.675346
 30
0.0
 11
4483.9763759999996
 21
2788.675346
 31
0.0
  0
LINE
  5
7A8D
  8
1
  6
CONTINUOUS
 10
4365.9763759999987
 20
2609.675346
 30
0.0
 11
4365.9763759999987
 21
2509.675346
 31
0.0
  0
LINE
  5
7A8E
  8
1
  6
CONTINUOUS
 10
4263.9763759999987
 20
3004.675346
 30
0.0
 11
4333.9763759999987
 21
3004.675346
 31
0.0
  0
LINE
  5
7A8F
  8
1
  6
CONTINUOUS
 10
4263.9763759999987
 20
2884.675346
 30
0.0
 11
4333.9763759999987
 21
2884.675346
 31
0.0
  0
LINE
  5
7A90
  8
1
  6
CONTINUOUS
 10
4263.9763759999987
 20
2734.675346
 30
0.0
 11
4333.9763759999987
 21
2734.675346
 31
0.0
  0
LINE
  5
7A91
  8
1
  6
CONTINUOUS
 10
4263.9763759999987
 20
2884.675346
 30
0.0
 11
4263.9763759999987
 21
2734.675346
 31
0.0
  0
LINE
  5
7A92
  8
1
  6
CONTINUOUS
 10
4333.9763759999987
 20
2884.675346
 30
0.0
 11
4333.9763759999987
 21
2734.675346
 31
0.0
  0
LINE
  5
7A93
  8
1
  6
CONTINUOUS
 10
4483.9763759999996
 20
3991.675346
 30
0.0
 11
5083.9763759999987
 21
3991.675346
 31
0.0
  0
LINE
  5
7A94
  8
1
  6
CONTINUOUS
 10
4483.9763759999996
 20
3166.6753459999991
 30
0.0
 11
5083.9763759999987
 21
3166.6753459999991
 31
0.0
  0
LINE
  5
7A95
  8
1
  6
CONTINUOUS
 10
5083.9763759999987
 20
3166.6753459999991
 30
0.0
 11
4483.9763759999996
 21
3991.675346
 31
0.0
  0
LINE
  5
7A96
  8
1
  6
CONTINUOUS
 10
4483.9763759999996
 20
3166.6753459999991
 30
0.0
 11
5083.9763759999987
 21
3991.675346
 31
0.0
  0
LINE
  5
7A97
  8
1
  6
CONTINUOUS
 10
4483.9763759999996
 20
3225.675346
 30
0.0
 11
4333.9763759999987
 21
3225.675346
 31
0.0
  0
LINE
  5
7A98
  8
1
  6
CONTINUOUS
 10
4483.9763759999996
 20
3183.675346
 30
0.0
 11
4333.9763759999987
 21
3183.675346
 31
0.0
  0
LINE
  5
7A99
  8
1
  6
CONTINUOUS
 10
4263.9763759999987
 20
3404.6753459999991
 30
0.0
 11
4333.9763759999987
 21
3404.6753459999991
 31
0.0
  0
LINE
  5
7A9A
  8
1
  6
CONTINUOUS
 10
5185.9763759999996
 20
2609.675346
 30
0.0
 11
5185.9763759999996
 21
2509.675346
 31
0.0
  0
LINE
  5
7A9B
  8
1
  6
CONTINUOUS
 10
1383.121018
 20
5429.3224099999998
 30
0.0
 11
2243.7410180000002
 21
5429.3224099999998
 31
0.0
  0
LINE
  5
7A9C
  8
1
  6
CONTINUOUS
 10
1064.7410179999999
 20
6249.3224099999998
 30
0.0
 11
2854.7410180000002
 21
6249.3224099999998
 31
0.0
  0
LINE
  5
7A9D
  8
1
  6
CONTINUOUS
 10
1598.8510180000001
 20
6147.3224099999998
 30
0.0
 11
2859.7410180000002
 21
6147.3224099999998
 31
0.0
  0
LINE
  5
7A9E
  8
1
  6
CONTINUOUS
 10
1598.8510180000001
 20
5547.3224099999989
 30
0.0
 11
2859.7410180000002
 21
5547.3224099999989
 31
0.0
  0
LINE
  5
7A9F
  8
1
  6
CONTINUOUS
 10
1204.741017999999
 20
5287.3224099999998
 30
0.0
 11
2684.7410180000002
 21
5287.3224099999998
 31
0.0
  0
LINE
  5
7AA0
  8
1
  6
CONTINUOUS
 10
1204.741017999999
 20
5437.3224099999998
 30
0.0
 11
2684.7410180000002
 21
5437.3224099999998
 31
0.0
  0
LINE
  5
7AA1
  8
1
  6
CONTINUOUS
 10
1064.7410179999999
 20
6249.3224099999998
 30
0.0
 11
1064.7410179999999
 21
5429.3224099999998
 31
0.0
  0
LINE
  5
7AA2
  8
1
  6
CONTINUOUS
 10
1524.121018
 20
5485.3224099999998
 30
0.0
 11
1524.121018
 21
5970.3224099999998
 31
0.0
  0
LINE
  5
7AA3
  8
1
  6
CONTINUOUS
 10
1200.121018
 20
5485.3224099999998
 30
0.0
 11
1200.121018
 21
5970.3224099999998
 31
0.0
  0
LINE
  5
7AA4
  8
1
  6
CONTINUOUS
 10
1598.8510180000001
 20
5547.3224099999989
 30
0.0
 11
1598.8510180000001
 21
6147.3224099999998
 31
0.0
  0
LINE
  5
7AA5
  8
1
  6
CONTINUOUS
 10
1200.121018
 20
5485.3224099999998
 30
0.0
 11
1524.121018
 21
5485.3224099999998
 31
0.0
  0
LINE
  5
7AA6
  8
1
  6
CONTINUOUS
 10
1437.121018
 20
5397.3224099999998
 30
0.0
 11
1287.121018
 21
5397.3224099999998
 31
0.0
  0
LINE
  5
7AA7
  8
1
  6
CONTINUOUS
 10
1437.121018
 20
5327.3224099999998
 30
0.0
 11
1287.121018
 21
5327.3224099999998
 31
0.0
  0
LINE
  5
7AA8
  8
1
  6
CONTINUOUS
 10
1064.7410179999999
 20
5429.3224099999998
 30
0.0
 11
1341.121018
 21
5429.3224099999998
 31
0.0
  0
LINE
  5
7AA9
  8
1
  6
CONTINUOUS
 10
1383.121018
 20
5397.3224099999998
 30
0.0
 11
1383.121018
 21
5485.3224099999998
 31
0.0
  0
LINE
  5
7AAA
  8
1
  6
CONTINUOUS
 10
1341.121018
 20
5397.3224099999998
 30
0.0
 11
1341.121018
 21
5485.3224099999998
 31
0.0
  0
LINE
  5
7AAB
  8
1
  6
CONTINUOUS
 10
1204.741017999999
 20
5437.3224099999998
 30
0.0
 11
1204.741017999999
 21
5287.3224099999998
 31
0.0
  0
LINE
  5
7AAC
  8
1
  6
CONTINUOUS
 10
1287.121018
 20
5327.3224099999998
 30
0.0
 11
1287.121018
 21
5397.3224099999998
 31
0.0
  0
LINE
  5
7AAD
  8
1
  6
CONTINUOUS
 10
1437.121018
 20
5327.3224099999998
 30
0.0
 11
1437.121018
 21
5397.3224099999998
 31
0.0
  0
LINE
  5
7AAE
  8
1
  6
CONTINUOUS
 10
1200.121018
 20
5970.3224099999998
 30
0.0
 11
1524.121018
 21
5970.3224099999998
 31
0.0
  0
LINE
  5
7AAF
  8
1
  6
CONTINUOUS
 10
2285.7410180000002
 20
5429.3224099999998
 30
0.0
 11
2854.7410180000002
 21
5429.3224099999998
 31
0.0
  0
LINE
  5
7AB0
  8
1
  6
CONTINUOUS
 10
2464.7410180000002
 20
5397.3224099999998
 30
0.0
 11
2064.7410180000002
 21
5397.3224099999998
 31
0.0
  0
LINE
  5
7AB1
  8
1
  6
CONTINUOUS
 10
2464.7410180000002
 20
5327.3224099999998
 30
0.0
 11
2064.7410180000002
 21
5327.3224099999998
 31
0.0
  0
LINE
  5
7AB2
  8
1
  6
CONTINUOUS
 10
2064.7410180000002
 20
5327.3224099999998
 30
0.0
 11
2064.7410180000002
 21
5397.3224099999998
 31
0.0
  0
LINE
  5
7AB3
  8
1
  6
CONTINUOUS
 10
2243.7410180000002
 20
5397.3224099999998
 30
0.0
 11
2243.7410180000002
 21
5547.3224099999989
 31
0.0
  0
LINE
  5
7AB4
  8
1
  6
CONTINUOUS
 10
2464.7410180000002
 20
5327.3224099999998
 30
0.0
 11
2464.7410180000002
 21
5397.3224099999998
 31
0.0
  0
LINE
  5
7AB5
  8
1
  6
CONTINUOUS
 10
2285.7410180000002
 20
5397.3224099999998
 30
0.0
 11
2285.7410180000002
 21
5547.3224099999989
 31
0.0
  0
LINE
  5
7AB6
  8
1
  6
CONTINUOUS
 10
2684.7410180000002
 20
5287.3224099999998
 30
0.0
 11
2684.7410180000002
 21
5437.3224099999998
 31
0.0
  0
LINE
  5
7AB7
  8
1
  6
CONTINUOUS
 10
2859.7410180000002
 20
5505.3224099999998
 30
0.0
 11
2859.7410180000002
 21
6189.3224099999989
 31
0.0
  0
LINE
  5
7AB8
  8
1
  6
CONTINUOUS
 10
2854.7410180000002
 20
5547.3224099999989
 30
0.0
 11
2854.7410180000002
 21
5429.3224099999998
 31
0.0
  0
LINE
  5
7AB9
  8
1
  6
CONTINUOUS
 10
2854.7410180000002
 20
6249.3224099999998
 30
0.0
 11
2854.7410180000002
 21
6147.3224099999998
 31
0.0
  0
LINE
  5
7ABA
  8
2
  6
CENTER
 10
4783.9763759999996
 20
4130.4310429999987
 30
0.0
 11
4783.9763759999996
 21
2362.6637959999998
 31
0.0
  0
LINE
  5
7ABB
  8
2
  6
CENTER
 10
962.82670399999984
 20
5847.3224099999998
 30
0.0
 11
2965.252786
 21
5847.3224099999998
 31
0.0
  0
LINE
  5
7ABC
  8
2
  6
CENTER
 10
2264.7410180000002
 20
4096.5440979999994
 30
0.0
 11
2264.7410180000002
 21
2396.7493039999999
 31
0.0
  0
LINE
  5
7ABD
  8
2
  6
CENTER
 10
2992.9060209999998
 20
3204.675346
 30
0.0
 11
1221.3174670000001
 21
3204.675346
 31
0.0
  0
LINE
  5
7ABE
  8
4
  6
CONTINUOUS
 10
5550.0
 20
1500.0
 30
0.0
 11
5550.0
 21
900.0
 31
0.0
  0
LINE
  5
7ABF
  8
4
  6
CONTINUOUS
 10
3450.0
 20
1500.0
 30
0.0
 11
3450.0
 21
900.0
 31
0.0
  0
LINE
  5
7AC0
  8
4
  6
CONTINUOUS
 10
1950.0
 20
1500.0
 30
0.0
 11
1950.0
 21
900.0
 31
0.0
  0
LINE
  5
7AC3
  8
4
  6
CONTINUOUS
 10
1950.0
 20
900.0
 30
0.0
 11
5550.0
 21
900.0
 31
0.0
  0
LINE
  5
7AC4
  8
4
  6
CONTINUOUS
 10
1950.0
 20
1200.0
 30
0.0
 11
5550.0
 21
1200.0
 31
0.0
  0
TEXT
  5
7AC5
  8
4
  6
CONTINUOUS
 10
2065.5062429999989
 20
1294.6290779999999
 30
0.0
 40
150.0
  1
機器名称
  0
TEXT
  5
7AC6
  8
4
  6
CONTINUOUS
 10
2058.7743179999989
 20
964.9354699999999
 30
0.0
 40
150.0
  1
機器型番
  0
TEXT
  5
7AC7
  8
4
  6
CONTINUOUS
 10
3533.0362359999999
 20
1267.7153069999999
 30
0.0
 40
150.0
  1
ミツヤ多翼送風機
  0
TEXT
  5
7AC8
  8
4
  6
CONTINUOUS
 10
3559.9634869999991
 20
951.47875299999987
 30
0.0
 40
150.0
  1
MF#5-4
  0
TEXT
  5
7ACA
  8
4
  6
CONTINUOUS
 10
2389.0724489999989
 20
7150.2865239999992
 30
0.0
 40
162.0
  1
天井吊ベット
  0
TEXT
  5
7ACB
  8
4
  6
CONTINUOUS
 10
948.50278000000014
 20
7601.6429289999996
 30
0.0
 40
216.0
  1
ベルト駆動式片吸込両持多翼ファン
  0
LINE
  5
7ACC
  8
4
  6
CONTINUOUS
 10
750.0
 20
7408.2262629999996
 30
0.0
 11
5550.0
 21
7408.2262629999996
 31
0.0
  0
LINE
  5
7ACD
  8
4
  6
CONTINUOUS
 10
750.0
 20
8008.2262629999996
 30
0.0
 11
5550.0
 21
8008.2262629999996
 31
0.0
  0
LINE
  5
7ACE
  8
4
  6
CONTINUOUS
 10
1950.0
 20
1500.0
 30
0.0
 11
5550.0
 21
1500.0
 31
0.0
  0
LINE
  5
7ACF
  8
4
  6
CONTINUOUS
 10
750.0
 20
8008.2262629999996
 30
0.0
 11
750.0
 21
7408.2262629999996
 31
0.0
  0
TEXT
  5
7AD0
  8
4
  6
CONTINUOUS
 10
1081.495952
 20
7146.9584329999998
 30
0.0
 40
162.0
  1
右回転右横向
  0
TEXT
  5
7AD1
  8
4
  6
CONTINUOUS
 10
4406.9086779999989
 20
8118.1832439999989
 30
0.0
 40
168.0
  1
No.
  0
TEXT
  5
7AD2
  8
4
  6
CONTINUOUS
 10
3933.8881879999999
 20
7150.2865239999992
 30
0.0
 40
162.0
  1
縮尺：1/30
  0
LINE
  5
7AD3
  8
4
  6
CONTINUOUS
 10
5550.0
 20
8008.2262629999996
 30
0.0
 11
5550.0
 21
7408.2262629999996
 31
0.0
  0
LINE
  5
7AD5
  8
4
  6
CONTINUOUS
 10
4321.8522670000002
 20
8043.7907490000007
 30
0.0
 11
4321.8522670000002
 21
8359.9567849999985
 31
0.0
  0
LINE
  5
7AD6
  8
4
  6
CONTINUOUS
 10
4321.8522670000002
 20
8359.9567849999985
 30
0.0
 11
5550.0
 21
8359.9567849999985
 31
0.0
  0
LINE
  5
7AD7
  8
4
  6
CONTINUOUS
 10
5550.0
 20
8359.9567849999985
 30
0.0
 11
5550.0
 21
8043.7907490000007
 31
0.0
  0
LINE
  5
7AD8
  8
4
  6
CONTINUOUS
 10
5550.0
 20
8043.7907490000007
 30
0.0
 11
4321.8522670000002
 21
8043.7907490000007
 31
0.0
  0
DIMENSION
  5
7AF0
  8
3
  6
CONTINUOUS
  2
*D1
 10
3098.2008879999998
 20
3166.6753459999991
 30
0.0
 11
3098.2008879999998
 21
3603.5589259999988
 31
0.0
 70
   128
 13
2859.7410180000002
 23
3991.675346
 33
0.0
 14
2859.7410180000002
 24
3166.6753459999991
 34
0.0
 50
90.0
1001
ACAD
1000
DSTYLE
1002
{
1070
   287
1070
     3
1070
    40
1040
30.0
1070
   143
1040
0.039
1070
   172
1070
     1
1070
   271
1070
     0
1070
   279
1070
     0
1070
   288
1070
     1
1002
}
  0
DIMENSION
  5
7AFD
  8
3
  6
CONTINUOUS
  2
*D2
 10
3321.125621000001
 20
3204.675346
 30
0.0
 11
3321.1256210000001
 21
3584.9954409999991
 31
0.0
 70
   128
 13
2859.7410180000002
 23
3991.675346
 33
0.0
 14
2992.9060209999998
 24
3204.675346
 34
0.0
 50
90.0
1001
ACAD
1000
DSTYLE
1002
{
1070
   287
1070
     3
1070
    40
1040
30.0
1070
   143
1040
0.039
1070
   172
1070
     1
1070
   271
1070
     0
1070
   279
1070
     0
1070
   288
1070
     1
1002
}
  0
DIMENSION
  5
7B09
  8
3
  6
CONTINUOUS
  2
*D3
 10
3321.1256210000001
 20
2509.6753459999991
 30
0.0
 11
3246.1256209999988
 21
2857.175346
 31
0.0
 70
     0
 13
2992.9060209999998
 23
3204.675346
 33
0.0
 14
2854.7410180000002
 24
2509.675346
 34
0.0
 50
90.0
1001
ACAD
1000
DSTYLE
1002
{
1070
   287
1070
     4
1070
    40
1040
30.0
1070
    75
1070
     1
1070
   143
1040
0.039
1070
   172
1070
     1
1070
   271
1070
     0
1070
   279
1070
     1
1070
   288
1070
     1
1002
}
  0
DIMENSION
  5
7B16
  8
3
  6
CONTINUOUS
  2
*D4
 10
3556.4350390000009
 20
2509.6753459999991
 30
0.0
 11
3556.435039
 21
3232.289491
 31
0.0
 70
   128
 13
2859.7410180000002
 23
4034.175346
 33
0.0
 14
2854.7410180000002
 24
2509.675346
 34
0.0
 50
90.0
1001
ACAD
1000
DSTYLE
1002
{
1070
   287
1070
     3
1070
    40
1040
30.0
1070
   143
1040
0.039
1070
   172
1070
     1
1070
   271
1070
     0
1070
   279
1070
     0
1070
   288
1070
     1
1002
}
  0
DIMENSION
  5
7B23
  8
3
  6
CONTINUOUS
  2
*D5
 10
2264.7410180000002
 20
2279.3646559999988
 30
0.0
 11
1698.7289989999999
 21
2279.3646559999988
 31
0.0
 70
   128
 13
1064.7410179999999
 23
2509.675346
 33
0.0
 14
2264.7410180000002
 24
2396.7493039999999
 34
0.0
1001
ACAD
1000
DSTYLE
1002
{
1070
   287
1070
     3
1070
    40
1040
30.0
1070
   143
1040
0.039
1070
   172
1070
     1
1070
   271
1070
     0
1070
   279
1070
     0
1070
   288
1070
     1
1002
}
  0
DIMENSION
  5
7B2F
  8
3
  6
CONTINUOUS
  2
*D6
 10
2854.7410180000002
 20
2279.3646559999988
 30
0.0
 11
2559.7410180000002
 21
2354.3646560000002
 31
0.0
 70
     0
 13
2264.7410180000002
 23
2396.7493039999999
 33
0.0
 14
2854.7410180000002
 24
2509.675346
 34
0.0
1001
ACAD
1000
DSTYLE
1002
{
1070
   287
1070
     4
1070
    40
1040
30.0
1070
    75
1070
     1
1070
   143
1040
0.039
1070
   172
1070
     1
1070
   271
1070
     0
1070
   279
1070
     1
1070
   288
1070
     1
1002
}
  0
DIMENSION
  5
7B3C
  8
3
  6
CONTINUOUS
  2
*D7
 10
2264.7410180000002
 20
4166.6508620000004
 30
0.0
 11
2565.6584929999999
 21
4166.6508620000004
 31
0.0
 70
   128
 13
2859.7410180000002
 23
4034.175346
 33
0.0
 14
2264.7410180000002
 24
4096.5440979999994
 34
0.0
1001
ACAD
1000
DSTYLE
1002
{
1070
   287
1070
     3
1070
    40
1040
30.0
1070
   143
1040
0.039
1070
   172
1070
     1
1070
   271
1070
     0
1070
   279
1070
     0
1070
   288
1070
     1
1002
}
  0
DIMENSION
  5
7B55
  8
3
  6
CONTINUOUS
  2
*D8
 10
5083.9763759999987
 20
4117.1482829999986
 30
0.0
 11
4776.3286930000004
 21
4117.1482829999986
 31
0.0
 70
   128
 13
4483.9763759999996
 23
3991.675346
 33
0.0
 14
5083.9763759999987
 24
3991.675346
 34
0.0
1001
ACAD
1000
DSTYLE
1002
{
1070
   287
1070
     3
1070
    40
1040
30.0
1070
   143
1040
0.039
1070
   172
1070
     1
1070
   271
1070
     0
1070
   279
1070
     0
1070
   288
1070
     1
1002
}
  0
LINE
  5
7B56
  8
1
  6
CONTINUOUS
 10
5087.9763759999996
 20
3629.6753459999991
 30
0.0
 11
5087.9763759999996
 21
2779.675346
 31
0.0
  0
DIMENSION
  5
7B67
  8
3
  6
CONTINUOUS
  2
*D9
 10
4783.9763759999996
 20
4308.9708049999999
 30
0.0
 11
4935.9763759999996
 21
4391.878733467066
 31
0.0
 70
   128
 13
5087.9763759999996
 23
3629.6753459999991
 33
0.0
 14
4783.9763759999996
 24
4262.6452820000004
 34
0.0
1001
ACAD
1000
DSTYLE
1002
{
1070
   288
1070
     1
1070
   172
1070
     1
1070
    40
1040
30.0
1070
   271
1070
     0
1070
   143
1040
0.039
1002
}
  0
DIMENSION
  5
7B73
  8
3
  6
CONTINUOUS
  2
*D10
 10
4223.9763759999987
 20
4308.9708049999999
 30
0.0
 11
4503.9763759999987
 21
4458.970804999999
 31
0.0
 70
     0
  1
MAX\P610
 13
4783.9763759999996
 23
4262.6452820000004
 33
0.0
 14
4223.9763759999987
 24
3859.675346
 34
0.0
1001
ACAD
1000
DSTYLE
1002
{
1070
   287
1070
     4
1070
    40
1040
30.0
1070
    75
1070
     1
1070
   143
1040
0.039
1070
   172
1070
     1
1070
   271
1070
     0
1070
   279
1070
     1
1070
   288
1070
     1
1002
}
  0
DIMENSION
  5
7B80
  8
3
  6
CONTINUOUS
  2
*D11
 10
4783.9763759999996
 20
2275.853106
 30
0.0
 11
4563.1192340000007
 21
2275.853106
 31
0.0
 70
   128
 13
4365.9763759999987
 23
2509.675346
 33
0.0
 14
4783.9763759999996
 24
2362.6637959999998
 34
0.0
1001
ACAD
1000
DSTYLE
1002
{
1070
   287
1070
     3
1070
    40
1040
30.0
1070
   143
1040
0.039
1070
   172
1070
     1
1070
   271
1070
     0
1070
   279
1070
     0
1070
   288
1070
     1
1002
}
  0
DIMENSION
  5
7B8E
  8
3
  6
CONTINUOUS
  2
*D12
 10
5185.9763759999996
 20
2275.853106
 30
0.0
 11
4995.401323
 21
2275.0080939999998
 31
0.0
 70
   128
 13
4783.9763759999996
 23
2362.6637959999998
 33
0.0
 14
5185.9763759999996
 24
2509.675346
 34
0.0
1001
ACAD
1000
DSTYLE
1002
{
1070
   287
1070
     4
1070
    40
1040
30.0
1070
    75
1070
     1
1070
   143
1040
0.039
1070
   172
1070
     1
1070
   271
1070
     0
1070
   279
1070
     1
1070
   288
1070
     1
1002
}
  0
DIMENSION
  5
7B9B
  8
3
  6
CONTINUOUS
  2
*D13
 10
5370.794648000001
 20
2779.6753459999991
 30
0.0
 11
5370.7946480000001
 21
3213.7260269999988
 31
0.0
 70
   128
 13
5087.9763759999996
 23
3629.6753459999991
 33
0.0
 14
5087.9763759999996
 24
2779.675346
 34
0.0
 50
90.0
1001
ACAD
1000
DSTYLE
1002
{
1070
   287
1070
     3
1070
     3
1000
φ<>
1070
    40
1040
30.0
1070
   143
1040
0.039
1070
   172
1070
     1
1070
   271
1070
     0
1070
   279
1070
     0
1070
   288
1070
     1
1002
}
  0
DIMENSION
  5
7BA8
  8
3
  6
CONTINUOUS
  2
*D14
 10
2854.7410180000002
 20
6469.016290999999
 30
0.0
 11
1971.1925389999999
 21
6469.016290999999
 31
0.0
 70
   128
 13
1064.7410179999999
 23
6249.3224099999998
 33
0.0
 14
2854.7410180000002
 24
6249.3224099999998
 34
0.0
1001
ACAD
1000
DSTYLE
1002
{
1070
   287
1070
     3
1070
    40
1040
30.0
1070
   143
1040
0.039
1070
   172
1070
     1
1070
   271
1070
     0
1070
   279
1070
     0
1070
   288
1070
     1
1002
}
  0
DIMENSION
  5
7BB5
  8
3
  6
CONTINUOUS
  2
*D15
 10
3135.3550100000011
 20
5429.3224099999998
 30
0.0
 11
3135.3550100000002
 21
5846.7223700000013
 31
0.0
 70
   128
 13
2854.7410180000002
 23
6249.3224099999998
 33
0.0
 14
2854.7410180000002
 24
5429.3224099999998
 34
0.0
 50
90.0
1001
ACAD
1000
DSTYLE
1002
{
1070
   287
1070
     3
1070
    40
1040
30.0
1070
   143
1040
0.039
1070
   172
1070
     1
1070
   271
1070
     0
1070
   279
1070
     0
1070
   288
1070
     1
1002
}
  0
DIMENSION
  5
7BDE
  8
3
  6
CONTINUOUS
  2
*D16
 10
1600.7367919999999
 20
4166.6508620000004
 30
0.0
 11
1932.7389049999999
 21
4241.6508619999986
 31
0.0
 70
     0
 13
2264.7410180000002
 23
4096.5440979999994
 33
0.0
 14
1600.7367919999999
 24
3204.675346
 34
0.0
1001
ACAD
1000
DSTYLE
1002
{
1070
   287
1070
     4
1070
    40
1040
30.0
1070
    75
1070
     1
1070
   143
1040
0.039
1070
   172
1070
     1
1070
   271
1070
     0
1070
   279
1070
     1
1070
   288
1070
     1
1002
}
  0
DIMENSION
  5
7C56
  8
3
  2
*D17
 10
1064.7410179999999
 20
4362.2690965282891
 30
0.0
 11
1993.4887376790759
 21
4362.2690965282891
 31
0.0
 70
   128
 13
2859.7410180000002
 23
4034.175346
 33
0.0
 14
1064.7410179999999
 24
2609.675346
 34
0.0
1001
ACAD
1000
DSTYLE
1002
{
1070
   287
1070
     3
1070
    40
1040
30.0
1070
   143
1040
0.039
1070
   172
1070
     1
1070
   271
1070
     0
1070
   279
1070
     0
1070
   288
1070
     1
1002
}
  0
LINE
  5
7C6F
  8
1
  6
CONTINUOUS
 10
2764.7410180000002
 20
3609.675346
 30
0.0
 11
1764.7410179999999
 21
3609.675346
 31
0.0
  0
LINE
  5
7C70
  8
1
 10
1764.7410179999999
 20
3609.675346
 30
0.0
 11
1764.7410179999999
 21
2609.675346
 31
0.0
  0
LINE
  5
7C71
  8
1
 10
2764.7410180000002
 20
3609.675346
 30
0.0
 11
2764.7410180000002
 21
2609.675346
 31
0.0
  0
ENDSEC
  0
EOF
