  0
SECTION
  2
HEADER
  9
$ACADVER
  1
AC1009
  9
$INSBASE
 10
0.0
 20
0.0
 30
0.0
  9
$EXTMIN
 10
750.0
 20
900.0
 30
0.0
  9
$EXTMAX
 10
5550.0
 20
8359.9567849999985
 30
0.0
  9
$LIMMIN
 10
0.0
 20
0.0
  9
$LIMMAX
 10
297.0
 20
210.0
  9
$ORTHOMODE
 70
     0
  9
$REGENMODE
 70
     1
  9
$FILLMODE
 70
     0
  9
$QTEXTMODE
 70
     0
  9
$MIRRTEXT
 70
     1
  9
$DRAGMODE
 70
     2
  9
$LTSCALE
 40
100.0
  9
$OSMODE
 70
    37
  9
$ATTMODE
 70
     1
  9
$TEXTSIZE
 40
180.0
  9
$TRACEWID
 40
0.05
  9
$TEXTSTYLE
  7
STANDARD
  9
$CLAYER
  8
3
  9
$CELTYPE
  6
BYLAYER
  9
$CECOLOR
 62
   256
  9
$DIMSCALE
 40
30.0
  9
$DIMASZ
 40
2.0
  9
$DIMEXO
 40
0.5
  9
$DIMDLI
 40
10.0
  9
$DIMRND
 40
0.0
  9
$DIMDLE
 40
0.0
  9
$DIMEXE
 40
1.0
  9
$DIMTP
 40
1.0
  9
$DIMTM
 40
1.0
  9
$DIMTXT
 40
3.0
  9
$DIMCEN
 40
0.0
  9
$DIMTSZ
 40
0.0
  9
$DIMTOL
 70
     0
  9
$DIMLIM
 70
     0
  9
$DIMTIH
 70
     0
  9
$DIMTOH
 70
     0
  9
$DIMSE1
 70
     0
  9
$DIMSE2
 70
     0
  9
$DIMTAD
 70
     1
  9
$DIMZIN
 70
     8
  9
$DIMBLK
  1

  9
$DIMASO
 70
     1
  9
$DIMSHO
 70
     1
  9
$DIMPOST
  1

  9
$DIMAPOST
  1

  9
$DIMALT
 70
     0
  9
$DIMALTD
 70
     2
  9
$DIMALTF
 40
0.039
  9
$DIMLFAC
 40
1.0
  9
$DIMTOFL
 70
     1
  9
$DIMTVP
 40
0.0
  9
$DIMTIX
 70
     0
  9
$DIMSOXD
 70
     0
  9
$DIMSAH
 70
     1
  9
$DIMBLK1
  1
OPEN
  9
$DIMBLK2
  1
OPEN
  9
$DIMSTYLE
  2
IGA
  9
$DIMCLRD
 70
     0
  9
$DIMCLRE
 70
     0
  9
$DIMCLRT
 70
     0
  9
$DIMTFAC
 40
10.0
  9
$DIMGAP
 40
1.0
  9
$LUNITS
 70
     2
  9
$LUPREC
 70
     3
  9
$SKETCHINC
 40
0.1
  9
$FILLETRAD
 40
0.0
  9
$AUNITS
 70
     0
  9
$AUPREC
 70
     0
  9
$MENU
  1
acad
  9
$ELEVATION
 40
0.0
  9
$PELEVATION
 40
0.0
  9
$THICKNESS
 40
0.0
  9
$LIMCHECK
 70
     0
  9
$BLIPMODE
 70
     0
  9
$CHAMFERA
 40
0.5
  9
$CHAMFERB
 40
0.5
  9
$SKPOLY
 70
     0
  9
$TDCREATE
 40
2450746.5847943281
  9
$TDUPDATE
 40
2454953.7741719089
  9
$TDINDWG
 40
0.0152331134
  9
$TDUSRTIMER
 40
0.0152331134
  9
$USRTIMER
 70
     1
  9
$ANGBASE
 50
0.0
  9
$ANGDIR
 70
     0
  9
$PDMODE
 70
     0
  9
$PDSIZE
 40
0.0
  9
$PLINEWID
 40
0.0
  9
$COORDS
 70
     1
  9
$SPLFRAME
 70
     0
  9
$SPLINETYPE
 70
     6
  9
$SPLINESEGS
 70
     8
  9
$ATTDIA
 70
     0
  9
$ATTREQ
 70
     1
  9
$HANDLING
 70
 10241
  9
$HANDSEED
  5
7D6E
  9
$SURFTAB1
 70
     6
  9
$SURFTAB2
 70
     6
  9
$SURFTYPE
 70
     6
  9
$SURFU
 70
     6
  9
$SURFV
 70
     6
  9
$UCSNAME
  2

  9
$UCSORG
 10
0.0
 20
0.0
 30
0.0
  9
$UCSXDIR
 10
1.0
 20
0.0
 30
0.0
  9
$UCSYDIR
 10
0.0
 20
1.0
 30
0.0
  9
$PUCSNAME
  2

  9
$PUCSORG
 10
0.0
 20
0.0
 30
0.0
  9
$PUCSXDIR
 10
1.0
 20
0.0
 30
0.0
  9
$PUCSYDIR
 10
0.0
 20
1.0
 30
0.0
  9
$USERI1
 70
     0
  9
$USERI2
 70
     0
  9
$USERI3
 70
     0
  9
$USERI4
 70
     0
  9
$USERI5
 70
     0
  9
$USERR1
 40
0.0
  9
$USERR2
 40
0.0
  9
$USERR3
 40
0.0
  9
$USERR4
 40
0.0
  9
$USERR5
 40
0.0
  9
$WORLDVIEW
 70
     1
  9
$SHADEDGE
 70
     3
  9
$SHADEDIF
 70
    70
  9
$TILEMODE
 70
     1
  9
$MAXACTVP
 70
    16
  9
$PLIMCHECK
 70
     0
  9
$PEXTMIN
 10
1.0000000000000000E+020
 20
1.0000000000000000E+020
 30
1.0000000000000000E+020
  9
$PEXTMAX
 10
-1.0000000000000000E+020
 20
-1.0000000000000000E+020
 30
-1.0000000000000000E+020
  9
$PLIMMIN
 10
0.0
 20
0.0
  9
$PLIMMAX
 10
12.0
 20
9.0
  9
$UNITMODE
 70
     0
  9
$VISRETAIN
 70
     0
  9
$PLINEGEN
 70
     0
  9
$PSLTSCALE
 70
     1
  0
ENDSEC
  0
SECTION
  2
TABLES
  0
TABLE
  2
VPORT
 70
     2
  0
VPORT
  2
*ACTIVE
 70
     0
 10
0.0
 20
0.0
 11
1.0
 21
1.0
 12
9438.4567678319436
 22
4630.0975558305709
 13
0.0
 23
0.0
 14
10.0
 24
10.0
 15
10.0
 25
10.0
 16
0.0
 26
0.0
 36
1.0
 17
0.0
 27
0.0
 37
0.0
 40
7517.4747125171307
 41
3.1666666666666661
 42
50.0
 43
0.0
 44
0.0
 50
0.0
 51
0.0
 71
     0
 72
   100
 73
     1
 74
     0
 75
     0
 76
     0
 77
     0
 78
     0
  0
ENDTAB
  0
TABLE
  2
LTYPE
 70
     2
  0
LTYPE
  2
CONTINUOUS
 70
     0
  3
Solid line
 72
    65
 73
     0
 40
0.0
  0
LTYPE
  2
CENTER
 70
     0
  3
____ _ ____ _ ____ _ ____ _ ____ _ ____ _ ____ 
 72
    65
 73
     4
 40
2.0
 49
1.25
 49
-0.25
 49
0.25
 49
-0.25
  0
ENDTAB
  0
TABLE
  2
LAYER
 70
     6
  0
LAYER
  2
0
 70
     0
 62
     7
  6
CONTINUOUS
  0
LAYER
  2
3
 70
     0
 62
     2
  6
CONTINUOUS
  0
LAYER
  2
2
 70
     0
 62
     3
  6
CENTER
  0
LAYER
  2
1
 70
     0
 62
     4
  6
CONTINUOUS
  0
LAYER
  2
4
 70
     0
 62
     7
  6
CONTINUOUS
  0
LAYER
  2
DEFPOINTS
 70
     0
 62
     7
  6
CONTINUOUS
  0
ENDTAB
  0
TABLE
  2
STYLE
 70
     1
  0
STYLE
  2
STANDARD
 70
     0
 40
0.0
 41
1.0
 50
0.0
 71
     0
 42
180.0
  3
simplex.shx
  4
extfont.shx
  0
ENDTAB
  0
TABLE
  2
VIEW
 70
     0
  0
ENDTAB
  0
TABLE
  2
UCS
 70
     0
  0
ENDTAB
  0
TABLE
  2
APPID
 70
     1
  0
APPID
  2
ACAD
 70
     0
  0
ENDTAB
  0
TABLE
  2
DIMSTYLE
 70
     1
  0
DIMSTYLE
  2
IGA
 70
     0
  3

  4

  5

  6
OPEN
  7
OPEN
 40
2.0
 41
2.0
 42
0.5
 43
10.0
 44
1.0
 45
0.0
 46
0.0
 47
1.0
 48
1.0
140
3.0
141
0.0
142
0.0
143
0.03937
144
1.0
145
0.0
146
10.0
147
1.0
 71
     0
 72
     0
 73
     0
 74
     0
 75
     0
 76
     0
 77
     1
 78
     8
170
     0
171
     2
172
     0
173
     1
174
     0
175
     0
176
     0
177
     0
178
     0
  0
ENDTAB
  0
ENDSEC
  0
SECTION
  2
BLOCKS
  0
BLOCK
  8
0
  2
$MODEL_SPACE
 70
     0
 10
0.0
 20
0.0
 30
0.0
  3
$MODEL_SPACE
  1

  0
ENDBLK
  5
1B
  8
0
  0
BLOCK
 67
     1
  8
0
  2
$PAPER_SPACE
 70
     0
 10
0.0
 20
0.0
 30
0.0
  3
$PAPER_SPACE
  1

  0
ENDBLK
  5
18
 67
     1
  8
0
  0
BLOCK
  8
0
  2
_OPEN
 70
     0
 10
0.0
 20
0.0
 30
0.0
  3
_OPEN
  1

  0
LINE
  5
7ADD
  8
0
  6
BYBLOCK
 62
     0
 10
-1.0
 20
0.166667
 30
0.0
 11
0.0
 21
0.0
 31
0.0
  0
LINE
  5
7ADE
  8
0
  6
BYBLOCK
 62
     0
 10
0.0
 20
0.0
 30
0.0
 11
-1.0
 21
-0.166667
 31
0.0
  0
LINE
  5
7ADF
  8
0
  6
BYBLOCK
 62
     0
 10
0.0
 20
0.0
 30
0.0
 11
-1.0
 21
0.0
 31
0.0
  0
ENDBLK
  5
7AE0
  8
0
  0
BLOCK
  8
0
  2
*D1
 70
     1
 10
0.0
 20
0.0
 30
0.0
  3
*D1
  1

  0
LINE
  5
7CD2
  8
3
  6
CONTINUOUS
 62
     0
 10
2884.673515
 20
3415.7705409999999
 30
0.0
 11
3140.0141500000009
 21
3415.7705409999999
 31
0.0
  0
LINE
  5
7CD3
  8
3
  6
CONTINUOUS
 62
     0
 10
2884.673515
 20
2590.770540999999
 30
0.0
 11
3140.01415
 21
2590.770540999999
 31
0.0
  0
LINE
  5
7CD4
  8
3
  6
CONTINUOUS
 62
     0
 10
3110.0141500000009
 20
3355.7705409999999
 30
0.0
 11
3110.01415
 21
2650.770540999999
 31
0.0
  0
INSERT
  5
7CD5
  8
3
  6
CONTINUOUS
 62
     0
  2
_OPEN
 10
3110.0141500000009
 20
3415.7705409999999
 30
0.0
 41
60.0
 42
60.0
 43
60.0
 50
90.0
  0
INSERT
  5
7CD6
  8
3
  6
CONTINUOUS
 62
     0
  2
_OPEN
 10
3110.01415
 20
2590.770540999999
 30
0.0
 41
60.0
 42
60.0
 43
60.0
 50
270.0
  0
TEXT
  8
3
  40
90
  5
7D5D
  62
0
  72
0
  71
0
 10
2855.01
 20
2826.84
 30
0.000000
  1
825
  0
POINT
  5
7CD8
  8
DEFPOINTS
  6
CONTINUOUS
 62
     0
 10
2869.673515
 20
3415.7705409999999
 30
0.0
  0
POINT
  5
7CD9
  8
DEFPOINTS
  6
CONTINUOUS
 62
     0
 10
2869.673515
 20
2590.770540999999
 30
0.0
  0
POINT
  5
7CDA
  8
DEFPOINTS
  6
CONTINUOUS
 62
     0
 10
3110.01415
 20
2590.770540999999
 30
0.0
  0
ENDBLK
  5
7AED
  8
0
  0
BLOCK
  8
0
  2
*D2
 70
     1
 10
0.0
 20
0.0
 30
0.0
  3
*D2
  1

  0
LINE
  5
7CDB
  8
3
  6
CONTINUOUS
 62
     0
 10
2884.673515
 20
2590.770540999999
 30
0.0
 11
3336.16446
 21
2590.770540999999
 31
0.0
  0
LINE
  5
7CDC
  8
3
  6
CONTINUOUS
 62
     0
 10
3025.5196500000002
 20
3377.770540999999
 30
0.0
 11
3336.1644600000009
 21
3377.770540999999
 31
0.0
  0
LINE
  5
7CDD
  8
3
  6
CONTINUOUS
 62
     0
 10
3306.1644600000009
 20
2650.770540999999
 30
0.0
 11
3306.1644600000009
 21
3317.770540999999
 31
0.0
  0
INSERT
  5
7CDE
  8
3
  6
CONTINUOUS
 62
     0
  2
_OPEN
 10
3306.1644600000009
 20
2590.770540999999
 30
0.0
 41
60.0
 42
60.0
 43
60.0
 50
270.0
  0
INSERT
  5
7CDF
  8
3
  6
CONTINUOUS
 62
     0
  2
_OPEN
 10
3306.1644600000009
 20
3377.770540999999
 30
0.0
 41
60.0
 42
60.0
 43
60.0
 50
90.0
  0
TEXT
  8
3
  40
90
  5
7D5E
  62
0
  72
0
  71
0
 10
3051.16
 20
2826.84
 30
0.000000
  1
787
  0
POINT
  5
7CE1
  8
DEFPOINTS
  6
CONTINUOUS
 62
     0
 10
2869.673515
 20
2590.770540999999
 30
0.0
  0
POINT
  5
7CE2
  8
DEFPOINTS
  6
CONTINUOUS
 62
     0
 10
3010.5196500000002
 20
3377.770540999999
 30
0.0
  0
POINT
  5
7CE3
  8
DEFPOINTS
  6
CONTINUOUS
 62
     0
 10
3306.1644600000009
 20
3377.770540999999
 30
0.0
  0
ENDBLK
  5
7AFA
  8
0
  0
BLOCK
  8
0
  2
*D3
 70
     1
 10
0.0
 20
0.0
 30
0.0
  3
*D3
  1

  0
LINE
  5
7CE4
  8
3
  6
CONTINUOUS
 62
     0
 10
3025.5196500000002
 20
3377.770540999999
 30
0.0
 11
3550.1466639999999
 21
3377.770540999999
 31
0.0
  0
LINE
  5
7CE5
  8
3
  6
CONTINUOUS
 62
     0
 10
2879.673515
 20
2407.7705409999999
 30
0.0
 11
3550.146663999999
 21
2407.770540999999
 31
0.0
  0
LINE
  5
7CE6
  8
3
  6
CONTINUOUS
 62
     0
 10
3520.1466639999999
 20
3317.770540999999
 30
0.0
 11
3520.1466639999999
 21
2467.770540999999
 31
0.0
  0
INSERT
  5
7CE7
  8
3
  6
CONTINUOUS
 62
     0
  2
_OPEN
 10
3520.1466639999999
 20
3377.770540999999
 30
0.0
 41
60.0
 42
60.0
 43
60.0
 50
90.0
  0
INSERT
  5
7CE8
  8
3
  6
CONTINUOUS
 62
     0
  2
_OPEN
 10
3520.1466639999999
 20
2407.770540999999
 30
0.0
 41
60.0
 42
60.0
 43
60.0
 50
270.0
  0
TEXT
  8
3
  40
90
  5
7D5F
  62
0
  72
0
  71
0
 10
3265.15
 20
2733.47
 30
0.000000
  1
970
  0
POINT
  5
7CEA
  8
DEFPOINTS
  6
CONTINUOUS
 62
     0
 10
3010.5196500000002
 20
3377.770540999999
 30
0.0
  0
POINT
  5
7CEB
  8
DEFPOINTS
  6
CONTINUOUS
 62
     0
 10
2864.673515
 20
2407.7705409999999
 30
0.0
  0
POINT
  5
7CEC
  8
DEFPOINTS
  6
CONTINUOUS
 62
     0
 10
3520.1466639999999
 20
2407.770540999999
 30
0.0
  0
ENDBLK
  5
7C9F
  8
0
  0
BLOCK
  8
0
  2
*D4
 70
     1
 10
0.0
 20
0.0
 30
0.0
  3
*D4
  1

  0
LINE
  5
7CED
  8
3
  6
CONTINUOUS
 62
     0
 10
1074.673514999999
 20
2392.770540999999
 30
0.0
 11
1074.673514999999
 21
2172.1143649999999
 31
0.0
  0
LINE
  5
7CEE
  8
3
  6
CONTINUOUS
 62
     0
 10
2274.673514999999
 20
2298.9521759999998
 30
0.0
 11
2274.673514999999
 21
2172.1143649999999
 31
0.0
  0
LINE
  5
7CEF
  8
3
  6
CONTINUOUS
 62
     0
 10
1134.673515
 20
2202.114364999999
 30
0.0
 11
2214.673515
 21
2202.114364999999
 31
0.0
  0
INSERT
  5
7CF0
  8
3
  6
CONTINUOUS
 62
     0
  2
_OPEN
 10
1074.673514999999
 20
2202.114364999999
 30
0.0
 41
60.0
 42
60.0
 43
60.0
 50
180.0
  0
INSERT
  5
7CF1
  8
3
  6
CONTINUOUS
 62
     0
  2
_OPEN
 10
2274.673514999999
 20
2202.114364999999
 30
0.0
 41
60.0
 42
60.0
 43
60.0
  0
TEXT
  8
3
  40
90
  5
7D60
  62
0
  72
0
  71
0
 10
1533.19
 20
2117.81
 30
0.000000
  1
1200
  0
POINT
  5
7CF3
  8
DEFPOINTS
  6
CONTINUOUS
 62
     0
 10
1074.673514999999
 20
2407.7705409999999
 30
0.0
  0
POINT
  5
7CF4
  8
DEFPOINTS
  6
CONTINUOUS
 62
     0
 10
2274.673514999999
 20
2313.9521759999998
 30
0.0
  0
POINT
  5
7CF5
  8
DEFPOINTS
  6
CONTINUOUS
 62
     0
 10
2274.673514999999
 20
2202.114364999999
 30
0.0
  0
ENDBLK
  5
7B30
  8
0
  0
BLOCK
  8
0
  2
*D5
 70
     1
 10
0.0
 20
0.0
 30
0.0
  3
*D5
  1

  0
LINE
  5
7CF6
  8
3
  6
CONTINUOUS
 62
     0
 10
2864.673515
 20
2392.770540999999
 30
0.0
 11
2864.673515
 21
2172.1143649999999
 31
0.0
  0
LINE
  5
7CF7
  8
3
  6
CONTINUOUS
 62
     0
 10
2334.673514999999
 20
2202.114364999999
 30
0.0
 11
2804.673515
 21
2202.114364999999
 31
0.0
  0
INSERT
  5
7CF8
  8
3
  6
CONTINUOUS
 62
     0
  2
_OPEN
 10
2274.673514999999
 20
2202.114364999999
 30
0.0
 41
60.0
 42
60.0
 43
60.0
 50
180.0
  0
INSERT
  5
7CF9
  8
3
  6
CONTINUOUS
 62
     0
  2
_OPEN
 10
2864.673515
 20
2202.114364999999
 30
0.0
 41
60.0
 42
60.0
 43
60.0
  0
TEXT
  8
3
  40
90
  5
7D61
  62
0
  72
0
  71
0
 10
2389.67
 20
2117.81
 30
0.000000
  1
590
  0
POINT
  5
7CFB
  8
DEFPOINTS
  6
CONTINUOUS
 62
     0
 10
2274.673514999999
 20
2313.9521759999998
 30
0.0
  0
POINT
  5
7CFC
  8
DEFPOINTS
  6
CONTINUOUS
 62
     0
 10
2864.673515
 20
2407.7705409999999
 30
0.0
  0
POINT
  5
7CFD
  8
DEFPOINTS
  6
CONTINUOUS
 62
     0
 10
2864.673515
 20
2202.114364999999
 30
0.0
  0
ENDBLK
  5
7B3C
  8
0
  0
BLOCK
  8
0
  2
*D6
 70
     1
 10
0.0
 20
0.0
 30
0.0
  3
*D6
  1

  0
LINE
  5
7CFE
  8
3
  6
CONTINUOUS
 62
     0
 10
2869.673515
 20
3473.2705409999999
 30
0.0
 11
2869.673515
 21
4186.2432449999997
 31
0.0
  0
LINE
  5
7CFF
  8
3
  6
CONTINUOUS
 62
     0
 10
2274.673514999999
 20
4077.1902459999992
 30
0.0
 11
2274.673514999999
 21
4186.2432449999997
 31
0.0
  0
LINE
  5
7D00
  8
3
  6
CONTINUOUS
 62
     0
 10
2809.673515
 20
4156.2432450000006
 30
0.0
 11
2334.673514999999
 21
4156.2432450000006
 31
0.0
  0
INSERT
  5
7D01
  8
3
  6
CONTINUOUS
 62
     0
  2
_OPEN
 10
2869.673515
 20
4156.2432450000006
 30
0.0
 41
60.0
 42
60.0
 43
60.0
  0
INSERT
  5
7D02
  8
3
  6
CONTINUOUS
 62
     0
  2
_OPEN
 10
2274.673514999999
 20
4156.2432450000006
 30
0.0
 41
60.0
 42
60.0
 43
60.0
 50
180.0
  0
TEXT
  8
3
  40
90
  5
7D62
  62
0
  72
0
  71
0
 10
2359.39
 20
4071.94
 30
0.000000
  1
595
  0
POINT
  5
7D04
  8
DEFPOINTS
  6
CONTINUOUS
 62
     0
 10
2869.673515
 20
3458.2705409999999
 30
0.0
  0
POINT
  5
7D05
  8
DEFPOINTS
  6
CONTINUOUS
 62
     0
 10
2274.673514999999
 20
4062.1902460000001
 30
0.0
  0
POINT
  5
7D06
  8
DEFPOINTS
  6
CONTINUOUS
 62
     0
 10
2274.673514999999
 20
4156.2432450000006
 30
0.0
  0
ENDBLK
  5
7B49
  8
0
  0
BLOCK
  8
0
  2
*D7
 70
     1
 10
0.0
 20
0.0
 30
0.0
  3
*D7
  1

  0
LINE
  5
7D07
  8
3
  6
CONTINUOUS
 62
     0
 10
4514.4682879999991
 20
3970.3205409999991
 30
0.0
 11
4514.4682879999991
 21
4114.9680369999987
 31
0.0
  0
LINE
  5
7D08
  8
3
  6
CONTINUOUS
 62
     0
 10
5114.4682880000009
 20
3970.3205409999991
 30
0.0
 11
5114.4682880000009
 21
4114.9680369999987
 31
0.0
  0
LINE
  5
7D09
  8
3
  6
CONTINUOUS
 62
     0
 10
4574.468288
 20
4084.9680369999992
 30
0.0
 11
5054.468288
 21
4084.9680369999992
 31
0.0
  0
INSERT
  5
7D0A
  8
3
  6
CONTINUOUS
 62
     0
  2
_OPEN
 10
4514.4682879999991
 20
4084.9680369999992
 30
0.0
 41
60.0
 42
60.0
 43
60.0
 50
180.0
  0
INSERT
  5
7D0B
  8
3
  6
CONTINUOUS
 62
     0
  2
_OPEN
 10
5114.4682880000009
 20
4084.9680369999992
 30
0.0
 41
60.0
 42
60.0
 43
60.0
  0
TEXT
  8
3
  40
90
  5
7D63
  62
0
  72
0
  71
0
 10
4627.83
 20
4000.67
 30
0.000000
  1
600
  0
POINT
  5
7D0D
  8
DEFPOINTS
  6
CONTINUOUS
 62
     0
 10
4514.4682879999991
 20
3955.3205409999991
 30
0.0
  0
POINT
  5
7D0E
  8
DEFPOINTS
  6
CONTINUOUS
 62
     0
 10
5114.4682880000009
 20
3955.3205409999991
 30
0.0
  0
POINT
  5
7D0F
  8
DEFPOINTS
  6
CONTINUOUS
 62
     0
 10
5114.4682880000009
 20
4084.9680369999992
 30
0.0
  0
ENDBLK
  5
7B6F
  8
0
  0
BLOCK
  8
0
  2
*D8
 70
     1
 10
0.0
 20
0.0
 30
0.0
  3
*D8
  1

  0
LINE
  5
7D10
  8
3
  6
CONTINUOUS
 62
     0
 10
5133.468288
 20
3802.770540999999
 30
0.0
 11
5402.5071510000007
 21
3802.770540999999
 31
0.0
  0
LINE
  5
7D11
  8
3
  6
CONTINUOUS
 62
     0
 10
5133.468288
 20
2952.770540999999
 30
0.0
 11
5402.5071510000007
 21
2952.770540999999
 31
0.0
  0
LINE
  5
7D12
  8
3
  6
CONTINUOUS
 62
     0
 10
5372.5071509999998
 20
3742.770540999999
 30
0.0
 11
5372.5071509999998
 21
3012.770540999999
 31
0.0
  0
INSERT
  5
7D13
  8
3
  6
CONTINUOUS
 62
     0
  2
_OPEN
 10
5372.5071509999998
 20
3802.770540999999
 30
0.0
 41
60.0
 42
60.0
 43
60.0
 50
90.0
  0
INSERT
  5
7D14
  8
3
  6
CONTINUOUS
 62
     0
  2
_OPEN
 10
5372.5071509999998
 20
2952.770540999999
 30
0.0
 41
60.0
 42
60.0
 43
60.0
 50
270.0
  0
TEXT
  8
3
  40
90
  5
7D64
  62
0
  72
0
  71
0
 10
5117.51
 20
3189.16
 30
0.000000
  1
φ850
  0
POINT
  5
7D16
  8
DEFPOINTS
  6
CONTINUOUS
 62
     0
 10
5118.468288
 20
3802.7705409999999
 30
0.0
  0
POINT
  5
7D17
  8
DEFPOINTS
  6
CONTINUOUS
 62
     0
 10
5118.468288
 20
2952.770540999999
 30
0.0
  0
POINT
  5
7D18
  8
DEFPOINTS
  6
CONTINUOUS
 62
     0
 10
5372.5071509999998
 20
2952.770540999999
 30
0.0
  0
ENDBLK
  5
7C71
  8
0
  0
BLOCK
  8
0
  2
*D9
 70
     1
 10
0.0
 20
0.0
 30
0.0
  3
*D9
  1

  0
LINE
  5
7C53
  8
0
  6
BYBLOCK
 62
     0
 10
5118.468288
 20
3817.7705409999999
 30
0.0
 11
5118.468288
 21
4310.9748790000003
 31
0.0
  0
LINE
  5
7C54
  8
0
  6
BYBLOCK
 62
     0
 10
4814.468288
 20
4230.1250250000003
 30
0.0
 11
4814.468288
 21
4310.9748790000003
 31
0.0
  0
LINE
  5
7C55
  8
0
  6
BYBLOCK
 62
     0
 10
5058.468288
 20
4280.9748790000012
 30
0.0
 11
4874.468288
 21
4280.9748790000012
 31
0.0
  0
TEXT
  5
7C56
  8
3
 62
     0
 10
4848.6111451428569
 20
4317.4448396585967
 30
0.0
 40
90.0
  1
304
  0
INSERT
  5
7C57
  8
0
  6
BYBLOCK
 62
     0
  2
_OPEN
 10
5118.468288
 20
4280.9748790000012
 30
0.0
 41
60.0
 42
60.0
 43
60.0
  0
INSERT
  5
7C58
  8
0
  6
BYBLOCK
 62
     0
  2
_OPEN
 10
4814.468288
 20
4280.9748790000012
 30
0.0
 41
60.0
 42
60.0
 43
60.0
 50
180.0
  0
POINT
  5
7C59
  8
DEFPOINTS
  6
BYBLOCK
 62
     0
 10
5118.468288
 20
3802.7705409999999
 30
0.0
  0
POINT
  5
7C5A
  8
DEFPOINTS
  6
BYBLOCK
 62
     0
 10
4814.468288
 20
4215.1250250000003
 30
0.0
  0
POINT
  5
7C5B
  8
DEFPOINTS
  6
BYBLOCK
 62
     0
 10
4814.468288
 20
4280.9748790000012
 30
0.0
  0
ENDBLK
  5
7C5C
  8
0
  0
BLOCK
  8
0
  2
*D10
 70
     1
 10
0.0
 20
0.0
 30
0.0
  3
*D10
  1

  0
LINE
  5
7D19
  8
3
  6
CONTINUOUS
 62
     0
 10
4254.468288
 20
3772.770540999999
 30
0.0
 11
4254.468288
 21
4310.9748790000003
 31
0.0
  0
LINE
  5
7D1A
  8
3
  6
CONTINUOUS
 62
     0
 10
4754.468288
 20
4280.9748790000012
 30
0.0
 11
4314.4682879999991
 21
4280.9748790000012
 31
0.0
  0
INSERT
  5
7D1B
  8
3
  6
CONTINUOUS
 62
     0
  2
_OPEN
 10
4814.468288
 20
4280.9748790000012
 30
0.0
 41
60.0
 42
60.0
 43
60.0
  0
INSERT
  5
7D1C
  8
3
  6
CONTINUOUS
 62
     0
  2
_OPEN
 10
4254.468288
 20
4280.9748790000012
 30
0.0
 41
60.0
 42
60.0
 43
60.0
 50
180.0
  0
TEXT
  8
3
  40
90
  5
7D65
  62
0
  72
0
  71
0
 10
4354.47
 20
4271.67
 30
0.000000
  1
MAX
  0
TEXT
  8
3
  40
90
  5
7D66
  62
0
  72
0
  71
0
 10
4354.47
 20
4154.67
 30
0.000000
  1
610
  0
POINT
  5
7D1E
  8
DEFPOINTS
  6
CONTINUOUS
 62
     0
 10
4814.468288
 20
4215.1250250000003
 30
0.0
  0
POINT
  5
7D1F
  8
DEFPOINTS
  6
CONTINUOUS
 62
     0
 10
4254.468288
 20
3757.7705409999999
 30
0.0
  0
POINT
  5
7D20
  8
DEFPOINTS
  6
CONTINUOUS
 62
     0
 10
4254.468288
 20
4280.9748790000012
 30
0.0
  0
ENDBLK
  5
7C66
  8
0
  0
BLOCK
  8
0
  2
*D11
 70
     1
 10
0.0
 20
0.0
 30
0.0
  3
*D11
  1

  0
LINE
  5
7D21
  8
3
  6
CONTINUOUS
 62
     0
 10
4396.468288
 20
2392.770540999999
 30
0.0
 11
4396.468288
 21
2150.0995590000002
 31
0.0
  0
LINE
  5
7D22
  8
3
  6
CONTINUOUS
 62
     0
 10
4814.468288
 20
2223.989669999999
 30
0.0
 11
4814.468288
 21
2150.0995590000002
 31
0.0
  0
LINE
  5
7D23
  8
3
  6
CONTINUOUS
 62
     0
 10
4456.4682879999991
 20
2180.0995589999989
 30
0.0
 11
4754.468288
 21
2180.0995589999989
 31
0.0
  0
INSERT
  5
7D24
  8
3
  6
CONTINUOUS
 62
     0
  2
_OPEN
 10
4396.468288
 20
2180.0995589999989
 30
0.0
 41
60.0
 42
60.0
 43
60.0
 50
180.0
  0
INSERT
  5
7D25
  8
3
  6
CONTINUOUS
 62
     0
  2
_OPEN
 10
4814.468288
 20
2180.0995589999989
 30
0.0
 41
60.0
 42
60.0
 43
60.0
  0
TEXT
  8
3
  40
90
  5
7D67
  62
0
  72
0
  71
0
 10
4437.33
 20
2095.80
 30
0.000000
  1
418
  0
POINT
  5
7D27
  8
DEFPOINTS
  6
CONTINUOUS
 62
     0
 10
4396.468288
 20
2407.7705409999999
 30
0.0
  0
POINT
  5
7D28
  8
DEFPOINTS
  6
CONTINUOUS
 62
     0
 10
4814.468288
 20
2238.9896699999999
 30
0.0
  0
POINT
  5
7D29
  8
DEFPOINTS
  6
CONTINUOUS
 62
     0
 10
4814.468288
 20
2180.0995589999989
 30
0.0
  0
ENDBLK
  5
7C32
  8
0
  0
BLOCK
  8
0
  2
*D12
 70
     1
 10
0.0
 20
0.0
 30
0.0
  3
*D12
  1

  0
LINE
  5
7D2A
  8
3
  6
CONTINUOUS
 62
     0
 10
5216.468288
 20
2392.770540999999
 30
0.0
 11
5216.468288
 21
2150.0995590000002
 31
0.0
  0
LINE
  5
7D2B
  8
3
  6
CONTINUOUS
 62
     0
 10
4874.468288
 20
2180.0995589999989
 30
0.0
 11
5156.468288
 21
2180.0995589999989
 31
0.0
  0
TEXT
  8
3
  40
90
  5
7D68
  62
0
  72
0
  71
0
 10
4849.50
 20
2098.00
 30
0.000000
  1
402
  0
INSERT
  5
7D2D
  8
3
  6
CONTINUOUS
 62
     0
  2
_OPEN
 10
4814.468288
 20
2180.0995589999989
 30
0.0
 41
60.0
 42
60.0
 43
60.0
 50
180.0
  0
INSERT
  5
7D2E
  8
3
  6
CONTINUOUS
 62
     0
  2
_OPEN
 10
5216.468288
 20
2180.0995589999989
 30
0.0
 41
60.0
 42
60.0
 43
60.0
  0
POINT
  5
7D2F
  8
DEFPOINTS
  6
CONTINUOUS
 62
     0
 10
4814.468288
 20
2238.9896699999999
 30
0.0
  0
POINT
  5
7D30
  8
DEFPOINTS
  6
CONTINUOUS
 62
     0
 10
5216.468288
 20
2407.7705409999999
 30
0.0
  0
POINT
  5
7D31
  8
DEFPOINTS
  6
CONTINUOUS
 62
     0
 10
5216.468288
 20
2180.0995589999989
 30
0.0
  0
ENDBLK
  5
7C3C
  8
0
  0
BLOCK
  8
0
  2
*D13
 70
     1
 10
0.0
 20
0.0
 30
0.0
  3
*D13
  1

  0
LINE
  5
7D32
  8
3
  6
CONTINUOUS
 62
     0
 10
1074.673514999999
 20
6207.9139260000002
 30
0.0
 11
1074.673514999999
 21
6419.5949309999996
 31
0.0
  0
LINE
  5
7D33
  8
3
  6
CONTINUOUS
 62
     0
 10
2864.673515
 20
6207.9139260000002
 30
0.0
 11
2864.673515
 21
6419.5949309999996
 31
0.0
  0
LINE
  5
7D34
  8
3
  6
CONTINUOUS
 62
     0
 10
1134.673515
 20
6389.5949310000015
 30
0.0
 11
2804.673515
 21
6389.5949310000015
 31
0.0
  0
INSERT
  5
7D35
  8
3
  6
CONTINUOUS
 62
     0
  2
_OPEN
 10
1074.673514999999
 20
6389.5949310000015
 30
0.0
 41
60.0
 42
60.0
 43
60.0
 50
180.0
  0
INSERT
  5
7D36
  8
3
  6
CONTINUOUS
 62
     0
  2
_OPEN
 10
2864.673515
 20
6389.5949310000015
 30
0.0
 41
60.0
 42
60.0
 43
60.0
  0
TEXT
  8
3
  40
90
  5
7D69
  62
0
  72
0
  71
0
 10
1759.06
 20
6305.29
 30
0.000000
  1
1790
  0
POINT
  5
7D38
  8
DEFPOINTS
  6
CONTINUOUS
 62
     0
 10
1074.673514999999
 20
6192.9139260000011
 30
0.0
  0
POINT
  5
7D39
  8
DEFPOINTS
  6
CONTINUOUS
 62
     0
 10
2864.673515
 20
6192.9139260000011
 30
0.0
  0
POINT
  5
7D3A
  8
DEFPOINTS
  6
CONTINUOUS
 62
     0
 10
2864.673515
 20
6389.5949310000015
 30
0.0
  0
ENDBLK
  5
7BC2
  8
0
  0
BLOCK
  8
0
  2
*D14
 70
     1
 10
0.0
 20
0.0
 30
0.0
  3
*D14
  1

  0
LINE
  5
7D3B
  8
3
  6
CONTINUOUS
 62
     0
 10
2879.673515
 20
6192.9139260000011
 30
0.0
 11
3163.7899769999999
 21
6192.9139260000011
 31
0.0
  0
LINE
  5
7D3C
  8
3
  6
CONTINUOUS
 62
     0
 10
2879.673515
 20
5372.9139260000002
 30
0.0
 11
3163.7899769999999
 21
5372.9139260000002
 31
0.0
  0
LINE
  5
7D3D
  8
3
  6
CONTINUOUS
 62
     0
 10
3133.7899770000008
 20
6132.9139260000002
 30
0.0
 11
3133.7899770000008
 21
5432.9139260000011
 31
0.0
  0
INSERT
  5
7D3E
  8
3
  6
CONTINUOUS
 62
     0
  2
_OPEN
 10
3133.7899770000008
 20
6192.9139260000011
 30
0.0
 41
60.0
 42
60.0
 43
60.0
 50
90.0
  0
INSERT
  5
7D3F
  8
3
  6
CONTINUOUS
 62
     0
  2
_OPEN
 10
3133.7899770000008
 20
5372.9139260000002
 30
0.0
 41
60.0
 42
60.0
 43
60.0
 50
270.0
  0
TEXT
  8
3
  40
90
  5
7D6A
  62
0
  72
0
  71
0
 10
2878.79
 20
5630.40
 30
0.000000
  1
820
  0
POINT
  5
7D41
  8
DEFPOINTS
  6
CONTINUOUS
 62
     0
 10
2864.673515
 20
6192.9139260000011
 30
0.0
  0
POINT
  5
7D42
  8
DEFPOINTS
  6
CONTINUOUS
 62
     0
 10
2864.673515
 20
5372.9139260000002
 30
0.0
  0
POINT
  5
7D43
  8
DEFPOINTS
  6
CONTINUOUS
 62
     0
 10
3133.7899770000008
 20
5372.9139260000002
 30
0.0
  0
ENDBLK
  5
7BCF
  8
0
  0
BLOCK
  8
0
  2
*D15
 70
     1
 10
0.0
 20
0.0
 30
0.0
  3
*D15
  1

  0
LINE
  5
7D44
  8
3
  6
CONTINUOUS
 62
     0
 10
1610.6692889999999
 20
3392.7705409999999
 30
0.0
 11
1610.6692889999999
 21
4186.2432449999997
 31
0.0
  0
LINE
  5
7D45
  8
3
  6
CONTINUOUS
 62
     0
 10
2214.673515
 20
4156.2432450000006
 30
0.0
 11
1670.6692889999999
 21
4156.2432450000006
 31
0.0
  0
INSERT
  5
7D46
  8
3
  6
CONTINUOUS
 62
     0
  2
_OPEN
 10
2274.673514999999
 20
4156.2432450000006
 30
0.0
 41
60.0
 42
60.0
 43
60.0
  0
INSERT
  5
7D47
  8
3
  6
CONTINUOUS
 62
     0
  2
_OPEN
 10
1610.6692889999999
 20
4156.2432450000006
 30
0.0
 41
60.0
 42
60.0
 43
60.0
 50
180.0
  0
TEXT
  8
3
  40
90
  5
7D6B
  62
0
  72
0
  71
0
 10
1762.67
 20
4071.94
 30
0.000000
  1
664
  0
POINT
  5
7D49
  8
DEFPOINTS
  6
CONTINUOUS
 62
     0
 10
2274.673514999999
 20
4062.1902460000001
 30
0.0
  0
POINT
  5
7D4A
  8
DEFPOINTS
  6
CONTINUOUS
 62
     0
 10
1610.6692889999999
 20
3377.770540999999
 30
0.0
  0
POINT
  5
7D4B
  8
DEFPOINTS
  6
CONTINUOUS
 62
     0
 10
1610.6692889999999
 20
4156.2432450000006
 30
0.0
  0
ENDBLK
  5
7BF7
  8
0
  0
BLOCK
  8
0
  2
*D16
 70
     1
 10
0.0
 20
0.0
 30
0.0
  3
*D16
  1

  0
LINE
  5
7D4C
  8
3
  6
CONTINUOUS
 62
     0
 10
2289.673515
 20
3953.7611881068729
 30
0.0
 11
3550.146663999999
 21
3953.7611881068719
 31
0.0
  0
LINE
  5
7D4D
  8
3
  6
CONTINUOUS
 62
     0
 10
3520.1466639999999
 20
3437.770540999999
 30
0.0
 11
3520.1466639999999
 21
3893.7611881068719
 31
0.0
  0
INSERT
  5
7D4E
  8
3
  6
CONTINUOUS
 62
     0
  2
_OPEN
 10
3520.1466639999999
 20
3377.770540999999
 30
0.0
 41
60.0
 42
60.0
 43
60.0
 50
270.0
  0
INSERT
  5
7D4F
  8
3
  6
CONTINUOUS
 62
     0
  2
_OPEN
 10
3520.1466639999999
 20
3953.7611881068719
 30
0.0
 41
60.0
 42
60.0
 43
60.0
 50
90.0
  0
TEXT
  8
3
  40
90
  5
7D6C
  62
0
  72
0
  71
0
 10
3265.15
 20
3506.47
 30
0.000000
  1
576
  0
POINT
  5
7D51
  8
DEFPOINTS
  6
CONTINUOUS
 62
     0
 10
3010.5196500000002
 20
3377.770540999999
 30
0.0
  0
POINT
  5
7D52
  8
DEFPOINTS
  6
CONTINUOUS
 62
     0
 10
2274.673514999999
 20
3953.7611881068729
 30
0.0
  0
POINT
  5
7D53
  8
DEFPOINTS
  6
CONTINUOUS
 62
     0
 10
3520.1466639999999
 20
3953.7611881068719
 30
0.0
  0
ENDBLK
  5
7C87
  8
0
  0
BLOCK
  8
0
  2
*D17
 70
     1
 10
0.0
 20
0.0
 30
0.0
  3
*D17
  1

  0
LINE
  5
7D54
  8
3
 62
     0
 10
2869.673515
 20
3473.2705409999999
 30
0.0
 11
2869.673515
 21
4343.6636272815522
 31
0.0
  0
LINE
  5
7D55
  8
3
 62
     0
 10
1074.673514999999
 20
2522.770540999999
 30
0.0
 11
1074.673514999999
 21
4343.6636272815522
 31
0.0
  0
LINE
  5
7D56
  8
3
 62
     0
 10
2809.673515
 20
4313.6636272815522
 30
0.0
 11
1134.673515
 21
4313.6636272815522
 31
0.0
  0
INSERT
  5
7D57
  8
3
 62
     0
  2
_OPEN
 10
2869.673515
 20
4313.6636272815522
 30
0.0
 41
60.0
 42
60.0
 43
60.0
  0
INSERT
  5
7D58
  8
3
 62
     0
  2
_OPEN
 10
1074.673514999999
 20
4313.6636272815522
 30
0.0
 41
60.0
 42
60.0
 43
60.0
 50
180.0
  0
TEXT
  8
3
  40
90
  5
7D6D
  62
0
  72
0
  71
0
 10
1823.41
 20
4229.36
 30
0.000000
  1
1795
  0
POINT
  5
7D5A
  8
DEFPOINTS
 62
     0
 10
2869.673515
 20
3458.2705409999999
 30
0.0
  0
POINT
  5
7D5B
  8
DEFPOINTS
 62
     0
 10
1074.673514999999
 20
2507.7705409999999
 30
0.0
  0
POINT
  5
7D5C
  8
DEFPOINTS
 62
     0
 10
1074.673514999999
 20
4313.6636272815522
 30
0.0
  0
ENDBLK
  5
7C93
  8
0
  0
ENDSEC
  0
SECTION
  2
ENTITIES
  0
LINE
  5
7A5F
  8
1
  6
CONTINUOUS
 10
4514.4682879999991
 20
2590.770540999999
 30
0.0
 11
5114.4682880000009
 21
3415.7705409999999
 31
0.0
  0
LINE
  5
7A60
  8
1
  6
CONTINUOUS
 10
5114.4682880000009
 20
2590.770540999999
 30
0.0
 11
4514.4682879999991
 21
3415.7705409999999
 31
0.0
  0
LINE
  5
7A61
  8
1
  6
CONTINUOUS
 10
4514.4682879999991
 20
3955.3205409999991
 30
0.0
 11
5114.4682880000009
 21
3955.3205409999991
 31
0.0
  0
LINE
  5
7A62
  8
1
  6
CONTINUOUS
 10
5216.468288
 20
2507.7705409999999
 30
0.0
 11
4254.468288
 21
2507.7705409999999
 31
0.0
  0
LINE
  5
7A63
  8
1
  6
CONTINUOUS
 10
5216.468288
 20
2407.7705409999999
 30
0.0
 11
4396.468288
 21
2407.7705409999999
 31
0.0
  0
LINE
  5
7A64
  8
1
  6
CONTINUOUS
 10
4514.4682879999991
 20
2590.770540999999
 30
0.0
 11
5114.4682880000009
 21
2590.770540999999
 31
0.0
  0
LINE
  5
7A65
  8
1
  6
CONTINUOUS
 10
4514.4682879999991
 20
3415.7705409999999
 30
0.0
 11
5114.4682880000009
 21
3415.7705409999999
 31
0.0
  0
LINE
  5
7A66
  8
1
  6
CONTINUOUS
 10
2869.673515
 20
2590.770540999999
 30
0.0
 11
2274.673514999999
 21
2609.7705409999999
 31
0.0
  0
ARC
  5
7A67
  8
1
  6
CONTINUOUS
 10
2239.673515
 20
3412.770540999999
 30
0.0
 40
542.03999999999985
 50
0.32
 51
83.499999999999986
  0
LINE
  5
7A69
  8
1
  6
CONTINUOUS
 10
2864.673515
 20
2507.7705409999999
 30
0.0
 11
1074.673514999999
 21
2507.7705409999999
 31
0.0
  0
LINE
  5
7A6C
  8
1
  6
CONTINUOUS
 10
2864.673515
 20
2407.7705409999999
 30
0.0
 11
1074.673514999999
 21
2407.7705409999999
 31
0.0
  0
LINE
  5
7A6D
  8
1
  6
CONTINUOUS
 10
2694.673514999999
 20
3757.7705409999999
 30
0.0
 11
2124.673515
 21
3757.7705409999999
 31
0.0
  0
ARC
  5
7A6E
  8
1
  6
CONTINUOUS
 10
2326.673514999999
 20
3325.7705409999999
 30
0.0
 40
717.88999999999987
 50
175.24000000000001
 51
265.85000000000002
  0
ARC
  5
7A6F
  8
1
  6
CONTINUOUS
 10
2230.673515
 20
3333.770540999999
 30
0.0
 40
621.54999999999995
 50
83.499999999999986
 51
175.24000000000001
  0
LINE
  5
7A70
  8
1
  6
CONTINUOUS
 10
2124.673515
 20
3757.7705409999999
 30
0.0
 11
1214.673515
 21
2807.7705409999999
 31
0.0
  0
LINE
  5
7A71
  8
1
  6
CONTINUOUS
 10
1320.9335149999999
 20
2762.650541
 30
0.0
 11
2138.3535149999989
 21
3524.1105409999991
 31
0.0
  0
LINE
  5
7A72
  8
1
  6
CONTINUOUS
 10
1409.7735150000001
 20
2642.9505410000002
 30
0.0
 11
2375.2835149999992
 21
3204.920540999999
 31
0.0
  0
LINE
  5
7A73
  8
1
  6
CONTINUOUS
 10
1218.0535150000001
 20
2565.7705409999999
 30
0.0
 11
1239.393515
 21
2614.7905409999998
 31
0.0
  0
ARC
  5
7A74
  8
1
  6
CONTINUOUS
 10
1372.0535150000001
 20
2707.7705409999999
 30
0.0
 40
162.0
 50
324.97000000000003
 51
215.02999999999989
  0
LINE
  5
7A75
  8
1
  6
CONTINUOUS
 10
1074.673514999999
 20
2507.7705409999999
 30
0.0
 11
1074.673514999999
 21
2407.7705409999999
 31
0.0
  0
LINE
  5
7A76
  8
1
  6
CONTINUOUS
 10
1214.673515
 20
2807.7705409999999
 30
0.0
 11
1214.673515
 21
2507.7705409999999
 31
0.0
  0
LINE
  5
7A77
  8
1
  6
CONTINUOUS
 10
1218.0535150000001
 20
2507.7705409999999
 30
0.0
 11
1218.0535150000001
 21
2565.7705409999999
 31
0.0
  0
LINE
  5
7A78
  8
2
  6
CENTER
 10
1297.0535150000001
 20
2707.7705409999999
 30
0.0
 11
1447.0535150000001
 21
2707.7705409999999
 31
0.0
  0
CIRCLE
  5
7A79
  8
1
  6
CONTINUOUS
 10
1372.0535150000001
 20
2707.7705409999999
 30
0.0
 40
75.0
  0
LINE
  5
7A7A
  8
2
  6
CENTER
 10
1372.0535150000001
 20
2632.7705409999999
 30
0.0
 11
1372.0535150000001
 21
2782.7705409999999
 31
0.0
  0
LINE
  5
7A7B
  8
1
  6
CONTINUOUS
 10
1526.0535150000001
 20
2507.7705409999999
 30
0.0
 11
1526.0535150000001
 21
2565.7705409999999
 31
0.0
  0
LINE
  5
7A7C
  8
1
  6
CONTINUOUS
 10
1526.0535150000001
 20
2565.7705409999999
 30
0.0
 11
1504.7035149999999
 21
2614.7905409999998
 31
0.0
  0
CIRCLE
  5
7A7E
  8
1
  6
CONTINUOUS
 10
2274.673514999999
 20
3377.770540999999
 30
0.0
 40
200.0
  0
LINE
  5
7A7F
  8
2
  6
CENTER
 10
5219.8241420000004
 20
3377.770540999999
 30
0.0
 11
4152.2535669999988
 21
3377.770540999999
 31
0.0
  0
LINE
  5
7A80
  8
2
  6
CENTER
 10
2274.673514999999
 20
6314.8237840000002
 30
0.0
 11
2274.673514999999
 21
5088.7590069999997
 31
0.0
  0
LINE
  5
7A81
  8
1
  6
CONTINUOUS
 10
2869.673515
 20
3458.2705409999999
 30
0.0
 11
2869.673515
 21
2548.270540999999
 31
0.0
  0
LINE
  5
7A83
  8
1
  6
CONTINUOUS
 10
2694.673514999999
 20
2507.7705409999999
 30
0.0
 11
2694.673514999999
 21
3757.7705409999999
 31
0.0
  0
LINE
  5
7A84
  8
1
  6
CONTINUOUS
 10
2864.673515
 20
2507.7705409999999
 30
0.0
 11
2864.673515
 21
2407.7705409999999
 31
0.0
  0
LINE
  5
7A85
  8
1
  6
CONTINUOUS
 10
2781.7035150000002
 20
3415.7705409999999
 30
0.0
 11
2869.673515
 21
3415.7705409999999
 31
0.0
  0
LINE
  5
7A86
  8
1
  6
CONTINUOUS
 10
4404.468288
 20
3757.7705409999999
 30
0.0
 11
4404.468288
 21
2507.7705409999999
 31
0.0
  0
LINE
  5
7A87
  8
1
  6
CONTINUOUS
 10
4254.468288
 20
3757.7705409999999
 30
0.0
 11
4254.468288
 21
2507.7705409999999
 31
0.0
  0
LINE
  5
7A88
  8
1
  6
CONTINUOUS
 10
4514.4682879999991
 20
3955.3205409999991
 30
0.0
 11
4514.4682879999991
 21
2507.7705409999999
 31
0.0
  0
LINE
  5
7A89
  8
1
  6
CONTINUOUS
 10
4294.468288
 20
2632.7705409999999
 30
0.0
 11
4364.468288
 21
2632.7705409999999
 31
0.0
  0
LINE
  5
7A8A
  8
1
  6
CONTINUOUS
 10
4294.468288
 20
2782.7705409999999
 30
0.0
 11
4364.468288
 21
2782.7705409999999
 31
0.0
  0
LINE
  5
7A8B
  8
1
  6
CONTINUOUS
 10
4294.468288
 20
2782.7705409999999
 30
0.0
 11
4294.468288
 21
2632.7705409999999
 31
0.0
  0
LINE
  5
7A8C
  8
1
  6
CONTINUOUS
 10
4396.468288
 20
2507.7705409999999
 30
0.0
 11
4396.468288
 21
2407.7705409999999
 31
0.0
  0
LINE
  5
7A8D
  8
1
  6
CONTINUOUS
 10
4364.468288
 20
2686.7705409999999
 30
0.0
 11
4514.4682879999991
 21
2686.7705409999999
 31
0.0
  0
LINE
  5
7A8E
  8
1
  6
CONTINUOUS
 10
4364.468288
 20
2728.7705409999999
 30
0.0
 11
4514.4682879999991
 21
2728.7705409999999
 31
0.0
  0
LINE
  5
7A8F
  8
1
  6
CONTINUOUS
 10
4364.468288
 20
2782.7705409999999
 30
0.0
 11
4364.468288
 21
2632.7705409999999
 31
0.0
  0
LINE
  5
7A90
  8
1
  6
CONTINUOUS
 10
4294.468288
 20
3177.7705409999999
 30
0.0
 11
4364.468288
 21
3177.7705409999999
 31
0.0
  0
LINE
  5
7A91
  8
1
  6
CONTINUOUS
 10
4294.468288
 20
3577.7705409999999
 30
0.0
 11
4364.468288
 21
3577.7705409999999
 31
0.0
  0
LINE
  5
7A92
  8
1
  6
CONTINUOUS
 10
4294.468288
 20
3577.7705409999999
 30
0.0
 11
4294.468288
 21
3177.7705409999999
 31
0.0
  0
LINE
  5
7A93
  8
1
  6
CONTINUOUS
 10
4514.4682879999991
 20
3356.7705409999999
 30
0.0
 11
4364.468288
 21
3356.7705409999999
 31
0.0
  0
LINE
  5
7A94
  8
1
  6
CONTINUOUS
 10
4514.4682879999991
 20
3398.770540999999
 30
0.0
 11
4364.468288
 21
3398.770540999999
 31
0.0
  0
LINE
  5
7A95
  8
1
  6
CONTINUOUS
 10
4364.468288
 20
3577.7705409999999
 30
0.0
 11
4364.468288
 21
3177.7705409999999
 31
0.0
  0
LINE
  5
7A96
  8
1
  6
CONTINUOUS
 10
4404.468288
 20
3757.7705409999999
 30
0.0
 11
4254.468288
 21
3757.7705409999999
 31
0.0
  0
LINE
  5
7A97
  8
1
  6
CONTINUOUS
 10
5114.4682880000009
 20
3955.3205409999991
 30
0.0
 11
5114.4682880000009
 21
2507.7705409999999
 31
0.0
  0
LINE
  5
7A98
  8
1
  6
CONTINUOUS
 10
5216.468288
 20
2507.7705409999999
 30
0.0
 11
5216.468288
 21
2407.7705409999999
 31
0.0
  0
LINE
  5
7A99
  8
1
  6
CONTINUOUS
 10
2295.673515
 20
5372.9139260000002
 30
0.0
 11
2864.673515
 21
5372.9139260000002
 31
0.0
  0
LINE
  5
7A9A
  8
1
  6
CONTINUOUS
 10
1074.673514999999
 20
6192.9139260000011
 30
0.0
 11
2864.673515
 21
6192.9139260000011
 31
0.0
  0
LINE
  5
7A9B
  8
1
  6
CONTINUOUS
 10
1214.673515
 20
5380.9139260000002
 30
0.0
 11
2694.673514999999
 21
5380.9139260000002
 31
0.0
  0
LINE
  5
7A9C
  8
1
  6
CONTINUOUS
 10
1214.673515
 20
5230.9139260000002
 30
0.0
 11
2694.673514999999
 21
5230.9139260000002
 31
0.0
  0
LINE
  5
7A9D
  8
1
  6
CONTINUOUS
 10
1608.7835150000001
 20
5490.9139260000011
 30
0.0
 11
2869.673515
 21
5490.9139260000011
 31
0.0
  0
LINE
  5
7A9E
  8
1
  6
CONTINUOUS
 10
1608.7835150000001
 20
6090.9139260000002
 30
0.0
 11
2869.673515
 21
6090.9139260000002
 31
0.0
  0
LINE
  5
7A9F
  8
1
  6
CONTINUOUS
 10
1393.0535150000001
 20
5372.9139260000002
 30
0.0
 11
2253.673515
 21
5372.9139260000002
 31
0.0
  0
LINE
  5
7AA0
  8
1
  6
CONTINUOUS
 10
1074.673514999999
 20
6192.9139260000011
 30
0.0
 11
1074.673514999999
 21
5372.9139260000002
 31
0.0
  0
LINE
  5
7AA1
  8
1
  6
CONTINUOUS
 10
1608.7835150000001
 20
5490.9139260000011
 30
0.0
 11
1608.7835150000001
 21
6090.9139260000002
 31
0.0
  0
LINE
  5
7AA2
  8
1
  6
CONTINUOUS
 10
1210.0535150000001
 20
5428.9139260000002
 30
0.0
 11
1210.0535150000001
 21
5913.9139260000002
 31
0.0
  0
LINE
  5
7AA3
  8
1
  6
CONTINUOUS
 10
1534.0535150000001
 20
5428.9139260000002
 30
0.0
 11
1534.0535150000001
 21
5913.9139260000002
 31
0.0
  0
LINE
  5
7AA4
  8
1
  6
CONTINUOUS
 10
1074.673514999999
 20
5372.9139260000002
 30
0.0
 11
1351.0535150000001
 21
5372.9139260000002
 31
0.0
  0
LINE
  5
7AA5
  8
1
  6
CONTINUOUS
 10
1210.0535150000001
 20
5428.9139260000002
 30
0.0
 11
1534.0535150000001
 21
5428.9139260000002
 31
0.0
  0
LINE
  5
7AA6
  8
1
  6
CONTINUOUS
 10
1214.673515
 20
5380.9139260000002
 30
0.0
 11
1214.673515
 21
5230.9139260000002
 31
0.0
  0
LINE
  5
7AA7
  8
1
  6
CONTINUOUS
 10
1447.0535150000001
 20
5270.9139260000002
 30
0.0
 11
1297.0535150000001
 21
5270.9139260000002
 31
0.0
  0
LINE
  5
7AA8
  8
1
  6
CONTINUOUS
 10
1447.0535150000001
 20
5340.9139260000002
 30
0.0
 11
1297.0535150000001
 21
5340.9139260000002
 31
0.0
  0
LINE
  5
7AA9
  8
1
  6
CONTINUOUS
 10
1297.0535150000001
 20
5270.9139260000002
 30
0.0
 11
1297.0535150000001
 21
5340.9139260000002
 31
0.0
  0
LINE
  5
7AAA
  8
1
  6
CONTINUOUS
 10
1351.0535150000001
 20
5340.9139260000002
 30
0.0
 11
1351.0535150000001
 21
5428.9139260000002
 31
0.0
  0
LINE
  5
7AAB
  8
1
  6
CONTINUOUS
 10
1393.0535150000001
 20
5340.9139260000002
 30
0.0
 11
1393.0535150000001
 21
5428.9139260000002
 31
0.0
  0
LINE
  5
7AAC
  8
1
  6
CONTINUOUS
 10
1447.0535150000001
 20
5270.9139260000002
 30
0.0
 11
1447.0535150000001
 21
5340.9139260000002
 31
0.0
  0
LINE
  5
7AAD
  8
1
  6
CONTINUOUS
 10
1210.0535150000001
 20
5913.9139260000002
 30
0.0
 11
1534.0535150000001
 21
5913.9139260000002
 31
0.0
  0
LINE
  5
7AAE
  8
1
  6
CONTINUOUS
 10
2474.673515
 20
5270.9139260000002
 30
0.0
 11
2074.673515
 21
5270.9139260000002
 31
0.0
  0
LINE
  5
7AAF
  8
1
  6
CONTINUOUS
 10
2474.673515
 20
5340.9139260000002
 30
0.0
 11
2074.673515
 21
5340.9139260000002
 31
0.0
  0
LINE
  5
7AB0
  8
1
  6
CONTINUOUS
 10
2074.673515
 20
5270.9139260000002
 30
0.0
 11
2074.673515
 21
5340.9139260000002
 31
0.0
  0
LINE
  5
7AB1
  8
1
  6
CONTINUOUS
 10
2295.673515
 20
5340.9139260000002
 30
0.0
 11
2295.673515
 21
5490.9139260000011
 31
0.0
  0
LINE
  5
7AB2
  8
1
  6
CONTINUOUS
 10
2253.673515
 20
5340.9139260000002
 30
0.0
 11
2253.673515
 21
5490.9139260000011
 31
0.0
  0
LINE
  5
7AB3
  8
1
  6
CONTINUOUS
 10
2474.673515
 20
5270.9139260000002
 30
0.0
 11
2474.673515
 21
5340.9139260000002
 31
0.0
  0
LINE
  5
7AB4
  8
1
  6
CONTINUOUS
 10
2869.673515
 20
5448.9139260000002
 30
0.0
 11
2869.673515
 21
6132.9139260000002
 31
0.0
  0
LINE
  5
7AB5
  8
1
  6
CONTINUOUS
 10
2694.673514999999
 20
5230.9139260000002
 30
0.0
 11
2694.673514999999
 21
5380.9139260000002
 31
0.0
  0
LINE
  5
7AB6
  8
1
  6
CONTINUOUS
 10
2864.673515
 20
5490.9139260000011
 30
0.0
 11
2864.673515
 21
5372.9139260000002
 31
0.0
  0
LINE
  5
7AB7
  8
1
  6
CONTINUOUS
 10
2864.673515
 20
6192.9139260000011
 30
0.0
 11
2864.673515
 21
6090.9139260000002
 31
0.0
  0
LINE
  5
7AB8
  8
2
  6
CENTER
 10
995.30233800000008
 20
5790.9139260000002
 30
0.0
 11
2961.4154269999999
 21
5790.9139260000002
 31
0.0
  0
LINE
  5
7AB9
  8
2
  6
CENTER
 10
4814.468288
 20
4081.2950519999999
 30
0.0
 11
4814.468288
 21
2238.9896699999999
 31
0.0
  0
LINE
  5
7ABA
  8
2
  6
CENTER
 10
2274.673514999999
 20
4062.1902460000001
 30
0.0
 11
2274.673514999999
 21
2313.9521759999998
 31
0.0
  0
LINE
  5
7ABB
  8
2
  6
CENTER
 10
3010.5196500000002
 20
3377.770540999999
 30
0.0
 11
1309.503676
 21
3377.770540999999
 31
0.0
  0
LINE
  5
7ABC
  8
4
  6
CONTINUOUS
 10
5550.0
 20
1500.0
 30
0.0
 11
5550.0
 21
900.0
 31
0.0
  0
LINE
  5
7ABD
  8
4
  6
CONTINUOUS
 10
3450.0
 20
1500.0
 30
0.0
 11
3450.0
 21
900.0
 31
0.0
  0
LINE
  5
7ABE
  8
4
  6
CONTINUOUS
 10
1950.0
 20
1500.0
 30
0.0
 11
1950.0
 21
900.0
 31
0.0
  0
LINE
  5
7AC1
  8
4
  6
CONTINUOUS
 10
1950.0
 20
900.0
 30
0.0
 11
5550.0
 21
900.0
 31
0.0
  0
LINE
  5
7AC2
  8
4
  6
CONTINUOUS
 10
1950.0
 20
1200.0
 30
0.0
 11
5550.0
 21
1200.0
 31
0.0
  0
TEXT
  5
7AC3
  8
4
  6
CONTINUOUS
 10
2065.5062429999989
 20
1294.6290779999999
 30
0.0
 40
150.0
  1
機器名称
  0
TEXT
  5
7AC4
  8
4
  6
CONTINUOUS
 10
2058.7743179999989
 20
964.9354699999999
 30
0.0
 40
150.0
  1
機器型番
  0
TEXT
  5
7AC5
  8
4
  6
CONTINUOUS
 10
3533.0362359999999
 20
1267.7153069999999
 30
0.0
 40
150.0
  1
ミツヤ多翼送風機
  0
TEXT
  5
7AC6
  8
4
  6
CONTINUOUS
 10
3559.9634869999991
 20
951.47875299999987
 30
0.0
 40
150.0
  1
MF#5-4
  0
TEXT
  5
7AC8
  8
4
  6
CONTINUOUS
 10
2466.5212369999999
 20
7150.2865239999992
 30
0.0
 40
162.0
  1
天井吊ベット
  0
TEXT
  5
7AC9
  8
4
  6
CONTINUOUS
 10
948.50278000000014
 20
7601.6429289999996
 30
0.0
 40
216.0
  1
ベルト駆動式片吸込両持多翼ファン
  0
LINE
  5
7ACA
  8
4
  6
CONTINUOUS
 10
750.0
 20
7408.2262629999996
 30
0.0
 11
5550.0
 21
7408.2262629999996
 31
0.0
  0
LINE
  5
7ACB
  8
4
  6
CONTINUOUS
 10
750.0
 20
8008.2262629999996
 30
0.0
 11
5550.0
 21
8008.2262629999996
 31
0.0
  0
LINE
  5
7ACC
  8
4
  6
CONTINUOUS
 10
1950.0
 20
1500.0
 30
0.0
 11
5550.0
 21
1500.0
 31
0.0
  0
LINE
  5
7ACD
  8
4
  6
CONTINUOUS
 10
750.0
 20
8008.2262629999996
 30
0.0
 11
750.0
 21
7408.2262629999996
 31
0.0
  0
TEXT
  5
7ACE
  8
4
  6
CONTINUOUS
 10
1158.9447399999999
 20
7146.9584329999998
 30
0.0
 40
162.0
  1
左回転右横向
  0
TEXT
  5
7ACF
  8
4
  6
CONTINUOUS
 10
4406.9086779999989
 20
8118.1832439999989
 30
0.0
 40
168.0
  1
No.
  0
TEXT
  5
7AD0
  8
4
  6
CONTINUOUS
 10
3933.8881879999999
 20
7150.2865239999992
 30
0.0
 40
162.0
  1
縮尺：1/30
  0
LINE
  5
7AD1
  8
4
  6
CONTINUOUS
 10
5550.0
 20
8008.2262629999996
 30
0.0
 11
5550.0
 21
7408.2262629999996
 31
0.0
  0
LINE
  5
7AD3
  8
4
  6
CONTINUOUS
 10
4321.8522670000002
 20
8043.7907490000007
 30
0.0
 11
4321.8522670000002
 21
8359.9567849999985
 31
0.0
  0
LINE
  5
7AD4
  8
4
  6
CONTINUOUS
 10
4321.8522670000002
 20
8359.9567849999985
 30
0.0
 11
5550.0
 21
8359.9567849999985
 31
0.0
  0
LINE
  5
7AD5
  8
4
  6
CONTINUOUS
 10
5550.0
 20
8359.9567849999985
 30
0.0
 11
5550.0
 21
8043.7907490000007
 31
0.0
  0
LINE
  5
7AD6
  8
4
  6
CONTINUOUS
 10
5550.0
 20
8043.7907490000007
 30
0.0
 11
4321.8522670000002
 21
8043.7907490000007
 31
0.0
  0
DIMENSION
  5
7AEE
  8
3
  6
CONTINUOUS
  2
*D1
 10
3110.01415
 20
2590.770540999999
 30
0.0
 11
3110.01415
 21
2986.1417729999989
 31
0.0
 70
   128
 13
2869.673515
 23
3415.7705409999999
 33
0.0
 14
2869.673515
 24
2590.770540999999
 34
0.0
 50
90.0
1001
ACAD
1000
DSTYLE
1002
{
1070
   287
1070
     3
1070
    40
1040
30.0
1070
   143
1040
0.039
1070
   172
1070
     1
1070
   271
1070
     0
1070
   279
1070
     0
1070
   288
1070
     1
1002
}
  0
DIMENSION
  5
7AFB
  8
3
  6
CONTINUOUS
  2
*D2
 10
3306.1644600000009
 20
3377.770540999999
 30
0.0
 11
3306.16446
 21
2986.1417729999989
 31
0.0
 70
   128
 13
2869.673515
 23
2590.770540999999
 33
0.0
 14
3010.5196500000002
 24
3377.770540999999
 34
0.0
 50
90.0
1001
ACAD
1000
DSTYLE
1002
{
1070
   287
1070
     3
1070
    40
1040
30.0
1070
   143
1040
0.039
1070
   172
1070
     1
1070
   271
1070
     0
1070
   279
1070
     0
1070
   288
1070
     1
1002
}
  0
DIMENSION
  5
7B24
  8
3
  6
CONTINUOUS
  2
*D3
 10
3520.1466639999999
 20
2407.770540999999
 30
0.0
 11
3445.146663999999
 21
2892.7705409999999
 31
0.0
 70
     0
 13
3010.5196500000002
 23
3377.770540999999
 33
0.0
 14
2864.673515
 24
2407.7705409999999
 34
0.0
 50
90.0
1001
ACAD
1000
DSTYLE
1002
{
1070
   287
1070
     3
1070
    40
1040
30.0
1070
   143
1040
0.039
1070
   172
1070
     1
1070
   271
1070
     0
1070
   279
1070
     0
1070
   288
1070
     1
1002
}
  0
DIMENSION
  5
7B31
  8
3
  6
CONTINUOUS
  2
*D4
 10
2274.673514999999
 20
2202.114364999999
 30
0.0
 11
1713.185956
 21
2202.114364999999
 31
0.0
 70
   128
 13
1074.673514999999
 23
2407.7705409999999
 33
0.0
 14
2274.673514999999
 24
2313.9521759999998
 34
0.0
1001
ACAD
1000
DSTYLE
1002
{
1070
   287
1070
     3
1070
    40
1040
30.0
1070
   143
1040
0.039
1070
   172
1070
     1
1070
   271
1070
     0
1070
   279
1070
     0
1070
   288
1070
     1
1002
}
  0
DIMENSION
  5
7B3D
  8
3
  6
CONTINUOUS
  2
*D5
 10
2864.673515
 20
2202.114364999999
 30
0.0
 11
2569.673514999999
 21
2277.1143649999999
 31
0.0
 70
     0
 13
2274.673514999999
 23
2313.9521759999998
 33
0.0
 14
2864.673515
 24
2407.7705409999999
 34
0.0
1001
ACAD
1000
DSTYLE
1002
{
1070
   287
1070
     4
1070
    40
1040
30.0
1070
    75
1070
     1
1070
   143
1040
0.039
1070
   172
1070
     1
1070
   271
1070
     0
1070
   279
1070
     1
1070
   288
1070
     1
1002
}
  0
DIMENSION
  5
7B4A
  8
3
  6
CONTINUOUS
  2
*D6
 10
2274.673514999999
 20
4156.2432450000006
 30
0.0
 11
2539.3949829999988
 21
4156.2432450000006
 31
0.0
 70
   128
 13
2869.673515
 23
3458.2705409999999
 33
0.0
 14
2274.673514999999
 24
4062.1902460000001
 34
0.0
1001
ACAD
1000
DSTYLE
1002
{
1070
   287
1070
     3
1070
    40
1040
30.0
1070
   143
1040
0.039
1070
   172
1070
     1
1070
   271
1070
     0
1070
   279
1070
     0
1070
   288
1070
     1
1002
}
  0
DIMENSION
  5
7B70
  8
3
  6
CONTINUOUS
  2
*D7
 10
5114.4682880000009
 20
4084.9680369999992
 30
0.0
 11
4807.8319490000003
 21
4084.9680369999992
 31
0.0
 70
   128
 13
4514.4682879999991
 23
3955.3205409999991
 33
0.0
 14
5114.4682880000009
 24
3955.3205409999991
 34
0.0
1001
ACAD
1000
DSTYLE
1002
{
1070
   287
1070
     3
1070
    40
1040
30.0
1070
   143
1040
0.039
1070
   172
1070
     1
1070
   271
1070
     0
1070
   279
1070
     0
1070
   288
1070
     1
1002
}
  0
LINE
  5
7B71
  8
1
  6
CONTINUOUS
 10
5118.468288
 20
3802.7705409999999
 30
0.0
 11
5118.468288
 21
2952.770540999999
 31
0.0
  0
DIMENSION
  5
7B80
  8
3
  6
CONTINUOUS
  2
*D8
 10
5372.5071509999998
 20
2952.770540999999
 30
0.0
 11
5372.5071509999998
 21
3348.4574539999999
 31
0.0
 70
   128
 13
5118.468288
 23
3802.7705409999999
 33
0.0
 14
5118.468288
 24
2952.770540999999
 34
0.0
 50
90.0
1001
ACAD
1000
DSTYLE
1002
{
1070
   287
1070
     3
1070
     3
1000
φ<>
1070
    40
1040
30.0
1070
   143
1040
0.039
1070
   172
1070
     1
1070
   271
1070
     0
1070
   279
1070
     0
1070
   288
1070
     1
1002
}
  0
DIMENSION
  5
7B8F
  8
3
  6
CONTINUOUS
  2
*D9
 10
4814.468288
 20
4280.9748790000012
 30
0.0
 11
4966.468288
 21
4362.4448396585967
 31
0.0
 70
   128
 13
5118.468288
 23
3802.7705409999999
 33
0.0
 14
4814.468288
 24
4215.1250250000003
 34
0.0
1001
ACAD
1000
DSTYLE
1002
{
1070
   288
1070
     1
1070
   172
1070
     1
1070
    40
1040
30.0
1070
   271
1070
     0
1070
   143
1040
0.039
1002
}
  0
DIMENSION
  5
7B9B
  8
3
  6
CONTINUOUS
  2
*D10
 10
4254.468288
 20
4280.9748790000012
 30
0.0
 11
4534.468288
 21
4430.9748790000003
 31
0.0
 70
     0
  1
MAX\P610
 13
4814.468288
 23
4215.1250250000003
 33
0.0
 14
4254.468288
 24
3757.7705409999999
 34
0.0
1001
ACAD
1000
DSTYLE
1002
{
1070
   287
1070
     4
1070
    40
1040
30.0
1070
    75
1070
     1
1070
   143
1040
0.039
1070
   172
1070
     1
1070
   271
1070
     0
1070
   279
1070
     1
1070
   288
1070
     1
1002
}
  0
DIMENSION
  5
7BA8
  8
3
  6
CONTINUOUS
  2
*D11
 10
4814.468288
 20
2180.0995589999989
 30
0.0
 11
4617.3254299999999
 21
2180.0995589999989
 31
0.0
 70
   128
 13
4396.468288
 23
2407.7705409999999
 33
0.0
 14
4814.468288
 24
2238.9896699999999
 34
0.0
1001
ACAD
1000
DSTYLE
1002
{
1070
   287
1070
     3
1070
    40
1040
30.0
1070
   143
1040
0.039
1070
   172
1070
     1
1070
   271
1070
     0
1070
   279
1070
     0
1070
   288
1070
     1
1002
}
  0
DIMENSION
  5
7BB6
  8
3
  6
CONTINUOUS
  2
*D12
 10
5216.468288
 20
2180.0995589999989
 30
0.0
 11
5029.4970359999998
 21
2182.2957980000001
 31
0.0
 70
   128
 13
4814.468288
 23
2238.9896699999999
 33
0.0
 14
5216.468288
 24
2407.7705409999999
 34
0.0
1001
ACAD
1000
DSTYLE
1002
{
1070
   287
1070
     4
1070
    40
1040
30.0
1070
    75
1070
     1
1070
   143
1040
0.039
1070
   172
1070
     1
1070
   271
1070
     0
1070
   279
1070
     1
1070
   288
1070
     1
1002
}
  0
DIMENSION
  5
7BC3
  8
3
  6
CONTINUOUS
  2
*D13
 10
2864.673515
 20
6389.5949310000015
 30
0.0
 11
1939.056057
 21
6389.5949310000015
 31
0.0
 70
   128
 13
1074.673514999999
 23
6192.9139260000011
 33
0.0
 14
2864.673515
 24
6192.9139260000011
 34
0.0
1001
ACAD
1000
DSTYLE
1002
{
1070
   287
1070
     3
1070
    40
1040
30.0
1070
   143
1040
0.039
1070
   172
1070
     1
1070
   271
1070
     0
1070
   279
1070
     0
1070
   288
1070
     1
1002
}
  0
DIMENSION
  5
7BD0
  8
3
  6
CONTINUOUS
  2
*D14
 10
3133.7899770000008
 20
5372.9139260000002
 30
0.0
 11
3133.7899769999999
 21
5789.6951829999998
 31
0.0
 70
   128
 13
2864.673515
 23
6192.9139260000011
 33
0.0
 14
2864.673515
 24
5372.9139260000002
 34
0.0
 50
90.0
1001
ACAD
1000
DSTYLE
1002
{
1070
   287
1070
     3
1070
    40
1040
30.0
1070
   143
1040
0.039
1070
   172
1070
     1
1070
   271
1070
     0
1070
   279
1070
     0
1070
   288
1070
     1
1002
}
  0
DIMENSION
  5
7BF8
  8
3
  6
CONTINUOUS
  2
*D15
 10
1610.6692889999999
 20
4156.2432450000006
 30
0.0
 11
1942.6714019999999
 21
4231.2432449999997
 31
0.0
 70
     0
 13
2274.673514999999
 23
4062.1902460000001
 33
0.0
 14
1610.6692889999999
 24
3377.770540999999
 34
0.0
1001
ACAD
1000
DSTYLE
1002
{
1070
   287
1070
     4
1070
    40
1040
30.0
1070
    75
1070
     1
1070
   143
1040
0.039
1070
   172
1070
     1
1070
   271
1070
     0
1070
   279
1070
     1
1070
   288
1070
     1
1002
}
  0
DIMENSION
  5
7C04
  8
3
  6
CONTINUOUS
  2
*D16
 10
3520.1466639999999
 20
3953.7611881068719
 30
0.0
 11
3445.146663999999
 21
3665.765864553437
 31
0.0
 70
     0
 13
3010.5196500000002
 23
3377.770540999999
 33
0.0
 14
2274.673514999999
 24
3953.7611881068729
 34
0.0
 50
90.0
1001
ACAD
1000
DSTYLE
1002
{
1070
   287
1070
     4
1070
    40
1040
30.0
1070
    75
1070
     1
1070
   143
1040
0.039
1070
   172
1070
     1
1070
   271
1070
     0
1070
   279
1070
     1
1070
   288
1070
     1
1002
}
  0
DIMENSION
  5
7C94
  8
3
  2
*D17
 10
1074.673514999999
 20
4313.6636272815522
 30
0.0
 11
2003.407781672001
 21
4313.6636272815522
 31
0.0
 70
   128
 13
2869.673515
 23
3458.2705409999999
 33
0.0
 14
1074.673514999999
 24
2507.7705409999999
 34
0.0
1001
ACAD
1000
DSTYLE
1002
{
1070
   287
1070
     3
1070
    40
1040
30.0
1070
   143
1040
0.039
1070
   172
1070
     1
1070
   271
1070
     0
1070
   279
1070
     0
1070
   288
1070
     1
1002
}
  0
LINE
  5
7CC0
  8
1
 10
1774.673514999999
 20
3507.7705409999999
 30
0.0
 11
1774.673514999999
 21
2507.7705409999999
 31
0.0
  0
LINE
  5
7CC1
  8
1
 10
2774.673514999999
 20
3507.7705409999999
 30
0.0
 11
2774.673514999999
 21
2507.7705409999999
 31
0.0
  0
LINE
  5
7CC2
  8
1
  6
CONTINUOUS
 10
2774.673514999999
 20
3507.7705409999999
 30
0.0
 11
1774.673514999999
 21
3507.7705409999999
 31
0.0
  0
ENDSEC
  0
EOF
