  0
SECTION
  2
HEADER
  9
$ACADVER
  1
AC1009
  9
$INSBASE
 10
0.0
 20
0.0
 30
0.0
  9
$EXTMIN
 10
750.0
 20
900.0
 30
0.0
  9
$EXTMAX
 10
5550.0
 20
8359.9567849999985
 30
0.0
  9
$LIMMIN
 10
0.0
 20
0.0
  9
$LIMMAX
 10
297.0
 20
210.0
  9
$ORTHOMODE
 70
     0
  9
$REGENMODE
 70
     1
  9
$FILLMODE
 70
     0
  9
$QTEXTMODE
 70
     0
  9
$MIRRTEXT
 70
     1
  9
$DRAGMODE
 70
     2
  9
$LTSCALE
 40
100.0
  9
$OSMODE
 70
    37
  9
$ATTMODE
 70
     1
  9
$TEXTSIZE
 40
180.0
  9
$TRACEWID
 40
0.05
  9
$TEXTSTYLE
  7
STANDARD
  9
$CLAYER
  8
3
  9
$CELTYPE
  6
BYLAYER
  9
$CECOLOR
 62
   256
  9
$DIMSCALE
 40
30.0
  9
$DIMASZ
 40
2.0
  9
$DIMEXO
 40
0.5
  9
$DIMDLI
 40
10.0
  9
$DIMRND
 40
0.0
  9
$DIMDLE
 40
0.0
  9
$DIMEXE
 40
1.0
  9
$DIMTP
 40
1.0
  9
$DIMTM
 40
1.0
  9
$DIMTXT
 40
3.0
  9
$DIMCEN
 40
0.0
  9
$DIMTSZ
 40
0.0
  9
$DIMTOL
 70
     0
  9
$DIMLIM
 70
     0
  9
$DIMTIH
 70
     0
  9
$DIMTOH
 70
     0
  9
$DIMSE1
 70
     0
  9
$DIMSE2
 70
     0
  9
$DIMTAD
 70
     1
  9
$DIMZIN
 70
     8
  9
$DIMBLK
  1

  9
$DIMASO
 70
     1
  9
$DIMSHO
 70
     1
  9
$DIMPOST
  1

  9
$DIMAPOST
  1

  9
$DIMALT
 70
     0
  9
$DIMALTD
 70
     2
  9
$DIMALTF
 40
0.039
  9
$DIMLFAC
 40
1.0
  9
$DIMTOFL
 70
     1
  9
$DIMTVP
 40
0.0
  9
$DIMTIX
 70
     0
  9
$DIMSOXD
 70
     0
  9
$DIMSAH
 70
     1
  9
$DIMBLK1
  1
OPEN
  9
$DIMBLK2
  1
OPEN
  9
$DIMSTYLE
  2
IGA
  9
$DIMCLRD
 70
     0
  9
$DIMCLRE
 70
     0
  9
$DIMCLRT
 70
     0
  9
$DIMTFAC
 40
10.0
  9
$DIMGAP
 40
1.0
  9
$LUNITS
 70
     2
  9
$LUPREC
 70
     3
  9
$SKETCHINC
 40
0.1
  9
$FILLETRAD
 40
0.0
  9
$AUNITS
 70
     0
  9
$AUPREC
 70
     0
  9
$MENU
  1
acad
  9
$ELEVATION
 40
0.0
  9
$PELEVATION
 40
0.0
  9
$THICKNESS
 40
0.0
  9
$LIMCHECK
 70
     0
  9
$BLIPMODE
 70
     0
  9
$CHAMFERA
 40
0.5
  9
$CHAMFERB
 40
0.5
  9
$SKPOLY
 70
     0
  9
$TDCREATE
 40
2450746.6140530091
  9
$TDUPDATE
 40
2454953.7741225348
  9
$TDINDWG
 40
0.016850081
  9
$TDUSRTIMER
 40
0.016850081
  9
$USRTIMER
 70
     1
  9
$ANGBASE
 50
0.0
  9
$ANGDIR
 70
     0
  9
$PDMODE
 70
     0
  9
$PDSIZE
 40
0.0
  9
$PLINEWID
 40
0.0
  9
$COORDS
 70
     1
  9
$SPLFRAME
 70
     0
  9
$SPLINETYPE
 70
     6
  9
$SPLINESEGS
 70
     8
  9
$ATTDIA
 70
     0
  9
$ATTREQ
 70
     1
  9
$HANDLING
 70
 10241
  9
$HANDSEED
  5
7DD1
  9
$SURFTAB1
 70
     6
  9
$SURFTAB2
 70
     6
  9
$SURFTYPE
 70
     6
  9
$SURFU
 70
     6
  9
$SURFV
 70
     6
  9
$UCSNAME
  2

  9
$UCSORG
 10
0.0
 20
0.0
 30
0.0
  9
$UCSXDIR
 10
1.0
 20
0.0
 30
0.0
  9
$UCSYDIR
 10
0.0
 20
1.0
 30
0.0
  9
$PUCSNAME
  2

  9
$PUCSORG
 10
0.0
 20
0.0
 30
0.0
  9
$PUCSXDIR
 10
1.0
 20
0.0
 30
0.0
  9
$PUCSYDIR
 10
0.0
 20
1.0
 30
0.0
  9
$USERI1
 70
     0
  9
$USERI2
 70
     0
  9
$USERI3
 70
     0
  9
$USERI4
 70
     0
  9
$USERI5
 70
     0
  9
$USERR1
 40
0.0
  9
$USERR2
 40
0.0
  9
$USERR3
 40
0.0
  9
$USERR4
 40
0.0
  9
$USERR5
 40
0.0
  9
$WORLDVIEW
 70
     1
  9
$SHADEDGE
 70
     3
  9
$SHADEDIF
 70
    70
  9
$TILEMODE
 70
     1
  9
$MAXACTVP
 70
    16
  9
$PLIMCHECK
 70
     0
  9
$PEXTMIN
 10
1.0000000000000000E+020
 20
1.0000000000000000E+020
 30
1.0000000000000000E+020
  9
$PEXTMAX
 10
-1.0000000000000000E+020
 20
-1.0000000000000000E+020
 30
-1.0000000000000000E+020
  9
$PLIMMIN
 10
0.0
 20
0.0
  9
$PLIMMAX
 10
12.0
 20
9.0
  9
$UNITMODE
 70
     0
  9
$VISRETAIN
 70
     0
  9
$PLINEGEN
 70
     0
  9
$PSLTSCALE
 70
     1
  0
ENDSEC
  0
SECTION
  2
TABLES
  0
TABLE
  2
VPORT
 70
     2
  0
VPORT
  2
*ACTIVE
 70
     0
 10
0.0
 20
0.0
 11
1.0
 21
1.0
 12
9438.4567678319436
 22
4630.0975558305709
 13
0.0
 23
0.0
 14
10.0
 24
10.0
 15
10.0
 25
10.0
 16
0.0
 26
0.0
 36
1.0
 17
0.0
 27
0.0
 37
0.0
 40
7517.4747125171307
 41
3.1666666666666661
 42
50.0
 43
0.0
 44
0.0
 50
0.0
 51
0.0
 71
     0
 72
   100
 73
     1
 74
     0
 75
     0
 76
     0
 77
     0
 78
     0
  0
ENDTAB
  0
TABLE
  2
LTYPE
 70
     2
  0
LTYPE
  2
CONTINUOUS
 70
     0
  3
Solid line
 72
    65
 73
     0
 40
0.0
  0
LTYPE
  2
CENTER
 70
     0
  3
____ _ ____ _ ____ _ ____ _ ____ _ ____ _ ____ 
 72
    65
 73
     4
 40
2.0
 49
1.25
 49
-0.25
 49
0.25
 49
-0.25
  0
ENDTAB
  0
TABLE
  2
LAYER
 70
     6
  0
LAYER
  2
0
 70
     0
 62
     7
  6
CONTINUOUS
  0
LAYER
  2
3
 70
     0
 62
     2
  6
CONTINUOUS
  0
LAYER
  2
2
 70
     0
 62
     3
  6
CENTER
  0
LAYER
  2
1
 70
     0
 62
     4
  6
CONTINUOUS
  0
LAYER
  2
4
 70
     0
 62
     7
  6
CONTINUOUS
  0
LAYER
  2
DEFPOINTS
 70
     0
 62
     7
  6
CONTINUOUS
  0
ENDTAB
  0
TABLE
  2
STYLE
 70
     1
  0
STYLE
  2
STANDARD
 70
     0
 40
0.0
 41
1.0
 50
0.0
 71
     0
 42
180.0
  3
simplex.shx
  4
extfont.shx
  0
ENDTAB
  0
TABLE
  2
VIEW
 70
     0
  0
ENDTAB
  0
TABLE
  2
UCS
 70
     0
  0
ENDTAB
  0
TABLE
  2
APPID
 70
     1
  0
APPID
  2
ACAD
 70
     0
  0
ENDTAB
  0
TABLE
  2
DIMSTYLE
 70
     1
  0
DIMSTYLE
  2
IGA
 70
     0
  3

  4

  5

  6
OPEN
  7
OPEN
 40
2.0
 41
2.0
 42
0.5
 43
10.0
 44
1.0
 45
0.0
 46
0.0
 47
1.0
 48
1.0
140
3.0
141
0.0
142
0.0
143
0.03937
144
1.0
145
0.0
146
10.0
147
1.0
 71
     0
 72
     0
 73
     0
 74
     0
 75
     0
 76
     0
 77
     1
 78
     8
170
     0
171
     2
172
     0
173
     1
174
     0
175
     0
176
     0
177
     0
178
     0
  0
ENDTAB
  0
ENDSEC
  0
SECTION
  2
BLOCKS
  0
BLOCK
  8
0
  2
$MODEL_SPACE
 70
     0
 10
0.0
 20
0.0
 30
0.0
  3
$MODEL_SPACE
  1

  0
ENDBLK
  5
1B
  8
0
  0
BLOCK
 67
     1
  8
0
  2
$PAPER_SPACE
 70
     0
 10
0.0
 20
0.0
 30
0.0
  3
$PAPER_SPACE
  1

  0
ENDBLK
  5
18
 67
     1
  8
0
  0
BLOCK
  8
0
  2
_OPEN
 70
     0
 10
0.0
 20
0.0
 30
0.0
  3
_OPEN
  1

  0
LINE
  5
7B5B
  8
0
  6
BYBLOCK
 62
     0
 10
-1.0
 20
0.166667
 30
0.0
 11
0.0
 21
0.0
 31
0.0
  0
LINE
  5
7B5C
  8
0
  6
BYBLOCK
 62
     0
 10
0.0
 20
0.0
 30
0.0
 11
-1.0
 21
-0.166667
 31
0.0
  0
LINE
  5
7B5D
  8
0
  6
BYBLOCK
 62
     0
 10
0.0
 20
0.0
 30
0.0
 11
-1.0
 21
0.0
 31
0.0
  0
ENDBLK
  5
7B5E
  8
0
  0
BLOCK
  8
0
  2
*D1
 70
     1
 10
0.0
 20
0.0
 30
0.0
  3
*D1
  1

  0
LINE
  5
7D3D
  8
3
  6
CONTINUOUS
 62
     0
 10
2764.8486590000002
 20
3797.9639520000001
 30
0.0
 11
2764.8486590000002
 21
3960.4602639999998
 31
0.0
  0
LINE
  5
7D3E
  8
3
  6
CONTINUOUS
 62
     0
 10
1939.848659
 20
3797.9639520000001
 30
0.0
 11
1939.848659
 21
3960.4602639999998
 31
0.0
  0
LINE
  5
7D3F
  8
3
  6
CONTINUOUS
 62
     0
 10
2704.8486590000002
 20
3930.4602639999998
 30
0.0
 11
1999.8486589999991
 21
3930.4602639999998
 31
0.0
  0
INSERT
  5
7D40
  8
3
  6
CONTINUOUS
 62
     0
  2
_OPEN
 10
2764.8486590000002
 20
3930.4602639999998
 30
0.0
 41
60.0
 42
60.0
 43
60.0
  0
INSERT
  5
7D41
  8
3
  6
CONTINUOUS
 62
     0
  2
_OPEN
 10
1939.848659
 20
3930.4602639999998
 30
0.0
 41
60.0
 42
60.0
 43
60.0
 50
180.0
  0
TEXT
  8
3
  40
90
  5
7DC1
  62
0
  72
0
  71
0
 10
2191.00
 20
3846.16
 30
0.000000
  1
825
  0
POINT
  5
7D43
  8
DEFPOINTS
  6
CONTINUOUS
 62
     0
 10
2764.8486590000002
 20
3782.963952000001
 30
0.0
  0
POINT
  5
7D44
  8
DEFPOINTS
  6
CONTINUOUS
 62
     0
 10
1939.848659
 20
3782.963952000001
 30
0.0
  0
POINT
  5
7D45
  8
DEFPOINTS
  6
CONTINUOUS
 62
     0
 10
1939.848659
 20
3930.4602639999998
 30
0.0
  0
ENDBLK
  5
7B6B
  8
0
  0
BLOCK
  8
0
  2
*D2
 70
     1
 10
0.0
 20
0.0
 30
0.0
  3
*D2
  1

  0
LINE
  5
7D46
  8
3
  6
CONTINUOUS
 62
     0
 10
2764.8486590000002
 20
3797.9639520000001
 30
0.0
 11
2764.8486590000002
 21
4133.3075200000003
 31
0.0
  0
LINE
  5
7D47
  8
3
  6
CONTINUOUS
 62
     0
 10
1977.848659
 20
3900.9610439999992
 30
0.0
 11
1977.848659
 21
4133.3075200000003
 31
0.0
  0
LINE
  5
7D48
  8
3
  6
CONTINUOUS
 62
     0
 10
2704.8486590000002
 20
4103.3075200000003
 30
0.0
 11
2037.848659
 21
4103.3075200000003
 31
0.0
  0
INSERT
  5
7D49
  8
3
  6
CONTINUOUS
 62
     0
  2
_OPEN
 10
2764.8486590000002
 20
4103.3075200000003
 30
0.0
 41
60.0
 42
60.0
 43
60.0
  0
INSERT
  5
7D4A
  8
3
  6
CONTINUOUS
 62
     0
  2
_OPEN
 10
1977.848659
 20
4103.3075200000003
 30
0.0
 41
60.0
 42
60.0
 43
60.0
 50
180.0
  0
TEXT
  8
3
  40
90
  5
7DC2
  62
0
  72
0
  71
0
 10
2191.00
 20
4019.01
 30
0.000000
  1
787
  0
POINT
  5
7D4C
  8
DEFPOINTS
  6
CONTINUOUS
 62
     0
 10
2764.8486590000002
 20
3782.963952000001
 30
0.0
  0
POINT
  5
7D4D
  8
DEFPOINTS
  6
CONTINUOUS
 62
     0
 10
1977.848659
 20
3885.9610440000001
 30
0.0
  0
POINT
  5
7D4E
  8
DEFPOINTS
  6
CONTINUOUS
 62
     0
 10
1977.848659
 20
4103.3075200000003
 30
0.0
  0
ENDBLK
  5
7B78
  8
0
  0
BLOCK
  8
0
  2
*D3
 70
     1
 10
0.0
 20
0.0
 30
0.0
  3
*D3
  1

  0
LINE
  5
7D4F
  8
3
  6
CONTINUOUS
 62
     0
 10
1387.848659
 20
2477.9639520000001
 30
0.0
 11
1387.848659
 21
2250.047873
 31
0.0
  0
LINE
  5
7D50
  8
3
  6
CONTINUOUS
 62
     0
 10
1977.848659
 20
2374.8394320000002
 30
0.0
 11
1977.848659
 21
2250.047873
 31
0.0
  0
LINE
  5
7D51
  8
3
  6
CONTINUOUS
 62
     0
 10
1447.848659
 20
2280.047873
 30
0.0
 11
1917.848659
 21
2280.047873
 31
0.0
  0
INSERT
  5
7D52
  8
3
  6
CONTINUOUS
 62
     0
  2
_OPEN
 10
1387.848659
 20
2280.047873
 30
0.0
 41
60.0
 42
60.0
 43
60.0
 50
180.0
  0
INSERT
  5
7D53
  8
3
  6
CONTINUOUS
 62
     0
  2
_OPEN
 10
1977.848659
 20
2280.047873
 30
0.0
 41
60.0
 42
60.0
 43
60.0
  0
TEXT
  8
3
  40
90
  5
7DC3
  62
0
  72
0
  71
0
 10
1493.53
 20
2195.75
 30
0.000000
  1
590
  0
POINT
  5
7D55
  8
DEFPOINTS
  6
CONTINUOUS
 62
     0
 10
1387.848659
 20
2492.9639520000001
 30
0.0
  0
POINT
  5
7D56
  8
DEFPOINTS
  6
CONTINUOUS
 62
     0
 10
1977.848659
 20
2389.8394320000002
 30
0.0
  0
POINT
  5
7D57
  8
DEFPOINTS
  6
CONTINUOUS
 62
     0
 10
1977.848659
 20
2280.047873
 30
0.0
  0
ENDBLK
  5
7B91
  8
0
  0
BLOCK
  8
0
  2
*D4
 70
     1
 10
0.0
 20
0.0
 30
0.0
  3
*D4
  1

  0
LINE
  5
7D58
  8
3
  6
CONTINUOUS
 62
     0
 10
3177.8486590000002
 20
2477.9639520000001
 30
0.0
 11
3177.8486590000002
 21
2250.047873
 31
0.0
  0
LINE
  5
7D59
  8
3
  6
CONTINUOUS
 62
     0
 10
2037.848659
 20
2280.047873
 30
0.0
 11
3117.8486589999989
 21
2280.047873
 31
0.0
  0
INSERT
  5
7D5A
  8
3
  6
CONTINUOUS
 62
     0
  2
_OPEN
 10
1977.848659
 20
2280.047873
 30
0.0
 41
60.0
 42
60.0
 43
60.0
 50
180.0
  0
INSERT
  5
7D5B
  8
3
  6
CONTINUOUS
 62
     0
  2
_OPEN
 10
3177.8486590000002
 20
2280.047873
 30
0.0
 41
60.0
 42
60.0
 43
60.0
  0
TEXT
  8
3
  40
90
  5
7DC4
  62
0
  72
0
  71
0
 10
2397.85
 20
2195.75
 30
0.000000
  1
1200
  0
POINT
  5
7D5D
  8
DEFPOINTS
  6
CONTINUOUS
 62
     0
 10
1977.848659
 20
2389.8394320000002
 30
0.0
  0
POINT
  5
7D5E
  8
DEFPOINTS
  6
CONTINUOUS
 62
     0
 10
3177.8486590000002
 20
2492.9639520000001
 30
0.0
  0
POINT
  5
7D5F
  8
DEFPOINTS
  6
CONTINUOUS
 62
     0
 10
3177.8486590000002
 20
2280.047873
 30
0.0
  0
ENDBLK
  5
7B9D
  8
0
  0
BLOCK
  8
0
  2
*D5
 70
     1
 10
0.0
 20
0.0
 30
0.0
  3
*D5
  1

  0
LINE
  5
7D60
  8
3
  6
CONTINUOUS
 62
     0
 10
1882.348659
 20
3782.963952000001
 30
0.0
 11
1230.6242580000001
 21
3782.963952000001
 31
0.0
  0
LINE
  5
7D61
  8
3
  6
CONTINUOUS
 62
     0
 10
1274.5455869999989
 20
3187.9639520000001
 30
0.0
 11
1290.6242580000001
 21
3187.9639520000001
 31
0.0
  0
LINE
  5
7D62
  8
3
  6
CONTINUOUS
 62
     0
 10
1260.6242580000001
 20
3722.9639520000001
 30
0.0
 11
1260.6242580000001
 21
3247.9639520000001
 31
0.0
  0
INSERT
  5
7D63
  8
3
  6
CONTINUOUS
 62
     0
  2
_OPEN
 10
1260.6242580000001
 20
3782.963952000001
 30
0.0
 41
60.0
 42
60.0
 43
60.0
 50
90.0
  0
INSERT
  5
7D64
  8
3
  6
CONTINUOUS
 62
     0
  2
_OPEN
 10
1260.6242580000001
 20
3187.9639520000001
 30
0.0
 41
60.0
 42
60.0
 43
60.0
 50
270.0
  0
TEXT
  8
3
  40
90
  5
7DC5
  62
0
  72
0
  71
0
 10
1005.62
 20
3336.25
 30
0.000000
  1
595
  0
POINT
  5
7D66
  8
DEFPOINTS
  6
CONTINUOUS
 62
     0
 10
1897.348659
 20
3782.963952000001
 30
0.0
  0
POINT
  5
7D67
  8
DEFPOINTS
  6
CONTINUOUS
 62
     0
 10
1259.5455869999989
 20
3187.9639520000001
 30
0.0
  0
POINT
  5
7D68
  8
DEFPOINTS
  6
CONTINUOUS
 62
     0
 10
1260.6242580000001
 20
3187.9639520000001
 30
0.0
  0
ENDBLK
  5
7BAA
  8
0
  0
BLOCK
  8
0
  2
*D6
 70
     1
 10
0.0
 20
0.0
 30
0.0
  3
*D6
  1

  0
LINE
  5
7D69
  8
3
  6
CONTINUOUS
 62
     0
 10
1372.848659
 20
2492.9639520000001
 30
0.0
 11
1230.6242580000001
 21
2492.9639520000001
 31
0.0
  0
LINE
  5
7D6A
  8
3
  6
CONTINUOUS
 62
     0
 10
1260.6242580000001
 20
3127.9639519999992
 30
0.0
 11
1260.6242579999989
 21
2552.9639520000001
 31
0.0
  0
INSERT
  5
7D6B
  8
3
  6
CONTINUOUS
 62
     0
  2
_OPEN
 10
1260.6242580000001
 20
3187.9639520000001
 30
0.0
 41
60.0
 42
60.0
 43
60.0
 50
90.0
  0
INSERT
  5
7D6C
  8
3
  6
CONTINUOUS
 62
     0
  2
_OPEN
 10
1260.6242579999989
 20
2492.9639520000001
 30
0.0
 41
60.0
 42
60.0
 43
60.0
 50
270.0
  0
TEXT
  8
3
  40
90
  5
7DC6
  62
0
  72
0
  71
0
 10
1005.62
 20
2681.16
 30
0.000000
  1
695
  0
POINT
  5
7D6E
  8
DEFPOINTS
  6
CONTINUOUS
 62
     0
 10
1259.5455869999989
 20
3187.9639520000001
 30
0.0
  0
POINT
  5
7D6F
  8
DEFPOINTS
  6
CONTINUOUS
 62
     0
 10
1387.848659
 20
2492.9639520000001
 30
0.0
  0
POINT
  5
7D70
  8
DEFPOINTS
  6
CONTINUOUS
 62
     0
 10
1260.6242579999989
 20
2492.9639520000001
 30
0.0
  0
ENDBLK
  5
7BB6
  8
0
  0
BLOCK
  8
0
  2
*D7
 70
     1
 10
0.0
 20
0.0
 30
0.0
  3
*D7
  1

  0
LINE
  5
7D71
  8
3
  6
CONTINUOUS
 62
     0
 10
1867.348659
 20
3782.963952000001
 30
0.0
 11
1006.875597
 21
3782.963952000001
 31
0.0
  0
LINE
  5
7D72
  8
3
  6
CONTINUOUS
 62
     0
 10
1372.848659
 20
2492.9639520000001
 30
0.0
 11
1006.875597
 21
2492.9639520000001
 31
0.0
  0
LINE
  5
7D73
  8
3
  6
CONTINUOUS
 62
     0
 10
1036.875597
 20
3722.9639520000001
 30
0.0
 11
1036.875597
 21
2552.9639520000001
 31
0.0
  0
INSERT
  5
7D74
  8
3
  6
CONTINUOUS
 62
     0
  2
_OPEN
 10
1036.875597
 20
3782.963952000001
 30
0.0
 41
60.0
 42
60.0
 43
60.0
 50
90.0
  0
INSERT
  5
7D75
  8
3
  6
CONTINUOUS
 62
     0
  2
_OPEN
 10
1036.875597
 20
2492.9639520000001
 30
0.0
 41
60.0
 42
60.0
 43
60.0
 50
270.0
  0
TEXT
  8
3
  40
90
  5
7DC7
  62
0
  72
0
  71
0
 10
781.876
 20
2996.14
 30
0.000000
  1
1290
  0
POINT
  5
7D77
  8
DEFPOINTS
  6
CONTINUOUS
 62
     0
 10
1882.348659
 20
3782.963952000001
 30
0.0
  0
POINT
  5
7D78
  8
DEFPOINTS
  6
CONTINUOUS
 62
     0
 10
1387.848659
 20
2492.9639520000001
 30
0.0
  0
POINT
  5
7D79
  8
DEFPOINTS
  6
CONTINUOUS
 62
     0
 10
1036.875597
 20
2492.9639520000001
 30
0.0
  0
ENDBLK
  5
7BC3
  8
0
  0
BLOCK
  8
0
  2
*D8
 70
     1
 10
0.0
 20
0.0
 30
0.0
  3
*D8
  1

  0
LINE
  5
7D7A
  8
3
  6
CONTINUOUS
 62
     0
 10
4502.4841993112877
 20
3797.9639520000001
 30
0.0
 11
4502.4841993112877
 21
3965.789714
 31
0.0
  0
LINE
  5
7D7B
  8
3
  6
CONTINUOUS
 62
     0
 10
5102.4841993112868
 20
3797.9639520000001
 30
0.0
 11
5102.4841993112868
 21
3965.789714
 31
0.0
  0
LINE
  5
7D7C
  8
3
  6
CONTINUOUS
 62
     0
 10
4562.4841993112868
 20
3935.789714
 30
0.0
 11
5042.4841993112877
 21
3935.789714
 31
0.0
  0
INSERT
  5
7D7D
  8
3
  6
CONTINUOUS
 62
     0
  2
_OPEN
 10
4502.4841993112877
 20
3935.789714
 30
0.0
 41
60.0
 42
60.0
 43
60.0
 50
180.0
  0
INSERT
  5
7D7E
  8
3
  6
CONTINUOUS
 62
     0
  2
_OPEN
 10
5102.4841993112868
 20
3935.789714
 30
0.0
 41
60.0
 42
60.0
 43
60.0
  0
TEXT
  8
3
  40
90
  5
7DC8
  62
0
  72
0
  71
0
 10
4629.78
 20
3851.49
 30
0.000000
  1
600
  0
POINT
  5
7D80
  8
DEFPOINTS
  6
CONTINUOUS
 62
     0
 10
4502.4841993112877
 20
3782.963952000001
 30
0.0
  0
POINT
  5
7D81
  8
DEFPOINTS
  6
CONTINUOUS
 62
     0
 10
5102.4841993112868
 20
3782.963952000001
 30
0.0
  0
POINT
  5
7D82
  8
DEFPOINTS
  6
CONTINUOUS
 62
     0
 10
5102.4841993112868
 20
3935.789714
 30
0.0
  0
ENDBLK
  5
7CB0
  8
0
  0
BLOCK
  8
0
  2
*D9
 70
     1
 10
0.0
 20
0.0
 30
0.0
  3
*D9
  1

  0
LINE
  5
7D83
  8
3
  6
CONTINUOUS
 62
     0
 10
5121.4841993112877
 20
3612.9639520000001
 30
0.0
 11
5369.8650083112889
 21
3612.9639520000001
 31
0.0
  0
LINE
  5
7D84
  8
3
  6
CONTINUOUS
 62
     0
 10
5121.4841993112877
 20
2762.9639519999992
 30
0.0
 11
5369.8650083112889
 21
2762.9639519999992
 31
0.0
  0
LINE
  5
7D85
  8
3
  6
CONTINUOUS
 62
     0
 10
5339.8650083112889
 20
3552.9639520000001
 30
0.0
 11
5339.8650083112889
 21
2822.9639519999992
 31
0.0
  0
INSERT
  5
7D86
  8
3
  6
CONTINUOUS
 62
     0
  2
_OPEN
 10
5339.8650083112889
 20
3612.9639520000001
 30
0.0
 41
60.0
 42
60.0
 43
60.0
 50
90.0
  0
INSERT
  5
7D87
  8
3
  6
CONTINUOUS
 62
     0
  2
_OPEN
 10
5339.8650083112889
 20
2762.9639519999992
 30
0.0
 41
60.0
 42
60.0
 43
60.0
 50
270.0
  0
TEXT
  8
3
  40
90
  5
7DC9
  62
0
  72
0
  71
0
 10
5084.87
 20
3024.01
 30
0.000000
  1
φ850
  0
POINT
  5
7D89
  8
DEFPOINTS
  6
CONTINUOUS
 62
     0
 10
5106.4841993112877
 20
3612.9639520000001
 30
0.0
  0
POINT
  5
7D8A
  8
DEFPOINTS
  6
CONTINUOUS
 62
     0
 10
5106.4841993112877
 20
2762.9639520000001
 30
0.0
  0
POINT
  5
7D8B
  8
DEFPOINTS
  6
CONTINUOUS
 62
     0
 10
5339.8650083112889
 20
2762.9639519999992
 30
0.0
  0
ENDBLK
  5
7CE8
  8
0
  0
BLOCK
  8
0
  2
*D10
 70
     1
 10
0.0
 20
0.0
 30
0.0
  3
*D10
  1

  0
LINE
  5
7CD4
  8
0
  6
BYBLOCK
 62
     0
 10
5106.4841993112877
 20
3627.9639520000001
 30
0.0
 11
5106.4841993112877
 21
4155.3641129999996
 31
0.0
  0
LINE
  5
7CD5
  8
0
  6
BYBLOCK
 62
     0
 10
4802.4841993112877
 20
4093.981960999999
 30
0.0
 11
4802.4841993112877
 21
4155.3641129999996
 31
0.0
  0
LINE
  5
7CD6
  8
0
  6
BYBLOCK
 62
     0
 10
5046.4841993112868
 20
4125.3641129999996
 30
0.0
 11
4862.4841993112877
 21
4125.3641129999996
 31
0.0
  0
TEXT
  5
7CD7
  8
3
 62
     0
 10
4836.6270564541437
 20
4169.431778296188
 30
0.0
 40
90.0
  1
304
  0
INSERT
  5
7CD8
  8
0
  6
BYBLOCK
 62
     0
  2
_OPEN
 10
5106.4841993112877
 20
4125.3641129999996
 30
0.0
 41
60.0
 42
60.0
 43
60.0
  0
INSERT
  5
7CD9
  8
0
  6
BYBLOCK
 62
     0
  2
_OPEN
 10
4802.4841993112877
 20
4125.3641129999996
 30
0.0
 41
60.0
 42
60.0
 43
60.0
 50
180.0
  0
POINT
  5
7CDA
  8
DEFPOINTS
  6
BYBLOCK
 62
     0
 10
5106.4841993112877
 20
3612.9639520000001
 30
0.0
  0
POINT
  5
7CDB
  8
DEFPOINTS
  6
BYBLOCK
 62
     0
 10
4802.4841993112877
 20
4078.981961
 30
0.0
  0
POINT
  5
7CDC
  8
DEFPOINTS
  6
BYBLOCK
 62
     0
 10
4802.4841993112877
 20
4125.3641129999996
 30
0.0
  0
ENDBLK
  5
7CDD
  8
0
  0
BLOCK
  8
0
  2
*D11
 70
     1
 10
0.0
 20
0.0
 30
0.0
  3
*D11
  1

  0
LINE
  5
7D8C
  8
3
  6
CONTINUOUS
 62
     0
 10
4242.4841993112868
 20
3857.9639520000001
 30
0.0
 11
4242.4841993112868
 21
4155.3641129999996
 31
0.0
  0
LINE
  5
7D8D
  8
3
  6
CONTINUOUS
 62
     0
 10
4742.4841993112868
 20
4125.3641129999996
 30
0.0
 11
4302.4841993112877
 21
4125.3641129999996
 31
0.0
  0
INSERT
  5
7D8E
  8
3
  6
CONTINUOUS
 62
     0
  2
_OPEN
 10
4802.4841993112877
 20
4125.3641129999996
 30
0.0
 41
60.0
 42
60.0
 43
60.0
  0
INSERT
  5
7D8F
  8
3
  6
CONTINUOUS
 62
     0
  2
_OPEN
 10
4242.4841993112868
 20
4125.3641129999996
 30
0.0
 41
60.0
 42
60.0
 43
60.0
 50
180.0
  0
TEXT
  8
3
  40
90
  5
7DCA
  62
0
  72
0
  71
0
 10
4342.48
 20
4116.06
 30
0.000000
  1
MAX
  0
TEXT
  8
3
  40
90
  5
7DCB
  62
0
  72
0
  71
0
 10
4342.48
 20
3999.06
 30
0.000000
  1
610
  0
POINT
  5
7D91
  8
DEFPOINTS
  6
CONTINUOUS
 62
     0
 10
4802.4841993112877
 20
4078.981961
 30
0.0
  0
POINT
  5
7D92
  8
DEFPOINTS
  6
CONTINUOUS
 62
     0
 10
4242.4841993112868
 20
3842.963952000001
 30
0.0
  0
POINT
  5
7D93
  8
DEFPOINTS
  6
CONTINUOUS
 62
     0
 10
4242.4841993112868
 20
4125.3641129999996
 30
0.0
  0
ENDBLK
  5
7CF2
  8
0
  0
BLOCK
  8
0
  2
*D12
 70
     1
 10
0.0
 20
0.0
 30
0.0
  3
*D12
  1

  0
LINE
  5
7D94
  8
3
  6
CONTINUOUS
 62
     0
 10
4384.4841993112868
 20
2477.9639520000001
 30
0.0
 11
4384.4841993112868
 21
2236.1324559999989
 31
0.0
  0
LINE
  5
7D95
  8
3
  6
CONTINUOUS
 62
     0
 10
4802.4841993112877
 20
2293.505361
 30
0.0
 11
4802.4841993112877
 21
2236.1324559999989
 31
0.0
  0
LINE
  5
7D96
  8
3
  6
CONTINUOUS
 62
     0
 10
4324.4841993112877
 20
2266.1324559999989
 30
0.0
 11
4264.4841993112868
 21
2266.1324559999989
 31
0.0
  0
LINE
  5
7D97
  8
3
  6
CONTINUOUS
 62
     0
 10
4862.4841993112877
 20
2266.1324559999989
 30
0.0
 11
4922.4841993112877
 21
2266.1324559999989
 31
0.0
  0
LINE
  5
7D98
  8
3
  6
CONTINUOUS
 62
     0
 10
4384.4841993112868
 20
2266.1324559999989
 30
0.0
 11
4802.4841993112877
 21
2266.1324559999989
 31
0.0
  0
INSERT
  5
7D99
  8
3
  6
CONTINUOUS
 62
     0
  2
_OPEN
 10
4384.4841993112868
 20
2266.1324559999989
 30
0.0
 41
60.0
 42
60.0
 43
60.0
  0
INSERT
  5
7D9A
  8
3
  6
CONTINUOUS
 62
     0
  2
_OPEN
 10
4802.4841993112877
 20
2266.1324559999989
 30
0.0
 41
60.0
 42
60.0
 43
60.0
 50
180.0
  0
TEXT
  8
3
  40
90
  5
7DCC
  62
0
  72
0
  71
0
 10
4401.63
 20
2181.83
 30
0.000000
  1
418
  0
POINT
  5
7D9C
  8
DEFPOINTS
  6
CONTINUOUS
 62
     0
 10
4384.4841993112868
 20
2492.9639520000001
 30
0.0
  0
POINT
  5
7D9D
  8
DEFPOINTS
  6
CONTINUOUS
 62
     0
 10
4802.4841993112877
 20
2308.5053609999991
 30
0.0
  0
POINT
  5
7D9E
  8
DEFPOINTS
  6
CONTINUOUS
 62
     0
 10
4802.4841993112877
 20
2266.1324559999989
 30
0.0
  0
ENDBLK
  5
7C91
  8
0
  0
BLOCK
  8
0
  2
*D13
 70
     1
 10
0.0
 20
0.0
 30
0.0
  3
*D13
  1

  0
LINE
  5
7D9F
  8
3
  6
CONTINUOUS
 62
     0
 10
5204.4841993112877
 20
2477.9639520000001
 30
0.0
 11
5204.4841993112877
 21
2236.1324559999989
 31
0.0
  0
LINE
  5
7DA0
  8
3
  6
CONTINUOUS
 62
     0
 10
4862.4841993112877
 20
2266.1324559999989
 30
0.0
 11
5144.4841993112877
 21
2266.1324559999989
 31
0.0
  0
TEXT
  8
3
  40
90
  5
7DCD
  62
0
  72
0
  71
0
 10
4842.04
 20
2180.98
 30
0.000000
  1
402
  0
INSERT
  5
7DA2
  8
3
  6
CONTINUOUS
 62
     0
  2
_OPEN
 10
4802.4841993112877
 20
2266.1324559999989
 30
0.0
 41
60.0
 42
60.0
 43
60.0
 50
180.0
  0
INSERT
  5
7DA3
  8
3
  6
CONTINUOUS
 62
     0
  2
_OPEN
 10
5204.4841993112877
 20
2266.1324559999989
 30
0.0
 41
60.0
 42
60.0
 43
60.0
  0
POINT
  5
7DA4
  8
DEFPOINTS
  6
CONTINUOUS
 62
     0
 10
4802.4841993112877
 20
2308.5053609999991
 30
0.0
  0
POINT
  5
7DA5
  8
DEFPOINTS
  6
CONTINUOUS
 62
     0
 10
5204.4841993112877
 20
2492.9639520000001
 30
0.0
  0
POINT
  5
7DA6
  8
DEFPOINTS
  6
CONTINUOUS
 62
     0
 10
5204.4841993112877
 20
2266.1324559999989
 30
0.0
  0
ENDBLK
  5
7C9B
  8
0
  0
BLOCK
  8
0
  2
*D14
 70
     1
 10
0.0
 20
0.0
 30
0.0
  3
*D14
  1

  0
LINE
  5
7DA7
  8
3
  6
CONTINUOUS
 62
     0
 10
1387.848659
 20
6217.280135
 30
0.0
 11
1387.848659
 21
6475.5763880000004
 31
0.0
  0
LINE
  5
7DA8
  8
3
  6
CONTINUOUS
 62
     0
 10
3177.8486590000002
 20
6217.280135
 30
0.0
 11
3177.8486590000002
 21
6475.5763880000004
 31
0.0
  0
LINE
  5
7DA9
  8
3
  6
CONTINUOUS
 62
     0
 10
1447.848659
 20
6445.5763880000004
 30
0.0
 11
3117.8486589999989
 21
6445.5763880000004
 31
0.0
  0
INSERT
  5
7DAA
  8
3
  6
CONTINUOUS
 62
     0
  2
_OPEN
 10
1387.848659
 20
6445.5763880000004
 30
0.0
 41
60.0
 42
60.0
 43
60.0
 50
180.0
  0
INSERT
  5
7DAB
  8
3
  6
CONTINUOUS
 62
     0
  2
_OPEN
 10
3177.8486590000002
 20
6445.5763880000004
 30
0.0
 41
60.0
 42
60.0
 43
60.0
  0
TEXT
  8
3
  40
90
  5
7DCE
  62
0
  72
0
  71
0
 10
2117.91
 20
6361.28
 30
0.000000
  1
1790
  0
POINT
  5
7DAD
  8
DEFPOINTS
  6
CONTINUOUS
 62
     0
 10
1387.848659
 20
6202.280135
 30
0.0
  0
POINT
  5
7DAE
  8
DEFPOINTS
  6
CONTINUOUS
 62
     0
 10
3177.8486590000002
 20
6202.280135
 30
0.0
  0
POINT
  5
7DAF
  8
DEFPOINTS
  6
CONTINUOUS
 62
     0
 10
3177.8486590000002
 20
6445.5763880000004
 30
0.0
  0
ENDBLK
  5
7C70
  8
0
  0
BLOCK
  8
0
  2
*D15
 70
     1
 10
0.0
 20
0.0
 30
0.0
  3
*D15
  1

  0
LINE
  5
7DB0
  8
3
  6
CONTINUOUS
 62
     0
 10
3192.8486590000002
 20
6202.280135
 30
0.0
 11
3455.0297460000011
 21
6202.280135
 31
0.0
  0
LINE
  5
7DB1
  8
3
  6
CONTINUOUS
 62
     0
 10
3192.8486590000002
 20
5382.280135
 30
0.0
 11
3455.0297460000011
 21
5382.280135
 31
0.0
  0
LINE
  5
7DB2
  8
3
  6
CONTINUOUS
 62
     0
 10
3425.0297460000011
 20
6142.280135
 30
0.0
 11
3425.0297460000011
 21
5442.280135
 31
0.0
  0
INSERT
  5
7DB3
  8
3
  6
CONTINUOUS
 62
     0
  2
_OPEN
 10
3425.0297460000011
 20
6202.280135
 30
0.0
 41
60.0
 42
60.0
 43
60.0
 50
90.0
  0
INSERT
  5
7DB4
  8
3
  6
CONTINUOUS
 62
     0
  2
_OPEN
 10
3425.0297460000011
 20
5382.280135
 30
0.0
 41
60.0
 42
60.0
 43
60.0
 50
270.0
  0
TEXT
  8
3
  40
90
  5
7DCF
  62
0
  72
0
  71
0
 10
3170.03
 20
5631.65
 30
0.000000
  1
820
  0
POINT
  5
7DB6
  8
DEFPOINTS
  6
CONTINUOUS
 62
     0
 10
3177.8486590000002
 20
6202.280135
 30
0.0
  0
POINT
  5
7DB7
  8
DEFPOINTS
  6
CONTINUOUS
 62
     0
 10
3177.8486590000002
 20
5382.280135
 30
0.0
  0
POINT
  5
7DB8
  8
DEFPOINTS
  6
CONTINUOUS
 62
     0
 10
3425.0297460000011
 20
5382.280135
 30
0.0
  0
ENDBLK
  5
7C47
  8
0
  0
BLOCK
  8
0
  2
*D16
 70
     1
 10
0.0
 20
0.0
 30
0.0
  3
*D16
  1

  0
LINE
  5
7DB9
  8
3
  6
CONTINUOUS
 62
     0
 10
1401.8580118931261
 20
3202.9639520000001
 30
0.0
 11
1401.8580118931261
 21
4133.3075200000003
 31
0.0
  0
LINE
  5
7DBA
  8
3
  6
CONTINUOUS
 62
     0
 10
1917.848659
 20
4103.3075200000003
 30
0.0
 11
1461.8580118931261
 21
4103.3075200000003
 31
0.0
  0
INSERT
  5
7DBB
  8
3
  6
CONTINUOUS
 62
     0
  2
_OPEN
 10
1977.848659
 20
4103.3075200000003
 30
0.0
 41
60.0
 42
60.0
 43
60.0
  0
INSERT
  5
7DBC
  8
3
  6
CONTINUOUS
 62
     0
  2
_OPEN
 10
1401.8580118931261
 20
4103.3075200000003
 30
0.0
 41
60.0
 42
60.0
 43
60.0
 50
180.0
  0
TEXT
  8
3
  40
90
  5
7DD0
  62
0
  72
0
  71
0
 10
1509.85
 20
4019.01
 30
0.000000
  1
576
  0
POINT
  5
7DBE
  8
DEFPOINTS
  6
CONTINUOUS
 62
     0
 10
1977.848659
 20
3885.9610440000001
 30
0.0
  0
POINT
  5
7DBF
  8
DEFPOINTS
  6
CONTINUOUS
 62
     0
 10
1401.8580118931261
 20
3187.9639520000001
 30
0.0
  0
POINT
  5
7DC0
  8
DEFPOINTS
  6
CONTINUOUS
 62
     0
 10
1401.8580118931261
 20
4103.3075200000003
 30
0.0
  0
ENDBLK
  5
7CFD
  8
0
  0
ENDSEC
  0
SECTION
  2
ENTITIES
  0
LINE
  5
7A9E
  8
1
  6
CONTINUOUS
 10
2919.0186589999998
 20
2857.3039520000002
 30
0.0
 11
2080.6286589999991
 21
3359.5339520000002
 31
0.0
  0
ARC
  5
7A9F
  8
1
  6
CONTINUOUS
 10
2880.4686590000001
 20
2792.9639520000001
 30
0.0
 40
162.0
 50
324.97000000000003
 51
215.02999999999989
  0
CIRCLE
  5
7AA0
  8
1
  6
CONTINUOUS
 10
2880.4686590000001
 20
2792.9639520000001
 30
0.0
 40
75.0
  0
LINE
  5
7AA1
  8
1
  6
CONTINUOUS
 10
2127.8486589999989
 20
3842.963952000001
 30
0.0
 11
3037.8486589999989
 21
2892.9639520000001
 31
0.0
  0
LINE
  5
7AA2
  8
2
  6
CENTER
 10
2955.4686590000001
 20
2792.9639520000001
 30
0.0
 11
2805.4686590000001
 21
2792.9639520000001
 31
0.0
  0
LINE
  5
7AA3
  8
1
  6
CONTINUOUS
 10
1387.848659
 20
2492.9639520000001
 30
0.0
 11
3177.8486590000002
 21
2492.9639520000001
 31
0.0
  0
LINE
  5
7AA4
  8
1
  6
CONTINUOUS
 10
3042.4686590000001
 20
5923.280135
 30
0.0
 11
2764.8486590000002
 21
5923.280135
 31
0.0
  0
LINE
  5
7AA5
  8
1
  6
CONTINUOUS
 10
3042.4686590000001
 20
5438.280135
 30
0.0
 11
2718.4686590000001
 21
5438.280135
 31
0.0
  0
LINE
  5
7AA6
  8
1
  6
CONTINUOUS
 10
3037.8486589999989
 20
5240.280135
 30
0.0
 11
1557.848659
 21
5240.280135
 31
0.0
  0
LINE
  5
7AA7
  8
1
  6
CONTINUOUS
 10
3037.8486589999989
 20
5390.2801350000009
 30
0.0
 11
1557.848659
 21
5390.2801350000009
 31
0.0
  0
LINE
  5
7AA8
  8
1
  6
CONTINUOUS
 10
2805.4686590000001
 20
5350.280135
 30
0.0
 11
2955.4686590000001
 21
5350.280135
 31
0.0
  0
LINE
  5
7AA9
  8
1
  6
CONTINUOUS
 10
2805.4686590000001
 20
5280.280135
 30
0.0
 11
2955.4686590000001
 21
5280.280135
 31
0.0
  0
LINE
  5
7AAA
  8
1
  6
CONTINUOUS
 10
3177.8486590000002
 20
2592.9639520000001
 30
0.0
 11
1382.848659
 21
2592.9639520000001
 31
0.0
  0
ARC
  5
7AAB
  8
1
  6
CONTINUOUS
 10
2029.848659
 20
3239.9639520000001
 30
0.0
 40
717.88999999999987
 50
265.24000000000001
 51
355.85000000000002
  0
LINE
  5
7AAC
  8
1
  6
CONTINUOUS
 10
3177.8486590000002
 20
6202.280135
 30
0.0
 11
1387.848659
 21
6202.280135
 31
0.0
  0
LINE
  5
7AAD
  8
1
  6
CONTINUOUS
 10
2859.3686590000002
 20
2720.9939519999998
 30
0.0
 11
1921.558659
 21
2996.043952
 31
0.0
  0
LINE
  5
7AAF
  8
2
  6
CENTER
 10
1295.0973199999989
 20
3187.9639520000001
 30
0.0
 11
3021.1842120000001
 21
3187.9639520000001
 31
0.0
  0
CIRCLE
  5
7AB0
  8
1
  6
CONTINUOUS
 10
1977.848659
 20
3187.9639520000001
 30
0.0
 40
200.0
  0
LINE
  5
7AB1
  8
1
  6
CONTINUOUS
 10
1557.848659
 20
3842.963952000001
 30
0.0
 11
2127.8486589999989
 21
3842.963952000001
 31
0.0
  0
LINE
  5
7AB4
  8
1
  6
CONTINUOUS
 10
1897.348659
 20
3782.963952000001
 30
0.0
 11
2807.3486590000002
 21
3782.963952000001
 31
0.0
  0
LINE
  5
7AB5
  8
2
  6
CENTER
 10
1977.848659
 20
6309.9469630000003
 30
0.0
 11
1977.848659
 21
5155.427541
 31
0.0
  0
LINE
  5
7AB6
  8
1
  6
CONTINUOUS
 10
1557.848659
 20
2592.9639520000001
 30
0.0
 11
1557.848659
 21
3842.963952000001
 31
0.0
  0
ARC
  5
7AB7
  8
1
  6
CONTINUOUS
 10
2021.848659
 20
3143.9639520000001
 30
0.0
 40
621.54999999999995
 50
173.5
 51
265.24000000000001
  0
LINE
  5
7AB9
  8
1
  6
CONTINUOUS
 10
1387.848659
 20
2592.9639520000001
 30
0.0
 11
1387.848659
 21
2492.9639520000001
 31
0.0
  0
ARC
  5
7ABA
  8
1
  6
CONTINUOUS
 10
1942.848659
 20
3152.9639520000001
 30
0.0
 40
542.03999999999985
 50
90.319999999999993
 51
173.5
  0
LINE
  5
7ABB
  8
1
  6
CONTINUOUS
 10
1939.848659
 20
3694.9939519999998
 30
0.0
 11
1939.848659
 21
3782.963952000001
 31
0.0
  0
LINE
  5
7ABD
  8
1
  6
CONTINUOUS
 10
2726.4686590000001
 20
2650.9639520000001
 30
0.0
 11
2747.8186589999991
 21
2699.983952
 31
0.0
  0
LINE
  5
7ABE
  8
1
  6
CONTINUOUS
 10
2726.4686590000001
 20
2592.9639520000001
 30
0.0
 11
2726.4686590000001
 21
2650.9639520000001
 31
0.0
  0
LINE
  5
7ABF
  8
2
  6
CENTER
 10
2880.4686590000001
 20
2717.9639520000001
 30
0.0
 11
2880.4686590000001
 21
2867.9639520000001
 31
0.0
  0
LINE
  5
7AC0
  8
1
  6
CONTINUOUS
 10
2764.8486590000002
 20
3782.963952000001
 30
0.0
 11
2745.8486589999989
 21
3187.9639520000001
 31
0.0
  0
LINE
  5
7AC1
  8
1
  6
CONTINUOUS
 10
1939.848659
 20
5500.280135
 30
0.0
 11
2764.8486590000002
 21
6100.280135
 31
0.0
  0
LINE
  5
7AC2
  8
1
  6
CONTINUOUS
 10
1939.848659
 20
6100.280135
 30
0.0
 11
2764.8486590000002
 21
5500.280135
 31
0.0
  0
LINE
  5
7AC3
  8
1
  6
CONTINUOUS
 10
2764.8486590000002
 20
6100.280135
 30
0.0
 11
1400.298659
 21
6100.280135
 31
0.0
  0
LINE
  5
7AC4
  8
1
  6
CONTINUOUS
 10
2764.8486590000002
 20
5500.280135
 30
0.0
 11
1400.298659
 21
5500.280135
 31
0.0
  0
LINE
  5
7AC5
  8
1
  6
CONTINUOUS
 10
1777.8486589999991
 20
5350.280135
 30
0.0
 11
2177.8486589999989
 21
5350.280135
 31
0.0
  0
LINE
  5
7AC6
  8
1
  6
CONTINUOUS
 10
1777.8486589999991
 20
5280.280135
 30
0.0
 11
2177.8486589999989
 21
5280.280135
 31
0.0
  0
LINE
  5
7AC7
  8
1
  6
CONTINUOUS
 10
1400.298659
 20
5500.280135
 30
0.0
 11
1400.298659
 21
6100.280135
 31
0.0
  0
LINE
  5
7AC8
  8
1
  6
CONTINUOUS
 10
1939.848659
 20
5500.280135
 30
0.0
 11
1939.848659
 21
6100.280135
 31
0.0
  0
LINE
  5
7AC9
  8
1
  6
CONTINUOUS
 10
1387.848659
 20
6202.280135
 30
0.0
 11
1387.848659
 21
5382.280135
 31
0.0
  0
LINE
  5
7ACA
  8
1
  6
CONTINUOUS
 10
1956.848659
 20
5382.280135
 30
0.0
 11
1387.848659
 21
5382.280135
 31
0.0
  0
LINE
  5
7ACB
  8
1
  6
CONTINUOUS
 10
1557.848659
 20
5240.280135
 30
0.0
 11
1557.848659
 21
5390.2801350000009
 31
0.0
  0
LINE
  5
7ACC
  8
1
  6
CONTINUOUS
 10
1777.8486589999991
 20
5280.280135
 30
0.0
 11
1777.8486589999991
 21
5350.280135
 31
0.0
  0
LINE
  5
7ACD
  8
1
  6
CONTINUOUS
 10
1956.848659
 20
5350.280135
 30
0.0
 11
1956.848659
 21
5500.280135
 31
0.0
  0
LINE
  5
7ACE
  8
1
  6
CONTINUOUS
 10
2764.8486590000002
 20
5500.280135
 30
0.0
 11
2764.8486590000002
 21
6100.280135
 31
0.0
  0
LINE
  5
7ACF
  8
1
  6
CONTINUOUS
 10
2859.4686590000001
 20
5382.280135
 30
0.0
 11
1998.848659
 21
5382.280135
 31
0.0
  0
LINE
  5
7AD0
  8
1
  6
CONTINUOUS
 10
2177.8486589999989
 20
5280.280135
 30
0.0
 11
2177.8486589999989
 21
5350.280135
 31
0.0
  0
LINE
  5
7AD1
  8
1
  6
CONTINUOUS
 10
1998.848659
 20
5350.280135
 30
0.0
 11
1998.848659
 21
5500.280135
 31
0.0
  0
LINE
  5
7AD2
  8
1
  6
CONTINUOUS
 10
2859.4686590000001
 20
5350.280135
 30
0.0
 11
2859.4686590000001
 21
5438.280135
 31
0.0
  0
LINE
  5
7AD3
  8
1
  6
CONTINUOUS
 10
2718.4686590000001
 20
5438.280135
 30
0.0
 11
2718.4686590000001
 21
5500.280135
 31
0.0
  0
LINE
  5
7AD4
  8
1
  6
CONTINUOUS
 10
2805.4686590000001
 20
5280.280135
 30
0.0
 11
2805.4686590000001
 21
5350.280135
 31
0.0
  0
LINE
  5
7AD5
  8
1
  6
CONTINUOUS
 10
5144.4841993112877
 20
3782.963952000001
 30
0.0
 11
4460.4841993112868
 21
3782.963952000001
 31
0.0
  0
LINE
  5
7AD6
  8
1
  6
CONTINUOUS
 10
5204.4841993112877
 20
2592.9639520000001
 30
0.0
 11
4242.4841993112868
 21
2592.9639520000001
 31
0.0
  0
LINE
  5
7AD7
  8
1
  6
CONTINUOUS
 10
5204.4841993112877
 20
2492.9639520000001
 30
0.0
 11
4384.4841993112868
 21
2492.9639520000001
 31
0.0
  0
LINE
  5
7AE7
  8
1
  6
CONTINUOUS
 10
3034.4686590000001
 20
2592.9639520000001
 30
0.0
 11
3034.4686590000001
 21
2650.9639520000001
 31
0.0
  0
LINE
  5
7AE8
  8
1
  6
CONTINUOUS
 10
3034.4686590000001
 20
2650.9639520000001
 30
0.0
 11
3013.128659
 21
2699.983952
 31
0.0
  0
LINE
  5
7AE9
  8
1
  6
CONTINUOUS
 10
3037.8486589999989
 20
2892.9639520000001
 30
0.0
 11
3037.8486589999989
 21
2592.9639520000001
 31
0.0
  0
LINE
  5
7AEA
  8
1
  6
CONTINUOUS
 10
3177.8486590000002
 20
2592.9639520000001
 30
0.0
 11
3177.8486590000002
 21
2492.9639520000001
 31
0.0
  0
LINE
  5
7AFC
  8
1
  6
CONTINUOUS
 10
4352.4841993112868
 20
3387.9639520000001
 30
0.0
 11
4352.4841993112868
 21
2987.9639520000001
 31
0.0
  0
LINE
  5
7AFD
  8
1
  6
CONTINUOUS
 10
4282.4841993112868
 20
3387.9639520000001
 30
0.0
 11
4282.4841993112868
 21
2987.9639520000001
 31
0.0
  0
LINE
  5
7AFE
  8
1
  6
CONTINUOUS
 10
4392.4841993112868
 20
3842.963952000001
 30
0.0
 11
4392.4841993112868
 21
2592.9639520000001
 31
0.0
  0
LINE
  5
7AFF
  8
1
  6
CONTINUOUS
 10
4242.4841993112868
 20
3842.963952000001
 30
0.0
 11
4242.4841993112868
 21
2592.9639520000001
 31
0.0
  0
LINE
  5
7B00
  8
1
  6
CONTINUOUS
 10
4502.4841993112877
 20
3782.963952000001
 30
0.0
 11
4502.4841993112877
 21
2592.9639520000001
 31
0.0
  0
LINE
  5
7B01
  8
1
  6
CONTINUOUS
 10
4352.4841993112868
 20
2771.9639520000001
 30
0.0
 11
4502.4841993112877
 21
2771.9639520000001
 31
0.0
  0
LINE
  5
7B02
  8
1
  6
CONTINUOUS
 10
4352.4841993112868
 20
2813.9639520000001
 30
0.0
 11
4502.4841993112877
 21
2813.9639520000001
 31
0.0
  0
LINE
  5
7B03
  8
1
  6
CONTINUOUS
 10
4352.4841993112868
 20
2867.9639520000001
 30
0.0
 11
4352.4841993112868
 21
2717.9639520000001
 31
0.0
  0
LINE
  5
7B04
  8
1
  6
CONTINUOUS
 10
4282.4841993112868
 20
2867.9639520000001
 30
0.0
 11
4282.4841993112868
 21
2717.9639520000001
 31
0.0
  0
LINE
  5
7B05
  8
1
  6
CONTINUOUS
 10
4282.4841993112868
 20
2717.9639520000001
 30
0.0
 11
4352.4841993112868
 21
2717.9639520000001
 31
0.0
  0
LINE
  5
7B06
  8
1
  6
CONTINUOUS
 10
4282.4841993112868
 20
2867.9639520000001
 30
0.0
 11
4352.4841993112868
 21
2867.9639520000001
 31
0.0
  0
LINE
  5
7B07
  8
1
  6
CONTINUOUS
 10
4282.4841993112868
 20
2987.9639520000001
 30
0.0
 11
4352.4841993112868
 21
2987.9639520000001
 31
0.0
  0
LINE
  5
7B08
  8
1
  6
CONTINUOUS
 10
4384.4841993112868
 20
2592.9639520000001
 30
0.0
 11
4384.4841993112868
 21
2492.9639520000001
 31
0.0
  0
LINE
  5
7B09
  8
1
  6
CONTINUOUS
 10
4502.4841993112877
 20
3166.9639520000001
 30
0.0
 11
4352.4841993112868
 21
3166.9639520000001
 31
0.0
  0
LINE
  5
7B0A
  8
1
  6
CONTINUOUS
 10
4502.4841993112877
 20
3208.9639519999992
 30
0.0
 11
4352.4841993112868
 21
3208.9639519999992
 31
0.0
  0
LINE
  5
7B0B
  8
1
  6
CONTINUOUS
 10
4282.4841993112868
 20
3387.9639520000001
 30
0.0
 11
4352.4841993112868
 21
3387.9639520000001
 31
0.0
  0
LINE
  5
7B0C
  8
1
  6
CONTINUOUS
 10
4392.4841993112868
 20
3842.963952000001
 30
0.0
 11
4242.4841993112868
 21
3842.963952000001
 31
0.0
  0
LINE
  5
7B0D
  8
1
  6
CONTINUOUS
 10
5102.4841993112868
 20
3782.963952000001
 30
0.0
 11
5102.4841993112868
 21
2592.9639520000001
 31
0.0
  0
LINE
  5
7B0E
  8
1
  6
CONTINUOUS
 10
5204.4841993112877
 20
2592.9639520000001
 30
0.0
 11
5204.4841993112877
 21
2492.9639520000001
 31
0.0
  0
LINE
  5
7B1E
  8
1
  6
CONTINUOUS
 10
3042.4686590000001
 20
5438.280135
 30
0.0
 11
3042.4686590000001
 21
5923.280135
 31
0.0
  0
LINE
  5
7B1F
  8
1
  6
CONTINUOUS
 10
3177.8486590000002
 20
6202.280135
 30
0.0
 11
3177.8486590000002
 21
5382.280135
 31
0.0
  0
LINE
  5
7B22
  8
1
  6
CONTINUOUS
 10
3177.8486590000002
 20
5382.280135
 30
0.0
 11
2901.4686590000001
 21
5382.280135
 31
0.0
  0
LINE
  5
7B23
  8
1
  6
CONTINUOUS
 10
2901.4686590000001
 20
5350.280135
 30
0.0
 11
2901.4686590000001
 21
5438.280135
 31
0.0
  0
LINE
  5
7B24
  8
1
  6
CONTINUOUS
 10
3037.8486589999989
 20
5390.2801350000009
 30
0.0
 11
3037.8486589999989
 21
5240.280135
 31
0.0
  0
LINE
  5
7B25
  8
1
  6
CONTINUOUS
 10
2955.4686590000001
 20
5280.280135
 30
0.0
 11
2955.4686590000001
 21
5350.280135
 31
0.0
  0
LINE
  5
7B36
  8
2
  6
CENTER
 10
4802.4841993112877
 20
3918.8010260000001
 30
0.0
 11
4802.4841993112877
 21
2308.5053609999991
 31
0.0
  0
LINE
  5
7B37
  8
2
  6
CENTER
 10
3265.9706639999999
 20
5800.280135
 30
0.0
 11
1259.5455869999989
 21
5800.280135
 31
0.0
  0
LINE
  5
7B38
  8
2
  6
CENTER
 10
1977.848659
 20
3885.9610440000001
 30
0.0
 11
1977.848659
 21
2389.8394320000002
 31
0.0
  0
LINE
  5
7B39
  8
2
  6
CENTER
 10
4157.0000153112878
 20
3187.9639520000001
 30
0.0
 11
5161.311422311288
 21
3187.9639520000001
 31
0.0
  0
LINE
  5
7B3A
  8
4
  6
CONTINUOUS
 10
5550.0
 20
1500.0
 30
0.0
 11
5550.0
 21
900.0
 31
0.0
  0
LINE
  5
7B3B
  8
4
  6
CONTINUOUS
 10
3450.0
 20
1500.0
 30
0.0
 11
3450.0
 21
900.0
 31
0.0
  0
LINE
  5
7B3C
  8
4
  6
CONTINUOUS
 10
1950.0
 20
1500.0
 30
0.0
 11
1950.0
 21
900.0
 31
0.0
  0
LINE
  5
7B3F
  8
4
  6
CONTINUOUS
 10
1950.0
 20
900.0
 30
0.0
 11
5550.0
 21
900.0
 31
0.0
  0
LINE
  5
7B40
  8
4
  6
CONTINUOUS
 10
1950.0
 20
1200.0
 30
0.0
 11
5550.0
 21
1200.0
 31
0.0
  0
TEXT
  5
7B41
  8
4
  6
CONTINUOUS
 10
2065.5062429999989
 20
1294.6290779999999
 30
0.0
 40
150.0
  1
機器名称
  0
TEXT
  5
7B42
  8
4
  6
CONTINUOUS
 10
2058.7743179999989
 20
964.9354699999999
 30
0.0
 40
150.0
  1
機器型番
  0
TEXT
  5
7B43
  8
4
  6
CONTINUOUS
 10
3533.0362359999999
 20
1267.7153069999999
 30
0.0
 40
150.0
  1
ミツヤ多翼送風機
  0
TEXT
  5
7B44
  8
4
  6
CONTINUOUS
 10
3559.9634869999991
 20
951.47875299999987
 30
0.0
 40
150.0
  1
MF#5-4
  0
TEXT
  5
7B46
  8
4
  6
CONTINUOUS
 10
2404.562175
 20
7150.2865239999992
 30
0.0
 40
162.0
  1
天井吊ベット
  0
TEXT
  5
7B47
  8
4
  6
CONTINUOUS
 10
948.50278000000014
 20
7601.6429289999996
 30
0.0
 40
216.0
  1
ベルト駆動式片吸込両持多翼ファン
  0
LINE
  5
7B48
  8
4
  6
CONTINUOUS
 10
750.0
 20
7408.2262629999996
 30
0.0
 11
5550.0
 21
7408.2262629999996
 31
0.0
  0
LINE
  5
7B49
  8
4
  6
CONTINUOUS
 10
750.0
 20
8008.2262629999996
 30
0.0
 11
5550.0
 21
8008.2262629999996
 31
0.0
  0
LINE
  5
7B4A
  8
4
  6
CONTINUOUS
 10
1950.0
 20
1500.0
 30
0.0
 11
5550.0
 21
1500.0
 31
0.0
  0
LINE
  5
7B4B
  8
4
  6
CONTINUOUS
 10
750.0
 20
8008.2262629999996
 30
0.0
 11
750.0
 21
7408.2262629999996
 31
0.0
  0
TEXT
  5
7B4C
  8
4
  6
CONTINUOUS
 10
1096.985678
 20
7146.9584329999998
 30
0.0
 40
162.0
  1
左回転上向
  0
TEXT
  5
7B4D
  8
4
  6
CONTINUOUS
 10
4406.9086779999989
 20
8118.1832439999989
 30
0.0
 40
168.0
  1
No.
  0
TEXT
  5
7B4E
  8
4
  6
CONTINUOUS
 10
3933.8881879999999
 20
7150.2865239999992
 30
0.0
 40
162.0
  1
縮尺：1/30
  0
LINE
  5
7B4F
  8
4
  6
CONTINUOUS
 10
5550.0
 20
8008.2262629999996
 30
0.0
 11
5550.0
 21
7408.2262629999996
 31
0.0
  0
LINE
  5
7B51
  8
4
  6
CONTINUOUS
 10
4321.8522670000002
 20
8043.7907490000007
 30
0.0
 11
4321.8522670000002
 21
8359.9567849999985
 31
0.0
  0
LINE
  5
7B52
  8
4
  6
CONTINUOUS
 10
4321.8522670000002
 20
8359.9567849999985
 30
0.0
 11
5550.0
 21
8359.9567849999985
 31
0.0
  0
LINE
  5
7B53
  8
4
  6
CONTINUOUS
 10
5550.0
 20
8359.9567849999985
 30
0.0
 11
5550.0
 21
8043.7907490000007
 31
0.0
  0
LINE
  5
7B54
  8
4
  6
CONTINUOUS
 10
5550.0
 20
8043.7907490000007
 30
0.0
 11
4321.8522670000002
 21
8043.7907490000007
 31
0.0
  0
DIMENSION
  5
7B6C
  8
3
  6
CONTINUOUS
  2
*D1
 10
1939.848659
 20
3930.4602639999998
 30
0.0
 11
2371.004332
 21
3930.4602639999998
 31
0.0
 70
   128
 13
2764.8486590000002
 23
3782.963952000001
 33
0.0
 14
1939.848659
 24
3782.963952000001
 34
0.0
1001
ACAD
1000
DSTYLE
1002
{
1070
   287
1070
     3
1070
    40
1040
30.0
1070
   143
1040
0.039
1070
   172
1070
     1
1070
   271
1070
     0
1070
   279
1070
     0
1070
   288
1070
     1
1002
}
  0
DIMENSION
  5
7B79
  8
3
  6
CONTINUOUS
  2
*D2
 10
1977.848659
 20
4103.3075200000003
 30
0.0
 11
2371.004332
 21
4103.3075200000003
 31
0.0
 70
   128
 13
2764.8486590000002
 23
3782.963952000001
 33
0.0
 14
1977.848659
 24
3885.9610440000001
 34
0.0
1001
ACAD
1000
DSTYLE
1002
{
1070
   287
1070
     3
1070
    40
1040
30.0
1070
   143
1040
0.039
1070
   172
1070
     1
1070
   271
1070
     0
1070
   279
1070
     0
1070
   288
1070
     1
1002
}
  0
DIMENSION
  5
7B92
  8
3
  6
CONTINUOUS
  2
*D3
 10
1977.848659
 20
2280.047873
 30
0.0
 11
1673.5294180000001
 21
2280.047873
 31
0.0
 70
   128
 13
1387.848659
 23
2492.9639520000001
 33
0.0
 14
1977.848659
 24
2389.8394320000002
 34
0.0
1001
ACAD
1000
DSTYLE
1002
{
1070
   287
1070
     3
1070
    40
1040
30.0
1070
   143
1040
0.039
1070
   172
1070
     1
1070
   271
1070
     0
1070
   279
1070
     0
1070
   288
1070
     1
1002
}
  0
DIMENSION
  5
7B9E
  8
3
  6
CONTINUOUS
  2
*D4
 10
3177.8486590000002
 20
2280.047873
 30
0.0
 11
2577.8486590000002
 21
2355.047873
 31
0.0
 70
     0
 13
1977.848659
 23
2389.8394320000002
 33
0.0
 14
3177.8486590000002
 24
2492.9639520000001
 34
0.0
1001
ACAD
1000
DSTYLE
1002
{
1070
   287
1070
     4
1070
    40
1040
30.0
1070
    75
1070
     1
1070
   143
1040
0.039
1070
   172
1070
     1
1070
   271
1070
     0
1070
   279
1070
     1
1070
   288
1070
     1
1002
}
  0
DIMENSION
  5
7BAB
  8
3
  6
CONTINUOUS
  2
*D5
 10
1260.6242580000001
 20
3187.9639520000001
 30
0.0
 11
1260.6242579999989
 21
3495.55429
 31
0.0
 70
   128
 13
1897.348659
 23
3782.963952000001
 33
0.0
 14
1259.5455869999989
 24
3187.9639520000001
 34
0.0
 50
90.0
1001
ACAD
1000
DSTYLE
1002
{
1070
   287
1070
     3
1070
    40
1040
30.0
1070
   143
1040
0.039
1070
   172
1070
     1
1070
   271
1070
     0
1070
   279
1070
     0
1070
   288
1070
     1
1002
}
  0
DIMENSION
  5
7BB7
  8
3
  6
CONTINUOUS
  2
*D6
 10
1260.6242579999989
 20
2492.9639520000001
 30
0.0
 11
1185.6242579999989
 21
2840.4639520000001
 31
0.0
 70
     0
 13
1259.5455869999989
 23
3187.9639520000001
 33
0.0
 14
1387.848659
 24
2492.9639520000001
 34
0.0
 50
90.0
1001
ACAD
1000
DSTYLE
1002
{
1070
   287
1070
     4
1070
    40
1040
30.0
1070
    75
1070
     1
1070
   143
1040
0.039
1070
   172
1070
     1
1070
   271
1070
     0
1070
   279
1070
     1
1070
   288
1070
     1
1002
}
  0
DIMENSION
  5
7BC4
  8
3
  6
CONTINUOUS
  2
*D7
 10
1036.875597
 20
2492.9639520000001
 30
0.0
 11
1036.875597
 21
3155.4355270000001
 31
0.0
 70
   128
 13
1882.348659
 23
3782.963952000001
 33
0.0
 14
1387.848659
 24
2492.9639520000001
 34
0.0
 50
90.0
1001
ACAD
1000
DSTYLE
1002
{
1070
   287
1070
     3
1070
    40
1040
30.0
1070
   143
1040
0.039
1070
   172
1070
     1
1070
   271
1070
     0
1070
   279
1070
     0
1070
   288
1070
     1
1002
}
  0
DIMENSION
  5
7BD1
  8
3
  6
CONTINUOUS
  2
*D8
 10
5102.4841993112868
 20
3935.789714
 30
0.0
 11
4809.7840613112876
 21
3935.789714
 31
0.0
 70
   128
 13
4502.4841993112877
 23
3782.963952000001
 33
0.0
 14
5102.4841993112868
 24
3782.963952000001
 34
0.0
1001
ACAD
1000
DSTYLE
1002
{
1070
   287
1070
     3
1070
    40
1040
30.0
1070
   143
1040
0.039
1070
   172
1070
     1
1070
   271
1070
     0
1070
   279
1070
     0
1070
   288
1070
     1
1002
}
  0
LINE
  5
7BD2
  8
1
  6
CONTINUOUS
 10
5106.4841993112877
 20
3612.9639520000001
 30
0.0
 11
5106.4841993112877
 21
2762.9639520000001
 31
0.0
  0
DIMENSION
  5
7BE1
  8
3
  6
CONTINUOUS
  2
*D9
 10
5339.8650083112889
 20
2762.9639519999992
 30
0.0
 11
5339.8650083112889
 21
3183.314104
 31
0.0
 70
   128
 13
5106.4841993112877
 23
3612.9639520000001
 33
0.0
 14
5106.4841993112877
 24
2762.9639520000001
 34
0.0
 50
90.0
1001
ACAD
1000
DSTYLE
1002
{
1070
   287
1070
     3
1070
     3
1000
φ<>
1070
    40
1040
30.0
1070
   143
1040
0.039
1070
   172
1070
     1
1070
   271
1070
     0
1070
   279
1070
     0
1070
   288
1070
     1
1002
}
  0
DIMENSION
  5
7BF0
  8
3
  6
CONTINUOUS
  2
*D10
 10
4802.4841993112877
 20
4125.3641129999996
 30
0.0
 11
4954.4841993112877
 21
4214.4317782961871
 31
0.0
 70
   128
 13
5106.4841993112877
 23
3612.9639520000001
 33
0.0
 14
4802.4841993112877
 24
4078.981961
 34
0.0
1001
ACAD
1000
DSTYLE
1002
{
1070
   288
1070
     1
1070
   172
1070
     1
1070
    40
1040
30.0
1070
   271
1070
     0
1070
   143
1040
0.039
1002
}
  0
DIMENSION
  5
7BFC
  8
3
  6
CONTINUOUS
  2
*D11
 10
4242.4841993112868
 20
4125.3641129999996
 30
0.0
 11
4522.4841993112868
 21
4275.3641130000015
 31
0.0
 70
     0
  1
MAX\P610
 13
4802.4841993112877
 23
4078.981961
 33
0.0
 14
4242.4841993112868
 24
3842.963952000001
 34
0.0
1001
ACAD
1000
DSTYLE
1002
{
1070
   287
1070
     4
1070
    40
1040
30.0
1070
    75
1070
     1
1070
   143
1040
0.039
1070
   172
1070
     1
1070
   271
1070
     0
1070
   279
1070
     1
1070
   288
1070
     1
1002
}
  0
DIMENSION
  5
7C09
  8
3
  6
CONTINUOUS
  2
*D12
 10
4802.4841993112877
 20
2266.1324559999989
 30
0.0
 11
4581.6270563112867
 21
2266.1324559999989
 31
0.0
 70
   128
 13
4384.4841993112868
 23
2492.9639520000001
 33
0.0
 14
4802.4841993112877
 24
2308.5053609999991
 34
0.0
1001
ACAD
1000
DSTYLE
1002
{
1070
   287
1070
     3
1070
    40
1040
30.0
1070
   143
1040
0.039
1070
   172
1070
     1
1070
   271
1070
     0
1070
   279
1070
     0
1070
   288
1070
     1
1002
}
  0
DIMENSION
  5
7C17
  8
3
  6
CONTINUOUS
  2
*D13
 10
5204.4841993112877
 20
2266.1324559999989
 30
0.0
 11
5022.0426343112867
 21
2265.2787889999991
 31
0.0
 70
   128
 13
4802.4841993112877
 23
2308.5053609999991
 33
0.0
 14
5204.4841993112877
 24
2492.9639520000001
 34
0.0
1001
ACAD
1000
DSTYLE
1002
{
1070
   287
1070
     4
1070
    40
1040
30.0
1070
    75
1070
     1
1070
   143
1040
0.039
1070
   172
1070
     1
1070
   271
1070
     0
1070
   279
1070
     1
1070
   288
1070
     1
1002
}
  0
DIMENSION
  5
7C3B
  8
3
  6
CONTINUOUS
  2
*D14
 10
3177.8486590000002
 20
6445.5763880000004
 30
0.0
 11
2297.9102789999988
 21
6445.5763880000004
 31
0.0
 70
   128
 13
1387.848659
 23
6202.280135
 33
0.0
 14
3177.8486590000002
 24
6202.280135
 34
0.0
1001
ACAD
1000
DSTYLE
1002
{
1070
   287
1070
     3
1070
    40
1040
30.0
1070
   143
1040
0.039
1070
   172
1070
     1
1070
   271
1070
     0
1070
   279
1070
     0
1070
   288
1070
     1
1002
}
  0
DIMENSION
  5
7C48
  8
3
  6
CONTINUOUS
  2
*D15
 10
3425.0297460000011
 20
5382.280135
 30
0.0
 11
3425.0297460000002
 21
5790.9459690000003
 31
0.0
 70
   128
 13
3177.8486590000002
 23
6202.280135
 33
0.0
 14
3177.8486590000002
 24
5382.280135
 34
0.0
 50
90.0
1001
ACAD
1000
DSTYLE
1002
{
1070
   287
1070
     3
1070
    40
1040
30.0
1070
   143
1040
0.039
1070
   172
1070
     1
1070
   271
1070
     0
1070
   279
1070
     0
1070
   288
1070
     1
1002
}
  0
DIMENSION
  5
7C5A
  8
3
  6
CONTINUOUS
  2
*D16
 10
1401.8580118931261
 20
4103.3075200000003
 30
0.0
 11
1689.8533354465631
 21
4178.3075200000003
 31
0.0
 70
     0
 13
1977.848659
 23
3885.9610440000001
 33
0.0
 14
1401.8580118931261
 24
3187.9639520000001
 34
0.0
1001
ACAD
1000
DSTYLE
1002
{
1070
   287
1070
     4
1070
    40
1040
30.0
1070
    75
1070
     1
1070
   143
1040
0.039
1070
   172
1070
     1
1070
   271
1070
     0
1070
   279
1070
     1
1070
   288
1070
     1
1002
}
  0
LINE
  5
7D2B
  8
1
 10
1477.848659
 20
3592.9639520000001
 30
0.0
 11
1477.8486589999991
 21
2592.9639520000001
 31
0.0
  0
LINE
  5
7D2C
  8
1
 10
2477.8486590000002
 20
3592.9639520000001
 30
0.0
 11
2477.8486590000002
 21
2592.9639520000001
 31
0.0
  0
LINE
  5
7D2D
  8
1
  6
CONTINUOUS
 10
2477.8486590000002
 20
3592.9639520000001
 30
0.0
 11
1477.848659
 21
3592.9639520000001
 31
0.0
  0
ENDSEC
  0
EOF
