  0
SECTION
  2
HEADER
  9
$ACADVER
  1
AC1009
  9
$INSBASE
 10
0.0
 20
0.0
 30
0.0
  9
$EXTMIN
 10
0.0
 20
0.0
 30
0.0
  9
$EXTMAX
 10
6300.0
 20
8850.0
 30
0.0
  9
$LIMMIN
 10
0.0
 20
0.0
  9
$LIMMAX
 10
297.0
 20
210.0
  9
$ORTHOMODE
 70
     0
  9
$REGENMODE
 70
     1
  9
$FILLMODE
 70
     0
  9
$QTEXTMODE
 70
     0
  9
$MIRRTEXT
 70
     1
  9
$DRAGMODE
 70
     2
  9
$LTSCALE
 40
100.0
  9
$OSMODE
 70
    37
  9
$ATTMODE
 70
     1
  9
$TEXTSIZE
 40
180.0
  9
$TRACEWID
 40
0.05
  9
$TEXTSTYLE
  7
STANDARD
  9
$CLAYER
  8
3
  9
$CELTYPE
  6
BYLAYER
  9
$CECOLOR
 62
   256
  9
$DIMSCALE
 40
30.0
  9
$DIMASZ
 40
2.0
  9
$DIMEXO
 40
0.5
  9
$DIMDLI
 40
10.0
  9
$DIMRND
 40
0.0
  9
$DIMDLE
 40
0.0
  9
$DIMEXE
 40
1.0
  9
$DIMTP
 40
1.0
  9
$DIMTM
 40
1.0
  9
$DIMTXT
 40
3.0
  9
$DIMCEN
 40
0.0
  9
$DIMTSZ
 40
0.0
  9
$DIMTOL
 70
     0
  9
$DIMLIM
 70
     0
  9
$DIMTIH
 70
     0
  9
$DIMTOH
 70
     0
  9
$DIMSE1
 70
     0
  9
$DIMSE2
 70
     0
  9
$DIMTAD
 70
     1
  9
$DIMZIN
 70
     8
  9
$DIMBLK
  1

  9
$DIMASO
 70
     1
  9
$DIMSHO
 70
     1
  9
$DIMPOST
  1
φ<>
  9
$DIMAPOST
  1

  9
$DIMALT
 70
     0
  9
$DIMALTD
 70
     2
  9
$DIMALTF
 40
0.039
  9
$DIMLFAC
 40
1.0
  9
$DIMTOFL
 70
     1
  9
$DIMTVP
 40
0.0
  9
$DIMTIX
 70
     0
  9
$DIMSOXD
 70
     0
  9
$DIMSAH
 70
     1
  9
$DIMBLK1
  1
OPEN
  9
$DIMBLK2
  1
OPEN
  9
$DIMSTYLE
  2
IGA
  9
$DIMCLRD
 70
     0
  9
$DIMCLRE
 70
     0
  9
$DIMCLRT
 70
     0
  9
$DIMTFAC
 40
10.0
  9
$DIMGAP
 40
1.0
  9
$LUNITS
 70
     2
  9
$LUPREC
 70
     3
  9
$SKETCHINC
 40
0.1
  9
$FILLETRAD
 40
50.0
  9
$AUNITS
 70
     0
  9
$AUPREC
 70
     0
  9
$MENU
  1
acad
  9
$ELEVATION
 40
0.0
  9
$PELEVATION
 40
0.0
  9
$THICKNESS
 40
0.0
  9
$LIMCHECK
 70
     0
  9
$BLIPMODE
 70
     0
  9
$CHAMFERA
 40
0.5
  9
$CHAMFERB
 40
0.5
  9
$SKPOLY
 70
     0
  9
$TDCREATE
 40
2452676.6653555548
  9
$TDUPDATE
 40
2454953.7586112851
  9
$TDINDWG
 40
0.0279272106
  9
$TDUSRTIMER
 40
0.0279272106
  9
$USRTIMER
 70
     1
  9
$ANGBASE
 50
0.0
  9
$ANGDIR
 70
     0
  9
$PDMODE
 70
     0
  9
$PDSIZE
 40
0.0
  9
$PLINEWID
 40
0.0
  9
$COORDS
 70
     1
  9
$SPLFRAME
 70
     0
  9
$SPLINETYPE
 70
     6
  9
$SPLINESEGS
 70
     8
  9
$ATTDIA
 70
     0
  9
$ATTREQ
 70
     1
  9
$HANDLING
 70
 10241
  9
$HANDSEED
  5
7FC4
  9
$SURFTAB1
 70
     6
  9
$SURFTAB2
 70
     6
  9
$SURFTYPE
 70
     6
  9
$SURFU
 70
     6
  9
$SURFV
 70
     6
  9
$UCSNAME
  2

  9
$UCSORG
 10
0.0
 20
0.0
 30
0.0
  9
$UCSXDIR
 10
1.0
 20
0.0
 30
0.0
  9
$UCSYDIR
 10
0.0
 20
1.0
 30
0.0
  9
$PUCSNAME
  2

  9
$PUCSORG
 10
0.0
 20
0.0
 30
0.0
  9
$PUCSXDIR
 10
1.0
 20
0.0
 30
0.0
  9
$PUCSYDIR
 10
0.0
 20
1.0
 30
0.0
  9
$USERI1
 70
     0
  9
$USERI2
 70
     0
  9
$USERI3
 70
     0
  9
$USERI4
 70
     0
  9
$USERI5
 70
     0
  9
$USERR1
 40
0.0
  9
$USERR2
 40
0.0
  9
$USERR3
 40
0.0
  9
$USERR4
 40
0.0
  9
$USERR5
 40
0.0
  9
$WORLDVIEW
 70
     1
  9
$SHADEDGE
 70
     3
  9
$SHADEDIF
 70
    70
  9
$TILEMODE
 70
     1
  9
$MAXACTVP
 70
    16
  9
$PLIMCHECK
 70
     0
  9
$PEXTMIN
 10
1.0000000000000000E+020
 20
1.0000000000000000E+020
 30
1.0000000000000000E+020
  9
$PEXTMAX
 10
-1.0000000000000000E+020
 20
-1.0000000000000000E+020
 30
-1.0000000000000000E+020
  9
$PLIMMIN
 10
0.0
 20
0.0
  9
$PLIMMAX
 10
12.0
 20
9.0
  9
$UNITMODE
 70
     0
  9
$VISRETAIN
 70
     0
  9
$PLINEGEN
 70
     0
  9
$PSLTSCALE
 70
     1
  0
ENDSEC
  0
SECTION
  2
TABLES
  0
TABLE
  2
VPORT
 70
     2
  0
VPORT
  2
*ACTIVE
 70
     0
 10
0.0
 20
0.0
 11
1.0
 21
1.0
 12
10609.8298765541
 22
4425.0000206055138
 13
0.0
 23
0.0
 14
10.0
 24
10.0
 15
10.0
 25
10.0
 16
0.0
 26
0.0
 36
1.0
 17
0.0
 27
0.0
 37
0.0
 40
8917.8446490508068
 41
3.1666666666666661
 42
50.0
 43
0.0
 44
0.0
 50
0.0
 51
0.0
 71
     0
 72
   100
 73
     1
 74
     0
 75
     0
 76
     0
 77
     0
 78
     0
  0
ENDTAB
  0
TABLE
  2
LTYPE
 70
     2
  0
LTYPE
  2
CONTINUOUS
 70
     0
  3
Solid line
 72
    65
 73
     0
 40
0.0
  0
LTYPE
  2
CENTER
 70
     0
  3
____ _ ____ _ ____ _ ____ _ ____ _ ____ _ ____ 
 72
    65
 73
     4
 40
2.0
 49
1.25
 49
-0.25
 49
0.25
 49
-0.25
  0
ENDTAB
  0
TABLE
  2
LAYER
 70
     6
  0
LAYER
  2
0
 70
     0
 62
     7
  6
CONTINUOUS
  0
LAYER
  2
3
 70
     0
 62
     2
  6
CONTINUOUS
  0
LAYER
  2
2
 70
     0
 62
     3
  6
CENTER
  0
LAYER
  2
1
 70
     0
 62
     4
  6
CONTINUOUS
  0
LAYER
  2
4
 70
     0
 62
     7
  6
CONTINUOUS
  0
LAYER
  2
DEFPOINTS
 70
     0
 62
     7
  6
CONTINUOUS
  0
ENDTAB
  0
TABLE
  2
STYLE
 70
     1
  0
STYLE
  2
STANDARD
 70
     0
 40
0.0
 41
1.0
 50
0.0
 71
     0
 42
180.0
  3
simplex.shx
  4
extfont.shx
  0
ENDTAB
  0
TABLE
  2
VIEW
 70
     0
  0
ENDTAB
  0
TABLE
  2
UCS
 70
     0
  0
ENDTAB
  0
TABLE
  2
APPID
 70
     1
  0
APPID
  2
ACAD
 70
     0
  0
ENDTAB
  0
TABLE
  2
DIMSTYLE
 70
     1
  0
DIMSTYLE
  2
IGA
 70
     0
  3

  4

  5

  6
OPEN
  7
OPEN
 40
2.0
 41
2.0
 42
0.5
 43
10.0
 44
1.0
 45
0.0
 46
0.0
 47
1.0
 48
1.0
140
3.0
141
0.0
142
0.0
143
0.03937
144
1.0
145
0.0
146
10.0
147
1.0
 71
     0
 72
     0
 73
     0
 74
     0
 75
     0
 76
     0
 77
     1
 78
     8
170
     0
171
     2
172
     0
173
     1
174
     0
175
     0
176
     0
177
     0
178
     0
  0
ENDTAB
  0
ENDSEC
  0
SECTION
  2
BLOCKS
  0
BLOCK
  8
0
  2
$MODEL_SPACE
 70
     0
 10
0.0
 20
0.0
 30
0.0
  3
$MODEL_SPACE
  1

  0
ENDBLK
  5
1B
  8
0
  0
BLOCK
 67
     1
  8
0
  2
$PAPER_SPACE
 70
     0
 10
0.0
 20
0.0
 30
0.0
  3
$PAPER_SPACE
  1

  0
ENDBLK
  5
18
 67
     1
  8
0
  0
BLOCK
  8
0
  2
_OPEN
 70
     0
 10
0.0
 20
0.0
 30
0.0
  3
_OPEN
  1

  0
LINE
  5
7B80
  8
0
  6
BYBLOCK
 62
     0
 10
-1.0
 20
0.1666666666666666
 30
0.0
 11
0.0
 21
0.0
 31
0.0
  0
LINE
  5
7B81
  8
0
  6
BYBLOCK
 62
     0
 10
0.0
 20
0.0
 30
0.0
 11
-1.0
 21
-0.1666666666666666
 31
0.0
  0
LINE
  5
7B82
  8
0
  6
BYBLOCK
 62
     0
 10
0.0
 20
0.0
 30
0.0
 11
-1.0
 21
0.0
 31
0.0
  0
ENDBLK
  5
7B83
  8
0
  0
BLOCK
  8
0
  2
*D1
 70
     1
 10
0.0
 20
0.0
 30
0.0
  3
*D1
  1

  0
LINE
  5
7EFA
  8
3
 62
     0
 10
2199.1284585244448
 20
6514.1524204127254
 30
0.0
 11
2199.1284585244448
 21
6698.0473459470604
 31
0.0
  0
LINE
  5
7EFB
  8
3
 62
     0
 10
1199.1284585244441
 20
6514.1524204127254
 30
0.0
 11
1199.1284585244441
 21
6698.0473459470604
 31
0.0
  0
LINE
  5
7EFC
  8
3
 62
     0
 10
2139.1284585244448
 20
6668.0473459470586
 30
0.0
 11
1259.1284585244441
 21
6668.0473459470586
 31
0.0
  0
INSERT
  5
7EFD
  8
3
 62
     0
  2
_OPEN
 10
2199.1284585244448
 20
6668.0473459470586
 30
0.0
 41
60.0
 42
60.0
 43
60.0
  0
INSERT
  5
7EFE
  8
3
 62
     0
  2
_OPEN
 10
1199.1284585244441
 20
6668.0473459470586
 30
0.0
 41
60.0
 42
60.0
 43
60.0
 50
180.0
  0
TEXT
  8
3
  40
90
  5
7FAF
  62
0
  72
0
  71
0
 10
1520.42
 20
6583.75
 30
0.000000
  1
1000
  0
POINT
  5
7F00
  8
DEFPOINTS
 62
     0
 10
2199.1284585244448
 20
6499.1524204127236
 30
0.0
  0
POINT
  5
7F01
  8
DEFPOINTS
 62
     0
 10
1199.1284585244441
 20
6499.1524204127263
 30
0.0
  0
POINT
  5
7F02
  8
DEFPOINTS
 62
     0
 10
1199.1284585244441
 20
6668.0473459470586
 30
0.0
  0
ENDBLK
  5
7BC0
  8
0
  0
BLOCK
  8
0
  2
*D2
 70
     1
 10
0.0
 20
0.0
 30
0.0
  3
*D2
  1

  0
LINE
  5
7BDB
  8
0
  6
BYBLOCK
 62
     0
 10
1223.589143905157
 20
5854.1524204127254
 30
0.0
 11
1223.589143905157
 21
6698.0473459470604
 31
0.0
  0
LINE
  5
7BDC
  8
0
  6
BYBLOCK
 62
     0
 10
1453.589143905157
 20
6668.0473459470586
 30
0.0
 11
1283.589143905157
 21
6668.0473459470586
 31
0.0
  0
TEXT
  5
7BDD
  8
3
 62
     0
 10
1252.874858190871
 20
6704.5069104125869
 30
0.0
 40
90.0
  1
290
  0
INSERT
  5
7BDE
  8
0
  6
BYBLOCK
 62
     0
  2
_OPEN
 10
1513.589143905157
 20
6668.0473459470586
 30
0.0
 41
60.0
 42
60.0
 43
60.0
  0
INSERT
  5
7BDF
  8
0
  6
BYBLOCK
 62
     0
  2
_OPEN
 10
1223.589143905157
 20
6668.0473459470586
 30
0.0
 41
60.0
 42
60.0
 43
60.0
 50
180.0
  0
POINT
  5
7BE0
  8
DEFPOINTS
  6
BYBLOCK
 62
     0
 10
1513.589143905157
 20
6499.1524204127263
 30
0.0
  0
POINT
  5
7BE1
  8
DEFPOINTS
  6
BYBLOCK
 62
     0
 10
1223.589143905157
 20
5839.1524204127263
 30
0.0
  0
POINT
  5
7BE2
  8
DEFPOINTS
  6
BYBLOCK
 62
     0
 10
1223.589143905157
 20
6668.0473459470586
 30
0.0
  0
ENDBLK
  5
7BE3
  8
0
  0
BLOCK
  8
0
  2
*D3
 70
     1
 10
0.0
 20
0.0
 30
0.0
  3
*D3
  1

  0
LINE
  5
7F03
  8
3
 62
     0
 10
894.1284585244448
 20
5839.1524204127263
 30
0.0
 11
697.91824033684043
 21
5839.1524204127263
 31
0.0
  0
LINE
  5
7F04
  8
3
 62
     0
 10
894.1284585244448
 20
5089.1524204127236
 30
0.0
 11
697.91824033684031
 21
5089.1524204127236
 31
0.0
  0
LINE
  5
7F05
  8
3
 62
     0
 10
727.91824033684043
 20
5779.1524204127254
 30
0.0
 11
727.91824033684031
 21
5149.1524204127254
 31
0.0
  0
INSERT
  5
7F06
  8
3
 62
     0
  2
_OPEN
 10
727.91824033684043
 20
5839.1524204127263
 30
0.0
 41
60.0
 42
60.0
 43
60.0
 50
90.0
  0
INSERT
  5
7F07
  8
3
 62
     0
  2
_OPEN
 10
727.91824033684031
 20
5089.1524204127236
 30
0.0
 41
60.0
 42
60.0
 43
60.0
 50
270.0
  0
TEXT
  8
3
  40
90
  5
7FB0
  62
0
  72
0
  71
0
 10
472.918
 20
5263.58
 30
0.000000
  1
750
  0
POINT
  5
7F09
  8
DEFPOINTS
 62
     0
 10
909.1284585244448
 20
5839.1524204127263
 30
0.0
  0
POINT
  5
7F0A
  8
DEFPOINTS
 62
     0
 10
909.1284585244448
 20
5089.1524204127236
 30
0.0
  0
POINT
  5
7F0B
  8
DEFPOINTS
 62
     0
 10
727.91824033684031
 20
5089.1524204127236
 30
0.0
  0
ENDBLK
  5
7BEF
  8
0
  0
BLOCK
  8
0
  2
*D4
 70
     1
 10
0.0
 20
0.0
 30
0.0
  3
*D4
  1

  0
LINE
  5
7F0C
  8
3
 62
     0
 10
909.1284585244448
 20
5074.1524204127236
 30
0.0
 11
909.1284585244448
 21
4665.5621277755699
 31
0.0
  0
LINE
  5
7F0D
  8
3
 62
     0
 10
1979.1284585244441
 20
5074.1524204127254
 30
0.0
 11
1979.1284585244441
 21
4665.5621277755699
 31
0.0
  0
LINE
  5
7F0E
  8
3
 62
     0
 10
969.1284585244448
 20
4695.5621277755708
 30
0.0
 11
1919.1284585244441
 21
4695.5621277755708
 31
0.0
  0
INSERT
  5
7F0F
  8
3
 62
     0
  2
_OPEN
 10
909.1284585244448
 20
4695.5621277755708
 30
0.0
 41
60.0
 42
60.0
 43
60.0
 50
180.0
  0
INSERT
  5
7F10
  8
3
 62
     0
  2
_OPEN
 10
1979.1284585244441
 20
4695.5621277755708
 30
0.0
 41
60.0
 42
60.0
 43
60.0
  0
TEXT
  8
3
  40
90
  5
7FB1
  62
0
  72
0
  71
0
 10
1217.60
 20
4611.26
 30
0.000000
  1
1070
  0
POINT
  5
7F12
  8
DEFPOINTS
 62
     0
 10
909.1284585244448
 20
5089.1524204127236
 30
0.0
  0
POINT
  5
7F13
  8
DEFPOINTS
 62
     0
 10
1979.1284585244441
 20
5089.1524204127263
 30
0.0
  0
POINT
  5
7F14
  8
DEFPOINTS
 62
     0
 10
1979.1284585244441
 20
4695.5621277755708
 30
0.0
  0
ENDBLK
  5
7BFC
  8
0
  0
BLOCK
  8
0
  2
*D5
 70
     1
 10
0.0
 20
0.0
 30
0.0
  3
*D5
  1

  0
LINE
  5
7F15
  8
3
 62
     0
 10
1979.1284585244441
 20
5074.1524204127254
 30
0.0
 11
1979.1284585244441
 21
4665.5621277755699
 31
0.0
  0
LINE
  5
7F16
  8
3
 62
     0
 10
2199.1284585244439
 20
5774.1524204127254
 30
0.0
 11
2199.1284585244439
 21
4665.5621277755699
 31
0.0
  0
LINE
  5
7F17
  8
3
 62
     0
 10
2039.1284585244441
 20
4695.5621277755708
 30
0.0
 11
2139.1284585244439
 21
4695.5621277755708
 31
0.0
  0
LINE
  5
7F18
  8
3
 62
     0
 10
2199.1284585244439
 20
4695.5621277755708
 30
0.0
 11
2550.5570299530159
 21
4695.5621277755708
 31
0.0
  0
INSERT
  5
7F19
  8
3
 62
     0
  2
_OPEN
 10
1979.1284585244441
 20
4695.5621277755708
 30
0.0
 41
60.0
 42
60.0
 43
60.0
 50
180.0
  0
INSERT
  5
7F1A
  8
3
 62
     0
  2
_OPEN
 10
2199.1284585244439
 20
4695.5621277755708
 30
0.0
 41
60.0
 42
60.0
 43
60.0
  0
TEXT
  8
3
  40
90
  5
7FB2
  62
0
  72
0
  71
0
 10
2224.84
 20
4611.26
 30
0.000000
  1
220
  0
POINT
  5
7F1C
  8
DEFPOINTS
 62
     0
 10
1979.1284585244441
 20
5089.1524204127263
 30
0.0
  0
POINT
  5
7F1D
  8
DEFPOINTS
 62
     0
 10
2199.1284585244439
 20
5789.1524204127236
 30
0.0
  0
POINT
  5
7F1E
  8
DEFPOINTS
 62
     0
 10
2199.1284585244439
 20
4695.5621277755708
 30
0.0
  0
ENDBLK
  5
7C17
  8
0
  0
BLOCK
  8
0
  2
*D6
 70
     1
 10
0.0
 20
0.0
 30
0.0
  3
*D6
  1

  0
LINE
  5
7F1F
  8
3
 62
     0
 10
1994.1284585244441
 20
5089.1524204127263
 30
0.0
 11
2563.1555030144668
 21
5089.1524204127236
 31
0.0
  0
LINE
  5
7F20
  8
3
 62
     0
 10
2214.1284585244439
 20
5789.1524204127236
 30
0.0
 11
2563.1555030144668
 21
5789.1524204127236
 31
0.0
  0
LINE
  5
7F21
  8
3
 62
     0
 10
2533.1555030144668
 20
5149.1524204127254
 30
0.0
 11
2533.1555030144668
 21
5729.1524204127254
 31
0.0
  0
INSERT
  5
7F22
  8
3
 62
     0
  2
_OPEN
 10
2533.1555030144668
 20
5089.1524204127236
 30
0.0
 41
60.0
 42
60.0
 43
60.0
 50
270.0
  0
INSERT
  5
7F23
  8
3
 62
     0
  2
_OPEN
 10
2533.1555030144668
 20
5789.1524204127236
 30
0.0
 41
60.0
 42
60.0
 43
60.0
 50
90.0
  0
TEXT
  8
3
  40
90
  5
7FB3
  62
0
  72
0
  71
0
 10
2278.16
 20
5263.58
 30
0.000000
  1
700
  0
POINT
  5
7F25
  8
DEFPOINTS
 62
     0
 10
1979.1284585244441
 20
5089.1524204127263
 30
0.0
  0
POINT
  5
7F26
  8
DEFPOINTS
 62
     0
 10
2199.1284585244439
 20
5789.1524204127236
 30
0.0
  0
POINT
  5
7F27
  8
DEFPOINTS
 62
     0
 10
2533.1555030144668
 20
5789.1524204127236
 30
0.0
  0
ENDBLK
  5
7C23
  8
0
  0
BLOCK
  8
0
  2
*D7
 70
     1
 10
0.0
 20
0.0
 30
0.0
  3
*D7
  1

  0
LINE
  5
7F28
  8
3
 62
     0
 10
2214.1284585244448
 20
6499.1524204127236
 30
0.0
 11
2563.1555030144659
 21
6499.1524204127236
 31
0.0
  0
LINE
  5
7F29
  8
3
 62
     0
 10
2533.1555030144659
 20
5849.1524204127254
 30
0.0
 11
2533.1555030144659
 21
6439.1524204127254
 31
0.0
  0
INSERT
  5
7F2A
  8
3
 62
     0
  2
_OPEN
 10
2533.1555030144659
 20
5789.1524204127236
 30
0.0
 41
60.0
 42
60.0
 43
60.0
 50
270.0
  0
INSERT
  5
7F2B
  8
3
 62
     0
  2
_OPEN
 10
2533.1555030144659
 20
6499.1524204127236
 30
0.0
 41
60.0
 42
60.0
 43
60.0
 50
90.0
  0
TEXT
  8
3
  40
90
  5
7FB4
  62
0
  72
0
  71
0
 10
2278.16
 20
5984.85
 30
0.000000
  1
710
  0
POINT
  5
7F2D
  8
DEFPOINTS
 62
     0
 10
2199.1284585244439
 20
5789.1524204127236
 30
0.0
  0
POINT
  5
7F2E
  8
DEFPOINTS
 62
     0
 10
2199.1284585244448
 20
6499.1524204127236
 30
0.0
  0
POINT
  5
7F2F
  8
DEFPOINTS
 62
     0
 10
2533.1555030144659
 20
6499.1524204127236
 30
0.0
  0
ENDBLK
  5
7C3B
  8
0
  0
BLOCK
  8
0
  2
*D8
 70
     1
 10
0.0
 20
0.0
 30
0.0
  3
*D8
  1

  0
LINE
  5
7F30
  8
3
 62
     0
 10
909.1284585244448
 20
2219.1595629932681
 30
0.0
 11
909.1284585244448
 21
1988.0661391378919
 31
0.0
  0
LINE
  5
7F31
  8
3
 62
     0
 10
1699.1284585244441
 20
2172.7546927050662
 30
0.0
 11
1699.1284585244441
 21
1988.0661391378919
 31
0.0
  0
LINE
  5
7F32
  8
3
 62
     0
 10
969.1284585244448
 20
2018.0661391378919
 30
0.0
 11
1639.1284585244441
 21
2018.0661391378919
 31
0.0
  0
INSERT
  5
7F33
  8
3
 62
     0
  2
_OPEN
 10
909.1284585244448
 20
2018.0661391378919
 30
0.0
 41
60.0
 42
60.0
 43
60.0
 50
180.0
  0
INSERT
  5
7F34
  8
3
 62
     0
  2
_OPEN
 10
1699.1284585244441
 20
2018.0661391378919
 30
0.0
 41
60.0
 42
60.0
 43
60.0
  0
TEXT
  8
3
  40
90
  5
7FB5
  62
0
  72
0
  71
0
 10
1133.46
 20
1933.77
 30
0.000000
  1
790
  0
POINT
  5
7F36
  8
DEFPOINTS
 62
     0
 10
909.1284585244448
 20
2234.159562993269
 30
0.0
  0
POINT
  5
7F37
  8
DEFPOINTS
 62
     0
 10
1699.1284585244441
 20
2187.7546927050662
 30
0.0
  0
POINT
  5
7F38
  8
DEFPOINTS
 62
     0
 10
1699.1284585244441
 20
2018.0661391378919
 30
0.0
  0
ENDBLK
  5
7C48
  8
0
  0
BLOCK
  8
0
  2
*D9
 70
     1
 10
0.0
 20
0.0
 30
0.0
  3
*D9
  1

  0
LINE
  5
7F39
  8
3
 62
     0
 10
2199.1284585244439
 20
2219.1595629932699
 30
0.0
 11
2199.1284585244439
 21
1988.0661391378919
 31
0.0
  0
LINE
  5
7F3A
  8
3
 62
     0
 10
1759.1284585244441
 20
2018.0661391378919
 30
0.0
 11
2139.1284585244439
 21
2018.0661391378919
 31
0.0
  0
INSERT
  5
7F3B
  8
3
 62
     0
  2
_OPEN
 10
1699.1284585244441
 20
2018.0661391378919
 30
0.0
 41
60.0
 42
60.0
 43
60.0
 50
180.0
  0
INSERT
  5
7F3C
  8
3
 62
     0
  2
_OPEN
 10
2199.1284585244439
 20
2018.0661391378919
 30
0.0
 41
60.0
 42
60.0
 43
60.0
  0
TEXT
  8
3
  40
90
  5
7FB6
  62
0
  72
0
  71
0
 10
1769.13
 20
1933.77
 30
0.000000
  1
500
  0
POINT
  5
7F3E
  8
DEFPOINTS
 62
     0
 10
1699.1284585244441
 20
2187.7546927050662
 30
0.0
  0
POINT
  5
7F3F
  8
DEFPOINTS
 62
     0
 10
2199.1284585244439
 20
2234.159562993269
 30
0.0
  0
POINT
  5
7F40
  8
DEFPOINTS
 62
     0
 10
2199.1284585244439
 20
2018.0661391378919
 30
0.0
  0
ENDBLK
  5
7C54
  8
0
  0
BLOCK
  8
0
  2
*D10
 70
     1
 10
0.0
 20
0.0
 30
0.0
  3
*D10
  1

  0
LINE
  5
7F41
  8
3
 62
     0
 10
3669.973006374325
 20
2219.1595629932681
 30
0.0
 11
3669.973006374325
 21
1967.4430300480999
 31
0.0
  0
LINE
  5
7F42
  8
3
 62
     0
 10
4724.9730063743264
 20
2177.6459623387109
 30
0.0
 11
4724.9730063743264
 21
1967.4430300480999
 31
0.0
  0
LINE
  5
7F43
  8
3
 62
     0
 10
3729.973006374325
 20
1997.443030048099
 30
0.0
 11
4664.9730063743255
 21
1997.443030048099
 31
0.0
  0
INSERT
  5
7F44
  8
3
 62
     0
  2
_OPEN
 10
3669.973006374325
 20
1997.443030048099
 30
0.0
 41
60.0
 42
60.0
 43
60.0
 50
180.0
  0
INSERT
  5
7F45
  8
3
 62
     0
  2
_OPEN
 10
4724.9730063743264
 20
1997.443030048099
 30
0.0
 41
60.0
 42
60.0
 43
60.0
  0
TEXT
  8
3
  40
90
  5
7FB7
  62
0
  72
0
  71
0
 10
4022.49
 20
1913.14
 30
0.000000
  1
1055
  0
POINT
  5
7F47
  8
DEFPOINTS
 62
     0
 10
3669.973006374325
 20
2234.159562993269
 30
0.0
  0
POINT
  5
7F48
  8
DEFPOINTS
 62
     0
 10
4724.9730063743264
 20
2192.6459623387118
 30
0.0
  0
POINT
  5
7F49
  8
DEFPOINTS
 62
     0
 10
4724.9730063743264
 20
1997.443030048099
 30
0.0
  0
ENDBLK
  5
7C61
  8
0
  0
BLOCK
  8
0
  2
*D11
 70
     1
 10
0.0
 20
0.0
 30
0.0
  3
*D11
  1

  0
LINE
  5
7C7C
  8
0
  6
BYBLOCK
 62
     0
 10
5079.9730063743255
 20
2635.550081028442
 30
0.0
 11
5079.9730063743255
 21
2383.833548083272
 31
0.0
  0
LINE
  5
7C7D
  8
0
  6
BYBLOCK
 62
     0
 10
4784.9730063743255
 20
2413.833548083272
 30
0.0
 11
5019.9730063743255
 21
2413.833548083272
 31
0.0
  0
TEXT
  5
7C7E
  8
3
 62
     0
 10
4786.7587206600401
 20
2434.972110774801
 30
0.0
 40
90.0
  1
355
  0
INSERT
  5
7C7F
  8
0
  6
BYBLOCK
 62
     0
  2
_OPEN
 10
4724.9730063743264
 20
2413.833548083272
 30
0.0
 41
60.0
 42
60.0
 43
60.0
 50
180.0
  0
INSERT
  5
7C80
  8
0
  6
BYBLOCK
 62
     0
  2
_OPEN
 10
5079.9730063743255
 20
2413.833548083272
 30
0.0
 41
60.0
 42
60.0
 43
60.0
  0
POINT
  5
7C81
  8
DEFPOINTS
  6
BYBLOCK
 62
     0
 10
4724.9730063743264
 20
2609.0364803738839
 30
0.0
  0
POINT
  5
7C82
  8
DEFPOINTS
  6
BYBLOCK
 62
     0
 10
5079.9730063743255
 20
2650.550081028442
 30
0.0
  0
POINT
  5
7C83
  8
DEFPOINTS
  6
BYBLOCK
 62
     0
 10
5079.9730063743255
 20
2413.833548083272
 30
0.0
  0
ENDBLK
  5
7C84
  8
0
  0
BLOCK
  8
0
  2
*D12
 70
     1
 10
0.0
 20
0.0
 30
0.0
  3
*D12
  1

  0
LINE
  5
7F4A
  8
3
 62
     0
 10
2259.1284585244439
 20
3867.1595629932708
 30
0.0
 11
2670.0432058806482
 21
3867.1595629932708
 31
0.0
  0
LINE
  5
7F4B
  8
3
 62
     0
 10
2380.6002503748341
 20
3019.1595629932708
 30
0.0
 11
2670.0432058806468
 21
3019.1595629932708
 31
0.0
  0
LINE
  5
7F4C
  8
3
 62
     0
 10
2640.0432058806482
 20
3807.1595629932708
 30
0.0
 11
2640.0432058806482
 21
3079.1595629932699
 31
0.0
  0
INSERT
  5
7F4D
  8
3
 62
     0
  2
_OPEN
 10
2640.0432058806482
 20
3867.1595629932708
 30
0.0
 41
60.0
 42
60.0
 43
60.0
 50
90.0
  0
INSERT
  5
7F4E
  8
3
 62
     0
  2
_OPEN
 10
2640.0432058806482
 20
3019.1595629932708
 30
0.0
 41
60.0
 42
60.0
 43
60.0
 50
270.0
  0
TEXT
  8
3
  40
90
  5
7FB8
  62
0
  72
0
  71
0
 10
2385.04
 20
3295.67
 30
0.000000
  1
848
  0
POINT
  5
7F50
  8
DEFPOINTS
 62
     0
 10
2244.1284585244439
 20
3867.1595629932708
 30
0.0
  0
POINT
  5
7F51
  8
DEFPOINTS
 62
     0
 10
2365.6002503748341
 20
3019.1595629932708
 30
0.0
  0
POINT
  5
7F52
  8
DEFPOINTS
 62
     0
 10
2640.0432058806482
 20
3019.1595629932708
 30
0.0
  0
ENDBLK
  5
7D98
  8
0
  0
BLOCK
  8
0
  2
*D13
 70
     1
 10
0.0
 20
0.0
 30
0.0
  3
*D13
  1

  0
LINE
  5
7F53
  8
3
 62
     0
 10
2259.1284585244439
 20
3867.1595629932708
 30
0.0
 11
2469.6724019991748
 21
3867.1595629932708
 31
0.0
  0
LINE
  5
7F54
  8
3
 62
     0
 10
2259.1284585244439
 20
3042.1595629932708
 30
0.0
 11
2469.6724019991739
 21
3042.1595629932708
 31
0.0
  0
LINE
  5
7F55
  8
3
 62
     0
 10
2439.6724019991748
 20
3807.1595629932708
 30
0.0
 11
2439.6724019991748
 21
3102.1595629932708
 31
0.0
  0
INSERT
  5
7F56
  8
3
 62
     0
  2
_OPEN
 10
2439.6724019991748
 20
3867.1595629932708
 30
0.0
 41
60.0
 42
60.0
 43
60.0
 50
90.0
  0
INSERT
  5
7F57
  8
3
 62
     0
  2
_OPEN
 10
2439.6724019991748
 20
3042.1595629932708
 30
0.0
 41
60.0
 42
60.0
 43
60.0
 50
270.0
  0
TEXT
  8
3
  40
90
  5
7FB9
  62
0
  72
0
  71
0
 10
2184.67
 20
3315.67
 30
0.000000
  1
825
  0
POINT
  5
7F59
  8
DEFPOINTS
 62
     0
 10
2244.1284585244439
 20
3867.1595629932708
 30
0.0
  0
POINT
  5
7F5A
  8
DEFPOINTS
 62
     0
 10
2244.1284585244439
 20
3042.1595629932708
 30
0.0
  0
POINT
  5
7F5B
  8
DEFPOINTS
 62
     0
 10
2439.6724019991748
 20
3042.1595629932708
 30
0.0
  0
ENDBLK
  5
7D5F
  8
0
  0
BLOCK
  8
0
  2
*D14
 70
     1
 10
0.0
 20
0.0
 30
0.0
  3
*D14
  1

  0
LINE
  5
7F5C
  8
3
 62
     0
 10
2214.1284585244439
 20
2429.1595629932699
 30
0.0
 11
2670.0432058806468
 21
2429.1595629932699
 31
0.0
  0
LINE
  5
7F5D
  8
3
 62
     0
 10
2640.0432058806468
 20
2959.1595629932708
 30
0.0
 11
2640.0432058806468
 21
2489.1595629932708
 31
0.0
  0
INSERT
  5
7F5E
  8
3
 62
     0
  2
_OPEN
 10
2640.0432058806468
 20
3019.1595629932708
 30
0.0
 41
60.0
 42
60.0
 43
60.0
 50
90.0
  0
INSERT
  5
7F5F
  8
3
 62
     0
  2
_OPEN
 10
2640.0432058806468
 20
2429.1595629932699
 30
0.0
 41
60.0
 42
60.0
 43
60.0
 50
270.0
  0
TEXT
  8
3
  40
90
  5
7FBA
  62
0
  72
0
  71
0
 10
2385.04
 20
2564.86
 30
0.000000
  1
590
  0
POINT
  5
7F61
  8
DEFPOINTS
 62
     0
 10
2365.6002503748341
 20
3019.1595629932708
 30
0.0
  0
POINT
  5
7F62
  8
DEFPOINTS
 62
     0
 10
2199.1284585244439
 20
2429.1595629932699
 30
0.0
  0
POINT
  5
7F63
  8
DEFPOINTS
 62
     0
 10
2640.0432058806468
 20
2429.1595629932699
 30
0.0
  0
ENDBLK
  5
7D80
  8
0
  0
BLOCK
  8
0
  2
*D15
 70
     1
 10
0.0
 20
0.0
 30
0.0
  3
*D15
  1

  0
LINE
  5
7EB3
  8
0
  6
BYBLOCK
 62
     0
 10
2214.1284585244439
 20
2334.159562993269
 30
0.0
 11
2670.0432058806468
 21
2334.159562993269
 31
0.0
  0
LINE
  5
7EB4
  8
0
  6
BYBLOCK
 62
     0
 10
2640.0432058806468
 20
2489.1595629932708
 30
0.0
 11
2640.0432058806468
 21
2549.1595629932708
 31
0.0
  0
LINE
  5
7EB5
  8
0
  6
BYBLOCK
 62
     0
 10
2640.0432058806468
 20
2274.1595629932699
 30
0.0
 11
2640.0432058806468
 21
2214.159562993269
 31
0.0
  0
TEXT
  5
7EB6
  8
3
 62
     0
 10
2813.6146344520762
 20
2250.9452772789841
 30
0.0
 40
90.0
  1
(95)
 50
90.0
  0
LINE
  5
7EB7
  8
0
  6
BYBLOCK
 62
     0
 10
2640.0432058806468
 20
2429.1595629932699
 30
0.0
 11
2640.0432058806468
 21
2334.159562993269
 31
0.0
  0
INSERT
  5
7EB8
  8
0
  6
BYBLOCK
 62
     0
  2
_OPEN
 10
2640.0432058806468
 20
2429.1595629932699
 30
0.0
 41
60.0
 42
60.0
 43
60.0
 50
270.0
  0
INSERT
  5
7EB9
  8
0
  6
BYBLOCK
 62
     0
  2
_DOT
 10
2640.0432058806468
 20
2334.159562993269
 30
0.0
 41
60.0
 42
60.0
 43
60.0
 50
90.0
  0
POINT
  5
7EBA
  8
DEFPOINTS
  6
BYBLOCK
 62
     0
 10
2199.1284585244439
 20
2429.1595629932699
 30
0.0
  0
POINT
  5
7EBB
  8
DEFPOINTS
  6
BYBLOCK
 62
     0
 10
2199.1284585244439
 20
2334.159562993269
 30
0.0
  0
POINT
  5
7EBC
  8
DEFPOINTS
  6
BYBLOCK
 62
     0
 10
2640.0432058806468
 20
2334.159562993269
 30
0.0
  0
ENDBLK
  5
7EBD
  8
0
  0
BLOCK
  8
0
  2
*D16
 70
     1
 10
0.0
 20
0.0
 30
0.0
  3
*D16
  1

  0
LINE
  5
7F64
  8
3
 62
     0
 10
2214.1284585244439
 20
2334.159562993269
 30
0.0
 11
2670.0432058806468
 21
2334.159562993269
 31
0.0
  0
LINE
  5
7F65
  8
3
 62
     0
 10
2214.1284585244439
 20
2234.159562993269
 30
0.0
 11
2670.0432058806468
 21
2234.159562993269
 31
0.0
  0
LINE
  5
7F66
  8
3
 62
     0
 10
2640.0432058806468
 20
2394.159562993269
 30
0.0
 11
2640.0432058806468
 21
2454.1595629932699
 31
0.0
  0
LINE
  5
7F67
  8
3
 62
     0
 10
2640.0432058806468
 20
2174.1595629932699
 30
0.0
 11
2640.0432058806468
 21
1839.873848707555
 31
0.0
  0
LINE
  5
7F68
  8
3
 62
     0
 10
2640.0432058806468
 20
2334.159562993269
 30
0.0
 11
2640.0432058806468
 21
2234.159562993269
 31
0.0
  0
INSERT
  5
7F69
  8
3
 62
     0
  2
_DOT
 10
2640.0432058806468
 20
2334.159562993269
 30
0.0
 41
60.0
 42
60.0
 43
60.0
 50
270.0
  0
INSERT
  5
7F6A
  8
3
 62
     0
  2
_OPEN
 10
2640.0432058806468
 20
2234.159562993269
 30
0.0
 41
60.0
 42
60.0
 43
60.0
 50
90.0
  0
TEXT
  8
3
  40
90
  5
7FBB
  62
0
  72
0
  71
0
 10
2385.04
 20
1817.72
 30
0.000000
  1
100
  0
POINT
  5
7F6C
  8
DEFPOINTS
 62
     0
 10
2199.1284585244439
 20
2334.159562993269
 30
0.0
  0
POINT
  5
7F6D
  8
DEFPOINTS
 62
     0
 10
2199.1284585244439
 20
2234.159562993269
 30
0.0
  0
POINT
  5
7F6E
  8
DEFPOINTS
 62
     0
 10
2640.0432058806468
 20
2234.159562993269
 30
0.0
  0
ENDBLK
  5
7EB1
  8
0
  0
BLOCK
  8
0
  2
_DOT
 70
     0
 10
0.0
 20
0.0
 30
0.0
  3
_DOT
  1

  0
LINE
  5
7E6F
  8
0
  6
BYBLOCK
 62
     0
 10
0.0
 20
0.0
 30
0.0
 11
-1.0
 21
-0.0000000000000284
 31
0.0
  0
POLYLINE
  5
7E70
  8
0
  6
BYBLOCK
 62
     0
 66
     1
 10
0.0
 20
0.0
 30
0.0
 70
     1
 40
0.1666666666666666
 41
0.1666666666666666
  0
VERTEX
  5
7FA3
  8
0
  6
BYBLOCK
 62
     0
 10
-0.0833333333333286
 20
-0.0000000000000284
 30
0.0
 42
1.0
  0
VERTEX
  5
7FA4
  8
0
  6
BYBLOCK
 62
     0
 10
0.0833333333333286
 20
-0.0000000000000284
 30
0.0
 42
1.0
  0
SEQEND
  5
7FA5
  8
0
  6
BYBLOCK
 62
     0
  0
ENDBLK
  5
7D18
  8
0
  0
BLOCK
  8
0
  2
*D18
 70
     1
 10
0.0
 20
0.0
 30
0.0
  3
*D18
  1

  0
LINE
  5
7F6F
  8
3
 62
     0
 10
2259.1284585244439
 20
3909.6595629932708
 30
0.0
 11
2933.9544732919389
 21
3909.6595629932708
 31
0.0
  0
LINE
  5
7F70
  8
3
 62
     0
 10
2214.1284585244439
 20
2234.159562993269
 30
0.0
 11
2933.954473291938
 21
2234.159562993269
 31
0.0
  0
LINE
  5
7F71
  8
3
 62
     0
 10
2903.9544732919389
 20
3849.6595629932699
 30
0.0
 11
2903.9544732919389
 21
2294.159562993269
 31
0.0
  0
INSERT
  5
7F72
  8
3
 62
     0
  2
_OPEN
 10
2903.9544732919389
 20
3909.6595629932708
 30
0.0
 41
60.0
 42
60.0
 43
60.0
 50
90.0
  0
INSERT
  5
7F73
  8
3
 62
     0
  2
_OPEN
 10
2903.9544732919389
 20
2234.159562993269
 30
0.0
 41
60.0
 42
60.0
 43
60.0
 50
270.0
  0
TEXT
  8
3
  40
90
  5
7FBC
  62
0
  72
0
  71
0
 10
2648.95
 20
2882.32
 30
0.000000
  1
1676
  0
POINT
  5
7F75
  8
DEFPOINTS
 62
     0
 10
2244.1284585244439
 20
3909.6595629932708
 30
0.0
  0
POINT
  5
7F76
  8
DEFPOINTS
 62
     0
 10
2199.1284585244439
 20
2234.159562993269
 30
0.0
  0
POINT
  5
7F77
  8
DEFPOINTS
 62
     0
 10
2903.9544732919389
 20
2234.159562993269
 30
0.0
  0
ENDBLK
  5
7EA4
  8
0
  0
BLOCK
  8
0
  2
*D19
 70
     1
 10
0.0
 20
0.0
 30
0.0
  3
*D19
  1

  0
LINE
  5
7F78
  8
3
 62
     0
 10
2244.1284585244439
 20
3924.6595629932699
 30
0.0
 11
2244.1284585244439
 21
4116.6467062608754
 31
0.0
  0
LINE
  5
7F79
  8
3
 62
     0
 10
1699.1284585244441
 20
3892.8428956205139
 30
0.0
 11
1699.1284585244441
 21
4116.6467062608754
 31
0.0
  0
LINE
  5
7F7A
  8
3
 62
     0
 10
2184.1284585244439
 20
4086.6467062608749
 30
0.0
 11
1759.1284585244441
 21
4086.6467062608749
 31
0.0
  0
INSERT
  5
7F7B
  8
3
 62
     0
  2
_OPEN
 10
2244.1284585244439
 20
4086.6467062608749
 30
0.0
 41
60.0
 42
60.0
 43
60.0
  0
INSERT
  5
7F7C
  8
3
 62
     0
  2
_OPEN
 10
1699.1284585244441
 20
4086.6467062608749
 30
0.0
 41
60.0
 42
60.0
 43
60.0
 50
180.0
  0
TEXT
  8
3
  40
90
  5
7FBD
  62
0
  72
0
  71
0
 10
1804.14
 20
4002.35
 30
0.000000
  1
545
  0
POINT
  5
7F7E
  8
DEFPOINTS
 62
     0
 10
2244.1284585244439
 20
3909.6595629932708
 30
0.0
  0
POINT
  5
7F7F
  8
DEFPOINTS
 62
     0
 10
1699.1284585244441
 20
3877.842895620513
 30
0.0
  0
POINT
  5
7F80
  8
DEFPOINTS
 62
     0
 10
1699.1284585244441
 20
4086.6467062608749
 30
0.0
  0
ENDBLK
  5
7DB1
  8
0
  0
BLOCK
  8
0
  2
*D20
 70
     1
 10
0.0
 20
0.0
 30
0.0
  3
*D20
  1

  0
LINE
  5
7F81
  8
3
 62
     0
 10
1013.128458524444
 20
3093.1595629932708
 30
0.0
 11
1013.128458524444
 21
4116.6467062608754
 31
0.0
  0
LINE
  5
7F82
  8
3
 62
     0
 10
1639.1284585244441
 20
4086.6467062608749
 30
0.0
 11
1073.1284585244441
 21
4086.6467062608749
 31
0.0
  0
INSERT
  5
7F83
  8
3
 62
     0
  2
_OPEN
 10
1699.1284585244441
 20
4086.6467062608749
 30
0.0
 41
60.0
 42
60.0
 43
60.0
  0
INSERT
  5
7F84
  8
3
 62
     0
  2
_OPEN
 10
1013.128458524444
 20
4086.6467062608749
 30
0.0
 41
60.0
 42
60.0
 43
60.0
 50
180.0
  0
TEXT
  8
3
  40
90
  5
7FBE
  62
0
  72
0
  71
0
 10
1176.13
 20
4002.35
 30
0.000000
  1
686
  0
POINT
  5
7F86
  8
DEFPOINTS
 62
     0
 10
1699.1284585244441
 20
3877.842895620513
 30
0.0
  0
POINT
  5
7F87
  8
DEFPOINTS
 62
     0
 10
1013.128458524444
 20
3078.1595629932699
 30
0.0
  0
POINT
  5
7F88
  8
DEFPOINTS
 62
     0
 10
1013.128458524444
 20
4086.6467062608749
 30
0.0
  0
ENDBLK
  5
7DBD
  8
0
  0
BLOCK
  8
0
  2
*D21
 70
     1
 10
0.0
 20
0.0
 30
0.0
  3
*D21
  1

  0
LINE
  5
7F89
  8
3
 62
     0
 10
2244.1284585244439
 20
3924.6595629932699
 30
0.0
 11
2244.1284585244439
 21
4327.5257618911783
 31
0.0
  0
LINE
  5
7F8A
  8
3
 62
     0
 10
899.1284585244448
 20
2584.1595629932708
 30
0.0
 11
899.1284585244448
 21
4327.5257618911783
 31
0.0
  0
LINE
  5
7F8B
  8
3
 62
     0
 10
2184.1284585244439
 20
4297.5257618911783
 30
0.0
 11
959.12845852444502
 21
4297.5257618911783
 31
0.0
  0
INSERT
  5
7F8C
  8
3
 62
     0
  2
_OPEN
 10
2244.1284585244439
 20
4297.5257618911783
 30
0.0
 41
60.0
 42
60.0
 43
60.0
  0
INSERT
  5
7F8D
  8
3
 62
     0
  2
_OPEN
 10
899.1284585244448
 20
4297.5257618911783
 30
0.0
 41
60.0
 42
60.0
 43
60.0
 50
180.0
  0
TEXT
  8
3
  40
90
  5
7FBF
  62
0
  72
0
  71
0
 10
1388.07
 20
4213.23
 30
0.000000
  1
1345
  0
POINT
  5
7F8F
  8
DEFPOINTS
 62
     0
 10
2244.1284585244439
 20
3909.6595629932708
 30
0.0
  0
POINT
  5
7F90
  8
DEFPOINTS
 62
     0
 10
899.1284585244448
 20
2569.1595629932708
 30
0.0
  0
POINT
  5
7F91
  8
DEFPOINTS
 62
     0
 10
899.1284585244448
 20
4297.5257618911783
 30
0.0
  0
ENDBLK
  5
7DCA
  8
0
  0
BLOCK
  8
0
  2
*D22
 70
     1
 10
0.0
 20
0.0
 30
0.0
  3
*D22
  1

  0
LINE
  5
7F92
  8
3
 62
     0
 10
4424.9730063743236
 20
3882.1595629932708
 30
0.0
 11
4424.9730063743236
 21
4094.870224243371
 31
0.0
  0
LINE
  5
7F93
  8
3
 62
     0
 10
5024.9730063743264
 20
3882.1595629932708
 30
0.0
 11
5024.9730063743264
 21
4094.870224243371
 31
0.0
  0
LINE
  5
7F94
  8
3
 62
     0
 10
4484.9730063743236
 20
4064.8702242433719
 30
0.0
 11
4964.9730063743255
 21
4064.8702242433719
 31
0.0
  0
INSERT
  5
7F95
  8
3
 62
     0
  2
_OPEN
 10
4424.9730063743236
 20
4064.8702242433719
 30
0.0
 41
60.0
 42
60.0
 43
60.0
 50
180.0
  0
INSERT
  5
7F96
  8
3
 62
     0
  2
_OPEN
 10
5024.9730063743264
 20
4064.8702242433719
 30
0.0
 41
60.0
 42
60.0
 43
60.0
  0
TEXT
  8
3
  40
90
  5
7FC0
  62
0
  72
0
  71
0
 10
4546.16
 20
3980.57
 30
0.000000
  1
600
  0
POINT
  5
7F98
  8
DEFPOINTS
 62
     0
 10
4424.9730063743236
 20
3867.1595629932708
 30
0.0
  0
POINT
  5
7F99
  8
DEFPOINTS
 62
     0
 10
5024.9730063743264
 20
3867.1595629932708
 30
0.0
  0
POINT
  5
7F9A
  8
DEFPOINTS
 62
     0
 10
5024.9730063743264
 20
4064.8702242433719
 30
0.0
  0
ENDBLK
  5
7DF1
  8
0
  0
BLOCK
  8
0
  2
*D23
 70
     1
 10
0.0
 20
0.0
 30
0.0
  3
*D23
  1

  0
LINE
  5
7E65
  8
0
  6
BYBLOCK
 62
     0
 10
5028.9730063743255
 20
3851.4439679299858
 30
0.0
 11
5028.9730063743255
 21
4302.1342076404317
 31
0.0
  0
LINE
  5
7E66
  8
0
  6
BYBLOCK
 62
     0
 10
4724.9730063743236
 20
4212.8040459656049
 30
0.0
 11
4724.9730063743236
 21
4302.1342076404317
 31
0.0
  0
LINE
  5
7E67
  8
0
  6
BYBLOCK
 62
     0
 10
4968.9730063743255
 20
4272.1342076404326
 30
0.0
 11
4784.9730063743236
 21
4272.1342076404326
 31
0.0
  0
TEXT
  5
7E68
  8
3
 62
     0
 10
4759.1158635171814
 20
4298.1961483375117
 30
0.0
 40
90.0
  1
304
  0
INSERT
  5
7E69
  8
0
  6
BYBLOCK
 62
     0
  2
_OPEN
 10
5028.9730063743255
 20
4272.1342076404326
 30
0.0
 41
60.0
 42
60.0
 43
60.0
  0
INSERT
  5
7E6A
  8
0
  6
BYBLOCK
 62
     0
  2
_OPEN
 10
4724.9730063743236
 20
4272.1342076404326
 30
0.0
 41
60.0
 42
60.0
 43
60.0
 50
180.0
  0
POINT
  5
7E6B
  8
DEFPOINTS
  6
BYBLOCK
 62
     0
 10
5028.9730063743255
 20
3836.4439679299871
 30
0.0
  0
POINT
  5
7E6C
  8
DEFPOINTS
  6
BYBLOCK
 62
     0
 10
4724.9730063743236
 20
4197.8040459656058
 30
0.0
  0
POINT
  5
7E6D
  8
DEFPOINTS
  6
BYBLOCK
 62
     0
 10
4724.9730063743236
 20
4272.1342076404326
 30
0.0
  0
ENDBLK
  5
7E6E
  8
0
  0
BLOCK
  8
0
  2
*D24
 70
     1
 10
0.0
 20
0.0
 30
0.0
  3
*D24
  1

  0
LINE
  5
7F9B
  8
3
 62
     0
 10
3536.9730063743241
 20
3254.1595629932699
 30
0.0
 11
3536.9730063743241
 21
4302.1342076404317
 31
0.0
  0
LINE
  5
7F9C
  8
3
 62
     0
 10
4664.9730063743236
 20
4272.1342076404326
 30
0.0
 11
3596.973006374325
 21
4272.1342076404326
 31
0.0
  0
INSERT
  5
7F9D
  8
3
 62
     0
  2
_OPEN
 10
4724.9730063743236
 20
4272.1342076404326
 30
0.0
 41
60.0
 42
60.0
 43
60.0
  0
INSERT
  5
7F9E
  8
3
 62
     0
  2
_OPEN
 10
3536.9730063743241
 20
4272.1342076404326
 30
0.0
 41
60.0
 42
60.0
 43
60.0
 50
180.0
  0
TEXT
  8
3
  40
90
  5
7FC1
  62
0
  72
0
  71
0
 10
3950.97
 20
4262.83
 30
0.000000
  1
MAX
  0
TEXT
  8
3
  40
90
  5
7FC2
  62
0
  72
0
  71
0
 10
3950.97
 20
4145.83
 30
0.000000
  1
1240
  0
POINT
  5
7FA0
  8
DEFPOINTS
 62
     0
 10
4724.9730063743236
 20
4197.8040459656058
 30
0.0
  0
POINT
  5
7FA1
  8
DEFPOINTS
 62
     0
 10
3536.9730063743241
 20
3239.1595629932699
 30
0.0
  0
POINT
  5
7FA2
  8
DEFPOINTS
 62
     0
 10
3536.9730063743241
 20
4272.1342076404326
 30
0.0
  0
ENDBLK
  5
7E63
  8
0
  0
BLOCK
  8
0
  2
*D25
 70
     1
 10
0.0
 20
0.0
 30
0.0
  3
*D25
  1

  0
LINE
  5
7FA6
  8
3
 62
     0
 10
5042.2730063743229
 20
3444.1595629932699
 30
0.0
 11
5332.066186488486
 21
3444.1595629932699
 31
0.0
  0
LINE
  5
7FA7
  8
3
 62
     0
 10
5042.2730063743238
 20
2594.1595629932708
 30
0.0
 11
5332.066186488486
 21
2594.1595629932699
 31
0.0
  0
LINE
  5
7FA8
  8
3
 62
     0
 10
5302.0661864884851
 20
3384.1595629932699
 30
0.0
 11
5302.0661864884851
 21
2654.1595629932708
 31
0.0
  0
INSERT
  5
7FA9
  8
3
 62
     0
  2
_OPEN
 10
5302.0661864884851
 20
3444.1595629932699
 30
0.0
 41
60.0
 42
60.0
 43
60.0
 50
90.0
  0
INSERT
  5
7FAA
  8
3
 62
     0
  2
_OPEN
 10
5302.0661864884851
 20
2594.1595629932699
 30
0.0
 41
60.0
 42
60.0
 43
60.0
 50
270.0
  0
TEXT
  8
3
  40
90
  5
7FC3
  62
0
  72
0
  71
0
 10
5047.07
 20
2859.86
 30
0.000000
  1
φ850
  0
POINT
  5
7FAC
  8
DEFPOINTS
 62
     0
 10
5027.2730063743238
 20
3444.1595629932699
 30
0.0
  0
POINT
  5
7FAD
  8
DEFPOINTS
 62
     0
 10
5027.2730063743247
 20
2594.1595629932708
 30
0.0
  0
POINT
  5
7FAE
  8
DEFPOINTS
 62
     0
 10
5302.0661864884851
 20
2594.1595629932699
 30
0.0
  0
ENDBLK
  5
7EDE
  8
0
  0
ENDSEC
  0
SECTION
  2
ENTITIES
  0
LINE
  5
7AC2
  8
2
 10
2306.0450060490398
 20
6144.1524204127254
 30
0.0
 11
966.67541491959128
 21
6144.1524204127254
 31
0.0
  0
LINE
  5
7AC3
  8
2
 10
2365.6002503748341
 20
3019.1595629932708
 30
0.0
 11
941.22488133440845
 21
3019.1595629932708
 31
0.0
  0
LINE
  5
7AC4
  8
1
 10
2241.1284585244439
 20
3909.6595629932708
 30
0.0
 11
2241.128458524443
 21
2999.6595629932699
 31
0.0
  0
LINE
  5
7AC5
  8
1
 10
2204.1284585244439
 20
3909.6595629932708
 30
0.0
 11
2204.1284585244439
 21
2999.6595629932699
 31
0.0
  0
LINE
  5
7AC6
  8
1
 10
2244.1284585244439
 20
3909.6595629932708
 30
0.0
 11
2244.1284585244439
 21
2999.6595629932699
 31
0.0
  0
LINE
  5
7AC7
  8
2
 10
1699.1284585244441
 20
3877.842895620513
 30
0.0
 11
1699.1284585244441
 21
2187.7546927050662
 31
0.0
  0
ARC
  5
7AC8
  8
1
 10
1758.1284585244441
 20
3078.1595629932699
 30
0.0
 40
745.0
 50
94.542274605424254
 51
184.5422746054243
  0
LINE
  5
7AC9
  8
2
 10
1099.1284585244441
 20
3007.6082494360649
 30
0.0
 11
1099.1284585244441
 21
2493.8126683293922
 31
0.0
  0
LINE
  5
7ACA
  8
1
 10
909.1284585244448
 20
2334.159562993269
 30
0.0
 11
2199.1284585244439
 21
2334.159562993269
 31
0.0
  0
LINE
  5
7ACB
  8
1
 10
909.1284585244448
 20
2234.159562993269
 30
0.0
 11
2199.1284585244439
 21
2234.159562993269
 31
0.0
1001
ACAD
1000
ASC_BOUNDS
1002
{
1070
    19
1002
}
  0
LINE
  5
7ACC
  8
1
 10
909.1284585244448
 20
2334.159562993269
 30
0.0
 11
909.1284585244448
 21
2234.159562993269
 31
0.0
  0
LINE
  5
7ACD
  8
1
 10
1979.1284585244441
 20
2334.1595629932681
 30
0.0
 11
1979.1284585244441
 21
2234.159562993269
 31
0.0
  0
LINE
  5
7ACE
  8
1
 10
2199.1284585244439
 20
2334.159562993269
 30
0.0
 11
2199.1284585244439
 21
2234.159562993269
 31
0.0
  0
POINT
  5
7ACF
  8
1
 10
2199.1284585244439
 20
2234.159562993269
 30
0.0
  0
POINT
  5
7AD0
  8
1
 10
2199.1284585244439
 20
2234.159562993269
 30
0.0
  0
POINT
  5
7AD1
  8
1
 10
2199.1284585244439
 20
2334.159562993269
 30
0.0
  0
POINT
  5
7AD2
  8
1
 10
2199.1284585244439
 20
2334.159562993269
 30
0.0
  0
POINT
  5
7AD3
  8
1
 10
2199.1284585244439
 20
2334.159562993269
 30
0.0
  0
POINT
  5
7AD4
  8
1
 10
2199.1284585244439
 20
2334.159562993269
 30
0.0
  0
LINE
  5
7AD5
  8
1
 10
1617.422509726541
 20
3223.4244349880282
 30
0.0
 11
1017.422509726542
 21
2983.4244349880269
 31
0.0
  0
LINE
  5
7AD6
  8
1
 10
1648.8761547816509
 20
3135.7944890169201
 30
0.0
 11
1055.602841109426
 21
2880.1819398641478
 31
0.0
  0
LINE
  5
7AD7
  8
1
 10
1137.28051272107
 20
2675.9877608350371
 30
0.0
 11
1743.176739278731
 21
2900.0430277742189
 31
0.0
  0
LINE
  5
7AD8
  8
1
 10
1180.834407322347
 20
2574.8946909985129
 30
0.0
 11
1780.8344073223459
 21
2814.8946909985129
 31
0.0
  0
LINE
  5
7AD9
  8
1
 10
899.1284585244448
 20
2529.1595629932708
 30
0.0
 11
2199.1284585244439
 21
2529.1595629932708
 31
0.0
  0
LINE
  5
7ADA
  8
1
 10
909.1284585244448
 20
2429.1595629932699
 30
0.0
 11
2199.1284585244439
 21
2429.1595629932699
 31
0.0
1001
ACAD
1000
ASC_BOUNDS
1002
{
1070
    19
1002
}
  0
ARC
  5
7ADB
  8
1
 10
1099.1284585244441
 20
2779.1595629932708
 30
0.0
 40
162.0
 50
180.0
 51
254.35809999999989
  0
LINE
  5
7ADC
  8
2
 10
1287.2389025871159
 20
2779.1595629932708
 30
0.0
 11
797.8219936597452
 21
2779.1595629932699
 31
0.0
  0
LINE
  5
7ADD
  8
1
 10
910.61381525840352
 20
2619.1595629932681
 30
0.0
 11
1287.8833261392549
 21
2619.1595629932708
 31
0.0
  0
LINE
  5
7ADE
  8
1
 10
897.12845852444377
 20
2569.1595629932708
 30
0.0
 11
1301.1284585244441
 21
2569.1595629932708
 31
0.0
  0
CIRCLE
  5
7ADF
  8
1
 10
1099.1284585244441
 20
2779.1595629932708
 30
0.0
 40
110.0
  0
ARC
  5
7AE0
  8
1
 10
1099.1284585244441
 20
2779.1595629932708
 30
0.0
 40
162.0
 50
285.63990000000001
 51
180.0
  0
ARC
  5
7AE1
  8
1
 10
1099.1284585244441
 20
2779.1595629932699
 30
0.0
 40
220.0
 50
111.8014094863518
 51
291.80140948635182
  0
LINE
  5
7AE2
  8
1
 10
909.1284585244448
 20
2529.1595629932708
 30
0.0
 11
909.1284585244448
 21
2429.1595629932699
 31
0.0
  0
LINE
  5
7AE3
  8
1
 10
897.12845852444377
 20
2569.1595629932708
 30
0.0
 11
910.61381525840443
 21
2619.1595629932708
 31
0.0
  0
LINE
  5
7AE4
  8
1
 10
899.1284585244448
 20
2569.1595629932708
 30
0.0
 11
899.1284585244448
 21
2529.1595629932708
 31
0.0
  0
LINE
  5
7AE5
  8
1
 10
991.91525852444465
 20
2637.1595629932708
 30
0.0
 11
947.12845852444468
 21
2637.1595629932708
 31
0.0
  0
LINE
  5
7AE6
  8
1
 10
964.87845852444468
 20
2637.1595629932708
 30
0.0
 11
964.87845852444468
 21
2619.1595629932708
 31
0.0
  0
LINE
  5
7AE7
  8
1
 10
979.3784585244448
 20
2637.1595629932708
 30
0.0
 11
979.3784585244448
 21
2619.1595629932708
 31
0.0
  0
LINE
  5
7AE8
  8
1
 10
972.12845852444468
 20
2641.8885629932702
 30
0.0
 11
972.12845852444468
 21
2611.6305629932699
 31
0.0
  0
LINE
  5
7AE9
  8
1
 10
945.12845852444468
 20
2619.1595629932708
 30
0.0
 11
945.12845852444468
 21
2635.1595629932708
 31
0.0
  0
ARC
  5
7AEA
  8
1
 10
947.12845852444468
 20
2635.1595629932708
 30
0.0
 40
2.0
 50
90.0
 51
180.0
  0
LINE
  5
7AEB
  8
1
 10
964.66955852444426
 20
2688.8475629932709
 30
0.0
 11
945.12845852444468
 21
2635.1595629932708
 31
0.0
  0
ARC
  5
7AEC
  8
1
 10
1008.128458524444
 20
2630.91656299327
 30
0.0
 40
3.0
 50
135.0
 51
180.0
  0
LINE
  5
7AED
  8
1
 10
1005.128458524444
 20
2619.1595629932708
 30
0.0
 11
1005.128458524444
 21
2630.91656299327
 31
0.0
  0
LINE
  5
7AEE
  8
1
 10
1014.184558524444
 20
2641.2155629932699
 30
0.0
 11
1006.007058524444
 21
2633.0375629932701
 31
0.0
  0
ARC
  5
7AEF
  8
1
 10
991.91525852444465
 20
2640.1595629932699
 30
0.0
 40
3.0
 50
270.0
 51
315.0
  0
LINE
  5
7AF0
  8
1
 10
994.08995852444434
 20
2638.0915629932701
 30
0.0
 11
1004.0172585244439
 21
2648.0185629932698
 31
0.0
  0
ARC
  5
7AF1
  8
1
 10
1640.1284585244441
 20
3078.1595629932699
 30
0.0
 40
627.0
 50
185.3994573071069
 51
193.9991817213394
  0
LINE
  5
7AF2
  8
1
 10
1206.3416585244449
 20
2637.1595629932708
 30
0.0
 11
1251.1284585244441
 21
2637.1595629932708
 31
0.0
  0
LINE
  5
7AF3
  8
1
 10
1233.5752585244441
 20
2688.8805629932699
 30
0.0
 11
1253.1284585244441
 21
2635.1595629932708
 31
0.0
  0
LINE
  5
7AF4
  8
1
 10
1184.0723585244441
 20
2641.2155629932699
 30
0.0
 11
1192.2497585244439
 21
2633.0375629932701
 31
0.0
  0
LINE
  5
7AF5
  8
1
 10
1233.3784585244441
 20
2637.1595629932708
 30
0.0
 11
1233.3784585244441
 21
2619.1595629932708
 31
0.0
  0
LINE
  5
7AF6
  8
1
 10
1226.1284585244441
 20
2641.8885629932702
 30
0.0
 11
1226.1284585244441
 21
2611.6305629932699
 31
0.0
  0
LINE
  5
7AF7
  8
1
 10
1193.1284585244441
 20
2619.1595629932708
 30
0.0
 11
1193.1284585244441
 21
2630.91656299327
 31
0.0
  0
ARC
  5
7AF8
  8
1
 10
1190.1284585244441
 20
2630.91656299327
 30
0.0
 40
3.0
 50
0.0
 51
45.0
  0
ARC
  5
7AF9
  8
1
 10
1206.3416585244449
 20
2640.1595629932699
 30
0.0
 40
3.0
 50
225.0
 51
270.0
  0
LINE
  5
7AFA
  8
1
 10
1218.8784585244441
 20
2637.1595629932708
 30
0.0
 11
1218.8784585244441
 21
2619.1595629932708
 31
0.0
  0
LINE
  5
7AFB
  8
1
 10
1194.2396585244439
 20
2648.0185629932698
 30
0.0
 11
1204.2202585244449
 21
2638.0375629932701
 31
0.0
  0
LINE
  5
7AFC
  8
1
 10
1301.1284585244441
 20
2569.1595629932708
 30
0.0
 11
1287.8833261392549
 21
2619.1595629932708
 31
0.0
  0
LINE
  5
7AFD
  8
1
 10
1299.1284585244441
 20
2569.1595629932708
 30
0.0
 11
1299.1284585244441
 21
2529.1595629932708
 31
0.0
  0
LINE
  5
7AFE
  8
1
 10
1253.1284585244441
 20
2619.1595629932708
 30
0.0
 11
1253.1284585244441
 21
2635.1595629932708
 31
0.0
  0
ARC
  5
7AFF
  8
1
 10
1251.1284585244441
 20
2635.1595629932708
 30
0.0
 40
2.0
 50
0.0
 51
90.0
  0
CIRCLE
  5
7B00
  8
1
 10
1699.1284585244441
 20
3019.1595629932708
 30
0.0
 40
127.0
  0
ARC
  5
7B01
  8
1
 10
1699.1284585244441
 20
3019.1595629932708
 30
0.0
 40
220.0
 50
291.80140948635182
 51
111.8014094863518
  0
ARC
  5
7B06
  8
1
 10
1651.6284585244441
 20
2971.6595629932699
 30
0.0
 40
520.5
 50
307.8120650741912
 51
5.2360063571883142
  0
LINE
  5
7B07
  8
1
 10
1979.1284585244441
 20
2529.1595629932708
 30
0.0
 11
1979.1284585244441
 21
2429.1595629932699
 31
0.0
  0
LINE
  5
7B08
  8
1
 10
2199.1284585244439
 20
2529.1595629932708
 30
0.0
 11
2199.1284585244439
 21
2429.1595629932699
 31
0.0
  0
POINT
  5
7B09
  8
1
 10
2199.1284585244439
 20
2429.1595629932699
 30
0.0
  0
POINT
  5
7B0A
  8
1
 10
2199.1284585244439
 20
2429.1595629932699
 30
0.0
  0
POINT
  5
7B0B
  8
1
 10
2199.1284585244439
 20
2429.1595629932699
 30
0.0
  0
POINT
  5
7B0C
  8
1
 10
2199.1284585244439
 20
2429.1595629932699
 30
0.0
  0
POINT
  5
7B0D
  8
1
 10
2199.1284585244439
 20
2429.1595629932699
 30
0.0
  0
LINE
  5
7B0E
  8
1
 10
2244.1284585244439
 20
3042.1595629932708
 30
0.0
 11
2166.2473332190889
 21
3042.1595629932708
 31
0.0
  0
ARC
  5
7B0F
  8
1
 10
1746.6284585244441
 20
2971.6595629932699
 30
0.0
 40
425.49999999999989
 50
6.4094809082455679
 51
9.5371707932177721
  0
LINE
  5
7B10
  8
1
 10
2244.1284585244439
 20
2999.6595629932699
 30
0.0
 11
2204.1284585244439
 21
2999.6595629932699
 31
0.0
  0
LINE
  5
7B11
  8
2
 10
1699.1284585244441
 20
6603.8465752898683
 30
0.0
 11
1699.1284585244441
 21
4923.8901259765353
 31
0.0
  0
LINE
  5
7B13
  8
1
 10
1671.628458524443
 20
5101.1524204127236
 30
0.0
 11
1671.62845852445
 21
5841.8524204127216
 31
0.0
  0
LINE
  5
7B14
  8
1
 10
1726.6284585244441
 20
5101.1524204127236
 30
0.0
 11
1726.6284585244441
 21
5841.8524204127216
 31
0.0
  0
LINE
  5
7B15
  8
1
 10
1979.128458524445
 20
5789.1524204127236
 30
0.0
 11
1979.1284585244441
 21
5089.1524204127263
 31
0.0
  0
LINE
  5
7B17
  8
1
 10
909.1284585244448
 20
5839.1524204127236
 30
0.0
 11
909.1284585244448
 21
5089.1524204127272
 31
0.0
  0
LINE
  5
7B18
  8
1
 10
1919.128458524443
 20
4956.1524204127227
 30
0.0
 11
879.12845852444468
 21
4956.1524204127254
 31
0.0
  0
LINE
  5
7B19
  8
1
 10
1826.128458524443
 20
4996.1524204127227
 30
0.0
 11
989.12845852444468
 21
4996.1524204127227
 31
0.0
  0
LINE
  5
7B1A
  8
1
 10
1826.128458524443
 20
5081.1524204127236
 30
0.0
 11
989.12845852444377
 21
5081.1524204127236
 31
0.0
  0
LINE
  5
7B1B
  8
1
 10
1979.1284585244441
 20
5089.1524204127263
 30
0.0
 11
909.1284585244448
 21
5089.1524204127236
 31
0.0
  0
LINE
  5
7B1C
  8
1
 10
879.12845852444377
 20
4956.1524204127236
 30
0.0
 11
879.12845852444468
 21
5116.1524204127236
 31
0.0
  0
LINE
  5
7B1D
  8
2
 10
1099.1284585244441
 20
4927.0440016317534
 30
0.0
 11
1099.1284585244441
 21
5693.4344787991904
 31
0.0
  0
LINE
  5
7B1E
  8
1
 10
937.12845852444468
 20
5147.1561287579789
 30
0.0
 11
1259.1284585244441
 21
5147.1561287579789
 31
0.0
  0
LINE
  5
7B1F
  8
1
 10
1259.1284585244441
 20
5621.2778485763993
 30
0.0
 11
937.12845852444468
 21
5621.2778485763993
 31
0.0
  0
LINE
  5
7B20
  8
1
 10
937.12845852444468
 20
5215.7472567477089
 30
0.0
 11
937.12845852444468
 21
5457.9942967081297
 31
0.0
  0
LINE
  5
7B21
  8
1
 10
937.12845852444468
 20
5621.2778485763993
 30
0.0
 11
937.12845852444468
 21
5147.1561287579789
 31
0.0
  0
LINE
  5
7B22
  8
1
 10
989.12845852444468
 20
4996.1524204127227
 30
0.0
 11
989.12845852444377
 21
5081.1524204127236
 31
0.0
  0
LINE
  5
7B23
  8
1
 10
1259.1284585244441
 20
5147.1561287579789
 30
0.0
 11
1259.1284585244441
 21
5621.2778485763993
 31
0.0
  0
LINE
  5
7B25
  8
1
 10
1157.345907507043
 20
5136.2778485764002
 30
0.0
 11
1040.9110095418459
 21
5136.2778485764002
 31
0.0
  0
LINE
  5
7B26
  8
1
 10
1120.128458524443
 20
5018.2778485754079
 30
0.0
 11
1120.128458524443
 21
5128.2778485715371
 31
0.0
  0
LINE
  5
7B27
  8
1
 10
1078.1284585244441
 20
5018.2778485754079
 30
0.0
 11
1078.128458524443
 21
5128.2778485715371
 31
0.0
  0
LINE
  5
7B28
  8
1
 10
1078.1284585244441
 20
5018.2778485754079
 30
0.0
 11
1120.1284585244441
 21
5018.2778485754079
 31
0.0
  0
LINE
  5
7B29
  8
1
 10
1129.549767470291
 20
5128.2778485715371
 30
0.0
 11
1070.7071495785981
 21
5128.2778485715371
 31
0.0
  0
LINE
  5
7B2A
  8
1
 10
1070.7071495785981
 20
5128.2778485715371
 30
0.0
 11
1070.7071495785981
 21
5136.2778485764002
 31
0.0
  0
LINE
  5
7B2B
  8
1
 10
1040.9110095418459
 20
5147.1561287579789
 30
0.0
 11
1040.9110095418459
 21
5136.2778485764002
 31
0.0
  0
LINE
  5
7B2C
  8
1
 10
1129.549767470291
 20
5128.2778485715371
 30
0.0
 11
1129.5497674702899
 21
5136.2778485764002
 31
0.0
  0
LINE
  5
7B2D
  8
1
 10
1209.1284585244441
 20
4996.1524204127227
 30
0.0
 11
1209.1284585244441
 21
5081.1524204127236
 31
0.0
  0
LINE
  5
7B2E
  8
1
 10
1157.345907507043
 20
5147.1561287579789
 30
0.0
 11
1157.345907507043
 21
5136.2778485764002
 31
0.0
  0
LINE
  5
7B2F
  8
1
 10
1919.128458524443
 20
4956.1524204127236
 30
0.0
 11
1919.128458524443
 21
5116.1524204127236
 31
0.0
  0
LINE
  5
7B30
  8
1
 10
2244.1284585244439
 20
3867.1595629932708
 30
0.0
 11
1699.1284585244441
 21
3820.8196467462622
 31
0.0
  0
LINE
  5
7B31
  8
1
 10
2244.1284585244439
 20
3909.6595629932708
 30
0.0
 11
2204.1284585244439
 21
3909.6595629932708
 31
0.0
  0
LINE
  5
7B32
  8
1
 10
1869.1284585244441
 20
5136.1524204127218
 30
0.0
 11
1726.6284585244441
 21
5136.1524204127227
 31
0.0
  0
LINE
  5
7B33
  8
1
 10
1671.628458524445
 20
5136.1524204127227
 30
0.0
 11
1529.1284585244441
 21
5136.1524204127227
 31
0.0
  0
LINE
  5
7B34
  8
1
 10
1572.128458524443
 20
4996.1524204127236
 30
0.0
 11
1572.128458524443
 21
5081.1524204127236
 31
0.0
  0
LINE
  5
7B35
  8
1
 10
1726.6284585244441
 20
5101.1524204127236
 30
0.0
 11
1671.628458524445
 21
5101.1524204127236
 31
0.0
  0
LINE
  5
7B36
  8
1
 10
1675.128458524443
 20
5081.1524204127236
 30
0.0
 11
1675.128458524443
 21
5101.1524204127236
 31
0.0
  0
LINE
  5
7B37
  8
1
 10
1723.1284585244441
 20
5081.1524204127236
 30
0.0
 11
1723.1284585244441
 21
5101.1524204127236
 31
0.0
  0
LINE
  5
7B38
  8
1
 10
1826.128458524443
 20
4996.1524204127236
 30
0.0
 11
1826.128458524443
 21
5081.1524204127236
 31
0.0
  0
LINE
  5
7B39
  8
1
 10
1919.1284585244441
 20
5116.1524204127236
 30
0.0
 11
1899.1284585244441
 21
5116.1524204127236
 31
0.0
  0
LINE
  5
7B3A
  8
1
 10
2204.1284585244439
 20
5844.1524204127227
 30
0.0
 11
1013.128458524444
 21
5844.152420412719
 31
0.0
  0
LINE
  5
7B3B
  8
1
 10
2204.1284585244439
 20
6444.1524204127236
 30
0.0
 11
1013.128458524444
 21
6444.1524204127199
 31
0.0
  0
LINE
  5
7B3C
  8
1
 10
2199.1284585244439
 20
6499.1524204127236
 30
0.0
 11
1199.1284585244441
 21
6499.1524204127263
 31
0.0
  0
LINE
  5
7B3D
  8
1
 10
1199.1284585244441
 20
6499.1524204127236
 30
0.0
 11
1199.1284585244441
 21
6444.1524204127199
 31
0.0
  0
LINE
  5
7B3E
  8
1
 10
1199.1284585244441
 20
5839.1524204127263
 30
0.0
 11
909.1284585244448
 21
5839.1524204127263
 31
0.0
  0
LINE
  5
7B3F
  8
1
 10
1013.128458524444
 20
6444.152420412719
 30
0.0
 11
1013.128458524444
 21
5844.152420412719
 31
0.0
  0
LINE
  5
7B40
  8
1
 10
1199.1284585244441
 20
5844.152420412719
 30
0.0
 11
1199.1284585244441
 21
5839.1524204127236
 31
0.0
  0
LINE
  5
7B41
  8
1
 10
2199.1284585244448
 20
6499.1524204127236
 30
0.0
 11
2199.1284585244448
 21
6446.4524204127229
 31
0.0
  0
LINE
  5
7B42
  8
1
 10
2199.1284585244439
 20
6444.1524204127236
 30
0.0
 11
2199.1284585244439
 21
6486.1524204127218
 31
0.0
  0
LINE
  5
7B43
  8
1
 10
2204.1284585244439
 20
5802.1524204127254
 30
0.0
 11
2204.1284585244439
 21
6486.152420412719
 31
0.0
  0
LINE
  5
7B44
  8
1
 10
2239.1284585244462
 20
5802.1524204127236
 30
0.0
 11
2239.1284585244448
 21
6486.1524204127218
 31
0.0
  0
LINE
  5
7B45
  8
1
 10
1869.1284585244441
 20
5758.1524204127218
 30
0.0
 11
1726.6284585244441
 21
5758.1524204127218
 31
0.0
  0
LINE
  5
7B46
  8
1
 10
1671.6284585244489
 20
5758.1524204127218
 30
0.0
 11
1529.1284585244441
 21
5758.1524204127227
 31
0.0
  0
LINE
  5
7B47
  8
1
 10
2199.1284585244439
 20
5789.1524204127236
 30
0.0
 11
1979.128458524445
 21
5789.1524204127236
 31
0.0
  0
LINE
  5
7B48
  8
1
 10
2199.1284585244421
 20
5802.1524204127236
 30
0.0
 11
2199.1284585244421
 21
5841.8524204127243
 31
0.0
  0
LINE
  5
7B49
  8
1
 10
2199.1284585244439
 20
5841.8524204127243
 30
0.0
 11
2199.1284585244439
 21
5789.1524204127227
 31
0.0
  0
LINE
  5
7B4A
  8
1
 10
2204.1284585244439
 20
5802.1524204127254
 30
0.0
 11
2239.1284585244462
 21
5802.1524204127236
 31
0.0
  0
LINE
  5
7B4B
  8
1
 10
2204.1284585244439
 20
6486.1524204127209
 30
0.0
 11
2239.128458524443
 21
6486.1524204127218
 31
0.0
  0
LINE
  5
7B4C
  8
1
 10
5027.2730063743247
 20
3869.1595629932699
 30
0.0
 11
5027.2730063743229
 21
3040.1595629932699
 31
0.0
  0
LINE
  5
7B4D
  8
1
 10
5024.9730063743264
 20
3869.1595629932699
 30
0.0
 11
5024.9730063743236
 21
3042.1595629932708
 31
0.0
  0
LINE
  5
7B4E
  8
1
 10
4422.6730063743244
 20
3869.159562993269
 30
0.0
 11
4422.6730063743244
 21
3040.1595629932699
 31
0.0
  0
LINE
  5
7B4F
  8
1
 10
4424.9730063743236
 20
3869.159562993269
 30
0.0
 11
4424.9730063743227
 21
3042.1595629932708
 31
0.0
  0
LINE
  5
7B50
  8
1
 10
5066.9730063743236
 20
3909.1595629932708
 30
0.0
 11
5066.9730063743236
 21
3000.1595629932708
 31
0.0
  0
LINE
  5
7B51
  8
2
 10
4724.9730063743236
 20
4080.2938414670461
 30
0.0
 11
4724.9730063743264
 21
2192.6459623387118
 31
0.0
  0
LINE
  5
7B52
  8
1
 10
4382.9730063743236
 20
3909.1595629932708
 30
0.0
 11
4382.9730063743255
 21
3000.159562993269
 31
0.0
  0
LINE
  5
7B53
  8
1
 10
3681.9730063743259
 20
2991.6595629932699
 30
0.0
 11
4422.6730063743234
 21
2991.6595629932758
 31
0.0
  0
LINE
  5
7B54
  8
1
 10
3681.9730063743259
 20
3046.6595629932708
 30
0.0
 11
4382.9730063743255
 21
3046.6595629932708
 31
0.0
  0
LINE
  5
7B55
  8
1
 10
3716.973006374325
 20
2939.1595629932708
 30
0.0
 11
4338.9730063743236
 21
2939.1595629932708
 31
0.0
  0
LINE
  5
7B56
  8
2
 10
3513.0847641934379
 20
3019.159562993269
 30
0.0
 11
5154.9092346507314
 21
3019.1595629932708
 31
0.0
  0
LINE
  5
7B57
  8
1
 10
3669.9730063743241
 20
2334.159562993269
 30
0.0
 11
5079.9730063743255
 21
2334.1595629932681
 31
0.0
  0
LINE
  5
7B58
  8
1
 10
3669.9730063743241
 20
2234.159562993269
 30
0.0
 11
5079.9730063743255
 21
2234.159562993269
 31
0.0
1001
ACAD
1000
ASC_BOUNDS
1002
{
1070
    19
1002
}
  0
LINE
  5
7B59
  8
1
 10
3669.9730063743241
 20
2529.1595629932708
 30
0.0
 11
5079.9730063743255
 21
2529.1595629932699
 31
0.0
  0
LINE
  5
7B5A
  8
1
 10
3669.9730063743241
 20
2429.1595629932699
 30
0.0
 11
5079.9730063743236
 21
2429.1595629932699
 31
0.0
1001
ACAD
1000
ASC_BOUNDS
1002
{
1070
    19
1002
}
  0
LINE
  5
7B5B
  8
1
 10
3669.973006374325
 20
2334.159562993269
 30
0.0
 11
3669.973006374325
 21
2234.1595629932681
 31
0.0
  0
POINT
  5
7B5C
  8
1
 10
2264.3463691934662
 20
3019.1595629932708
 30
0.0
  0
POINT
  5
7B5D
  8
1
 10
2264.3463691934662
 20
3019.1595629932708
 30
0.0
  0
LINE
  5
7B5E
  8
1
 10
3661.9730063743241
 20
3146.1595629932699
 30
0.0
 11
3661.9730063743241
 21
2669.1595629932699
 31
0.0
  0
LINE
  5
7B5F
  8
1
 10
3576.973006374325
 20
3146.1595629932699
 30
0.0
 11
3576.973006374325
 21
2669.1595629932699
 31
0.0
  0
LINE
  5
7B60
  8
1
 10
3536.9730063743241
 20
3239.1595629932708
 30
0.0
 11
3536.9730063743259
 21
2559.1595629932699
 31
0.0
  0
LINE
  5
7B61
  8
2
 10
3980.3164881586258
 20
2779.1595629932708
 30
0.0
 11
3527.8394600149659
 21
2779.1595629932708
 31
0.0
  0
LINE
  5
7B62
  8
1
 10
3716.973006374325
 20
2939.1595629932708
 30
0.0
 11
3716.973006374325
 21
2529.1595629932708
 31
0.0
  0
LINE
  5
7B63
  8
1
 10
3576.973006374325
 20
2669.1595629932708
 30
0.0
 11
3661.9730063743241
 21
2669.1595629932699
 31
0.0
  0
LINE
  5
7B64
  8
1
 10
3536.973006374325
 20
2559.159562993269
 30
0.0
 11
3696.973006374325
 21
2559.1595629932699
 31
0.0
  0
LINE
  5
7B65
  8
1
 10
3669.973006374325
 20
2529.1595629932708
 30
0.0
 11
3669.973006374325
 21
2429.1595629932699
 31
0.0
  0
LINE
  5
7B66
  8
1
 10
3576.973006374325
 20
2889.1595629932699
 30
0.0
 11
3661.973006374325
 21
2889.1595629932699
 31
0.0
  0
LINE
  5
7B67
  8
1
 10
3576.973006374325
 20
2892.1595629932699
 30
0.0
 11
3661.9730063743241
 21
2892.1595629932699
 31
0.0
  0
LINE
  5
7B68
  8
1
 10
3661.9730063743241
 20
3043.1595629932699
 30
0.0
 11
3681.9730063743259
 21
3043.1595629932699
 31
0.0
  0
LINE
  5
7B69
  8
1
 10
3661.9730063743241
 20
2995.1595629932699
 30
0.0
 11
3681.9730063743259
 21
2995.1595629932699
 31
0.0
  0
LINE
  5
7B6A
  8
1
 10
3681.9730063743241
 20
3046.6595629932708
 30
0.0
 11
3681.9730063743241
 21
2991.6595629932699
 31
0.0
  0
LINE
  5
7B6B
  8
1
 10
3536.9730063743241
 20
3239.1595629932699
 30
0.0
 11
3696.9730063743241
 21
3239.1595629932699
 31
0.0
  0
LINE
  5
7B6C
  8
1
 10
3576.973006374325
 20
3146.1595629932699
 30
0.0
 11
3661.9730063743241
 21
3146.1595629932699
 31
0.0
  0
POINT
  5
7B6D
  8
1
 10
3536.9730063743241
 20
3239.1595629932699
 30
0.0
  0
LINE
  5
7B6E
  8
1
 10
3696.9730063743241
 20
3239.1595629932708
 30
0.0
 11
3696.9730063743241
 21
3219.1595629932699
 31
0.0
  0
LINE
  5
7B6F
  8
1
 10
4419.9730063743236
 20
2334.159562993269
 30
0.0
 11
4419.97300637434
 21
2234.159562993269
 31
0.0
  0
LINE
  5
7B70
  8
1
 10
5079.9730063743255
 20
2334.1595629932681
 30
0.0
 11
5079.9730063743255
 21
2234.159562993269
 31
0.0
  0
LINE
  5
7B71
  8
1
 10
4422.6730063743244
 20
3040.1595629932699
 30
0.0
 11
5027.2730063743238
 21
3040.1595629932699
 31
0.0
  0
LINE
  5
7B72
  8
1
 10
4424.9730063743236
 20
3042.1595629932708
 30
0.0
 11
5024.9730063743264
 21
3042.1595629932708
 31
0.0
  0
LINE
  5
7B73
  8
1
 10
4382.9730063743255
 20
3000.159562993269
 30
0.0
 11
5066.9730063743227
 21
3000.1595629932708
 31
0.0
  0
LINE
  5
7B74
  8
1
 10
4422.6730063743234
 20
3000.159562993269
 30
0.0
 11
4422.6730063743253
 21
2529.1595629932699
 31
0.0
  0
LINE
  5
7B75
  8
1
 10
4424.9730063743236
 20
3000.159562993269
 30
0.0
 11
4424.9730063743236
 21
2529.1595629932699
 31
0.0
  0
LINE
  5
7B76
  8
1
 10
4338.9730063743236
 20
2939.1595629932708
 30
0.0
 11
4338.9730063743264
 21
2529.1595629932708
 31
0.0
  0
LINE
  5
7B77
  8
1
 10
4419.9730063743236
 20
2529.1595629932708
 30
0.0
 11
4419.97300637434
 21
2429.1595629932699
 31
0.0
  0
LINE
  5
7B78
  8
1
 10
5027.2730063743238
 20
3000.1595629932708
 30
0.0
 11
5027.2730063743238
 21
2529.1595629932699
 31
0.0
  0
LINE
  5
7B79
  8
1
 10
5024.9730063743236
 20
3000.1595629932708
 30
0.0
 11
5024.9730063743236
 21
2529.1595629932699
 31
0.0
  0
LINE
  5
7B7A
  8
1
 10
5079.9730063743236
 20
2529.1595629932699
 30
0.0
 11
5079.9730063743236
 21
2429.1595629932699
 31
0.0
  0
LINE
  5
7B7B
  8
1
 10
4422.6730063743244
 20
3869.159562993269
 30
0.0
 11
5027.2730063743238
 21
3869.1595629932699
 31
0.0
  0
LINE
  5
7B7C
  8
1
 10
4424.9730063743236
 20
3867.1595629932708
 30
0.0
 11
5024.9730063743236
 21
3867.1595629932708
 31
0.0
  0
LINE
  5
7B7D
  8
1
 10
4382.9730063743236
 20
3909.1595629932708
 30
0.0
 11
5066.9730063743255
 21
3909.1595629932708
 31
0.0
  0
LINE
  5
7B84
  8
4
 10
5550.0
 20
1500.0
 30
0.0
 11
5550.0
 21
900.0
 31
0.0
  0
LINE
  5
7B85
  8
4
 10
3450.0
 20
1500.0
 30
0.0
 11
3450.0
 21
900.0
 31
0.0
  0
LINE
  5
7B86
  8
4
 10
1950.0
 20
1500.0
 30
0.0
 11
1950.0
 21
900.0
 31
0.0
  0
LINE
  5
7B89
  8
4
 10
1950.0
 20
900.0
 30
0.0
 11
5550.0
 21
900.0
 31
0.0
  0
LINE
  5
7B8A
  8
4
 10
1950.0
 20
1200.0
 30
0.0
 11
5550.0
 21
1200.0
 31
0.0
  0
TEXT
  5
7B8B
  8
4
 10
2065.5062425407041
 20
1294.629077599838
 30
0.0
 40
150.0
  1
機器名称
  0
TEXT
  5
7B8C
  8
4
 10
2058.7743180743919
 20
964.93547019603284
 30
0.0
 40
150.0
  1
機器型番
  0
TEXT
  5
7B8D
  8
4
 10
3538.974217018409
 20
1270.006233746099
 30
0.0
 40
127.5
  1
ミツヤ多翼送風機
  0
TEXT
  5
7B8E
  8
4
 10
3559.9634867564419
 20
951.47875283983012
 30
0.0
 40
150.0
  1
MF#5-1
  0
TEXT
  5
7B90
  8
4
 10
2347.4864908824379
 20
7150.2865239975472
 30
0.0
 40
161.99999999999989
  1
床置防振ベット
  0
TEXT
  5
7B91
  8
4
 10
948.50277998833917
 20
7601.6429285978938
 30
0.0
 40
216.0
  1
遠心式片吸込片持多翼ファン
  0
LINE
  5
7B92
  8
4
 10
750.0
 20
7408.2262627944137
 30
0.0
 11
5550.0
 21
7408.2262627944137
 31
0.0
  0
LINE
  5
7B93
  8
4
 10
750.0
 20
8008.2262627944137
 30
0.0
 11
5550.0
 21
8008.2262627944137
 31
0.0
  0
LINE
  5
7B94
  8
4
 10
1950.0
 20
1500.0
 30
0.0
 11
5550.0
 21
1500.0
 31
0.0
  0
LINE
  5
7B95
  8
4
 10
750.0
 20
8008.2262627944137
 30
0.0
 11
750.0
 21
7408.2262627944137
 31
0.0
  0
TEXT
  5
7B96
  8
4
 10
1039.9099941543309
 20
7146.9584326390304
 30
0.0
 40
161.99999999999989
  1
右回転右横向
  0
TEXT
  5
7B97
  8
4
 10
4406.9086777478688
 20
8118.1832444859256
 30
0.0
 40
168.0
  1
No.
  0
TEXT
  5
7B98
  8
4
 10
3933.8881878000388
 20
7150.2865239975472
 30
0.0
 40
161.99999999999989
  1
縮尺：1/30
  0
LINE
  5
7B99
  8
4
 10
5550.0
 20
8008.2262627944137
 30
0.0
 11
5550.0
 21
7408.2262627944137
 31
0.0
  0
LINE
  5
7B9A
  8
4
 10
6300.0
 20
8850.0
 30
0.0
 11
6300.0
 21
8850.0
 31
0.0
  0
LINE
  5
7B9B
  8
4
 10
4321.8522670795937
 20
8043.790749376205
 30
0.0
 11
4321.8522670795937
 21
8359.9567846492573
 31
0.0
  0
LINE
  5
7B9C
  8
4
 10
4321.8522670795937
 20
8359.9567846492573
 30
0.0
 11
5550.0
 21
8359.9567846492573
 31
0.0
  0
LINE
  5
7B9D
  8
4
 10
5550.0
 20
8359.9567846492573
 30
0.0
 11
5550.0
 21
8043.790749376205
 31
0.0
  0
LINE
  5
7B9E
  8
4
 10
5550.0
 20
8043.790749376205
 30
0.0
 11
4321.8522670795937
 21
8043.790749376205
 31
0.0
  0
LINE
  5
7B9F
  8
4
 10
0.0
 20
0.0
 30
0.0
 11
0.0
 21
8850.0
 31
0.0
  0
LINE
  5
7BA0
  8
4
 10
0.0
 20
8850.0
 30
0.0
 11
6300.0
 21
8850.0
 31
0.0
  0
LINE
  5
7BA1
  8
4
 10
6300.0
 20
8850.0
 30
0.0
 11
6300.0
 21
0.0
 31
0.0
  0
LINE
  5
7BA2
  8
4
 10
6300.0
 20
0.0
 30
0.0
 11
0.0
 21
0.0
 31
0.0
  0
DIMENSION
  5
7BC1
  8
3
  2
*D1
 10
1199.1284585244441
 20
6668.0473459470586
 30
0.0
 11
1700.4170259507259
 21
6668.0473459470586
 31
0.0
 70
   128
 13
2199.1284585244448
 23
6499.1524204127236
 33
0.0
 14
1199.1284585244441
 24
6499.1524204127263
 34
0.0
1001
ACAD
1000
DSTYLE
1002
{
1070
   287
1070
     3
1070
    40
1040
30.0
1070
   143
1040
0.039
1070
   172
1070
     1
1070
   271
1070
     0
1070
   279
1070
     0
1070
   288
1070
     1
1002
}
  0
DIMENSION
  5
7BCF
  8
3
  2
*D2
 10
909.1284585244448
 20
6668.0473459470586
 30
0.0
 11
1054.1284585244441
 21
6749.5069104125878
 31
0.0
 12
-314.46068538071262
 22
0.0
 32
0.0
 70
   128
 13
1199.1284585244441
 23
6499.1524204127263
 33
0.0
 14
909.1284585244448
 24
5839.1524204127263
 34
0.0
1001
ACAD
1000
DSTYLE
1002
{
1070
   288
1070
     1
1070
   172
1070
     1
1070
    75
1070
     1
1070
    40
1040
30.0
1070
   271
1070
     0
1070
   143
1040
0.039
1002
}
  0
DIMENSION
  5
7BF0
  8
3
  2
*D3
 10
727.91824033684031
 20
5089.1524204127236
 30
0.0
 11
727.91824033683952
 21
5422.8796853082104
 31
0.0
 70
   128
 13
909.1284585244448
 23
5839.1524204127263
 33
0.0
 14
909.1284585244448
 24
5089.1524204127236
 34
0.0
 50
90.0
1001
ACAD
1000
DSTYLE
1002
{
1070
   287
1070
     3
1070
    40
1040
30.0
1070
   143
1040
0.039
1070
   172
1070
     1
1070
   271
1070
     0
1070
   279
1070
     0
1070
   288
1070
     1
1002
}
  0
DIMENSION
  5
7BFD
  8
3
  2
*D4
 10
1979.1284585244441
 20
4695.5621277755708
 30
0.0
 11
1397.603018187343
 21
4695.5621277755708
 31
0.0
 70
   128
 13
909.1284585244448
 23
5089.1524204127236
 33
0.0
 14
1979.1284585244441
 24
5089.1524204127263
 34
0.0
1001
ACAD
1000
DSTYLE
1002
{
1070
   287
1070
     3
1070
    40
1040
30.0
1070
   143
1040
0.039
1070
   172
1070
     1
1070
   271
1070
     0
1070
   279
1070
     0
1070
   288
1070
     1
1002
}
  0
DIMENSION
  5
7C0B
  8
3
  2
*D5
 10
2199.1284585244439
 20
4695.5621277755708
 30
0.0
 11
2404.8427442387301
 21
4770.5621277755708
 31
0.0
 70
     0
 13
1979.1284585244441
 23
5089.1524204127263
 33
0.0
 14
2199.1284585244439
 24
5789.1524204127236
 34
0.0
1001
ACAD
1000
DSTYLE
1002
{
1070
   287
1070
     3
1070
    40
1040
30.0
1070
   143
1040
0.039
1070
   172
1070
     1
1070
   271
1070
     0
1070
   279
1070
     0
1070
   288
1070
     1
1002
}
  0
DIMENSION
  5
7C24
  8
3
  2
*D6
 10
2533.1555030144668
 20
5789.1524204127236
 30
0.0
 11
2533.1555030144659
 21
5422.8796853082104
 31
0.0
 70
   128
 13
1979.1284585244441
 23
5089.1524204127263
 33
0.0
 14
2199.1284585244439
 24
5789.1524204127236
 34
0.0
 50
90.0
1001
ACAD
1000
DSTYLE
1002
{
1070
   287
1070
     3
1070
    40
1040
30.0
1070
   143
1040
0.039
1070
   172
1070
     1
1070
   271
1070
     0
1070
   279
1070
     0
1070
   288
1070
     1
1002
}
  0
DIMENSION
  5
7C3C
  8
3
  2
*D7
 10
2533.1555030144659
 20
6499.1524204127236
 30
0.0
 11
2458.155503014465
 21
6144.1524204127263
 31
0.0
 70
     0
 13
2199.1284585244439
 23
5789.1524204127236
 33
0.0
 14
2199.1284585244448
 24
6499.1524204127236
 34
0.0
 50
90.0
1001
ACAD
1000
DSTYLE
1002
{
1070
   287
1070
     4
1070
    40
1040
30.0
1070
    75
1070
     1
1070
   143
1040
0.039
1070
   172
1070
     1
1070
   271
1070
     0
1070
   279
1070
     1
1070
   288
1070
     1
1002
}
  0
DIMENSION
  5
7C49
  8
3
  2
*D8
 10
1699.1284585244441
 20
2018.0661391378919
 30
0.0
 11
1313.4573684538191
 21
2018.0661391378919
 31
0.0
 70
   128
 13
909.1284585244448
 23
2234.159562993269
 33
0.0
 14
1699.1284585244441
 24
2187.7546927050662
 34
0.0
1001
ACAD
1000
DSTYLE
1002
{
1070
   287
1070
     3
1070
    40
1040
30.0
1070
   143
1040
0.039
1070
   172
1070
     1
1070
   271
1070
     0
1070
   279
1070
     0
1070
   288
1070
     1
1002
}
  0
DIMENSION
  5
7C55
  8
3
  2
*D9
 10
2199.1284585244439
 20
2018.0661391378919
 30
0.0
 11
1949.1284585244441
 21
2093.0661391378922
 31
0.0
 70
     0
 13
1699.1284585244441
 23
2187.7546927050662
 33
0.0
 14
2199.1284585244439
 24
2234.159562993269
 34
0.0
1001
ACAD
1000
DSTYLE
1002
{
1070
   287
1070
     4
1070
    40
1040
30.0
1070
    75
1070
     1
1070
   143
1040
0.039
1070
   172
1070
     1
1070
   271
1070
     0
1070
   279
1070
     1
1070
   288
1070
     1
1002
}
  0
DIMENSION
  5
7C62
  8
3
  2
*D10
 10
4724.9730063743264
 20
1997.443030048099
 30
0.0
 11
4202.4917489981162
 21
1997.443030048099
 31
0.0
 70
   128
 13
3669.973006374325
 23
2234.159562993269
 33
0.0
 14
4724.9730063743264
 24
2192.6459623387118
 34
0.0
1001
ACAD
1000
DSTYLE
1002
{
1070
   287
1070
     3
1070
    40
1040
30.0
1070
   143
1040
0.039
1070
   172
1070
     1
1070
   271
1070
     0
1070
   279
1070
     0
1070
   288
1070
     1
1002
}
  0
DIMENSION
  5
7C70
  8
3
  2
*D11
 10
5079.9730063743255
 20
1997.443030048099
 30
0.0
 11
4902.4730063743255
 21
2063.5815927396288
 31
0.0
 12
0.0
 22
-416.39051803517208
 32
0.0
 70
   128
 13
4724.9730063743264
 23
2192.6459623387118
 33
0.0
 14
5079.9730063743255
 24
2234.159562993269
 34
0.0
1001
ACAD
1000
DSTYLE
1002
{
1070
   288
1070
     1
1070
   172
1070
     1
1070
    75
1070
     1
1070
    40
1040
30.0
1070
   271
1070
     0
1070
   143
1040
0.039
1002
}
  0
DIMENSION
  5
7C91
  8
3
  2
*D12
 10
2640.0432058806482
 20
3019.1595629932708
 30
0.0
 11
2640.0432058806468
 21
3454.9735682480709
 31
0.0
 70
   128
 13
2244.1284585244439
 23
3867.1595629932708
 33
0.0
 14
2365.6002503748341
 24
3019.1595629932708
 34
0.0
 50
90.0
1001
ACAD
1000
DSTYLE
1002
{
1070
   287
1070
     3
1070
    40
1040
30.0
1070
   143
1040
0.039
1070
   172
1070
     1
1070
   271
1070
     0
1070
   279
1070
     0
1070
   288
1070
     1
1002
}
  0
DIMENSION
  5
7C9F
  8
3
  2
*D13
 10
2439.6724019991748
 20
3042.1595629932708
 30
0.0
 11
2439.6724019991739
 21
3474.9695279751609
 31
0.0
 70
   128
 13
2244.1284585244439
 23
3867.1595629932708
 33
0.0
 14
2244.1284585244439
 24
3042.1595629932708
 34
0.0
 50
90.0
1001
ACAD
1000
DSTYLE
1002
{
1070
   287
1070
     3
1070
    40
1040
30.0
1070
   143
1040
0.039
1070
   172
1070
     1
1070
   271
1070
     0
1070
   279
1070
     0
1070
   288
1070
     1
1002
}
  0
DIMENSION
  5
7CB7
  8
3
  2
*D14
 10
2640.0432058806468
 20
2429.1595629932699
 30
0.0
 11
2565.0432058806459
 21
2724.1595629932708
 31
0.0
 70
     0
 13
2365.6002503748341
 23
3019.1595629932708
 33
0.0
 14
2199.1284585244439
 24
2429.1595629932699
 34
0.0
 50
90.0
1001
ACAD
1000
DSTYLE
1002
{
1070
   287
1070
     4
1070
    40
1040
30.0
1070
    75
1070
     1
1070
   143
1040
0.039
1070
   172
1070
     1
1070
   271
1070
     0
1070
   279
1070
     1
1070
   288
1070
     1
1002
}
  0
DIMENSION
  5
7CC7
  8
3
  2
*D15
 10
2640.0432058806468
 20
2334.159562993269
 30
0.0
 11
2783.6146344520748
 21
2381.6595629932699
 31
0.0
 70
     0
  1
(<>)
 13
2199.1284585244439
 23
2429.1595629932699
 33
0.0
 14
2199.1284585244439
 24
2334.159562993269
 34
0.0
 50
90.0
1001
ACAD
1000
DSTYLE
1002
{
1070
   288
1070
     1
1070
   172
1070
     1
1070
    75
1070
     1
1070
    40
1040
30.0
1070
   271
1070
     0
1070
     7
1000
_DOT
1070
   143
1040
0.039
1002
}
  0
DIMENSION
  5
7CD7
  8
3
  2
*D16
 10
2640.0432058806468
 20
2234.159562993269
 30
0.0
 11
2565.0432058806459
 21
1977.016705850413
 31
0.0
 70
     0
 13
2199.1284585244439
 23
2334.159562993269
 33
0.0
 14
2199.1284585244439
 24
2234.159562993269
 34
0.0
 50
90.0
1001
ACAD
1000
DSTYLE
1002
{
1070
   287
1070
     3
1070
    40
1040
30.0
1070
   143
1040
0.039
1070
   172
1070
     1
1070
   271
1070
     0
1070
   279
1070
     0
1070
   288
1070
     1
1070
     6
1000
DOT
1002
}
  0
DIMENSION
  5
7DA5
  8
3
  2
*D18
 10
2903.9544732919389
 20
2234.159562993269
 30
0.0
 11
2903.954473291938
 21
3041.6162005896799
 31
0.0
 70
   128
 13
2244.1284585244439
 23
3909.6595629932708
 33
0.0
 14
2199.1284585244439
 24
2234.159562993269
 34
0.0
 50
90.0
1001
ACAD
1000
DSTYLE
1002
{
1070
   287
1070
     3
1070
    40
1040
30.0
1070
   143
1040
0.039
1070
   172
1070
     1
1070
   271
1070
     0
1070
   279
1070
     0
1070
   288
1070
     1
1002
}
  0
DIMENSION
  5
7DB2
  8
3
  2
*D19
 10
1699.1284585244441
 20
4086.6467062608749
 30
0.0
 11
1984.1414765781369
 21
4086.6467062608749
 31
0.0
 70
   128
 13
2244.1284585244439
 23
3909.6595629932708
 33
0.0
 14
1699.1284585244441
 24
3877.842895620513
 34
0.0
1001
ACAD
1000
DSTYLE
1002
{
1070
   287
1070
     3
1070
    40
1040
30.0
1070
   143
1040
0.039
1070
   172
1070
     1
1070
   271
1070
     0
1070
   279
1070
     0
1070
   288
1070
     1
1002
}
  0
DIMENSION
  5
7DBE
  8
3
  2
*D20
 10
1013.128458524444
 20
4086.6467062608749
 30
0.0
 11
1356.1284585244441
 21
4161.6467062608754
 31
0.0
 70
     0
 13
1699.1284585244441
 23
3877.842895620513
 33
0.0
 14
1013.128458524444
 24
3078.1595629932699
 34
0.0
1001
ACAD
1000
DSTYLE
1002
{
1070
   287
1070
     4
1070
    40
1040
30.0
1070
    75
1070
     1
1070
   143
1040
0.039
1070
   172
1070
     1
1070
   271
1070
     0
1070
   279
1070
     1
1070
   288
1070
     1
1002
}
  0
DIMENSION
  5
7DCB
  8
3
  2
*D21
 10
899.1284585244448
 20
4297.5257618911783
 30
0.0
 11
1568.065125037919
 21
4297.5257618911783
 31
0.0
 70
   128
 13
2244.1284585244439
 23
3909.6595629932708
 33
0.0
 14
899.1284585244448
 24
2569.1595629932708
 34
0.0
1001
ACAD
1000
DSTYLE
1002
{
1070
   287
1070
     3
1070
    40
1040
30.0
1070
   143
1040
0.039
1070
   172
1070
     1
1070
   271
1070
     0
1070
   279
1070
     0
1070
   288
1070
     1
1002
}
  0
DIMENSION
  5
7DF2
  8
3
  2
*D22
 10
5024.9730063743264
 20
4064.8702242433719
 30
0.0
 11
4726.1621404013267
 21
4064.8702242433719
 31
0.0
 70
   128
 13
4424.9730063743236
 23
3867.1595629932708
 33
0.0
 14
5024.9730063743264
 24
3867.1595629932708
 34
0.0
1001
ACAD
1000
DSTYLE
1002
{
1070
   287
1070
     3
1070
    40
1040
30.0
1070
   143
1040
0.039
1070
   172
1070
     1
1070
   271
1070
     0
1070
   279
1070
     0
1070
   288
1070
     1
1002
}
  0
DIMENSION
  5
7E03
  8
3
  2
*D23
 10
4724.9730063743236
 20
4272.1342076404326
 30
0.0
 11
4876.9730063743236
 21
4343.1961483375117
 31
0.0
 70
   128
 13
5028.9730063743255
 23
3836.4439679299871
 33
0.0
 14
4724.9730063743236
 24
4197.8040459656058
 34
0.0
1001
ACAD
1000
DSTYLE
1002
{
1070
   288
1070
     1
1070
   172
1070
     1
1070
    40
1040
30.0
1070
   271
1070
     0
1070
   143
1040
0.039
1002
}
  0
DIMENSION
  5
7E30
  8
3
  2
*D24
 10
3536.9730063743241
 20
4272.1342076404326
 30
0.0
 11
4130.9730063743255
 21
4422.1342076404317
 31
0.0
 70
     0
  1
MAX\P1240
 13
4724.9730063743236
 23
4197.8040459656058
 33
0.0
 14
3536.9730063743241
 24
3239.1595629932699
 34
0.0
1001
ACAD
1000
DSTYLE
1002
{
1070
   287
1070
     4
1070
    40
1040
30.0
1070
    75
1070
     1
1070
   143
1040
0.039
1070
   172
1070
     1
1070
   271
1070
     0
1070
   279
1070
     1
1070
   288
1070
     1
1002
}
  0
LINE
  5
7EC6
  8
1
 10
1529.1284585244441
 20
2939.1595629932708
 30
0.0
 11
1869.1284585244441
 21
2939.1595629932708
 31
0.0
  0
LINE
  5
7EC8
  8
1
 10
1869.1284585244441
 20
2939.1595629932708
 30
0.0
 11
1979.1284585244441
 21
2529.1595629932708
 31
0.0
  0
LINE
  5
7EC9
  8
1
 10
1529.1284585244441
 20
2939.1595629932708
 30
0.0
 11
1419.128458524445
 21
2529.1595629932708
 31
0.0
  0
LINE
  5
7ECA
  8
1
 10
1529.1284585244441
 20
5758.1524204127218
 30
0.0
 11
1529.1284585244441
 21
5136.1524204127227
 31
0.0
  0
LINE
  5
7ECB
  8
1
 10
1869.1284585244441
 20
5758.1524204127218
 30
0.0
 11
1869.1284585244441
 21
5136.1524204127218
 31
0.0
  0
LINE
  5
7ECC
  8
1
 10
879.12845852444468
 20
5116.1524204127236
 30
0.0
 11
899.1284585244448
 21
5116.1524204127236
 31
0.0
  0
DIMENSION
  5
7EDF
  8
3
  2
*D25
 10
5302.0661864884851
 20
2594.1595629932699
 30
0.0
 11
5227.0661864884851
 21
3019.1595629932708
 31
0.0
 70
     0
 13
5027.2730063743238
 23
3444.1595629932699
 33
0.0
 14
5027.2730063743247
 24
2594.1595629932708
 34
0.0
 50
90.0
1001
ACAD
1000
DSTYLE
1002
{
1070
   287
1070
     3
1070
     3
1000
φ<>
1070
    40
1040
30.0
1070
   143
1040
0.039
1070
   172
1070
     1
1070
   271
1070
     0
1070
   279
1070
     0
1002
}
  0
ENDSEC
  0
EOF
