  0
SECTION
  2
HEADER
  9
$ACADVER
  1
AC1015
  9
$ACADMAINTVER
 70
    20
  9
$DWGCODEPAGE
  3
ANSI_932
  9
$INSBASE
 10
0.0
 20
0.0
 30
0.0
  9
$EXTMIN
 10
-0.0960628931243264
 20
-0.1349454927258193
 30
-0.0000000000112498
  9
$EXTMAX
 10
6300.096150908483
 20
8850.135069133335
 30
0.0000000000002956
  9
$LIMMIN
 10
0.0
 20
0.0
  9
$LIMMAX
 10
297.0
 20
210.0
  9
$ORTHOMODE
 70
     0
  9
$REGENMODE
 70
     1
  9
$FILLMODE
 70
     0
  9
$QTEXTMODE
 70
     0
  9
$MIRRTEXT
 70
     1
  9
$LTSCALE
 40
100.0
  9
$ATTMODE
 70
     1
  9
$TEXTSIZE
 40
180.0
  9
$TRACEWID
 40
0.05
  9
$TEXTSTYLE
  7
STANDARD
  9
$CLAYER
  8
3
  9
$CELTYPE
  6
BYLAYER
  9
$CECOLOR
 62
   256
  9
$CELTSCALE
 40
1.0
  9
$DISPSILH
 70
     0
  9
$DIMSCALE
 40
30.0
  9
$DIMASZ
 40
2.0
  9
$DIMEXO
 40
0.5
  9
$DIMDLI
 40
10.0
  9
$DIMRND
 40
0.0
  9
$DIMDLE
 40
0.0
  9
$DIMEXE
 40
1.0
  9
$DIMTP
 40
1.0
  9
$DIMTM
 40
1.0
  9
$DIMTXT
 40
3.0
  9
$DIMCEN
 40
0.0
  9
$DIMTSZ
 40
0.0
  9
$DIMTOL
 70
     0
  9
$DIMLIM
 70
     0
  9
$DIMTIH
 70
     0
  9
$DIMTOH
 70
     0
  9
$DIMSE1
 70
     0
  9
$DIMSE2
 70
     0
  9
$DIMTAD
 70
     1
  9
$DIMZIN
 70
     8
  9
$DIMBLK
  1

  9
$DIMASO
 70
     1
  9
$DIMSHO
 70
     1
  9
$DIMPOST
  1
\U+03C6<>
  9
$DIMAPOST
  1

  9
$DIMALT
 70
     0
  9
$DIMALTD
 70
     2
  9
$DIMALTF
 40
0.039
  9
$DIMLFAC
 40
1.0
  9
$DIMTOFL
 70
     1
  9
$DIMTVP
 40
0.0
  9
$DIMTIX
 70
     0
  9
$DIMSOXD
 70
     0
  9
$DIMSAH
 70
     1
  9
$DIMBLK1
  1
OPEN
  9
$DIMBLK2
  1
OPEN
  9
$DIMSTYLE
  2
IGA
  9
$DIMCLRD
 70
     0
  9
$DIMCLRE
 70
     0
  9
$DIMCLRT
 70
     0
  9
$DIMTFAC
 40
10.0
  9
$DIMGAP
 40
1.0
  9
$DIMJUST
 70
     0
  9
$DIMSD1
 70
     0
  9
$DIMSD2
 70
     0
  9
$DIMTOLJ
 70
     1
  9
$DIMTZIN
 70
     8
  9
$DIMALTZ
 70
     0
  9
$DIMALTTZ
 70
     0
  9
$DIMUPT
 70
     1
  9
$DIMDEC
 70
     0
  9
$DIMTDEC
 70
     0
  9
$DIMALTU
 70
     2
  9
$DIMALTTD
 70
     2
  9
$DIMTXSTY
  7
STANDARD
  9
$DIMAUNIT
 70
     0
  9
$DIMADEC
 70
     0
  9
$DIMALTRND
 40
0.0
  9
$DIMAZIN
 70
     0
  9
$DIMDSEP
 70
    46
  9
$DIMATFIT
 70
     3
  9
$DIMFRAC
 70
     0
  9
$DIMLDRBLK
  1
OPEN
  9
$DIMLUNIT
 70
     2
  9
$DIMLWD
 70
    -2
  9
$DIMLWE
 70
    -2
  9
$DIMTMOVE
 70
     0
  9
$LUNITS
 70
     2
  9
$LUPREC
 70
     3
  9
$SKETCHINC
 40
0.1
  9
$FILLETRAD
 40
50.0
  9
$AUNITS
 70
     0
  9
$AUPREC
 70
     0
  9
$MENU
  1
acad
  9
$ELEVATION
 40
0.0
  9
$PELEVATION
 40
0.0
  9
$THICKNESS
 40
0.0
  9
$LIMCHECK
 70
     0
  9
$CHAMFERA
 40
0.5
  9
$CHAMFERB
 40
0.5
  9
$CHAMFERC
 40
20.0
  9
$CHAMFERD
 40
0.0
  9
$SKPOLY
 70
     0
  9
$TDCREATE
 40
2452676.665355556
  9
$TDUCREATE
 40
2452676.290355556
  9
$TDUPDATE
 40
2457742.634879780
  9
$TDUUPDATE
 40
2457742.259879780
  9
$TDINDWG
 40
0.0807952546
  9
$TDUSRTIMER
 40
0.0807952546
  9
$USRTIMER
 70
     1
  9
$ANGBASE
 50
0.0
  9
$ANGDIR
 70
     0
  9
$PDMODE
 70
     0
  9
$PDSIZE
 40
0.0
  9
$PLINEWID
 40
0.0
  9
$SPLFRAME
 70
     0
  9
$SPLINETYPE
 70
     6
  9
$SPLINESEGS
 70
     8
  9
$HANDSEED
  5
801F
  9
$SURFTAB1
 70
     6
  9
$SURFTAB2
 70
     6
  9
$SURFTYPE
 70
     6
  9
$SURFU
 70
     6
  9
$SURFV
 70
     6
  9
$UCSBASE
  2

  9
$UCSNAME
  2

  9
$UCSORG
 10
0.0
 20
0.0
 30
0.0
  9
$UCSXDIR
 10
1.0
 20
0.0
 30
0.0
  9
$UCSYDIR
 10
0.0
 20
1.0
 30
0.0
  9
$UCSORTHOREF
  2

  9
$UCSORTHOVIEW
 70
     0
  9
$UCSORGTOP
 10
0.0
 20
0.0
 30
0.0
  9
$UCSORGBOTTOM
 10
0.0
 20
0.0
 30
0.0
  9
$UCSORGLEFT
 10
0.0
 20
0.0
 30
0.0
  9
$UCSORGRIGHT
 10
0.0
 20
0.0
 30
0.0
  9
$UCSORGFRONT
 10
0.0
 20
0.0
 30
0.0
  9
$UCSORGBACK
 10
0.0
 20
0.0
 30
0.0
  9
$PUCSBASE
  2

  9
$PUCSNAME
  2

  9
$PUCSORG
 10
0.0
 20
0.0
 30
0.0
  9
$PUCSXDIR
 10
1.0
 20
0.0
 30
0.0
  9
$PUCSYDIR
 10
0.0
 20
1.0
 30
0.0
  9
$PUCSORTHOREF
  2

  9
$PUCSORTHOVIEW
 70
     0
  9
$PUCSORGTOP
 10
0.0
 20
0.0
 30
0.0
  9
$PUCSORGBOTTOM
 10
0.0
 20
0.0
 30
0.0
  9
$PUCSORGLEFT
 10
0.0
 20
0.0
 30
0.0
  9
$PUCSORGRIGHT
 10
0.0
 20
0.0
 30
0.0
  9
$PUCSORGFRONT
 10
0.0
 20
0.0
 30
0.0
  9
$PUCSORGBACK
 10
0.0
 20
0.0
 30
0.0
  9
$USERI1
 70
     0
  9
$USERI2
 70
     0
  9
$USERI3
 70
     0
  9
$USERI4
 70
     0
  9
$USERI5
 70
     0
  9
$USERR1
 40
0.0
  9
$USERR2
 40
0.0
  9
$USERR3
 40
0.0
  9
$USERR4
 40
0.0
  9
$USERR5
 40
0.0
  9
$WORLDVIEW
 70
     1
  9
$SHADEDGE
 70
     3
  9
$SHADEDIF
 70
    70
  9
$TILEMODE
 70
     1
  9
$MAXACTVP
 70
    16
  9
$PINSBASE
 10
0.0
 20
0.0
 30
0.0
  9
$PLIMCHECK
 70
     0
  9
$PEXTMIN
 10
1.000000000000000E+20
 20
1.000000000000000E+20
 30
1.000000000000000E+20
  9
$PEXTMAX
 10
-1.000000000000000E+20
 20
-1.000000000000000E+20
 30
-1.000000000000000E+20
  9
$PLIMMIN
 10
0.0
 20
0.0
  9
$PLIMMAX
 10
12.0
 20
9.0
  9
$UNITMODE
 70
     0
  9
$VISRETAIN
 70
     0
  9
$PLINEGEN
 70
     0
  9
$PSLTSCALE
 70
     1
  9
$TREEDEPTH
 70
  3020
  9
$CMLSTYLE
  2
STANDARD
  9
$CMLJUST
 70
     0
  9
$CMLSCALE
 40
20.0
  9
$PROXYGRAPHICS
 70
     1
  9
$MEASUREMENT
 70
     1
  9
$CELWEIGHT
370
    -1
  9
$ENDCAPS
280
     0
  9
$JOINSTYLE
280
     0
  9
$LWDISPLAY
290
     0
  9
$INSUNITS
 70
     0
  9
$HYPERLINKBASE
  1

  9
$STYLESHEET
  1
monochrome.ctb
  9
$XEDIT
290
     1
  9
$CEPSNTYPE
380
     0
  9
$PSTYLEMODE
290
     1
  9
$FINGERPRINTGUID
  2
{0136D470-2CD3-4F5D-B83F-675BBEDC4A30}
  9
$VERSIONGUID
  2
{8C2AB9D2-9A9F-4AFB-8C46-251CCDE5CAE3}
  9
$EXTNAMES
290
     1
  9
$PSVPSCALE
 40
0.0
  9
$OLESTARTUP
290
     0
  0
ENDSEC
  0
SECTION
  2
CLASSES
  0
CLASS
  1
ACDBDICTIONARYWDFLT
  2
AcDbDictionaryWithDefault
  3
ObjectDBX Classes
 90
        0
280
     0
281
     0
  0
CLASS
  1
ACDBPLACEHOLDER
  2
AcDbPlaceHolder
  3
ObjectDBX Classes
 90
        0
280
     0
281
     0
  0
CLASS
  1
LAYOUT
  2
AcDbLayout
  3
ObjectDBX Classes
 90
        0
280
     0
281
     0
  0
CLASS
  1
MATERIAL
  2
AcDbMaterial
  3
ObjectDBX Classes
 90
     1153
280
     0
281
     0
  0
CLASS
  1
VISUALSTYLE
  2
AcDbVisualStyle
  3
ObjectDBX Classes
 90
     4095
280
     0
281
     0
  0
CLASS
  1
TABLESTYLE
  2
AcDbTableStyle
  3
ObjectDBX Classes
 90
     4095
280
     0
281
     0
  0
CLASS
  1
SCALE
  2
AcDbScale
  3
ObjectDBX Classes
 90
     1153
280
     0
281
     0
  0
CLASS
  1
MLEADERSTYLE
  2
AcDbMLeaderStyle
  3
ACDB_MLEADERSTYLE_CLASS
 90
     4095
280
     0
281
     0
  0
CLASS
  1
ACDBSECTIONVIEWSTYLE
  2
AcDbSectionViewStyle
  3
ObjectDBX Classes
 90
     1025
280
     0
281
     0
  0
CLASS
  1
ACDBDETAILVIEWSTYLE
  2
AcDbDetailViewStyle
  3
ObjectDBX Classes
 90
     1025
280
     0
281
     0
  0
CLASS
  1
DICTIONARYVAR
  2
AcDbDictionaryVar
  3
ObjectDBX Classes
 90
        0
280
     0
281
     0
  0
CLASS
  1
CELLSTYLEMAP
  2
AcDbCellStyleMap
  3
ObjectDBX Classes
 90
     1152
280
     0
281
     0
  0
ENDSEC
  0
SECTION
  2
TABLES
  0
TABLE
  2
VPORT
  5
8
330
0
100
AcDbSymbolTable
 70
     1
  0
VPORT
  5
7F1F
330
8
100
AcDbSymbolTableRecord
100
AcDbViewportTableRecord
  2
*Active
 70
     0
 10
0.0
 20
0.0
 11
1.0
 21
1.0
 12
3150.000044007678
 22
4425.000061820305
 13
0.0
 23
0.0
 14
10.0
 24
10.0
 15
10.0
 25
10.0
 16
0.0
 26
0.0
 36
1.0
 17
0.0
 27
0.0
 37
0.0
 40
8919.683897093717
 41
2.181937172774869
 42
50.0
 43
0.0
 44
0.0
 50
0.0
 51
0.0
 71
     0
 72
   100
 73
     1
 74
     0
 75
     0
 76
     0
 77
     0
 78
     0
281
     0
 65
     1
110
0.0
120
0.0
130
0.0
111
1.0
121
0.0
131
0.0
112
0.0
122
1.0
132
0.0
 79
     0
146
0.0
1001
ACAD_NAV_VCDISPLAY
1070
     3
  0
ENDTAB
  0
TABLE
  2
LTYPE
  5
5
330
0
100
AcDbSymbolTable
 70
     2
  0
LTYPE
  5
13
330
5
100
AcDbSymbolTableRecord
100
AcDbLinetypeTableRecord
  2
BYBLOCK
 70
     0
  3

 72
    65
 73
     0
 40
0.0
  0
LTYPE
  5
14
330
5
100
AcDbSymbolTableRecord
100
AcDbLinetypeTableRecord
  2
BYLAYER
 70
     0
  3

 72
    65
 73
     0
 40
0.0
  0
LTYPE
  5
15
330
5
100
AcDbSymbolTableRecord
100
AcDbLinetypeTableRecord
  2
CONTINUOUS
 70
     0
  3
Solid line
 72
    65
 73
     0
 40
0.0
  0
LTYPE
  5
1F
330
5
100
AcDbSymbolTableRecord
100
AcDbLinetypeTableRecord
  2
CENTER
 70
     0
  3
____ _ ____ _ ____ _ ____ _ ____ _ ____ _ ____ 
 72
    65
 73
     4
 40
2.0
 49
1.25
 74
     0
 49
-0.25
 74
     0
 49
0.25
 74
     0
 49
-0.25
 74
     0
  0
ENDTAB
  0
TABLE
  2
LAYER
  5
2
102
{ACAD_XDICTIONARY
360
7FAC
102
}
330
0
100
AcDbSymbolTable
 70
     6
  0
LAYER
  5
F
102
{ACAD_XDICTIONARY
360
7F81
102
}
330
2
100
AcDbSymbolTableRecord
100
AcDbLayerTableRecord
  2
0
 70
     0
 62
     7
  6
CONTINUOUS
370
    -3
390
7F17
  0
LAYER
  5
31
102
{ACAD_XDICTIONARY
360
7F83
102
}
330
2
100
AcDbSymbolTableRecord
100
AcDbLayerTableRecord
  2
3
 70
     0
 62
     2
  6
CONTINUOUS
370
    -3
390
7F17
  0
LAYER
  5
76D0
102
{ACAD_XDICTIONARY
360
7F85
102
}
330
2
100
AcDbSymbolTableRecord
100
AcDbLayerTableRecord
  2
2
 70
     0
 62
     3
  6
CENTER
370
    -3
390
7F17
  0
LAYER
  5
76D1
102
{ACAD_XDICTIONARY
360
7F87
102
}
330
2
100
AcDbSymbolTableRecord
100
AcDbLayerTableRecord
  2
1
 70
     0
 62
     4
  6
CONTINUOUS
370
    -3
390
7F17
  0
LAYER
  5
76D2
102
{ACAD_XDICTIONARY
360
7F89
102
}
330
2
100
AcDbSymbolTableRecord
100
AcDbLayerTableRecord
  2
4
 70
     0
 62
     7
  6
CONTINUOUS
370
    -3
390
7F17
  0
LAYER
  5
7A00
330
2
100
AcDbSymbolTableRecord
100
AcDbLayerTableRecord
  2
DEFPOINTS
 70
     0
 62
     7
  6
CONTINUOUS
290
     0
370
    -3
390
7F17
  0
ENDTAB
  0
TABLE
  2
STYLE
  5
3
330
0
100
AcDbSymbolTable
 70
     1
  0
STYLE
  5
10
330
3
100
AcDbSymbolTableRecord
100
AcDbTextStyleTableRecord
  2
STANDARD
 70
     0
 40
0.0
 41
1.0
 50
0.0
 71
     0
 42
180.0
  3
simplex.shx
  4
extfont.shx
  0
ENDTAB
  0
TABLE
  2
VIEW
  5
6
330
0
100
AcDbSymbolTable
 70
     0
  0
ENDTAB
  0
TABLE
  2
UCS
  5
7
330
0
100
AcDbSymbolTable
 70
     0
  0
ENDTAB
  0
TABLE
  2
APPID
  5
9
330
0
100
AcDbSymbolTable
 70
     5
  0
APPID
  5
11
330
9
100
AcDbSymbolTableRecord
100
AcDbRegAppTableRecord
  2
ACAD
 70
     0
  0
APPID
  5
7F71
330
9
100
AcDbSymbolTableRecord
100
AcDbRegAppTableRecord
  2
ACAD_NAV_VCDISPLAY
 70
     0
  0
APPID
  5
7F9E
330
9
100
AcDbSymbolTableRecord
100
AcDbRegAppTableRecord
  2
ACAD_PSEXT
 70
     0
  0
APPID
  5
7FB9
330
9
100
AcDbSymbolTableRecord
100
AcDbRegAppTableRecord
  2
ACAD_EXEMPT_FROM_CAD_STANDARDS
 70
     0
  0
APPID
  5
801A
330
9
100
AcDbSymbolTableRecord
100
AcDbRegAppTableRecord
  2
ACAD_MLEADERVER
 70
     0
  0
ENDTAB
  0
TABLE
  2
DIMSTYLE
  5
A
330
0
100
AcDbSymbolTable
 70
     1
100
AcDbDimStyleTable
 71
     1
340
1D
  0
DIMSTYLE
105
1D
102
{ACAD_REACTORS
330
7BC1
330
7BCF
330
7BF0
330
7BFD
330
7C0B
330
7C24
330
7C3C
330
7C49
330
7C55
330
7C62
330
7C70
330
7C91
330
7C9F
330
7CB7
330
7CC7
330
7CD7
330
7DA5
330
7DB2
330
7DBE
330
7DCB
330
7DF2
330
7E03
330
7E30
330
7F13
102
}
330
A
100
AcDbSymbolTableRecord
100
AcDbDimStyleTableRecord
  2
IGA
 70
     0
 40
2.0
 41
2.0
 42
0.5
 43
10.0
 44
1.0
 47
1.0
 48
1.0
 73
     0
 74
     0
 77
     1
 78
     8
140
3.0
141
0.0
143
0.03937
146
10.0
147
1.0
173
     1
271
     1
272
     0
279
     2
284
     8
340
10
341
7B7E
343
7B7E
344
7B7E
  0
ENDTAB
  0
TABLE
  2
BLOCK_RECORD
  5
1
330
0
100
AcDbSymbolTable
 70
    26
  0
BLOCK_RECORD
  5
19
330
1
100
AcDbSymbolTableRecord
100
AcDbBlockTableRecord
  2
*MODEL_SPACE
340
7F1A
  0
BLOCK_RECORD
  5
16
330
1
100
AcDbSymbolTableRecord
100
AcDbBlockTableRecord
  2
*PAPER_SPACE
340
7F1B
  0
BLOCK_RECORD
  5
7B7E
330
1
100
AcDbSymbolTableRecord
100
AcDbBlockTableRecord
  2
_OPEN
340
0
102
{BLKREFS
331
7BBA
331
7BBB
331
7BDE
331
7BDF
331
7BE9
331
7BEA
331
7BF6
331
7BF7
331
7C11
331
7C12
331
7C1D
331
7C1E
331
7C35
331
7C36
331
7C42
331
7C43
331
7C4E
331
7C4F
331
7C5B
331
7C5C
331
7C7F
331
7C80
331
7D59
331
7D5A
331
7D7A
331
7D7B
331
7D92
331
7D93
331
7DAB
331
7DAC
331
7DB7
331
7DB8
331
7DC4
331
7DC5
331
7DEB
331
7DEC
331
7E5D
331
7E5E
331
7E69
331
7E6A
331
7EC6
331
7EC7
331
7ED4
331
7EEC
331
7F0C
331
7F0D
102
}
  0
BLOCK_RECORD
  5
7BB5
330
1
100
AcDbSymbolTableRecord
100
AcDbBlockTableRecord
  2
*D1
340
0
  0
BLOCK_RECORD
  5
7BC2
330
1
100
AcDbSymbolTableRecord
100
AcDbBlockTableRecord
  2
*D2
340
0
  0
BLOCK_RECORD
  5
7BE4
330
1
100
AcDbSymbolTableRecord
100
AcDbBlockTableRecord
  2
*D3
340
0
  0
BLOCK_RECORD
  5
7BF1
330
1
100
AcDbSymbolTableRecord
100
AcDbBlockTableRecord
  2
*D4
340
0
  0
BLOCK_RECORD
  5
7BFE
330
1
100
AcDbSymbolTableRecord
100
AcDbBlockTableRecord
  2
*D5
340
0
  0
BLOCK_RECORD
  5
7C18
330
1
100
AcDbSymbolTableRecord
100
AcDbBlockTableRecord
  2
*D6
340
0
  0
BLOCK_RECORD
  5
7C31
330
1
100
AcDbSymbolTableRecord
100
AcDbBlockTableRecord
  2
*D7
340
0
  0
BLOCK_RECORD
  5
7C3D
330
1
100
AcDbSymbolTableRecord
100
AcDbBlockTableRecord
  2
*D8
340
0
  0
BLOCK_RECORD
  5
7C4A
330
1
100
AcDbSymbolTableRecord
100
AcDbBlockTableRecord
  2
*D9
340
0
  0
BLOCK_RECORD
  5
7C56
330
1
100
AcDbSymbolTableRecord
100
AcDbBlockTableRecord
  2
*D10
340
0
  0
BLOCK_RECORD
  5
7C63
330
1
100
AcDbSymbolTableRecord
100
AcDbBlockTableRecord
  2
*D11
340
0
  0
BLOCK_RECORD
  5
7C85
330
1
100
AcDbSymbolTableRecord
100
AcDbBlockTableRecord
  2
*D12
340
0
  0
BLOCK_RECORD
  5
7C93
330
1
100
AcDbSymbolTableRecord
100
AcDbBlockTableRecord
  2
*D13
340
0
  0
BLOCK_RECORD
  5
7CAC
330
1
100
AcDbSymbolTableRecord
100
AcDbBlockTableRecord
  2
*D14
340
0
  0
BLOCK_RECORD
  5
7CB8
330
1
100
AcDbSymbolTableRecord
100
AcDbBlockTableRecord
  2
*D15
340
0
  0
BLOCK_RECORD
  5
7CC8
330
1
100
AcDbSymbolTableRecord
100
AcDbBlockTableRecord
  2
*D16
340
0
  0
BLOCK_RECORD
  5
7D11
330
1
100
AcDbSymbolTableRecord
100
AcDbBlockTableRecord
  2
_DOT
340
0
102
{BLKREFS
331
7ED3
331
7EED
102
}
  0
BLOCK_RECORD
  5
7D99
330
1
100
AcDbSymbolTableRecord
100
AcDbBlockTableRecord
  2
*D18
340
0
  0
BLOCK_RECORD
  5
7DA6
330
1
100
AcDbSymbolTableRecord
100
AcDbBlockTableRecord
  2
*D19
340
0
  0
BLOCK_RECORD
  5
7DB3
330
1
100
AcDbSymbolTableRecord
100
AcDbBlockTableRecord
  2
*D20
340
0
  0
BLOCK_RECORD
  5
7DBF
330
1
100
AcDbSymbolTableRecord
100
AcDbBlockTableRecord
  2
*D21
340
0
  0
BLOCK_RECORD
  5
7DE6
330
1
100
AcDbSymbolTableRecord
100
AcDbBlockTableRecord
  2
*D22
340
0
  0
BLOCK_RECORD
  5
7DF5
330
1
100
AcDbSymbolTableRecord
100
AcDbBlockTableRecord
  2
*D23
340
0
  0
BLOCK_RECORD
  5
7E25
330
1
100
AcDbSymbolTableRecord
100
AcDbBlockTableRecord
  2
*D24
340
0
  0
BLOCK_RECORD
  5
7F07
330
1
100
AcDbSymbolTableRecord
100
AcDbBlockTableRecord
  2
*D25
340
0
  0
ENDTAB
  0
ENDSEC
  0
SECTION
  2
BLOCKS
  0
BLOCK
  5
1A
330
19
100
AcDbEntity
  8
0
100
AcDbBlockBegin
  2
*MODEL_SPACE
 70
     0
 10
0.0
 20
0.0
 30
0.0
  3
*MODEL_SPACE
  1

  0
ENDBLK
  5
1B
330
19
100
AcDbEntity
  8
0
100
AcDbBlockEnd
  0
BLOCK
  5
17
330
16
100
AcDbEntity
 67
     1
  8
0
100
AcDbBlockBegin
  2
*PAPER_SPACE
 70
     0
 10
0.0
 20
0.0
 30
0.0
  3
*PAPER_SPACE
  1

  0
ENDBLK
  5
18
330
16
100
AcDbEntity
 67
     1
  8
0
100
AcDbBlockEnd
  0
BLOCK
  5
7B7F
330
7B7E
100
AcDbEntity
  8
0
100
AcDbBlockBegin
  2
_OPEN
 70
     0
 10
0.0
 20
0.0
 30
0.0
  3
_OPEN
  1

  0
LINE
  5
7B80
330
7B7E
100
AcDbEntity
  8
0
  6
ByBlock
 62
     0
100
AcDbLine
 10
-1.0
 20
0.1666666666666666
 30
0.0
 11
0.0
 21
0.0
 31
0.0
  0
LINE
  5
7B81
330
7B7E
100
AcDbEntity
  8
0
  6
ByBlock
 62
     0
100
AcDbLine
 10
0.0
 20
0.0
 30
0.0
 11
-1.0
 21
-0.1666666666666666
 31
0.0
  0
LINE
  5
7B82
330
7B7E
100
AcDbEntity
  8
0
  6
ByBlock
 62
     0
100
AcDbLine
 10
0.0
 20
0.0
 30
0.0
 11
-1.0
 21
0.0
 31
0.0
  0
ENDBLK
  5
7B83
330
7B7E
100
AcDbEntity
  8
0
100
AcDbBlockEnd
  0
BLOCK
  5
7BB6
330
7BB5
100
AcDbEntity
  8
0
100
AcDbBlockBegin
  2
*D1
 70
     1
 10
0.0
 20
0.0
 30
0.0
  3
*D1
  1

  0
LINE
  5
7BB7
330
7BB5
100
AcDbEntity
  8
0
  6
ByBlock
 62
     0
100
AcDbLine
 10
2513.589143905158
 20
6514.152420412725
 30
0.0
 11
2513.589143905158
 21
6698.04734594706
 31
0.0
  0
LINE
  5
7BB8
330
7BB5
100
AcDbEntity
  8
0
  6
ByBlock
 62
     0
100
AcDbLine
 10
1513.589143905157
 20
6514.152420412725
 30
0.0
 11
1513.589143905157
 21
6698.04734594706
 31
0.0
  0
LINE
  5
7BB9
330
7BB5
100
AcDbEntity
  8
0
  6
ByBlock
 62
     0
100
AcDbLine
 10
2453.589143905158
 20
6668.047345947059
 30
0.0
 11
1573.589143905157
 21
6668.047345947059
 31
0.0
  0
INSERT
  5
7BBA
330
7BB5
100
AcDbEntity
  8
0
  6
ByBlock
 62
     0
100
AcDbBlockReference
  2
_OPEN
 10
2513.589143905158
 20
6668.047345947059
 30
0.0
 41
60.0
 42
60.0
 43
60.0
  0
INSERT
  5
7BBB
330
7BB5
100
AcDbEntity
  8
0
  6
ByBlock
 62
     0
100
AcDbBlockReference
  2
_OPEN
 10
1513.589143905157
 20
6668.047345947059
 30
0.0
 41
60.0
 42
60.0
 43
60.0
 50
180.0
  0
MTEXT
  5
7BBC
330
7BB5
100
AcDbEntity
  8
0
  6
ByBlock
 62
     0
100
AcDbMText
 10
2014.877711331439
 20
6743.047345947059
 30
0.0
 40
90.0
 41
0.0
 71
     5
 72
     5
  1
\A1;1000
 73
     1
 44
1.0
1001
ACAD
1000
MTEXTBEGIN
1070
    73
1070
     1
1070
    44
1040
1.0
1070
    74
1070
     0
1000
MTEXTEND
  0
POINT
  5
7BBD
330
7BB5
100
AcDbEntity
  8
DEFPOINTS
  6
ByBlock
 62
     0
100
AcDbPoint
 10
2513.589143905158
 20
6499.152420412724
 30
0.0
  0
POINT
  5
7BBE
330
7BB5
100
AcDbEntity
  8
DEFPOINTS
  6
ByBlock
 62
     0
100
AcDbPoint
 10
1513.589143905157
 20
6499.152420412726
 30
0.0
  0
POINT
  5
7BBF
330
7BB5
100
AcDbEntity
  8
DEFPOINTS
  6
ByBlock
 62
     0
100
AcDbPoint
 10
1513.589143905157
 20
6668.047345947059
 30
0.0
  0
ENDBLK
  5
7BC0
330
7BB5
100
AcDbEntity
  8
0
100
AcDbBlockEnd
  0
BLOCK
  5
7BDA
330
7BC2
100
AcDbEntity
  8
0
100
AcDbBlockBegin
  2
*D2
 70
     1
 10
0.0
 20
0.0
 30
0.0
  3
*D2
  1

  0
LINE
  5
7BDB
330
7BC2
100
AcDbEntity
  8
0
  6
ByBlock
 62
     0
100
AcDbLine
 10
1223.589143905157
 20
5854.152420412725
 30
0.0
 11
1223.589143905157
 21
6698.04734594706
 31
0.0
  0
LINE
  5
7BDC
330
7BC2
100
AcDbEntity
  8
0
  6
ByBlock
 62
     0
100
AcDbLine
 10
1453.589143905157
 20
6668.047345947059
 30
0.0
 11
1283.589143905157
 21
6668.047345947059
 31
0.0
  0
MTEXT
  5
7BDD
330
7BC2
100
AcDbEntity
  8
0
  6
ByBlock
 62
     0
100
AcDbMText
 10
1368.589143905157
 20
6749.506910412588
 30
0.0
 40
90.0
 41
0.0
 71
     5
 72
     5
  1
\A1;290
 73
     1
 44
1.0
1001
ACAD
1000
MTEXTBEGIN
1070
    73
1070
     1
1070
    44
1040
1.0
1070
    74
1070
     0
1000
MTEXTEND
  0
INSERT
  5
7BDE
330
7BC2
100
AcDbEntity
  8
0
  6
ByBlock
 62
     0
100
AcDbBlockReference
  2
_OPEN
 10
1513.589143905157
 20
6668.047345947059
 30
0.0
 41
60.0
 42
60.0
 43
60.0
  0
INSERT
  5
7BDF
330
7BC2
100
AcDbEntity
  8
0
  6
ByBlock
 62
     0
100
AcDbBlockReference
  2
_OPEN
 10
1223.589143905157
 20
6668.047345947059
 30
0.0
 41
60.0
 42
60.0
 43
60.0
 50
180.0
  0
POINT
  5
7BE0
330
7BC2
100
AcDbEntity
  8
DEFPOINTS
  6
ByBlock
 62
     0
100
AcDbPoint
 10
1513.589143905157
 20
6499.152420412726
 30
0.0
  0
POINT
  5
7BE1
330
7BC2
100
AcDbEntity
  8
DEFPOINTS
  6
ByBlock
 62
     0
100
AcDbPoint
 10
1223.589143905157
 20
5839.152420412726
 30
0.0
  0
POINT
  5
7BE2
330
7BC2
100
AcDbEntity
  8
DEFPOINTS
  6
ByBlock
 62
     0
100
AcDbPoint
 10
1223.589143905157
 20
6668.047345947059
 30
0.0
  0
ENDBLK
  5
7BE3
330
7BC2
100
AcDbEntity
  8
0
100
AcDbBlockEnd
  0
BLOCK
  5
7BE5
330
7BE4
100
AcDbEntity
  8
0
100
AcDbBlockBegin
  2
*D3
 70
     1
 10
0.0
 20
0.0
 30
0.0
  3
*D3
  1

  0
LINE
  5
7BE6
330
7BE4
100
AcDbEntity
  8
0
  6
ByBlock
 62
     0
100
AcDbLine
 10
1208.589143905157
 20
5839.152420412726
 30
0.0
 11
1012.378925717552
 21
5839.152420412726
 31
0.0
  0
LINE
  5
7BE7
330
7BE4
100
AcDbEntity
  8
0
  6
ByBlock
 62
     0
100
AcDbLine
 10
1208.589143905157
 20
5089.152420412724
 30
0.0
 11
1012.378925717552
 21
5089.152420412724
 31
0.0
  0
LINE
  5
7BE8
330
7BE4
100
AcDbEntity
  8
0
  6
ByBlock
 62
     0
100
AcDbLine
 10
1042.378925717552
 20
5779.152420412725
 30
0.0
 11
1042.378925717552
 21
5149.152420412725
 31
0.0
  0
INSERT
  5
7BE9
330
7BE4
100
AcDbEntity
  8
0
  6
ByBlock
 62
     0
100
AcDbBlockReference
  2
_OPEN
 10
1042.378925717552
 20
5839.152420412726
 30
0.0
 41
60.0
 42
60.0
 43
60.0
 50
90.0
  0
INSERT
  5
7BEA
330
7BE4
100
AcDbEntity
  8
0
  6
ByBlock
 62
     0
100
AcDbBlockReference
  2
_OPEN
 10
1042.378925717552
 20
5089.152420412724
 30
0.0
 41
60.0
 42
60.0
 43
60.0
 50
270.0
  0
MTEXT
  5
7BEB
330
7BE4
100
AcDbEntity
  8
0
  6
ByBlock
 62
     0
100
AcDbMText
 10
967.3789257175522
 20
5422.87968530821
 30
0.0
 40
90.0
 41
0.0
 71
     5
 72
     5
  1
\A1;750
 11
0.0
 21
1.0
 31
0.0
 73
     1
 44
1.0
1001
ACAD
1000
MTEXTBEGIN
1070
    73
1070
     1
1070
    44
1040
1.0
1070
    74
1070
     0
1000
MTEXTEND
  0
POINT
  5
7BEC
330
7BE4
100
AcDbEntity
  8
DEFPOINTS
  6
ByBlock
 62
     0
100
AcDbPoint
 10
1223.589143905157
 20
5839.152420412726
 30
0.0
  0
POINT
  5
7BED
330
7BE4
100
AcDbEntity
  8
DEFPOINTS
  6
ByBlock
 62
     0
100
AcDbPoint
 10
1223.589143905157
 20
5089.152420412724
 30
0.0
  0
POINT
  5
7BEE
330
7BE4
100
AcDbEntity
  8
DEFPOINTS
  6
ByBlock
 62
     0
100
AcDbPoint
 10
1042.378925717552
 20
5089.152420412724
 30
0.0
  0
ENDBLK
  5
7BEF
330
7BE4
100
AcDbEntity
  8
0
100
AcDbBlockEnd
  0
BLOCK
  5
7BF2
330
7BF1
100
AcDbEntity
  8
0
100
AcDbBlockBegin
  2
*D4
 70
     1
 10
0.0
 20
0.0
 30
0.0
  3
*D4
  1

  0
LINE
  5
7BF3
330
7BF1
100
AcDbEntity
  8
0
  6
ByBlock
 62
     0
100
AcDbLine
 10
1223.589143905157
 20
5074.152420412724
 30
0.0
 11
1223.589143905157
 21
4665.56212777557
 31
0.0
  0
LINE
  5
7BF4
330
7BF1
100
AcDbEntity
  8
0
  6
ByBlock
 62
     0
100
AcDbLine
 10
2293.589143905157
 20
5074.152420412725
 30
0.0
 11
2293.589143905157
 21
4665.56212777557
 31
0.0
  0
LINE
  5
7BF5
330
7BF1
100
AcDbEntity
  8
0
  6
ByBlock
 62
     0
100
AcDbLine
 10
1283.589143905157
 20
4695.562127775571
 30
0.0
 11
2233.589143905158
 21
4695.562127775571
 31
0.0
  0
INSERT
  5
7BF6
330
7BF1
100
AcDbEntity
  8
0
  6
ByBlock
 62
     0
100
AcDbBlockReference
  2
_OPEN
 10
1223.589143905157
 20
4695.562127775571
 30
0.0
 41
60.0
 42
60.0
 43
60.0
 50
180.0
  0
INSERT
  5
7BF7
330
7BF1
100
AcDbEntity
  8
0
  6
ByBlock
 62
     0
100
AcDbBlockReference
  2
_OPEN
 10
2293.589143905157
 20
4695.562127775571
 30
0.0
 41
60.0
 42
60.0
 43
60.0
  0
MTEXT
  5
7BF8
330
7BF1
100
AcDbEntity
  8
0
  6
ByBlock
 62
     0
100
AcDbMText
 10
1712.063703568055
 20
4770.562127775571
 30
0.0
 40
90.0
 41
0.0
 71
     5
 72
     5
  1
\A1;1070
 73
     1
 44
1.0
1001
ACAD
1000
MTEXTBEGIN
1070
    73
1070
     1
1070
    44
1040
1.0
1070
    74
1070
     0
1000
MTEXTEND
  0
POINT
  5
7BF9
330
7BF1
100
AcDbEntity
  8
DEFPOINTS
  6
ByBlock
 62
     0
100
AcDbPoint
 10
1223.589143905157
 20
5089.152420412724
 30
0.0
  0
POINT
  5
7BFA
330
7BF1
100
AcDbEntity
  8
DEFPOINTS
  6
ByBlock
 62
     0
100
AcDbPoint
 10
2293.589143905157
 20
5089.152420412726
 30
0.0
  0
POINT
  5
7BFB
330
7BF1
100
AcDbEntity
  8
DEFPOINTS
  6
ByBlock
 62
     0
100
AcDbPoint
 10
2293.589143905157
 20
4695.562127775571
 30
0.0
  0
ENDBLK
  5
7BFC
330
7BF1
100
AcDbEntity
  8
0
100
AcDbBlockEnd
  0
BLOCK
  5
7C0C
330
7BFE
100
AcDbEntity
  8
0
100
AcDbBlockBegin
  2
*D5
 70
     1
 10
0.0
 20
0.0
 30
0.0
  3
*D5
  1

  0
LINE
  5
7C0D
330
7BFE
100
AcDbEntity
  8
0
  6
ByBlock
 62
     0
100
AcDbLine
 10
2293.589143905157
 20
5074.152420412725
 30
0.0
 11
2293.589143905157
 21
4665.56212777557
 31
0.0
  0
LINE
  5
7C0E
330
7BFE
100
AcDbEntity
  8
0
  6
ByBlock
 62
     0
100
AcDbLine
 10
2513.589143905157
 20
5774.152420412725
 30
0.0
 11
2513.589143905157
 21
4665.56212777557
 31
0.0
  0
LINE
  5
7C0F
330
7BFE
100
AcDbEntity
  8
0
  6
ByBlock
 62
     0
100
AcDbLine
 10
2353.589143905157
 20
4695.562127775571
 30
0.0
 11
2453.589143905157
 21
4695.562127775571
 31
0.0
  0
LINE
  5
7C10
330
7BFE
100
AcDbEntity
  8
0
  6
ByBlock
 62
     0
100
AcDbLine
 10
2513.589143905157
 20
4695.562127775571
 30
0.0
 11
2865.017715333729
 21
4695.562127775571
 31
0.0
  0
INSERT
  5
7C11
330
7BFE
100
AcDbEntity
  8
0
  6
ByBlock
 62
     0
100
AcDbBlockReference
  2
_OPEN
 10
2293.589143905157
 20
4695.562127775571
 30
0.0
 41
60.0
 42
60.0
 43
60.0
 50
180.0
  0
INSERT
  5
7C12
330
7BFE
100
AcDbEntity
  8
0
  6
ByBlock
 62
     0
100
AcDbBlockReference
  2
_OPEN
 10
2513.589143905157
 20
4695.562127775571
 30
0.0
 41
60.0
 42
60.0
 43
60.0
  0
MTEXT
  5
7C13
330
7BFE
100
AcDbEntity
  8
0
  6
ByBlock
 62
     0
100
AcDbMText
 10
2719.303429619443
 20
4770.562127775571
 30
0.0
 40
90.0
 41
0.0
 71
     5
 72
     5
  1
\A1;220
 73
     1
 44
1.0
1001
ACAD
1000
MTEXTBEGIN
1070
    73
1070
     1
1070
    44
1040
1.0
1070
    74
1070
     0
1000
MTEXTEND
  0
POINT
  5
7C14
330
7BFE
100
AcDbEntity
  8
DEFPOINTS
  6
ByBlock
 62
     0
100
AcDbPoint
 10
2293.589143905157
 20
5089.152420412726
 30
0.0
  0
POINT
  5
7C15
330
7BFE
100
AcDbEntity
  8
DEFPOINTS
  6
ByBlock
 62
     0
100
AcDbPoint
 10
2513.589143905157
 20
5789.152420412724
 30
0.0
  0
POINT
  5
7C16
330
7BFE
100
AcDbEntity
  8
DEFPOINTS
  6
ByBlock
 62
     0
100
AcDbPoint
 10
2513.589143905157
 20
4695.562127775571
 30
0.0
  0
ENDBLK
  5
7C17
330
7BFE
100
AcDbEntity
  8
0
100
AcDbBlockEnd
  0
BLOCK
  5
7C19
330
7C18
100
AcDbEntity
  8
0
100
AcDbBlockBegin
  2
*D6
 70
     1
 10
0.0
 20
0.0
 30
0.0
  3
*D6
  1

  0
LINE
  5
7C1A
330
7C18
100
AcDbEntity
  8
0
  6
ByBlock
 62
     0
100
AcDbLine
 10
2308.589143905158
 20
5089.152420412726
 30
0.0
 11
2877.616188395179
 21
5089.152420412726
 31
0.0
  0
LINE
  5
7C1B
330
7C18
100
AcDbEntity
  8
0
  6
ByBlock
 62
     0
100
AcDbLine
 10
2528.589143905157
 20
5789.152420412724
 30
0.0
 11
2877.616188395179
 21
5789.152420412724
 31
0.0
  0
LINE
  5
7C1C
330
7C18
100
AcDbEntity
  8
0
  6
ByBlock
 62
     0
100
AcDbLine
 10
2847.616188395179
 20
5149.152420412725
 30
0.0
 11
2847.616188395179
 21
5729.152420412725
 31
0.0
  0
INSERT
  5
7C1D
330
7C18
100
AcDbEntity
  8
0
  6
ByBlock
 62
     0
100
AcDbBlockReference
  2
_OPEN
 10
2847.616188395179
 20
5089.152420412726
 30
0.0
 41
60.0
 42
60.0
 43
60.0
 50
270.0
  0
INSERT
  5
7C1E
330
7C18
100
AcDbEntity
  8
0
  6
ByBlock
 62
     0
100
AcDbBlockReference
  2
_OPEN
 10
2847.616188395179
 20
5789.152420412724
 30
0.0
 41
60.0
 42
60.0
 43
60.0
 50
90.0
  0
MTEXT
  5
7C1F
330
7C18
100
AcDbEntity
  8
0
  6
ByBlock
 62
     0
100
AcDbMText
 10
2772.616188395179
 20
5422.87968530821
 30
0.0
 40
90.0
 41
0.0
 71
     5
 72
     5
  1
\A1;700
 11
0.0
 21
1.0
 31
0.0
 73
     1
 44
1.0
1001
ACAD
1000
MTEXTBEGIN
1070
    73
1070
     1
1070
    44
1040
1.0
1070
    74
1070
     0
1000
MTEXTEND
  0
POINT
  5
7C20
330
7C18
100
AcDbEntity
  8
DEFPOINTS
  6
ByBlock
 62
     0
100
AcDbPoint
 10
2293.589143905157
 20
5089.152420412726
 30
0.0
  0
POINT
  5
7C21
330
7C18
100
AcDbEntity
  8
DEFPOINTS
  6
ByBlock
 62
     0
100
AcDbPoint
 10
2513.589143905157
 20
5789.152420412724
 30
0.0
  0
POINT
  5
7C22
330
7C18
100
AcDbEntity
  8
DEFPOINTS
  6
ByBlock
 62
     0
100
AcDbPoint
 10
2847.616188395179
 20
5789.152420412724
 30
0.0
  0
ENDBLK
  5
7C23
330
7C18
100
AcDbEntity
  8
0
100
AcDbBlockEnd
  0
BLOCK
  5
7C32
330
7C31
100
AcDbEntity
  8
0
100
AcDbBlockBegin
  2
*D7
 70
     1
 10
0.0
 20
0.0
 30
0.0
  3
*D7
  1

  0
LINE
  5
7C33
330
7C31
100
AcDbEntity
  8
0
  6
ByBlock
 62
     0
100
AcDbLine
 10
2528.589143905158
 20
6499.152420412724
 30
0.0
 11
2877.616188395179
 21
6499.152420412724
 31
0.0
  0
LINE
  5
7C34
330
7C31
100
AcDbEntity
  8
0
  6
ByBlock
 62
     0
100
AcDbLine
 10
2847.616188395179
 20
5849.152420412725
 30
0.0
 11
2847.616188395179
 21
6439.152420412725
 31
0.0
  0
INSERT
  5
7C35
330
7C31
100
AcDbEntity
  8
0
  6
ByBlock
 62
     0
100
AcDbBlockReference
  2
_OPEN
 10
2847.616188395179
 20
5789.152420412724
 30
0.0
 41
60.0
 42
60.0
 43
60.0
 50
270.0
  0
INSERT
  5
7C36
330
7C31
100
AcDbEntity
  8
0
  6
ByBlock
 62
     0
100
AcDbBlockReference
  2
_OPEN
 10
2847.616188395179
 20
6499.152420412724
 30
0.0
 41
60.0
 42
60.0
 43
60.0
 50
90.0
  0
MTEXT
  5
7C37
330
7C31
100
AcDbEntity
  8
0
  6
ByBlock
 62
     0
100
AcDbMText
 10
2772.616188395179
 20
6144.152420412725
 30
0.0
 40
90.0
 41
0.0
 71
     5
 72
     5
  1
\A1;710
 11
0.0
 21
1.0
 31
0.0
 73
     1
 44
1.0
1001
ACAD
1000
MTEXTBEGIN
1070
    73
1070
     1
1070
    44
1040
1.0
1070
    74
1070
     0
1000
MTEXTEND
  0
POINT
  5
7C38
330
7C31
100
AcDbEntity
  8
DEFPOINTS
  6
ByBlock
 62
     0
100
AcDbPoint
 10
2513.589143905157
 20
5789.152420412724
 30
0.0
  0
POINT
  5
7C39
330
7C31
100
AcDbEntity
  8
DEFPOINTS
  6
ByBlock
 62
     0
100
AcDbPoint
 10
2513.589143905158
 20
6499.152420412724
 30
0.0
  0
POINT
  5
7C3A
330
7C31
100
AcDbEntity
  8
DEFPOINTS
  6
ByBlock
 62
     0
100
AcDbPoint
 10
2847.616188395179
 20
6499.152420412724
 30
0.0
  0
ENDBLK
  5
7C3B
330
7C31
100
AcDbEntity
  8
0
100
AcDbBlockEnd
  0
BLOCK
  5
7C3E
330
7C3D
100
AcDbEntity
  8
0
100
AcDbBlockBegin
  2
*D8
 70
     1
 10
0.0
 20
0.0
 30
0.0
  3
*D8
  1

  0
LINE
  5
7C3F
330
7C3D
100
AcDbEntity
  8
0
  6
ByBlock
 62
     0
100
AcDbLine
 10
1223.589143905157
 20
2635.550081028441
 30
0.0
 11
1223.589143905157
 21
2404.456657173065
 31
0.0
  0
LINE
  5
7C40
330
7C3D
100
AcDbEntity
  8
0
  6
ByBlock
 62
     0
100
AcDbLine
 10
2013.589143905158
 20
2589.145210740238
 30
0.0
 11
2013.589143905158
 21
2404.456657173065
 31
0.0
  0
LINE
  5
7C41
330
7C3D
100
AcDbEntity
  8
0
  6
ByBlock
 62
     0
100
AcDbLine
 10
1283.589143905157
 20
2434.456657173065
 30
0.0
 11
1953.589143905157
 21
2434.456657173065
 31
0.0
  0
INSERT
  5
7C42
330
7C3D
100
AcDbEntity
  8
0
  6
ByBlock
 62
     0
100
AcDbBlockReference
  2
_OPEN
 10
1223.589143905157
 20
2434.456657173065
 30
0.0
 41
60.0
 42
60.0
 43
60.0
 50
180.0
  0
INSERT
  5
7C43
330
7C3D
100
AcDbEntity
  8
0
  6
ByBlock
 62
     0
100
AcDbBlockReference
  2
_OPEN
 10
2013.589143905158
 20
2434.456657173065
 30
0.0
 41
60.0
 42
60.0
 43
60.0
  0
MTEXT
  5
7C44
330
7C3D
100
AcDbEntity
  8
0
  6
ByBlock
 62
     0
100
AcDbMText
 10
1627.918053834532
 20
2509.456657173065
 30
0.0
 40
90.0
 41
0.0
 71
     5
 72
     5
  1
\A1;790
 73
     1
 44
1.0
1001
ACAD
1000
MTEXTBEGIN
1070
    73
1070
     1
1070
    44
1040
1.0
1070
    74
1070
     0
1000
MTEXTEND
  0
POINT
  5
7C45
330
7C3D
100
AcDbEntity
  8
DEFPOINTS
  6
ByBlock
 62
     0
100
AcDbPoint
 10
1223.589143905157
 20
2650.550081028442
 30
0.0
  0
POINT
  5
7C46
330
7C3D
100
AcDbEntity
  8
DEFPOINTS
  6
ByBlock
 62
     0
100
AcDbPoint
 10
2013.589143905158
 20
2604.145210740238
 30
0.0
  0
POINT
  5
7C47
330
7C3D
100
AcDbEntity
  8
DEFPOINTS
  6
ByBlock
 62
     0
100
AcDbPoint
 10
2013.589143905158
 20
2434.456657173065
 30
0.0
  0
ENDBLK
  5
7C48
330
7C3D
100
AcDbEntity
  8
0
100
AcDbBlockEnd
  0
BLOCK
  5
7C4B
330
7C4A
100
AcDbEntity
  8
0
100
AcDbBlockBegin
  2
*D9
 70
     1
 10
0.0
 20
0.0
 30
0.0
  3
*D9
  1

  0
LINE
  5
7C4C
330
7C4A
100
AcDbEntity
  8
0
  6
ByBlock
 62
     0
100
AcDbLine
 10
2513.589143905157
 20
2635.550081028442
 30
0.0
 11
2513.589143905157
 21
2404.456657173065
 31
0.0
  0
LINE
  5
7C4D
330
7C4A
100
AcDbEntity
  8
0
  6
ByBlock
 62
     0
100
AcDbLine
 10
2073.589143905158
 20
2434.456657173065
 30
0.0
 11
2453.589143905157
 21
2434.456657173065
 31
0.0
  0
INSERT
  5
7C4E
330
7C4A
100
AcDbEntity
  8
0
  6
ByBlock
 62
     0
100
AcDbBlockReference
  2
_OPEN
 10
2013.589143905158
 20
2434.456657173065
 30
0.0
 41
60.0
 42
60.0
 43
60.0
 50
180.0
  0
INSERT
  5
7C4F
330
7C4A
100
AcDbEntity
  8
0
  6
ByBlock
 62
     0
100
AcDbBlockReference
  2
_OPEN
 10
2513.589143905157
 20
2434.456657173065
 30
0.0
 41
60.0
 42
60.0
 43
60.0
  0
MTEXT
  5
7C50
330
7C4A
100
AcDbEntity
  8
0
  6
ByBlock
 62
     0
100
AcDbMText
 10
2263.589143905158
 20
2509.456657173065
 30
0.0
 40
90.0
 41
0.0
 71
     5
 72
     5
  1
\A1;500
 73
     1
 44
1.0
1001
ACAD
1000
MTEXTBEGIN
1070
    73
1070
     1
1070
    44
1040
1.0
1070
    74
1070
     0
1000
MTEXTEND
  0
POINT
  5
7C51
330
7C4A
100
AcDbEntity
  8
DEFPOINTS
  6
ByBlock
 62
     0
100
AcDbPoint
 10
2013.589143905158
 20
2604.145210740238
 30
0.0
  0
POINT
  5
7C52
330
7C4A
100
AcDbEntity
  8
DEFPOINTS
  6
ByBlock
 62
     0
100
AcDbPoint
 10
2513.589143905157
 20
2650.550081028442
 30
0.0
  0
POINT
  5
7C53
330
7C4A
100
AcDbEntity
  8
DEFPOINTS
  6
ByBlock
 62
     0
100
AcDbPoint
 10
2513.589143905157
 20
2434.456657173065
 30
0.0
  0
ENDBLK
  5
7C54
330
7C4A
100
AcDbEntity
  8
0
100
AcDbBlockEnd
  0
BLOCK
  5
7C57
330
7C56
100
AcDbEntity
  8
0
100
AcDbBlockBegin
  2
*D10
 70
     1
 10
0.0
 20
0.0
 30
0.0
  3
*D10
  1

  0
LINE
  5
7C58
330
7C56
100
AcDbEntity
  8
0
  6
ByBlock
 62
     0
100
AcDbLine
 10
3669.973006374326
 20
2635.550081028441
 30
0.0
 11
3669.973006374326
 21
2383.833548083272
 31
0.0
  0
LINE
  5
7C59
330
7C56
100
AcDbEntity
  8
0
  6
ByBlock
 62
     0
100
AcDbLine
 10
4724.973006374326
 20
2594.036480373884
 30
0.0
 11
4724.973006374326
 21
2383.833548083272
 31
0.0
  0
LINE
  5
7C5A
330
7C56
100
AcDbEntity
  8
0
  6
ByBlock
 62
     0
100
AcDbLine
 10
3729.973006374326
 20
2413.833548083272
 30
0.0
 11
4664.973006374325
 21
2413.833548083272
 31
0.0
  0
INSERT
  5
7C5B
330
7C56
100
AcDbEntity
  8
0
  6
ByBlock
 62
     0
100
AcDbBlockReference
  2
_OPEN
 10
3669.973006374326
 20
2413.833548083272
 30
0.0
 41
60.0
 42
60.0
 43
60.0
 50
180.0
  0
INSERT
  5
7C5C
330
7C56
100
AcDbEntity
  8
0
  6
ByBlock
 62
     0
100
AcDbBlockReference
  2
_OPEN
 10
4724.973006374326
 20
2413.833548083272
 30
0.0
 41
60.0
 42
60.0
 43
60.0
  0
MTEXT
  5
7C5D
330
7C56
100
AcDbEntity
  8
0
  6
ByBlock
 62
     0
100
AcDbMText
 10
4202.491748998116
 20
2488.833548083273
 30
0.0
 40
90.0
 41
0.0
 71
     5
 72
     5
  1
\A1;1055
 73
     1
 44
1.0
1001
ACAD
1000
MTEXTBEGIN
1070
    73
1070
     1
1070
    44
1040
1.0
1070
    74
1070
     0
1000
MTEXTEND
  0
POINT
  5
7C5E
330
7C56
100
AcDbEntity
  8
DEFPOINTS
  6
ByBlock
 62
     0
100
AcDbPoint
 10
3669.973006374326
 20
2650.550081028442
 30
0.0
  0
POINT
  5
7C5F
330
7C56
100
AcDbEntity
  8
DEFPOINTS
  6
ByBlock
 62
     0
100
AcDbPoint
 10
4724.973006374326
 20
2609.036480373884
 30
0.0
  0
POINT
  5
7C60
330
7C56
100
AcDbEntity
  8
DEFPOINTS
  6
ByBlock
 62
     0
100
AcDbPoint
 10
4724.973006374326
 20
2413.833548083272
 30
0.0
  0
ENDBLK
  5
7C61
330
7C56
100
AcDbEntity
  8
0
100
AcDbBlockEnd
  0
BLOCK
  5
7C7B
330
7C63
100
AcDbEntity
  8
0
100
AcDbBlockBegin
  2
*D11
 70
     1
 10
0.0
 20
0.0
 30
0.0
  3
*D11
  1

  0
LINE
  5
7C7C
330
7C63
100
AcDbEntity
  8
0
  6
ByBlock
 62
     0
100
AcDbLine
 10
5079.973006374325
 20
2635.550081028442
 30
0.0
 11
5079.973006374325
 21
2383.833548083272
 31
0.0
  0
LINE
  5
7C7D
330
7C63
100
AcDbEntity
  8
0
  6
ByBlock
 62
     0
100
AcDbLine
 10
4784.973006374325
 20
2413.833548083272
 30
0.0
 11
5019.973006374325
 21
2413.833548083272
 31
0.0
  0
MTEXT
  5
7C7E
330
7C63
100
AcDbEntity
  8
0
  6
ByBlock
 62
     0
100
AcDbMText
 10
4902.473006374325
 20
2479.972110774801
 30
0.0
 40
90.0
 41
0.0
 71
     5
 72
     5
  1
\A1;355
 73
     1
 44
1.0
1001
ACAD
1000
MTEXTBEGIN
1070
    73
1070
     1
1070
    44
1040
1.0
1070
    74
1070
     0
1000
MTEXTEND
  0
INSERT
  5
7C7F
330
7C63
100
AcDbEntity
  8
0
  6
ByBlock
 62
     0
100
AcDbBlockReference
  2
_OPEN
 10
4724.973006374326
 20
2413.833548083272
 30
0.0
 41
60.0
 42
60.0
 43
60.0
 50
180.0
  0
INSERT
  5
7C80
330
7C63
100
AcDbEntity
  8
0
  6
ByBlock
 62
     0
100
AcDbBlockReference
  2
_OPEN
 10
5079.973006374325
 20
2413.833548083272
 30
0.0
 41
60.0
 42
60.0
 43
60.0
  0
POINT
  5
7C81
330
7C63
100
AcDbEntity
  8
DEFPOINTS
  6
ByBlock
 62
     0
100
AcDbPoint
 10
4724.973006374326
 20
2609.036480373884
 30
0.0
  0
POINT
  5
7C82
330
7C63
100
AcDbEntity
  8
DEFPOINTS
  6
ByBlock
 62
     0
100
AcDbPoint
 10
5079.973006374325
 20
2650.550081028442
 30
0.0
  0
POINT
  5
7C83
330
7C63
100
AcDbEntity
  8
DEFPOINTS
  6
ByBlock
 62
     0
100
AcDbPoint
 10
5079.973006374325
 20
2413.833548083272
 30
0.0
  0
ENDBLK
  5
7C84
330
7C63
100
AcDbEntity
  8
0
100
AcDbBlockEnd
  0
BLOCK
  5
7D8E
330
7C85
100
AcDbEntity
  8
0
100
AcDbBlockBegin
  2
*D12
 70
     1
 10
0.0
 20
0.0
 30
0.0
  3
*D12
  1

  0
LINE
  5
7D8F
330
7C85
100
AcDbEntity
  8
0
  6
ByBlock
 62
     0
100
AcDbLine
 10
2573.589143905157
 20
4303.550081028443
 30
0.0
 11
2984.50389126136
 21
4303.550081028443
 31
0.0
  0
LINE
  5
7D90
330
7C85
100
AcDbEntity
  8
0
  6
ByBlock
 62
     0
100
AcDbLine
 10
2695.060935755547
 20
3455.550081028443
 30
0.0
 11
2984.50389126136
 21
3455.550081028443
 31
0.0
  0
LINE
  5
7D91
330
7C85
100
AcDbEntity
  8
0
  6
ByBlock
 62
     0
100
AcDbLine
 10
2954.50389126136
 20
4243.550081028443
 30
0.0
 11
2954.50389126136
 21
3515.550081028443
 31
0.0
  0
INSERT
  5
7D92
330
7C85
100
AcDbEntity
  8
0
  6
ByBlock
 62
     0
100
AcDbBlockReference
  2
_OPEN
 10
2954.50389126136
 20
4303.550081028443
 30
0.0
 41
60.0
 42
60.0
 43
60.0
 50
90.0
  0
INSERT
  5
7D93
330
7C85
100
AcDbEntity
  8
0
  6
ByBlock
 62
     0
100
AcDbBlockReference
  2
_OPEN
 10
2954.50389126136
 20
3455.550081028443
 30
0.0
 41
60.0
 42
60.0
 43
60.0
 50
270.0
  0
MTEXT
  5
7D94
330
7C85
100
AcDbEntity
  8
0
  6
ByBlock
 62
     0
100
AcDbMText
 10
2879.50389126136
 20
3891.364086283244
 30
0.0
 40
90.0
 41
0.0
 71
     5
 72
     5
  1
\A1;848
 11
0.0
 21
1.0
 31
0.0
 73
     1
 44
1.0
1001
ACAD
1000
MTEXTBEGIN
1070
    73
1070
     1
1070
    44
1040
1.0
1070
    74
1070
     0
1000
MTEXTEND
  0
POINT
  5
7D95
330
7C85
100
AcDbEntity
  8
DEFPOINTS
  6
ByBlock
 62
     0
100
AcDbPoint
 10
2558.589143905158
 20
4303.550081028443
 30
0.0
  0
POINT
  5
7D96
330
7C85
100
AcDbEntity
  8
DEFPOINTS
  6
ByBlock
 62
     0
100
AcDbPoint
 10
2680.060935755547
 20
3455.550081028443
 30
0.0
  0
POINT
  5
7D97
330
7C85
100
AcDbEntity
  8
DEFPOINTS
  6
ByBlock
 62
     0
100
AcDbPoint
 10
2954.50389126136
 20
3455.550081028443
 30
0.0
  0
ENDBLK
  5
7D98
330
7C85
100
AcDbEntity
  8
0
100
AcDbBlockEnd
  0
BLOCK
  5
7D55
330
7C93
100
AcDbEntity
  8
0
100
AcDbBlockBegin
  2
*D13
 70
     1
 10
0.0
 20
0.0
 30
0.0
  3
*D13
  1

  0
LINE
  5
7D56
330
7C93
100
AcDbEntity
  8
0
  6
ByBlock
 62
     0
100
AcDbLine
 10
2573.589143905157
 20
4303.550081028443
 30
0.0
 11
2784.133087379887
 21
4303.550081028443
 31
0.0
  0
LINE
  5
7D57
330
7C93
100
AcDbEntity
  8
0
  6
ByBlock
 62
     0
100
AcDbLine
 10
2573.589143905157
 20
3478.550081028443
 30
0.0
 11
2784.133087379887
 21
3478.550081028443
 31
0.0
  0
LINE
  5
7D58
330
7C93
100
AcDbEntity
  8
0
  6
ByBlock
 62
     0
100
AcDbLine
 10
2754.133087379887
 20
4243.550081028443
 30
0.0
 11
2754.133087379887
 21
3538.550081028443
 31
0.0
  0
INSERT
  5
7D59
330
7C93
100
AcDbEntity
  8
0
  6
ByBlock
 62
     0
100
AcDbBlockReference
  2
_OPEN
 10
2754.133087379887
 20
4303.550081028443
 30
0.0
 41
60.0
 42
60.0
 43
60.0
 50
90.0
  0
INSERT
  5
7D5A
330
7C93
100
AcDbEntity
  8
0
  6
ByBlock
 62
     0
100
AcDbBlockReference
  2
_OPEN
 10
2754.133087379887
 20
3478.550081028443
 30
0.0
 41
60.0
 42
60.0
 43
60.0
 50
270.0
  0
MTEXT
  5
7D5B
330
7C93
100
AcDbEntity
  8
0
  6
ByBlock
 62
     0
100
AcDbMText
 10
2679.133087379887
 20
3911.360046010333
 30
0.0
 40
90.0
 41
0.0
 71
     5
 72
     5
  1
\A1;825
 11
0.0
 21
1.0
 31
0.0
 73
     1
 44
1.0
1001
ACAD
1000
MTEXTBEGIN
1070
    73
1070
     1
1070
    44
1040
1.0
1070
    74
1070
     0
1000
MTEXTEND
  0
POINT
  5
7D5C
330
7C93
100
AcDbEntity
  8
DEFPOINTS
  6
ByBlock
 62
     0
100
AcDbPoint
 10
2558.589143905158
 20
4303.550081028443
 30
0.0
  0
POINT
  5
7D5D
330
7C93
100
AcDbEntity
  8
DEFPOINTS
  6
ByBlock
 62
     0
100
AcDbPoint
 10
2558.589143905158
 20
3478.550081028443
 30
0.0
  0
POINT
  5
7D5E
330
7C93
100
AcDbEntity
  8
DEFPOINTS
  6
ByBlock
 62
     0
100
AcDbPoint
 10
2754.133087379887
 20
3478.550081028443
 30
0.0
  0
ENDBLK
  5
7D5F
330
7C93
100
AcDbEntity
  8
0
100
AcDbBlockEnd
  0
BLOCK
  5
7D77
330
7CAC
100
AcDbEntity
  8
0
100
AcDbBlockBegin
  2
*D14
 70
     1
 10
0.0
 20
0.0
 30
0.0
  3
*D14
  1

  0
LINE
  5
7D78
330
7CAC
100
AcDbEntity
  8
0
  6
ByBlock
 62
     0
100
AcDbLine
 10
2528.589143905157
 20
2865.550081028443
 30
0.0
 11
2984.50389126136
 21
2865.550081028443
 31
0.0
  0
LINE
  5
7D79
330
7CAC
100
AcDbEntity
  8
0
  6
ByBlock
 62
     0
100
AcDbLine
 10
2954.50389126136
 20
3395.550081028443
 30
0.0
 11
2954.50389126136
 21
2925.550081028443
 31
0.0
  0
INSERT
  5
7D7A
330
7CAC
100
AcDbEntity
  8
0
  6
ByBlock
 62
     0
100
AcDbBlockReference
  2
_OPEN
 10
2954.50389126136
 20
3455.550081028443
 30
0.0
 41
60.0
 42
60.0
 43
60.0
 50
90.0
  0
INSERT
  5
7D7B
330
7CAC
100
AcDbEntity
  8
0
  6
ByBlock
 62
     0
100
AcDbBlockReference
  2
_OPEN
 10
2954.50389126136
 20
2865.550081028443
 30
0.0
 41
60.0
 42
60.0
 43
60.0
 50
270.0
  0
MTEXT
  5
7D7C
330
7CAC
100
AcDbEntity
  8
0
  6
ByBlock
 62
     0
100
AcDbMText
 10
2879.50389126136
 20
3160.550081028443
 30
0.0
 40
90.0
 41
0.0
 71
     5
 72
     5
  1
\A1;590
 11
0.0
 21
1.0
 31
0.0
 73
     1
 44
1.0
1001
ACAD
1000
MTEXTBEGIN
1070
    73
1070
     1
1070
    44
1040
1.0
1070
    74
1070
     0
1000
MTEXTEND
  0
POINT
  5
7D7D
330
7CAC
100
AcDbEntity
  8
DEFPOINTS
  6
ByBlock
 62
     0
100
AcDbPoint
 10
2680.060935755547
 20
3455.550081028443
 30
0.0
  0
POINT
  5
7D7E
330
7CAC
100
AcDbEntity
  8
DEFPOINTS
  6
ByBlock
 62
     0
100
AcDbPoint
 10
2513.589143905157
 20
2865.550081028443
 30
0.0
  0
POINT
  5
7D7F
330
7CAC
100
AcDbEntity
  8
DEFPOINTS
  6
ByBlock
 62
     0
100
AcDbPoint
 10
2954.50389126136
 20
2865.550081028443
 30
0.0
  0
ENDBLK
  5
7D80
330
7CAC
100
AcDbEntity
  8
0
100
AcDbBlockEnd
  0
BLOCK
  5
7EE6
330
7CB8
100
AcDbEntity
  8
0
100
AcDbBlockBegin
  2
*D15
 70
     1
 10
0.0
 20
0.0
 30
0.0
  3
*D15
  1

  0
LINE
  5
7EE7
330
7CB8
100
AcDbEntity
  8
0
  6
ByBlock
 62
     0
100
AcDbLine
 10
2214.128458524445
 20
2409.15956299327
 30
0.0
 11
2670.043205880647
 21
2409.15956299327
 31
0.0
  0
LINE
  5
7EE8
330
7CB8
100
AcDbEntity
  8
0
  6
ByBlock
 62
     0
100
AcDbLine
 10
2640.043205880648
 20
2489.159562993271
 30
0.0
 11
2640.043205880648
 21
2549.159562993271
 31
0.0
  0
LINE
  5
7EE9
330
7CB8
100
AcDbEntity
  8
0
  6
ByBlock
 62
     0
100
AcDbLine
 10
2640.043205880648
 20
2349.15956299327
 30
0.0
 11
2640.043205880648
 21
2289.15956299327
 31
0.0
  0
MTEXT
  5
7EEA
330
7CB8
100
AcDbEntity
  8
0
  6
ByBlock
 62
     0
100
AcDbMText
 10
2783.614634452076
 20
2461.934024979757
 30
0.0
 40
90.0
 41
0.0
 71
     5
 72
     5
  1
\A1;(20)
 11
0.0
 21
1.0
 31
0.0
 73
     1
 44
1.0
1001
ACAD
1000
MTEXTBEGIN
1070
    73
1070
     1
1070
    44
1040
1.0
1070
    74
1070
     0
1000
MTEXTEND
  0
LINE
  5
7EEB
330
7CB8
100
AcDbEntity
  8
0
  6
ByBlock
 62
     0
100
AcDbLine
 10
2640.043205880648
 20
2429.159562993271
 30
0.0
 11
2640.043205880648
 21
2409.15956299327
 31
0.0
  0
INSERT
  5
7EEC
330
7CB8
100
AcDbEntity
  8
0
  6
ByBlock
 62
     0
100
AcDbBlockReference
  2
_OPEN
 10
2640.043205880648
 20
2429.159562993271
 30
0.0
 41
60.0
 42
60.0
 43
60.0
 50
270.0
  0
INSERT
  5
7EED
330
7CB8
100
AcDbEntity
  8
0
  6
ByBlock
 62
     0
100
AcDbBlockReference
  2
_DOT
 10
2640.043205880648
 20
2409.15956299327
 30
0.0
 41
60.0
 42
60.0
 43
60.0
 50
90.0
  0
POINT
  5
7EEE
330
7CB8
100
AcDbEntity
  8
DEFPOINTS
  6
ByBlock
 62
     0
100
AcDbPoint
 10
2199.128458524445
 20
2429.159562993271
 30
0.0
  0
POINT
  5
7EEF
330
7CB8
100
AcDbEntity
  8
DEFPOINTS
  6
ByBlock
 62
     0
100
AcDbPoint
 10
2199.128458524445
 20
2409.15956299327
 30
0.0
  0
POINT
  5
7EF0
330
7CB8
100
AcDbEntity
  8
DEFPOINTS
  6
ByBlock
 62
     0
100
AcDbPoint
 10
2640.043205880648
 20
2409.15956299327
 30
0.0
  0
ENDBLK
  5
7EF1
330
7CB8
100
AcDbEntity
  8
0
100
AcDbBlockEnd
  0
BLOCK
  5
7ECD
330
7CC8
100
AcDbEntity
  8
0
100
AcDbBlockBegin
  2
*D16
 70
     1
 10
0.0
 20
0.0
 30
0.0
  3
*D16
  1

  0
LINE
  5
7ECE
330
7CC8
100
AcDbEntity
  8
0
  6
ByBlock
 62
     0
100
AcDbLine
 10
2214.128458524445
 20
2409.15956299327
 30
0.0
 11
2670.043205880647
 21
2409.15956299327
 31
0.0
  0
LINE
  5
7ECF
330
7CC8
100
AcDbEntity
  8
0
  6
ByBlock
 62
     0
100
AcDbLine
 10
2214.128458524445
 20
2309.15956299327
 30
0.0
 11
2670.043205880647
 21
2309.15956299327
 31
0.0
  0
LINE
  5
7ED0
330
7CC8
100
AcDbEntity
  8
0
  6
ByBlock
 62
     0
100
AcDbLine
 10
2640.043205880648
 20
2469.15956299327
 30
0.0
 11
2640.043205880648
 21
2529.15956299327
 31
0.0
  0
LINE
  5
7ED1
330
7CC8
100
AcDbEntity
  8
0
  6
ByBlock
 62
     0
100
AcDbLine
 10
2640.043205880648
 20
2249.15956299327
 30
0.0
 11
2640.043205880648
 21
1914.873848707556
 31
0.0
  0
LINE
  5
7ED2
330
7CC8
100
AcDbEntity
  8
0
  6
ByBlock
 62
     0
100
AcDbLine
 10
2640.043205880648
 20
2409.15956299327
 30
0.0
 11
2640.043205880648
 21
2309.15956299327
 31
0.0
  0
INSERT
  5
7ED3
330
7CC8
100
AcDbEntity
  8
0
  6
ByBlock
 62
     0
100
AcDbBlockReference
  2
_DOT
 10
2640.043205880648
 20
2409.15956299327
 30
0.0
 41
60.0
 42
60.0
 43
60.0
 50
270.0
  0
INSERT
  5
7ED4
330
7CC8
100
AcDbEntity
  8
0
  6
ByBlock
 62
     0
100
AcDbBlockReference
  2
_OPEN
 10
2640.043205880648
 20
2309.15956299327
 30
0.0
 41
60.0
 42
60.0
 43
60.0
 50
90.0
  0
MTEXT
  5
7ED5
330
7CC8
100
AcDbEntity
  8
0
  6
ByBlock
 62
     0
100
AcDbMText
 10
2565.043205880647
 20
2052.016705850413
 30
0.0
 40
90.0
 41
0.0
 71
     5
 72
     5
  1
\A1;100
 11
0.0
 21
1.0
 31
0.0
 73
     1
 44
1.0
1001
ACAD
1000
MTEXTBEGIN
1070
    73
1070
     1
1070
    44
1040
1.0
1070
    74
1070
     0
1000
MTEXTEND
  0
POINT
  5
7ED6
330
7CC8
100
AcDbEntity
  8
DEFPOINTS
  6
ByBlock
 62
     0
100
AcDbPoint
 10
2199.128458524445
 20
2409.15956299327
 30
0.0
  0
POINT
  5
7ED7
330
7CC8
100
AcDbEntity
  8
DEFPOINTS
  6
ByBlock
 62
     0
100
AcDbPoint
 10
2199.128458524445
 20
2309.15956299327
 30
0.0
  0
POINT
  5
7ED8
330
7CC8
100
AcDbEntity
  8
DEFPOINTS
  6
ByBlock
 62
     0
100
AcDbPoint
 10
2640.043205880648
 20
2309.15956299327
 30
0.0
  0
ENDBLK
  5
7ED9
330
7CC8
100
AcDbEntity
  8
0
100
AcDbBlockEnd
  0
BLOCK
  5
7D12
330
7D11
100
AcDbEntity
  8
0
100
AcDbBlockBegin
  2
_DOT
 70
     0
 10
0.0
 20
0.0
 30
0.0
  3
_DOT
  1

  0
LINE
  5
7E6F
330
7D11
100
AcDbEntity
  8
0
  6
ByBlock
 62
     0
100
AcDbLine
 10
0.0
 20
0.0
 30
0.0
 11
-1.0
 21
-0.0000000000000284
 31
0.0
  0
LWPOLYLINE
  5
7E70
330
7D11
100
AcDbEntity
  8
0
  6
ByBlock
 62
     0
100
AcDbPolyline
 90
        2
 70
     1
 43
0.1666666666666666
 10
-0.0833333333333286
 20
-0.0000000000000284
 42
1.0
 10
0.0833333333333286
 20
-0.0000000000000284
 42
1.0
  0
ENDBLK
  5
7D18
330
7D11
100
AcDbEntity
  8
0
100
AcDbBlockEnd
  0
BLOCK
  5
7EC2
330
7D99
100
AcDbEntity
  8
0
100
AcDbBlockBegin
  2
*D18
 70
     1
 10
0.0
 20
0.0
 30
0.0
  3
*D18
  1

  0
LINE
  5
7EC3
330
7D99
100
AcDbEntity
  8
0
  6
ByBlock
 62
     0
100
AcDbLine
 10
2259.128458524445
 20
3909.659562993271
 30
0.0
 11
2933.954473291939
 21
3909.659562993271
 31
0.0
  0
LINE
  5
7EC4
330
7D99
100
AcDbEntity
  8
0
  6
ByBlock
 62
     0
100
AcDbLine
 10
2214.128458524445
 20
2309.15956299327
 30
0.0
 11
2933.954473291939
 21
2309.15956299327
 31
0.0
  0
LINE
  5
7EC5
330
7D99
100
AcDbEntity
  8
0
  6
ByBlock
 62
     0
100
AcDbLine
 10
2903.954473291939
 20
3849.65956299327
 30
0.0
 11
2903.954473291939
 21
2369.15956299327
 31
0.0
  0
INSERT
  5
7EC6
330
7D99
100
AcDbEntity
  8
0
  6
ByBlock
 62
     0
100
AcDbBlockReference
  2
_OPEN
 10
2903.954473291939
 20
3909.659562993271
 30
0.0
 41
60.0
 42
60.0
 43
60.0
 50
90.0
  0
INSERT
  5
7EC7
330
7D99
100
AcDbEntity
  8
0
  6
ByBlock
 62
     0
100
AcDbBlockReference
  2
_OPEN
 10
2903.954473291939
 20
2309.15956299327
 30
0.0
 41
60.0
 42
60.0
 43
60.0
 50
270.0
  0
MTEXT
  5
7EC8
330
7D99
100
AcDbEntity
  8
0
  6
ByBlock
 62
     0
100
AcDbMText
 10
2828.954473291938
 20
3041.616200589681
 30
0.0
 40
90.0
 41
0.0
 71
     5
 72
     5
  1
\A1;1601
 11
0.0
 21
1.0
 31
0.0
 73
     1
 44
1.0
1001
ACAD
1000
MTEXTBEGIN
1070
    73
1070
     1
1070
    44
1040
1.0
1070
    74
1070
     0
1000
MTEXTEND
  0
POINT
  5
7EC9
330
7D99
100
AcDbEntity
  8
DEFPOINTS
  6
ByBlock
 62
     0
100
AcDbPoint
 10
2244.128458524444
 20
3909.659562993271
 30
0.0
  0
POINT
  5
7ECA
330
7D99
100
AcDbEntity
  8
DEFPOINTS
  6
ByBlock
 62
     0
100
AcDbPoint
 10
2199.128458524445
 20
2309.15956299327
 30
0.0
  0
POINT
  5
7ECB
330
7D99
100
AcDbEntity
  8
DEFPOINTS
  6
ByBlock
 62
     0
100
AcDbPoint
 10
2903.954473291939
 20
2309.15956299327
 30
0.0
  0
ENDBLK
  5
7ECC
330
7D99
100
AcDbEntity
  8
0
100
AcDbBlockEnd
  0
BLOCK
  5
7DA7
330
7DA6
100
AcDbEntity
  8
0
100
AcDbBlockBegin
  2
*D19
 70
     1
 10
0.0
 20
0.0
 30
0.0
  3
*D19
  1

  0
LINE
  5
7DA8
330
7DA6
100
AcDbEntity
  8
0
  6
ByBlock
 62
     0
100
AcDbLine
 10
2244.128458524444
 20
3924.659562993271
 30
0.0
 11
2244.128458524444
 21
4116.646706260875
 31
0.0
  0
LINE
  5
7DA9
330
7DA6
100
AcDbEntity
  8
0
  6
ByBlock
 62
     0
100
AcDbLine
 10
1699.128458524445
 20
3892.842895620514
 30
0.0
 11
1699.128458524445
 21
4116.646706260875
 31
0.0
  0
LINE
  5
7DAA
330
7DA6
100
AcDbEntity
  8
0
  6
ByBlock
 62
     0
100
AcDbLine
 10
2184.128458524444
 20
4086.646706260875
 30
0.0
 11
1759.128458524445
 21
4086.646706260875
 31
0.0
  0
INSERT
  5
7DAB
330
7DA6
100
AcDbEntity
  8
0
  6
ByBlock
 62
     0
100
AcDbBlockReference
  2
_OPEN
 10
2244.128458524444
 20
4086.646706260875
 30
0.0
 41
60.0
 42
60.0
 43
60.0
  0
INSERT
  5
7DAC
330
7DA6
100
AcDbEntity
  8
0
  6
ByBlock
 62
     0
100
AcDbBlockReference
  2
_OPEN
 10
1699.128458524445
 20
4086.646706260875
 30
0.0
 41
60.0
 42
60.0
 43
60.0
 50
180.0
  0
MTEXT
  5
7DAD
330
7DA6
100
AcDbEntity
  8
0
  6
ByBlock
 62
     0
100
AcDbMText
 10
1984.141476578137
 20
4161.646706260875
 30
0.0
 40
90.0
 41
0.0
 71
     5
 72
     5
  1
\A1;545
 73
     1
 44
1.0
1001
ACAD
1000
MTEXTBEGIN
1070
    73
1070
     1
1070
    44
1040
1.0
1070
    74
1070
     0
1000
MTEXTEND
  0
POINT
  5
7DAE
330
7DA6
100
AcDbEntity
  8
DEFPOINTS
  6
ByBlock
 62
     0
100
AcDbPoint
 10
2244.128458524444
 20
3909.659562993271
 30
0.0
  0
POINT
  5
7DAF
330
7DA6
100
AcDbEntity
  8
DEFPOINTS
  6
ByBlock
 62
     0
100
AcDbPoint
 10
1699.128458524445
 20
3877.842895620513
 30
0.0
  0
POINT
  5
7DB0
330
7DA6
100
AcDbEntity
  8
DEFPOINTS
  6
ByBlock
 62
     0
100
AcDbPoint
 10
1699.128458524445
 20
4086.646706260875
 30
0.0
  0
ENDBLK
  5
7DB1
330
7DA6
100
AcDbEntity
  8
0
100
AcDbBlockEnd
  0
BLOCK
  5
7DB4
330
7DB3
100
AcDbEntity
  8
0
100
AcDbBlockBegin
  2
*D20
 70
     1
 10
0.0
 20
0.0
 30
0.0
  3
*D20
  1

  0
LINE
  5
7DB5
330
7DB3
100
AcDbEntity
  8
0
  6
ByBlock
 62
     0
100
AcDbLine
 10
1013.128458524444
 20
3093.159562993271
 30
0.0
 11
1013.128458524444
 21
4116.646706260875
 31
0.0
  0
LINE
  5
7DB6
330
7DB3
100
AcDbEntity
  8
0
  6
ByBlock
 62
     0
100
AcDbLine
 10
1639.128458524445
 20
4086.646706260875
 30
0.0
 11
1073.128458524444
 21
4086.646706260875
 31
0.0
  0
INSERT
  5
7DB7
330
7DB3
100
AcDbEntity
  8
0
  6
ByBlock
 62
     0
100
AcDbBlockReference
  2
_OPEN
 10
1699.128458524445
 20
4086.646706260875
 30
0.0
 41
60.0
 42
60.0
 43
60.0
  0
INSERT
  5
7DB8
330
7DB3
100
AcDbEntity
  8
0
  6
ByBlock
 62
     0
100
AcDbBlockReference
  2
_OPEN
 10
1013.128458524444
 20
4086.646706260875
 30
0.0
 41
60.0
 42
60.0
 43
60.0
 50
180.0
  0
MTEXT
  5
7DB9
330
7DB3
100
AcDbEntity
  8
0
  6
ByBlock
 62
     0
100
AcDbMText
 10
1356.128458524444
 20
4161.646706260875
 30
0.0
 40
90.0
 41
0.0
 71
     5
 72
     5
  1
\A1;686
 73
     1
 44
1.0
1001
ACAD
1000
MTEXTBEGIN
1070
    73
1070
     1
1070
    44
1040
1.0
1070
    74
1070
     0
1000
MTEXTEND
  0
POINT
  5
7DBA
330
7DB3
100
AcDbEntity
  8
DEFPOINTS
  6
ByBlock
 62
     0
100
AcDbPoint
 10
1699.128458524445
 20
3877.842895620513
 30
0.0
  0
POINT
  5
7DBB
330
7DB3
100
AcDbEntity
  8
DEFPOINTS
  6
ByBlock
 62
     0
100
AcDbPoint
 10
1013.128458524444
 20
3078.159562993271
 30
0.0
  0
POINT
  5
7DBC
330
7DB3
100
AcDbEntity
  8
DEFPOINTS
  6
ByBlock
 62
     0
100
AcDbPoint
 10
1013.128458524444
 20
4086.646706260875
 30
0.0
  0
ENDBLK
  5
7DBD
330
7DB3
100
AcDbEntity
  8
0
100
AcDbBlockEnd
  0
BLOCK
  5
7DC0
330
7DBF
100
AcDbEntity
  8
0
100
AcDbBlockBegin
  2
*D21
 70
     1
 10
0.0
 20
0.0
 30
0.0
  3
*D21
  1

  0
LINE
  5
7DC1
330
7DBF
100
AcDbEntity
  8
0
  6
ByBlock
 62
     0
100
AcDbLine
 10
2244.128458524444
 20
3924.659562993271
 30
0.0
 11
2244.128458524444
 21
4327.525761891178
 31
0.0
  0
LINE
  5
7DC2
330
7DBF
100
AcDbEntity
  8
0
  6
ByBlock
 62
     0
100
AcDbLine
 10
899.1284585244448
 20
2584.159562993271
 30
0.0
 11
899.1284585244448
 21
4327.525761891178
 31
0.0
  0
LINE
  5
7DC3
330
7DBF
100
AcDbEntity
  8
0
  6
ByBlock
 62
     0
100
AcDbLine
 10
2184.128458524444
 20
4297.525761891178
 30
0.0
 11
959.1284585244448
 21
4297.525761891178
 31
0.0
  0
INSERT
  5
7DC4
330
7DBF
100
AcDbEntity
  8
0
  6
ByBlock
 62
     0
100
AcDbBlockReference
  2
_OPEN
 10
2244.128458524444
 20
4297.525761891178
 30
0.0
 41
60.0
 42
60.0
 43
60.0
  0
INSERT
  5
7DC5
330
7DBF
100
AcDbEntity
  8
0
  6
ByBlock
 62
     0
100
AcDbBlockReference
  2
_OPEN
 10
899.1284585244448
 20
4297.525761891178
 30
0.0
 41
60.0
 42
60.0
 43
60.0
 50
180.0
  0
MTEXT
  5
7DC6
330
7DBF
100
AcDbEntity
  8
0
  6
ByBlock
 62
     0
100
AcDbMText
 10
1568.06512503792
 20
4372.525761891178
 30
0.0
 40
90.0
 41
0.0
 71
     5
 72
     5
  1
\A1;1345
 73
     1
 44
1.0
1001
ACAD
1000
MTEXTBEGIN
1070
    73
1070
     1
1070
    44
1040
1.0
1070
    74
1070
     0
1000
MTEXTEND
  0
POINT
  5
7DC7
330
7DBF
100
AcDbEntity
  8
DEFPOINTS
  6
ByBlock
 62
     0
100
AcDbPoint
 10
2244.128458524444
 20
3909.659562993271
 30
0.0
  0
POINT
  5
7DC8
330
7DBF
100
AcDbEntity
  8
DEFPOINTS
  6
ByBlock
 62
     0
100
AcDbPoint
 10
899.1284585244448
 20
2569.159562993271
 30
0.0
  0
POINT
  5
7DC9
330
7DBF
100
AcDbEntity
  8
DEFPOINTS
  6
ByBlock
 62
     0
100
AcDbPoint
 10
899.1284585244448
 20
4297.525761891178
 30
0.0
  0
ENDBLK
  5
7DCA
330
7DBF
100
AcDbEntity
  8
0
100
AcDbBlockEnd
  0
BLOCK
  5
7DE7
330
7DE6
100
AcDbEntity
  8
0
100
AcDbBlockBegin
  2
*D22
 70
     1
 10
0.0
 20
0.0
 30
0.0
  3
*D22
  1

  0
LINE
  5
7DE8
330
7DE6
100
AcDbEntity
  8
0
  6
ByBlock
 62
     0
100
AcDbLine
 10
4424.973006374324
 20
3882.159562993271
 30
0.0
 11
4424.973006374324
 21
4094.870224243371
 31
0.0
  0
LINE
  5
7DE9
330
7DE6
100
AcDbEntity
  8
0
  6
ByBlock
 62
     0
100
AcDbLine
 10
5024.973006374326
 20
3882.159562993271
 30
0.0
 11
5024.973006374326
 21
4094.870224243371
 31
0.0
  0
LINE
  5
7DEA
330
7DE6
100
AcDbEntity
  8
0
  6
ByBlock
 62
     0
100
AcDbLine
 10
4484.973006374324
 20
4064.870224243372
 30
0.0
 11
4964.973006374325
 21
4064.870224243372
 31
0.0
  0
INSERT
  5
7DEB
330
7DE6
100
AcDbEntity
  8
0
  6
ByBlock
 62
     0
100
AcDbBlockReference
  2
_OPEN
 10
4424.973006374324
 20
4064.870224243372
 30
0.0
 41
60.0
 42
60.0
 43
60.0
 50
180.0
  0
INSERT
  5
7DEC
330
7DE6
100
AcDbEntity
  8
0
  6
ByBlock
 62
     0
100
AcDbBlockReference
  2
_OPEN
 10
5024.973006374326
 20
4064.870224243372
 30
0.0
 41
60.0
 42
60.0
 43
60.0
  0
MTEXT
  5
7DED
330
7DE6
100
AcDbEntity
  8
0
  6
ByBlock
 62
     0
100
AcDbMText
 10
4726.162140401327
 20
4139.870224243372
 30
0.0
 40
90.0
 41
0.0
 71
     5
 72
     5
  1
\A1;600
 73
     1
 44
1.0
1001
ACAD
1000
MTEXTBEGIN
1070
    73
1070
     1
1070
    44
1040
1.0
1070
    74
1070
     0
1000
MTEXTEND
  0
POINT
  5
7DEE
330
7DE6
100
AcDbEntity
  8
DEFPOINTS
  6
ByBlock
 62
     0
100
AcDbPoint
 10
4424.973006374324
 20
3867.159562993271
 30
0.0
  0
POINT
  5
7DEF
330
7DE6
100
AcDbEntity
  8
DEFPOINTS
  6
ByBlock
 62
     0
100
AcDbPoint
 10
5024.973006374326
 20
3867.159562993271
 30
0.0
  0
POINT
  5
7DF0
330
7DE6
100
AcDbEntity
  8
DEFPOINTS
  6
ByBlock
 62
     0
100
AcDbPoint
 10
5024.973006374326
 20
4064.870224243372
 30
0.0
  0
ENDBLK
  5
7DF1
330
7DE6
100
AcDbEntity
  8
0
100
AcDbBlockEnd
  0
BLOCK
  5
7E64
330
7DF5
100
AcDbEntity
  8
0
100
AcDbBlockBegin
  2
*D23
 70
     1
 10
0.0
 20
0.0
 30
0.0
  3
*D23
  1

  0
LINE
  5
7E65
330
7DF5
100
AcDbEntity
  8
0
  6
ByBlock
 62
     0
100
AcDbLine
 10
5028.973006374325
 20
3851.443967929987
 30
0.0
 11
5028.973006374325
 21
4302.134207640432
 31
0.0
  0
LINE
  5
7E66
330
7DF5
100
AcDbEntity
  8
0
  6
ByBlock
 62
     0
100
AcDbLine
 10
4724.973006374324
 20
4212.804045965605
 30
0.0
 11
4724.973006374324
 21
4302.134207640432
 31
0.0
  0
LINE
  5
7E67
330
7DF5
100
AcDbEntity
  8
0
  6
ByBlock
 62
     0
100
AcDbLine
 10
4968.973006374325
 20
4272.134207640433
 30
0.0
 11
4784.973006374324
 21
4272.134207640433
 31
0.0
  0
MTEXT
  5
7E68
330
7DF5
100
AcDbEntity
  8
0
  6
ByBlock
 62
     0
100
AcDbMText
 10
4876.973006374324
 20
4343.196148337512
 30
0.0
 40
90.0
 41
0.0
 71
     5
 72
     5
  1
\A1;304
 73
     1
 44
1.0
1001
ACAD
1000
MTEXTBEGIN
1070
    73
1070
     1
1070
    44
1040
1.0
1070
    74
1070
     0
1000
MTEXTEND
  0
INSERT
  5
7E69
330
7DF5
100
AcDbEntity
  8
0
  6
ByBlock
 62
     0
100
AcDbBlockReference
  2
_OPEN
 10
5028.973006374325
 20
4272.134207640433
 30
0.0
 41
60.0
 42
60.0
 43
60.0
  0
INSERT
  5
7E6A
330
7DF5
100
AcDbEntity
  8
0
  6
ByBlock
 62
     0
100
AcDbBlockReference
  2
_OPEN
 10
4724.973006374324
 20
4272.134207640433
 30
0.0
 41
60.0
 42
60.0
 43
60.0
 50
180.0
  0
POINT
  5
7E6B
330
7DF5
100
AcDbEntity
  8
DEFPOINTS
  6
ByBlock
 62
     0
100
AcDbPoint
 10
5028.973006374325
 20
3836.443967929987
 30
0.0
  0
POINT
  5
7E6C
330
7DF5
100
AcDbEntity
  8
DEFPOINTS
  6
ByBlock
 62
     0
100
AcDbPoint
 10
4724.973006374324
 20
4197.804045965606
 30
0.0
  0
POINT
  5
7E6D
330
7DF5
100
AcDbEntity
  8
DEFPOINTS
  6
ByBlock
 62
     0
100
AcDbPoint
 10
4724.973006374324
 20
4272.134207640433
 30
0.0
  0
ENDBLK
  5
7E6E
330
7DF5
100
AcDbEntity
  8
0
100
AcDbBlockEnd
  0
BLOCK
  5
7E5A
330
7E25
100
AcDbEntity
  8
0
100
AcDbBlockBegin
  2
*D24
 70
     1
 10
0.0
 20
0.0
 30
0.0
  3
*D24
  1

  0
LINE
  5
7E5B
330
7E25
100
AcDbEntity
  8
0
  6
ByBlock
 62
     0
100
AcDbLine
 10
3536.973006374325
 20
3254.15956299327
 30
0.0
 11
3536.973006374325
 21
4302.134207640432
 31
0.0
  0
LINE
  5
7E5C
330
7E25
100
AcDbEntity
  8
0
  6
ByBlock
 62
     0
100
AcDbLine
 10
4664.973006374324
 20
4272.134207640433
 30
0.0
 11
3596.973006374325
 21
4272.134207640433
 31
0.0
  0
INSERT
  5
7E5D
330
7E25
100
AcDbEntity
  8
0
  6
ByBlock
 62
     0
100
AcDbBlockReference
  2
_OPEN
 10
4724.973006374324
 20
4272.134207640433
 30
0.0
 41
60.0
 42
60.0
 43
60.0
  0
INSERT
  5
7E5E
330
7E25
100
AcDbEntity
  8
0
  6
ByBlock
 62
     0
100
AcDbBlockReference
  2
_OPEN
 10
3536.973006374325
 20
4272.134207640433
 30
0.0
 41
60.0
 42
60.0
 43
60.0
 50
180.0
  0
MTEXT
  5
7E5F
330
7E25
100
AcDbEntity
  8
0
  6
ByBlock
 62
     0
100
AcDbMText
 10
4130.973006374325
 20
4422.134207640432
 30
0.0
 40
90.0
 41
0.0
 71
     5
 72
     5
  1
\A1;MAX\P1240
 73
     1
 44
1.0
1001
ACAD
1000
MTEXTBEGIN
1070
    73
1070
     1
1070
    44
1040
1.0
1070
    74
1070
     0
1000
MTEXTEND
  0
POINT
  5
7E60
330
7E25
100
AcDbEntity
  8
DEFPOINTS
  6
ByBlock
 62
     0
100
AcDbPoint
 10
4724.973006374324
 20
4197.804045965606
 30
0.0
  0
POINT
  5
7E61
330
7E25
100
AcDbEntity
  8
DEFPOINTS
  6
ByBlock
 62
     0
100
AcDbPoint
 10
3536.973006374325
 20
3239.159562993271
 30
0.0
  0
POINT
  5
7E62
330
7E25
100
AcDbEntity
  8
DEFPOINTS
  6
ByBlock
 62
     0
100
AcDbPoint
 10
3536.973006374325
 20
4272.134207640433
 30
0.0
  0
ENDBLK
  5
7E63
330
7E25
100
AcDbEntity
  8
0
100
AcDbBlockEnd
  0
BLOCK
  5
7F08
330
7F07
100
AcDbEntity
  8
0
100
AcDbBlockBegin
  2
*D25
 70
     1
 10
0.0
 20
0.0
 30
0.0
  3
*D25
  1

  0
LINE
  5
7F09
330
7F07
100
AcDbEntity
  8
0
  6
ByBlock
 62
     0
100
AcDbLine
 10
5039.973006374324
 20
3444.159562993271
 30
0.0
 11
5362.187637331564
 21
3444.159562993271
 31
0.0
  0
LINE
  5
7F0A
330
7F07
100
AcDbEntity
  8
0
  6
ByBlock
 62
     0
100
AcDbLine
 10
5042.273006374324
 20
2594.159562993271
 30
0.0
 11
5362.187637331564
 21
2594.159562993271
 31
0.0
  0
LINE
  5
7F0B
330
7F07
100
AcDbEntity
  8
0
  6
ByBlock
 62
     0
100
AcDbLine
 10
5332.187637331564
 20
3384.159562993271
 30
0.0
 11
5332.187637331564
 21
2654.159562993271
 31
0.0
  0
INSERT
  5
7F0C
330
7F07
100
AcDbEntity
  8
0
  6
ByBlock
 62
     0
100
AcDbBlockReference
  2
_OPEN
 10
5332.187637331564
 20
3444.159562993271
 30
0.0
 41
60.0
 42
60.0
 43
60.0
 50
90.0
  0
INSERT
  5
7F0D
330
7F07
100
AcDbEntity
  8
0
  6
ByBlock
 62
     0
100
AcDbBlockReference
  2
_OPEN
 10
5332.187637331564
 20
2594.159562993271
 30
0.0
 41
60.0
 42
60.0
 43
60.0
 50
270.0
  0
MTEXT
  5
7F0E
330
7F07
100
AcDbEntity
  8
0
  6
ByBlock
 62
     0
100
AcDbMText
 10
5257.187637331565
 20
3019.334739290018
 30
0.0
 40
90.0
 41
0.0
 71
     5
 72
     5
  1
\A1;\U+03C6850
 11
0.0
 21
1.0
 31
0.0
 73
     1
 44
1.0
1001
ACAD
1000
MTEXTBEGIN
1070
    73
1070
     1
1070
    44
1040
1.0
1070
    74
1070
     0
1000
MTEXTEND
  0
POINT
  5
7F0F
330
7F07
100
AcDbEntity
  8
DEFPOINTS
  6
ByBlock
 62
     0
100
AcDbPoint
 10
5024.973006374324
 20
3444.159562993271
 30
0.0
  0
POINT
  5
7F10
330
7F07
100
AcDbEntity
  8
DEFPOINTS
  6
ByBlock
 62
     0
100
AcDbPoint
 10
5027.273006374325
 20
2594.159562993271
 30
0.0
  0
POINT
  5
7F11
330
7F07
100
AcDbEntity
  8
DEFPOINTS
  6
ByBlock
 62
     0
100
AcDbPoint
 10
5332.187637331564
 20
2594.159562993271
 30
0.0
  0
ENDBLK
  5
7F12
330
7F07
100
AcDbEntity
  8
0
100
AcDbBlockEnd
  0
ENDSEC
  0
SECTION
  2
ENTITIES
  0
LINE
  5
7AC2
330
19
100
AcDbEntity
  8
2
100
AcDbLine
 10
2306.04500604904
 20
6144.152420412725
 30
0.0
 11
966.6754149195913
 21
6144.152420412725
 31
0.0
  0
LINE
  5
7AC3
330
19
100
AcDbEntity
  8
2
100
AcDbLine
 10
2365.600250374835
 20
3019.159562993271
 30
0.0
 11
941.2248813344085
 21
3019.159562993271
 31
0.0
  0
LINE
  5
7AC4
330
19
100
AcDbEntity
  8
1
100
AcDbLine
 10
2241.128458524444
 20
3909.659562993271
 30
0.0
 11
2241.128458524443
 21
2999.659562993271
 31
0.0
  0
LINE
  5
7AC5
330
19
100
AcDbEntity
  8
1
100
AcDbLine
 10
2204.128458524444
 20
3909.659562993271
 30
0.0
 11
2204.128458524444
 21
2999.659562993271
 31
0.0
  0
LINE
  5
7AC6
330
19
100
AcDbEntity
  8
1
100
AcDbLine
 10
2244.128458524444
 20
3909.659562993271
 30
0.0
 11
2244.128458524444
 21
2999.659562993271
 31
0.0
  0
LINE
  5
7AC7
330
19
100
AcDbEntity
  8
2
100
AcDbLine
 10
1699.128458524445
 20
3877.842895620513
 30
0.0
 11
1699.128458524445
 21
2262.754692705066
 31
0.0
  0
ARC
  5
7AC8
330
19
100
AcDbEntity
  8
1
100
AcDbCircle
 10
1758.128458524444
 20
3078.159562993271
 30
0.0
 40
745.0
100
AcDbArc
 50
94.54227460542426
 51
184.5422746054243
  0
LINE
  5
7AC9
330
19
100
AcDbEntity
  8
2
100
AcDbLine
 10
1099.128458524445
 20
3007.608249436066
 30
0.0
 11
1099.128458524445
 21
2493.812668329392
 31
0.0
  0
LINE
  5
7ACA
330
19
100
AcDbEntity
  8
1
100
AcDbLine
 10
909.1284585244448
 20
2409.15956299327
 30
0.0
 11
2199.128458524445
 21
2409.15956299327
 31
0.0
  0
LINE
  5
7ACB
330
19
100
AcDbEntity
  8
1
100
AcDbLine
 10
909.1284585244448
 20
2309.159562993269
 30
0.0
 11
2199.128458524445
 21
2309.15956299327
 31
0.0
1001
ACAD
1000
ASC_BOUNDS
1002
{
1070
    19
1002
}
  0
LINE
  5
7ACC
330
19
100
AcDbEntity
  8
1
100
AcDbLine
 10
909.1284585244448
 20
2409.15956299327
 30
0.0
 11
909.1284585244448
 21
2309.15956299327
 31
0.0
  0
LINE
  5
7ACD
330
19
100
AcDbEntity
  8
1
100
AcDbLine
 10
1979.128458524444
 20
2409.159562993269
 30
0.0
 11
1979.128458524444
 21
2309.159562993269
 31
0.0
  0
LINE
  5
7ACE
330
19
100
AcDbEntity
  8
1
100
AcDbLine
 10
2199.128458524445
 20
2409.15956299327
 30
0.0
 11
2199.128458524445
 21
2309.15956299327
 31
0.0
  0
POINT
  5
7ACF
330
19
100
AcDbEntity
  8
1
100
AcDbPoint
 10
2199.128458524445
 20
2309.15956299327
 30
0.0
  0
POINT
  5
7AD0
330
19
100
AcDbEntity
  8
1
100
AcDbPoint
 10
2199.128458524445
 20
2309.15956299327
 30
0.0
  0
POINT
  5
7AD1
330
19
100
AcDbEntity
  8
1
100
AcDbPoint
 10
2199.128458524445
 20
2409.15956299327
 30
0.0
  0
POINT
  5
7AD2
330
19
100
AcDbEntity
  8
1
100
AcDbPoint
 10
2199.128458524445
 20
2409.15956299327
 30
0.0
  0
POINT
  5
7AD3
330
19
100
AcDbEntity
  8
1
100
AcDbPoint
 10
2199.128458524445
 20
2409.15956299327
 30
0.0
  0
POINT
  5
7AD4
330
19
100
AcDbEntity
  8
1
100
AcDbPoint
 10
2199.128458524445
 20
2409.15956299327
 30
0.0
  0
LINE
  5
7AD5
330
19
100
AcDbEntity
  8
1
100
AcDbLine
 10
1617.422509726542
 20
3223.424434988029
 30
0.0
 11
1017.422509726542
 21
2983.424434988027
 31
0.0
  0
LINE
  5
7AD6
330
19
100
AcDbEntity
  8
1
100
AcDbLine
 10
1648.876154781652
 20
3135.79448901692
 30
0.0
 11
1055.602841109426
 21
2880.181939864149
 31
0.0
  0
LINE
  5
7AD7
330
19
100
AcDbEntity
  8
1
100
AcDbLine
 10
1137.28051272107
 20
2675.987760835037
 30
0.0
 11
1743.176739278731
 21
2900.04302777422
 31
0.0
  0
LINE
  5
7AD8
330
19
100
AcDbEntity
  8
1
100
AcDbLine
 10
1180.834407322347
 20
2574.894690998514
 30
0.0
 11
1780.834407322347
 21
2814.894690998514
 31
0.0
  0
LINE
  5
7AD9
330
19
100
AcDbEntity
  8
1
100
AcDbLine
 10
899.1284585244448
 20
2529.159562993271
 30
0.0
 11
2199.128458524445
 21
2529.159562993271
 31
0.0
  0
LINE
  5
7ADA
330
19
100
AcDbEntity
  8
1
100
AcDbLine
 10
909.1284585244448
 20
2429.15956299327
 30
0.0
 11
2199.128458524445
 21
2429.159562993271
 31
0.0
1001
ACAD
1000
ASC_BOUNDS
1002
{
1070
    19
1002
}
  0
ARC
  5
7ADB
330
19
100
AcDbEntity
  8
1
100
AcDbCircle
 10
1099.128458524445
 20
2779.159562993271
 30
0.0
 40
162.0
100
AcDbArc
 50
180.0
 51
254.3581
  0
LINE
  5
7ADC
330
19
100
AcDbEntity
  8
2
100
AcDbLine
 10
1287.238902587116
 20
2779.159562993271
 30
0.0
 11
797.8219936597452
 21
2779.15956299327
 31
0.0
  0
LINE
  5
7ADD
330
19
100
AcDbEntity
  8
1
100
AcDbLine
 10
910.6138152584035
 20
2619.159562993268
 30
0.0
 11
1287.883326139255
 21
2619.159562993271
 31
0.0
  0
LINE
  5
7ADE
330
19
100
AcDbEntity
  8
1
100
AcDbLine
 10
897.1284585244438
 20
2569.159562993271
 30
0.0
 11
1301.128458524445
 21
2569.159562993271
 31
0.0
  0
CIRCLE
  5
7ADF
330
19
100
AcDbEntity
  8
1
100
AcDbCircle
 10
1099.128458524444
 20
2779.159562993271
 30
0.0
 40
110.0
  0
ARC
  5
7AE0
330
19
100
AcDbEntity
  8
1
100
AcDbCircle
 10
1099.128458524445
 20
2779.159562993271
 30
0.0
 40
162.0
100
AcDbArc
 50
285.6399
 51
180.0
  0
ARC
  5
7AE1
330
19
100
AcDbEntity
  8
1
100
AcDbCircle
 10
1099.128458524445
 20
2779.159562993271
 30
0.0
 40
220.0
100
AcDbArc
 50
111.8014094863518
 51
291.8014094863519
  0
LINE
  5
7AE2
330
19
100
AcDbEntity
  8
1
100
AcDbLine
 10
909.1284585244448
 20
2529.159562993271
 30
0.0
 11
909.1284585244448
 21
2429.159562993271
 31
0.0
  0
LINE
  5
7AE3
330
19
100
AcDbEntity
  8
1
100
AcDbLine
 10
897.1284585244438
 20
2569.159562993271
 30
0.0
 11
910.6138152584044
 21
2619.159562993271
 31
0.0
  0
LINE
  5
7AE4
330
19
100
AcDbEntity
  8
1
100
AcDbLine
 10
899.1284585244448
 20
2569.159562993271
 30
0.0
 11
899.1284585244448
 21
2529.159562993271
 31
0.0
  0
LINE
  5
7AE5
330
19
100
AcDbEntity
  8
1
100
AcDbLine
 10
991.9152585244447
 20
2637.159562993271
 30
0.0
 11
947.1284585244447
 21
2637.159562993271
 31
0.0
  0
LINE
  5
7AE6
330
19
100
AcDbEntity
  8
1
100
AcDbLine
 10
964.8784585244447
 20
2637.159562993271
 30
0.0
 11
964.8784585244447
 21
2619.159562993271
 31
0.0
  0
LINE
  5
7AE7
330
19
100
AcDbEntity
  8
1
100
AcDbLine
 10
979.3784585244448
 20
2637.159562993271
 30
0.0
 11
979.3784585244448
 21
2619.159562993271
 31
0.0
  0
LINE
  5
7AE8
330
19
100
AcDbEntity
  8
1
100
AcDbLine
 10
972.1284585244447
 20
2641.88856299327
 30
0.0
 11
972.1284585244447
 21
2611.630562993271
 31
0.0
  0
LINE
  5
7AE9
330
19
100
AcDbEntity
  8
1
100
AcDbLine
 10
945.1284585244447
 20
2619.159562993271
 30
0.0
 11
945.1284585244447
 21
2635.159562993271
 31
0.0
  0
ARC
  5
7AEA
330
19
100
AcDbEntity
  8
1
100
AcDbCircle
 10
947.1284585244447
 20
2635.159562993271
 30
0.0
 40
2.0
100
AcDbArc
 50
90.0
 51
180.0
  0
LINE
  5
7AEB
330
19
100
AcDbEntity
  8
1
100
AcDbLine
 10
964.6695585244442
 20
2688.847562993271
 30
0.0
 11
945.1284585244447
 21
2635.159562993271
 31
0.0
  0
ARC
  5
7AEC
330
19
100
AcDbEntity
  8
1
100
AcDbCircle
 10
1008.128458524445
 20
2630.916562993271
 30
0.0
 40
3.0
100
AcDbArc
 50
135.0
 51
180.0
  0
LINE
  5
7AED
330
19
100
AcDbEntity
  8
1
100
AcDbLine
 10
1005.128458524445
 20
2619.159562993271
 30
0.0
 11
1005.128458524445
 21
2630.916562993271
 31
0.0
  0
LINE
  5
7AEE
330
19
100
AcDbEntity
  8
1
100
AcDbLine
 10
1014.184558524444
 20
2641.21556299327
 30
0.0
 11
1006.007058524445
 21
2633.037562993271
 31
0.0
  0
ARC
  5
7AEF
330
19
100
AcDbEntity
  8
1
100
AcDbCircle
 10
991.9152585244447
 20
2640.159562993271
 30
0.0
 40
3.0
100
AcDbArc
 50
270.0
 51
315.0
  0
LINE
  5
7AF0
330
19
100
AcDbEntity
  8
1
100
AcDbLine
 10
994.0899585244443
 20
2638.091562993271
 30
0.0
 11
1004.017258524444
 21
2648.01856299327
 31
0.0
  0
ARC
  5
7AF1
330
19
100
AcDbEntity
  8
1
100
AcDbCircle
 10
1640.128458524445
 20
3078.159562993271
 30
0.0
 40
627.0
100
AcDbArc
 50
185.399457307107
 51
193.9991817213394
  0
LINE
  5
7AF2
330
19
100
AcDbEntity
  8
1
100
AcDbLine
 10
1206.341658524445
 20
2637.159562993271
 30
0.0
 11
1251.128458524445
 21
2637.159562993271
 31
0.0
  0
LINE
  5
7AF3
330
19
100
AcDbEntity
  8
1
100
AcDbLine
 10
1233.575258524444
 20
2688.880562993271
 30
0.0
 11
1253.128458524445
 21
2635.159562993271
 31
0.0
  0
LINE
  5
7AF4
330
19
100
AcDbEntity
  8
1
100
AcDbLine
 10
1184.072358524444
 20
2641.21556299327
 30
0.0
 11
1192.249758524444
 21
2633.037562993271
 31
0.0
  0
LINE
  5
7AF5
330
19
100
AcDbEntity
  8
1
100
AcDbLine
 10
1233.378458524445
 20
2637.159562993271
 30
0.0
 11
1233.378458524445
 21
2619.159562993271
 31
0.0
  0
LINE
  5
7AF6
330
19
100
AcDbEntity
  8
1
100
AcDbLine
 10
1226.128458524445
 20
2641.88856299327
 30
0.0
 11
1226.128458524445
 21
2611.630562993271
 31
0.0
  0
LINE
  5
7AF7
330
19
100
AcDbEntity
  8
1
100
AcDbLine
 10
1193.128458524445
 20
2619.159562993271
 30
0.0
 11
1193.128458524445
 21
2630.916562993271
 31
0.0
  0
ARC
  5
7AF8
330
19
100
AcDbEntity
  8
1
100
AcDbCircle
 10
1190.128458524445
 20
2630.916562993271
 30
0.0
 40
3.0
100
AcDbArc
 50
0.0
 51
45.0
  0
ARC
  5
7AF9
330
19
100
AcDbEntity
  8
1
100
AcDbCircle
 10
1206.341658524445
 20
2640.159562993271
 30
0.0
 40
3.0
100
AcDbArc
 50
225.0
 51
270.0
  0
LINE
  5
7AFA
330
19
100
AcDbEntity
  8
1
100
AcDbLine
 10
1218.878458524445
 20
2637.159562993271
 30
0.0
 11
1218.878458524445
 21
2619.159562993271
 31
0.0
  0
LINE
  5
7AFB
330
19
100
AcDbEntity
  8
1
100
AcDbLine
 10
1194.239658524444
 20
2648.01856299327
 30
0.0
 11
1204.220258524445
 21
2638.03756299327
 31
0.0
  0
LINE
  5
7AFC
330
19
100
AcDbEntity
  8
1
100
AcDbLine
 10
1301.128458524444
 20
2569.159562993271
 30
0.0
 11
1287.883326139255
 21
2619.159562993271
 31
0.0
  0
LINE
  5
7AFD
330
19
100
AcDbEntity
  8
1
100
AcDbLine
 10
1299.128458524445
 20
2569.159562993271
 30
0.0
 11
1299.128458524445
 21
2529.159562993271
 31
0.0
  0
LINE
  5
7AFE
330
19
100
AcDbEntity
  8
1
100
AcDbLine
 10
1253.128458524445
 20
2619.159562993271
 30
0.0
 11
1253.128458524445
 21
2635.159562993271
 31
0.0
  0
ARC
  5
7AFF
330
19
100
AcDbEntity
  8
1
100
AcDbCircle
 10
1251.128458524445
 20
2635.159562993271
 30
0.0
 40
2.0
100
AcDbArc
 50
0.0
 51
90.0
  0
CIRCLE
  5
7B00
330
19
100
AcDbEntity
  8
1
100
AcDbCircle
 10
1699.128458524445
 20
3019.159562993271
 30
0.0
 40
127.0
  0
ARC
  5
7B01
330
19
100
AcDbEntity
  8
1
100
AcDbCircle
 10
1699.128458524445
 20
3019.159562993271
 30
0.0
 40
220.0
100
AcDbArc
 50
291.8014094863519
 51
111.8014094863518
  0
LINE
  5
7B04
330
19
100
AcDbEntity
  8
1
100
AcDbLine
 10
1699.128458524445
 20
2892.159562993271
 30
0.0
 11
1699.128458524445
 21
2892.159562993271
 31
0.0
  0
ARC
  5
7B06
330
19
100
AcDbEntity
  8
1
100
AcDbCircle
 10
1651.628458524445
 20
2971.659562993271
 30
0.0
 40
520.5
100
AcDbArc
 50
301.7726548952915
 51
5.236006357188314
  0
LINE
  5
7B07
330
19
100
AcDbEntity
  8
1
100
AcDbLine
 10
1979.128458524444
 20
2529.159562993271
 30
0.0
 11
1979.128458524444
 21
2429.159562993271
 31
0.0
  0
LINE
  5
7B08
330
19
100
AcDbEntity
  8
1
100
AcDbLine
 10
2199.128458524445
 20
2529.159562993271
 30
0.0
 11
2199.128458524445
 21
2429.159562993271
 31
0.0
  0
POINT
  5
7B09
330
19
100
AcDbEntity
  8
1
100
AcDbPoint
 10
2199.128458524445
 20
2429.159562993271
 30
0.0
  0
POINT
  5
7B0A
330
19
100
AcDbEntity
  8
1
100
AcDbPoint
 10
2199.128458524445
 20
2429.159562993271
 30
0.0
  0
POINT
  5
7B0B
330
19
100
AcDbEntity
  8
1
100
AcDbPoint
 10
2199.128458524445
 20
2429.159562993271
 30
0.0
  0
POINT
  5
7B0C
330
19
100
AcDbEntity
  8
1
100
AcDbPoint
 10
2199.128458524445
 20
2429.159562993271
 30
0.0
  0
POINT
  5
7B0D
330
19
100
AcDbEntity
  8
1
100
AcDbPoint
 10
2199.128458524445
 20
2429.159562993271
 30
0.0
  0
LINE
  5
7B0E
330
19
100
AcDbEntity
  8
1
100
AcDbLine
 10
2244.128458524444
 20
3042.159562993271
 30
0.0
 11
2166.247333219089
 21
3042.159562993271
 31
0.0
  0
ARC
  5
7B0F
330
19
100
AcDbEntity
  8
1
100
AcDbCircle
 10
1746.628458524444
 20
2971.659562993271
 30
0.0
 40
425.4999999999999
100
AcDbArc
 50
6.409480908245568
 51
9.537170793217772
  0
LINE
  5
7B10
330
19
100
AcDbEntity
  8
1
100
AcDbLine
 10
2244.128458524444
 20
2999.659562993271
 30
0.0
 11
2204.128458524444
 21
2999.659562993271
 31
0.0
  0
LINE
  5
7B11
330
19
100
AcDbEntity
  8
2
100
AcDbLine
 10
1699.128458524445
 20
6603.846575289868
 30
0.0
 11
1699.128458524445
 21
4923.890125976535
 31
0.0
  0
LINE
  5
7B13
330
19
100
AcDbEntity
  8
1
100
AcDbLine
 10
1671.628458524444
 20
5101.152420412724
 30
0.0
 11
1671.62845852445
 21
5841.852420412722
 31
0.0
  0
LINE
  5
7B14
330
19
100
AcDbEntity
  8
1
100
AcDbLine
 10
1726.628458524445
 20
5101.152420412724
 30
0.0
 11
1726.628458524445
 21
5841.852420412722
 31
0.0
  0
LINE
  5
7B15
330
19
100
AcDbEntity
  8
1
100
AcDbLine
 10
1979.128458524445
 20
5789.152420412724
 30
0.0
 11
1979.128458524445
 21
5089.152420412726
 31
0.0
  0
LINE
  5
7B17
330
19
100
AcDbEntity
  8
1
100
AcDbLine
 10
909.1284585244448
 20
5839.152420412724
 30
0.0
 11
909.1284585244448
 21
5089.152420412727
 31
0.0
  0
LINE
  5
7B18
330
19
100
AcDbEntity
  8
1
100
AcDbLine
 10
1919.128458524443
 20
4956.152420412723
 30
0.0
 11
879.1284585244447
 21
4956.152420412725
 31
0.0
  0
LINE
  5
7B19
330
19
100
AcDbEntity
  8
1
100
AcDbLine
 10
1826.128458524444
 20
4996.152420412723
 30
0.0
 11
989.1284585244447
 21
4996.152420412723
 31
0.0
  0
LINE
  5
7B1A
330
19
100
AcDbEntity
  8
1
100
AcDbLine
 10
1826.128458524444
 20
5081.152420412724
 30
0.0
 11
989.1284585244438
 21
5081.152420412724
 31
0.0
  0
LINE
  5
7B1B
330
19
100
AcDbEntity
  8
1
100
AcDbLine
 10
1979.128458524445
 20
5089.152420412726
 30
0.0
 11
909.1284585244448
 21
5089.152420412724
 31
0.0
  0
LINE
  5
7B1C
330
19
100
AcDbEntity
  8
1
100
AcDbLine
 10
879.1284585244438
 20
4956.152420412724
 30
0.0
 11
879.1284585244447
 21
5116.152420412724
 31
0.0
  0
LINE
  5
7B1D
330
19
100
AcDbEntity
  8
2
100
AcDbLine
 10
1099.128458524445
 20
4927.044001631753
 30
0.0
 11
1099.128458524445
 21
5693.43447879919
 31
0.0
  0
LINE
  5
7B1E
330
19
100
AcDbEntity
  8
1
100
AcDbLine
 10
937.1284585244447
 20
5147.156128757979
 30
0.0
 11
1259.128458524445
 21
5147.156128757979
 31
0.0
  0
LINE
  5
7B1F
330
19
100
AcDbEntity
  8
1
100
AcDbLine
 10
1259.128458524445
 20
5621.277848576399
 30
0.0
 11
937.1284585244447
 21
5621.277848576399
 31
0.0
  0
LINE
  5
7B20
330
19
100
AcDbEntity
  8
1
100
AcDbLine
 10
937.1284585244447
 20
5215.747256747709
 30
0.0
 11
937.1284585244447
 21
5457.99429670813
 31
0.0
  0
LINE
  5
7B21
330
19
100
AcDbEntity
  8
1
100
AcDbLine
 10
937.1284585244447
 20
5621.277848576399
 30
0.0
 11
937.1284585244447
 21
5147.156128757979
 31
0.0
  0
LINE
  5
7B22
330
19
100
AcDbEntity
  8
1
100
AcDbLine
 10
989.1284585244447
 20
4996.152420412723
 30
0.0
 11
989.1284585244438
 21
5081.152420412724
 31
0.0
  0
LINE
  5
7B23
330
19
100
AcDbEntity
  8
1
100
AcDbLine
 10
1259.128458524445
 20
5147.156128757979
 30
0.0
 11
1259.128458524445
 21
5621.277848576399
 31
0.0
  0
LINE
  5
7B25
330
19
100
AcDbEntity
  8
1
100
AcDbLine
 10
1157.345907507043
 20
5136.2778485764
 30
0.0
 11
1040.911009541846
 21
5136.2778485764
 31
0.0
  0
LINE
  5
7B26
330
19
100
AcDbEntity
  8
1
100
AcDbLine
 10
1120.128458524444
 20
5018.277848575408
 30
0.0
 11
1120.128458524444
 21
5128.277848571537
 31
0.0
  0
LINE
  5
7B27
330
19
100
AcDbEntity
  8
1
100
AcDbLine
 10
1078.128458524445
 20
5018.277848575408
 30
0.0
 11
1078.128458524444
 21
5128.277848571537
 31
0.0
  0
LINE
  5
7B28
330
19
100
AcDbEntity
  8
1
100
AcDbLine
 10
1078.128458524445
 20
5018.277848575408
 30
0.0
 11
1120.128458524445
 21
5018.277848575408
 31
0.0
  0
LINE
  5
7B29
330
19
100
AcDbEntity
  8
1
100
AcDbLine
 10
1129.549767470291
 20
5128.277848571537
 30
0.0
 11
1070.707149578598
 21
5128.277848571537
 31
0.0
  0
LINE
  5
7B2A
330
19
100
AcDbEntity
  8
1
100
AcDbLine
 10
1070.707149578598
 20
5128.277848571537
 30
0.0
 11
1070.707149578598
 21
5136.2778485764
 31
0.0
  0
LINE
  5
7B2B
330
19
100
AcDbEntity
  8
1
100
AcDbLine
 10
1040.911009541846
 20
5147.156128757979
 30
0.0
 11
1040.911009541846
 21
5136.2778485764
 31
0.0
  0
LINE
  5
7B2C
330
19
100
AcDbEntity
  8
1
100
AcDbLine
 10
1129.549767470291
 20
5128.277848571537
 30
0.0
 11
1129.54976747029
 21
5136.2778485764
 31
0.0
  0
LINE
  5
7B2D
330
19
100
AcDbEntity
  8
1
100
AcDbLine
 10
1209.128458524445
 20
4996.152420412723
 30
0.0
 11
1209.128458524445
 21
5081.152420412724
 31
0.0
  0
LINE
  5
7B2E
330
19
100
AcDbEntity
  8
1
100
AcDbLine
 10
1157.345907507043
 20
5147.156128757979
 30
0.0
 11
1157.345907507043
 21
5136.2778485764
 31
0.0
  0
LINE
  5
7B2F
330
19
100
AcDbEntity
  8
1
100
AcDbLine
 10
1919.128458524444
 20
4956.152420412724
 30
0.0
 11
1919.128458524444
 21
5116.152420412724
 31
0.0
  0
LINE
  5
7B30
330
19
100
AcDbEntity
  8
1
100
AcDbLine
 10
2244.128458524444
 20
3867.159562993271
 30
0.0
 11
1699.128458524445
 21
3820.819646746262
 31
0.0
  0
LINE
  5
7B31
330
19
100
AcDbEntity
  8
1
100
AcDbLine
 10
2244.128458524444
 20
3909.659562993271
 30
0.0
 11
2204.128458524444
 21
3909.659562993271
 31
0.0
  0
LINE
  5
7B32
330
19
100
AcDbEntity
  8
1
100
AcDbLine
 10
1869.128458524445
 20
5136.152420412722
 30
0.0
 11
1726.628458524445
 21
5136.152420412723
 31
0.0
  0
LINE
  5
7B33
330
19
100
AcDbEntity
  8
1
100
AcDbLine
 10
1671.628458524445
 20
5136.152420412723
 30
0.0
 11
1529.128458524445
 21
5136.152420412723
 31
0.0
  0
LINE
  5
7B34
330
19
100
AcDbEntity
  8
1
100
AcDbLine
 10
1572.128458524444
 20
4996.152420412724
 30
0.0
 11
1572.128458524444
 21
5081.152420412724
 31
0.0
  0
LINE
  5
7B35
330
19
100
AcDbEntity
  8
1
100
AcDbLine
 10
1726.628458524445
 20
5101.152420412724
 30
0.0
 11
1671.628458524445
 21
5101.152420412724
 31
0.0
  0
LINE
  5
7B36
330
19
100
AcDbEntity
  8
1
100
AcDbLine
 10
1675.128458524444
 20
5081.152420412724
 30
0.0
 11
1675.128458524444
 21
5101.152420412724
 31
0.0
  0
LINE
  5
7B37
330
19
100
AcDbEntity
  8
1
100
AcDbLine
 10
1723.128458524444
 20
5081.152420412724
 30
0.0
 11
1723.128458524444
 21
5101.152420412724
 31
0.0
  0
LINE
  5
7B38
330
19
100
AcDbEntity
  8
1
100
AcDbLine
 10
1826.128458524444
 20
4996.152420412724
 30
0.0
 11
1826.128458524444
 21
5081.152420412724
 31
0.0
  0
LINE
  5
7B39
330
19
100
AcDbEntity
  8
1
100
AcDbLine
 10
1919.128458524445
 20
5116.152420412724
 30
0.0
 11
1899.128458524444
 21
5116.152420412724
 31
0.0
  0
LINE
  5
7B3A
330
19
100
AcDbEntity
  8
1
100
AcDbLine
 10
2204.128458524444
 20
5844.152420412723
 30
0.0
 11
1013.128458524445
 21
5844.152420412719
 31
0.0
  0
LINE
  5
7B3B
330
19
100
AcDbEntity
  8
1
100
AcDbLine
 10
2204.128458524445
 20
6444.152420412724
 30
0.0
 11
1013.128458524445
 21
6444.15242041272
 31
0.0
  0
LINE
  5
7B3C
330
19
100
AcDbEntity
  8
1
100
AcDbLine
 10
2199.128458524445
 20
6499.152420412724
 30
0.0
 11
1199.128458524445
 21
6499.152420412726
 31
0.0
  0
LINE
  5
7B3D
330
19
100
AcDbEntity
  8
1
100
AcDbLine
 10
1199.128458524445
 20
6499.152420412724
 30
0.0
 11
1199.128458524445
 21
6444.15242041272
 31
0.0
  0
LINE
  5
7B3E
330
19
100
AcDbEntity
  8
1
100
AcDbLine
 10
1199.128458524445
 20
5839.152420412726
 30
0.0
 11
909.1284585244448
 21
5839.152420412726
 31
0.0
  0
LINE
  5
7B3F
330
19
100
AcDbEntity
  8
1
100
AcDbLine
 10
1013.128458524445
 20
6444.152420412719
 30
0.0
 11
1013.128458524445
 21
5844.152420412719
 31
0.0
  0
LINE
  5
7B40
330
19
100
AcDbEntity
  8
1
100
AcDbLine
 10
1199.128458524445
 20
5844.152420412719
 30
0.0
 11
1199.128458524445
 21
5839.152420412724
 31
0.0
  0
LINE
  5
7B41
330
19
100
AcDbEntity
  8
1
100
AcDbLine
 10
2199.128458524445
 20
6499.152420412724
 30
0.0
 11
2199.128458524445
 21
6446.452420412723
 31
0.0
  0
LINE
  5
7B42
330
19
100
AcDbEntity
  8
1
100
AcDbLine
 10
2199.128458524444
 20
6444.152420412724
 30
0.0
 11
2199.128458524445
 21
6486.152420412722
 31
0.0
  0
LINE
  5
7B43
330
19
100
AcDbEntity
  8
1
100
AcDbLine
 10
2204.128458524444
 20
5802.152420412725
 30
0.0
 11
2204.128458524444
 21
6486.152420412719
 31
0.0
  0
LINE
  5
7B44
330
19
100
AcDbEntity
  8
1
100
AcDbLine
 10
2239.128458524446
 20
5802.152420412724
 30
0.0
 11
2239.128458524445
 21
6486.152420412722
 31
0.0
  0
LINE
  5
7B45
330
19
100
AcDbEntity
  8
1
100
AcDbLine
 10
1869.128458524445
 20
5758.152420412722
 30
0.0
 11
1726.628458524445
 21
5758.152420412722
 31
0.0
  0
LINE
  5
7B46
330
19
100
AcDbEntity
  8
1
100
AcDbLine
 10
1671.628458524449
 20
5758.152420412722
 30
0.0
 11
1529.128458524445
 21
5758.152420412723
 31
0.0
  0
LINE
  5
7B47
330
19
100
AcDbEntity
  8
1
100
AcDbLine
 10
2199.128458524445
 20
5789.152420412724
 30
0.0
 11
1979.128458524445
 21
5789.152420412724
 31
0.0
  0
LINE
  5
7B48
330
19
100
AcDbEntity
  8
1
100
AcDbLine
 10
2199.128458524443
 20
5802.152420412724
 30
0.0
 11
2199.128458524443
 21
5841.852420412724
 31
0.0
  0
LINE
  5
7B49
330
19
100
AcDbEntity
  8
1
100
AcDbLine
 10
2199.128458524445
 20
5841.852420412724
 30
0.0
 11
2199.128458524445
 21
5789.152420412723
 31
0.0
  0
LINE
  5
7B4A
330
19
100
AcDbEntity
  8
1
100
AcDbLine
 10
2204.128458524444
 20
5802.152420412725
 30
0.0
 11
2239.128458524446
 21
5802.152420412724
 31
0.0
  0
LINE
  5
7B4B
330
19
100
AcDbEntity
  8
1
100
AcDbLine
 10
2204.128458524444
 20
6486.152420412721
 30
0.0
 11
2239.128458524444
 21
6486.152420412722
 31
0.0
  0
LINE
  5
7B4C
330
19
100
AcDbEntity
  8
1
100
AcDbLine
 10
5027.273006374325
 20
3869.159562993271
 30
0.0
 11
5027.273006374323
 21
3040.159562993271
 31
0.0
  0
LINE
  5
7B4D
330
19
100
AcDbEntity
  8
1
100
AcDbLine
 10
5024.973006374326
 20
3869.159562993271
 30
0.0
 11
5024.973006374324
 21
3042.159562993271
 31
0.0
  0
LINE
  5
7B4E
330
19
100
AcDbEntity
  8
1
100
AcDbLine
 10
4422.673006374324
 20
3869.15956299327
 30
0.0
 11
4422.673006374324
 21
3040.159562993271
 31
0.0
  0
LINE
  5
7B4F
330
19
100
AcDbEntity
  8
1
100
AcDbLine
 10
4424.973006374324
 20
3869.15956299327
 30
0.0
 11
4424.973006374323
 21
3042.159562993271
 31
0.0
  0
LINE
  5
7B50
330
19
100
AcDbEntity
  8
1
100
AcDbLine
 10
5066.973006374324
 20
3909.159562993271
 30
0.0
 11
5066.973006374324
 21
3000.159562993271
 31
0.0
  0
LINE
  5
7B51
330
19
100
AcDbEntity
  8
2
100
AcDbLine
 10
4724.973006374324
 20
4080.293841467046
 30
0.0
 11
4724.973006374326
 21
2267.645962338712
 31
0.0
  0
LINE
  5
7B52
330
19
100
AcDbEntity
  8
1
100
AcDbLine
 10
4382.973006374324
 20
3909.159562993271
 30
0.0
 11
4382.973006374325
 21
3000.15956299327
 31
0.0
  0
LINE
  5
7B53
330
19
100
AcDbEntity
  8
1
100
AcDbLine
 10
3681.973006374326
 20
2991.65956299327
 30
0.0
 11
4422.673006374323
 21
2991.659562993277
 31
0.0
  0
LINE
  5
7B54
330
19
100
AcDbEntity
  8
1
100
AcDbLine
 10
3681.973006374326
 20
3046.659562993271
 30
0.0
 11
4382.973006374325
 21
3046.659562993271
 31
0.0
  0
LINE
  5
7B55
330
19
100
AcDbEntity
  8
1
100
AcDbLine
 10
3716.973006374325
 20
2939.159562993271
 30
0.0
 11
4338.973006374324
 21
2939.159562993271
 31
0.0
  0
LINE
  5
7B56
330
19
100
AcDbEntity
  8
2
100
AcDbLine
 10
3513.084764193438
 20
3019.15956299327
 30
0.0
 11
5154.909234650731
 21
3019.159562993271
 31
0.0
  0
LINE
  5
7B57
330
19
100
AcDbEntity
  8
1
100
AcDbLine
 10
3669.973006374325
 20
2409.15956299327
 30
0.0
 11
5079.973006374325
 21
2409.159562993269
 31
0.0
  0
LINE
  5
7B58
330
19
100
AcDbEntity
  8
1
100
AcDbLine
 10
3669.973006374325
 20
2309.159562993269
 30
0.0
 11
5079.973006374325
 21
2309.15956299327
 31
0.0
1001
ACAD
1000
ASC_BOUNDS
1002
{
1070
    19
1002
}
  0
LINE
  5
7B59
330
19
100
AcDbEntity
  8
1
100
AcDbLine
 10
3669.973006374325
 20
2529.159562993271
 30
0.0
 11
5079.973006374325
 21
2529.15956299327
 31
0.0
  0
LINE
  5
7B5A
330
19
100
AcDbEntity
  8
1
100
AcDbLine
 10
3669.973006374325
 20
2429.15956299327
 30
0.0
 11
5079.973006374324
 21
2429.159562993271
 31
0.0
1001
ACAD
1000
ASC_BOUNDS
1002
{
1070
    19
1002
}
  0
LINE
  5
7B5B
330
19
100
AcDbEntity
  8
1
100
AcDbLine
 10
3669.973006374326
 20
2409.15956299327
 30
0.0
 11
3669.973006374326
 21
2309.159562993269
 31
0.0
  0
POINT
  5
7B5C
330
19
100
AcDbEntity
  8
1
100
AcDbPoint
 10
2264.346369193467
 20
3019.159562993271
 30
0.0
  0
POINT
  5
7B5D
330
19
100
AcDbEntity
  8
1
100
AcDbPoint
 10
2264.346369193467
 20
3019.159562993271
 30
0.0
  0
LINE
  5
7B5E
330
19
100
AcDbEntity
  8
1
100
AcDbLine
 10
3661.973006374325
 20
3146.15956299327
 30
0.0
 11
3661.973006374325
 21
2669.15956299327
 31
0.0
  0
LINE
  5
7B5F
330
19
100
AcDbEntity
  8
1
100
AcDbLine
 10
3576.973006374326
 20
3146.15956299327
 30
0.0
 11
3576.973006374326
 21
2669.15956299327
 31
0.0
  0
LINE
  5
7B60
330
19
100
AcDbEntity
  8
1
100
AcDbLine
 10
3536.973006374325
 20
3239.159562993271
 30
0.0
 11
3536.973006374326
 21
2559.159562993271
 31
0.0
  0
LINE
  5
7B61
330
19
100
AcDbEntity
  8
2
100
AcDbLine
 10
3980.316488158627
 20
2779.159562993271
 30
0.0
 11
3527.839460014966
 21
2779.159562993271
 31
0.0
  0
LINE
  5
7B62
330
19
100
AcDbEntity
  8
1
100
AcDbLine
 10
3716.973006374325
 20
2939.159562993271
 30
0.0
 11
3716.973006374325
 21
2529.159562993271
 31
0.0
  0
LINE
  5
7B63
330
19
100
AcDbEntity
  8
1
100
AcDbLine
 10
3576.973006374326
 20
2669.159562993271
 30
0.0
 11
3661.973006374325
 21
2669.15956299327
 31
0.0
  0
LINE
  5
7B64
330
19
100
AcDbEntity
  8
1
100
AcDbLine
 10
3536.973006374326
 20
2559.15956299327
 30
0.0
 11
3696.973006374326
 21
2559.159562993271
 31
0.0
  0
LINE
  5
7B65
330
19
100
AcDbEntity
  8
1
100
AcDbLine
 10
3669.973006374326
 20
2529.159562993271
 30
0.0
 11
3669.973006374326
 21
2429.15956299327
 31
0.0
  0
LINE
  5
7B66
330
19
100
AcDbEntity
  8
1
100
AcDbLine
 10
3576.973006374326
 20
2889.159562993271
 30
0.0
 11
3661.973006374326
 21
2889.159562993271
 31
0.0
  0
LINE
  5
7B67
330
19
100
AcDbEntity
  8
1
100
AcDbLine
 10
3576.973006374326
 20
2892.15956299327
 30
0.0
 11
3661.973006374325
 21
2892.15956299327
 31
0.0
  0
LINE
  5
7B68
330
19
100
AcDbEntity
  8
1
100
AcDbLine
 10
3661.973006374325
 20
3043.15956299327
 30
0.0
 11
3681.973006374326
 21
3043.15956299327
 31
0.0
  0
LINE
  5
7B69
330
19
100
AcDbEntity
  8
1
100
AcDbLine
 10
3661.973006374325
 20
2995.15956299327
 30
0.0
 11
3681.973006374326
 21
2995.15956299327
 31
0.0
  0
LINE
  5
7B6A
330
19
100
AcDbEntity
  8
1
100
AcDbLine
 10
3681.973006374324
 20
3046.659562993271
 30
0.0
 11
3681.973006374324
 21
2991.659562993271
 31
0.0
  0
LINE
  5
7B6B
330
19
100
AcDbEntity
  8
1
100
AcDbLine
 10
3536.973006374325
 20
3239.159562993271
 30
0.0
 11
3696.973006374325
 21
3239.159562993271
 31
0.0
  0
LINE
  5
7B6C
330
19
100
AcDbEntity
  8
1
100
AcDbLine
 10
3576.973006374326
 20
3146.15956299327
 30
0.0
 11
3661.973006374325
 21
3146.15956299327
 31
0.0
  0
POINT
  5
7B6D
330
19
100
AcDbEntity
  8
1
100
AcDbPoint
 10
3536.973006374325
 20
3239.159562993271
 30
0.0
  0
LINE
  5
7B6E
330
19
100
AcDbEntity
  8
1
100
AcDbLine
 10
3696.973006374325
 20
3239.159562993271
 30
0.0
 11
3696.973006374325
 21
3219.15956299327
 31
0.0
  0
LINE
  5
7B6F
330
19
100
AcDbEntity
  8
1
100
AcDbLine
 10
4419.973006374324
 20
2409.15956299327
 30
0.0
 11
4419.97300637434
 21
2309.15956299327
 31
0.0
  0
LINE
  5
7B70
330
19
100
AcDbEntity
  8
1
100
AcDbLine
 10
5079.973006374325
 20
2409.159562993269
 30
0.0
 11
5079.973006374325
 21
2309.159562993269
 31
0.0
  0
LINE
  5
7B71
330
19
100
AcDbEntity
  8
1
100
AcDbLine
 10
4422.673006374324
 20
3040.159562993271
 30
0.0
 11
5027.273006374324
 21
3040.159562993271
 31
0.0
  0
LINE
  5
7B72
330
19
100
AcDbEntity
  8
1
100
AcDbLine
 10
4424.973006374324
 20
3042.159562993271
 30
0.0
 11
5024.973006374326
 21
3042.159562993271
 31
0.0
  0
LINE
  5
7B73
330
19
100
AcDbEntity
  8
1
100
AcDbLine
 10
4382.973006374325
 20
3000.15956299327
 30
0.0
 11
5066.973006374323
 21
3000.159562993271
 31
0.0
  0
LINE
  5
7B74
330
19
100
AcDbEntity
  8
1
100
AcDbLine
 10
4422.673006374323
 20
3000.15956299327
 30
0.0
 11
4422.673006374325
 21
2529.159562993271
 31
0.0
  0
LINE
  5
7B75
330
19
100
AcDbEntity
  8
1
100
AcDbLine
 10
4424.973006374324
 20
3000.15956299327
 30
0.0
 11
4424.973006374324
 21
2529.159562993271
 31
0.0
  0
LINE
  5
7B76
330
19
100
AcDbEntity
  8
1
100
AcDbLine
 10
4338.973006374324
 20
2939.159562993271
 30
0.0
 11
4338.973006374326
 21
2529.159562993271
 31
0.0
  0
LINE
  5
7B77
330
19
100
AcDbEntity
  8
1
100
AcDbLine
 10
4419.973006374324
 20
2529.159562993271
 30
0.0
 11
4419.97300637434
 21
2429.159562993271
 31
0.0
  0
LINE
  5
7B78
330
19
100
AcDbEntity
  8
1
100
AcDbLine
 10
5027.273006374324
 20
3000.159562993271
 30
0.0
 11
5027.273006374324
 21
2529.15956299327
 31
0.0
  0
LINE
  5
7B79
330
19
100
AcDbEntity
  8
1
100
AcDbLine
 10
5024.973006374324
 20
3000.159562993271
 30
0.0
 11
5024.973006374324
 21
2529.15956299327
 31
0.0
  0
LINE
  5
7B7A
330
19
100
AcDbEntity
  8
1
100
AcDbLine
 10
5079.973006374324
 20
2529.15956299327
 30
0.0
 11
5079.973006374324
 21
2429.159562993271
 31
0.0
  0
LINE
  5
7B7B
330
19
100
AcDbEntity
  8
1
100
AcDbLine
 10
4422.673006374324
 20
3869.15956299327
 30
0.0
 11
5027.273006374324
 21
3869.159562993271
 31
0.0
  0
LINE
  5
7B7C
330
19
100
AcDbEntity
  8
1
100
AcDbLine
 10
4424.973006374324
 20
3867.159562993271
 30
0.0
 11
5024.973006374324
 21
3867.159562993271
 31
0.0
  0
LINE
  5
7B7D
330
19
100
AcDbEntity
  8
1
100
AcDbLine
 10
4382.973006374324
 20
3909.159562993271
 30
0.0
 11
5066.973006374325
 21
3909.159562993271
 31
0.0
  0
LINE
  5
7B84
330
19
100
AcDbEntity
  8
4
100
AcDbLine
 10
5550.0
 20
1500.0
 30
0.0
 11
5550.0
 21
600.0
 31
0.0
  0
LINE
  5
7B85
330
19
100
AcDbEntity
  8
4
100
AcDbLine
 10
3450.0
 20
1500.0
 30
0.0
 11
3450.0
 21
600.0
 31
0.0
  0
LINE
  5
7B86
330
19
100
AcDbEntity
  8
4
100
AcDbLine
 10
1950.0
 20
1500.0
 30
0.0
 11
1950.0
 21
600.0
 31
0.0
  0
TEXT
  5
7B87
330
19
100
AcDbEntity
  8
4
100
AcDbText
 10
2065.506242540705
 20
675.6126868902902
 30
0.0
 40
150.0
  1
ファイル名
100
AcDbText
  0
LINE
  5
7B88
330
19
100
AcDbEntity
  8
4
100
AcDbLine
 10
1950.0
 20
600.0
 30
0.0
 11
5550.0
 21
600.0
 31
0.0
  0
LINE
  5
7B89
330
19
100
AcDbEntity
  8
4
100
AcDbLine
 10
1950.0
 20
900.0
 30
0.0
 11
5550.0
 21
900.0
 31
0.0
  0
LINE
  5
7B8A
330
19
100
AcDbEntity
  8
4
100
AcDbLine
 10
1950.0
 20
1200.0
 30
0.0
 11
5550.0
 21
1200.0
 31
0.0
  0
TEXT
  5
7B8B
330
19
100
AcDbEntity
  8
4
100
AcDbText
 10
2065.506242540705
 20
1294.629077599839
 30
0.0
 40
150.0
  1
機器名称
100
AcDbText
  0
TEXT
  5
7B8C
330
19
100
AcDbEntity
  8
4
100
AcDbText
 10
2058.774318074393
 20
964.9354701960328
 30
0.0
 40
150.0
  1
機器型番
100
AcDbText
  0
TEXT
  5
7B8D
330
19
100
AcDbEntity
  8
4
100
AcDbText
 10
3538.97421701841
 20
1270.006233746099
 30
0.0
 40
127.5
  1
ミツヤ多翼送風機
100
AcDbText
  0
TEXT
  5
7B8E
330
19
100
AcDbEntity
  8
4
100
AcDbText
 10
3559.963486756442
 20
951.4787528398301
 30
0.0
 40
150.0
  1
MF#5-1
100
AcDbText
  0
TEXT
  5
7B8F
330
19
100
AcDbEntity
  8
4
100
AcDbText
 10
3546.499637823927
 20
662.1556335193599
 30
0.0
 40
150.0
  1
MF501B1E.dxf
100
AcDbText
  0
TEXT
  5
7B90
330
19
100
AcDbEntity
  8
4
100
AcDbText
 10
2347.486490882438
 20
7150.286523997547
 30
0.0
 40
161.9999999999999
  1
床置防振ベット
100
AcDbText
  0
TEXT
  5
7B91
330
19
100
AcDbEntity
  8
4
100
AcDbText
 10
948.5027799883392
 20
7601.642928597894
 30
0.0
 40
216.0
  1
遠心式片吸込片持多翼ファン
100
AcDbText
  0
LINE
  5
7B92
330
19
100
AcDbEntity
  8
4
100
AcDbLine
 10
750.0
 20
7408.226262794414
 30
0.0
 11
5550.0
 21
7408.226262794414
 31
0.0
  0
LINE
  5
7B93
330
19
100
AcDbEntity
  8
4
100
AcDbLine
 10
750.0
 20
8008.226262794414
 30
0.0
 11
5550.0
 21
8008.226262794414
 31
0.0
  0
LINE
  5
7B94
330
19
100
AcDbEntity
  8
4
100
AcDbLine
 10
1950.0
 20
1500.0
 30
0.0
 11
5550.0
 21
1500.0
 31
0.0
  0
LINE
  5
7B95
330
19
100
AcDbEntity
  8
4
100
AcDbLine
 10
750.0
 20
8008.226262794414
 30
0.0
 11
750.0
 21
7408.226262794414
 31
0.0
  0
TEXT
  5
7B96
330
19
100
AcDbEntity
  8
4
100
AcDbText
 10
1039.909994154331
 20
7146.95843263903
 30
0.0
 40
161.9999999999999
  1
右回転右横向
100
AcDbText
  0
TEXT
  5
7B97
330
19
100
AcDbEntity
  8
4
100
AcDbText
 10
4406.908677747869
 20
8118.183244485926
 30
0.0
 40
168.0
  1
No.
100
AcDbText
  0
TEXT
  5
7B98
330
19
100
AcDbEntity
  8
4
100
AcDbText
 10
3933.88818780004
 20
7150.286523997547
 30
0.0
 40
161.9999999999999
  1
縮尺：1/30
100
AcDbText
  0
LINE
  5
7B99
330
19
100
AcDbEntity
  8
4
100
AcDbLine
 10
5550.0
 20
8008.226262794414
 30
0.0
 11
5550.0
 21
7408.226262794414
 31
0.0
  0
LINE
  5
7B9A
330
19
100
AcDbEntity
  8
4
100
AcDbLine
 10
6300.0
 20
8850.0
 30
0.0
 11
6300.0
 21
8850.0
 31
0.0
  0
LINE
  5
7B9B
330
19
100
AcDbEntity
  8
4
100
AcDbLine
 10
4321.852267079594
 20
8043.790749376205
 30
0.0
 11
4321.852267079594
 21
8359.956784649257
 31
0.0
  0
LINE
  5
7B9C
330
19
100
AcDbEntity
  8
4
100
AcDbLine
 10
4321.852267079594
 20
8359.956784649257
 30
0.0
 11
5550.0
 21
8359.956784649257
 31
0.0
  0
LINE
  5
7B9D
330
19
100
AcDbEntity
  8
4
100
AcDbLine
 10
5550.0
 20
8359.956784649257
 30
0.0
 11
5550.0
 21
8043.790749376205
 31
0.0
  0
LINE
  5
7B9E
330
19
100
AcDbEntity
  8
4
100
AcDbLine
 10
5550.0
 20
8043.790749376205
 30
0.0
 11
4321.852267079594
 21
8043.790749376205
 31
0.0
  0
LINE
  5
7B9F
330
19
100
AcDbEntity
  8
4
100
AcDbLine
 10
0.0
 20
0.0
 30
0.0
 11
0.0
 21
8850.0
 31
0.0
  0
LINE
  5
7BA0
330
19
100
AcDbEntity
  8
4
100
AcDbLine
 10
0.0
 20
8850.0
 30
0.0
 11
6300.0
 21
8850.0
 31
0.0
  0
LINE
  5
7BA1
330
19
100
AcDbEntity
  8
4
100
AcDbLine
 10
6300.0
 20
8850.0
 30
0.0
 11
6300.0
 21
0.0
 31
0.0
  0
LINE
  5
7BA2
330
19
100
AcDbEntity
  8
4
100
AcDbLine
 10
6300.0
 20
0.0
 30
0.0
 11
0.0
 21
0.0
 31
0.0
  0
DIMENSION
  5
7BC1
330
19
100
AcDbEntity
  8
3
100
AcDbDimension
  2
*D1
 10
1199.128458524445
 20
6668.047345947059
 30
0.0
 11
1700.417025950726
 21
6668.047345947059
 31
0.0
 12
-314.4606853807127
 22
0.0
 32
0.0
 70
   160
 71
     5
 42
-1.0
  3
IGA
100
AcDbAlignedDimension
 13
2199.128458524445
 23
6499.152420412724
 33
0.0
 14
1199.128458524445
 24
6499.152420412726
 34
0.0
100
AcDbRotatedDimension
1001
ACAD
1000
DSTYLE
1002
{
1070
    40
1040
30.0
1070
   143
1040
0.039
1070
   172
1070
     1
1070
   271
1070
     0
1070
   279
1070
     0
1070
   288
1070
     1
1002
}
  0
DIMENSION
  5
7BCF
330
19
100
AcDbEntity
  8
3
100
AcDbDimension
  2
*D2
 10
909.1284585244448
 20
6668.047345947059
 30
0.0
 11
1054.128458524445
 21
6749.506910412588
 31
0.0
 12
-314.4606853807127
 22
0.0
 32
0.0
 70
   160
 71
     5
 42
-1.0
  3
IGA
100
AcDbAlignedDimension
 13
1199.128458524445
 23
6499.152420412726
 33
0.0
 14
909.1284585244448
 24
5839.152420412726
 34
0.0
100
AcDbRotatedDimension
1001
ACAD
1000
DSTYLE
1002
{
1070
   288
1070
     1
1070
   172
1070
     1
1070
    75
1070
     1
1070
    40
1040
30.0
1070
   271
1070
     0
1070
   143
1040
0.039
1002
}
  0
DIMENSION
  5
7BF0
330
19
100
AcDbEntity
  8
3
100
AcDbDimension
  2
*D3
 10
727.9182403368395
 20
5089.152420412724
 30
0.0
 11
727.9182403368395
 21
5422.87968530821
 31
0.0
 12
-314.4606853807127
 22
0.0
 32
0.0
 70
   160
 71
     5
 42
-1.0
  3
IGA
100
AcDbAlignedDimension
 13
909.1284585244448
 23
5839.152420412726
 33
0.0
 14
909.1284585244448
 24
5089.152420412724
 34
0.0
 50
90.0
100
AcDbRotatedDimension
1001
ACAD
1000
DSTYLE
1002
{
1070
    40
1040
30.0
1070
   143
1040
0.039
1070
   172
1070
     1
1070
   271
1070
     0
1070
   279
1070
     0
1070
   288
1070
     1
1002
}
  0
DIMENSION
  5
7BFD
330
19
100
AcDbEntity
  8
3
100
AcDbDimension
  2
*D4
 10
1979.128458524445
 20
4695.562127775571
 30
0.0
 11
1397.603018187343
 21
4695.562127775571
 31
0.0
 12
-314.4606853807127
 22
0.0
 32
0.0
 70
   160
 71
     5
 42
-1.0
  3
IGA
100
AcDbAlignedDimension
 13
909.1284585244448
 23
5089.152420412724
 33
0.0
 14
1979.128458524445
 24
5089.152420412726
 34
0.0
100
AcDbRotatedDimension
1001
ACAD
1000
DSTYLE
1002
{
1070
    40
1040
30.0
1070
   143
1040
0.039
1070
   172
1070
     1
1070
   271
1070
     0
1070
   279
1070
     0
1070
   288
1070
     1
1002
}
  0
DIMENSION
  5
7C0B
330
19
100
AcDbEntity
  8
3
100
AcDbDimension
  2
*D5
 10
2199.128458524445
 20
4695.562127775571
 30
0.0
 11
2404.84274423873
 21
4770.562127775571
 31
0.0
 12
-314.4606853807127
 22
0.0
 32
0.0
 70
    32
 71
     5
 42
-1.0
  3
IGA
100
AcDbAlignedDimension
 13
1979.128458524445
 23
5089.152420412726
 33
0.0
 14
2199.128458524445
 24
5789.152420412724
 34
0.0
100
AcDbRotatedDimension
1001
ACAD
1000
DSTYLE
1002
{
1070
    40
1040
30.0
1070
   143
1040
0.039
1070
   172
1070
     1
1070
   271
1070
     0
1070
   279
1070
     0
1070
   288
1070
     1
1002
}
  0
DIMENSION
  5
7C24
330
19
100
AcDbEntity
  8
3
100
AcDbDimension
  2
*D6
 10
2533.155503014466
 20
5789.152420412724
 30
0.0
 11
2533.155503014466
 21
5422.87968530821
 31
0.0
 12
-314.4606853807127
 22
0.0
 32
0.0
 70
   160
 71
     5
 42
-1.0
  3
IGA
100
AcDbAlignedDimension
 13
1979.128458524445
 23
5089.152420412726
 33
0.0
 14
2199.128458524445
 24
5789.152420412724
 34
0.0
 50
90.0
100
AcDbRotatedDimension
1001
ACAD
1000
DSTYLE
1002
{
1070
    40
1040
30.0
1070
   143
1040
0.039
1070
   172
1070
     1
1070
   271
1070
     0
1070
   279
1070
     0
1070
   288
1070
     1
1002
}
  0
DIMENSION
  5
7C3C
330
19
100
AcDbEntity
  8
3
100
AcDbDimension
  2
*D7
 10
2533.155503014466
 20
6499.152420412724
 30
0.0
 11
2458.155503014467
 21
6144.152420412725
 31
0.0
 12
-314.4606853807127
 22
0.0
 32
0.0
 70
    32
 71
     5
 42
-1.0
  3
IGA
100
AcDbAlignedDimension
 13
2199.128458524445
 23
5789.152420412724
 33
0.0
 14
2199.128458524445
 24
6499.152420412724
 34
0.0
 50
90.0
100
AcDbRotatedDimension
1001
ACAD
1000
DSTYLE
1002
{
1070
    40
1040
30.0
1070
    75
1070
     1
1070
   143
1040
0.039
1070
   172
1070
     1
1070
   271
1070
     0
1070
   279
1070
     1
1070
   288
1070
     1
1002
}
  0
DIMENSION
  5
7C49
330
19
100
AcDbEntity
  8
3
100
AcDbDimension
  2
*D8
 10
1699.128458524445
 20
2093.066139137893
 30
0.0
 11
1313.457368453819
 21
2093.066139137893
 31
0.0
 12
-314.4606853807127
 22
-341.3905180351721
 32
0.0
 70
   160
 71
     5
 42
-1.0
  3
IGA
100
AcDbAlignedDimension
 13
909.1284585244448
 23
2309.159562993269
 33
0.0
 14
1699.128458524445
 24
2262.754692705066
 34
0.0
100
AcDbRotatedDimension
1001
ACAD
1000
DSTYLE
1002
{
1070
    40
1040
30.0
1070
   143
1040
0.039
1070
   172
1070
     1
1070
   271
1070
     0
1070
   279
1070
     0
1070
   288
1070
     1
1002
}
  0
DIMENSION
  5
7C55
330
19
100
AcDbEntity
  8
3
100
AcDbDimension
  2
*D9
 10
2199.128458524445
 20
2093.066139137893
 30
0.0
 11
1949.128458524445
 21
2073.066139137893
 31
0.0
 12
-314.4606853807127
 22
-341.3905180351721
 32
0.0
 70
    32
 71
     5
 42
-1.0
  3
IGA
100
AcDbAlignedDimension
 13
1699.128458524445
 23
2262.754692705066
 33
0.0
 14
2199.128458524445
 24
2309.15956299327
 34
0.0
100
AcDbRotatedDimension
1001
ACAD
1000
DSTYLE
1002
{
1070
    40
1040
30.0
1070
    75
1070
     1
1070
   143
1040
0.039
1070
   172
1070
     1
1070
   271
1070
     0
1070
   279
1070
     1
1070
   288
1070
     1
1002
}
  0
DIMENSION
  5
7C62
330
19
100
AcDbEntity
  8
3
100
AcDbDimension
  2
*D10
 10
4724.973006374326
 20
2072.4430300481
 30
0.0
 11
4202.491748998116
 21
2072.4430300481
 31
0.0
 12
0.0
 22
-341.3905180351721
 32
0.0
 70
   160
 71
     5
 42
-1.0
  3
IGA
100
AcDbAlignedDimension
 13
3669.973006374326
 23
2309.159562993269
 33
0.0
 14
4724.973006374326
 24
2267.645962338712
 34
0.0
100
AcDbRotatedDimension
1001
ACAD
1000
DSTYLE
1002
{
1070
    40
1040
30.0
1070
   143
1040
0.039
1070
   172
1070
     1
1070
   271
1070
     0
1070
   279
1070
     0
1070
   288
1070
     1
1002
}
  0
DIMENSION
  5
7C70
330
19
100
AcDbEntity
  8
3
100
AcDbDimension
  2
*D11
 10
5079.973006374325
 20
2072.4430300481
 30
0.0
 11
4902.473006374325
 21
2138.581592739629
 31
0.0
 12
0.0
 22
-341.3905180351721
 32
0.0
 70
   160
 71
     5
 42
-1.0
  3
IGA
100
AcDbAlignedDimension
 13
4724.973006374326
 23
2267.645962338712
 33
0.0
 14
5079.973006374325
 24
2309.15956299327
 34
0.0
100
AcDbRotatedDimension
1001
ACAD
1000
DSTYLE
1002
{
1070
   288
1070
     1
1070
   172
1070
     1
1070
    75
1070
     1
1070
    40
1040
30.0
1070
   271
1070
     0
1070
   143
1040
0.039
1002
}
  0
DIMENSION
  5
7C91
330
19
100
AcDbEntity
  8
3
100
AcDbDimension
  2
*D12
 10
2640.043205880648
 20
3019.159562993271
 30
0.0
 11
2640.043205880648
 21
3454.973568248072
 31
0.0
 12
-314.4606853807127
 22
-436.3905180351721
 32
0.0
 70
   160
 71
     5
 42
-1.0
  3
IGA
100
AcDbAlignedDimension
 13
2244.128458524444
 23
3867.159562993271
 33
0.0
 14
2365.600250374835
 24
3019.159562993271
 34
0.0
 50
90.0
100
AcDbRotatedDimension
1001
ACAD
1000
DSTYLE
1002
{
1070
    40
1040
30.0
1070
   143
1040
0.039
1070
   172
1070
     1
1070
   271
1070
     0
1070
   279
1070
     0
1070
   288
1070
     1
1002
}
  0
DIMENSION
  5
7C9F
330
19
100
AcDbEntity
  8
3
100
AcDbDimension
  2
*D13
 10
2439.672401999175
 20
3042.159562993271
 30
0.0
 11
2439.672401999175
 21
3474.969527975162
 31
0.0
 12
-314.4606853807127
 22
-436.3905180351721
 32
0.0
 70
   160
 71
     5
 42
-1.0
  3
IGA
100
AcDbAlignedDimension
 13
2244.128458524444
 23
3867.159562993271
 33
0.0
 14
2244.128458524444
 24
3042.159562993271
 34
0.0
 50
90.0
100
AcDbRotatedDimension
1001
ACAD
1000
DSTYLE
1002
{
1070
    40
1040
30.0
1070
   143
1040
0.039
1070
   172
1070
     1
1070
   271
1070
     0
1070
   279
1070
     0
1070
   288
1070
     1
1002
}
  0
DIMENSION
  5
7CB7
330
19
100
AcDbEntity
  8
3
100
AcDbDimension
  2
*D14
 10
2640.043205880648
 20
2429.159562993271
 30
0.0
 11
2565.043205880647
 21
2724.159562993271
 31
0.0
 12
-314.4606853807127
 22
-436.3905180351721
 32
0.0
 70
    32
 71
     5
 42
-1.0
  3
IGA
100
AcDbAlignedDimension
 13
2365.600250374835
 23
3019.159562993271
 33
0.0
 14
2199.128458524445
 24
2429.159562993271
 34
0.0
 50
90.0
100
AcDbRotatedDimension
1001
ACAD
1000
DSTYLE
1002
{
1070
    40
1040
30.0
1070
    75
1070
     1
1070
   143
1040
0.039
1070
   172
1070
     1
1070
   271
1070
     0
1070
   279
1070
     1
1070
   288
1070
     1
1002
}
  0
DIMENSION
  5
7CC7
330
19
100
AcDbEntity
  8
3
100
AcDbDimension
  2
*D15
 10
2640.043205880648
 20
2409.15956299327
 30
0.0
 11
2783.614634452076
 21
2461.934024979757
 31
0.0
 70
   160
  1
(<>)
 71
     5
 42
-1.0
  3
IGA
100
AcDbAlignedDimension
 13
2199.128458524445
 23
2429.159562993271
 33
0.0
 14
2199.128458524445
 24
2409.15956299327
 34
0.0
 50
90.0
100
AcDbRotatedDimension
1001
ACAD
1000
DSTYLE
1002
{
1070
   288
1070
     1
1070
   172
1070
     1
1070
    75
1070
     1
1070
    40
1040
30.0
1070
   271
1070
     0
1070
     7
1000
_DOT
1070
   143
1040
0.039
1002
}
  0
DIMENSION
  5
7CD7
330
19
100
AcDbEntity
  8
3
100
AcDbDimension
  2
*D16
 10
2640.043205880648
 20
2309.15956299327
 30
0.0
 11
2565.043205880647
 21
2052.016705850413
 31
0.0
 70
    32
 71
     5
 42
-1.0
  3
IGA
100
AcDbAlignedDimension
 13
2199.128458524445
 23
2409.15956299327
 33
0.0
 14
2199.128458524445
 24
2309.15956299327
 34
0.0
 50
90.0
100
AcDbRotatedDimension
1001
ACAD
1000
DSTYLE
1002
{
1070
    40
1040
30.0
1070
   143
1040
0.039
1070
   172
1070
     1
1070
   271
1070
     0
1070
   279
1070
     0
1070
   288
1070
     1
1070
   343
1005
7D11
1002
}
  0
DIMENSION
  5
7DA5
330
19
100
AcDbEntity
  8
3
100
AcDbDimension
  2
*D18
 10
2903.954473291939
 20
2309.15956299327
 30
0.0
 11
2903.954473291939
 21
3041.616200589681
 31
0.0
 70
   160
 71
     5
 42
-1.0
  3
IGA
100
AcDbAlignedDimension
 13
2244.128458524444
 23
3909.659562993271
 33
0.0
 14
2199.128458524445
 24
2309.15956299327
 34
0.0
 50
90.0
100
AcDbRotatedDimension
1001
ACAD
1000
DSTYLE
1002
{
1070
    40
1040
30.0
1070
   143
1040
0.039
1070
   172
1070
     1
1070
   271
1070
     0
1070
   279
1070
     0
1070
   288
1070
     1
1002
}
  0
DIMENSION
  5
7DB2
330
19
100
AcDbEntity
  8
3
100
AcDbDimension
  2
*D19
 10
1699.128458524445
 20
4086.646706260875
 30
0.0
 11
1984.141476578137
 21
4086.646706260875
 31
0.0
 70
   160
 71
     5
 42
-1.0
  3
IGA
100
AcDbAlignedDimension
 13
2244.128458524444
 23
3909.659562993271
 33
0.0
 14
1699.128458524445
 24
3877.842895620513
 34
0.0
100
AcDbRotatedDimension
1001
ACAD
1000
DSTYLE
1002
{
1070
    40
1040
30.0
1070
   143
1040
0.039
1070
   172
1070
     1
1070
   271
1070
     0
1070
   279
1070
     0
1070
   288
1070
     1
1002
}
  0
DIMENSION
  5
7DBE
330
19
100
AcDbEntity
  8
3
100
AcDbDimension
  2
*D20
 10
1013.128458524444
 20
4086.646706260875
 30
0.0
 11
1356.128458524444
 21
4161.646706260875
 31
0.0
 70
    32
 71
     5
 42
-1.0
  3
IGA
100
AcDbAlignedDimension
 13
1699.128458524445
 23
3877.842895620513
 33
0.0
 14
1013.128458524444
 24
3078.159562993271
 34
0.0
100
AcDbRotatedDimension
1001
ACAD
1000
DSTYLE
1002
{
1070
    40
1040
30.0
1070
    75
1070
     1
1070
   143
1040
0.039
1070
   172
1070
     1
1070
   271
1070
     0
1070
   279
1070
     1
1070
   288
1070
     1
1002
}
  0
DIMENSION
  5
7DCB
330
19
100
AcDbEntity
  8
3
100
AcDbDimension
  2
*D21
 10
899.1284585244448
 20
4297.525761891178
 30
0.0
 11
1568.06512503792
 21
4297.525761891178
 31
0.0
 70
   160
 71
     5
 42
-1.0
  3
IGA
100
AcDbAlignedDimension
 13
2244.128458524444
 23
3909.659562993271
 33
0.0
 14
899.1284585244448
 24
2569.159562993271
 34
0.0
100
AcDbRotatedDimension
1001
ACAD
1000
DSTYLE
1002
{
1070
    40
1040
30.0
1070
   143
1040
0.039
1070
   172
1070
     1
1070
   271
1070
     0
1070
   279
1070
     0
1070
   288
1070
     1
1002
}
  0
DIMENSION
  5
7DF2
330
19
100
AcDbEntity
  8
3
100
AcDbDimension
  2
*D22
 10
5024.973006374326
 20
4064.870224243372
 30
0.0
 11
4726.162140401327
 21
4064.870224243372
 31
0.0
 70
   160
 71
     5
 42
-1.0
  3
IGA
100
AcDbAlignedDimension
 13
4424.973006374324
 23
3867.159562993271
 33
0.0
 14
5024.973006374326
 24
3867.159562993271
 34
0.0
100
AcDbRotatedDimension
1001
ACAD
1000
DSTYLE
1002
{
1070
    40
1040
30.0
1070
   143
1040
0.039
1070
   172
1070
     1
1070
   271
1070
     0
1070
   279
1070
     0
1070
   288
1070
     1
1002
}
  0
DIMENSION
  5
7E03
330
19
100
AcDbEntity
  8
3
100
AcDbDimension
  2
*D23
 10
4724.973006374324
 20
4272.134207640433
 30
0.0
 11
4876.973006374324
 21
4343.196148337512
 31
0.0
 70
   160
 71
     5
 42
-1.0
  3
IGA
100
AcDbAlignedDimension
 13
5028.973006374325
 23
3836.443967929987
 33
0.0
 14
4724.973006374324
 24
4197.804045965606
 34
0.0
100
AcDbRotatedDimension
1001
ACAD
1000
DSTYLE
1002
{
1070
   288
1070
     1
1070
   172
1070
     1
1070
    40
1040
30.0
1070
   271
1070
     0
1070
   143
1040
0.039
1002
}
  0
DIMENSION
  5
7E30
330
19
100
AcDbEntity
  8
3
100
AcDbDimension
  2
*D24
 10
3536.973006374325
 20
4272.134207640433
 30
0.0
 11
4130.973006374325
 21
4422.134207640432
 31
0.0
 70
    32
  1
MAX\P1240
 71
     5
 42
-1.0
  3
IGA
100
AcDbAlignedDimension
 13
4724.973006374324
 23
4197.804045965606
 33
0.0
 14
3536.973006374325
 24
3239.159562993271
 34
0.0
100
AcDbRotatedDimension
1001
ACAD
1000
DSTYLE
1002
{
1070
    40
1040
30.0
1070
    75
1070
     1
1070
   143
1040
0.039
1070
   172
1070
     1
1070
   271
1070
     0
1070
   279
1070
     1
1070
   288
1070
     1
1002
}
  0
LINE
  5
7EFA
330
19
100
AcDbEntity
  8
1
100
AcDbLine
 10
1529.128458524445
 20
2939.159562993271
 30
0.0
 11
1869.128458524445
 21
2939.159562993271
 31
0.0
  0
LINE
  5
7EFC
330
19
100
AcDbEntity
  8
1
100
AcDbLine
 10
1869.128458524445
 20
2939.159562993271
 30
0.0
 11
1979.128458524444
 21
2529.159562993271
 31
0.0
  0
LINE
  5
7EFD
330
19
100
AcDbEntity
  8
1
100
AcDbLine
 10
1529.128458524445
 20
2939.159562993271
 30
0.0
 11
1419.128458524445
 21
2529.159562993271
 31
0.0
  0
LINE
  5
7EFE
330
19
100
AcDbEntity
  8
1
100
AcDbLine
 10
1869.128458524445
 20
5758.152420412722
 30
0.0
 11
1869.128458524445
 21
5136.152420412722
 31
0.0
  0
LINE
  5
7EFF
330
19
100
AcDbEntity
  8
1
100
AcDbLine
 10
1529.128458524445
 20
5758.152420412723
 30
0.0
 11
1529.128458524445
 21
5136.152420412723
 31
0.0
  0
LINE
  5
7F00
330
19
100
AcDbEntity
  8
1
100
AcDbLine
 10
879.1284585244447
 20
5116.152420412724
 30
0.0
 11
899.1284585244448
 21
5116.152420412724
 31
0.0
  0
DIMENSION
  5
7F13
330
19
100
AcDbEntity
  8
3
100
AcDbDimension
  2
*D25
 10
5332.187637331564
 20
2594.159562993271
 30
0.0
 11
5332.187637331564
 21
3019.334739290018
 31
0.0
 70
   160
 71
     5
 42
-1.0
  3
IGA
100
AcDbAlignedDimension
 13
5024.973006374324
 23
3444.159562993271
 33
0.0
 14
5027.273006374325
 24
2594.159562993271
 34
0.0
 50
90.0
100
AcDbRotatedDimension
1001
ACAD
1000
DSTYLE
1002
{
1070
     3
1000
\U+03C6<>
1070
    40
1040
30.0
1070
   143
1040
0.039
1070
   172
1070
     1
1070
   271
1070
     0
1070
   279
1070
     0
1070
   288
1070
     1
1002
}
  0
LINE
  5
7FC0
330
19
100
AcDbEntity
  8
1
100
AcDbLine
 10
4424.973006374324
 20
3867.159562993271
 30
0.0
 11
5024.973006374326
 21
3042.159562993271
 31
0.0
  0
LINE
  5
7FC1
330
19
100
AcDbEntity
  8
1
100
AcDbLine
 10
4424.973006374323
 20
3042.159562993271
 30
0.0
 11
5024.973006374324
 21
3867.159562993271
 31
0.0
  0
ENDSEC
  0
SECTION
  2
OBJECTS
  0
DICTIONARY
  5
C
330
0
100
AcDbDictionary
281
     1
  3
ACAD_CIP_PREVIOUS_PRODUCT_INFO
350
7F70
  3
ACAD_COLOR
350
7F53
  3
ACAD_DETAILVIEWSTYLE
350
7F6C
  3
ACAD_GROUP
350
D
  3
ACAD_LAYOUT
350
7F18
  3
ACAD_MATERIAL
350
7F21
  3
ACAD_MLEADERSTYLE
350
7F68
  3
ACAD_MLINESTYLE
350
E
  3
ACAD_PLOTSETTINGS
350
7F19
  3
ACAD_PLOTSTYLENAME
350
7F16
  3
ACAD_SCALELIST
350
7F56
  3
ACAD_SECTIONVIEWSTYLE
350
7F6A
  3
ACAD_TABLESTYLE
350
7F54
  3
ACAD_VISUALSTYLE
350
7F3A
  3
ACDB_RECOMPOSE_DATA
350
7FD8
  3
AcDbVariableDictionary
350
7F90
  3
AcDsDecomposeData
350
7FDF
  3
DWGPROPS
350
7FD9
  0
DICTIONARY
  5
7FAC
330
2
100
AcDbDictionary
280
     1
281
     1
  3
ACAD_LAYERSTATES
360
7FAD
  0
DICTIONARY
  5
7F81
330
F
100
AcDbDictionary
280
     1
281
     1
  3
ADSK_XREC_LAYER_RECONCILED
360
7F82
  0
DICTIONARY
  5
7F83
330
31
100
AcDbDictionary
280
     1
281
     1
  3
ADSK_XREC_LAYER_RECONCILED
360
7F84
  0
DICTIONARY
  5
7F85
330
76D0
100
AcDbDictionary
280
     1
281
     1
  3
ADSK_XREC_LAYER_RECONCILED
360
7F86
  0
DICTIONARY
  5
7F87
330
76D1
100
AcDbDictionary
280
     1
281
     1
  3
ADSK_XREC_LAYER_RECONCILED
360
7F88
  0
DICTIONARY
  5
7F89
330
76D2
100
AcDbDictionary
280
     1
281
     1
  3
ADSK_XREC_LAYER_RECONCILED
360
7F8A
  0
XRECORD
  5
7F70
102
{ACAD_REACTORS
330
C
102
}
330
C
100
AcDbXrecord
280
     1
300
ACDLT
300
2015
300
INVLTS_F_S
  0
DICTIONARY
  5
7F53
102
{ACAD_REACTORS
330
C
102
}
330
C
100
AcDbDictionary
281
     1
  0
DICTIONARY
  5
7F6C
102
{ACAD_REACTORS
330
C
102
}
330
C
100
AcDbDictionary
281
     1
  3
Metric50
350
7F6D
  0
DICTIONARY
  5
D
102
{ACAD_REACTORS
330
C
102
}
330
C
100
AcDbDictionary
281
     1
  0
DICTIONARY
  5
7F18
102
{ACAD_REACTORS
330
C
102
}
330
C
100
AcDbDictionary
281
     1
  3
Model
350
7F1A
  3
ﾚｲｱｳﾄ1
350
7F1B
  0
DICTIONARY
  5
7F21
102
{ACAD_REACTORS
330
C
102
}
330
C
100
AcDbDictionary
281
     1
  3
ByBlock
350
7F2A
  3
ByLayer
350
7F22
  3
Global
350
7F32
  0
DICTIONARY
  5
7F68
102
{ACAD_REACTORS
330
C
102
}
330
C
100
AcDbDictionary
281
     1
  3
Standard
350
7F69
  0
DICTIONARY
  5
E
102
{ACAD_REACTORS
330
C
102
}
330
C
100
AcDbDictionary
281
     1
  3
STANDARD
350
1C
  0
DICTIONARY
  5
7F19
102
{ACAD_REACTORS
330
C
102
}
330
C
100
AcDbDictionary
281
     1
  0
ACDBDICTIONARYWDFLT
  5
7F16
102
{ACAD_REACTORS
330
C
102
}
330
C
100
AcDbDictionary
281
     1
  3
Normal
350
7F17
100
AcDbDictionaryWithDefault
340
7F17
  0
DICTIONARY
  5
7F56
102
{ACAD_REACTORS
330
C
102
}
330
C
100
AcDbDictionary
281
     1
  3
A0
350
7F57
  3
A1
350
7F58
  3
A2
350
7F59
  3
A3
350
7F5A
  3
A4
350
7F5B
  3
A5
350
7F5C
  3
A6
350
7F5D
  3
A7
350
7F5E
  3
A8
350
7F5F
  3
A9
350
7F60
  3
B0
350
7F61
  3
B1
350
7F62
  3
B2
350
7F63
  3
B3
350
7F64
  3
B4
350
7F65
  3
B5
350
7F66
  3
B6
350
7F67
  0
DICTIONARY
  5
7F6A
102
{ACAD_REACTORS
330
C
102
}
330
C
100
AcDbDictionary
281
     1
  3
Metric50
350
7F6B
  0
DICTIONARY
  5
7F54
102
{ACAD_REACTORS
330
C
102
}
330
C
100
AcDbDictionary
281
     1
  3
Standard
350
7F55
  0
DICTIONARY
  5
7F3A
102
{ACAD_REACTORS
330
C
102
}
330
C
100
AcDbDictionary
281
     1
  3
2dWireframe
350
7F40
  3
Basic
350
7F3F
  3
Brighten
350
7F46
  3
ColorChange
350
7F4A
  3
Conceptual
350
7F43
  3
Dim
350
7F45
  3
EdgeColorOff
350
7F52
  3
Facepattern
350
7F49
  3
Flat
350
7F3B
  3
FlatWithEdges
350
7F3C
  3
Gouraud
350
7F3D
  3
GouraudWithEdges
350
7F3E
  3
Hidden
350
7F42
  3
JitterOff
350
7F50
  3
Linepattern
350
7F48
  3
OverhangOff
350
7F51
  3
Realistic
350
7F44
  3
Shaded
350
7F4F
  3
Shaded with edges
350
7F4E
  3
Shades of Gray
350
7F4B
  3
Sketchy
350
7F4C
  3
Thicken
350
7F47
  3
Wireframe
350
7F41
  3
X-Ray
350
7F4D
  0
XRECORD
  5
7FD8
102
{ACAD_REACTORS
330
C
102
}
330
C
100
AcDbXrecord
280
     1
 90
        1
330
7F55
  0
DICTIONARY
  5
7F90
102
{ACAD_REACTORS
330
C
102
}
330
C
100
AcDbDictionary
281
     1
  3
CANNOSCALE
350
7F96
  3
CMLEADERSTYLE
350
7F92
  3
CTABLESTYLE
350
7F91
  3
CVIEWDETAILSTYLE
350
7F93
  3
CVIEWSECTIONSTYLE
350
7F94
  3
DIMASSOC
350
7FD4
  3
INDEXCTL
350
7FD3
  3
LAYEREVAL
350
7F98
  3
LAYERNOTIFY
350
7F99
  3
LIGHTINGUNITS
350
7F97
  3
MSLTSCALE
350
7F95
  3
SORTENTS
350
7FD2
  3
XCLIPFRAME
350
7FD5
  0
DICTIONARY
  5
7FDF
102
{ACAD_REACTORS
330
C
102
}
330
C
100
AcDbDictionary
281
     1
  3
AcDsRecords
350
7FE1
  3
AcDsSchemas
350
7FE0
1001
ACAD
1070
     2
  0
XRECORD
  5
7FD9
102
{ACAD_REACTORS
330
C
102
}
330
C
100
AcDbXrecord
280
     1
  1
DWGPROPS COOKIE
  2

  3

  4

  6

  7

  8
yasukiyo.ogawa
  9

300
=
301
=
302
=
303
=
304
=
305
=
306
=
307
=
308
=
309
=
 40
0.0807932870370371
 41
2452676.665355556
 42
2457742.63487978
  1

 90
        0
  0
DICTIONARY
  5
7FAD
102
{ACAD_REACTORS
330
7FAC
102
}
330
7FAC
100
AcDbDictionary
281
     1
  0
XRECORD
  5
7F82
102
{ACAD_REACTORS
330
7F81
102
}
330
7F81
100
AcDbXrecord
280
     1
290
     1
  0
XRECORD
  5
7F84
102
{ACAD_REACTORS
330
7F83
102
}
330
7F83
100
AcDbXrecord
280
     1
290
     1
  0
XRECORD
  5
7F86
102
{ACAD_REACTORS
330
7F85
102
}
330
7F85
100
AcDbXrecord
280
     1
290
     1
  0
XRECORD
  5
7F88
102
{ACAD_REACTORS
330
7F87
102
}
330
7F87
100
AcDbXrecord
280
     1
290
     1
  0
XRECORD
  5
7F8A
102
{ACAD_REACTORS
330
7F89
102
}
330
7F89
100
AcDbXrecord
280
     1
290
     1
  0
ACDBDETAILVIEWSTYLE
  5
7F6D
102
{ACAD_XDICTIONARY
360
7F8D
102
}
102
{ACAD_REACTORS
330
7F6C
102
}
330
7F6C
100
AcDbModelDocViewStyle
 70
     0
  3
Metric50
290
     0
100
AcDbDetailViewStyle
 70
     0
 71
     0
 90
        3
 71
     1
340
10
 40
5.0
340
0
 40
5.0
300

 40
0.0
280
     1
 71
     2
340
15
 90
       25
 71
     3
340
10
 40
5.0
 90
        0
 40
15.0
 90
        1
300
%<\AcVar ViewDetailId>% (%<\AcVar ViewScale \f "%sn">%)
 71
     4
340
15
 90
       25
340
15
 90
       25
280
     0
  0
LAYOUT
  5
7F1A
102
{ACAD_XDICTIONARY
360
7FE2
102
}
102
{ACAD_REACTORS
330
7F18
102
}
330
7F18
100
AcDbPlotSettings
  1

  2
RICOH imagio MP7501 RPCS
  4
A4
  6

 40
5.873749732971191
 41
5.873748779296875
 42
5.873733520507812
 43
5.873748779296875
 44
209.9733276367187
 45
296.9259948730469
 46
-0.0000000000000142
 47
3.359191292808134
 48
0.0
 49
0.0
140
0.0
141
0.0
142
1.0
143
31.78387026720885
 70
 11956
 72
     1
 73
     0
 74
     1
  7
monochrome.ctb
 75
     0
147
0.0314624994248008
148
0.1922460740788665
149
0.2700599612071528
100
AcDbLayout
  1
Model
 70
     1
 71
     0
 10
0.0
 20
0.0
 11
12.0
 21
9.0
 12
0.0
 22
0.0
 32
0.0
 14
0.0
 24
0.0
 34
0.0
 15
0.0
 25
0.0
 35
0.0
146
0.0
 13
0.0
 23
0.0
 33
0.0
 16
1.0
 26
0.0
 36
0.0
 17
0.0
 27
1.0
 37
0.0
 76
     0
330
19
331
7F1F
1001
ACAD_PSEXT
1000
RICOH imagio MP7501 RPCS
1000
RICOH imagio MP7501 RPCS
1000
IP_192.168.7.16
1000
RPCS Driver (Windows 2000/XP/Server 2003/2008/Vista/7)
1070
     0
  0
LAYOUT
  5
7F1B
102
{ACAD_XDICTIONARY
360
7FE4
102
}
102
{ACAD_REACTORS
330
7F18
102
}
330
7F18
100
AcDbPlotSettings
  1

  2
EPSON LP-9300
  4

  6

 40
0.0
 41
0.0
 42
0.0
 43
0.0
 44
0.0
 45
0.0
 46
0.0
 47
0.0
 48
0.0
 49
0.0
140
0.0
141
0.0
142
1.0
143
1.0
 70
   688
 72
     0
 73
     0
 74
     5
  7
monochrome.ctb
 75
    16
147
1.0
148
0.0
149
0.0
100
AcDbLayout
  1
ﾚｲｱｳﾄ1
 70
     1
 71
     1
 10
0.0
 20
0.0
 11
12.0
 21
9.0
 12
0.0
 22
0.0
 32
0.0
 14
1.000000000000000E+20
 24
1.000000000000000E+20
 34
1.000000000000000E+20
 15
-1.000000000000000E+20
 25
-1.000000000000000E+20
 35
-1.000000000000000E+20
146
0.0
 13
0.0
 23
0.0
 33
0.0
 16
1.0
 26
0.0
 36
0.0
 17
0.0
 27
1.0
 37
0.0
 76
     0
330
16
  0
MATERIAL
  5
7F2A
102
{ACAD_XDICTIONARY
360
7F2B
102
}
102
{ACAD_REACTORS
330
7F21
102
}
330
7F21
100
AcDbMaterial
  1
ByBlock
 72
     0
 43
0.0208333333333333
 43
0.0
 43
0.0
 43
0.0
 43
0.0
 43
0.0208333333333333
 43
0.0
 43
0.0
 43
0.0
 43
0.0
 43
1.0
 43
0.0
 43
0.0
 43
0.0
 43
0.0
 43
1.0
 77
     0
 47
0.0208333333333333
 47
0.0
 47
0.0
 47
0.0
 47
0.0
 47
0.0208333333333333
 47
0.0
 47
0.0
 47
0.0
 47
0.0
 47
1.0
 47
0.0
 47
0.0
 47
0.0
 47
0.0
 47
1.0
171
     0
 49
0.0208333333333333
 49
0.0
 49
0.0
 49
0.0
 49
0.0
 49
0.0208333333333333
 49
0.0
 49
0.0
 49
0.0
 49
0.0
 49
1.0
 49
0.0
 49
0.0
 49
0.0
 49
0.0
 49
1.0
175
     0
142
0.0208333333333333
142
0.0
142
0.0
142
0.0
142
0.0
142
0.0208333333333333
142
0.0
142
0.0
142
0.0
142
0.0
142
1.0
142
0.0
142
0.0
142
0.0
142
0.0
142
1.0
179
     0
144
0.0208333333333333
144
0.0
144
0.0
144
0.0
144
0.0
144
0.0208333333333333
144
0.0
144
0.0
144
0.0
144
0.0
144
1.0
144
0.0
144
0.0
144
0.0
144
0.0
144
1.0
147
0.0208333333333333
147
0.0
147
0.0
147
0.0
147
0.0
147
0.0208333333333333
147
0.0
147
0.0
147
0.0
147
0.0
147
1.0
147
0.0
147
0.0
147
0.0
147
0.0
147
1.0
  0
MATERIAL
  5
7F22
102
{ACAD_XDICTIONARY
360
7F23
102
}
102
{ACAD_REACTORS
330
7F21
102
}
330
7F21
100
AcDbMaterial
  1
ByLayer
 72
     0
 43
0.0208333333333333
 43
0.0
 43
0.0
 43
0.0
 43
0.0
 43
0.0208333333333333
 43
0.0
 43
0.0
 43
0.0
 43
0.0
 43
1.0
 43
0.0
 43
0.0
 43
0.0
 43
0.0
 43
1.0
 77
     0
 47
0.0208333333333333
 47
0.0
 47
0.0
 47
0.0
 47
0.0
 47
0.0208333333333333
 47
0.0
 47
0.0
 47
0.0
 47
0.0
 47
1.0
 47
0.0
 47
0.0
 47
0.0
 47
0.0
 47
1.0
171
     0
 49
0.0208333333333333
 49
0.0
 49
0.0
 49
0.0
 49
0.0
 49
0.0208333333333333
 49
0.0
 49
0.0
 49
0.0
 49
0.0
 49
1.0
 49
0.0
 49
0.0
 49
0.0
 49
0.0
 49
1.0
175
     0
142
0.0208333333333333
142
0.0
142
0.0
142
0.0
142
0.0
142
0.0208333333333333
142
0.0
142
0.0
142
0.0
142
0.0
142
1.0
142
0.0
142
0.0
142
0.0
142
0.0
142
1.0
179
     0
144
0.0208333333333333
144
0.0
144
0.0
144
0.0
144
0.0
144
0.0208333333333333
144
0.0
144
0.0
144
0.0
144
0.0
144
1.0
144
0.0
144
0.0
144
0.0
144
0.0
144
1.0
147
0.0208333333333333
147
0.0
147
0.0
147
0.0
147
0.0
147
0.0208333333333333
147
0.0
147
0.0
147
0.0
147
0.0
147
1.0
147
0.0
147
0.0
147
0.0
147
0.0
147
1.0
  0
MATERIAL
  5
7F32
102
{ACAD_XDICTIONARY
360
7F33
102
}
102
{ACAD_REACTORS
330
7F21
102
}
330
7F21
100
AcDbMaterial
  1
Global
 72
     0
 43
0.0208333333333333
 43
0.0
 43
0.0
 43
0.0
 43
0.0
 43
0.0208333333333333
 43
0.0
 43
0.0
 43
0.0
 43
0.0
 43
1.0
 43
0.0
 43
0.0
 43
0.0
 43
0.0
 43
1.0
 77
     0
 47
0.0208333333333333
 47
0.0
 47
0.0
 47
0.0
 47
0.0
 47
0.0208333333333333
 47
0.0
 47
0.0
 47
0.0
 47
0.0
 47
1.0
 47
0.0
 47
0.0
 47
0.0
 47
0.0
 47
1.0
171
     0
 49
0.0208333333333333
 49
0.0
 49
0.0
 49
0.0
 49
0.0
 49
0.0208333333333333
 49
0.0
 49
0.0
 49
0.0
 49
0.0
 49
1.0
 49
0.0
 49
0.0
 49
0.0
 49
0.0
 49
1.0
175
     0
142
0.0208333333333333
142
0.0
142
0.0
142
0.0
142
0.0
142
0.0208333333333333
142
0.0
142
0.0
142
0.0
142
0.0
142
1.0
142
0.0
142
0.0
142
0.0
142
0.0
142
1.0
179
     0
144
0.0208333333333333
144
0.0
144
0.0
144
0.0
144
0.0
144
0.0208333333333333
144
0.0
144
0.0
144
0.0
144
0.0
144
1.0
144
0.0
144
0.0
144
0.0
144
0.0
144
1.0
147
0.0208333333333333
147
0.0
147
0.0
147
0.0
147
0.0
147
0.0208333333333333
147
0.0
147
0.0
147
0.0
147
0.0
147
1.0
147
0.0
147
0.0
147
0.0
147
0.0
147
1.0
  0
MLEADERSTYLE
  5
7F69
102
{ACAD_XDICTIONARY
360
801B
102
}
102
{ACAD_REACTORS
330
7F68
102
}
330
7F68
100
AcDbMLeaderStyle
170
     2
171
     1
172
     0
 90
        2
 40
0.0
 41
0.0
173
     1
 91
-1056964608
340
13
 92
       -2
290
     1
 42
2.0
291
     1
 43
0.36
  3
Standard
 44
4.0
300

342
10
174
     1
178
     6
175
     1
176
     0
 93
-1056964608
 45
4.0
292
     0
297
     0
 46
4.0
 94
-1056964608
 47
1.0
 49
1.0
140
1.0
293
     1
141
0.0
294
     1
177
     0
142
1.0
295
     0
296
     0
143
0.125
1001
ACAD_MLEADERVER
1070
     2
  0
MLINESTYLE
  5
1C
102
{ACAD_REACTORS
330
E
102
}
330
E
100
AcDbMlineStyle
  2
STANDARD
 70
     0
  3

 62
     0
 51
90.0
 52
90.0
 71
     2
 49
0.5
 62
   256
  6
BYLAYER
 49
-0.5
 62
   256
  6
BYLAYER
  0
ACDBPLACEHOLDER
  5
7F17
102
{ACAD_REACTORS
330
7F16
102
}
330
7F16
  0
SCALE
  5
7F57
102
{ACAD_REACTORS
330
7F56
102
}
330
7F56
100
AcDbScale
 70
     0
300
1:1
140
1.0
141
1.0
290
     1
  0
SCALE
  5
7F58
102
{ACAD_REACTORS
330
7F56
102
}
330
7F56
100
AcDbScale
 70
     0
300
1:2
140
1.0
141
2.0
290
     0
  0
SCALE
  5
7F59
102
{ACAD_REACTORS
330
7F56
102
}
330
7F56
100
AcDbScale
 70
     0
300
1:4
140
1.0
141
4.0
290
     0
  0
SCALE
  5
7F5A
102
{ACAD_REACTORS
330
7F56
102
}
330
7F56
100
AcDbScale
 70
     0
300
1:5
140
1.0
141
5.0
290
     0
  0
SCALE
  5
7F5B
102
{ACAD_REACTORS
330
7F56
102
}
330
7F56
100
AcDbScale
 70
     0
300
1:8
140
1.0
141
8.0
290
     0
  0
SCALE
  5
7F5C
102
{ACAD_REACTORS
330
7F56
102
}
330
7F56
100
AcDbScale
 70
     0
300
1:10
140
1.0
141
10.0
290
     0
  0
SCALE
  5
7F5D
102
{ACAD_REACTORS
330
7F56
102
}
330
7F56
100
AcDbScale
 70
     0
300
1:16
140
1.0
141
16.0
290
     0
  0
SCALE
  5
7F5E
102
{ACAD_REACTORS
330
7F56
102
}
330
7F56
100
AcDbScale
 70
     0
300
1:20
140
1.0
141
20.0
290
     0
  0
SCALE
  5
7F5F
102
{ACAD_REACTORS
330
7F56
102
}
330
7F56
100
AcDbScale
 70
     0
300
1:30
140
1.0
141
30.0
290
     0
  0
SCALE
  5
7F60
102
{ACAD_REACTORS
330
7F56
102
}
330
7F56
100
AcDbScale
 70
     0
300
1:40
140
1.0
141
40.0
290
     0
  0
SCALE
  5
7F61
102
{ACAD_REACTORS
330
7F56
102
}
330
7F56
100
AcDbScale
 70
     0
300
1:50
140
1.0
141
50.0
290
     0
  0
SCALE
  5
7F62
102
{ACAD_REACTORS
330
7F56
102
}
330
7F56
100
AcDbScale
 70
     0
300
1:100
140
1.0
141
100.0
290
     0
  0
SCALE
  5
7F63
102
{ACAD_REACTORS
330
7F56
102
}
330
7F56
100
AcDbScale
 70
     0
300
2:1
140
2.0
141
1.0
290
     0
  0
SCALE
  5
7F64
102
{ACAD_REACTORS
330
7F56
102
}
330
7F56
100
AcDbScale
 70
     0
300
4:1
140
4.0
141
1.0
290
     0
  0
SCALE
  5
7F65
102
{ACAD_REACTORS
330
7F56
102
}
330
7F56
100
AcDbScale
 70
     0
300
8:1
140
8.0
141
1.0
290
     0
  0
SCALE
  5
7F66
102
{ACAD_REACTORS
330
7F56
102
}
330
7F56
100
AcDbScale
 70
     0
300
10:1
140
10.0
141
1.0
290
     0
  0
SCALE
  5
7F67
102
{ACAD_REACTORS
330
7F56
102
}
330
7F56
100
AcDbScale
 70
     0
300
100:1
140
100.0
141
1.0
290
     0
  0
ACDBSECTIONVIEWSTYLE
  5
7F6B
102
{ACAD_XDICTIONARY
360
7F8B
102
}
102
{ACAD_REACTORS
330
7F6A
102
}
330
7F6A
100
AcDbModelDocViewStyle
 70
     0
  3
Metric50
290
     0
100
AcDbSectionViewStyle
 70
     0
 71
     0
 90
      102
 71
     1
340
10
 40
5.0
340
0
340
0
 40
5.0
300
I, O, Q, S, X, Z
 40
10.0
 90
        0
 40
2.5
 90
        0
 71
     2
340
15
 90
       25
340
15
 90
       50
 40
5.0
 40
2.5
 40
5.0
 71
     3
340
10
 40
5.0
 90
        0
 40
15.0
 90
        1
300
%<\AcVar ViewSectionStartId>%-%<\AcVar ViewSectionEndId>% (%<\AcVar ViewScale \f "%sn">%)
 71
     4
300
ANSI31
 40
1.0
 90
        0
290
     0
290
     0
 90
        6
 40
0.0
 40
1.570796326794896
 40
0.2617993877991494
 40
1.308996938995747
 40
-0.2617993877991494
 40
1.832595714594046
  0
TABLESTYLE
  5
7F55
102
{ACAD_XDICTIONARY
360
7FD6
102
}
102
{ACAD_REACTORS
330
7F54
102
}
330
7F54
100
AcDbTableStyle
  3
Standard
 70
     0
 71
     0
 40
1.5
 41
1.5
280
     0
281
     0
  7
STANDARD
140
4.5
170
     2
 62
     0
 63
     7
283
     0
274
    -2
284
     1
 64
     0
275
    -2
285
     1
 65
     0
276
    -2
286
     1
 66
     0
277
    -2
287
     1
 67
     0
278
    -2
288
     1
 68
     0
279
    -2
289
     1
 69
     0
  7
STANDARD
140
6.0
170
     5
 62
     0
 63
     7
283
     0
274
    -2
284
     1
 64
     0
275
    -2
285
     1
 65
     0
276
    -2
286
     1
 66
     0
277
    -2
287
     1
 67
     0
278
    -2
288
     1
 68
     0
279
    -2
289
     1
 69
     0
  7
STANDARD
140
4.5
170
     5
 62
     0
 63
     7
283
     0
274
    -2
284
     1
 64
     0
275
    -2
285
     1
 65
     0
276
    -2
286
     1
 66
     0
277
    -2
287
     1
 67
     0
278
    -2
288
     1
 68
     0
279
    -2
289
     1
 69
     0
  0
VISUALSTYLE
  5
7F40
102
{ACAD_XDICTIONARY
360
7FF3
102
}
102
{ACAD_REACTORS
330
7F3A
102
}
330
7F3A
100
AcDbVisualStyle
  2
2dWireframe
 70
     4
 71
     0
 72
     2
 73
     0
 90
        0
 40
-0.6
 41
-30.0
 62
     5
 63
     7
 74
     1
 91
        4
 64
     7
 65
   257
 75
     1
175
     1
 42
1.0
 92
        0
 66
   257
 43
1.0
 76
     1
 77
     6
 78
     2
 67
     7
 79
     5
170
     0
171
     0
290
     0
174
     0
 93
        1
 44
0.0
173
     0
291
     0
 45
0.0
1001
ACAD
1000
AcDbSavedByObjectVersion
1070
     0
  0
VISUALSTYLE
  5
7F3F
102
{ACAD_XDICTIONARY
360
7FF1
102
}
102
{ACAD_REACTORS
330
7F3A
102
}
330
7F3A
100
AcDbVisualStyle
  2
Basic
 70
     7
 71
     1
 72
     0
 73
     1
 90
        0
 40
-0.6
 41
-30.0
 62
     5
 63
     7
 74
     0
 91
        4
 64
     7
 65
   257
 75
     1
175
     1
 42
1.0
 92
        8
 66
     7
 43
1.0
 76
     1
 77
     6
 78
     2
 67
     7
 79
     5
170
     0
171
     0
290
     0
174
     0
 93
        1
 44
0.0
173
     0
291
     1
 45
0.0
1001
ACAD
1000
AcDbSavedByObjectVersion
1070
     0
  0
VISUALSTYLE
  5
7F46
102
{ACAD_XDICTIONARY
360
7FFF
102
}
102
{ACAD_REACTORS
330
7F3A
102
}
330
7F3A
100
AcDbVisualStyle
  2
Brighten
 70
    12
 71
     2
 72
     2
 73
     0
 90
        0
 40
-0.6
 41
-30.0
 62
     5
 63
     7
 74
     1
 91
        4
 64
     7
 65
   257
 75
     1
175
     1
 42
1.0
 92
        8
 66
     7
 43
1.0
 76
     1
 77
     6
 78
     2
 67
     7
 79
     5
170
     0
171
     0
290
     0
174
     0
 93
        1
 44
50.0
173
     0
291
     1
 45
0.0
1001
ACAD
1000
AcDbSavedByObjectVersion
1070
     0
  0
VISUALSTYLE
  5
7F4A
102
{ACAD_XDICTIONARY
360
8007
102
}
102
{ACAD_REACTORS
330
7F3A
102
}
330
7F3A
100
AcDbVisualStyle
  2
ColorChange
 70
    16
 71
     2
 72
     2
 73
     3
 90
        0
 40
-0.6
 41
-30.0
 62
     5
 63
     8
 74
     1
 91
        4
 64
     7
 65
   257
 75
     1
175
     1
 42
1.0
 92
        8
 66
     8
 43
1.0
 76
     1
 77
     6
 78
     2
 67
     7
 79
     5
170
     0
171
     0
290
     0
174
     0
 93
        1
 44
0.0
173
     0
291
     1
 45
0.0
1001
ACAD
1000
AcDbSavedByObjectVersion
1070
     0
  0
VISUALSTYLE
  5
7F43
102
{ACAD_XDICTIONARY
360
7FF9
102
}
102
{ACAD_REACTORS
330
7F3A
102
}
330
7F3A
100
AcDbVisualStyle
  2
Conceptual
 70
     9
 71
     3
 72
     2
 73
     0
 90
        0
 40
-0.6
 41
-30.0
 62
     5
 63
     7
 74
     2
 91
        2
 64
     7
 65
   257
 75
     1
175
     1
 42
179.0
 92
        8
 66
     7
 43
1.0
 76
     1
 77
     6
 78
     2
 67
     7
 79
     3
170
     0
171
     0
290
     0
174
     0
 93
        1
 44
0.0
173
     0
291
     0
 45
0.0
1001
ACAD
1000
AcDbSavedByObjectVersion
1070
     0
  0
VISUALSTYLE
  5
7F45
102
{ACAD_XDICTIONARY
360
7FFD
102
}
102
{ACAD_REACTORS
330
7F3A
102
}
330
7F3A
100
AcDbVisualStyle
  2
Dim
 70
    11
 71
     2
 72
     2
 73
     0
 90
        0
 40
-0.6
 41
-30.0
 62
     5
 63
     7
 74
     1
 91
        4
 64
     7
 65
   257
 75
     1
175
     1
 42
1.0
 92
        8
 66
     7
 43
1.0
 76
     1
 77
     6
 78
     2
 67
     7
 79
     5
170
     0
171
     0
290
     0
174
     0
 93
        1
 44
-50.0
173
     0
291
     1
 45
0.0
1001
ACAD
1000
AcDbSavedByObjectVersion
1070
     0
  0
VISUALSTYLE
  5
7F52
102
{ACAD_XDICTIONARY
360
8017
102
}
102
{ACAD_REACTORS
330
7F3A
102
}
330
7F3A
100
AcDbVisualStyle
  2
EdgeColorOff
 70
    22
 71
     2
 72
     2
 73
     0
 90
        0
 40
-0.6
 41
-30.0
 62
     5
 63
     7
 74
     1
 91
        4
 64
     7
 65
   257
 75
     1
175
     1
 42
1.0
 92
        8
 66
     7
 43
1.0
 76
     1
 77
     6
 78
     2
 67
     7
 79
     5
170
     0
171
     0
290
     0
174
     0
 93
        1
 44
0.0
173
     0
291
     1
 45
0.0
1001
ACAD
1000
AcDbSavedByObjectVersion
1070
     0
  0
VISUALSTYLE
  5
7F49
102
{ACAD_XDICTIONARY
360
8005
102
}
102
{ACAD_REACTORS
330
7F3A
102
}
330
7F3A
100
AcDbVisualStyle
  2
Facepattern
 70
    15
 71
     2
 72
     2
 73
     0
 90
        0
 40
-0.6
 41
-30.0
 62
     5
 63
     7
 74
     1
 91
        4
 64
     7
 65
   257
 75
     1
175
     1
 42
1.0
 92
        8
 66
     7
 43
1.0
 76
     1
 77
     6
 78
     2
 67
     7
 79
     5
170
     0
171
     0
290
     0
174
     0
 93
        1
 44
0.0
173
     0
291
     1
 45
0.0
1001
ACAD
1000
AcDbSavedByObjectVersion
1070
     0
  0
VISUALSTYLE
  5
7F3B
102
{ACAD_XDICTIONARY
360
7FE9
102
}
102
{ACAD_REACTORS
330
7F3A
102
}
330
7F3A
100
AcDbVisualStyle
  2
Flat
 70
     0
 71
     2
 72
     1
 73
     1
 90
        2
 40
-0.6
 41
30.0
 62
     5
 63
     7
 74
     0
 91
        0
 64
     7
 65
   257
 75
     1
175
     1
 42
1.0
 92
        8
 66
     7
 43
1.0
 76
     1
 77
     6
 78
     2
 67
     7
 79
     5
170
     0
171
     0
290
     0
174
     0
 93
       13
 44
0.0
173
     0
291
     1
 45
0.0
1001
ACAD
1000
AcDbSavedByObjectVersion
1070
     0
  0
VISUALSTYLE
  5
7F3C
102
{ACAD_XDICTIONARY
360
7FEB
102
}
102
{ACAD_REACTORS
330
7F3A
102
}
330
7F3A
100
AcDbVisualStyle
  2
FlatWithEdges
 70
     1
 71
     2
 72
     1
 73
     1
 90
        2
 40
-0.6
 41
30.0
 62
     5
 63
     7
 74
     1
 91
        0
 64
     7
 65
   257
 75
     1
175
     1
 42
1.0
 92
        0
 66
   257
 43
1.0
 76
     1
 77
     6
 78
     2
 67
     7
 79
     5
170
     0
171
     0
290
     0
174
     0
 93
       13
 44
0.0
173
     0
291
     1
 45
0.0
1001
ACAD
1000
AcDbSavedByObjectVersion
1070
     0
  0
VISUALSTYLE
  5
7F3D
102
{ACAD_XDICTIONARY
360
7FED
102
}
102
{ACAD_REACTORS
330
7F3A
102
}
330
7F3A
100
AcDbVisualStyle
  2
Gouraud
 70
     2
 71
     2
 72
     2
 73
     1
 90
        2
 40
-0.6
 41
30.0
 62
     5
 63
     7
 74
     0
 91
        0
 64
     7
 65
   257
 75
     1
175
     1
 42
1.0
 92
        0
 66
     7
 43
1.0
 76
     1
 77
     6
 78
     2
 67
     7
 79
     5
170
     0
171
     0
290
     0
174
     0
 93
       13
 44
0.0
173
     0
291
     1
 45
0.0
1001
ACAD
1000
AcDbSavedByObjectVersion
1070
     0
  0
VISUALSTYLE
  5
7F3E
102
{ACAD_XDICTIONARY
360
7FEF
102
}
102
{ACAD_REACTORS
330
7F3A
102
}
330
7F3A
100
AcDbVisualStyle
  2
GouraudWithEdges
 70
     3
 71
     2
 72
     2
 73
     1
 90
        2
 40
-0.6
 41
30.0
 62
     5
 63
     7
 74
     1
 91
        0
 64
     7
 65
   257
 75
     1
175
     1
 42
1.0
 92
        0
 66
   257
 43
1.0
 76
     1
 77
     6
 78
     2
 67
     7
 79
     5
170
     0
171
     0
290
     0
174
     0
 93
       13
 44
0.0
173
     0
291
     1
 45
0.0
1001
ACAD
1000
AcDbSavedByObjectVersion
1070
     0
  0
VISUALSTYLE
  5
7F42
102
{ACAD_XDICTIONARY
360
7FF7
102
}
102
{ACAD_REACTORS
330
7F3A
102
}
330
7F3A
100
AcDbVisualStyle
  2
Hidden
 70
     6
 71
     1
 72
     2
 73
     2
 90
        0
 40
-0.6
 41
-30.0
 62
     5
 63
     7
 74
     2
 91
        2
 64
     7
 65
   257
 75
     2
175
     1
 42
40.0
 92
        0
 66
   257
 43
1.0
 76
     1
 77
     6
 78
     2
 67
     7
 79
     3
170
     0
171
     0
290
     0
174
     0
 93
        1
 44
0.0
173
     0
291
     0
 45
0.0
1001
ACAD
1000
AcDbSavedByObjectVersion
1070
     0
  0
VISUALSTYLE
  5
7F50
102
{ACAD_XDICTIONARY
360
8013
102
}
102
{ACAD_REACTORS
330
7F3A
102
}
330
7F3A
100
AcDbVisualStyle
  2
JitterOff
 70
    20
 71
     2
 72
     2
 73
     0
 90
        0
 40
-0.6
 41
-30.0
 62
     5
 63
     7
 74
     1
 91
        4
 64
     7
 65
   257
 75
     1
175
     1
 42
1.0
 92
       10
 66
     7
 43
1.0
 76
     1
 77
     6
 78
     2
 67
     7
 79
     5
170
     0
171
     0
290
     0
174
     0
 93
        1
 44
0.0
173
     0
291
     1
 45
0.0
1001
ACAD
1000
AcDbSavedByObjectVersion
1070
     0
  0
VISUALSTYLE
  5
7F48
102
{ACAD_XDICTIONARY
360
8003
102
}
102
{ACAD_REACTORS
330
7F3A
102
}
330
7F3A
100
AcDbVisualStyle
  2
Linepattern
 70
    14
 71
     2
 72
     2
 73
     0
 90
        0
 40
-0.6
 41
-30.0
 62
     5
 63
     7
 74
     1
 91
        4
 64
     7
 65
   257
 75
     7
175
     7
 42
1.0
 92
        8
 66
     7
 43
1.0
 76
     1
 77
     6
 78
     2
 67
     7
 79
     5
170
     0
171
     0
290
     0
174
     0
 93
        1
 44
0.0
173
     0
291
     1
 45
0.0
1001
ACAD
1000
AcDbSavedByObjectVersion
1070
     0
  0
VISUALSTYLE
  5
7F51
102
{ACAD_XDICTIONARY
360
8015
102
}
102
{ACAD_REACTORS
330
7F3A
102
}
330
7F3A
100
AcDbVisualStyle
  2
OverhangOff
 70
    21
 71
     2
 72
     2
 73
     0
 90
        0
 40
-0.6
 41
-30.0
 62
     5
 63
     7
 74
     1
 91
        4
 64
     7
 65
   257
 75
     1
175
     1
 42
1.0
 92
        9
 66
     7
 43
1.0
 76
     1
 77
     6
 78
     2
 67
     7
 79
     5
170
     0
171
     0
290
     0
174
     0
 93
        1
 44
0.0
173
     0
291
     1
 45
0.0
1001
ACAD
1000
AcDbSavedByObjectVersion
1070
     0
  0
VISUALSTYLE
  5
7F44
102
{ACAD_XDICTIONARY
360
7FFB
102
}
102
{ACAD_REACTORS
330
7F3A
102
}
330
7F3A
100
AcDbVisualStyle
  2
Realistic
 70
     8
 71
     2
 72
     3
 73
     0
 90
        2
 40
-0.6
 41
30.0
 62
     5
 63
     7
 74
     0
 91
        0
 64
     7
 65
   257
 75
     1
175
     1
 42
1.0
 92
        8
 66
   257
 43
1.0
 76
     1
 77
     6
 78
     2
 67
     7
 79
     3
170
     0
171
     0
290
     0
174
     0
 93
       13
 44
0.0
173
     0
291
     0
 45
0.0
1001
ACAD
1000
AcDbSavedByObjectVersion
1070
     0
  0
VISUALSTYLE
  5
7F4F
102
{ACAD_XDICTIONARY
360
8011
102
}
102
{ACAD_REACTORS
330
7F3A
102
}
330
7F3A
100
AcDbVisualStyle
  2
Shaded
 70
    27
 71
     2
 72
     2
 73
     1
 90
        2
 40
-0.6
 41
30.0
 62
     5
 63
     7
 74
     0
 91
        4
 64
     7
 65
   257
 75
     1
175
     1
 42
1.0
 92
        8
 66
   257
 43
1.0
 76
     1
 77
     6
 78
     2
 67
     8
 79
     3
170
     0
171
     0
290
     0
174
     0
 93
        5
 44
0.0
173
     0
291
     0
 45
0.0
1001
ACAD
1000
AcDbSavedByObjectVersion
1070
     0
  0
VISUALSTYLE
  5
7F4E
102
{ACAD_XDICTIONARY
360
800F
102
}
102
{ACAD_REACTORS
330
7F3A
102
}
330
7F3A
100
AcDbVisualStyle
  2
Shaded with edges
 70
    26
 71
     2
 72
     2
 73
     1
 90
        2
 40
-0.6
 41
30.0
 62
     5
 63
     7
 74
     1
 91
       10
 64
     7
 65
   257
 75
     2
175
     1
 42
1.0
 92
        8
 66
   257
 43
1.0
 76
     1
 77
     6
 78
     2
 67
     7
 79
     3
170
     0
171
     0
290
     0
174
     0
 93
        5
 44
0.0
173
     0
291
     0
 45
0.0
1001
ACAD
1000
AcDbSavedByObjectVersion
1070
     0
  0
VISUALSTYLE
  5
7F4B
102
{ACAD_XDICTIONARY
360
8009
102
}
102
{ACAD_REACTORS
330
7F3A
102
}
330
7F3A
100
AcDbVisualStyle
  2
Shades of Gray
 70
    23
 71
     2
 72
     2
 73
     3
 90
        0
 40
-0.6
 41
-30.0
 62
     5
 63
     7
 74
     2
 91
        2
 64
     7
 65
     7
 75
     1
175
     1
 42
40.0
 92
        8
 66
     7
 43
1.0
 76
     1
 77
     6
 78
     2
 67
     7
 79
     3
170
     0
171
     0
290
     0
174
     0
 93
        1
 44
0.0
173
     0
291
     0
 45
0.0
1001
ACAD
1000
AcDbSavedByObjectVersion
1070
     0
  0
VISUALSTYLE
  5
7F4C
102
{ACAD_XDICTIONARY
360
800B
102
}
102
{ACAD_REACTORS
330
7F3A
102
}
330
7F3A
100
AcDbVisualStyle
  2
Sketchy
 70
    24
 71
     1
 72
     2
 73
     2
 90
        0
 40
-0.6
 41
-30.0
 62
     5
 63
     7
 74
     2
 91
        2
 64
     7
 65
     7
 75
     1
175
     1
 42
40.0
 92
       11
 66
     7
 43
1.0
 76
     1
 77
     6
 78
     2
 67
     7
 79
     6
170
     0
171
     0
290
     0
174
     0
 93
        1
 44
0.0
173
     0
291
     0
 45
0.0
1001
ACAD
1000
AcDbSavedByObjectVersion
1070
     0
  0
VISUALSTYLE
  5
7F47
102
{ACAD_XDICTIONARY
360
8001
102
}
102
{ACAD_REACTORS
330
7F3A
102
}
330
7F3A
100
AcDbVisualStyle
  2
Thicken
 70
    13
 71
     2
 72
     2
 73
     0
 90
        0
 40
-0.6
 41
-30.0
 62
     5
 63
     7
 74
     1
 91
        4
 64
     7
 65
   257
 75
     1
175
     1
 42
1.0
 92
       12
 66
     7
 43
1.0
 76
     1
 77
     6
 78
     2
 67
     7
 79
     5
170
     0
171
     0
290
     0
174
     0
 93
        1
 44
0.0
173
     0
291
     1
 45
0.0
1001
ACAD
1000
AcDbSavedByObjectVersion
1070
     0
  0
VISUALSTYLE
  5
7F41
102
{ACAD_XDICTIONARY
360
7FF5
102
}
102
{ACAD_REACTORS
330
7F3A
102
}
330
7F3A
100
AcDbVisualStyle
  2
Wireframe
 70
     5
 71
     0
 72
     2
 73
     0
 90
        0
 40
-0.6
 41
-30.0
 62
     5
 63
     7
 74
     1
 91
        4
 64
     7
 65
   257
 75
     1
175
     1
 42
1.0
 92
        0
 66
   257
 43
1.0
 76
     1
 77
     6
 78
     2
 67
     7
 79
     3
170
     0
171
     0
290
     0
174
     0
 93
        1
 44
0.0
173
     0
291
     0
 45
0.0
1001
ACAD
1000
AcDbSavedByObjectVersion
1070
     0
  0
VISUALSTYLE
  5
7F4D
102
{ACAD_XDICTIONARY
360
800D
102
}
102
{ACAD_REACTORS
330
7F3A
102
}
330
7F3A
100
AcDbVisualStyle
  2
X-Ray
 70
    25
 71
     2
 72
     2
 73
     1
 90
        1
 40
0.5
 41
-30.0
 62
     5
 63
     7
 74
     1
 91
        0
 64
     7
 65
   257
 75
     1
175
     1
 42
1.0
 92
        8
 66
     7
 43
1.0
 76
     1
 77
     6
 78
     2
 67
     7
 79
     3
170
     0
171
     0
290
     0
174
     0
 93
       13
 44
0.0
173
     0
291
     0
 45
0.0
1001
ACAD
1000
AcDbSavedByObjectVersion
1070
     0
  0
DICTIONARYVAR
  5
7F96
102
{ACAD_REACTORS
330
7F90
102
}
330
7F90
100
DictionaryVariables
280
     0
  1
1:1
  0
DICTIONARYVAR
  5
7F92
102
{ACAD_REACTORS
330
7F90
102
}
330
7F90
100
DictionaryVariables
280
     0
  1
STANDARD
  0
DICTIONARYVAR
  5
7F91
102
{ACAD_REACTORS
330
7F90
102
}
330
7F90
100
DictionaryVariables
280
     0
  1
STANDARD
  0
DICTIONARYVAR
  5
7F93
102
{ACAD_REACTORS
330
7F90
102
}
330
7F90
100
DictionaryVariables
280
     0
  1
Metric50
  0
DICTIONARYVAR
  5
7F94
102
{ACAD_REACTORS
330
7F90
102
}
330
7F90
100
DictionaryVariables
280
     0
  1
Metric50
  0
DICTIONARYVAR
  5
7FD4
102
{ACAD_REACTORS
330
7F90
102
}
330
7F90
100
DictionaryVariables
280
     0
  1
1
  0
DICTIONARYVAR
  5
7FD3
102
{ACAD_REACTORS
330
7F90
102
}
330
7F90
100
DictionaryVariables
280
     0
  1
0
  0
DICTIONARYVAR
  5
7F98
102
{ACAD_REACTORS
330
7F90
102
}
330
7F90
100
DictionaryVariables
280
     0
  1
1
  0
DICTIONARYVAR
  5
7F99
102
{ACAD_REACTORS
330
7F90
102
}
330
7F90
100
DictionaryVariables
280
     0
  1
15
  0
DICTIONARYVAR
  5
7F97
102
{ACAD_REACTORS
330
7F90
102
}
330
7F90
100
DictionaryVariables
280
     0
  1
0
  0
DICTIONARYVAR
  5
7F95
102
{ACAD_REACTORS
330
7F90
102
}
330
7F90
100
DictionaryVariables
280
     0
  1
0
  0
DICTIONARYVAR
  5
7FD2
102
{ACAD_REACTORS
330
7F90
102
}
330
7F90
100
DictionaryVariables
280
     0
  1
127
  0
DICTIONARYVAR
  5
7FD5
102
{ACAD_REACTORS
330
7F90
102
}
330
7F90
100
DictionaryVariables
280
     0
  1
2
  0
DICTIONARY
  5
7FE1
102
{ACAD_REACTORS
330
7FDF
102
}
330
7FDF
100
AcDbDictionary
281
     1
  0
DICTIONARY
  5
7FE0
102
{ACAD_REACTORS
330
7FDF
102
}
330
7FDF
100
AcDbDictionary
281
     1
  3
2129952080
350
7FDA
  3
2129952088
350
7FDB
  3
2129952096
350
7FDC
  3
2129952104
350
7FDD
  3
2129952112
350
7FDE
  0
DICTIONARY
  5
7F8D
330
7F6D
100
AcDbDictionary
280
     1
281
     1
  3
ACAD_XREC_ROUNDTRIP
360
801E
  0
DICTIONARY
  5
7FE2
330
7F1A
100
AcDbDictionary
280
     1
281
     1
  3
ACAD_XREC_ROUNDTRIP
360
7FE3
  0
DICTIONARY
  5
7FE4
330
7F1B
100
AcDbDictionary
280
     1
281
     1
  3
ACAD_XREC_ROUNDTRIP
360
7FE5
  0
DICTIONARY
  5
7F2B
330
7F2A
100
AcDbDictionary
280
     1
281
     1
  3
ACAD_XREC_ROUNDTRIP
360
7FE7
  3
BUMPTILE
360
7F2D
  3
DIFFUSETILE
360
7F2C
  3
OPACITYTILE
360
7F30
  3
REFLECTIONTILE
360
7F2F
  3
REFRACTIONTILE
360
7F31
  3
SPECULARTILE
360
7F2E
  0
DICTIONARY
  5
7F23
330
7F22
100
AcDbDictionary
280
     1
281
     1
  3
ACAD_XREC_ROUNDTRIP
360
7FE6
  3
BUMPTILE
360
7F25
  3
DIFFUSETILE
360
7F24
  3
OPACITYTILE
360
7F28
  3
REFLECTIONTILE
360
7F27
  3
REFRACTIONTILE
360
7F29
  3
SPECULARTILE
360
7F26
  0
DICTIONARY
  5
7F33
330
7F32
100
AcDbDictionary
280
     1
281
     1
  3
ACAD_XREC_ROUNDTRIP
360
7FE8
  3
BUMPTILE
360
7F35
  3
DIFFUSETILE
360
7F34
  3
FBXASSET
360
7FA8
  3
OPACITYTILE
360
7F38
  3
REFLECTIONTILE
360
7F37
  3
REFRACTIONTILE
360
7F39
  3
SPECULARTILE
360
7F36
  0
DICTIONARY
  5
801B
330
7F69
100
AcDbDictionary
280
     1
281
     1
  3
ACAD_XREC_ROUNDTRIP
360
801C
  0
DICTIONARY
  5
7F8B
330
7F6B
100
AcDbDictionary
280
     1
281
     1
  3
ACAD_XREC_ROUNDTRIP
360
801D
  0
DICTIONARY
  5
7FD6
330
7F55
100
AcDbDictionary
280
     1
281
     1
  3
ACAD_ROUNDTRIP_2008_TABLESTYLE_CELLSTYLEMAP
360
7FD7
  3
ACAD_XREC_ROUNDTRIP
360
8019
  0
DICTIONARY
  5
7FF3
330
7F40
100
AcDbDictionary
280
     1
281
     1
  3
ACAD_XREC_ROUNDTRIP
360
7FF4
  0
DICTIONARY
  5
7FF1
330
7F3F
100
AcDbDictionary
280
     1
281
     1
  3
ACAD_XREC_ROUNDTRIP
360
7FF2
  0
DICTIONARY
  5
7FFF
330
7F46
100
AcDbDictionary
280
     1
281
     1
  3
ACAD_XREC_ROUNDTRIP
360
8000
  0
DICTIONARY
  5
8007
330
7F4A
100
AcDbDictionary
280
     1
281
     1
  3
ACAD_XREC_ROUNDTRIP
360
8008
  0
DICTIONARY
  5
7FF9
330
7F43
100
AcDbDictionary
280
     1
281
     1
  3
ACAD_XREC_ROUNDTRIP
360
7FFA
  0
DICTIONARY
  5
7FFD
330
7F45
100
AcDbDictionary
280
     1
281
     1
  3
ACAD_XREC_ROUNDTRIP
360
7FFE
  0
DICTIONARY
  5
8017
330
7F52
100
AcDbDictionary
280
     1
281
     1
  3
ACAD_XREC_ROUNDTRIP
360
8018
  0
DICTIONARY
  5
8005
330
7F49
100
AcDbDictionary
280
     1
281
     1
  3
ACAD_XREC_ROUNDTRIP
360
8006
  0
DICTIONARY
  5
7FE9
330
7F3B
100
AcDbDictionary
280
     1
281
     1
  3
ACAD_XREC_ROUNDTRIP
360
7FEA
  0
DICTIONARY
  5
7FEB
330
7F3C
100
AcDbDictionary
280
     1
281
     1
  3
ACAD_XREC_ROUNDTRIP
360
7FEC
  0
DICTIONARY
  5
7FED
330
7F3D
100
AcDbDictionary
280
     1
281
     1
  3
ACAD_XREC_ROUNDTRIP
360
7FEE
  0
DICTIONARY
  5
7FEF
330
7F3E
100
AcDbDictionary
280
     1
281
     1
  3
ACAD_XREC_ROUNDTRIP
360
7FF0
  0
DICTIONARY
  5
7FF7
330
7F42
100
AcDbDictionary
280
     1
281
     1
  3
ACAD_XREC_ROUNDTRIP
360
7FF8
  0
DICTIONARY
  5
8013
330
7F50
100
AcDbDictionary
280
     1
281
     1
  3
ACAD_XREC_ROUNDTRIP
360
8014
  0
DICTIONARY
  5
8003
330
7F48
100
AcDbDictionary
280
     1
281
     1
  3
ACAD_XREC_ROUNDTRIP
360
8004
  0
DICTIONARY
  5
8015
330
7F51
100
AcDbDictionary
280
     1
281
     1
  3
ACAD_XREC_ROUNDTRIP
360
8016
  0
DICTIONARY
  5
7FFB
330
7F44
100
AcDbDictionary
280
     1
281
     1
  3
ACAD_XREC_ROUNDTRIP
360
7FFC
  0
DICTIONARY
  5
8011
330
7F4F
100
AcDbDictionary
280
     1
281
     1
  3
ACAD_XREC_ROUNDTRIP
360
8012
  0
DICTIONARY
  5
800F
330
7F4E
100
AcDbDictionary
280
     1
281
     1
  3
ACAD_XREC_ROUNDTRIP
360
8010
  0
DICTIONARY
  5
8009
330
7F4B
100
AcDbDictionary
280
     1
281
     1
  3
ACAD_XREC_ROUNDTRIP
360
800A
  0
DICTIONARY
  5
800B
330
7F4C
100
AcDbDictionary
280
     1
281
     1
  3
ACAD_XREC_ROUNDTRIP
360
800C
  0
DICTIONARY
  5
8001
330
7F47
100
AcDbDictionary
280
     1
281
     1
  3
ACAD_XREC_ROUNDTRIP
360
8002
  0
DICTIONARY
  5
7FF5
330
7F41
100
AcDbDictionary
280
     1
281
     1
  3
ACAD_XREC_ROUNDTRIP
360
7FF6
  0
DICTIONARY
  5
800D
330
7F4D
100
AcDbDictionary
280
     1
281
     1
  3
ACAD_XREC_ROUNDTRIP
360
800E
  0
XRECORD
  5
7FDA
102
{ACAD_REACTORS
330
7FE0
102
}
330
7FE0
100
AcDbXrecord
280
     1
  1
AcDb_Thumbnail_Schema
102
{ATTRRECORD
341
7FDB
  2
AcDbDs::TreatedAsObjectData
280
     1
291
     1
102
ATTRRECORD}
102
{ATTRRECORD
341
7FDC
  2
AcDbDs::Legacy
280
     1
291
     1
102
ATTRRECORD}
  2
AcDbDs::ID
280
    10
 91
        8
102
{ATTRRECORD
341
7FDD
  2
AcDs:Indexable
280
     1
291
     1
102
ATTRRECORD}
102
{ATTRRECORD
341
7FDE
  2
AcDbDs::HandleAttribute
280
     7
282
     1
102
ATTRRECORD}
  2
Thumbnail_Data
280
    15
 91
        0
  0
XRECORD
  5
7FDB
102
{ACAD_REACTORS
330
7FE0
102
}
330
7FE0
100
AcDbXrecord
280
     1
  1
AcDbDs::TreatedAsObjectDataSchema
  2
AcDbDs::TreatedAsObjectData
280
     1
 91
        0
  0
XRECORD
  5
7FDC
102
{ACAD_REACTORS
330
7FE0
102
}
330
7FE0
100
AcDbXrecord
280
     1
  1
AcDbDs::LegacySchema
  2
AcDbDs::Legacy
280
     1
 91
        0
  0
XRECORD
  5
7FDD
102
{ACAD_REACTORS
330
7FE0
102
}
330
7FE0
100
AcDbXrecord
280
     1
  1
AcDbDs::IndexedPropertySchema
  2
AcDs:Indexable
280
     1
 91
        0
  0
XRECORD
  5
7FDE
102
{ACAD_REACTORS
330
7FE0
102
}
330
7FE0
100
AcDbXrecord
280
     1
  1
AcDbDs::HandleAttributeSchema
  2
AcDbDs::HandleAttribute
280
     7
 91
        1
284
     1
  0
XRECORD
  5
801E
102
{ACAD_REACTORS
330
7F8D
102
}
330
7F8D
100
AcDbXrecord
280
     1
102
DISPLAYNAME
  1
Metric50
102
FLAGS
 90
        0
  0
XRECORD
  5
7FE3
102
{ACAD_REACTORS
330
7FE2
102
}
330
7FE2
100
AcDbXrecord
280
     1
102
SHADEPLOT
 70
     0
102
SHADEPLOTRESLEVEL
 70
     2
102
SHADEPLOTCUSTOMDPI
 70
   300
  0
XRECORD
  5
7FE5
102
{ACAD_REACTORS
330
7FE4
102
}
330
7FE4
100
AcDbXrecord
280
     1
102
SHADEPLOT
 70
     0
102
SHADEPLOTRESLEVEL
 70
     2
102
SHADEPLOTCUSTOMDPI
 70
   300
  0
XRECORD
  5
7FE7
102
{ACAD_REACTORS
330
7F2B
102
}
330
7F2B
100
AcDbXrecord
280
     1
102
MATERIAL
148
0.0
149
0.0
149
0.0
 93
        0
 94
      127
282
     0
 72
     0
 77
     0
171
     0
175
     0
179
     0
273
     0
  0
XRECORD
  5
7F2D
102
{ACAD_REACTORS
330
7F2B
102
}
330
7F2B
100
AcDbXrecord
280
     1
270
     1
271
     1
  0
XRECORD
  5
7F2C
102
{ACAD_REACTORS
330
7F2B
102
}
330
7F2B
100
AcDbXrecord
280
     1
270
     1
271
     1
  0
XRECORD
  5
7F30
102
{ACAD_REACTORS
330
7F2B
102
}
330
7F2B
100
AcDbXrecord
280
     1
270
     1
271
     1
  0
XRECORD
  5
7F2F
102
{ACAD_REACTORS
330
7F2B
102
}
330
7F2B
100
AcDbXrecord
280
     1
270
     1
271
     1
  0
XRECORD
  5
7F31
102
{ACAD_REACTORS
330
7F2B
102
}
330
7F2B
100
AcDbXrecord
280
     1
270
     1
271
     1
  0
XRECORD
  5
7F2E
102
{ACAD_REACTORS
330
7F2B
102
}
330
7F2B
100
AcDbXrecord
280
     1
270
     1
271
     1
  0
XRECORD
  5
7FE6
102
{ACAD_REACTORS
330
7F23
102
}
330
7F23
100
AcDbXrecord
280
     1
102
MATERIAL
148
0.0
149
0.0
149
0.0
 93
        0
 94
      127
282
     0
 72
     0
 77
     0
171
     0
175
     0
179
     0
273
     0
  0
XRECORD
  5
7F25
102
{ACAD_REACTORS
330
7F23
102
}
330
7F23
100
AcDbXrecord
280
     1
270
     1
271
     1
  0
XRECORD
  5
7F24
102
{ACAD_REACTORS
330
7F23
102
}
330
7F23
100
AcDbXrecord
280
     1
270
     1
271
     1
  0
XRECORD
  5
7F28
102
{ACAD_REACTORS
330
7F23
102
}
330
7F23
100
AcDbXrecord
280
     1
270
     1
271
     1
  0
XRECORD
  5
7F27
102
{ACAD_REACTORS
330
7F23
102
}
330
7F23
100
AcDbXrecord
280
     1
270
     1
271
     1
  0
XRECORD
  5
7F29
102
{ACAD_REACTORS
330
7F23
102
}
330
7F23
100
AcDbXrecord
280
     1
270
     1
271
     1
  0
XRECORD
  5
7F26
102
{ACAD_REACTORS
330
7F23
102
}
330
7F23
100
AcDbXrecord
280
     1
270
     1
271
     1
  0
XRECORD
  5
7FE8
102
{ACAD_REACTORS
330
7F33
102
}
330
7F33
100
AcDbXrecord
280
     1
102
MATERIAL
148
0.0
149
0.0
149
0.0
 93
        0
 94
      127
282
     0
 72
     0
 77
     0
171
     0
175
     0
179
     0
273
     0
  0
XRECORD
  5
7F35
102
{ACAD_REACTORS
330
7F33
102
}
330
7F33
100
AcDbXrecord
280
     1
270
     1
271
     1
  0
XRECORD
  5
7F34
102
{ACAD_REACTORS
330
7F33
102
}
330
7F33
100
AcDbXrecord
280
     1
270
     1
271
     1
  0
XRECORD
  5
7FA8
102
{ACAD_REACTORS
330
7F33
102
}
330
7F33
100
AcDbXrecord
280
     1
 70
     1
 90
1959938040
 71
     1
  1
27239363-2CD4-4894-A83B-05CD581DA22A
311
504B03041400060808005A678C49A4F13ECEDA000000200100004F00000038464134393242342D384442352D343030412D423034352D3834454639323537424245312F4173736574446174612F446566696E6974696F6E4974657261746F7250726F706572746965732E62696E454E3D4FC3301075195A3130F00FAAEEC689
311
8993346A8B525C31C102134BE5BAD73492E354B6233132F2AFE1AC16F574EFBEEFDDFD10427E2F82211921BED1DEA17F010BAED5EFFA089D22E35831FD4E99C9B57783614C251CD46042DC7A6DBD066394857EF0F7D7D169A702D229F310976E11FF051F199AF3B178FF0D115F8A5EED4FD593F21EC2921D765FEC518A22CB
311
E66B9A0B59D04C261B5ACACD332DE6395FD7752978523307BE1F9C06CF384BB617E6EDC936B09C6907F8C77EB6E2499AD394A37EA4BC126525F8E78285B683D5C207D7DA666A55F707504B03041400060808005A678C49321FDFA13C010000300200004500000038464134393242342D384442352D343030412D423034352D
311
3834454639323537424245312F4173736574446174612F496E7374616E636550726F706572746965732E62696E6D51CD4A0251183D99A1DC6BE226FA236A2161E80DE7DE3BA3D322E74F7B00B711880ED8221722B48BA155BB9EA76D0F102D7A809E20DCB40BEA9BD1B4183F38F7FBCEF9CEB917661E007CCF8B46AC11223A
311
37A95F84A3707CDDEFF687E14DAF4C826C48652B4B09E9075AE8A6AD85DB549EA89B7E60368DC095D2CD2D837144193A684BD316A6D64A684B1AC2EB7881301AAAEE5BBE6FBB6D9B6CC9BB38B97C7CFEACBCB5A867488B08BF3CE9C4A9A6AD991B283928255272949DE5BC72A2E0AC16C34A1B890BC3749D58449847DFE7BD
311
4052BAE2EFB8DC2C2E4919074F4E4AFB27A4A3F1D5953F9E692B4B2CFE5B4542F7B637E90F8537EE8D06E120DEBCF20DDCF3221CB68D179EC5846D618FD5F0C50E71CE76A0790125C2153FC01D3B4387EFE298F829E718B32A32F12EA751CB1D21CA56A1F3FBF8C867F003504B03041400060808005A678C4928BB58AF8001
311
00009E0500003D00000038464134393242342D384442352D343030412D423034352D3834454639323537424245312F536368656D61732F436F6D6D6F6E536368656D612E786D6CBD544D4FC23018BEFB2B96DE15493C78601010A34B880709DEDFB52FD0D8B54BD70DF6EFED3AC0B12E6442E2716BFB3CEFF3D18E26FB4404
311
05EA8C2B1992E1C323095052C5B8DC842437EBFB673219DF8DA659866649B798C078B48AE6410122242F2A4994AC7F93815DF85C049C8564CA0A901499DD886B2EB9B1E02448F358701A9235880C49A0119892A20C89D1B9FD768815CAD268CB5E0355B40B1E47F3E37A2020464BED06AA57CE8FCC20C3C3446D46761A2632
311
A8C1283D07031EFF2AE7CCB1BFEEE916E406DFAC8E36FFD99A9D60A6944090EEDC3B670C7DC13DE86B6B2C5C240D6E503BB85ACD579D513F1B9F9A69DC9CC22AFA80C426D40AF0B21EA168559156B6276F0F726A6BFF04DCD513A87A62CAD41FB24FCB2858B3952E3D852084DA25B9303C15687973CC8E8AAE11DF2836C38C
311
6A9E765E8C1BA1BFB1DC29CDFE518C8B5A7655A4ED7E77291ABEB80DBD82EC866ADE1B8D05AF9E35CF09D7A061F38A986D9EC412B8F0F65E5D81534D9B231D1E5A8FE577A241F3A5FD01504B03041400060808005A678C492CCEBD668A040000E01200003E00000038464134393242342D384442352D343030412D42303435
311
2D3834454639323537424245312F536368656D61732F47656E65726963536368656D612E786D6CD5586D6FDB380CFE7EBF42F0F7A649B70E1B90744856B4970F450FCD7A5F05459613EDE4174872DADCAF3F522F8ED3B88D2F1D06AC4050DBA2493EE4438AF2F8EB73AEC8466823CB62928C06C384888297A92C5693A4B6D9
311
D9E7E4EBD51FE3A931C22EF85AE4EC6AFC38BF261BA626C9AD288496DC3F4FCEAFC63366845F7A10452AF41DB320C0D44EC26EAB20918735565582695670811A6A49643A49A6E9069FA4604A64B29016DC4B48552F95E4932463CA888468C1D2B250DB4962750DF7CE273069CE8363F1FF4EDB00E0A21999574AE4A2B00C35
311
3B93F3BD4777B8A61ED8F604ABFEDD79CE56A2B7BDFBDBC50996E0ADDE16FED26223C5D30956C29BDF4A55EA686E5E58B112DA45CE67F76F4FA27EFA3FB672FD7372FC388FAECDCA5209E693CAD167BADCD272F943701B3812F8A3D852008B1D2E32DB927B2F833C6EA95879925356D254582695095A3CE982924720BE5774
311
A3CB9CDCDB350427D2DF20DA1B5532EBE2D5D6288D75D4F7E4FD9890A0EF8E3D93EBB8F8BA4758158EF6FB90A6F9520281C93DE7AAC6D24607DA296BB96018123F821A7D6A5C5884050C475DA4865442732C8B95684A50165CBB3A32F25F783A4A480ED59AD7F924B968AEA50131F46303223E6A397B0E52976030DC1DCA81
311
D7E7C1EDEEA42C19FF27635C505E2BD5198A599020DF50A2330FCB3AAF28CB0124108429553EF1B228802E2265D8F7CC2401042B155BCC7070F1E5C55F13B4A9577362CCCE46C32174E010C3C378C44841A4BDA00FE3A12006CE11EE6AEC59894D3526DDE1CD59D503ECC324017F8061B7F162162FA62EDD81AE3308617770
311
796DCBDAD2B2625C5AE8A63DE20B2C8AA5E95E76E5730823955956E33E705425A2187C185D36489A1B44D3DCEC2172F6BA2105C3546287A7194B2331768EBBE64F6E70A9930ABE0ADEA89E9E2C38523B810287AD67A54A039C1606EAFE68F8304610BB9093DBDDABC0B2AE4E290DCDA15376D7E39F72B556F0B32EAB5D3D49
311
8B4C41ABADEC3A1434C422D87E8025A84BDCB2B1417ED750FAE4DA8976863974C577C7F902D3F156AD354DEA3540DE6BEAE2BEA52F7A2EB4CA43802ECE5BF2CE2EDC9347179FFB023CE412E60BE16DA0BE29B374988A553F561DC04615DD35F7D2C8979F60E5955CE93DF29DED8AFA1EE6642D53418086C03C47C377910F75
311
F7E8F5EF665F70B60FFB22AEDF897D119E8423C773E819A3C1E55E550599EE6EDCA34D0C86FD72057DF2CD46F16A470682471C164E4346D5306BF12D7D12D82CFF673D41636C347443FEB51B50D72EA171A8E4A58623A4A16E0FA2B8B10A0D23268D87C33896EE8FB73305A74BF224EDBADFA0BD674AB354D63DB7BD5D8342
311
6761C077DE767728235446A552754EB93B755891C3C4CC6CADE37CF0E912A7BB38DBA010F9DE1282EDF470CA69A9CDA482E334C4A6EA4107987980B17E72F31730EBF88BBD39E7C629F56797A3C0009C2C5AE7951D9A05A02773440F02EEB4DE396A3B6A570C72CCFBCD823B0B8ED3F1D5CEDDFED772FA70236C83FB7D86C3
311
85D570B87107535572A60A96035F8F7C6A7192F13007246BBE0521855E6AC46F3E27689CEE7D186A6FD679D98CDCAD13333E04EBE7ED6F55FF01504B03041400060808005A678C496180134D5F0100006B0300004500000038464134393242342D384442352D343030412D423034352D3834454639323537424245312F5363
311
68656D61732F52656E6465724D6174657269616C536368656D612E786D6CA5934D6FC2300C86EFFB1551EEE343DBA41D1A103009551ADAD40EAE28A4A68D9426284961FCFBE5A340113B2071746D3F765EBF4DC6BFB5407BD0862B49F0B037C0082453059725C18DDD3EBFE3F1E829991803366715D474942CD30FB4A782E0
311
0C64017A412D684E454CE3FE28995203B162A6EA5AC94B66997D225E109CD63B0135484BAD1B3C07E9080CA35DB3119C11BCA5C200461A68A1A438126C75E3E230D40FF81FB3F03C91D1E3A3A0AF79FE28E25BC39EC3E17E4C2A2D94A0833A51AF55BCCA7D88572FCBAC529C4140B020FC3AAFA886621DCED7EAD7664CC860
311
24E806DC297DA1BB393E4156543457A4537DB8817349A70F8ACBF09B3EEE2CB2F33E91B65D60786E4E3B39B77E3FEEEF5650424525DA657FB8B46BE6BF064646F0A0F7327C0BC1BC1B4CBBC1C419FA3CCB23500007872A2580CAAE5461865565294E4EDB4617B62FF579DF9A5B2F54E834076A597573A020912FED777F9B3F
311
504B03041400060808005A678C49502F07FB51000000570000004700000038464134393242342D384442352D343030412D423034352D3834454639323537424245312F4173736574446174612F41737365745461626C654F66436F6E74656E74732E62696E5361606030323732B6343633D635727631D135B1B034D175B430
311
76D23530757631B53074713432721402AACB4D2C492DCA4CCC492C28484D2C4ACC4B4E050A82012F90744FCD03CA26072767A4E6260200504B03041400060808005A678C49F865834058000000680000004500000038464134393242342D384442352D343030412D423034352D3834454639323537424245312F4173736574
311
446174612F53747265616D56657273696F6E5461626C652E696E66558CBD0A80300C06F73E4B117FB66E451741D041DC5BF98480A492E4FDD18EAEC7DD4555D89EF28DF51A0B1BD8340C4DE7DD848B988C0ACF0649566493F2408C508DDEBB99D5129FF8F1AF8CF5B9503E20FAE5A16B5AF702504B03041400060808005A67
311
8C49D75FBD9D340100009A0400003600000038464134393242342D384442352D343030412D423034352D3834454639323537424245312F4173736574446174612F636E782E786D6CCD54B16AC33010FD15A33D926D4809415628ED92A985860EDD2EF239159125239D4BFBF7956C0F2D299D3204343DBDBB7B7AE89DDC7DF6
311
B6F8C0108D770DAB78C90A74DAB7C69D1A3652B7DAB062A764F09E7ED058E1A0C786659829790A7E1C16A8C50E469B516BDC7901EF63443AC0D1E253F7E01DA1A3C80A6D21C68645FD8E3D7018C9B718CFBC05025EF180D18F4163EA44A6C7A5930E08842D537559DDADAA3A9D43556FD79BEDBA7E932233953C7A6F17BE49
311
C3821F0A3D4F65AA94225F2B3906B370F25B98FA4B233F1A2745622A1929244F960AFA1A52050C83351A285927BC26A4552221F452CC642545F6E097138FD8196772C93E0903F2E139C9C340066FCE91FFB45EDF99BD8B044EE3EDFA71A9F0FA2EBC4C3FE8750EE494985BCBC9A5426E5C77859488698DA4D0E4ADA2BE0150
311
4B03041400060808005A678C49EFEEA0B3080100004F0300003400000038464134393242342D384442352D343030412D423034352D3834454639323537424245312F536368656D61732F636E782E786D6CCD93BD6E032110845F05D11BEE4E7264591C2E52A44A93A44A4760ED20037BE2274ADE3E70A1B0A5744961890286
311
4FAB9D6111874FEFC807C46431CC7464032510341A1B4E332DF9B8D95172902222E60B8C92A03CCCB4C9548A53C4B274C9C05115D75467C3B98BF7E83D8667FD0E5E51A29D4A69A6693D3255321A48676654566C64111296A8A156C8D643AFA023A80C86CA6918EF36E354D7CB38EDB7BBFD767A15BC9152BC21BACEDB9021
311
E24234D64DA8ED0C82B76B294AB49D691EA8BCEC8DD53404AF841429C79A4127F3D75249B52CCE6A956B547C057F182978B37A65F8010244AB6FD3F15573FF66F9098281F8585F295AE56ED3F96F3DFE2D00BECE7E1D81F615E437504B03041400060808005A678C49410A3D5871000000A40000002C000000384641343932
311
42342D384442352D343030412D423034352D3834454639323537424245312F636E782E786D6C55CC4D0E82301086E1AB34B31774E7A22D31F1069E60020334B633A63FC6E34B0909B07DDE2F9FEE7EC1AB2FC5E4840DDC9A2B28E25E06C7938192C7CB1D54677514C9871928C640062A83D55394F2D968A0118BAFEA1DBF37
311
7CA444F98919176EAB9FEAAB9F2960DA5BBB1E2ED3FA6FFF504B03041400060808005A678C49A444A2757D000000A300000007000000636E782E786D6C4D8CD10A832018465F45FE7B370B65066A24ABF7886521330D97D1E34F4717BBFAE0F09D23DA7375E830F163839750DD0820E35F61B27E9190F6197340AD123184FD
311
EF06C88FAB91503028B1C490B60B4D661E932BD459FFBE201F3ADAD49A62FED40C53423AAC096598D37E686AF6D0BAAFB2712F4A9E5F2F6FC9AB2F504B03041400060808005A678C4916E99B5DA600000035010000130000005B436F6E74656E745F54797065735D2E786D6C9590410E82301045AFD2740F4517C6180A0BF5
311
065E60AC53688469D30E066F6F91AD9AB89CF9FFFD3F99BA9DC7413C3026E749CB4D59498164FCCD51A7E5C4B6D84BD136F5E5193089ECA5A465CF1C0E4A25D3E308A9F401292BD6C711388FB15301CC1D3A54DBAADA29E38991B8E0254336F5092D4C038BF39CD76B6FC6A538AEBEA54A4B08617006389FA516557DE4AE8E
311
7E70DE30729138228C5F021CD93F02D4FB0DCD0B504B03041400060808005A678C493DEE336E64000000790000001B0000006175746F6465736B2D64657369676E2D7061636B6167652E786D6C35CBC10E83200C00D05F21DCA56CA76D41FC96062B120735B69A7DBE268BB7777961F8D5AF396893C2ADB70FE7ADA196782C
311
2DF776D7A97B5933C430F15651E5469C55D70F80A4992A3ADC954792C525AE70A1E4D6AD9816CC044FEFDF01FE3FDE907802504B03041400060808005A678C4915D10222F9000000960100003700000038464134393242342D384442352D343030412D423034352D3834454639323537424245312F4173736574446174612F
311
636F72652E786D6C8550CB6EC32010FC156BEFD886F8A50813C58F7E414FBD219B382831583CAA7E7E2176A5F6540969D1ECCCECEED0CBD7FA4C3E85B152AB16709A4322D4A467A99616BCBBA106920BA3466BF78B0689E2AB6821C2C0E862B4DF0E68D2CA091551A5677180DC5AE120999EE1D3829DEE62E529F72E30EC23
311
DDF8F4E08B4871BAF318F55ECE8754CEC14DDEA430C08A7AACEBBE185035366FA818F30E75DD2947B8A9AE0329FBBECC4B9A4531A34EAE3FD32723B813333092E30A6112DE3B26E7B23997E4836691C9A87526DC7C0C8DD701BBC6AD07EE38CDF6EE1F57BFCDFFBB7AA9DC891CAEBBC202C361C95783D12CA614CA2BC25063
311
A2EC1B504B03041400060808005A678C49FD16716CF8000000940100003500000038464134393242342D384442352D343030412D423034352D3834454639323537424245312F536368656D61732F636F72652E786D6C8550CB6EC32010FC156BEF7E40FC5284896AC7FD81F6D41B02E2A0C46019A8FAF905DB95DA5325A445
311
B333B3BB432E5FF333F994AB55467780B20212A9B9114A4F1D78774B5B482E94ACC6B85F3448349B650711064AA6D5F8E580B8D14EEA886A23E401326BA583843FC3A703CBEF726619F32E30EC235B187FB0496628DB799478AFC4215522B8A99B922BD0B2199B6628AF693DB6AF6939167DDAF7A722456DFD72C5D5305445
311
45F228A6C4A9F9673A5F25735200C505AA5384C37B47F85CB5E70A7F903C3229B16E0D371F43E37540DFB63D2DC9F7DE1F4FBF88FF3DBDD2EE840FCF5D6181A2B0E2D6A0248F1985B205186ACC937E03504B03041400060808005A678C497E372A9802010000D70100002D00000038464134393242342D384442352D343030
311
412D423034352D3834454639323537424245312F636F72652E786D6C9551CB6EC32010FC156BEFF8414DEB44982856932FE8A9370A1B172506CB40D5CF2FC4AED4DE5A0969D130B3ECCCF2C3E7742B3E70F1C6D91E9AB28602AD72DAD8B187182EA483E220F8E25CF84183C2CA097BC830083E2E2ECE1BA49C0D68336A9DC6
311
0D94DE638042DDD2A507AFDE7192A58C2131FCB59CA5BACA11CBA65C798207337D4BD58232A00641EBE69134349D9786EE59B767F4955799297834363CD0ED339CDE50176E0EC91208C6ABF535B1A2D11BC7E834A3B9185C4074E763BBA3434BBAE78191B6AE8F64A85B46BAF674DE51F6340CA726354962C17D5852325B93
311
9CC15FE5ABF097B338EB7F3A5B151E449EE76E59F02AC79CCA7D07A9E695882F504B03041400060808005A678C49293EA31A08010000B201000008000000636F72652E786D6C8D50CB6EC32010FC15B4773F207E29C244B5937E414FBD51431C141B2CC051FBF785D895DA5B25A44533B33BB34B4F9FF3841ED23A65740B38
311
CD01493D18A1F4D8C2EAAF4903E8C4A835C6FF9201D27C962D4418181DAD59971D1A8CF65247541B2177903B273DA0610A9F16DC7093334FF9EA83C2DDD3850F773ECA14A79B8E51AFE69FD6C14AEEA50046725C259884F786C9B16C8E2579A7595432BAAE4AEC564A04777555D2022BEA4B5DF7C539A92ECD6B525CF22EE9
311
BA439EE0A67A3993B2EFCBBCA4596C66D4791B76DE87849C1E39FE88BE34DB28463F8C997641082590D1D317B09C6691F8137A5DC43F422BED0F641FB875386038047A12C1385E3094E779438DD766DF504B010214001400060808005A678C49A4F13ECEDA000000200100004F000000000000000000000000000000000038
311
464134393242342D384442352D343030412D423034352D3834454639323537424245312F4173736574446174612F446566696E6974696F6E4974657261746F7250726F706572746965732E62696E504B010214001400060808005A678C49321FDFA13C01000030020000450000000000000000000000000047010000384641
311
34393242342D384442352D343030412D423034352D3834454639323537424245312F4173736574446174612F496E7374616E636550726F706572746965732E62696E504B010214001400060808005A678C4928BB58AF800100009E0500003D00000000000000000000000000E602000038464134393242342D384442352D34
311
3030412D423034352D3834454639323537424245312F536368656D61732F436F6D6D6F6E536368656D612E786D6C504B010214001400060808005A678C492CCEBD668A040000E01200003E00000000000000000000000000C104000038464134393242342D384442352D343030412D423034352D3834454639323537424245
311
312F536368656D61732F47656E65726963536368656D612E786D6C504B010214001400060808005A678C496180134D5F0100006B0300004500000000000000000000000000A709000038464134393242342D384442352D343030412D423034352D3834454639323537424245312F536368656D61732F52656E6465724D6174
311
657269616C536368656D612E786D6C504B010214001400060808005A678C49502F07FB51000000570000004700000000000000000000000000690B000038464134393242342D384442352D343030412D423034352D3834454639323537424245312F4173736574446174612F41737365745461626C654F66436F6E74656E74
311
732E62696E504B010214001400060808005A678C49F8658340580000006800000045000000000000000000000000001F0C000038464134393242342D384442352D343030412D423034352D3834454639323537424245312F4173736574446174612F53747265616D56657273696F6E5461626C652E696E66504B0102140014
311
00060808005A678C49D75FBD9D340100009A0400003600000000000000000000000000DA0C000038464134393242342D384442352D343030412D423034352D3834454639323537424245312F4173736574446174612F636E782E786D6C504B010214001400060808005A678C49EFEEA0B3080100004F030000340000000000
311
0000000000000000620E000038464134393242342D384442352D343030412D423034352D3834454639323537424245312F536368656D61732F636E782E786D6C504B010214001400060808005A678C49410A3D5871000000A40000002C00000000000000000000000000BC0F000038464134393242342D384442352D343030
311
412D423034352D3834454639323537424245312F636E782E786D6C504B010214001400060808005A678C49A444A2757D000000A3000000070000000000000000000000000077100000636E782E786D6C504B010214001400060808005A678C4916E99B5DA6000000350100001300000000000000000000000000191100005B
311
436F6E74656E745F54797065735D2E786D6C504B010214001400060808005A678C493DEE336E64000000790000001B00000000000000000000000000F01100006175746F6465736B2D64657369676E2D7061636B6167652E786D6C504B010214001400060808005A678C4915D10222F9000000960100003700000000000000
311
0000000000008D12000038464134393242342D384442352D343030412D423034352D3834454639323537424245312F4173736574446174612F636F72652E786D6C504B010214001400060808005A678C49FD16716CF8000000940100003500000000000000000000000000DB13000038464134393242342D384442352D3430
311
30412D423034352D3834454639323537424245312F536368656D61732F636F72652E786D6C504B010214001400060808005A678C497E372A9802010000D70100002D000000000000000000000000002615000038464134393242342D384442352D343030412D423034352D3834454639323537424245312F636F72652E786D
311
6C504B010214001400060808005A678C49293EA31A08010000B2010000080000000000000000000000000073160000636F72652E786D6C504B050600000000110011005A060000A11700000000
310
504B03041400060808005A678C49000000000000000000000000370000006662782F35354532304544462D374130422D344333392D383934382D4235383631443742383633392F617474726962757465732E62696E504B03041400060808005A678C49000000000000000000000000350000006662782F3535453230454446
310
2D374130422D344333392D383934382D4235383631443742383633392F76657274696365732E62696E504B03041400060808005A678C49F270F1330600000004000000360000006662782F35354532304544462D374130422D344333392D383934382D4235383631443742383633392F747269616E676C65732E62696E6366
310
60600000504B03041400060808005A678C4951464CB48900000043010000360000006662782F35354532304544462D374130422D344333392D383934382D4235383631443742383633392F6469726563746F72792E786D6C9D8F310EC2300C45AF127987122606C71DD918B841D4B851A43646695A717C52A85029031293A5
310
A76FBF6FACEF7DA7264E43906840EF0FA03836E242F406C6DCEE4EA06AC22492573150D1F66C60C640E8938CB705396EEDD86DE9B5042FE27813D640EA63BB001C722AF6E55CB61E4863F58284D5D3F53DD715CE1C3985E63FD7F1B7EBDD617E9F1E504B03041400060808005A678C49A2E2C14B2E0700001A1C0000340000
310
006662782F35354532304544462D374130422D344333392D383934382D4235383631443742383633392F6F626A656374732E786D6CDD596D6FDB380CFE2B82EFB3DF933419D20C69D20EC1D06D58B0C37D3314474975F51B24BB2FF7EB8F9225C7769CC4ED6DC0702DD0A6AA4C910FC987143DFDF81247E889304ED3E4DA70
310
2DC7402409D32D4DF6D74691EFCCB1813ECED094A5695EDB67A004C7E4DA10CBC66CBA676991A9A52DD9E1226AAFDEDDFC8578481262A030C29C5F1B3C7C2031B67091A75BC21FAD2DCEB1B5DFBD58AE556E6C8ADD339C3DB48ECA3023490EAAC27A025294066EF34F30C99E4D6DB1A1B1CDEBB7CD3FB3CD96863715A509CF
310
71121E69D592E3F5D3CA7707CB5B6F38318783816F0E469E6BDEDCDD2C4DF7CA7716A3C56232BF9D186836DDA46954392023C916BCF86ACCDCA92DFE5399AF50E8D23B4C9384840ACDAE0D5BA2E452C2DB98348075A569358794B6D616FC9EC69FD8D60B94864A0DB4B571FA773D7AD3CDDF0002EF13A58C1311E53C67E06B
310
857D990FCED42E571B7EA11CC538278CE2084574C3300307C1D6D2410D31225B84282430935ED4F2EABA42605FCEA52E2D77451489FC356632D302C8479273A919FD87B083F6F5D34027B0B6A0493E56C6E6AF1988984C6DB958FECFF7D43F4B20D12EC27B881630536CF2BD165E0BC105ABA531FB7CB779590B7EE83E3C63
310
6946582E224F26B3CA3BEDC15A6841F0F500A5C4B5E9BB032ADF01FA2F807CA50B9A82E7187D19BC0CB4ED0C277C97B218BC831C643AF0C341E2E3D1A7A95D3D3C43A8C195A73085B4FD499836CC689C5D8374367D82A04F99AF8C5B87388298BEA789C873081414A5B0047CBFDBBC18B31590292CC2533802EBE17B6A8B8F
310
087E9572806F5A1EEAA2DF1E8ED209D3CEB383AF3E41CC301A56AE6AD8780ADFE14FC177BE5C7F5E176C874372AF127B497634A13914D36E851AA03752FEC7EA8BCCC8237B1ABB4238679F0AE2E8F0CB5AF90549C7802AA20E97AE912BF714D23D8A7042D282ABF52EA20AD32865C1E6352873B8F3AC3F75109487417E8B08
310
E82433A8EE21A39900C59829F32A26B40E38091E5401B82F9D1A6C70F828E00D4260ACF7E801518B595B681167018ED32211F47D1CDE6DD32CDF915FAE3BF19C89379E8CB4B15C8AD7D9A3A9A1525E9C13E3ECC4218B86B7146B68C9651E0D802DBB2C08A1672AF220CD7048F3EE586819A13214C03EABF296EE76050752EF
310
84A5A5B1E5BB43E4D47E56879CD75E1D12D018EF49B0C3A2C2759ED700A812AE2DE844661FA59CD38470D9A11C31570B15C7022228E3564BED0842CA8398E4F83DF1274B5E2BFC18D94501F452B9E8662F479F565055CF531245E7962681B4FF35E038CEA2B24BBB8481EBB54EE8C455282D8E7882780B701E385B229BEE4B
310
D22B5ED0F8F6923E79B7F813F030FCCBE1D1475068BDA1465EF6AC6B0DDD89F81A03A98C86AE7FA51D71092B7D542E7A90A880AE297C0D9E09DD3FF423B45EE77012ED021A45451C94F5202731B460382F58AF7C1D0D9D23E72B5E682544EDA41D8DA041EE4D9AB2F7D0DD0758259B8F53A4593B068CA209DCD17A19726445
310
67084B5FC8FBA8B8765DF6FEDBA5FE67BEACDF531EC9EB73CAB69D9A36DB08DD81E98641D0A5AA70551C49C9B3693DF9627971B98CC3400B51FC56DE12548430F244C56042DE803AEF0FFC19E72110E95AFE366F2023B6647BE8291AE2D498C398C1A15A9AEE53EB371D203B513E1A8DD74A106A0CD3062C78F65E7C88BE63
310
7035747EDC565D8D5DAEAF4461B360B072D0E38CACAF9FD62D29B0D2FBE96F0223F2DC92A05617A2913B23EAC7EAD0AFB624288B7EACCE3C9E3F14F126C15454461116789B7DF828EF92D7365C146C7F39BC1A0C2637E668B8BC32074BE7D61C2F6F17E6D564E4DDCCE7E3A1E7CC6D46785AB09070DBB39D40F74E59B2D781
310
5142D7E746015385CB573F1DCF6D07FF8F6F1451BAC1A762F177BD5054ED9E68C85AB9D8F742D149D49BB775FFEE11517717B13775CEE5AC4007F8F9B20564A4EB7DFFD6428BD69D44B7CEB58AF8C6C27BF2B6F2CB6B4C83D03BEB43634717E537B918664F1D554ADF6E25AF79579E3FF147BEE92D960373309E0CCCF9D8BF
310
319DE162391CBBCBB9E7CD2BC4552DEC5B577E0B0ED5CAD6C668300DE6694461284FB6684F52B801C1D4A107BFB2987079B38106409571FD46A0C7D34FE54C35C79B483F1D3E60184C47AA2217210C45E1D6716DA875F4078C41C524520EA7AC47283C2ADA0D54307A6D4008E414EA8BB58171961C1E4AE9AD7125B80D277B
310
71672A9FAAFE3E3C26D0815839D855EDE9838BB2AC119D301CC8E47B02603BDD90BCDF74AD0EC2397CDC147965CC61E1608D0241BF10288D83A9DFA382F70588E7BC5DAE25F73420E935993F1B07A55433C76C2FC7EB35BCE7CB6FB6988CAFBEA22C2AF6C29DE7EA7D439229FA8CA828875053080C656686C53D7CF1C1FEC6
310
5278C514A33B0A41602FD2384E13F5C75CBDA242EB0778E1B4B5F5B00F5A16C71DDAB2E351037D98587162E12D7F8405702AA3622A5A82DB707D454C35D76B5F082FC0638DFDAB2552F45F6B5EEB4DAB00464EF311A490788B2312A6BEA1367A842C00ADCA096DF5412F4C6D06E3EFD9BF504B03041400060808005A678C49
310
EE8AA8F03D01000046050000300000006662782F35354532304544462D374130422D344333392D383934382D4235383631443742383633392F636E782E786D6CCD94C16A032110865F65F11ECD2EA484E01AE8A14FD043E9CD75275B1B57171D4BF3F6D5D44D5B4A4A0F81043CC8F80BFF37F3337CFB3E9AEA0D7CD0CEB6A4
310
A64B528155AED7766849C4DD624DAAADE0DE39FC2623959523B4249789E08377712AA51E76329A5C35DAEE4B51227ADD4584402A6564082D09EA0546496544D743D8D35EA2A435F5105CF40AD27FD42394FFCA8344E8896896F5DDA26ED279AC9BCD6ABD5935CF9C65A5E09D73A6E8B545F06EAA944B179BCC2C39CBCF8247
310
AF8B261310F1E58C76DA7296DE050FC9AD1D8A0E0F53D64D93D14A626A13730A0117490472E4EC532C38CBBC3FA81FEE9F660755AF3D2874FE70A506D4E71A7032465312FEC77F14FE8DEDBAD7847BAD699F852DB62E863AA735A4B8FE9E7F4A91B483B9BDD09F8C5D3EF36995A056B7873CFBBA10313BAEBC34F4BC01C507
310
504B03041400060808005A678C4978BC5F1D7F000000A30000000B0000006662782F636E782E786D6C4D8CD10E822018465F85FDF714A6286C808BB4F77089CE89D0485A8F1F342FBAFAB6B3EF1CD17E368BDE26BC16EF24142702C8B8871F17374B88FB8419A05689E0FDFE7703E486CD48C8189498838FCF038D661AA2CD
310
D42E6E3D20A5FD85F4DD1D3757A271752B3966BC62585356175DA3595DF2649CB392E6D74B9BF3EA0B504B03041400060808005A678C49A6D797065F0000008200000007000000636E782E786D6C4DCB3B0E80201045D1AD90E9FD7516806B51190811670C8A61F982B1B0BAC9C97B72CA7B1037C6D3332918DA1E04D2CAC6
310
9353902EDB8C20262D23F3F59B81A079470595414B17391D1F19B4730A5583A7ED43BBE4025D9592775E5ADFFA01504B03041400060808005A678C494FEB6A7CA0000000F4000000130000005B436F6E74656E745F54797065735D2E786D6C7D8F4B0EC2300C44AF1279DFA6B0400835ED02B8011730C16D239A8F121795DB
310
93D02D6269CFBC19BBED573B8B17C564BC53B0AB1B10E4B47F18372A5878A88E20FAAEBDBD032591BD2E299898C349CAA427B2986A1FC86565F0D122E7318E32A07EE24872DF3407A9BD63725C71C980AEBDD080CBCCE2BAE6F5D69B7110E7CD57AA146008B3D1C8F92C5954F993BB1BF787F39A89ABC491D09600F9FDA2FB
310
00504B03041400060808005A678C493DEE336E64000000790000001B0000006175746F6465736B2D64657369676E2D7061636B6167652E786D6C35CBC10E83200C00D05F21DCA56CA76D41FC96062B120735B69A7DBE268BB7777961F8D5AF396893C2ADB70FE7ADA196782C2DF776D7A97B5933C430F15651E5469C55D70F
310
80A4992A3ADC954792C525AE70A1E4D6AD9816CC044FEFDF01FE3FDE907802504B03041400060808005A678C49B78CD8DCF9000000960100003B0000006662782F35354532304544462D374130422D344333392D383934382D4235383631443742383633392F7265736F75726365732F636F72652E786D6C8550CB6AC33010
310
FC15B3773FA4DAA91D6405C7345FD0536F42DE3822B164F428FDFC4AB10BEDA92058313B33BB3BECF4B53CB24FB44E19DD03292AC8504B33293DF710FC356F213B71668DF1BF689069B1600F0906CE666BC2BA43D2688F3AA1DA4CB883C239F490C947FCF4E0E40D175188E023C3DD8B55C8BB98B120C5C6E32C0435ED5235
310
453775556881B7A43E5FC6B1CAC9D0D0BC7E1DEA7C78EBC6FC508D5D73E948339E5B562631675E2D3FD3A545E171024E2B72C8098DEF9DD063D31E1BFAC1CAC4E4CC791B6FDE87A6EB805B742658898E955BF78F6B58A7FF5D83D2FE85EEAE9BC2012771C96783B332A514CB33C25853A2FC1B504B03041400060808005A67
310
8C49CC135789F3000000B1010000310000006662782F35354532304544462D374130422D344333392D383934382D4235383631443742383633392F636F72652E786D6C8D504B6EC32014BC8AF5F6D806C78E1361A2BA494FD0557708888B1283C5A7EAF10BB12BB5BB48480F0D33CCBCA1A7EFF95E7C29E7B53503E0B28642
310
1961A536D300315C510FC58951676DF84383C2F0590D9061607472362E1B24AC09CA64D458A936907BAF0214E29E2E0378F1A9665EF21812C3DFCA858B1B9F5489CB95C768D0F3AF5438C58392C0488D3B84493AEF981CDBFED8920F5A6526A3316AB9596999DCF5552B07AC6D2FA4BE9CDFD0FEA51ED1EEB539A0FEB0EBD1
310
D8F61D3EEFC7BE6B0EB4CA62467D7069E7ED93BCDDB3F255F82F735CE41399B5090DD90C57850786539EC703A3552E308D47BB69E6B2D90F504B03041400060808005A678C49AB91223A53010000DD0200000C0000006662782F636F72652E786D6C8D52CB6E833010FC15E43B0F534893C8384A50F3053DF5E618875A011B
310
191BE5F3BBE621CAA10F81B035BB33BB33829C9E6D130CC2F452AB02E1284181505C5752D50572F61EEE5170A2C4686DBFB5A140B15614C8C38892DA68D7CD10D7CA0AE551A52B3183ACEF8545016FE052A09E7F8A9645CC59E8E81F51C7F883D522C2D1D4478973B29AA9B202357997C220BAC7D9E55A964988CF791A66AF
310
E72C3CBF1DCA70979487FC7AC07979D993D89329B1B25DA67323981515A2698277214EE17DC7E931DF1FF3F483C4BE9392DE1AF03C0FF5EE10BDDF9E249EF08D9EEBAABFF59C54F6259DF526468F2886F5C60225B1CF078E31BC6D863018F2B3ECD62C161E000D825B6D32A854DAADA581354E8074128C0F89A72A288F023F
310
E9A4BFE8FCAE01413155C36ACCC2F5E6AC9FBEDDA913261CEC3350DAB4AC59979B565CBFEBA08DA585CE75A3CD7FD88BD525CCD8FF98F40B504B03041400060808005A678C49453E70B008010000B201000008000000636F72652E786D6C8D50D16E842010FC15B2EFA858BDEA05B978A6F7057DEA1B15CE9253300297F6EF
310
0B274DDAB726244B66667766979E3E9719DDE56695D11D90AC0024F56884D25307DE5D7103E8C4E8668CFB2503A4F9223B8830303A6DC6AF091A8D765247541B2113C8AD950ED038874F0776FC900BCFB87741616FD9CAC71B9F6446B25DC7A853CB4FEBB849EEA4005616E4804919DE2B298F7573ACCB379A4725A3DE2B91
310
AC9408EEEAAAE406AC21D5F9320C05267D5DE2EAB9AF70FFD20EF8500C6D7D69493D9C1B9AC76646ADDBC2CE6948C8E990E5F7E84BF39D62F4DD9839094228818C9EBF8015348FC49FD07E15FF08ADB47B2AD3C0BDC3022321D08308C6F182A13CCE1B6ABC36FB06504B010214001400060808005A678C4900000000000000
310
00000000003700000000000000000000000000000000006662782F35354532304544462D374130422D344333392D383934382D4235383631443742383633392F617474726962757465732E62696E504B010214001400060808005A678C49000000000000000000000000350000000000000000000000000055000000666278
310
2F35354532304544462D374130422D344333392D383934382D4235383631443742383633392F76657274696365732E62696E504B010214001400060808005A678C49F270F13306000000040000003600000000000000000000000000A80000006662782F35354532304544462D374130422D344333392D383934382D423538
310
3631443742383633392F747269616E676C65732E62696E504B010214001400060808005A678C4951464CB489000000430100003600000000000000000000000000020100006662782F35354532304544462D374130422D344333392D383934382D4235383631443742383633392F6469726563746F72792E786D6C504B0102
310
14001400060808005A678C49A2E2C14B2E0700001A1C00003400000000000000000000000000DF0100006662782F35354532304544462D374130422D344333392D383934382D4235383631443742383633392F6F626A656374732E786D6C504B010214001400060808005A678C49EE8AA8F03D010000460500003000000000
310
0000000000000000005F0900006662782F35354532304544462D374130422D344333392D383934382D4235383631443742383633392F636E782E786D6C504B010214001400060808005A678C4978BC5F1D7F000000A30000000B00000000000000000000000000EA0A00006662782F636E782E786D6C504B01021400140006
310
0808005A678C49A6D797065F000000820000000700000000000000000000000000920B0000636E782E786D6C504B010214001400060808005A678C494FEB6A7CA0000000F40000001300000000000000000000000000160C00005B436F6E74656E745F54797065735D2E786D6C504B010214001400060808005A678C493DEE
310
336E64000000790000001B00000000000000000000000000E70C00006175746F6465736B2D64657369676E2D7061636B6167652E786D6C504B010214001400060808005A678C49B78CD8DCF9000000960100003B00000000000000000000000000840D00006662782F35354532304544462D374130422D344333392D383934
310
382D4235383631443742383633392F7265736F75726365732F636F72652E786D6C504B010214001400060808005A678C49CC135789F3000000B10100003100000000000000000000000000D60E00006662782F35354532304544462D374130422D344333392D383934382D4235383631443742383633392F636F72652E786D
310
6C504B010214001400060808005A678C49AB91223A53010000DD0200000C00000000000000000000000000181000006662782F636F72652E786D6C504B010214001400060808005A678C49453E70B008010000B2010000080000000000000000000000000095110000636F72652E786D6C504B0506000000000E000E008004
310
0000C31200000000
  0
XRECORD
  5
7F38
102
{ACAD_REACTORS
330
7F33
102
}
330
7F33
100
AcDbXrecord
280
     1
270
     1
271
     1
  0
XRECORD
  5
7F37
102
{ACAD_REACTORS
330
7F33
102
}
330
7F33
100
AcDbXrecord
280
     1
270
     1
271
     1
  0
XRECORD
  5
7F39
102
{ACAD_REACTORS
330
7F33
102
}
330
7F33
100
AcDbXrecord
280
     1
270
     1
271
     1
  0
XRECORD
  5
7F36
102
{ACAD_REACTORS
330
7F33
102
}
330
7F33
100
AcDbXrecord
280
     1
270
     1
271
     1
  0
XRECORD
  5
801C
102
{ACAD_REACTORS
330
801B
102
}
330
801B
100
AcDbXrecord
280
     1
102
ACAD_ROUNDTRIP_2012_MLEADER_STYLE
298
     1
  0
XRECORD
  5
801D
102
{ACAD_REACTORS
330
7F8B
102
}
330
7F8B
100
AcDbXrecord
280
     1
102
DISPLAYNAME
  1
Metric50
102
FLAGS
 90
        0
  0
CELLSTYLEMAP
  5
7FD7
102
{ACAD_REACTORS
330
7FD6
102
}
330
7FD6
100
AcDbCellStyleMap
 90
        3
300
CELLSTYLE
  1
TABLEFORMAT_BEGIN
 90
        5
170
     1
 91
        0
 92
    32768
 62
   257
 93
        1
300
CONTENTFORMAT
  1
CONTENTFORMAT_BEGIN
 90
        0
 91
        0
 92
      512
 93
        0
300

 40
0.0
140
1.0
 94
        5
 62
     0
340
10
144
6.0
309
CONTENTFORMAT_END
171
     1
301
MARGIN
  1
CELLMARGIN_BEGIN
 40
1.5
 40
1.5
 40
1.5
 40
1.5
 40
4.5
 40
4.5
309
CELLMARGIN_END
 94
        6
 95
        1
302
GRIDFORMAT
  1
GRIDFORMAT_BEGIN
 90
        0
 91
        1
 62
     0
 92
       -2
340
0
 93
        0
 40
1.125
309
GRIDFORMAT_END
 95
        2
302
GRIDFORMAT
  1
GRIDFORMAT_BEGIN
 90
        0
 91
        1
 62
     0
 92
       -2
340
0
 93
        0
 40
1.125
309
GRIDFORMAT_END
 95
        4
302
GRIDFORMAT
  1
GRIDFORMAT_BEGIN
 90
        0
 91
        1
 62
     0
 92
       -2
340
0
 93
        0
 40
1.125
309
GRIDFORMAT_END
 95
        8
302
GRIDFORMAT
  1
GRIDFORMAT_BEGIN
 90
        0
 91
        1
 62
     0
 92
       -2
340
0
 93
        0
 40
1.125
309
GRIDFORMAT_END
 95
       16
302
GRIDFORMAT
  1
GRIDFORMAT_BEGIN
 90
        0
 91
        1
 62
     0
 92
       -2
340
0
 93
        0
 40
1.125
309
GRIDFORMAT_END
 95
       32
302
GRIDFORMAT
  1
GRIDFORMAT_BEGIN
 90
        0
 91
        1
 62
     0
 92
       -2
340
0
 93
        0
 40
1.125
309
GRIDFORMAT_END
309
TABLEFORMAT_END
  1
CELLSTYLE_BEGIN
 90
        1
 91
        1
300
_TITLE
309
CELLSTYLE_END
300
CELLSTYLE
  1
TABLEFORMAT_BEGIN
 90
        5
170
     1
 91
        0
 92
        0
 62
   257
 93
        1
300
CONTENTFORMAT
  1
CONTENTFORMAT_BEGIN
 90
        0
 91
        0
 92
      512
 93
        0
300

 40
0.0
140
1.0
 94
        5
 62
     0
340
10
144
4.5
309
CONTENTFORMAT_END
171
     1
301
MARGIN
  1
CELLMARGIN_BEGIN
 40
1.5
 40
1.5
 40
1.5
 40
1.5
 40
4.5
 40
4.5
309
CELLMARGIN_END
 94
        6
 95
        1
302
GRIDFORMAT
  1
GRIDFORMAT_BEGIN
 90
        0
 91
        1
 62
     0
 92
       -2
340
0
 93
        0
 40
1.125
309
GRIDFORMAT_END
 95
        2
302
GRIDFORMAT
  1
GRIDFORMAT_BEGIN
 90
        0
 91
        1
 62
     0
 92
       -2
340
0
 93
        0
 40
1.125
309
GRIDFORMAT_END
 95
        4
302
GRIDFORMAT
  1
GRIDFORMAT_BEGIN
 90
        0
 91
        1
 62
     0
 92
       -2
340
0
 93
        0
 40
1.125
309
GRIDFORMAT_END
 95
        8
302
GRIDFORMAT
  1
GRIDFORMAT_BEGIN
 90
        0
 91
        1
 62
     0
 92
       -2
340
0
 93
        0
 40
1.125
309
GRIDFORMAT_END
 95
       16
302
GRIDFORMAT
  1
GRIDFORMAT_BEGIN
 90
        0
 91
        1
 62
     0
 92
       -2
340
0
 93
        0
 40
1.125
309
GRIDFORMAT_END
 95
       32
302
GRIDFORMAT
  1
GRIDFORMAT_BEGIN
 90
        0
 91
        1
 62
     0
 92
       -2
340
0
 93
        0
 40
1.125
309
GRIDFORMAT_END
309
TABLEFORMAT_END
  1
CELLSTYLE_BEGIN
 90
        2
 91
        1
300
_HEADER
309
CELLSTYLE_END
300
CELLSTYLE
  1
TABLEFORMAT_BEGIN
 90
        5
170
     1
 91
        0
 92
        0
 62
   257
 93
        1
300
CONTENTFORMAT
  1
CONTENTFORMAT_BEGIN
 90
        0
 91
        0
 92
      512
 93
        0
300

 40
0.0
140
1.0
 94
        2
 62
     0
340
10
144
4.5
309
CONTENTFORMAT_END
171
     1
301
MARGIN
  1
CELLMARGIN_BEGIN
 40
1.5
 40
1.5
 40
1.5
 40
1.5
 40
4.5
 40
4.5
309
CELLMARGIN_END
 94
        6
 95
        1
302
GRIDFORMAT
  1
GRIDFORMAT_BEGIN
 90
        0
 91
        1
 62
     0
 92
       -2
340
0
 93
        0
 40
1.125
309
GRIDFORMAT_END
 95
        2
302
GRIDFORMAT
  1
GRIDFORMAT_BEGIN
 90
        0
 91
        1
 62
     0
 92
       -2
340
0
 93
        0
 40
1.125
309
GRIDFORMAT_END
 95
        4
302
GRIDFORMAT
  1
GRIDFORMAT_BEGIN
 90
        0
 91
        1
 62
     0
 92
       -2
340
0
 93
        0
 40
1.125
309
GRIDFORMAT_END
 95
        8
302
GRIDFORMAT
  1
GRIDFORMAT_BEGIN
 90
        0
 91
        1
 62
     0
 92
       -2
340
0
 93
        0
 40
1.125
309
GRIDFORMAT_END
 95
       16
302
GRIDFORMAT
  1
GRIDFORMAT_BEGIN
 90
        0
 91
        1
 62
     0
 92
       -2
340
0
 93
        0
 40
1.125
309
GRIDFORMAT_END
 95
       32
302
GRIDFORMAT
  1
GRIDFORMAT_BEGIN
 90
        0
 91
        1
 62
     0
 92
       -2
340
0
 93
        0
 40
1.125
309
GRIDFORMAT_END
309
TABLEFORMAT_END
  1
CELLSTYLE_BEGIN
 90
        3
 91
        2
300
_DATA
309
CELLSTYLE_END
  0
XRECORD
  5
8019
102
{ACAD_REACTORS
330
7FD6
102
}
330
7FD6
100
AcDbXrecord
280
     1
102
ACAD_ROUNDTRIP_PRE2007_TABLESTYLE
 90
      512
 91
        0
  1

 92
      512
 93
        0
  2

 94
      512
 95
        0
  3

  0
XRECORD
  5
7FF4
102
{ACAD_REACTORS
330
7FF3
102
}
330
7FF3
100
AcDbXrecord
280
     1
102
RTVSPost2010Prop28
280
     1
102
RTVSPost2010PropOp28
 70
     1
102
RTVSPost2010Prop29
280
     1
102
RTVSPost2010PropOp29
 70
     1
102
RTVSPost2010Prop30
280
     0
102
RTVSPost2010PropOp30
 70
     1
102
RTVSPost2010Prop31
280
     0
102
RTVSPost2010PropOp31
 70
     1
102
RTVSPost2010Prop32
280
     0
102
RTVSPost2010PropOp32
 70
     1
102
RTVSPost2010Prop33
280
     0
102
RTVSPost2010PropOp33
 70
     1
102
RTVSPost2010Prop34
280
     0
102
RTVSPost2010PropOp34
 70
     1
102
RTVSPost2010Prop35
280
     0
102
RTVSPost2010PropOp35
 70
     1
102
RTVSPost2010Prop36
280
     0
102
RTVSPost2010PropOp36
 70
     1
102
RTVSPost2010Prop37
 90
       50
102
RTVSPost2010PropOp37
 70
     1
102
RTVSPost2010Prop38
140
0.0
102
RTVSPost2010PropOp38
 70
     1
102
RTVSPost2010Prop39
140
1.0
102
RTVSPost2010PropOp39
 70
     1
102
RTVSPost2010Prop40
 90
        0
102
RTVSPost2010PropOp40
 70
     1
102
RTVSPost2010Prop41ColorIndex
 90
       18
102
RTVSPost2010Prop41ColorRGB
 90
        0
102
RTVSPost2010PropOp41
 70
     1
102
RTVSPost2010Prop42
 90
       50
102
RTVSPost2010PropOp42
 70
     1
102
RTVSPost2010Prop43
 90
        3
102
RTVSPost2010PropOp43
 70
     1
102
RTVSPost2010Prop44ColorIndex
 90
        5
102
RTVSPost2010Prop44ColorRGB
 90
      255
102
RTVSPost2010PropOp44
 70
     1
102
RTVSPost2010Prop45
280
     0
102
RTVSPost2010PropOp45
 70
     1
102
RTVSPost2010Prop46
 90
       50
102
RTVSPost2010PropOp46
 70
     1
102
RTVSPost2010Prop47
 90
       50
102
RTVSPost2010PropOp47
 70
     1
102
RTVSPost2010Prop48
 90
       50
102
RTVSPost2010PropOp48
 70
     1
102
RTVSPost2010Prop49
280
     0
102
RTVSPost2010PropOp49
 70
     1
102
RTVSPost2010Prop50
 90
       50
102
RTVSPost2010PropOp50
 70
     1
102
RTVSPost2010Prop51ColorIndex
 90
      256
102
RTVSPost2010Prop51ColorRGB
 90
-16777216
102
RTVSPost2010PropOp51
 70
     0
102
RTVSPost2010Prop52
140
1.0
102
RTVSPost2010PropOp52
 70
     0
102
RTVSPost2010Prop53
 90
        2
102
RTVSPost2010PropOp53
 70
     1
102
RTVSPost2010Prop54
  1
strokes_ogs.tif
102
RTVSPost2010PropOp54
 70
     1
102
RTVSPost2010Prop55
280
     0
102
RTVSPost2010PropOp55
 70
     1
102
RTVSPost2010Prop56
140
1.0
102
RTVSPost2010PropOp56
 70
     1
102
RTVSPost2010Prop57
140
1.0
102
RTVSPost2010PropOp57
 70
     1
102
RTVSPropertyOp0
 70
     1
102
RTVSPropertyOp1
 70
     1
102
RTVSPropertyOp2
 70
     1
102
RTVSPropertyOp3
 70
     1
102
RTVSPropertyOp4
 70
     1
102
RTVSPropertyOp5
 70
     1
102
RTVSPropertyOp6
 70
     1
102
RTVSPropertyOp7
 70
     1
102
RTVSPropertyOp8
 70
     1
102
RTVSPropertyOp9
 70
     1
102
RTVSPropertyOp10
 70
     1
102
RTVSPropertyOp11
 70
     1
102
RTVSPropertyOp12
 70
     1
102
RTVSPropertyOp13
 70
     1
102
RTVSPropertyOp14
 70
     1
102
RTVSPropertyOp15
 70
     1
102
RTVSPropertyOp16
 70
     1
102
RTVSPropertyOp17
 70
     1
102
RTVSPropertyOp18
 70
     1
102
RTVSPropertyOp19
 70
     1
102
RTVSPropertyOp20
 70
     1
102
RTVSPropertyOp21
 70
     1
102
RTVSPropertyOp22
 70
     1
102
RTVSPropertyOp23
 70
     1
102
RTVSPropertyOp24
 70
     1
102
RTVSPropertyOp25
 70
     1
102
RTVSPropertyOp26
 70
     1
102
RTVSPropertyOp27
 70
     1
102
RTVSPropertyOp28
 70
     1
102
RTVSPropertyOp29
 70
     1
102
RTVSPropertyOp30
 70
     1
102
RTVSPropertyOp31
 70
     1
102
RTVSPropertyOp32
 70
     1
102
RTVSPropertyOp33
 70
     1
102
RTVSPropertyOp34
 70
     1
102
RTVSPropertyOp35
 70
     1
102
RTVSPropertyOp36
 70
     1
102
RTVSPropertyOp37
 70
     1
102
RTVSPropertyOp38
 70
     1
102
RTVSPropertyOp39
 70
     1
102
RTVSPropertyOp40
 70
     1
102
RTVSPropertyOp41
 70
     1
102
RTVSPropertyOp42
 70
     1
102
RTVSPropertyOp43
 70
     1
102
RTVSPropertyOp44
 70
     1
102
RTVSPropertyOp45
 70
     1
102
RTVSPropertyOp46
 70
     1
102
RTVSPropertyOp47
 70
     1
102
RTVSPropertyOp48
 70
     1
102
RTVSPropertyOp49
 70
     1
102
RTVSPropertyOp50
 70
     1
102
RTVSPropertyOp51
 70
     0
102
RTVSPropertyOp52
 70
     0
102
RTVSPropertyOp53
 70
     1
102
RTVSPropertyOp54
 70
     1
102
RTVSPropertyOp55
 70
     1
102
RTVSPropertyOp56
 70
     1
102
RTVSPropertyOp57
 70
     1
102
RTVSPropertyOp58
 70
     1
102
RTVSPropertyOp59
 70
     1
102
RTVSPropertyOp60
 70
     1
102
RTVSPropertyOp61
 70
     1
102
RTVSPropertyOp62
 70
     1
  0
XRECORD
  5
7FF2
102
{ACAD_REACTORS
330
7FF1
102
}
330
7FF1
100
AcDbXrecord
280
     1
102
RTVSPost2010Prop28
280
     0
102
RTVSPost2010PropOp28
 70
     1
102
RTVSPost2010Prop29
280
     1
102
RTVSPost2010PropOp29
 70
     1
102
RTVSPost2010Prop30
280
     1
102
RTVSPost2010PropOp30
 70
     1
102
RTVSPost2010Prop31
280
     0
102
RTVSPost2010PropOp31
 70
     1
102
RTVSPost2010Prop32
280
     0
102
RTVSPost2010PropOp32
 70
     1
102
RTVSPost2010Prop33
280
     0
102
RTVSPost2010PropOp33
 70
     1
102
RTVSPost2010Prop34
280
     0
102
RTVSPost2010PropOp34
 70
     1
102
RTVSPost2010Prop35
280
     0
102
RTVSPost2010PropOp35
 70
     1
102
RTVSPost2010Prop36
280
     0
102
RTVSPost2010PropOp36
 70
     1
102
RTVSPost2010Prop37
 90
       50
102
RTVSPost2010PropOp37
 70
     1
102
RTVSPost2010Prop38
140
0.0
102
RTVSPost2010PropOp38
 70
     1
102
RTVSPost2010Prop39
140
1.0
102
RTVSPost2010PropOp39
 70
     1
102
RTVSPost2010Prop40
 90
        0
102
RTVSPost2010PropOp40
 70
     1
102
RTVSPost2010Prop41ColorIndex
 90
       18
102
RTVSPost2010Prop41ColorRGB
 90
        0
102
RTVSPost2010PropOp41
 70
     1
102
RTVSPost2010Prop42
 90
       50
102
RTVSPost2010PropOp42
 70
     1
102
RTVSPost2010Prop43
 90
        3
102
RTVSPost2010PropOp43
 70
     1
102
RTVSPost2010Prop44ColorIndex
 90
        5
102
RTVSPost2010Prop44ColorRGB
 90
      255
102
RTVSPost2010PropOp44
 70
     1
102
RTVSPost2010Prop45
280
     0
102
RTVSPost2010PropOp45
 70
     1
102
RTVSPost2010Prop46
 90
       50
102
RTVSPost2010PropOp46
 70
     1
102
RTVSPost2010Prop47
 90
       50
102
RTVSPost2010PropOp47
 70
     1
102
RTVSPost2010Prop48
 90
       50
102
RTVSPost2010PropOp48
 70
     1
102
RTVSPost2010Prop49
280
     0
102
RTVSPost2010PropOp49
 70
     1
102
RTVSPost2010Prop50
 90
       50
102
RTVSPost2010PropOp50
 70
     1
102
RTVSPost2010Prop51ColorIndex
 90
      256
102
RTVSPost2010Prop51ColorRGB
 90
-16777216
102
RTVSPost2010PropOp51
 70
     0
102
RTVSPost2010Prop52
140
1.0
102
RTVSPost2010PropOp52
 70
     0
102
RTVSPost2010Prop53
 90
        2
102
RTVSPost2010PropOp53
 70
     1
102
RTVSPost2010Prop54
  1
strokes_ogs.tif
102
RTVSPost2010PropOp54
 70
     1
102
RTVSPost2010Prop55
280
     0
102
RTVSPost2010PropOp55
 70
     1
102
RTVSPost2010Prop56
140
1.0
102
RTVSPost2010PropOp56
 70
     1
102
RTVSPost2010Prop57
140
1.0
102
RTVSPost2010PropOp57
 70
     1
102
RTVSPropertyOp0
 70
     1
102
RTVSPropertyOp1
 70
     1
102
RTVSPropertyOp2
 70
     1
102
RTVSPropertyOp3
 70
     1
102
RTVSPropertyOp4
 70
     1
102
RTVSPropertyOp5
 70
     1
102
RTVSPropertyOp6
 70
     1
102
RTVSPropertyOp7
 70
     1
102
RTVSPropertyOp8
 70
     1
102
RTVSPropertyOp9
 70
     1
102
RTVSPropertyOp10
 70
     1
102
RTVSPropertyOp11
 70
     1
102
RTVSPropertyOp12
 70
     1
102
RTVSPropertyOp13
 70
     1
102
RTVSPropertyOp14
 70
     1
102
RTVSPropertyOp15
 70
     1
102
RTVSPropertyOp16
 70
     1
102
RTVSPropertyOp17
 70
     1
102
RTVSPropertyOp18
 70
     1
102
RTVSPropertyOp19
 70
     1
102
RTVSPropertyOp20
 70
     1
102
RTVSPropertyOp21
 70
     1
102
RTVSPropertyOp22
 70
     1
102
RTVSPropertyOp23
 70
     1
102
RTVSPropertyOp24
 70
     1
102
RTVSPropertyOp25
 70
     1
102
RTVSPropertyOp26
 70
     1
102
RTVSPropertyOp27
 70
     1
102
RTVSPropertyOp28
 70
     1
102
RTVSPropertyOp29
 70
     1
102
RTVSPropertyOp30
 70
     1
102
RTVSPropertyOp31
 70
     1
102
RTVSPropertyOp32
 70
     1
102
RTVSPropertyOp33
 70
     1
102
RTVSPropertyOp34
 70
     1
102
RTVSPropertyOp35
 70
     1
102
RTVSPropertyOp36
 70
     1
102
RTVSPropertyOp37
 70
     1
102
RTVSPropertyOp38
 70
     1
102
RTVSPropertyOp39
 70
     1
102
RTVSPropertyOp40
 70
     1
102
RTVSPropertyOp41
 70
     1
102
RTVSPropertyOp42
 70
     1
102
RTVSPropertyOp43
 70
     1
102
RTVSPropertyOp44
 70
     1
102
RTVSPropertyOp45
 70
     1
102
RTVSPropertyOp46
 70
     1
102
RTVSPropertyOp47
 70
     1
102
RTVSPropertyOp48
 70
     1
102
RTVSPropertyOp49
 70
     1
102
RTVSPropertyOp50
 70
     1
102
RTVSPropertyOp51
 70
     0
102
RTVSPropertyOp52
 70
     0
102
RTVSPropertyOp53
 70
     1
102
RTVSPropertyOp54
 70
     1
102
RTVSPropertyOp55
 70
     1
102
RTVSPropertyOp56
 70
     1
102
RTVSPropertyOp57
 70
     1
102
RTVSPropertyOp58
 70
     1
102
RTVSPropertyOp59
 70
     1
102
RTVSPropertyOp60
 70
     1
102
RTVSPropertyOp61
 70
     1
102
RTVSPropertyOp62
 70
     1
  0
XRECORD
  5
8000
102
{ACAD_REACTORS
330
7FFF
102
}
330
7FFF
100
AcDbXrecord
280
     1
102
RTVSPost2010Prop28
280
     0
102
RTVSPost2010PropOp28
 70
     1
102
RTVSPost2010Prop29
280
     1
102
RTVSPost2010PropOp29
 70
     1
102
RTVSPost2010Prop30
280
     1
102
RTVSPost2010PropOp30
 70
     1
102
RTVSPost2010Prop31
280
     0
102
RTVSPost2010PropOp31
 70
     1
102
RTVSPost2010Prop32
280
     0
102
RTVSPost2010PropOp32
 70
     1
102
RTVSPost2010Prop33
280
     0
102
RTVSPost2010PropOp33
 70
     1
102
RTVSPost2010Prop34
280
     0
102
RTVSPost2010PropOp34
 70
     1
102
RTVSPost2010Prop35
280
     0
102
RTVSPost2010PropOp35
 70
     1
102
RTVSPost2010Prop36
280
     0
102
RTVSPost2010PropOp36
 70
     1
102
RTVSPost2010Prop37
 90
       50
102
RTVSPost2010PropOp37
 70
     1
102
RTVSPost2010Prop38
140
0.0
102
RTVSPost2010PropOp38
 70
     1
102
RTVSPost2010Prop39
140
1.0
102
RTVSPost2010PropOp39
 70
     1
102
RTVSPost2010Prop40
 90
        0
102
RTVSPost2010PropOp40
 70
     1
102
RTVSPost2010Prop41ColorIndex
 90
       18
102
RTVSPost2010Prop41ColorRGB
 90
        0
102
RTVSPost2010PropOp41
 70
     1
102
RTVSPost2010Prop42
 90
       50
102
RTVSPost2010PropOp42
 70
     1
102
RTVSPost2010Prop43
 90
        3
102
RTVSPost2010PropOp43
 70
     1
102
RTVSPost2010Prop44ColorIndex
 90
        5
102
RTVSPost2010Prop44ColorRGB
 90
      255
102
RTVSPost2010PropOp44
 70
     1
102
RTVSPost2010Prop45
280
     0
102
RTVSPost2010PropOp45
 70
     1
102
RTVSPost2010Prop46
 90
       50
102
RTVSPost2010PropOp46
 70
     1
102
RTVSPost2010Prop47
 90
       50
102
RTVSPost2010PropOp47
 70
     1
102
RTVSPost2010Prop48
 90
       50
102
RTVSPost2010PropOp48
 70
     1
102
RTVSPost2010Prop49
280
     0
102
RTVSPost2010PropOp49
 70
     1
102
RTVSPost2010Prop50
 90
       50
102
RTVSPost2010PropOp50
 70
     1
102
RTVSPost2010Prop51ColorIndex
 90
      256
102
RTVSPost2010Prop51ColorRGB
 90
-16777216
102
RTVSPost2010PropOp51
 70
     0
102
RTVSPost2010Prop52
140
1.0
102
RTVSPost2010PropOp52
 70
     0
102
RTVSPost2010Prop53
 90
        2
102
RTVSPost2010PropOp53
 70
     1
102
RTVSPost2010Prop54
  1
strokes_ogs.tif
102
RTVSPost2010PropOp54
 70
     1
102
RTVSPost2010Prop55
280
     0
102
RTVSPost2010PropOp55
 70
     1
102
RTVSPost2010Prop56
140
1.0
102
RTVSPost2010PropOp56
 70
     1
102
RTVSPost2010Prop57
140
1.0
102
RTVSPost2010PropOp57
 70
     1
102
RTVSPropertyOp0
 70
     1
102
RTVSPropertyOp1
 70
     1
102
RTVSPropertyOp2
 70
     1
102
RTVSPropertyOp3
 70
     1
102
RTVSPropertyOp4
 70
     1
102
RTVSPropertyOp5
 70
     1
102
RTVSPropertyOp6
 70
     1
102
RTVSPropertyOp7
 70
     1
102
RTVSPropertyOp8
 70
     1
102
RTVSPropertyOp9
 70
     1
102
RTVSPropertyOp10
 70
     1
102
RTVSPropertyOp11
 70
     1
102
RTVSPropertyOp12
 70
     1
102
RTVSPropertyOp13
 70
     1
102
RTVSPropertyOp14
 70
     1
102
RTVSPropertyOp15
 70
     1
102
RTVSPropertyOp16
 70
     1
102
RTVSPropertyOp17
 70
     1
102
RTVSPropertyOp18
 70
     1
102
RTVSPropertyOp19
 70
     1
102
RTVSPropertyOp20
 70
     1
102
RTVSPropertyOp21
 70
     1
102
RTVSPropertyOp22
 70
     1
102
RTVSPropertyOp23
 70
     1
102
RTVSPropertyOp24
 70
     1
102
RTVSPropertyOp25
 70
     1
102
RTVSPropertyOp26
 70
     1
102
RTVSPropertyOp27
 70
     1
102
RTVSPropertyOp28
 70
     1
102
RTVSPropertyOp29
 70
     1
102
RTVSPropertyOp30
 70
     1
102
RTVSPropertyOp31
 70
     1
102
RTVSPropertyOp32
 70
     1
102
RTVSPropertyOp33
 70
     1
102
RTVSPropertyOp34
 70
     1
102
RTVSPropertyOp35
 70
     1
102
RTVSPropertyOp36
 70
     1
102
RTVSPropertyOp37
 70
     1
102
RTVSPropertyOp38
 70
     1
102
RTVSPropertyOp39
 70
     1
102
RTVSPropertyOp40
 70
     1
102
RTVSPropertyOp41
 70
     1
102
RTVSPropertyOp42
 70
     1
102
RTVSPropertyOp43
 70
     1
102
RTVSPropertyOp44
 70
     1
102
RTVSPropertyOp45
 70
     1
102
RTVSPropertyOp46
 70
     1
102
RTVSPropertyOp47
 70
     1
102
RTVSPropertyOp48
 70
     1
102
RTVSPropertyOp49
 70
     1
102
RTVSPropertyOp50
 70
     1
102
RTVSPropertyOp51
 70
     0
102
RTVSPropertyOp52
 70
     0
102
RTVSPropertyOp53
 70
     1
102
RTVSPropertyOp54
 70
     1
102
RTVSPropertyOp55
 70
     1
102
RTVSPropertyOp56
 70
     1
102
RTVSPropertyOp57
 70
     1
102
RTVSPropertyOp58
 70
     1
102
RTVSPropertyOp59
 70
     1
102
RTVSPropertyOp60
 70
     1
102
RTVSPropertyOp61
 70
     1
102
RTVSPropertyOp62
 70
     1
  0
XRECORD
  5
8008
102
{ACAD_REACTORS
330
8007
102
}
330
8007
100
AcDbXrecord
280
     1
102
RTVSPost2010Prop28
280
     0
102
RTVSPost2010PropOp28
 70
     1
102
RTVSPost2010Prop29
280
     1
102
RTVSPost2010PropOp29
 70
     1
102
RTVSPost2010Prop30
280
     1
102
RTVSPost2010PropOp30
 70
     1
102
RTVSPost2010Prop31
280
     0
102
RTVSPost2010PropOp31
 70
     1
102
RTVSPost2010Prop32
280
     0
102
RTVSPost2010PropOp32
 70
     1
102
RTVSPost2010Prop33
280
     0
102
RTVSPost2010PropOp33
 70
     1
102
RTVSPost2010Prop34
280
     0
102
RTVSPost2010PropOp34
 70
     1
102
RTVSPost2010Prop35
280
     0
102
RTVSPost2010PropOp35
 70
     1
102
RTVSPost2010Prop36
280
     0
102
RTVSPost2010PropOp36
 70
     1
102
RTVSPost2010Prop37
 90
       50
102
RTVSPost2010PropOp37
 70
     1
102
RTVSPost2010Prop38
140
0.0
102
RTVSPost2010PropOp38
 70
     1
102
RTVSPost2010Prop39
140
1.0
102
RTVSPost2010PropOp39
 70
     1
102
RTVSPost2010Prop40
 90
        0
102
RTVSPost2010PropOp40
 70
     1
102
RTVSPost2010Prop41ColorIndex
 90
       18
102
RTVSPost2010Prop41ColorRGB
 90
        0
102
RTVSPost2010PropOp41
 70
     1
102
RTVSPost2010Prop42
 90
       50
102
RTVSPost2010PropOp42
 70
     1
102
RTVSPost2010Prop43
 90
        3
102
RTVSPost2010PropOp43
 70
     1
102
RTVSPost2010Prop44ColorIndex
 90
        5
102
RTVSPost2010Prop44ColorRGB
 90
      255
102
RTVSPost2010PropOp44
 70
     1
102
RTVSPost2010Prop45
280
     0
102
RTVSPost2010PropOp45
 70
     1
102
RTVSPost2010Prop46
 90
       50
102
RTVSPost2010PropOp46
 70
     1
102
RTVSPost2010Prop47
 90
       50
102
RTVSPost2010PropOp47
 70
     1
102
RTVSPost2010Prop48
 90
       50
102
RTVSPost2010PropOp48
 70
     1
102
RTVSPost2010Prop49
280
     0
102
RTVSPost2010PropOp49
 70
     1
102
RTVSPost2010Prop50
 90
       50
102
RTVSPost2010PropOp50
 70
     1
102
RTVSPost2010Prop51ColorIndex
 90
      256
102
RTVSPost2010Prop51ColorRGB
 90
-16777216
102
RTVSPost2010PropOp51
 70
     0
102
RTVSPost2010Prop52
140
1.0
102
RTVSPost2010PropOp52
 70
     0
102
RTVSPost2010Prop53
 90
        2
102
RTVSPost2010PropOp53
 70
     1
102
RTVSPost2010Prop54
  1
strokes_ogs.tif
102
RTVSPost2010PropOp54
 70
     1
102
RTVSPost2010Prop55
280
     0
102
RTVSPost2010PropOp55
 70
     1
102
RTVSPost2010Prop56
140
1.0
102
RTVSPost2010PropOp56
 70
     1
102
RTVSPost2010Prop57
140
1.0
102
RTVSPost2010PropOp57
 70
     1
102
RTVSPropertyOp0
 70
     1
102
RTVSPropertyOp1
 70
     1
102
RTVSPropertyOp2
 70
     1
102
RTVSPropertyOp3
 70
     1
102
RTVSPropertyOp4
 70
     1
102
RTVSPropertyOp5
 70
     1
102
RTVSPropertyOp6
 70
     1
102
RTVSPropertyOp7
 70
     1
102
RTVSPropertyOp8
 70
     1
102
RTVSPropertyOp9
 70
     1
102
RTVSPropertyOp10
 70
     1
102
RTVSPropertyOp11
 70
     1
102
RTVSPropertyOp12
 70
     1
102
RTVSPropertyOp13
 70
     1
102
RTVSPropertyOp14
 70
     1
102
RTVSPropertyOp15
 70
     1
102
RTVSPropertyOp16
 70
     1
102
RTVSPropertyOp17
 70
     1
102
RTVSPropertyOp18
 70
     1
102
RTVSPropertyOp19
 70
     1
102
RTVSPropertyOp20
 70
     1
102
RTVSPropertyOp21
 70
     1
102
RTVSPropertyOp22
 70
     1
102
RTVSPropertyOp23
 70
     1
102
RTVSPropertyOp24
 70
     1
102
RTVSPropertyOp25
 70
     1
102
RTVSPropertyOp26
 70
     1
102
RTVSPropertyOp27
 70
     1
102
RTVSPropertyOp28
 70
     1
102
RTVSPropertyOp29
 70
     1
102
RTVSPropertyOp30
 70
     1
102
RTVSPropertyOp31
 70
     1
102
RTVSPropertyOp32
 70
     1
102
RTVSPropertyOp33
 70
     1
102
RTVSPropertyOp34
 70
     1
102
RTVSPropertyOp35
 70
     1
102
RTVSPropertyOp36
 70
     1
102
RTVSPropertyOp37
 70
     1
102
RTVSPropertyOp38
 70
     1
102
RTVSPropertyOp39
 70
     1
102
RTVSPropertyOp40
 70
     1
102
RTVSPropertyOp41
 70
     1
102
RTVSPropertyOp42
 70
     1
102
RTVSPropertyOp43
 70
     1
102
RTVSPropertyOp44
 70
     1
102
RTVSPropertyOp45
 70
     1
102
RTVSPropertyOp46
 70
     1
102
RTVSPropertyOp47
 70
     1
102
RTVSPropertyOp48
 70
     1
102
RTVSPropertyOp49
 70
     1
102
RTVSPropertyOp50
 70
     1
102
RTVSPropertyOp51
 70
     0
102
RTVSPropertyOp52
 70
     0
102
RTVSPropertyOp53
 70
     1
102
RTVSPropertyOp54
 70
     1
102
RTVSPropertyOp55
 70
     1
102
RTVSPropertyOp56
 70
     1
102
RTVSPropertyOp57
 70
     1
102
RTVSPropertyOp58
 70
     1
102
RTVSPropertyOp59
 70
     1
102
RTVSPropertyOp60
 70
     1
102
RTVSPropertyOp61
 70
     1
102
RTVSPropertyOp62
 70
     1
  0
XRECORD
  5
7FFA
102
{ACAD_REACTORS
330
7FF9
102
}
330
7FF9
100
AcDbXrecord
280
     1
102
RTVSPost2010Prop28
280
     0
102
RTVSPost2010PropOp28
 70
     1
102
RTVSPost2010Prop29
280
     1
102
RTVSPost2010PropOp29
 70
     1
102
RTVSPost2010Prop30
280
     1
102
RTVSPost2010PropOp30
 70
     1
102
RTVSPost2010Prop31
280
     0
102
RTVSPost2010PropOp31
 70
     1
102
RTVSPost2010Prop32
280
     0
102
RTVSPost2010PropOp32
 70
     1
102
RTVSPost2010Prop33
280
     0
102
RTVSPost2010PropOp33
 70
     1
102
RTVSPost2010Prop34
280
     0
102
RTVSPost2010PropOp34
 70
     1
102
RTVSPost2010Prop35
280
     0
102
RTVSPost2010PropOp35
 70
     1
102
RTVSPost2010Prop36
280
     0
102
RTVSPost2010PropOp36
 70
     1
102
RTVSPost2010Prop37
 90
       50
102
RTVSPost2010PropOp37
 70
     1
102
RTVSPost2010Prop38
140
0.0
102
RTVSPost2010PropOp38
 70
     1
102
RTVSPost2010Prop39
140
1.0
102
RTVSPost2010PropOp39
 70
     1
102
RTVSPost2010Prop40
 90
        0
102
RTVSPost2010PropOp40
 70
     1
102
RTVSPost2010Prop41ColorIndex
 90
       18
102
RTVSPost2010Prop41ColorRGB
 90
        0
102
RTVSPost2010PropOp41
 70
     1
102
RTVSPost2010Prop42
 90
       50
102
RTVSPost2010PropOp42
 70
     1
102
RTVSPost2010Prop43
 90
        3
102
RTVSPost2010PropOp43
 70
     1
102
RTVSPost2010Prop44ColorIndex
 90
        5
102
RTVSPost2010Prop44ColorRGB
 90
      255
102
RTVSPost2010PropOp44
 70
     1
102
RTVSPost2010Prop45
280
     0
102
RTVSPost2010PropOp45
 70
     1
102
RTVSPost2010Prop46
 90
       50
102
RTVSPost2010PropOp46
 70
     1
102
RTVSPost2010Prop47
 90
       50
102
RTVSPost2010PropOp47
 70
     1
102
RTVSPost2010Prop48
 90
       50
102
RTVSPost2010PropOp48
 70
     1
102
RTVSPost2010Prop49
280
     0
102
RTVSPost2010PropOp49
 70
     1
102
RTVSPost2010Prop50
 90
       50
102
RTVSPost2010PropOp50
 70
     1
102
RTVSPost2010Prop51ColorIndex
 90
      256
102
RTVSPost2010Prop51ColorRGB
 90
-16777216
102
RTVSPost2010PropOp51
 70
     0
102
RTVSPost2010Prop52
140
1.0
102
RTVSPost2010PropOp52
 70
     0
102
RTVSPost2010Prop53
 90
        2
102
RTVSPost2010PropOp53
 70
     1
102
RTVSPost2010Prop54
  1
strokes_ogs.tif
102
RTVSPost2010PropOp54
 70
     1
102
RTVSPost2010Prop55
280
     0
102
RTVSPost2010PropOp55
 70
     1
102
RTVSPost2010Prop56
140
1.0
102
RTVSPost2010PropOp56
 70
     1
102
RTVSPost2010Prop57
140
1.0
102
RTVSPost2010PropOp57
 70
     1
102
RTVSPropertyOp0
 70
     1
102
RTVSPropertyOp1
 70
     1
102
RTVSPropertyOp2
 70
     1
102
RTVSPropertyOp3
 70
     1
102
RTVSPropertyOp4
 70
     1
102
RTVSPropertyOp5
 70
     1
102
RTVSPropertyOp6
 70
     1
102
RTVSPropertyOp7
 70
     1
102
RTVSPropertyOp8
 70
     1
102
RTVSPropertyOp9
 70
     1
102
RTVSPropertyOp10
 70
     1
102
RTVSPropertyOp11
 70
     1
102
RTVSPropertyOp12
 70
     1
102
RTVSPropertyOp13
 70
     1
102
RTVSPropertyOp14
 70
     1
102
RTVSPropertyOp15
 70
     1
102
RTVSPropertyOp16
 70
     1
102
RTVSPropertyOp17
 70
     1
102
RTVSPropertyOp18
 70
     1
102
RTVSPropertyOp19
 70
     1
102
RTVSPropertyOp20
 70
     1
102
RTVSPropertyOp21
 70
     1
102
RTVSPropertyOp22
 70
     1
102
RTVSPropertyOp23
 70
     1
102
RTVSPropertyOp24
 70
     1
102
RTVSPropertyOp25
 70
     1
102
RTVSPropertyOp26
 70
     1
102
RTVSPropertyOp27
 70
     1
102
RTVSPropertyOp28
 70
     1
102
RTVSPropertyOp29
 70
     1
102
RTVSPropertyOp30
 70
     1
102
RTVSPropertyOp31
 70
     1
102
RTVSPropertyOp32
 70
     1
102
RTVSPropertyOp33
 70
     1
102
RTVSPropertyOp34
 70
     1
102
RTVSPropertyOp35
 70
     1
102
RTVSPropertyOp36
 70
     1
102
RTVSPropertyOp37
 70
     1
102
RTVSPropertyOp38
 70
     1
102
RTVSPropertyOp39
 70
     1
102
RTVSPropertyOp40
 70
     1
102
RTVSPropertyOp41
 70
     1
102
RTVSPropertyOp42
 70
     1
102
RTVSPropertyOp43
 70
     1
102
RTVSPropertyOp44
 70
     1
102
RTVSPropertyOp45
 70
     1
102
RTVSPropertyOp46
 70
     1
102
RTVSPropertyOp47
 70
     1
102
RTVSPropertyOp48
 70
     1
102
RTVSPropertyOp49
 70
     1
102
RTVSPropertyOp50
 70
     1
102
RTVSPropertyOp51
 70
     0
102
RTVSPropertyOp52
 70
     0
102
RTVSPropertyOp53
 70
     1
102
RTVSPropertyOp54
 70
     1
102
RTVSPropertyOp55
 70
     1
102
RTVSPropertyOp56
 70
     1
102
RTVSPropertyOp57
 70
     1
102
RTVSPropertyOp58
 70
     1
102
RTVSPropertyOp59
 70
     1
102
RTVSPropertyOp60
 70
     1
102
RTVSPropertyOp61
 70
     1
102
RTVSPropertyOp62
 70
     1
  0
XRECORD
  5
7FFE
102
{ACAD_REACTORS
330
7FFD
102
}
330
7FFD
100
AcDbXrecord
280
     1
102
RTVSPost2010Prop28
280
     0
102
RTVSPost2010PropOp28
 70
     1
102
RTVSPost2010Prop29
280
     1
102
RTVSPost2010PropOp29
 70
     1
102
RTVSPost2010Prop30
280
     1
102
RTVSPost2010PropOp30
 70
     1
102
RTVSPost2010Prop31
280
     0
102
RTVSPost2010PropOp31
 70
     1
102
RTVSPost2010Prop32
280
     0
102
RTVSPost2010PropOp32
 70
     1
102
RTVSPost2010Prop33
280
     0
102
RTVSPost2010PropOp33
 70
     1
102
RTVSPost2010Prop34
280
     0
102
RTVSPost2010PropOp34
 70
     1
102
RTVSPost2010Prop35
280
     0
102
RTVSPost2010PropOp35
 70
     1
102
RTVSPost2010Prop36
280
     0
102
RTVSPost2010PropOp36
 70
     1
102
RTVSPost2010Prop37
 90
       50
102
RTVSPost2010PropOp37
 70
     1
102
RTVSPost2010Prop38
140
0.0
102
RTVSPost2010PropOp38
 70
     1
102
RTVSPost2010Prop39
140
1.0
102
RTVSPost2010PropOp39
 70
     1
102
RTVSPost2010Prop40
 90
        0
102
RTVSPost2010PropOp40
 70
     1
102
RTVSPost2010Prop41ColorIndex
 90
       18
102
RTVSPost2010Prop41ColorRGB
 90
        0
102
RTVSPost2010PropOp41
 70
     1
102
RTVSPost2010Prop42
 90
       50
102
RTVSPost2010PropOp42
 70
     1
102
RTVSPost2010Prop43
 90
        3
102
RTVSPost2010PropOp43
 70
     1
102
RTVSPost2010Prop44ColorIndex
 90
        5
102
RTVSPost2010Prop44ColorRGB
 90
      255
102
RTVSPost2010PropOp44
 70
     1
102
RTVSPost2010Prop45
280
     0
102
RTVSPost2010PropOp45
 70
     1
102
RTVSPost2010Prop46
 90
       50
102
RTVSPost2010PropOp46
 70
     1
102
RTVSPost2010Prop47
 90
       50
102
RTVSPost2010PropOp47
 70
     1
102
RTVSPost2010Prop48
 90
       50
102
RTVSPost2010PropOp48
 70
     1
102
RTVSPost2010Prop49
280
     0
102
RTVSPost2010PropOp49
 70
     1
102
RTVSPost2010Prop50
 90
       50
102
RTVSPost2010PropOp50
 70
     1
102
RTVSPost2010Prop51ColorIndex
 90
      256
102
RTVSPost2010Prop51ColorRGB
 90
-16777216
102
RTVSPost2010PropOp51
 70
     0
102
RTVSPost2010Prop52
140
1.0
102
RTVSPost2010PropOp52
 70
     0
102
RTVSPost2010Prop53
 90
        2
102
RTVSPost2010PropOp53
 70
     1
102
RTVSPost2010Prop54
  1
strokes_ogs.tif
102
RTVSPost2010PropOp54
 70
     1
102
RTVSPost2010Prop55
280
     0
102
RTVSPost2010PropOp55
 70
     1
102
RTVSPost2010Prop56
140
1.0
102
RTVSPost2010PropOp56
 70
     1
102
RTVSPost2010Prop57
140
1.0
102
RTVSPost2010PropOp57
 70
     1
102
RTVSPropertyOp0
 70
     1
102
RTVSPropertyOp1
 70
     1
102
RTVSPropertyOp2
 70
     1
102
RTVSPropertyOp3
 70
     1
102
RTVSPropertyOp4
 70
     1
102
RTVSPropertyOp5
 70
     1
102
RTVSPropertyOp6
 70
     1
102
RTVSPropertyOp7
 70
     1
102
RTVSPropertyOp8
 70
     1
102
RTVSPropertyOp9
 70
     1
102
RTVSPropertyOp10
 70
     1
102
RTVSPropertyOp11
 70
     1
102
RTVSPropertyOp12
 70
     1
102
RTVSPropertyOp13
 70
     1
102
RTVSPropertyOp14
 70
     1
102
RTVSPropertyOp15
 70
     1
102
RTVSPropertyOp16
 70
     1
102
RTVSPropertyOp17
 70
     1
102
RTVSPropertyOp18
 70
     1
102
RTVSPropertyOp19
 70
     1
102
RTVSPropertyOp20
 70
     1
102
RTVSPropertyOp21
 70
     1
102
RTVSPropertyOp22
 70
     1
102
RTVSPropertyOp23
 70
     1
102
RTVSPropertyOp24
 70
     1
102
RTVSPropertyOp25
 70
     1
102
RTVSPropertyOp26
 70
     1
102
RTVSPropertyOp27
 70
     1
102
RTVSPropertyOp28
 70
     1
102
RTVSPropertyOp29
 70
     1
102
RTVSPropertyOp30
 70
     1
102
RTVSPropertyOp31
 70
     1
102
RTVSPropertyOp32
 70
     1
102
RTVSPropertyOp33
 70
     1
102
RTVSPropertyOp34
 70
     1
102
RTVSPropertyOp35
 70
     1
102
RTVSPropertyOp36
 70
     1
102
RTVSPropertyOp37
 70
     1
102
RTVSPropertyOp38
 70
     1
102
RTVSPropertyOp39
 70
     1
102
RTVSPropertyOp40
 70
     1
102
RTVSPropertyOp41
 70
     1
102
RTVSPropertyOp42
 70
     1
102
RTVSPropertyOp43
 70
     1
102
RTVSPropertyOp44
 70
     1
102
RTVSPropertyOp45
 70
     1
102
RTVSPropertyOp46
 70
     1
102
RTVSPropertyOp47
 70
     1
102
RTVSPropertyOp48
 70
     1
102
RTVSPropertyOp49
 70
     1
102
RTVSPropertyOp50
 70
     1
102
RTVSPropertyOp51
 70
     0
102
RTVSPropertyOp52
 70
     0
102
RTVSPropertyOp53
 70
     1
102
RTVSPropertyOp54
 70
     1
102
RTVSPropertyOp55
 70
     1
102
RTVSPropertyOp56
 70
     1
102
RTVSPropertyOp57
 70
     1
102
RTVSPropertyOp58
 70
     1
102
RTVSPropertyOp59
 70
     1
102
RTVSPropertyOp60
 70
     1
102
RTVSPropertyOp61
 70
     1
102
RTVSPropertyOp62
 70
     1
  0
XRECORD
  5
8018
102
{ACAD_REACTORS
330
8017
102
}
330
8017
100
AcDbXrecord
280
     1
102
RTVSPost2010Prop28
280
     0
102
RTVSPost2010PropOp28
 70
     0
102
RTVSPost2010Prop29
280
     1
102
RTVSPost2010PropOp29
 70
     0
102
RTVSPost2010Prop30
280
     1
102
RTVSPost2010PropOp30
 70
     0
102
RTVSPost2010Prop31
280
     0
102
RTVSPost2010PropOp31
 70
     0
102
RTVSPost2010Prop32
280
     0
102
RTVSPost2010PropOp32
 70
     0
102
RTVSPost2010Prop33
280
     0
102
RTVSPost2010PropOp33
 70
     0
102
RTVSPost2010Prop34
280
     0
102
RTVSPost2010PropOp34
 70
     0
102
RTVSPost2010Prop35
280
     0
102
RTVSPost2010PropOp35
 70
     0
102
RTVSPost2010Prop36
280
     0
102
RTVSPost2010PropOp36
 70
     0
102
RTVSPost2010Prop37
 90
       50
102
RTVSPost2010PropOp37
 70
     0
102
RTVSPost2010Prop38
140
0.0
102
RTVSPost2010PropOp38
 70
     0
102
RTVSPost2010Prop39
140
1.0
102
RTVSPost2010PropOp39
 70
     0
102
RTVSPost2010Prop40
 90
        0
102
RTVSPost2010PropOp40
 70
     0
102
RTVSPost2010Prop41ColorIndex
 90
       18
102
RTVSPost2010Prop41ColorRGB
 90
        0
102
RTVSPost2010PropOp41
 70
     0
102
RTVSPost2010Prop42
 90
       50
102
RTVSPost2010PropOp42
 70
     0
102
RTVSPost2010Prop43
 90
        3
102
RTVSPost2010PropOp43
 70
     0
102
RTVSPost2010Prop44ColorIndex
 90
        5
102
RTVSPost2010Prop44ColorRGB
 90
      255
102
RTVSPost2010PropOp44
 70
     0
102
RTVSPost2010Prop45
280
     0
102
RTVSPost2010PropOp45
 70
     0
102
RTVSPost2010Prop46
 90
       50
102
RTVSPost2010PropOp46
 70
     0
102
RTVSPost2010Prop47
 90
       50
102
RTVSPost2010PropOp47
 70
     0
102
RTVSPost2010Prop48
 90
       50
102
RTVSPost2010PropOp48
 70
     0
102
RTVSPost2010Prop49
280
     0
102
RTVSPost2010PropOp49
 70
     0
102
RTVSPost2010Prop50
 90
       50
102
RTVSPost2010PropOp50
 70
     0
102
RTVSPost2010Prop51ColorIndex
 90
      256
102
RTVSPost2010Prop51ColorRGB
 90
-16777216
102
RTVSPost2010PropOp51
 70
     0
102
RTVSPost2010Prop52
140
1.0
102
RTVSPost2010PropOp52
 70
     0
102
RTVSPost2010Prop53
 90
        2
102
RTVSPost2010PropOp53
 70
     0
102
RTVSPost2010Prop54
  1
strokes_ogs.tif
102
RTVSPost2010PropOp54
 70
     0
102
RTVSPost2010Prop55
280
     0
102
RTVSPost2010PropOp55
 70
     0
102
RTVSPost2010Prop56
140
1.0
102
RTVSPost2010PropOp56
 70
     0
102
RTVSPost2010Prop57
140
1.0
102
RTVSPost2010PropOp57
 70
     0
102
RTVSPropertyOp0
 70
     0
102
RTVSPropertyOp1
 70
     0
102
RTVSPropertyOp2
 70
     0
102
RTVSPropertyOp3
 70
     0
102
RTVSPropertyOp4
 70
     0
102
RTVSPropertyOp5
 70
     0
102
RTVSPropertyOp6
 70
     0
102
RTVSPropertyOp7
 70
     0
102
RTVSPropertyOp8
 70
     0
102
RTVSPropertyOp9
 70
     0
102
RTVSPropertyOp10
 70
     0
102
RTVSPropertyOp11
 70
     0
102
RTVSPropertyOp12
 70
     0
102
RTVSPropertyOp13
 70
     0
102
RTVSPropertyOp14
 70
     2
102
RTVSPropertyOp15
 70
     0
102
RTVSPropertyOp16
 70
     0
102
RTVSPropertyOp17
 70
     0
102
RTVSPropertyOp18
 70
     0
102
RTVSPropertyOp19
 70
     0
102
RTVSPropertyOp20
 70
     0
102
RTVSPropertyOp21
 70
     0
102
RTVSPropertyOp22
 70
     0
102
RTVSPropertyOp23
 70
     0
102
RTVSPropertyOp24
 70
     0
102
RTVSPropertyOp25
 70
     0
102
RTVSPropertyOp26
 70
     0
102
RTVSPropertyOp27
 70
     0
102
RTVSPropertyOp28
 70
     0
102
RTVSPropertyOp29
 70
     0
102
RTVSPropertyOp30
 70
     0
102
RTVSPropertyOp31
 70
     0
102
RTVSPropertyOp32
 70
     0
102
RTVSPropertyOp33
 70
     0
102
RTVSPropertyOp34
 70
     0
102
RTVSPropertyOp35
 70
     0
102
RTVSPropertyOp36
 70
     0
102
RTVSPropertyOp37
 70
     0
102
RTVSPropertyOp38
 70
     0
102
RTVSPropertyOp39
 70
     0
102
RTVSPropertyOp40
 70
     0
102
RTVSPropertyOp41
 70
     0
102
RTVSPropertyOp42
 70
     0
102
RTVSPropertyOp43
 70
     0
102
RTVSPropertyOp44
 70
     0
102
RTVSPropertyOp45
 70
     0
102
RTVSPropertyOp46
 70
     0
102
RTVSPropertyOp47
 70
     0
102
RTVSPropertyOp48
 70
     0
102
RTVSPropertyOp49
 70
     0
102
RTVSPropertyOp50
 70
     0
102
RTVSPropertyOp51
 70
     0
102
RTVSPropertyOp52
 70
     0
102
RTVSPropertyOp53
 70
     0
102
RTVSPropertyOp54
 70
     0
102
RTVSPropertyOp55
 70
     0
102
RTVSPropertyOp56
 70
     0
102
RTVSPropertyOp57
 70
     0
102
RTVSPropertyOp58
 70
     1
102
RTVSPropertyOp59
 70
     1
102
RTVSPropertyOp60
 70
     1
102
RTVSPropertyOp61
 70
     1
102
RTVSPropertyOp62
 70
     1
  0
XRECORD
  5
8006
102
{ACAD_REACTORS
330
8005
102
}
330
8005
100
AcDbXrecord
280
     1
102
RTVSPost2010Prop28
280
     0
102
RTVSPost2010PropOp28
 70
     1
102
RTVSPost2010Prop29
280
     1
102
RTVSPost2010PropOp29
 70
     1
102
RTVSPost2010Prop30
280
     1
102
RTVSPost2010PropOp30
 70
     1
102
RTVSPost2010Prop31
280
     0
102
RTVSPost2010PropOp31
 70
     1
102
RTVSPost2010Prop32
280
     0
102
RTVSPost2010PropOp32
 70
     1
102
RTVSPost2010Prop33
280
     0
102
RTVSPost2010PropOp33
 70
     1
102
RTVSPost2010Prop34
280
     0
102
RTVSPost2010PropOp34
 70
     1
102
RTVSPost2010Prop35
280
     0
102
RTVSPost2010PropOp35
 70
     1
102
RTVSPost2010Prop36
280
     0
102
RTVSPost2010PropOp36
 70
     1
102
RTVSPost2010Prop37
 90
       50
102
RTVSPost2010PropOp37
 70
     1
102
RTVSPost2010Prop38
140
0.0
102
RTVSPost2010PropOp38
 70
     1
102
RTVSPost2010Prop39
140
1.0
102
RTVSPost2010PropOp39
 70
     1
102
RTVSPost2010Prop40
 90
        0
102
RTVSPost2010PropOp40
 70
     1
102
RTVSPost2010Prop41ColorIndex
 90
       18
102
RTVSPost2010Prop41ColorRGB
 90
        0
102
RTVSPost2010PropOp41
 70
     1
102
RTVSPost2010Prop42
 90
       50
102
RTVSPost2010PropOp42
 70
     1
102
RTVSPost2010Prop43
 90
        3
102
RTVSPost2010PropOp43
 70
     1
102
RTVSPost2010Prop44ColorIndex
 90
        5
102
RTVSPost2010Prop44ColorRGB
 90
      255
102
RTVSPost2010PropOp44
 70
     1
102
RTVSPost2010Prop45
280
     0
102
RTVSPost2010PropOp45
 70
     1
102
RTVSPost2010Prop46
 90
       50
102
RTVSPost2010PropOp46
 70
     1
102
RTVSPost2010Prop47
 90
       50
102
RTVSPost2010PropOp47
 70
     1
102
RTVSPost2010Prop48
 90
       50
102
RTVSPost2010PropOp48
 70
     1
102
RTVSPost2010Prop49
280
     0
102
RTVSPost2010PropOp49
 70
     1
102
RTVSPost2010Prop50
 90
       50
102
RTVSPost2010PropOp50
 70
     1
102
RTVSPost2010Prop51ColorIndex
 90
      256
102
RTVSPost2010Prop51ColorRGB
 90
-16777216
102
RTVSPost2010PropOp51
 70
     0
102
RTVSPost2010Prop52
140
1.0
102
RTVSPost2010PropOp52
 70
     0
102
RTVSPost2010Prop53
 90
        2
102
RTVSPost2010PropOp53
 70
     1
102
RTVSPost2010Prop54
  1
strokes_ogs.tif
102
RTVSPost2010PropOp54
 70
     1
102
RTVSPost2010Prop55
280
     0
102
RTVSPost2010PropOp55
 70
     1
102
RTVSPost2010Prop56
140
1.0
102
RTVSPost2010PropOp56
 70
     1
102
RTVSPost2010Prop57
140
1.0
102
RTVSPost2010PropOp57
 70
     1
102
RTVSPropertyOp0
 70
     1
102
RTVSPropertyOp1
 70
     1
102
RTVSPropertyOp2
 70
     1
102
RTVSPropertyOp3
 70
     1
102
RTVSPropertyOp4
 70
     1
102
RTVSPropertyOp5
 70
     1
102
RTVSPropertyOp6
 70
     1
102
RTVSPropertyOp7
 70
     1
102
RTVSPropertyOp8
 70
     1
102
RTVSPropertyOp9
 70
     1
102
RTVSPropertyOp10
 70
     1
102
RTVSPropertyOp11
 70
     1
102
RTVSPropertyOp12
 70
     1
102
RTVSPropertyOp13
 70
     1
102
RTVSPropertyOp14
 70
     1
102
RTVSPropertyOp15
 70
     1
102
RTVSPropertyOp16
 70
     1
102
RTVSPropertyOp17
 70
     1
102
RTVSPropertyOp18
 70
     1
102
RTVSPropertyOp19
 70
     1
102
RTVSPropertyOp20
 70
     1
102
RTVSPropertyOp21
 70
     1
102
RTVSPropertyOp22
 70
     1
102
RTVSPropertyOp23
 70
     1
102
RTVSPropertyOp24
 70
     1
102
RTVSPropertyOp25
 70
     1
102
RTVSPropertyOp26
 70
     1
102
RTVSPropertyOp27
 70
     1
102
RTVSPropertyOp28
 70
     1
102
RTVSPropertyOp29
 70
     1
102
RTVSPropertyOp30
 70
     1
102
RTVSPropertyOp31
 70
     1
102
RTVSPropertyOp32
 70
     1
102
RTVSPropertyOp33
 70
     1
102
RTVSPropertyOp34
 70
     1
102
RTVSPropertyOp35
 70
     1
102
RTVSPropertyOp36
 70
     1
102
RTVSPropertyOp37
 70
     1
102
RTVSPropertyOp38
 70
     1
102
RTVSPropertyOp39
 70
     1
102
RTVSPropertyOp40
 70
     1
102
RTVSPropertyOp41
 70
     1
102
RTVSPropertyOp42
 70
     1
102
RTVSPropertyOp43
 70
     1
102
RTVSPropertyOp44
 70
     1
102
RTVSPropertyOp45
 70
     1
102
RTVSPropertyOp46
 70
     1
102
RTVSPropertyOp47
 70
     1
102
RTVSPropertyOp48
 70
     1
102
RTVSPropertyOp49
 70
     1
102
RTVSPropertyOp50
 70
     1
102
RTVSPropertyOp51
 70
     0
102
RTVSPropertyOp52
 70
     0
102
RTVSPropertyOp53
 70
     1
102
RTVSPropertyOp54
 70
     1
102
RTVSPropertyOp55
 70
     1
102
RTVSPropertyOp56
 70
     1
102
RTVSPropertyOp57
 70
     1
102
RTVSPropertyOp58
 70
     1
102
RTVSPropertyOp59
 70
     1
102
RTVSPropertyOp60
 70
     1
102
RTVSPropertyOp61
 70
     1
102
RTVSPropertyOp62
 70
     1
  0
XRECORD
  5
7FEA
102
{ACAD_REACTORS
330
7FE9
102
}
330
7FE9
100
AcDbXrecord
280
     1
102
RTVSPost2010Prop28
280
     0
102
RTVSPost2010PropOp28
 70
     1
102
RTVSPost2010Prop29
280
     1
102
RTVSPost2010PropOp29
 70
     1
102
RTVSPost2010Prop30
280
     1
102
RTVSPost2010PropOp30
 70
     1
102
RTVSPost2010Prop31
280
     0
102
RTVSPost2010PropOp31
 70
     1
102
RTVSPost2010Prop32
280
     0
102
RTVSPost2010PropOp32
 70
     1
102
RTVSPost2010Prop33
280
     0
102
RTVSPost2010PropOp33
 70
     1
102
RTVSPost2010Prop34
280
     0
102
RTVSPost2010PropOp34
 70
     1
102
RTVSPost2010Prop35
280
     0
102
RTVSPost2010PropOp35
 70
     1
102
RTVSPost2010Prop36
280
     0
102
RTVSPost2010PropOp36
 70
     1
102
RTVSPost2010Prop37
 90
       50
102
RTVSPost2010PropOp37
 70
     1
102
RTVSPost2010Prop38
140
0.0
102
RTVSPost2010PropOp38
 70
     1
102
RTVSPost2010Prop39
140
1.0
102
RTVSPost2010PropOp39
 70
     1
102
RTVSPost2010Prop40
 90
        0
102
RTVSPost2010PropOp40
 70
     1
102
RTVSPost2010Prop41ColorIndex
 90
       18
102
RTVSPost2010Prop41ColorRGB
 90
        0
102
RTVSPost2010PropOp41
 70
     1
102
RTVSPost2010Prop42
 90
       50
102
RTVSPost2010PropOp42
 70
     1
102
RTVSPost2010Prop43
 90
        3
102
RTVSPost2010PropOp43
 70
     1
102
RTVSPost2010Prop44ColorIndex
 90
        5
102
RTVSPost2010Prop44ColorRGB
 90
      255
102
RTVSPost2010PropOp44
 70
     1
102
RTVSPost2010Prop45
280
     0
102
RTVSPost2010PropOp45
 70
     1
102
RTVSPost2010Prop46
 90
       50
102
RTVSPost2010PropOp46
 70
     1
102
RTVSPost2010Prop47
 90
       50
102
RTVSPost2010PropOp47
 70
     1
102
RTVSPost2010Prop48
 90
       50
102
RTVSPost2010PropOp48
 70
     1
102
RTVSPost2010Prop49
280
     0
102
RTVSPost2010PropOp49
 70
     1
102
RTVSPost2010Prop50
 90
       50
102
RTVSPost2010PropOp50
 70
     1
102
RTVSPost2010Prop51ColorIndex
 90
      256
102
RTVSPost2010Prop51ColorRGB
 90
-16777216
102
RTVSPost2010PropOp51
 70
     0
102
RTVSPost2010Prop52
140
1.0
102
RTVSPost2010PropOp52
 70
     0
102
RTVSPost2010Prop53
 90
        2
102
RTVSPost2010PropOp53
 70
     1
102
RTVSPost2010Prop54
  1
strokes_ogs.tif
102
RTVSPost2010PropOp54
 70
     1
102
RTVSPost2010Prop55
280
     0
102
RTVSPost2010PropOp55
 70
     1
102
RTVSPost2010Prop56
140
1.0
102
RTVSPost2010PropOp56
 70
     1
102
RTVSPost2010Prop57
140
1.0
102
RTVSPost2010PropOp57
 70
     1
102
RTVSPropertyOp0
 70
     1
102
RTVSPropertyOp1
 70
     1
102
RTVSPropertyOp2
 70
     1
102
RTVSPropertyOp3
 70
     1
102
RTVSPropertyOp4
 70
     1
102
RTVSPropertyOp5
 70
     1
102
RTVSPropertyOp6
 70
     1
102
RTVSPropertyOp7
 70
     1
102
RTVSPropertyOp8
 70
     1
102
RTVSPropertyOp9
 70
     1
102
RTVSPropertyOp10
 70
     1
102
RTVSPropertyOp11
 70
     1
102
RTVSPropertyOp12
 70
     1
102
RTVSPropertyOp13
 70
     1
102
RTVSPropertyOp14
 70
     1
102
RTVSPropertyOp15
 70
     1
102
RTVSPropertyOp16
 70
     1
102
RTVSPropertyOp17
 70
     1
102
RTVSPropertyOp18
 70
     1
102
RTVSPropertyOp19
 70
     1
102
RTVSPropertyOp20
 70
     1
102
RTVSPropertyOp21
 70
     1
102
RTVSPropertyOp22
 70
     1
102
RTVSPropertyOp23
 70
     1
102
RTVSPropertyOp24
 70
     1
102
RTVSPropertyOp25
 70
     1
102
RTVSPropertyOp26
 70
     1
102
RTVSPropertyOp27
 70
     1
102
RTVSPropertyOp28
 70
     1
102
RTVSPropertyOp29
 70
     1
102
RTVSPropertyOp30
 70
     1
102
RTVSPropertyOp31
 70
     1
102
RTVSPropertyOp32
 70
     1
102
RTVSPropertyOp33
 70
     1
102
RTVSPropertyOp34
 70
     1
102
RTVSPropertyOp35
 70
     1
102
RTVSPropertyOp36
 70
     1
102
RTVSPropertyOp37
 70
     1
102
RTVSPropertyOp38
 70
     1
102
RTVSPropertyOp39
 70
     1
102
RTVSPropertyOp40
 70
     1
102
RTVSPropertyOp41
 70
     1
102
RTVSPropertyOp42
 70
     1
102
RTVSPropertyOp43
 70
     1
102
RTVSPropertyOp44
 70
     1
102
RTVSPropertyOp45
 70
     1
102
RTVSPropertyOp46
 70
     1
102
RTVSPropertyOp47
 70
     1
102
RTVSPropertyOp48
 70
     1
102
RTVSPropertyOp49
 70
     1
102
RTVSPropertyOp50
 70
     1
102
RTVSPropertyOp51
 70
     0
102
RTVSPropertyOp52
 70
     0
102
RTVSPropertyOp53
 70
     1
102
RTVSPropertyOp54
 70
     1
102
RTVSPropertyOp55
 70
     1
102
RTVSPropertyOp56
 70
     1
102
RTVSPropertyOp57
 70
     1
102
RTVSPropertyOp58
 70
     1
102
RTVSPropertyOp59
 70
     1
102
RTVSPropertyOp60
 70
     1
102
RTVSPropertyOp61
 70
     1
102
RTVSPropertyOp62
 70
     1
  0
XRECORD
  5
7FEC
102
{ACAD_REACTORS
330
7FEB
102
}
330
7FEB
100
AcDbXrecord
280
     1
102
RTVSPost2010Prop28
280
     0
102
RTVSPost2010PropOp28
 70
     1
102
RTVSPost2010Prop29
280
     1
102
RTVSPost2010PropOp29
 70
     1
102
RTVSPost2010Prop30
280
     1
102
RTVSPost2010PropOp30
 70
     1
102
RTVSPost2010Prop31
280
     0
102
RTVSPost2010PropOp31
 70
     1
102
RTVSPost2010Prop32
280
     0
102
RTVSPost2010PropOp32
 70
     1
102
RTVSPost2010Prop33
280
     0
102
RTVSPost2010PropOp33
 70
     1
102
RTVSPost2010Prop34
280
     0
102
RTVSPost2010PropOp34
 70
     1
102
RTVSPost2010Prop35
280
     0
102
RTVSPost2010PropOp35
 70
     1
102
RTVSPost2010Prop36
280
     0
102
RTVSPost2010PropOp36
 70
     1
102
RTVSPost2010Prop37
 90
       50
102
RTVSPost2010PropOp37
 70
     1
102
RTVSPost2010Prop38
140
0.0
102
RTVSPost2010PropOp38
 70
     1
102
RTVSPost2010Prop39
140
1.0
102
RTVSPost2010PropOp39
 70
     1
102
RTVSPost2010Prop40
 90
        0
102
RTVSPost2010PropOp40
 70
     1
102
RTVSPost2010Prop41ColorIndex
 90
       18
102
RTVSPost2010Prop41ColorRGB
 90
        0
102
RTVSPost2010PropOp41
 70
     1
102
RTVSPost2010Prop42
 90
       50
102
RTVSPost2010PropOp42
 70
     1
102
RTVSPost2010Prop43
 90
        3
102
RTVSPost2010PropOp43
 70
     1
102
RTVSPost2010Prop44ColorIndex
 90
        5
102
RTVSPost2010Prop44ColorRGB
 90
      255
102
RTVSPost2010PropOp44
 70
     1
102
RTVSPost2010Prop45
280
     0
102
RTVSPost2010PropOp45
 70
     1
102
RTVSPost2010Prop46
 90
       50
102
RTVSPost2010PropOp46
 70
     1
102
RTVSPost2010Prop47
 90
       50
102
RTVSPost2010PropOp47
 70
     1
102
RTVSPost2010Prop48
 90
       50
102
RTVSPost2010PropOp48
 70
     1
102
RTVSPost2010Prop49
280
     0
102
RTVSPost2010PropOp49
 70
     1
102
RTVSPost2010Prop50
 90
       50
102
RTVSPost2010PropOp50
 70
     1
102
RTVSPost2010Prop51ColorIndex
 90
      256
102
RTVSPost2010Prop51ColorRGB
 90
-16777216
102
RTVSPost2010PropOp51
 70
     0
102
RTVSPost2010Prop52
140
1.0
102
RTVSPost2010PropOp52
 70
     0
102
RTVSPost2010Prop53
 90
        2
102
RTVSPost2010PropOp53
 70
     1
102
RTVSPost2010Prop54
  1
strokes_ogs.tif
102
RTVSPost2010PropOp54
 70
     1
102
RTVSPost2010Prop55
280
     0
102
RTVSPost2010PropOp55
 70
     1
102
RTVSPost2010Prop56
140
1.0
102
RTVSPost2010PropOp56
 70
     1
102
RTVSPost2010Prop57
140
1.0
102
RTVSPost2010PropOp57
 70
     1
102
RTVSPropertyOp0
 70
     1
102
RTVSPropertyOp1
 70
     1
102
RTVSPropertyOp2
 70
     1
102
RTVSPropertyOp3
 70
     1
102
RTVSPropertyOp4
 70
     1
102
RTVSPropertyOp5
 70
     1
102
RTVSPropertyOp6
 70
     1
102
RTVSPropertyOp7
 70
     1
102
RTVSPropertyOp8
 70
     1
102
RTVSPropertyOp9
 70
     1
102
RTVSPropertyOp10
 70
     1
102
RTVSPropertyOp11
 70
     1
102
RTVSPropertyOp12
 70
     1
102
RTVSPropertyOp13
 70
     1
102
RTVSPropertyOp14
 70
     1
102
RTVSPropertyOp15
 70
     1
102
RTVSPropertyOp16
 70
     1
102
RTVSPropertyOp17
 70
     1
102
RTVSPropertyOp18
 70
     1
102
RTVSPropertyOp19
 70
     1
102
RTVSPropertyOp20
 70
     1
102
RTVSPropertyOp21
 70
     1
102
RTVSPropertyOp22
 70
     1
102
RTVSPropertyOp23
 70
     1
102
RTVSPropertyOp24
 70
     1
102
RTVSPropertyOp25
 70
     1
102
RTVSPropertyOp26
 70
     1
102
RTVSPropertyOp27
 70
     1
102
RTVSPropertyOp28
 70
     1
102
RTVSPropertyOp29
 70
     1
102
RTVSPropertyOp30
 70
     1
102
RTVSPropertyOp31
 70
     1
102
RTVSPropertyOp32
 70
     1
102
RTVSPropertyOp33
 70
     1
102
RTVSPropertyOp34
 70
     1
102
RTVSPropertyOp35
 70
     1
102
RTVSPropertyOp36
 70
     1
102
RTVSPropertyOp37
 70
     1
102
RTVSPropertyOp38
 70
     1
102
RTVSPropertyOp39
 70
     1
102
RTVSPropertyOp40
 70
     1
102
RTVSPropertyOp41
 70
     1
102
RTVSPropertyOp42
 70
     1
102
RTVSPropertyOp43
 70
     1
102
RTVSPropertyOp44
 70
     1
102
RTVSPropertyOp45
 70
     1
102
RTVSPropertyOp46
 70
     1
102
RTVSPropertyOp47
 70
     1
102
RTVSPropertyOp48
 70
     1
102
RTVSPropertyOp49
 70
     1
102
RTVSPropertyOp50
 70
     1
102
RTVSPropertyOp51
 70
     0
102
RTVSPropertyOp52
 70
     0
102
RTVSPropertyOp53
 70
     1
102
RTVSPropertyOp54
 70
     1
102
RTVSPropertyOp55
 70
     1
102
RTVSPropertyOp56
 70
     1
102
RTVSPropertyOp57
 70
     1
102
RTVSPropertyOp58
 70
     1
102
RTVSPropertyOp59
 70
     1
102
RTVSPropertyOp60
 70
     1
102
RTVSPropertyOp61
 70
     1
102
RTVSPropertyOp62
 70
     1
  0
XRECORD
  5
7FEE
102
{ACAD_REACTORS
330
7FED
102
}
330
7FED
100
AcDbXrecord
280
     1
102
RTVSPost2010Prop28
280
     0
102
RTVSPost2010PropOp28
 70
     1
102
RTVSPost2010Prop29
280
     1
102
RTVSPost2010PropOp29
 70
     1
102
RTVSPost2010Prop30
280
     1
102
RTVSPost2010PropOp30
 70
     1
102
RTVSPost2010Prop31
280
     0
102
RTVSPost2010PropOp31
 70
     1
102
RTVSPost2010Prop32
280
     0
102
RTVSPost2010PropOp32
 70
     1
102
RTVSPost2010Prop33
280
     0
102
RTVSPost2010PropOp33
 70
     1
102
RTVSPost2010Prop34
280
     0
102
RTVSPost2010PropOp34
 70
     1
102
RTVSPost2010Prop35
280
     0
102
RTVSPost2010PropOp35
 70
     1
102
RTVSPost2010Prop36
280
     0
102
RTVSPost2010PropOp36
 70
     1
102
RTVSPost2010Prop37
 90
       50
102
RTVSPost2010PropOp37
 70
     1
102
RTVSPost2010Prop38
140
0.0
102
RTVSPost2010PropOp38
 70
     1
102
RTVSPost2010Prop39
140
1.0
102
RTVSPost2010PropOp39
 70
     1
102
RTVSPost2010Prop40
 90
        0
102
RTVSPost2010PropOp40
 70
     1
102
RTVSPost2010Prop41ColorIndex
 90
       18
102
RTVSPost2010Prop41ColorRGB
 90
        0
102
RTVSPost2010PropOp41
 70
     1
102
RTVSPost2010Prop42
 90
       50
102
RTVSPost2010PropOp42
 70
     1
102
RTVSPost2010Prop43
 90
        3
102
RTVSPost2010PropOp43
 70
     1
102
RTVSPost2010Prop44ColorIndex
 90
        5
102
RTVSPost2010Prop44ColorRGB
 90
      255
102
RTVSPost2010PropOp44
 70
     1
102
RTVSPost2010Prop45
280
     0
102
RTVSPost2010PropOp45
 70
     1
102
RTVSPost2010Prop46
 90
       50
102
RTVSPost2010PropOp46
 70
     1
102
RTVSPost2010Prop47
 90
       50
102
RTVSPost2010PropOp47
 70
     1
102
RTVSPost2010Prop48
 90
       50
102
RTVSPost2010PropOp48
 70
     1
102
RTVSPost2010Prop49
280
     0
102
RTVSPost2010PropOp49
 70
     1
102
RTVSPost2010Prop50
 90
       50
102
RTVSPost2010PropOp50
 70
     1
102
RTVSPost2010Prop51ColorIndex
 90
      256
102
RTVSPost2010Prop51ColorRGB
 90
-16777216
102
RTVSPost2010PropOp51
 70
     0
102
RTVSPost2010Prop52
140
1.0
102
RTVSPost2010PropOp52
 70
     0
102
RTVSPost2010Prop53
 90
        2
102
RTVSPost2010PropOp53
 70
     1
102
RTVSPost2010Prop54
  1
strokes_ogs.tif
102
RTVSPost2010PropOp54
 70
     1
102
RTVSPost2010Prop55
280
     0
102
RTVSPost2010PropOp55
 70
     1
102
RTVSPost2010Prop56
140
1.0
102
RTVSPost2010PropOp56
 70
     1
102
RTVSPost2010Prop57
140
1.0
102
RTVSPost2010PropOp57
 70
     1
102
RTVSPropertyOp0
 70
     1
102
RTVSPropertyOp1
 70
     1
102
RTVSPropertyOp2
 70
     1
102
RTVSPropertyOp3
 70
     1
102
RTVSPropertyOp4
 70
     1
102
RTVSPropertyOp5
 70
     1
102
RTVSPropertyOp6
 70
     1
102
RTVSPropertyOp7
 70
     1
102
RTVSPropertyOp8
 70
     1
102
RTVSPropertyOp9
 70
     1
102
RTVSPropertyOp10
 70
     1
102
RTVSPropertyOp11
 70
     1
102
RTVSPropertyOp12
 70
     1
102
RTVSPropertyOp13
 70
     1
102
RTVSPropertyOp14
 70
     1
102
RTVSPropertyOp15
 70
     1
102
RTVSPropertyOp16
 70
     1
102
RTVSPropertyOp17
 70
     1
102
RTVSPropertyOp18
 70
     1
102
RTVSPropertyOp19
 70
     1
102
RTVSPropertyOp20
 70
     1
102
RTVSPropertyOp21
 70
     1
102
RTVSPropertyOp22
 70
     1
102
RTVSPropertyOp23
 70
     1
102
RTVSPropertyOp24
 70
     1
102
RTVSPropertyOp25
 70
     1
102
RTVSPropertyOp26
 70
     1
102
RTVSPropertyOp27
 70
     1
102
RTVSPropertyOp28
 70
     1
102
RTVSPropertyOp29
 70
     1
102
RTVSPropertyOp30
 70
     1
102
RTVSPropertyOp31
 70
     1
102
RTVSPropertyOp32
 70
     1
102
RTVSPropertyOp33
 70
     1
102
RTVSPropertyOp34
 70
     1
102
RTVSPropertyOp35
 70
     1
102
RTVSPropertyOp36
 70
     1
102
RTVSPropertyOp37
 70
     1
102
RTVSPropertyOp38
 70
     1
102
RTVSPropertyOp39
 70
     1
102
RTVSPropertyOp40
 70
     1
102
RTVSPropertyOp41
 70
     1
102
RTVSPropertyOp42
 70
     1
102
RTVSPropertyOp43
 70
     1
102
RTVSPropertyOp44
 70
     1
102
RTVSPropertyOp45
 70
     1
102
RTVSPropertyOp46
 70
     1
102
RTVSPropertyOp47
 70
     1
102
RTVSPropertyOp48
 70
     1
102
RTVSPropertyOp49
 70
     1
102
RTVSPropertyOp50
 70
     1
102
RTVSPropertyOp51
 70
     0
102
RTVSPropertyOp52
 70
     0
102
RTVSPropertyOp53
 70
     1
102
RTVSPropertyOp54
 70
     1
102
RTVSPropertyOp55
 70
     1
102
RTVSPropertyOp56
 70
     1
102
RTVSPropertyOp57
 70
     1
102
RTVSPropertyOp58
 70
     1
102
RTVSPropertyOp59
 70
     1
102
RTVSPropertyOp60
 70
     1
102
RTVSPropertyOp61
 70
     1
102
RTVSPropertyOp62
 70
     1
  0
XRECORD
  5
7FF0
102
{ACAD_REACTORS
330
7FEF
102
}
330
7FEF
100
AcDbXrecord
280
     1
102
RTVSPost2010Prop28
280
     0
102
RTVSPost2010PropOp28
 70
     1
102
RTVSPost2010Prop29
280
     1
102
RTVSPost2010PropOp29
 70
     1
102
RTVSPost2010Prop30
280
     1
102
RTVSPost2010PropOp30
 70
     1
102
RTVSPost2010Prop31
280
     0
102
RTVSPost2010PropOp31
 70
     1
102
RTVSPost2010Prop32
280
     0
102
RTVSPost2010PropOp32
 70
     1
102
RTVSPost2010Prop33
280
     0
102
RTVSPost2010PropOp33
 70
     1
102
RTVSPost2010Prop34
280
     0
102
RTVSPost2010PropOp34
 70
     1
102
RTVSPost2010Prop35
280
     0
102
RTVSPost2010PropOp35
 70
     1
102
RTVSPost2010Prop36
280
     0
102
RTVSPost2010PropOp36
 70
     1
102
RTVSPost2010Prop37
 90
       50
102
RTVSPost2010PropOp37
 70
     1
102
RTVSPost2010Prop38
140
0.0
102
RTVSPost2010PropOp38
 70
     1
102
RTVSPost2010Prop39
140
1.0
102
RTVSPost2010PropOp39
 70
     1
102
RTVSPost2010Prop40
 90
        0
102
RTVSPost2010PropOp40
 70
     1
102
RTVSPost2010Prop41ColorIndex
 90
       18
102
RTVSPost2010Prop41ColorRGB
 90
        0
102
RTVSPost2010PropOp41
 70
     1
102
RTVSPost2010Prop42
 90
       50
102
RTVSPost2010PropOp42
 70
     1
102
RTVSPost2010Prop43
 90
        3
102
RTVSPost2010PropOp43
 70
     1
102
RTVSPost2010Prop44ColorIndex
 90
        5
102
RTVSPost2010Prop44ColorRGB
 90
      255
102
RTVSPost2010PropOp44
 70
     1
102
RTVSPost2010Prop45
280
     0
102
RTVSPost2010PropOp45
 70
     1
102
RTVSPost2010Prop46
 90
       50
102
RTVSPost2010PropOp46
 70
     1
102
RTVSPost2010Prop47
 90
       50
102
RTVSPost2010PropOp47
 70
     1
102
RTVSPost2010Prop48
 90
       50
102
RTVSPost2010PropOp48
 70
     1
102
RTVSPost2010Prop49
280
     0
102
RTVSPost2010PropOp49
 70
     1
102
RTVSPost2010Prop50
 90
       50
102
RTVSPost2010PropOp50
 70
     1
102
RTVSPost2010Prop51ColorIndex
 90
      256
102
RTVSPost2010Prop51ColorRGB
 90
-16777216
102
RTVSPost2010PropOp51
 70
     0
102
RTVSPost2010Prop52
140
1.0
102
RTVSPost2010PropOp52
 70
     0
102
RTVSPost2010Prop53
 90
        2
102
RTVSPost2010PropOp53
 70
     1
102
RTVSPost2010Prop54
  1
strokes_ogs.tif
102
RTVSPost2010PropOp54
 70
     1
102
RTVSPost2010Prop55
280
     0
102
RTVSPost2010PropOp55
 70
     1
102
RTVSPost2010Prop56
140
1.0
102
RTVSPost2010PropOp56
 70
     1
102
RTVSPost2010Prop57
140
1.0
102
RTVSPost2010PropOp57
 70
     1
102
RTVSPropertyOp0
 70
     1
102
RTVSPropertyOp1
 70
     1
102
RTVSPropertyOp2
 70
     1
102
RTVSPropertyOp3
 70
     1
102
RTVSPropertyOp4
 70
     1
102
RTVSPropertyOp5
 70
     1
102
RTVSPropertyOp6
 70
     1
102
RTVSPropertyOp7
 70
     1
102
RTVSPropertyOp8
 70
     1
102
RTVSPropertyOp9
 70
     1
102
RTVSPropertyOp10
 70
     1
102
RTVSPropertyOp11
 70
     1
102
RTVSPropertyOp12
 70
     1
102
RTVSPropertyOp13
 70
     1
102
RTVSPropertyOp14
 70
     1
102
RTVSPropertyOp15
 70
     1
102
RTVSPropertyOp16
 70
     1
102
RTVSPropertyOp17
 70
     1
102
RTVSPropertyOp18
 70
     1
102
RTVSPropertyOp19
 70
     1
102
RTVSPropertyOp20
 70
     1
102
RTVSPropertyOp21
 70
     1
102
RTVSPropertyOp22
 70
     1
102
RTVSPropertyOp23
 70
     1
102
RTVSPropertyOp24
 70
     1
102
RTVSPropertyOp25
 70
     1
102
RTVSPropertyOp26
 70
     1
102
RTVSPropertyOp27
 70
     1
102
RTVSPropertyOp28
 70
     1
102
RTVSPropertyOp29
 70
     1
102
RTVSPropertyOp30
 70
     1
102
RTVSPropertyOp31
 70
     1
102
RTVSPropertyOp32
 70
     1
102
RTVSPropertyOp33
 70
     1
102
RTVSPropertyOp34
 70
     1
102
RTVSPropertyOp35
 70
     1
102
RTVSPropertyOp36
 70
     1
102
RTVSPropertyOp37
 70
     1
102
RTVSPropertyOp38
 70
     1
102
RTVSPropertyOp39
 70
     1
102
RTVSPropertyOp40
 70
     1
102
RTVSPropertyOp41
 70
     1
102
RTVSPropertyOp42
 70
     1
102
RTVSPropertyOp43
 70
     1
102
RTVSPropertyOp44
 70
     1
102
RTVSPropertyOp45
 70
     1
102
RTVSPropertyOp46
 70
     1
102
RTVSPropertyOp47
 70
     1
102
RTVSPropertyOp48
 70
     1
102
RTVSPropertyOp49
 70
     1
102
RTVSPropertyOp50
 70
     1
102
RTVSPropertyOp51
 70
     0
102
RTVSPropertyOp52
 70
     0
102
RTVSPropertyOp53
 70
     1
102
RTVSPropertyOp54
 70
     1
102
RTVSPropertyOp55
 70
     1
102
RTVSPropertyOp56
 70
     1
102
RTVSPropertyOp57
 70
     1
102
RTVSPropertyOp58
 70
     1
102
RTVSPropertyOp59
 70
     1
102
RTVSPropertyOp60
 70
     1
102
RTVSPropertyOp61
 70
     1
102
RTVSPropertyOp62
 70
     1
  0
XRECORD
  5
7FF8
102
{ACAD_REACTORS
330
7FF7
102
}
330
7FF7
100
AcDbXrecord
280
     1
102
RTVSPost2010Prop28
280
     0
102
RTVSPost2010PropOp28
 70
     1
102
RTVSPost2010Prop29
280
     1
102
RTVSPost2010PropOp29
 70
     1
102
RTVSPost2010Prop30
280
     1
102
RTVSPost2010PropOp30
 70
     1
102
RTVSPost2010Prop31
280
     0
102
RTVSPost2010PropOp31
 70
     1
102
RTVSPost2010Prop32
280
     0
102
RTVSPost2010PropOp32
 70
     1
102
RTVSPost2010Prop33
280
     0
102
RTVSPost2010PropOp33
 70
     1
102
RTVSPost2010Prop34
280
     0
102
RTVSPost2010PropOp34
 70
     1
102
RTVSPost2010Prop35
280
     0
102
RTVSPost2010PropOp35
 70
     1
102
RTVSPost2010Prop36
280
     0
102
RTVSPost2010PropOp36
 70
     1
102
RTVSPost2010Prop37
 90
       50
102
RTVSPost2010PropOp37
 70
     1
102
RTVSPost2010Prop38
140
0.0
102
RTVSPost2010PropOp38
 70
     1
102
RTVSPost2010Prop39
140
1.0
102
RTVSPost2010PropOp39
 70
     1
102
RTVSPost2010Prop40
 90
        0
102
RTVSPost2010PropOp40
 70
     1
102
RTVSPost2010Prop41ColorIndex
 90
       18
102
RTVSPost2010Prop41ColorRGB
 90
        0
102
RTVSPost2010PropOp41
 70
     1
102
RTVSPost2010Prop42
 90
       50
102
RTVSPost2010PropOp42
 70
     1
102
RTVSPost2010Prop43
 90
        3
102
RTVSPost2010PropOp43
 70
     1
102
RTVSPost2010Prop44ColorIndex
 90
        5
102
RTVSPost2010Prop44ColorRGB
 90
      255
102
RTVSPost2010PropOp44
 70
     1
102
RTVSPost2010Prop45
280
     0
102
RTVSPost2010PropOp45
 70
     1
102
RTVSPost2010Prop46
 90
       50
102
RTVSPost2010PropOp46
 70
     1
102
RTVSPost2010Prop47
 90
       50
102
RTVSPost2010PropOp47
 70
     1
102
RTVSPost2010Prop48
 90
       50
102
RTVSPost2010PropOp48
 70
     1
102
RTVSPost2010Prop49
280
     0
102
RTVSPost2010PropOp49
 70
     1
102
RTVSPost2010Prop50
 90
       50
102
RTVSPost2010PropOp50
 70
     1
102
RTVSPost2010Prop51ColorIndex
 90
      256
102
RTVSPost2010Prop51ColorRGB
 90
-16777216
102
RTVSPost2010PropOp51
 70
     0
102
RTVSPost2010Prop52
140
1.0
102
RTVSPost2010PropOp52
 70
     0
102
RTVSPost2010Prop53
 90
        2
102
RTVSPost2010PropOp53
 70
     1
102
RTVSPost2010Prop54
  1
strokes_ogs.tif
102
RTVSPost2010PropOp54
 70
     1
102
RTVSPost2010Prop55
280
     0
102
RTVSPost2010PropOp55
 70
     1
102
RTVSPost2010Prop56
140
1.0
102
RTVSPost2010PropOp56
 70
     1
102
RTVSPost2010Prop57
140
1.0
102
RTVSPost2010PropOp57
 70
     1
102
RTVSPropertyOp0
 70
     1
102
RTVSPropertyOp1
 70
     1
102
RTVSPropertyOp2
 70
     1
102
RTVSPropertyOp3
 70
     1
102
RTVSPropertyOp4
 70
     1
102
RTVSPropertyOp5
 70
     1
102
RTVSPropertyOp6
 70
     1
102
RTVSPropertyOp7
 70
     1
102
RTVSPropertyOp8
 70
     1
102
RTVSPropertyOp9
 70
     1
102
RTVSPropertyOp10
 70
     1
102
RTVSPropertyOp11
 70
     1
102
RTVSPropertyOp12
 70
     1
102
RTVSPropertyOp13
 70
     1
102
RTVSPropertyOp14
 70
     1
102
RTVSPropertyOp15
 70
     1
102
RTVSPropertyOp16
 70
     1
102
RTVSPropertyOp17
 70
     1
102
RTVSPropertyOp18
 70
     1
102
RTVSPropertyOp19
 70
     1
102
RTVSPropertyOp20
 70
     1
102
RTVSPropertyOp21
 70
     1
102
RTVSPropertyOp22
 70
     1
102
RTVSPropertyOp23
 70
     1
102
RTVSPropertyOp24
 70
     1
102
RTVSPropertyOp25
 70
     1
102
RTVSPropertyOp26
 70
     1
102
RTVSPropertyOp27
 70
     1
102
RTVSPropertyOp28
 70
     1
102
RTVSPropertyOp29
 70
     1
102
RTVSPropertyOp30
 70
     1
102
RTVSPropertyOp31
 70
     1
102
RTVSPropertyOp32
 70
     1
102
RTVSPropertyOp33
 70
     1
102
RTVSPropertyOp34
 70
     1
102
RTVSPropertyOp35
 70
     1
102
RTVSPropertyOp36
 70
     1
102
RTVSPropertyOp37
 70
     1
102
RTVSPropertyOp38
 70
     1
102
RTVSPropertyOp39
 70
     1
102
RTVSPropertyOp40
 70
     1
102
RTVSPropertyOp41
 70
     1
102
RTVSPropertyOp42
 70
     1
102
RTVSPropertyOp43
 70
     1
102
RTVSPropertyOp44
 70
     1
102
RTVSPropertyOp45
 70
     1
102
RTVSPropertyOp46
 70
     1
102
RTVSPropertyOp47
 70
     1
102
RTVSPropertyOp48
 70
     1
102
RTVSPropertyOp49
 70
     1
102
RTVSPropertyOp50
 70
     1
102
RTVSPropertyOp51
 70
     0
102
RTVSPropertyOp52
 70
     0
102
RTVSPropertyOp53
 70
     1
102
RTVSPropertyOp54
 70
     1
102
RTVSPropertyOp55
 70
     1
102
RTVSPropertyOp56
 70
     1
102
RTVSPropertyOp57
 70
     1
102
RTVSPropertyOp58
 70
     1
102
RTVSPropertyOp59
 70
     1
102
RTVSPropertyOp60
 70
     1
102
RTVSPropertyOp61
 70
     1
102
RTVSPropertyOp62
 70
     1
  0
XRECORD
  5
8014
102
{ACAD_REACTORS
330
8013
102
}
330
8013
100
AcDbXrecord
280
     1
102
RTVSPost2010Prop28
280
     0
102
RTVSPost2010PropOp28
 70
     0
102
RTVSPost2010Prop29
280
     1
102
RTVSPost2010PropOp29
 70
     0
102
RTVSPost2010Prop30
280
     1
102
RTVSPost2010PropOp30
 70
     0
102
RTVSPost2010Prop31
280
     0
102
RTVSPost2010PropOp31
 70
     0
102
RTVSPost2010Prop32
280
     0
102
RTVSPost2010PropOp32
 70
     0
102
RTVSPost2010Prop33
280
     0
102
RTVSPost2010PropOp33
 70
     0
102
RTVSPost2010Prop34
280
     0
102
RTVSPost2010PropOp34
 70
     0
102
RTVSPost2010Prop35
280
     0
102
RTVSPost2010PropOp35
 70
     0
102
RTVSPost2010Prop36
280
     0
102
RTVSPost2010PropOp36
 70
     0
102
RTVSPost2010Prop37
 90
       50
102
RTVSPost2010PropOp37
 70
     0
102
RTVSPost2010Prop38
140
0.0
102
RTVSPost2010PropOp38
 70
     0
102
RTVSPost2010Prop39
140
1.0
102
RTVSPost2010PropOp39
 70
     0
102
RTVSPost2010Prop40
 90
        0
102
RTVSPost2010PropOp40
 70
     0
102
RTVSPost2010Prop41ColorIndex
 90
       18
102
RTVSPost2010Prop41ColorRGB
 90
        0
102
RTVSPost2010PropOp41
 70
     0
102
RTVSPost2010Prop42
 90
       50
102
RTVSPost2010PropOp42
 70
     0
102
RTVSPost2010Prop43
 90
        3
102
RTVSPost2010PropOp43
 70
     0
102
RTVSPost2010Prop44ColorIndex
 90
        5
102
RTVSPost2010Prop44ColorRGB
 90
      255
102
RTVSPost2010PropOp44
 70
     0
102
RTVSPost2010Prop45
280
     0
102
RTVSPost2010PropOp45
 70
     0
102
RTVSPost2010Prop46
 90
       50
102
RTVSPost2010PropOp46
 70
     0
102
RTVSPost2010Prop47
 90
       50
102
RTVSPost2010PropOp47
 70
     0
102
RTVSPost2010Prop48
 90
       50
102
RTVSPost2010PropOp48
 70
     0
102
RTVSPost2010Prop49
280
     0
102
RTVSPost2010PropOp49
 70
     0
102
RTVSPost2010Prop50
 90
       50
102
RTVSPost2010PropOp50
 70
     0
102
RTVSPost2010Prop51ColorIndex
 90
      256
102
RTVSPost2010Prop51ColorRGB
 90
-16777216
102
RTVSPost2010PropOp51
 70
     0
102
RTVSPost2010Prop52
140
1.0
102
RTVSPost2010PropOp52
 70
     0
102
RTVSPost2010Prop53
 90
        2
102
RTVSPost2010PropOp53
 70
     0
102
RTVSPost2010Prop54
  1
strokes_ogs.tif
102
RTVSPost2010PropOp54
 70
     0
102
RTVSPost2010Prop55
280
     0
102
RTVSPost2010PropOp55
 70
     0
102
RTVSPost2010Prop56
140
1.0
102
RTVSPost2010PropOp56
 70
     0
102
RTVSPost2010Prop57
140
1.0
102
RTVSPost2010PropOp57
 70
     0
102
RTVSPropertyOp0
 70
     0
102
RTVSPropertyOp1
 70
     0
102
RTVSPropertyOp2
 70
     0
102
RTVSPropertyOp3
 70
     0
102
RTVSPropertyOp4
 70
     0
102
RTVSPropertyOp5
 70
     0
102
RTVSPropertyOp6
 70
     0
102
RTVSPropertyOp7
 70
     0
102
RTVSPropertyOp8
 70
     0
102
RTVSPropertyOp9
 70
     0
102
RTVSPropertyOp10
 70
     0
102
RTVSPropertyOp11
 70
     0
102
RTVSPropertyOp12
 70
     0
102
RTVSPropertyOp13
 70
     0
102
RTVSPropertyOp14
 70
     2
102
RTVSPropertyOp15
 70
     0
102
RTVSPropertyOp16
 70
     0
102
RTVSPropertyOp17
 70
     0
102
RTVSPropertyOp18
 70
     0
102
RTVSPropertyOp19
 70
     0
102
RTVSPropertyOp20
 70
     0
102
RTVSPropertyOp21
 70
     0
102
RTVSPropertyOp22
 70
     0
102
RTVSPropertyOp23
 70
     0
102
RTVSPropertyOp24
 70
     0
102
RTVSPropertyOp25
 70
     0
102
RTVSPropertyOp26
 70
     0
102
RTVSPropertyOp27
 70
     0
102
RTVSPropertyOp28
 70
     0
102
RTVSPropertyOp29
 70
     0
102
RTVSPropertyOp30
 70
     0
102
RTVSPropertyOp31
 70
     0
102
RTVSPropertyOp32
 70
     0
102
RTVSPropertyOp33
 70
     0
102
RTVSPropertyOp34
 70
     0
102
RTVSPropertyOp35
 70
     0
102
RTVSPropertyOp36
 70
     0
102
RTVSPropertyOp37
 70
     0
102
RTVSPropertyOp38
 70
     0
102
RTVSPropertyOp39
 70
     0
102
RTVSPropertyOp40
 70
     0
102
RTVSPropertyOp41
 70
     0
102
RTVSPropertyOp42
 70
     0
102
RTVSPropertyOp43
 70
     0
102
RTVSPropertyOp44
 70
     0
102
RTVSPropertyOp45
 70
     0
102
RTVSPropertyOp46
 70
     0
102
RTVSPropertyOp47
 70
     0
102
RTVSPropertyOp48
 70
     0
102
RTVSPropertyOp49
 70
     0
102
RTVSPropertyOp50
 70
     0
102
RTVSPropertyOp51
 70
     0
102
RTVSPropertyOp52
 70
     0
102
RTVSPropertyOp53
 70
     0
102
RTVSPropertyOp54
 70
     0
102
RTVSPropertyOp55
 70
     0
102
RTVSPropertyOp56
 70
     0
102
RTVSPropertyOp57
 70
     0
102
RTVSPropertyOp58
 70
     1
102
RTVSPropertyOp59
 70
     1
102
RTVSPropertyOp60
 70
     1
102
RTVSPropertyOp61
 70
     1
102
RTVSPropertyOp62
 70
     1
  0
XRECORD
  5
8004
102
{ACAD_REACTORS
330
8003
102
}
330
8003
100
AcDbXrecord
280
     1
102
RTVSPost2010Prop28
280
     0
102
RTVSPost2010PropOp28
 70
     1
102
RTVSPost2010Prop29
280
     1
102
RTVSPost2010PropOp29
 70
     1
102
RTVSPost2010Prop30
280
     1
102
RTVSPost2010PropOp30
 70
     1
102
RTVSPost2010Prop31
280
     0
102
RTVSPost2010PropOp31
 70
     1
102
RTVSPost2010Prop32
280
     0
102
RTVSPost2010PropOp32
 70
     1
102
RTVSPost2010Prop33
280
     0
102
RTVSPost2010PropOp33
 70
     1
102
RTVSPost2010Prop34
280
     0
102
RTVSPost2010PropOp34
 70
     1
102
RTVSPost2010Prop35
280
     0
102
RTVSPost2010PropOp35
 70
     1
102
RTVSPost2010Prop36
280
     0
102
RTVSPost2010PropOp36
 70
     1
102
RTVSPost2010Prop37
 90
       50
102
RTVSPost2010PropOp37
 70
     1
102
RTVSPost2010Prop38
140
0.0
102
RTVSPost2010PropOp38
 70
     1
102
RTVSPost2010Prop39
140
1.0
102
RTVSPost2010PropOp39
 70
     1
102
RTVSPost2010Prop40
 90
        0
102
RTVSPost2010PropOp40
 70
     1
102
RTVSPost2010Prop41ColorIndex
 90
       18
102
RTVSPost2010Prop41ColorRGB
 90
        0
102
RTVSPost2010PropOp41
 70
     1
102
RTVSPost2010Prop42
 90
       50
102
RTVSPost2010PropOp42
 70
     1
102
RTVSPost2010Prop43
 90
        3
102
RTVSPost2010PropOp43
 70
     1
102
RTVSPost2010Prop44ColorIndex
 90
        5
102
RTVSPost2010Prop44ColorRGB
 90
      255
102
RTVSPost2010PropOp44
 70
     1
102
RTVSPost2010Prop45
280
     0
102
RTVSPost2010PropOp45
 70
     1
102
RTVSPost2010Prop46
 90
       50
102
RTVSPost2010PropOp46
 70
     1
102
RTVSPost2010Prop47
 90
       50
102
RTVSPost2010PropOp47
 70
     1
102
RTVSPost2010Prop48
 90
       50
102
RTVSPost2010PropOp48
 70
     1
102
RTVSPost2010Prop49
280
     0
102
RTVSPost2010PropOp49
 70
     1
102
RTVSPost2010Prop50
 90
       50
102
RTVSPost2010PropOp50
 70
     1
102
RTVSPost2010Prop51ColorIndex
 90
      256
102
RTVSPost2010Prop51ColorRGB
 90
-16777216
102
RTVSPost2010PropOp51
 70
     0
102
RTVSPost2010Prop52
140
1.0
102
RTVSPost2010PropOp52
 70
     0
102
RTVSPost2010Prop53
 90
        2
102
RTVSPost2010PropOp53
 70
     1
102
RTVSPost2010Prop54
  1
strokes_ogs.tif
102
RTVSPost2010PropOp54
 70
     1
102
RTVSPost2010Prop55
280
     0
102
RTVSPost2010PropOp55
 70
     1
102
RTVSPost2010Prop56
140
1.0
102
RTVSPost2010PropOp56
 70
     1
102
RTVSPost2010Prop57
140
1.0
102
RTVSPost2010PropOp57
 70
     1
102
RTVSPropertyOp0
 70
     1
102
RTVSPropertyOp1
 70
     1
102
RTVSPropertyOp2
 70
     1
102
RTVSPropertyOp3
 70
     1
102
RTVSPropertyOp4
 70
     1
102
RTVSPropertyOp5
 70
     1
102
RTVSPropertyOp6
 70
     1
102
RTVSPropertyOp7
 70
     1
102
RTVSPropertyOp8
 70
     1
102
RTVSPropertyOp9
 70
     1
102
RTVSPropertyOp10
 70
     1
102
RTVSPropertyOp11
 70
     1
102
RTVSPropertyOp12
 70
     1
102
RTVSPropertyOp13
 70
     1
102
RTVSPropertyOp14
 70
     1
102
RTVSPropertyOp15
 70
     1
102
RTVSPropertyOp16
 70
     1
102
RTVSPropertyOp17
 70
     1
102
RTVSPropertyOp18
 70
     1
102
RTVSPropertyOp19
 70
     1
102
RTVSPropertyOp20
 70
     1
102
RTVSPropertyOp21
 70
     1
102
RTVSPropertyOp22
 70
     1
102
RTVSPropertyOp23
 70
     1
102
RTVSPropertyOp24
 70
     1
102
RTVSPropertyOp25
 70
     1
102
RTVSPropertyOp26
 70
     1
102
RTVSPropertyOp27
 70
     1
102
RTVSPropertyOp28
 70
     1
102
RTVSPropertyOp29
 70
     1
102
RTVSPropertyOp30
 70
     1
102
RTVSPropertyOp31
 70
     1
102
RTVSPropertyOp32
 70
     1
102
RTVSPropertyOp33
 70
     1
102
RTVSPropertyOp34
 70
     1
102
RTVSPropertyOp35
 70
     1
102
RTVSPropertyOp36
 70
     1
102
RTVSPropertyOp37
 70
     1
102
RTVSPropertyOp38
 70
     1
102
RTVSPropertyOp39
 70
     1
102
RTVSPropertyOp40
 70
     1
102
RTVSPropertyOp41
 70
     1
102
RTVSPropertyOp42
 70
     1
102
RTVSPropertyOp43
 70
     1
102
RTVSPropertyOp44
 70
     1
102
RTVSPropertyOp45
 70
     1
102
RTVSPropertyOp46
 70
     1
102
RTVSPropertyOp47
 70
     1
102
RTVSPropertyOp48
 70
     1
102
RTVSPropertyOp49
 70
     1
102
RTVSPropertyOp50
 70
     1
102
RTVSPropertyOp51
 70
     0
102
RTVSPropertyOp52
 70
     0
102
RTVSPropertyOp53
 70
     1
102
RTVSPropertyOp54
 70
     1
102
RTVSPropertyOp55
 70
     1
102
RTVSPropertyOp56
 70
     1
102
RTVSPropertyOp57
 70
     1
102
RTVSPropertyOp58
 70
     1
102
RTVSPropertyOp59
 70
     1
102
RTVSPropertyOp60
 70
     1
102
RTVSPropertyOp61
 70
     1
102
RTVSPropertyOp62
 70
     1
  0
XRECORD
  5
8016
102
{ACAD_REACTORS
330
8015
102
}
330
8015
100
AcDbXrecord
280
     1
102
RTVSPost2010Prop28
280
     0
102
RTVSPost2010PropOp28
 70
     0
102
RTVSPost2010Prop29
280
     1
102
RTVSPost2010PropOp29
 70
     0
102
RTVSPost2010Prop30
280
     1
102
RTVSPost2010PropOp30
 70
     0
102
RTVSPost2010Prop31
280
     0
102
RTVSPost2010PropOp31
 70
     0
102
RTVSPost2010Prop32
280
     0
102
RTVSPost2010PropOp32
 70
     0
102
RTVSPost2010Prop33
280
     0
102
RTVSPost2010PropOp33
 70
     0
102
RTVSPost2010Prop34
280
     0
102
RTVSPost2010PropOp34
 70
     0
102
RTVSPost2010Prop35
280
     0
102
RTVSPost2010PropOp35
 70
     0
102
RTVSPost2010Prop36
280
     0
102
RTVSPost2010PropOp36
 70
     0
102
RTVSPost2010Prop37
 90
       50
102
RTVSPost2010PropOp37
 70
     0
102
RTVSPost2010Prop38
140
0.0
102
RTVSPost2010PropOp38
 70
     0
102
RTVSPost2010Prop39
140
1.0
102
RTVSPost2010PropOp39
 70
     0
102
RTVSPost2010Prop40
 90
        0
102
RTVSPost2010PropOp40
 70
     0
102
RTVSPost2010Prop41ColorIndex
 90
       18
102
RTVSPost2010Prop41ColorRGB
 90
        0
102
RTVSPost2010PropOp41
 70
     0
102
RTVSPost2010Prop42
 90
       50
102
RTVSPost2010PropOp42
 70
     0
102
RTVSPost2010Prop43
 90
        3
102
RTVSPost2010PropOp43
 70
     0
102
RTVSPost2010Prop44ColorIndex
 90
        5
102
RTVSPost2010Prop44ColorRGB
 90
      255
102
RTVSPost2010PropOp44
 70
     0
102
RTVSPost2010Prop45
280
     0
102
RTVSPost2010PropOp45
 70
     0
102
RTVSPost2010Prop46
 90
       50
102
RTVSPost2010PropOp46
 70
     0
102
RTVSPost2010Prop47
 90
       50
102
RTVSPost2010PropOp47
 70
     0
102
RTVSPost2010Prop48
 90
       50
102
RTVSPost2010PropOp48
 70
     0
102
RTVSPost2010Prop49
280
     0
102
RTVSPost2010PropOp49
 70
     0
102
RTVSPost2010Prop50
 90
       50
102
RTVSPost2010PropOp50
 70
     0
102
RTVSPost2010Prop51ColorIndex
 90
      256
102
RTVSPost2010Prop51ColorRGB
 90
-16777216
102
RTVSPost2010PropOp51
 70
     0
102
RTVSPost2010Prop52
140
1.0
102
RTVSPost2010PropOp52
 70
     0
102
RTVSPost2010Prop53
 90
        2
102
RTVSPost2010PropOp53
 70
     0
102
RTVSPost2010Prop54
  1
strokes_ogs.tif
102
RTVSPost2010PropOp54
 70
     0
102
RTVSPost2010Prop55
280
     0
102
RTVSPost2010PropOp55
 70
     0
102
RTVSPost2010Prop56
140
1.0
102
RTVSPost2010PropOp56
 70
     0
102
RTVSPost2010Prop57
140
1.0
102
RTVSPost2010PropOp57
 70
     0
102
RTVSPropertyOp0
 70
     0
102
RTVSPropertyOp1
 70
     0
102
RTVSPropertyOp2
 70
     0
102
RTVSPropertyOp3
 70
     0
102
RTVSPropertyOp4
 70
     0
102
RTVSPropertyOp5
 70
     0
102
RTVSPropertyOp6
 70
     0
102
RTVSPropertyOp7
 70
     0
102
RTVSPropertyOp8
 70
     0
102
RTVSPropertyOp9
 70
     0
102
RTVSPropertyOp10
 70
     0
102
RTVSPropertyOp11
 70
     0
102
RTVSPropertyOp12
 70
     0
102
RTVSPropertyOp13
 70
     0
102
RTVSPropertyOp14
 70
     2
102
RTVSPropertyOp15
 70
     0
102
RTVSPropertyOp16
 70
     0
102
RTVSPropertyOp17
 70
     0
102
RTVSPropertyOp18
 70
     0
102
RTVSPropertyOp19
 70
     0
102
RTVSPropertyOp20
 70
     0
102
RTVSPropertyOp21
 70
     0
102
RTVSPropertyOp22
 70
     0
102
RTVSPropertyOp23
 70
     0
102
RTVSPropertyOp24
 70
     0
102
RTVSPropertyOp25
 70
     0
102
RTVSPropertyOp26
 70
     0
102
RTVSPropertyOp27
 70
     0
102
RTVSPropertyOp28
 70
     0
102
RTVSPropertyOp29
 70
     0
102
RTVSPropertyOp30
 70
     0
102
RTVSPropertyOp31
 70
     0
102
RTVSPropertyOp32
 70
     0
102
RTVSPropertyOp33
 70
     0
102
RTVSPropertyOp34
 70
     0
102
RTVSPropertyOp35
 70
     0
102
RTVSPropertyOp36
 70
     0
102
RTVSPropertyOp37
 70
     0
102
RTVSPropertyOp38
 70
     0
102
RTVSPropertyOp39
 70
     0
102
RTVSPropertyOp40
 70
     0
102
RTVSPropertyOp41
 70
     0
102
RTVSPropertyOp42
 70
     0
102
RTVSPropertyOp43
 70
     0
102
RTVSPropertyOp44
 70
     0
102
RTVSPropertyOp45
 70
     0
102
RTVSPropertyOp46
 70
     0
102
RTVSPropertyOp47
 70
     0
102
RTVSPropertyOp48
 70
     0
102
RTVSPropertyOp49
 70
     0
102
RTVSPropertyOp50
 70
     0
102
RTVSPropertyOp51
 70
     0
102
RTVSPropertyOp52
 70
     0
102
RTVSPropertyOp53
 70
     0
102
RTVSPropertyOp54
 70
     0
102
RTVSPropertyOp55
 70
     0
102
RTVSPropertyOp56
 70
     0
102
RTVSPropertyOp57
 70
     0
102
RTVSPropertyOp58
 70
     1
102
RTVSPropertyOp59
 70
     1
102
RTVSPropertyOp60
 70
     1
102
RTVSPropertyOp61
 70
     1
102
RTVSPropertyOp62
 70
     1
  0
XRECORD
  5
7FFC
102
{ACAD_REACTORS
330
7FFB
102
}
330
7FFB
100
AcDbXrecord
280
     1
102
RTVSPost2010Prop28
280
     0
102
RTVSPost2010PropOp28
 70
     1
102
RTVSPost2010Prop29
280
     1
102
RTVSPost2010PropOp29
 70
     1
102
RTVSPost2010Prop30
280
     1
102
RTVSPost2010PropOp30
 70
     1
102
RTVSPost2010Prop31
280
     0
102
RTVSPost2010PropOp31
 70
     1
102
RTVSPost2010Prop32
280
     0
102
RTVSPost2010PropOp32
 70
     1
102
RTVSPost2010Prop33
280
     0
102
RTVSPost2010PropOp33
 70
     1
102
RTVSPost2010Prop34
280
     0
102
RTVSPost2010PropOp34
 70
     1
102
RTVSPost2010Prop35
280
     0
102
RTVSPost2010PropOp35
 70
     1
102
RTVSPost2010Prop36
280
     0
102
RTVSPost2010PropOp36
 70
     1
102
RTVSPost2010Prop37
 90
       50
102
RTVSPost2010PropOp37
 70
     1
102
RTVSPost2010Prop38
140
0.0
102
RTVSPost2010PropOp38
 70
     1
102
RTVSPost2010Prop39
140
1.0
102
RTVSPost2010PropOp39
 70
     1
102
RTVSPost2010Prop40
 90
        0
102
RTVSPost2010PropOp40
 70
     1
102
RTVSPost2010Prop41ColorIndex
 90
       18
102
RTVSPost2010Prop41ColorRGB
 90
        0
102
RTVSPost2010PropOp41
 70
     1
102
RTVSPost2010Prop42
 90
       50
102
RTVSPost2010PropOp42
 70
     1
102
RTVSPost2010Prop43
 90
        3
102
RTVSPost2010PropOp43
 70
     1
102
RTVSPost2010Prop44ColorIndex
 90
        5
102
RTVSPost2010Prop44ColorRGB
 90
      255
102
RTVSPost2010PropOp44
 70
     1
102
RTVSPost2010Prop45
280
     0
102
RTVSPost2010PropOp45
 70
     1
102
RTVSPost2010Prop46
 90
       50
102
RTVSPost2010PropOp46
 70
     1
102
RTVSPost2010Prop47
 90
       50
102
RTVSPost2010PropOp47
 70
     1
102
RTVSPost2010Prop48
 90
       50
102
RTVSPost2010PropOp48
 70
     1
102
RTVSPost2010Prop49
280
     0
102
RTVSPost2010PropOp49
 70
     1
102
RTVSPost2010Prop50
 90
       50
102
RTVSPost2010PropOp50
 70
     1
102
RTVSPost2010Prop51ColorIndex
 90
      256
102
RTVSPost2010Prop51ColorRGB
 90
-16777216
102
RTVSPost2010PropOp51
 70
     0
102
RTVSPost2010Prop52
140
1.0
102
RTVSPost2010PropOp52
 70
     0
102
RTVSPost2010Prop53
 90
        2
102
RTVSPost2010PropOp53
 70
     1
102
RTVSPost2010Prop54
  1
strokes_ogs.tif
102
RTVSPost2010PropOp54
 70
     1
102
RTVSPost2010Prop55
280
     0
102
RTVSPost2010PropOp55
 70
     1
102
RTVSPost2010Prop56
140
1.0
102
RTVSPost2010PropOp56
 70
     1
102
RTVSPost2010Prop57
140
1.0
102
RTVSPost2010PropOp57
 70
     1
102
RTVSPropertyOp0
 70
     1
102
RTVSPropertyOp1
 70
     1
102
RTVSPropertyOp2
 70
     1
102
RTVSPropertyOp3
 70
     1
102
RTVSPropertyOp4
 70
     1
102
RTVSPropertyOp5
 70
     1
102
RTVSPropertyOp6
 70
     1
102
RTVSPropertyOp7
 70
     1
102
RTVSPropertyOp8
 70
     1
102
RTVSPropertyOp9
 70
     1
102
RTVSPropertyOp10
 70
     1
102
RTVSPropertyOp11
 70
     1
102
RTVSPropertyOp12
 70
     1
102
RTVSPropertyOp13
 70
     1
102
RTVSPropertyOp14
 70
     1
102
RTVSPropertyOp15
 70
     1
102
RTVSPropertyOp16
 70
     1
102
RTVSPropertyOp17
 70
     1
102
RTVSPropertyOp18
 70
     1
102
RTVSPropertyOp19
 70
     1
102
RTVSPropertyOp20
 70
     1
102
RTVSPropertyOp21
 70
     1
102
RTVSPropertyOp22
 70
     1
102
RTVSPropertyOp23
 70
     1
102
RTVSPropertyOp24
 70
     1
102
RTVSPropertyOp25
 70
     1
102
RTVSPropertyOp26
 70
     1
102
RTVSPropertyOp27
 70
     1
102
RTVSPropertyOp28
 70
     1
102
RTVSPropertyOp29
 70
     1
102
RTVSPropertyOp30
 70
     1
102
RTVSPropertyOp31
 70
     1
102
RTVSPropertyOp32
 70
     1
102
RTVSPropertyOp33
 70
     1
102
RTVSPropertyOp34
 70
     1
102
RTVSPropertyOp35
 70
     1
102
RTVSPropertyOp36
 70
     1
102
RTVSPropertyOp37
 70
     1
102
RTVSPropertyOp38
 70
     1
102
RTVSPropertyOp39
 70
     1
102
RTVSPropertyOp40
 70
     1
102
RTVSPropertyOp41
 70
     1
102
RTVSPropertyOp42
 70
     1
102
RTVSPropertyOp43
 70
     1
102
RTVSPropertyOp44
 70
     1
102
RTVSPropertyOp45
 70
     1
102
RTVSPropertyOp46
 70
     1
102
RTVSPropertyOp47
 70
     1
102
RTVSPropertyOp48
 70
     1
102
RTVSPropertyOp49
 70
     1
102
RTVSPropertyOp50
 70
     1
102
RTVSPropertyOp51
 70
     0
102
RTVSPropertyOp52
 70
     0
102
RTVSPropertyOp53
 70
     1
102
RTVSPropertyOp54
 70
     1
102
RTVSPropertyOp55
 70
     1
102
RTVSPropertyOp56
 70
     1
102
RTVSPropertyOp57
 70
     1
102
RTVSPropertyOp58
 70
     1
102
RTVSPropertyOp59
 70
     1
102
RTVSPropertyOp60
 70
     1
102
RTVSPropertyOp61
 70
     1
102
RTVSPropertyOp62
 70
     1
  0
XRECORD
  5
8012
102
{ACAD_REACTORS
330
8011
102
}
330
8011
100
AcDbXrecord
280
     1
102
RTVSPost2010Prop28
280
     0
102
RTVSPost2010PropOp28
 70
     1
102
RTVSPost2010Prop29
280
     1
102
RTVSPost2010PropOp29
 70
     1
102
RTVSPost2010Prop30
280
     1
102
RTVSPost2010PropOp30
 70
     1
102
RTVSPost2010Prop31
280
     0
102
RTVSPost2010PropOp31
 70
     1
102
RTVSPost2010Prop32
280
     0
102
RTVSPost2010PropOp32
 70
     1
102
RTVSPost2010Prop33
280
     0
102
RTVSPost2010PropOp33
 70
     1
102
RTVSPost2010Prop34
280
     0
102
RTVSPost2010PropOp34
 70
     1
102
RTVSPost2010Prop35
280
     0
102
RTVSPost2010PropOp35
 70
     1
102
RTVSPost2010Prop36
280
     0
102
RTVSPost2010PropOp36
 70
     1
102
RTVSPost2010Prop37
 90
       50
102
RTVSPost2010PropOp37
 70
     1
102
RTVSPost2010Prop38
140
0.0
102
RTVSPost2010PropOp38
 70
     1
102
RTVSPost2010Prop39
140
1.0
102
RTVSPost2010PropOp39
 70
     1
102
RTVSPost2010Prop40
 90
        0
102
RTVSPost2010PropOp40
 70
     1
102
RTVSPost2010Prop41ColorIndex
 90
       18
102
RTVSPost2010Prop41ColorRGB
 90
        0
102
RTVSPost2010PropOp41
 70
     1
102
RTVSPost2010Prop42
 90
       50
102
RTVSPost2010PropOp42
 70
     1
102
RTVSPost2010Prop43
 90
        3
102
RTVSPost2010PropOp43
 70
     1
102
RTVSPost2010Prop44ColorIndex
 90
        5
102
RTVSPost2010Prop44ColorRGB
 90
      255
102
RTVSPost2010PropOp44
 70
     1
102
RTVSPost2010Prop45
280
     0
102
RTVSPost2010PropOp45
 70
     1
102
RTVSPost2010Prop46
 90
       50
102
RTVSPost2010PropOp46
 70
     1
102
RTVSPost2010Prop47
 90
       50
102
RTVSPost2010PropOp47
 70
     1
102
RTVSPost2010Prop48
 90
       50
102
RTVSPost2010PropOp48
 70
     1
102
RTVSPost2010Prop49
280
     0
102
RTVSPost2010PropOp49
 70
     1
102
RTVSPost2010Prop50
 90
       50
102
RTVSPost2010PropOp50
 70
     1
102
RTVSPost2010Prop51ColorIndex
 90
      256
102
RTVSPost2010Prop51ColorRGB
 90
-16777216
102
RTVSPost2010PropOp51
 70
     0
102
RTVSPost2010Prop52
140
1.0
102
RTVSPost2010PropOp52
 70
     0
102
RTVSPost2010Prop53
 90
        2
102
RTVSPost2010PropOp53
 70
     1
102
RTVSPost2010Prop54
  1
strokes_ogs.tif
102
RTVSPost2010PropOp54
 70
     1
102
RTVSPost2010Prop55
280
     0
102
RTVSPost2010PropOp55
 70
     1
102
RTVSPost2010Prop56
140
1.0
102
RTVSPost2010PropOp56
 70
     1
102
RTVSPost2010Prop57
140
1.0
102
RTVSPost2010PropOp57
 70
     1
102
RTVSPropertyOp0
 70
     1
102
RTVSPropertyOp1
 70
     1
102
RTVSPropertyOp2
 70
     1
102
RTVSPropertyOp3
 70
     1
102
RTVSPropertyOp4
 70
     1
102
RTVSPropertyOp5
 70
     1
102
RTVSPropertyOp6
 70
     1
102
RTVSPropertyOp7
 70
     1
102
RTVSPropertyOp8
 70
     1
102
RTVSPropertyOp9
 70
     1
102
RTVSPropertyOp10
 70
     1
102
RTVSPropertyOp11
 70
     1
102
RTVSPropertyOp12
 70
     1
102
RTVSPropertyOp13
 70
     1
102
RTVSPropertyOp14
 70
     1
102
RTVSPropertyOp15
 70
     1
102
RTVSPropertyOp16
 70
     1
102
RTVSPropertyOp17
 70
     1
102
RTVSPropertyOp18
 70
     1
102
RTVSPropertyOp19
 70
     1
102
RTVSPropertyOp20
 70
     1
102
RTVSPropertyOp21
 70
     1
102
RTVSPropertyOp22
 70
     1
102
RTVSPropertyOp23
 70
     1
102
RTVSPropertyOp24
 70
     1
102
RTVSPropertyOp25
 70
     1
102
RTVSPropertyOp26
 70
     1
102
RTVSPropertyOp27
 70
     1
102
RTVSPropertyOp28
 70
     1
102
RTVSPropertyOp29
 70
     1
102
RTVSPropertyOp30
 70
     1
102
RTVSPropertyOp31
 70
     1
102
RTVSPropertyOp32
 70
     1
102
RTVSPropertyOp33
 70
     1
102
RTVSPropertyOp34
 70
     1
102
RTVSPropertyOp35
 70
     1
102
RTVSPropertyOp36
 70
     1
102
RTVSPropertyOp37
 70
     1
102
RTVSPropertyOp38
 70
     1
102
RTVSPropertyOp39
 70
     1
102
RTVSPropertyOp40
 70
     1
102
RTVSPropertyOp41
 70
     1
102
RTVSPropertyOp42
 70
     1
102
RTVSPropertyOp43
 70
     1
102
RTVSPropertyOp44
 70
     1
102
RTVSPropertyOp45
 70
     1
102
RTVSPropertyOp46
 70
     1
102
RTVSPropertyOp47
 70
     1
102
RTVSPropertyOp48
 70
     1
102
RTVSPropertyOp49
 70
     1
102
RTVSPropertyOp50
 70
     1
102
RTVSPropertyOp51
 70
     0
102
RTVSPropertyOp52
 70
     0
102
RTVSPropertyOp53
 70
     1
102
RTVSPropertyOp54
 70
     1
102
RTVSPropertyOp55
 70
     1
102
RTVSPropertyOp56
 70
     1
102
RTVSPropertyOp57
 70
     1
102
RTVSPropertyOp58
 70
     1
102
RTVSPropertyOp59
 70
     1
102
RTVSPropertyOp60
 70
     1
102
RTVSPropertyOp61
 70
     1
102
RTVSPropertyOp62
 70
     1
  0
XRECORD
  5
8010
102
{ACAD_REACTORS
330
800F
102
}
330
800F
100
AcDbXrecord
280
     1
102
RTVSPost2010Prop28
280
     0
102
RTVSPost2010PropOp28
 70
     1
102
RTVSPost2010Prop29
280
     1
102
RTVSPost2010PropOp29
 70
     1
102
RTVSPost2010Prop30
280
     1
102
RTVSPost2010PropOp30
 70
     1
102
RTVSPost2010Prop31
280
     0
102
RTVSPost2010PropOp31
 70
     1
102
RTVSPost2010Prop32
280
     0
102
RTVSPost2010PropOp32
 70
     1
102
RTVSPost2010Prop33
280
     0
102
RTVSPost2010PropOp33
 70
     1
102
RTVSPost2010Prop34
280
     0
102
RTVSPost2010PropOp34
 70
     1
102
RTVSPost2010Prop35
280
     0
102
RTVSPost2010PropOp35
 70
     1
102
RTVSPost2010Prop36
280
     0
102
RTVSPost2010PropOp36
 70
     1
102
RTVSPost2010Prop37
 90
       50
102
RTVSPost2010PropOp37
 70
     1
102
RTVSPost2010Prop38
140
0.0
102
RTVSPost2010PropOp38
 70
     1
102
RTVSPost2010Prop39
140
1.0
102
RTVSPost2010PropOp39
 70
     1
102
RTVSPost2010Prop40
 90
        0
102
RTVSPost2010PropOp40
 70
     1
102
RTVSPost2010Prop41ColorIndex
 90
       18
102
RTVSPost2010Prop41ColorRGB
 90
        0
102
RTVSPost2010PropOp41
 70
     1
102
RTVSPost2010Prop42
 90
       50
102
RTVSPost2010PropOp42
 70
     1
102
RTVSPost2010Prop43
 90
        3
102
RTVSPost2010PropOp43
 70
     1
102
RTVSPost2010Prop44ColorIndex
 90
        5
102
RTVSPost2010Prop44ColorRGB
 90
      255
102
RTVSPost2010PropOp44
 70
     1
102
RTVSPost2010Prop45
280
     0
102
RTVSPost2010PropOp45
 70
     1
102
RTVSPost2010Prop46
 90
       50
102
RTVSPost2010PropOp46
 70
     1
102
RTVSPost2010Prop47
 90
       50
102
RTVSPost2010PropOp47
 70
     1
102
RTVSPost2010Prop48
 90
       50
102
RTVSPost2010PropOp48
 70
     1
102
RTVSPost2010Prop49
280
     0
102
RTVSPost2010PropOp49
 70
     1
102
RTVSPost2010Prop50
 90
       50
102
RTVSPost2010PropOp50
 70
     1
102
RTVSPost2010Prop51ColorIndex
 90
      256
102
RTVSPost2010Prop51ColorRGB
 90
-16777216
102
RTVSPost2010PropOp51
 70
     0
102
RTVSPost2010Prop52
140
1.0
102
RTVSPost2010PropOp52
 70
     0
102
RTVSPost2010Prop53
 90
        2
102
RTVSPost2010PropOp53
 70
     1
102
RTVSPost2010Prop54
  1
strokes_ogs.tif
102
RTVSPost2010PropOp54
 70
     1
102
RTVSPost2010Prop55
280
     0
102
RTVSPost2010PropOp55
 70
     1
102
RTVSPost2010Prop56
140
1.0
102
RTVSPost2010PropOp56
 70
     1
102
RTVSPost2010Prop57
140
1.0
102
RTVSPost2010PropOp57
 70
     1
102
RTVSPropertyOp0
 70
     1
102
RTVSPropertyOp1
 70
     1
102
RTVSPropertyOp2
 70
     1
102
RTVSPropertyOp3
 70
     1
102
RTVSPropertyOp4
 70
     1
102
RTVSPropertyOp5
 70
     1
102
RTVSPropertyOp6
 70
     1
102
RTVSPropertyOp7
 70
     1
102
RTVSPropertyOp8
 70
     1
102
RTVSPropertyOp9
 70
     1
102
RTVSPropertyOp10
 70
     1
102
RTVSPropertyOp11
 70
     1
102
RTVSPropertyOp12
 70
     1
102
RTVSPropertyOp13
 70
     1
102
RTVSPropertyOp14
 70
     1
102
RTVSPropertyOp15
 70
     1
102
RTVSPropertyOp16
 70
     1
102
RTVSPropertyOp17
 70
     1
102
RTVSPropertyOp18
 70
     1
102
RTVSPropertyOp19
 70
     1
102
RTVSPropertyOp20
 70
     1
102
RTVSPropertyOp21
 70
     1
102
RTVSPropertyOp22
 70
     1
102
RTVSPropertyOp23
 70
     1
102
RTVSPropertyOp24
 70
     1
102
RTVSPropertyOp25
 70
     1
102
RTVSPropertyOp26
 70
     1
102
RTVSPropertyOp27
 70
     1
102
RTVSPropertyOp28
 70
     1
102
RTVSPropertyOp29
 70
     1
102
RTVSPropertyOp30
 70
     1
102
RTVSPropertyOp31
 70
     1
102
RTVSPropertyOp32
 70
     1
102
RTVSPropertyOp33
 70
     1
102
RTVSPropertyOp34
 70
     1
102
RTVSPropertyOp35
 70
     1
102
RTVSPropertyOp36
 70
     1
102
RTVSPropertyOp37
 70
     1
102
RTVSPropertyOp38
 70
     1
102
RTVSPropertyOp39
 70
     1
102
RTVSPropertyOp40
 70
     1
102
RTVSPropertyOp41
 70
     1
102
RTVSPropertyOp42
 70
     1
102
RTVSPropertyOp43
 70
     1
102
RTVSPropertyOp44
 70
     1
102
RTVSPropertyOp45
 70
     1
102
RTVSPropertyOp46
 70
     1
102
RTVSPropertyOp47
 70
     1
102
RTVSPropertyOp48
 70
     1
102
RTVSPropertyOp49
 70
     1
102
RTVSPropertyOp50
 70
     1
102
RTVSPropertyOp51
 70
     0
102
RTVSPropertyOp52
 70
     0
102
RTVSPropertyOp53
 70
     1
102
RTVSPropertyOp54
 70
     1
102
RTVSPropertyOp55
 70
     1
102
RTVSPropertyOp56
 70
     1
102
RTVSPropertyOp57
 70
     1
102
RTVSPropertyOp58
 70
     1
102
RTVSPropertyOp59
 70
     1
102
RTVSPropertyOp60
 70
     1
102
RTVSPropertyOp61
 70
     1
102
RTVSPropertyOp62
 70
     1
  0
XRECORD
  5
800A
102
{ACAD_REACTORS
330
8009
102
}
330
8009
100
AcDbXrecord
280
     1
102
RTVSPost2010Prop28
280
     0
102
RTVSPost2010PropOp28
 70
     1
102
RTVSPost2010Prop29
280
     1
102
RTVSPost2010PropOp29
 70
     1
102
RTVSPost2010Prop30
280
     1
102
RTVSPost2010PropOp30
 70
     1
102
RTVSPost2010Prop31
280
     0
102
RTVSPost2010PropOp31
 70
     1
102
RTVSPost2010Prop32
280
     0
102
RTVSPost2010PropOp32
 70
     1
102
RTVSPost2010Prop33
280
     0
102
RTVSPost2010PropOp33
 70
     1
102
RTVSPost2010Prop34
280
     0
102
RTVSPost2010PropOp34
 70
     1
102
RTVSPost2010Prop35
280
     0
102
RTVSPost2010PropOp35
 70
     1
102
RTVSPost2010Prop36
280
     0
102
RTVSPost2010PropOp36
 70
     1
102
RTVSPost2010Prop37
 90
       50
102
RTVSPost2010PropOp37
 70
     1
102
RTVSPost2010Prop38
140
0.0
102
RTVSPost2010PropOp38
 70
     1
102
RTVSPost2010Prop39
140
1.0
102
RTVSPost2010PropOp39
 70
     1
102
RTVSPost2010Prop40
 90
        0
102
RTVSPost2010PropOp40
 70
     1
102
RTVSPost2010Prop41ColorIndex
 90
       18
102
RTVSPost2010Prop41ColorRGB
 90
        0
102
RTVSPost2010PropOp41
 70
     1
102
RTVSPost2010Prop42
 90
       50
102
RTVSPost2010PropOp42
 70
     1
102
RTVSPost2010Prop43
 90
        3
102
RTVSPost2010PropOp43
 70
     1
102
RTVSPost2010Prop44ColorIndex
 90
        5
102
RTVSPost2010Prop44ColorRGB
 90
      255
102
RTVSPost2010PropOp44
 70
     1
102
RTVSPost2010Prop45
280
     0
102
RTVSPost2010PropOp45
 70
     1
102
RTVSPost2010Prop46
 90
       50
102
RTVSPost2010PropOp46
 70
     1
102
RTVSPost2010Prop47
 90
       50
102
RTVSPost2010PropOp47
 70
     1
102
RTVSPost2010Prop48
 90
       50
102
RTVSPost2010PropOp48
 70
     1
102
RTVSPost2010Prop49
280
     0
102
RTVSPost2010PropOp49
 70
     1
102
RTVSPost2010Prop50
 90
       50
102
RTVSPost2010PropOp50
 70
     1
102
RTVSPost2010Prop51ColorIndex
 90
      256
102
RTVSPost2010Prop51ColorRGB
 90
-16777216
102
RTVSPost2010PropOp51
 70
     0
102
RTVSPost2010Prop52
140
1.0
102
RTVSPost2010PropOp52
 70
     0
102
RTVSPost2010Prop53
 90
        2
102
RTVSPost2010PropOp53
 70
     1
102
RTVSPost2010Prop54
  1
strokes_ogs.tif
102
RTVSPost2010PropOp54
 70
     1
102
RTVSPost2010Prop55
280
     0
102
RTVSPost2010PropOp55
 70
     1
102
RTVSPost2010Prop56
140
1.0
102
RTVSPost2010PropOp56
 70
     1
102
RTVSPost2010Prop57
140
1.0
102
RTVSPost2010PropOp57
 70
     1
102
RTVSPropertyOp0
 70
     1
102
RTVSPropertyOp1
 70
     1
102
RTVSPropertyOp2
 70
     1
102
RTVSPropertyOp3
 70
     1
102
RTVSPropertyOp4
 70
     1
102
RTVSPropertyOp5
 70
     1
102
RTVSPropertyOp6
 70
     1
102
RTVSPropertyOp7
 70
     1
102
RTVSPropertyOp8
 70
     1
102
RTVSPropertyOp9
 70
     1
102
RTVSPropertyOp10
 70
     1
102
RTVSPropertyOp11
 70
     1
102
RTVSPropertyOp12
 70
     1
102
RTVSPropertyOp13
 70
     1
102
RTVSPropertyOp14
 70
     1
102
RTVSPropertyOp15
 70
     1
102
RTVSPropertyOp16
 70
     1
102
RTVSPropertyOp17
 70
     1
102
RTVSPropertyOp18
 70
     1
102
RTVSPropertyOp19
 70
     1
102
RTVSPropertyOp20
 70
     1
102
RTVSPropertyOp21
 70
     1
102
RTVSPropertyOp22
 70
     1
102
RTVSPropertyOp23
 70
     1
102
RTVSPropertyOp24
 70
     1
102
RTVSPropertyOp25
 70
     1
102
RTVSPropertyOp26
 70
     1
102
RTVSPropertyOp27
 70
     1
102
RTVSPropertyOp28
 70
     1
102
RTVSPropertyOp29
 70
     1
102
RTVSPropertyOp30
 70
     1
102
RTVSPropertyOp31
 70
     1
102
RTVSPropertyOp32
 70
     1
102
RTVSPropertyOp33
 70
     1
102
RTVSPropertyOp34
 70
     1
102
RTVSPropertyOp35
 70
     1
102
RTVSPropertyOp36
 70
     1
102
RTVSPropertyOp37
 70
     1
102
RTVSPropertyOp38
 70
     1
102
RTVSPropertyOp39
 70
     1
102
RTVSPropertyOp40
 70
     1
102
RTVSPropertyOp41
 70
     1
102
RTVSPropertyOp42
 70
     1
102
RTVSPropertyOp43
 70
     1
102
RTVSPropertyOp44
 70
     1
102
RTVSPropertyOp45
 70
     1
102
RTVSPropertyOp46
 70
     1
102
RTVSPropertyOp47
 70
     1
102
RTVSPropertyOp48
 70
     1
102
RTVSPropertyOp49
 70
     1
102
RTVSPropertyOp50
 70
     1
102
RTVSPropertyOp51
 70
     0
102
RTVSPropertyOp52
 70
     0
102
RTVSPropertyOp53
 70
     1
102
RTVSPropertyOp54
 70
     1
102
RTVSPropertyOp55
 70
     1
102
RTVSPropertyOp56
 70
     1
102
RTVSPropertyOp57
 70
     1
102
RTVSPropertyOp58
 70
     1
102
RTVSPropertyOp59
 70
     1
102
RTVSPropertyOp60
 70
     1
102
RTVSPropertyOp61
 70
     1
102
RTVSPropertyOp62
 70
     1
  0
XRECORD
  5
800C
102
{ACAD_REACTORS
330
800B
102
}
330
800B
100
AcDbXrecord
280
     1
102
RTVSPost2010Prop28
280
     0
102
RTVSPost2010PropOp28
 70
     1
102
RTVSPost2010Prop29
280
     1
102
RTVSPost2010PropOp29
 70
     1
102
RTVSPost2010Prop30
280
     1
102
RTVSPost2010PropOp30
 70
     1
102
RTVSPost2010Prop31
280
     0
102
RTVSPost2010PropOp31
 70
     1
102
RTVSPost2010Prop32
280
     0
102
RTVSPost2010PropOp32
 70
     1
102
RTVSPost2010Prop33
280
     0
102
RTVSPost2010PropOp33
 70
     1
102
RTVSPost2010Prop34
280
     0
102
RTVSPost2010PropOp34
 70
     1
102
RTVSPost2010Prop35
280
     0
102
RTVSPost2010PropOp35
 70
     1
102
RTVSPost2010Prop36
280
     0
102
RTVSPost2010PropOp36
 70
     1
102
RTVSPost2010Prop37
 90
       50
102
RTVSPost2010PropOp37
 70
     1
102
RTVSPost2010Prop38
140
0.0
102
RTVSPost2010PropOp38
 70
     1
102
RTVSPost2010Prop39
140
1.0
102
RTVSPost2010PropOp39
 70
     1
102
RTVSPost2010Prop40
 90
        0
102
RTVSPost2010PropOp40
 70
     1
102
RTVSPost2010Prop41ColorIndex
 90
       18
102
RTVSPost2010Prop41ColorRGB
 90
        0
102
RTVSPost2010PropOp41
 70
     1
102
RTVSPost2010Prop42
 90
       50
102
RTVSPost2010PropOp42
 70
     1
102
RTVSPost2010Prop43
 90
        3
102
RTVSPost2010PropOp43
 70
     1
102
RTVSPost2010Prop44ColorIndex
 90
        5
102
RTVSPost2010Prop44ColorRGB
 90
      255
102
RTVSPost2010PropOp44
 70
     1
102
RTVSPost2010Prop45
280
     0
102
RTVSPost2010PropOp45
 70
     1
102
RTVSPost2010Prop46
 90
       50
102
RTVSPost2010PropOp46
 70
     1
102
RTVSPost2010Prop47
 90
       50
102
RTVSPost2010PropOp47
 70
     1
102
RTVSPost2010Prop48
 90
       50
102
RTVSPost2010PropOp48
 70
     1
102
RTVSPost2010Prop49
280
     0
102
RTVSPost2010PropOp49
 70
     1
102
RTVSPost2010Prop50
 90
       50
102
RTVSPost2010PropOp50
 70
     1
102
RTVSPost2010Prop51ColorIndex
 90
      256
102
RTVSPost2010Prop51ColorRGB
 90
-16777216
102
RTVSPost2010PropOp51
 70
     0
102
RTVSPost2010Prop52
140
1.0
102
RTVSPost2010PropOp52
 70
     0
102
RTVSPost2010Prop53
 90
        2
102
RTVSPost2010PropOp53
 70
     1
102
RTVSPost2010Prop54
  1
strokes_ogs.tif
102
RTVSPost2010PropOp54
 70
     1
102
RTVSPost2010Prop55
280
     0
102
RTVSPost2010PropOp55
 70
     1
102
RTVSPost2010Prop56
140
1.0
102
RTVSPost2010PropOp56
 70
     1
102
RTVSPost2010Prop57
140
1.0
102
RTVSPost2010PropOp57
 70
     1
102
RTVSPropertyOp0
 70
     1
102
RTVSPropertyOp1
 70
     1
102
RTVSPropertyOp2
 70
     1
102
RTVSPropertyOp3
 70
     1
102
RTVSPropertyOp4
 70
     1
102
RTVSPropertyOp5
 70
     1
102
RTVSPropertyOp6
 70
     1
102
RTVSPropertyOp7
 70
     1
102
RTVSPropertyOp8
 70
     1
102
RTVSPropertyOp9
 70
     1
102
RTVSPropertyOp10
 70
     1
102
RTVSPropertyOp11
 70
     1
102
RTVSPropertyOp12
 70
     1
102
RTVSPropertyOp13
 70
     1
102
RTVSPropertyOp14
 70
     1
102
RTVSPropertyOp15
 70
     1
102
RTVSPropertyOp16
 70
     1
102
RTVSPropertyOp17
 70
     1
102
RTVSPropertyOp18
 70
     1
102
RTVSPropertyOp19
 70
     1
102
RTVSPropertyOp20
 70
     1
102
RTVSPropertyOp21
 70
     1
102
RTVSPropertyOp22
 70
     1
102
RTVSPropertyOp23
 70
     1
102
RTVSPropertyOp24
 70
     1
102
RTVSPropertyOp25
 70
     1
102
RTVSPropertyOp26
 70
     1
102
RTVSPropertyOp27
 70
     1
102
RTVSPropertyOp28
 70
     1
102
RTVSPropertyOp29
 70
     1
102
RTVSPropertyOp30
 70
     1
102
RTVSPropertyOp31
 70
     1
102
RTVSPropertyOp32
 70
     1
102
RTVSPropertyOp33
 70
     1
102
RTVSPropertyOp34
 70
     1
102
RTVSPropertyOp35
 70
     1
102
RTVSPropertyOp36
 70
     1
102
RTVSPropertyOp37
 70
     1
102
RTVSPropertyOp38
 70
     1
102
RTVSPropertyOp39
 70
     1
102
RTVSPropertyOp40
 70
     1
102
RTVSPropertyOp41
 70
     1
102
RTVSPropertyOp42
 70
     1
102
RTVSPropertyOp43
 70
     1
102
RTVSPropertyOp44
 70
     1
102
RTVSPropertyOp45
 70
     1
102
RTVSPropertyOp46
 70
     1
102
RTVSPropertyOp47
 70
     1
102
RTVSPropertyOp48
 70
     1
102
RTVSPropertyOp49
 70
     1
102
RTVSPropertyOp50
 70
     1
102
RTVSPropertyOp51
 70
     0
102
RTVSPropertyOp52
 70
     0
102
RTVSPropertyOp53
 70
     1
102
RTVSPropertyOp54
 70
     1
102
RTVSPropertyOp55
 70
     1
102
RTVSPropertyOp56
 70
     1
102
RTVSPropertyOp57
 70
     1
102
RTVSPropertyOp58
 70
     1
102
RTVSPropertyOp59
 70
     1
102
RTVSPropertyOp60
 70
     1
102
RTVSPropertyOp61
 70
     1
102
RTVSPropertyOp62
 70
     1
  0
XRECORD
  5
8002
102
{ACAD_REACTORS
330
8001
102
}
330
8001
100
AcDbXrecord
280
     1
102
RTVSPost2010Prop28
280
     0
102
RTVSPost2010PropOp28
 70
     1
102
RTVSPost2010Prop29
280
     1
102
RTVSPost2010PropOp29
 70
     1
102
RTVSPost2010Prop30
280
     1
102
RTVSPost2010PropOp30
 70
     1
102
RTVSPost2010Prop31
280
     0
102
RTVSPost2010PropOp31
 70
     1
102
RTVSPost2010Prop32
280
     0
102
RTVSPost2010PropOp32
 70
     1
102
RTVSPost2010Prop33
280
     0
102
RTVSPost2010PropOp33
 70
     1
102
RTVSPost2010Prop34
280
     0
102
RTVSPost2010PropOp34
 70
     1
102
RTVSPost2010Prop35
280
     0
102
RTVSPost2010PropOp35
 70
     1
102
RTVSPost2010Prop36
280
     0
102
RTVSPost2010PropOp36
 70
     1
102
RTVSPost2010Prop37
 90
       50
102
RTVSPost2010PropOp37
 70
     1
102
RTVSPost2010Prop38
140
0.0
102
RTVSPost2010PropOp38
 70
     1
102
RTVSPost2010Prop39
140
1.0
102
RTVSPost2010PropOp39
 70
     1
102
RTVSPost2010Prop40
 90
        0
102
RTVSPost2010PropOp40
 70
     1
102
RTVSPost2010Prop41ColorIndex
 90
       18
102
RTVSPost2010Prop41ColorRGB
 90
        0
102
RTVSPost2010PropOp41
 70
     1
102
RTVSPost2010Prop42
 90
       50
102
RTVSPost2010PropOp42
 70
     1
102
RTVSPost2010Prop43
 90
        3
102
RTVSPost2010PropOp43
 70
     1
102
RTVSPost2010Prop44ColorIndex
 90
        5
102
RTVSPost2010Prop44ColorRGB
 90
      255
102
RTVSPost2010PropOp44
 70
     1
102
RTVSPost2010Prop45
280
     0
102
RTVSPost2010PropOp45
 70
     1
102
RTVSPost2010Prop46
 90
       50
102
RTVSPost2010PropOp46
 70
     1
102
RTVSPost2010Prop47
 90
       50
102
RTVSPost2010PropOp47
 70
     1
102
RTVSPost2010Prop48
 90
       50
102
RTVSPost2010PropOp48
 70
     1
102
RTVSPost2010Prop49
280
     0
102
RTVSPost2010PropOp49
 70
     1
102
RTVSPost2010Prop50
 90
       50
102
RTVSPost2010PropOp50
 70
     1
102
RTVSPost2010Prop51ColorIndex
 90
      256
102
RTVSPost2010Prop51ColorRGB
 90
-16777216
102
RTVSPost2010PropOp51
 70
     0
102
RTVSPost2010Prop52
140
1.0
102
RTVSPost2010PropOp52
 70
     0
102
RTVSPost2010Prop53
 90
        2
102
RTVSPost2010PropOp53
 70
     1
102
RTVSPost2010Prop54
  1
strokes_ogs.tif
102
RTVSPost2010PropOp54
 70
     1
102
RTVSPost2010Prop55
280
     0
102
RTVSPost2010PropOp55
 70
     1
102
RTVSPost2010Prop56
140
1.0
102
RTVSPost2010PropOp56
 70
     1
102
RTVSPost2010Prop57
140
1.0
102
RTVSPost2010PropOp57
 70
     1
102
RTVSPropertyOp0
 70
     1
102
RTVSPropertyOp1
 70
     1
102
RTVSPropertyOp2
 70
     1
102
RTVSPropertyOp3
 70
     1
102
RTVSPropertyOp4
 70
     1
102
RTVSPropertyOp5
 70
     1
102
RTVSPropertyOp6
 70
     1
102
RTVSPropertyOp7
 70
     1
102
RTVSPropertyOp8
 70
     1
102
RTVSPropertyOp9
 70
     1
102
RTVSPropertyOp10
 70
     1
102
RTVSPropertyOp11
 70
     1
102
RTVSPropertyOp12
 70
     1
102
RTVSPropertyOp13
 70
     1
102
RTVSPropertyOp14
 70
     1
102
RTVSPropertyOp15
 70
     1
102
RTVSPropertyOp16
 70
     1
102
RTVSPropertyOp17
 70
     1
102
RTVSPropertyOp18
 70
     1
102
RTVSPropertyOp19
 70
     1
102
RTVSPropertyOp20
 70
     1
102
RTVSPropertyOp21
 70
     1
102
RTVSPropertyOp22
 70
     1
102
RTVSPropertyOp23
 70
     1
102
RTVSPropertyOp24
 70
     1
102
RTVSPropertyOp25
 70
     1
102
RTVSPropertyOp26
 70
     1
102
RTVSPropertyOp27
 70
     1
102
RTVSPropertyOp28
 70
     1
102
RTVSPropertyOp29
 70
     1
102
RTVSPropertyOp30
 70
     1
102
RTVSPropertyOp31
 70
     1
102
RTVSPropertyOp32
 70
     1
102
RTVSPropertyOp33
 70
     1
102
RTVSPropertyOp34
 70
     1
102
RTVSPropertyOp35
 70
     1
102
RTVSPropertyOp36
 70
     1
102
RTVSPropertyOp37
 70
     1
102
RTVSPropertyOp38
 70
     1
102
RTVSPropertyOp39
 70
     1
102
RTVSPropertyOp40
 70
     1
102
RTVSPropertyOp41
 70
     1
102
RTVSPropertyOp42
 70
     1
102
RTVSPropertyOp43
 70
     1
102
RTVSPropertyOp44
 70
     1
102
RTVSPropertyOp45
 70
     1
102
RTVSPropertyOp46
 70
     1
102
RTVSPropertyOp47
 70
     1
102
RTVSPropertyOp48
 70
     1
102
RTVSPropertyOp49
 70
     1
102
RTVSPropertyOp50
 70
     1
102
RTVSPropertyOp51
 70
     0
102
RTVSPropertyOp52
 70
     0
102
RTVSPropertyOp53
 70
     1
102
RTVSPropertyOp54
 70
     1
102
RTVSPropertyOp55
 70
     1
102
RTVSPropertyOp56
 70
     1
102
RTVSPropertyOp57
 70
     1
102
RTVSPropertyOp58
 70
     1
102
RTVSPropertyOp59
 70
     1
102
RTVSPropertyOp60
 70
     1
102
RTVSPropertyOp61
 70
     1
102
RTVSPropertyOp62
 70
     1
  0
XRECORD
  5
7FF6
102
{ACAD_REACTORS
330
7FF5
102
}
330
7FF5
100
AcDbXrecord
280
     1
102
RTVSPost2010Prop28
280
     0
102
RTVSPost2010PropOp28
 70
     1
102
RTVSPost2010Prop29
280
     1
102
RTVSPost2010PropOp29
 70
     1
102
RTVSPost2010Prop30
280
     1
102
RTVSPost2010PropOp30
 70
     1
102
RTVSPost2010Prop31
280
     0
102
RTVSPost2010PropOp31
 70
     1
102
RTVSPost2010Prop32
280
     0
102
RTVSPost2010PropOp32
 70
     1
102
RTVSPost2010Prop33
280
     0
102
RTVSPost2010PropOp33
 70
     1
102
RTVSPost2010Prop34
280
     0
102
RTVSPost2010PropOp34
 70
     1
102
RTVSPost2010Prop35
280
     0
102
RTVSPost2010PropOp35
 70
     1
102
RTVSPost2010Prop36
280
     0
102
RTVSPost2010PropOp36
 70
     1
102
RTVSPost2010Prop37
 90
       50
102
RTVSPost2010PropOp37
 70
     1
102
RTVSPost2010Prop38
140
0.0
102
RTVSPost2010PropOp38
 70
     1
102
RTVSPost2010Prop39
140
1.0
102
RTVSPost2010PropOp39
 70
     1
102
RTVSPost2010Prop40
 90
        0
102
RTVSPost2010PropOp40
 70
     1
102
RTVSPost2010Prop41ColorIndex
 90
       18
102
RTVSPost2010Prop41ColorRGB
 90
        0
102
RTVSPost2010PropOp41
 70
     1
102
RTVSPost2010Prop42
 90
       50
102
RTVSPost2010PropOp42
 70
     1
102
RTVSPost2010Prop43
 90
        3
102
RTVSPost2010PropOp43
 70
     1
102
RTVSPost2010Prop44ColorIndex
 90
        5
102
RTVSPost2010Prop44ColorRGB
 90
      255
102
RTVSPost2010PropOp44
 70
     1
102
RTVSPost2010Prop45
280
     0
102
RTVSPost2010PropOp45
 70
     1
102
RTVSPost2010Prop46
 90
       50
102
RTVSPost2010PropOp46
 70
     1
102
RTVSPost2010Prop47
 90
       50
102
RTVSPost2010PropOp47
 70
     1
102
RTVSPost2010Prop48
 90
       50
102
RTVSPost2010PropOp48
 70
     1
102
RTVSPost2010Prop49
280
     0
102
RTVSPost2010PropOp49
 70
     1
102
RTVSPost2010Prop50
 90
       50
102
RTVSPost2010PropOp50
 70
     1
102
RTVSPost2010Prop51ColorIndex
 90
      256
102
RTVSPost2010Prop51ColorRGB
 90
-16777216
102
RTVSPost2010PropOp51
 70
     0
102
RTVSPost2010Prop52
140
1.0
102
RTVSPost2010PropOp52
 70
     0
102
RTVSPost2010Prop53
 90
        2
102
RTVSPost2010PropOp53
 70
     1
102
RTVSPost2010Prop54
  1
strokes_ogs.tif
102
RTVSPost2010PropOp54
 70
     1
102
RTVSPost2010Prop55
280
     0
102
RTVSPost2010PropOp55
 70
     1
102
RTVSPost2010Prop56
140
1.0
102
RTVSPost2010PropOp56
 70
     1
102
RTVSPost2010Prop57
140
1.0
102
RTVSPost2010PropOp57
 70
     1
102
RTVSPropertyOp0
 70
     1
102
RTVSPropertyOp1
 70
     1
102
RTVSPropertyOp2
 70
     1
102
RTVSPropertyOp3
 70
     1
102
RTVSPropertyOp4
 70
     1
102
RTVSPropertyOp5
 70
     1
102
RTVSPropertyOp6
 70
     1
102
RTVSPropertyOp7
 70
     1
102
RTVSPropertyOp8
 70
     1
102
RTVSPropertyOp9
 70
     1
102
RTVSPropertyOp10
 70
     1
102
RTVSPropertyOp11
 70
     1
102
RTVSPropertyOp12
 70
     1
102
RTVSPropertyOp13
 70
     1
102
RTVSPropertyOp14
 70
     1
102
RTVSPropertyOp15
 70
     1
102
RTVSPropertyOp16
 70
     1
102
RTVSPropertyOp17
 70
     1
102
RTVSPropertyOp18
 70
     1
102
RTVSPropertyOp19
 70
     1
102
RTVSPropertyOp20
 70
     1
102
RTVSPropertyOp21
 70
     1
102
RTVSPropertyOp22
 70
     1
102
RTVSPropertyOp23
 70
     1
102
RTVSPropertyOp24
 70
     1
102
RTVSPropertyOp25
 70
     1
102
RTVSPropertyOp26
 70
     1
102
RTVSPropertyOp27
 70
     1
102
RTVSPropertyOp28
 70
     1
102
RTVSPropertyOp29
 70
     1
102
RTVSPropertyOp30
 70
     1
102
RTVSPropertyOp31
 70
     1
102
RTVSPropertyOp32
 70
     1
102
RTVSPropertyOp33
 70
     1
102
RTVSPropertyOp34
 70
     1
102
RTVSPropertyOp35
 70
     1
102
RTVSPropertyOp36
 70
     1
102
RTVSPropertyOp37
 70
     1
102
RTVSPropertyOp38
 70
     1
102
RTVSPropertyOp39
 70
     1
102
RTVSPropertyOp40
 70
     1
102
RTVSPropertyOp41
 70
     1
102
RTVSPropertyOp42
 70
     1
102
RTVSPropertyOp43
 70
     1
102
RTVSPropertyOp44
 70
     1
102
RTVSPropertyOp45
 70
     1
102
RTVSPropertyOp46
 70
     1
102
RTVSPropertyOp47
 70
     1
102
RTVSPropertyOp48
 70
     1
102
RTVSPropertyOp49
 70
     1
102
RTVSPropertyOp50
 70
     1
102
RTVSPropertyOp51
 70
     0
102
RTVSPropertyOp52
 70
     0
102
RTVSPropertyOp53
 70
     1
102
RTVSPropertyOp54
 70
     1
102
RTVSPropertyOp55
 70
     1
102
RTVSPropertyOp56
 70
     1
102
RTVSPropertyOp57
 70
     1
102
RTVSPropertyOp58
 70
     1
102
RTVSPropertyOp59
 70
     1
102
RTVSPropertyOp60
 70
     1
102
RTVSPropertyOp61
 70
     1
102
RTVSPropertyOp62
 70
     1
  0
XRECORD
  5
800E
102
{ACAD_REACTORS
330
800D
102
}
330
800D
100
AcDbXrecord
280
     1
102
RTVSPost2010Prop28
280
     0
102
RTVSPost2010PropOp28
 70
     1
102
RTVSPost2010Prop29
280
     1
102
RTVSPost2010PropOp29
 70
     1
102
RTVSPost2010Prop30
280
     1
102
RTVSPost2010PropOp30
 70
     1
102
RTVSPost2010Prop31
280
     0
102
RTVSPost2010PropOp31
 70
     1
102
RTVSPost2010Prop32
280
     0
102
RTVSPost2010PropOp32
 70
     1
102
RTVSPost2010Prop33
280
     0
102
RTVSPost2010PropOp33
 70
     1
102
RTVSPost2010Prop34
280
     0
102
RTVSPost2010PropOp34
 70
     1
102
RTVSPost2010Prop35
280
     0
102
RTVSPost2010PropOp35
 70
     1
102
RTVSPost2010Prop36
280
     0
102
RTVSPost2010PropOp36
 70
     1
102
RTVSPost2010Prop37
 90
       50
102
RTVSPost2010PropOp37
 70
     1
102
RTVSPost2010Prop38
140
0.0
102
RTVSPost2010PropOp38
 70
     1
102
RTVSPost2010Prop39
140
1.0
102
RTVSPost2010PropOp39
 70
     1
102
RTVSPost2010Prop40
 90
        0
102
RTVSPost2010PropOp40
 70
     1
102
RTVSPost2010Prop41ColorIndex
 90
       18
102
RTVSPost2010Prop41ColorRGB
 90
        0
102
RTVSPost2010PropOp41
 70
     1
102
RTVSPost2010Prop42
 90
       50
102
RTVSPost2010PropOp42
 70
     1
102
RTVSPost2010Prop43
 90
        3
102
RTVSPost2010PropOp43
 70
     1
102
RTVSPost2010Prop44ColorIndex
 90
        5
102
RTVSPost2010Prop44ColorRGB
 90
      255
102
RTVSPost2010PropOp44
 70
     1
102
RTVSPost2010Prop45
280
     0
102
RTVSPost2010PropOp45
 70
     1
102
RTVSPost2010Prop46
 90
       50
102
RTVSPost2010PropOp46
 70
     1
102
RTVSPost2010Prop47
 90
       50
102
RTVSPost2010PropOp47
 70
     1
102
RTVSPost2010Prop48
 90
       50
102
RTVSPost2010PropOp48
 70
     1
102
RTVSPost2010Prop49
280
     0
102
RTVSPost2010PropOp49
 70
     1
102
RTVSPost2010Prop50
 90
       50
102
RTVSPost2010PropOp50
 70
     1
102
RTVSPost2010Prop51ColorIndex
 90
      256
102
RTVSPost2010Prop51ColorRGB
 90
-16777216
102
RTVSPost2010PropOp51
 70
     0
102
RTVSPost2010Prop52
140
1.0
102
RTVSPost2010PropOp52
 70
     0
102
RTVSPost2010Prop53
 90
        2
102
RTVSPost2010PropOp53
 70
     1
102
RTVSPost2010Prop54
  1
strokes_ogs.tif
102
RTVSPost2010PropOp54
 70
     1
102
RTVSPost2010Prop55
280
     0
102
RTVSPost2010PropOp55
 70
     1
102
RTVSPost2010Prop56
140
1.0
102
RTVSPost2010PropOp56
 70
     1
102
RTVSPost2010Prop57
140
1.0
102
RTVSPost2010PropOp57
 70
     1
102
RTVSPropertyOp0
 70
     1
102
RTVSPropertyOp1
 70
     1
102
RTVSPropertyOp2
 70
     1
102
RTVSPropertyOp3
 70
     1
102
RTVSPropertyOp4
 70
     1
102
RTVSPropertyOp5
 70
     1
102
RTVSPropertyOp6
 70
     1
102
RTVSPropertyOp7
 70
     1
102
RTVSPropertyOp8
 70
     1
102
RTVSPropertyOp9
 70
     1
102
RTVSPropertyOp10
 70
     1
102
RTVSPropertyOp11
 70
     1
102
RTVSPropertyOp12
 70
     1
102
RTVSPropertyOp13
 70
     1
102
RTVSPropertyOp14
 70
     1
102
RTVSPropertyOp15
 70
     1
102
RTVSPropertyOp16
 70
     1
102
RTVSPropertyOp17
 70
     1
102
RTVSPropertyOp18
 70
     1
102
RTVSPropertyOp19
 70
     1
102
RTVSPropertyOp20
 70
     1
102
RTVSPropertyOp21
 70
     1
102
RTVSPropertyOp22
 70
     1
102
RTVSPropertyOp23
 70
     1
102
RTVSPropertyOp24
 70
     1
102
RTVSPropertyOp25
 70
     1
102
RTVSPropertyOp26
 70
     1
102
RTVSPropertyOp27
 70
     1
102
RTVSPropertyOp28
 70
     1
102
RTVSPropertyOp29
 70
     1
102
RTVSPropertyOp30
 70
     1
102
RTVSPropertyOp31
 70
     1
102
RTVSPropertyOp32
 70
     1
102
RTVSPropertyOp33
 70
     1
102
RTVSPropertyOp34
 70
     1
102
RTVSPropertyOp35
 70
     1
102
RTVSPropertyOp36
 70
     1
102
RTVSPropertyOp37
 70
     1
102
RTVSPropertyOp38
 70
     1
102
RTVSPropertyOp39
 70
     1
102
RTVSPropertyOp40
 70
     1
102
RTVSPropertyOp41
 70
     1
102
RTVSPropertyOp42
 70
     1
102
RTVSPropertyOp43
 70
     1
102
RTVSPropertyOp44
 70
     1
102
RTVSPropertyOp45
 70
     1
102
RTVSPropertyOp46
 70
     1
102
RTVSPropertyOp47
 70
     1
102
RTVSPropertyOp48
 70
     1
102
RTVSPropertyOp49
 70
     1
102
RTVSPropertyOp50
 70
     1
102
RTVSPropertyOp51
 70
     0
102
RTVSPropertyOp52
 70
     0
102
RTVSPropertyOp53
 70
     1
102
RTVSPropertyOp54
 70
     1
102
RTVSPropertyOp55
 70
     1
102
RTVSPropertyOp56
 70
     1
102
RTVSPropertyOp57
 70
     1
102
RTVSPropertyOp58
 70
     1
102
RTVSPropertyOp59
 70
     1
102
RTVSPropertyOp60
 70
     1
102
RTVSPropertyOp61
 70
     1
102
RTVSPropertyOp62
 70
     1
  0
ENDSEC
  0
EOF
