  0
SECTION
  2
HEADER
  9
$ACADVER
  1
AC1009
  9
$INSBASE
 10
0.0
 20
0.0
 30
0.0
  9
$EXTMIN
 10
0.0
 20
0.0
 30
0.0
  9
$EXTMAX
 10
6300.0
 20
8850.0
 30
0.0
  9
$LIMMIN
 10
0.0
 20
0.0
  9
$LIMMAX
 10
297.0
 20
210.0
  9
$ORTHOMODE
 70
     0
  9
$REGENMODE
 70
     1
  9
$FILLMODE
 70
     0
  9
$QTEXTMODE
 70
     0
  9
$MIRRTEXT
 70
     1
  9
$DRAGMODE
 70
     2
  9
$LTSCALE
 40
100.0
  9
$OSMODE
 70
    37
  9
$ATTMODE
 70
     1
  9
$TEXTSIZE
 40
180.0
  9
$TRACEWID
 40
0.05
  9
$TEXTSTYLE
  7
STANDARD
  9
$CLAYER
  8
3
  9
$CELTYPE
  6
BYLAYER
  9
$CECOLOR
 62
   256
  9
$DIMSCALE
 40
30.0
  9
$DIMASZ
 40
2.0
  9
$DIMEXO
 40
0.5
  9
$DIMDLI
 40
10.0
  9
$DIMRND
 40
0.0
  9
$DIMDLE
 40
0.0
  9
$DIMEXE
 40
1.0
  9
$DIMTP
 40
1.0
  9
$DIMTM
 40
1.0
  9
$DIMTXT
 40
3.0
  9
$DIMCEN
 40
0.0
  9
$DIMTSZ
 40
0.0
  9
$DIMTOL
 70
     0
  9
$DIMLIM
 70
     0
  9
$DIMTIH
 70
     0
  9
$DIMTOH
 70
     0
  9
$DIMSE1
 70
     0
  9
$DIMSE2
 70
     0
  9
$DIMTAD
 70
     1
  9
$DIMZIN
 70
     8
  9
$DIMBLK
  1

  9
$DIMASO
 70
     1
  9
$DIMSHO
 70
     1
  9
$DIMPOST
  1

  9
$DIMAPOST
  1

  9
$DIMALT
 70
     0
  9
$DIMALTD
 70
     2
  9
$DIMALTF
 40
0.039
  9
$DIMLFAC
 40
1.0
  9
$DIMTOFL
 70
     1
  9
$DIMTVP
 40
0.0
  9
$DIMTIX
 70
     0
  9
$DIMSOXD
 70
     0
  9
$DIMSAH
 70
     1
  9
$DIMBLK1
  1
OPEN
  9
$DIMBLK2
  1
OPEN
  9
$DIMSTYLE
  2
IGA
  9
$DIMCLRD
 70
     0
  9
$DIMCLRE
 70
     0
  9
$DIMCLRT
 70
     0
  9
$DIMTFAC
 40
10.0
  9
$DIMGAP
 40
1.0
  9
$LUNITS
 70
     2
  9
$LUPREC
 70
     3
  9
$SKETCHINC
 40
0.1
  9
$FILLETRAD
 40
50.0
  9
$AUNITS
 70
     0
  9
$AUPREC
 70
     0
  9
$MENU
  1
acad
  9
$ELEVATION
 40
0.0
  9
$PELEVATION
 40
0.0
  9
$THICKNESS
 40
0.0
  9
$LIMCHECK
 70
     0
  9
$BLIPMODE
 70
     0
  9
$CHAMFERA
 40
0.5
  9
$CHAMFERB
 40
0.5
  9
$SKPOLY
 70
     0
  9
$TDCREATE
 40
2452520.6074968749
  9
$TDUPDATE
 40
2454953.7579761571
  9
$TDINDWG
 40
0.134163912
  9
$TDUSRTIMER
 40
0.134163912
  9
$USRTIMER
 70
     1
  9
$ANGBASE
 50
0.0
  9
$ANGDIR
 70
     0
  9
$PDMODE
 70
     0
  9
$PDSIZE
 40
0.0
  9
$PLINEWID
 40
0.0
  9
$COORDS
 70
     1
  9
$SPLFRAME
 70
     0
  9
$SPLINETYPE
 70
     6
  9
$SPLINESEGS
 70
     8
  9
$ATTDIA
 70
     0
  9
$ATTREQ
 70
     1
  9
$HANDLING
 70
 10241
  9
$HANDSEED
  5
8022
  9
$SURFTAB1
 70
     6
  9
$SURFTAB2
 70
     6
  9
$SURFTYPE
 70
     6
  9
$SURFU
 70
     6
  9
$SURFV
 70
     6
  9
$UCSNAME
  2

  9
$UCSORG
 10
0.0
 20
0.0
 30
0.0
  9
$UCSXDIR
 10
1.0
 20
0.0
 30
0.0
  9
$UCSYDIR
 10
0.0
 20
1.0
 30
0.0
  9
$PUCSNAME
  2

  9
$PUCSORG
 10
0.0
 20
0.0
 30
0.0
  9
$PUCSXDIR
 10
1.0
 20
0.0
 30
0.0
  9
$PUCSYDIR
 10
0.0
 20
1.0
 30
0.0
  9
$USERI1
 70
     0
  9
$USERI2
 70
     0
  9
$USERI3
 70
     0
  9
$USERI4
 70
     0
  9
$USERI5
 70
     0
  9
$USERR1
 40
0.0
  9
$USERR2
 40
0.0
  9
$USERR3
 40
0.0
  9
$USERR4
 40
0.0
  9
$USERR5
 40
0.0
  9
$WORLDVIEW
 70
     1
  9
$SHADEDGE
 70
     3
  9
$SHADEDIF
 70
    70
  9
$TILEMODE
 70
     1
  9
$MAXACTVP
 70
    16
  9
$PLIMCHECK
 70
     0
  9
$PEXTMIN
 10
1.0000000000000000E+020
 20
1.0000000000000000E+020
 30
1.0000000000000000E+020
  9
$PEXTMAX
 10
-1.0000000000000000E+020
 20
-1.0000000000000000E+020
 30
-1.0000000000000000E+020
  9
$PLIMMIN
 10
0.0
 20
0.0
  9
$PLIMMAX
 10
12.0
 20
9.0
  9
$UNITMODE
 70
     0
  9
$VISRETAIN
 70
     0
  9
$PLINEGEN
 70
     0
  9
$PSLTSCALE
 70
     1
  0
ENDSEC
  0
SECTION
  2
TABLES
  0
TABLE
  2
VPORT
 70
     2
  0
VPORT
  2
*ACTIVE
 70
     0
 10
0.0
 20
0.0
 11
1.0
 21
1.0
 12
10609.8298765541
 22
4425.0000206055138
 13
0.0
 23
0.0
 14
10.0
 24
10.0
 15
10.0
 25
10.0
 16
0.0
 26
0.0
 36
1.0
 17
0.0
 27
0.0
 37
0.0
 40
8917.8446490508068
 41
3.1666666666666661
 42
50.0
 43
0.0
 44
0.0
 50
0.0
 51
0.0
 71
     0
 72
   100
 73
     1
 74
     0
 75
     0
 76
     0
 77
     0
 78
     0
  0
ENDTAB
  0
TABLE
  2
LTYPE
 70
     2
  0
LTYPE
  2
CONTINUOUS
 70
     0
  3
Solid line
 72
    65
 73
     0
 40
0.0
  0
LTYPE
  2
CENTER
 70
     0
  3
____ _ ____ _ ____ _ ____ _ ____ _ ____ _ ____ 
 72
    65
 73
     4
 40
2.0
 49
1.25
 49
-0.25
 49
0.25
 49
-0.25
  0
ENDTAB
  0
TABLE
  2
LAYER
 70
     6
  0
LAYER
  2
0
 70
     0
 62
     7
  6
CONTINUOUS
  0
LAYER
  2
3
 70
     0
 62
     2
  6
CONTINUOUS
  0
LAYER
  2
2
 70
     0
 62
     3
  6
CENTER
  0
LAYER
  2
1
 70
     0
 62
     4
  6
CONTINUOUS
  0
LAYER
  2
4
 70
     0
 62
     7
  6
CONTINUOUS
  0
LAYER
  2
DEFPOINTS
 70
     0
 62
     7
  6
CONTINUOUS
  0
ENDTAB
  0
TABLE
  2
STYLE
 70
     1
  0
STYLE
  2
STANDARD
 70
     0
 40
0.0
 41
1.0
 50
0.0
 71
     0
 42
180.0
  3
simplex.shx
  4
extfont.shx
  0
ENDTAB
  0
TABLE
  2
VIEW
 70
     0
  0
ENDTAB
  0
TABLE
  2
UCS
 70
     0
  0
ENDTAB
  0
TABLE
  2
APPID
 70
     1
  0
APPID
  2
ACAD
 70
     0
  0
ENDTAB
  0
TABLE
  2
DIMSTYLE
 70
     1
  0
DIMSTYLE
  2
IGA
 70
     0
  3

  4

  5

  6
OPEN
  7
OPEN
 40
2.0
 41
2.0
 42
0.5
 43
10.0
 44
1.0
 45
0.0
 46
0.0
 47
1.0
 48
1.0
140
3.0
141
0.0
142
0.0
143
0.03937
144
1.0
145
0.0
146
10.0
147
1.0
 71
     0
 72
     0
 73
     0
 74
     0
 75
     0
 76
     0
 77
     1
 78
     8
170
     0
171
     2
172
     0
173
     1
174
     0
175
     0
176
     0
177
     0
178
     0
  0
ENDTAB
  0
ENDSEC
  0
SECTION
  2
BLOCKS
  0
BLOCK
  8
0
  2
$MODEL_SPACE
 70
     0
 10
0.0
 20
0.0
 30
0.0
  3
$MODEL_SPACE
  1

  0
ENDBLK
  5
1B
  8
0
  0
BLOCK
 67
     1
  8
0
  2
$PAPER_SPACE
 70
     0
 10
0.0
 20
0.0
 30
0.0
  3
$PAPER_SPACE
  1

  0
ENDBLK
  5
18
 67
     1
  8
0
  0
BLOCK
  8
0
  2
YA_N
 70
     0
 10
0.0
 20
0.0
 30
0.0
  3
YA_N
  1

  0
ENDBLK
  5
79FE
  8
0
  0
BLOCK
  8
0
  2
_OPEN
 70
     0
 10
0.0
 20
0.0
 30
0.0
  3
_OPEN
  1

  0
LINE
  5
7BB6
  8
0
  6
BYBLOCK
 62
     0
 10
-1.0
 20
0.1666666666666666
 30
0.0
 11
0.0
 21
0.0
 31
0.0
  0
LINE
  5
7BB7
  8
0
  6
BYBLOCK
 62
     0
 10
0.0
 20
0.0
 30
0.0
 11
-1.0
 21
-0.1666666666666666
 31
0.0
  0
LINE
  5
7BB8
  8
0
  6
BYBLOCK
 62
     0
 10
0.0
 20
0.0
 30
0.0
 11
-1.0
 21
0.0
 31
0.0
  0
ENDBLK
  5
7BB9
  8
0
  0
BLOCK
  8
0
  2
*D2
 70
     1
 10
0.0
 20
0.0
 30
0.0
  3
*D2
  1

  0
LINE
  5
7F4F
  8
3
 62
     0
 10
1306.6922434570381
 20
6298.8835285585119
 30
0.0
 11
1306.6922434570381
 21
6521.4598185140376
 31
0.0
  0
LINE
  5
7F50
  8
3
 62
     0
 10
2306.6922434570388
 20
6298.883528558511
 30
0.0
 11
2306.6922434570388
 21
6521.4598185140376
 31
0.0
  0
LINE
  5
7F51
  8
3
 62
     0
 10
1366.6922434570381
 20
6491.4598185140394
 30
0.0
 11
2246.6922434570388
 21
6491.4598185140394
 31
0.0
  0
INSERT
  5
7F52
  8
3
 62
     0
  2
_OPEN
 10
1306.6922434570381
 20
6491.4598185140394
 30
0.0
 41
60.0
 42
60.0
 43
60.0
 50
180.0
  0
INSERT
  5
7F53
  8
3
 62
     0
  2
_OPEN
 10
2306.6922434570388
 20
6491.4598185140394
 30
0.0
 41
60.0
 42
60.0
 43
60.0
  0
TEXT
  8
3
  40
90
  5
800C
  62
0
  72
0
  71
0
 10
1625.75
 20
6407.16
 30
0.000000
  1
1000
  0
POINT
  5
7F55
  8
DEFPOINTS
 62
     0
 10
1306.6922434570381
 20
6283.883528558511
 30
0.0
  0
POINT
  5
7F56
  8
DEFPOINTS
 62
     0
 10
2306.6922434570388
 20
6283.883528558511
 30
0.0
  0
POINT
  5
7F57
  8
DEFPOINTS
 62
     0
 10
2306.6922434570388
 20
6491.4598185140394
 30
0.0
  0
ENDBLK
  5
7BC5
  8
0
  0
BLOCK
  8
0
  2
*D3
 70
     1
 10
0.0
 20
0.0
 30
0.0
  3
*D3
  1

  0
LINE
  5
7F58
  8
3
 62
     0
 10
1001.692243457038
 20
4873.883528558511
 30
0.0
 11
742.66841084323175
 21
4873.883528558511
 31
0.0
  0
LINE
  5
7F59
  8
3
 62
     0
 10
1001.692243457038
 20
5623.883528558511
 30
0.0
 11
742.66841084323175
 21
5623.883528558511
 31
0.0
  0
LINE
  5
7F5A
  8
3
 62
     0
 10
772.66841084323175
 20
4933.883528558511
 30
0.0
 11
772.66841084323175
 21
5563.8835285585119
 31
0.0
  0
INSERT
  5
7F5B
  8
3
 62
     0
  2
_OPEN
 10
772.66841084323175
 20
4873.883528558511
 30
0.0
 41
60.0
 42
60.0
 43
60.0
 50
270.0
  0
INSERT
  5
7F5C
  8
3
 62
     0
  2
_OPEN
 10
772.66841084323175
 20
5623.883528558511
 30
0.0
 41
60.0
 42
60.0
 43
60.0
 50
90.0
  0
TEXT
  8
3
  40
90
  5
800D
  62
0
  72
0
  71
0
 10
517.668
 20
5085.67
 30
0.000000
  1
750
  0
POINT
  5
7F5E
  8
DEFPOINTS
 62
     0
 10
1016.692243457038
 20
4873.883528558511
 30
0.0
  0
POINT
  5
7F5F
  8
DEFPOINTS
 62
     0
 10
1016.692243457038
 20
5623.883528558511
 30
0.0
  0
POINT
  5
7F60
  8
DEFPOINTS
 62
     0
 10
772.66841084323175
 20
5623.883528558511
 30
0.0
  0
ENDBLK
  5
7BEB
  8
0
  0
BLOCK
  8
0
  2
*D4
 70
     1
 10
0.0
 20
0.0
 30
0.0
  3
*D4
  1

  0
LINE
  5
7C08
  8
0
  6
BYBLOCK
 62
     0
 10
1401.0331008270459
 20
5446.8716833144026
 30
0.0
 11
1401.0331008270459
 21
6329.4479732699292
 31
0.0
  0
LINE
  5
7C09
  8
0
  6
BYBLOCK
 62
     0
 10
1631.033100827045
 20
6299.4479732699301
 30
0.0
 11
1461.0331008270459
 21
6299.4479732699301
 31
0.0
  0
TEXT
  5
7C0A
  8
3
 62
     0
 10
1430.3188151127599
 20
6337.2675015263021
 30
0.0
 40
90.0
  1
290
  0
INSERT
  5
7C0B
  8
0
  6
BYBLOCK
 62
     0
  2
_OPEN
 10
1691.0331008270459
 20
6299.4479732699301
 30
0.0
 41
60.0
 42
60.0
 43
60.0
  0
INSERT
  5
7C0C
  8
0
  6
BYBLOCK
 62
     0
  2
_OPEN
 10
1401.0331008270459
 20
6299.4479732699301
 30
0.0
 41
60.0
 42
60.0
 43
60.0
 50
180.0
  0
POINT
  5
7C0D
  8
DEFPOINTS
  6
BYBLOCK
 62
     0
 10
1691.0331008270459
 20
6091.8716833144017
 30
0.0
  0
POINT
  5
7C0E
  8
DEFPOINTS
  6
BYBLOCK
 62
     0
 10
1401.0331008270459
 20
5431.8716833144026
 30
0.0
  0
POINT
  5
7C0F
  8
DEFPOINTS
  6
BYBLOCK
 62
     0
 10
1401.0331008270459
 20
6299.4479732699301
 30
0.0
  0
ENDBLK
  5
7C10
  8
0
  0
BLOCK
  8
0
  2
*D5
 70
     1
 10
0.0
 20
0.0
 30
0.0
  3
*D5
  1

  0
LINE
  5
7F61
  8
3
 62
     0
 10
2321.6922434570388
 20
6283.883528558511
 30
0.0
 11
2855.4731949143761
 21
6283.883528558511
 31
0.0
  0
LINE
  5
7F62
  8
3
 62
     0
 10
2101.6922434570379
 20
4873.883528558511
 30
0.0
 11
2855.4731949143761
 21
4873.883528558511
 31
0.0
  0
LINE
  5
7F63
  8
3
 62
     0
 10
2825.4731949143761
 20
6223.883528558511
 30
0.0
 11
2825.4731949143752
 21
4933.8835285585119
 31
0.0
  0
INSERT
  5
7F64
  8
3
 62
     0
  2
_OPEN
 10
2825.4731949143761
 20
6283.883528558511
 30
0.0
 41
60.0
 42
60.0
 43
60.0
 50
90.0
  0
INSERT
  5
7F65
  8
3
 62
     0
  2
_OPEN
 10
2825.4731949143752
 20
4873.883528558511
 30
0.0
 41
60.0
 42
60.0
 43
60.0
 50
270.0
  0
TEXT
  8
3
  40
90
  5
800E
  62
0
  72
0
  71
0
 10
2570.47
 20
5462.34
 30
0.000000
  1
1410
  0
POINT
  5
7F67
  8
DEFPOINTS
 62
     0
 10
2306.6922434570388
 20
6283.883528558511
 30
0.0
  0
POINT
  5
7F68
  8
DEFPOINTS
 62
     0
 10
2086.6922434570379
 20
4873.883528558511
 30
0.0
  0
POINT
  5
7F69
  8
DEFPOINTS
 62
     0
 10
2825.4731949143752
 20
4873.883528558511
 30
0.0
  0
ENDBLK
  5
7E9C
  8
0
  0
BLOCK
  8
0
  2
*D6
 70
     1
 10
0.0
 20
0.0
 30
0.0
  3
*D6
  1

  0
LINE
  5
7F6A
  8
3
 62
     0
 10
1016.692243457038
 20
4858.883528558511
 30
0.0
 11
1016.692243457038
 21
4447.5218119053379
 31
0.0
  0
LINE
  5
7F6B
  8
3
 62
     0
 10
2086.6922434570379
 20
4858.8835285585119
 30
0.0
 11
2086.6922434570379
 21
4447.5218119053379
 31
0.0
  0
LINE
  5
7F6C
  8
3
 62
     0
 10
1076.6922434570381
 20
4477.5218119053388
 30
0.0
 11
2026.692243457039
 21
4477.5218119053388
 31
0.0
  0
INSERT
  5
7F6D
  8
3
 62
     0
  2
_OPEN
 10
1016.692243457038
 20
4477.5218119053388
 30
0.0
 41
60.0
 42
60.0
 43
60.0
 50
180.0
  0
INSERT
  5
7F6E
  8
3
 62
     0
  2
_OPEN
 10
2086.6922434570379
 20
4477.5218119053388
 30
0.0
 41
60.0
 42
60.0
 43
60.0
  0
TEXT
  8
3
  40
90
  5
800F
  62
0
  72
0
  71
0
 10
1360.26
 20
4393.22
 30
0.000000
  1
1070
  0
POINT
  5
7F70
  8
DEFPOINTS
 62
     0
 10
1016.692243457038
 20
4873.883528558511
 30
0.0
  0
POINT
  5
7F71
  8
DEFPOINTS
 62
     0
 10
2086.6922434570379
 20
4873.883528558511
 30
0.0
  0
POINT
  5
7F72
  8
DEFPOINTS
 62
     0
 10
2086.6922434570379
 20
4477.5218119053388
 30
0.0
  0
ENDBLK
  5
7C29
  8
0
  0
BLOCK
  8
0
  2
*D7
 70
     1
 10
0.0
 20
0.0
 30
0.0
  3
*D7
  1

  0
LINE
  5
7F73
  8
3
 62
     0
 10
2086.6922434570379
 20
4858.8835285585119
 30
0.0
 11
2086.6922434570379
 21
4447.5218119053379
 31
0.0
  0
LINE
  5
7F74
  8
3
 62
     0
 10
2306.6922434570379
 20
5558.883528558511
 30
0.0
 11
2306.6922434570379
 21
4447.5218119053379
 31
0.0
  0
LINE
  5
7F75
  8
3
 62
     0
 10
2146.6922434570379
 20
4477.5218119053388
 30
0.0
 11
2246.6922434570379
 21
4477.5218119053388
 31
0.0
  0
LINE
  5
7F76
  8
3
 62
     0
 10
2306.6922434570379
 20
4477.5218119053388
 30
0.0
 11
2658.1208148856099
 21
4477.5218119053388
 31
0.0
  0
INSERT
  5
7F77
  8
3
 62
     0
  2
_OPEN
 10
2086.6922434570379
 20
4477.5218119053388
 30
0.0
 41
60.0
 42
60.0
 43
60.0
 50
180.0
  0
INSERT
  5
7F78
  8
3
 62
     0
  2
_OPEN
 10
2306.6922434570379
 20
4477.5218119053388
 30
0.0
 41
60.0
 42
60.0
 43
60.0
  0
TEXT
  8
3
  40
90
  5
8010
  62
0
  72
0
  71
0
 10
2332.41
 20
4393.22
 30
0.000000
  1
220
  0
POINT
  5
7F7A
  8
DEFPOINTS
 62
     0
 10
2086.6922434570379
 20
4873.883528558511
 30
0.0
  0
POINT
  5
7F7B
  8
DEFPOINTS
 62
     0
 10
2306.6922434570379
 20
5573.883528558511
 30
0.0
  0
POINT
  5
7F7C
  8
DEFPOINTS
 62
     0
 10
2306.6922434570379
 20
4477.5218119053388
 30
0.0
  0
ENDBLK
  5
7E69
  8
0
  0
BLOCK
  8
0
  2
*D8
 70
     1
 10
0.0
 20
0.0
 30
0.0
  3
*D8
  1

  0
LINE
  5
7F7D
  8
3
 62
     0
 10
1806.6922434570381
 20
3628.3975793239911
 30
0.0
 11
1806.6922434570381
 21
3883.9709133947899
 31
0.0
  0
LINE
  5
7F7E
  8
3
 62
     0
 10
2351.6922434570379
 20
3660.2142466967489
 30
0.0
 11
2351.6922434570379
 21
3883.9709133947899
 31
0.0
  0
LINE
  5
7F7F
  8
3
 62
     0
 10
1866.6922434570381
 20
3853.9709133947908
 30
0.0
 11
2291.6922434570379
 21
3853.9709133947908
 31
0.0
  0
INSERT
  5
7F80
  8
3
 62
     0
  2
_OPEN
 10
1806.6922434570381
 20
3853.9709133947908
 30
0.0
 41
60.0
 42
60.0
 43
60.0
 50
180.0
  0
INSERT
  5
7F81
  8
3
 62
     0
  2
_OPEN
 10
2351.6922434570379
 20
3853.9709133947908
 30
0.0
 41
60.0
 42
60.0
 43
60.0
  0
TEXT
  8
3
  40
90
  5
8011
  62
0
  72
0
  71
0
 10
1896.59
 20
3769.67
 30
0.000000
  1
545
  0
POINT
  5
7F83
  8
DEFPOINTS
 62
     0
 10
1806.6922434570381
 20
3613.397579323992
 30
0.0
  0
POINT
  5
7F84
  8
DEFPOINTS
 62
     0
 10
2351.6922434570379
 20
3645.214246696748
 30
0.0
  0
POINT
  5
7F85
  8
DEFPOINTS
 62
     0
 10
2351.6922434570379
 20
3853.9709133947908
 30
0.0
  0
ENDBLK
  5
7C5C
  8
0
  0
BLOCK
  8
0
  2
*D9
 70
     1
 10
0.0
 20
0.0
 30
0.0
  3
*D9
  1

  0
LINE
  5
7F86
  8
3
 62
     0
 10
1120.6922434570381
 20
2828.714246696748
 30
0.0
 11
1120.6922434570381
 21
3883.9709133947899
 31
0.0
  0
LINE
  5
7F87
  8
3
 62
     0
 10
1746.6922434570381
 20
3853.9709133947908
 30
0.0
 11
1180.6922434570381
 21
3853.9709133947908
 31
0.0
  0
INSERT
  5
7F88
  8
3
 62
     0
  2
_OPEN
 10
1806.6922434570381
 20
3853.9709133947908
 30
0.0
 41
60.0
 42
60.0
 43
60.0
  0
INSERT
  5
7F89
  8
3
 62
     0
  2
_OPEN
 10
1120.6922434570381
 20
3853.9709133947908
 30
0.0
 41
60.0
 42
60.0
 43
60.0
 50
180.0
  0
TEXT
  8
3
  40
90
  5
8012
  62
0
  72
0
  71
0
 10
1283.69
 20
3769.67
 30
0.000000
  1
686
  0
POINT
  5
7F8B
  8
DEFPOINTS
 62
     0
 10
1806.6922434570381
 20
3613.397579323992
 30
0.0
  0
POINT
  5
7F8C
  8
DEFPOINTS
 62
     0
 10
1120.6922434570381
 20
2813.7142466967489
 30
0.0
  0
POINT
  5
7F8D
  8
DEFPOINTS
 62
     0
 10
1120.6922434570381
 20
3853.9709133947908
 30
0.0
  0
ENDBLK
  5
7C74
  8
0
  0
BLOCK
  8
0
  2
*D10
 70
     1
 10
0.0
 20
0.0
 30
0.0
  3
*D10
  1

  0
LINE
  5
7F8E
  8
3
 62
     0
 10
2366.6922434570379
 20
3602.7142466967489
 30
0.0
 11
2663.099867499332
 21
3602.7142466967489
 31
0.0
  0
LINE
  5
7F8F
  8
3
 62
     0
 10
2366.6922434570379
 20
2777.7142466967489
 30
0.0
 11
2663.099867499332
 21
2777.7142466967489
 31
0.0
  0
LINE
  5
7F90
  8
3
 62
     0
 10
2633.099867499332
 20
3542.714246696748
 30
0.0
 11
2633.099867499332
 21
2837.714246696748
 31
0.0
  0
INSERT
  5
7F91
  8
3
 62
     0
  2
_OPEN
 10
2633.099867499332
 20
3602.7142466967489
 30
0.0
 41
60.0
 42
60.0
 43
60.0
 50
90.0
  0
INSERT
  5
7F92
  8
3
 62
     0
  2
_OPEN
 10
2633.099867499332
 20
2777.7142466967489
 30
0.0
 41
60.0
 42
60.0
 43
60.0
 50
270.0
  0
TEXT
  8
3
  40
90
  5
8013
  62
0
  72
0
  71
0
 10
2378.10
 20
3029.04
 30
0.000000
  1
825
  0
POINT
  5
7F94
  8
DEFPOINTS
 62
     0
 10
2351.6922434570379
 20
3602.7142466967489
 30
0.0
  0
POINT
  5
7F95
  8
DEFPOINTS
 62
     0
 10
2351.6922434570379
 20
2777.7142466967489
 30
0.0
  0
POINT
  5
7F96
  8
DEFPOINTS
 62
     0
 10
2633.099867499332
 20
2777.7142466967489
 30
0.0
  0
ENDBLK
  5
7C81
  8
0
  0
BLOCK
  8
0
  2
*D11
 70
     1
 10
0.0
 20
0.0
 30
0.0
  3
*D11
  1

  0
LINE
  5
7F97
  8
3
 62
     0
 10
2366.6922434570379
 20
3602.7142466967489
 30
0.0
 11
2865.651009017246
 21
3602.7142466967489
 31
0.0
  0
LINE
  5
7F98
  8
3
 62
     0
 10
2488.164035307429
 20
2754.7142466967489
 30
0.0
 11
2865.6510090172451
 21
2754.7142466967489
 31
0.0
  0
LINE
  5
7F99
  8
3
 62
     0
 10
2835.6510090172451
 20
3542.714246696748
 30
0.0
 11
2835.6510090172451
 21
2814.7142466967489
 31
0.0
  0
INSERT
  5
7F9A
  8
3
 62
     0
  2
_OPEN
 10
2835.6510090172451
 20
3602.7142466967489
 30
0.0
 41
60.0
 42
60.0
 43
60.0
 50
90.0
  0
INSERT
  5
7F9B
  8
3
 62
     0
  2
_OPEN
 10
2835.6510090172451
 20
2754.7142466967489
 30
0.0
 41
60.0
 42
60.0
 43
60.0
 50
270.0
  0
TEXT
  8
3
  40
90
  5
8014
  62
0
  72
0
  71
0
 10
2580.65
 20
3015.98
 30
0.000000
  1
848
  0
POINT
  5
7F9D
  8
DEFPOINTS
 62
     0
 10
2351.6922434570379
 20
3602.7142466967489
 30
0.0
  0
POINT
  5
7F9E
  8
DEFPOINTS
 62
     0
 10
2473.164035307429
 20
2754.7142466967489
 30
0.0
  0
POINT
  5
7F9F
  8
DEFPOINTS
 62
     0
 10
2835.6510090172451
 20
2754.7142466967489
 30
0.0
  0
ENDBLK
  5
7C8E
  8
0
  0
BLOCK
  8
0
  2
*D12
 70
     1
 10
0.0
 20
0.0
 30
0.0
  3
*D12
  1

  0
LINE
  5
7FA0
  8
3
 62
     0
 10
2321.6922434570388
 20
2164.7142466967489
 30
0.0
 11
2865.6510090172451
 21
2164.7142466967489
 31
0.0
  0
LINE
  5
7FA1
  8
3
 62
     0
 10
2835.6510090172451
 20
2694.7142466967489
 30
0.0
 11
2835.6510090172451
 21
2224.714246696748
 31
0.0
  0
INSERT
  5
7FA2
  8
3
 62
     0
  2
_OPEN
 10
2835.6510090172451
 20
2754.7142466967489
 30
0.0
 41
60.0
 42
60.0
 43
60.0
 50
90.0
  0
INSERT
  5
7FA3
  8
3
 62
     0
  2
_OPEN
 10
2835.6510090172451
 20
2164.7142466967489
 30
0.0
 41
60.0
 42
60.0
 43
60.0
 50
270.0
  0
TEXT
  8
3
  40
90
  5
8015
  62
0
  72
0
  71
0
 10
2580.65
 20
2300.41
 30
0.000000
  1
590
  0
POINT
  5
7FA5
  8
DEFPOINTS
 62
     0
 10
2473.164035307429
 20
2754.7142466967489
 30
0.0
  0
POINT
  5
7FA6
  8
DEFPOINTS
 62
     0
 10
2306.6922434570379
 20
2164.7142466967489
 30
0.0
  0
POINT
  5
7FA7
  8
DEFPOINTS
 62
     0
 10
2835.6510090172451
 20
2164.7142466967489
 30
0.0
  0
ENDBLK
  5
7C9A
  8
0
  0
BLOCK
  8
0
  2
_DOT
 70
     0
 10
0.0
 20
0.0
 30
0.0
  3
_DOT
  1

  0
LINE
  5
7D1A
  8
0
  6
BYBLOCK
 62
     0
 10
0.0
 20
0.0
 30
0.0
 11
-1.0
 21
-0.0000000000000284
 31
0.0
  0
POLYLINE
  5
7D1B
  8
0
  6
BYBLOCK
 62
     0
 66
     1
 10
0.0
 20
0.0
 30
0.0
 70
     1
 40
0.1666666666666666
 41
0.1666666666666666
  0
VERTEX
  5
7FA8
  8
0
  6
BYBLOCK
 62
     0
 10
-0.0833333333333286
 20
-0.0000000000000284
 30
0.0
 42
1.0
  0
VERTEX
  5
7FA9
  8
0
  6
BYBLOCK
 62
     0
 10
0.0833333333333286
 20
-0.0000000000000284
 30
0.0
 42
1.0
  0
SEQEND
  5
7FAA
  8
0
  6
BYBLOCK
 62
     0
  0
ENDBLK
  5
7CE6
  8
0
  0
BLOCK
  8
0
  2
*D14
 70
     1
 10
0.0
 20
0.0
 30
0.0
  3
*D14
  1

  0
LINE
  5
7FAB
  8
3
 62
     0
 10
5202.4169632962139
 20
3617.7142466967489
 30
0.0
 11
5202.4169632962139
 21
3783.8881696214771
 31
0.0
  0
LINE
  5
7FAC
  8
3
 62
     0
 10
4602.416963296213
 20
3617.7142466967489
 30
0.0
 11
4602.416963296213
 21
3783.8881696214771
 31
0.0
  0
LINE
  5
7FAD
  8
3
 62
     0
 10
5142.4169632962139
 20
3753.888169621478
 30
0.0
 11
4662.4169632962121
 21
3753.888169621478
 31
0.0
  0
INSERT
  5
7FAE
  8
3
 62
     0
  2
_OPEN
 10
5202.4169632962139
 20
3753.888169621478
 30
0.0
 41
60.0
 42
60.0
 43
60.0
  0
INSERT
  5
7FAF
  8
3
 62
     0
  2
_OPEN
 10
4602.416963296213
 20
3753.888169621478
 30
0.0
 41
60.0
 42
60.0
 43
60.0
 50
180.0
  0
TEXT
  8
3
  40
90
  5
8016
  62
0
  72
0
  71
0
 10
4724.33
 20
3669.59
 30
0.000000
  1
600
  0
POINT
  5
7FB1
  8
DEFPOINTS
 62
     0
 10
5202.4169632962139
 20
3602.7142466967489
 30
0.0
  0
POINT
  5
7FB2
  8
DEFPOINTS
 62
     0
 10
4602.416963296213
 20
3602.7142466967489
 30
0.0
  0
POINT
  5
7FB3
  8
DEFPOINTS
 62
     0
 10
4602.416963296213
 20
3753.888169621478
 30
0.0
  0
ENDBLK
  5
7D2A
  8
0
  0
BLOCK
  8
0
  2
*D15
 70
     1
 10
0.0
 20
0.0
 30
0.0
  3
*D15
  1

  0
LINE
  5
7DA8
  8
0
  6
BYBLOCK
 62
     0
 10
5206.416963296213
 20
3619.7142466967489
 30
0.0
 11
5206.416963296213
 21
3989.1469276199532
 31
0.0
  0
LINE
  5
7DA9
  8
0
  6
BYBLOCK
 62
     0
 10
4902.416963296213
 20
3887.6883737853618
 30
0.0
 11
4902.416963296213
 21
3989.1469276199532
 31
0.0
  0
LINE
  5
7DAA
  8
0
  6
BYBLOCK
 62
     0
 10
5146.416963296213
 20
3959.1469276199532
 30
0.0
 11
4962.416963296213
 21
3959.1469276199532
 31
0.0
  0
TEXT
  5
7DAB
  8
3
 62
     0
 10
4935.7098204390686
 20
3999.9658560170469
 30
0.0
 40
90.0
  1
304
  0
INSERT
  5
7DAC
  8
0
  6
BYBLOCK
 62
     0
  2
_OPEN
 10
5206.416963296213
 20
3959.1469276199532
 30
0.0
 41
60.0
 42
60.0
 43
60.0
  0
INSERT
  5
7DAD
  8
0
  6
BYBLOCK
 62
     0
  2
_OPEN
 10
4902.416963296213
 20
3959.1469276199532
 30
0.0
 41
60.0
 42
60.0
 43
60.0
 50
180.0
  0
POINT
  5
7DAE
  8
DEFPOINTS
  6
BYBLOCK
 62
     0
 10
5206.416963296213
 20
3604.7142466967489
 30
0.0
  0
POINT
  5
7DAF
  8
DEFPOINTS
  6
BYBLOCK
 62
     0
 10
4902.416963296213
 20
3872.6883737853618
 30
0.0
  0
POINT
  5
7DB0
  8
DEFPOINTS
  6
BYBLOCK
 62
     0
 10
4902.416963296213
 20
3959.1469276199532
 30
0.0
  0
ENDBLK
  5
7DB1
  8
0
  0
BLOCK
  8
0
  2
*D16
 70
     1
 10
0.0
 20
0.0
 30
0.0
  3
*D16
  1

  0
LINE
  5
7FB4
  8
3
 62
     0
 10
3714.4169632962139
 20
2989.714246696748
 30
0.0
 11
3714.4169632962139
 21
3989.1469276199532
 31
0.0
  0
LINE
  5
7FB5
  8
3
 62
     0
 10
4842.416963296213
 20
3959.1469276199532
 30
0.0
 11
3774.4169632962139
 21
3959.1469276199532
 31
0.0
  0
INSERT
  5
7FB6
  8
3
 62
     0
  2
_OPEN
 10
4902.416963296213
 20
3959.1469276199532
 30
0.0
 41
60.0
 42
60.0
 43
60.0
  0
INSERT
  5
7FB7
  8
3
 62
     0
  2
_OPEN
 10
3714.4169632962139
 20
3959.1469276199532
 30
0.0
 41
60.0
 42
60.0
 43
60.0
 50
180.0
  0
TEXT
  8
3
  40
90
  5
8017
  62
0
  72
0
  71
0
 10
4128.42
 20
3949.85
 30
0.000000
  1
MAX
  0
TEXT
  8
3
  40
90
  5
8018
  62
0
  72
0
  71
0
 10
4128.42
 20
3832.85
 30
0.000000
  1
1240
  0
POINT
  5
7FB9
  8
DEFPOINTS
 62
     0
 10
4902.416963296213
 20
3872.6883737853618
 30
0.0
  0
POINT
  5
7FBA
  8
DEFPOINTS
 62
     0
 10
3714.4169632962139
 20
2974.714246696748
 30
0.0
  0
POINT
  5
7FBB
  8
DEFPOINTS
 62
     0
 10
3714.4169632962139
 20
3959.1469276199532
 30
0.0
  0
ENDBLK
  5
7DCB
  8
0
  0
BLOCK
  8
0
  2
*D17
 70
     1
 10
0.0
 20
0.0
 30
0.0
  3
*D17
  1

  0
LINE
  5
7FBC
  8
3
 62
     0
 10
5219.7169632962123
 20
3179.714246696748
 30
0.0
 11
5491.2702621564385
 21
3179.714246696748
 31
0.0
  0
LINE
  5
7FBD
  8
3
 62
     0
 10
5219.7169632962123
 20
2329.714246696748
 30
0.0
 11
5491.2702621564385
 21
2329.714246696748
 31
0.0
  0
LINE
  5
7FBE
  8
3
 62
     0
 10
5461.2702621564385
 20
3119.714246696748
 30
0.0
 11
5461.2702621564385
 21
2389.7142466967489
 31
0.0
  0
INSERT
  5
7FBF
  8
3
 62
     0
  2
_OPEN
 10
5461.2702621564385
 20
3179.714246696748
 30
0.0
 41
60.0
 42
60.0
 43
60.0
 50
90.0
  0
INSERT
  5
7FC0
  8
3
 62
     0
  2
_OPEN
 10
5461.2702621564385
 20
2329.714246696748
 30
0.0
 41
60.0
 42
60.0
 43
60.0
 50
270.0
  0
TEXT
  8
3
  40
90
  5
8019
  62
0
  72
0
  71
0
 10
5206.27
 20
2594.84
 30
0.000000
  1
φ850
  0
POINT
  5
7FC2
  8
DEFPOINTS
 62
     0
 10
5204.7169632962123
 20
3179.714246696748
 30
0.0
  0
POINT
  5
7FC3
  8
DEFPOINTS
 62
     0
 10
5204.7169632962123
 20
2329.714246696748
 30
0.0
  0
POINT
  5
7FC4
  8
DEFPOINTS
 62
     0
 10
5461.2702621564385
 20
2329.714246696748
 30
0.0
  0
ENDBLK
  5
7DE5
  8
0
  0
BLOCK
  8
0
  2
*D18
 70
     1
 10
0.0
 20
0.0
 30
0.0
  3
*D18
  1

  0
LINE
  5
7FC5
  8
3
 62
     0
 10
1016.692243457038
 20
2279.7142466967489
 30
0.0
 11
1016.692243457039
 21
4077.259682216456
 31
0.0
  0
LINE
  5
7FC6
  8
3
 62
     0
 10
2351.6922434570379
 20
3660.2142466967489
 30
0.0
 11
2351.6922434570379
 21
4077.259682216456
 31
0.0
  0
LINE
  5
7FC7
  8
3
 62
     0
 10
1076.6922434570381
 20
4047.259682216456
 30
0.0
 11
2291.6922434570379
 21
4047.259682216456
 31
0.0
  0
INSERT
  5
7FC8
  8
3
 62
     0
  2
_OPEN
 10
1016.692243457039
 20
4047.259682216456
 30
0.0
 41
60.0
 42
60.0
 43
60.0
 50
180.0
  0
INSERT
  5
7FC9
  8
3
 62
     0
  2
_OPEN
 10
2351.6922434570379
 20
4047.259682216456
 30
0.0
 41
60.0
 42
60.0
 43
60.0
  0
TEXT
  8
3
  40
90
  5
801A
  62
0
  72
0
  71
0
 10
1535.82
 20
3962.96
 30
0.000000
  1
1335
  0
POINT
  5
7FCB
  8
DEFPOINTS
 62
     0
 10
1016.692243457038
 20
2264.7142466967489
 30
0.0
  0
POINT
  5
7FCC
  8
DEFPOINTS
 62
     0
 10
2351.6922434570379
 20
3645.214246696748
 30
0.0
  0
POINT
  5
7FCD
  8
DEFPOINTS
 62
     0
 10
2351.6922434570379
 20
4047.259682216456
 30
0.0
  0
ENDBLK
  5
7E13
  8
0
  0
BLOCK
  8
0
  2
*D19
 70
     1
 10
0.0
 20
0.0
 30
0.0
  3
*D19
  1

  0
LINE
  5
7FCE
  8
3
 62
     0
 10
2321.6922434570388
 20
6283.883528558511
 30
0.0
 11
2620.4046887751979
 21
6283.883528558511
 31
0.0
  0
LINE
  5
7FCF
  8
3
 62
     0
 10
2321.6922434570388
 20
5573.883528558511
 30
0.0
 11
2620.4046887751979
 21
5573.883528558511
 31
0.0
  0
LINE
  5
7FD0
  8
3
 62
     0
 10
2590.4046887751979
 20
6223.883528558511
 30
0.0
 11
2590.4046887751979
 21
5633.883528558511
 31
0.0
  0
INSERT
  5
7FD1
  8
3
 62
     0
  2
_OPEN
 10
2590.4046887751979
 20
6283.883528558511
 30
0.0
 41
60.0
 42
60.0
 43
60.0
 50
90.0
  0
INSERT
  5
7FD2
  8
3
 62
     0
  2
_OPEN
 10
2590.4046887751979
 20
5573.883528558511
 30
0.0
 41
60.0
 42
60.0
 43
60.0
 50
270.0
  0
TEXT
  8
3
  40
90
  5
801B
  62
0
  72
0
  71
0
 10
2335.40
 20
5745.15
 30
0.000000
  1
710
  0
POINT
  5
7FD4
  8
DEFPOINTS
 62
     0
 10
2306.6922434570388
 20
6283.883528558511
 30
0.0
  0
POINT
  5
7FD5
  8
DEFPOINTS
 62
     0
 10
2306.6922434570379
 20
5573.883528558511
 30
0.0
  0
POINT
  5
7FD6
  8
DEFPOINTS
 62
     0
 10
2590.4046887751979
 20
5573.883528558511
 30
0.0
  0
ENDBLK
  5
7E84
  8
0
  0
BLOCK
  8
0
  2
*D20
 70
     1
 10
0.0
 20
0.0
 30
0.0
  3
*D20
  1

  0
LINE
  5
7FD7
  8
3
 62
     0
 10
2101.6922434570379
 20
4873.883528558511
 30
0.0
 11
2620.404688775197
 21
4873.883528558511
 31
0.0
  0
LINE
  5
7FD8
  8
3
 62
     0
 10
2590.4046887751979
 20
5513.883528558511
 30
0.0
 11
2590.404688775197
 21
4933.8835285585119
 31
0.0
  0
INSERT
  5
7FD9
  8
3
 62
     0
  2
_OPEN
 10
2590.4046887751979
 20
5573.883528558511
 30
0.0
 41
60.0
 42
60.0
 43
60.0
 50
90.0
  0
INSERT
  5
7FDA
  8
3
 62
     0
  2
_OPEN
 10
2590.404688775197
 20
4873.883528558511
 30
0.0
 41
60.0
 42
60.0
 43
60.0
 50
270.0
  0
TEXT
  8
3
  40
90
  5
801C
  62
0
  72
0
  71
0
 10
2335.40
 20
5064.58
 30
0.000000
  1
700
  0
POINT
  5
7FDC
  8
DEFPOINTS
 62
     0
 10
2306.6922434570379
 20
5573.883528558511
 30
0.0
  0
POINT
  5
7FDD
  8
DEFPOINTS
 62
     0
 10
2086.6922434570379
 20
4873.883528558511
 30
0.0
  0
POINT
  5
7FDE
  8
DEFPOINTS
 62
     0
 10
2590.404688775197
 20
4873.883528558511
 30
0.0
  0
ENDBLK
  5
7E90
  8
0
  0
BLOCK
  8
0
  2
*D21
 70
     1
 10
0.0
 20
0.0
 30
0.0
  3
*D21
  1

  0
LINE
  5
7FDF
  8
3
 62
     0
 10
1016.692243457038
 20
2149.714246696748
 30
0.0
 11
1016.692243457038
 21
1941.593944534965
 31
0.0
  0
LINE
  5
7FE0
  8
3
 62
     0
 10
1806.6922434570381
 20
2149.7142466967489
 30
0.0
 11
1806.6922434570381
 21
1941.593944534965
 31
0.0
  0
LINE
  5
7FE1
  8
3
 62
     0
 10
1076.6922434570381
 20
1971.593944534965
 30
0.0
 11
1746.6922434570381
 21
1971.593944534965
 31
0.0
  0
INSERT
  5
7FE2
  8
3
 62
     0
  2
_OPEN
 10
1016.692243457038
 20
1971.593944534965
 30
0.0
 41
60.0
 42
60.0
 43
60.0
 50
180.0
  0
INSERT
  5
7FE3
  8
3
 62
     0
  2
_OPEN
 10
1806.6922434570381
 20
1971.593944534965
 30
0.0
 41
60.0
 42
60.0
 43
60.0
  0
TEXT
  8
3
  40
90
  5
801D
  62
0
  72
0
  71
0
 10
1231.69
 20
1887.29
 30
0.000000
  1
790
  0
POINT
  5
7FE5
  8
DEFPOINTS
 62
     0
 10
1016.692243457038
 20
2164.7142466967471
 30
0.0
  0
POINT
  5
7FE6
  8
DEFPOINTS
 62
     0
 10
1806.6922434570381
 20
2164.7142466967489
 30
0.0
  0
POINT
  5
7FE7
  8
DEFPOINTS
 62
     0
 10
1806.6922434570381
 20
1971.593944534965
 30
0.0
  0
ENDBLK
  5
7ED5
  8
0
  0
BLOCK
  8
0
  2
*D22
 70
     1
 10
0.0
 20
0.0
 30
0.0
  3
*D22
  1

  0
LINE
  5
7FE8
  8
3
 62
     0
 10
1806.6922434570381
 20
2149.7142466967489
 30
0.0
 11
1806.6922434570381
 21
1941.593944534965
 31
0.0
  0
LINE
  5
7FE9
  8
3
 62
     0
 10
2306.6922434570379
 20
2149.7142466967489
 30
0.0
 11
2306.6922434570379
 21
1941.593944534965
 31
0.0
  0
LINE
  5
7FEA
  8
3
 62
     0
 10
1866.6922434570381
 20
1971.593944534965
 30
0.0
 11
2246.6922434570379
 21
1971.593944534965
 31
0.0
  0
INSERT
  5
7FEB
  8
3
 62
     0
  2
_OPEN
 10
1806.6922434570381
 20
1971.593944534965
 30
0.0
 41
60.0
 42
60.0
 43
60.0
 50
180.0
  0
INSERT
  5
7FEC
  8
3
 62
     0
  2
_OPEN
 10
2306.6922434570379
 20
1971.593944534965
 30
0.0
 41
60.0
 42
60.0
 43
60.0
  0
TEXT
  8
3
  40
90
  5
801E
  62
0
  72
0
  71
0
 10
1876.69
 20
1887.29
 30
0.000000
  1
500
  0
POINT
  5
7FEE
  8
DEFPOINTS
 62
     0
 10
1806.6922434570381
 20
2164.7142466967489
 30
0.0
  0
POINT
  5
7FEF
  8
DEFPOINTS
 62
     0
 10
2306.6922434570379
 20
2164.7142466967489
 30
0.0
  0
POINT
  5
7FF0
  8
DEFPOINTS
 62
     0
 10
2306.6922434570379
 20
1971.593944534965
 30
0.0
  0
ENDBLK
  5
7EE2
  8
0
  0
BLOCK
  8
0
  2
*D23
 70
     1
 10
0.0
 20
0.0
 30
0.0
  3
*D23
  1

  0
LINE
  5
7FF1
  8
3
 62
     0
 10
3847.416963296213
 20
2149.714246696748
 30
0.0
 11
3847.416963296213
 21
1941.593944534965
 31
0.0
  0
LINE
  5
7FF2
  8
3
 62
     0
 10
4902.4169632962139
 20
2149.714246696748
 30
0.0
 11
4902.4169632962139
 21
1941.593944534965
 31
0.0
  0
LINE
  5
7FF3
  8
3
 62
     0
 10
3907.416963296213
 20
1971.593944534965
 30
0.0
 11
4842.4169632962139
 21
1971.593944534965
 31
0.0
  0
INSERT
  5
7FF4
  8
3
 62
     0
  2
_OPEN
 10
3847.416963296213
 20
1971.593944534965
 30
0.0
 41
60.0
 42
60.0
 43
60.0
 50
180.0
  0
INSERT
  5
7FF5
  8
3
 62
     0
  2
_OPEN
 10
4902.4169632962139
 20
1971.593944534965
 30
0.0
 41
60.0
 42
60.0
 43
60.0
  0
TEXT
  8
3
  40
90
  5
801F
  62
0
  72
0
  71
0
 10
4194.92
 20
1887.29
 30
0.000000
  1
1055
  0
POINT
  5
7FF7
  8
DEFPOINTS
 62
     0
 10
3847.416963296213
 20
2164.714246696748
 30
0.0
  0
POINT
  5
7FF8
  8
DEFPOINTS
 62
     0
 10
4902.4169632962139
 20
2164.714246696748
 30
0.0
  0
POINT
  5
7FF9
  8
DEFPOINTS
 62
     0
 10
4902.4169632962139
 20
1971.593944534965
 30
0.0
  0
ENDBLK
  5
7EEF
  8
0
  0
BLOCK
  8
0
  2
*D24
 70
     1
 10
0.0
 20
0.0
 30
0.0
  3
*D24
  1

  0
LINE
  5
7FFA
  8
3
 62
     0
 10
4902.4169632962139
 20
2149.714246696748
 30
0.0
 11
4902.4169632962139
 21
1941.593944534965
 31
0.0
  0
LINE
  5
7FFB
  8
3
 62
     0
 10
5257.416963296213
 20
2149.714246696748
 30
0.0
 11
5257.416963296213
 21
1941.593944534965
 31
0.0
  0
LINE
  5
7FFC
  8
3
 62
     0
 10
4962.4169632962139
 20
1971.593944534965
 30
0.0
 11
5197.416963296213
 21
1971.593944534965
 31
0.0
  0
INSERT
  5
7FFD
  8
3
 62
     0
  2
_OPEN
 10
4902.4169632962139
 20
1971.593944534965
 30
0.0
 41
60.0
 42
60.0
 43
60.0
 50
180.0
  0
INSERT
  5
7FFE
  8
3
 62
     0
  2
_OPEN
 10
5257.416963296213
 20
1971.593944534965
 30
0.0
 41
60.0
 42
60.0
 43
60.0
  0
TEXT
  8
3
  40
90
  5
8020
  62
0
  72
0
  71
0
 10
4899.92
 20
1887.29
 30
0.000000
  1
355
  0
POINT
  5
8000
  8
DEFPOINTS
 62
     0
 10
4902.4169632962139
 20
2164.714246696748
 30
0.0
  0
POINT
  5
8001
  8
DEFPOINTS
 62
     0
 10
5257.416963296213
 20
2164.714246696748
 30
0.0
  0
POINT
  5
8002
  8
DEFPOINTS
 62
     0
 10
5257.416963296213
 20
1971.593944534965
 30
0.0
  0
ENDBLK
  5
7EFE
  8
0
  0
BLOCK
  8
0
  2
*D25
 70
     1
 10
0.0
 20
0.0
 30
0.0
  3
*D25
  1

  0
LINE
  5
8003
  8
3
 62
     0
 10
2366.6922434570379
 20
3645.214246696748
 30
0.0
 11
3091.0700695784112
 21
3645.214246696748
 31
0.0
  0
LINE
  5
8004
  8
3
 62
     0
 10
2321.6922434570388
 20
2164.7142466967489
 30
0.0
 11
3091.0700695784099
 21
2164.714246696748
 31
0.0
  0
LINE
  5
8005
  8
3
 62
     0
 10
3061.0700695784112
 20
3585.2142466967489
 30
0.0
 11
3061.0700695784099
 21
2224.714246696748
 31
0.0
  0
INSERT
  5
8006
  8
3
 62
     0
  2
_OPEN
 10
3061.0700695784112
 20
3645.214246696748
 30
0.0
 41
60.0
 42
60.0
 43
60.0
 50
90.0
  0
INSERT
  5
8007
  8
3
 62
     0
  2
_OPEN
 10
3061.0700695784099
 20
2164.7142466967489
 30
0.0
 41
60.0
 42
60.0
 43
60.0
 50
270.0
  0
TEXT
  8
3
  40
90
  5
8021
  62
0
  72
0
  71
0
 10
2806.07
 20
2745.66
 30
0.000000
  1
1481
  0
POINT
  5
8009
  8
DEFPOINTS
 62
     0
 10
2351.6922434570379
 20
3645.214246696748
 30
0.0
  0
POINT
  5
800A
  8
DEFPOINTS
 62
     0
 10
2306.6922434570379
 20
2164.7142466967489
 30
0.0
  0
POINT
  5
800B
  8
DEFPOINTS
 62
     0
 10
3061.0700695784099
 20
2164.7142466967489
 30
0.0
  0
ENDBLK
  5
7F0B
  8
0
  0
ENDSEC
  0
SECTION
  2
ENTITIES
  0
INSERT
  5
7AE0
  8
0
  2
YA_N
 10
340.67431732646958
 20
33.583979955450779
 30
0.0
  0
LINE
  5
7AE2
  8
2
 10
1806.6922434570381
 20
3613.397579323992
 30
0.0
 11
1806.6922434570381
 21
2164.7142466967489
 31
0.0
1001
ACAD
1000
ASC_BOUNDS
1002
{
1070
    19
1002
}
  0
LINE
  5
7AE3
  8
2
 10
2473.164035307429
 20
2754.7142466967489
 30
0.0
 11
1048.7886662670021
 21
2754.7142466967489
 31
0.0
  0
ARC
  5
7AE4
  8
1
 10
1865.6922434570381
 20
2813.7142466967489
 30
0.0
 40
745.0
 50
94.542274605424254
 51
184.5422746054243
  0
ARC
  5
7AE5
  8
1
 10
1747.6922434570381
 20
2813.7142466967489
 30
0.0
 40
627.0
 50
185.3994573071069
 51
193.9991817213394
  0
ARC
  5
7AE6
  8
1
 10
1759.192243457039
 20
2707.214246696748
 30
0.0
 40
520.5
 50
307.8120650741912
 51
5.2360063571883142
  0
LINE
  5
7AE7
  8
1
 10
2351.6922434570379
 20
3645.214246696748
 30
0.0
 11
2351.692243457037
 21
2735.2142466967489
 31
0.0
  0
LINE
  5
7AE8
  8
1
 10
2351.6922434570379
 20
3602.7142466967489
 30
0.0
 11
1806.6922434570381
 21
3556.3743304497398
 31
0.0
  0
LINE
  5
7AE9
  8
1
 10
2351.6922434570379
 20
2777.7142466967489
 30
0.0
 11
2276.9607973288039
 21
2777.7142466967489
 31
0.0
  0
LINE
  5
7AEA
  8
1
 10
2351.6922434570379
 20
3645.214246696748
 30
0.0
 11
2311.6922434570379
 21
3645.214246696748
 31
0.0
  0
LINE
  5
7AEB
  8
1
 10
2351.692243457037
 20
2735.2142466967489
 30
0.0
 11
2311.6922434570379
 21
2735.2142466967489
 31
0.0
  0
LINE
  5
7AEC
  8
1
 10
2311.6922434570379
 20
3645.214246696748
 30
0.0
 11
2311.692243457037
 21
2735.2142466967489
 31
0.0
  0
LINE
  5
7AED
  8
1
 10
2348.6922434570379
 20
3645.214246696748
 30
0.0
 11
2348.692243457037
 21
2735.2142466967489
 31
0.0
  0
LINE
  5
7AEE
  8
1
 10
1016.692243457038
 20
2164.7142466967471
 30
0.0
 11
2306.6922434570379
 21
2164.7142466967489
 31
0.0
1001
ACAD
1000
ASC_BOUNDS
1002
{
1070
    19
1002
}
  0
LINE
  5
7AEF
  8
1
 10
1006.692243457038
 20
2264.7142466967489
 30
0.0
 11
2306.6922434570379
 21
2264.7142466967489
 31
0.0
  0
LINE
  5
7AF0
  8
1
 10
1016.692243457038
 20
2264.7142466967489
 30
0.0
 11
1016.692243457038
 21
2164.7142466967489
 31
0.0
  0
LINE
  5
7AF1
  8
1
 10
1004.6922434570361
 20
2304.714246696748
 30
0.0
 11
1408.6922434570381
 21
2304.714246696748
 31
0.0
  0
LINE
  5
7AF2
  8
1
 10
1406.692243457039
 20
2304.714246696748
 30
0.0
 11
1406.692243457039
 21
2264.7142466967489
 31
0.0
  0
LINE
  5
7AF3
  8
1
 10
2306.6922434570379
 20
2264.7142466967489
 30
0.0
 11
2306.6922434570379
 21
2164.7142466967489
 31
0.0
  0
LINE
  5
7AF4
  8
1
 10
5202.4169632962139
 20
3602.7142466967489
 30
0.0
 11
5202.4169632962121
 21
2777.7142466967489
 31
0.0
  0
LINE
  5
7AF5
  8
1
 10
4602.416963296213
 20
3602.7142466967489
 30
0.0
 11
4602.4169632962121
 21
2777.7142466967489
 31
0.0
  0
LINE
  5
7AF6
  8
1
 10
5204.7169632962132
 20
3604.7142466967489
 30
0.0
 11
5204.7169632962123
 21
2775.7142466967489
 31
0.0
  0
LINE
  5
7AF7
  8
1
 10
4600.1169632962128
 20
3604.7142466967471
 30
0.0
 11
4600.1169632962128
 21
2775.7142466967489
 31
0.0
  0
LINE
  5
7AF8
  8
1
 10
3847.416963296213
 20
2164.7142466967471
 30
0.0
 11
5257.416963296213
 21
2164.7142466967489
 31
0.0
1001
ACAD
1000
ASC_BOUNDS
1002
{
1070
    19
1005
0
1005
0
1005
0
1005
0
1005
0
1005
0
1002
}
  0
LINE
  5
7AF9
  8
1
 10
3847.416963296213
 20
2264.7142466967489
 30
0.0
 11
5257.416963296213
 21
2264.714246696748
 31
0.0
  0
LINE
  5
7AFA
  8
1
 10
3847.416963296213
 20
2264.7142466967489
 30
0.0
 11
3847.416963296213
 21
2164.714246696748
 31
0.0
  0
LINE
  5
7AFE
  8
2
 10
3738.3859778287519
 20
2754.714246696748
 30
0.0
 11
5290.9846735376532
 21
2754.7142466967489
 31
0.0
  0
LINE
  5
7AFF
  8
2
 10
1806.6922434570381
 20
6320.5420339998118
 30
0.0
 11
1806.6922434570381
 21
4766.4354498725634
 31
0.0
  0
LINE
  5
7B00
  8
2
 10
2409.9623312307858
 20
5928.883528558511
 30
0.0
 11
1058.2542414261859
 21
5928.883528558511
 31
0.0
  0
LINE
  5
7B01
  8
2
 10
4902.416963296213
 20
3742.2590780349051
 30
0.0
 11
4902.4169632962139
 21
2164.714246696748
 31
0.0
  0
POINT
  5
7B02
  8
1
 10
2371.9101541260602
 20
2754.7142466967489
 30
0.0
  0
POINT
  5
7B03
  8
1
 10
2371.9101541260602
 20
2754.7142466967489
 30
0.0
  0
INSERT
  5
7B04
  8
0
  2
YA_N
 10
-398.97053984028003
 20
-242.4462867469135
 30
0.0
 41
20.0
 42
20.0
 43
20.0
  0
LINE
  5
7B06
  8
1
 10
1072.2333434570389
 20
2424.4022466967481
 30
0.0
 11
1052.6922434570381
 21
2370.7142466967489
 31
0.0
  0
LINE
  5
7B07
  8
1
 10
1341.139043457038
 20
2424.435246696748
 30
0.0
 11
1360.6922434570381
 21
2370.7142466967489
 31
0.0
  0
ARC
  5
7B08
  8
1
 10
1206.6922434570381
 20
2514.7142466967489
 30
0.0
 40
162.0
 50
180.0
 51
254.35809999999989
  0
ARC
  5
7B09
  8
1
 10
1206.6922434570381
 20
2514.7142466967489
 30
0.0
 40
162.0
 50
285.63990000000001
 51
180.0
  0
LINE
  5
7B0A
  8
2
 10
1206.6922434570381
 20
2702.5605273262731
 30
0.0
 11
1206.6922434570381
 21
2227.2670568026579
 31
0.0
1001
ACAD
1000
ASC_BOUNDS
1002
{
1070
    19
1002
}
  0
LINE
  5
7B0B
  8
1
 10
1250.372843457038
 20
2358.714246696748
 30
0.0
 11
1163.011543457038
 21
2358.714246696748
 31
0.0
  0
LINE
  5
7B0C
  8
1
 10
1360.6922434570381
 20
2354.7142466967489
 30
0.0
 11
1360.6922434570381
 21
2370.7142466967489
 31
0.0
  0
LINE
  5
7B0D
  8
1
 10
1052.6922434570381
 20
2354.7142466967489
 30
0.0
 11
1052.6922434570381
 21
2370.7142466967489
 31
0.0
  0
LINE
  5
7B0E
  8
2
 10
1394.8026875197099
 20
2514.7142466967489
 30
0.0
 11
966.51696200026345
 21
2514.714246696748
 31
0.0
  0
LINE
  5
7B0F
  8
1
 10
1018.177600190998
 20
2354.7142466967489
 30
0.0
 11
1146.692243457037
 21
2354.7142466967471
 31
0.0
  0
LINE
  5
7B10
  8
1
 10
1408.692243457037
 20
2304.714246696748
 30
0.0
 11
1395.4471110718489
 21
2354.7142466967489
 31
0.0
  0
LINE
  5
7B11
  8
1
 10
1004.6922434570361
 20
2304.714246696748
 30
0.0
 11
1018.177600190998
 21
2354.7142466967489
 31
0.0
  0
LINE
  5
7B12
  8
1
 10
1146.692243457037
 20
2344.714246696748
 30
0.0
 11
1266.6922434570381
 21
2344.714246696748
 31
0.0
  0
LINE
  5
7B13
  8
1
 10
1146.692243457037
 20
2314.7142466967489
 30
0.0
 11
1266.6922434570381
 21
2314.7142466967489
 31
0.0
  0
LINE
  5
7B14
  8
1
 10
1146.692243457037
 20
2354.7142466967471
 30
0.0
 11
1146.692243457037
 21
2344.714246696748
 31
0.0
  0
LINE
  5
7B15
  8
1
 10
1266.692243457037
 20
2354.7142466967471
 30
0.0
 11
1266.692243457037
 21
2344.714246696748
 31
0.0
  0
LINE
  5
7B16
  8
1
 10
1266.6922434570381
 20
2354.7142466967471
 30
0.0
 11
1395.4471110718489
 21
2354.7142466967489
 31
0.0
  0
LINE
  5
7B17
  8
1
 10
1266.692243457037
 20
2314.7142466967489
 30
0.0
 11
1266.692243457037
 21
2304.714246696748
 31
0.0
  0
LINE
  5
7B18
  8
1
 10
1146.692243457037
 20
2314.7142466967489
 30
0.0
 11
1146.692243457037
 21
2304.714246696748
 31
0.0
  0
LINE
  5
7B19
  8
1
 10
1079.6922434570381
 20
2315.9540524532422
 30
0.0
 11
1079.6922434570381
 21
2285.6960524532419
 31
0.0
  0
LINE
  5
7B1A
  8
1
 10
1333.6922434570381
 20
2315.9540524532422
 30
0.0
 11
1333.6922434570381
 21
2285.6960524532419
 31
0.0
  0
INSERT
  5
7B1B
  8
0
  2
YA_N
 10
297.93968861844792
 20
330.23766755877131
 30
0.0
 41
20.0
 42
20.0
 43
20.0
  0
INSERT
  5
7B1D
  8
0
  2
YA_N
 10
412.15921397260922
 20
253.89595771952571
 30
0.0
 41
20.0
 42
20.0
 43
20.0
  0
LINE
  5
7B21
  8
1
 10
4600.1169632962128
 20
3602.7142466967489
 30
0.0
 11
5204.7169632962123
 21
3602.7142466967489
 31
0.0
  0
LINE
  5
7B22
  8
1
 10
4560.416963296213
 20
3644.7142466967489
 30
0.0
 11
5244.416963296213
 21
3644.7142466967489
 31
0.0
  0
LINE
  5
7B23
  8
1
 10
4600.1169632962128
 20
3604.7142466967471
 30
0.0
 11
5204.7169632962123
 21
3604.7142466967489
 31
0.0
  0
LINE
  5
7B24
  8
1
 10
5244.4169632962121
 20
3644.7142466967489
 30
0.0
 11
5244.4169632962121
 21
2735.7142466967489
 31
0.0
  0
LINE
  5
7B25
  8
1
 10
4560.416963296213
 20
3644.7142466967489
 30
0.0
 11
4560.4169632962139
 21
2735.714246696748
 31
0.0
  0
LINE
  5
7B26
  8
1
 10
4602.416963296213
 20
2777.7142466967489
 30
0.0
 11
5202.4169632962139
 21
2777.7142466967489
 31
0.0
  0
LINE
  5
7B27
  8
1
 10
4560.4169632962139
 20
2735.714246696748
 30
0.0
 11
5244.4169632962112
 21
2735.7142466967489
 31
0.0
  0
LINE
  5
7B28
  8
1
 10
4600.1169632962128
 20
2775.7142466967489
 30
0.0
 11
5204.7169632962123
 21
2775.7142466967489
 31
0.0
  0
LINE
  5
7B29
  8
1
 10
4600.116963296211
 20
2735.714246696748
 30
0.0
 11
4600.1169632962137
 21
2264.7142466967489
 31
0.0
  0
LINE
  5
7B2A
  8
1
 10
4602.416963296213
 20
2735.714246696748
 30
0.0
 11
4602.416963296213
 21
2264.7142466967489
 31
0.0
  0
LINE
  5
7B2B
  8
1
 10
5204.7169632962123
 20
2735.7142466967489
 30
0.0
 11
5204.7169632962123
 21
2264.714246696748
 31
0.0
  0
LINE
  5
7B2C
  8
1
 10
5202.4169632962121
 20
2735.7142466967489
 30
0.0
 11
5202.4169632962121
 21
2264.714246696748
 31
0.0
  0
LINE
  5
7B2D
  8
1
 10
1006.692243457038
 20
2304.714246696748
 30
0.0
 11
1006.692243457038
 21
2264.7142466967489
 31
0.0
  0
CIRCLE
  5
7B32
  8
1
 10
1806.6922434570381
 20
2754.7142466967489
 30
0.0
 40
127.0
  0
CIRCLE
  5
7B33
  8
1
 10
1206.692243457037
 20
2514.7142466967489
 30
0.0
 40
110.0
  0
LINE
  5
7B43
  8
1
 10
3754.416963296213
 20
2881.714246696748
 30
0.0
 11
3754.416963296213
 21
2404.714246696748
 31
0.0
  0
LINE
  5
7B44
  8
1
 10
3839.416963296213
 20
2881.714246696748
 30
0.0
 11
3839.416963296213
 21
2404.714246696748
 31
0.0
  0
LINE
  5
7B45
  8
1
 10
3754.416963296213
 20
2881.714246696748
 30
0.0
 11
3839.416963296213
 21
2881.714246696748
 31
0.0
  0
LINE
  5
7B46
  8
1
 10
3754.416963296213
 20
2627.714246696748
 30
0.0
 11
3839.416963296213
 21
2627.714246696748
 31
0.0
  0
LINE
  5
7B47
  8
2
 10
3741.1888485457262
 20
2514.7142466967489
 30
0.0
 11
3957.6770130435789
 21
2514.7142466967489
 31
0.0
  0
LINE
  5
7B48
  8
1
 10
3754.416963296213
 20
2624.7142466967489
 30
0.0
 11
3839.4169632962139
 21
2624.7142466967489
 31
0.0
  0
LINE
  5
7B49
  8
1
 10
3754.416963296213
 20
2404.7142466967489
 30
0.0
 11
3839.416963296213
 21
2404.714246696748
 31
0.0
  0
LINE
  5
7B4A
  8
1
 10
3874.416963296213
 20
2974.714246696748
 30
0.0
 11
3874.416963296213
 21
2954.7142466967471
 31
0.0
  0
LINE
  5
7B4B
  8
1
 10
3714.4169632962139
 20
2974.714246696748
 30
0.0
 11
3714.4169632962139
 21
2294.714246696748
 31
0.0
  0
LINE
  5
7B4C
  8
1
 10
3714.4169632962139
 20
2974.714246696748
 30
0.0
 11
3874.416963296213
 21
2974.714246696748
 31
0.0
  0
LINE
  5
7B4D
  8
1
 10
3714.4169632962139
 20
2294.714246696748
 30
0.0
 11
3874.4169632962139
 21
2294.714246696748
 31
0.0
  0
LINE
  5
7B4E
  8
1
 10
3874.416963296213
 20
2314.7142466967489
 30
0.0
 11
3874.416963296213
 21
2294.714246696748
 31
0.0
  0
POINT
  5
7B4F
  8
1
 10
3714.4169632962139
 20
2974.714246696748
 30
0.0
  0
POINT
  5
7B50
  8
1
 10
5206.416963296213
 20
3644.7142466967489
 30
0.0
  0
LINE
  5
7B51
  8
1
 10
2306.6922434570379
 20
6283.883528558511
 30
0.0
 11
1306.6922434570381
 21
6283.883528558511
 31
0.0
  0
LINE
  5
7B52
  8
1
 10
2306.6922434570379
 20
5573.883528558511
 30
0.0
 11
2086.6922434570401
 21
5573.883528558511
 31
0.0
  0
LINE
  5
7B53
  8
1
 10
2306.6922434570388
 20
6283.883528558511
 30
0.0
 11
2306.6922434570388
 21
6228.883528558511
 31
0.0
  0
LINE
  5
7B54
  8
1
 10
1306.6922434570381
 20
6283.883528558511
 30
0.0
 11
1306.6922434570381
 21
6228.883528558511
 31
0.0
  0
LINE
  5
7B55
  8
1
 10
2086.6922434570379
 20
4873.883528558511
 30
0.0
 11
1830.692243457037
 21
4873.883528558511
 31
0.0
  0
LINE
  5
7B56
  8
2
 10
1206.6922434570381
 20
5496.930033660884
 30
0.0
 11
1206.6922434570381
 21
4762.1968299846158
 31
0.0
  0
LINE
  5
7B57
  8
1
 10
2256.6922434570401
 20
6233.883528558511
 30
0.0
 11
1356.6922434570381
 21
6233.883528558511
 31
0.0
  0
LINE
  5
7B58
  8
1
 10
1306.692243457039
 20
5623.883528558511
 30
0.0
 11
1016.692243457038
 21
5623.883528558511
 31
0.0
  0
LINE
  5
7B5A
  8
1
 10
2256.6922434570401
 20
6233.8835285585119
 30
0.0
 11
2256.6922434570401
 21
6228.8835285585101
 31
0.0
  0
LINE
  5
7B5B
  8
1
 10
1356.6922434570381
 20
6233.883528558511
 30
0.0
 11
1356.6922434570381
 21
6228.883528558511
 31
0.0
  0
LINE
  5
7B5C
  8
1
 10
2086.6922434570401
 20
5573.883528558511
 30
0.0
 11
2086.6922434570379
 21
4873.883528558511
 31
0.0
  0
LINE
  5
7B5E
  8
1
 10
1016.692243457038
 20
5623.883528558511
 30
0.0
 11
1016.692243457038
 21
4873.8835285585128
 31
0.0
  0
ARC
  5
7B60
  8
1
 10
1806.6922434570381
 20
2754.7142466967489
 30
0.0
 40
220.0
 50
291.80140948635182
 51
111.8014094863518
  0
ARC
  5
7B61
  8
1
 10
1206.6922434570381
 20
2514.7142466967489
 30
0.0
 40
220.0
 50
111.8014094863518
 51
291.80140948635182
  0
LINE
  5
7B62
  8
1
 10
1124.9862946591361
 20
2718.9791186915049
 30
0.0
 11
1724.9862946591361
 21
2958.9791186915058
 31
0.0
  0
LINE
  5
7B63
  8
1
 10
1888.398192254941
 20
2550.4493747019919
 30
0.0
 11
1288.398192254941
 21
2310.449374701991
 31
0.0
  0
LINE
  5
7B64
  8
1
 10
1756.4399397142461
 20
2871.3491727203982
 30
0.0
 11
1163.16662604202
 21
2615.7366235676259
 31
0.0
  0
LINE
  5
7B65
  8
1
 10
1850.740524211325
 20
2635.5977114776979
 30
0.0
 11
1244.8442976536639
 21
2411.5424445385152
 31
0.0
  0
ARC
  5
7B66
  8
1
 10
1804.520324888095
 20
2754.7142466967489
 30
0.0
 40
473.0
 50
0.0
 51
2.7871517953936218
  0
INSERT
  5
7B67
  8
0
  2
YA_N
 10
3503.9715161443478
 20
-401.5305303005386
 30
0.0
  0
INSERT
  5
7B69
  8
0
  2
YA_N
 10
643.10325173203114
 20
-6507.8709398038709
 30
0.0
  0
INSERT
  5
7B6B
  8
0
  2
YA_N
 10
-96.541605434718576
 20
-6783.9012065062352
 30
0.0
 41
20.0
 42
20.0
 43
20.0
  0
INSERT
  5
7B6D
  8
0
  2
YA_N
 10
600.36862302400925
 20
-6211.2172522005503
 30
0.0
 41
20.0
 42
20.0
 43
20.0
  0
INSERT
  5
7B6F
  8
0
  2
YA_N
 10
714.58814837817067
 20
-6287.5589620397959
 30
0.0
 41
20.0
 42
20.0
 43
20.0
  0
LINE
  5
7B71
  8
1
 10
3894.4169632962139
 20
2674.7142466967489
 30
0.0
 11
3894.4169632962139
 21
2264.7142466967489
 31
0.0
  0
LINE
  5
7B72
  8
1
 10
4516.416963296213
 20
2674.7142466967489
 30
0.0
 11
4516.4169632962139
 21
2264.7142466967489
 31
0.0
  0
LINE
  5
7B73
  8
1
 10
3839.416963296213
 20
2778.714246696748
 30
0.0
 11
3859.4169632962139
 21
2778.714246696748
 31
0.0
  0
LINE
  5
7B74
  8
1
 10
3839.416963296213
 20
2730.714246696748
 30
0.0
 11
3859.4169632962139
 21
2730.714246696748
 31
0.0
  0
LINE
  5
7B75
  8
1
 10
3859.4169632962121
 20
2787.214246696748
 30
0.0
 11
3859.4169632962139
 21
2722.214246696748
 31
0.0
  0
LINE
  5
7B76
  8
1
 10
3894.4169632962139
 20
2674.7142466967489
 30
0.0
 11
4516.416963296213
 21
2674.7142466967489
 31
0.0
  0
LINE
  5
7B77
  8
1
 10
3859.4169632962121
 20
2787.214246696748
 30
0.0
 11
4560.4169632962139
 21
2787.214246696748
 31
0.0
  0
LINE
  5
7B78
  8
1
 10
3859.4169632962121
 20
2722.214246696748
 30
0.0
 11
4600.116963296211
 21
2722.214246696748
 31
0.0
  0
LINE
  5
7B79
  8
1
 10
2351.6922434570379
 20
6268.883528558511
 30
0.0
 11
2351.6922434570379
 21
5588.883528558511
 31
0.0
  0
LINE
  5
7B7A
  8
1
 10
1120.6922434570381
 20
6228.883528558511
 30
0.0
 11
1120.6922434570381
 21
5628.8835285585101
 31
0.0
  0
LINE
  5
7B7B
  8
1
 10
2311.6922434570379
 20
6228.883528558511
 30
0.0
 11
1120.6922434570381
 21
6228.883528558511
 31
0.0
  0
LINE
  5
7B7C
  8
1
 10
2311.6922434570379
 20
5628.8835285585101
 30
0.0
 11
1120.6922434570381
 21
5628.8835285585101
 31
0.0
  0
LINE
  5
7B7D
  8
1
 10
2306.6922434570379
 20
5628.8835285585101
 30
0.0
 11
2306.6922434570379
 21
5573.883528558511
 31
0.0
  0
LINE
  5
7B80
  8
1
 10
1306.6922434570381
 20
5628.8835285585101
 30
0.0
 11
1306.6922434570381
 21
5623.883528558511
 31
0.0
  0
LINE
  5
7B81
  8
1
 10
2311.692243457037
 20
5588.883528558511
 30
0.0
 11
2311.6922434570379
 21
6268.8835285585101
 31
0.0
  0
LINE
  5
7B82
  8
1
 10
2351.6922434570379
 20
6268.883528558511
 30
0.0
 11
2311.692243457037
 21
6268.883528558511
 31
0.0
  0
LINE
  5
7B83
  8
1
 10
2351.6922434570379
 20
5588.883528558511
 30
0.0
 11
2311.692243457037
 21
5588.883528558511
 31
0.0
  0
LINE
  5
7B85
  8
1
 10
4273.5525231151487
 20
2676.714246696748
 30
0.0
 11
3991.8863714685131
 21
2676.714246696748
 31
0.0
  0
LINE
  5
7B86
  8
1
 10
3923.2952434787849
 20
2676.714246696748
 30
0.0
 11
4441.4169632972043
 21
2676.7142466967489
 31
0.0
  0
LINE
  5
7B87
  8
1
 10
3794.416963296213
 20
2535.714246696748
 30
0.0
 11
3894.4169632962139
 21
2535.7142466967498
 31
0.0
  0
LINE
  5
7B88
  8
1
 10
3794.416963296213
 20
2493.7142466967489
 30
0.0
 11
3894.4169632962139
 21
2493.7142466967489
 31
0.0
  0
LINE
  5
7B89
  8
1
 10
3794.416963296213
 20
2535.714246696748
 30
0.0
 11
3794.416963296213
 21
2493.7142466967489
 31
0.0
  0
LINE
  5
7B8A
  8
1
 10
1046.6922434570381
 20
4949.761808741081
 30
0.0
 11
1046.6922434570381
 21
5467.8835285595014
 31
0.0
  0
LINE
  5
7B8C
  8
1
 10
1368.6922434570381
 20
4949.7618087410819
 30
0.0
 11
1368.6922434570381
 21
5467.8835285595014
 31
0.0
  0
LINE
  5
7B8D
  8
1
 10
1839.192243457037
 20
4885.8835285585101
 30
0.0
 11
1839.192243457037
 21
5628.8835285585101
 31
0.0
  0
LINE
  5
7B8E
  8
1
 10
1774.1922434570361
 20
4885.8835285585101
 30
0.0
 11
1774.1922434570361
 21
5626.583528558509
 31
0.0
  0
LINE
  5
7B90
  8
1
 10
2026.692243457039
 20
4740.883528558511
 30
0.0
 11
986.69224345703685
 21
4740.883528558511
 31
0.0
  0
LINE
  5
7B91
  8
1
 10
1148.4747944744411
 20
4938.8835285595023
 30
0.0
 11
1264.909692439636
 21
4938.8835285595023
 31
0.0
  0
LINE
  5
7B92
  8
1
 10
1368.6922434570381
 20
4949.7618087410829
 30
0.0
 11
1046.6922434570381
 21
4949.761808741081
 31
0.0
  0
LINE
  5
7B93
  8
1
 10
1176.2709345111921
 20
4930.8835285546402
 30
0.0
 11
1235.113552402885
 21
4930.8835285546402
 31
0.0
  0
LINE
  5
7B94
  8
1
 10
1227.6922434570381
 20
4820.8835285585101
 30
0.0
 11
1185.6922434570381
 21
4820.8835285585101
 31
0.0
  0
LINE
  5
7B95
  8
1
 10
1933.6922434570361
 20
4865.8835285585101
 30
0.0
 11
1096.6922434570361
 21
4865.8835285585101
 31
0.0
  0
LINE
  5
7B96
  8
1
 10
1933.6922434570361
 20
4780.8835285585101
 30
0.0
 11
1096.6922434570381
 21
4780.8835285585101
 31
0.0
  0
LINE
  5
7B98
  8
1
 10
1096.6922434570381
 20
4780.8835285585101
 30
0.0
 11
1096.6922434570361
 21
4865.8835285585101
 31
0.0
  0
LINE
  5
7B99
  8
1
 10
986.69224345703685
 20
4740.883528558511
 30
0.0
 11
986.69224345703867
 21
4900.883528558511
 31
0.0
  0
LINE
  5
7B9A
  8
1
 10
1185.6922434570399
 20
4820.8835285585101
 30
0.0
 11
1185.6922434570399
 21
4930.8835285546402
 31
0.0
  0
LINE
  5
7B9B
  8
1
 10
1176.2709345111921
 20
4930.8835285546402
 30
0.0
 11
1176.2709345111939
 21
4938.8835285595023
 31
0.0
  0
LINE
  5
7B9C
  8
1
 10
1148.4747944744411
 20
4949.7618087410819
 30
0.0
 11
1148.4747944744411
 21
4938.8835285595023
 31
0.0
  0
LINE
  5
7B9D
  8
1
 10
1316.6922434570381
 20
4780.8835285585101
 30
0.0
 11
1316.6922434570381
 21
4865.883528558511
 31
0.0
  0
LINE
  5
7B9E
  8
1
 10
1679.6922434570361
 20
4780.8835285585101
 30
0.0
 11
1679.6922434570361
 21
4865.8835285585101
 31
0.0
  0
LINE
  5
7B9F
  8
1
 10
1933.6922434570361
 20
4780.8835285585101
 30
0.0
 11
1933.6922434570361
 21
4865.8835285585101
 31
0.0
  0
LINE
  5
7BA0
  8
1
 10
1839.192243457037
 20
4885.8835285585101
 30
0.0
 11
1774.1922434570361
 21
4885.883528558511
 31
0.0
  0
LINE
  5
7BA1
  8
1
 10
1227.6922434570381
 20
4820.8835285585101
 30
0.0
 11
1227.6922434570399
 21
4930.8835285546402
 31
0.0
  0
LINE
  5
7BA2
  8
1
 10
1235.113552402885
 20
4930.8835285546402
 30
0.0
 11
1235.113552402885
 21
4938.8835285595023
 31
0.0
  0
LINE
  5
7BA3
  8
1
 10
1264.909692439636
 20
4949.7618087410819
 30
0.0
 11
1264.909692439636
 21
4938.8835285595023
 31
0.0
  0
LINE
  5
7BA4
  8
1
 10
1782.692243457037
 20
4865.8835285585101
 30
0.0
 11
1782.692243457037
 21
4885.883528558511
 31
0.0
  0
LINE
  5
7BA5
  8
1
 10
1830.692243457037
 20
4865.8835285585101
 30
0.0
 11
1830.692243457037
 21
4885.883528558511
 31
0.0
  0
LINE
  5
7BA7
  8
1
 10
2026.692243457037
 20
4740.883528558511
 30
0.0
 11
2026.692243457037
 21
4900.8835285585101
 31
0.0
  0
POINT
  5
7BA8
  8
1
 10
2026.692243457037
 20
4740.883528558511
 30
0.0
  0
LINE
  5
7BA9
  8
1
 10
2026.692243457039
 20
4900.8835285585101
 30
0.0
 11
986.69224345703867
 21
4900.8835285585101
 31
0.0
  0
LINE
  5
7BAA
  8
1
 10
1046.6922434570381
 20
5467.8835285595014
 30
0.0
 11
1368.6922434570381
 21
5467.8835285595014
 31
0.0
  0
LINE
  5
7BAD
  8
1
 10
1782.692243457037
 20
4873.883528558511
 30
0.0
 11
1227.6922434570381
 21
4873.883528558511
 31
0.0
  0
LINE
  5
7BAF
  8
1
 10
1185.6922434570399
 20
4873.883528558511
 30
0.0
 11
1016.692243457038
 21
4873.883528558511
 31
0.0
  0
LINE
  5
7BB1
  8
1
 10
3923.2952434787849
 20
2676.714246696748
 30
0.0
 11
3923.2952434787849
 21
2674.7142466967489
 31
0.0
  0
LINE
  5
7BB2
  8
1
 10
4441.4169632972043
 20
2676.7142466967489
 30
0.0
 11
4441.4169632972043
 21
2674.7142466967489
 31
0.0
  0
DIMENSION
  5
7BC6
  8
3
  2
*D2
 10
2306.6922434570388
 20
6491.4598185140394
 30
0.0
 11
1805.754061012663
 21
6491.4598185140394
 31
0.0
 70
   128
 13
1306.6922434570381
 23
6283.883528558511
 33
0.0
 14
2306.6922434570388
 24
6283.883528558511
 34
0.0
1001
ACAD
1000
DSTYLE
1002
{
1070
   287
1070
     3
1070
    40
1040
30.0
1070
   143
1040
0.039
1070
   172
1070
     1
1070
   271
1070
     0
1070
   279
1070
     0
1070
   288
1070
     1
1002
}
  0
DIMENSION
  5
7BEC
  8
3
  2
*D3
 10
772.66841084323175
 20
5623.883528558511
 30
0.0
 11
772.66841084323084
 21
5244.9666465003729
 31
0.0
 70
   128
 13
1016.692243457038
 23
4873.883528558511
 33
0.0
 14
1016.692243457038
 24
5623.883528558511
 34
0.0
 50
90.0
1001
ACAD
1000
DSTYLE
1002
{
1070
   287
1070
     3
1070
    40
1040
30.0
1070
   143
1040
0.039
1070
   172
1070
     1
1070
   271
1070
     0
1070
   279
1070
     0
1070
   288
1070
     1
1002
}
  0
DIMENSION
  5
7BFC
  8
3
  2
*D4
 10
1016.692243457038
 20
6491.4598185140394
 30
0.0
 11
1161.6922434570381
 21
6574.2793467704096
 31
0.0
 12
-384.34085737000709
 22
192.0118452441092
 32
0.0
 70
   128
 13
1306.6922434570381
 23
6283.883528558511
 33
0.0
 14
1016.692243457038
 24
5623.883528558511
 34
0.0
1001
ACAD
1000
DSTYLE
1002
{
1070
   288
1070
     1
1070
   172
1070
     1
1070
    75
1070
     1
1070
    40
1040
30.0
1070
   271
1070
     0
1070
   143
1040
0.039
1002
}
  0
DIMENSION
  5
7C1D
  8
3
  2
*D5
 10
2825.4731949143752
 20
4873.883528558511
 30
0.0
 11
2825.4731949143752
 21
5621.6396502770003
 31
0.0
 70
   128
 13
2306.6922434570388
 23
6283.883528558511
 33
0.0
 14
2086.6922434570379
 24
4873.883528558511
 34
0.0
 50
90.0
1001
ACAD
1000
DSTYLE
1002
{
1070
   287
1070
     3
1070
    40
1040
30.0
1070
   143
1040
0.039
1070
   172
1070
     1
1070
   271
1070
     0
1070
   279
1070
     0
1070
   288
1070
     1
1002
}
  0
DIMENSION
  5
7C2A
  8
3
  2
*D6
 10
2086.6922434570379
 20
4477.5218119053388
 30
0.0
 11
1540.2577247727061
 21
4477.5218119053388
 31
0.0
 70
   128
 13
1016.692243457038
 23
4873.883528558511
 33
0.0
 14
2086.6922434570379
 24
4873.883528558511
 34
0.0
1001
ACAD
1000
DSTYLE
1002
{
1070
   287
1070
     3
1070
    40
1040
30.0
1070
   143
1040
0.039
1070
   172
1070
     1
1070
   271
1070
     0
1070
   279
1070
     0
1070
   288
1070
     1
1002
}
  0
DIMENSION
  5
7C38
  8
3
  2
*D7
 10
2306.6922434570379
 20
4477.5218119053388
 30
0.0
 11
2512.4065291713241
 21
4552.5218119053379
 31
0.0
 70
     0
 13
2086.6922434570379
 23
4873.883528558511
 33
0.0
 14
2306.6922434570379
 24
5573.883528558511
 34
0.0
1001
ACAD
1000
DSTYLE
1002
{
1070
   287
1070
     3
1070
    40
1040
30.0
1070
   143
1040
0.039
1070
   172
1070
     1
1070
   271
1070
     0
1070
   279
1070
     0
1070
   288
1070
     1
1002
}
  0
DIMENSION
  5
7C5D
  8
3
  2
*D8
 10
2351.6922434570379
 20
3853.9709133947908
 30
0.0
 11
2076.588756016673
 21
3853.9709133947908
 31
0.0
 70
   128
 13
1806.6922434570381
 23
3613.397579323992
 33
0.0
 14
2351.6922434570379
 24
3645.214246696748
 34
0.0
1001
ACAD
1000
DSTYLE
1002
{
1070
   287
1070
     3
1070
    40
1040
30.0
1070
   143
1040
0.039
1070
   172
1070
     1
1070
   271
1070
     0
1070
   279
1070
     0
1070
   288
1070
     1
1002
}
  0
DIMENSION
  5
7C75
  8
3
  2
*D9
 10
1120.6922434570381
 20
3853.9709133947908
 30
0.0
 11
1463.6922434570381
 21
3928.9709133947899
 31
0.0
 70
     0
 13
1806.6922434570381
 23
3613.397579323992
 33
0.0
 14
1120.6922434570381
 24
2813.7142466967489
 34
0.0
1001
ACAD
1000
DSTYLE
1002
{
1070
   287
1070
     4
1070
    40
1040
30.0
1070
    75
1070
     1
1070
   143
1040
0.039
1070
   172
1070
     1
1070
   271
1070
     0
1070
   279
1070
     1
1070
   288
1070
     1
1002
}
  0
DIMENSION
  5
7C82
  8
3
  2
*D10
 10
2633.099867499332
 20
2777.7142466967489
 30
0.0
 11
2633.099867499332
 21
3188.3417667363169
 31
0.0
 70
   128
 13
2351.6922434570379
 23
3602.7142466967489
 33
0.0
 14
2351.6922434570379
 24
2777.7142466967489
 34
0.0
 50
90.0
1001
ACAD
1000
DSTYLE
1002
{
1070
   287
1070
     3
1070
    40
1040
30.0
1070
   143
1040
0.039
1070
   172
1070
     1
1070
   271
1070
     0
1070
   279
1070
     0
1070
   288
1070
     1
1002
}
  0
DIMENSION
  5
7C8F
  8
3
  2
*D11
 10
2835.6510090172451
 20
2754.7142466967489
 30
0.0
 11
2835.6510090172451
 21
3175.2847337748672
 31
0.0
 70
   128
 13
2351.6922434570379
 23
3602.7142466967489
 33
0.0
 14
2473.164035307429
 24
2754.7142466967489
 34
0.0
 50
90.0
1001
ACAD
1000
DSTYLE
1002
{
1070
   287
1070
     3
1070
    40
1040
30.0
1070
   143
1040
0.039
1070
   172
1070
     1
1070
   271
1070
     0
1070
   279
1070
     0
1070
   288
1070
     1
1002
}
  0
DIMENSION
  5
7C9B
  8
3
  2
*D12
 10
2835.6510090172451
 20
2164.7142466967489
 30
0.0
 11
2760.6510090172442
 21
2459.7142466967489
 31
0.0
 70
     0
 13
2473.164035307429
 23
2754.7142466967489
 33
0.0
 14
2306.6922434570379
 24
2164.7142466967489
 34
0.0
 50
90.0
1001
ACAD
1000
DSTYLE
1002
{
1070
   287
1070
     4
1070
    40
1040
30.0
1070
    75
1070
     1
1070
   143
1040
0.039
1070
   172
1070
     1
1070
   271
1070
     0
1070
   279
1070
     1
1070
   288
1070
     1
1002
}
  0
DIMENSION
  5
7D2B
  8
3
  2
*D14
 10
4602.416963296213
 20
3753.888169621478
 30
0.0
 11
4904.3255356698428
 21
3753.888169621478
 31
0.0
 70
   128
 13
5202.4169632962139
 23
3602.7142466967489
 33
0.0
 14
4602.416963296213
 24
3602.7142466967489
 34
0.0
1001
ACAD
1000
DSTYLE
1002
{
1070
   287
1070
     3
1070
    40
1040
30.0
1070
   143
1040
0.039
1070
   172
1070
     1
1070
   271
1070
     0
1070
   279
1070
     0
1070
   288
1070
     1
1002
}
  0
DIMENSION
  5
7D84
  8
3
  2
*D15
 10
4902.416963296213
 20
3959.1469276199532
 30
0.0
 11
5053.5669632962117
 21
4044.965856017046
 31
0.0
 70
   128
 13
5206.416963296213
 23
3604.7142466967489
 33
0.0
 14
4902.416963296213
 24
3872.6883737853618
 34
0.0
1001
ACAD
1000
DSTYLE
1002
{
1070
   288
1070
     1
1070
   172
1070
     1
1070
    40
1040
30.0
1070
   271
1070
     0
1070
   143
1040
0.039
1002
}
  0
DIMENSION
  5
7DC1
  8
3
  2
*D16
 10
3714.4169632962139
 20
3959.1469276199532
 30
0.0
 11
4308.4169632962121
 21
4109.1469276199532
 31
0.0
 70
     0
  1
MAX\P1240
 13
4902.416963296213
 23
3872.6883737853618
 33
0.0
 14
3714.4169632962139
 24
2974.714246696748
 34
0.0
1001
ACAD
1000
DSTYLE
1002
{
1070
   287
1070
     4
1070
    40
1040
30.0
1070
    75
1070
     1
1070
   143
1040
0.039
1070
   172
1070
     1
1070
   271
1070
     0
1070
   279
1070
     1
1070
   288
1070
     1
1002
}
  0
DIMENSION
  5
7DDA
  8
3
  2
*D17
 10
5461.2702621564385
 20
2329.714246696748
 30
0.0
 11
5461.2702621564385
 21
2754.1413467532361
 31
0.0
 70
   128
 13
5204.7169632962123
 23
3179.714246696748
 33
0.0
 14
5204.7169632962123
 24
2329.714246696748
 34
0.0
 50
90.0
1001
ACAD
1000
DSTYLE
1002
{
1070
   287
1070
     3
1070
     3
1000
φ<>
1070
    40
1040
30.0
1070
   143
1040
0.039
1070
   172
1070
     1
1070
   271
1070
     0
1070
   279
1070
     0
1070
   288
1070
     1
1002
}
  0
LINE
  5
7DE6
  8
4
 10
5550.0
 20
1500.0
 30
0.0
 11
5550.0
 21
900.0
 31
0.0
  0
LINE
  5
7DE7
  8
4
 10
3450.0
 20
1500.0
 30
0.0
 11
3450.0
 21
900.0
 31
0.0
  0
LINE
  5
7DE8
  8
4
 10
1950.0
 20
1500.0
 30
0.0
 11
1950.0
 21
900.0
 31
0.0
  0
LINE
  5
7DEB
  8
4
 10
1950.0
 20
900.0
 30
0.0
 11
5550.0
 21
900.0
 31
0.0
  0
LINE
  5
7DEC
  8
4
 10
1950.0
 20
1200.0
 30
0.0
 11
5550.0
 21
1200.0
 31
0.0
  0
TEXT
  5
7DED
  8
4
 10
2065.5062425407041
 20
1294.629077599838
 30
0.0
 40
150.0
  1
機器名称
  0
TEXT
  5
7DEE
  8
4
 10
2058.7743180743919
 20
964.93547019603284
 30
0.0
 40
150.0
  1
機器型番
  0
TEXT
  5
7DEF
  8
4
 10
3533.036236462995
 20
1267.715306872705
 30
0.0
 40
130.0
  1
ミツヤ多翼送風機
  0
TEXT
  5
7DF0
  8
4
 10
3559.9634867564419
 20
951.47875283983012
 30
0.0
 40
150.0
  1
MF#5-1
  0
TEXT
  5
7DF2
  8
4
 10
2381.604193994091
 20
7150.2865239975472
 30
0.0
 40
161.99999999999989
  1
床置ベット
  0
TEXT
  5
7DF3
  8
4
 10
898.50277998833917
 20
7601.6429285978938
 30
0.0
 40
216.0
  1
遠心式片吸込片持多翼ファン
  0
LINE
  5
7DF4
  8
4
 10
750.0
 20
7408.2262627944137
 30
0.0
 11
5550.0
 21
7408.2262627944137
 31
0.0
  0
LINE
  5
7DF5
  8
4
 10
750.0
 20
8008.2262627944137
 30
0.0
 11
5550.0
 21
8008.2262627944137
 31
0.0
  0
LINE
  5
7DF6
  8
4
 10
1950.0
 20
1500.0
 30
0.0
 11
5550.0
 21
1500.0
 31
0.0
  0
LINE
  5
7DF7
  8
4
 10
750.0
 20
8008.2262627944137
 30
0.0
 11
750.0
 21
7408.2262627944137
 31
0.0
  0
TEXT
  5
7DF8
  8
4
 10
1074.0276972659849
 20
7146.9584326390304
 30
0.0
 40
161.99999999999989
  1
右回転右横向
  0
TEXT
  5
7DF9
  8
4
 10
4406.9086777478688
 20
8118.1832444859256
 30
0.0
 40
168.0
  1
No.
  0
TEXT
  5
7DFA
  8
4
 10
3933.8881878000388
 20
7150.2865239975472
 30
0.0
 40
161.99999999999989
  1
縮尺：1/30
  0
LINE
  5
7DFB
  8
4
 10
5550.0
 20
8008.2262627944137
 30
0.0
 11
5550.0
 21
7408.2262627944137
 31
0.0
  0
LINE
  5
7DFC
  8
4
 10
6300.0
 20
8850.0
 30
0.0
 11
6300.0
 21
8850.0
 31
0.0
  0
LINE
  5
7DFD
  8
4
 10
4321.8522670795937
 20
8043.790749376205
 30
0.0
 11
4321.8522670795937
 21
8359.9567846492573
 31
0.0
  0
LINE
  5
7DFE
  8
4
 10
4321.8522670795937
 20
8359.9567846492573
 30
0.0
 11
5550.0
 21
8359.9567846492573
 31
0.0
  0
LINE
  5
7DFF
  8
4
 10
5550.0
 20
8359.9567846492573
 30
0.0
 11
5550.0
 21
8043.790749376205
 31
0.0
  0
LINE
  5
7E00
  8
4
 10
5550.0
 20
8043.790749376205
 30
0.0
 11
4321.8522670795937
 21
8043.790749376205
 31
0.0
  0
LINE
  5
7E01
  8
4
 10
0.0
 20
0.0
 30
0.0
 11
0.0
 21
8850.0
 31
0.0
  0
LINE
  5
7E02
  8
4
 10
0.0
 20
8850.0
 30
0.0
 11
6300.0
 21
8850.0
 31
0.0
  0
LINE
  5
7E03
  8
4
 10
6300.0
 20
8850.0
 30
0.0
 11
6300.0
 21
0.0
 31
0.0
  0
LINE
  5
7E04
  8
4
 10
6300.0
 20
0.0
 30
0.0
 11
0.0
 21
0.0
 31
0.0
  0
DIMENSION
  5
7E14
  8
3
  2
*D18
 10
2351.6922434570379
 20
4047.259682216456
 30
0.0
 11
1715.8195797802509
 21
4047.259682216456
 31
0.0
 70
   128
 13
1016.692243457038
 23
2264.7142466967489
 33
0.0
 14
2351.6922434570379
 24
3645.214246696748
 34
0.0
1001
ACAD
1000
DSTYLE
1002
{
1070
   287
1070
     3
1070
    40
1040
30.0
1070
   143
1040
0.039
1070
   172
1070
     1
1070
   271
1070
     0
1070
   279
1070
     0
1070
   288
1070
     1
1002
}
  0
LINE
  5
7E58
  8
1
 10
5202.4169632962139
 20
3602.7142466967489
 30
0.0
 11
4602.4169632962121
 21
2777.7142466967489
 31
0.0
  0
LINE
  5
7E59
  8
1
 10
4602.416963296213
 20
3602.7142466967489
 30
0.0
 11
5202.4169632962121
 21
2777.7142466967489
 31
0.0
  0
DIMENSION
  5
7E85
  8
3
  2
*D19
 10
2590.4046887751979
 20
5573.883528558511
 30
0.0
 11
2590.404688775197
 21
5904.446216129294
 31
0.0
 70
   128
 13
2306.6922434570388
 23
6283.883528558511
 33
0.0
 14
2306.6922434570379
 24
5573.883528558511
 34
0.0
 50
90.0
1001
ACAD
1000
DSTYLE
1002
{
1070
   287
1070
     3
1070
    40
1040
30.0
1070
   143
1040
0.039
1070
   172
1070
     1
1070
   271
1070
     0
1070
   279
1070
     0
1070
   288
1070
     1
1002
}
  0
DIMENSION
  5
7E91
  8
3
  2
*D20
 10
2590.404688775197
 20
4873.883528558511
 30
0.0
 11
2515.404688775197
 21
5223.8835285585119
 31
0.0
 70
     0
 13
2306.6922434570379
 23
5573.883528558511
 33
0.0
 14
2086.6922434570379
 24
4873.883528558511
 34
0.0
 50
90.0
1001
ACAD
1000
DSTYLE
1002
{
1070
   287
1070
     4
1070
    40
1040
30.0
1070
    75
1070
     1
1070
   143
1040
0.039
1070
   172
1070
     1
1070
   271
1070
     0
1070
   279
1070
     1
1070
   288
1070
     1
1002
}
  0
LINE
  5
7EC5
  8
1
 10
5257.416963296213
 20
2164.714246696748
 30
0.0
 11
5257.416963296213
 21
2264.714246696748
 31
0.0
  0
DIMENSION
  5
7ED6
  8
3
  2
*D21
 10
1806.6922434570381
 20
1971.593944534965
 30
0.0
 11
1411.6922434570381
 21
2046.593944534965
 31
0.0
 70
     0
 13
1016.692243457038
 23
2164.7142466967471
 33
0.0
 14
1806.6922434570381
 24
2164.7142466967489
 34
0.0
1001
ACAD
1000
DSTYLE
1002
{
1070
   287
1070
     3
1070
    40
1040
30.0
1070
   143
1040
0.039
1070
   172
1070
     1
1070
   271
1070
     0
1070
   279
1070
     0
1002
}
  0
DIMENSION
  5
7EE3
  8
3
  2
*D22
 10
2306.6922434570379
 20
1971.593944534965
 30
0.0
 11
2056.6922434570379
 21
2046.593944534965
 31
0.0
 70
     0
 13
1806.6922434570381
 23
2164.7142466967489
 33
0.0
 14
2306.6922434570379
 24
2164.7142466967489
 34
0.0
1001
ACAD
1000
DSTYLE
1002
{
1070
   287
1070
     3
1070
    40
1040
30.0
1070
   143
1040
0.039
1070
   172
1070
     1
1070
   271
1070
     0
1070
   279
1070
     0
1002
}
  0
DIMENSION
  5
7EF0
  8
3
  2
*D23
 10
4902.4169632962139
 20
1971.593944534965
 30
0.0
 11
4374.916963296213
 21
2046.593944534965
 31
0.0
 70
     0
 13
3847.416963296213
 23
2164.714246696748
 33
0.0
 14
4902.4169632962139
 24
2164.714246696748
 34
0.0
1001
ACAD
1000
DSTYLE
1002
{
1070
   287
1070
     3
1070
    40
1040
30.0
1070
   143
1040
0.039
1070
   172
1070
     1
1070
   271
1070
     0
1070
   279
1070
     0
1002
}
  0
DIMENSION
  5
7EFF
  8
3
  2
*D24
 10
5257.416963296213
 20
1971.593944534965
 30
0.0
 11
5079.916963296213
 21
2046.593944534965
 31
0.0
 70
     0
 13
4902.4169632962139
 23
2164.714246696748
 33
0.0
 14
5257.416963296213
 24
2164.714246696748
 34
0.0
1001
ACAD
1000
DSTYLE
1002
{
1070
   287
1070
     3
1070
    40
1040
30.0
1070
   143
1040
0.039
1070
   172
1070
     1
1070
   271
1070
     0
1070
   279
1070
     0
1002
}
  0
DIMENSION
  5
7F0C
  8
3
  2
*D25
 10
3061.0700695784099
 20
2164.7142466967489
 30
0.0
 11
2986.0700695784099
 21
2904.9642466967489
 31
0.0
 70
     0
 13
2351.6922434570379
 23
3645.214246696748
 33
0.0
 14
2306.6922434570379
 24
2164.7142466967489
 34
0.0
 50
90.0
1001
ACAD
1000
DSTYLE
1002
{
1070
   287
1070
     3
1070
    40
1040
30.0
1070
   143
1040
0.039
1070
   172
1070
     1
1070
   271
1070
     0
1070
   279
1070
     0
1002
}
  0
LINE
  5
7F19
  8
1
 10
1636.6922434570381
 20
2674.7142466967489
 30
0.0
 11
1976.6922434570381
 21
2674.7142466967489
 31
0.0
  0
LINE
  5
7F1A
  8
1
 10
2086.6922434570379
 20
2264.7142466967489
 30
0.0
 11
2086.6922434570379
 21
2164.7142466967489
 31
0.0
  0
LINE
  5
7F1C
  8
1
 10
1976.692243457039
 20
2674.7142466967489
 30
0.0
 11
2086.6922434570379
 21
2264.7142466967489
 31
0.0
  0
LINE
  5
7F1D
  8
1
 10
1636.6922434570381
 20
2674.7142466967489
 30
0.0
 11
1526.6922434570381
 21
2264.7142466967489
 31
0.0
  0
ARC
  5
7F1E
  8
1
 10
1747.6922434570381
 20
2813.7142466967489
 30
0.0
 40
627.0
 50
237.05322955597279
 51
241.1158381330242
  0
LINE
  5
7F2B
  8
1
 10
1976.692243457039
 20
4920.883528558511
 30
0.0
 11
1839.192243457037
 21
4920.883528558511
 31
0.0
  0
LINE
  5
7F2C
  8
1
 10
1774.1922434570361
 20
4920.883528558511
 30
0.0
 11
1636.6922434570381
 21
4920.8835285585101
 31
0.0
  0
LINE
  5
7F2D
  8
1
 10
1976.692243457039
 20
5542.8835285585119
 30
0.0
 11
1839.1922434570361
 21
5542.883528558511
 31
0.0
  0
LINE
  5
7F2E
  8
1
 10
1774.1922434570361
 20
5542.8835285585119
 30
0.0
 11
1636.6922434570381
 21
5542.883528558511
 31
0.0
  0
LINE
  5
7F2F
  8
1
 10
1636.692243457039
 20
5542.8835285585119
 30
0.0
 11
1636.6922434570381
 21
4920.8835285585101
 31
0.0
  0
LINE
  5
7F30
  8
1
 10
1976.692243457039
 20
5542.8835285585128
 30
0.0
 11
1976.692243457039
 21
4920.883528558511
 31
0.0
  0
ENDSEC
  0
EOF
