  0
SECTION
  2
HEADER
  9
$ACADVER
  1
AC1009
  9
$INSBASE
 10
0.0
 20
0.0
 30
0.0
  9
$EXTMIN
 10
0.0
 20
0.0
 30
0.0
  9
$EXTMAX
 10
6300.0
 20
8850.0
 30
0.0
  9
$LIMMIN
 10
0.0
 20
0.0
  9
$LIMMAX
 10
297.0
 20
210.0
  9
$ORTHOMODE
 70
     0
  9
$REGENMODE
 70
     1
  9
$FILLMODE
 70
     0
  9
$QTEXTMODE
 70
     0
  9
$MIRRTEXT
 70
     1
  9
$DRAGMODE
 70
     2
  9
$LTSCALE
 40
100.0
  9
$OSMODE
 70
    37
  9
$ATTMODE
 70
     1
  9
$TEXTSIZE
 40
180.0
  9
$TRACEWID
 40
0.05
  9
$TEXTSTYLE
  7
STANDARD
  9
$CLAYER
  8
3
  9
$CELTYPE
  6
BYLAYER
  9
$CECOLOR
 62
   256
  9
$DIMSCALE
 40
30.0
  9
$DIMASZ
 40
2.0
  9
$DIMEXO
 40
0.5
  9
$DIMDLI
 40
10.0
  9
$DIMRND
 40
0.0
  9
$DIMDLE
 40
0.0
  9
$DIMEXE
 40
1.0
  9
$DIMTP
 40
1.0
  9
$DIMTM
 40
1.0
  9
$DIMTXT
 40
3.0
  9
$DIMCEN
 40
0.0
  9
$DIMTSZ
 40
0.0
  9
$DIMTOL
 70
     0
  9
$DIMLIM
 70
     0
  9
$DIMTIH
 70
     0
  9
$DIMTOH
 70
     0
  9
$DIMSE1
 70
     0
  9
$DIMSE2
 70
     0
  9
$DIMTAD
 70
     1
  9
$DIMZIN
 70
     8
  9
$DIMBLK
  1

  9
$DIMASO
 70
     1
  9
$DIMSHO
 70
     1
  9
$DIMPOST
  1
φ<>
  9
$DIMAPOST
  1

  9
$DIMALT
 70
     0
  9
$DIMALTD
 70
     2
  9
$DIMALTF
 40
0.039
  9
$DIMLFAC
 40
1.0
  9
$DIMTOFL
 70
     1
  9
$DIMTVP
 40
0.0
  9
$DIMTIX
 70
     0
  9
$DIMSOXD
 70
     0
  9
$DIMSAH
 70
     1
  9
$DIMBLK1
  1
OPEN
  9
$DIMBLK2
  1
OPEN
  9
$DIMSTYLE
  2
IGA
  9
$DIMCLRD
 70
     0
  9
$DIMCLRE
 70
     0
  9
$DIMCLRT
 70
     0
  9
$DIMTFAC
 40
10.0
  9
$DIMGAP
 40
1.0
  9
$LUNITS
 70
     2
  9
$LUPREC
 70
     3
  9
$SKETCHINC
 40
0.1
  9
$FILLETRAD
 40
50.0
  9
$AUNITS
 70
     0
  9
$AUPREC
 70
     0
  9
$MENU
  1
acad
  9
$ELEVATION
 40
0.0
  9
$PELEVATION
 40
0.0
  9
$THICKNESS
 40
0.0
  9
$LIMCHECK
 70
     0
  9
$BLIPMODE
 70
     0
  9
$CHAMFERA
 40
0.0
  9
$CHAMFERB
 40
0.0
  9
$SKPOLY
 70
     0
  9
$TDCREATE
 40
2452676.6653555548
  9
$TDUPDATE
 40
2454953.7579193739
  9
$TDINDWG
 40
0.0768121181
  9
$TDUSRTIMER
 40
0.0768121181
  9
$USRTIMER
 70
     1
  9
$ANGBASE
 50
0.0
  9
$ANGDIR
 70
     0
  9
$PDMODE
 70
     0
  9
$PDSIZE
 40
0.0
  9
$PLINEWID
 40
0.0
  9
$COORDS
 70
     1
  9
$SPLFRAME
 70
     0
  9
$SPLINETYPE
 70
     6
  9
$SPLINESEGS
 70
     8
  9
$ATTDIA
 70
     0
  9
$ATTREQ
 70
     1
  9
$HANDLING
 70
 10241
  9
$HANDSEED
  5
8821
  9
$SURFTAB1
 70
     6
  9
$SURFTAB2
 70
     6
  9
$SURFTYPE
 70
     6
  9
$SURFU
 70
     6
  9
$SURFV
 70
     6
  9
$UCSNAME
  2

  9
$UCSORG
 10
0.0
 20
0.0
 30
0.0
  9
$UCSXDIR
 10
1.0
 20
0.0
 30
0.0
  9
$UCSYDIR
 10
0.0
 20
1.0
 30
0.0
  9
$PUCSNAME
  2

  9
$PUCSORG
 10
0.0
 20
0.0
 30
0.0
  9
$PUCSXDIR
 10
1.0
 20
0.0
 30
0.0
  9
$PUCSYDIR
 10
0.0
 20
1.0
 30
0.0
  9
$USERI1
 70
     0
  9
$USERI2
 70
     0
  9
$USERI3
 70
     0
  9
$USERI4
 70
     0
  9
$USERI5
 70
     0
  9
$USERR1
 40
0.0
  9
$USERR2
 40
0.0
  9
$USERR3
 40
0.0
  9
$USERR4
 40
0.0
  9
$USERR5
 40
0.0
  9
$WORLDVIEW
 70
     1
  9
$SHADEDGE
 70
     3
  9
$SHADEDIF
 70
    70
  9
$TILEMODE
 70
     1
  9
$MAXACTVP
 70
    16
  9
$PLIMCHECK
 70
     0
  9
$PEXTMIN
 10
1.0000000000000000E+020
 20
1.0000000000000000E+020
 30
1.0000000000000000E+020
  9
$PEXTMAX
 10
-1.0000000000000000E+020
 20
-1.0000000000000000E+020
 30
-1.0000000000000000E+020
  9
$PLIMMIN
 10
0.0
 20
0.0
  9
$PLIMMAX
 10
12.0
 20
9.0
  9
$UNITMODE
 70
     0
  9
$VISRETAIN
 70
     0
  9
$PLINEGEN
 70
     0
  9
$PSLTSCALE
 70
     1
  0
ENDSEC
  0
SECTION
  2
TABLES
  0
TABLE
  2
VPORT
 70
     2
  0
VPORT
  2
*ACTIVE
 70
     0
 10
0.0
 20
0.0
 11
1.0
 21
1.0
 12
10609.8298765541
 22
4425.0000206055138
 13
0.0
 23
0.0
 14
10.0
 24
10.0
 15
10.0
 25
10.0
 16
0.0
 26
0.0
 36
1.0
 17
0.0
 27
0.0
 37
0.0
 40
8917.8446490508068
 41
3.1666666666666661
 42
50.0
 43
0.0
 44
0.0
 50
0.0
 51
0.0
 71
     0
 72
   100
 73
     1
 74
     0
 75
     0
 76
     0
 77
     0
 78
     0
  0
ENDTAB
  0
TABLE
  2
LTYPE
 70
     2
  0
LTYPE
  2
CONTINUOUS
 70
     0
  3
Solid line
 72
    65
 73
     0
 40
0.0
  0
LTYPE
  2
CENTER
 70
     0
  3
____ _ ____ _ ____ _ ____ _ ____ _ ____ _ ____ 
 72
    65
 73
     4
 40
2.0
 49
1.25
 49
-0.25
 49
0.25
 49
-0.25
  0
ENDTAB
  0
TABLE
  2
LAYER
 70
     6
  0
LAYER
  2
0
 70
     0
 62
     7
  6
CONTINUOUS
  0
LAYER
  2
3
 70
     0
 62
     2
  6
CONTINUOUS
  0
LAYER
  2
2
 70
     0
 62
     3
  6
CENTER
  0
LAYER
  2
1
 70
     0
 62
     4
  6
CONTINUOUS
  0
LAYER
  2
4
 70
     0
 62
     7
  6
CONTINUOUS
  0
LAYER
  2
DEFPOINTS
 70
     0
 62
     7
  6
CONTINUOUS
  0
ENDTAB
  0
TABLE
  2
STYLE
 70
     1
  0
STYLE
  2
STANDARD
 70
     0
 40
0.0
 41
1.0
 50
0.0
 71
     0
 42
180.0
  3
simplex.shx
  4
extfont.shx
  0
ENDTAB
  0
TABLE
  2
VIEW
 70
     0
  0
ENDTAB
  0
TABLE
  2
UCS
 70
     0
  0
ENDTAB
  0
TABLE
  2
APPID
 70
     1
  0
APPID
  2
ACAD
 70
     0
  0
ENDTAB
  0
TABLE
  2
DIMSTYLE
 70
     1
  0
DIMSTYLE
  2
IGA
 70
     0
  3

  4

  5

  6
OPEN
  7
OPEN
 40
2.0
 41
2.0
 42
0.5
 43
10.0
 44
1.0
 45
0.0
 46
0.0
 47
1.0
 48
1.0
140
3.0
141
0.0
142
0.0
143
0.03937
144
1.0
145
0.0
146
10.0
147
1.0
 71
     0
 72
     0
 73
     0
 74
     0
 75
     0
 76
     0
 77
     1
 78
     8
170
     0
171
     2
172
     0
173
     1
174
     0
175
     0
176
     0
177
     0
178
     0
  0
ENDTAB
  0
ENDSEC
  0
SECTION
  2
BLOCKS
  0
BLOCK
  8
0
  2
$MODEL_SPACE
 70
     0
 10
0.0
 20
0.0
 30
0.0
  3
$MODEL_SPACE
  1

  0
ENDBLK
  5
1B
  8
0
  0
BLOCK
 67
     1
  8
0
  2
$PAPER_SPACE
 70
     0
 10
0.0
 20
0.0
 30
0.0
  3
$PAPER_SPACE
  1

  0
ENDBLK
  5
18
 67
     1
  8
0
  0
BLOCK
  8
0
  2
_OPEN
 70
     0
 10
0.0
 20
0.0
 30
0.0
  3
_OPEN
  1

  0
LINE
  5
7B80
  8
0
  6
BYBLOCK
 62
     0
 10
-1.0
 20
0.1666666666666666
 30
0.0
 11
0.0
 21
0.0
 31
0.0
  0
LINE
  5
7B81
  8
0
  6
BYBLOCK
 62
     0
 10
0.0
 20
0.0
 30
0.0
 11
-1.0
 21
-0.1666666666666666
 31
0.0
  0
LINE
  5
7B82
  8
0
  6
BYBLOCK
 62
     0
 10
0.0
 20
0.0
 30
0.0
 11
-1.0
 21
0.0
 31
0.0
  0
ENDBLK
  5
7B83
  8
0
  0
BLOCK
  8
0
  2
*D1
 70
     1
 10
0.0
 20
0.0
 30
0.0
  3
*D1
  1

  0
LINE
  5
874E
  8
3
 62
     0
 10
2438.505878971826
 20
6514.1524204127254
 30
0.0
 11
2438.505878971826
 21
6698.0473459470604
 31
0.0
  0
LINE
  5
874F
  8
3
 62
     0
 10
1438.505878971826
 20
6514.1524204127254
 30
0.0
 11
1438.505878971826
 21
6698.0473459470604
 31
0.0
  0
LINE
  5
8750
  8
3
 62
     0
 10
2378.505878971826
 20
6668.0473459470586
 30
0.0
 11
1498.505878971825
 21
6668.0473459470586
 31
0.0
  0
INSERT
  5
8751
  8
3
 62
     0
  2
_OPEN
 10
2438.505878971826
 20
6668.0473459470586
 30
0.0
 41
60.0
 42
60.0
 43
60.0
  0
INSERT
  5
8752
  8
3
 62
     0
  2
_OPEN
 10
1438.505878971826
 20
6668.0473459470586
 30
0.0
 41
60.0
 42
60.0
 43
60.0
 50
180.0
  0
TEXT
  8
3
  40
90
  5
880B
  62
0
  72
0
  71
0
 10
1759.79
 20
6583.75
 30
0.000000
  1
1000
  0
POINT
  5
8754
  8
DEFPOINTS
 62
     0
 10
2438.505878971826
 20
6499.1524204127236
 30
0.0
  0
POINT
  5
8755
  8
DEFPOINTS
 62
     0
 10
1438.505878971826
 20
6499.1524204127263
 30
0.0
  0
POINT
  5
8756
  8
DEFPOINTS
 62
     0
 10
1438.505878971826
 20
6668.0473459470586
 30
0.0
  0
ENDBLK
  5
8610
  8
0
  0
BLOCK
  8
0
  2
*D2
 70
     1
 10
0.0
 20
0.0
 30
0.0
  3
*D2
  1

  0
LINE
  5
8649
  8
0
  6
BYBLOCK
 62
     0
 10
7817.2363645642417
 20
5854.1524204127254
 30
0.0
 11
7817.2363645642417
 21
6698.0473459470604
 31
0.0
  0
LINE
  5
864A
  8
0
  6
BYBLOCK
 62
     0
 10
8047.2363645642408
 20
6668.0473459470586
 30
0.0
 11
7877.2363645642408
 21
6668.0473459470586
 31
0.0
  0
TEXT
  5
864B
  8
3
 62
     0
 10
7846.5220788499573
 20
6704.5069104125869
 30
0.0
 40
90.0
  1
290
  0
INSERT
  5
864C
  8
0
  6
BYBLOCK
 62
     0
  2
_OPEN
 10
8107.2363645642417
 20
6668.0473459470586
 30
0.0
 41
60.0
 42
60.0
 43
60.0
  0
INSERT
  5
864D
  8
0
  6
BYBLOCK
 62
     0
  2
_OPEN
 10
7817.2363645642417
 20
6668.0473459470586
 30
0.0
 41
60.0
 42
60.0
 43
60.0
 50
180.0
  0
POINT
  5
864E
  8
DEFPOINTS
  6
BYBLOCK
 62
     0
 10
8107.2363645642417
 20
6499.1524204127263
 30
0.0
  0
POINT
  5
864F
  8
DEFPOINTS
  6
BYBLOCK
 62
     0
 10
7817.2363645642417
 20
5839.1524204127263
 30
0.0
  0
POINT
  5
8650
  8
DEFPOINTS
  6
BYBLOCK
 62
     0
 10
7817.2363645642417
 20
6668.0473459470586
 30
0.0
  0
ENDBLK
  5
8651
  8
0
  0
BLOCK
  8
0
  2
*D3
 70
     1
 10
0.0
 20
0.0
 30
0.0
  3
*D3
  1

  0
LINE
  5
8757
  8
3
 62
     0
 10
1133.505878971825
 20
5839.1524204127263
 30
0.0
 11
937.29566078422147
 21
5839.1524204127263
 31
0.0
  0
LINE
  5
8758
  8
3
 62
     0
 10
1133.505878971825
 20
5089.1524204127236
 30
0.0
 11
937.29566078422135
 21
5089.1524204127236
 31
0.0
  0
LINE
  5
8759
  8
3
 62
     0
 10
967.29566078422158
 20
5779.1524204127254
 30
0.0
 11
967.29566078422135
 21
5149.1524204127254
 31
0.0
  0
INSERT
  5
875A
  8
3
 62
     0
  2
_OPEN
 10
967.29566078422158
 20
5839.1524204127263
 30
0.0
 41
60.0
 42
60.0
 43
60.0
 50
90.0
  0
INSERT
  5
875B
  8
3
 62
     0
  2
_OPEN
 10
967.29566078422135
 20
5089.1524204127236
 30
0.0
 41
60.0
 42
60.0
 43
60.0
 50
270.0
  0
TEXT
  8
3
  40
90
  5
880C
  62
0
  72
0
  71
0
 10
712.296
 20
5263.58
 30
0.000000
  1
750
  0
POINT
  5
875D
  8
DEFPOINTS
 62
     0
 10
1148.505878971825
 20
5839.1524204127263
 30
0.0
  0
POINT
  5
875E
  8
DEFPOINTS
 62
     0
 10
1148.505878971825
 20
5089.1524204127236
 30
0.0
  0
POINT
  5
875F
  8
DEFPOINTS
 62
     0
 10
967.29566078422135
 20
5089.1524204127236
 30
0.0
  0
ENDBLK
  5
8647
  8
0
  0
BLOCK
  8
0
  2
*D4
 70
     1
 10
0.0
 20
0.0
 30
0.0
  3
*D4
  1

  0
LINE
  5
8760
  8
3
 62
     0
 10
1148.505878971825
 20
5074.1524204127236
 30
0.0
 11
1148.505878971825
 21
4665.5621277755699
 31
0.0
  0
LINE
  5
8761
  8
3
 62
     0
 10
2218.505878971825
 20
5074.1524204127254
 30
0.0
 11
2218.505878971825
 21
4665.5621277755699
 31
0.0
  0
LINE
  5
8762
  8
3
 62
     0
 10
1208.505878971826
 20
4695.5621277755708
 30
0.0
 11
2158.505878971826
 21
4695.5621277755708
 31
0.0
  0
INSERT
  5
8763
  8
3
 62
     0
  2
_OPEN
 10
1148.505878971825
 20
4695.5621277755708
 30
0.0
 41
60.0
 42
60.0
 43
60.0
 50
180.0
  0
INSERT
  5
8764
  8
3
 62
     0
  2
_OPEN
 10
2218.505878971825
 20
4695.5621277755708
 30
0.0
 41
60.0
 42
60.0
 43
60.0
  0
TEXT
  8
3
  40
90
  5
880D
  62
0
  72
0
  71
0
 10
1456.98
 20
4611.26
 30
0.000000
  1
1070
  0
POINT
  5
8766
  8
DEFPOINTS
 62
     0
 10
1148.505878971825
 20
5089.1524204127236
 30
0.0
  0
POINT
  5
8767
  8
DEFPOINTS
 62
     0
 10
2218.505878971825
 20
5089.1524204127263
 30
0.0
  0
POINT
  5
8768
  8
DEFPOINTS
 62
     0
 10
2218.505878971825
 20
4695.5621277755708
 30
0.0
  0
ENDBLK
  5
861B
  8
0
  0
BLOCK
  8
0
  2
*D5
 70
     1
 10
0.0
 20
0.0
 30
0.0
  3
*D5
  1

  0
LINE
  5
8769
  8
3
 62
     0
 10
2218.505878971825
 20
5074.1524204127254
 30
0.0
 11
2218.505878971825
 21
4665.5621277755699
 31
0.0
  0
LINE
  5
876A
  8
3
 62
     0
 10
2438.505878971826
 20
5774.1524204127254
 30
0.0
 11
2438.505878971826
 21
4665.5621277755699
 31
0.0
  0
LINE
  5
876B
  8
3
 62
     0
 10
2278.505878971825
 20
4695.5621277755708
 30
0.0
 11
2378.505878971826
 21
4695.5621277755708
 31
0.0
  0
LINE
  5
876C
  8
3
 62
     0
 10
2438.505878971826
 20
4695.5621277755708
 30
0.0
 11
2789.934450400398
 21
4695.5621277755708
 31
0.0
  0
INSERT
  5
876D
  8
3
 62
     0
  2
_OPEN
 10
2218.505878971825
 20
4695.5621277755708
 30
0.0
 41
60.0
 42
60.0
 43
60.0
 50
180.0
  0
INSERT
  5
876E
  8
3
 62
     0
  2
_OPEN
 10
2438.505878971826
 20
4695.5621277755708
 30
0.0
 41
60.0
 42
60.0
 43
60.0
  0
TEXT
  8
3
  40
90
  5
880E
  62
0
  72
0
  71
0
 10
2464.22
 20
4611.26
 30
0.000000
  1
220
  0
POINT
  5
8770
  8
DEFPOINTS
 62
     0
 10
2218.505878971825
 20
5089.1524204127263
 30
0.0
  0
POINT
  5
8771
  8
DEFPOINTS
 62
     0
 10
2438.505878971826
 20
5789.1524204127236
 30
0.0
  0
POINT
  5
8772
  8
DEFPOINTS
 62
     0
 10
2438.505878971826
 20
4695.5621277755708
 30
0.0
  0
ENDBLK
  5
8627
  8
0
  0
BLOCK
  8
0
  2
*D6
 70
     1
 10
0.0
 20
0.0
 30
0.0
  3
*D6
  1

  0
LINE
  5
8773
  8
3
 62
     0
 10
2233.505878971826
 20
5089.1524204127263
 30
0.0
 11
2802.532923461848
 21
5089.1524204127263
 31
0.0
  0
LINE
  5
8774
  8
3
 62
     0
 10
2453.505878971826
 20
5789.1524204127236
 30
0.0
 11
2802.532923461848
 21
5789.1524204127236
 31
0.0
  0
LINE
  5
8775
  8
3
 62
     0
 10
2772.532923461848
 20
5149.1524204127254
 30
0.0
 11
2772.532923461848
 21
5729.1524204127254
 31
0.0
  0
INSERT
  5
8776
  8
3
 62
     0
  2
_OPEN
 10
2772.532923461848
 20
5089.1524204127263
 30
0.0
 41
60.0
 42
60.0
 43
60.0
 50
270.0
  0
INSERT
  5
8777
  8
3
 62
     0
  2
_OPEN
 10
2772.532923461848
 20
5789.1524204127236
 30
0.0
 41
60.0
 42
60.0
 43
60.0
 50
90.0
  0
TEXT
  8
3
  40
90
  5
880F
  62
0
  72
0
  71
0
 10
2517.53
 20
5263.58
 30
0.000000
  1
700
  0
POINT
  5
8779
  8
DEFPOINTS
 62
     0
 10
2218.505878971825
 20
5089.1524204127263
 30
0.0
  0
POINT
  5
877A
  8
DEFPOINTS
 62
     0
 10
2438.505878971826
 20
5789.1524204127236
 30
0.0
  0
POINT
  5
877B
  8
DEFPOINTS
 62
     0
 10
2772.532923461848
 20
5789.1524204127236
 30
0.0
  0
ENDBLK
  5
8632
  8
0
  0
BLOCK
  8
0
  2
*D7
 70
     1
 10
0.0
 20
0.0
 30
0.0
  3
*D7
  1

  0
LINE
  5
877C
  8
3
 62
     0
 10
2453.505878971826
 20
6499.1524204127236
 30
0.0
 11
2802.5329234618471
 21
6499.1524204127236
 31
0.0
  0
LINE
  5
877D
  8
3
 62
     0
 10
2772.5329234618471
 20
5849.1524204127254
 30
0.0
 11
2772.5329234618471
 21
6439.1524204127254
 31
0.0
  0
INSERT
  5
877E
  8
3
 62
     0
  2
_OPEN
 10
2772.5329234618471
 20
5789.1524204127236
 30
0.0
 41
60.0
 42
60.0
 43
60.0
 50
270.0
  0
INSERT
  5
877F
  8
3
 62
     0
  2
_OPEN
 10
2772.5329234618471
 20
6499.1524204127236
 30
0.0
 41
60.0
 42
60.0
 43
60.0
 50
90.0
  0
TEXT
  8
3
  40
90
  5
8810
  62
0
  72
0
  71
0
 10
2517.53
 20
5984.85
 30
0.000000
  1
710
  0
POINT
  5
8781
  8
DEFPOINTS
 62
     0
 10
2438.505878971826
 20
5789.1524204127236
 30
0.0
  0
POINT
  5
8782
  8
DEFPOINTS
 62
     0
 10
2438.505878971826
 20
6499.1524204127236
 30
0.0
  0
POINT
  5
8783
  8
DEFPOINTS
 62
     0
 10
2772.5329234618471
 20
6499.1524204127236
 30
0.0
  0
ENDBLK
  5
863C
  8
0
  0
BLOCK
  8
0
  2
YA_N
 70
     0
 10
0.0
 20
0.0
 30
0.0
  3
YA_N
  1

  0
ENDBLK
  5
7E7B
  8
0
  0
BLOCK
  8
0
  2
_DOT
 70
     0
 10
0.0
 20
0.0
 30
0.0
  3
_DOT
  1

  0
LINE
  5
8123
  8
0
  6
BYBLOCK
 62
     0
 10
0.0
 20
0.0
 30
0.0
 11
-1.0
 21
-0.0000000000000284
 31
0.0
  0
POLYLINE
  5
8124
  8
0
  6
BYBLOCK
 62
     0
 66
     1
 10
0.0
 20
0.0
 30
0.0
 70
     1
 40
0.1666666666666666
 41
0.1666666666666666
  0
VERTEX
  5
8784
  8
0
  6
BYBLOCK
 62
     0
 10
-0.0833333333333286
 20
-0.0000000000000284
 30
0.0
 42
1.0
  0
VERTEX
  5
8785
  8
0
  6
BYBLOCK
 62
     0
 10
0.0833333333333286
 20
-0.0000000000000284
 30
0.0
 42
1.0
  0
SEQEND
  5
8786
  8
0
  6
BYBLOCK
 62
     0
  0
ENDBLK
  5
8023
  8
0
  0
BLOCK
  8
0
  2
*D10
 70
     1
 10
0.0
 20
0.0
 30
0.0
  3
*D10
  1

  0
LINE
  5
8787
  8
3
 62
     0
 10
2483.5058789718241
 20
3181.3231348489462
 30
0.0
 11
2483.5058789718241
 21
3904.8161292982441
 31
0.0
  0
LINE
  5
8788
  8
3
 62
     0
 10
1938.505878971826
 20
3769.1940761845758
 30
0.0
 11
1938.505878971826
 21
3904.8161292982441
 31
0.0
  0
LINE
  5
8789
  8
3
 62
     0
 10
2423.5058789718241
 20
3874.8161292982441
 30
0.0
 11
1998.505878971825
 21
3874.8161292982441
 31
0.0
  0
INSERT
  5
878A
  8
3
 62
     0
  2
_OPEN
 10
2483.5058789718241
 20
3874.8161292982441
 30
0.0
 41
60.0
 42
60.0
 43
60.0
  0
INSERT
  5
878B
  8
3
 62
     0
  2
_OPEN
 10
1938.505878971826
 20
3874.8161292982441
 30
0.0
 41
60.0
 42
60.0
 43
60.0
 50
180.0
  0
TEXT
  8
3
  40
90
  5
8811
  62
0
  72
0
  71
0
 10
2032.67
 20
3790.52
 30
0.000000
  1
545
  0
POINT
  5
878D
  8
DEFPOINTS
 62
     0
 10
2483.5058789718241
 20
3166.3231348489462
 30
0.0
  0
POINT
  5
878E
  8
DEFPOINTS
 62
     0
 10
1938.505878971826
 20
3754.1940761845758
 30
0.0
  0
POINT
  5
878F
  8
DEFPOINTS
 62
     0
 10
1938.505878971826
 20
3874.8161292982441
 30
0.0
  0
ENDBLK
  5
85C3
  8
0
  0
BLOCK
  8
0
  2
*D11
 70
     1
 10
0.0
 20
0.0
 30
0.0
  3
*D11
  1

  0
LINE
  5
8790
  8
3
 62
     0
 10
1252.505878971826
 20
3102.8231348489462
 30
0.0
 11
1252.505878971826
 21
3904.8161292982441
 31
0.0
  0
LINE
  5
8791
  8
3
 62
     0
 10
1878.505878971825
 20
3874.8161292982441
 30
0.0
 11
1312.505878971826
 21
3874.8161292982441
 31
0.0
  0
INSERT
  5
8792
  8
3
 62
     0
  2
_OPEN
 10
1938.505878971826
 20
3874.8161292982441
 30
0.0
 41
60.0
 42
60.0
 43
60.0
  0
INSERT
  5
8793
  8
3
 62
     0
  2
_OPEN
 10
1252.505878971826
 20
3874.8161292982441
 30
0.0
 41
60.0
 42
60.0
 43
60.0
 50
180.0
  0
TEXT
  8
3
  40
90
  5
8812
  62
0
  72
0
  71
0
 10
1415.51
 20
3790.52
 30
0.000000
  1
686
  0
POINT
  5
8795
  8
DEFPOINTS
 62
     0
 10
1938.505878971826
 20
3754.1940761845758
 30
0.0
  0
POINT
  5
8796
  8
DEFPOINTS
 62
     0
 10
1252.505878971826
 20
3087.8231348489462
 30
0.0
  0
POINT
  5
8797
  8
DEFPOINTS
 62
     0
 10
1252.505878971826
 20
3874.8161292982441
 30
0.0
  0
ENDBLK
  5
85A0
  8
0
  0
BLOCK
  8
0
  2
*D12
 70
     1
 10
0.0
 20
0.0
 30
0.0
  3
*D12
  1

  0
LINE
  5
8798
  8
3
 62
     0
 10
1894.505878971826
 20
3714.8231348489462
 30
0.0
 11
3127.889417319886
 21
3714.8231348489462
 31
0.0
  0
LINE
  5
8799
  8
3
 62
     0
 10
2619.9776708222162
 20
3146.8231348489462
 30
0.0
 11
3127.889417319886
 21
3146.8231348489448
 31
0.0
  0
LINE
  5
879A
  8
3
 62
     0
 10
3097.8894173198869
 20
3654.8231348489462
 30
0.0
 11
3097.8894173198869
 21
3206.8231348489448
 31
0.0
  0
INSERT
  5
879B
  8
3
 62
     0
  2
_OPEN
 10
3097.8894173198869
 20
3714.8231348489462
 30
0.0
 41
60.0
 42
60.0
 43
60.0
 50
90.0
  0
INSERT
  5
879C
  8
3
 62
     0
  2
_OPEN
 10
3097.8894173198869
 20
3146.8231348489448
 30
0.0
 41
60.0
 42
60.0
 43
60.0
 50
270.0
  0
TEXT
  8
3
  40
90
  5
8813
  62
0
  72
0
  71
0
 10
2842.89
 20
3292.30
 30
0.000000
  1
568
  0
POINT
  5
879E
  8
DEFPOINTS
 62
     0
 10
1879.505878971826
 20
3714.8231348489462
 30
0.0
  0
POINT
  5
879F
  8
DEFPOINTS
 62
     0
 10
2604.9776708222162
 20
3146.8231348489462
 30
0.0
  0
POINT
  5
87A0
  8
DEFPOINTS
 62
     0
 10
3097.8894173198869
 20
3146.8231348489448
 30
0.0
  0
ENDBLK
  5
85CE
  8
0
  0
BLOCK
  8
0
  2
*D13
 70
     1
 10
0.0
 20
0.0
 30
0.0
  3
*D13
  1

  0
LINE
  5
87A1
  8
3
 62
     0
 10
2453.505878971826
 20
2186.8231348489462
 30
0.0
 11
3127.889417319886
 21
2186.8231348489462
 31
0.0
  0
LINE
  5
87A2
  8
3
 62
     0
 10
3097.889417319886
 20
3086.8231348489462
 30
0.0
 11
3097.889417319886
 21
2246.8231348489448
 31
0.0
  0
INSERT
  5
87A3
  8
3
 62
     0
  2
_OPEN
 10
3097.889417319886
 20
3146.8231348489448
 30
0.0
 41
60.0
 42
60.0
 43
60.0
 50
90.0
  0
INSERT
  5
87A4
  8
3
 62
     0
  2
_OPEN
 10
3097.889417319886
 20
2186.8231348489462
 30
0.0
 41
60.0
 42
60.0
 43
60.0
 50
270.0
  0
TEXT
  8
3
  40
90
  5
8814
  62
0
  72
0
  71
0
 10
2842.89
 20
2507.52
 30
0.000000
  1
960
  0
POINT
  5
87A6
  8
DEFPOINTS
 62
     0
 10
2604.9776708222162
 20
3146.8231348489462
 30
0.0
  0
POINT
  5
87A7
  8
DEFPOINTS
 62
     0
 10
2438.505878971826
 20
2186.8231348489462
 30
0.0
  0
POINT
  5
87A8
  8
DEFPOINTS
 62
     0
 10
3097.889417319886
 20
2186.8231348489462
 30
0.0
  0
ENDBLK
  5
85D8
  8
0
  0
BLOCK
  8
0
  2
*D14
 70
     1
 10
0.0
 20
0.0
 30
0.0
  3
*D14
  1

  0
LINE
  5
87A9
  8
3
 62
     0
 10
2619.9776708222162
 20
3146.8231348489462
 30
0.0
 11
2926.2035802514952
 21
3146.8231348489462
 31
0.0
  0
LINE
  5
87AA
  8
3
 62
     0
 10
2498.505878971826
 20
2298.8231348489462
 30
0.0
 11
2926.2035802514952
 21
2298.8231348489462
 31
0.0
  0
LINE
  5
87AB
  8
3
 62
     0
 10
2896.2035802514961
 20
3086.8231348489462
 30
0.0
 11
2896.2035802514952
 21
2358.8231348489462
 31
0.0
  0
INSERT
  5
87AC
  8
3
 62
     0
  2
_OPEN
 10
2896.2035802514961
 20
3146.8231348489462
 30
0.0
 41
60.0
 42
60.0
 43
60.0
 50
90.0
  0
INSERT
  5
87AD
  8
3
 62
     0
  2
_OPEN
 10
2896.2035802514952
 20
2298.8231348489462
 30
0.0
 41
60.0
 42
60.0
 43
60.0
 50
270.0
  0
TEXT
  8
3
  40
90
  5
8815
  62
0
  72
0
  71
0
 10
2641.20
 20
2536.70
 30
0.000000
  1
848
  0
POINT
  5
87AF
  8
DEFPOINTS
 62
     0
 10
2604.9776708222162
 20
3146.8231348489462
 30
0.0
  0
POINT
  5
87B0
  8
DEFPOINTS
 62
     0
 10
2483.505878971826
 20
2298.8231348489462
 30
0.0
  0
POINT
  5
87B1
  8
DEFPOINTS
 62
     0
 10
2896.2035802514952
 20
2298.8231348489462
 30
0.0
  0
ENDBLK
  5
85EF
  8
0
  0
BLOCK
  8
0
  2
*D15
 70
     1
 10
0.0
 20
0.0
 30
0.0
  3
*D15
  1

  0
LINE
  5
87B2
  8
3
 62
     0
 10
2498.505878971826
 20
3123.8231348489462
 30
0.0
 11
2731.8126026399259
 21
3123.8231348489462
 31
0.0
  0
LINE
  5
87B3
  8
3
 62
     0
 10
2498.505878971826
 20
2298.8231348489462
 30
0.0
 11
2731.8126026399259
 21
2298.8231348489462
 31
0.0
  0
LINE
  5
87B4
  8
3
 62
     0
 10
2701.8126026399259
 20
3063.8231348489462
 30
0.0
 11
2701.8126026399259
 21
2358.8231348489462
 31
0.0
  0
INSERT
  5
87B5
  8
3
 62
     0
  2
_OPEN
 10
2701.8126026399268
 20
3123.8231348489462
 30
0.0
 41
60.0
 42
60.0
 43
60.0
 50
90.0
  0
INSERT
  5
87B6
  8
3
 62
     0
  2
_OPEN
 10
2701.8126026399259
 20
2298.8231348489462
 30
0.0
 41
60.0
 42
60.0
 43
60.0
 50
270.0
  0
TEXT
  8
3
  40
90
  5
8816
  62
0
  72
0
  71
0
 10
2446.81
 20
2588.90
 30
0.000000
  1
825
  0
POINT
  5
87B8
  8
DEFPOINTS
 62
     0
 10
2483.505878971826
 20
3123.8231348489462
 30
0.0
  0
POINT
  5
87B9
  8
DEFPOINTS
 62
     0
 10
2483.505878971826
 20
2298.8231348489462
 30
0.0
  0
POINT
  5
87BA
  8
DEFPOINTS
 62
     0
 10
2701.8126026399259
 20
2298.8231348489462
 30
0.0
  0
ENDBLK
  5
85FA
  8
0
  0
BLOCK
  8
0
  2
*D16
 70
     1
 10
0.0
 20
0.0
 30
0.0
  3
*D16
  1

  0
LINE
  5
87BB
  8
3
 62
     0
 10
4667.4860925977264
 20
3727.5231348489451
 30
0.0
 11
4667.4860925977264
 21
3882.1499836953808
 31
0.0
  0
LINE
  5
87BC
  8
3
 62
     0
 10
5267.4860925977246
 20
3727.523134848946
 30
0.0
 11
5267.4860925977246
 21
3882.1499836953808
 31
0.0
  0
LINE
  5
87BD
  8
3
 62
     0
 10
4727.4860925977246
 20
3852.1499836953799
 30
0.0
 11
5207.4860925977264
 21
3852.1499836953799
 31
0.0
  0
INSERT
  5
87BE
  8
3
 62
     0
  2
_OPEN
 10
4667.4860925977264
 20
3852.1499836953799
 30
0.0
 41
60.0
 42
60.0
 43
60.0
 50
180.0
  0
INSERT
  5
87BF
  8
3
 62
     0
  2
_OPEN
 10
5267.4860925977246
 20
3852.1499836953799
 30
0.0
 41
60.0
 42
60.0
 43
60.0
  0
TEXT
  8
3
  40
90
  5
8817
  62
0
  72
0
  71
0
 10
4787.04
 20
3767.85
 30
0.000000
  1
600
  0
POINT
  5
87C1
  8
DEFPOINTS
 62
     0
 10
4667.4860925977264
 20
3712.5231348489451
 30
0.0
  0
POINT
  5
87C2
  8
DEFPOINTS
 62
     0
 10
5267.4860925977246
 20
3712.523134848946
 30
0.0
  0
POINT
  5
87C3
  8
DEFPOINTS
 62
     0
 10
5267.4860925977246
 20
3852.1499836953799
 30
0.0
  0
ENDBLK
  5
844E
  8
0
  0
BLOCK
  8
0
  2
*D17
 70
     1
 10
0.0
 20
0.0
 30
0.0
  3
*D17
  1

  0
LINE
  5
84C5
  8
0
  6
BYBLOCK
 62
     0
 10
5271.4860925977282
 20
3601.8231348489448
 30
0.0
 11
5271.4860925977282
 21
4096.5999539467484
 31
0.0
  0
LINE
  5
84C6
  8
0
  6
BYBLOCK
 62
     0
 10
4967.4860925977246
 20
4029.4833803428191
 30
0.0
 11
4967.4860925977246
 21
4096.5999539467484
 31
0.0
  0
LINE
  5
84C7
  8
0
  6
BYBLOCK
 62
     0
 10
5211.4860925977273
 20
4066.599953946748
 30
0.0
 11
5027.4860925977237
 21
4066.599953946748
 31
0.0
  0
TEXT
  5
84C8
  8
3
 62
     0
 10
5001.6289497405842
 20
4091.0972975134819
 30
0.0
 40
90.0
  1
304
  0
INSERT
  5
84C9
  8
0
  6
BYBLOCK
 62
     0
  2
_OPEN
 10
5271.4860925977282
 20
4066.599953946748
 30
0.0
 41
60.0
 42
60.0
 43
60.0
  0
INSERT
  5
84CA
  8
0
  6
BYBLOCK
 62
     0
  2
_OPEN
 10
4967.4860925977246
 20
4066.599953946748
 30
0.0
 41
60.0
 42
60.0
 43
60.0
 50
180.0
  0
POINT
  5
84CB
  8
DEFPOINTS
  6
BYBLOCK
 62
     0
 10
5271.4860925977282
 20
3586.8231348489448
 30
0.0
  0
POINT
  5
84CC
  8
DEFPOINTS
  6
BYBLOCK
 62
     0
 10
4967.4860925977246
 20
4014.4833803428191
 30
0.0
  0
POINT
  5
84CD
  8
DEFPOINTS
  6
BYBLOCK
 62
     0
 10
4967.4860925977246
 20
4066.599953946748
 30
0.0
  0
ENDBLK
  5
84CE
  8
0
  0
BLOCK
  8
0
  2
*D18
 70
     1
 10
0.0
 20
0.0
 30
0.0
  3
*D18
  1

  0
LINE
  5
87C4
  8
3
 62
     0
 10
3779.486092597725
 20
3381.8231348489448
 30
0.0
 11
3779.486092597725
 21
4096.5999539467484
 31
0.0
  0
LINE
  5
87C5
  8
3
 62
     0
 10
4907.4860925977246
 20
4066.599953946748
 30
0.0
 11
3839.486092597725
 21
4066.599953946748
 31
0.0
  0
INSERT
  5
87C6
  8
3
 62
     0
  2
_OPEN
 10
4967.4860925977246
 20
4066.599953946748
 30
0.0
 41
60.0
 42
60.0
 43
60.0
  0
INSERT
  5
87C7
  8
3
 62
     0
  2
_OPEN
 10
3779.486092597725
 20
4066.599953946748
 30
0.0
 41
60.0
 42
60.0
 43
60.0
 50
180.0
  0
TEXT
  8
3
  40
90
  5
8818
  62
0
  72
0
  71
0
 10
4193.49
 20
4057.30
 30
0.000000
  1
MAX
  0
TEXT
  8
3
  40
90
  5
8819
  62
0
  72
0
  71
0
 10
4193.49
 20
3940.30
 30
0.000000
  1
1240
  0
POINT
  5
87C9
  8
DEFPOINTS
 62
     0
 10
4967.4860925977246
 20
4014.4833803428191
 30
0.0
  0
POINT
  5
87CA
  8
DEFPOINTS
 62
     0
 10
3779.486092597725
 20
3366.8231348489448
 30
0.0
  0
POINT
  5
87CB
  8
DEFPOINTS
 62
     0
 10
3779.486092597725
 20
4066.599953946748
 30
0.0
  0
ENDBLK
  5
84D8
  8
0
  0
BLOCK
  8
0
  2
*D19
 70
     1
 10
0.0
 20
0.0
 30
0.0
  3
*D19
  1

  0
LINE
  5
87CC
  8
3
 62
     0
 10
2483.5058789718241
 20
3181.3231348489462
 30
0.0
 11
2483.5058789718241
 21
4113.974274384298
 31
0.0
  0
LINE
  5
87CD
  8
3
 62
     0
 10
1118.505878971826
 20
2551.8231348489448
 30
0.0
 11
1118.505878971826
 21
4113.974274384298
 31
0.0
  0
LINE
  5
87CE
  8
3
 62
     0
 10
2423.5058789718241
 20
4083.974274384298
 30
0.0
 11
1178.505878971826
 21
4083.974274384298
 31
0.0
  0
INSERT
  5
87CF
  8
3
 62
     0
  2
_OPEN
 10
2483.5058789718241
 20
4083.974274384298
 30
0.0
 41
60.0
 42
60.0
 43
60.0
  0
INSERT
  5
87D0
  8
3
 62
     0
  2
_OPEN
 10
1118.505878971826
 20
4083.974274384298
 30
0.0
 41
60.0
 42
60.0
 43
60.0
 50
180.0
  0
TEXT
  8
3
  40
90
  5
881A
  62
0
  72
0
  71
0
 10
1530.43
 20
3999.67
 30
0.000000
  1
1365
  0
POINT
  5
87D2
  8
DEFPOINTS
 62
     0
 10
2483.5058789718241
 20
3166.3231348489462
 30
0.0
  0
POINT
  5
87D3
  8
DEFPOINTS
 62
     0
 10
1118.505878971826
 20
2536.8231348489462
 30
0.0
  0
POINT
  5
87D4
  8
DEFPOINTS
 62
     0
 10
1118.505878971826
 20
4083.974274384298
 30
0.0
  0
ENDBLK
  5
85AB
  8
0
  0
BLOCK
  8
0
  2
*D20
 70
     1
 10
0.0
 20
0.0
 30
0.0
  3
*D20
  1

  0
LINE
  5
87D5
  8
3
 62
     0
 10
1148.505878971825
 20
2171.8231348489462
 30
0.0
 11
1148.505878971825
 21
1944.1518558577079
 31
0.0
  0
LINE
  5
87D6
  8
3
 62
     0
 10
1938.505878971825
 20
2171.8231348489448
 30
0.0
 11
1938.505878971825
 21
1944.1518558577079
 31
0.0
  0
LINE
  5
87D7
  8
3
 62
     0
 10
1208.505878971826
 20
1974.1518558577079
 30
0.0
 11
1878.505878971825
 21
1974.1518558577079
 31
0.0
  0
INSERT
  5
87D8
  8
3
 62
     0
  2
_OPEN
 10
1148.505878971825
 20
1974.1518558577079
 30
0.0
 41
60.0
 42
60.0
 43
60.0
 50
180.0
  0
INSERT
  5
87D9
  8
3
 62
     0
  2
_OPEN
 10
1938.505878971825
 20
1974.1518558577079
 30
0.0
 41
60.0
 42
60.0
 43
60.0
  0
TEXT
  8
3
  40
90
  5
881B
  62
0
  72
0
  71
0
 10
1363.51
 20
1889.85
 30
0.000000
  1
790
  0
POINT
  5
87DB
  8
DEFPOINTS
 62
     0
 10
1148.505878971825
 20
2186.8231348489462
 30
0.0
  0
POINT
  5
87DC
  8
DEFPOINTS
 62
     0
 10
1938.505878971825
 20
2186.8231348489462
 30
0.0
  0
POINT
  5
87DD
  8
DEFPOINTS
 62
     0
 10
1938.505878971825
 20
1974.1518558577079
 30
0.0
  0
ENDBLK
  5
86D6
  8
0
  0
BLOCK
  8
0
  2
*D21
 70
     1
 10
0.0
 20
0.0
 30
0.0
  3
*D21
  1

  0
LINE
  5
87DE
  8
3
 62
     0
 10
1938.505878971825
 20
2171.8231348489448
 30
0.0
 11
1938.505878971825
 21
1944.1518558577079
 31
0.0
  0
LINE
  5
87DF
  8
3
 62
     0
 10
2438.505878971826
 20
2171.8231348489462
 30
0.0
 11
2438.505878971826
 21
1944.1518558577079
 31
0.0
  0
LINE
  5
87E0
  8
3
 62
     0
 10
1998.505878971825
 20
1974.1518558577079
 30
0.0
 11
2378.505878971826
 21
1974.1518558577079
 31
0.0
  0
INSERT
  5
87E1
  8
3
 62
     0
  2
_OPEN
 10
1938.505878971825
 20
1974.1518558577079
 30
0.0
 41
60.0
 42
60.0
 43
60.0
 50
180.0
  0
INSERT
  5
87E2
  8
3
 62
     0
  2
_OPEN
 10
2438.505878971826
 20
1974.1518558577079
 30
0.0
 41
60.0
 42
60.0
 43
60.0
  0
TEXT
  8
3
  40
90
  5
881C
  62
0
  72
0
  71
0
 10
2008.51
 20
1889.85
 30
0.000000
  1
500
  0
POINT
  5
87E4
  8
DEFPOINTS
 62
     0
 10
1938.505878971825
 20
2186.8231348489462
 30
0.0
  0
POINT
  5
87E5
  8
DEFPOINTS
 62
     0
 10
2438.505878971826
 20
2186.8231348489462
 30
0.0
  0
POINT
  5
87E6
  8
DEFPOINTS
 62
     0
 10
2438.505878971826
 20
1974.1518558577079
 30
0.0
  0
ENDBLK
  5
86E3
  8
0
  0
BLOCK
  8
0
  2
*D22
 70
     1
 10
0.0
 20
0.0
 30
0.0
  3
*D22
  1

  0
LINE
  5
87E7
  8
3
 62
     0
 10
3912.4860925977268
 20
2171.8231348489448
 30
0.0
 11
3912.4860925977268
 21
1944.1518558577079
 31
0.0
  0
LINE
  5
87E8
  8
3
 62
     0
 10
4967.4860925977282
 20
2171.8231348489448
 30
0.0
 11
4967.4860925977282
 21
1944.1518558577079
 31
0.0
  0
LINE
  5
87E9
  8
3
 62
     0
 10
3972.4860925977268
 20
1974.1518558577079
 30
0.0
 11
4907.4860925977291
 21
1974.1518558577079
 31
0.0
  0
INSERT
  5
87EA
  8
3
 62
     0
  2
_OPEN
 10
3912.4860925977268
 20
1974.1518558577079
 30
0.0
 41
60.0
 42
60.0
 43
60.0
 50
180.0
  0
INSERT
  5
87EB
  8
3
 62
     0
  2
_OPEN
 10
4967.4860925977282
 20
1974.1518558577079
 30
0.0
 41
60.0
 42
60.0
 43
60.0
  0
TEXT
  8
3
  40
90
  5
881D
  62
0
  72
0
  71
0
 10
4259.99
 20
1889.85
 30
0.000000
  1
1055
  0
POINT
  5
87ED
  8
DEFPOINTS
 62
     0
 10
3912.4860925977268
 20
2186.8231348489439
 30
0.0
  0
POINT
  5
87EE
  8
DEFPOINTS
 62
     0
 10
4967.4860925977282
 20
2186.8231348489448
 30
0.0
  0
POINT
  5
87EF
  8
DEFPOINTS
 62
     0
 10
4967.4860925977282
 20
1974.1518558577079
 30
0.0
  0
ENDBLK
  5
86F0
  8
0
  0
BLOCK
  8
0
  2
*D23
 70
     1
 10
0.0
 20
0.0
 30
0.0
  3
*D23
  1

  0
LINE
  5
87F0
  8
3
 62
     0
 10
4967.4860925977282
 20
2171.8231348489448
 30
0.0
 11
4967.4860925977282
 21
1944.1518558577079
 31
0.0
  0
LINE
  5
87F1
  8
3
 62
     0
 10
5322.4860925977246
 20
2171.8231348489448
 30
0.0
 11
5322.4860925977246
 21
1944.1518558577079
 31
0.0
  0
LINE
  5
87F2
  8
3
 62
     0
 10
5027.4860925977291
 20
1974.1518558577079
 30
0.0
 11
5262.4860925977246
 21
1974.1518558577079
 31
0.0
  0
INSERT
  5
87F3
  8
3
 62
     0
  2
_OPEN
 10
4967.4860925977282
 20
1974.1518558577079
 30
0.0
 41
60.0
 42
60.0
 43
60.0
 50
180.0
  0
INSERT
  5
87F4
  8
3
 62
     0
  2
_OPEN
 10
5322.4860925977246
 20
1974.1518558577079
 30
0.0
 41
60.0
 42
60.0
 43
60.0
  0
TEXT
  8
3
  40
90
  5
881E
  62
0
  72
0
  71
0
 10
4964.99
 20
1889.85
 30
0.000000
  1
355
  0
POINT
  5
87F6
  8
DEFPOINTS
 62
     0
 10
4967.4860925977282
 20
2186.8231348489448
 30
0.0
  0
POINT
  5
87F7
  8
DEFPOINTS
 62
     0
 10
5322.4860925977246
 20
2186.8231348489462
 30
0.0
  0
POINT
  5
87F8
  8
DEFPOINTS
 62
     0
 10
5322.4860925977246
 20
1974.1518558577079
 30
0.0
  0
ENDBLK
  5
86FF
  8
0
  0
BLOCK
  8
0
  2
*D24
 70
     1
 10
0.0
 20
0.0
 30
0.0
  3
*D24
  1

  0
LINE
  5
87F9
  8
3
 62
     0
 10
1909.505878971826
 20
3714.8231348489462
 30
0.0
 11
3359.9125300559208
 21
3714.8231348489462
 31
0.0
  0
LINE
  5
87FA
  8
3
 62
     0
 10
2453.505878971826
 20
2186.8231348489462
 30
0.0
 11
3359.9125300559199
 21
2186.8231348489462
 31
0.0
  0
LINE
  5
87FB
  8
3
 62
     0
 10
3329.9125300559208
 20
3654.8231348489462
 30
0.0
 11
3329.9125300559208
 21
2246.8231348489448
 31
0.0
  0
INSERT
  5
87FC
  8
3
 62
     0
  2
_OPEN
 10
3329.9125300559208
 20
3714.8231348489462
 30
0.0
 41
60.0
 42
60.0
 43
60.0
 50
90.0
  0
INSERT
  5
87FD
  8
3
 62
     0
  2
_OPEN
 10
3329.9125300559208
 20
2186.8231348489462
 30
0.0
 41
60.0
 42
60.0
 43
60.0
 50
270.0
  0
TEXT
  8
3
  40
90
  5
881F
  62
0
  72
0
  71
0
 10
3074.91
 20
2791.52
 30
0.000000
  1
1528
  0
POINT
  5
87FF
  8
DEFPOINTS
 62
     0
 10
1894.505878971826
 20
3714.8231348489462
 30
0.0
  0
POINT
  5
8800
  8
DEFPOINTS
 62
     0
 10
2438.505878971826
 20
2186.8231348489462
 30
0.0
  0
POINT
  5
8801
  8
DEFPOINTS
 62
     0
 10
3329.9125300559208
 20
2186.8231348489462
 30
0.0
  0
ENDBLK
  5
870C
  8
0
  0
BLOCK
  8
0
  2
*D25
 70
     1
 10
0.0
 20
0.0
 30
0.0
  3
*D25
  1

  0
LINE
  5
8802
  8
3
 62
     0
 10
5286.4860925977282
 20
3571.8231348489462
 30
0.0
 11
5559.6852024202626
 21
3571.8231348489462
 31
0.0
  0
LINE
  5
8803
  8
3
 62
     0
 10
5286.4860925977273
 20
2721.8231348489448
 30
0.0
 11
5559.6852024202626
 21
2721.8231348489448
 31
0.0
  0
LINE
  5
8804
  8
3
 62
     0
 10
5529.6852024202644
 20
3511.8231348489448
 30
0.0
 11
5529.6852024202644
 21
2781.8231348489448
 31
0.0
  0
INSERT
  5
8805
  8
3
 62
     0
  2
_OPEN
 10
5529.6852024202644
 20
3571.8231348489462
 30
0.0
 41
60.0
 42
60.0
 43
60.0
 50
90.0
  0
INSERT
  5
8806
  8
3
 62
     0
  2
_OPEN
 10
5529.6852024202644
 20
2721.8231348489448
 30
0.0
 41
60.0
 42
60.0
 43
60.0
 50
270.0
  0
TEXT
  8
3
  40
90
  5
8820
  62
0
  72
0
  71
0
 10
5274.69
 20
2987.52
 30
0.000000
  1
φ850
  0
POINT
  5
8808
  8
DEFPOINTS
 62
     0
 10
5271.4860925977282
 20
3571.8231348489462
 30
0.0
  0
POINT
  5
8809
  8
DEFPOINTS
 62
     0
 10
5271.4860925977282
 20
2721.8231348489448
 30
0.0
  0
POINT
  5
880A
  8
DEFPOINTS
 62
     0
 10
5529.6852024202644
 20
2721.8231348489448
 30
0.0
  0
ENDBLK
  5
8732
  8
0
  0
ENDSEC
  0
SECTION
  2
ENTITIES
  0
LINE
  5
7AC2
  8
2
 10
2545.4224264964209
 20
6144.1524204127254
 30
0.0
 11
1206.052835366972
 21
6144.1524204127254
 31
0.0
  0
LINE
  5
7B11
  8
2
 10
1938.505878971826
 20
6603.8465752898683
 30
0.0
 11
1938.505878971826
 21
4923.8901259765353
 31
0.0
  0
LINE
  5
7B13
  8
1
 10
1911.0058789718239
 20
5101.1524204127236
 30
0.0
 11
1911.005878971831
 21
5841.8524204127216
 31
0.0
  0
LINE
  5
7B14
  8
1
 10
1966.005878971825
 20
5101.1524204127236
 30
0.0
 11
1966.005878971825
 21
5841.8524204127216
 31
0.0
  0
LINE
  5
7B15
  8
1
 10
2218.505878971825
 20
5789.1524204127236
 30
0.0
 11
2218.505878971825
 21
5089.1524204127263
 31
0.0
  0
LINE
  5
7B17
  8
1
 10
1148.505878971825
 20
5839.1524204127236
 30
0.0
 11
1148.505878971825
 21
5089.1524204127272
 31
0.0
  0
LINE
  5
7B18
  8
1
 10
2158.5058789718241
 20
4956.1524204127227
 30
0.0
 11
1118.505878971826
 21
4956.1524204127254
 31
0.0
  0
LINE
  5
7B19
  8
1
 10
2065.5058789718241
 20
4996.1524204127227
 30
0.0
 11
1228.505878971826
 21
4996.1524204127227
 31
0.0
  0
LINE
  5
7B1A
  8
1
 10
2065.5058789718241
 20
5081.1524204127236
 30
0.0
 11
1228.5058789718239
 21
5081.1524204127236
 31
0.0
  0
LINE
  5
7B1B
  8
1
 10
2218.505878971825
 20
5089.1524204127263
 30
0.0
 11
1148.505878971825
 21
5089.1524204127236
 31
0.0
  0
LINE
  5
7B1C
  8
1
 10
1118.5058789718239
 20
4956.1524204127236
 30
0.0
 11
1118.505878971826
 21
5116.1524204127236
 31
0.0
  0
LINE
  5
7B1D
  8
2
 10
1338.505878971826
 20
4927.0440016317534
 30
0.0
 11
1338.505878971826
 21
5693.4344787991904
 31
0.0
  0
LINE
  5
7B1E
  8
1
 10
1176.505878971826
 20
5147.1561287579789
 30
0.0
 11
1498.505878971825
 21
5147.1561287579789
 31
0.0
  0
LINE
  5
7B1F
  8
1
 10
1498.505878971825
 20
5621.2778485763993
 30
0.0
 11
1176.505878971826
 21
5621.2778485763993
 31
0.0
  0
LINE
  5
7B20
  8
1
 10
1176.505878971826
 20
5215.7472567477089
 30
0.0
 11
1176.505878971826
 21
5457.9942967081297
 31
0.0
  0
LINE
  5
7B21
  8
1
 10
1176.505878971826
 20
5621.2778485763993
 30
0.0
 11
1176.505878971826
 21
5147.1561287579789
 31
0.0
  0
LINE
  5
7B22
  8
1
 10
1228.505878971826
 20
4996.1524204127227
 30
0.0
 11
1228.5058789718239
 21
5081.1524204127236
 31
0.0
  0
LINE
  5
7B23
  8
1
 10
1498.505878971825
 20
5147.1561287579789
 30
0.0
 11
1498.505878971825
 21
5621.2778485763993
 31
0.0
  0
LINE
  5
7B25
  8
1
 10
1396.723327954423
 20
5136.2778485764002
 30
0.0
 11
1280.288429989228
 21
5136.2778485764002
 31
0.0
  0
LINE
  5
7B26
  8
1
 10
1359.5058789718239
 20
5018.2778485754079
 30
0.0
 11
1359.5058789718239
 21
5128.2778485715371
 31
0.0
  0
LINE
  5
7B27
  8
1
 10
1317.505878971826
 20
5018.2778485754079
 30
0.0
 11
1317.5058789718239
 21
5128.2778485715371
 31
0.0
  0
LINE
  5
7B28
  8
1
 10
1317.505878971826
 20
5018.2778485754079
 30
0.0
 11
1359.505878971826
 21
5018.2778485754079
 31
0.0
  0
LINE
  5
7B29
  8
1
 10
1368.927187917672
 20
5128.2778485715371
 30
0.0
 11
1310.084570025979
 21
5128.2778485715371
 31
0.0
  0
LINE
  5
7B2A
  8
1
 10
1310.084570025979
 20
5128.2778485715371
 30
0.0
 11
1310.084570025979
 21
5136.2778485764002
 31
0.0
  0
LINE
  5
7B2B
  8
1
 10
1280.288429989228
 20
5147.1561287579789
 30
0.0
 11
1280.288429989228
 21
5136.2778485764002
 31
0.0
  0
LINE
  5
7B2C
  8
1
 10
1368.927187917672
 20
5128.2778485715371
 30
0.0
 11
1368.9271879176699
 21
5136.2778485764002
 31
0.0
  0
LINE
  5
7B2D
  8
1
 10
1448.505878971825
 20
4996.1524204127227
 30
0.0
 11
1448.505878971825
 21
5081.1524204127236
 31
0.0
  0
LINE
  5
7B2E
  8
1
 10
1396.723327954423
 20
5147.1561287579789
 30
0.0
 11
1396.723327954423
 21
5136.2778485764002
 31
0.0
  0
LINE
  5
7B2F
  8
1
 10
2158.5058789718241
 20
4956.1524204127236
 30
0.0
 11
2158.5058789718241
 21
5116.1524204127236
 31
0.0
  0
LINE
  5
7B32
  8
1
 10
2108.505878971826
 20
5136.1524204127218
 30
0.0
 11
1966.005878971825
 21
5136.1524204127227
 31
0.0
  0
LINE
  5
7B33
  8
1
 10
1911.005878971826
 20
5136.1524204127227
 30
0.0
 11
1768.505878971826
 21
5136.1524204127227
 31
0.0
  0
LINE
  5
7B34
  8
1
 10
1811.5058789718239
 20
4996.1524204127236
 30
0.0
 11
1811.5058789718239
 21
5081.1524204127236
 31
0.0
  0
LINE
  5
7B35
  8
1
 10
1966.005878971825
 20
5101.1524204127236
 30
0.0
 11
1911.005878971826
 21
5101.1524204127236
 31
0.0
  0
LINE
  5
7B36
  8
1
 10
1914.5058789718239
 20
5081.1524204127236
 30
0.0
 11
1914.5058789718239
 21
5101.1524204127236
 31
0.0
  0
LINE
  5
7B37
  8
1
 10
1962.5058789718239
 20
5081.1524204127236
 30
0.0
 11
1962.5058789718239
 21
5101.1524204127236
 31
0.0
  0
LINE
  5
7B38
  8
1
 10
2065.5058789718241
 20
4996.1524204127236
 30
0.0
 11
2065.5058789718241
 21
5081.1524204127236
 31
0.0
  0
LINE
  5
7B39
  8
1
 10
2158.505878971826
 20
5116.1524204127236
 30
0.0
 11
2138.5058789718241
 21
5116.1524204127236
 31
0.0
  0
LINE
  5
7B3A
  8
1
 10
2443.505878971826
 20
5844.1524204127227
 30
0.0
 11
1252.505878971826
 21
5844.152420412719
 31
0.0
  0
LINE
  5
7B3B
  8
1
 10
2443.505878971826
 20
6444.1524204127263
 30
0.0
 11
1252.505878971826
 21
6444.1524204127199
 31
0.0
  0
LINE
  5
7B3C
  8
1
 10
2438.505878971826
 20
6499.1524204127236
 30
0.0
 11
1438.505878971826
 21
6499.1524204127263
 31
0.0
  0
LINE
  5
7B3D
  8
1
 10
1438.505878971826
 20
6499.1524204127236
 30
0.0
 11
1438.505878971826
 21
6444.1524204127199
 31
0.0
  0
LINE
  5
7B3E
  8
1
 10
1438.505878971826
 20
5839.1524204127263
 30
0.0
 11
1148.505878971825
 21
5839.1524204127263
 31
0.0
  0
LINE
  5
7B40
  8
1
 10
1438.505878971826
 20
5844.152420412719
 30
0.0
 11
1438.505878971826
 21
5839.1524204127236
 31
0.0
  0
LINE
  5
7B41
  8
1
 10
2438.505878971826
 20
6499.1524204127236
 30
0.0
 11
2438.505878971826
 21
6446.4524204127229
 31
0.0
  0
LINE
  5
7B42
  8
1
 10
2438.5058789718241
 20
6444.1524204127236
 30
0.0
 11
2438.505878971826
 21
6486.1524204127218
 31
0.0
  0
LINE
  5
7B45
  8
1
 10
2108.505878971826
 20
5758.1524204127209
 30
0.0
 11
1966.005878971825
 21
5758.1524204127218
 31
0.0
  0
LINE
  5
7B46
  8
1
 10
1911.005878971831
 20
5758.1524204127218
 30
0.0
 11
1768.505878971826
 21
5758.1524204127218
 31
0.0
  0
LINE
  5
7B47
  8
1
 10
2438.505878971826
 20
5789.1524204127236
 30
0.0
 11
2218.505878971825
 21
5789.1524204127236
 31
0.0
  0
LINE
  5
7B48
  8
1
 10
2438.5058789718241
 20
5802.1524204127236
 30
0.0
 11
2438.5058789718241
 21
5841.8524204127243
 31
0.0
  0
LINE
  5
7B49
  8
1
 10
2438.505878971826
 20
5841.8524204127243
 30
0.0
 11
2438.505878971826
 21
5789.1524204127227
 31
0.0
  0
LINE
  5
7B84
  8
4
 10
5550.0
 20
1500.0
 30
0.0
 11
5550.0
 21
900.0
 31
0.0
  0
LINE
  5
7B85
  8
4
 10
3450.0
 20
1500.0
 30
0.0
 11
3450.0
 21
900.0
 31
0.0
  0
LINE
  5
7B86
  8
4
 10
1950.0
 20
1500.0
 30
0.0
 11
1950.0
 21
900.0
 31
0.0
  0
LINE
  5
7B89
  8
4
 10
1950.0
 20
900.0
 30
0.0
 11
5550.0
 21
900.0
 31
0.0
  0
LINE
  5
7B8A
  8
4
 10
1950.0
 20
1200.0
 30
0.0
 11
5550.0
 21
1200.0
 31
0.0
  0
TEXT
  5
7B8B
  8
4
 10
2065.5062425407041
 20
1294.629077599838
 30
0.0
 40
150.0
  1
機器名称
  0
TEXT
  5
7B8C
  8
4
 10
2058.7743180743919
 20
964.93547019603284
 30
0.0
 40
150.0
  1
機器型番
  0
TEXT
  5
7B8D
  8
4
 10
3538.974217018409
 20
1270.006233746099
 30
0.0
 40
130.0
  1
ミツヤ多翼送風機
  0
TEXT
  5
7B8E
  8
4
 10
3559.9634867564419
 20
951.47875283983012
 30
0.0
 40
150.0
  1
MF#5-1
  0
TEXT
  5
7B90
  8
4
 10
2347.4864908824379
 20
7150.2865239975472
 30
0.0
 40
161.99999999999989
  1
床置ベット
  0
TEXT
  5
7B91
  8
4
 10
898.50277998833917
 20
7601.6429285978938
 30
0.0
 40
216.0
  1
遠心式片吸込片持多翼ファン
  0
LINE
  5
7B92
  8
4
 10
750.0
 20
7408.2262627944137
 30
0.0
 11
5550.0
 21
7408.2262627944137
 31
0.0
  0
LINE
  5
7B93
  8
4
 10
750.0
 20
8008.2262627944137
 30
0.0
 11
5550.0
 21
8008.2262627944137
 31
0.0
  0
LINE
  5
7B94
  8
4
 10
1950.0
 20
1500.0
 30
0.0
 11
5550.0
 21
1500.0
 31
0.0
  0
LINE
  5
7B95
  8
4
 10
750.0
 20
8008.2262627944137
 30
0.0
 11
750.0
 21
7408.2262627944137
 31
0.0
  0
TEXT
  5
7B96
  8
4
 10
1039.9099941543309
 20
7146.9584326390304
 30
0.0
 40
161.99999999999989
  1
左回転右横向
  0
TEXT
  5
7B97
  8
4
 10
4406.9086777478688
 20
8118.1832444859256
 30
0.0
 40
168.0
  1
No.
  0
TEXT
  5
7B98
  8
4
 10
3933.8881878000388
 20
7150.2865239975472
 30
0.0
 40
161.99999999999989
  1
縮尺：1/30
  0
LINE
  5
7B99
  8
4
 10
5550.0
 20
8008.2262627944137
 30
0.0
 11
5550.0
 21
7408.2262627944137
 31
0.0
  0
LINE
  5
7B9A
  8
4
 10
6300.0
 20
8850.0
 30
0.0
 11
6300.0
 21
8850.0
 31
0.0
  0
LINE
  5
7B9B
  8
4
 10
4321.8522670795937
 20
8043.790749376205
 30
0.0
 11
4321.8522670795937
 21
8359.9567846492573
 31
0.0
  0
LINE
  5
7B9C
  8
4
 10
4321.8522670795937
 20
8359.9567846492573
 30
0.0
 11
5550.0
 21
8359.9567846492573
 31
0.0
  0
LINE
  5
7B9D
  8
4
 10
5550.0
 20
8359.9567846492573
 30
0.0
 11
5550.0
 21
8043.790749376205
 31
0.0
  0
LINE
  5
7B9E
  8
4
 10
5550.0
 20
8043.790749376205
 30
0.0
 11
4321.8522670795937
 21
8043.790749376205
 31
0.0
  0
LINE
  5
7B9F
  8
4
 10
0.0
 20
0.0
 30
0.0
 11
0.0
 21
8850.0
 31
0.0
  0
LINE
  5
7BA0
  8
4
 10
0.0
 20
8850.0
 30
0.0
 11
6300.0
 21
8850.0
 31
0.0
  0
LINE
  5
7BA1
  8
4
 10
6300.0
 20
8850.0
 30
0.0
 11
6300.0
 21
0.0
 31
0.0
  0
LINE
  5
7BA2
  8
4
 10
6300.0
 20
0.0
 30
0.0
 11
0.0
 21
0.0
 31
0.0
  0
DIMENSION
  5
7BC1
  8
3
  2
*D1
 10
1438.505878971826
 20
6668.0473459470586
 30
0.0
 11
1939.7944463981071
 21
6668.0473459470586
 31
0.0
 70
   128
 13
2438.505878971826
 23
6499.1524204127236
 33
0.0
 14
1438.505878971826
 24
6499.1524204127263
 34
0.0
1001
ACAD
1000
DSTYLE
1002
{
1070
   287
1070
     3
1070
    40
1040
30.0
1070
   143
1040
0.039
1070
   172
1070
     1
1070
   271
1070
     0
1070
   279
1070
     0
1070
   288
1070
     1
1002
}
  0
DIMENSION
  5
7BCF
  8
3
  2
*D2
 10
1148.505878971825
 20
6668.0473459470586
 30
0.0
 11
1293.505878971826
 21
6749.5069104125878
 31
0.0
 12
-6668.7304855924158
 22
0.0
 32
0.0
 70
   128
 13
1438.505878971826
 23
6499.1524204127263
 33
0.0
 14
1148.505878971825
 24
5839.1524204127263
 34
0.0
1001
ACAD
1000
DSTYLE
1002
{
1070
   288
1070
     1
1070
   172
1070
     1
1070
    75
1070
     1
1070
    40
1040
30.0
1070
   271
1070
     0
1070
   143
1040
0.039
1002
}
  0
DIMENSION
  5
7BF0
  8
3
  2
*D3
 10
967.29566078422135
 20
5089.1524204127236
 30
0.0
 11
967.29566078422067
 21
5422.8796853082104
 31
0.0
 70
   128
 13
1148.505878971825
 23
5839.1524204127263
 33
0.0
 14
1148.505878971825
 24
5089.1524204127236
 34
0.0
 50
90.0
1001
ACAD
1000
DSTYLE
1002
{
1070
   287
1070
     3
1070
    40
1040
30.0
1070
   143
1040
0.039
1070
   172
1070
     1
1070
   271
1070
     0
1070
   279
1070
     0
1070
   288
1070
     1
1002
}
  0
DIMENSION
  5
7BFD
  8
3
  2
*D4
 10
2218.505878971825
 20
4695.5621277755708
 30
0.0
 11
1636.9804386347239
 21
4695.5621277755708
 31
0.0
 70
   128
 13
1148.505878971825
 23
5089.1524204127236
 33
0.0
 14
2218.505878971825
 24
5089.1524204127263
 34
0.0
1001
ACAD
1000
DSTYLE
1002
{
1070
   287
1070
     3
1070
    40
1040
30.0
1070
   143
1040
0.039
1070
   172
1070
     1
1070
   271
1070
     0
1070
   279
1070
     0
1070
   288
1070
     1
1002
}
  0
DIMENSION
  5
7C0B
  8
3
  2
*D5
 10
2438.505878971826
 20
4695.5621277755708
 30
0.0
 11
2644.2201646861122
 21
4770.5621277755708
 31
0.0
 70
     0
 13
2218.505878971825
 23
5089.1524204127263
 33
0.0
 14
2438.505878971826
 24
5789.1524204127236
 34
0.0
1001
ACAD
1000
DSTYLE
1002
{
1070
   287
1070
     3
1070
    40
1040
30.0
1070
   143
1040
0.039
1070
   172
1070
     1
1070
   271
1070
     0
1070
   279
1070
     0
1070
   288
1070
     1
1002
}
  0
DIMENSION
  5
7C24
  8
3
  2
*D6
 10
2772.532923461848
 20
5789.1524204127236
 30
0.0
 11
2772.5329234618471
 21
5422.8796853082104
 31
0.0
 70
   128
 13
2218.505878971825
 23
5089.1524204127263
 33
0.0
 14
2438.505878971826
 24
5789.1524204127236
 34
0.0
 50
90.0
1001
ACAD
1000
DSTYLE
1002
{
1070
   287
1070
     3
1070
    40
1040
30.0
1070
   143
1040
0.039
1070
   172
1070
     1
1070
   271
1070
     0
1070
   279
1070
     0
1070
   288
1070
     1
1002
}
  0
DIMENSION
  5
7C3C
  8
3
  2
*D7
 10
2772.5329234618471
 20
6499.1524204127236
 30
0.0
 11
2697.5329234618462
 21
6144.1524204127263
 31
0.0
 70
     0
 13
2438.505878971826
 23
5789.1524204127236
 33
0.0
 14
2438.505878971826
 24
6499.1524204127236
 34
0.0
 50
90.0
1001
ACAD
1000
DSTYLE
1002
{
1070
   287
1070
     4
1070
    40
1040
30.0
1070
    75
1070
     1
1070
   143
1040
0.039
1070
   172
1070
     1
1070
   271
1070
     0
1070
   279
1070
     1
1070
   288
1070
     1
1002
}
  0
INSERT
  5
7F01
  8
0
  2
YA_N
 10
7177.4506212370316
 20
2719.3491153156788
 30
0.0
  0
LINE
  5
7F03
  8
2
 10
1938.505878971826
 20
3754.1940761845758
 30
0.0
 11
1938.505878971825
 21
2186.8231348489462
 31
0.0
  0
LINE
  5
7F1A
  8
2
 10
3738.3594302183919
 20
3146.8231348489448
 30
0.0
 11
5356.0538028391638
 21
3146.8231348489448
 31
0.0
  0
LINE
  5
7F1B
  8
2
 10
4967.4860925977246
 20
3860.7710620372268
 30
0.0
 11
4967.4860925977282
 21
2186.8231348489448
 31
0.0
  0
INSERT
  5
7F1C
  8
0
  2
YA_N
 10
6437.8057640702827
 20
2443.3188486133149
 30
0.0
 41
20.0
 42
20.0
 43
20.0
  0
INSERT
  5
7F38
  8
0
  2
YA_N
 10
7134.7159925290107
 20
3016.0028029189998
 30
0.0
 41
20.0
 42
20.0
 43
20.0
  0
INSERT
  5
7F3A
  8
0
  2
YA_N
 10
7248.935517883172
 20
2939.6610930797542
 30
0.0
 41
20.0
 42
20.0
 43
20.0
  0
INSERT
  5
81FD
  8
0
  2
YA_N
 10
7579.2614950330253
 20
2579.7041388295538
 30
0.0
  0
LINE
  5
8200
  8
2
 10
2604.9776708222162
 20
3146.8231348489462
 30
0.0
 11
1180.602301781789
 21
3146.8231348489462
 31
0.0
  0
ARC
  5
8201
  8
1
 10
1997.505878971826
 20
3087.8231348489462
 30
0.0
 40
745.0
 50
228.1503126238737
 51
244.4890613859493
  0
ARC
  5
8202
  8
1
 10
1879.505878971826
 20
3087.8231348489462
 30
0.0
 40
627.0
 50
84.600542692893029
 51
174.60054269289299
  0
ARC
  5
8203
  8
1
 10
1891.005878971825
 20
3194.3231348489462
 30
0.0
 40
520.5
 50
354.76399364281161
 51
84.763993642811684
  0
ARC
  5
8204
  8
1
 10
1986.005878971825
 20
3194.3231348489462
 30
0.0
 40
425.49999999999989
 50
350.4628292067822
 51
353.5905190917544
  0
LINE
  5
8205
  8
1
 10
2483.505878971826
 20
2256.3231348489462
 30
0.0
 11
2483.5058789718241
 21
3166.3231348489462
 31
0.0
  0
LINE
  5
8206
  8
1
 10
2483.505878971826
 20
2298.8231348489462
 30
0.0
 11
2213.5768415963671
 21
2321.7744907840179
 31
0.0
  0
LINE
  5
8207
  8
1
 10
2483.505878971826
 20
3123.8231348489462
 30
0.0
 11
2405.62475366647
 21
3123.8231348489462
 31
0.0
  0
LINE
  5
8208
  8
1
 10
2483.505878971826
 20
2256.3231348489462
 30
0.0
 11
2443.505878971826
 21
2256.3231348489462
 31
0.0
  0
LINE
  5
8209
  8
1
 10
2483.5058789718241
 20
3166.3231348489462
 30
0.0
 11
2443.505878971826
 21
3166.3231348489462
 31
0.0
  0
LINE
  5
820A
  8
1
 10
2443.505878971826
 20
2256.3231348489462
 30
0.0
 11
2443.5058789718241
 21
3166.3231348489462
 31
0.0
  0
LINE
  5
820B
  8
1
 10
2480.505878971825
 20
2256.3231348489462
 30
0.0
 11
2480.5058789718241
 21
3166.3231348489462
 31
0.0
  0
LINE
  5
820C
  8
1
 10
1148.505878971825
 20
2186.8231348489448
 30
0.0
 11
2438.505878971826
 21
2186.8231348489462
 31
0.0
1001
ACAD
1000
ASC_BOUNDS
1002
{
1070
    19
1002
}
  0
LINE
  5
820D
  8
1
 10
1138.505878971826
 20
2286.8231348489462
 30
0.0
 11
2438.505878971826
 21
2286.8231348489462
 31
0.0
  0
LINE
  5
820E
  8
1
 10
1148.505878971825
 20
2286.8231348489462
 30
0.0
 11
1148.505878971825
 21
2186.8231348489462
 31
0.0
  0
LINE
  5
820F
  8
1
 10
1136.5058789718239
 20
2326.8231348489462
 30
0.0
 11
1540.505878971826
 21
2326.8231348489462
 31
0.0
  0
LINE
  5
8210
  8
1
 10
1538.505878971825
 20
2326.8231348489462
 30
0.0
 11
1538.505878971825
 21
2286.8231348489462
 31
0.0
  0
LINE
  5
8211
  8
1
 10
2438.505878971826
 20
2286.8231348489462
 30
0.0
 11
2438.505878971826
 21
2186.8231348489462
 31
0.0
  0
LINE
  5
8212
  8
1
 10
3912.486092597725
 20
2186.8231348489439
 30
0.0
 11
5322.4860925977246
 21
2186.8231348489462
 31
0.0
1001
ACAD
1000
ASC_BOUNDS
1002
{
1070
    19
1002
}
  0
LINE
  5
8213
  8
1
 10
3912.486092597725
 20
2286.8231348489448
 30
0.0
 11
4627.4860925977237
 21
2286.8231348489448
 31
0.0
  0
POINT
  5
8216
  8
1
 10
2503.7237896408469
 20
3146.8231348489462
 30
0.0
  0
POINT
  5
8217
  8
1
 10
2503.7237896408469
 20
3146.8231348489462
 30
0.0
  0
INSERT
  5
8218
  8
0
  2
YA_N
 10
6839.6166378662747
 20
2303.67387212719
 30
0.0
 41
20.0
 42
20.0
 43
20.0
  0
LINE
  5
821A
  8
1
 10
1204.0469789718261
 20
2446.5111348489459
 30
0.0
 11
1184.505878971826
 21
2392.8231348489462
 31
0.0
  0
LINE
  5
821B
  8
1
 10
1472.952678971825
 20
2446.5441348489462
 30
0.0
 11
1492.505878971826
 21
2392.8231348489462
 31
0.0
  0
ARC
  5
821C
  8
1
 10
1338.505878971826
 20
2536.8231348489462
 30
0.0
 40
162.0
 50
180.0
 51
254.35809999999989
  0
ARC
  5
821D
  8
1
 10
1338.505878971826
 20
2536.8231348489462
 30
0.0
 40
162.0
 50
285.63990000000001
 51
180.0
  0
LINE
  5
821E
  8
2
 10
1338.505878971826
 20
2765.2718212917398
 30
0.0
 11
1338.505878971826
 21
2266.3355356911679
 31
0.0
  0
LINE
  5
821F
  8
1
 10
1382.186478971825
 20
2380.8231348489462
 30
0.0
 11
1294.8251789718249
 21
2380.8231348489462
 31
0.0
  0
LINE
  5
8220
  8
1
 10
1423.4497789718259
 20
2398.8791348489449
 30
0.0
 11
1431.627178971826
 21
2390.701134848945
 31
0.0
  0
ARC
  5
8221
  8
1
 10
1490.505878971825
 20
2392.8231348489462
 30
0.0
 40
2.0
 50
0.0
 51
90.0
  0
LINE
  5
8222
  8
1
 10
1492.505878971826
 20
2376.8231348489462
 30
0.0
 11
1492.505878971826
 21
2392.8231348489462
 31
0.0
  0
ARC
  5
8223
  8
1
 10
1429.505878971825
 20
2388.5801348489449
 30
0.0
 40
3.0
 50
0.0
 51
45.0
  0
LINE
  5
8224
  8
1
 10
1432.505878971825
 20
2376.8231348489462
 30
0.0
 11
1432.505878971825
 21
2388.5801348489449
 31
0.0
  0
LINE
  5
8225
  8
1
 10
1253.5619789718251
 20
2398.8791348489449
 30
0.0
 11
1245.384478971826
 21
2390.701134848945
 31
0.0
  0
ARC
  5
8226
  8
1
 10
1247.505878971826
 20
2388.5801348489449
 30
0.0
 40
3.0
 50
135.0
 51
180.0
  0
LINE
  5
8227
  8
1
 10
1244.505878971826
 20
2376.8231348489462
 30
0.0
 11
1244.505878971826
 21
2388.5801348489449
 31
0.0
  0
ARC
  5
8228
  8
1
 10
1186.505878971826
 20
2392.8231348489462
 30
0.0
 40
2.0
 50
90.0
 51
180.0
  0
LINE
  5
8229
  8
1
 10
1184.505878971826
 20
2376.8231348489462
 30
0.0
 11
1184.505878971826
 21
2392.8231348489462
 31
0.0
  0
LINE
  5
822A
  8
2
 10
1562.693676102069
 20
2536.8231348489462
 30
0.0
 11
1087.9730018899861
 21
2536.8231348489448
 31
0.0
  0
LINE
  5
822B
  8
1
 10
1149.9912357057849
 20
2376.8231348489462
 30
0.0
 11
1278.5058789718239
 21
2376.8231348489448
 31
0.0
  0
LINE
  5
822C
  8
1
 10
1540.5058789718239
 20
2326.8231348489462
 30
0.0
 11
1527.260746586637
 21
2376.8231348489462
 31
0.0
  0
LINE
  5
822D
  8
1
 10
1136.5058789718239
 20
2326.8231348489462
 30
0.0
 11
1149.9912357057849
 21
2376.8231348489462
 31
0.0
  0
LINE
  5
822E
  8
1
 10
1278.5058789718239
 20
2366.8231348489462
 30
0.0
 11
1398.505878971826
 21
2366.8231348489462
 31
0.0
  0
LINE
  5
822F
  8
1
 10
1278.5058789718239
 20
2336.8231348489462
 30
0.0
 11
1398.505878971826
 21
2336.8231348489462
 31
0.0
  0
LINE
  5
8230
  8
1
 10
1278.5058789718239
 20
2376.8231348489448
 30
0.0
 11
1278.5058789718239
 21
2366.8231348489462
 31
0.0
  0
LINE
  5
8231
  8
1
 10
1398.5058789718239
 20
2376.8231348489448
 30
0.0
 11
1398.5058789718239
 21
2366.8231348489462
 31
0.0
  0
LINE
  5
8232
  8
1
 10
1398.505878971826
 20
2376.8231348489448
 30
0.0
 11
1527.260746586637
 21
2376.8231348489462
 31
0.0
  0
LINE
  5
8233
  8
1
 10
1398.5058789718239
 20
2336.8231348489462
 30
0.0
 11
1398.5058789718239
 21
2326.8231348489462
 31
0.0
  0
LINE
  5
8234
  8
1
 10
1278.5058789718239
 20
2336.8231348489462
 30
0.0
 11
1278.5058789718239
 21
2326.8231348489462
 31
0.0
  0
INSERT
  5
8235
  8
0
  2
YA_N
 10
7536.5268663250044
 20
2876.3578264328748
 30
0.0
 41
20.0
 42
20.0
 43
20.0
  0
INSERT
  5
8237
  8
0
  2
YA_N
 10
7650.746391679163
 20
2800.0161165936302
 30
0.0
 41
20.0
 42
20.0
 43
20.0
  0
LINE
  5
8239
  8
1
 10
4665.1860925977207
 20
2298.8231348489448
 30
0.0
 11
4665.1860925977262
 21
3123.8231348489448
 31
0.0
  0
LINE
  5
823A
  8
1
 10
4667.4860925977264
 20
2298.8231348489448
 30
0.0
 11
4667.4860925977264
 21
3123.8231348489448
 31
0.0
  0
LINE
  5
823B
  8
1
 10
5269.7860925977257
 20
2298.8231348489448
 30
0.0
 11
5269.7860925977257
 21
3123.8231348489462
 31
0.0
  0
LINE
  5
823C
  8
1
 10
5267.4860925977246
 20
2298.8231348489448
 30
0.0
 11
5267.4860925977264
 21
3123.8231348489462
 31
0.0
  0
LINE
  5
823D
  8
1
 10
1138.505878971826
 20
2326.8231348489462
 30
0.0
 11
1138.505878971826
 21
2286.8231348489462
 31
0.0
  0
CIRCLE
  5
8242
  8
1
 10
1938.505878971826
 20
3146.8231348489462
 30
0.0
 40
127.0
  0
CIRCLE
  5
8243
  8
1
 10
1338.5058789718239
 20
2536.8231348489462
 30
0.0
 40
110.0
  0
LINE
  5
8244
  8
1
 10
2218.505878971825
 20
2286.8231348489462
 30
0.0
 11
2218.505878971825
 21
2186.8231348489462
 31
0.0
  0
LINE
  5
824B
  8
1
 10
3959.486092597725
 20
3066.8231348489448
 30
0.0
 11
3959.4860925977268
 21
2286.8231348489448
 31
0.0
  0
LINE
  5
824C
  8
1
 10
4581.4860925977246
 20
3066.8231348489448
 30
0.0
 11
4581.4860925977273
 21
2286.8231348489448
 31
0.0
  0
LINE
  5
824D
  8
1
 10
3819.486092597725
 20
3273.8231348489448
 30
0.0
 11
3819.486092597725
 21
2426.8231348489448
 31
0.0
  0
LINE
  5
824E
  8
1
 10
3904.486092597725
 20
3273.8231348489448
 30
0.0
 11
3904.486092597725
 21
2426.8231348489448
 31
0.0
  0
LINE
  5
824F
  8
1
 10
3819.4860925977268
 20
3273.8231348489448
 30
0.0
 11
3904.486092597725
 21
3273.8231348489448
 31
0.0
  0
LINE
  5
8250
  8
1
 10
3819.4860925977268
 20
3019.8231348489448
 30
0.0
 11
3904.486092597725
 21
3019.8231348489448
 31
0.0
  0
LINE
  5
8251
  8
2
 10
3735.2284799689728
 20
2536.8231348489462
 30
0.0
 11
3984.8743050644771
 21
2536.8231348489462
 31
0.0
  0
LINE
  5
8252
  8
1
 10
3819.486092597725
 20
2646.8231348489448
 30
0.0
 11
3904.4860925977268
 21
2646.8231348489448
 31
0.0
  0
LINE
  5
8253
  8
1
 10
3819.486092597725
 20
2426.8231348489448
 30
0.0
 11
3904.486092597725
 21
2426.8231348489448
 31
0.0
  0
LINE
  5
8254
  8
1
 10
3939.486092597725
 20
3366.8231348489448
 30
0.0
 11
3939.486092597725
 21
3346.8231348489448
 31
0.0
  0
LINE
  5
8255
  8
1
 10
3779.486092597725
 20
3366.8231348489448
 30
0.0
 11
3779.4860925977268
 21
2316.8231348489448
 31
0.0
  0
LINE
  5
8256
  8
1
 10
3779.486092597725
 20
3366.8231348489448
 30
0.0
 11
3939.486092597725
 21
3366.8231348489448
 31
0.0
  0
LINE
  5
8257
  8
1
 10
3779.4860925977268
 20
2316.8231348489448
 30
0.0
 11
3939.4860925977268
 21
2316.8231348489448
 31
0.0
  0
LINE
  5
8258
  8
1
 10
3939.486092597725
 20
2336.8231348489462
 30
0.0
 11
3939.486092597725
 21
2316.8231348489448
 31
0.0
  0
LINE
  5
8259
  8
1
 10
4662.48609259773
 20
2256.3231348489471
 30
0.0
 11
4662.4860925977418
 21
2186.8231348489462
 31
0.0
  0
LINE
  5
825B
  8
1
 10
5271.4860925977282
 20
2706.8231348489439
 30
0.0
 11
5271.4860925977282
 21
3586.8231348489448
 31
0.0
  0
LINE
  5
825C
  8
1
 10
3959.4860925977268
 20
3066.8231348489448
 30
0.0
 11
4581.4860925977246
 21
3066.8231348489448
 31
0.0
  0
LINE
  5
825D
  8
1
 10
3904.486092597725
 20
3179.3231348489448
 30
0.0
 11
4665.1860925977253
 21
3179.3231348489448
 31
0.0
  0
LINE
  5
825E
  8
1
 10
3904.486092597725
 20
3114.3231348489448
 30
0.0
 11
4627.4860925977264
 21
3114.3231348489439
 31
0.0
  0
LINE
  5
825F
  8
1
 10
1938.505878971826
 20
3019.8231348489462
 30
0.0
 11
1938.505878971826
 21
3019.8231348489462
 31
0.0
  0
ARC
  5
8260
  8
1
 10
1938.505878971826
 20
3146.8231348489462
 30
0.0
 40
220.0
 50
315.47350805873492
 51
135.47350805873489
  0
ARC
  5
8261
  8
1
 10
1338.505878971826
 20
2536.8231348489462
 30
0.0
 40
220.0
 50
135.47350805873489
 51
315.47350805873492
  0
LINE
  5
8262
  8
1
 10
1781.662094647013
 20
3301.095709594661
 30
0.0
 11
1181.662094647015
 21
2691.095709594661
 31
0.0
  0
LINE
  5
8263
  8
1
 10
1846.2126820711851
 20
3234.0639842594119
 30
0.0
 11
1258.566889530324
 21
2612.386075283207
 31
0.0
  0
LINE
  5
8264
  8
1
 10
2095.3496632966362
 20
2992.5505601032301
 30
0.0
 11
1495.349663296636
 21
2382.5505601032301
 31
0.0
  0
LINE
  5
8265
  8
1
 10
2027.260215061101
 20
3055.9844436135932
 30
0.0
 11
1415.3797133798589
 21
2458.143953463994
 31
0.0
  0
LINE
  5
8267
  8
1
 10
4665.1860925977271
 20
3732.8231348489462
 30
0.0
 11
4667.4860925977264
 21
3732.8231348489462
 31
0.0
  0
LINE
  5
8268
  8
1
 10
5267.4860925977246
 20
3732.8231348489462
 30
0.0
 11
5269.7860925977238
 21
3732.8231348489462
 31
0.0
  0
LINE
  5
8269
  8
1
 10
4667.4860925977264
 20
3712.5231348489451
 30
0.0
 11
5267.4860925977246
 21
3712.523134848946
 31
0.0
  0
POINT
  5
826A
  8
1
 10
3779.486092597725
 20
3366.8231348489448
 30
0.0
  0
ARC
  5
826B
  8
1
 10
1997.505878971826
 20
3087.8231348489462
 30
0.0
 40
745.0
 50
175.4577253945757
 51
211.64871240754439
  0
LINE
  5
826C
  8
1
 10
5322.4860925977282
 20
2286.8231348489448
 30
0.0
 11
5322.4860925977282
 21
2186.8231348489462
 31
0.0
  0
LINE
  5
826E
  8
1
 10
3912.4860925977268
 20
2286.8231348489448
 30
0.0
 11
3912.4860925977268
 21
2186.8231348489439
 31
0.0
  0
DIMENSION
  5
831C
  8
3
  2
*D10
 10
1938.505878971826
 20
3874.8161292982441
 30
0.0
 11
2212.671911787088
 21
3874.8161292982441
 31
0.0
 70
   128
 13
2483.5058789718241
 23
3166.3231348489462
 33
0.0
 14
1938.505878971826
 24
3754.1940761845758
 34
0.0
1001
ACAD
1000
DSTYLE
1002
{
1070
   287
1070
     3
1070
    40
1040
30.0
1070
   143
1040
0.039
1070
   172
1070
     1
1070
   271
1070
     0
1070
   279
1070
     0
1070
   288
1070
     1
1002
}
  0
DIMENSION
  5
8328
  8
3
  2
*D11
 10
1252.505878971826
 20
3874.8161292982441
 30
0.0
 11
1595.505878971826
 21
3949.8161292982431
 31
0.0
 70
     0
 13
1938.505878971826
 23
3754.1940761845758
 33
0.0
 14
1252.505878971826
 24
3087.8231348489462
 34
0.0
1001
ACAD
1000
DSTYLE
1002
{
1070
   287
1070
     4
1070
    40
1040
30.0
1070
    75
1070
     1
1070
   143
1040
0.039
1070
   172
1070
     1
1070
   271
1070
     0
1070
   279
1070
     1
1070
   288
1070
     1
1002
}
  0
DIMENSION
  5
8335
  8
3
  2
*D12
 10
3097.8894173198869
 20
3146.8231348489448
 30
0.0
 11
3097.889417319886
 21
3451.5994774774622
 31
0.0
 70
   128
 13
1879.505878971826
 23
3714.8231348489462
 33
0.0
 14
2604.9776708222162
 24
3146.8231348489462
 34
0.0
 50
270.0
1001
ACAD
1000
DSTYLE
1002
{
1070
   287
1070
     3
1070
    40
1040
30.0
1070
   143
1040
0.039
1070
   172
1070
     1
1070
   271
1070
     0
1070
   279
1070
     0
1070
   288
1070
     1
1002
}
  0
DIMENSION
  5
835A
  8
3
  2
*D13
 10
3097.889417319886
 20
2186.8231348489462
 30
0.0
 11
3022.8894173198851
 21
2666.8231348489471
 31
0.0
 70
     0
 13
2604.9776708222162
 23
3146.8231348489462
 33
0.0
 14
2438.505878971826
 24
2186.8231348489462
 34
0.0
 50
270.0
1001
ACAD
1000
DSTYLE
1002
{
1070
   287
1070
     4
1070
    40
1040
30.0
1070
    75
1070
     1
1070
   143
1040
0.039
1070
   172
1070
     1
1070
   271
1070
     0
1070
   279
1070
     1
1070
   288
1070
     1
1002
}
  0
DIMENSION
  5
83D3
  8
3
  2
*D14
 10
2896.2035802514952
 20
2298.8231348489462
 30
0.0
 11
2896.2035802514938
 21
2696.0039043645338
 31
0.0
 70
   128
 13
2604.9776708222162
 23
3146.8231348489462
 33
0.0
 14
2483.505878971826
 24
2298.8231348489462
 34
0.0
 50
270.0
1001
ACAD
1000
DSTYLE
1002
{
1070
   287
1070
     3
1070
    40
1040
30.0
1070
   143
1040
0.039
1070
   172
1070
     1
1070
   271
1070
     0
1070
   279
1070
     0
1070
   288
1070
     1
1002
}
  0
DIMENSION
  5
8419
  8
3
  2
*D15
 10
2701.8126026399259
 20
2298.8231348489462
 30
0.0
 11
2701.812602639925
 21
2748.2018903463099
 31
0.0
 70
   128
 13
2483.505878971826
 23
3123.8231348489462
 33
0.0
 14
2483.505878971826
 24
2298.8231348489462
 34
0.0
 50
270.0
1001
ACAD
1000
DSTYLE
1002
{
1070
   287
1070
     3
1070
    40
1040
30.0
1070
   143
1040
0.039
1070
   172
1070
     1
1070
   271
1070
     0
1070
   279
1070
     0
1070
   288
1070
     1
1002
}
  0
DIMENSION
  5
844F
  8
3
  2
*D16
 10
5267.4860925977246
 20
3852.1499836953799
 30
0.0
 11
4967.0378654046663
 21
3852.1499836953799
 31
0.0
 70
   128
 13
4667.4860925977264
 23
3712.5231348489451
 33
0.0
 14
5267.4860925977246
 24
3712.523134848946
 34
0.0
1001
ACAD
1000
DSTYLE
1002
{
1070
   287
1070
     3
1070
    40
1040
30.0
1070
   143
1040
0.039
1070
   172
1070
     1
1070
   271
1070
     0
1070
   279
1070
     0
1070
   288
1070
     1
1002
}
  0
DIMENSION
  5
845E
  8
3
  2
*D17
 10
4967.4860925977246
 20
4066.599953946748
 30
0.0
 11
5119.4860925977273
 21
4136.0972975134819
 31
0.0
 70
   128
 13
5271.4860925977282
 23
3586.8231348489448
 33
0.0
 14
4967.4860925977246
 24
4014.4833803428191
 34
0.0
1001
ACAD
1000
DSTYLE
1002
{
1070
   288
1070
     1
1070
   172
1070
     1
1070
    40
1040
30.0
1070
   271
1070
     0
1070
   143
1040
0.039
1002
}
  0
DIMENSION
  5
8480
  8
3
  2
*D18
 10
3779.486092597725
 20
4066.599953946748
 30
0.0
 11
4373.4860925977237
 21
4216.5999539467484
 31
0.0
 70
     0
  1
MAX\P1240
 13
4967.4860925977246
 23
4014.4833803428191
 33
0.0
 14
3779.486092597725
 24
3366.8231348489448
 34
0.0
1001
ACAD
1000
DSTYLE
1002
{
1070
   287
1070
     4
1070
    40
1040
30.0
1070
    75
1070
     1
1070
   143
1040
0.039
1070
   172
1070
     1
1070
   271
1070
     0
1070
   279
1070
     1
1070
   288
1070
     1
1002
}
  0
DIMENSION
  5
848D
  8
3
  2
*D19
 10
1118.505878971826
 20
4083.974274384298
 30
0.0
 11
1710.434279738434
 21
4083.974274384298
 31
0.0
 70
   128
 13
2483.5058789718241
 23
3166.3231348489462
 33
0.0
 14
1118.505878971826
 24
2536.8231348489462
 34
0.0
1001
ACAD
1000
DSTYLE
1002
{
1070
   287
1070
     3
1070
    40
1040
30.0
1070
   143
1040
0.039
1070
   172
1070
     1
1070
   271
1070
     0
1070
   279
1070
     0
1070
   288
1070
     1
1002
}
  0
LINE
  5
84DA
  8
1
 10
1252.505878971826
 20
6444.1524204127199
 30
0.0
 11
1252.505878971826
 21
5844.152420412719
 31
0.0
  0
LINE
  5
84DB
  8
1
 10
2483.505878971826
 20
6484.1524204127254
 30
0.0
 11
2483.505878971826
 21
5804.1524204127227
 31
0.0
  0
LINE
  5
84DC
  8
1
 10
2443.505878971826
 20
6484.1524204127254
 30
0.0
 11
2443.505878971826
 21
5804.1524204127227
 31
0.0
  0
LINE
  5
84DD
  8
1
 10
2483.505878971826
 20
6484.1524204127254
 30
0.0
 11
2443.505878971826
 21
6484.1524204127254
 31
0.0
  0
LINE
  5
84DE
  8
1
 10
2483.505878971826
 20
5804.1524204127227
 30
0.0
 11
2443.505878971826
 21
5804.1524204127227
 31
0.0
  0
LINE
  5
865C
  8
1
 10
4665.1860925977198
 20
2298.8231348489448
 30
0.0
 11
5269.7860925977257
 21
2298.8231348489448
 31
0.0
  0
LINE
  5
865D
  8
1
 10
4665.1860925977262
 20
3123.8231348489448
 30
0.0
 11
5269.7860925977238
 21
3123.8231348489462
 31
0.0
  0
LINE
  5
865E
  8
1
 10
4627.4860925977264
 20
3166.3231348489462
 30
0.0
 11
5307.4860925977264
 21
3166.3231348489462
 31
0.0
  0
LINE
  5
865F
  8
1
 10
4627.4860925977237
 20
2256.3231348489462
 30
0.0
 11
5307.4860925977264
 21
2256.3231348489462
 31
0.0
  0
LINE
  5
8661
  8
1
 10
4627.4860925977264
 20
2256.3231348489462
 30
0.0
 11
4627.4860925977264
 21
3166.3231348489462
 31
0.0
  0
LINE
  5
8662
  8
1
 10
5307.4860925977264
 20
2256.3231348489462
 30
0.0
 11
5307.4860925977264
 21
3166.3231348489462
 31
0.0
  0
LINE
  5
8663
  8
1
 10
5307.4860925977264
 20
2286.8231348489448
 30
0.0
 11
5322.4860925977282
 21
2286.8231348489448
 31
0.0
  0
LINE
  5
8664
  8
1
 10
5269.7860925977238
 20
3166.3231348489462
 30
0.0
 11
5269.7860925977238
 21
3732.8231348489462
 31
0.0
  0
LINE
  5
8665
  8
1
 10
5267.4860925977246
 20
3166.3231348489462
 30
0.0
 11
5267.4860925977246
 21
3732.8231348489462
 31
0.0
  0
LINE
  5
8666
  8
1
 10
4667.4860925977246
 20
3166.3231348489462
 30
0.0
 11
4667.4860925977264
 21
3732.8231348489462
 31
0.0
  0
LINE
  5
8667
  8
1
 10
4665.1860925977253
 20
3166.3231348489462
 30
0.0
 11
4665.1860925977271
 21
3732.8231348489462
 31
0.0
  0
LINE
  5
8668
  8
1
 10
5267.4860925977264
 20
3123.8231348489462
 30
0.0
 11
4667.4860925977264
 21
2298.8231348489448
 31
0.0
  0
LINE
  5
8669
  8
1
 10
4667.4860925977264
 20
3123.8231348489448
 30
0.0
 11
5269.7860925977257
 21
2298.8231348489448
 31
0.0
  0
DIMENSION
  5
86D7
  8
3
  2
*D20
 10
1938.505878971825
 20
1974.1518558577079
 30
0.0
 11
1543.505878971826
 21
2049.1518558577068
 31
0.0
 70
     0
 13
1148.505878971825
 23
2186.8231348489462
 33
0.0
 14
1938.505878971825
 24
2186.8231348489462
 34
0.0
1001
ACAD
1000
DSTYLE
1002
{
1070
   287
1070
     3
1070
    40
1040
30.0
1070
   143
1040
0.039
1070
   172
1070
     1
1070
   271
1070
     0
1070
   279
1070
     0
1002
}
  0
DIMENSION
  5
86E4
  8
3
  2
*D21
 10
2438.505878971826
 20
1974.1518558577079
 30
0.0
 11
2188.505878971826
 21
2049.1518558577068
 31
0.0
 70
     0
 13
1938.505878971825
 23
2186.8231348489462
 33
0.0
 14
2438.505878971826
 24
2186.8231348489462
 34
0.0
1001
ACAD
1000
DSTYLE
1002
{
1070
   287
1070
     3
1070
    40
1040
30.0
1070
   143
1040
0.039
1070
   172
1070
     1
1070
   271
1070
     0
1070
   279
1070
     0
1002
}
  0
DIMENSION
  5
86F1
  8
3
  2
*D22
 10
4967.4860925977282
 20
1974.1518558577079
 30
0.0
 11
4439.9860925977282
 21
2049.1518558577068
 31
0.0
 70
     0
 13
3912.4860925977268
 23
2186.8231348489439
 33
0.0
 14
4967.4860925977282
 24
2186.8231348489448
 34
0.0
1001
ACAD
1000
DSTYLE
1002
{
1070
   287
1070
     3
1070
    40
1040
30.0
1070
   143
1040
0.039
1070
   172
1070
     1
1070
   271
1070
     0
1070
   279
1070
     0
1002
}
  0
DIMENSION
  5
8700
  8
3
  2
*D23
 10
5322.4860925977246
 20
1974.1518558577079
 30
0.0
 11
5144.9860925977264
 21
2049.1518558577068
 31
0.0
 70
     0
 13
4967.4860925977282
 23
2186.8231348489448
 33
0.0
 14
5322.4860925977246
 24
2186.8231348489462
 34
0.0
1001
ACAD
1000
DSTYLE
1002
{
1070
   287
1070
     3
1070
    40
1040
30.0
1070
   143
1040
0.039
1070
   172
1070
     1
1070
   271
1070
     0
1070
   279
1070
     0
1002
}
  0
DIMENSION
  5
870D
  8
3
  2
*D24
 10
3329.9125300559208
 20
2186.8231348489462
 30
0.0
 11
3254.9125300559199
 21
2950.8231348489462
 31
0.0
 70
     0
 13
1894.505878971826
 23
3714.8231348489462
 33
0.0
 14
2438.505878971826
 24
2186.8231348489462
 34
0.0
 50
90.0
1001
ACAD
1000
DSTYLE
1002
{
1070
   287
1070
     3
1070
    40
1040
30.0
1070
   143
1040
0.039
1070
   172
1070
     1
1070
   271
1070
     0
1070
   279
1070
     0
1002
}
  0
LINE
  5
871A
  8
1
 10
1768.505878971826
 20
3066.8231348489448
 30
0.0
 11
2108.505878971826
 21
3066.8231348489448
 31
0.0
  0
LINE
  5
871C
  8
1
 10
2108.505878971826
 20
3066.8231348489448
 30
0.0
 11
2218.505878971825
 21
2286.8231348489462
 31
0.0
  0
LINE
  5
871D
  8
1
 10
1768.505878971826
 20
3066.8231348489448
 30
0.0
 11
1658.505878971826
 21
2286.8231348489462
 31
0.0
  0
LINE
  5
871E
  8
1
 10
1768.505878971826
 20
5758.1524204127218
 30
0.0
 11
1768.505878971826
 21
5136.1524204127227
 31
0.0
  0
LINE
  5
871F
  8
1
 10
2108.505878971826
 20
5758.1524204127218
 30
0.0
 11
2108.505878971826
 21
5136.1524204127218
 31
0.0
  0
LINE
  5
8720
  8
1
 10
1118.505878971826
 20
5116.1524204127236
 30
0.0
 11
1138.505878971826
 21
5116.1524204127236
 31
0.0
  0
DIMENSION
  5
8733
  8
3
  2
*D25
 10
5529.6852024202644
 20
2721.8231348489448
 30
0.0
 11
5454.6852024202626
 21
3146.8231348489471
 31
0.0
 70
     0
 13
5271.4860925977282
 23
3571.8231348489462
 33
0.0
 14
5271.4860925977282
 24
2721.8231348489448
 34
0.0
 50
90.0
1001
ACAD
1000
DSTYLE
1002
{
1070
   287
1070
     3
1070
     3
1000
φ<>
1070
    40
1040
30.0
1070
   143
1040
0.039
1070
   172
1070
     1
1070
   271
1070
     0
1070
   279
1070
     0
1002
}
  0
ENDSEC
  0
EOF
