  0
SECTION
  2
HEADER
  9
$ACADVER
  1
AC1015
  9
$ACADMAINTVER
 70
    20
  9
$DWGCODEPAGE
  3
ANSI_932
  9
$INSBASE
 10
0.0
 20
0.0
 30
0.0
  9
$EXTMIN
 10
-0.1602050617329951
 20
-0.22504996767384
 30
-0.0015258207003583
  9
$EXTMAX
 10
5250.160229508953
 20
7375.225084310193
 30
0.0000000349246037
  9
$LIMMIN
 10
0.0
 20
0.0
  9
$LIMMAX
 10
297.0
 20
210.0
  9
$ORTHOMODE
 70
     1
  9
$REGENMODE
 70
     1
  9
$FILLMODE
 70
     0
  9
$QTEXTMODE
 70
     0
  9
$MIRRTEXT
 70
     1
  9
$LTSCALE
 40
100.0
  9
$ATTMODE
 70
     1
  9
$TEXTSIZE
 40
180.0
  9
$TRACEWID
 40
0.05
  9
$TEXTSTYLE
  7
STANDARD
  9
$CLAYER
  8
3
  9
$CELTYPE
  6
ByLayer
  9
$CECOLOR
 62
   256
  9
$CELTSCALE
 40
1.0
  9
$DISPSILH
 70
     0
  9
$DIMSCALE
 40
25.0
  9
$DIMASZ
 40
2.0
  9
$DIMEXO
 40
1.0
  9
$DIMDLI
 40
10.0
  9
$DIMRND
 40
0.0
  9
$DIMDLE
 40
0.0
  9
$DIMEXE
 40
1.0
  9
$DIMTP
 40
1.0
  9
$DIMTM
 40
1.0
  9
$DIMTXT
 40
3.0
  9
$DIMCEN
 40
0.0
  9
$DIMTSZ
 40
0.0
  9
$DIMTOL
 70
     0
  9
$DIMLIM
 70
     0
  9
$DIMTIH
 70
     0
  9
$DIMTOH
 70
     0
  9
$DIMSE1
 70
     0
  9
$DIMSE2
 70
     0
  9
$DIMTAD
 70
     1
  9
$DIMZIN
 70
     8
  9
$DIMBLK
  1

  9
$DIMASO
 70
     1
  9
$DIMSHO
 70
     1
  9
$DIMPOST
  1

  9
$DIMAPOST
  1

  9
$DIMALT
 70
     0
  9
$DIMALTD
 70
     2
  9
$DIMALTF
 40
0.039
  9
$DIMLFAC
 40
1.0
  9
$DIMTOFL
 70
     1
  9
$DIMTVP
 40
0.0
  9
$DIMTIX
 70
     0
  9
$DIMSOXD
 70
     0
  9
$DIMSAH
 70
     1
  9
$DIMBLK1
  1
OPEN
  9
$DIMBLK2
  1
OPEN
  9
$DIMSTYLE
  2
IGA
  9
$DIMCLRD
 70
     0
  9
$DIMCLRE
 70
     0
  9
$DIMCLRT
 70
     0
  9
$DIMTFAC
 40
10.0
  9
$DIMGAP
 40
1.0
  9
$DIMJUST
 70
     0
  9
$DIMSD1
 70
     0
  9
$DIMSD2
 70
     0
  9
$DIMTOLJ
 70
     1
  9
$DIMTZIN
 70
     0
  9
$DIMALTZ
 70
     0
  9
$DIMALTTZ
 70
     0
  9
$DIMUPT
 70
     0
  9
$DIMDEC
 70
     4
  9
$DIMTDEC
 70
     4
  9
$DIMALTU
 70
     2
  9
$DIMALTTD
 70
     2
  9
$DIMTXSTY
  7
STANDARD
  9
$DIMAUNIT
 70
     0
  9
$DIMADEC
 70
     0
  9
$DIMALTRND
 40
0.0
  9
$DIMAZIN
 70
     0
  9
$DIMDSEP
 70
    46
  9
$DIMATFIT
 70
     3
  9
$DIMFRAC
 70
     0
  9
$DIMLDRBLK
  1
OPEN
  9
$DIMLUNIT
 70
     2
  9
$DIMLWD
 70
    -2
  9
$DIMLWE
 70
    -2
  9
$DIMTMOVE
 70
     0
  9
$LUNITS
 70
     2
  9
$LUPREC
 70
     3
  9
$SKETCHINC
 40
0.1
  9
$FILLETRAD
 40
50.0
  9
$AUNITS
 70
     0
  9
$AUPREC
 70
     0
  9
$MENU
  1
acad
  9
$ELEVATION
 40
0.0
  9
$PELEVATION
 40
0.0
  9
$THICKNESS
 40
0.0
  9
$LIMCHECK
 70
     0
  9
$CHAMFERA
 40
0.5
  9
$CHAMFERB
 40
0.5
  9
$CHAMFERC
 40
0.0
  9
$CHAMFERD
 40
0.0
  9
$SKPOLY
 70
     0
  9
$TDCREATE
 40
2451387.599927431
  9
$TDUCREATE
 40
2451387.224927430
  9
$TDUPDATE
 40
2460263.708034410
  9
$TDUUPDATE
 40
2460263.333034410
  9
$TDINDWG
 40
0.0571346181
  9
$TDUSRTIMER
 40
0.0571344329
  9
$USRTIMER
 70
     1
  9
$ANGBASE
 50
0.0
  9
$ANGDIR
 70
     0
  9
$PDMODE
 70
     0
  9
$PDSIZE
 40
0.0
  9
$PLINEWID
 40
0.0
  9
$SPLFRAME
 70
     0
  9
$SPLINETYPE
 70
     6
  9
$SPLINESEGS
 70
     8
  9
$HANDSEED
  5
8599
  9
$SURFTAB1
 70
     6
  9
$SURFTAB2
 70
     6
  9
$SURFTYPE
 70
     6
  9
$SURFU
 70
     6
  9
$SURFV
 70
     6
  9
$UCSBASE
  2

  9
$UCSNAME
  2

  9
$UCSORG
 10
0.0
 20
0.0
 30
0.0
  9
$UCSXDIR
 10
1.0
 20
0.0
 30
0.0
  9
$UCSYDIR
 10
0.0
 20
1.0
 30
0.0
  9
$UCSORTHOREF
  2

  9
$UCSORTHOVIEW
 70
     0
  9
$UCSORGTOP
 10
0.0
 20
0.0
 30
0.0
  9
$UCSORGBOTTOM
 10
0.0
 20
0.0
 30
0.0
  9
$UCSORGLEFT
 10
0.0
 20
0.0
 30
0.0
  9
$UCSORGRIGHT
 10
0.0
 20
0.0
 30
0.0
  9
$UCSORGFRONT
 10
0.0
 20
0.0
 30
0.0
  9
$UCSORGBACK
 10
0.0
 20
0.0
 30
0.0
  9
$PUCSBASE
  2

  9
$PUCSNAME
  2

  9
$PUCSORG
 10
0.0
 20
0.0
 30
0.0
  9
$PUCSXDIR
 10
1.0
 20
0.0
 30
0.0
  9
$PUCSYDIR
 10
0.0
 20
1.0
 30
0.0
  9
$PUCSORTHOREF
  2

  9
$PUCSORTHOVIEW
 70
     0
  9
$PUCSORGTOP
 10
0.0
 20
0.0
 30
0.0
  9
$PUCSORGBOTTOM
 10
0.0
 20
0.0
 30
0.0
  9
$PUCSORGLEFT
 10
0.0
 20
0.0
 30
0.0
  9
$PUCSORGRIGHT
 10
0.0
 20
0.0
 30
0.0
  9
$PUCSORGFRONT
 10
0.0
 20
0.0
 30
0.0
  9
$PUCSORGBACK
 10
0.0
 20
0.0
 30
0.0
  9
$USERI1
 70
     0
  9
$USERI2
 70
     0
  9
$USERI3
 70
     0
  9
$USERI4
 70
     0
  9
$USERI5
 70
     0
  9
$USERR1
 40
0.0
  9
$USERR2
 40
0.0
  9
$USERR3
 40
0.0
  9
$USERR4
 40
0.0
  9
$USERR5
 40
0.0
  9
$WORLDVIEW
 70
     1
  9
$SHADEDGE
 70
     3
  9
$SHADEDIF
 70
    70
  9
$TILEMODE
 70
     1
  9
$MAXACTVP
 70
    16
  9
$PINSBASE
 10
0.0
 20
0.0
 30
0.0
  9
$PLIMCHECK
 70
     0
  9
$PEXTMIN
 10
1.000000000000000E+20
 20
1.000000000000000E+20
 30
1.000000000000000E+20
  9
$PEXTMAX
 10
-1.000000000000000E+20
 20
-1.000000000000000E+20
 30
-1.000000000000000E+20
  9
$PLIMMIN
 10
0.0
 20
0.0
  9
$PLIMMAX
 10
12.0
 20
9.0
  9
$UNITMODE
 70
     0
  9
$VISRETAIN
 70
     0
  9
$PLINEGEN
 70
     0
  9
$PSLTSCALE
 70
     1
  9
$TREEDEPTH
 70
  3020
  9
$CMLSTYLE
  2
Standard
  9
$CMLJUST
 70
     0
  9
$CMLSCALE
 40
1.0
  9
$PROXYGRAPHICS
 70
     1
  9
$MEASUREMENT
 70
     0
  9
$CELWEIGHT
370
    -1
  9
$ENDCAPS
280
     0
  9
$JOINSTYLE
280
     0
  9
$LWDISPLAY
290
     0
  9
$INSUNITS
 70
     0
  9
$HYPERLINKBASE
  1

  9
$STYLESHEET
  1

  9
$XEDIT
290
     1
  9
$CEPSNTYPE
380
     0
  9
$PSTYLEMODE
290
     1
  9
$FINGERPRINTGUID
  2
{91E5F105-10A6-4733-AD45-C0CEECF34309}
  9
$VERSIONGUID
  2
{8881D520-D823-4D32-991B-33C0CFB19404}
  9
$EXTNAMES
290
     1
  9
$PSVPSCALE
 40
0.0
  9
$OLESTARTUP
290
     0
  0
ENDSEC
  0
SECTION
  2
CLASSES
  0
CLASS
  1
ACDBDICTIONARYWDFLT
  2
AcDbDictionaryWithDefault
  3
ObjectDBX Classes
 90
        0
280
     0
281
     0
  0
CLASS
  1
MATERIAL
  2
AcDbMaterial
  3
ObjectDBX Classes
 90
     1153
280
     0
281
     0
  0
CLASS
  1
VISUALSTYLE
  2
AcDbVisualStyle
  3
ObjectDBX Classes
 90
     4095
280
     0
281
     0
  0
CLASS
  1
SCALE
  2
AcDbScale
  3
ObjectDBX Classes
 90
     1153
280
     0
281
     0
  0
CLASS
  1
TABLESTYLE
  2
AcDbTableStyle
  3
ObjectDBX Classes
 90
     4095
280
     0
281
     0
  0
CLASS
  1
MLEADERSTYLE
  2
AcDbMLeaderStyle
  3
ACDB_MLEADERSTYLE_CLASS
 90
     4095
280
     0
281
     0
  0
CLASS
  1
ACDBSECTIONVIEWSTYLE
  2
AcDbSectionViewStyle
  3
ObjectDBX Classes
 90
     1025
280
     0
281
     0
  0
CLASS
  1
ACDBDETAILVIEWSTYLE
  2
AcDbDetailViewStyle
  3
ObjectDBX Classes
 90
     1025
280
     0
281
     0
  0
CLASS
  1
SORTENTSTABLE
  2
AcDbSortentsTable
  3
ObjectDBX Classes
 90
        0
280
     0
281
     0
  0
CLASS
  1
DICTIONARYVAR
  2
AcDbDictionaryVar
  3
ObjectDBX Classes
 90
        0
280
     0
281
     0
  0
CLASS
  1
CELLSTYLEMAP
  2
AcDbCellStyleMap
  3
ObjectDBX Classes
 90
     1152
280
     0
281
     0
  0
CLASS
  1
ACDBPLACEHOLDER
  2
AcDbPlaceHolder
  3
ObjectDBX Classes
 90
        0
280
     0
281
     0
  0
CLASS
  1
LAYOUT
  2
AcDbLayout
  3
ObjectDBX Classes
 90
        0
280
     0
281
     0
  0
ENDSEC
  0
SECTION
  2
TABLES
  0
TABLE
  2
VPORT
  5
8121
330
0
100
AcDbSymbolTable
 70
     1
  0
VPORT
  5
818D
330
8121
100
AcDbSymbolTableRecord
100
AcDbViewportTableRecord
  2
*ACTIVE
 70
     0
 10
0.0
 20
0.0
 11
1.0
 21
1.0
 12
2625.00001222361
 22
3687.500017171259
 13
0.0
 23
0.0
 14
10.0
 24
10.0
 15
10.0
 25
10.0
 16
0.0
 26
0.0
 36
1.0
 17
0.0
 27
0.0
 37
0.0
 40
7422.678203440799
 41
2.050213675213675
 42
50.0
 43
0.0
 44
0.0
 50
0.0
 51
0.0
 71
     0
 72
   100
 73
     1
 74
     0
 75
     0
 76
     0
 77
     0
 78
     0
281
     0
 65
     1
110
0.0
120
0.0
130
0.0
111
1.0
121
0.0
131
0.0
112
0.0
122
1.0
132
0.0
 79
     0
146
0.0
1001
ACAD_NAV_VCDISPLAY
1070
     3
  0
ENDTAB
  0
TABLE
  2
LTYPE
  5
811E
330
0
100
AcDbSymbolTable
 70
     3
  0
LTYPE
  5
8173
330
811E
100
AcDbSymbolTableRecord
100
AcDbLinetypeTableRecord
  2
ByBlock
 70
     0
  3

 72
    65
 73
     0
 40
0.0
  0
LTYPE
  5
8174
330
811E
100
AcDbSymbolTableRecord
100
AcDbLinetypeTableRecord
  2
ByLayer
 70
     0
  3

 72
    65
 73
     0
 40
0.0
  0
LTYPE
  5
8175
330
811E
100
AcDbSymbolTableRecord
100
AcDbLinetypeTableRecord
  2
CONTINUOUS
 70
     0
  3
Solid line
 72
    65
 73
     0
 40
0.0
  0
LTYPE
  5
818E
330
811E
100
AcDbSymbolTableRecord
100
AcDbLinetypeTableRecord
  2
CENTER
 70
     0
  3
____ _ ____ _ ____ _ ____ _ ____ _ ____ _ ____ 
 72
    65
 73
     4
 40
2.0
 49
1.25
 74
     0
 49
-0.25
 74
     0
 49
0.25
 74
     0
 49
-0.25
 74
     0
  0
ENDTAB
  0
TABLE
  2
LAYER
  5
811B
102
{ACAD_XDICTIONARY
360
81D6
102
}
330
0
100
AcDbSymbolTable
 70
     6
  0
LAYER
  5
816D
102
{ACAD_XDICTIONARY
360
8202
102
}
330
811B
100
AcDbSymbolTableRecord
100
AcDbLayerTableRecord
  2
0
 70
     0
 62
     7
  6
CONTINUOUS
370
    -3
390
8128
  0
LAYER
  5
818C
102
{ACAD_XDICTIONARY
360
8204
102
}
330
811B
100
AcDbSymbolTableRecord
100
AcDbLayerTableRecord
  2
3
 70
     0
 62
     2
  6
CONTINUOUS
370
    -3
390
8128
  0
LAYER
  5
818F
102
{ACAD_XDICTIONARY
360
8206
102
}
330
811B
100
AcDbSymbolTableRecord
100
AcDbLayerTableRecord
  2
2
 70
     0
 62
     3
  6
CENTER
370
    -3
390
8128
  0
LAYER
  5
8190
102
{ACAD_XDICTIONARY
360
8208
102
}
330
811B
100
AcDbSymbolTableRecord
100
AcDbLayerTableRecord
  2
1
 70
     0
 62
     4
  6
CONTINUOUS
370
    -3
390
8128
  0
LAYER
  5
8191
102
{ACAD_XDICTIONARY
360
820A
102
}
330
811B
100
AcDbSymbolTableRecord
100
AcDbLayerTableRecord
  2
4
 70
     0
 62
     7
  6
CONTINUOUS
370
    -3
390
8128
  0
LAYER
  5
8192
330
811B
100
AcDbSymbolTableRecord
100
AcDbLayerTableRecord
  2
DEFPOINTS
 70
     0
 62
     7
  6
CONTINUOUS
290
     0
370
    -3
390
8128
  0
ENDTAB
  0
TABLE
  2
STYLE
  5
811C
330
0
100
AcDbSymbolTable
 70
     2
  0
STYLE
  5
816E
330
811C
100
AcDbSymbolTableRecord
100
AcDbTextStyleTableRecord
  2
STANDARD
 70
     0
 40
0.0
 41
1.0
 50
0.0
 71
     0
 42
180.0
  3
simplex.shx
  4
extfont.shx
  0
STYLE
  5
8172
330
811C
100
AcDbSymbolTableRecord
100
AcDbTextStyleTableRecord
  2
Annotative
 70
     0
 40
0.0
 41
1.0
 50
0.0
 71
     0
 42
0.2
  3
txt
  4

1001
AcadAnnotative
1000
AnnotativeData
1002
{
1070
     1
1070
     1
1002
}
  0
ENDTAB
  0
TABLE
  2
VIEW
  5
811F
330
0
100
AcDbSymbolTable
 70
     0
  0
ENDTAB
  0
TABLE
  2
UCS
  5
8120
330
0
100
AcDbSymbolTable
 70
     0
  0
ENDTAB
  0
TABLE
  2
APPID
  5
8122
330
0
100
AcDbSymbolTable
 70
     8
  0
APPID
  5
816F
330
8122
100
AcDbSymbolTableRecord
100
AcDbRegAppTableRecord
  2
ACAD
 70
     0
  0
APPID
  5
8176
330
8122
100
AcDbSymbolTableRecord
100
AcDbRegAppTableRecord
  2
AcadAnnotative
 70
     0
  0
APPID
  5
81D5
330
8122
100
AcDbSymbolTableRecord
100
AcDbRegAppTableRecord
  2
ACAD_NAV_VCDISPLAY
 70
     0
  0
APPID
  5
82A8
330
8122
100
AcDbSymbolTableRecord
100
AcDbRegAppTableRecord
  2
ACAD_DSTYLE_DIMJAG
 70
     0
  0
APPID
  5
82A9
330
8122
100
AcDbSymbolTableRecord
100
AcDbRegAppTableRecord
  2
ACAD_DSTYLE_DIMTALN
 70
     0
  0
APPID
  5
8477
330
8122
100
AcDbSymbolTableRecord
100
AcDbRegAppTableRecord
  2
AcadAnnoMonitorAlertIconDisabled
 70
     0
  0
APPID
  5
8478
330
8122
100
AcDbSymbolTableRecord
100
AcDbRegAppTableRecord
  2
ACAD_EXEMPT_FROM_CAD_STANDARDS
 70
     0
  0
APPID
  5
8590
330
8122
100
AcDbSymbolTableRecord
100
AcDbRegAppTableRecord
  2
ACAD_MLEADERVER
 70
     0
  0
ENDTAB
  0
TABLE
  2
DIMSTYLE
  5
8123
330
0
100
AcDbSymbolTable
 70
     4
100
AcDbDimStyleTable
 71
     1
340
8193
  0
DIMSTYLE
105
8170
102
{ACAD_REACTORS
330
7C9B
330
7C9C
330
7CFA
330
7CFE
330
7D00
330
7D01
330
7D02
330
7D03
330
7D05
330
7D2F
102
}
330
8123
100
AcDbSymbolTableRecord
100
AcDbDimStyleTableRecord
  2
Standard
 70
     0
340
816E
  0
DIMSTYLE
105
8171
330
8123
100
AcDbSymbolTableRecord
100
AcDbDimStyleTableRecord
  2
Annotative
 70
     0
340
816E
1001
AcadAnnotative
1000
AnnotativeData
1002
{
1070
     1
1070
     1
1002
}
  0
DIMSTYLE
105
8193
102
{ACAD_REACTORS
330
8269
330
8276
330
82AA
330
8310
330
831D
330
832A
330
8337
330
8344
330
8351
330
8363
330
8496
330
84D5
330
84F8
102
}
330
8123
100
AcDbSymbolTableRecord
100
AcDbDimStyleTableRecord
  2
IGA
 70
     0
 40
2.0
 41
2.0
 42
0.5
 43
10.0
 44
1.0
 47
1.0
 48
1.0
 73
     0
 74
     0
 77
     1
 78
     8
140
3.0
141
0.0
143
0.03937
146
10.0
147
1.0
173
     1
271
     3
272
     3
279
     2
284
     8
285
     8
286
     8
340
816E
  0
DIMSTYLE
105
8194
330
8123
100
AcDbSymbolTableRecord
100
AcDbDimStyleTableRecord
  2
MATSU
 70
     0
 41
2.0
 42
1.0
 43
10.0
 44
1.0
 73
     0
 74
     0
 77
     1
 78
     8
140
3.0
141
0.0
143
0.03937
147
0.5
172
     1
173
     1
176
   256
177
   256
178
   256
271
     3
272
     3
279
     2
284
     8
285
     8
286
     8
340
816E
  0
ENDTAB
  0
TABLE
  2
BLOCK_RECORD
  5
811A
330
0
100
AcDbSymbolTable
 70
    53
  0
BLOCK_RECORD
  5
8188
330
811A
100
AcDbSymbolTableRecord
100
AcDbBlockTableRecord
  2
*Model_Space
340
818B
  0
BLOCK_RECORD
  5
8184
330
811A
100
AcDbSymbolTableRecord
100
AcDbBlockTableRecord
  2
*Paper_Space
340
8187
  0
BLOCK_RECORD
  5
8198
330
811A
100
AcDbSymbolTableRecord
100
AcDbBlockTableRecord
  2
$MODEL_SPACE
340
0
  0
BLOCK_RECORD
  5
819A
330
811A
100
AcDbSymbolTableRecord
100
AcDbBlockTableRecord
  2
$PAPER_SPACE
340
0
  0
BLOCK_RECORD
  5
819C
330
811A
100
AcDbSymbolTableRecord
100
AcDbBlockTableRecord
  2
_OPEN
340
0
102
{BLKREFS
331
7EEA
331
7EEB
331
7EF5
331
7EF6
331
7F00
331
7F01
331
7F0B
331
7F0C
331
7F16
331
7F17
331
7F21
331
7F22
331
7F2C
331
7F2D
331
7F37
331
7F38
331
80F6
331
80F7
331
8317
331
8318
331
8324
331
8325
331
8331
331
8332
331
833E
331
833F
331
80FE
331
80FF
331
8298
331
8299
331
82A1
331
82A2
331
82B1
331
82B2
331
7F4C
331
7F4D
331
810A
331
802A
331
802B
331
8037
331
8038
331
8044
331
8045
331
7E7C
331
7E7D
331
7E87
331
7E88
331
7EC9
331
7ECA
331
8000
331
8001
331
8016
331
8017
331
8051
331
8052
331
8085
331
8086
331
84B8
331
84B9
331
84C7
331
84D1
331
84E5
331
84E6
331
8508
331
8509
331
8511
331
8512
102
}
  0
BLOCK_RECORD
  5
819E
330
811A
100
AcDbSymbolTableRecord
100
AcDbBlockTableRecord
  2
YA_N
340
0
102
{BLKREFS
331
7C45
331
7C64
331
7CA2
331
7CD9
102
}
  0
BLOCK_RECORD
  5
81A0
330
811A
100
AcDbSymbolTableRecord
100
AcDbBlockTableRecord
  2
*D4
340
0
  0
BLOCK_RECORD
  5
81A2
330
811A
100
AcDbSymbolTableRecord
100
AcDbBlockTableRecord
  2
*D5
340
0
  0
BLOCK_RECORD
  5
81A4
330
811A
100
AcDbSymbolTableRecord
100
AcDbBlockTableRecord
  2
*D6
340
0
  0
BLOCK_RECORD
  5
81A6
330
811A
100
AcDbSymbolTableRecord
100
AcDbBlockTableRecord
  2
*D7
340
0
  0
BLOCK_RECORD
  5
81A8
330
811A
100
AcDbSymbolTableRecord
100
AcDbBlockTableRecord
  2
*U8
340
0
102
{BLKREFS
331
8002
102
}
  0
BLOCK_RECORD
  5
81A9
330
811A
100
AcDbSymbolTableRecord
100
AcDbBlockTableRecord
  2
*D9
340
0
  0
BLOCK_RECORD
  5
81AB
330
811A
100
AcDbSymbolTableRecord
100
AcDbBlockTableRecord
  2
*D10
340
0
  0
BLOCK_RECORD
  5
81AD
330
811A
100
AcDbSymbolTableRecord
100
AcDbBlockTableRecord
  2
*D11
340
0
  0
BLOCK_RECORD
  5
81AF
330
811A
100
AcDbSymbolTableRecord
100
AcDbBlockTableRecord
  2
*D12
340
0
  0
BLOCK_RECORD
  5
81B1
330
811A
100
AcDbSymbolTableRecord
100
AcDbBlockTableRecord
  2
*D13
340
0
  0
BLOCK_RECORD
  5
81B3
330
811A
100
AcDbSymbolTableRecord
100
AcDbBlockTableRecord
  2
*D14
340
0
  0
BLOCK_RECORD
  5
81B5
330
811A
100
AcDbSymbolTableRecord
100
AcDbBlockTableRecord
  2
*D15
340
0
  0
BLOCK_RECORD
  5
81B7
330
811A
100
AcDbSymbolTableRecord
100
AcDbBlockTableRecord
  2
*D16
340
0
  0
BLOCK_RECORD
  5
81B9
330
811A
100
AcDbSymbolTableRecord
100
AcDbBlockTableRecord
  2
*D17
340
0
  0
BLOCK_RECORD
  5
81BB
330
811A
100
AcDbSymbolTableRecord
100
AcDbBlockTableRecord
  2
*D18
340
0
  0
BLOCK_RECORD
  5
81BD
330
811A
100
AcDbSymbolTableRecord
100
AcDbBlockTableRecord
  2
*D19
340
0
  0
BLOCK_RECORD
  5
81BF
330
811A
100
AcDbSymbolTableRecord
100
AcDbBlockTableRecord
  2
*D20
340
0
  0
BLOCK_RECORD
  5
81C1
330
811A
100
AcDbSymbolTableRecord
100
AcDbBlockTableRecord
  2
*D21
340
0
  0
BLOCK_RECORD
  5
81C3
330
811A
100
AcDbSymbolTableRecord
100
AcDbBlockTableRecord
  2
_DOT
340
0
102
{BLKREFS
331
8109
102
}
  0
BLOCK_RECORD
  5
81C5
330
811A
100
AcDbSymbolTableRecord
100
AcDbBlockTableRecord
  2
*D23
340
0
  0
BLOCK_RECORD
  5
81C7
330
811A
100
AcDbSymbolTableRecord
100
AcDbBlockTableRecord
  2
*D24
340
0
  0
BLOCK_RECORD
  5
81C9
330
811A
100
AcDbSymbolTableRecord
100
AcDbBlockTableRecord
  2
*D25
340
0
  0
BLOCK_RECORD
  5
81CB
330
811A
100
AcDbSymbolTableRecord
100
AcDbBlockTableRecord
  2
*D26
340
0
  0
BLOCK_RECORD
  5
81CD
330
811A
100
AcDbSymbolTableRecord
100
AcDbBlockTableRecord
  2
_NONE
340
0
  0
BLOCK_RECORD
  5
81CF
330
811A
100
AcDbSymbolTableRecord
100
AcDbBlockTableRecord
  2
*D28
340
0
  0
BLOCK_RECORD
  5
81D1
330
811A
100
AcDbSymbolTableRecord
100
AcDbBlockTableRecord
  2
*D29
340
0
  0
BLOCK_RECORD
  5
826A
330
811A
100
AcDbSymbolTableRecord
100
AcDbBlockTableRecord
  2
*D31
340
0
  0
BLOCK_RECORD
  5
8277
330
811A
100
AcDbSymbolTableRecord
100
AcDbBlockTableRecord
  2
*D32
340
0
  0
BLOCK_RECORD
  5
82AB
330
811A
100
AcDbSymbolTableRecord
100
AcDbBlockTableRecord
  2
*D33
340
0
  0
BLOCK_RECORD
  5
82B7
330
811A
100
AcDbSymbolTableRecord
100
AcDbBlockTableRecord
  2
*D34
340
0
  0
BLOCK_RECORD
  5
82C4
330
811A
100
AcDbSymbolTableRecord
100
AcDbBlockTableRecord
  2
*D35
340
0
  0
BLOCK_RECORD
  5
82D1
330
811A
100
AcDbSymbolTableRecord
100
AcDbBlockTableRecord
  2
*D36
340
0
  0
BLOCK_RECORD
  5
82DE
330
811A
100
AcDbSymbolTableRecord
100
AcDbBlockTableRecord
  2
*D37
340
0
  0
BLOCK_RECORD
  5
82EB
330
811A
100
AcDbSymbolTableRecord
100
AcDbBlockTableRecord
  2
*D38
340
0
  0
BLOCK_RECORD
  5
82F6
330
811A
100
AcDbSymbolTableRecord
100
AcDbBlockTableRecord
  2
*D39
340
0
  0
BLOCK_RECORD
  5
8303
330
811A
100
AcDbSymbolTableRecord
100
AcDbBlockTableRecord
  2
*D40
340
0
  0
BLOCK_RECORD
  5
8311
330
811A
100
AcDbSymbolTableRecord
100
AcDbBlockTableRecord
  2
*D41
340
0
  0
BLOCK_RECORD
  5
831E
330
811A
100
AcDbSymbolTableRecord
100
AcDbBlockTableRecord
  2
*D42
340
0
  0
BLOCK_RECORD
  5
832B
330
811A
100
AcDbSymbolTableRecord
100
AcDbBlockTableRecord
  2
*D43
340
0
  0
BLOCK_RECORD
  5
8338
330
811A
100
AcDbSymbolTableRecord
100
AcDbBlockTableRecord
  2
*D44
340
0
  0
BLOCK_RECORD
  5
8345
330
811A
100
AcDbSymbolTableRecord
100
AcDbBlockTableRecord
  2
*D45
340
0
  0
BLOCK_RECORD
  5
8352
330
811A
100
AcDbSymbolTableRecord
100
AcDbBlockTableRecord
  2
*D46
340
0
  0
BLOCK_RECORD
  5
8364
330
811A
100
AcDbSymbolTableRecord
100
AcDbBlockTableRecord
  2
*D47
340
0
  0
BLOCK_RECORD
  5
83F7
330
811A
100
AcDbSymbolTableRecord
100
AcDbBlockTableRecord
  2
_DotSmall
340
0
102
{BLKREFS
331
84C8
331
84D0
102
}
  0
BLOCK_RECORD
  5
8497
330
811A
100
AcDbSymbolTableRecord
100
AcDbBlockTableRecord
  2
*D49
340
0
  0
BLOCK_RECORD
  5
84D6
330
811A
100
AcDbSymbolTableRecord
100
AcDbBlockTableRecord
  2
*D50
340
0
  0
BLOCK_RECORD
  5
84EB
330
811A
100
AcDbSymbolTableRecord
100
AcDbBlockTableRecord
  2
*D51
340
0
  0
BLOCK_RECORD
  5
84F9
330
811A
100
AcDbSymbolTableRecord
100
AcDbBlockTableRecord
  2
*D52
340
0
  0
ENDTAB
  0
ENDSEC
  0
SECTION
  2
BLOCKS
  0
BLOCK
  5
8189
330
8188
100
AcDbEntity
  8
0
100
AcDbBlockBegin
  2
*Model_Space
 70
     0
 10
0.0
 20
0.0
 30
0.0
  3
*Model_Space
  1

  0
ENDBLK
  5
818A
330
8188
100
AcDbEntity
  8
0
100
AcDbBlockEnd
  0
BLOCK
  5
8185
330
8184
100
AcDbEntity
 67
     1
  8
0
100
AcDbBlockBegin
  2
*Paper_Space
 70
     0
 10
0.0
 20
0.0
 30
0.0
  3
*Paper_Space
  1

  0
ENDBLK
  5
8186
330
8184
100
AcDbEntity
 67
     1
  8
0
100
AcDbBlockEnd
  0
BLOCK
  5
8199
330
8198
100
AcDbEntity
  8
0
100
AcDbBlockBegin
  2
$MODEL_SPACE
 70
     0
 10
0.0
 20
0.0
 30
0.0
  3
$MODEL_SPACE
  1

  0
ENDBLK
  5
1B
330
8198
100
AcDbEntity
  8
0
100
AcDbBlockEnd
  0
BLOCK
  5
819B
330
819A
100
AcDbEntity
  8
0
100
AcDbBlockBegin
  2
$PAPER_SPACE
 70
     0
 10
0.0
 20
0.0
 30
0.0
  3
$PAPER_SPACE
  1

  0
ENDBLK
  5
18
330
819A
100
AcDbEntity
  8
0
100
AcDbBlockEnd
  0
BLOCK
  5
819D
330
819C
100
AcDbEntity
  8
0
100
AcDbBlockBegin
  2
_OPEN
 70
     0
 10
0.0
 20
0.0
 30
0.0
  3
_OPEN
  1

  0
LINE
  5
79FD
330
819C
100
AcDbEntity
  8
0
  6
ByBlock
 62
     0
100
AcDbLine
 10
-1.0
 20
0.1666666666666666
 30
0.0
 11
0.0
 21
0.0
 31
0.0
  0
LINE
  5
79FE
330
819C
100
AcDbEntity
  8
0
  6
ByBlock
 62
     0
100
AcDbLine
 10
0.0
 20
0.0
 30
0.0
 11
-1.0
 21
-0.1666666666666666
 31
0.0
  0
LINE
  5
79FF
330
819C
100
AcDbEntity
  8
0
  6
ByBlock
 62
     0
100
AcDbLine
 10
0.0
 20
0.0
 30
0.0
 11
-1.0
 21
0.0
 31
0.0
  0
ENDBLK
  5
7A01
330
819C
100
AcDbEntity
  8
0
100
AcDbBlockEnd
  0
BLOCK
  5
819F
330
819E
100
AcDbEntity
  8
0
100
AcDbBlockBegin
  2
YA_N
 70
     0
 10
0.0
 20
0.0
 30
0.0
  3
YA_N
  1

  0
ENDBLK
  5
7A0C
330
819E
100
AcDbEntity
  8
0
100
AcDbBlockEnd
  0
BLOCK
  5
81A1
330
81A0
100
AcDbEntity
  8
0
100
AcDbBlockBegin
  2
*D4
 70
     1
 10
0.0
 20
0.0
 30
0.0
  3
*D4
  1

  0
LINE
  5
7E79
330
81A0
100
AcDbEntity
  8
0
  6
ByBlock
100
AcDbLine
 10
222.5885676443849
 20
-250.406521778601
 30
0.0
 11
73.5811838651589
 21
-250.406521778601
 31
0.0
  0
LINE
  5
7E7A
330
81A0
100
AcDbEntity
  8
0
  6
ByBlock
100
AcDbLine
 10
222.588567644384
 20
479.5934782213988
 30
0.0
 11
73.5811838651589
 21
479.5934782213988
 31
0.0
  0
LINE
  5
7E7B
330
81A0
100
AcDbEntity
  8
0
  6
ByBlock
100
AcDbLine
 10
98.5811838651589
 20
-200.4065217786009
 30
0.0
 11
98.5811838651589
 21
429.5934782213988
 31
0.0
  0
INSERT
  5
7E7C
330
81A0
100
AcDbEntity
  8
0
  6
ByBlock
100
AcDbBlockReference
  2
_OPEN
 10
98.5811838651589
 20
-250.406521778601
 30
0.0
 41
50.0
 42
50.0
 43
50.0
 50
270.0
  0
INSERT
  5
7E7D
330
81A0
100
AcDbEntity
  8
0
  6
ByBlock
100
AcDbBlockReference
  2
_OPEN
 10
98.5811838651589
 20
479.5934782213988
 30
0.0
 41
50.0
 42
50.0
 43
50.0
 50
90.0
  0
TEXT
  5
7E7E
330
81A0
100
AcDbEntity
  8
3
100
AcDbText
 10
86.08118386515887
 20
18.16490679282755
 30
0.0
 40
75.0
  1
730
 50
90.0
100
AcDbText
  0
POINT
  5
7E7F
330
81A0
100
AcDbEntity
  8
DEFPOINTS
  6
ByBlock
 62
     0
100
AcDbPoint
 10
247.5885676443849
 20
-250.406521778601
 30
0.0
  0
POINT
  5
7E80
330
81A0
100
AcDbEntity
  8
DEFPOINTS
  6
ByBlock
 62
     0
100
AcDbPoint
 10
247.588567644384
 20
479.5934782213988
 30
0.0
  0
POINT
  5
7E81
330
81A0
100
AcDbEntity
  8
DEFPOINTS
  6
ByBlock
 62
     0
100
AcDbPoint
 10
98.5811838651589
 20
479.5934782213988
 30
0.0
  0
ENDBLK
  5
7E82
330
81A0
100
AcDbEntity
  8
0
100
AcDbBlockEnd
  0
BLOCK
  5
81A3
330
81A2
100
AcDbEntity
  8
0
100
AcDbBlockBegin
  2
*D5
 70
     1
 10
0.0
 20
0.0
 30
0.0
  3
*D5
  1

  0
LINE
  5
7E84
330
81A2
100
AcDbEntity
  8
0
  6
ByBlock
100
AcDbLine
 10
222.5885676443849
 20
-250.406521778601
 30
0.0
 11
-79.22758960850659
 21
-250.406521778601
 31
0.0
  0
LINE
  5
7E85
330
81A2
100
AcDbEntity
  8
0
  6
ByBlock
100
AcDbLine
 10
100.3227288389552
 20
508.5934782213988
 30
0.0
 11
-79.22758960850659
 21
508.5934782213988
 31
0.0
  0
LINE
  5
7E86
330
81A2
100
AcDbEntity
  8
0
  6
ByBlock
100
AcDbLine
 10
-54.22758960850661
 20
-200.4065217786009
 30
0.0
 11
-54.22758960850661
 21
458.5934782213988
 31
0.0
  0
INSERT
  5
7E87
330
81A2
100
AcDbEntity
  8
0
  6
ByBlock
100
AcDbBlockReference
  2
_OPEN
 10
-54.22758960850661
 20
-250.406521778601
 30
0.0
 41
50.0
 42
50.0
 43
50.0
 50
270.0
  0
INSERT
  5
7E88
330
81A2
100
AcDbEntity
  8
0
  6
ByBlock
100
AcDbBlockReference
  2
_OPEN
 10
-54.22758960850661
 20
508.5934782213988
 30
0.0
 41
50.0
 42
50.0
 43
50.0
 50
90.0
  0
TEXT
  5
7E89
330
81A2
100
AcDbEntity
  8
3
100
AcDbText
 10
-66.72758960850662
 20
34.45062107854186
 30
0.0
 40
75.0
  1
759
 50
90.0
100
AcDbText
  0
POINT
  5
7E8A
330
81A2
100
AcDbEntity
  8
DEFPOINTS
  6
ByBlock
 62
     0
100
AcDbPoint
 10
247.5885676443849
 20
-250.406521778601
 30
0.0
  0
POINT
  5
7E8B
330
81A2
100
AcDbEntity
  8
DEFPOINTS
  6
ByBlock
 62
     0
100
AcDbPoint
 10
125.3227288389552
 20
508.5934782213988
 30
0.0
  0
POINT
  5
7E8C
330
81A2
100
AcDbEntity
  8
DEFPOINTS
  6
ByBlock
 62
     0
100
AcDbPoint
 10
-54.22758960850661
 20
508.5934782213988
 30
0.0
  0
ENDBLK
  5
7E8D
330
81A2
100
AcDbEntity
  8
0
100
AcDbBlockEnd
  0
BLOCK
  5
81A5
330
81A4
100
AcDbEntity
  8
0
100
AcDbBlockBegin
  2
*D6
 70
     1
 10
0.0
 20
0.0
 30
0.0
  3
*D6
  1

  0
LINE
  5
7EC6
330
81A4
100
AcDbEntity
  8
0
  6
ByBlock
100
AcDbLine
 10
3394.272073930469
 20
1034.935589762506
 30
0.0
 11
3394.272073930469
 21
1226.540262895163
 31
0.0
  0
LINE
  5
7EC7
330
81A4
100
AcDbEntity
  8
0
  6
ByBlock
100
AcDbLine
 10
4294.27207393047
 20
1034.935576025498
 30
0.0
 11
4294.27207393047
 21
1226.540262895163
 31
0.0
  0
LINE
  5
7EC8
330
81A4
100
AcDbEntity
  8
0
  6
ByBlock
100
AcDbLine
 10
3444.272073930469
 20
1201.540262895163
 30
0.0
 11
4244.27207393047
 21
1201.540262895163
 31
0.0
  0
INSERT
  5
7EC9
330
81A4
100
AcDbEntity
  8
0
  6
ByBlock
100
AcDbBlockReference
  2
_OPEN
 10
3394.272073930469
 20
1201.540262895163
 30
0.0
 41
50.0
 42
50.0
 43
50.0
 50
180.0
  0
INSERT
  5
7ECA
330
81A4
100
AcDbEntity
  8
0
  6
ByBlock
100
AcDbBlockReference
  2
_OPEN
 10
4294.27207393047
 20
1201.540262895163
 30
0.0
 41
50.0
 42
50.0
 43
50.0
  0
TEXT
  5
7ECB
330
81A4
100
AcDbEntity
  8
3
100
AcDbText
 10
3747.843502501898
 20
1214.040262895163
 30
0.0
 40
75.0
  1
900
100
AcDbText
  0
POINT
  5
7ECC
330
81A4
100
AcDbEntity
  8
DEFPOINTS
  6
ByBlock
 62
     0
100
AcDbPoint
 10
3394.272073930469
 20
1009.935589762506
 30
0.0
  0
POINT
  5
7ECD
330
81A4
100
AcDbEntity
  8
DEFPOINTS
  6
ByBlock
 62
     0
100
AcDbPoint
 10
4294.27207393047
 20
1009.935576025498
 30
0.0
  0
POINT
  5
7ECE
330
81A4
100
AcDbEntity
  8
DEFPOINTS
  6
ByBlock
 62
     0
100
AcDbPoint
 10
4294.27207393047
 20
1201.540262895163
 30
0.0
  0
ENDBLK
  5
7ECF
330
81A4
100
AcDbEntity
  8
0
100
AcDbBlockEnd
  0
BLOCK
  5
81A7
330
81A6
100
AcDbEntity
  8
0
100
AcDbBlockBegin
  2
*D7
 70
     1
 10
0.0
 20
0.0
 30
0.0
  3
*D7
  1

  0
LINE
  5
7FFD
330
81A6
100
AcDbEntity
  8
0
  6
ByBlock
100
AcDbLine
 10
3313.091456407333
 20
3015.416563417289
 30
0.0
 11
3313.091456407333
 21
3578.617014698351
 31
0.0
  0
LINE
  5
7FFE
330
81A6
100
AcDbEntity
  8
0
  6
ByBlock
100
AcDbLine
 10
4068.091456407329
 20
3563.321581601268
 30
0.0
 11
4068.091456407329
 21
3578.617014698351
 31
0.0
  0
LINE
  5
7FFF
330
81A6
100
AcDbEntity
  8
0
  6
ByBlock
100
AcDbLine
 10
3363.091456407333
 20
3553.617014698351
 30
0.0
 11
4018.091456407328
 21
3553.617014698351
 31
0.0
  0
INSERT
  5
8000
330
81A6
100
AcDbEntity
  8
0
  6
ByBlock
100
AcDbBlockReference
  2
_OPEN
 10
3313.091456407333
 20
3553.617014698351
 30
0.0
 41
50.0
 42
50.0
 43
50.0
 50
180.0
  0
INSERT
  5
8001
330
81A6
100
AcDbEntity
  8
0
  6
ByBlock
100
AcDbBlockReference
  2
_OPEN
 10
4068.091456407329
 20
3553.617014698351
 30
0.0
 41
50.0
 42
50.0
 43
50.0
  0
INSERT
  5
8002
330
81A6
100
AcDbEntity
  8
3
100
AcDbBlockReference
  2
*U8
 10
0.0
 20
0.0
 30
0.0
  0
POINT
  5
8003
330
81A6
100
AcDbEntity
  8
DEFPOINTS
  6
ByBlock
 62
     0
100
AcDbPoint
 10
3313.091456407333
 20
2990.416563417289
 30
0.0
  0
POINT
  5
8004
330
81A6
100
AcDbEntity
  8
DEFPOINTS
  6
ByBlock
 62
     0
100
AcDbPoint
 10
4068.091456407329
 20
3538.321581601268
 30
0.0
  0
POINT
  5
8005
330
81A6
100
AcDbEntity
  8
DEFPOINTS
  6
ByBlock
 62
     0
100
AcDbPoint
 10
4068.091456407329
 20
3553.617014698351
 30
0.0
  0
ENDBLK
  5
8006
330
81A6
100
AcDbEntity
  8
0
100
AcDbBlockEnd
  0
BLOCK
  5
81D3
330
81A8
100
AcDbEntity
  8
0
100
AcDbBlockBegin
  2
*U8
 70
     1
 10
0.0
 20
0.0
 30
0.0
  3
*U8
  1

  0
TEXT
  5
8113
330
81A8
100
AcDbEntity
  8
3
100
AcDbText
 10
3583.448599264475
 20
3691.117014698351
 30
0.0
 40
75.0
  1
MAX
100
AcDbText
  0
TEXT
  5
8114
330
81A8
100
AcDbEntity
  8
3
100
AcDbText
 10
3594.16288497876
 20
3566.117014698351
 30
0.0
 40
75.0
  1
780
100
AcDbText
  0
ENDBLK
  5
8116
330
81A8
100
AcDbEntity
  8
0
100
AcDbBlockEnd
  0
BLOCK
  5
81AA
330
81A9
100
AcDbEntity
  8
0
100
AcDbBlockBegin
  2
*D9
 70
     1
 10
0.0
 20
0.0
 30
0.0
  3
*D9
  1

  0
LINE
  5
8013
330
81A9
100
AcDbEntity
  8
0
  6
ByBlock
100
AcDbLine
 10
4068.091456407329
 20
3527.342449532441
 30
0.0
 11
4068.091456407329
 21
3578.617014698351
 31
0.0
  0
LINE
  5
8014
330
81A9
100
AcDbEntity
  8
0
  6
ByBlock
100
AcDbLine
 10
4620.591456407331
 20
2710.21656341729
 30
0.0
 11
4620.591456407331
 21
3578.617014698351
 31
0.0
  0
LINE
  5
8015
330
81A9
100
AcDbEntity
  8
0
  6
ByBlock
100
AcDbLine
 10
4118.09145640733
 20
3553.617014698351
 30
0.0
 11
4570.59145640733
 21
3553.617014698351
 31
0.0
  0
INSERT
  5
8016
330
81A9
100
AcDbEntity
  8
0
  6
ByBlock
100
AcDbBlockReference
  2
_OPEN
 10
4068.091456407329
 20
3553.617014698351
 30
0.0
 41
50.0
 42
50.0
 43
50.0
 50
180.0
  0
INSERT
  5
8017
330
81A9
100
AcDbEntity
  8
0
  6
ByBlock
100
AcDbBlockReference
  2
_OPEN
 10
4620.591456407331
 20
3553.617014698351
 30
0.0
 41
50.0
 42
50.0
 43
50.0
  0
TEXT
  5
8018
330
81A9
100
AcDbEntity
  8
3
100
AcDbText
 10
4199.698599264473
 20
3598.259871841208
 30
0.0
 40
75.0
  1
(560)
100
AcDbText
  0
POINT
  5
8019
330
81A9
100
AcDbEntity
  8
DEFPOINTS
  6
ByBlock
 62
     0
100
AcDbPoint
 10
4068.091456407329
 20
3502.342449532441
 30
0.0
  0
POINT
  5
801A
330
81A9
100
AcDbEntity
  8
DEFPOINTS
  6
ByBlock
 62
     0
100
AcDbPoint
 10
4620.591456407331
 20
2685.21656341729
 30
0.0
  0
POINT
  5
801B
330
81A9
100
AcDbEntity
  8
DEFPOINTS
  6
ByBlock
 62
     0
100
AcDbPoint
 10
4620.591456407331
 20
3553.617014698351
 30
0.0
  0
ENDBLK
  5
801C
330
81A9
100
AcDbEntity
  8
0
100
AcDbBlockEnd
  0
BLOCK
  5
81AC
330
81AB
100
AcDbEntity
  8
0
100
AcDbBlockBegin
  2
*D10
 70
     1
 10
0.0
 20
0.0
 30
0.0
  3
*D10
  1

  0
LINE
  5
7EE7
330
81AB
100
AcDbEntity
  8
0
  6
ByBlock
100
AcDbLine
 10
4321.57207393047
 20
133.5934782213989
 30
0.0
 11
4597.054208885889
 21
133.5934782213989
 31
0.0
  0
LINE
  5
7EE8
330
81AB
100
AcDbEntity
  8
0
  6
ByBlock
100
AcDbLine
 10
4321.57207393047
 20
883.5934782213987
 30
0.0
 11
4597.054208885889
 21
883.5934782213987
 31
0.0
  0
LINE
  5
7EE9
330
81AB
100
AcDbEntity
  8
0
  6
ByBlock
100
AcDbLine
 10
4572.054208885889
 20
183.5934782213989
 30
0.0
 11
4572.054208885889
 21
833.5934782213987
 31
0.0
  0
INSERT
  5
7EEA
330
81AB
100
AcDbEntity
  8
0
  6
ByBlock
100
AcDbBlockReference
  2
_OPEN
 10
4572.054208885889
 20
133.5934782213989
 30
0.0
 41
50.0
 42
50.0
 43
50.0
 50
270.0
  0
INSERT
  5
7EEB
330
81AB
100
AcDbEntity
  8
0
  6
ByBlock
100
AcDbBlockReference
  2
_OPEN
 10
4572.054208885889
 20
883.5934782213987
 30
0.0
 41
50.0
 42
50.0
 43
50.0
 50
90.0
  0
TEXT
  5
7EEC
330
81AB
100
AcDbEntity
  8
3
100
AcDbText
 10
4559.554208885889
 20
374.6649067928275
 30
0.0
 40
75.0
  1
\U+03C6750
 50
90.0
100
AcDbText
  0
POINT
  5
7EED
330
81AB
100
AcDbEntity
  8
DEFPOINTS
  6
ByBlock
 62
     0
100
AcDbPoint
 10
4296.57207393047
 20
133.5934782213989
 30
0.0
  0
POINT
  5
7EEE
330
81AB
100
AcDbEntity
  8
DEFPOINTS
  6
ByBlock
 62
     0
100
AcDbPoint
 10
4296.57207393047
 20
883.5934782213987
 30
0.0
  0
POINT
  5
7EEF
330
81AB
100
AcDbEntity
  8
DEFPOINTS
  6
ByBlock
 62
     0
100
AcDbPoint
 10
4572.054208885889
 20
883.5934782213987
 30
0.0
  0
ENDBLK
  5
7EF0
330
81AB
100
AcDbEntity
  8
0
100
AcDbBlockEnd
  0
BLOCK
  5
81AE
330
81AD
100
AcDbEntity
  8
0
100
AcDbBlockBegin
  2
*D11
 70
     1
 10
0.0
 20
0.0
 30
0.0
  3
*D11
  1

  0
LINE
  5
7EF2
330
81AD
100
AcDbEntity
  8
0
  6
ByBlock
100
AcDbLine
 10
1897.588567644383
 20
2193.346048433019
 30
0.0
 11
1897.588567644383
 21
1930.163588608871
 31
0.0
  0
LINE
  5
7EF3
330
81AD
100
AcDbEntity
  8
0
  6
ByBlock
100
AcDbLine
 10
297.5885676443848
 20
2193.346048433018
 30
0.0
 11
297.5885676443848
 21
1930.163588608871
 31
0.0
  0
LINE
  5
7EF4
330
81AD
100
AcDbEntity
  8
0
  6
ByBlock
100
AcDbLine
 10
1847.588567644384
 20
1955.163588608871
 30
0.0
 11
347.5885676443848
 21
1955.163588608871
 31
0.0
  0
INSERT
  5
7EF5
330
81AD
100
AcDbEntity
  8
0
  6
ByBlock
100
AcDbBlockReference
  2
_OPEN
 10
1897.588567644383
 20
1955.163588608871
 30
0.0
 41
50.0
 42
50.0
 43
50.0
  0
INSERT
  5
7EF6
330
81AD
100
AcDbEntity
  8
0
  6
ByBlock
100
AcDbBlockReference
  2
_OPEN
 10
297.5885676443848
 20
1955.163588608871
 30
0.0
 41
50.0
 42
50.0
 43
50.0
 50
180.0
  0
TEXT
  5
7EF7
330
81AD
100
AcDbEntity
  8
3
100
AcDbText
 10
972.5885676443848
 20
1967.663588608871
 30
0.0
 40
75.0
  1
1600
100
AcDbText
  0
POINT
  5
7EF8
330
81AD
100
AcDbEntity
  8
DEFPOINTS
  6
ByBlock
 62
     0
100
AcDbPoint
 10
1897.588567644383
 20
2218.346048433019
 30
0.0
  0
POINT
  5
7EF9
330
81AD
100
AcDbEntity
  8
DEFPOINTS
  6
ByBlock
 62
     0
100
AcDbPoint
 10
297.5885676443848
 20
2218.346048433017
 30
0.0
  0
POINT
  5
7EFA
330
81AD
100
AcDbEntity
  8
DEFPOINTS
  6
ByBlock
 62
     0
100
AcDbPoint
 10
297.5885676443848
 20
1955.163588608871
 30
0.0
  0
ENDBLK
  5
7EFB
330
81AD
100
AcDbEntity
  8
0
100
AcDbBlockEnd
  0
BLOCK
  5
81B0
330
81AF
100
AcDbEntity
  8
0
100
AcDbBlockBegin
  2
*D12
 70
     1
 10
0.0
 20
0.0
 30
0.0
  3
*D12
  1

  0
LINE
  5
7EFD
330
81AF
100
AcDbEntity
  8
0
  6
ByBlock
100
AcDbLine
 10
1922.588567644385
 20
2218.346048433019
 30
0.0
 11
2223.459072479474
 21
2218.346048433019
 31
0.0
  0
LINE
  5
7EFE
330
81AF
100
AcDbEntity
  8
0
  6
ByBlock
100
AcDbLine
 10
1922.588567644385
 20
2888.346048433021
 30
0.0
 11
2223.459072479474
 21
2888.346048433021
 31
0.0
  0
LINE
  5
7EFF
330
81AF
100
AcDbEntity
  8
0
  6
ByBlock
100
AcDbLine
 10
2198.459072479474
 20
2268.346048433019
 30
0.0
 11
2198.459072479474
 21
2838.34604843302
 31
0.0
  0
INSERT
  5
7F00
330
81AF
100
AcDbEntity
  8
0
  6
ByBlock
100
AcDbBlockReference
  2
_OPEN
 10
2198.459072479474
 20
2218.346048433019
 30
0.0
 41
50.0
 42
50.0
 43
50.0
 50
270.0
  0
INSERT
  5
7F01
330
81AF
100
AcDbEntity
  8
0
  6
ByBlock
100
AcDbBlockReference
  2
_OPEN
 10
2198.459072479474
 20
2888.346048433021
 30
0.0
 41
50.0
 42
50.0
 43
50.0
 50
90.0
  0
TEXT
  5
7F02
330
81AF
100
AcDbEntity
  8
3
100
AcDbText
 10
2185.959072479473
 20
2456.917477004448
 30
0.0
 40
75.0
  1
670
 50
90.0
100
AcDbText
  0
POINT
  5
7F03
330
81AF
100
AcDbEntity
  8
DEFPOINTS
  6
ByBlock
 62
     0
100
AcDbPoint
 10
1897.588567644383
 20
2218.346048433019
 30
0.0
  0
POINT
  5
7F04
330
81AF
100
AcDbEntity
  8
DEFPOINTS
  6
ByBlock
 62
     0
100
AcDbPoint
 10
1897.588567644383
 20
2888.346048433021
 30
0.0
  0
POINT
  5
7F05
330
81AF
100
AcDbEntity
  8
DEFPOINTS
  6
ByBlock
 62
     0
100
AcDbPoint
 10
2198.459072479474
 20
2888.346048433021
 30
0.0
  0
ENDBLK
  5
7F06
330
81AF
100
AcDbEntity
  8
0
100
AcDbBlockEnd
  0
BLOCK
  5
81B2
330
81B1
100
AcDbEntity
  8
0
100
AcDbBlockBegin
  2
*D13
 70
     1
 10
0.0
 20
0.0
 30
0.0
  3
*D13
  1

  0
LINE
  5
7F08
330
81B1
100
AcDbEntity
  8
0
  6
ByBlock
100
AcDbLine
 10
1197.588567644385
 20
3398.346048433019
 30
0.0
 11
1197.588567644385
 21
3699.978102837189
 31
0.0
  0
LINE
  5
7F09
330
81B1
100
AcDbEntity
  8
0
  6
ByBlock
100
AcDbLine
 10
297.5885676443848
 20
3398.346048433019
 30
0.0
 11
297.5885676443848
 21
3699.978102837189
 31
0.0
  0
LINE
  5
7F0A
330
81B1
100
AcDbEntity
  8
0
  6
ByBlock
100
AcDbLine
 10
1147.588567644385
 20
3674.978102837189
 30
0.0
 11
347.5885676443848
 21
3674.978102837189
 31
0.0
  0
INSERT
  5
7F0B
330
81B1
100
AcDbEntity
  8
0
  6
ByBlock
100
AcDbBlockReference
  2
_OPEN
 10
1197.588567644385
 20
3674.978102837189
 30
0.0
 41
50.0
 42
50.0
 43
50.0
  0
INSERT
  5
7F0C
330
81B1
100
AcDbEntity
  8
0
  6
ByBlock
100
AcDbBlockReference
  2
_OPEN
 10
297.5885676443848
 20
3674.978102837189
 30
0.0
 41
50.0
 42
50.0
 43
50.0
 50
180.0
  0
TEXT
  5
7F0D
330
81B1
100
AcDbEntity
  8
3
100
AcDbText
 10
651.1599962158135
 20
3687.478102837189
 30
0.0
 40
75.0
  1
900
100
AcDbText
  0
POINT
  5
7F0E
330
81B1
100
AcDbEntity
  8
DEFPOINTS
  6
ByBlock
 62
     0
100
AcDbPoint
 10
1197.588567644385
 20
3373.346048433019
 30
0.0
  0
POINT
  5
7F0F
330
81B1
100
AcDbEntity
  8
DEFPOINTS
  6
ByBlock
 62
     0
100
AcDbPoint
 10
297.5885676443848
 20
3373.346048433019
 30
0.0
  0
POINT
  5
7F10
330
81B1
100
AcDbEntity
  8
DEFPOINTS
  6
ByBlock
 62
     0
100
AcDbPoint
 10
297.5885676443848
 20
3674.978102837189
 30
0.0
  0
ENDBLK
  5
7F11
330
81B1
100
AcDbEntity
  8
0
100
AcDbBlockEnd
  0
BLOCK
  5
81B4
330
81B3
100
AcDbEntity
  8
0
100
AcDbBlockBegin
  2
*D14
 70
     1
 10
0.0
 20
0.0
 30
0.0
  3
*D14
  1

  0
LINE
  5
7F13
330
81B3
100
AcDbEntity
  8
0
  6
ByBlock
100
AcDbLine
 10
1897.588567644383
 20
2913.34604843302
 30
0.0
 11
1897.588567644383
 21
3699.978102837189
 31
0.0
  0
LINE
  5
7F14
330
81B3
100
AcDbEntity
  8
0
  6
ByBlock
100
AcDbLine
 10
1197.588567644385
 20
3398.346048433019
 30
0.0
 11
1197.588567644385
 21
3699.978102837189
 31
0.0
  0
LINE
  5
7F15
330
81B3
100
AcDbEntity
  8
0
  6
ByBlock
100
AcDbLine
 10
1847.588567644384
 20
3674.978102837189
 30
0.0
 11
1247.588567644385
 21
3674.978102837189
 31
0.0
  0
INSERT
  5
7F16
330
81B3
100
AcDbEntity
  8
0
  6
ByBlock
100
AcDbBlockReference
  2
_OPEN
 10
1897.588567644383
 20
3674.978102837189
 30
0.0
 41
50.0
 42
50.0
 43
50.0
  0
INSERT
  5
7F17
330
81B3
100
AcDbEntity
  8
0
  6
ByBlock
100
AcDbBlockReference
  2
_OPEN
 10
1197.588567644385
 20
3674.978102837189
 30
0.0
 41
50.0
 42
50.0
 43
50.0
 50
180.0
  0
TEXT
  5
7F18
330
81B3
100
AcDbEntity
  8
3
100
AcDbText
 10
1451.159996215813
 20
3687.478102837189
 30
0.0
 40
75.0
  1
700
100
AcDbText
  0
POINT
  5
7F19
330
81B3
100
AcDbEntity
  8
DEFPOINTS
  6
ByBlock
 62
     0
100
AcDbPoint
 10
1897.588567644383
 20
2888.346048433021
 30
0.0
  0
POINT
  5
7F1A
330
81B3
100
AcDbEntity
  8
DEFPOINTS
  6
ByBlock
 62
     0
100
AcDbPoint
 10
1197.588567644385
 20
3373.346048433019
 30
0.0
  0
POINT
  5
7F1B
330
81B3
100
AcDbEntity
  8
DEFPOINTS
  6
ByBlock
 62
     0
100
AcDbPoint
 10
1197.588567644385
 20
3674.978102837189
 30
0.0
  0
ENDBLK
  5
7F1C
330
81B3
100
AcDbEntity
  8
0
100
AcDbBlockEnd
  0
BLOCK
  5
81B6
330
81B5
100
AcDbEntity
  8
0
100
AcDbBlockBegin
  2
*D15
 70
     1
 10
0.0
 20
0.0
 30
0.0
  3
*D15
  1

  0
LINE
  5
7F1E
330
81B5
100
AcDbEntity
  8
0
  6
ByBlock
100
AcDbLine
 10
272.5885676443848
 20
2218.346048433017
 30
0.0
 11
-28.80864049687261
 21
2218.346048433017
 31
0.0
  0
LINE
  5
7F1F
330
81B5
100
AcDbEntity
  8
0
  6
ByBlock
100
AcDbLine
 10
272.5885676443848
 20
3373.346048433019
 30
0.0
 11
-28.80864049687261
 21
3373.346048433019
 31
0.0
  0
LINE
  5
7F20
330
81B5
100
AcDbEntity
  8
0
  6
ByBlock
100
AcDbLine
 10
-3.808640496872611
 20
2268.346048433018
 30
0.0
 11
-3.808640496872611
 21
3323.346048433018
 31
0.0
  0
INSERT
  5
7F21
330
81B5
100
AcDbEntity
  8
0
  6
ByBlock
100
AcDbBlockReference
  2
_OPEN
 10
-3.808640496872611
 20
2218.346048433017
 30
0.0
 41
50.0
 42
50.0
 43
50.0
 50
270.0
  0
INSERT
  5
7F22
330
81B5
100
AcDbEntity
  8
0
  6
ByBlock
100
AcDbBlockReference
  2
_OPEN
 10
-3.808640496872611
 20
3373.346048433019
 30
0.0
 41
50.0
 42
50.0
 43
50.0
 50
90.0
  0
TEXT
  5
7F23
330
81B5
100
AcDbEntity
  8
3
100
AcDbText
 10
-16.3086404968726
 20
2677.988905575876
 30
0.0
 40
75.0
  1
1155
 50
90.0
100
AcDbText
  0
POINT
  5
7F24
330
81B5
100
AcDbEntity
  8
DEFPOINTS
  6
ByBlock
 62
     0
100
AcDbPoint
 10
297.5885676443848
 20
2218.346048433017
 30
0.0
  0
POINT
  5
7F25
330
81B5
100
AcDbEntity
  8
DEFPOINTS
  6
ByBlock
 62
     0
100
AcDbPoint
 10
297.5885676443848
 20
3373.346048433019
 30
0.0
  0
POINT
  5
7F26
330
81B5
100
AcDbEntity
  8
DEFPOINTS
  6
ByBlock
 62
     0
100
AcDbPoint
 10
-3.808640496872611
 20
3373.346048433019
 30
0.0
  0
ENDBLK
  5
7F27
330
81B5
100
AcDbEntity
  8
0
100
AcDbBlockEnd
  0
BLOCK
  5
81B8
330
81B7
100
AcDbEntity
  8
0
100
AcDbBlockBegin
  2
*D16
 70
     1
 10
0.0
 20
0.0
 30
0.0
  3
*D16
  1

  0
LINE
  5
7F29
330
81B7
100
AcDbEntity
  8
0
  6
ByBlock
100
AcDbLine
 10
247.5885676443849
 20
533.7669540473683
 30
0.0
 11
247.5885676443849
 21
1391.903743581282
 31
0.0
  0
LINE
  5
7F2A
330
81B7
100
AcDbEntity
  8
0
  6
ByBlock
100
AcDbLine
 10
1897.588567644383
 20
-236.406521778601
 30
0.0
 11
1897.588567644383
 21
1391.903743581282
 31
0.0
  0
LINE
  5
7F2B
330
81B7
100
AcDbEntity
  8
0
  6
ByBlock
100
AcDbLine
 10
297.5885676443848
 20
1366.903743581282
 30
0.0
 11
1847.588567644384
 21
1366.903743581282
 31
0.0
  0
INSERT
  5
7F2C
330
81B7
100
AcDbEntity
  8
0
  6
ByBlock
100
AcDbBlockReference
  2
_OPEN
 10
247.5885676443849
 20
1366.903743581282
 30
0.0
 41
50.0
 42
50.0
 43
50.0
 50
180.0
  0
INSERT
  5
7F2D
330
81B7
100
AcDbEntity
  8
0
  6
ByBlock
100
AcDbBlockReference
  2
_OPEN
 10
1897.588567644383
 20
1366.903743581282
 30
0.0
 41
50.0
 42
50.0
 43
50.0
  0
TEXT
  5
7F2E
330
81B7
100
AcDbEntity
  8
3
100
AcDbText
 10
947.5885676443848
 20
1379.403743581282
 30
0.0
 40
75.0
  1
1650
100
AcDbText
  0
POINT
  5
7F2F
330
81B7
100
AcDbEntity
  8
DEFPOINTS
  6
ByBlock
 62
     0
100
AcDbPoint
 10
247.5885676443849
 20
508.7669540473684
 30
0.0
  0
POINT
  5
7F30
330
81B7
100
AcDbEntity
  8
DEFPOINTS
  6
ByBlock
 62
     0
100
AcDbPoint
 10
1897.588567644383
 20
-261.406521778601
 30
0.0
  0
POINT
  5
7F31
330
81B7
100
AcDbEntity
  8
DEFPOINTS
  6
ByBlock
 62
     0
100
AcDbPoint
 10
1897.588567644383
 20
1366.903743581282
 30
0.0
  0
ENDBLK
  5
7F32
330
81B7
100
AcDbEntity
  8
0
100
AcDbBlockEnd
  0
BLOCK
  5
81BA
330
81B9
100
AcDbEntity
  8
0
100
AcDbBlockBegin
  2
*D17
 70
     1
 10
0.0
 20
0.0
 30
0.0
  3
*D17
  1

  0
LINE
  5
7F34
330
81B9
100
AcDbEntity
  8
0
  6
ByBlock
100
AcDbLine
 10
247.588567644384
 20
546.593478221399
 30
0.0
 11
247.588567644384
 21
1193.481924814399
 31
0.0
  0
LINE
  5
7F35
330
81B9
100
AcDbEntity
  8
0
  6
ByBlock
100
AcDbLine
 10
747.5885676443851
 20
1101.189008982398
 30
0.0
 11
747.5885676443851
 21
1193.481924814399
 31
0.0
  0
LINE
  5
7F36
330
81B9
100
AcDbEntity
  8
0
  6
ByBlock
100
AcDbLine
 10
297.588567644384
 20
1168.481924814399
 30
0.0
 11
697.5885676443851
 21
1168.481924814399
 31
0.0
  0
INSERT
  5
7F37
330
81B9
100
AcDbEntity
  8
0
  6
ByBlock
100
AcDbBlockReference
  2
_OPEN
 10
247.588567644384
 20
1168.481924814399
 30
0.0
 41
50.0
 42
50.0
 43
50.0
 50
180.0
  0
INSERT
  5
7F38
330
81B9
100
AcDbEntity
  8
0
  6
ByBlock
100
AcDbBlockReference
  2
_OPEN
 10
747.5885676443851
 20
1168.481924814399
 30
0.0
 41
50.0
 42
50.0
 43
50.0
  0
TEXT
  5
7F39
330
81B9
100
AcDbEntity
  8
3
100
AcDbText
 10
401.1599962158131
 20
1180.981924814399
 30
0.0
 40
75.0
  1
500
100
AcDbText
  0
POINT
  5
7F3A
330
81B9
100
AcDbEntity
  8
DEFPOINTS
  6
ByBlock
 62
     0
100
AcDbPoint
 10
247.588567644384
 20
521.593478221399
 30
0.0
  0
POINT
  5
7F3B
330
81B9
100
AcDbEntity
  8
DEFPOINTS
  6
ByBlock
 62
     0
100
AcDbPoint
 10
747.5885676443851
 20
1076.189008982398
 30
0.0
  0
POINT
  5
7F3C
330
81B9
100
AcDbEntity
  8
DEFPOINTS
  6
ByBlock
 62
     0
100
AcDbPoint
 10
747.5885676443851
 20
1168.481924814399
 30
0.0
  0
ENDBLK
  5
7F3D
330
81B9
100
AcDbEntity
  8
0
100
AcDbBlockEnd
  0
BLOCK
  5
81BC
330
81BB
100
AcDbEntity
  8
0
100
AcDbBlockBegin
  2
*D18
 70
     1
 10
0.0
 20
0.0
 30
0.0
  3
*D18
  1

  0
LINE
  5
80F4
330
81BB
100
AcDbEntity
  8
3
100
AcDbLine
 10
2481.082261213754
 20
2682.41656341729
 30
0.0
 11
2481.082261213754
 21
3395.305010010289
 31
0.0
  0
LINE
  5
80F5
330
81BB
100
AcDbEntity
  8
3
100
AcDbLine
 10
1919.082261213754
 20
3370.30501001029
 30
0.0
 11
2431.082261213755
 21
3370.30501001029
 31
0.0
  0
INSERT
  5
80F6
330
81BB
100
AcDbEntity
  8
3
100
AcDbBlockReference
  2
_OPEN
 10
1869.082261213754
 20
3370.30501001029
 30
0.0
 41
50.0
 42
50.0
 43
50.0
 50
180.0
  0
INSERT
  5
80F7
330
81BB
100
AcDbEntity
  8
3
100
AcDbBlockReference
  2
_OPEN
 10
2481.082261213754
 20
3370.30501001029
 30
0.0
 41
50.0
 42
50.0
 43
50.0
  0
TEXT
  5
8117
330
81BB
100
AcDbEntity
  8
3
100
AcDbText
 10
2025.08
 20
3287.56
 30
0.0
 40
75.0
  1
612
100
AcDbText
  0
POINT
  5
80F9
330
81BB
100
AcDbEntity
  8
DEFPOINTS
 62
     0
100
AcDbPoint
 10
1869.082261213754
 20
3278.01209417829
 30
0.0
  0
POINT
  5
80FA
330
81BB
100
AcDbEntity
  8
DEFPOINTS
 62
     0
100
AcDbPoint
 10
2481.082261213754
 20
2657.416563417289
 30
0.0
  0
POINT
  5
80FB
330
81BB
100
AcDbEntity
  8
DEFPOINTS
 62
     0
100
AcDbPoint
 10
2481.082261213754
 20
3370.30501001029
 30
0.0
  0
ENDBLK
  5
7F47
330
81BB
100
AcDbEntity
  8
0
100
AcDbBlockEnd
  0
BLOCK
  5
81BE
330
81BD
100
AcDbEntity
  8
0
100
AcDbBlockBegin
  2
*D19
 70
     1
 10
0.0
 20
0.0
 30
0.0
  3
*D19
  1

  0
LINE
  5
7F49
330
81BD
100
AcDbEntity
  8
0
  6
ByBlock
100
AcDbLine
 10
775.5885676443847
 20
1014.593478221399
 30
0.0
 11
-243.8716614955283
 21
1014.593478221399
 31
0.0
  0
LINE
  5
7F4A
330
81BD
100
AcDbEntity
  8
0
  6
ByBlock
100
AcDbLine
 10
100.3227288389552
 20
508.5934782213988
 30
0.0
 11
-243.8716614955283
 21
508.5934782213988
 31
0.0
  0
LINE
  5
7F4B
330
81BD
100
AcDbEntity
  8
0
  6
ByBlock
100
AcDbLine
 10
-218.8716614955283
 20
964.5934782213988
 30
0.0
 11
-218.8716614955283
 21
558.5934782213988
 31
0.0
  0
INSERT
  5
7F4C
330
81BD
100
AcDbEntity
  8
0
  6
ByBlock
100
AcDbBlockReference
  2
_OPEN
 10
-218.8716614955283
 20
1014.593478221399
 30
0.0
 41
50.0
 42
50.0
 43
50.0
 50
90.0
  0
INSERT
  5
7F4D
330
81BD
100
AcDbEntity
  8
0
  6
ByBlock
100
AcDbBlockReference
  2
_OPEN
 10
-218.8716614955283
 20
508.5934782213988
 30
0.0
 41
50.0
 42
50.0
 43
50.0
 50
270.0
  0
TEXT
  5
7F4E
330
81BD
100
AcDbEntity
  8
3
100
AcDbText
 10
-231.3716614955283
 20
666.9506210785417
 30
0.0
 40
75.0
  1
506
 50
90.0
100
AcDbText
  0
POINT
  5
7F4F
330
81BD
100
AcDbEntity
  8
DEFPOINTS
  6
ByBlock
 62
     0
100
AcDbPoint
 10
800.5885676443847
 20
1014.593478221399
 30
0.0
  0
POINT
  5
7F50
330
81BD
100
AcDbEntity
  8
DEFPOINTS
  6
ByBlock
 62
     0
100
AcDbPoint
 10
125.3227288389552
 20
508.5934782213988
 30
0.0
  0
POINT
  5
7F51
330
81BD
100
AcDbEntity
  8
DEFPOINTS
  6
ByBlock
 62
     0
100
AcDbPoint
 10
-218.8716614955283
 20
508.5934782213988
 30
0.0
  0
ENDBLK
  5
7F52
330
81BD
100
AcDbEntity
  8
0
100
AcDbBlockEnd
  0
BLOCK
  5
81C0
330
81BF
100
AcDbEntity
  8
0
100
AcDbBlockBegin
  2
*D20
 70
     1
 10
0.0
 20
0.0
 30
0.0
  3
*D20
  1

  0
LINE
  5
80FC
330
81BF
100
AcDbEntity
  8
3
100
AcDbLine
 10
1394.082261213754
 20
1840.416563417289
 30
0.0
 11
877.6220320738413
 21
1840.416563417289
 31
0.0
  0
LINE
  5
80FD
330
81BF
100
AcDbEntity
  8
3
100
AcDbLine
 10
902.6220320738413
 20
2660.41656341729
 30
0.0
 11
902.6220320738413
 21
1890.416563417289
 31
0.0
  0
INSERT
  5
80FE
330
81BF
100
AcDbEntity
  8
3
100
AcDbBlockReference
  2
_OPEN
 10
902.6220320738413
 20
2710.41656341729
 30
0.0
 41
50.0
 42
50.0
 43
50.0
 50
90.0
  0
INSERT
  5
80FF
330
81BF
100
AcDbEntity
  8
3
100
AcDbBlockReference
  2
_OPEN
 10
902.6220320738413
 20
1840.416563417289
 30
0.0
 41
50.0
 42
50.0
 43
50.0
 50
270.0
  0
TEXT
  5
8118
330
81BF
100
AcDbEntity
  8
3
100
AcDbText
 10
702.6219999999999
 20
2142.67
 30
0.0
 40
75.0
  1
870
100
AcDbText
  0
POINT
  5
8101
330
81BF
100
AcDbEntity
  8
DEFPOINTS
 62
     0
100
AcDbPoint
 10
1246.816422408324
 20
2710.41656341729
 30
0.0
  0
POINT
  5
8102
330
81BF
100
AcDbEntity
  8
DEFPOINTS
 62
     0
100
AcDbPoint
 10
1419.082261213754
 20
1840.416563417289
 30
0.0
  0
POINT
  5
8103
330
81BF
100
AcDbEntity
  8
DEFPOINTS
 62
     0
100
AcDbPoint
 10
902.6220320738413
 20
1840.416563417289
 30
0.0
  0
ENDBLK
  5
7F5C
330
81BF
100
AcDbEntity
  8
0
100
AcDbBlockEnd
  0
BLOCK
  5
81C2
330
81C1
100
AcDbEntity
  8
0
100
AcDbBlockBegin
  2
*D21
 70
     1
 10
0.0
 20
0.0
 30
0.0
  3
*D21
  1

  0
LINE
  5
8104
330
81C1
100
AcDbEntity
  8
3
 62
     0
100
AcDbLine
 10
1406.582261213754
 20
1745.416563417289
 30
0.0
 11
877.6220320738413
 21
1745.416563417289
 31
0.0
  0
LINE
  5
8105
330
81C1
100
AcDbEntity
  8
3
 62
     0
100
AcDbLine
 10
1406.582261213754
 20
1645.416563417288
 30
0.0
 11
877.6220320738413
 21
1645.416563417288
 31
0.0
  0
LINE
  5
8106
330
81C1
100
AcDbEntity
  8
3
 62
     0
100
AcDbLine
 10
902.6220320738413
 20
1795.416563417289
 30
0.0
 11
902.6220320738413
 21
1845.416563417289
 31
0.0
  0
LINE
  5
8107
330
81C1
100
AcDbEntity
  8
3
 62
     0
100
AcDbLine
 10
902.6220320738413
 20
1595.416563417289
 30
0.0
 11
902.6220320738413
 21
1316.84513484586
 31
0.0
  0
LINE
  5
8108
330
81C1
100
AcDbEntity
  8
3
 62
     0
100
AcDbLine
 10
902.6220320738413
 20
1745.416563417289
 30
0.0
 11
902.6220320738413
 21
1645.416563417288
 31
0.0
  0
INSERT
  5
8109
330
81C1
100
AcDbEntity
  8
3
 62
     0
100
AcDbBlockReference
  2
_DOT
 10
902.6220320738413
 20
1745.416563417289
 30
0.0
 41
50.0
 42
50.0
 43
50.0
 50
270.0
  0
INSERT
  5
810A
330
81C1
100
AcDbEntity
  8
3
 62
     0
100
AcDbBlockReference
  2
_OPEN
 10
902.6220320738413
 20
1645.416563417288
 30
0.0
 41
50.0
 42
50.0
 43
50.0
 50
90.0
  0
TEXT
  5
8119
330
81C1
100
AcDbEntity
  8
3
 62
     0
100
AcDbText
 10
690.1219999999999
 20
1298.38
 30
0.0
 40
75.0
  1
100
100
AcDbText
  0
POINT
  5
810C
330
81C1
100
AcDbEntity
  8
DEFPOINTS
 62
     0
100
AcDbPoint
 10
1419.082261213754
 20
1745.416563417289
 30
0.0
  0
POINT
  5
810D
330
81C1
100
AcDbEntity
  8
DEFPOINTS
 62
     0
100
AcDbPoint
 10
1419.082261213754
 20
1645.416563417288
 30
0.0
  0
POINT
  5
810E
330
81C1
100
AcDbEntity
  8
DEFPOINTS
 62
     0
100
AcDbPoint
 10
902.6220320738413
 20
1645.416563417288
 30
0.0
  0
ENDBLK
  5
7FE8
330
81C1
100
AcDbEntity
  8
0
100
AcDbBlockEnd
  0
BLOCK
  5
81C4
330
81C3
100
AcDbEntity
  8
0
100
AcDbBlockBegin
  2
_DOT
 70
     0
 10
0.0
 20
0.0
 30
0.0
  3
_DOT
  1

  0
LWPOLYLINE
  5
7FEB
330
81C3
100
AcDbEntity
  8
0
  6
ByBlock
 62
     0
100
AcDbPolyline
 90
        2
 70
     1
 43
0.25
 10
-0.125
 20
0.0
 42
1.0
 10
0.125
 20
0.0
 42
1.0
  0
LINE
  5
7FEF
330
81C3
100
AcDbEntity
  8
0
  6
ByBlock
 62
     0
100
AcDbLine
 10
-0.25
 20
0.0
 30
0.0
 11
-1.0
 21
0.0
 31
0.0
  0
ENDBLK
  5
7FCE
330
81C3
100
AcDbEntity
  8
0
100
AcDbBlockEnd
  0
BLOCK
  5
81C6
330
81C5
100
AcDbEntity
  8
0
100
AcDbBlockBegin
  2
*D23
 70
     1
 10
0.0
 20
0.0
 30
0.0
  3
*D23
  1

  0
LINE
  5
8027
330
81C5
100
AcDbEntity
  8
0
  6
ByBlock
 62
     0
100
AcDbLine
 10
1419.082261213754
 20
1688.416563417289
 30
0.0
 11
1419.082261213754
 21
1527.588342708843
 31
0.0
  0
LINE
  5
8028
330
81C5
100
AcDbEntity
  8
0
  6
ByBlock
 62
     0
100
AcDbLine
 10
1869.082261213754
 20
1688.416563417289
 30
0.0
 11
1869.082261213754
 21
1527.588342708843
 31
0.0
  0
LINE
  5
8029
330
81C5
100
AcDbEntity
  8
0
  6
ByBlock
 62
     0
100
AcDbLine
 10
1469.082261213754
 20
1552.588342708842
 30
0.0
 11
1819.082261213754
 21
1552.588342708842
 31
0.0
  0
INSERT
  5
802A
330
81C5
100
AcDbEntity
  8
0
  6
ByBlock
 62
     0
100
AcDbBlockReference
  2
_OPEN
 10
1419.082261213754
 20
1552.588342708842
 30
0.0
 41
50.0
 42
50.0
 43
50.0
 50
180.0
  0
INSERT
  5
802B
330
81C5
100
AcDbEntity
  8
0
  6
ByBlock
 62
     0
100
AcDbBlockReference
  2
_OPEN
 10
1869.082261213754
 20
1552.588342708842
 30
0.0
 41
50.0
 42
50.0
 43
50.0
  0
TEXT
  5
802C
330
81C5
100
AcDbEntity
  8
3
 62
     0
100
AcDbText
 10
1547.653689785183
 20
1577.588342708843
 30
0.0
 40
75.0
  1
450
100
AcDbText
  0
POINT
  5
802D
330
81C5
100
AcDbEntity
  8
DEFPOINTS
  6
ByBlock
 62
     0
100
AcDbPoint
 10
1419.082261213754
 20
1713.416563417289
 30
0.0
  0
POINT
  5
802E
330
81C5
100
AcDbEntity
  8
DEFPOINTS
  6
ByBlock
 62
     0
100
AcDbPoint
 10
1869.082261213754
 20
1713.416563417289
 30
0.0
  0
POINT
  5
802F
330
81C5
100
AcDbEntity
  8
DEFPOINTS
  6
ByBlock
 62
     0
100
AcDbPoint
 10
1869.082261213754
 20
1552.588342708842
 30
0.0
  0
ENDBLK
  5
8030
330
81C5
100
AcDbEntity
  8
0
100
AcDbBlockEnd
  0
BLOCK
  5
81C8
330
81C7
100
AcDbEntity
  8
0
100
AcDbBlockBegin
  2
*D24
 70
     1
 10
0.0
 20
0.0
 30
0.0
  3
*D24
  1

  0
LINE
  5
8034
330
81C7
100
AcDbEntity
  8
0
  6
ByBlock
 62
     0
100
AcDbLine
 10
1869.082261213754
 20
1688.416563417289
 30
0.0
 11
1869.082261213754
 21
1527.588342708843
 31
0.0
  0
LINE
  5
8035
330
81C7
100
AcDbEntity
  8
0
  6
ByBlock
 62
     0
100
AcDbLine
 10
3019.082261213755
 20
1688.416563417289
 30
0.0
 11
3019.082261213755
 21
1527.588342708843
 31
0.0
  0
LINE
  5
8036
330
81C7
100
AcDbEntity
  8
0
  6
ByBlock
 62
     0
100
AcDbLine
 10
1919.082261213754
 20
1552.588342708842
 30
0.0
 11
2969.082261213755
 21
1552.588342708842
 31
0.0
  0
INSERT
  5
8037
330
81C7
100
AcDbEntity
  8
0
  6
ByBlock
 62
     0
100
AcDbBlockReference
  2
_OPEN
 10
1869.082261213754
 20
1552.588342708842
 30
0.0
 41
50.0
 42
50.0
 43
50.0
 50
180.0
  0
INSERT
  5
8038
330
81C7
100
AcDbEntity
  8
0
  6
ByBlock
 62
     0
100
AcDbBlockReference
  2
_OPEN
 10
3019.082261213755
 20
1552.588342708842
 30
0.0
 41
50.0
 42
50.0
 43
50.0
  0
TEXT
  5
8039
330
81C7
100
AcDbEntity
  8
3
 62
     0
100
AcDbText
 10
2326.225118356612
 20
1577.588342708843
 30
0.0
 40
75.0
  1
1150
100
AcDbText
  0
POINT
  5
803A
330
81C7
100
AcDbEntity
  8
DEFPOINTS
  6
ByBlock
 62
     0
100
AcDbPoint
 10
1869.082261213754
 20
1713.416563417289
 30
0.0
  0
POINT
  5
803B
330
81C7
100
AcDbEntity
  8
DEFPOINTS
  6
ByBlock
 62
     0
100
AcDbPoint
 10
3019.082261213755
 20
1713.416563417289
 30
0.0
  0
POINT
  5
803C
330
81C7
100
AcDbEntity
  8
DEFPOINTS
  6
ByBlock
 62
     0
100
AcDbPoint
 10
3019.082261213755
 20
1552.588342708842
 30
0.0
  0
ENDBLK
  5
803D
330
81C7
100
AcDbEntity
  8
0
100
AcDbBlockEnd
  0
BLOCK
  5
81CA
330
81C9
100
AcDbEntity
  8
0
100
AcDbBlockBegin
  2
*D25
 70
     1
 10
0.0
 20
0.0
 30
0.0
  3
*D25
  1

  0
LINE
  5
8041
330
81C9
100
AcDbEntity
  8
0
  6
ByBlock
 62
     0
100
AcDbLine
 10
3416.091456407331
 20
1688.416563417289
 30
0.0
 11
3416.091456407331
 21
1527.588342708843
 31
0.0
  0
LINE
  5
8042
330
81C9
100
AcDbEntity
  8
0
  6
ByBlock
 62
     0
100
AcDbLine
 10
4068.091456407329
 20
1688.416563417289
 30
0.0
 11
4068.091456407329
 21
1527.588342708843
 31
0.0
  0
LINE
  5
8043
330
81C9
100
AcDbEntity
  8
0
  6
ByBlock
 62
     0
100
AcDbLine
 10
3466.091456407331
 20
1552.588342708842
 30
0.0
 11
4018.091456407328
 21
1552.588342708842
 31
0.0
  0
INSERT
  5
8044
330
81C9
100
AcDbEntity
  8
0
  6
ByBlock
 62
     0
100
AcDbBlockReference
  2
_OPEN
 10
3416.091456407331
 20
1552.588342708842
 30
0.0
 41
50.0
 42
50.0
 43
50.0
 50
180.0
  0
INSERT
  5
8045
330
81C9
100
AcDbEntity
  8
0
  6
ByBlock
 62
     0
100
AcDbBlockReference
  2
_OPEN
 10
4068.091456407329
 20
1552.588342708842
 30
0.0
 41
50.0
 42
50.0
 43
50.0
  0
TEXT
  5
8046
330
81C9
100
AcDbEntity
  8
3
 62
     0
100
AcDbText
 10
3645.662884978758
 20
1577.588342708843
 30
0.0
 40
75.0
  1
652
100
AcDbText
  0
POINT
  5
8047
330
81C9
100
AcDbEntity
  8
DEFPOINTS
  6
ByBlock
 62
     0
100
AcDbPoint
 10
3416.091456407331
 20
1713.416563417289
 30
0.0
  0
POINT
  5
8048
330
81C9
100
AcDbEntity
  8
DEFPOINTS
  6
ByBlock
 62
     0
100
AcDbPoint
 10
4068.091456407329
 20
1713.416563417289
 30
0.0
  0
POINT
  5
8049
330
81C9
100
AcDbEntity
  8
DEFPOINTS
  6
ByBlock
 62
     0
100
AcDbPoint
 10
4068.091456407329
 20
1552.588342708842
 30
0.0
  0
ENDBLK
  5
804A
330
81C9
100
AcDbEntity
  8
0
100
AcDbBlockEnd
  0
BLOCK
  5
81CC
330
81CB
100
AcDbEntity
  8
0
100
AcDbBlockBegin
  2
*D26
 70
     1
 10
0.0
 20
0.0
 30
0.0
  3
*D26
  1

  0
LINE
  5
804E
330
81CB
100
AcDbEntity
  8
0
  6
ByBlock
 62
     0
100
AcDbLine
 10
4068.091456407329
 20
1688.416563417289
 30
0.0
 11
4068.091456407329
 21
1527.588342708843
 31
0.0
  0
LINE
  5
804F
330
81CB
100
AcDbEntity
  8
0
  6
ByBlock
 62
     0
100
AcDbLine
 10
4571.091456407331
 20
1688.416563417289
 30
0.0
 11
4571.091456407331
 21
1527.588342708843
 31
0.0
  0
LINE
  5
8050
330
81CB
100
AcDbEntity
  8
0
  6
ByBlock
 62
     0
100
AcDbLine
 10
4118.09145640733
 20
1552.588342708842
 30
0.0
 11
4521.091456407331
 21
1552.588342708842
 31
0.0
  0
INSERT
  5
8051
330
81CB
100
AcDbEntity
  8
0
  6
ByBlock
 62
     0
100
AcDbBlockReference
  2
_OPEN
 10
4068.091456407329
 20
1552.588342708842
 30
0.0
 41
50.0
 42
50.0
 43
50.0
 50
180.0
  0
INSERT
  5
8052
330
81CB
100
AcDbEntity
  8
0
  6
ByBlock
 62
     0
100
AcDbBlockReference
  2
_OPEN
 10
4571.091456407331
 20
1552.588342708842
 30
0.0
 41
50.0
 42
50.0
 43
50.0
  0
TEXT
  5
8053
330
81CB
100
AcDbEntity
  8
3
 62
     0
100
AcDbText
 10
4223.162884978758
 20
1577.588342708843
 30
0.0
 40
75.0
  1
503
100
AcDbText
  0
POINT
  5
8054
330
81CB
100
AcDbEntity
  8
DEFPOINTS
  6
ByBlock
 62
     0
100
AcDbPoint
 10
4068.091456407329
 20
1713.416563417289
 30
0.0
  0
POINT
  5
8055
330
81CB
100
AcDbEntity
  8
DEFPOINTS
  6
ByBlock
 62
     0
100
AcDbPoint
 10
4571.091456407331
 20
1713.416563417289
 30
0.0
  0
POINT
  5
8056
330
81CB
100
AcDbEntity
  8
DEFPOINTS
  6
ByBlock
 62
     0
100
AcDbPoint
 10
4571.091456407331
 20
1552.588342708842
 30
0.0
  0
ENDBLK
  5
8057
330
81CB
100
AcDbEntity
  8
0
100
AcDbBlockEnd
  0
BLOCK
  5
81CE
330
81CD
100
AcDbEntity
  8
0
100
AcDbBlockBegin
  2
_NONE
 70
     0
 10
0.0
 20
0.0
 30
0.0
  3
_NONE
  1

  0
CIRCLE
  5
805B
330
81CD
100
AcDbEntity
  8
0
  6
ByBlock
 62
     0
100
AcDbCircle
 10
0.0
 20
0.0
 30
0.0
 40
0.25
  0
ENDBLK
  5
805C
330
81CD
100
AcDbEntity
  8
0
100
AcDbBlockEnd
  0
BLOCK
  5
81D0
330
81CF
100
AcDbEntity
  8
0
100
AcDbBlockBegin
  2
*D28
 70
     1
 10
0.0
 20
0.0
 30
0.0
  3
*D28
  1

  0
LINE
  5
8079
330
81CF
100
AcDbEntity
  8
0
  6
ByBlock
 62
     0
100
AcDbLine
 10
903.0794780960496
 20
1745.416563417289
 30
0.0
 11
903.0794780960496
 21
1840.416563417289
 31
0.0
  0
TEXT
  5
807A
330
81CF
100
AcDbEntity
  8
3
 62
     0
100
AcDbText
 10
808.4366209531925
 20
1683.987991988718
 30
0.0
 40
75.0
  1
(95)
 50
90.0
100
AcDbText
  0
POINT
  5
807B
330
81CF
100
AcDbEntity
  8
DEFPOINTS
  6
ByBlock
 62
     0
100
AcDbPoint
 10
1419.082261213754
 20
1745.416563417289
 30
0.0
  0
POINT
  5
807C
330
81CF
100
AcDbEntity
  8
DEFPOINTS
  6
ByBlock
 62
     0
100
AcDbPoint
 10
1419.082261213754
 20
1840.416563417289
 30
0.0
  0
POINT
  5
807D
330
81CF
100
AcDbEntity
  8
DEFPOINTS
  6
ByBlock
 62
     0
100
AcDbPoint
 10
903.0794780960496
 20
1840.416563417289
 30
0.0
  0
ENDBLK
  5
807E
330
81CF
100
AcDbEntity
  8
0
100
AcDbBlockEnd
  0
BLOCK
  5
81D2
330
81D1
100
AcDbEntity
  8
0
100
AcDbBlockBegin
  2
*D29
 70
     1
 10
0.0
 20
0.0
 30
0.0
  3
*D29
  1

  0
LINE
  5
8082
330
81D1
100
AcDbEntity
  8
0
  6
ByBlock
 62
     0
100
AcDbLine
 10
1394.082261213754
 20
1645.416563417288
 30
0.0
 11
660.4547568389789
 21
1645.416563417288
 31
0.0
  0
LINE
  5
8083
330
81D1
100
AcDbEntity
  8
0
  6
ByBlock
 62
     0
100
AcDbLine
 10
1872.082261213754
 20
3216.416563417289
 30
0.0
 11
660.4547568389789
 21
3216.416563417289
 31
0.0
  0
LINE
  5
8084
330
81D1
100
AcDbEntity
  8
0
  6
ByBlock
 62
     0
100
AcDbLine
 10
685.4547568389789
 20
1695.416563417289
 30
0.0
 11
685.4547568389789
 21
3166.416563417289
 31
0.0
  0
INSERT
  5
8085
330
81D1
100
AcDbEntity
  8
0
  6
ByBlock
 62
     0
100
AcDbBlockReference
  2
_OPEN
 10
685.4547568389789
 20
1645.416563417288
 30
0.0
 41
50.0
 42
50.0
 43
50.0
 50
270.0
  0
INSERT
  5
8086
330
81D1
100
AcDbEntity
  8
0
  6
ByBlock
 62
     0
100
AcDbBlockReference
  2
_OPEN
 10
685.4547568389789
 20
3216.416563417289
 30
0.0
 41
50.0
 42
50.0
 43
50.0
 50
90.0
  0
TEXT
  5
8087
330
81D1
100
AcDbEntity
  8
3
 62
     0
100
AcDbText
 10
628.3118996961217
 20
2264.845134845861
 30
0.0
 40
75.0
  1
(1571)
 50
90.0
100
AcDbText
  0
POINT
  5
8088
330
81D1
100
AcDbEntity
  8
DEFPOINTS
  6
ByBlock
 62
     0
100
AcDbPoint
 10
1419.082261213754
 20
1645.416563417288
 30
0.0
  0
POINT
  5
8089
330
81D1
100
AcDbEntity
  8
DEFPOINTS
  6
ByBlock
 62
     0
100
AcDbPoint
 10
1897.082261213754
 20
3216.416563417289
 30
0.0
  0
POINT
  5
808A
330
81D1
100
AcDbEntity
  8
DEFPOINTS
  6
ByBlock
 62
     0
100
AcDbPoint
 10
685.4547568389789
 20
3216.416563417289
 30
0.0
  0
ENDBLK
  5
808B
330
81D1
100
AcDbEntity
  8
0
100
AcDbBlockEnd
  0
BLOCK
  5
826B
330
826A
100
AcDbEntity
  8
0
100
AcDbBlockBegin
  2
*D31
 70
     1
 10
0.0
 20
0.0
 30
0.0
  3
*D31
  1

  0
LINE
  5
8295
330
826A
100
AcDbEntity
  8
3
 62
     0
370
    -2
100
AcDbLine
 10
3228.091456407333
 20
3015.416563417289
 30
0.0
 11
3228.091456407333
 21
3594.726686055598
 31
0.0
  0
LINE
  5
8296
330
826A
100
AcDbEntity
  8
3
 62
     0
370
    -2
100
AcDbLine
 10
4068.091456407331
 20
3515.863348091053
 30
0.0
 11
4068.091456407331
 21
3594.726686055598
 31
0.0
  0
LINE
  5
8297
330
826A
100
AcDbEntity
  8
3
 62
     0
370
    -2
100
AcDbLine
 10
3278.091456407333
 20
3569.726686055598
 30
0.0
 11
4018.091456407331
 21
3569.726686055598
 31
0.0
  0
INSERT
  5
8298
330
826A
100
AcDbEntity
  8
3
 62
     0
370
    -2
100
AcDbBlockReference
  2
_OPEN
 10
3228.091456407333
 20
3569.726686055598
 30
0.0
 41
50.0
 42
50.0
 43
50.0
 50
180.0
  0
INSERT
  5
8299
330
826A
100
AcDbEntity
  8
3
 62
     0
370
    -2
100
AcDbBlockReference
  2
_OPEN
 10
4068.091456407331
 20
3569.726686055598
 30
0.0
 41
50.0
 42
50.0
 43
50.0
  0
MTEXT
  5
829A
330
826A
100
AcDbEntity
  8
3
 62
     0
100
AcDbMText
 10
3648.091456407332
 20
3651.869543198455
 30
0.0
 40
75.0
 41
0.0
 71
     5
 72
     1
  1
\A1;(840)
 73
     1
 44
1.0
1001
ACAD
1000
MTEXTBEGIN
1070
    73
1070
     1
1070
    44
1040
1.0
1070
    74
1070
     0
1000
MTEXTEND
  0
POINT
  5
829B
330
826A
100
AcDbEntity
  8
DEFPOINTS
 62
     0
100
AcDbPoint
 10
3228.091456407333
 20
2990.416563417289
 30
0.0
  0
POINT
  5
829C
330
826A
100
AcDbEntity
  8
DEFPOINTS
 62
     0
100
AcDbPoint
 10
4068.091456407331
 20
3490.863348091053
 30
0.0
  0
POINT
  5
829D
330
826A
100
AcDbEntity
  8
DEFPOINTS
 62
     0
100
AcDbPoint
 10
4068.091456407331
 20
3569.726686055598
 30
0.0
  0
ENDBLK
  5
826C
330
826A
100
AcDbEntity
  8
0
100
AcDbBlockEnd
  0
BLOCK
  5
8278
330
8277
100
AcDbEntity
  8
0
100
AcDbBlockBegin
  2
*D32
 70
     1
 10
0.0
 20
0.0
 30
0.0
  3
*D32
  1

  0
LINE
  5
829E
330
8277
100
AcDbEntity
  8
3
 62
     0
370
    -2
100
AcDbLine
 10
4068.091456407331
 20
3515.863348091053
 30
0.0
 11
4068.091456407331
 21
3594.726686055598
 31
0.0
  0
LINE
  5
829F
330
8277
100
AcDbEntity
  8
3
 62
     0
370
    -2
100
AcDbLine
 10
4628.091456407331
 20
2710.21656341729
 30
0.0
 11
4628.091456407331
 21
3594.726686055598
 31
0.0
  0
LINE
  5
82A0
330
8277
100
AcDbEntity
  8
3
 62
     0
370
    -2
100
AcDbLine
 10
4118.091456407331
 20
3569.726686055598
 30
0.0
 11
4578.091456407331
 21
3569.726686055598
 31
0.0
  0
INSERT
  5
82A1
330
8277
100
AcDbEntity
  8
3
 62
     0
370
    -2
100
AcDbBlockReference
  2
_OPEN
 10
4068.091456407331
 20
3569.726686055598
 30
0.0
 41
50.0
 42
50.0
 43
50.0
 50
180.0
  0
INSERT
  5
82A2
330
8277
100
AcDbEntity
  8
3
 62
     0
370
    -2
100
AcDbBlockReference
  2
_OPEN
 10
4628.091456407331
 20
3569.726686055598
 30
0.0
 41
50.0
 42
50.0
 43
50.0
  0
MTEXT
  5
82A3
330
8277
100
AcDbEntity
  8
3
 62
     0
100
AcDbMText
 10
4348.09145640733
 20
3651.869543198455
 30
0.0
 40
75.0
 41
0.0
 71
     5
 72
     1
  1
\A1;(560)
 73
     1
 44
1.0
1001
ACAD
1000
MTEXTBEGIN
1070
    73
1070
     1
1070
    44
1040
1.0
1070
    74
1070
     0
1000
MTEXTEND
  0
POINT
  5
82A4
330
8277
100
AcDbEntity
  8
DEFPOINTS
 62
     0
100
AcDbPoint
 10
4068.091456407331
 20
3490.863348091053
 30
0.0
  0
POINT
  5
82A5
330
8277
100
AcDbEntity
  8
DEFPOINTS
 62
     0
100
AcDbPoint
 10
4628.091456407331
 20
2685.21656341729
 30
0.0
  0
POINT
  5
82A6
330
8277
100
AcDbEntity
  8
DEFPOINTS
 62
     0
100
AcDbPoint
 10
4628.091456407331
 20
3569.726686055598
 30
0.0
  0
ENDBLK
  5
8279
330
8277
100
AcDbEntity
  8
0
100
AcDbBlockEnd
  0
BLOCK
  5
82AC
330
82AB
100
AcDbEntity
  8
0
100
AcDbBlockBegin
  2
*D33
 70
     1
 10
0.0
 20
0.0
 30
0.0
  3
*D33
  1

  0
LINE
  5
82AE
330
82AB
100
AcDbEntity
  8
3
 62
     0
370
    -2
100
AcDbLine
 10
1419.082261213754
 20
4078.532285537254
 30
0.0
 11
1419.082261213754
 21
3743.698824000985
 31
0.0
  0
LINE
  5
82AF
330
82AB
100
AcDbEntity
  8
3
 62
     0
370
    -2
100
AcDbLine
 10
3019.082261213755
 20
4078.532285537256
 30
0.0
 11
3019.082261213755
 21
3743.698824000985
 31
0.0
  0
LINE
  5
82B0
330
82AB
100
AcDbEntity
  8
3
 62
     0
370
    -2
100
AcDbLine
 10
1469.082261213754
 20
3768.698824000985
 30
0.0
 11
2969.082261213755
 21
3768.698824000985
 31
0.0
  0
INSERT
  5
82B1
330
82AB
100
AcDbEntity
  8
3
 62
     0
370
    -2
100
AcDbBlockReference
  2
_OPEN
 10
1419.082261213754
 20
3768.698824000985
 30
0.0
 41
50.0
 42
50.0
 43
50.0
 50
180.0
  0
INSERT
  5
82B2
330
82AB
100
AcDbEntity
  8
3
 62
     0
370
    -2
100
AcDbBlockReference
  2
_OPEN
 10
3019.082261213755
 20
3768.698824000985
 30
0.0
 41
50.0
 42
50.0
 43
50.0
  0
MTEXT
  5
82B3
330
82AB
100
AcDbEntity
  8
3
 62
     0
100
AcDbMText
 10
2219.082261213754
 20
3831.198824000985
 30
0.0
 40
75.0
 41
0.0
 71
     5
 72
     1
  1
\A1;1600
 73
     1
 44
1.0
1001
ACAD
1000
MTEXTBEGIN
1070
    73
1070
     1
1070
    44
1040
1.0
1070
    74
1070
     0
1000
MTEXTEND
  0
POINT
  5
82B4
330
82AB
100
AcDbEntity
  8
DEFPOINTS
 62
     0
100
AcDbPoint
 10
1419.082261213754
 20
4103.532285537254
 30
0.0
  0
POINT
  5
82B5
330
82AB
100
AcDbEntity
  8
DEFPOINTS
 62
     0
100
AcDbPoint
 10
3019.082261213755
 20
4103.532285537256
 30
0.0
  0
POINT
  5
82B6
330
82AB
100
AcDbEntity
  8
DEFPOINTS
 62
     0
100
AcDbPoint
 10
3019.082261213755
 20
3768.698824000985
 30
0.0
  0
ENDBLK
  5
82AD
330
82AB
100
AcDbEntity
  8
0
100
AcDbBlockEnd
  0
BLOCK
  5
82B8
330
82B7
100
AcDbEntity
  8
0
100
AcDbBlockBegin
  2
*D34
 70
     1
 10
0.0
 20
0.0
 30
0.0
  3
*D34
  1

  0
LINE
  5
82BA
330
82B7
100
AcDbEntity
  8
3
 62
     0
370
    -2
100
AcDbLine
 10
1419.082261213754
 20
1635.416563417289
 30
0.0
 11
1419.082261213754
 21
1495.088342708843
 31
0.0
  0
LINE
  5
82BB
330
82B7
100
AcDbEntity
  8
3
 62
     0
370
    -2
100
AcDbLine
 10
1869.082261213754
 20
1635.416563417289
 30
0.0
 11
1869.082261213754
 21
1495.088342708843
 31
0.0
  0
LINE
  5
82BC
330
82B7
100
AcDbEntity
  8
3
 62
     0
370
    -2
100
AcDbLine
 10
1423.582261213754
 20
1499.588342708842
 30
0.0
 11
1636.04654692804
 21
1499.588342708842
 31
0.0
  0
LINE
  5
82BD
330
82B7
100
AcDbEntity
  8
3
 62
     0
370
    -2
100
AcDbLine
 10
1864.582261213754
 20
1499.588342708842
 30
0.0
 11
1652.117975499468
 21
1499.588342708842
 31
0.0
  0
SOLID
  5
82BE
330
82B7
100
AcDbEntity
  8
3
 62
     0
100
AcDbTrace
 10
1423.582261213754
 20
1500.338342708842
 30
0.0
 11
1423.582261213754
 21
1498.838342708842
 31
0.0
 12
1419.082261213754
 22
1499.588342708842
 32
0.0
 13
1419.082261213754
 23
1499.588342708842
 33
0.0
  0
SOLID
  5
82BF
330
82B7
100
AcDbEntity
  8
3
 62
     0
100
AcDbTrace
 10
1864.582261213754
 20
1500.338342708842
 30
0.0
 11
1864.582261213754
 21
1498.838342708842
 31
0.0
 12
1869.082261213754
 22
1499.588342708842
 32
0.0
 13
1869.082261213754
 23
1499.588342708842
 33
0.0
  0
MTEXT
  5
82C0
330
82B7
100
AcDbEntity
  8
3
 62
     0
100
AcDbMText
 10
1644.082261213754
 20
1499.588342708842
 30
0.0
 40
4.5
 41
0.0
 71
     5
 72
     1
  1
\A1;450
 73
     1
 44
1.0
1001
ACAD
1000
MTEXTBEGIN
1070
    73
1070
     1
1070
    44
1040
1.0
1070
    74
1070
     0
1000
MTEXTEND
  0
POINT
  5
82C1
330
82B7
100
AcDbEntity
  8
DEFPOINTS
 62
     0
100
AcDbPoint
 10
1419.082261213754
 20
1660.416563417289
 30
0.0
  0
POINT
  5
82C2
330
82B7
100
AcDbEntity
  8
DEFPOINTS
 62
     0
100
AcDbPoint
 10
1869.082261213754
 20
1660.416563417289
 30
0.0
  0
POINT
  5
82C3
330
82B7
100
AcDbEntity
  8
DEFPOINTS
 62
     0
100
AcDbPoint
 10
1869.082261213754
 20
1499.588342708842
 30
0.0
  0
ENDBLK
  5
82B9
330
82B7
100
AcDbEntity
  8
0
100
AcDbBlockEnd
  0
BLOCK
  5
82C5
330
82C4
100
AcDbEntity
  8
0
100
AcDbBlockBegin
  2
*D35
 70
     1
 10
0.0
 20
0.0
 30
0.0
  3
*D35
  1

  0
LINE
  5
82C7
330
82C4
100
AcDbEntity
  8
3
 62
     0
370
    -2
100
AcDbLine
 10
1869.082261213754
 20
1635.416563417289
 30
0.0
 11
1869.082261213754
 21
1495.088342708843
 31
0.0
  0
LINE
  5
82C8
330
82C4
100
AcDbEntity
  8
3
 62
     0
370
    -2
100
AcDbLine
 10
3019.082261213755
 20
1635.416563417289
 30
0.0
 11
3019.082261213755
 21
1495.088342708843
 31
0.0
  0
LINE
  5
82C9
330
82C4
100
AcDbEntity
  8
3
 62
     0
370
    -2
100
AcDbLine
 10
1873.582261213754
 20
1499.588342708842
 30
0.0
 11
2434.760832642326
 21
1499.588342708842
 31
0.0
  0
LINE
  5
82CA
330
82C4
100
AcDbEntity
  8
3
 62
     0
370
    -2
100
AcDbLine
 10
3014.582261213755
 20
1499.588342708842
 30
0.0
 11
2453.403689785183
 21
1499.588342708842
 31
0.0
  0
SOLID
  5
82CB
330
82C4
100
AcDbEntity
  8
3
 62
     0
100
AcDbTrace
 10
1873.582261213754
 20
1500.338342708842
 30
0.0
 11
1873.582261213754
 21
1498.838342708842
 31
0.0
 12
1869.082261213754
 22
1499.588342708842
 32
0.0
 13
1869.082261213754
 23
1499.588342708842
 33
0.0
  0
SOLID
  5
82CC
330
82C4
100
AcDbEntity
  8
3
 62
     0
100
AcDbTrace
 10
3014.582261213755
 20
1500.338342708842
 30
0.0
 11
3014.582261213755
 21
1498.838342708842
 31
0.0
 12
3019.082261213755
 22
1499.588342708842
 32
0.0
 13
3019.082261213755
 23
1499.588342708842
 33
0.0
  0
MTEXT
  5
82CD
330
82C4
100
AcDbEntity
  8
3
 62
     0
100
AcDbMText
 10
2444.082261213754
 20
1499.588342708842
 30
0.0
 40
4.5
 41
0.0
 71
     5
 72
     1
  1
\A1;1150
 73
     1
 44
1.0
1001
ACAD
1000
MTEXTBEGIN
1070
    73
1070
     1
1070
    44
1040
1.0
1070
    74
1070
     0
1000
MTEXTEND
  0
POINT
  5
82CE
330
82C4
100
AcDbEntity
  8
DEFPOINTS
 62
     0
100
AcDbPoint
 10
1869.082261213754
 20
1660.416563417289
 30
0.0
  0
POINT
  5
82CF
330
82C4
100
AcDbEntity
  8
DEFPOINTS
 62
     0
100
AcDbPoint
 10
3019.082261213755
 20
1660.416563417289
 30
0.0
  0
POINT
  5
82D0
330
82C4
100
AcDbEntity
  8
DEFPOINTS
 62
     0
100
AcDbPoint
 10
3019.082261213755
 20
1499.588342708842
 30
0.0
  0
ENDBLK
  5
82C6
330
82C4
100
AcDbEntity
  8
0
100
AcDbBlockEnd
  0
BLOCK
  5
82D2
330
82D1
100
AcDbEntity
  8
0
100
AcDbBlockBegin
  2
*D36
 70
     1
 10
0.0
 20
0.0
 30
0.0
  3
*D36
  1

  0
LINE
  5
82D4
330
82D1
100
AcDbEntity
  8
3
 62
     0
370
    -2
100
AcDbLine
 10
3416.091456407331
 20
1635.416563417289
 30
0.0
 11
3416.091456407331
 21
1495.088342708843
 31
0.0
  0
LINE
  5
82D5
330
82D1
100
AcDbEntity
  8
3
 62
     0
370
    -2
100
AcDbLine
 10
4068.091456407329
 20
1635.416563417289
 30
0.0
 11
4068.091456407329
 21
1495.088342708843
 31
0.0
  0
LINE
  5
82D6
330
82D1
100
AcDbEntity
  8
3
 62
     0
370
    -2
100
AcDbLine
 10
3420.59145640733
 20
1499.588342708842
 30
0.0
 11
3734.055742121616
 21
1499.588342708842
 31
0.0
  0
LINE
  5
82D7
330
82D1
100
AcDbEntity
  8
3
 62
     0
370
    -2
100
AcDbLine
 10
4063.591456407329
 20
1499.588342708842
 30
0.0
 11
3750.127170693045
 21
1499.588342708842
 31
0.0
  0
SOLID
  5
82D8
330
82D1
100
AcDbEntity
  8
3
 62
     0
100
AcDbTrace
 10
3420.59145640733
 20
1500.338342708842
 30
0.0
 11
3420.59145640733
 21
1498.838342708842
 31
0.0
 12
3416.091456407331
 22
1499.588342708842
 32
0.0
 13
3416.091456407331
 23
1499.588342708842
 33
0.0
  0
SOLID
  5
82D9
330
82D1
100
AcDbEntity
  8
3
 62
     0
100
AcDbTrace
 10
4063.591456407329
 20
1500.338342708842
 30
0.0
 11
4063.591456407329
 21
1498.838342708842
 31
0.0
 12
4068.091456407329
 22
1499.588342708842
 32
0.0
 13
4068.091456407329
 23
1499.588342708842
 33
0.0
  0
MTEXT
  5
82DA
330
82D1
100
AcDbEntity
  8
3
 62
     0
100
AcDbMText
 10
3742.09145640733
 20
1499.588342708842
 30
0.0
 40
4.5
 41
0.0
 71
     5
 72
     1
  1
\A1;652
 73
     1
 44
1.0
1001
ACAD
1000
MTEXTBEGIN
1070
    73
1070
     1
1070
    44
1040
1.0
1070
    74
1070
     0
1000
MTEXTEND
  0
POINT
  5
82DB
330
82D1
100
AcDbEntity
  8
DEFPOINTS
 62
     0
100
AcDbPoint
 10
3416.091456407331
 20
1660.416563417289
 30
0.0
  0
POINT
  5
82DC
330
82D1
100
AcDbEntity
  8
DEFPOINTS
 62
     0
100
AcDbPoint
 10
4068.091456407329
 20
1660.416563417289
 30
0.0
  0
POINT
  5
82DD
330
82D1
100
AcDbEntity
  8
DEFPOINTS
 62
     0
100
AcDbPoint
 10
4068.091456407329
 20
1499.588342708842
 30
0.0
  0
ENDBLK
  5
82D3
330
82D1
100
AcDbEntity
  8
0
100
AcDbBlockEnd
  0
BLOCK
  5
82DF
330
82DE
100
AcDbEntity
  8
0
100
AcDbBlockBegin
  2
*D37
 70
     1
 10
0.0
 20
0.0
 30
0.0
  3
*D37
  1

  0
LINE
  5
82E1
330
82DE
100
AcDbEntity
  8
3
 62
     0
370
    -2
100
AcDbLine
 10
4068.091456407329
 20
1635.416563417289
 30
0.0
 11
4068.091456407329
 21
1495.088342708843
 31
0.0
  0
LINE
  5
82E2
330
82DE
100
AcDbEntity
  8
3
 62
     0
370
    -2
100
AcDbLine
 10
4571.091456407331
 20
1635.416563417289
 30
0.0
 11
4571.091456407331
 21
1495.088342708843
 31
0.0
  0
LINE
  5
82E3
330
82DE
100
AcDbEntity
  8
3
 62
     0
370
    -2
100
AcDbLine
 10
4072.591456407329
 20
1499.588342708842
 30
0.0
 11
4311.555742121615
 21
1499.588342708842
 31
0.0
  0
LINE
  5
82E4
330
82DE
100
AcDbEntity
  8
3
 62
     0
370
    -2
100
AcDbLine
 10
4566.591456407331
 20
1499.588342708842
 30
0.0
 11
4327.627170693045
 21
1499.588342708842
 31
0.0
  0
SOLID
  5
82E5
330
82DE
100
AcDbEntity
  8
3
 62
     0
100
AcDbTrace
 10
4072.591456407329
 20
1500.338342708842
 30
0.0
 11
4072.591456407329
 21
1498.838342708842
 31
0.0
 12
4068.091456407329
 22
1499.588342708842
 32
0.0
 13
4068.091456407329
 23
1499.588342708842
 33
0.0
  0
SOLID
  5
82E6
330
82DE
100
AcDbEntity
  8
3
 62
     0
100
AcDbTrace
 10
4566.591456407331
 20
1500.338342708842
 30
0.0
 11
4566.591456407331
 21
1498.838342708842
 31
0.0
 12
4571.091456407331
 22
1499.588342708842
 32
0.0
 13
4571.091456407331
 23
1499.588342708842
 33
0.0
  0
MTEXT
  5
82E7
330
82DE
100
AcDbEntity
  8
3
 62
     0
100
AcDbMText
 10
4319.591456407329
 20
1499.588342708842
 30
0.0
 40
4.5
 41
0.0
 71
     5
 72
     1
  1
\A1;503
 73
     1
 44
1.0
1001
ACAD
1000
MTEXTBEGIN
1070
    73
1070
     1
1070
    44
1040
1.0
1070
    74
1070
     0
1000
MTEXTEND
  0
POINT
  5
82E8
330
82DE
100
AcDbEntity
  8
DEFPOINTS
 62
     0
100
AcDbPoint
 10
4068.091456407329
 20
1660.416563417289
 30
0.0
  0
POINT
  5
82E9
330
82DE
100
AcDbEntity
  8
DEFPOINTS
 62
     0
100
AcDbPoint
 10
4571.091456407331
 20
1660.416563417289
 30
0.0
  0
POINT
  5
82EA
330
82DE
100
AcDbEntity
  8
DEFPOINTS
 62
     0
100
AcDbPoint
 10
4571.091456407331
 20
1499.588342708842
 30
0.0
  0
ENDBLK
  5
82E0
330
82DE
100
AcDbEntity
  8
0
100
AcDbBlockEnd
  0
BLOCK
  5
82EC
330
82EB
100
AcDbEntity
  8
0
100
AcDbBlockBegin
  2
*D38
 70
     1
 10
0.0
 20
0.0
 30
0.0
  3
*D38
  1

  0
LINE
  5
82EE
330
82EB
100
AcDbEntity
  8
3
 62
     0
370
    -2
100
AcDbLine
 10
903.0794780960496
 20
1764.916563417289
 30
0.0
 11
903.0794780960496
 21
1794.737991988717
 31
0.0
  0
LINE
  5
82EF
330
82EB
100
AcDbEntity
  8
3
 62
     0
370
    -2
100
AcDbLine
 10
903.0794780960496
 20
1835.916563417289
 30
0.0
 11
903.0794780960496
 21
1806.09513484586
 31
0.0
  0
SOLID
  5
82F0
330
82EB
100
AcDbEntity
  8
3
 62
     0
100
AcDbTrace
 10
902.3294780960496
 20
1764.916563417289
 30
0.0
 11
903.8294780960496
 21
1764.916563417289
 31
0.0
 12
903.0794780960496
 22
1760.416563417289
 32
0.0
 13
903.0794780960496
 23
1760.416563417289
 33
0.0
  0
SOLID
  5
82F1
330
82EB
100
AcDbEntity
  8
3
 62
     0
100
AcDbTrace
 10
902.3294780960496
 20
1835.916563417289
 30
0.0
 11
903.8294780960496
 21
1835.916563417289
 31
0.0
 12
903.0794780960496
 22
1840.416563417289
 32
0.0
 13
903.0794780960496
 23
1840.416563417289
 33
0.0
  0
MTEXT
  5
82F2
330
82EB
100
AcDbEntity
  8
3
 62
     0
100
AcDbMText
 10
903.0794780960492
 20
1800.416563417289
 30
0.0
 40
4.5
 41
0.0
 71
     5
 72
     1
  1
\A1;(80)
 73
     1
 44
1.0
1001
ACAD
1000
MTEXTBEGIN
1070
    73
1070
     1
1070
    44
1040
1.0
1070
    74
1070
     0
1000
MTEXTEND
  0
POINT
  5
82F3
330
82EB
100
AcDbEntity
  8
DEFPOINTS
 62
     0
100
AcDbPoint
 10
1419.082261213754
 20
1760.416563417289
 30
0.0
  0
POINT
  5
82F4
330
82EB
100
AcDbEntity
  8
DEFPOINTS
 62
     0
100
AcDbPoint
 10
1419.082261213754
 20
1840.416563417289
 30
0.0
  0
POINT
  5
82F5
330
82EB
100
AcDbEntity
  8
DEFPOINTS
 62
     0
100
AcDbPoint
 10
903.0794780960496
 20
1840.416563417289
 30
0.0
  0
ENDBLK
  5
82ED
330
82EB
100
AcDbEntity
  8
0
100
AcDbBlockEnd
  0
BLOCK
  5
82F7
330
82F6
100
AcDbEntity
  8
0
100
AcDbBlockBegin
  2
*D39
 70
     1
 10
0.0
 20
0.0
 30
0.0
  3
*D39
  1

  0
LINE
  5
82F9
330
82F6
100
AcDbEntity
  8
3
 62
     0
370
    -2
100
AcDbLine
 10
1394.082261213754
 20
1660.416563417289
 30
0.0
 11
680.9547568389786
 21
1660.416563417289
 31
0.0
  0
LINE
  5
82FA
330
82F6
100
AcDbEntity
  8
3
 62
     0
370
    -2
100
AcDbLine
 10
1872.082261213754
 20
3216.416563417289
 30
0.0
 11
680.9547568389789
 21
3216.416563417289
 31
0.0
  0
LINE
  5
82FB
330
82F6
100
AcDbEntity
  8
3
 62
     0
370
    -2
100
AcDbLine
 10
685.4547568389786
 20
1664.916563417289
 30
0.0
 11
685.4547568389788
 21
2432.737991988718
 31
0.0
  0
LINE
  5
82FC
330
82F6
100
AcDbEntity
  8
3
 62
     0
370
    -2
100
AcDbLine
 10
685.4547568389789
 20
3211.91656341729
 30
0.0
 11
685.4547568389788
 21
2444.095134845861
 31
0.0
  0
SOLID
  5
82FD
330
82F6
100
AcDbEntity
  8
3
 62
     0
100
AcDbTrace
 10
684.7047568389785
 20
1664.916563417289
 30
0.0
 11
686.2047568389786
 21
1664.916563417289
 31
0.0
 12
685.4547568389786
 22
1660.416563417289
 32
0.0
 13
685.4547568389786
 23
1660.416563417289
 33
0.0
  0
SOLID
  5
82FE
330
82F6
100
AcDbEntity
  8
3
 62
     0
100
AcDbTrace
 10
684.7047568389789
 20
3211.91656341729
 30
0.0
 11
686.2047568389789
 21
3211.91656341729
 31
0.0
 12
685.4547568389789
 22
3216.416563417289
 32
0.0
 13
685.4547568389789
 23
3216.416563417289
 33
0.0
  0
MTEXT
  5
82FF
330
82F6
100
AcDbEntity
  8
3
 62
     0
100
AcDbMText
 10
685.4547568389783
 20
2438.416563417289
 30
0.0
 40
4.5
 41
0.0
 71
     5
 72
     1
  1
\A1;(1556)
 73
     1
 44
1.0
1001
ACAD
1000
MTEXTBEGIN
1070
    73
1070
     1
1070
    44
1040
1.0
1070
    74
1070
     0
1000
MTEXTEND
  0
POINT
  5
8300
330
82F6
100
AcDbEntity
  8
DEFPOINTS
 62
     0
100
AcDbPoint
 10
1419.082261213754
 20
1660.416563417289
 30
0.0
  0
POINT
  5
8301
330
82F6
100
AcDbEntity
  8
DEFPOINTS
 62
     0
100
AcDbPoint
 10
1897.082261213754
 20
3216.416563417289
 30
0.0
  0
POINT
  5
8302
330
82F6
100
AcDbEntity
  8
DEFPOINTS
 62
     0
100
AcDbPoint
 10
685.4547568389789
 20
3216.416563417289
 30
0.0
  0
ENDBLK
  5
82F8
330
82F6
100
AcDbEntity
  8
0
100
AcDbBlockEnd
  0
BLOCK
  5
8304
330
8303
100
AcDbEntity
  8
0
100
AcDbBlockBegin
  2
*D40
 70
     1
 10
0.0
 20
0.0
 30
0.0
  3
*D40
  1

  0
LINE
  5
8306
330
8303
100
AcDbEntity
  8
3
 62
     0
370
    -2
100
AcDbLine
 10
1417.519761213754
 20
1760.416563417289
 30
0.0
 11
898.1220320738414
 21
1760.416563417289
 31
0.0
  0
LINE
  5
8307
330
8303
100
AcDbEntity
  8
3
 62
     0
370
    -2
100
AcDbLine
 10
1417.519761213754
 20
1660.416563417289
 30
0.0
 11
898.1220320738414
 21
1660.416563417289
 31
0.0
  0
LINE
  5
8308
330
8303
100
AcDbEntity
  8
3
 62
     0
370
    -2
100
AcDbLine
 10
902.6220320738413
 20
1755.916563417289
 30
0.0
 11
902.6220320738413
 21
1714.916563417289
 31
0.0
  0
LINE
  5
8309
330
8303
100
AcDbEntity
  8
3
 62
     0
370
    -2
100
AcDbLine
 10
902.6220320738413
 20
1664.916563417289
 30
0.0
 11
902.6220320738413
 21
1705.916563417289
 31
0.0
  0
SOLID
  5
830A
330
8303
100
AcDbEntity
  8
3
 62
     0
100
AcDbTrace
 10
901.8720320738413
 20
1755.916563417289
 30
0.0
 11
903.3720320738412
 21
1755.916563417289
 31
0.0
 12
902.6220320738413
 22
1760.416563417289
 32
0.0
 13
902.6220320738413
 23
1760.416563417289
 33
0.0
  0
SOLID
  5
830B
330
8303
100
AcDbEntity
  8
3
 62
     0
100
AcDbTrace
 10
901.8720320738413
 20
1664.916563417289
 30
0.0
 11
903.3720320738412
 21
1664.916563417289
 31
0.0
 12
902.6220320738413
 22
1660.416563417289
 32
0.0
 13
902.6220320738413
 23
1660.416563417289
 33
0.0
  0
MTEXT
  5
830C
330
8303
100
AcDbEntity
  8
3
 62
     0
100
AcDbMText
 10
902.622032073841
 20
1710.416563417289
 30
0.0
 40
4.5
 41
0.0
 71
     5
 72
     1
  1
\A1;100
 73
     1
 44
1.0
1001
ACAD
1000
MTEXTBEGIN
1070
    73
1070
     1
1070
    44
1040
1.0
1070
    74
1070
     0
1000
MTEXTEND
  0
POINT
  5
830D
330
8303
100
AcDbEntity
  8
DEFPOINTS
 62
     0
100
AcDbPoint
 10
1419.082261213754
 20
1760.416563417289
 30
0.0
  0
POINT
  5
830E
330
8303
100
AcDbEntity
  8
DEFPOINTS
 62
     0
100
AcDbPoint
 10
1419.082261213754
 20
1660.416563417289
 30
0.0
  0
POINT
  5
830F
330
8303
100
AcDbEntity
  8
DEFPOINTS
 62
     0
100
AcDbPoint
 10
902.6220320738413
 20
1660.416563417289
 30
0.0
  0
ENDBLK
  5
8305
330
8303
100
AcDbEntity
  8
0
100
AcDbBlockEnd
  0
BLOCK
  5
8312
330
8311
100
AcDbEntity
  8
0
100
AcDbBlockBegin
  2
*D41
 70
     1
 10
0.0
 20
0.0
 30
0.0
  3
*D41
  1

  0
LINE
  5
8314
330
8311
100
AcDbEntity
  8
3
 62
     0
370
    -2
100
AcDbLine
 10
3416.091456407331
 20
1635.416563417289
 30
0.0
 11
3416.091456407331
 21
1494.3440940209
 31
0.0
  0
LINE
  5
8315
330
8311
100
AcDbEntity
  8
3
 62
     0
370
    -2
100
AcDbLine
 10
4068.091456407329
 20
1635.416563417289
 30
0.0
 11
4068.091456407329
 21
1494.3440940209
 31
0.0
  0
LINE
  5
8316
330
8311
100
AcDbEntity
  8
3
 62
     0
370
    -2
100
AcDbLine
 10
3466.091456407331
 20
1519.3440940209
 30
0.0
 11
4018.091456407328
 21
1519.3440940209
 31
0.0
  0
INSERT
  5
8317
330
8311
100
AcDbEntity
  8
3
 62
     0
370
    -2
100
AcDbBlockReference
  2
_OPEN
 10
3416.091456407331
 20
1519.3440940209
 30
0.0
 41
50.0
 42
50.0
 43
50.0
 50
180.0
  0
INSERT
  5
8318
330
8311
100
AcDbEntity
  8
3
 62
     0
370
    -2
100
AcDbBlockReference
  2
_OPEN
 10
4068.091456407329
 20
1519.3440940209
 30
0.0
 41
50.0
 42
50.0
 43
50.0
  0
MTEXT
  5
8319
330
8311
100
AcDbEntity
  8
3
 62
     0
100
AcDbMText
 10
3742.09145640733
 20
1581.8440940209
 30
0.0
 40
75.0
 41
0.0
 71
     5
 72
     1
  1
\A1;652
 73
     1
 44
1.0
1001
ACAD
1000
MTEXTBEGIN
1070
    73
1070
     1
1070
    44
1040
1.0
1070
    74
1070
     0
1000
MTEXTEND
  0
POINT
  5
831A
330
8311
100
AcDbEntity
  8
DEFPOINTS
 62
     0
100
AcDbPoint
 10
3416.091456407331
 20
1660.416563417289
 30
0.0
  0
POINT
  5
831B
330
8311
100
AcDbEntity
  8
DEFPOINTS
 62
     0
100
AcDbPoint
 10
4068.091456407329
 20
1660.416563417289
 30
0.0
  0
POINT
  5
831C
330
8311
100
AcDbEntity
  8
DEFPOINTS
 62
     0
100
AcDbPoint
 10
4068.091456407329
 20
1519.3440940209
 30
0.0
  0
ENDBLK
  5
8313
330
8311
100
AcDbEntity
  8
0
100
AcDbBlockEnd
  0
BLOCK
  5
831F
330
831E
100
AcDbEntity
  8
0
100
AcDbBlockBegin
  2
*D42
 70
     1
 10
0.0
 20
0.0
 30
0.0
  3
*D42
  1

  0
LINE
  5
8321
330
831E
100
AcDbEntity
  8
3
 62
     0
370
    -2
100
AcDbLine
 10
4068.091456407329
 20
1635.416563417289
 30
0.0
 11
4068.091456407329
 21
1494.3440940209
 31
0.0
  0
LINE
  5
8322
330
831E
100
AcDbEntity
  8
3
 62
     0
370
    -2
100
AcDbLine
 10
4571.091456407329
 20
1635.416563417289
 30
0.0
 11
4571.091456407329
 21
1494.3440940209
 31
0.0
  0
LINE
  5
8323
330
831E
100
AcDbEntity
  8
3
 62
     0
370
    -2
100
AcDbLine
 10
4118.091456407329
 20
1519.3440940209
 30
0.0
 11
4521.091456407329
 21
1519.3440940209
 31
0.0
  0
INSERT
  5
8324
330
831E
100
AcDbEntity
  8
3
 62
     0
370
    -2
100
AcDbBlockReference
  2
_OPEN
 10
4068.091456407329
 20
1519.3440940209
 30
0.0
 41
50.0
 42
50.0
 43
50.0
 50
180.0
  0
INSERT
  5
8325
330
831E
100
AcDbEntity
  8
3
 62
     0
370
    -2
100
AcDbBlockReference
  2
_OPEN
 10
4571.091456407329
 20
1519.3440940209
 30
0.0
 41
50.0
 42
50.0
 43
50.0
  0
MTEXT
  5
8326
330
831E
100
AcDbEntity
  8
3
 62
     0
100
AcDbMText
 10
4319.591456407329
 20
1581.8440940209
 30
0.0
 40
75.0
 41
0.0
 71
     5
 72
     1
  1
\A1;503
 73
     1
 44
1.0
1001
ACAD
1000
MTEXTBEGIN
1070
    73
1070
     1
1070
    44
1040
1.0
1070
    74
1070
     0
1000
MTEXTEND
  0
POINT
  5
8327
330
831E
100
AcDbEntity
  8
DEFPOINTS
 62
     0
100
AcDbPoint
 10
4068.091456407329
 20
1660.416563417289
 30
0.0
  0
POINT
  5
8328
330
831E
100
AcDbEntity
  8
DEFPOINTS
 62
     0
100
AcDbPoint
 10
4571.091456407329
 20
1660.416563417289
 30
0.0
  0
POINT
  5
8329
330
831E
100
AcDbEntity
  8
DEFPOINTS
 62
     0
100
AcDbPoint
 10
4571.091456407329
 20
1519.3440940209
 30
0.0
  0
ENDBLK
  5
8320
330
831E
100
AcDbEntity
  8
0
100
AcDbBlockEnd
  0
BLOCK
  5
832C
330
832B
100
AcDbEntity
  8
0
100
AcDbBlockBegin
  2
*D43
 70
     1
 10
0.0
 20
0.0
 30
0.0
  3
*D43
  1

  0
LINE
  5
832E
330
832B
100
AcDbEntity
  8
3
 62
     0
370
    -2
100
AcDbLine
 10
1419.082261213754
 20
1635.416563417289
 30
0.0
 11
1419.082261213754
 21
1475.124923594096
 31
0.0
  0
LINE
  5
832F
330
832B
100
AcDbEntity
  8
3
 62
     0
370
    -2
100
AcDbLine
 10
1869.082261213754
 20
1635.416563417289
 30
0.0
 11
1869.082261213754
 21
1475.124923594096
 31
0.0
  0
LINE
  5
8330
330
832B
100
AcDbEntity
  8
3
 62
     0
370
    -2
100
AcDbLine
 10
1469.082261213754
 20
1500.124923594096
 30
0.0
 11
1819.082261213754
 21
1500.124923594096
 31
0.0
  0
INSERT
  5
8331
330
832B
100
AcDbEntity
  8
3
 62
     0
370
    -2
100
AcDbBlockReference
  2
_OPEN
 10
1419.082261213754
 20
1500.124923594096
 30
0.0
 41
50.0
 42
50.0
 43
50.0
 50
180.0
  0
INSERT
  5
8332
330
832B
100
AcDbEntity
  8
3
 62
     0
370
    -2
100
AcDbBlockReference
  2
_OPEN
 10
1869.082261213754
 20
1500.124923594096
 30
0.0
 41
50.0
 42
50.0
 43
50.0
  0
MTEXT
  5
8333
330
832B
100
AcDbEntity
  8
3
 62
     0
100
AcDbMText
 10
1644.082261213754
 20
1562.624923594096
 30
0.0
 40
75.0
 41
0.0
 71
     5
 72
     1
  1
\A1;450
 73
     1
 44
1.0
1001
ACAD
1000
MTEXTBEGIN
1070
    73
1070
     1
1070
    44
1040
1.0
1070
    74
1070
     0
1000
MTEXTEND
  0
POINT
  5
8334
330
832B
100
AcDbEntity
  8
DEFPOINTS
 62
     0
100
AcDbPoint
 10
1419.082261213754
 20
1660.416563417289
 30
0.0
  0
POINT
  5
8335
330
832B
100
AcDbEntity
  8
DEFPOINTS
 62
     0
100
AcDbPoint
 10
1869.082261213754
 20
1660.416563417289
 30
0.0
  0
POINT
  5
8336
330
832B
100
AcDbEntity
  8
DEFPOINTS
 62
     0
100
AcDbPoint
 10
1869.082261213754
 20
1500.124923594096
 30
0.0
  0
ENDBLK
  5
832D
330
832B
100
AcDbEntity
  8
0
100
AcDbBlockEnd
  0
BLOCK
  5
8339
330
8338
100
AcDbEntity
  8
0
100
AcDbBlockBegin
  2
*D44
 70
     1
 10
0.0
 20
0.0
 30
0.0
  3
*D44
  1

  0
LINE
  5
833B
330
8338
100
AcDbEntity
  8
3
 62
     0
370
    -2
100
AcDbLine
 10
1869.082261213754
 20
1635.416563417289
 30
0.0
 11
1869.082261213754
 21
1475.124923594096
 31
0.0
  0
LINE
  5
833C
330
8338
100
AcDbEntity
  8
3
 62
     0
370
    -2
100
AcDbLine
 10
3019.082261213755
 20
1635.416563417289
 30
0.0
 11
3019.082261213755
 21
1475.124923594096
 31
0.0
  0
LINE
  5
833D
330
8338
100
AcDbEntity
  8
3
 62
     0
370
    -2
100
AcDbLine
 10
1919.082261213754
 20
1500.124923594096
 30
0.0
 11
2969.082261213755
 21
1500.124923594096
 31
0.0
  0
INSERT
  5
833E
330
8338
100
AcDbEntity
  8
3
 62
     0
370
    -2
100
AcDbBlockReference
  2
_OPEN
 10
1869.082261213754
 20
1500.124923594096
 30
0.0
 41
50.0
 42
50.0
 43
50.0
 50
180.0
  0
INSERT
  5
833F
330
8338
100
AcDbEntity
  8
3
 62
     0
370
    -2
100
AcDbBlockReference
  2
_OPEN
 10
3019.082261213755
 20
1500.124923594096
 30
0.0
 41
50.0
 42
50.0
 43
50.0
  0
MTEXT
  5
8340
330
8338
100
AcDbEntity
  8
3
 62
     0
100
AcDbMText
 10
2444.082261213754
 20
1562.624923594096
 30
0.0
 40
75.0
 41
0.0
 71
     5
 72
     1
  1
\A1;1150
 73
     1
 44
1.0
1001
ACAD
1000
MTEXTBEGIN
1070
    73
1070
     1
1070
    44
1040
1.0
1070
    74
1070
     0
1000
MTEXTEND
  0
POINT
  5
8341
330
8338
100
AcDbEntity
  8
DEFPOINTS
 62
     0
100
AcDbPoint
 10
1869.082261213754
 20
1660.416563417289
 30
0.0
  0
POINT
  5
8342
330
8338
100
AcDbEntity
  8
DEFPOINTS
 62
     0
100
AcDbPoint
 10
3019.082261213755
 20
1660.416563417289
 30
0.0
  0
POINT
  5
8343
330
8338
100
AcDbEntity
  8
DEFPOINTS
 62
     0
100
AcDbPoint
 10
3019.082261213755
 20
1500.124923594096
 30
0.0
  0
ENDBLK
  5
833A
330
8338
100
AcDbEntity
  8
0
100
AcDbBlockEnd
  0
BLOCK
  5
8346
330
8345
100
AcDbEntity
  8
0
100
AcDbBlockBegin
  2
*D45
 70
     1
 10
0.0
 20
0.0
 30
0.0
  3
*D45
  1

  0
LINE
  5
84B5
330
8345
100
AcDbEntity
  8
3
 62
     0
370
    -2
100
AcDbLine
 10
1221.816422408324
 20
2710.41656341729
 30
0.0
 11
877.622032073841
 21
2710.41656341729
 31
0.0
  0
LINE
  5
84B6
330
8345
100
AcDbEntity
  8
3
 62
     0
370
    -2
100
AcDbLine
 10
1394.082261213754
 20
1840.416563417289
 30
0.0
 11
877.622032073841
 21
1840.416563417289
 31
0.0
  0
LINE
  5
84B7
330
8345
100
AcDbEntity
  8
3
 62
     0
370
    -2
100
AcDbLine
 10
902.622032073841
 20
2660.41656341729
 30
0.0
 11
902.622032073841
 21
1890.416563417289
 31
0.0
  0
INSERT
  5
84B8
330
8345
100
AcDbEntity
  8
3
 62
     0
370
    -2
100
AcDbBlockReference
  2
_OPEN
 10
902.622032073841
 20
2710.41656341729
 30
0.0
 41
50.0
 42
50.0
 43
50.0
 50
90.0
  0
INSERT
  5
84B9
330
8345
100
AcDbEntity
  8
3
 62
     0
370
    -2
100
AcDbBlockReference
  2
_OPEN
 10
902.622032073841
 20
1840.416563417289
 30
0.0
 41
50.0
 42
50.0
 43
50.0
 50
270.0
  0
MTEXT
  5
84BA
330
8345
100
AcDbEntity
  8
3
 62
     0
100
AcDbMText
 10
840.1220320738406
 20
2275.41656341729
 30
0.0
 40
75.0
 41
0.0
 71
     5
 72
     1
  1
\A1;870
 11
0.0000000000000001
 21
1.0
 31
0.0
 73
     1
 44
1.0
1001
ACAD
1000
MTEXTBEGIN
1070
    73
1070
     1
1070
    44
1040
1.0
1070
    74
1070
     0
1000
MTEXTEND
  0
POINT
  5
84BB
330
8345
100
AcDbEntity
  8
DEFPOINTS
 62
     0
100
AcDbPoint
 10
1246.816422408324
 20
2710.41656341729
 30
0.0
  0
POINT
  5
84BC
330
8345
100
AcDbEntity
  8
DEFPOINTS
 62
     0
100
AcDbPoint
 10
1419.082261213754
 20
1840.416563417289
 30
0.0
  0
POINT
  5
84BD
330
8345
100
AcDbEntity
  8
DEFPOINTS
 62
     0
100
AcDbPoint
 10
902.622032073841
 20
1840.416563417289
 30
0.0
  0
ENDBLK
  5
8347
330
8345
100
AcDbEntity
  8
0
100
AcDbBlockEnd
  0
BLOCK
  5
8353
330
8352
100
AcDbEntity
  8
0
100
AcDbBlockBegin
  2
*D46
 70
     1
 10
0.0
 20
0.0
 30
0.0
  3
*D46
  1

  0
LINE
  5
84BE
330
8352
100
AcDbEntity
  8
3
 62
     0
370
    -2
100
AcDbLine
 10
1394.082261213754
 20
1840.416563417289
 30
0.0
 11
877.622032073841
 21
1840.416563417289
 31
0.0
  0
LINE
  5
84BF
330
8352
100
AcDbEntity
  8
3
 62
     0
370
    -2
100
AcDbLine
 10
1394.082261213754
 20
1760.416563417289
 30
0.0
 11
877.622032073841
 21
1760.416563417289
 31
0.0
  0
LINE
  5
84C0
330
8352
100
AcDbEntity
  8
3
 62
     0
370
    -2
100
AcDbLine
 10
902.622032073841
 20
1890.416563417289
 30
0.0
 11
902.622032073841
 21
1940.416563417289
 31
0.0
  0
LINE
  5
84C1
330
8352
100
AcDbEntity
  8
3
 62
     0
370
    -2
100
AcDbLine
 10
902.622032073841
 20
1760.416563417289
 30
0.0
 11
902.622032073841
 21
1710.416563417289
 31
0.0
  0
LINE
  5
84C2
330
8352
100
AcDbEntity
  8
3
 62
     0
370
    -2
100
AcDbLine
 10
902.622032073841
 20
1800.416563417289
 30
0.0
 11
782.979174930984
 21
1836.309420560146
 31
0.0
  0
LINE
  5
84C3
330
8352
100
AcDbEntity
  8
3
 62
     0
370
    -2
100
AcDbLine
 10
782.979174930984
 20
1836.309420560146
 30
0.0
 11
782.979174930984
 21
2104.166563417289
 31
0.0
  0
MTEXT
  5
84C4
330
8352
100
AcDbEntity
  8
3
 62
     0
100
AcDbMText
 10
700.8363177881265
 20
1970.237991988717
 30
0.0
 40
75.0
 41
0.0
 71
     5
 72
     1
  1
\A1;(80)
 11
0.0000000000000001
 21
1.0
 31
0.0
 73
     1
 44
1.0
1001
ACAD
1000
MTEXTBEGIN
1070
    73
1070
     1
1070
    44
1040
1.0
1070
    74
1070
     0
1000
MTEXTEND
  0
LINE
  5
84C5
330
8352
100
AcDbEntity
  8
3
 62
     0
370
    -2
100
AcDbLine
 10
902.622032073841
 20
1840.416563417289
 30
0.0
 11
902.622032073841
 21
1760.416563417289
 31
0.0
  0
LINE
  5
84C6
330
8352
100
AcDbEntity
  8
3
 62
     0
370
    -2
100
AcDbLine
 10
902.622032073841
 20
1840.416563417289
 30
0.0
 11
902.622032073841
 21
1760.416563417289
 31
0.0
  0
INSERT
  5
84C7
330
8352
100
AcDbEntity
  8
3
 62
     0
370
    -2
100
AcDbBlockReference
  2
_OPEN
 10
902.622032073841
 20
1840.416563417289
 30
0.0
 41
50.0
 42
50.0
 43
50.0
 50
270.0
  0
INSERT
  5
84C8
330
8352
100
AcDbEntity
  8
3
 62
     0
370
    -2
100
AcDbBlockReference
  2
_DotSmall
 10
902.622032073841
 20
1760.416563417289
 30
0.0
 41
50.0
 42
50.0
 43
50.0
 50
90.0
  0
POINT
  5
84C9
330
8352
100
AcDbEntity
  8
DEFPOINTS
 62
     0
100
AcDbPoint
 10
1419.082261213754
 20
1840.416563417289
 30
0.0
  0
POINT
  5
84CA
330
8352
100
AcDbEntity
  8
DEFPOINTS
 62
     0
100
AcDbPoint
 10
1419.082261213754
 20
1760.416563417289
 30
0.0
  0
POINT
  5
84CB
330
8352
100
AcDbEntity
  8
DEFPOINTS
 62
     0
100
AcDbPoint
 10
902.622032073841
 20
1760.416563417289
 30
0.0
  0
ENDBLK
  5
8354
330
8352
100
AcDbEntity
  8
0
100
AcDbBlockEnd
  0
BLOCK
  5
8365
330
8364
100
AcDbEntity
  8
0
100
AcDbBlockBegin
  2
*D47
 70
     1
 10
0.0
 20
0.0
 30
0.0
  3
*D47
  1

  0
LINE
  5
84CC
330
8364
100
AcDbEntity
  8
3
 62
     0
370
    -2
100
AcDbLine
 10
1394.082261213754
 20
1760.416563417289
 30
0.0
 11
877.622032073841
 21
1760.416563417289
 31
0.0
  0
LINE
  5
84CD
330
8364
100
AcDbEntity
  8
3
 62
     0
370
    -2
100
AcDbLine
 10
1394.082261213754
 20
1660.416563417289
 30
0.0
 11
877.622032073841
 21
1660.416563417289
 31
0.0
  0
LINE
  5
84CE
330
8364
100
AcDbEntity
  8
3
 62
     0
370
    -2
100
AcDbLine
 10
902.622032073841
 20
1760.416563417289
 30
0.0
 11
902.622032073841
 21
1710.416563417289
 31
0.0
  0
MTEXT
  5
84CF
330
8364
100
AcDbEntity
  8
3
 62
     0
100
AcDbMText
 10
821.3296525926416
 20
1551.779158525238
 30
0.0
 40
75.0
 41
0.0
 71
     5
 72
     1
  1
\A1;100
 11
0.0000000000000001
 21
1.0
 31
0.0
 73
     1
 44
1.0
1001
ACAD
1000
MTEXTBEGIN
1070
    73
1070
     1
1070
    44
1040
1.0
1070
    74
1070
     0
1000
MTEXTEND
  0
INSERT
  5
84D0
330
8364
100
AcDbEntity
  8
3
 62
     0
370
    -2
100
AcDbBlockReference
  2
_DotSmall
 10
902.622032073841
 20
1760.416563417289
 30
0.0
 41
50.0
 42
50.0
 43
50.0
 50
90.0
  0
INSERT
  5
84D1
330
8364
100
AcDbEntity
  8
3
 62
     0
370
    -2
100
AcDbBlockReference
  2
_OPEN
 10
902.622032073841
 20
1660.416563417289
 30
0.0
 41
50.0
 42
50.0
 43
50.0
 50
270.0
  0
POINT
  5
84D2
330
8364
100
AcDbEntity
  8
DEFPOINTS
 62
     0
100
AcDbPoint
 10
1419.082261213754
 20
1760.416563417289
 30
0.0
  0
POINT
  5
84D3
330
8364
100
AcDbEntity
  8
DEFPOINTS
 62
     0
100
AcDbPoint
 10
1419.082261213754
 20
1660.416563417289
 30
0.0
  0
POINT
  5
84D4
330
8364
100
AcDbEntity
  8
DEFPOINTS
 62
     0
100
AcDbPoint
 10
902.622032073841
 20
1660.416563417289
 30
0.0
  0
ENDBLK
  5
8366
330
8364
100
AcDbEntity
  8
0
100
AcDbBlockEnd
  0
BLOCK
  5
83F9
330
83F7
100
AcDbEntity
  8
0
100
AcDbBlockBegin
  2
_DotSmall
 70
     0
 10
0.0
 20
0.0
 30
0.0
  3
_DotSmall
  1

  0
LWPOLYLINE
  5
83F8
330
83F7
100
AcDbEntity
  8
0
  6
ByBlock
 62
     0
100
AcDbPolyline
 90
        2
 70
     1
 43
0.5
 10
-0.0625
 20
0.0
 42
1.0
 10
0.0625
 20
0.0
 42
1.0
  0
ENDBLK
  5
83FA
330
83F7
100
AcDbEntity
  8
0
100
AcDbBlockEnd
  0
BLOCK
  5
8498
330
8497
100
AcDbEntity
  8
0
100
AcDbBlockBegin
  2
*D49
 70
     1
 10
0.0
 20
0.0
 30
0.0
  3
*D49
  1

  0
LINE
  5
850E
330
8497
100
AcDbEntity
  8
3
 62
     0
370
    -2
100
AcDbLine
 10
1394.082261213754
 20
1660.416563417289
 30
0.0
 11
540.5331114210637
 21
1660.416563417289
 31
0.0
  0
LINE
  5
850F
330
8497
100
AcDbEntity
  8
3
 62
     0
370
    -2
100
AcDbLine
 10
1897.082261213752
 20
3199.41656341729
 30
0.0
 11
540.5331114210639
 21
3199.41656341729
 31
0.0
  0
LINE
  5
8510
330
8497
100
AcDbEntity
  8
3
 62
     0
370
    -2
100
AcDbLine
 10
565.5331114210637
 20
1710.416563417289
 30
0.0
 11
565.533111421064
 21
3149.41656341729
 31
0.0
  0
INSERT
  5
8511
330
8497
100
AcDbEntity
  8
3
 62
     0
370
    -2
100
AcDbBlockReference
  2
_OPEN
 10
565.5331114210637
 20
1660.416563417289
 30
0.0
 41
50.0
 42
50.0
 43
50.0
 50
270.0
  0
INSERT
  5
8512
330
8497
100
AcDbEntity
  8
3
 62
     0
370
    -2
100
AcDbBlockReference
  2
_OPEN
 10
565.533111421064
 20
3199.41656341729
 30
0.0
 41
50.0
 42
50.0
 43
50.0
 50
90.0
  0
MTEXT
  5
8513
330
8497
100
AcDbEntity
  8
3
 62
     0
100
AcDbMText
 10
483.3902542782063
 20
2429.91656341729
 30
0.0
 40
75.0
 41
0.0
 71
     5
 72
     1
  1
\A1;(1539)
 11
0.0000000000000001
 21
1.0
 31
0.0
 73
     1
 44
1.0
1001
ACAD
1000
MTEXTBEGIN
1070
    73
1070
     1
1070
    44
1040
1.0
1070
    74
1070
     0
1000
MTEXTEND
  0
POINT
  5
8514
330
8497
100
AcDbEntity
  8
DEFPOINTS
 62
     0
100
AcDbPoint
 10
1419.082261213754
 20
1660.416563417289
 30
0.0
  0
POINT
  5
8515
330
8497
100
AcDbEntity
  8
DEFPOINTS
 62
     0
100
AcDbPoint
 10
1922.082261213752
 20
3199.41656341729
 30
0.0
  0
POINT
  5
8516
330
8497
100
AcDbEntity
  8
DEFPOINTS
 62
     0
100
AcDbPoint
 10
565.533111421064
 20
3199.41656341729
 30
0.0
  0
ENDBLK
  5
8499
330
8497
100
AcDbEntity
  8
0
100
AcDbBlockEnd
  0
BLOCK
  5
84D7
330
84D6
100
AcDbEntity
  8
0
100
AcDbBlockBegin
  2
*D50
 70
     1
 10
0.0
 20
0.0
 30
0.0
  3
*D50
  1

  0
LINE
  5
84E2
330
84D6
100
AcDbEntity
  8
3
 62
     0
370
    -2
100
AcDbLine
 10
1869.082261213754
 20
3303.01209417829
 30
0.0
 11
1869.082261213754
 21
3395.305010010289
 31
0.0
  0
LINE
  5
84E3
330
84D6
100
AcDbEntity
  8
3
 62
     0
370
    -2
100
AcDbLine
 10
2464.082261213752
 20
2682.41656341729
 30
0.0
 11
2464.082261213752
 21
3395.305010010289
 31
0.0
  0
LINE
  5
84E4
330
84D6
100
AcDbEntity
  8
3
 62
     0
370
    -2
100
AcDbLine
 10
1919.082261213754
 20
3370.305010010289
 30
0.0
 11
2414.082261213752
 21
3370.305010010289
 31
0.0
  0
INSERT
  5
84E5
330
84D6
100
AcDbEntity
  8
3
 62
     0
370
    -2
100
AcDbBlockReference
  2
_OPEN
 10
1869.082261213754
 20
3370.305010010289
 30
0.0
 41
50.0
 42
50.0
 43
50.0
 50
180.0
  0
INSERT
  5
84E6
330
84D6
100
AcDbEntity
  8
3
 62
     0
370
    -2
100
AcDbBlockReference
  2
_OPEN
 10
2464.082261213752
 20
3370.305010010289
 30
0.0
 41
50.0
 42
50.0
 43
50.0
  0
MTEXT
  5
84E7
330
84D6
100
AcDbEntity
  8
3
 62
     0
100
AcDbMText
 10
2166.582261213753
 20
3432.805010010289
 30
0.0
 40
75.0
 41
0.0
 71
     5
 72
     1
  1
\A1;595
 73
     1
 44
1.0
1001
ACAD
1000
MTEXTBEGIN
1070
    73
1070
     1
1070
    44
1040
1.0
1070
    74
1070
     0
1000
MTEXTEND
  0
POINT
  5
84E8
330
84D6
100
AcDbEntity
  8
DEFPOINTS
 62
     0
100
AcDbPoint
 10
1869.082261213754
 20
3278.01209417829
 30
0.0
  0
POINT
  5
84E9
330
84D6
100
AcDbEntity
  8
DEFPOINTS
 62
     0
100
AcDbPoint
 10
2464.082261213752
 20
2657.41656341729
 30
0.0
  0
POINT
  5
84EA
330
84D6
100
AcDbEntity
  8
DEFPOINTS
 62
     0
100
AcDbPoint
 10
2464.082261213752
 20
3370.305010010289
 30
0.0
  0
ENDBLK
  5
84D8
330
84D6
100
AcDbEntity
  8
0
100
AcDbBlockEnd
  0
BLOCK
  5
84EC
330
84EB
100
AcDbEntity
  8
0
100
AcDbBlockBegin
  2
*D51
 70
     1
 10
0.0
 20
0.0
 30
0.0
  3
*D51
  1

  0
LINE
  5
84EE
330
84EB
100
AcDbEntity
  8
3
 62
     0
370
    -2
100
AcDbLine
 10
1920.519761213752
 20
3199.41656341729
 30
0.0
 11
898.1220320738414
 21
3199.41656341729
 31
0.0
  0
LINE
  5
84EF
330
84EB
100
AcDbEntity
  8
3
 62
     0
370
    -2
100
AcDbLine
 10
1245.253922408324
 20
2710.41656341729
 30
0.0
 11
898.1220320738414
 21
2710.41656341729
 31
0.0
  0
LINE
  5
84F0
330
84EB
100
AcDbEntity
  8
3
 62
     0
370
    -2
100
AcDbLine
 10
902.6220320738413
 20
3194.91656341729
 30
0.0
 11
902.6220320738413
 21
2959.41656341729
 31
0.0
  0
LINE
  5
84F1
330
84EB
100
AcDbEntity
  8
3
 62
     0
370
    -2
100
AcDbLine
 10
902.6220320738413
 20
2714.91656341729
 30
0.0
 11
902.6220320738413
 21
2950.41656341729
 31
0.0
  0
SOLID
  5
84F2
330
84EB
100
AcDbEntity
  8
3
 62
     0
100
AcDbTrace
 10
901.8720320738413
 20
3194.91656341729
 30
0.0
 11
903.3720320738414
 21
3194.91656341729
 31
0.0
 12
902.6220320738413
 22
3199.41656341729
 32
0.0
 13
902.6220320738413
 23
3199.41656341729
 33
0.0
  0
SOLID
  5
84F3
330
84EB
100
AcDbEntity
  8
3
 62
     0
100
AcDbTrace
 10
901.8720320738413
 20
2714.91656341729
 30
0.0
 11
903.3720320738412
 21
2714.91656341729
 31
0.0
 12
902.6220320738413
 22
2710.41656341729
 32
0.0
 13
902.6220320738413
 23
2710.41656341729
 33
0.0
  0
MTEXT
  5
84F4
330
84EB
100
AcDbEntity
  8
3
 62
     0
100
AcDbMText
 10
902.622032073841
 20
2954.91656341729
 30
0.0
 40
4.5
 41
0.0
 71
     5
 72
     1
  1
\A1;489.0000
 73
     1
 44
1.0
1001
ACAD
1000
MTEXTBEGIN
1070
    73
1070
     1
1070
    44
1040
1.0
1070
    74
1070
     0
1000
MTEXTEND
  0
POINT
  5
84F5
330
84EB
100
AcDbEntity
  8
DEFPOINTS
 62
     0
100
AcDbPoint
 10
1922.082261213752
 20
3199.41656341729
 30
0.0
  0
POINT
  5
84F6
330
84EB
100
AcDbEntity
  8
DEFPOINTS
 62
     0
100
AcDbPoint
 10
1246.816422408324
 20
2710.41656341729
 30
0.0
  0
POINT
  5
84F7
330
84EB
100
AcDbEntity
  8
DEFPOINTS
 62
     0
100
AcDbPoint
 10
902.6220320738413
 20
2710.41656341729
 30
0.0
  0
ENDBLK
  5
84ED
330
84EB
100
AcDbEntity
  8
0
100
AcDbBlockEnd
  0
BLOCK
  5
84FA
330
84F9
100
AcDbEntity
  8
0
100
AcDbBlockBegin
  2
*D52
 70
     1
 10
0.0
 20
0.0
 30
0.0
  3
*D52
  1

  0
LINE
  5
8505
330
84F9
100
AcDbEntity
  8
3
 62
     0
370
    -2
100
AcDbLine
 10
1221.816422408324
 20
2710.41656341729
 30
0.0
 11
877.622032073841
 21
2710.41656341729
 31
0.0
  0
LINE
  5
8506
330
84F9
100
AcDbEntity
  8
3
 62
     0
370
    -2
100
AcDbLine
 10
1897.082261213752
 20
3199.41656341729
 30
0.0
 11
877.6220320738412
 21
3199.41656341729
 31
0.0
  0
LINE
  5
8507
330
84F9
100
AcDbEntity
  8
3
 62
     0
370
    -2
100
AcDbLine
 10
902.622032073841
 20
2760.41656341729
 30
0.0
 11
902.622032073841
 21
3149.41656341729
 31
0.0
  0
INSERT
  5
8508
330
84F9
100
AcDbEntity
  8
3
 62
     0
370
    -2
100
AcDbBlockReference
  2
_OPEN
 10
902.622032073841
 20
2710.41656341729
 30
0.0
 41
50.0
 42
50.0
 43
50.0
 50
270.0
  0
INSERT
  5
8509
330
84F9
100
AcDbEntity
  8
3
 62
     0
370
    -2
100
AcDbBlockReference
  2
_OPEN
 10
902.622032073841
 20
3199.41656341729
 30
0.0
 41
50.0
 42
50.0
 43
50.0
 50
90.0
  0
MTEXT
  5
850A
330
84F9
100
AcDbEntity
  8
3
 62
     0
100
AcDbMText
 10
840.1220320738406
 20
2954.91656341729
 30
0.0
 40
75.0
 41
0.0
 71
     5
 72
     1
  1
\A1;489
 11
0.0000000000000001
 21
1.0
 31
0.0
 73
     1
 44
1.0
1001
ACAD
1000
MTEXTBEGIN
1070
    73
1070
     1
1070
    44
1040
1.0
1070
    74
1070
     0
1000
MTEXTEND
  0
POINT
  5
850B
330
84F9
100
AcDbEntity
  8
DEFPOINTS
 62
     0
100
AcDbPoint
 10
1246.816422408324
 20
2710.41656341729
 30
0.0
  0
POINT
  5
850C
330
84F9
100
AcDbEntity
  8
DEFPOINTS
 62
     0
100
AcDbPoint
 10
1922.082261213752
 20
3199.41656341729
 30
0.0
  0
POINT
  5
850D
330
84F9
100
AcDbEntity
  8
DEFPOINTS
 62
     0
100
AcDbPoint
 10
902.622032073841
 20
3199.41656341729
 30
0.0
  0
ENDBLK
  5
84FB
330
84F9
100
AcDbEntity
  8
0
100
AcDbBlockEnd
  0
ENDSEC
  0
SECTION
  2
ENTITIES
  0
INSERT
  5
7C45
330
8188
100
AcDbEntity
  8
0
100
AcDbBlockReference
  2
YA_N
 10
6.0
 20
5.0
 30
0.0
  0
LINE
  5
7C51
330
8188
100
AcDbEntity
  8
2
100
AcDbLine
 10
1869.082261213754
 20
1660.416563417289
 30
0.0
 11
1869.082261213754
 21
3278.01209417829
 31
0.0
  0
LINE
  5
7C52
330
8188
100
AcDbEntity
  8
2
100
AcDbLine
 10
1246.816422408324
 20
2710.41656341729
 30
0.0
 11
2544.108738716358
 21
2710.41656341729
 31
0.0
  0
LINE
  5
7C53
330
8188
100
AcDbEntity
  8
1
100
AcDbLine
 10
2566.082261213754
 20
1980.416563417289
 30
0.0
 11
2972.082261213755
 21
1980.416563417289
 31
0.0
  0
LINE
  5
7C54
330
8188
100
AcDbEntity
  8
1
100
AcDbLine
 10
2569.082261213754
 20
1940.416563417289
 30
0.0
 11
2569.082261213754
 21
1980.416563417289
 31
0.0
  0
LINE
  5
7C55
330
8188
100
AcDbEntity
  8
1
100
AcDbLine
 10
1419.082261213754
 20
1660.416563417289
 30
0.0
 11
3019.082261213755
 21
1660.416563417289
 31
0.0
  0
LINE
  5
7C56
330
8188
100
AcDbEntity
  8
1
100
AcDbLine
 10
1419.082261213754
 20
1760.416563417289
 30
0.0
 11
1419.082261213754
 21
1660.416563417289
 31
0.0
  0
LINE
  5
7C57
330
8188
100
AcDbEntity
  8
1
100
AcDbLine
 10
3019.082261213755
 20
1760.416563417289
 30
0.0
 11
3019.082261213755
 21
1660.416563417289
 31
0.0
  0
LINE
  5
7C58
330
8188
100
AcDbEntity
  8
1
100
AcDbLine
 10
1419.082261213754
 20
1760.416563417289
 30
0.0
 11
3019.082261213755
 21
1760.416563417289
 31
0.0
1001
ACAD
1000
ASC_BOUNDS
1002
{
1070
    19
1005
0
1002
}
  0
LINE
  5
7C59
330
8188
100
AcDbEntity
  8
2
100
AcDbLine
 10
4068.091456407329
 20
1660.416563417289
 30
0.0
 11
4068.091456407331
 21
3387.916491952243
 31
0.0
  0
LINE
  5
7C5A
330
8188
100
AcDbEntity
  8
2
100
AcDbLine
 10
3215.681003044527
 20
2710.41656341729
 30
0.0
 11
4654.373814802644
 21
2710.41656341729
 31
0.0
  0
LINE
  5
7C5B
330
8188
100
AcDbEntity
  8
1
100
AcDbLine
 10
3416.091456407331
 20
1660.416563417289
 30
0.0
 11
4546.091456407329
 21
1660.416563417289
 31
0.0
  0
LINE
  5
7C5C
330
8188
100
AcDbEntity
  8
1
100
AcDbLine
 10
3416.091456407331
 20
1760.416563417289
 30
0.0
 11
4571.091456407329
 21
1760.416563417289
 31
0.0
1001
ACAD
1000
ASC_BOUNDS
1002
{
1070
    19
1002
}
  0
LINE
  5
7C5D
330
8188
100
AcDbEntity
  8
2
100
AcDbLine
 10
1869.082261213754
 20
5340.422289151774
 30
0.0
 11
1869.082261213754
 21
3884.641085287288
 31
0.0
  0
LINE
  5
7C5E
330
8188
100
AcDbEntity
  8
2
100
AcDbLine
 10
2769.082261213755
 20
4726.443217536493
 30
0.0
 11
2769.082261213753
 21
3884.641085287288
 31
0.0
  0
LINE
  5
7C5F
330
8188
100
AcDbEntity
  8
2
100
AcDbLine
 10
1271.884064185675
 20
4755.532285537254
 30
0.0
 11
3211.608730158625
 21
4755.532285537258
 31
0.0
  0
LINE
  5
7C60
330
8188
100
AcDbEntity
  8
2
100
AcDbLine
 10
3215.570892190357
 20
2190.416563417289
 30
0.0
 11
4111.808110897109
 21
2190.416563417289
 31
0.0
  0
LINE
  5
7C61
330
8188
100
AcDbEntity
  8
1
100
AcDbLine
 10
4518.091456407328
 20
1951.416563417289
 30
0.0
 11
4518.091456407328
 21
2710.41656341729
 31
0.0
  0
POINT
  5
7C62
330
8188
100
AcDbEntity
  8
1
100
AcDbPoint
 10
1419.082261213754
 20
1660.416563417289
 30
0.0
  0
INSERT
  5
7C64
330
8188
100
AcDbEntity
  8
0
100
AcDbBlockReference
  2
YA_N
 10
-1092.024831295133
 20
-1095.319682135705
 30
0.0
 41
20.0
 42
20.0
 43
20.0
  0
LINE
  5
7C66
330
8188
100
AcDbEntity
  8
1
100
AcDbLine
 10
2923.082261213755
 20
2046.416563417289
 30
0.0
 11
2903.649761213754
 21
2099.80656341729
 31
0.0
  0
LINE
  5
7C67
330
8188
100
AcDbEntity
  8
1
100
AcDbLine
 10
2615.082261213754
 20
2046.416563417289
 30
0.0
 11
2634.514861213754
 21
2099.80656341729
 31
0.0
  0
ARC
  5
7C68
330
8188
100
AcDbEntity
  8
1
100
AcDbCircle
 10
2769.082261213755
 20
2190.416563417289
 30
0.0
 40
162.0
100
AcDbArc
 50
285.6481
 51
0.0
  0
ARC
  5
7C69
330
8188
100
AcDbEntity
  8
1
100
AcDbCircle
 10
2769.082261213755
 20
2190.416563417289
 30
0.0
 40
162.0
100
AcDbArc
 50
0.0
 51
254.5427
  0
LINE
  5
7C6A
330
8188
100
AcDbEntity
  8
2
100
AcDbLine
 10
2769.082261213755
 20
2439.652563417289
 30
0.0
 11
2769.082261213755
 21
1660.416563417289
 31
0.0
  0
LINE
  5
7C6B
330
8188
100
AcDbEntity
  8
1
100
AcDbLine
 10
2725.401661213754
 20
2034.416563417289
 30
0.0
 11
2812.762961213754
 21
2034.416563417289
 31
0.0
  0
LINE
  5
7C6C
330
8188
100
AcDbEntity
  8
1
100
AcDbLine
 10
2684.138361213753
 20
2052.472563417289
 30
0.0
 11
2675.960961213755
 21
2044.294563417289
 31
0.0
  0
LINE
  5
7C6D
330
8188
100
AcDbEntity
  8
1
100
AcDbLine
 10
2661.869061213753
 20
2048.416563417289
 30
0.0
 11
2617.082261213754
 21
2048.416563417289
 31
0.0
  0
ARC
  5
7C6F
330
8188
100
AcDbEntity
  8
1
100
AcDbCircle
 10
2617.082261213754
 20
2046.416563417289
 30
0.0
 40
2.0
100
AcDbArc
 50
90.0
 51
180.0
  0
LINE
  5
7C71
330
8188
100
AcDbEntity
  8
1
100
AcDbLine
 10
2615.082261213754
 20
2030.416563417289
 30
0.0
 11
2615.082261213754
 21
2046.416563417289
 31
0.0
  0
ARC
  5
7C73
330
8188
100
AcDbEntity
  8
1
100
AcDbCircle
 10
2678.082261213754
 20
2042.173563417289
 30
0.0
 40
3.0
100
AcDbArc
 50
135.0
 51
180.0
  0
LINE
  5
7C74
330
8188
100
AcDbEntity
  8
1
100
AcDbLine
 10
2675.082261213754
 20
2030.416563417289
 30
0.0
 11
2675.082261213754
 21
2042.173563417289
 31
0.0
  0
ARC
  5
7C79
330
8188
100
AcDbEntity
  8
1
100
AcDbCircle
 10
2661.869061213753
 20
2051.416563417289
 30
0.0
 40
3.0
100
AcDbArc
 50
270.0
 51
315.0
  0
LINE
  5
7C7A
330
8188
100
AcDbEntity
  8
1
100
AcDbLine
 10
2673.971061213755
 20
2059.275563417289
 30
0.0
 11
2663.990461213753
 21
2049.294563417289
 31
0.0
  0
LINE
  5
7C7C
330
8188
100
AcDbEntity
  8
1
100
AcDbLine
 10
2876.295461213755
 20
2048.416563417289
 30
0.0
 11
2921.082261213755
 21
2048.416563417289
 31
0.0
  0
LINE
  5
7C7D
330
8188
100
AcDbEntity
  8
1
100
AcDbLine
 10
2854.026161213754
 20
2052.472563417289
 30
0.0
 11
2862.203661213755
 21
2044.294563417289
 31
0.0
  0
ARC
  5
7C7E
330
8188
100
AcDbEntity
  8
1
100
AcDbCircle
 10
2860.082261213755
 20
2042.173563417289
 30
0.0
 40
3.0
100
AcDbArc
 50
0.0
 51
45.0
  0
LINE
  5
7C7F
330
8188
100
AcDbEntity
  8
1
100
AcDbLine
 10
2863.082261213755
 20
2030.416563417289
 30
0.0
 11
2863.082261213755
 21
2042.173563417289
 31
0.0
  0
ARC
  5
7C80
330
8188
100
AcDbEntity
  8
1
100
AcDbCircle
 10
2876.295461213755
 20
2051.416563417289
 30
0.0
 40
3.0
100
AcDbArc
 50
225.0
 51
270.0
  0
LINE
  5
7C81
330
8188
100
AcDbEntity
  8
1
100
AcDbLine
 10
2874.284461213754
 20
2049.184563417289
 30
0.0
 11
2864.193461213754
 21
2059.275563417289
 31
0.0
  0
ARC
  5
7C88
330
8188
100
AcDbEntity
  8
1
100
AcDbCircle
 10
2921.082261213755
 20
2046.416563417289
 30
0.0
 40
2.0
100
AcDbArc
 50
0.0
 51
90.0
  0
LINE
  5
7C89
330
8188
100
AcDbEntity
  8
1
100
AcDbLine
 10
2923.082261213755
 20
2030.416563417289
 30
0.0
 11
2923.082261213755
 21
2046.416563417289
 31
0.0
  0
LINE
  5
7C8A
330
8188
100
AcDbEntity
  8
2
100
AcDbLine
 10
2576.22538631423
 20
2190.416563417289
 30
0.0
 11
2966.841188432425
 21
2190.416563417289
 31
0.0
  0
LINE
  5
7C8B
330
8188
100
AcDbEntity
  8
1
100
AcDbLine
 10
2579.122793843495
 20
2030.416563417289
 30
0.0
 11
2709.082261213754
 21
2030.416563417289
 31
0.0
  0
LINE
  5
7C8C
330
8188
100
AcDbEntity
  8
1
100
AcDbLine
 10
2566.082261213754
 20
1980.416563417289
 30
0.0
 11
2579.122793843495
 21
2030.416563417289
 31
0.0
  0
LINE
  5
7C8D
330
8188
100
AcDbEntity
  8
1
100
AcDbLine
 10
2972.082261213755
 20
1980.416563417289
 30
0.0
 11
2958.700820304822
 21
2030.416563417289
 31
0.0
  0
LINE
  5
7C8E
330
8188
100
AcDbEntity
  8
1
100
AcDbLine
 10
2829.082261213755
 20
2030.416563417289
 30
0.0
 11
2829.082261213755
 21
2025.416563417289
 31
0.0
  0
LINE
  5
7C8F
330
8188
100
AcDbEntity
  8
1
100
AcDbLine
 10
2709.082261213754
 20
2030.416563417289
 30
0.0
 11
2709.082261213754
 21
2025.416563417289
 31
0.0
  0
LINE
  5
7C90
330
8188
100
AcDbEntity
  8
1
100
AcDbLine
 10
2709.082261213754
 20
2025.416563417289
 30
0.0
 11
2829.082261213755
 21
2025.416563417289
 31
0.0
  0
LINE
  5
7C92
330
8188
100
AcDbEntity
  8
1
100
AcDbLine
 10
2829.082261213755
 20
2030.416563417289
 30
0.0
 11
2958.700820304822
 21
2030.416563417289
 31
0.0
  0
POINT
  5
7C96
330
8188
100
AcDbEntity
  8
1
100
AcDbPoint
 10
1419.082261213754
 20
1665.416563417289
 30
0.0
  0
POINT
  5
7C97
330
8188
100
AcDbEntity
  8
1
100
AcDbPoint
 10
1419.082261213754
 20
1660.416563417289
 30
0.0
  0
POINT
  5
7C98
330
8188
100
AcDbEntity
  8
1
100
AcDbPoint
 10
1419.082261213754
 20
1665.416563417289
 30
0.0
  0
POINT
  5
7C99
330
8188
100
AcDbEntity
  8
1
100
AcDbPoint
 10
1419.082261213754
 20
1700.416563417289
 30
0.0
  0
DIMENSION
  5
7C9B
330
8188
100
AcDbEntity
  8
3
100
AcDbDimension
  2
*D4
 10
1220.074877434528
 20
2681.416563417289
 30
0.0
 11
1170.074877434528
 21
2316.416563417289
 31
0.0
 12
1121.493693569369
 22
2201.82308519589
 32
0.0
 71
     5
 42
-1.0
  3
Standard
100
AcDbAlignedDimension
 13
1369.082261213754
 23
1951.416563417289
 33
0.0
 14
1369.082261213753
 24
2681.416563417289
 34
0.0
 50
90.0
100
AcDbRotatedDimension
1001
ACAD
1000
DSTYLE
1002
{
1070
    40
1040
25.0
1002
}
  0
DIMENSION
  5
7C9C
330
8188
100
AcDbEntity
  8
3
100
AcDbDimension
  2
*D5
 10
1067.266103960862
 20
2710.41656341729
 30
0.0
 11
1017.266103960863
 21
2330.916563417289
 31
0.0
 12
1121.493693569369
 22
2201.82308519589
 32
0.0
 71
     5
 42
-1.0
  3
Standard
100
AcDbAlignedDimension
 13
1369.082261213754
 23
1951.416563417289
 33
0.0
 14
1246.816422408324
 24
2710.41656341729
 34
0.0
 50
90.0
100
AcDbRotatedDimension
1001
ACAD
1000
DSTYLE
1002
{
1070
    40
1040
25.0
1002
}
  0
LINE
  5
7C9D
330
8188
100
AcDbEntity
  8
1
100
AcDbLine
 10
4521.091456407329
 20
1660.416563417289
 30
0.0
 11
4571.091456407329
 21
1660.416563417289
 31
0.0
  0
POINT
  5
7C9E
330
8188
100
AcDbEntity
  8
1
100
AcDbPoint
 10
1419.082261213754
 20
1665.416563417289
 30
0.0
  0
POINT
  5
7C9F
330
8188
100
AcDbEntity
  8
1
100
AcDbPoint
 10
1419.082261213754
 20
1660.416563417289
 30
0.0
  0
POINT
  5
7CA0
330
8188
100
AcDbEntity
  8
1
100
AcDbPoint
 10
1419.082261213754
 20
1665.416563417289
 30
0.0
  0
POINT
  5
7CA1
330
8188
100
AcDbEntity
  8
1
100
AcDbPoint
 10
1419.082261213754
 20
1700.416563417289
 30
0.0
  0
INSERT
  5
7CA2
330
8188
100
AcDbEntity
  8
0
100
AcDbBlockReference
  2
YA_N
 10
-1018.773193578214
 20
-860.9217325598891
 30
0.0
 41
20.0
 42
20.0
 43
20.0
  0
POINT
  5
7CA4
330
8188
100
AcDbEntity
  8
1
100
AcDbPoint
 10
1419.082261213754
 20
1760.416563417289
 30
0.0
  0
POINT
  5
7CA5
330
8188
100
AcDbEntity
  8
1
100
AcDbPoint
 10
1419.082261213754
 20
1660.416563417289
 30
0.0
  0
POINT
  5
7CA6
330
8188
100
AcDbEntity
  8
1
100
AcDbPoint
 10
1419.082261213754
 20
1760.416563417289
 30
0.0
  0
LINE
  5
7CA7
330
8188
100
AcDbEntity
  8
1
100
AcDbLine
 10
4518.091456407328
 20
2710.41656341729
 30
0.0
 11
4518.091456407328
 21
3216.416563417289
 31
0.0
  0
LINE
  5
7CA9
330
8188
100
AcDbEntity
  8
1
100
AcDbLine
 10
3618.09145640733
 20
2710.41656341729
 30
0.0
 11
3618.09145640733
 21
3216.416563417289
 31
0.0
  0
LINE
  5
7CAB
330
8188
100
AcDbEntity
  8
1
100
AcDbLine
 10
4530.591456407329
 20
2575.216563417289
 30
0.0
 11
4530.591456407331
 21
2695.216563417289
 31
0.0
  0
LINE
  5
7CAC
330
8188
100
AcDbEntity
  8
1
100
AcDbLine
 10
4628.091456407328
 20
2585.21656341729
 30
0.0
 11
4628.091456407331
 21
2685.21656341729
 31
0.0
  0
LINE
  5
7CAD
330
8188
100
AcDbEntity
  8
1
100
AcDbLine
 10
4530.591456407331
 20
2695.216563417289
 30
0.0
 11
4570.391456407331
 21
2695.216563417289
 31
0.0
  0
LINE
  5
7CAE
330
8188
100
AcDbEntity
  8
1
100
AcDbLine
 10
4530.591456407329
 20
2575.216563417289
 30
0.0
 11
4570.391456407331
 21
2575.216563417289
 31
0.0
  0
ARC
  5
7CAF
330
8188
100
AcDbEntity
  8
1
100
AcDbCircle
 10
4618.09145640733
 20
2685.216563417291
 30
0.0
 40
10.0
100
AcDbArc
 50
359.9999999999982
 51
90.0
  0
ARC
  5
7CB0
330
8188
100
AcDbEntity
  8
1
100
AcDbCircle
 10
4618.09145640733
 20
2585.216563417291
 30
0.0
 40
10.0
100
AcDbArc
 50
270.0
 51
359.9999999999982
  0
LINE
  5
7CB1
330
8188
100
AcDbEntity
  8
1
100
AcDbLine
 10
4570.391456407331
 20
2575.216563417289
 30
0.0
 11
4618.09145640733
 21
2575.216563417289
 31
0.0
  0
LINE
  5
7CB2
330
8188
100
AcDbEntity
  8
1
100
AcDbLine
 10
4570.391456407331
 20
2695.216563417289
 30
0.0
 11
4618.09145640733
 21
2695.216563417289
 31
0.0
  0
LINE
  5
7CB3
330
8188
100
AcDbEntity
  8
1
100
AcDbLine
 10
2969.082261213755
 20
1940.416563417289
 30
0.0
 11
2969.082261213755
 21
1980.416563417289
 31
0.0
  0
POINT
  5
7CB4
330
8188
100
AcDbEntity
  8
1
100
AcDbPoint
 10
4628.091456407331
 20
2685.21656341729
 30
0.0
  0
LINE
  5
7CB5
330
8188
100
AcDbEntity
  8
1
100
AcDbLine
 10
1419.082261213754
 20
5258.532285537255
 30
0.0
 11
2319.082261213754
 21
5258.532285537256
 31
0.0
  0
LINE
  5
7CB6
330
8188
100
AcDbEntity
  8
1
100
AcDbLine
 10
1419.082261213754
 20
4103.532285537254
 30
0.0
 11
3019.082261213755
 21
4103.532285537256
 31
0.0
  0
LINE
  5
7CB7
330
8188
100
AcDbEntity
  8
1
100
AcDbLine
 10
1419.082261213754
 20
5258.532285537256
 30
0.0
 11
1419.082261213754
 21
5205.532285537255
 31
0.0
  0
LINE
  5
7CB8
330
8188
100
AcDbEntity
  8
1
100
AcDbLine
 10
2319.082261213754
 20
5258.532285537256
 30
0.0
 11
2319.082261213754
 21
5205.532285537255
 31
0.0
  0
LINE
  5
7CB9
330
8188
100
AcDbEntity
  8
1
100
AcDbLine
 10
3019.082261213755
 20
4773.532285537258
 30
0.0
 11
3019.082261213755
 21
4103.532285537257
 31
0.0
  0
LINE
  5
7CBA
330
8188
100
AcDbEntity
  8
1
100
AcDbLine
 10
2481.082261213754
 20
4773.532285537256
 30
0.0
 11
3019.082261213755
 21
4773.532285537258
 31
0.0
  0
POINT
  5
7CBB
330
8188
100
AcDbEntity
  8
1
100
AcDbPoint
 10
1419.082261213754
 20
1760.416563417289
 30
0.0
  0
POINT
  5
7CBC
330
8188
100
AcDbEntity
  8
1
100
AcDbPoint
 10
1419.082261213754
 20
1660.416563417289
 30
0.0
  0
POINT
  5
7CBD
330
8188
100
AcDbEntity
  8
1
100
AcDbPoint
 10
1419.082261213754
 20
1760.416563417289
 30
0.0
  0
LINE
  5
7CBE
330
8188
100
AcDbEntity
  8
1
100
AcDbLine
 10
1419.082261213754
 20
1840.416563417289
 30
0.0
 11
3019.082261213755
 21
1840.416563417289
 31
0.0
1001
ACAD
1000
ASC_BOUNDS
1002
{
1070
    19
1002
}
  0
LINE
  5
7CBF
330
8188
100
AcDbEntity
  8
1
100
AcDbLine
 10
1419.082261213754
 20
1940.416563417289
 30
0.0
 11
3019.082261213755
 21
1940.416563417289
 31
0.0
1001
ACAD
1000
ASC_BOUNDS
1002
{
1070
    19
1005
0
1002
}
  0
LINE
  5
7CC0
330
8188
100
AcDbEntity
  8
1
100
AcDbLine
 10
3019.082261213755
 20
1940.416563417289
 30
0.0
 11
3019.082261213755
 21
1840.416563417289
 31
0.0
  0
LINE
  5
7CC1
330
8188
100
AcDbEntity
  8
1
100
AcDbLine
 10
1419.082261213754
 20
1940.416563417289
 30
0.0
 11
1419.082261213754
 21
1840.416563417289
 31
0.0
  0
POINT
  5
7CC8
330
8188
100
AcDbEntity
  8
1
100
AcDbPoint
 10
1419.082261213754
 20
1760.416563417289
 30
0.0
  0
POINT
  5
7CC9
330
8188
100
AcDbEntity
  8
1
100
AcDbPoint
 10
1419.082261213754
 20
1660.416563417289
 30
0.0
  0
POINT
  5
7CCA
330
8188
100
AcDbEntity
  8
1
100
AcDbPoint
 10
1419.082261213754
 20
1760.416563417289
 30
0.0
  0
POINT
  5
7CCB
330
8188
100
AcDbEntity
  8
1
100
AcDbPoint
 10
1419.082261213754
 20
1840.416563417289
 30
0.0
  0
CIRCLE
  5
7CD1
330
8188
100
AcDbEntity
  8
1
100
AcDbCircle
 10
2769.082261213755
 20
2190.416563417289
 30
0.0
 40
79.0
  0
CIRCLE
  5
7CD2
330
8188
100
AcDbEntity
  8
1
100
AcDbCircle
 10
1869.082261213754
 20
2710.41656341729
 30
0.0
 40
203.2
  0
LINE
  5
7CD3
330
8188
100
AcDbEntity
  8
1
100
AcDbLine
 10
1938.501630684807
 20
2901.390884052922
 30
0.0
 11
2796.071090880158
 21
2264.663469569923
 31
0.0
  0
LINE
  5
7CD4
330
8188
100
AcDbEntity
  8
1
100
AcDbLine
 10
1853.23135021975
 20
2507.835743444963
 30
0.0
 11
2762.919751526125
 21
2111.657287935921
 31
0.0
  0
ARC
  5
7CD5
330
8188
100
AcDbEntity
  8
1
100
AcDbCircle
 10
1869.082261213754
 20
2710.41656341729
 30
0.0
 40
280.0
100
AcDbArc
 50
69.65938634983065
 51
265.8903682986978
  0
ARC
  5
7CD6
330
8188
100
AcDbEntity
  8
1
100
AcDbCircle
 10
2769.082261213755
 20
2190.416563417289
 30
0.0
 40
150.0
100
AcDbArc
 50
265.8903682986978
 51
69.65938634983065
  0
LINE
  5
7CD7
330
8188
100
AcDbEntity
  8
1
100
AcDbLine
 10
1966.41036743107
 20
2972.956540830541
 30
0.0
 11
2821.222318115887
 21
2331.062979888673
 31
0.0
  0
LINE
  5
7CD8
330
8188
100
AcDbEntity
  8
1
100
AcDbLine
 10
1849.016028172347
 20
2431.13651348259
 30
0.0
 11
2758.332493513
 21
2040.802250952272
 31
0.0
  0
INSERT
  5
7CD9
330
8188
100
AcDbEntity
  8
0
100
AcDbBlockReference
  2
YA_N
 10
2545.878788900856
 20
-1567.120050791241
 30
0.0
  0
LINE
  5
7CDB
330
8188
100
AcDbEntity
  8
1
100
AcDbLine
 10
3416.091456407331
 20
1940.416563417289
 30
0.0
 11
4571.091456407329
 21
1940.416563417289
 31
0.0
1001
ACAD
1000
ASC_BOUNDS
1002
{
1070
    19
1002
}
  0
LINE
  5
7CDC
330
8188
100
AcDbEntity
  8
1
100
AcDbLine
 10
3416.091456407331
 20
1660.416563417289
 30
0.0
 11
3416.091456407329
 21
1760.416563417289
 31
0.0
  0
LINE
  5
7CDD
330
8188
100
AcDbEntity
  8
1
100
AcDbLine
 10
3416.091456407331
 20
1840.416563417289
 30
0.0
 11
4571.091456407329
 21
1840.416563417289
 31
0.0
  0
LINE
  5
7CDE
330
8188
100
AcDbEntity
  8
1
100
AcDbLine
 10
4571.091456407331
 20
1660.416563417289
 30
0.0
 11
4571.091456407329
 21
1760.416563417289
 31
0.0
  0
LINE
  5
7CE1
330
8188
100
AcDbEntity
  8
1
100
AcDbLine
 10
3565.791456407328
 20
2687.216563417289
 30
0.0
 11
3525.591456407328
 21
2687.216563417289
 31
0.0
  0
LINE
  5
7CE2
330
8188
100
AcDbEntity
  8
1
100
AcDbLine
 10
3565.791456407328
 20
2567.21656341729
 30
0.0
 11
3525.59145640733
 21
2567.21656341729
 31
0.0
  0
LINE
  5
7CE3
330
8188
100
AcDbEntity
  8
1
100
AcDbLine
 10
3605.59145640733
 20
2567.21656341729
 30
0.0
 11
3605.591456407328
 21
2687.216563417289
 31
0.0
  0
LINE
  5
7CE4
330
8188
100
AcDbEntity
  8
1
100
AcDbLine
 10
3605.59145640733
 20
2567.21656341729
 30
0.0
 11
3565.791456407328
 21
2567.21656341729
 31
0.0
  0
LINE
  5
7CE5
330
8188
100
AcDbEntity
  8
1
100
AcDbLine
 10
3605.591456407328
 20
2687.216563417289
 30
0.0
 11
3565.791456407328
 21
2687.216563417289
 31
0.0
  0
LINE
  5
7CE6
330
8188
100
AcDbEntity
  8
1
100
AcDbLine
 10
3515.591456407332
 20
2577.21656341729
 30
0.0
 11
3515.591456407328
 21
2677.216563417289
 31
0.0
  0
ARC
  5
7CE7
330
8188
100
AcDbEntity
  8
1
100
AcDbCircle
 10
3525.59145640733
 20
2577.21656341729
 30
0.0
 40
10.0
100
AcDbArc
 50
180.0000000000016
 51
270.0
  0
ARC
  5
7CE8
330
8188
100
AcDbEntity
  8
1
100
AcDbCircle
 10
3525.591456407328
 20
2677.216563417289
 30
0.0
 40
10.0
100
AcDbArc
 50
90.0
 51
180.0000000000016
  0
POINT
  5
7CE9
330
8188
100
AcDbEntity
  8
1
100
AcDbPoint
 10
3515.591456407328
 20
2677.216563417289
 30
0.0
  0
LINE
  5
7CEA
330
8188
100
AcDbEntity
  8
1
100
AcDbLine
 10
3488.091456407329
 20
2685.416563417289
 30
0.0
 11
3488.091456407331
 21
2735.41656341729
 31
0.0
  0
LINE
  5
7CEB
330
8188
100
AcDbEntity
  8
1
100
AcDbLine
 10
3488.091456407331
 20
2735.41656341729
 30
0.0
 11
3618.091456407329
 21
2735.416563417289
 31
0.0
  0
LINE
  5
7CEC
330
8188
100
AcDbEntity
  8
1
100
AcDbLine
 10
3488.091456407331
 20
2685.416563417289
 30
0.0
 11
3519.99145640733
 21
2685.416563417289
 31
0.0
  0
LINE
  5
7CED
330
8188
100
AcDbEntity
  8
1
100
AcDbLine
 10
3464.091456407329
 20
2731.416563417289
 30
0.0
 11
3488.091456407329
 21
2731.416563417289
 31
0.0
  0
LINE
  5
7CEE
330
8188
100
AcDbEntity
  8
1
100
AcDbLine
 10
3464.091456407329
 20
2689.416563417289
 30
0.0
 11
3488.091456407329
 21
2689.416563417289
 31
0.0
  0
LINE
  5
7CEF
330
8188
100
AcDbEntity
  8
1
100
AcDbLine
 10
3464.091456407321
 20
2111.416563417289
 30
0.0
 11
3464.091456407333
 21
2913.616563417289
 31
0.0
  0
LINE
  5
7CF0
330
8188
100
AcDbEntity
  8
1
100
AcDbLine
 10
3363.091456407331
 20
2913.616563417289
 30
0.0
 11
3464.091456407333
 21
2913.616563417289
 31
0.0
  0
LINE
  5
7CF1
330
8188
100
AcDbEntity
  8
1
100
AcDbLine
 10
3363.091456407325
 20
2507.216563417289
 30
0.0
 11
3464.091456407328
 21
2507.216563417289
 31
0.0
  0
LINE
  5
7CF2
330
8188
100
AcDbEntity
  8
1
100
AcDbLine
 10
3363.091456407321
 20
2111.416563417289
 30
0.0
 11
3363.091456407332
 21
2913.616563417291
 31
0.0
  0
LINE
  5
7CF3
330
8188
100
AcDbEntity
  8
1
100
AcDbLine
 10
3363.091456407328
 20
2269.416563417289
 30
0.0
 11
3464.091456407328
 21
2269.416563417289
 31
0.0
  0
LINE
  5
7CF4
330
8188
100
AcDbEntity
  8
1
100
AcDbLine
 10
3363.091456407325
 20
2111.416563417289
 30
0.0
 11
3464.091456407326
 21
2111.416563417289
 31
0.0
  0
LINE
  5
7CF5
330
8188
100
AcDbEntity
  8
1
100
AcDbLine
 10
3228.091456407333
 20
2990.416563417289
 30
0.0
 11
3514.091456407333
 21
2990.416563417289
 31
0.0
  0
LINE
  5
7CF6
330
8188
100
AcDbEntity
  8
1
100
AcDbLine
 10
3228.091456407326
 20
2040.416563417289
 30
0.0
 11
3514.091456407324
 21
2040.416563417289
 31
0.0
  0
LINE
  5
7CF7
330
8188
100
AcDbEntity
  8
1
100
AcDbLine
 10
3514.091456407324
 20
2040.416563417289
 30
0.0
 11
3514.091456407324
 21
2060.416563417289
 31
0.0
  0
LINE
  5
7CF8
330
8188
100
AcDbEntity
  8
1
100
AcDbLine
 10
3228.09145640732
 20
2040.416563417289
 30
0.0
 11
3228.091456407333
 21
2990.416563417289
 31
0.0
  0
LINE
  5
7CF9
330
8188
100
AcDbEntity
  8
1
100
AcDbLine
 10
3514.091456407333
 20
2970.416563417289
 30
0.0
 11
3514.091456407333
 21
2990.416563417289
 31
0.0
  0
DIMENSION
  5
7CFA
330
8188
100
AcDbEntity
  8
3
100
AcDbDimension
  2
*D6
 10
4518.091456407328
 20
3403.363348091053
 30
0.0
 11
4068.091456407329
 21
3453.363348091054
 31
0.0
 12
223.8193824768604
 22
2201.82308519589
 32
0.0
 71
     5
 42
-1.0
  3
Standard
100
AcDbAlignedDimension
 13
3618.091456407329
 23
3211.758674958397
 33
0.0
 14
4518.091456407328
 24
3211.758661221389
 34
0.0
100
AcDbRotatedDimension
1001
ACAD
1000
DSTYLE
1002
{
1070
    40
1040
25.0
1002
}
  0
DIMENSION
  5
7CFE
330
8188
100
AcDbEntity
  8
3
100
AcDbDimension
  2
*D10
 10
4795.873591362751
 20
3085.41656341729
 30
0.0
 11
4745.873591362751
 21
2710.41656341729
 31
0.0
 12
223.8193824768604
 22
2201.82308519589
 32
0.0
  1
\U+03C6<>
 71
     5
 42
-1.0
  3
Standard
100
AcDbAlignedDimension
 13
4520.391456407329
 23
2335.416563417289
 33
0.0
 14
4520.391456407329
 24
3085.41656341729
 34
0.0
 50
90.0
100
AcDbRotatedDimension
1001
ACAD
1000
DSTYLE
1002
{
1070
    40
1040
25.0
1002
}
  0
DIMENSION
  5
7D00
330
8188
100
AcDbEntity
  8
3
100
AcDbDimension
  2
*D12
 10
3319.952766048845
 20
4773.532285537258
 30
0.0
 11
3269.952766048844
 21
4438.532285537257
 31
0.0
 12
1121.493693569369
 22
1885.186237104237
 32
0.0
 71
     5
 42
-1.0
  3
Standard
100
AcDbAlignedDimension
 13
3019.082261213755
 23
4103.532285537256
 33
0.0
 14
3019.082261213755
 24
4773.532285537258
 34
0.0
 50
270.0
100
AcDbRotatedDimension
1001
ACAD
1000
DSTYLE
1002
{
1070
    40
1040
25.0
1002
}
  0
DIMENSION
  5
7D01
330
8188
100
AcDbEntity
  8
3
100
AcDbDimension
  2
*D13
 10
1419.082261213754
 20
5560.164339941428
 30
0.0
 11
1869.082261213754
 21
5610.164339941428
 31
0.0
 12
1121.493693569369
 22
1885.186237104237
 32
0.0
 71
     5
 42
-1.0
  3
Standard
100
AcDbAlignedDimension
 13
2319.082261213754
 23
5258.532285537256
 33
0.0
 14
1419.082261213754
 24
5258.532285537256
 34
0.0
100
AcDbRotatedDimension
1001
ACAD
1000
DSTYLE
1002
{
1070
    40
1040
25.0
1002
}
  0
DIMENSION
  5
7D02
330
8188
100
AcDbEntity
  8
3
100
AcDbDimension
  2
*D14
 10
2319.082261213754
 20
5560.164339941428
 30
0.0
 11
2669.082261213754
 21
5610.164339941428
 31
0.0
 12
1121.493693569369
 22
1885.186237104237
 32
0.0
 71
     5
 42
-1.0
  3
Standard
100
AcDbAlignedDimension
 13
3019.082261213755
 23
4773.532285537258
 33
0.0
 14
2319.082261213754
 24
5258.532285537256
 34
0.0
100
AcDbRotatedDimension
1001
ACAD
1000
DSTYLE
1002
{
1070
    40
1040
25.0
1002
}
  0
DIMENSION
  5
7D03
330
8188
100
AcDbEntity
  8
3
100
AcDbDimension
  2
*D15
 10
1117.685053072497
 20
5258.532285537256
 30
0.0
 11
1067.685053072497
 21
4681.032285537256
 31
0.0
 12
1121.493693569369
 22
1885.186237104237
 32
0.0
 71
     5
 42
-1.0
  3
Standard
100
AcDbAlignedDimension
 13
1419.082261213754
 23
4103.532285537254
 33
0.0
 14
1419.082261213754
 24
5258.532285537256
 34
0.0
 50
270.0
100
AcDbRotatedDimension
1001
ACAD
1000
DSTYLE
1002
{
1070
    40
1040
25.0
1002
}
  0
LINE
  5
7D04
330
8188
100
AcDbEntity
  8
1
100
AcDbLine
 10
3416.091456407329
 20
1840.416563417289
 30
0.0
 11
3416.091456407331
 21
1940.416563417289
 31
0.0
  0
DIMENSION
  5
7D05
330
8188
100
AcDbEntity
  8
3
100
AcDbDimension
  2
*D16
 10
3019.082261213755
 20
3568.726828777172
 30
0.0
 11
2194.082261213754
 21
3618.726828777173
 31
0.0
 12
1121.493693569369
 22
2201.82308519589
 32
0.0
 71
     5
 42
-1.0
  3
Standard
100
AcDbAlignedDimension
 13
1369.082261213754
 23
2710.590039243259
 33
0.0
 14
3019.082261213755
 24
1940.416563417289
 34
0.0
100
AcDbRotatedDimension
1001
ACAD
1000
DSTYLE
1002
{
1070
    40
1040
25.0
1002
}
  0
LINE
  5
7D06
330
8188
100
AcDbEntity
  8
1
100
AcDbLine
 10
1589.082261213754
 20
3915.532285537256
 30
0.0
 11
1589.082261213754
 21
4200.532285537255
 31
0.0
  0
LINE
  5
7D07
330
8188
100
AcDbEntity
  8
1
100
AcDbLine
 10
2919.082261213755
 20
3915.532285537256
 30
0.0
 11
2919.082261213755
 21
4200.532285537255
 31
0.0
  0
LINE
  5
7D08
330
8188
100
AcDbEntity
  8
1
100
AcDbLine
 10
1665.882261213753
 20
4050.532285537256
 30
0.0
 11
1665.882261213753
 21
4150.532285537256
 31
0.0
  0
LINE
  5
7D09
330
8188
100
AcDbEntity
  8
1
100
AcDbLine
 10
2072.282261213754
 20
4050.532285537256
 30
0.0
 11
2072.282261213754
 21
4150.532285537256
 31
0.0
  0
LINE
  5
7D0A
330
8188
100
AcDbEntity
  8
1
100
AcDbLine
 10
2690.082261213754
 20
4050.532285537256
 30
0.0
 11
2690.082261213754
 21
4150.532285537256
 31
0.0
  0
LINE
  5
7D0B
330
8188
100
AcDbEntity
  8
1
100
AcDbLine
 10
2848.082261213754
 20
4050.532285537256
 30
0.0
 11
2848.082261213754
 21
4150.532285537257
 31
0.0
  0
LINE
  5
7D0C
330
8188
100
AcDbEntity
  8
1
100
AcDbLine
 10
1589.082261213754
 20
3915.532285537256
 30
0.0
 11
2919.082261213755
 21
3915.532285537256
 31
0.0
  0
LINE
  5
7D0D
330
8188
100
AcDbEntity
  8
1
100
AcDbLine
 10
1589.082261213753
 20
4200.532285537255
 30
0.0
 11
2919.082261213755
 21
4200.532285537255
 31
0.0
  0
LINE
  5
7D0E
330
8188
100
AcDbEntity
  8
1
100
AcDbLine
 10
1665.882261213753
 20
4150.532285537256
 30
0.0
 11
2072.282261213754
 21
4150.532285537256
 31
0.0
  0
LINE
  5
7D0F
330
8188
100
AcDbEntity
  8
1
100
AcDbLine
 10
1665.882261213753
 20
4050.532285537256
 30
0.0
 11
2072.282261213754
 21
4050.532285537256
 31
0.0
  0
LINE
  5
7D10
330
8188
100
AcDbEntity
  8
1
100
AcDbLine
 10
2690.082261213754
 20
4150.532285537256
 30
0.0
 11
2848.082261213754
 21
4150.532285537256
 31
0.0
  0
LINE
  5
7D11
330
8188
100
AcDbEntity
  8
1
100
AcDbLine
 10
2690.082261213754
 20
4050.532285537256
 30
0.0
 11
2848.082261213754
 21
4050.532285537256
 31
0.0
  0
LINE
  5
7D12
330
8188
100
AcDbEntity
  8
1
100
AcDbLine
 10
1369.082261213754
 20
4305.532285537254
 30
0.0
 11
2481.082261213754
 21
4305.532285537256
 31
0.0
  0
LINE
  5
7D13
330
8188
100
AcDbEntity
  8
1
100
AcDbLine
 10
1369.082261213754
 20
5205.532285537255
 30
0.0
 11
2481.082261213754
 21
5205.532285537255
 31
0.0
  0
LINE
  5
7D14
330
8188
100
AcDbEntity
  8
1
100
AcDbLine
 10
1369.082261213754
 20
5245.532285537255
 30
0.0
 11
1369.082261213754
 21
4265.532285537254
 31
0.0
  0
LINE
  5
7D15
330
8188
100
AcDbEntity
  8
1
100
AcDbLine
 10
2481.082261213754
 20
5205.532285537255
 30
0.0
 11
2481.082261213754
 21
4305.532285537256
 31
0.0
  0
LINE
  5
7D16
330
8188
100
AcDbEntity
  8
1
100
AcDbLine
 10
1369.082261213754
 20
5245.532285537255
 30
0.0
 11
1372.082261213754
 21
5245.532285537255
 31
0.0
  0
LINE
  5
7D17
330
8188
100
AcDbEntity
  8
1
100
AcDbLine
 10
1369.082261213754
 20
4265.532285537254
 30
0.0
 11
1372.082261213754
 21
4265.532285537255
 31
0.0
  0
LINE
  5
7D18
330
8188
100
AcDbEntity
  8
1
100
AcDbLine
 10
1372.082261213754
 20
5245.532285537255
 30
0.0
 11
1372.082261213754
 21
4265.532285537254
 31
0.0
  0
LINE
  5
7D19
330
8188
100
AcDbEntity
  8
1
100
AcDbLine
 10
1844.082261213754
 20
4305.532285537255
 30
0.0
 11
1844.082261213754
 21
4150.532285537256
 31
0.0
  0
LINE
  5
7D1A
330
8188
100
AcDbEntity
  8
1
100
AcDbLine
 10
1894.082261213754
 20
4305.532285537256
 30
0.0
 11
1894.082261213754
 21
4150.532285537256
 31
0.0
  0
LINE
  5
7D1B
330
8188
100
AcDbEntity
  8
1
100
AcDbLine
 10
2607.082261213754
 20
4168.532285537255
 30
0.0
 11
2607.082261213754
 21
4653.532285537256
 31
0.0
  0
LINE
  5
7D1C
330
8188
100
AcDbEntity
  8
1
100
AcDbLine
 10
2931.082261213754
 20
4168.532285537255
 30
0.0
 11
2931.082261213754
 21
4653.532285537256
 31
0.0
  0
LINE
  5
7D1D
330
8188
100
AcDbEntity
  8
1
100
AcDbLine
 10
2607.082261213754
 20
4653.532285537256
 30
0.0
 11
2931.082261213754
 21
4653.532285537256
 31
0.0
  0
LINE
  5
7D1E
330
8188
100
AcDbEntity
  8
1
100
AcDbLine
 10
2607.082261213754
 20
4168.532285537255
 30
0.0
 11
2931.082261213754
 21
4168.532285537255
 31
0.0
  0
LINE
  5
7D1F
330
8188
100
AcDbEntity
  8
1
100
AcDbLine
 10
2748.082261213754
 20
4168.532285537255
 30
0.0
 11
2748.082261213754
 21
4150.532285537256
 31
0.0
  0
LINE
  5
7D20
330
8188
100
AcDbEntity
  8
1
100
AcDbLine
 10
2790.082261213755
 20
4168.532285537255
 30
0.0
 11
2790.082261213755
 21
4150.532285537256
 31
0.0
  0
LINE
  5
7D21
330
8188
100
AcDbEntity
  8
1
100
AcDbLine
 10
3482.091456407328
 20
2352.416563417292
 30
0.0
 11
3967.091456407326
 21
2352.416563417292
 31
0.0
  0
LINE
  5
7D22
330
8188
100
AcDbEntity
  8
1
100
AcDbLine
 10
3482.091456407328
 20
2028.416563417292
 30
0.0
 11
3967.091456407326
 21
2028.416563417292
 31
0.0
  0
LINE
  5
7D23
330
8188
100
AcDbEntity
  8
1
100
AcDbLine
 10
3482.091456407328
 20
2028.416563417292
 30
0.0
 11
3482.091456407328
 21
2352.416563417292
 31
0.0
  0
LINE
  5
7D24
330
8188
100
AcDbEntity
  8
1
100
AcDbLine
 10
3482.091456407326
 20
2169.416563417292
 30
0.0
 11
3464.091456407328
 21
2169.416563417292
 31
0.0
  0
LINE
  5
7D25
330
8188
100
AcDbEntity
  8
1
100
AcDbLine
 10
3482.091456407326
 20
2211.416563417292
 30
0.0
 11
3464.091456407328
 21
2211.416563417292
 31
0.0
  0
LINE
  5
7D26
330
8188
100
AcDbEntity
  8
1
100
AcDbLine
 10
3605.591456407328
 20
2352.416563417292
 30
0.0
 11
3618.091456407329
 21
2352.416563417292
 31
0.0
  0
LINE
  5
7D2D
330
8188
100
AcDbEntity
  8
1
100
AcDbLine
 10
4571.091456407329
 20
1840.416563417289
 30
0.0
 11
4571.091456407329
 21
1940.416563417289
 31
0.0
  0
LINE
  5
7D2E
330
8188
100
AcDbEntity
  8
1
100
AcDbLine
 10
1419.082261213754
 20
4305.532285537255
 30
0.0
 11
1419.082261213754
 21
4103.532285537256
 31
0.0
  0
DIMENSION
  5
7D2F
330
8188
100
AcDbEntity
  8
3
100
AcDbDimension
  2
*D17
 10
1869.082261213754
 20
3370.30501001029
 30
0.0
 11
1619.082261213754
 21
3420.30501001029
 31
0.0
 12
1121.493693569369
 22
2201.82308519589
 32
0.0
 71
     5
 42
-1.0
  3
Standard
100
AcDbAlignedDimension
 13
1369.082261213753
 23
2723.416563417289
 33
0.0
 14
1869.082261213754
 24
3278.01209417829
 34
0.0
100
AcDbRotatedDimension
1001
ACAD
1000
DSTYLE
1002
{
1070
    40
1040
25.0
1002
}
  0
LINE
  5
7D31
330
8188
100
AcDbEntity
  8
1
100
AcDbLine
 10
3883.440154609181
 20
1951.416563417289
 30
0.0
 11
4518.091456407328
 21
1951.416563417289
 31
0.0
  0
LINE
  5
7D32
330
8188
100
AcDbEntity
  8
1
100
AcDbLine
 10
3618.09145640733
 20
3216.416563417289
 30
0.0
 11
4518.091456407328
 21
3216.416563417289
 31
0.0
  0
LINE
  5
7D3A
330
8188
100
AcDbEntity
  8
1
100
AcDbLine
 10
3967.091456407326
 20
2028.416563417292
 30
0.0
 11
3967.091456407326
 21
2352.416563417292
 31
0.0
  0
LINE
  5
7D3C
330
8188
100
AcDbEntity
  8
1
100
AcDbLine
 10
3618.09145640733
 20
2352.416563417292
 30
0.0
 11
3618.091456407329
 21
2710.41656341729
 31
0.0
  0
LINE
  5
7D3D
330
8188
100
AcDbEntity
  8
1
100
AcDbLine
 10
3883.440154609179
 20
2028.416563417292
 30
0.0
 11
3883.440154609181
 21
1940.416563417289
 31
0.0
  0
LINE
  5
7D3E
330
8188
100
AcDbEntity
  8
1
100
AcDbLine
 10
3556.820034070971
 20
2028.416563417292
 30
0.0
 11
3556.82003407097
 21
1940.416563417289
 31
0.0
  0
LINE
  5
7D3F
330
8188
100
AcDbEntity
  8
1
100
AcDbLine
 10
3556.82003407097
 20
1980.416563417289
 30
0.0
 11
3883.440154609181
 21
1980.416563417289
 31
0.0
  0
LINE
  5
7F81
330
8188
100
AcDbEntity
  8
4
100
AcDbLine
 10
4625.0
 20
1250.0
 30
0.0
 11
4625.0
 21
750.0
 31
0.0
  0
LINE
  5
7F82
330
8188
100
AcDbEntity
  8
4
100
AcDbLine
 10
2875.0
 20
1250.0
 30
0.0
 11
2875.0
 21
750.0
 31
0.0
  0
LINE
  5
7F83
330
8188
100
AcDbEntity
  8
4
100
AcDbLine
 10
1625.0
 20
1250.0
 30
0.0
 11
1625.0
 21
750.0
 31
0.0
  0
LINE
  5
7F86
330
8188
100
AcDbEntity
  8
4
100
AcDbLine
 10
1625.0
 20
750.0
 30
0.0
 11
4625.0
 21
750.0
 31
0.0
  0
LINE
  5
7F87
330
8188
100
AcDbEntity
  8
4
100
AcDbLine
 10
1625.0
 20
1000.0
 30
0.0
 11
4625.0
 21
1000.0
 31
0.0
  0
TEXT
  5
7F88
330
8188
100
AcDbEntity
  8
4
100
AcDbText
 10
1721.255202117253
 20
1078.857564666532
 30
0.0
 40
125.0
  1
機器名称
100
AcDbText
  0
TEXT
  5
7F89
330
8188
100
AcDbEntity
  8
4
100
AcDbText
 10
1715.645265061993
 20
804.1128918300273
 30
0.0
 40
125.0
  1
機器型番
100
AcDbText
  0
TEXT
  5
7F8A
330
8188
100
AcDbEntity
  8
4
100
AcDbText
 10
2944.196863719162
 20
1056.429422393921
 30
0.0
 40
125.0
  1
ミツヤ多翼送風機
100
AcDbText
  0
TEXT
  5
7F8B
330
8188
100
AcDbEntity
  8
4
100
AcDbText
 10
2966.636238963701
 20
792.8989606998584
 30
0.0
 40
125.0
  1
MF#4 1/2-5
100
AcDbText
  0
TEXT
  5
7F8D
330
8188
100
AcDbEntity
  8
4
100
AcDbText
 10
1931.937068338837
 20
5958.572103331289
 30
0.0
 40
135.0
  1
床置防振ベット
100
AcDbText
  0
TEXT
  5
7F8E
330
8188
100
AcDbEntity
  8
4
100
AcDbText
 10
790.4189833236158
 20
6334.702440498245
 30
0.0
 40
180.0
  1
遠心式両吸込両持多翼ファン
100
AcDbText
  0
LINE
  5
7F8F
330
8188
100
AcDbEntity
  8
4
100
AcDbLine
 10
625.0
 20
6173.521885662012
 30
0.0
 11
4625.0
 21
6173.521885662012
 31
0.0
  0
LINE
  5
7F90
330
8188
100
AcDbEntity
  8
4
100
AcDbLine
 10
625.0
 20
6673.521885662011
 30
0.0
 11
4625.0
 21
6673.521885662011
 31
0.0
  0
LINE
  5
7F91
330
8188
100
AcDbEntity
  8
4
100
AcDbLine
 10
1625.0
 20
1250.0
 30
0.0
 11
4625.0
 21
1250.0
 31
0.0
  0
LINE
  5
7F92
330
8188
100
AcDbEntity
  8
4
100
AcDbLine
 10
625.0
 20
6673.521885662011
 30
0.0
 11
625.0
 21
6173.521885662012
 31
0.0
  0
TEXT
  5
7F93
330
8188
100
AcDbEntity
  8
4
100
AcDbText
 10
842.2899877320814
 20
5955.798693865858
 30
0.0
 40
135.0
  1
右回転左横向
100
AcDbText
  0
TEXT
  5
7F94
330
8188
100
AcDbEntity
  8
4
100
AcDbText
 10
3672.423898123224
 20
6765.15270373827
 30
0.0
 40
140.0
  1
No.
100
AcDbText
  0
TEXT
  5
7F95
330
8188
100
AcDbEntity
  8
4
100
AcDbText
 10
3278.240156500032
 20
5958.572103331289
 30
0.0
 40
135.0
  1
縮尺：1/25
100
AcDbText
  0
LINE
  5
7F96
330
8188
100
AcDbEntity
  8
4
100
AcDbLine
 10
4625.0
 20
6673.521885662011
 30
0.0
 11
4625.0
 21
6173.521885662012
 31
0.0
  0
LINE
  5
7F97
330
8188
100
AcDbEntity
  8
4
100
AcDbLine
 10
5250.0
 20
7375.0
 30
0.0
 11
5250.0
 21
7375.0
 31
0.0
  0
LINE
  5
7F98
330
8188
100
AcDbEntity
  8
4
100
AcDbLine
 10
3601.543555899662
 20
6703.158957813504
 30
0.0
 11
3601.543555899662
 21
6966.630653874381
 31
0.0
  0
LINE
  5
7F99
330
8188
100
AcDbEntity
  8
4
100
AcDbLine
 10
3601.543555899662
 20
6966.630653874381
 30
0.0
 11
4625.0
 21
6966.630653874381
 31
0.0
  0
LINE
  5
7F9A
330
8188
100
AcDbEntity
  8
4
100
AcDbLine
 10
4625.0
 20
6966.630653874381
 30
0.0
 11
4625.0
 21
6703.158957813504
 31
0.0
  0
LINE
  5
7F9B
330
8188
100
AcDbEntity
  8
4
100
AcDbLine
 10
4625.0
 20
6703.158957813504
 30
0.0
 11
3601.543555899662
 21
6703.158957813504
 31
0.0
  0
LINE
  5
7F9C
330
8188
100
AcDbEntity
  8
4
100
AcDbLine
 10
0.0
 20
0.0
 30
0.0
 11
0.0
 21
7375.0
 31
0.0
  0
LINE
  5
7F9D
330
8188
100
AcDbEntity
  8
4
100
AcDbLine
 10
0.0
 20
7375.0
 30
0.0
 11
5250.0
 21
7375.0
 31
0.0
  0
LINE
  5
7F9E
330
8188
100
AcDbEntity
  8
4
100
AcDbLine
 10
5250.0
 20
7375.0
 30
0.0
 11
5250.0
 21
0.0
 31
0.0
  0
LINE
  5
7F9F
330
8188
100
AcDbEntity
  8
4
100
AcDbLine
 10
5250.0
 20
0.0
 30
0.0
 11
0.0
 21
0.0
 31
0.0
  0
LINE
  5
825A
330
8188
100
AcDbEntity
  8
1
100
AcDbLine
 10
1372.082261213754
 20
1951.775073040469
 30
0.0
 11
1898.991498369696
 21
2014.74241706144
 31
0.0
  0
ARC
  5
825B
330
8188
100
AcDbEntity
  8
1
100
AcDbCircle
 10
1816.082261213752
 20
2657.41656341729
 30
0.0
 40
648.0
100
AcDbArc
 50
277.3509360175294
 51
0.0
  0
ARC
  5
825C
330
8188
100
AcDbEntity
  8
1
100
AcDbCircle
 10
1922.082261213752
 20
2657.41656341729
 30
0.0
 40
541.9999999999998
100
AcDbArc
 50
0.0
 51
95.61169143310451
  0
ARC
  5
825D
330
8188
100
AcDbEntity
  8
1
100
AcDbCircle
 10
1910.082261213752
 20
2751.41656341729
 30
0.0
 40
448.0
100
AcDbArc
 50
95.25093431655038
 51
180.0
  0
ARC
  5
825E
330
8188
100
AcDbEntity
  8
1
100
AcDbCircle
 10
1828.082261213752
 20
2751.41656341729
 30
0.0
 40
366.0
100
AcDbArc
 50
180.0
 51
191.0261404812859
  0
LINE
  5
825F
330
8188
100
AcDbEntity
  8
1
100
AcDbLine
 10
1369.082261213752
 20
2681.41656341729
 30
0.0
 11
1468.838611304668
 21
2681.41656341729
 31
0.0
  0
LINE
  5
8260
330
8188
100
AcDbEntity
  8
1
100
AcDbLine
 10
1369.082261213754
 20
1909.416563417289
 30
0.0
 11
1369.082261213752
 21
2723.41656341729
 31
0.0
  0
LINE
  5
8261
330
8188
100
AcDbEntity
  8
1
100
AcDbLine
 10
1369.082261213754
 20
1909.416563417289
 30
0.0
 11
1372.082261213754
 21
1909.416563417289
 31
0.0
  0
LINE
  5
8262
330
8188
100
AcDbEntity
  8
1
100
AcDbLine
 10
1369.082261213752
 20
2723.41656341729
 30
0.0
 11
1372.082261213754
 21
2723.41656341729
 31
0.0
  0
LINE
  5
8263
330
8188
100
AcDbEntity
  8
1
100
AcDbLine
 10
1409.082261213754
 20
1954.865794989894
 30
0.0
 11
1409.082261213754
 21
2681.41656341729
 31
0.0
  0
LINE
  5
8264
330
8188
100
AcDbEntity
  8
1
100
AcDbLine
 10
1372.082261213754
 20
1909.416563417289
 30
0.0
 11
1372.082261213754
 21
2723.41656341729
 31
0.0
  0
POINT
  5
8265
330
8188
100
AcDbEntity
  8
1
100
AcDbPoint
 10
1408.899688749303
 20
2710.41656341729
 30
0.0
  0
LINE
  5
8266
330
8188
100
AcDbEntity
  8
1
100
AcDbLine
 10
1365.600455581261
 20
2710.41656341729
 30
0.0
 11
1349.927150164945
 21
2710.41656341729
 31
0.0
  0
CIRCLE
  5
8267
330
8188
100
AcDbEntity
  8
1
100
AcDbCircle
 10
1869.082261213754
 20
2710.41656341729
 30
0.0
 40
375.0
  0
CIRCLE
  5
8268
330
8188
100
AcDbEntity
  8
1
100
AcDbCircle
 10
1869.082261213754
 20
2710.41656341729
 30
0.0
 40
415.0
  0
DIMENSION
  5
8269
330
8188
100
AcDbEntity
  8
3
100
AcDbDimension
  2
*D31
 10
4068.091456407331
 20
3569.726686055598
 30
0.0
 11
3648.091456407332
 21
3651.869543198455
 31
0.0
 70
    32
 71
     5
 42
839.9999999999982
  3
IGA
100
AcDbAlignedDimension
 13
3228.091456407333
 23
2990.416563417289
 33
0.0
 14
4068.091456407331
 24
3490.863348091053
 34
0.0
100
AcDbRotatedDimension
1001
ACAD
1000
DSTYLE
1002
{
1070
     3
1000
(<>)
1070
    40
1040
25.0
1070
    42
1040
1.0
1070
   143
1040
0.039
1070
   172
1070
     1
1070
   271
1070
     4
1070
   272
1070
     4
1070
   279
1070
     0
1070
   284
1070
     0
1070
   285
1070
     0
1070
   286
1070
     0
1070
   341
1005
819C
1070
   343
1005
819C
1070
   344
1005
819C
1002
}
  0
DIMENSION
  5
8276
330
8188
100
AcDbEntity
  8
3
100
AcDbDimension
  2
*D32
 10
4628.091456407331
 20
3569.726686055598
 30
0.0
 11
4348.09145640733
 21
3651.869543198455
 31
0.0
 70
    32
 71
     5
 42
560.0
  3
IGA
100
AcDbAlignedDimension
 13
4068.091456407331
 23
3490.863348091053
 33
0.0
 14
4628.091456407331
 24
2685.21656341729
 34
0.0
100
AcDbRotatedDimension
1001
ACAD
1000
DSTYLE
1002
{
1070
     3
1000
(<>)
1070
    40
1040
25.0
1070
    42
1040
1.0
1070
   143
1040
0.039
1070
   172
1070
     1
1070
   271
1070
     4
1070
   272
1070
     4
1070
   279
1070
     1
1070
   284
1070
     0
1070
   285
1070
     0
1070
   286
1070
     0
1070
   341
1005
819C
1070
   343
1005
819C
1070
   344
1005
819C
1002
}
  0
DIMENSION
  5
82AA
330
8188
100
AcDbEntity
  8
3
100
AcDbDimension
  2
*D33
 10
3019.082261213755
 20
3768.698824000985
 30
0.0
 11
2219.082261213754
 21
3831.198824000985
 31
0.0
 70
    32
 71
     5
 42
1600.0
  3
IGA
100
AcDbAlignedDimension
 13
1419.082261213754
 23
4103.532285537254
 33
0.0
 14
3019.082261213755
 24
4103.532285537256
 34
0.0
100
AcDbRotatedDimension
1001
ACAD
1000
DSTYLE
1002
{
1070
    40
1040
25.0
1070
    42
1040
1.0
1070
   143
1040
0.039
1070
   172
1070
     1
1070
   271
1070
     4
1070
   272
1070
     4
1070
   279
1070
     0
1070
   284
1070
     0
1070
   285
1070
     0
1070
   286
1070
     0
1070
   341
1005
819C
1070
   343
1005
819C
1070
   344
1005
819C
1002
}
  0
DIMENSION
  5
8310
330
8188
100
AcDbEntity
  8
3
100
AcDbDimension
  2
*D41
 10
4068.091456407329
 20
1519.3440940209
 30
0.0
 11
3742.09145640733
 21
1581.8440940209
 31
0.0
 70
    32
 71
     5
 42
651.9999999999986
  3
IGA
100
AcDbAlignedDimension
 13
3416.091456407331
 23
1660.416563417289
 33
0.0
 14
4068.091456407329
 24
1660.416563417289
 34
0.0
100
AcDbRotatedDimension
1001
ACAD
1000
DSTYLE
1002
{
1070
    40
1040
25.0
1070
    42
1040
1.0
1070
   143
1040
0.039
1070
   172
1070
     1
1070
   271
1070
     4
1070
   272
1070
     4
1070
   279
1070
     0
1070
   284
1070
     0
1070
   285
1070
     0
1070
   286
1070
     0
1070
   341
1005
819C
1070
   343
1005
819C
1070
   344
1005
819C
1002
}
  0
DIMENSION
  5
831D
330
8188
100
AcDbEntity
  8
3
100
AcDbDimension
  2
*D42
 10
4571.091456407329
 20
1519.3440940209
 30
0.0
 11
4319.591456407329
 21
1581.8440940209
 31
0.0
 70
    32
 71
     5
 42
503.0
  3
IGA
100
AcDbAlignedDimension
 13
4068.091456407329
 23
1660.416563417289
 33
0.0
 14
4571.091456407329
 24
1660.416563417289
 34
0.0
100
AcDbRotatedDimension
1001
ACAD
1000
DSTYLE
1002
{
1070
    40
1040
25.0
1070
    42
1040
1.0
1070
   143
1040
0.039
1070
   172
1070
     1
1070
   271
1070
     4
1070
   272
1070
     4
1070
   279
1070
     1
1070
   284
1070
     0
1070
   285
1070
     0
1070
   286
1070
     0
1070
   341
1005
819C
1070
   343
1005
819C
1070
   344
1005
819C
1002
}
  0
DIMENSION
  5
832A
330
8188
100
AcDbEntity
  8
3
100
AcDbDimension
  2
*D43
 10
1869.082261213754
 20
1500.124923594096
 30
0.0
 11
1644.082261213754
 21
1562.624923594096
 31
0.0
 70
    32
 71
     5
 42
450.0
  3
IGA
100
AcDbAlignedDimension
 13
1419.082261213754
 23
1660.416563417289
 33
0.0
 14
1869.082261213754
 24
1660.416563417289
 34
0.0
100
AcDbRotatedDimension
1001
ACAD
1000
DSTYLE
1002
{
1070
    40
1040
25.0
1070
    42
1040
1.0
1070
   143
1040
0.039
1070
   172
1070
     1
1070
   271
1070
     4
1070
   272
1070
     4
1070
   279
1070
     0
1070
   284
1070
     0
1070
   285
1070
     0
1070
   286
1070
     0
1070
   341
1005
819C
1070
   343
1005
819C
1070
   344
1005
819C
1002
}
  0
DIMENSION
  5
8337
330
8188
100
AcDbEntity
  8
3
100
AcDbDimension
  2
*D44
 10
3019.082261213755
 20
1500.124923594096
 30
0.0
 11
2444.082261213754
 21
1562.624923594096
 31
0.0
 70
    32
 71
     5
 42
1150.0
  3
IGA
100
AcDbAlignedDimension
 13
1869.082261213754
 23
1660.416563417289
 33
0.0
 14
3019.082261213755
 24
1660.416563417289
 34
0.0
100
AcDbRotatedDimension
1001
ACAD
1000
DSTYLE
1002
{
1070
    40
1040
25.0
1070
    42
1040
1.0
1070
   143
1040
0.039
1070
   172
1070
     1
1070
   271
1070
     4
1070
   272
1070
     4
1070
   279
1070
     1
1070
   284
1070
     0
1070
   285
1070
     0
1070
   286
1070
     0
1070
   341
1005
819C
1070
   343
1005
819C
1070
   344
1005
819C
1002
}
  0
DIMENSION
  5
8344
330
8188
100
AcDbEntity
  8
3
100
AcDbDimension
  2
*D45
 10
902.622032073841
 20
1840.416563417289
 30
0.0
 11
840.1220320738406
 21
2275.41656341729
 31
0.0
 70
    32
 71
     5
 42
870.0000000000009
  3
IGA
100
AcDbAlignedDimension
 13
1246.816422408324
 23
2710.41656341729
 33
0.0
 14
1419.082261213754
 24
1840.416563417289
 34
0.0
 50
90.0
100
AcDbRotatedDimension
1001
ACAD
1000
DSTYLE
1002
{
1070
    40
1040
25.0
1070
    42
1040
1.0
1070
   143
1040
0.039
1070
   172
1070
     1
1070
   271
1070
     4
1070
   272
1070
     4
1070
   279
1070
     0
1070
   284
1070
     0
1070
   285
1070
     0
1070
   286
1070
     0
1070
   341
1005
819C
1070
   343
1005
819C
1070
   344
1005
819C
1002
}
  0
DIMENSION
  5
8351
330
8188
100
AcDbEntity
  8
3
100
AcDbDimension
  2
*D46
 10
902.622032073841
 20
1760.416563417289
 30
0.0
 11
700.8363177881265
 21
1861.309420560146
 31
0.0
 70
    32
  1
(<>)
 71
     5
 42
80.0
  3
IGA
100
AcDbAlignedDimension
 13
1419.082261213754
 23
1840.416563417289
 33
0.0
 14
1419.082261213754
 24
1760.416563417289
 34
0.0
 50
90.0
100
AcDbRotatedDimension
1001
ACAD
1000
DSTYLE
1002
{
1070
    40
1040
25.0
1070
    42
1040
1.0
1070
   143
1040
0.039
1070
   172
1070
     1
1070
   271
1070
     4
1070
   272
1070
     4
1070
   279
1070
     1
1070
   284
1070
     0
1070
   285
1070
     0
1070
   286
1070
     0
1070
   341
1005
819C
1070
   343
1005
819C
1070
   344
1005
83F7
1002
}
  0
DIMENSION
  5
8363
330
8188
100
AcDbEntity
  8
3
100
AcDbDimension
  2
*D47
 10
902.622032073841
 20
1660.416563417289
 30
0.0
 11
883.8296525926416
 21
1551.779158525238
 31
0.0
 70
   160
 71
     5
 42
100.0
  3
IGA
100
AcDbAlignedDimension
 13
1419.082261213754
 23
1760.416563417289
 33
0.0
 14
1419.082261213754
 24
1660.416563417289
 34
0.0
 50
90.0
100
AcDbRotatedDimension
1001
ACAD
1000
DSTYLE
1002
{
1070
    40
1040
25.0
1070
    42
1040
1.0
1070
   143
1040
0.039
1070
   172
1070
     1
1070
   271
1070
     4
1070
   272
1070
     4
1070
   279
1070
     1
1070
   284
1070
     0
1070
   285
1070
     0
1070
   286
1070
     0
1070
   341
1005
819C
1070
   343
1005
83F7
1070
   344
1005
819C
1002
}
  0
DIMENSION
  5
8496
330
8188
100
AcDbEntity
  8
3
100
AcDbDimension
  2
*D49
 10
565.533111421064
 20
3199.41656341729
 30
0.0
 11
483.3902542782063
 21
2429.91656341729
 31
0.0
 70
    32
  1
(<>)
 71
     5
 42
1539.000000000001
  3
IGA
100
AcDbAlignedDimension
 13
1419.082261213754
 23
1660.416563417289
 33
0.0
 14
1922.082261213752
 24
3199.41656341729
 34
0.0
 50
90.0
100
AcDbRotatedDimension
1001
ACAD
1000
DSTYLE
1002
{
1070
    40
1040
25.0
1070
    42
1040
1.0
1070
   143
1040
0.039
1070
   172
1070
     1
1070
   271
1070
     4
1070
   272
1070
     4
1070
   279
1070
     0
1070
   284
1070
     0
1070
   285
1070
     0
1070
   286
1070
     0
1070
   341
1005
819C
1070
   343
1005
819C
1070
   344
1005
819C
1002
}
  0
DIMENSION
  5
84D5
330
8188
100
AcDbEntity
  8
3
100
AcDbDimension
  2
*D50
 10
2464.082261213752
 20
3370.305010010289
 30
0.0
 11
2166.582261213753
 21
3432.805010010289
 31
0.0
 70
    32
 71
     5
 42
594.9999999999977
  3
IGA
100
AcDbAlignedDimension
 13
1869.082261213754
 23
3278.01209417829
 33
0.0
 14
2464.082261213752
 24
2657.41656341729
 34
0.0
100
AcDbRotatedDimension
1001
ACAD
1000
DSTYLE
1002
{
1070
    40
1040
25.0
1070
    42
1040
1.0
1070
   143
1040
0.039
1070
   172
1070
     1
1070
   271
1070
     4
1070
   272
1070
     4
1070
   279
1070
     0
1070
   284
1070
     0
1070
   285
1070
     0
1070
   286
1070
     0
1070
   341
1005
819C
1070
   343
1005
819C
1070
   344
1005
819C
1002
}
  0
DIMENSION
  5
84F8
330
8188
100
AcDbEntity
  8
3
100
AcDbDimension
  2
*D52
 10
902.622032073841
 20
3199.41656341729
 30
0.0
 11
840.1220320738406
 21
2954.91656341729
 31
0.0
 70
    32
 71
     5
 42
489.0
  3
IGA
100
AcDbAlignedDimension
 13
1246.816422408324
 23
2710.41656341729
 33
0.0
 14
1922.082261213752
 24
3199.41656341729
 34
0.0
 50
90.0
100
AcDbRotatedDimension
1001
ACAD
1000
DSTYLE
1002
{
1070
    40
1040
25.0
1070
    42
1040
1.0
1070
   143
1040
0.039
1070
   172
1070
     1
1070
   271
1070
     4
1070
   272
1070
     4
1070
   279
1070
     0
1070
   284
1070
     0
1070
   285
1070
     0
1070
   286
1070
     0
1070
   341
1005
819C
1070
   343
1005
819C
1070
   344
1005
819C
1002
}
  0
ENDSEC
  0
SECTION
  2
OBJECTS
  0
DICTIONARY
  5
8125
330
0
100
AcDbDictionary
281
     1
  3
ACAD_CIP_PREVIOUS_PRODUCT_INFO
350
81D4
  3
ACAD_COLOR
350
817B
  3
ACAD_DETAILVIEWSTYLE
350
8182
  3
ACAD_GROUP
350
8126
  3
ACAD_LAYOUT
350
817A
  3
ACAD_MATERIAL
350
8129
  3
ACAD_MLEADERSTYLE
350
817E
  3
ACAD_MLINESTYLE
350
8177
  3
ACAD_PLOTSETTINGS
350
8179
  3
ACAD_PLOTSTYLENAME
350
8127
  3
ACAD_SCALELIST
350
815B
  3
ACAD_SECTIONVIEWSTYLE
350
8180
  3
ACAD_TABLESTYLE
350
817C
  3
ACAD_VISUALSTYLE
350
8142
  3
ACDB_RECOMPOSE_DATA
350
855A
  3
AcDbVariableDictionary
350
820C
  3
DWGPROPS
350
855B
  0
DICTIONARY
  5
81D6
330
811B
100
AcDbDictionary
280
     1
281
     1
  3
ACAD_LAYERSTATES
360
81D7
  0
DICTIONARY
  5
8202
330
816D
100
AcDbDictionary
280
     1
281
     1
  3
ADSK_XREC_LAYER_RECONCILED
360
8203
  0
DICTIONARY
  5
8204
330
818C
100
AcDbDictionary
280
     1
281
     1
  3
ADSK_XREC_LAYER_RECONCILED
360
8205
  0
DICTIONARY
  5
8206
330
818F
100
AcDbDictionary
280
     1
281
     1
  3
ADSK_XREC_LAYER_RECONCILED
360
8207
  0
DICTIONARY
  5
8208
330
8190
100
AcDbDictionary
280
     1
281
     1
  3
ADSK_XREC_LAYER_RECONCILED
360
8209
  0
DICTIONARY
  5
820A
330
8191
100
AcDbDictionary
280
     1
281
     1
  3
ADSK_XREC_LAYER_RECONCILED
360
820B
  0
XRECORD
  5
81D4
102
{ACAD_REACTORS
330
8125
102
}
330
8125
100
AcDbXrecord
280
     1
300
ACDLT
300
2015
300
INVLTS_F_S
  0
DICTIONARY
  5
817B
102
{ACAD_REACTORS
330
8125
102
}
330
8125
100
AcDbDictionary
281
     1
  0
DICTIONARY
  5
8182
102
{ACAD_REACTORS
330
8125
102
}
330
8125
100
AcDbDictionary
281
     1
  3
Imperial24
350
8183
  0
DICTIONARY
  5
8126
102
{ACAD_REACTORS
330
8125
102
}
330
8125
100
AcDbDictionary
281
     1
  0
DICTIONARY
  5
817A
102
{ACAD_REACTORS
330
8125
102
}
330
8125
100
AcDbDictionary
281
     1
  3
Model
350
818B
  3
レイアウト1
350
8187
  0
DICTIONARY
  5
8129
102
{ACAD_REACTORS
330
8125
102
}
330
8125
100
AcDbDictionary
281
     1
  3
ByBlock
350
8132
  3
ByLayer
350
812A
  3
Global
350
813A
  0
DICTIONARY
  5
817E
102
{ACAD_REACTORS
330
8125
102
}
330
8125
100
AcDbDictionary
281
     1
  3
Standard
350
817F
  0
DICTIONARY
  5
8177
102
{ACAD_REACTORS
330
8125
102
}
330
8125
100
AcDbDictionary
281
     1
  3
Standard
350
8178
  0
DICTIONARY
  5
8179
102
{ACAD_REACTORS
330
8125
102
}
330
8125
100
AcDbDictionary
281
     1
  0
ACDBDICTIONARYWDFLT
  5
8127
102
{ACAD_REACTORS
330
8125
102
}
330
8125
100
AcDbDictionary
281
     1
  3
Normal
350
8128
100
AcDbDictionaryWithDefault
340
8128
  0
DICTIONARY
  5
815B
102
{ACAD_REACTORS
330
8125
102
}
330
8125
100
AcDbDictionary
281
     1
  3
A0
350
815C
  3
A1
350
815D
  3
A2
350
815E
  3
A3
350
815F
  3
A4
350
8160
  3
A5
350
8161
  3
A6
350
8162
  3
A7
350
8163
  3
A8
350
8164
  3
A9
350
8165
  3
B0
350
8166
  3
B1
350
8167
  3
B2
350
8168
  3
B3
350
8169
  3
B4
350
816A
  3
B5
350
816B
  3
B6
350
816C
  0
DICTIONARY
  5
8180
102
{ACAD_REACTORS
330
8125
102
}
330
8125
100
AcDbDictionary
281
     1
  3
Imperial24
350
8181
  0
DICTIONARY
  5
817C
102
{ACAD_REACTORS
330
8125
102
}
330
8125
100
AcDbDictionary
281
     1
  3
Standard
350
817D
  0
DICTIONARY
  5
8142
102
{ACAD_REACTORS
330
8125
102
}
330
8125
100
AcDbDictionary
281
     1
  3
2dWireframe
350
8148
  3
Basic
350
8147
  3
Brighten
350
814E
  3
ColorChange
350
8152
  3
Conceptual
350
814B
  3
Dim
350
814D
  3
EdgeColorOff
350
815A
  3
Facepattern
350
8151
  3
Flat
350
8143
  3
FlatWithEdges
350
8144
  3
Gouraud
350
8145
  3
GouraudWithEdges
350
8146
  3
Hidden
350
814A
  3
JitterOff
350
8158
  3
Linepattern
350
8150
  3
OverhangOff
350
8159
  3
Realistic
350
814C
  3
Shaded
350
8157
  3
Shaded with edges
350
8156
  3
Shades of Gray
350
8153
  3
Sketchy
350
8154
  3
Thicken
350
814F
  3
Wireframe
350
8149
  3
X-Ray
350
8155
  0
XRECORD
  5
855A
102
{ACAD_REACTORS
330
8125
102
}
330
8125
100
AcDbXrecord
280
     1
 90
        1
330
817D
  0
DICTIONARY
  5
820C
102
{ACAD_REACTORS
330
8125
102
}
330
8125
100
AcDbDictionary
281
     1
  3
CANNOSCALE
350
8211
  3
CMLEADERSTYLE
350
820E
  3
CTABLESTYLE
350
820D
  3
CVIEWDETAILSTYLE
350
820F
  3
CVIEWSECTIONSTYLE
350
8210
  3
DIMASSOC
350
8214
  3
INDEXCTL
350
8213
  3
SORTENTS
350
8212
  3
XCLIPFRAME
350
8215
  0
XRECORD
  5
855B
102
{ACAD_REACTORS
330
8125
102
}
330
8125
100
AcDbXrecord
280
     1
  1
DWGPROPS COOKIE
  2

  3

  4

  6

  7

  8
yasukiyo.ogawa
  9

300
=
301
=
302
=
303
=
304
=
305
=
306
=
307
=
308
=
309
=
 40
0.0571338194444445
 41
2451387.599927431
 42
2460263.70803441
  1

 90
        0
  0
DICTIONARY
  5
81D7
102
{ACAD_REACTORS
330
81D6
102
}
330
81D6
100
AcDbDictionary
281
     1
  0
XRECORD
  5
8203
102
{ACAD_REACTORS
330
8202
102
}
330
8202
100
AcDbXrecord
280
     1
290
     1
  0
XRECORD
  5
8205
102
{ACAD_REACTORS
330
8204
102
}
330
8204
100
AcDbXrecord
280
     1
290
     1
  0
XRECORD
  5
8207
102
{ACAD_REACTORS
330
8206
102
}
330
8206
100
AcDbXrecord
280
     1
290
     1
  0
XRECORD
  5
8209
102
{ACAD_REACTORS
330
8208
102
}
330
8208
100
AcDbXrecord
280
     1
290
     1
  0
XRECORD
  5
820B
102
{ACAD_REACTORS
330
820A
102
}
330
820A
100
AcDbXrecord
280
     1
290
     1
  0
ACDBDETAILVIEWSTYLE
  5
8183
102
{ACAD_XDICTIONARY
360
8593
102
}
102
{ACAD_REACTORS
330
8182
102
}
330
8182
100
AcDbModelDocViewStyle
 70
     0
  3
Imperial24
290
     0
100
AcDbDetailViewStyle
 70
     0
 71
     0
 90
        3
 71
     1
340
816E
 40
0.24
340
0
 40
0.24
300

 40
0.36
280
     3
 71
     2
340
8175
 90
       25
 71
     3
340
816E
 40
0.24
 90
        1
 40
0.75
 90
        1
300
%<\AcVar ViewType \f "%tc1">% %<\AcVar ViewDetailId>%\PSCALE %<\AcVar ViewScale \f "%sn">%
 71
     4
340
8175
 90
       25
340
8175
 90
       25
280
     0
  0
LAYOUT
  5
818B
102
{ACAD_XDICTIONARY
360
8597
102
}
102
{ACAD_REACTORS
330
817A
102
}
330
817A
100
AcDbPlotSettings
  1

  2
RICOH imagio MP W3600 RPCS
  4

  6

 40
0.0
 41
0.0
 42
0.0
 43
0.0
 44
0.0
 45
0.0
 46
0.0
 47
0.0
 48
0.0
 49
0.0
140
0.0
141
0.0
142
1.0
143
1.0
 70
  1712
 72
     0
 73
     0
 74
     0
  7

 75
     0
147
1.0
148
0.0
149
0.0
100
AcDbLayout
  1
Model
 70
     1
 71
     0
 10
0.0
 20
0.0
 11
12.0
 21
9.0
 12
0.0
 22
0.0
 32
0.0
 14
0.0
 24
0.0
 34
0.0
 15
0.0
 25
0.0
 35
0.0
146
0.0
 13
0.0
 23
0.0
 33
0.0
 16
1.0
 26
0.0
 36
0.0
 17
0.0
 27
1.0
 37
0.0
 76
     0
330
8188
331
818D
  0
LAYOUT
  5
8187
102
{ACAD_XDICTIONARY
360
8595
102
}
102
{ACAD_REACTORS
330
817A
102
}
330
817A
100
AcDbPlotSettings
  1

  2
RICOH imagio MP W3600 RPCS
  4

  6

 40
0.0
 41
0.0
 42
0.0
 43
0.0
 44
0.0
 45
0.0
 46
0.0
 47
0.0
 48
0.0
 49
0.0
140
0.0
141
0.0
142
1.0
143
1.0
 70
   688
 72
     0
 73
     0
 74
     5
  7

 75
    16
147
1.0
148
0.0
149
0.0
100
AcDbLayout
  1
レイアウト1
 70
     1
 71
     1
 10
0.0
 20
0.0
 11
12.0
 21
9.0
 12
0.0
 22
0.0
 32
0.0
 14
1.000000000000000E+20
 24
1.000000000000000E+20
 34
1.000000000000000E+20
 15
-1.000000000000000E+20
 25
-1.000000000000000E+20
 35
-1.000000000000000E+20
146
0.0
 13
0.0
 23
0.0
 33
0.0
 16
1.0
 26
0.0
 36
0.0
 17
0.0
 27
1.0
 37
0.0
 76
     0
330
8184
  0
MATERIAL
  5
8132
102
{ACAD_XDICTIONARY
360
8133
102
}
102
{ACAD_REACTORS
330
8129
102
}
330
8129
100
AcDbMaterial
  1
ByBlock
 72
     0
 43
0.0208333333333333
 43
0.0
 43
0.0
 43
0.0
 43
0.0
 43
0.0208333333333333
 43
0.0
 43
0.0
 43
0.0
 43
0.0
 43
1.0
 43
0.0
 43
0.0
 43
0.0
 43
0.0
 43
1.0
 77
     0
 47
0.0208333333333333
 47
0.0
 47
0.0
 47
0.0
 47
0.0
 47
0.0208333333333333
 47
0.0
 47
0.0
 47
0.0
 47
0.0
 47
1.0
 47
0.0
 47
0.0
 47
0.0
 47
0.0
 47
1.0
171
     0
 49
0.0208333333333333
 49
0.0
 49
0.0
 49
0.0
 49
0.0
 49
0.0208333333333333
 49
0.0
 49
0.0
 49
0.0
 49
0.0
 49
1.0
 49
0.0
 49
0.0
 49
0.0
 49
0.0
 49
1.0
175
     0
142
0.0208333333333333
142
0.0
142
0.0
142
0.0
142
0.0
142
0.0208333333333333
142
0.0
142
0.0
142
0.0
142
0.0
142
1.0
142
0.0
142
0.0
142
0.0
142
0.0
142
1.0
179
     0
144
0.0208333333333333
144
0.0
144
0.0
144
0.0
144
0.0
144
0.0208333333333333
144
0.0
144
0.0
144
0.0
144
0.0
144
1.0
144
0.0
144
0.0
144
0.0
144
0.0
144
1.0
147
0.0208333333333333
147
0.0
147
0.0
147
0.0
147
0.0
147
0.0208333333333333
147
0.0
147
0.0
147
0.0
147
0.0
147
1.0
147
0.0
147
0.0
147
0.0
147
0.0
147
1.0
  0
MATERIAL
  5
812A
102
{ACAD_XDICTIONARY
360
812B
102
}
102
{ACAD_REACTORS
330
8129
102
}
330
8129
100
AcDbMaterial
  1
ByLayer
 72
     0
 43
0.0208333333333333
 43
0.0
 43
0.0
 43
0.0
 43
0.0
 43
0.0208333333333333
 43
0.0
 43
0.0
 43
0.0
 43
0.0
 43
1.0
 43
0.0
 43
0.0
 43
0.0
 43
0.0
 43
1.0
 77
     0
 47
0.0208333333333333
 47
0.0
 47
0.0
 47
0.0
 47
0.0
 47
0.0208333333333333
 47
0.0
 47
0.0
 47
0.0
 47
0.0
 47
1.0
 47
0.0
 47
0.0
 47
0.0
 47
0.0
 47
1.0
171
     0
 49
0.0208333333333333
 49
0.0
 49
0.0
 49
0.0
 49
0.0
 49
0.0208333333333333
 49
0.0
 49
0.0
 49
0.0
 49
0.0
 49
1.0
 49
0.0
 49
0.0
 49
0.0
 49
0.0
 49
1.0
175
     0
142
0.0208333333333333
142
0.0
142
0.0
142
0.0
142
0.0
142
0.0208333333333333
142
0.0
142
0.0
142
0.0
142
0.0
142
1.0
142
0.0
142
0.0
142
0.0
142
0.0
142
1.0
179
     0
144
0.0208333333333333
144
0.0
144
0.0
144
0.0
144
0.0
144
0.0208333333333333
144
0.0
144
0.0
144
0.0
144
0.0
144
1.0
144
0.0
144
0.0
144
0.0
144
0.0
144
1.0
147
0.0208333333333333
147
0.0
147
0.0
147
0.0
147
0.0
147
0.0208333333333333
147
0.0
147
0.0
147
0.0
147
0.0
147
1.0
147
0.0
147
0.0
147
0.0
147
0.0
147
1.0
  0
MATERIAL
  5
813A
102
{ACAD_XDICTIONARY
360
813B
102
}
102
{ACAD_REACTORS
330
8129
102
}
330
8129
100
AcDbMaterial
  1
Global
 72
     0
 43
0.0208333333333333
 43
0.0
 43
0.0
 43
0.0
 43
0.0
 43
0.0208333333333333
 43
0.0
 43
0.0
 43
0.0
 43
0.0
 43
1.0
 43
0.0
 43
0.0
 43
0.0
 43
0.0
 43
1.0
 77
     0
 47
0.0208333333333333
 47
0.0
 47
0.0
 47
0.0
 47
0.0
 47
0.0208333333333333
 47
0.0
 47
0.0
 47
0.0
 47
0.0
 47
1.0
 47
0.0
 47
0.0
 47
0.0
 47
0.0
 47
1.0
171
     0
 49
0.0208333333333333
 49
0.0
 49
0.0
 49
0.0
 49
0.0
 49
0.0208333333333333
 49
0.0
 49
0.0
 49
0.0
 49
0.0
 49
1.0
 49
0.0
 49
0.0
 49
0.0
 49
0.0
 49
1.0
175
     0
142
0.0208333333333333
142
0.0
142
0.0
142
0.0
142
0.0
142
0.0208333333333333
142
0.0
142
0.0
142
0.0
142
0.0
142
1.0
142
0.0
142
0.0
142
0.0
142
0.0
142
1.0
179
     0
144
0.0208333333333333
144
0.0
144
0.0
144
0.0
144
0.0
144
0.0208333333333333
144
0.0
144
0.0
144
0.0
144
0.0
144
1.0
144
0.0
144
0.0
144
0.0
144
0.0
144
1.0
147
0.0208333333333333
147
0.0
147
0.0
147
0.0
147
0.0
147
0.0208333333333333
147
0.0
147
0.0
147
0.0
147
0.0
147
1.0
147
0.0
147
0.0
147
0.0
147
0.0
147
1.0
  0
MLEADERSTYLE
  5
817F
102
{ACAD_REACTORS
330
817E
102
}
330
817E
100
AcDbMLeaderStyle
170
     2
171
     1
172
     0
 90
        2
 40
0.0
 41
0.0
173
     1
 91
-1056964608
340
8173
 92
       -2
290
     1
 42
0.09
291
     1
 43
0.36
  3
Standard
 44
0.18
300

342
816E
174
     1
178
     6
175
     1
176
     0
 93
-1056964608
 45
0.18
292
     0
297
     0
 46
0.18
 94
-1056964608
 47
1.0
 49
1.0
140
1.0
293
     1
141
0.0
294
     1
177
     0
142
1.0
295
     0
296
     0
143
0.125
1001
ACAD_MLEADERVER
1070
     2
  0
MLINESTYLE
  5
8178
102
{ACAD_REACTORS
330
8177
102
}
330
8177
100
AcDbMlineStyle
  2
STANDARD
 70
     0
  3

 62
   256
 51
90.0
 52
90.0
 71
     2
 49
0.5
 62
   256
  6
BYLAYER
 49
-0.5
 62
   256
  6
BYLAYER
  0
ACDBPLACEHOLDER
  5
8128
102
{ACAD_REACTORS
330
8127
102
}
330
8127
  0
SCALE
  5
815C
102
{ACAD_REACTORS
330
815B
102
}
330
815B
100
AcDbScale
 70
     0
300
1:1
140
1.0
141
1.0
290
     1
  0
SCALE
  5
815D
102
{ACAD_REACTORS
330
815B
102
}
330
815B
100
AcDbScale
 70
     0
300
1/128" = 1'-0"
140
0.0078125
141
12.0
290
     0
  0
SCALE
  5
815E
102
{ACAD_REACTORS
330
815B
102
}
330
815B
100
AcDbScale
 70
     0
300
1/64" = 1'-0"
140
0.015625
141
12.0
290
     0
  0
SCALE
  5
815F
102
{ACAD_REACTORS
330
815B
102
}
330
815B
100
AcDbScale
 70
     0
300
1/32" = 1'-0"
140
0.03125
141
12.0
290
     0
  0
SCALE
  5
8160
102
{ACAD_REACTORS
330
815B
102
}
330
815B
100
AcDbScale
 70
     0
300
1/16" = 1'-0"
140
0.0625
141
12.0
290
     0
  0
SCALE
  5
8161
102
{ACAD_REACTORS
330
815B
102
}
330
815B
100
AcDbScale
 70
     0
300
3/32" = 1'-0"
140
0.09375
141
12.0
290
     0
  0
SCALE
  5
8162
102
{ACAD_REACTORS
330
815B
102
}
330
815B
100
AcDbScale
 70
     0
300
1/8" = 1'-0"
140
0.125
141
12.0
290
     0
  0
SCALE
  5
8163
102
{ACAD_REACTORS
330
815B
102
}
330
815B
100
AcDbScale
 70
     0
300
3/16" = 1'-0"
140
0.1875
141
12.0
290
     0
  0
SCALE
  5
8164
102
{ACAD_REACTORS
330
815B
102
}
330
815B
100
AcDbScale
 70
     0
300
1/4" = 1'-0"
140
0.25
141
12.0
290
     0
  0
SCALE
  5
8165
102
{ACAD_REACTORS
330
815B
102
}
330
815B
100
AcDbScale
 70
     0
300
3/8" = 1'-0"
140
0.375
141
12.0
290
     0
  0
SCALE
  5
8166
102
{ACAD_REACTORS
330
815B
102
}
330
815B
100
AcDbScale
 70
     0
300
1/2" = 1'-0"
140
0.5
141
12.0
290
     0
  0
SCALE
  5
8167
102
{ACAD_REACTORS
330
815B
102
}
330
815B
100
AcDbScale
 70
     0
300
3/4" = 1'-0"
140
0.75
141
12.0
290
     0
  0
SCALE
  5
8168
102
{ACAD_REACTORS
330
815B
102
}
330
815B
100
AcDbScale
 70
     0
300
1" = 1'-0"
140
1.0
141
12.0
290
     0
  0
SCALE
  5
8169
102
{ACAD_REACTORS
330
815B
102
}
330
815B
100
AcDbScale
 70
     0
300
1-1/2" = 1'-0"
140
1.5
141
12.0
290
     0
  0
SCALE
  5
816A
102
{ACAD_REACTORS
330
815B
102
}
330
815B
100
AcDbScale
 70
     0
300
3" = 1'-0"
140
3.0
141
12.0
290
     0
  0
SCALE
  5
816B
102
{ACAD_REACTORS
330
815B
102
}
330
815B
100
AcDbScale
 70
     0
300
6" = 1'-0"
140
6.0
141
12.0
290
     0
  0
SCALE
  5
816C
102
{ACAD_REACTORS
330
815B
102
}
330
815B
100
AcDbScale
 70
     0
300
1'-0" = 1'-0"
140
12.0
141
12.0
290
     0
  0
ACDBSECTIONVIEWSTYLE
  5
8181
102
{ACAD_XDICTIONARY
360
8591
102
}
102
{ACAD_REACTORS
330
8180
102
}
330
8180
100
AcDbModelDocViewStyle
 70
     0
  3
Imperial24
290
     0
100
AcDbSectionViewStyle
 70
     0
 71
     0
 90
       78
 71
     1
340
816E
 40
0.24
340
0
340
0
 40
0.24
300
I, O, Q, S, X, Z
 40
0.48
 90
        3
 40
0.18
 90
        1
 71
     2
340
8175
 90
       25
340
8175
 90
       50
 40
0.24
 40
0.0
 40
0.24
 71
     3
340
816E
 40
0.24
 90
        1
 40
0.75
 90
        1
300
%<\AcVar ViewType \f "%tc1">% %<\AcVar ViewSectionStartId>%-%<\AcVar ViewSectionEndId>%\PSCALE %<\AcVar ViewScale \f "%sn">%
 71
     4
300
ANSI31
 40
1.0
 90
        0
290
     0
290
     0
 90
        6
 40
0.0
 40
1.570796326794896
 40
0.2617993877991494
 40
1.308996938995747
 40
-0.2617993877991494
 40
1.832595714594046
  0
TABLESTYLE
  5
817D
102
{ACAD_XDICTIONARY
360
8558
102
}
102
{ACAD_REACTORS
330
817C
102
}
330
817C
100
AcDbTableStyle
  3
Standard
 70
     0
 71
     0
 40
0.06
 41
0.06
280
     0
281
     0
  7
STANDARD
140
0.18
170
     2
 62
     0
 63
     7
283
     0
274
    -2
284
     1
 64
     0
275
    -2
285
     1
 65
     0
276
    -2
286
     1
 66
     0
277
    -2
287
     1
 67
     0
278
    -2
288
     1
 68
     0
279
    -2
289
     1
 69
     0
  7
STANDARD
140
0.25
170
     5
 62
     0
 63
     7
283
     0
274
    -2
284
     1
 64
     0
275
    -2
285
     1
 65
     0
276
    -2
286
     1
 66
     0
277
    -2
287
     1
 67
     0
278
    -2
288
     1
 68
     0
279
    -2
289
     1
 69
     0
  7
STANDARD
140
0.18
170
     5
 62
     0
 63
     7
283
     0
274
    -2
284
     1
 64
     0
275
    -2
285
     1
 65
     0
276
    -2
286
     1
 66
     0
277
    -2
287
     1
 67
     0
278
    -2
288
     1
 68
     0
279
    -2
289
     1
 69
     0
  0
VISUALSTYLE
  5
8148
102
{ACAD_XDICTIONARY
360
8569
102
}
102
{ACAD_REACTORS
330
8142
102
}
330
8142
100
AcDbVisualStyle
  2
2dWireframe
 70
     4
 71
     0
 72
     2
 73
     0
 90
        0
 40
-0.6
 41
-30.0
 62
     5
 63
     7
 74
     1
 91
        4
 64
     7
 65
   257
 75
     1
175
     1
 42
1.0
 92
        0
 66
   257
 43
1.0
 76
     1
 77
     6
 78
     2
 67
     7
 79
     5
170
     0
171
     0
290
     0
174
     0
 93
        1
 44
0.0
173
     0
291
     0
 45
0.0
1001
ACAD
1000
AcDbSavedByObjectVersion
1070
     0
  0
VISUALSTYLE
  5
8147
102
{ACAD_XDICTIONARY
360
8567
102
}
102
{ACAD_REACTORS
330
8142
102
}
330
8142
100
AcDbVisualStyle
  2
Basic
 70
     7
 71
     1
 72
     0
 73
     1
 90
        0
 40
-0.6
 41
-30.0
 62
     5
 63
     7
 74
     0
 91
        4
 64
     7
 65
   257
 75
     1
175
     1
 42
1.0
 92
        8
 66
     7
 43
1.0
 76
     1
 77
     6
 78
     2
 67
     7
 79
     5
170
     0
171
     0
290
     0
174
     0
 93
        1
 44
0.0
173
     0
291
     1
 45
0.0
1001
ACAD
1000
AcDbSavedByObjectVersion
1070
     0
  0
VISUALSTYLE
  5
814E
102
{ACAD_XDICTIONARY
360
8575
102
}
102
{ACAD_REACTORS
330
8142
102
}
330
8142
100
AcDbVisualStyle
  2
Brighten
 70
    12
 71
     2
 72
     2
 73
     0
 90
        0
 40
-0.6
 41
-30.0
 62
     5
 63
     7
 74
     1
 91
        4
 64
     7
 65
   257
 75
     1
175
     1
 42
1.0
 92
        8
 66
     7
 43
1.0
 76
     1
 77
     6
 78
     2
 67
     7
 79
     5
170
     0
171
     0
290
     0
174
     0
 93
        1
 44
50.0
173
     0
291
     1
 45
0.0
1001
ACAD
1000
AcDbSavedByObjectVersion
1070
     0
  0
VISUALSTYLE
  5
8152
102
{ACAD_XDICTIONARY
360
857D
102
}
102
{ACAD_REACTORS
330
8142
102
}
330
8142
100
AcDbVisualStyle
  2
ColorChange
 70
    16
 71
     2
 72
     2
 73
     3
 90
        0
 40
-0.6
 41
-30.0
 62
     5
 63
     8
 74
     1
 91
        4
 64
     7
 65
   257
 75
     1
175
     1
 42
1.0
 92
        8
 66
     8
 43
1.0
 76
     1
 77
     6
 78
     2
 67
     7
 79
     5
170
     0
171
     0
290
     0
174
     0
 93
        1
 44
0.0
173
     0
291
     1
 45
0.0
1001
ACAD
1000
AcDbSavedByObjectVersion
1070
     0
  0
VISUALSTYLE
  5
814B
102
{ACAD_XDICTIONARY
360
856F
102
}
102
{ACAD_REACTORS
330
8142
102
}
330
8142
100
AcDbVisualStyle
  2
Conceptual
 70
     9
 71
     3
 72
     2
 73
     0
 90
        0
 40
-0.6
 41
-30.0
 62
     5
 63
     7
 74
     2
 91
        2
 64
     7
 65
   257
 75
     1
175
     1
 42
179.0
 92
        8
 66
     7
 43
1.0
 76
     1
 77
     6
 78
     2
 67
     7
 79
     3
170
     0
171
     0
290
     0
174
     0
 93
        1
 44
0.0
173
     0
291
     0
 45
0.0
1001
ACAD
1000
AcDbSavedByObjectVersion
1070
     0
  0
VISUALSTYLE
  5
814D
102
{ACAD_XDICTIONARY
360
8573
102
}
102
{ACAD_REACTORS
330
8142
102
}
330
8142
100
AcDbVisualStyle
  2
Dim
 70
    11
 71
     2
 72
     2
 73
     0
 90
        0
 40
-0.6
 41
-30.0
 62
     5
 63
     7
 74
     1
 91
        4
 64
     7
 65
   257
 75
     1
175
     1
 42
1.0
 92
        8
 66
     7
 43
1.0
 76
     1
 77
     6
 78
     2
 67
     7
 79
     5
170
     0
171
     0
290
     0
174
     0
 93
        1
 44
-50.0
173
     0
291
     1
 45
0.0
1001
ACAD
1000
AcDbSavedByObjectVersion
1070
     0
  0
VISUALSTYLE
  5
815A
102
{ACAD_XDICTIONARY
360
858D
102
}
102
{ACAD_REACTORS
330
8142
102
}
330
8142
100
AcDbVisualStyle
  2
EdgeColorOff
 70
    22
 71
     2
 72
     2
 73
     0
 90
        0
 40
-0.6
 41
-30.0
 62
     5
 63
     7
 74
     1
 91
        4
 64
     7
 65
   257
 75
     1
175
     1
 42
1.0
 92
        8
 66
     7
 43
1.0
 76
     1
 77
     6
 78
     2
 67
     7
 79
     5
170
     0
171
     0
290
     0
174
     0
 93
        1
 44
0.0
173
     0
291
     1
 45
0.0
1001
ACAD
1000
AcDbSavedByObjectVersion
1070
     0
  0
VISUALSTYLE
  5
8151
102
{ACAD_XDICTIONARY
360
857B
102
}
102
{ACAD_REACTORS
330
8142
102
}
330
8142
100
AcDbVisualStyle
  2
Facepattern
 70
    15
 71
     2
 72
     2
 73
     0
 90
        0
 40
-0.6
 41
-30.0
 62
     5
 63
     7
 74
     1
 91
        4
 64
     7
 65
   257
 75
     1
175
     1
 42
1.0
 92
        8
 66
     7
 43
1.0
 76
     1
 77
     6
 78
     2
 67
     7
 79
     5
170
     0
171
     0
290
     0
174
     0
 93
        1
 44
0.0
173
     0
291
     1
 45
0.0
1001
ACAD
1000
AcDbSavedByObjectVersion
1070
     0
  0
VISUALSTYLE
  5
8143
102
{ACAD_XDICTIONARY
360
855F
102
}
102
{ACAD_REACTORS
330
8142
102
}
330
8142
100
AcDbVisualStyle
  2
Flat
 70
     0
 71
     2
 72
     1
 73
     1
 90
        2
 40
-0.6
 41
30.0
 62
     5
 63
     7
 74
     0
 91
        0
 64
     7
 65
   257
 75
     1
175
     1
 42
1.0
 92
        8
 66
     7
 43
1.0
 76
     1
 77
     6
 78
     2
 67
     7
 79
     5
170
     0
171
     0
290
     0
174
     0
 93
       13
 44
0.0
173
     0
291
     1
 45
0.0
1001
ACAD
1000
AcDbSavedByObjectVersion
1070
     0
  0
VISUALSTYLE
  5
8144
102
{ACAD_XDICTIONARY
360
8561
102
}
102
{ACAD_REACTORS
330
8142
102
}
330
8142
100
AcDbVisualStyle
  2
FlatWithEdges
 70
     1
 71
     2
 72
     1
 73
     1
 90
        2
 40
-0.6
 41
30.0
 62
     5
 63
     7
 74
     1
 91
        0
 64
     7
 65
   257
 75
     1
175
     1
 42
1.0
 92
        0
 66
   257
 43
1.0
 76
     1
 77
     6
 78
     2
 67
     7
 79
     5
170
     0
171
     0
290
     0
174
     0
 93
       13
 44
0.0
173
     0
291
     1
 45
0.0
1001
ACAD
1000
AcDbSavedByObjectVersion
1070
     0
  0
VISUALSTYLE
  5
8145
102
{ACAD_XDICTIONARY
360
8563
102
}
102
{ACAD_REACTORS
330
8142
102
}
330
8142
100
AcDbVisualStyle
  2
Gouraud
 70
     2
 71
     2
 72
     2
 73
     1
 90
        2
 40
-0.6
 41
30.0
 62
     5
 63
     7
 74
     0
 91
        0
 64
     7
 65
   257
 75
     1
175
     1
 42
1.0
 92
        0
 66
     7
 43
1.0
 76
     1
 77
     6
 78
     2
 67
     7
 79
     5
170
     0
171
     0
290
     0
174
     0
 93
       13
 44
0.0
173
     0
291
     1
 45
0.0
1001
ACAD
1000
AcDbSavedByObjectVersion
1070
     0
  0
VISUALSTYLE
  5
8146
102
{ACAD_XDICTIONARY
360
8565
102
}
102
{ACAD_REACTORS
330
8142
102
}
330
8142
100
AcDbVisualStyle
  2
GouraudWithEdges
 70
     3
 71
     2
 72
     2
 73
     1
 90
        2
 40
-0.6
 41
30.0
 62
     5
 63
     7
 74
     1
 91
        0
 64
     7
 65
   257
 75
     1
175
     1
 42
1.0
 92
        0
 66
   257
 43
1.0
 76
     1
 77
     6
 78
     2
 67
     7
 79
     5
170
     0
171
     0
290
     0
174
     0
 93
       13
 44
0.0
173
     0
291
     1
 45
0.0
1001
ACAD
1000
AcDbSavedByObjectVersion
1070
     0
  0
VISUALSTYLE
  5
814A
102
{ACAD_XDICTIONARY
360
856D
102
}
102
{ACAD_REACTORS
330
8142
102
}
330
8142
100
AcDbVisualStyle
  2
Hidden
 70
     6
 71
     1
 72
     2
 73
     2
 90
        0
 40
-0.6
 41
-30.0
 62
     5
 63
     7
 74
     2
 91
        2
 64
     7
 65
   257
 75
     2
175
     1
 42
40.0
 92
        0
 66
   257
 43
1.0
 76
     1
 77
     6
 78
     2
 67
     7
 79
     3
170
     0
171
     0
290
     0
174
     0
 93
        1
 44
0.0
173
     0
291
     0
 45
0.0
1001
ACAD
1000
AcDbSavedByObjectVersion
1070
     0
  0
VISUALSTYLE
  5
8158
102
{ACAD_XDICTIONARY
360
8589
102
}
102
{ACAD_REACTORS
330
8142
102
}
330
8142
100
AcDbVisualStyle
  2
JitterOff
 70
    20
 71
     2
 72
     2
 73
     0
 90
        0
 40
-0.6
 41
-30.0
 62
     5
 63
     7
 74
     1
 91
        4
 64
     7
 65
   257
 75
     1
175
     1
 42
1.0
 92
       10
 66
     7
 43
1.0
 76
     1
 77
     6
 78
     2
 67
     7
 79
     5
170
     0
171
     0
290
     0
174
     0
 93
        1
 44
0.0
173
     0
291
     1
 45
0.0
1001
ACAD
1000
AcDbSavedByObjectVersion
1070
     0
  0
VISUALSTYLE
  5
8150
102
{ACAD_XDICTIONARY
360
8579
102
}
102
{ACAD_REACTORS
330
8142
102
}
330
8142
100
AcDbVisualStyle
  2
Linepattern
 70
    14
 71
     2
 72
     2
 73
     0
 90
        0
 40
-0.6
 41
-30.0
 62
     5
 63
     7
 74
     1
 91
        4
 64
     7
 65
   257
 75
     7
175
     7
 42
1.0
 92
        8
 66
     7
 43
1.0
 76
     1
 77
     6
 78
     2
 67
     7
 79
     5
170
     0
171
     0
290
     0
174
     0
 93
        1
 44
0.0
173
     0
291
     1
 45
0.0
1001
ACAD
1000
AcDbSavedByObjectVersion
1070
     0
  0
VISUALSTYLE
  5
8159
102
{ACAD_XDICTIONARY
360
858B
102
}
102
{ACAD_REACTORS
330
8142
102
}
330
8142
100
AcDbVisualStyle
  2
OverhangOff
 70
    21
 71
     2
 72
     2
 73
     0
 90
        0
 40
-0.6
 41
-30.0
 62
     5
 63
     7
 74
     1
 91
        4
 64
     7
 65
   257
 75
     1
175
     1
 42
1.0
 92
        9
 66
     7
 43
1.0
 76
     1
 77
     6
 78
     2
 67
     7
 79
     5
170
     0
171
     0
290
     0
174
     0
 93
        1
 44
0.0
173
     0
291
     1
 45
0.0
1001
ACAD
1000
AcDbSavedByObjectVersion
1070
     0
  0
VISUALSTYLE
  5
814C
102
{ACAD_XDICTIONARY
360
8571
102
}
102
{ACAD_REACTORS
330
8142
102
}
330
8142
100
AcDbVisualStyle
  2
Realistic
 70
     8
 71
     2
 72
     3
 73
     0
 90
        2
 40
-0.6
 41
30.0
 62
     5
 63
     7
 74
     0
 91
        0
 64
     7
 65
   257
 75
     1
175
     1
 42
1.0
 92
        8
 66
   257
 43
1.0
 76
     1
 77
     6
 78
     2
 67
     7
 79
     3
170
     0
171
     0
290
     0
174
     0
 93
       13
 44
0.0
173
     0
291
     0
 45
0.0
1001
ACAD
1000
AcDbSavedByObjectVersion
1070
     0
  0
VISUALSTYLE
  5
8157
102
{ACAD_XDICTIONARY
360
8587
102
}
102
{ACAD_REACTORS
330
8142
102
}
330
8142
100
AcDbVisualStyle
  2
Shaded
 70
    27
 71
     2
 72
     2
 73
     1
 90
        2
 40
-0.6
 41
30.0
 62
     5
 63
     7
 74
     0
 91
        4
 64
     7
 65
   257
 75
     1
175
     1
 42
1.0
 92
        8
 66
   257
 43
1.0
 76
     1
 77
     6
 78
     2
 67
     8
 79
     3
170
     0
171
     0
290
     0
174
     0
 93
        5
 44
0.0
173
     0
291
     0
 45
0.0
1001
ACAD
1000
AcDbSavedByObjectVersion
1070
     0
  0
VISUALSTYLE
  5
8156
102
{ACAD_XDICTIONARY
360
8585
102
}
102
{ACAD_REACTORS
330
8142
102
}
330
8142
100
AcDbVisualStyle
  2
Shaded with edges
 70
    26
 71
     2
 72
     2
 73
     1
 90
        2
 40
-0.6
 41
30.0
 62
     5
 63
     7
 74
     1
 91
       10
 64
     7
 65
   257
 75
     2
175
     1
 42
1.0
 92
        8
 66
   257
 43
1.0
 76
     1
 77
     6
 78
     2
 67
     7
 79
     3
170
     0
171
     0
290
     0
174
     0
 93
        5
 44
0.0
173
     0
291
     0
 45
0.0
1001
ACAD
1000
AcDbSavedByObjectVersion
1070
     0
  0
VISUALSTYLE
  5
8153
102
{ACAD_XDICTIONARY
360
857F
102
}
102
{ACAD_REACTORS
330
8142
102
}
330
8142
100
AcDbVisualStyle
  2
Shades of Gray
 70
    23
 71
     2
 72
     2
 73
     3
 90
        0
 40
-0.6
 41
-30.0
 62
     5
 63
     7
 74
     2
 91
        2
 64
     7
 65
     7
 75
     1
175
     1
 42
40.0
 92
        8
 66
     7
 43
1.0
 76
     1
 77
     6
 78
     2
 67
     7
 79
     3
170
     0
171
     0
290
     0
174
     0
 93
        1
 44
0.0
173
     0
291
     0
 45
0.0
1001
ACAD
1000
AcDbSavedByObjectVersion
1070
     0
  0
VISUALSTYLE
  5
8154
102
{ACAD_XDICTIONARY
360
8581
102
}
102
{ACAD_REACTORS
330
8142
102
}
330
8142
100
AcDbVisualStyle
  2
Sketchy
 70
    24
 71
     1
 72
     2
 73
     2
 90
        0
 40
-0.6
 41
-30.0
 62
     5
 63
     7
 74
     2
 91
        2
 64
     7
 65
     7
 75
     1
175
     1
 42
40.0
 92
       11
 66
     7
 43
1.0
 76
     1
 77
     6
 78
     2
 67
     7
 79
     6
170
     0
171
     0
290
     0
174
     0
 93
        1
 44
0.0
173
     0
291
     0
 45
0.0
1001
ACAD
1000
AcDbSavedByObjectVersion
1070
     0
  0
VISUALSTYLE
  5
814F
102
{ACAD_XDICTIONARY
360
8577
102
}
102
{ACAD_REACTORS
330
8142
102
}
330
8142
100
AcDbVisualStyle
  2
Thicken
 70
    13
 71
     2
 72
     2
 73
     0
 90
        0
 40
-0.6
 41
-30.0
 62
     5
 63
     7
 74
     1
 91
        4
 64
     7
 65
   257
 75
     1
175
     1
 42
1.0
 92
       12
 66
     7
 43
1.0
 76
     1
 77
     6
 78
     2
 67
     7
 79
     5
170
     0
171
     0
290
     0
174
     0
 93
        1
 44
0.0
173
     0
291
     1
 45
0.0
1001
ACAD
1000
AcDbSavedByObjectVersion
1070
     0
  0
VISUALSTYLE
  5
8149
102
{ACAD_XDICTIONARY
360
856B
102
}
102
{ACAD_REACTORS
330
8142
102
}
330
8142
100
AcDbVisualStyle
  2
Wireframe
 70
     5
 71
     0
 72
     2
 73
     0
 90
        0
 40
-0.6
 41
-30.0
 62
     5
 63
     7
 74
     1
 91
        4
 64
     7
 65
   257
 75
     1
175
     1
 42
1.0
 92
        0
 66
   257
 43
1.0
 76
     1
 77
     6
 78
     2
 67
     7
 79
     3
170
     0
171
     0
290
     0
174
     0
 93
        1
 44
0.0
173
     0
291
     0
 45
0.0
1001
ACAD
1000
AcDbSavedByObjectVersion
1070
     0
  0
VISUALSTYLE
  5
8155
102
{ACAD_XDICTIONARY
360
8583
102
}
102
{ACAD_REACTORS
330
8142
102
}
330
8142
100
AcDbVisualStyle
  2
X-Ray
 70
    25
 71
     2
 72
     2
 73
     1
 90
        1
 40
0.5
 41
-30.0
 62
     5
 63
     7
 74
     1
 91
        0
 64
     7
 65
   257
 75
     1
175
     1
 42
1.0
 92
        8
 66
     7
 43
1.0
 76
     1
 77
     6
 78
     2
 67
     7
 79
     3
170
     0
171
     0
290
     0
174
     0
 93
       13
 44
0.0
173
     0
291
     0
 45
0.0
1001
ACAD
1000
AcDbSavedByObjectVersion
1070
     0
  0
DICTIONARYVAR
  5
8211
102
{ACAD_REACTORS
330
820C
102
}
330
820C
100
DictionaryVariables
280
     0
  1
1:1
  0
DICTIONARYVAR
  5
820E
102
{ACAD_REACTORS
330
820C
102
}
330
820C
100
DictionaryVariables
280
     0
  1
STANDARD
  0
DICTIONARYVAR
  5
820D
102
{ACAD_REACTORS
330
820C
102
}
330
820C
100
DictionaryVariables
280
     0
  1
STANDARD
  0
DICTIONARYVAR
  5
820F
102
{ACAD_REACTORS
330
820C
102
}
330
820C
100
DictionaryVariables
280
     0
  1
Imperial24
  0
DICTIONARYVAR
  5
8210
102
{ACAD_REACTORS
330
820C
102
}
330
820C
100
DictionaryVariables
280
     0
  1
Imperial24
  0
DICTIONARYVAR
  5
8214
102
{ACAD_REACTORS
330
820C
102
}
330
820C
100
DictionaryVariables
280
     0
  1
1
  0
DICTIONARYVAR
  5
8213
102
{ACAD_REACTORS
330
820C
102
}
330
820C
100
DictionaryVariables
280
     0
  1
0
  0
DICTIONARYVAR
  5
8212
102
{ACAD_REACTORS
330
820C
102
}
330
820C
100
DictionaryVariables
280
     0
  1
127
  0
DICTIONARYVAR
  5
8215
102
{ACAD_REACTORS
330
820C
102
}
330
820C
100
DictionaryVariables
280
     0
  1
2
  0
DICTIONARY
  5
8593
330
8183
100
AcDbDictionary
280
     1
281
     1
  3
ACAD_XREC_ROUNDTRIP
360
8594
  0
DICTIONARY
  5
8597
330
818B
100
AcDbDictionary
280
     1
281
     1
  3
ACAD_XREC_ROUNDTRIP
360
8598
  0
DICTIONARY
  5
8595
330
8187
100
AcDbDictionary
280
     1
281
     1
  3
ACAD_XREC_ROUNDTRIP
360
8596
  0
DICTIONARY
  5
8133
330
8132
100
AcDbDictionary
280
     1
281
     1
  3
ACAD_XREC_ROUNDTRIP
360
855D
  3
BUMPTILE
360
8135
  3
DIFFUSETILE
360
8134
  3
OPACITYTILE
360
8138
  3
REFLECTIONTILE
360
8137
  3
REFRACTIONTILE
360
8139
  3
SPECULARTILE
360
8136
  0
DICTIONARY
  5
812B
330
812A
100
AcDbDictionary
280
     1
281
     1
  3
ACAD_XREC_ROUNDTRIP
360
855C
  3
BUMPTILE
360
812D
  3
DIFFUSETILE
360
812C
  3
OPACITYTILE
360
8130
  3
REFLECTIONTILE
360
812F
  3
REFRACTIONTILE
360
8131
  3
SPECULARTILE
360
812E
  0
DICTIONARY
  5
813B
330
813A
100
AcDbDictionary
280
     1
281
     1
  3
ACAD_XREC_ROUNDTRIP
360
855E
  3
BUMPTILE
360
813D
  3
DIFFUSETILE
360
813C
  3
FBXASSET
360
82A7
  3
OPACITYTILE
360
8140
  3
REFLECTIONTILE
360
813F
  3
REFRACTIONTILE
360
8141
  3
SPECULARTILE
360
813E
  0
DICTIONARY
  5
8591
330
8181
100
AcDbDictionary
280
     1
281
     1
  3
ACAD_XREC_ROUNDTRIP
360
8592
  0
DICTIONARY
  5
8558
330
817D
100
AcDbDictionary
280
     1
281
     1
  3
ACAD_ROUNDTRIP_2008_TABLESTYLE_CELLSTYLEMAP
360
8559
  3
ACAD_XREC_ROUNDTRIP
360
858F
  0
DICTIONARY
  5
8569
330
8148
100
AcDbDictionary
280
     1
281
     1
  3
ACAD_XREC_ROUNDTRIP
360
856A
  0
DICTIONARY
  5
8567
330
8147
100
AcDbDictionary
280
     1
281
     1
  3
ACAD_XREC_ROUNDTRIP
360
8568
  0
DICTIONARY
  5
8575
330
814E
100
AcDbDictionary
280
     1
281
     1
  3
ACAD_XREC_ROUNDTRIP
360
8576
  0
DICTIONARY
  5
857D
330
8152
100
AcDbDictionary
280
     1
281
     1
  3
ACAD_XREC_ROUNDTRIP
360
857E
  0
DICTIONARY
  5
856F
330
814B
100
AcDbDictionary
280
     1
281
     1
  3
ACAD_XREC_ROUNDTRIP
360
8570
  0
DICTIONARY
  5
8573
330
814D
100
AcDbDictionary
280
     1
281
     1
  3
ACAD_XREC_ROUNDTRIP
360
8574
  0
DICTIONARY
  5
858D
330
815A
100
AcDbDictionary
280
     1
281
     1
  3
ACAD_XREC_ROUNDTRIP
360
858E
  0
DICTIONARY
  5
857B
330
8151
100
AcDbDictionary
280
     1
281
     1
  3
ACAD_XREC_ROUNDTRIP
360
857C
  0
DICTIONARY
  5
855F
330
8143
100
AcDbDictionary
280
     1
281
     1
  3
ACAD_XREC_ROUNDTRIP
360
8560
  0
DICTIONARY
  5
8561
330
8144
100
AcDbDictionary
280
     1
281
     1
  3
ACAD_XREC_ROUNDTRIP
360
8562
  0
DICTIONARY
  5
8563
330
8145
100
AcDbDictionary
280
     1
281
     1
  3
ACAD_XREC_ROUNDTRIP
360
8564
  0
DICTIONARY
  5
8565
330
8146
100
AcDbDictionary
280
     1
281
     1
  3
ACAD_XREC_ROUNDTRIP
360
8566
  0
DICTIONARY
  5
856D
330
814A
100
AcDbDictionary
280
     1
281
     1
  3
ACAD_XREC_ROUNDTRIP
360
856E
  0
DICTIONARY
  5
8589
330
8158
100
AcDbDictionary
280
     1
281
     1
  3
ACAD_XREC_ROUNDTRIP
360
858A
  0
DICTIONARY
  5
8579
330
8150
100
AcDbDictionary
280
     1
281
     1
  3
ACAD_XREC_ROUNDTRIP
360
857A
  0
DICTIONARY
  5
858B
330
8159
100
AcDbDictionary
280
     1
281
     1
  3
ACAD_XREC_ROUNDTRIP
360
858C
  0
DICTIONARY
  5
8571
330
814C
100
AcDbDictionary
280
     1
281
     1
  3
ACAD_XREC_ROUNDTRIP
360
8572
  0
DICTIONARY
  5
8587
330
8157
100
AcDbDictionary
280
     1
281
     1
  3
ACAD_XREC_ROUNDTRIP
360
8588
  0
DICTIONARY
  5
8585
330
8156
100
AcDbDictionary
280
     1
281
     1
  3
ACAD_XREC_ROUNDTRIP
360
8586
  0
DICTIONARY
  5
857F
330
8153
100
AcDbDictionary
280
     1
281
     1
  3
ACAD_XREC_ROUNDTRIP
360
8580
  0
DICTIONARY
  5
8581
330
8154
100
AcDbDictionary
280
     1
281
     1
  3
ACAD_XREC_ROUNDTRIP
360
8582
  0
DICTIONARY
  5
8577
330
814F
100
AcDbDictionary
280
     1
281
     1
  3
ACAD_XREC_ROUNDTRIP
360
8578
  0
DICTIONARY
  5
856B
330
8149
100
AcDbDictionary
280
     1
281
     1
  3
ACAD_XREC_ROUNDTRIP
360
856C
  0
DICTIONARY
  5
8583
330
8155
100
AcDbDictionary
280
     1
281
     1
  3
ACAD_XREC_ROUNDTRIP
360
8584
  0
XRECORD
  5
8594
102
{ACAD_REACTORS
330
8593
102
}
330
8593
100
AcDbXrecord
280
     1
102
DISPLAYNAME
  1
Imperial24
102
FLAGS
 90
        0
  0
XRECORD
  5
8598
102
{ACAD_REACTORS
330
8597
102
}
330
8597
100
AcDbXrecord
280
     1
102
SHADEPLOT
 70
     0
102
SHADEPLOTRESLEVEL
 70
     2
102
SHADEPLOTCUSTOMDPI
 70
   300
  0
XRECORD
  5
8596
102
{ACAD_REACTORS
330
8595
102
}
330
8595
100
AcDbXrecord
280
     1
102
SHADEPLOT
 70
     0
102
SHADEPLOTRESLEVEL
 70
     2
102
SHADEPLOTCUSTOMDPI
 70
   300
  0
XRECORD
  5
855D
102
{ACAD_REACTORS
330
8133
102
}
330
8133
100
AcDbXrecord
280
     1
102
MATERIAL
148
0.0
149
0.0
149
0.0
 93
        0
 94
      127
282
     0
 72
     0
 77
     0
171
     0
175
     0
179
     0
273
     0
  0
XRECORD
  5
8135
102
{ACAD_REACTORS
330
8133
102
}
330
8133
100
AcDbXrecord
280
     1
270
     1
271
     1
  0
XRECORD
  5
8134
102
{ACAD_REACTORS
330
8133
102
}
330
8133
100
AcDbXrecord
280
     1
270
     1
271
     1
  0
XRECORD
  5
8138
102
{ACAD_REACTORS
330
8133
102
}
330
8133
100
AcDbXrecord
280
     1
270
     1
271
     1
  0
XRECORD
  5
8137
102
{ACAD_REACTORS
330
8133
102
}
330
8133
100
AcDbXrecord
280
     1
270
     1
271
     1
  0
XRECORD
  5
8139
102
{ACAD_REACTORS
330
8133
102
}
330
8133
100
AcDbXrecord
280
     1
270
     1
271
     1
  0
XRECORD
  5
8136
102
{ACAD_REACTORS
330
8133
102
}
330
8133
100
AcDbXrecord
280
     1
270
     1
271
     1
  0
XRECORD
  5
855C
102
{ACAD_REACTORS
330
812B
102
}
330
812B
100
AcDbXrecord
280
     1
102
MATERIAL
148
0.0
149
0.0
149
0.0
 93
        0
 94
      127
282
     0
 72
     0
 77
     0
171
     0
175
     0
179
     0
273
     0
  0
XRECORD
  5
812D
102
{ACAD_REACTORS
330
812B
102
}
330
812B
100
AcDbXrecord
280
     1
270
     1
271
     1
  0
XRECORD
  5
812C
102
{ACAD_REACTORS
330
812B
102
}
330
812B
100
AcDbXrecord
280
     1
270
     1
271
     1
  0
XRECORD
  5
8130
102
{ACAD_REACTORS
330
812B
102
}
330
812B
100
AcDbXrecord
280
     1
270
     1
271
     1
  0
XRECORD
  5
812F
102
{ACAD_REACTORS
330
812B
102
}
330
812B
100
AcDbXrecord
280
     1
270
     1
271
     1
  0
XRECORD
  5
8131
102
{ACAD_REACTORS
330
812B
102
}
330
812B
100
AcDbXrecord
280
     1
270
     1
271
     1
  0
XRECORD
  5
812E
102
{ACAD_REACTORS
330
812B
102
}
330
812B
100
AcDbXrecord
280
     1
270
     1
271
     1
  0
XRECORD
  5
855E
102
{ACAD_REACTORS
330
813B
102
}
330
813B
100
AcDbXrecord
280
     1
102
MATERIAL
148
0.0
149
0.0
149
0.0
 93
        0
 94
      127
282
     0
 72
     0
 77
     0
171
     0
175
     0
179
     0
273
     0
  0
XRECORD
  5
813D
102
{ACAD_REACTORS
330
813B
102
}
330
813B
100
AcDbXrecord
280
     1
270
     1
271
     1
  0
XRECORD
  5
813C
102
{ACAD_REACTORS
330
813B
102
}
330
813B
100
AcDbXrecord
280
     1
270
     1
271
     1
  0
XRECORD
  5
82A7
102
{ACAD_REACTORS
330
813B
102
}
330
813B
100
AcDbXrecord
280
     1
 70
     1
 90
1959938040
 71
     1
  1
4F9154DA-78E8-4839-95A5-D38BAA6BCD21
311
504B0304140006080800CB856E5733FFC26ABF000000200100004F00000035353833343634372D464646452D344531312D423239432D3235383732384532374542332F4173736574446174612F446566696E6974696F6E4974657261746F7250726F706572746965732E62696EEB606060F80F0540260323103700495E20ED
311
9E9A975A94991C9C9C919A9BC8C00612C9C94F4ACC6147C831019920AE4B6A5A62694E0948976F6671726A4E4E625E6A7E69B12042A9426E6209D0B8C41C3D90264E20860914834C48875806B2DF0F88414E02D189290556F689C5C5A925B6FA694915FA4EAEE666AECEC696BAC62E4E96BA26E6962EBA4EE64666BA06162E
311
2E4EAE26CE9646E64EFA45A9C5F9A545C9A9C5FA46FA06F15093E30BF2D219182466CD50B80EB404E40610260400504B0304140006080800CB856E57812C41EC03010000300200004500000035353833343634372D464646452D344531312D423239432D3235383732384532374542332F4173736574446174612F496E7374
311
616E636550726F706572746965732E62696EEB606060F80F0540260323103700495E20ED9E9A975A94991C9C9C919A9BA802143071B33434357171D435B770B5D035B130B6D4B5347534D57531B6707274347372763132644768046931363471713532B5D435353131D635313332D475727372D13534373670367376B67474
311
B5042A03DBCBA019D37FE8ABC6157B20CD04146B0062181F4C03F940F0C11EA29A8141C08141002C0426541C106CAC2CA046088033B02A030AC2157C6006F21A8018AAF50194E6010A610250382264E08660284CD9E98021862280A91564B406929A0FF62C401E28B6F88038B83CB1243943D7A928312F25350524C3C0A0DD
311
70F56A83369809E6AC0A85B251645054A1A983A947A601504B0304140006080800CB856E5728BB58AF800100009E0500003D00000035353833343634372D464646452D344531312D423239432D3235383732384532374542332F536368656D61732F436F6D6D6F6E536368656D612E786D6CBD544D4FC23018BEFB2B96DE15
311
493C78601010A34B880709DEDFB52FD0D8B54BD70DF6EFED3AC0B12E6442E2716BFB3CEFF3D18E26FB440405EA8C2B1992E1C323095052C5B8DC842437EBFB673219DF8DA659866649B798C078B48AE6410122242F2A4994AC7F93815DF85C049C8564CA0A901499DD886B2EB9B1E02448F358701A9235880C49A0119892A2
311
0C89D1B9FD768815CAD268CB5E0355B40B1E47F3E37A2020464BED06AA57CE8FCC20C3C3446D46761A2632A8C1283D07031EFF2AE7CCB1BFEEE916E406DFAC8E36FFD99A9D60A6944090EEDC3B670C7DC13DE86B6B2C5C240D6E503BB85ACD579D513F1B9F9A69DC9CC22AFA80C426D40AF0B21EA168559156B6276F0F726A
311
6BFF04DCD513A87A62CAD41FB24FCB2858B3952E3D852084DA25B9303C15687973CC8E8AAE11DF2836C38C6A9E765E8C1BA1BFB1DC29CDFE518C8B5A7655A4ED7E77291ABEB80DBD82EC866ADE1B8D05AF9E35CF09D7A061F38A986D9EC412B8F0F65E5D81534D9B231D1E5A8FE577A241F3A5FD01504B0304140006080800
311
CB856E572CCEBD668A040000E01200003E00000035353833343634372D464646452D344531312D423239432D3235383732384532374542332F536368656D61732F47656E65726963536368656D612E786D6CD5586D6FDB380CFE7EBF42F0F7A649B70E1B90744856B4970F450FCD7A5F05459613EDE4174872DADCAF3F522F
311
8ED3B88D2F1D06AC4050DBA2493EE4438AF2F8EB73AEC8466823CB62928C06C384888297A92C5693A4B6D9D9E7E4EBD51FE3A931C22EF85AE4EC6AFC38BF261BA626C9AD288496DC3F4FCEAFC63366845F7A10452AF41DB320C0D44EC26EAB20918735565582695670811A6A49643A49A6E9069FA4604A64B29016DC4B4855
311
2F95E4932463CA888468C1D2B250DB4962750DF7CE273069CE8363F1FF4EDB00E0A21999574AE4A2B00C353B93F3BD4777B8A61ED8F604ABFEDD79CE56A2B7BDFBDBC50996E0ADDE16FED26223C5D30956C29BDF4A55EA686E5E58B112DA45CE67F76F4FA27EFA3FB672FD7372FC388FAECDCA5209E693CAD167BADCD272F9
311
43701B3812F8A3D852008B1D2E32DB927B2F833C6EA95879925356D254582695095A3CE982924720BE5774A3CB9CDCDB350427D2DF20DA1B5532EBE2D5D6288D75D4F7E4FD9890A0EF8E3D93EBB8F8BA4758158EF6FB90A6F9520281C93DE7AAC6D24607DA296BB96018123F821A7D6A5C5884050C475DA4865442732C8B95
311
684A50165CBB3A32F25F783A4A480ED59AD7F924B968AEA50131F46303223E6A397B0E52976030DC1DCA81D7E7C1EDEEA42C19FF27635C505E2BD5198A599020DF50A2330FCB3AAF28CB0124108429553EF1B228802E2265D8F7CC2401042B155BCC7070F1E5C55F13B4A9577362CCCE46C32174E010C3C378C44841A4BDA0
311
0FE3A12006CE11EE6AEC59894D3526DDE1CD59D503ECC324017F8061B7F162162FA62EDD81AE3308617770796DCBDAD2B2625C5AE8A63DE20B2C8AA5E95E76E5730823955956E33E705425A2187C185D36489A1B44D3DCEC2172F6BA2105C3546287A7194B2331768EBBE64F6E70A9930ABE0ADEA89E9E2C38523B810287AD
311
67A54A039C1606EAFE68F8304610BB9093DBDDABC0B2AE4E290DCDA15376D7E39F72B556F0B32EAB5D3D498B4C41ABADEC3A1434C422D87E8025A84BDCB2B1417ED750FAE4DA8976863974C577C7F902D3F156AD354DEA3540DE6BEAE2BEA52F7A2EB4CA43802ECE5BF2CE2EDC9347179FFB023CE412E60BE16DA0BE29B374
311
988A553F561DC04615DD35F7D2C8979F60E5955CE93DF29DED8AFA1EE6642D53418086C03C47C377910F75F7E8F5EF665F70B60FFB22AEDF897D119E8423C773E819A3C1E55E550599EE6EDCA34D0C86FD72057DF2CD46F16A470682471C164E4346D5306BF12D7D12D82CFF673D41636C347443FEB51B50D72EA171A8E4A5
311
8623A4A16E0FA2B8B10A0D23268D87C33896EE8FB73305A74BF224EDBADFA0BD674AB354D63DB7BD5D83426761C077DE767728235446A552754EB93B755891C3C4CC6CADE37CF0E912A7BB38DBA010F9DE1282EDF470CA69A9CDA482E334C4A6EA4107987980B17E72F31730EBF88BBD39E7C629F56797A3C0009C2C5AE795
311
1D9A05A02773440F02EEB4DE396A3B6A570C72CCFBCD823B0B8ED3F1D5CEDDFED772FA70236C83FB7D86C385D570B87107535572A60A96035F8F7C6A7192F13007246BBE0521855E6AC46F3E27689CEE7D186A6FD679D98CDCAD13333E04EBE7ED6F55FF01504B0304140006080800CB856E576180134D5F0100006B030000
311
4500000035353833343634372D464646452D344531312D423239432D3235383732384532374542332F536368656D61732F52656E6465724D6174657269616C536368656D612E786D6CA5934D6FC2300C86EFFB1551EEE343DBA41D1A103009551ADAD40EAE28A4A68D9426284961FCFBE5A340113B2071746D3F765EBF4DC6
311
BFB5407BD0862B49F0B037C0082453059725C18DDD3EBFE3F1E829991803366715D474942CD30FB4A782E00C64017A412D684E454CE3FE28995203B162A6EA5AC94B66997D225E109CD63B0135484BAD1B3C07E9080CA35DB3119C11BCA5C200461A68A1A438126C75E3E230D40FF81FB3F03C91D1E3A3A0AF79FE28E25BC3
311
9EC3E17E4C2A2D94A0833A51AF55BCCA7D88572FCBAC529C4140B020FC3AAFA886621DCED7EAD7664CC86024E806DC297DA1BB393E4156543457A4537DB8817349A70F8ACBF09B3EEE2CB2F33E91B65D60786E4E3B39B77E3FEEEF5650424525DA657FB8B46BE6BF064646F0A0F7327C0BC1BC1B4CBBC1C419FA3CCB235000
311
07872A2580CAAE5461865565294E4EDB4617B62FF579DF9A5B2F54E834076A597573A020912FED777F9B3F504B0304140006080800CB856E5720D03FCE51000000570000004700000035353833343634372D464646452D344531312D423239432D3235383732384532374542332F4173736574446174612F41737365745461
311
626C654F66436F6E74656E74732E62696E536160603071B33434357171D435B770B5D035B130B6D4B5347534D57531B67072743473727631321402AACB4D2C492DCA4CCC492C28484D2C4ACC4B4E050A82012F90744FCD03CA26072767A4E6260200504B0304140006080800CB856E57F86583405800000068000000450000
311
0035353833343634372D464646452D344531312D423239432D3235383732384532374542332F4173736574446174612F53747265616D56657273696F6E5461626C652E696E66558CBD0A80300C06F73E4B117FB66E451741D041DC5BF98480A492E4FDD18EAEC7DD4555D89EF28DF51A0B1BD8340C4DE7DD848B988C0ACF06
311
49566493F2408C508DDEBB99D5129FF8F1AF8CF5B9503E20FAE5A16B5AF702504B0304140006080800CB856E57FAE7E72B350100009A0400003600000035353833343634372D464646452D344531312D423239432D3235383732384532374542332F4173736574446174612F636E782E786D6CCD94314FC3301085FF4AE43D
311
76D25615AA1C5708964E205131B05D9D4BB1EAD8917D41F0EFB19B0CA022A60E5DCFEFCECF9FFC4E6E3F7B5B7C6088C6BB86D5BC62053AED5BE38E0D1BA92BEF58B15532784F3F64AC70D063C3729929790C7E1CE6528B1D8C3657AD71A7B9781F23D21E0E169FBA07EF081D4556680B31362CEA77EC81C348BEC578E22D10
311
F09A078C7E0C1AD324323DCE937440206C995A548B6559D765BDDAD7EBCD6ABD592CDFA4C84A250FDEDB596FD265C10F859E6E65AA92221F2B3906336BF25B98FACB233F182745522A1929242673077D0DA90386C11A0D94D009AF09A94C22845E8A49ACA4C80C7E9178C4CE38935B76C918900FCFC91E0632787344FEF37A
311
7D323B17099CC6DBE571E9F0FA145ECE3FE8750AE43931B796934B87DCB8EE0A2911E735924293B78AFA06504B0304140006080800CB856E574FAC34A3080100004F0300003400000035353833343634372D464646452D344531312D423239432D3235383732384532374542332F536368656D61732F636E782E786D6CCD93
311
3D4F43211885FF0A61BF1FDC368D69B87470707251273784B79514786FF830FAEF852B439BB8E9D00D0E4FC83987177EF874967C408806FD4C593F52025EA136FE34D39C8EDD1D2507C10362BAC028F1D2C14CAB4C053F05CC4B93341C65B655B5C69F9B788FCEA17F56EFE02425CACA18671AD76D2F73420DF1DC6B9964CF
311
FA00117350506E48C641BB410590093415D3386D3AC63AB67D61BBFD76B79F36AF7CA8A4E06F88B6F1C62708B8108565E18B9D910FF558F01C4C636A062A2EBDF5A50D3E1442F09842E9A091E96B29A45C166B944CA5AA61057F18C1871AF52AF003780846DD66E22B73FF16F909BC86F0585E2918696F33F96F1EFF56C0B0
311
CE7E1981FA15C437504B0304140006080800CB856E57410A3D5871000000A40000002C00000035353833343634372D464646452D344531312D423239432D3235383732384532374542332F636E782E786D6C55CC4D0E82301086E1AB34B31774E7A22D31F1069E60020334B633A63FC6E34B0909B07DDE2F9FEE7EC1AB2FC5
311
E4840DDC9A2B28E25E06C7938192C7CB1D54677514C9871928C640062A83D55394F2D968A0118BAFEA1DBF377CA444F98919176EAB9FEAAB9F2960DA5BBB1E2ED3FA6FFF504B0304140006080800CB856E57CFE3F8437E000000A300000007000000636E782E786D6C4D8CD10AC22018465F45FE7B2B9DA681DB60A1EF319A
311
1B92D361337AFC3476D1D50787EF1CD57F568FDE36BD5C0C2D90D305900D8F38B9B0B490F7194B407DA7528CFBDF0D501857DB42C5D0A925C5BC1D68B2F3987DA5DE85E70139970DBB32818D311A334D081EE8ED8E2997824A4D851E9A629CAB52E6D72B5BF3DD17504B0304140006080800CB856E5716E99B5DA600000035
311
010000130000005B436F6E74656E745F54797065735D2E786D6C9590410E82301045AFD2740F4517C6180A0BF5065E60AC53688469D30E066F6F91AD9AB89CF9FFFD3F99BA9DC7413C3026E749CB4D59498164FCCD51A7E5C4B6D84BD136F5E5193089ECA5A465CF1C0E4A25D3E308A9F401292BD6C711388FB15301CC1D3A
311
54DBAADA29E38991B8E0254336F5092D4C038BF39CD76B6FC6A538AEBEA54A4B08617006389FA516557DE4AE8E7E70DE30729138228C5F021CD93F02D4FB0DCD0B504B0304140006080800CB856E573DEE336E64000000790000001B0000006175746F6465736B2D64657369676E2D7061636B6167652E786D6C35CBC10E83
311
200C00D05F21DCA56CA76D41FC96062B120735B69A7DBE268BB7777961F8D5AF396893C2ADB70FE7ADA196782C2DF776D7A97B5933C430F15651E5469C55D70F80A4992A3ADC954792C525AE70A1E4D6AD9816CC044FEFDF01FE3FDE907802504B0304140006080800CB856E57B9379157F900000096010000370000003535
311
3833343634372D464646452D344531312D423239432D3235383732384532374542332F4173736574446174612F636F72652E786D6C8550CB6E833010FC15B47703064221328E6848BFA0A7DE2CDB2156828DFCA8FAF9B50395DA534FBB9A9D99DD1D72FA5A1ED9A7B44E193D00CE4BC8A4E646283D0F10FC1575909D28B1C6
311
F85F34C8345BE40009064A666BC2BA43DC682F7542B51172079973D243C61FB119C0F19B5C58CE828F0C77CF57C6EF6C9639CE371E252128B14B95886EEAAAA405DABE75D52BBE8CE865C2256A2EE384C6737D407D7FAEF17468DA7EEC4891C49478B5FC6CE756322F05D0AAAC6A8431C2CD3B6E8F4D7BACEA0F52242625CE
311
DBF8F3BE347D07744C574FCC33526CD33FAE6115FFBB06A57D5DEDAE9BC201C5F1C8E7809222A514CB33C25853A2F41B504B0304140006080800CB856E57C28BB909F8000000940100003500000035353833343634372D464646452D344531312D423239432D3235383732384532374542332F536368656D61732F636F7265
311
2E786D6C8550CB6E833010FC15B47703064249641CD190FE407BEACDB21D6A25D8C88FAA9F5F1BA8D49E7ADAD5ECCCECEE90F3D7FCC83EA575CAE81E705E4226353742E9A987E06FA883EC4C8935C6FFA241A6D92C7B483050325913961DE2467BA913AA8D903BC89C931E32FE884D0F8E7FC899E52CF8C870F77C61FCCE26
311
99E37CE351128212BB5489E8A66E4A5AA0ED4B573DE3EB809E465CA2E63A8C68B8D407743C5E6A3C1E9AF63874A448624ABC9A7FB6732B99970268555635C218E1E60DB7A7A63D55F53B29129312E76DFC795F9ABE03FABADEE948B1CDFE788645FCEF1994F675B57B6E0A0714C713D7012545CA289635C058539EF41B504B
311
0304140006080800CB856E579A56E8D500010000D70100002D00000035353833343634372D464646452D344531312D423239432D3235383732384532374542332F636F72652E786D6C9591CB6EC32010457F05B1B71DF0236E848994CAFE82AEBAA330715162B07854FDFC42EDAAEDAE5D812EE7CE7067D8F97DB9A337705E
311
5B3360521E300223ADD2661E700CD7A2C7E8CC99B336FCC03032628101671973363B1BD75D92D60430593556C12E0AEF216024EFE932602F5F6111A5882111FE56AE42DEC40C2529378EB3A0972FAB74200228CCE981D6052105699E48776ABA13AD9F599549CEA236A1A67B33585E4021BB861409F39655DB6BA2A2563BA3
311
55FAA3BE6A708968FBBAE99A63314DD3583463EA71A10F8F056DFB23ED477A1C2F752A92CC9CF9E0D264F62279067FB56FC65FC9E2AAFE996C7378CCC977A82A8F99B3EA7307E9CC2BE11F504B0304140006080800CB856E57868B3A7808010000B201000008000000636F72652E786D6C8D50C16E842014FC15F2EEA8A86B
311
75836CECBAFD829E7AA3C25AB20A0670D3FE7D61B5497BEBE99199796F86A1A7CF794277699D32BA05926480A41E8C507A6C61F5575C033A316A8DF1BF6480349F650B110646476BD6658706A3BDD411D546C81DE4CE490F6898C2A305377CC899277CF541E16EC9C2871B1F6542924DC7A857F3CFEA6025F75200CBB3BCC0
311
846052BE92EA5856C7BC78A3695432BAAE4AEC564A04777555D202AB5EEAFC995C3AFCD4930C9797AEC7DDB938E0A63917A43F9455D3D5348DCB8C3A6FC39FF72321A7478EDFA32F4D378AD17763A65D10420964F4F4052CA36924FE845E17F18FD04AFB22DF0F6E1B0E1809811E44308E0D86F1A837CCD836FB06504B0102
311
1400140006080800CB856E5733FFC26ABF000000200100004F000000000000000000000000000000000035353833343634372D464646452D344531312D423239432D3235383732384532374542332F4173736574446174612F446566696E6974696F6E4974657261746F7250726F706572746965732E62696E504B01021400
311
140006080800CB856E57812C41EC030100003002000045000000000000000000000000002C01000035353833343634372D464646452D344531312D423239432D3235383732384532374542332F4173736574446174612F496E7374616E636550726F706572746965732E62696E504B01021400140006080800CB856E5728BB
311
58AF800100009E0500003D000000000000000000000000009202000035353833343634372D464646452D344531312D423239432D3235383732384532374542332F536368656D61732F436F6D6D6F6E536368656D612E786D6C504B01021400140006080800CB856E572CCEBD668A040000E01200003E000000000000000000
311
000000006D04000035353833343634372D464646452D344531312D423239432D3235383732384532374542332F536368656D61732F47656E65726963536368656D612E786D6C504B01021400140006080800CB856E576180134D5F0100006B03000045000000000000000000000000005309000035353833343634372D4646
311
46452D344531312D423239432D3235383732384532374542332F536368656D61732F52656E6465724D6174657269616C536368656D612E786D6C504B01021400140006080800CB856E5720D03FCE51000000570000004700000000000000000000000000150B000035353833343634372D464646452D344531312D42323943
311
2D3235383732384532374542332F4173736574446174612F41737365745461626C654F66436F6E74656E74732E62696E504B01021400140006080800CB856E57F865834058000000680000004500000000000000000000000000CB0B000035353833343634372D464646452D344531312D423239432D323538373238453237
311
4542332F4173736574446174612F53747265616D56657273696F6E5461626C652E696E66504B01021400140006080800CB856E57FAE7E72B350100009A0400003600000000000000000000000000860C000035353833343634372D464646452D344531312D423239432D3235383732384532374542332F4173736574446174
311
612F636E782E786D6C504B01021400140006080800CB856E574FAC34A3080100004F03000034000000000000000000000000000F0E000035353833343634372D464646452D344531312D423239432D3235383732384532374542332F536368656D61732F636E782E786D6C504B01021400140006080800CB856E57410A3D58
311
71000000A40000002C00000000000000000000000000690F000035353833343634372D464646452D344531312D423239432D3235383732384532374542332F636E782E786D6C504B01021400140006080800CB856E57CFE3F8437E000000A3000000070000000000000000000000000024100000636E782E786D6C504B0102
311
1400140006080800CB856E5716E99B5DA6000000350100001300000000000000000000000000C71000005B436F6E74656E745F54797065735D2E786D6C504B01021400140006080800CB856E573DEE336E64000000790000001B000000000000000000000000009E1100006175746F6465736B2D64657369676E2D7061636B
311
6167652E786D6C504B01021400140006080800CB856E57B9379157F90000009601000037000000000000000000000000003B12000035353833343634372D464646452D344531312D423239432D3235383732384532374542332F4173736574446174612F636F72652E786D6C504B01021400140006080800CB856E57C28BB9
311
09F80000009401000035000000000000000000000000008913000035353833343634372D464646452D344531312D423239432D3235383732384532374542332F536368656D61732F636F72652E786D6C504B01021400140006080800CB856E579A56E8D500010000D70100002D00000000000000000000000000D414000035
311
353833343634372D464646452D344531312D423239432D3235383732384532374542332F636F72652E786D6C504B01021400140006080800CB856E57868B3A7808010000B201000008000000000000000000000000001F160000636F72652E786D6C504B050600000000110011005A0600004D1700000000
310
504B0304140006080800CB856E57000000000000000000000000370000006662782F32444234324135422D333137302D343946442D424232442D4231333638364444434135422F617474726962757465732E62696E504B0304140006080800CB856E57000000000000000000000000350000006662782F3244423432413542
310
2D333137302D343946442D424232442D4231333638364444434135422F76657274696365732E62696E504B0304140006080800CB856E57F270F1330600000004000000360000006662782F32444234324135422D333137302D343946442D424232442D4231333638364444434135422F747269616E676C65732E62696E6366
310
60600000504B0304140006080800CB856E5751464CB48900000043010000360000006662782F32444234324135422D333137302D343946442D424232442D4231333638364444434135422F6469726563746F72792E786D6C9D8F310EC2300C45AF127987122606C71DD918B841D4B851A43646695A717C52A85029031293A5
310
A76FBF6FACEF7DA7264E43906840EF0FA03836E242F406C6DCEE4EA06AC22492573150D1F66C60C640E8938CB705396EEDD86DE9B5042FE27813D640EA63BB001C722AF6E55CB61E4863F58284D5D3F53DD715CE1C3985E63FD7F1B7EBDD617E9F1E504B0304140006080800CB856E57583E547D40070000201C0000340000
310
006662782F32444234324135422D333137302D343946442D424232442D4231333638364444434135422F6F626A656374732E786D6CDD59596FDB3810FE2B84F665F74192E52B76E1B8F091044691B6A8D1C5BE09B44C3BDC5007282971FAEB774891B2A8C8B6D2032836016287228733DFDCA3C9FB43C8D013E1298DA36BCB
310
733A162251106F69B4BFB6F26C678F2CF47E8A263C8EB3CA3E0B453824D79658B6A6933D8FF3442D6DC90EE7ACBE7A3BFF07A5018988850286D3F4DA4A8307126207E759BC25E9A3B3C51976F6BB83E339C54693EC9EE3E4A17655823989326015D623A0A238F0CC7F4124773A71C506635BAFDDB6EE996DAE14DC64944669
310
86A3E01557B5EBBA27B8AA5DD7F3FACB9BEE606C0FFAFD9EDD1F763D7B7E3B5FDADE55AFB3182E16E3D9CDD842D3C9268E59A98084445BD0E28B35F526AE78528AAF5068E23B88A388040ACDA60D5BA2E85292D6313180F5A468158514B256167A2D853FB1AD1528064B06DA5A38FD59B5DE78F32F8090B6B1529E1261E569
310
C641D70AFBC21F3A13B75835F4425314E28C708A196274C3310705C1D642410619E12D82141298492D6A7A555EC1B02FFB521397BB9C31E1BFD6547A9A0FFE48B2547246BF117EE4BE7A1BF004D2E634CA464AD8EC250112E3892B178B67BDAE7A580089760CEFC15A404CB1A9D7ADE1B510B160B5B4A61F6E3787B5880FCD
310
97273C4E08CF84E54967567EA73558312D30BE16A014B89ABA3BA2F205A0FF08C897BCA009688ED343FFD0D7B2731CA5BB9887A01DD4417607FE7490F8FAEADBC42D0F4F113262E5294CC16D7F12A68618C6DD1548A7932730FA98F79470EB0033B0E97B1A093F0743412C862588F7BBCDC19AAE2098C2229CC20CA487DF89
310
2BBE22F828E840BCA969A829FCB650947698BA9F1D75750736C36950AACA90F114BE839F82EF6CB9FEB0CEF90E07E45E39F692EC68443348A6CD0C19A01B2EFF75F5517AE41D8B37981D4F1B9B02B8661F8BB8D1A096B5520B927A014E441A2E342357EE29783B633822719EAAF5A63815C42CE6FEE6C52F5CB8F1AEBFB50D
310
14972903688C6590DC034E1381893555DA2A03A15311142C0C736581FB42ABFE260F131F87711E8950FBDA14EB7C409C1196085425356DD8DA6B35D92DDDEDF214825723C98501A4F2674DB8B0F03EC4B1267E39D9710C49348E7C0A39189CA5F106E38212BCF33CA784ED7CCA581EFA3BCA208FF8214E4ED06F294135733D
310
9297E7986F1B099A96A57D52DB90005C01AB41D2D9AA88F94AA79C3C515166CA7CA6B381B143D5A1D6B47F225D884CD100A8364669E6FDDBB137E82F67F6D5E86664F747BDB13D1ECC06F6B2379ACF66C3F962D93D222E113846AB6ABE03558A32C7F0BFEC210F3711A60C1E08B1F13679F75E66CF6B1742A33BBFB91ADE2C
310
E0C6DE723EB6FB57E3A53DBFEA0EEDCE68B99CDFF417E3EED5DCE5248D731E90D4EDBA1D5F9B6412EDEBE85D8EA150D65C4E765A5F7561FEC731B49E130C25FEAE41B48C5D0D0561DB202A8ED643280E1E458AF203A8FA1ADDA71644EB7C34C5B937C6E58ED3EBC81FCF1B773BE3EE683C2C8DFD6CA096F7FC709C6B922080
310
BE33CFFC38C101CD9A136A0D9763D438CBF29B728BD3F30608D029FF96979CCF33EA129F86784FFC1D165D424360BC2441630EDBB3384D694452D9E5BDAAFE6A343B0E145366CE6D30429AFA21C9F0F7D89F6C1B6A360DB199F9D08F66622270B12A280D5A7520A7288AEE1712B794FFC54F7198B0A2D3BD8481D7D510E81E
310
A7C9E204D3E28A27B0371F677E674BE4E0E212F5927D5D1F346AAD4E7DFCDDE44FC0A3EB9A5F088FBEA27DE9E40CBCB1F8194150190EBCDE9556C425ACF45599E8E3580E9D67F0E23F13BA7F685568B6D349A5642B8AEA8C84D0C6E22CE7ADFC7538E8BCBA48C5859A43546E7A637128FB37DDC1017AB2813B55DE56AE813A
310
944630E76A25C82B291A4D58EA42CEF4C4E8EA0D7E7D56D955AA3F1C2F7F79C55C75BE500E7F2EE300D572118055F4316AEAC6AADBA887D2679C051048D7F2D39E83476CC9F6D89819E49A4A745DA75EAA9E5722A08630B1C522CEDE8B2FEC0B065543F79CBA7745D1E616EB2B91D81C184E1FF9309836697DBA5BD7A8C04A
310
EBD39F0546E4B94641AD2E44377C86D4D7D5B1E7AF5150127D5D9D39FE5B74145A8195311A4C83D3985118CA932DDA9318B2378C1D5A741B3C24A9CCCA60BC2A48E937022D4E3F1533D50C6F983E1D3C60184C33D58BE5010C4521635E5B6A1DFD016350318994C329E711DA3015C32C94737A6D81C56614BA2D6703E32C39
310
3C94D46BE34A706C1CED45BE2F4E95FF1F8F0974202A1DE52AF7B4C1454966381314B6897C4F00555FF1603AF97ED1353B0867F0759367A530C785A3340A04FD42A0100EA67E8F0ADE031414E7E5F21CB9C780A4D564FEAC1D1454ED0CF3BD1CAF57F09E2D3FBB6232BEFA841296EF853ACF75BF06255B74DD2C2FA6501330
310
0C256682450DB978E77EE631BC620AD12D0523407F1E46C3BFDC451C8671542CB933F5A20AAD1FE0B5D3D6D5233F68E33BDEC095530035D6F73738250EDEA68FB000AAE554CC460B880D0328A369C500B446842EE098B17FB544AA36AA4C48AA6157C02367FA081C49BCCB116E53DD501940822F0057F2E1F18B5E98B81C86
310
E0D3FF00504B0304140006080800CB856E57831632F63E01000046050000300000006662782F32444234324135422D333137302D343946442D424232442D4231333638364444434135422F636E782E786D6CCD94C16A032110865F65F1BE6B4C4228C135D0439FA087D29BEB4EB636AE2E3A96E6EDABA9495B4A4A0F81E426
310
E33FF07F333FC337EFA3A9DEC007ED6C4B5833231558E57A6D879644DCD677A4DA08EE9DC36F32525939424B7299083E7817A752EA612BA3C955A3EDAE1425A2D75D4408A4524686D092A05E60948D8CE87A08BBA697281BD678082E7A05A91FF508A55F7990083D11F3D97C513356B3E5235BAD97ABF57CF1CC69560ADE39
310
678A5E5B04EFA64AB9F4B0C9CC8CD3FC2D78F4BA683201115FCE9A4E5B4ED3BFE021B9B543D1E17ECABA69325A494C63A24E21609D4420474E3FC582D3CCFB83FAE1FEE9E8A0EAB50785CEEFAF3400766E0027634D4AC2FFF80FC2BFB15DF79A70AFB5EDB3B0C5D6C5508F690D29AEBFF79F5224ED606E2FF4276397CF7C3A
310
25A8D5ED211F7D5D88981E4E5E5A7ABE80E203504B0304140006080800CB856E575F10DDFD7E000000A30000000B0000006662782F636E782E786D6C4D8CDF0E822018C55F857DF794A0996D808B58EFE1121D133F1A49EBF183E64537E76CBFF347F49FD593B78D2F1750023B54402C3EC2E8709690B68976407A256208DB
310
5F0D080EAB9550302831C7909E3B1AED34245FA877B8EC901BDDF0EB49D39A9D2BDA5CEE866ACDB3B0BAED5A636E39CB8B639964FBFD652FF7EA0B504B0304140006080800CB856E57A6D797065F0000008200000007000000636E782E786D6C4DCB3B0E80201045D1AD90E9FD7516806B51190811670C8A61F982B1B0BAC9
310
C97B72CA7B1037C6D3332918DA1E04D2CAC69353902EDB8C20262D23F3F59B81A079470595414B17391D1F19B4730A5583A7ED43BBE4025D9592775E5ADFFA01504B0304140006080800CB856E574FEB6A7CA0000000F4000000130000005B436F6E74656E745F54797065735D2E786D6C7D8F4B0EC2300C44AF1279DFA6B0
310
400835ED02B8011730C16D239A8F121795DB93D02D6269CFBC19BBED573B8B17C564BC53B0AB1B10E4B47F18372A5878A88E20FAAEBDBD032591BD2E299898C349CAA427B2986A1FC86565F0D122E7318E32A07EE24872DF3407A9BD63725C71C980AEBDD080CBCCE2BAE6F5D69B7110E7CD57AA146008B3D1C8F92C5954F9
310
93BB1BF787F39A89ABC491D09600F9FDA2FB00504B0304140006080800CB856E573DEE336E64000000790000001B0000006175746F6465736B2D64657369676E2D7061636B6167652E786D6C35CBC10E83200C00D05F21DCA56CA76D41FC96062B120735B69A7DBE268BB7777961F8D5AF396893C2ADB70FE7ADA196782C2D
310
F776D7A97B5933C430F15651E5469C55D70F80A4992A3ADC954792C525AE70A1E4D6AD9816CC044FEFDF01FE3FDE907802504B0304140006080800CB856E578B71BE80F8000000960100003B0000006662782F32444234324135422D333137302D343946442D424232442D4231333638364444434135422F7265736F757263
310
65732F636F72652E786D6C8550CB6EC32010FC156BEFD8C6B8AE1B61A25456BEA0A7DE106C5C94182C1E553FBF90B8527BEA69D1ECCC2C33FCF8B5DEAA4FF4C1383B01AD5BA8D02AA78D5D2648F14246A88E827BE7E22F1A5456AE38418141F0C5BBB4ED907236A22DA8751A77508680112A75CB8F0982FAC055D632C5CC08
310
D77A93EA2A17AC69FDE0099E92D1BBD4E8EC662E063D083AB6E3D0CD8CB0F94C497F3E0DE4D48ECF843ECD6DFF3AB2FE85CDBC2962C1A3597FAE2B8F32A206D1B51D239412DABFD1E1D00F878EBDF3A630050FD1E7CCFBD1920E84C7E092571878F3D8FE714D9BFEDF35191B59B7BB3E1421E7C89FBC2F046F4A4B79DC2BCC
310
B3342ABE01504B0304140006080800CB856E5705C93DF6F1000000B1010000310000006662782F32444234324135422D333137302D343946442D424232442D4231333638364444434135422F636F72652E786D6C8D50CB6EC32010FC158B3BD860D74D234C54D7EA17F4D41B828D831283C5A3EAE71762576A6FB9B0687666
310
6776F9E97BB9555FE0837176409434A802AB9C36761E508A677C40D54970EF5CFC434395950B0CA8C048F0D9BBB4EE907236822DA8751A765086001155EA963F030AEA028B2432C5CC0857B24A759533104A369EE0D12CBF52E54146D048B086B598524CBB0FDA1FBBFEC8DA4F5E17A6E02919BD5B199DDDCDD980CF9269EC
310
D8EBD3885BFADCE0EEE57DC2E3C8F243DBFED04FD35BEEF1BA88050FD1E79DF72165BB47E59BF05FE6B4EA07321B1B5BB61B6E8A8004CD79EE0DC1EB72C05CEED7CDB51C5BFC00504B0304140006080800CB856E57E92049E053010000DD0200000C0000006662782F636F72652E786D6C8D52CB6E833010FC15E4BB0103A5
310
34328E52A17C414FBD39C6A156C046C646F9FC2E2FA51C9A5648C69ADD99DD19991EEF5D1B8CD20ECAE81291304681D4C2D44A3725F2EE8A0B141C19B5C6B81F6D28D0BC93259A60C468638DEF574818EDA49E506D6AB9827C18A4438168E152A2417CC98E87DC3BE8186E61CFC58D373224E1D2C7A8F7AA5EA9AA06357555
310
D222468AB8C8932AC5697526383B9F727C8A8B574C5EAA387B2FD2EC2DAD6834911975AADBA60B2BB9933562499CA498104CB20F921FB2FC90A49F349A3A191D9C05CFEBD0C91D62D7CB9D460BBED3F37DFDB79E57DAA5C9AAB730067000EBCD0546A3291FF8CDE1ED3384C1909FE39776B370036894C2199B41A536FE511A
310
79EB2548C7C1FCD168A982F22CF09B4EF244E7B90604C57503AB7107D78B77D3F4FD4EBDB47874F7401BDBF1F6B1DCB2E2E37C0CDA59DAE8C2B4C6FE87BD59DDC28CA687C9BE01504B0304140006080800CB856E576A2BCB7806010000B201000008000000636F72652E786D6C8D504B6EC32014BC0A628F0DC675DD0813A5
310
B27282AEBAA386382836587CA2F6F685984AEDAEAB8766E6BD19861D3FD705DC95F3DA9A01920A43A0CC64A536F30063B8A01E822367CEDAF04B068111AB1A60862167B3B3712BD0644D5026A3C64A5540E1BD0A104C4B7A0CD04F57B58A4AC49014FE566D62BA895955A4DA759C05BDFEAC4E4E89A024E40D6E28220491F6
310
8D7487B63B34F49DD559C9598C5A162B2D93BBBE68E520273DEEBB66A4888E6782DAF3A94327DC3F23F234E2F6B5A7ED0B1D599D9739F3C1A53F97232967005EDCB32FAB778AB30F6B972248A124B066F9821CB33A137F42C74DFE23B4368136E5E0BEE153E614E84124E3DC601A8F7AD3CC6DF36F504B0102140014000608
310
0800CB856E570000000000000000000000003700000000000000000000000000000000006662782F32444234324135422D333137302D343946442D424232442D4231333638364444434135422F617474726962757465732E62696E504B01021400140006080800CB856E570000000000000000000000003500000000000000
310
000000000000550000006662782F32444234324135422D333137302D343946442D424232442D4231333638364444434135422F76657274696365732E62696E504B01021400140006080800CB856E57F270F13306000000040000003600000000000000000000000000A80000006662782F32444234324135422D333137302D
310
343946442D424232442D4231333638364444434135422F747269616E676C65732E62696E504B01021400140006080800CB856E5751464CB489000000430100003600000000000000000000000000020100006662782F32444234324135422D333137302D343946442D424232442D4231333638364444434135422F64697265
310
63746F72792E786D6C504B01021400140006080800CB856E57583E547D40070000201C00003400000000000000000000000000DF0100006662782F32444234324135422D333137302D343946442D424232442D4231333638364444434135422F6F626A656374732E786D6C504B01021400140006080800CB856E57831632F6
310
3E010000460500003000000000000000000000000000710900006662782F32444234324135422D333137302D343946442D424232442D4231333638364444434135422F636E782E786D6C504B01021400140006080800CB856E575F10DDFD7E000000A30000000B00000000000000000000000000FD0A00006662782F636E78
310
2E786D6C504B01021400140006080800CB856E57A6D797065F000000820000000700000000000000000000000000A40B0000636E782E786D6C504B01021400140006080800CB856E574FEB6A7CA0000000F40000001300000000000000000000000000280C00005B436F6E74656E745F54797065735D2E786D6C504B010214
310
00140006080800CB856E573DEE336E64000000790000001B00000000000000000000000000F90C00006175746F6465736B2D64657369676E2D7061636B6167652E786D6C504B01021400140006080800CB856E578B71BE80F8000000960100003B00000000000000000000000000960D00006662782F32444234324135422D
310
333137302D343946442D424232442D4231333638364444434135422F7265736F75726365732F636F72652E786D6C504B01021400140006080800CB856E5705C93DF6F1000000B10100003100000000000000000000000000E70E00006662782F32444234324135422D333137302D343946442D424232442D42313336383644
310
44434135422F636F72652E786D6C504B01021400140006080800CB856E57E92049E053010000DD0200000C00000000000000000000000000271000006662782F636F72652E786D6C504B01021400140006080800CB856E576A2BCB7806010000B20100000800000000000000000000000000A4110000636F72652E786D6C50
310
4B0506000000000E000E0080040000D01200000000
  0
XRECORD
  5
8140
102
{ACAD_REACTORS
330
813B
102
}
330
813B
100
AcDbXrecord
280
     1
270
     1
271
     1
  0
XRECORD
  5
813F
102
{ACAD_REACTORS
330
813B
102
}
330
813B
100
AcDbXrecord
280
     1
270
     1
271
     1
  0
XRECORD
  5
8141
102
{ACAD_REACTORS
330
813B
102
}
330
813B
100
AcDbXrecord
280
     1
270
     1
271
     1
  0
XRECORD
  5
813E
102
{ACAD_REACTORS
330
813B
102
}
330
813B
100
AcDbXrecord
280
     1
270
     1
271
     1
  0
XRECORD
  5
8592
102
{ACAD_REACTORS
330
8591
102
}
330
8591
100
AcDbXrecord
280
     1
102
DISPLAYNAME
  1
Imperial24
102
FLAGS
 90
        0
  0
CELLSTYLEMAP
  5
8559
102
{ACAD_REACTORS
330
8558
102
}
330
8558
100
AcDbCellStyleMap
 90
        3
300
CELLSTYLE
  1
TABLEFORMAT_BEGIN
 90
        5
170
     1
 91
        0
 92
    32768
 62
   257
 93
        1
300
CONTENTFORMAT
  1
CONTENTFORMAT_BEGIN
 90
        0
 91
        0
 92
      512
 93
        0
300

 40
0.0
140
1.0
 94
        5
 62
     0
340
816E
144
0.25
309
CONTENTFORMAT_END
171
     0
 94
        0
309
TABLEFORMAT_END
  1
CELLSTYLE_BEGIN
 90
        1
 91
        1
300
_TITLE
309
CELLSTYLE_END
300
CELLSTYLE
  1
TABLEFORMAT_BEGIN
 90
        5
170
     1
 91
        0
 92
        0
 62
   257
 93
        1
300
CONTENTFORMAT
  1
CONTENTFORMAT_BEGIN
 90
        0
 91
        0
 92
      512
 93
        0
300

 40
0.0
140
1.0
 94
        5
 62
     0
340
816E
144
0.18
309
CONTENTFORMAT_END
171
     0
 94
        0
309
TABLEFORMAT_END
  1
CELLSTYLE_BEGIN
 90
        2
 91
        1
300
_HEADER
309
CELLSTYLE_END
300
CELLSTYLE
  1
TABLEFORMAT_BEGIN
 90
        5
170
     1
 91
        0
 92
        0
 62
   257
 93
        1
300
CONTENTFORMAT
  1
CONTENTFORMAT_BEGIN
 90
        0
 91
        0
 92
      512
 93
        0
300

 40
0.0
140
1.0
 94
        2
 62
     0
340
816E
144
0.18
309
CONTENTFORMAT_END
171
     0
 94
        0
309
TABLEFORMAT_END
  1
CELLSTYLE_BEGIN
 90
        3
 91
        2
300
_DATA
309
CELLSTYLE_END
  0
XRECORD
  5
858F
102
{ACAD_REACTORS
330
8558
102
}
330
8558
100
AcDbXrecord
280
     1
102
ACAD_ROUNDTRIP_PRE2007_TABLESTYLE
 90
      512
 91
        0
  1

 92
      512
 93
        0
  2

 94
      512
 95
        0
  3

  0
XRECORD
  5
856A
102
{ACAD_REACTORS
330
8569
102
}
330
8569
100
AcDbXrecord
280
     1
102
RTVSPost2010Prop28
280
     1
102
RTVSPost2010PropOp28
 70
     1
102
RTVSPost2010Prop29
280
     1
102
RTVSPost2010PropOp29
 70
     1
102
RTVSPost2010Prop30
280
     0
102
RTVSPost2010PropOp30
 70
     1
102
RTVSPost2010Prop31
280
     0
102
RTVSPost2010PropOp31
 70
     1
102
RTVSPost2010Prop32
280
     0
102
RTVSPost2010PropOp32
 70
     1
102
RTVSPost2010Prop33
280
     0
102
RTVSPost2010PropOp33
 70
     1
102
RTVSPost2010Prop34
280
     0
102
RTVSPost2010PropOp34
 70
     1
102
RTVSPost2010Prop35
280
     0
102
RTVSPost2010PropOp35
 70
     1
102
RTVSPost2010Prop36
280
     0
102
RTVSPost2010PropOp36
 70
     1
102
RTVSPost2010Prop37
 90
       50
102
RTVSPost2010PropOp37
 70
     1
102
RTVSPost2010Prop38
140
0.0
102
RTVSPost2010PropOp38
 70
     1
102
RTVSPost2010Prop39
140
1.0
102
RTVSPost2010PropOp39
 70
     1
102
RTVSPost2010Prop40
 90
        0
102
RTVSPost2010PropOp40
 70
     1
102
RTVSPost2010Prop41ColorIndex
 90
       18
102
RTVSPost2010Prop41ColorRGB
 90
        0
102
RTVSPost2010PropOp41
 70
     1
102
RTVSPost2010Prop42
 90
       50
102
RTVSPost2010PropOp42
 70
     1
102
RTVSPost2010Prop43
 90
        3
102
RTVSPost2010PropOp43
 70
     1
102
RTVSPost2010Prop44ColorIndex
 90
        5
102
RTVSPost2010Prop44ColorRGB
 90
      255
102
RTVSPost2010PropOp44
 70
     1
102
RTVSPost2010Prop45
280
     0
102
RTVSPost2010PropOp45
 70
     1
102
RTVSPost2010Prop46
 90
       50
102
RTVSPost2010PropOp46
 70
     1
102
RTVSPost2010Prop47
 90
       50
102
RTVSPost2010PropOp47
 70
     1
102
RTVSPost2010Prop48
 90
       50
102
RTVSPost2010PropOp48
 70
     1
102
RTVSPost2010Prop49
280
     0
102
RTVSPost2010PropOp49
 70
     1
102
RTVSPost2010Prop50
 90
       50
102
RTVSPost2010PropOp50
 70
     1
102
RTVSPost2010Prop51ColorIndex
 90
      256
102
RTVSPost2010Prop51ColorRGB
 90
-16777216
102
RTVSPost2010PropOp51
 70
     0
102
RTVSPost2010Prop52
140
1.0
102
RTVSPost2010PropOp52
 70
     0
102
RTVSPost2010Prop53
 90
        2
102
RTVSPost2010PropOp53
 70
     1
102
RTVSPost2010Prop54
  1
strokes_ogs.tif
102
RTVSPost2010PropOp54
 70
     1
102
RTVSPost2010Prop55
280
     0
102
RTVSPost2010PropOp55
 70
     1
102
RTVSPost2010Prop56
140
1.0
102
RTVSPost2010PropOp56
 70
     1
102
RTVSPost2010Prop57
140
1.0
102
RTVSPost2010PropOp57
 70
     1
102
RTVSPropertyOp0
 70
     1
102
RTVSPropertyOp1
 70
     1
102
RTVSPropertyOp2
 70
     1
102
RTVSPropertyOp3
 70
     1
102
RTVSPropertyOp4
 70
     1
102
RTVSPropertyOp5
 70
     1
102
RTVSPropertyOp6
 70
     1
102
RTVSPropertyOp7
 70
     1
102
RTVSPropertyOp8
 70
     1
102
RTVSPropertyOp9
 70
     1
102
RTVSPropertyOp10
 70
     1
102
RTVSPropertyOp11
 70
     1
102
RTVSPropertyOp12
 70
     1
102
RTVSPropertyOp13
 70
     1
102
RTVSPropertyOp14
 70
     1
102
RTVSPropertyOp15
 70
     1
102
RTVSPropertyOp16
 70
     1
102
RTVSPropertyOp17
 70
     1
102
RTVSPropertyOp18
 70
     1
102
RTVSPropertyOp19
 70
     1
102
RTVSPropertyOp20
 70
     1
102
RTVSPropertyOp21
 70
     1
102
RTVSPropertyOp22
 70
     1
102
RTVSPropertyOp23
 70
     1
102
RTVSPropertyOp24
 70
     1
102
RTVSPropertyOp25
 70
     1
102
RTVSPropertyOp26
 70
     1
102
RTVSPropertyOp27
 70
     1
102
RTVSPropertyOp28
 70
     1
102
RTVSPropertyOp29
 70
     1
102
RTVSPropertyOp30
 70
     1
102
RTVSPropertyOp31
 70
     1
102
RTVSPropertyOp32
 70
     1
102
RTVSPropertyOp33
 70
     1
102
RTVSPropertyOp34
 70
     1
102
RTVSPropertyOp35
 70
     1
102
RTVSPropertyOp36
 70
     1
102
RTVSPropertyOp37
 70
     1
102
RTVSPropertyOp38
 70
     1
102
RTVSPropertyOp39
 70
     1
102
RTVSPropertyOp40
 70
     1
102
RTVSPropertyOp41
 70
     1
102
RTVSPropertyOp42
 70
     1
102
RTVSPropertyOp43
 70
     1
102
RTVSPropertyOp44
 70
     1
102
RTVSPropertyOp45
 70
     1
102
RTVSPropertyOp46
 70
     1
102
RTVSPropertyOp47
 70
     1
102
RTVSPropertyOp48
 70
     1
102
RTVSPropertyOp49
 70
     1
102
RTVSPropertyOp50
 70
     1
102
RTVSPropertyOp51
 70
     0
102
RTVSPropertyOp52
 70
     0
102
RTVSPropertyOp53
 70
     1
102
RTVSPropertyOp54
 70
     1
102
RTVSPropertyOp55
 70
     1
102
RTVSPropertyOp56
 70
     1
102
RTVSPropertyOp57
 70
     1
102
RTVSPropertyOp58
 70
     1
102
RTVSPropertyOp59
 70
     1
102
RTVSPropertyOp60
 70
     1
102
RTVSPropertyOp61
 70
     1
102
RTVSPropertyOp62
 70
     1
  0
XRECORD
  5
8568
102
{ACAD_REACTORS
330
8567
102
}
330
8567
100
AcDbXrecord
280
     1
102
RTVSPost2010Prop28
280
     0
102
RTVSPost2010PropOp28
 70
     1
102
RTVSPost2010Prop29
280
     1
102
RTVSPost2010PropOp29
 70
     1
102
RTVSPost2010Prop30
280
     1
102
RTVSPost2010PropOp30
 70
     1
102
RTVSPost2010Prop31
280
     0
102
RTVSPost2010PropOp31
 70
     1
102
RTVSPost2010Prop32
280
     0
102
RTVSPost2010PropOp32
 70
     1
102
RTVSPost2010Prop33
280
     0
102
RTVSPost2010PropOp33
 70
     1
102
RTVSPost2010Prop34
280
     0
102
RTVSPost2010PropOp34
 70
     1
102
RTVSPost2010Prop35
280
     0
102
RTVSPost2010PropOp35
 70
     1
102
RTVSPost2010Prop36
280
     0
102
RTVSPost2010PropOp36
 70
     1
102
RTVSPost2010Prop37
 90
       50
102
RTVSPost2010PropOp37
 70
     1
102
RTVSPost2010Prop38
140
0.0
102
RTVSPost2010PropOp38
 70
     1
102
RTVSPost2010Prop39
140
1.0
102
RTVSPost2010PropOp39
 70
     1
102
RTVSPost2010Prop40
 90
        0
102
RTVSPost2010PropOp40
 70
     1
102
RTVSPost2010Prop41ColorIndex
 90
       18
102
RTVSPost2010Prop41ColorRGB
 90
        0
102
RTVSPost2010PropOp41
 70
     1
102
RTVSPost2010Prop42
 90
       50
102
RTVSPost2010PropOp42
 70
     1
102
RTVSPost2010Prop43
 90
        3
102
RTVSPost2010PropOp43
 70
     1
102
RTVSPost2010Prop44ColorIndex
 90
        5
102
RTVSPost2010Prop44ColorRGB
 90
      255
102
RTVSPost2010PropOp44
 70
     1
102
RTVSPost2010Prop45
280
     0
102
RTVSPost2010PropOp45
 70
     1
102
RTVSPost2010Prop46
 90
       50
102
RTVSPost2010PropOp46
 70
     1
102
RTVSPost2010Prop47
 90
       50
102
RTVSPost2010PropOp47
 70
     1
102
RTVSPost2010Prop48
 90
       50
102
RTVSPost2010PropOp48
 70
     1
102
RTVSPost2010Prop49
280
     0
102
RTVSPost2010PropOp49
 70
     1
102
RTVSPost2010Prop50
 90
       50
102
RTVSPost2010PropOp50
 70
     1
102
RTVSPost2010Prop51ColorIndex
 90
      256
102
RTVSPost2010Prop51ColorRGB
 90
-16777216
102
RTVSPost2010PropOp51
 70
     0
102
RTVSPost2010Prop52
140
1.0
102
RTVSPost2010PropOp52
 70
     0
102
RTVSPost2010Prop53
 90
        2
102
RTVSPost2010PropOp53
 70
     1
102
RTVSPost2010Prop54
  1
strokes_ogs.tif
102
RTVSPost2010PropOp54
 70
     1
102
RTVSPost2010Prop55
280
     0
102
RTVSPost2010PropOp55
 70
     1
102
RTVSPost2010Prop56
140
1.0
102
RTVSPost2010PropOp56
 70
     1
102
RTVSPost2010Prop57
140
1.0
102
RTVSPost2010PropOp57
 70
     1
102
RTVSPropertyOp0
 70
     1
102
RTVSPropertyOp1
 70
     1
102
RTVSPropertyOp2
 70
     1
102
RTVSPropertyOp3
 70
     1
102
RTVSPropertyOp4
 70
     1
102
RTVSPropertyOp5
 70
     1
102
RTVSPropertyOp6
 70
     1
102
RTVSPropertyOp7
 70
     1
102
RTVSPropertyOp8
 70
     1
102
RTVSPropertyOp9
 70
     1
102
RTVSPropertyOp10
 70
     1
102
RTVSPropertyOp11
 70
     1
102
RTVSPropertyOp12
 70
     1
102
RTVSPropertyOp13
 70
     1
102
RTVSPropertyOp14
 70
     1
102
RTVSPropertyOp15
 70
     1
102
RTVSPropertyOp16
 70
     1
102
RTVSPropertyOp17
 70
     1
102
RTVSPropertyOp18
 70
     1
102
RTVSPropertyOp19
 70
     1
102
RTVSPropertyOp20
 70
     1
102
RTVSPropertyOp21
 70
     1
102
RTVSPropertyOp22
 70
     1
102
RTVSPropertyOp23
 70
     1
102
RTVSPropertyOp24
 70
     1
102
RTVSPropertyOp25
 70
     1
102
RTVSPropertyOp26
 70
     1
102
RTVSPropertyOp27
 70
     1
102
RTVSPropertyOp28
 70
     1
102
RTVSPropertyOp29
 70
     1
102
RTVSPropertyOp30
 70
     1
102
RTVSPropertyOp31
 70
     1
102
RTVSPropertyOp32
 70
     1
102
RTVSPropertyOp33
 70
     1
102
RTVSPropertyOp34
 70
     1
102
RTVSPropertyOp35
 70
     1
102
RTVSPropertyOp36
 70
     1
102
RTVSPropertyOp37
 70
     1
102
RTVSPropertyOp38
 70
     1
102
RTVSPropertyOp39
 70
     1
102
RTVSPropertyOp40
 70
     1
102
RTVSPropertyOp41
 70
     1
102
RTVSPropertyOp42
 70
     1
102
RTVSPropertyOp43
 70
     1
102
RTVSPropertyOp44
 70
     1
102
RTVSPropertyOp45
 70
     1
102
RTVSPropertyOp46
 70
     1
102
RTVSPropertyOp47
 70
     1
102
RTVSPropertyOp48
 70
     1
102
RTVSPropertyOp49
 70
     1
102
RTVSPropertyOp50
 70
     1
102
RTVSPropertyOp51
 70
     0
102
RTVSPropertyOp52
 70
     0
102
RTVSPropertyOp53
 70
     1
102
RTVSPropertyOp54
 70
     1
102
RTVSPropertyOp55
 70
     1
102
RTVSPropertyOp56
 70
     1
102
RTVSPropertyOp57
 70
     1
102
RTVSPropertyOp58
 70
     1
102
RTVSPropertyOp59
 70
     1
102
RTVSPropertyOp60
 70
     1
102
RTVSPropertyOp61
 70
     1
102
RTVSPropertyOp62
 70
     1
  0
XRECORD
  5
8576
102
{ACAD_REACTORS
330
8575
102
}
330
8575
100
AcDbXrecord
280
     1
102
RTVSPost2010Prop28
280
     0
102
RTVSPost2010PropOp28
 70
     1
102
RTVSPost2010Prop29
280
     1
102
RTVSPost2010PropOp29
 70
     1
102
RTVSPost2010Prop30
280
     1
102
RTVSPost2010PropOp30
 70
     1
102
RTVSPost2010Prop31
280
     0
102
RTVSPost2010PropOp31
 70
     1
102
RTVSPost2010Prop32
280
     0
102
RTVSPost2010PropOp32
 70
     1
102
RTVSPost2010Prop33
280
     0
102
RTVSPost2010PropOp33
 70
     1
102
RTVSPost2010Prop34
280
     0
102
RTVSPost2010PropOp34
 70
     1
102
RTVSPost2010Prop35
280
     0
102
RTVSPost2010PropOp35
 70
     1
102
RTVSPost2010Prop36
280
     0
102
RTVSPost2010PropOp36
 70
     1
102
RTVSPost2010Prop37
 90
       50
102
RTVSPost2010PropOp37
 70
     1
102
RTVSPost2010Prop38
140
0.0
102
RTVSPost2010PropOp38
 70
     1
102
RTVSPost2010Prop39
140
1.0
102
RTVSPost2010PropOp39
 70
     1
102
RTVSPost2010Prop40
 90
        0
102
RTVSPost2010PropOp40
 70
     1
102
RTVSPost2010Prop41ColorIndex
 90
       18
102
RTVSPost2010Prop41ColorRGB
 90
        0
102
RTVSPost2010PropOp41
 70
     1
102
RTVSPost2010Prop42
 90
       50
102
RTVSPost2010PropOp42
 70
     1
102
RTVSPost2010Prop43
 90
        3
102
RTVSPost2010PropOp43
 70
     1
102
RTVSPost2010Prop44ColorIndex
 90
        5
102
RTVSPost2010Prop44ColorRGB
 90
      255
102
RTVSPost2010PropOp44
 70
     1
102
RTVSPost2010Prop45
280
     0
102
RTVSPost2010PropOp45
 70
     1
102
RTVSPost2010Prop46
 90
       50
102
RTVSPost2010PropOp46
 70
     1
102
RTVSPost2010Prop47
 90
       50
102
RTVSPost2010PropOp47
 70
     1
102
RTVSPost2010Prop48
 90
       50
102
RTVSPost2010PropOp48
 70
     1
102
RTVSPost2010Prop49
280
     0
102
RTVSPost2010PropOp49
 70
     1
102
RTVSPost2010Prop50
 90
       50
102
RTVSPost2010PropOp50
 70
     1
102
RTVSPost2010Prop51ColorIndex
 90
      256
102
RTVSPost2010Prop51ColorRGB
 90
-16777216
102
RTVSPost2010PropOp51
 70
     0
102
RTVSPost2010Prop52
140
1.0
102
RTVSPost2010PropOp52
 70
     0
102
RTVSPost2010Prop53
 90
        2
102
RTVSPost2010PropOp53
 70
     1
102
RTVSPost2010Prop54
  1
strokes_ogs.tif
102
RTVSPost2010PropOp54
 70
     1
102
RTVSPost2010Prop55
280
     0
102
RTVSPost2010PropOp55
 70
     1
102
RTVSPost2010Prop56
140
1.0
102
RTVSPost2010PropOp56
 70
     1
102
RTVSPost2010Prop57
140
1.0
102
RTVSPost2010PropOp57
 70
     1
102
RTVSPropertyOp0
 70
     1
102
RTVSPropertyOp1
 70
     1
102
RTVSPropertyOp2
 70
     1
102
RTVSPropertyOp3
 70
     1
102
RTVSPropertyOp4
 70
     1
102
RTVSPropertyOp5
 70
     1
102
RTVSPropertyOp6
 70
     1
102
RTVSPropertyOp7
 70
     1
102
RTVSPropertyOp8
 70
     1
102
RTVSPropertyOp9
 70
     1
102
RTVSPropertyOp10
 70
     1
102
RTVSPropertyOp11
 70
     1
102
RTVSPropertyOp12
 70
     1
102
RTVSPropertyOp13
 70
     1
102
RTVSPropertyOp14
 70
     1
102
RTVSPropertyOp15
 70
     1
102
RTVSPropertyOp16
 70
     1
102
RTVSPropertyOp17
 70
     1
102
RTVSPropertyOp18
 70
     1
102
RTVSPropertyOp19
 70
     1
102
RTVSPropertyOp20
 70
     1
102
RTVSPropertyOp21
 70
     1
102
RTVSPropertyOp22
 70
     1
102
RTVSPropertyOp23
 70
     1
102
RTVSPropertyOp24
 70
     1
102
RTVSPropertyOp25
 70
     1
102
RTVSPropertyOp26
 70
     1
102
RTVSPropertyOp27
 70
     1
102
RTVSPropertyOp28
 70
     1
102
RTVSPropertyOp29
 70
     1
102
RTVSPropertyOp30
 70
     1
102
RTVSPropertyOp31
 70
     1
102
RTVSPropertyOp32
 70
     1
102
RTVSPropertyOp33
 70
     1
102
RTVSPropertyOp34
 70
     1
102
RTVSPropertyOp35
 70
     1
102
RTVSPropertyOp36
 70
     1
102
RTVSPropertyOp37
 70
     1
102
RTVSPropertyOp38
 70
     1
102
RTVSPropertyOp39
 70
     1
102
RTVSPropertyOp40
 70
     1
102
RTVSPropertyOp41
 70
     1
102
RTVSPropertyOp42
 70
     1
102
RTVSPropertyOp43
 70
     1
102
RTVSPropertyOp44
 70
     1
102
RTVSPropertyOp45
 70
     1
102
RTVSPropertyOp46
 70
     1
102
RTVSPropertyOp47
 70
     1
102
RTVSPropertyOp48
 70
     1
102
RTVSPropertyOp49
 70
     1
102
RTVSPropertyOp50
 70
     1
102
RTVSPropertyOp51
 70
     0
102
RTVSPropertyOp52
 70
     0
102
RTVSPropertyOp53
 70
     1
102
RTVSPropertyOp54
 70
     1
102
RTVSPropertyOp55
 70
     1
102
RTVSPropertyOp56
 70
     1
102
RTVSPropertyOp57
 70
     1
102
RTVSPropertyOp58
 70
     1
102
RTVSPropertyOp59
 70
     1
102
RTVSPropertyOp60
 70
     1
102
RTVSPropertyOp61
 70
     1
102
RTVSPropertyOp62
 70
     1
  0
XRECORD
  5
857E
102
{ACAD_REACTORS
330
857D
102
}
330
857D
100
AcDbXrecord
280
     1
102
RTVSPost2010Prop28
280
     0
102
RTVSPost2010PropOp28
 70
     1
102
RTVSPost2010Prop29
280
     1
102
RTVSPost2010PropOp29
 70
     1
102
RTVSPost2010Prop30
280
     1
102
RTVSPost2010PropOp30
 70
     1
102
RTVSPost2010Prop31
280
     0
102
RTVSPost2010PropOp31
 70
     1
102
RTVSPost2010Prop32
280
     0
102
RTVSPost2010PropOp32
 70
     1
102
RTVSPost2010Prop33
280
     0
102
RTVSPost2010PropOp33
 70
     1
102
RTVSPost2010Prop34
280
     0
102
RTVSPost2010PropOp34
 70
     1
102
RTVSPost2010Prop35
280
     0
102
RTVSPost2010PropOp35
 70
     1
102
RTVSPost2010Prop36
280
     0
102
RTVSPost2010PropOp36
 70
     1
102
RTVSPost2010Prop37
 90
       50
102
RTVSPost2010PropOp37
 70
     1
102
RTVSPost2010Prop38
140
0.0
102
RTVSPost2010PropOp38
 70
     1
102
RTVSPost2010Prop39
140
1.0
102
RTVSPost2010PropOp39
 70
     1
102
RTVSPost2010Prop40
 90
        0
102
RTVSPost2010PropOp40
 70
     1
102
RTVSPost2010Prop41ColorIndex
 90
       18
102
RTVSPost2010Prop41ColorRGB
 90
        0
102
RTVSPost2010PropOp41
 70
     1
102
RTVSPost2010Prop42
 90
       50
102
RTVSPost2010PropOp42
 70
     1
102
RTVSPost2010Prop43
 90
        3
102
RTVSPost2010PropOp43
 70
     1
102
RTVSPost2010Prop44ColorIndex
 90
        5
102
RTVSPost2010Prop44ColorRGB
 90
      255
102
RTVSPost2010PropOp44
 70
     1
102
RTVSPost2010Prop45
280
     0
102
RTVSPost2010PropOp45
 70
     1
102
RTVSPost2010Prop46
 90
       50
102
RTVSPost2010PropOp46
 70
     1
102
RTVSPost2010Prop47
 90
       50
102
RTVSPost2010PropOp47
 70
     1
102
RTVSPost2010Prop48
 90
       50
102
RTVSPost2010PropOp48
 70
     1
102
RTVSPost2010Prop49
280
     0
102
RTVSPost2010PropOp49
 70
     1
102
RTVSPost2010Prop50
 90
       50
102
RTVSPost2010PropOp50
 70
     1
102
RTVSPost2010Prop51ColorIndex
 90
      256
102
RTVSPost2010Prop51ColorRGB
 90
-16777216
102
RTVSPost2010PropOp51
 70
     0
102
RTVSPost2010Prop52
140
1.0
102
RTVSPost2010PropOp52
 70
     0
102
RTVSPost2010Prop53
 90
        2
102
RTVSPost2010PropOp53
 70
     1
102
RTVSPost2010Prop54
  1
strokes_ogs.tif
102
RTVSPost2010PropOp54
 70
     1
102
RTVSPost2010Prop55
280
     0
102
RTVSPost2010PropOp55
 70
     1
102
RTVSPost2010Prop56
140
1.0
102
RTVSPost2010PropOp56
 70
     1
102
RTVSPost2010Prop57
140
1.0
102
RTVSPost2010PropOp57
 70
     1
102
RTVSPropertyOp0
 70
     1
102
RTVSPropertyOp1
 70
     1
102
RTVSPropertyOp2
 70
     1
102
RTVSPropertyOp3
 70
     1
102
RTVSPropertyOp4
 70
     1
102
RTVSPropertyOp5
 70
     1
102
RTVSPropertyOp6
 70
     1
102
RTVSPropertyOp7
 70
     1
102
RTVSPropertyOp8
 70
     1
102
RTVSPropertyOp9
 70
     1
102
RTVSPropertyOp10
 70
     1
102
RTVSPropertyOp11
 70
     1
102
RTVSPropertyOp12
 70
     1
102
RTVSPropertyOp13
 70
     1
102
RTVSPropertyOp14
 70
     1
102
RTVSPropertyOp15
 70
     1
102
RTVSPropertyOp16
 70
     1
102
RTVSPropertyOp17
 70
     1
102
RTVSPropertyOp18
 70
     1
102
RTVSPropertyOp19
 70
     1
102
RTVSPropertyOp20
 70
     1
102
RTVSPropertyOp21
 70
     1
102
RTVSPropertyOp22
 70
     1
102
RTVSPropertyOp23
 70
     1
102
RTVSPropertyOp24
 70
     1
102
RTVSPropertyOp25
 70
     1
102
RTVSPropertyOp26
 70
     1
102
RTVSPropertyOp27
 70
     1
102
RTVSPropertyOp28
 70
     1
102
RTVSPropertyOp29
 70
     1
102
RTVSPropertyOp30
 70
     1
102
RTVSPropertyOp31
 70
     1
102
RTVSPropertyOp32
 70
     1
102
RTVSPropertyOp33
 70
     1
102
RTVSPropertyOp34
 70
     1
102
RTVSPropertyOp35
 70
     1
102
RTVSPropertyOp36
 70
     1
102
RTVSPropertyOp37
 70
     1
102
RTVSPropertyOp38
 70
     1
102
RTVSPropertyOp39
 70
     1
102
RTVSPropertyOp40
 70
     1
102
RTVSPropertyOp41
 70
     1
102
RTVSPropertyOp42
 70
     1
102
RTVSPropertyOp43
 70
     1
102
RTVSPropertyOp44
 70
     1
102
RTVSPropertyOp45
 70
     1
102
RTVSPropertyOp46
 70
     1
102
RTVSPropertyOp47
 70
     1
102
RTVSPropertyOp48
 70
     1
102
RTVSPropertyOp49
 70
     1
102
RTVSPropertyOp50
 70
     1
102
RTVSPropertyOp51
 70
     0
102
RTVSPropertyOp52
 70
     0
102
RTVSPropertyOp53
 70
     1
102
RTVSPropertyOp54
 70
     1
102
RTVSPropertyOp55
 70
     1
102
RTVSPropertyOp56
 70
     1
102
RTVSPropertyOp57
 70
     1
102
RTVSPropertyOp58
 70
     1
102
RTVSPropertyOp59
 70
     1
102
RTVSPropertyOp60
 70
     1
102
RTVSPropertyOp61
 70
     1
102
RTVSPropertyOp62
 70
     1
  0
XRECORD
  5
8570
102
{ACAD_REACTORS
330
856F
102
}
330
856F
100
AcDbXrecord
280
     1
102
RTVSPost2010Prop28
280
     0
102
RTVSPost2010PropOp28
 70
     1
102
RTVSPost2010Prop29
280
     1
102
RTVSPost2010PropOp29
 70
     1
102
RTVSPost2010Prop30
280
     1
102
RTVSPost2010PropOp30
 70
     1
102
RTVSPost2010Prop31
280
     0
102
RTVSPost2010PropOp31
 70
     1
102
RTVSPost2010Prop32
280
     0
102
RTVSPost2010PropOp32
 70
     1
102
RTVSPost2010Prop33
280
     0
102
RTVSPost2010PropOp33
 70
     1
102
RTVSPost2010Prop34
280
     0
102
RTVSPost2010PropOp34
 70
     1
102
RTVSPost2010Prop35
280
     0
102
RTVSPost2010PropOp35
 70
     1
102
RTVSPost2010Prop36
280
     0
102
RTVSPost2010PropOp36
 70
     1
102
RTVSPost2010Prop37
 90
       50
102
RTVSPost2010PropOp37
 70
     1
102
RTVSPost2010Prop38
140
0.0
102
RTVSPost2010PropOp38
 70
     1
102
RTVSPost2010Prop39
140
1.0
102
RTVSPost2010PropOp39
 70
     1
102
RTVSPost2010Prop40
 90
        0
102
RTVSPost2010PropOp40
 70
     1
102
RTVSPost2010Prop41ColorIndex
 90
       18
102
RTVSPost2010Prop41ColorRGB
 90
        0
102
RTVSPost2010PropOp41
 70
     1
102
RTVSPost2010Prop42
 90
       50
102
RTVSPost2010PropOp42
 70
     1
102
RTVSPost2010Prop43
 90
        3
102
RTVSPost2010PropOp43
 70
     1
102
RTVSPost2010Prop44ColorIndex
 90
        5
102
RTVSPost2010Prop44ColorRGB
 90
      255
102
RTVSPost2010PropOp44
 70
     1
102
RTVSPost2010Prop45
280
     0
102
RTVSPost2010PropOp45
 70
     1
102
RTVSPost2010Prop46
 90
       50
102
RTVSPost2010PropOp46
 70
     1
102
RTVSPost2010Prop47
 90
       50
102
RTVSPost2010PropOp47
 70
     1
102
RTVSPost2010Prop48
 90
       50
102
RTVSPost2010PropOp48
 70
     1
102
RTVSPost2010Prop49
280
     0
102
RTVSPost2010PropOp49
 70
     1
102
RTVSPost2010Prop50
 90
       50
102
RTVSPost2010PropOp50
 70
     1
102
RTVSPost2010Prop51ColorIndex
 90
      256
102
RTVSPost2010Prop51ColorRGB
 90
-16777216
102
RTVSPost2010PropOp51
 70
     0
102
RTVSPost2010Prop52
140
1.0
102
RTVSPost2010PropOp52
 70
     0
102
RTVSPost2010Prop53
 90
        2
102
RTVSPost2010PropOp53
 70
     1
102
RTVSPost2010Prop54
  1
strokes_ogs.tif
102
RTVSPost2010PropOp54
 70
     1
102
RTVSPost2010Prop55
280
     0
102
RTVSPost2010PropOp55
 70
     1
102
RTVSPost2010Prop56
140
1.0
102
RTVSPost2010PropOp56
 70
     1
102
RTVSPost2010Prop57
140
1.0
102
RTVSPost2010PropOp57
 70
     1
102
RTVSPropertyOp0
 70
     1
102
RTVSPropertyOp1
 70
     1
102
RTVSPropertyOp2
 70
     1
102
RTVSPropertyOp3
 70
     1
102
RTVSPropertyOp4
 70
     1
102
RTVSPropertyOp5
 70
     1
102
RTVSPropertyOp6
 70
     1
102
RTVSPropertyOp7
 70
     1
102
RTVSPropertyOp8
 70
     1
102
RTVSPropertyOp9
 70
     1
102
RTVSPropertyOp10
 70
     1
102
RTVSPropertyOp11
 70
     1
102
RTVSPropertyOp12
 70
     1
102
RTVSPropertyOp13
 70
     1
102
RTVSPropertyOp14
 70
     1
102
RTVSPropertyOp15
 70
     1
102
RTVSPropertyOp16
 70
     1
102
RTVSPropertyOp17
 70
     1
102
RTVSPropertyOp18
 70
     1
102
RTVSPropertyOp19
 70
     1
102
RTVSPropertyOp20
 70
     1
102
RTVSPropertyOp21
 70
     1
102
RTVSPropertyOp22
 70
     1
102
RTVSPropertyOp23
 70
     1
102
RTVSPropertyOp24
 70
     1
102
RTVSPropertyOp25
 70
     1
102
RTVSPropertyOp26
 70
     1
102
RTVSPropertyOp27
 70
     1
102
RTVSPropertyOp28
 70
     1
102
RTVSPropertyOp29
 70
     1
102
RTVSPropertyOp30
 70
     1
102
RTVSPropertyOp31
 70
     1
102
RTVSPropertyOp32
 70
     1
102
RTVSPropertyOp33
 70
     1
102
RTVSPropertyOp34
 70
     1
102
RTVSPropertyOp35
 70
     1
102
RTVSPropertyOp36
 70
     1
102
RTVSPropertyOp37
 70
     1
102
RTVSPropertyOp38
 70
     1
102
RTVSPropertyOp39
 70
     1
102
RTVSPropertyOp40
 70
     1
102
RTVSPropertyOp41
 70
     1
102
RTVSPropertyOp42
 70
     1
102
RTVSPropertyOp43
 70
     1
102
RTVSPropertyOp44
 70
     1
102
RTVSPropertyOp45
 70
     1
102
RTVSPropertyOp46
 70
     1
102
RTVSPropertyOp47
 70
     1
102
RTVSPropertyOp48
 70
     1
102
RTVSPropertyOp49
 70
     1
102
RTVSPropertyOp50
 70
     1
102
RTVSPropertyOp51
 70
     0
102
RTVSPropertyOp52
 70
     0
102
RTVSPropertyOp53
 70
     1
102
RTVSPropertyOp54
 70
     1
102
RTVSPropertyOp55
 70
     1
102
RTVSPropertyOp56
 70
     1
102
RTVSPropertyOp57
 70
     1
102
RTVSPropertyOp58
 70
     1
102
RTVSPropertyOp59
 70
     1
102
RTVSPropertyOp60
 70
     1
102
RTVSPropertyOp61
 70
     1
102
RTVSPropertyOp62
 70
     1
  0
XRECORD
  5
8574
102
{ACAD_REACTORS
330
8573
102
}
330
8573
100
AcDbXrecord
280
     1
102
RTVSPost2010Prop28
280
     0
102
RTVSPost2010PropOp28
 70
     1
102
RTVSPost2010Prop29
280
     1
102
RTVSPost2010PropOp29
 70
     1
102
RTVSPost2010Prop30
280
     1
102
RTVSPost2010PropOp30
 70
     1
102
RTVSPost2010Prop31
280
     0
102
RTVSPost2010PropOp31
 70
     1
102
RTVSPost2010Prop32
280
     0
102
RTVSPost2010PropOp32
 70
     1
102
RTVSPost2010Prop33
280
     0
102
RTVSPost2010PropOp33
 70
     1
102
RTVSPost2010Prop34
280
     0
102
RTVSPost2010PropOp34
 70
     1
102
RTVSPost2010Prop35
280
     0
102
RTVSPost2010PropOp35
 70
     1
102
RTVSPost2010Prop36
280
     0
102
RTVSPost2010PropOp36
 70
     1
102
RTVSPost2010Prop37
 90
       50
102
RTVSPost2010PropOp37
 70
     1
102
RTVSPost2010Prop38
140
0.0
102
RTVSPost2010PropOp38
 70
     1
102
RTVSPost2010Prop39
140
1.0
102
RTVSPost2010PropOp39
 70
     1
102
RTVSPost2010Prop40
 90
        0
102
RTVSPost2010PropOp40
 70
     1
102
RTVSPost2010Prop41ColorIndex
 90
       18
102
RTVSPost2010Prop41ColorRGB
 90
        0
102
RTVSPost2010PropOp41
 70
     1
102
RTVSPost2010Prop42
 90
       50
102
RTVSPost2010PropOp42
 70
     1
102
RTVSPost2010Prop43
 90
        3
102
RTVSPost2010PropOp43
 70
     1
102
RTVSPost2010Prop44ColorIndex
 90
        5
102
RTVSPost2010Prop44ColorRGB
 90
      255
102
RTVSPost2010PropOp44
 70
     1
102
RTVSPost2010Prop45
280
     0
102
RTVSPost2010PropOp45
 70
     1
102
RTVSPost2010Prop46
 90
       50
102
RTVSPost2010PropOp46
 70
     1
102
RTVSPost2010Prop47
 90
       50
102
RTVSPost2010PropOp47
 70
     1
102
RTVSPost2010Prop48
 90
       50
102
RTVSPost2010PropOp48
 70
     1
102
RTVSPost2010Prop49
280
     0
102
RTVSPost2010PropOp49
 70
     1
102
RTVSPost2010Prop50
 90
       50
102
RTVSPost2010PropOp50
 70
     1
102
RTVSPost2010Prop51ColorIndex
 90
      256
102
RTVSPost2010Prop51ColorRGB
 90
-16777216
102
RTVSPost2010PropOp51
 70
     0
102
RTVSPost2010Prop52
140
1.0
102
RTVSPost2010PropOp52
 70
     0
102
RTVSPost2010Prop53
 90
        2
102
RTVSPost2010PropOp53
 70
     1
102
RTVSPost2010Prop54
  1
strokes_ogs.tif
102
RTVSPost2010PropOp54
 70
     1
102
RTVSPost2010Prop55
280
     0
102
RTVSPost2010PropOp55
 70
     1
102
RTVSPost2010Prop56
140
1.0
102
RTVSPost2010PropOp56
 70
     1
102
RTVSPost2010Prop57
140
1.0
102
RTVSPost2010PropOp57
 70
     1
102
RTVSPropertyOp0
 70
     1
102
RTVSPropertyOp1
 70
     1
102
RTVSPropertyOp2
 70
     1
102
RTVSPropertyOp3
 70
     1
102
RTVSPropertyOp4
 70
     1
102
RTVSPropertyOp5
 70
     1
102
RTVSPropertyOp6
 70
     1
102
RTVSPropertyOp7
 70
     1
102
RTVSPropertyOp8
 70
     1
102
RTVSPropertyOp9
 70
     1
102
RTVSPropertyOp10
 70
     1
102
RTVSPropertyOp11
 70
     1
102
RTVSPropertyOp12
 70
     1
102
RTVSPropertyOp13
 70
     1
102
RTVSPropertyOp14
 70
     1
102
RTVSPropertyOp15
 70
     1
102
RTVSPropertyOp16
 70
     1
102
RTVSPropertyOp17
 70
     1
102
RTVSPropertyOp18
 70
     1
102
RTVSPropertyOp19
 70
     1
102
RTVSPropertyOp20
 70
     1
102
RTVSPropertyOp21
 70
     1
102
RTVSPropertyOp22
 70
     1
102
RTVSPropertyOp23
 70
     1
102
RTVSPropertyOp24
 70
     1
102
RTVSPropertyOp25
 70
     1
102
RTVSPropertyOp26
 70
     1
102
RTVSPropertyOp27
 70
     1
102
RTVSPropertyOp28
 70
     1
102
RTVSPropertyOp29
 70
     1
102
RTVSPropertyOp30
 70
     1
102
RTVSPropertyOp31
 70
     1
102
RTVSPropertyOp32
 70
     1
102
RTVSPropertyOp33
 70
     1
102
RTVSPropertyOp34
 70
     1
102
RTVSPropertyOp35
 70
     1
102
RTVSPropertyOp36
 70
     1
102
RTVSPropertyOp37
 70
     1
102
RTVSPropertyOp38
 70
     1
102
RTVSPropertyOp39
 70
     1
102
RTVSPropertyOp40
 70
     1
102
RTVSPropertyOp41
 70
     1
102
RTVSPropertyOp42
 70
     1
102
RTVSPropertyOp43
 70
     1
102
RTVSPropertyOp44
 70
     1
102
RTVSPropertyOp45
 70
     1
102
RTVSPropertyOp46
 70
     1
102
RTVSPropertyOp47
 70
     1
102
RTVSPropertyOp48
 70
     1
102
RTVSPropertyOp49
 70
     1
102
RTVSPropertyOp50
 70
     1
102
RTVSPropertyOp51
 70
     0
102
RTVSPropertyOp52
 70
     0
102
RTVSPropertyOp53
 70
     1
102
RTVSPropertyOp54
 70
     1
102
RTVSPropertyOp55
 70
     1
102
RTVSPropertyOp56
 70
     1
102
RTVSPropertyOp57
 70
     1
102
RTVSPropertyOp58
 70
     1
102
RTVSPropertyOp59
 70
     1
102
RTVSPropertyOp60
 70
     1
102
RTVSPropertyOp61
 70
     1
102
RTVSPropertyOp62
 70
     1
  0
XRECORD
  5
858E
102
{ACAD_REACTORS
330
858D
102
}
330
858D
100
AcDbXrecord
280
     1
102
RTVSPost2010Prop28
280
     0
102
RTVSPost2010PropOp28
 70
     1
102
RTVSPost2010Prop29
280
     1
102
RTVSPost2010PropOp29
 70
     1
102
RTVSPost2010Prop30
280
     1
102
RTVSPost2010PropOp30
 70
     1
102
RTVSPost2010Prop31
280
     0
102
RTVSPost2010PropOp31
 70
     1
102
RTVSPost2010Prop32
280
     0
102
RTVSPost2010PropOp32
 70
     1
102
RTVSPost2010Prop33
280
     0
102
RTVSPost2010PropOp33
 70
     1
102
RTVSPost2010Prop34
280
     0
102
RTVSPost2010PropOp34
 70
     1
102
RTVSPost2010Prop35
280
     0
102
RTVSPost2010PropOp35
 70
     1
102
RTVSPost2010Prop36
280
     0
102
RTVSPost2010PropOp36
 70
     1
102
RTVSPost2010Prop37
 90
       50
102
RTVSPost2010PropOp37
 70
     0
102
RTVSPost2010Prop38
140
0.0
102
RTVSPost2010PropOp38
 70
     0
102
RTVSPost2010Prop39
140
1.0
102
RTVSPost2010PropOp39
 70
     0
102
RTVSPost2010Prop40
 90
        0
102
RTVSPost2010PropOp40
 70
     0
102
RTVSPost2010Prop41ColorIndex
 90
       18
102
RTVSPost2010Prop41ColorRGB
 90
        0
102
RTVSPost2010PropOp41
 70
     0
102
RTVSPost2010Prop42
 90
       50
102
RTVSPost2010PropOp42
 70
     0
102
RTVSPost2010Prop43
 90
        3
102
RTVSPost2010PropOp43
 70
     0
102
RTVSPost2010Prop44ColorIndex
 90
        5
102
RTVSPost2010Prop44ColorRGB
 90
      255
102
RTVSPost2010PropOp44
 70
     0
102
RTVSPost2010Prop45
280
     0
102
RTVSPost2010PropOp45
 70
     1
102
RTVSPost2010Prop46
 90
       50
102
RTVSPost2010PropOp46
 70
     0
102
RTVSPost2010Prop47
 90
       50
102
RTVSPost2010PropOp47
 70
     0
102
RTVSPost2010Prop48
 90
       50
102
RTVSPost2010PropOp48
 70
     0
102
RTVSPost2010Prop49
280
     0
102
RTVSPost2010PropOp49
 70
     1
102
RTVSPost2010Prop50
 90
       50
102
RTVSPost2010PropOp50
 70
     0
102
RTVSPost2010Prop51ColorIndex
 90
      256
102
RTVSPost2010Prop51ColorRGB
 90
-16777216
102
RTVSPost2010PropOp51
 70
     0
102
RTVSPost2010Prop52
140
1.0
102
RTVSPost2010PropOp52
 70
     0
102
RTVSPost2010Prop53
 90
        2
102
RTVSPost2010PropOp53
 70
     0
102
RTVSPost2010Prop54
  1
strokes_ogs.tif
102
RTVSPost2010PropOp54
 70
     0
102
RTVSPost2010Prop55
280
     0
102
RTVSPost2010PropOp55
 70
     1
102
RTVSPost2010Prop56
140
1.0
102
RTVSPost2010PropOp56
 70
     0
102
RTVSPost2010Prop57
140
1.0
102
RTVSPost2010PropOp57
 70
     0
102
RTVSPropertyOp0
 70
     0
102
RTVSPropertyOp1
 70
     0
102
RTVSPropertyOp2
 70
     0
102
RTVSPropertyOp3
 70
     0
102
RTVSPropertyOp4
 70
     0
102
RTVSPropertyOp5
 70
     0
102
RTVSPropertyOp6
 70
     0
102
RTVSPropertyOp7
 70
     0
102
RTVSPropertyOp8
 70
     0
102
RTVSPropertyOp9
 70
     0
102
RTVSPropertyOp10
 70
     0
102
RTVSPropertyOp11
 70
     0
102
RTVSPropertyOp12
 70
     0
102
RTVSPropertyOp13
 70
     0
102
RTVSPropertyOp14
 70
     2
102
RTVSPropertyOp15
 70
     0
102
RTVSPropertyOp16
 70
     0
102
RTVSPropertyOp17
 70
     0
102
RTVSPropertyOp18
 70
     0
102
RTVSPropertyOp19
 70
     0
102
RTVSPropertyOp20
 70
     0
102
RTVSPropertyOp21
 70
     0
102
RTVSPropertyOp22
 70
     0
102
RTVSPropertyOp23
 70
     0
102
RTVSPropertyOp24
 70
     0
102
RTVSPropertyOp25
 70
     0
102
RTVSPropertyOp26
 70
     0
102
RTVSPropertyOp27
 70
     0
102
RTVSPropertyOp28
 70
     1
102
RTVSPropertyOp29
 70
     1
102
RTVSPropertyOp30
 70
     1
102
RTVSPropertyOp31
 70
     1
102
RTVSPropertyOp32
 70
     1
102
RTVSPropertyOp33
 70
     1
102
RTVSPropertyOp34
 70
     1
102
RTVSPropertyOp35
 70
     1
102
RTVSPropertyOp36
 70
     1
102
RTVSPropertyOp37
 70
     0
102
RTVSPropertyOp38
 70
     0
102
RTVSPropertyOp39
 70
     0
102
RTVSPropertyOp40
 70
     0
102
RTVSPropertyOp41
 70
     0
102
RTVSPropertyOp42
 70
     0
102
RTVSPropertyOp43
 70
     0
102
RTVSPropertyOp44
 70
     0
102
RTVSPropertyOp45
 70
     1
102
RTVSPropertyOp46
 70
     0
102
RTVSPropertyOp47
 70
     0
102
RTVSPropertyOp48
 70
     0
102
RTVSPropertyOp49
 70
     1
102
RTVSPropertyOp50
 70
     0
102
RTVSPropertyOp51
 70
     0
102
RTVSPropertyOp52
 70
     0
102
RTVSPropertyOp53
 70
     0
102
RTVSPropertyOp54
 70
     0
102
RTVSPropertyOp55
 70
     1
102
RTVSPropertyOp56
 70
     0
102
RTVSPropertyOp57
 70
     0
102
RTVSPropertyOp58
 70
     0
102
RTVSPropertyOp59
 70
     0
102
RTVSPropertyOp60
 70
     0
102
RTVSPropertyOp61
 70
     0
102
RTVSPropertyOp62
 70
     0
  0
XRECORD
  5
857C
102
{ACAD_REACTORS
330
857B
102
}
330
857B
100
AcDbXrecord
280
     1
102
RTVSPost2010Prop28
280
     0
102
RTVSPost2010PropOp28
 70
     1
102
RTVSPost2010Prop29
280
     1
102
RTVSPost2010PropOp29
 70
     1
102
RTVSPost2010Prop30
280
     1
102
RTVSPost2010PropOp30
 70
     1
102
RTVSPost2010Prop31
280
     0
102
RTVSPost2010PropOp31
 70
     1
102
RTVSPost2010Prop32
280
     0
102
RTVSPost2010PropOp32
 70
     1
102
RTVSPost2010Prop33
280
     0
102
RTVSPost2010PropOp33
 70
     1
102
RTVSPost2010Prop34
280
     0
102
RTVSPost2010PropOp34
 70
     1
102
RTVSPost2010Prop35
280
     0
102
RTVSPost2010PropOp35
 70
     1
102
RTVSPost2010Prop36
280
     0
102
RTVSPost2010PropOp36
 70
     1
102
RTVSPost2010Prop37
 90
       50
102
RTVSPost2010PropOp37
 70
     1
102
RTVSPost2010Prop38
140
0.0
102
RTVSPost2010PropOp38
 70
     1
102
RTVSPost2010Prop39
140
1.0
102
RTVSPost2010PropOp39
 70
     1
102
RTVSPost2010Prop40
 90
        0
102
RTVSPost2010PropOp40
 70
     1
102
RTVSPost2010Prop41ColorIndex
 90
       18
102
RTVSPost2010Prop41ColorRGB
 90
        0
102
RTVSPost2010PropOp41
 70
     1
102
RTVSPost2010Prop42
 90
       50
102
RTVSPost2010PropOp42
 70
     1
102
RTVSPost2010Prop43
 90
        3
102
RTVSPost2010PropOp43
 70
     1
102
RTVSPost2010Prop44ColorIndex
 90
        5
102
RTVSPost2010Prop44ColorRGB
 90
      255
102
RTVSPost2010PropOp44
 70
     1
102
RTVSPost2010Prop45
280
     0
102
RTVSPost2010PropOp45
 70
     1
102
RTVSPost2010Prop46
 90
       50
102
RTVSPost2010PropOp46
 70
     1
102
RTVSPost2010Prop47
 90
       50
102
RTVSPost2010PropOp47
 70
     1
102
RTVSPost2010Prop48
 90
       50
102
RTVSPost2010PropOp48
 70
     1
102
RTVSPost2010Prop49
280
     0
102
RTVSPost2010PropOp49
 70
     1
102
RTVSPost2010Prop50
 90
       50
102
RTVSPost2010PropOp50
 70
     1
102
RTVSPost2010Prop51ColorIndex
 90
      256
102
RTVSPost2010Prop51ColorRGB
 90
-16777216
102
RTVSPost2010PropOp51
 70
     0
102
RTVSPost2010Prop52
140
1.0
102
RTVSPost2010PropOp52
 70
     0
102
RTVSPost2010Prop53
 90
        2
102
RTVSPost2010PropOp53
 70
     1
102
RTVSPost2010Prop54
  1
strokes_ogs.tif
102
RTVSPost2010PropOp54
 70
     1
102
RTVSPost2010Prop55
280
     0
102
RTVSPost2010PropOp55
 70
     1
102
RTVSPost2010Prop56
140
1.0
102
RTVSPost2010PropOp56
 70
     1
102
RTVSPost2010Prop57
140
1.0
102
RTVSPost2010PropOp57
 70
     1
102
RTVSPropertyOp0
 70
     1
102
RTVSPropertyOp1
 70
     1
102
RTVSPropertyOp2
 70
     1
102
RTVSPropertyOp3
 70
     1
102
RTVSPropertyOp4
 70
     1
102
RTVSPropertyOp5
 70
     1
102
RTVSPropertyOp6
 70
     1
102
RTVSPropertyOp7
 70
     1
102
RTVSPropertyOp8
 70
     1
102
RTVSPropertyOp9
 70
     1
102
RTVSPropertyOp10
 70
     1
102
RTVSPropertyOp11
 70
     1
102
RTVSPropertyOp12
 70
     1
102
RTVSPropertyOp13
 70
     1
102
RTVSPropertyOp14
 70
     1
102
RTVSPropertyOp15
 70
     1
102
RTVSPropertyOp16
 70
     1
102
RTVSPropertyOp17
 70
     1
102
RTVSPropertyOp18
 70
     1
102
RTVSPropertyOp19
 70
     1
102
RTVSPropertyOp20
 70
     1
102
RTVSPropertyOp21
 70
     1
102
RTVSPropertyOp22
 70
     1
102
RTVSPropertyOp23
 70
     1
102
RTVSPropertyOp24
 70
     1
102
RTVSPropertyOp25
 70
     1
102
RTVSPropertyOp26
 70
     1
102
RTVSPropertyOp27
 70
     1
102
RTVSPropertyOp28
 70
     1
102
RTVSPropertyOp29
 70
     1
102
RTVSPropertyOp30
 70
     1
102
RTVSPropertyOp31
 70
     1
102
RTVSPropertyOp32
 70
     1
102
RTVSPropertyOp33
 70
     1
102
RTVSPropertyOp34
 70
     1
102
RTVSPropertyOp35
 70
     1
102
RTVSPropertyOp36
 70
     1
102
RTVSPropertyOp37
 70
     1
102
RTVSPropertyOp38
 70
     1
102
RTVSPropertyOp39
 70
     1
102
RTVSPropertyOp40
 70
     1
102
RTVSPropertyOp41
 70
     1
102
RTVSPropertyOp42
 70
     1
102
RTVSPropertyOp43
 70
     1
102
RTVSPropertyOp44
 70
     1
102
RTVSPropertyOp45
 70
     1
102
RTVSPropertyOp46
 70
     1
102
RTVSPropertyOp47
 70
     1
102
RTVSPropertyOp48
 70
     1
102
RTVSPropertyOp49
 70
     1
102
RTVSPropertyOp50
 70
     1
102
RTVSPropertyOp51
 70
     0
102
RTVSPropertyOp52
 70
     0
102
RTVSPropertyOp53
 70
     1
102
RTVSPropertyOp54
 70
     1
102
RTVSPropertyOp55
 70
     1
102
RTVSPropertyOp56
 70
     1
102
RTVSPropertyOp57
 70
     1
102
RTVSPropertyOp58
 70
     1
102
RTVSPropertyOp59
 70
     1
102
RTVSPropertyOp60
 70
     1
102
RTVSPropertyOp61
 70
     1
102
RTVSPropertyOp62
 70
     1
  0
XRECORD
  5
8560
102
{ACAD_REACTORS
330
855F
102
}
330
855F
100
AcDbXrecord
280
     1
102
RTVSPost2010Prop28
280
     0
102
RTVSPost2010PropOp28
 70
     1
102
RTVSPost2010Prop29
280
     1
102
RTVSPost2010PropOp29
 70
     1
102
RTVSPost2010Prop30
280
     1
102
RTVSPost2010PropOp30
 70
     1
102
RTVSPost2010Prop31
280
     0
102
RTVSPost2010PropOp31
 70
     1
102
RTVSPost2010Prop32
280
     0
102
RTVSPost2010PropOp32
 70
     1
102
RTVSPost2010Prop33
280
     0
102
RTVSPost2010PropOp33
 70
     1
102
RTVSPost2010Prop34
280
     0
102
RTVSPost2010PropOp34
 70
     1
102
RTVSPost2010Prop35
280
     0
102
RTVSPost2010PropOp35
 70
     1
102
RTVSPost2010Prop36
280
     0
102
RTVSPost2010PropOp36
 70
     1
102
RTVSPost2010Prop37
 90
       50
102
RTVSPost2010PropOp37
 70
     1
102
RTVSPost2010Prop38
140
0.0
102
RTVSPost2010PropOp38
 70
     1
102
RTVSPost2010Prop39
140
1.0
102
RTVSPost2010PropOp39
 70
     1
102
RTVSPost2010Prop40
 90
        0
102
RTVSPost2010PropOp40
 70
     1
102
RTVSPost2010Prop41ColorIndex
 90
       18
102
RTVSPost2010Prop41ColorRGB
 90
        0
102
RTVSPost2010PropOp41
 70
     1
102
RTVSPost2010Prop42
 90
       50
102
RTVSPost2010PropOp42
 70
     1
102
RTVSPost2010Prop43
 90
        3
102
RTVSPost2010PropOp43
 70
     1
102
RTVSPost2010Prop44ColorIndex
 90
        5
102
RTVSPost2010Prop44ColorRGB
 90
      255
102
RTVSPost2010PropOp44
 70
     1
102
RTVSPost2010Prop45
280
     0
102
RTVSPost2010PropOp45
 70
     1
102
RTVSPost2010Prop46
 90
       50
102
RTVSPost2010PropOp46
 70
     1
102
RTVSPost2010Prop47
 90
       50
102
RTVSPost2010PropOp47
 70
     1
102
RTVSPost2010Prop48
 90
       50
102
RTVSPost2010PropOp48
 70
     1
102
RTVSPost2010Prop49
280
     0
102
RTVSPost2010PropOp49
 70
     1
102
RTVSPost2010Prop50
 90
       50
102
RTVSPost2010PropOp50
 70
     1
102
RTVSPost2010Prop51ColorIndex
 90
      256
102
RTVSPost2010Prop51ColorRGB
 90
-16777216
102
RTVSPost2010PropOp51
 70
     0
102
RTVSPost2010Prop52
140
1.0
102
RTVSPost2010PropOp52
 70
     0
102
RTVSPost2010Prop53
 90
        2
102
RTVSPost2010PropOp53
 70
     1
102
RTVSPost2010Prop54
  1
strokes_ogs.tif
102
RTVSPost2010PropOp54
 70
     1
102
RTVSPost2010Prop55
280
     0
102
RTVSPost2010PropOp55
 70
     1
102
RTVSPost2010Prop56
140
1.0
102
RTVSPost2010PropOp56
 70
     1
102
RTVSPost2010Prop57
140
1.0
102
RTVSPost2010PropOp57
 70
     1
102
RTVSPropertyOp0
 70
     1
102
RTVSPropertyOp1
 70
     1
102
RTVSPropertyOp2
 70
     1
102
RTVSPropertyOp3
 70
     1
102
RTVSPropertyOp4
 70
     1
102
RTVSPropertyOp5
 70
     1
102
RTVSPropertyOp6
 70
     1
102
RTVSPropertyOp7
 70
     1
102
RTVSPropertyOp8
 70
     1
102
RTVSPropertyOp9
 70
     1
102
RTVSPropertyOp10
 70
     1
102
RTVSPropertyOp11
 70
     1
102
RTVSPropertyOp12
 70
     1
102
RTVSPropertyOp13
 70
     1
102
RTVSPropertyOp14
 70
     1
102
RTVSPropertyOp15
 70
     1
102
RTVSPropertyOp16
 70
     1
102
RTVSPropertyOp17
 70
     1
102
RTVSPropertyOp18
 70
     1
102
RTVSPropertyOp19
 70
     1
102
RTVSPropertyOp20
 70
     1
102
RTVSPropertyOp21
 70
     1
102
RTVSPropertyOp22
 70
     1
102
RTVSPropertyOp23
 70
     1
102
RTVSPropertyOp24
 70
     1
102
RTVSPropertyOp25
 70
     1
102
RTVSPropertyOp26
 70
     1
102
RTVSPropertyOp27
 70
     1
102
RTVSPropertyOp28
 70
     1
102
RTVSPropertyOp29
 70
     1
102
RTVSPropertyOp30
 70
     1
102
RTVSPropertyOp31
 70
     1
102
RTVSPropertyOp32
 70
     1
102
RTVSPropertyOp33
 70
     1
102
RTVSPropertyOp34
 70
     1
102
RTVSPropertyOp35
 70
     1
102
RTVSPropertyOp36
 70
     1
102
RTVSPropertyOp37
 70
     1
102
RTVSPropertyOp38
 70
     1
102
RTVSPropertyOp39
 70
     1
102
RTVSPropertyOp40
 70
     1
102
RTVSPropertyOp41
 70
     1
102
RTVSPropertyOp42
 70
     1
102
RTVSPropertyOp43
 70
     1
102
RTVSPropertyOp44
 70
     1
102
RTVSPropertyOp45
 70
     1
102
RTVSPropertyOp46
 70
     1
102
RTVSPropertyOp47
 70
     1
102
RTVSPropertyOp48
 70
     1
102
RTVSPropertyOp49
 70
     1
102
RTVSPropertyOp50
 70
     1
102
RTVSPropertyOp51
 70
     0
102
RTVSPropertyOp52
 70
     0
102
RTVSPropertyOp53
 70
     1
102
RTVSPropertyOp54
 70
     1
102
RTVSPropertyOp55
 70
     1
102
RTVSPropertyOp56
 70
     1
102
RTVSPropertyOp57
 70
     1
102
RTVSPropertyOp58
 70
     1
102
RTVSPropertyOp59
 70
     1
102
RTVSPropertyOp60
 70
     1
102
RTVSPropertyOp61
 70
     1
102
RTVSPropertyOp62
 70
     1
  0
XRECORD
  5
8562
102
{ACAD_REACTORS
330
8561
102
}
330
8561
100
AcDbXrecord
280
     1
102
RTVSPost2010Prop28
280
     0
102
RTVSPost2010PropOp28
 70
     1
102
RTVSPost2010Prop29
280
     1
102
RTVSPost2010PropOp29
 70
     1
102
RTVSPost2010Prop30
280
     1
102
RTVSPost2010PropOp30
 70
     1
102
RTVSPost2010Prop31
280
     0
102
RTVSPost2010PropOp31
 70
     1
102
RTVSPost2010Prop32
280
     0
102
RTVSPost2010PropOp32
 70
     1
102
RTVSPost2010Prop33
280
     0
102
RTVSPost2010PropOp33
 70
     1
102
RTVSPost2010Prop34
280
     0
102
RTVSPost2010PropOp34
 70
     1
102
RTVSPost2010Prop35
280
     0
102
RTVSPost2010PropOp35
 70
     1
102
RTVSPost2010Prop36
280
     0
102
RTVSPost2010PropOp36
 70
     1
102
RTVSPost2010Prop37
 90
       50
102
RTVSPost2010PropOp37
 70
     1
102
RTVSPost2010Prop38
140
0.0
102
RTVSPost2010PropOp38
 70
     1
102
RTVSPost2010Prop39
140
1.0
102
RTVSPost2010PropOp39
 70
     1
102
RTVSPost2010Prop40
 90
        0
102
RTVSPost2010PropOp40
 70
     1
102
RTVSPost2010Prop41ColorIndex
 90
       18
102
RTVSPost2010Prop41ColorRGB
 90
        0
102
RTVSPost2010PropOp41
 70
     1
102
RTVSPost2010Prop42
 90
       50
102
RTVSPost2010PropOp42
 70
     1
102
RTVSPost2010Prop43
 90
        3
102
RTVSPost2010PropOp43
 70
     1
102
RTVSPost2010Prop44ColorIndex
 90
        5
102
RTVSPost2010Prop44ColorRGB
 90
      255
102
RTVSPost2010PropOp44
 70
     1
102
RTVSPost2010Prop45
280
     0
102
RTVSPost2010PropOp45
 70
     1
102
RTVSPost2010Prop46
 90
       50
102
RTVSPost2010PropOp46
 70
     1
102
RTVSPost2010Prop47
 90
       50
102
RTVSPost2010PropOp47
 70
     1
102
RTVSPost2010Prop48
 90
       50
102
RTVSPost2010PropOp48
 70
     1
102
RTVSPost2010Prop49
280
     0
102
RTVSPost2010PropOp49
 70
     1
102
RTVSPost2010Prop50
 90
       50
102
RTVSPost2010PropOp50
 70
     1
102
RTVSPost2010Prop51ColorIndex
 90
      256
102
RTVSPost2010Prop51ColorRGB
 90
-16777216
102
RTVSPost2010PropOp51
 70
     0
102
RTVSPost2010Prop52
140
1.0
102
RTVSPost2010PropOp52
 70
     0
102
RTVSPost2010Prop53
 90
        2
102
RTVSPost2010PropOp53
 70
     1
102
RTVSPost2010Prop54
  1
strokes_ogs.tif
102
RTVSPost2010PropOp54
 70
     1
102
RTVSPost2010Prop55
280
     0
102
RTVSPost2010PropOp55
 70
     1
102
RTVSPost2010Prop56
140
1.0
102
RTVSPost2010PropOp56
 70
     1
102
RTVSPost2010Prop57
140
1.0
102
RTVSPost2010PropOp57
 70
     1
102
RTVSPropertyOp0
 70
     1
102
RTVSPropertyOp1
 70
     1
102
RTVSPropertyOp2
 70
     1
102
RTVSPropertyOp3
 70
     1
102
RTVSPropertyOp4
 70
     1
102
RTVSPropertyOp5
 70
     1
102
RTVSPropertyOp6
 70
     1
102
RTVSPropertyOp7
 70
     1
102
RTVSPropertyOp8
 70
     1
102
RTVSPropertyOp9
 70
     1
102
RTVSPropertyOp10
 70
     1
102
RTVSPropertyOp11
 70
     1
102
RTVSPropertyOp12
 70
     1
102
RTVSPropertyOp13
 70
     1
102
RTVSPropertyOp14
 70
     1
102
RTVSPropertyOp15
 70
     1
102
RTVSPropertyOp16
 70
     1
102
RTVSPropertyOp17
 70
     1
102
RTVSPropertyOp18
 70
     1
102
RTVSPropertyOp19
 70
     1
102
RTVSPropertyOp20
 70
     1
102
RTVSPropertyOp21
 70
     1
102
RTVSPropertyOp22
 70
     1
102
RTVSPropertyOp23
 70
     1
102
RTVSPropertyOp24
 70
     1
102
RTVSPropertyOp25
 70
     1
102
RTVSPropertyOp26
 70
     1
102
RTVSPropertyOp27
 70
     1
102
RTVSPropertyOp28
 70
     1
102
RTVSPropertyOp29
 70
     1
102
RTVSPropertyOp30
 70
     1
102
RTVSPropertyOp31
 70
     1
102
RTVSPropertyOp32
 70
     1
102
RTVSPropertyOp33
 70
     1
102
RTVSPropertyOp34
 70
     1
102
RTVSPropertyOp35
 70
     1
102
RTVSPropertyOp36
 70
     1
102
RTVSPropertyOp37
 70
     1
102
RTVSPropertyOp38
 70
     1
102
RTVSPropertyOp39
 70
     1
102
RTVSPropertyOp40
 70
     1
102
RTVSPropertyOp41
 70
     1
102
RTVSPropertyOp42
 70
     1
102
RTVSPropertyOp43
 70
     1
102
RTVSPropertyOp44
 70
     1
102
RTVSPropertyOp45
 70
     1
102
RTVSPropertyOp46
 70
     1
102
RTVSPropertyOp47
 70
     1
102
RTVSPropertyOp48
 70
     1
102
RTVSPropertyOp49
 70
     1
102
RTVSPropertyOp50
 70
     1
102
RTVSPropertyOp51
 70
     0
102
RTVSPropertyOp52
 70
     0
102
RTVSPropertyOp53
 70
     1
102
RTVSPropertyOp54
 70
     1
102
RTVSPropertyOp55
 70
     1
102
RTVSPropertyOp56
 70
     1
102
RTVSPropertyOp57
 70
     1
102
RTVSPropertyOp58
 70
     1
102
RTVSPropertyOp59
 70
     1
102
RTVSPropertyOp60
 70
     1
102
RTVSPropertyOp61
 70
     1
102
RTVSPropertyOp62
 70
     1
  0
XRECORD
  5
8564
102
{ACAD_REACTORS
330
8563
102
}
330
8563
100
AcDbXrecord
280
     1
102
RTVSPost2010Prop28
280
     0
102
RTVSPost2010PropOp28
 70
     1
102
RTVSPost2010Prop29
280
     1
102
RTVSPost2010PropOp29
 70
     1
102
RTVSPost2010Prop30
280
     1
102
RTVSPost2010PropOp30
 70
     1
102
RTVSPost2010Prop31
280
     0
102
RTVSPost2010PropOp31
 70
     1
102
RTVSPost2010Prop32
280
     0
102
RTVSPost2010PropOp32
 70
     1
102
RTVSPost2010Prop33
280
     0
102
RTVSPost2010PropOp33
 70
     1
102
RTVSPost2010Prop34
280
     0
102
RTVSPost2010PropOp34
 70
     1
102
RTVSPost2010Prop35
280
     0
102
RTVSPost2010PropOp35
 70
     1
102
RTVSPost2010Prop36
280
     0
102
RTVSPost2010PropOp36
 70
     1
102
RTVSPost2010Prop37
 90
       50
102
RTVSPost2010PropOp37
 70
     1
102
RTVSPost2010Prop38
140
0.0
102
RTVSPost2010PropOp38
 70
     1
102
RTVSPost2010Prop39
140
1.0
102
RTVSPost2010PropOp39
 70
     1
102
RTVSPost2010Prop40
 90
        0
102
RTVSPost2010PropOp40
 70
     1
102
RTVSPost2010Prop41ColorIndex
 90
       18
102
RTVSPost2010Prop41ColorRGB
 90
        0
102
RTVSPost2010PropOp41
 70
     1
102
RTVSPost2010Prop42
 90
       50
102
RTVSPost2010PropOp42
 70
     1
102
RTVSPost2010Prop43
 90
        3
102
RTVSPost2010PropOp43
 70
     1
102
RTVSPost2010Prop44ColorIndex
 90
        5
102
RTVSPost2010Prop44ColorRGB
 90
      255
102
RTVSPost2010PropOp44
 70
     1
102
RTVSPost2010Prop45
280
     0
102
RTVSPost2010PropOp45
 70
     1
102
RTVSPost2010Prop46
 90
       50
102
RTVSPost2010PropOp46
 70
     1
102
RTVSPost2010Prop47
 90
       50
102
RTVSPost2010PropOp47
 70
     1
102
RTVSPost2010Prop48
 90
       50
102
RTVSPost2010PropOp48
 70
     1
102
RTVSPost2010Prop49
280
     0
102
RTVSPost2010PropOp49
 70
     1
102
RTVSPost2010Prop50
 90
       50
102
RTVSPost2010PropOp50
 70
     1
102
RTVSPost2010Prop51ColorIndex
 90
      256
102
RTVSPost2010Prop51ColorRGB
 90
-16777216
102
RTVSPost2010PropOp51
 70
     0
102
RTVSPost2010Prop52
140
1.0
102
RTVSPost2010PropOp52
 70
     0
102
RTVSPost2010Prop53
 90
        2
102
RTVSPost2010PropOp53
 70
     1
102
RTVSPost2010Prop54
  1
strokes_ogs.tif
102
RTVSPost2010PropOp54
 70
     1
102
RTVSPost2010Prop55
280
     0
102
RTVSPost2010PropOp55
 70
     1
102
RTVSPost2010Prop56
140
1.0
102
RTVSPost2010PropOp56
 70
     1
102
RTVSPost2010Prop57
140
1.0
102
RTVSPost2010PropOp57
 70
     1
102
RTVSPropertyOp0
 70
     1
102
RTVSPropertyOp1
 70
     1
102
RTVSPropertyOp2
 70
     1
102
RTVSPropertyOp3
 70
     1
102
RTVSPropertyOp4
 70
     1
102
RTVSPropertyOp5
 70
     1
102
RTVSPropertyOp6
 70
     1
102
RTVSPropertyOp7
 70
     1
102
RTVSPropertyOp8
 70
     1
102
RTVSPropertyOp9
 70
     1
102
RTVSPropertyOp10
 70
     1
102
RTVSPropertyOp11
 70
     1
102
RTVSPropertyOp12
 70
     1
102
RTVSPropertyOp13
 70
     1
102
RTVSPropertyOp14
 70
     1
102
RTVSPropertyOp15
 70
     1
102
RTVSPropertyOp16
 70
     1
102
RTVSPropertyOp17
 70
     1
102
RTVSPropertyOp18
 70
     1
102
RTVSPropertyOp19
 70
     1
102
RTVSPropertyOp20
 70
     1
102
RTVSPropertyOp21
 70
     1
102
RTVSPropertyOp22
 70
     1
102
RTVSPropertyOp23
 70
     1
102
RTVSPropertyOp24
 70
     1
102
RTVSPropertyOp25
 70
     1
102
RTVSPropertyOp26
 70
     1
102
RTVSPropertyOp27
 70
     1
102
RTVSPropertyOp28
 70
     1
102
RTVSPropertyOp29
 70
     1
102
RTVSPropertyOp30
 70
     1
102
RTVSPropertyOp31
 70
     1
102
RTVSPropertyOp32
 70
     1
102
RTVSPropertyOp33
 70
     1
102
RTVSPropertyOp34
 70
     1
102
RTVSPropertyOp35
 70
     1
102
RTVSPropertyOp36
 70
     1
102
RTVSPropertyOp37
 70
     1
102
RTVSPropertyOp38
 70
     1
102
RTVSPropertyOp39
 70
     1
102
RTVSPropertyOp40
 70
     1
102
RTVSPropertyOp41
 70
     1
102
RTVSPropertyOp42
 70
     1
102
RTVSPropertyOp43
 70
     1
102
RTVSPropertyOp44
 70
     1
102
RTVSPropertyOp45
 70
     1
102
RTVSPropertyOp46
 70
     1
102
RTVSPropertyOp47
 70
     1
102
RTVSPropertyOp48
 70
     1
102
RTVSPropertyOp49
 70
     1
102
RTVSPropertyOp50
 70
     1
102
RTVSPropertyOp51
 70
     0
102
RTVSPropertyOp52
 70
     0
102
RTVSPropertyOp53
 70
     1
102
RTVSPropertyOp54
 70
     1
102
RTVSPropertyOp55
 70
     1
102
RTVSPropertyOp56
 70
     1
102
RTVSPropertyOp57
 70
     1
102
RTVSPropertyOp58
 70
     1
102
RTVSPropertyOp59
 70
     1
102
RTVSPropertyOp60
 70
     1
102
RTVSPropertyOp61
 70
     1
102
RTVSPropertyOp62
 70
     1
  0
XRECORD
  5
8566
102
{ACAD_REACTORS
330
8565
102
}
330
8565
100
AcDbXrecord
280
     1
102
RTVSPost2010Prop28
280
     0
102
RTVSPost2010PropOp28
 70
     1
102
RTVSPost2010Prop29
280
     1
102
RTVSPost2010PropOp29
 70
     1
102
RTVSPost2010Prop30
280
     1
102
RTVSPost2010PropOp30
 70
     1
102
RTVSPost2010Prop31
280
     0
102
RTVSPost2010PropOp31
 70
     1
102
RTVSPost2010Prop32
280
     0
102
RTVSPost2010PropOp32
 70
     1
102
RTVSPost2010Prop33
280
     0
102
RTVSPost2010PropOp33
 70
     1
102
RTVSPost2010Prop34
280
     0
102
RTVSPost2010PropOp34
 70
     1
102
RTVSPost2010Prop35
280
     0
102
RTVSPost2010PropOp35
 70
     1
102
RTVSPost2010Prop36
280
     0
102
RTVSPost2010PropOp36
 70
     1
102
RTVSPost2010Prop37
 90
       50
102
RTVSPost2010PropOp37
 70
     1
102
RTVSPost2010Prop38
140
0.0
102
RTVSPost2010PropOp38
 70
     1
102
RTVSPost2010Prop39
140
1.0
102
RTVSPost2010PropOp39
 70
     1
102
RTVSPost2010Prop40
 90
        0
102
RTVSPost2010PropOp40
 70
     1
102
RTVSPost2010Prop41ColorIndex
 90
       18
102
RTVSPost2010Prop41ColorRGB
 90
        0
102
RTVSPost2010PropOp41
 70
     1
102
RTVSPost2010Prop42
 90
       50
102
RTVSPost2010PropOp42
 70
     1
102
RTVSPost2010Prop43
 90
        3
102
RTVSPost2010PropOp43
 70
     1
102
RTVSPost2010Prop44ColorIndex
 90
        5
102
RTVSPost2010Prop44ColorRGB
 90
      255
102
RTVSPost2010PropOp44
 70
     1
102
RTVSPost2010Prop45
280
     0
102
RTVSPost2010PropOp45
 70
     1
102
RTVSPost2010Prop46
 90
       50
102
RTVSPost2010PropOp46
 70
     1
102
RTVSPost2010Prop47
 90
       50
102
RTVSPost2010PropOp47
 70
     1
102
RTVSPost2010Prop48
 90
       50
102
RTVSPost2010PropOp48
 70
     1
102
RTVSPost2010Prop49
280
     0
102
RTVSPost2010PropOp49
 70
     1
102
RTVSPost2010Prop50
 90
       50
102
RTVSPost2010PropOp50
 70
     1
102
RTVSPost2010Prop51ColorIndex
 90
      256
102
RTVSPost2010Prop51ColorRGB
 90
-16777216
102
RTVSPost2010PropOp51
 70
     0
102
RTVSPost2010Prop52
140
1.0
102
RTVSPost2010PropOp52
 70
     0
102
RTVSPost2010Prop53
 90
        2
102
RTVSPost2010PropOp53
 70
     1
102
RTVSPost2010Prop54
  1
strokes_ogs.tif
102
RTVSPost2010PropOp54
 70
     1
102
RTVSPost2010Prop55
280
     0
102
RTVSPost2010PropOp55
 70
     1
102
RTVSPost2010Prop56
140
1.0
102
RTVSPost2010PropOp56
 70
     1
102
RTVSPost2010Prop57
140
1.0
102
RTVSPost2010PropOp57
 70
     1
102
RTVSPropertyOp0
 70
     1
102
RTVSPropertyOp1
 70
     1
102
RTVSPropertyOp2
 70
     1
102
RTVSPropertyOp3
 70
     1
102
RTVSPropertyOp4
 70
     1
102
RTVSPropertyOp5
 70
     1
102
RTVSPropertyOp6
 70
     1
102
RTVSPropertyOp7
 70
     1
102
RTVSPropertyOp8
 70
     1
102
RTVSPropertyOp9
 70
     1
102
RTVSPropertyOp10
 70
     1
102
RTVSPropertyOp11
 70
     1
102
RTVSPropertyOp12
 70
     1
102
RTVSPropertyOp13
 70
     1
102
RTVSPropertyOp14
 70
     1
102
RTVSPropertyOp15
 70
     1
102
RTVSPropertyOp16
 70
     1
102
RTVSPropertyOp17
 70
     1
102
RTVSPropertyOp18
 70
     1
102
RTVSPropertyOp19
 70
     1
102
RTVSPropertyOp20
 70
     1
102
RTVSPropertyOp21
 70
     1
102
RTVSPropertyOp22
 70
     1
102
RTVSPropertyOp23
 70
     1
102
RTVSPropertyOp24
 70
     1
102
RTVSPropertyOp25
 70
     1
102
RTVSPropertyOp26
 70
     1
102
RTVSPropertyOp27
 70
     1
102
RTVSPropertyOp28
 70
     1
102
RTVSPropertyOp29
 70
     1
102
RTVSPropertyOp30
 70
     1
102
RTVSPropertyOp31
 70
     1
102
RTVSPropertyOp32
 70
     1
102
RTVSPropertyOp33
 70
     1
102
RTVSPropertyOp34
 70
     1
102
RTVSPropertyOp35
 70
     1
102
RTVSPropertyOp36
 70
     1
102
RTVSPropertyOp37
 70
     1
102
RTVSPropertyOp38
 70
     1
102
RTVSPropertyOp39
 70
     1
102
RTVSPropertyOp40
 70
     1
102
RTVSPropertyOp41
 70
     1
102
RTVSPropertyOp42
 70
     1
102
RTVSPropertyOp43
 70
     1
102
RTVSPropertyOp44
 70
     1
102
RTVSPropertyOp45
 70
     1
102
RTVSPropertyOp46
 70
     1
102
RTVSPropertyOp47
 70
     1
102
RTVSPropertyOp48
 70
     1
102
RTVSPropertyOp49
 70
     1
102
RTVSPropertyOp50
 70
     1
102
RTVSPropertyOp51
 70
     0
102
RTVSPropertyOp52
 70
     0
102
RTVSPropertyOp53
 70
     1
102
RTVSPropertyOp54
 70
     1
102
RTVSPropertyOp55
 70
     1
102
RTVSPropertyOp56
 70
     1
102
RTVSPropertyOp57
 70
     1
102
RTVSPropertyOp58
 70
     1
102
RTVSPropertyOp59
 70
     1
102
RTVSPropertyOp60
 70
     1
102
RTVSPropertyOp61
 70
     1
102
RTVSPropertyOp62
 70
     1
  0
XRECORD
  5
856E
102
{ACAD_REACTORS
330
856D
102
}
330
856D
100
AcDbXrecord
280
     1
102
RTVSPost2010Prop28
280
     0
102
RTVSPost2010PropOp28
 70
     1
102
RTVSPost2010Prop29
280
     1
102
RTVSPost2010PropOp29
 70
     1
102
RTVSPost2010Prop30
280
     1
102
RTVSPost2010PropOp30
 70
     1
102
RTVSPost2010Prop31
280
     0
102
RTVSPost2010PropOp31
 70
     1
102
RTVSPost2010Prop32
280
     0
102
RTVSPost2010PropOp32
 70
     1
102
RTVSPost2010Prop33
280
     0
102
RTVSPost2010PropOp33
 70
     1
102
RTVSPost2010Prop34
280
     0
102
RTVSPost2010PropOp34
 70
     1
102
RTVSPost2010Prop35
280
     0
102
RTVSPost2010PropOp35
 70
     1
102
RTVSPost2010Prop36
280
     0
102
RTVSPost2010PropOp36
 70
     1
102
RTVSPost2010Prop37
 90
       50
102
RTVSPost2010PropOp37
 70
     1
102
RTVSPost2010Prop38
140
0.0
102
RTVSPost2010PropOp38
 70
     1
102
RTVSPost2010Prop39
140
1.0
102
RTVSPost2010PropOp39
 70
     1
102
RTVSPost2010Prop40
 90
        0
102
RTVSPost2010PropOp40
 70
     1
102
RTVSPost2010Prop41ColorIndex
 90
       18
102
RTVSPost2010Prop41ColorRGB
 90
        0
102
RTVSPost2010PropOp41
 70
     1
102
RTVSPost2010Prop42
 90
       50
102
RTVSPost2010PropOp42
 70
     1
102
RTVSPost2010Prop43
 90
        3
102
RTVSPost2010PropOp43
 70
     1
102
RTVSPost2010Prop44ColorIndex
 90
        5
102
RTVSPost2010Prop44ColorRGB
 90
      255
102
RTVSPost2010PropOp44
 70
     1
102
RTVSPost2010Prop45
280
     0
102
RTVSPost2010PropOp45
 70
     1
102
RTVSPost2010Prop46
 90
       50
102
RTVSPost2010PropOp46
 70
     1
102
RTVSPost2010Prop47
 90
       50
102
RTVSPost2010PropOp47
 70
     1
102
RTVSPost2010Prop48
 90
       50
102
RTVSPost2010PropOp48
 70
     1
102
RTVSPost2010Prop49
280
     0
102
RTVSPost2010PropOp49
 70
     1
102
RTVSPost2010Prop50
 90
       50
102
RTVSPost2010PropOp50
 70
     1
102
RTVSPost2010Prop51ColorIndex
 90
      256
102
RTVSPost2010Prop51ColorRGB
 90
-16777216
102
RTVSPost2010PropOp51
 70
     0
102
RTVSPost2010Prop52
140
1.0
102
RTVSPost2010PropOp52
 70
     0
102
RTVSPost2010Prop53
 90
        2
102
RTVSPost2010PropOp53
 70
     1
102
RTVSPost2010Prop54
  1
strokes_ogs.tif
102
RTVSPost2010PropOp54
 70
     1
102
RTVSPost2010Prop55
280
     0
102
RTVSPost2010PropOp55
 70
     1
102
RTVSPost2010Prop56
140
1.0
102
RTVSPost2010PropOp56
 70
     1
102
RTVSPost2010Prop57
140
1.0
102
RTVSPost2010PropOp57
 70
     1
102
RTVSPropertyOp0
 70
     1
102
RTVSPropertyOp1
 70
     1
102
RTVSPropertyOp2
 70
     1
102
RTVSPropertyOp3
 70
     1
102
RTVSPropertyOp4
 70
     1
102
RTVSPropertyOp5
 70
     1
102
RTVSPropertyOp6
 70
     1
102
RTVSPropertyOp7
 70
     1
102
RTVSPropertyOp8
 70
     1
102
RTVSPropertyOp9
 70
     1
102
RTVSPropertyOp10
 70
     1
102
RTVSPropertyOp11
 70
     1
102
RTVSPropertyOp12
 70
     1
102
RTVSPropertyOp13
 70
     1
102
RTVSPropertyOp14
 70
     1
102
RTVSPropertyOp15
 70
     1
102
RTVSPropertyOp16
 70
     1
102
RTVSPropertyOp17
 70
     1
102
RTVSPropertyOp18
 70
     1
102
RTVSPropertyOp19
 70
     1
102
RTVSPropertyOp20
 70
     1
102
RTVSPropertyOp21
 70
     1
102
RTVSPropertyOp22
 70
     1
102
RTVSPropertyOp23
 70
     1
102
RTVSPropertyOp24
 70
     1
102
RTVSPropertyOp25
 70
     1
102
RTVSPropertyOp26
 70
     1
102
RTVSPropertyOp27
 70
     1
102
RTVSPropertyOp28
 70
     1
102
RTVSPropertyOp29
 70
     1
102
RTVSPropertyOp30
 70
     1
102
RTVSPropertyOp31
 70
     1
102
RTVSPropertyOp32
 70
     1
102
RTVSPropertyOp33
 70
     1
102
RTVSPropertyOp34
 70
     1
102
RTVSPropertyOp35
 70
     1
102
RTVSPropertyOp36
 70
     1
102
RTVSPropertyOp37
 70
     1
102
RTVSPropertyOp38
 70
     1
102
RTVSPropertyOp39
 70
     1
102
RTVSPropertyOp40
 70
     1
102
RTVSPropertyOp41
 70
     1
102
RTVSPropertyOp42
 70
     1
102
RTVSPropertyOp43
 70
     1
102
RTVSPropertyOp44
 70
     1
102
RTVSPropertyOp45
 70
     1
102
RTVSPropertyOp46
 70
     1
102
RTVSPropertyOp47
 70
     1
102
RTVSPropertyOp48
 70
     1
102
RTVSPropertyOp49
 70
     1
102
RTVSPropertyOp50
 70
     1
102
RTVSPropertyOp51
 70
     0
102
RTVSPropertyOp52
 70
     0
102
RTVSPropertyOp53
 70
     1
102
RTVSPropertyOp54
 70
     1
102
RTVSPropertyOp55
 70
     1
102
RTVSPropertyOp56
 70
     1
102
RTVSPropertyOp57
 70
     1
102
RTVSPropertyOp58
 70
     1
102
RTVSPropertyOp59
 70
     1
102
RTVSPropertyOp60
 70
     1
102
RTVSPropertyOp61
 70
     1
102
RTVSPropertyOp62
 70
     1
  0
XRECORD
  5
858A
102
{ACAD_REACTORS
330
8589
102
}
330
8589
100
AcDbXrecord
280
     1
102
RTVSPost2010Prop28
280
     0
102
RTVSPost2010PropOp28
 70
     1
102
RTVSPost2010Prop29
280
     1
102
RTVSPost2010PropOp29
 70
     1
102
RTVSPost2010Prop30
280
     1
102
RTVSPost2010PropOp30
 70
     1
102
RTVSPost2010Prop31
280
     0
102
RTVSPost2010PropOp31
 70
     1
102
RTVSPost2010Prop32
280
     0
102
RTVSPost2010PropOp32
 70
     1
102
RTVSPost2010Prop33
280
     0
102
RTVSPost2010PropOp33
 70
     1
102
RTVSPost2010Prop34
280
     0
102
RTVSPost2010PropOp34
 70
     1
102
RTVSPost2010Prop35
280
     0
102
RTVSPost2010PropOp35
 70
     1
102
RTVSPost2010Prop36
280
     0
102
RTVSPost2010PropOp36
 70
     1
102
RTVSPost2010Prop37
 90
       50
102
RTVSPost2010PropOp37
 70
     0
102
RTVSPost2010Prop38
140
0.0
102
RTVSPost2010PropOp38
 70
     0
102
RTVSPost2010Prop39
140
1.0
102
RTVSPost2010PropOp39
 70
     0
102
RTVSPost2010Prop40
 90
        0
102
RTVSPost2010PropOp40
 70
     0
102
RTVSPost2010Prop41ColorIndex
 90
       18
102
RTVSPost2010Prop41ColorRGB
 90
        0
102
RTVSPost2010PropOp41
 70
     0
102
RTVSPost2010Prop42
 90
       50
102
RTVSPost2010PropOp42
 70
     0
102
RTVSPost2010Prop43
 90
        3
102
RTVSPost2010PropOp43
 70
     0
102
RTVSPost2010Prop44ColorIndex
 90
        5
102
RTVSPost2010Prop44ColorRGB
 90
      255
102
RTVSPost2010PropOp44
 70
     0
102
RTVSPost2010Prop45
280
     0
102
RTVSPost2010PropOp45
 70
     1
102
RTVSPost2010Prop46
 90
       50
102
RTVSPost2010PropOp46
 70
     0
102
RTVSPost2010Prop47
 90
       50
102
RTVSPost2010PropOp47
 70
     0
102
RTVSPost2010Prop48
 90
       50
102
RTVSPost2010PropOp48
 70
     0
102
RTVSPost2010Prop49
280
     0
102
RTVSPost2010PropOp49
 70
     1
102
RTVSPost2010Prop50
 90
       50
102
RTVSPost2010PropOp50
 70
     0
102
RTVSPost2010Prop51ColorIndex
 90
      256
102
RTVSPost2010Prop51ColorRGB
 90
-16777216
102
RTVSPost2010PropOp51
 70
     0
102
RTVSPost2010Prop52
140
1.0
102
RTVSPost2010PropOp52
 70
     0
102
RTVSPost2010Prop53
 90
        2
102
RTVSPost2010PropOp53
 70
     0
102
RTVSPost2010Prop54
  1
strokes_ogs.tif
102
RTVSPost2010PropOp54
 70
     0
102
RTVSPost2010Prop55
280
     0
102
RTVSPost2010PropOp55
 70
     1
102
RTVSPost2010Prop56
140
1.0
102
RTVSPost2010PropOp56
 70
     0
102
RTVSPost2010Prop57
140
1.0
102
RTVSPost2010PropOp57
 70
     0
102
RTVSPropertyOp0
 70
     0
102
RTVSPropertyOp1
 70
     0
102
RTVSPropertyOp2
 70
     0
102
RTVSPropertyOp3
 70
     0
102
RTVSPropertyOp4
 70
     0
102
RTVSPropertyOp5
 70
     0
102
RTVSPropertyOp6
 70
     0
102
RTVSPropertyOp7
 70
     0
102
RTVSPropertyOp8
 70
     0
102
RTVSPropertyOp9
 70
     0
102
RTVSPropertyOp10
 70
     0
102
RTVSPropertyOp11
 70
     0
102
RTVSPropertyOp12
 70
     0
102
RTVSPropertyOp13
 70
     0
102
RTVSPropertyOp14
 70
     2
102
RTVSPropertyOp15
 70
     0
102
RTVSPropertyOp16
 70
     0
102
RTVSPropertyOp17
 70
     0
102
RTVSPropertyOp18
 70
     0
102
RTVSPropertyOp19
 70
     0
102
RTVSPropertyOp20
 70
     0
102
RTVSPropertyOp21
 70
     0
102
RTVSPropertyOp22
 70
     0
102
RTVSPropertyOp23
 70
     0
102
RTVSPropertyOp24
 70
     0
102
RTVSPropertyOp25
 70
     0
102
RTVSPropertyOp26
 70
     0
102
RTVSPropertyOp27
 70
     0
102
RTVSPropertyOp28
 70
     1
102
RTVSPropertyOp29
 70
     1
102
RTVSPropertyOp30
 70
     1
102
RTVSPropertyOp31
 70
     1
102
RTVSPropertyOp32
 70
     1
102
RTVSPropertyOp33
 70
     1
102
RTVSPropertyOp34
 70
     1
102
RTVSPropertyOp35
 70
     1
102
RTVSPropertyOp36
 70
     1
102
RTVSPropertyOp37
 70
     0
102
RTVSPropertyOp38
 70
     0
102
RTVSPropertyOp39
 70
     0
102
RTVSPropertyOp40
 70
     0
102
RTVSPropertyOp41
 70
     0
102
RTVSPropertyOp42
 70
     0
102
RTVSPropertyOp43
 70
     0
102
RTVSPropertyOp44
 70
     0
102
RTVSPropertyOp45
 70
     1
102
RTVSPropertyOp46
 70
     0
102
RTVSPropertyOp47
 70
     0
102
RTVSPropertyOp48
 70
     0
102
RTVSPropertyOp49
 70
     1
102
RTVSPropertyOp50
 70
     0
102
RTVSPropertyOp51
 70
     0
102
RTVSPropertyOp52
 70
     0
102
RTVSPropertyOp53
 70
     0
102
RTVSPropertyOp54
 70
     0
102
RTVSPropertyOp55
 70
     1
102
RTVSPropertyOp56
 70
     0
102
RTVSPropertyOp57
 70
     0
102
RTVSPropertyOp58
 70
     0
102
RTVSPropertyOp59
 70
     0
102
RTVSPropertyOp60
 70
     0
102
RTVSPropertyOp61
 70
     0
102
RTVSPropertyOp62
 70
     0
  0
XRECORD
  5
857A
102
{ACAD_REACTORS
330
8579
102
}
330
8579
100
AcDbXrecord
280
     1
102
RTVSPost2010Prop28
280
     0
102
RTVSPost2010PropOp28
 70
     1
102
RTVSPost2010Prop29
280
     1
102
RTVSPost2010PropOp29
 70
     1
102
RTVSPost2010Prop30
280
     1
102
RTVSPost2010PropOp30
 70
     1
102
RTVSPost2010Prop31
280
     0
102
RTVSPost2010PropOp31
 70
     1
102
RTVSPost2010Prop32
280
     0
102
RTVSPost2010PropOp32
 70
     1
102
RTVSPost2010Prop33
280
     0
102
RTVSPost2010PropOp33
 70
     1
102
RTVSPost2010Prop34
280
     0
102
RTVSPost2010PropOp34
 70
     1
102
RTVSPost2010Prop35
280
     0
102
RTVSPost2010PropOp35
 70
     1
102
RTVSPost2010Prop36
280
     0
102
RTVSPost2010PropOp36
 70
     1
102
RTVSPost2010Prop37
 90
       50
102
RTVSPost2010PropOp37
 70
     1
102
RTVSPost2010Prop38
140
0.0
102
RTVSPost2010PropOp38
 70
     1
102
RTVSPost2010Prop39
140
1.0
102
RTVSPost2010PropOp39
 70
     1
102
RTVSPost2010Prop40
 90
        0
102
RTVSPost2010PropOp40
 70
     1
102
RTVSPost2010Prop41ColorIndex
 90
       18
102
RTVSPost2010Prop41ColorRGB
 90
        0
102
RTVSPost2010PropOp41
 70
     1
102
RTVSPost2010Prop42
 90
       50
102
RTVSPost2010PropOp42
 70
     1
102
RTVSPost2010Prop43
 90
        3
102
RTVSPost2010PropOp43
 70
     1
102
RTVSPost2010Prop44ColorIndex
 90
        5
102
RTVSPost2010Prop44ColorRGB
 90
      255
102
RTVSPost2010PropOp44
 70
     1
102
RTVSPost2010Prop45
280
     0
102
RTVSPost2010PropOp45
 70
     1
102
RTVSPost2010Prop46
 90
       50
102
RTVSPost2010PropOp46
 70
     1
102
RTVSPost2010Prop47
 90
       50
102
RTVSPost2010PropOp47
 70
     1
102
RTVSPost2010Prop48
 90
       50
102
RTVSPost2010PropOp48
 70
     1
102
RTVSPost2010Prop49
280
     0
102
RTVSPost2010PropOp49
 70
     1
102
RTVSPost2010Prop50
 90
       50
102
RTVSPost2010PropOp50
 70
     1
102
RTVSPost2010Prop51ColorIndex
 90
      256
102
RTVSPost2010Prop51ColorRGB
 90
-16777216
102
RTVSPost2010PropOp51
 70
     0
102
RTVSPost2010Prop52
140
1.0
102
RTVSPost2010PropOp52
 70
     0
102
RTVSPost2010Prop53
 90
        2
102
RTVSPost2010PropOp53
 70
     1
102
RTVSPost2010Prop54
  1
strokes_ogs.tif
102
RTVSPost2010PropOp54
 70
     1
102
RTVSPost2010Prop55
280
     0
102
RTVSPost2010PropOp55
 70
     1
102
RTVSPost2010Prop56
140
1.0
102
RTVSPost2010PropOp56
 70
     1
102
RTVSPost2010Prop57
140
1.0
102
RTVSPost2010PropOp57
 70
     1
102
RTVSPropertyOp0
 70
     1
102
RTVSPropertyOp1
 70
     1
102
RTVSPropertyOp2
 70
     1
102
RTVSPropertyOp3
 70
     1
102
RTVSPropertyOp4
 70
     1
102
RTVSPropertyOp5
 70
     1
102
RTVSPropertyOp6
 70
     1
102
RTVSPropertyOp7
 70
     1
102
RTVSPropertyOp8
 70
     1
102
RTVSPropertyOp9
 70
     1
102
RTVSPropertyOp10
 70
     1
102
RTVSPropertyOp11
 70
     1
102
RTVSPropertyOp12
 70
     1
102
RTVSPropertyOp13
 70
     1
102
RTVSPropertyOp14
 70
     1
102
RTVSPropertyOp15
 70
     1
102
RTVSPropertyOp16
 70
     1
102
RTVSPropertyOp17
 70
     1
102
RTVSPropertyOp18
 70
     1
102
RTVSPropertyOp19
 70
     1
102
RTVSPropertyOp20
 70
     1
102
RTVSPropertyOp21
 70
     1
102
RTVSPropertyOp22
 70
     1
102
RTVSPropertyOp23
 70
     1
102
RTVSPropertyOp24
 70
     1
102
RTVSPropertyOp25
 70
     1
102
RTVSPropertyOp26
 70
     1
102
RTVSPropertyOp27
 70
     1
102
RTVSPropertyOp28
 70
     1
102
RTVSPropertyOp29
 70
     1
102
RTVSPropertyOp30
 70
     1
102
RTVSPropertyOp31
 70
     1
102
RTVSPropertyOp32
 70
     1
102
RTVSPropertyOp33
 70
     1
102
RTVSPropertyOp34
 70
     1
102
RTVSPropertyOp35
 70
     1
102
RTVSPropertyOp36
 70
     1
102
RTVSPropertyOp37
 70
     1
102
RTVSPropertyOp38
 70
     1
102
RTVSPropertyOp39
 70
     1
102
RTVSPropertyOp40
 70
     1
102
RTVSPropertyOp41
 70
     1
102
RTVSPropertyOp42
 70
     1
102
RTVSPropertyOp43
 70
     1
102
RTVSPropertyOp44
 70
     1
102
RTVSPropertyOp45
 70
     1
102
RTVSPropertyOp46
 70
     1
102
RTVSPropertyOp47
 70
     1
102
RTVSPropertyOp48
 70
     1
102
RTVSPropertyOp49
 70
     1
102
RTVSPropertyOp50
 70
     1
102
RTVSPropertyOp51
 70
     0
102
RTVSPropertyOp52
 70
     0
102
RTVSPropertyOp53
 70
     1
102
RTVSPropertyOp54
 70
     1
102
RTVSPropertyOp55
 70
     1
102
RTVSPropertyOp56
 70
     1
102
RTVSPropertyOp57
 70
     1
102
RTVSPropertyOp58
 70
     1
102
RTVSPropertyOp59
 70
     1
102
RTVSPropertyOp60
 70
     1
102
RTVSPropertyOp61
 70
     1
102
RTVSPropertyOp62
 70
     1
  0
XRECORD
  5
858C
102
{ACAD_REACTORS
330
858B
102
}
330
858B
100
AcDbXrecord
280
     1
102
RTVSPost2010Prop28
280
     0
102
RTVSPost2010PropOp28
 70
     1
102
RTVSPost2010Prop29
280
     1
102
RTVSPost2010PropOp29
 70
     1
102
RTVSPost2010Prop30
280
     1
102
RTVSPost2010PropOp30
 70
     1
102
RTVSPost2010Prop31
280
     0
102
RTVSPost2010PropOp31
 70
     1
102
RTVSPost2010Prop32
280
     0
102
RTVSPost2010PropOp32
 70
     1
102
RTVSPost2010Prop33
280
     0
102
RTVSPost2010PropOp33
 70
     1
102
RTVSPost2010Prop34
280
     0
102
RTVSPost2010PropOp34
 70
     1
102
RTVSPost2010Prop35
280
     0
102
RTVSPost2010PropOp35
 70
     1
102
RTVSPost2010Prop36
280
     0
102
RTVSPost2010PropOp36
 70
     1
102
RTVSPost2010Prop37
 90
       50
102
RTVSPost2010PropOp37
 70
     0
102
RTVSPost2010Prop38
140
0.0
102
RTVSPost2010PropOp38
 70
     0
102
RTVSPost2010Prop39
140
1.0
102
RTVSPost2010PropOp39
 70
     0
102
RTVSPost2010Prop40
 90
        0
102
RTVSPost2010PropOp40
 70
     0
102
RTVSPost2010Prop41ColorIndex
 90
       18
102
RTVSPost2010Prop41ColorRGB
 90
        0
102
RTVSPost2010PropOp41
 70
     0
102
RTVSPost2010Prop42
 90
       50
102
RTVSPost2010PropOp42
 70
     0
102
RTVSPost2010Prop43
 90
        3
102
RTVSPost2010PropOp43
 70
     0
102
RTVSPost2010Prop44ColorIndex
 90
        5
102
RTVSPost2010Prop44ColorRGB
 90
      255
102
RTVSPost2010PropOp44
 70
     0
102
RTVSPost2010Prop45
280
     0
102
RTVSPost2010PropOp45
 70
     1
102
RTVSPost2010Prop46
 90
       50
102
RTVSPost2010PropOp46
 70
     0
102
RTVSPost2010Prop47
 90
       50
102
RTVSPost2010PropOp47
 70
     0
102
RTVSPost2010Prop48
 90
       50
102
RTVSPost2010PropOp48
 70
     0
102
RTVSPost2010Prop49
280
     0
102
RTVSPost2010PropOp49
 70
     1
102
RTVSPost2010Prop50
 90
       50
102
RTVSPost2010PropOp50
 70
     0
102
RTVSPost2010Prop51ColorIndex
 90
      256
102
RTVSPost2010Prop51ColorRGB
 90
-16777216
102
RTVSPost2010PropOp51
 70
     0
102
RTVSPost2010Prop52
140
1.0
102
RTVSPost2010PropOp52
 70
     0
102
RTVSPost2010Prop53
 90
        2
102
RTVSPost2010PropOp53
 70
     0
102
RTVSPost2010Prop54
  1
strokes_ogs.tif
102
RTVSPost2010PropOp54
 70
     0
102
RTVSPost2010Prop55
280
     0
102
RTVSPost2010PropOp55
 70
     1
102
RTVSPost2010Prop56
140
1.0
102
RTVSPost2010PropOp56
 70
     0
102
RTVSPost2010Prop57
140
1.0
102
RTVSPost2010PropOp57
 70
     0
102
RTVSPropertyOp0
 70
     0
102
RTVSPropertyOp1
 70
     0
102
RTVSPropertyOp2
 70
     0
102
RTVSPropertyOp3
 70
     0
102
RTVSPropertyOp4
 70
     0
102
RTVSPropertyOp5
 70
     0
102
RTVSPropertyOp6
 70
     0
102
RTVSPropertyOp7
 70
     0
102
RTVSPropertyOp8
 70
     0
102
RTVSPropertyOp9
 70
     0
102
RTVSPropertyOp10
 70
     0
102
RTVSPropertyOp11
 70
     0
102
RTVSPropertyOp12
 70
     0
102
RTVSPropertyOp13
 70
     0
102
RTVSPropertyOp14
 70
     2
102
RTVSPropertyOp15
 70
     0
102
RTVSPropertyOp16
 70
     0
102
RTVSPropertyOp17
 70
     0
102
RTVSPropertyOp18
 70
     0
102
RTVSPropertyOp19
 70
     0
102
RTVSPropertyOp20
 70
     0
102
RTVSPropertyOp21
 70
     0
102
RTVSPropertyOp22
 70
     0
102
RTVSPropertyOp23
 70
     0
102
RTVSPropertyOp24
 70
     0
102
RTVSPropertyOp25
 70
     0
102
RTVSPropertyOp26
 70
     0
102
RTVSPropertyOp27
 70
     0
102
RTVSPropertyOp28
 70
     1
102
RTVSPropertyOp29
 70
     1
102
RTVSPropertyOp30
 70
     1
102
RTVSPropertyOp31
 70
     1
102
RTVSPropertyOp32
 70
     1
102
RTVSPropertyOp33
 70
     1
102
RTVSPropertyOp34
 70
     1
102
RTVSPropertyOp35
 70
     1
102
RTVSPropertyOp36
 70
     1
102
RTVSPropertyOp37
 70
     0
102
RTVSPropertyOp38
 70
     0
102
RTVSPropertyOp39
 70
     0
102
RTVSPropertyOp40
 70
     0
102
RTVSPropertyOp41
 70
     0
102
RTVSPropertyOp42
 70
     0
102
RTVSPropertyOp43
 70
     0
102
RTVSPropertyOp44
 70
     0
102
RTVSPropertyOp45
 70
     1
102
RTVSPropertyOp46
 70
     0
102
RTVSPropertyOp47
 70
     0
102
RTVSPropertyOp48
 70
     0
102
RTVSPropertyOp49
 70
     1
102
RTVSPropertyOp50
 70
     0
102
RTVSPropertyOp51
 70
     0
102
RTVSPropertyOp52
 70
     0
102
RTVSPropertyOp53
 70
     0
102
RTVSPropertyOp54
 70
     0
102
RTVSPropertyOp55
 70
     1
102
RTVSPropertyOp56
 70
     0
102
RTVSPropertyOp57
 70
     0
102
RTVSPropertyOp58
 70
     0
102
RTVSPropertyOp59
 70
     0
102
RTVSPropertyOp60
 70
     0
102
RTVSPropertyOp61
 70
     0
102
RTVSPropertyOp62
 70
     0
  0
XRECORD
  5
8572
102
{ACAD_REACTORS
330
8571
102
}
330
8571
100
AcDbXrecord
280
     1
102
RTVSPost2010Prop28
280
     0
102
RTVSPost2010PropOp28
 70
     1
102
RTVSPost2010Prop29
280
     1
102
RTVSPost2010PropOp29
 70
     1
102
RTVSPost2010Prop30
280
     1
102
RTVSPost2010PropOp30
 70
     1
102
RTVSPost2010Prop31
280
     0
102
RTVSPost2010PropOp31
 70
     1
102
RTVSPost2010Prop32
280
     0
102
RTVSPost2010PropOp32
 70
     1
102
RTVSPost2010Prop33
280
     0
102
RTVSPost2010PropOp33
 70
     1
102
RTVSPost2010Prop34
280
     0
102
RTVSPost2010PropOp34
 70
     1
102
RTVSPost2010Prop35
280
     0
102
RTVSPost2010PropOp35
 70
     1
102
RTVSPost2010Prop36
280
     0
102
RTVSPost2010PropOp36
 70
     1
102
RTVSPost2010Prop37
 90
       50
102
RTVSPost2010PropOp37
 70
     1
102
RTVSPost2010Prop38
140
0.0
102
RTVSPost2010PropOp38
 70
     1
102
RTVSPost2010Prop39
140
1.0
102
RTVSPost2010PropOp39
 70
     1
102
RTVSPost2010Prop40
 90
        0
102
RTVSPost2010PropOp40
 70
     1
102
RTVSPost2010Prop41ColorIndex
 90
       18
102
RTVSPost2010Prop41ColorRGB
 90
        0
102
RTVSPost2010PropOp41
 70
     1
102
RTVSPost2010Prop42
 90
       50
102
RTVSPost2010PropOp42
 70
     1
102
RTVSPost2010Prop43
 90
        3
102
RTVSPost2010PropOp43
 70
     1
102
RTVSPost2010Prop44ColorIndex
 90
        5
102
RTVSPost2010Prop44ColorRGB
 90
      255
102
RTVSPost2010PropOp44
 70
     1
102
RTVSPost2010Prop45
280
     0
102
RTVSPost2010PropOp45
 70
     1
102
RTVSPost2010Prop46
 90
       50
102
RTVSPost2010PropOp46
 70
     1
102
RTVSPost2010Prop47
 90
       50
102
RTVSPost2010PropOp47
 70
     1
102
RTVSPost2010Prop48
 90
       50
102
RTVSPost2010PropOp48
 70
     1
102
RTVSPost2010Prop49
280
     0
102
RTVSPost2010PropOp49
 70
     1
102
RTVSPost2010Prop50
 90
       50
102
RTVSPost2010PropOp50
 70
     1
102
RTVSPost2010Prop51ColorIndex
 90
      256
102
RTVSPost2010Prop51ColorRGB
 90
-16777216
102
RTVSPost2010PropOp51
 70
     0
102
RTVSPost2010Prop52
140
1.0
102
RTVSPost2010PropOp52
 70
     0
102
RTVSPost2010Prop53
 90
        2
102
RTVSPost2010PropOp53
 70
     1
102
RTVSPost2010Prop54
  1
strokes_ogs.tif
102
RTVSPost2010PropOp54
 70
     1
102
RTVSPost2010Prop55
280
     0
102
RTVSPost2010PropOp55
 70
     1
102
RTVSPost2010Prop56
140
1.0
102
RTVSPost2010PropOp56
 70
     1
102
RTVSPost2010Prop57
140
1.0
102
RTVSPost2010PropOp57
 70
     1
102
RTVSPropertyOp0
 70
     1
102
RTVSPropertyOp1
 70
     1
102
RTVSPropertyOp2
 70
     1
102
RTVSPropertyOp3
 70
     1
102
RTVSPropertyOp4
 70
     1
102
RTVSPropertyOp5
 70
     1
102
RTVSPropertyOp6
 70
     1
102
RTVSPropertyOp7
 70
     1
102
RTVSPropertyOp8
 70
     1
102
RTVSPropertyOp9
 70
     1
102
RTVSPropertyOp10
 70
     1
102
RTVSPropertyOp11
 70
     1
102
RTVSPropertyOp12
 70
     1
102
RTVSPropertyOp13
 70
     1
102
RTVSPropertyOp14
 70
     1
102
RTVSPropertyOp15
 70
     1
102
RTVSPropertyOp16
 70
     1
102
RTVSPropertyOp17
 70
     1
102
RTVSPropertyOp18
 70
     1
102
RTVSPropertyOp19
 70
     1
102
RTVSPropertyOp20
 70
     1
102
RTVSPropertyOp21
 70
     1
102
RTVSPropertyOp22
 70
     1
102
RTVSPropertyOp23
 70
     1
102
RTVSPropertyOp24
 70
     1
102
RTVSPropertyOp25
 70
     1
102
RTVSPropertyOp26
 70
     1
102
RTVSPropertyOp27
 70
     1
102
RTVSPropertyOp28
 70
     1
102
RTVSPropertyOp29
 70
     1
102
RTVSPropertyOp30
 70
     1
102
RTVSPropertyOp31
 70
     1
102
RTVSPropertyOp32
 70
     1
102
RTVSPropertyOp33
 70
     1
102
RTVSPropertyOp34
 70
     1
102
RTVSPropertyOp35
 70
     1
102
RTVSPropertyOp36
 70
     1
102
RTVSPropertyOp37
 70
     1
102
RTVSPropertyOp38
 70
     1
102
RTVSPropertyOp39
 70
     1
102
RTVSPropertyOp40
 70
     1
102
RTVSPropertyOp41
 70
     1
102
RTVSPropertyOp42
 70
     1
102
RTVSPropertyOp43
 70
     1
102
RTVSPropertyOp44
 70
     1
102
RTVSPropertyOp45
 70
     1
102
RTVSPropertyOp46
 70
     1
102
RTVSPropertyOp47
 70
     1
102
RTVSPropertyOp48
 70
     1
102
RTVSPropertyOp49
 70
     1
102
RTVSPropertyOp50
 70
     1
102
RTVSPropertyOp51
 70
     0
102
RTVSPropertyOp52
 70
     0
102
RTVSPropertyOp53
 70
     1
102
RTVSPropertyOp54
 70
     1
102
RTVSPropertyOp55
 70
     1
102
RTVSPropertyOp56
 70
     1
102
RTVSPropertyOp57
 70
     1
102
RTVSPropertyOp58
 70
     1
102
RTVSPropertyOp59
 70
     1
102
RTVSPropertyOp60
 70
     1
102
RTVSPropertyOp61
 70
     1
102
RTVSPropertyOp62
 70
     1
  0
XRECORD
  5
8588
102
{ACAD_REACTORS
330
8587
102
}
330
8587
100
AcDbXrecord
280
     1
102
RTVSPost2010Prop28
280
     0
102
RTVSPost2010PropOp28
 70
     1
102
RTVSPost2010Prop29
280
     1
102
RTVSPost2010PropOp29
 70
     1
102
RTVSPost2010Prop30
280
     1
102
RTVSPost2010PropOp30
 70
     1
102
RTVSPost2010Prop31
280
     0
102
RTVSPost2010PropOp31
 70
     1
102
RTVSPost2010Prop32
280
     0
102
RTVSPost2010PropOp32
 70
     1
102
RTVSPost2010Prop33
280
     0
102
RTVSPost2010PropOp33
 70
     1
102
RTVSPost2010Prop34
280
     0
102
RTVSPost2010PropOp34
 70
     1
102
RTVSPost2010Prop35
280
     0
102
RTVSPost2010PropOp35
 70
     1
102
RTVSPost2010Prop36
280
     0
102
RTVSPost2010PropOp36
 70
     1
102
RTVSPost2010Prop37
 90
       50
102
RTVSPost2010PropOp37
 70
     1
102
RTVSPost2010Prop38
140
0.0
102
RTVSPost2010PropOp38
 70
     1
102
RTVSPost2010Prop39
140
1.0
102
RTVSPost2010PropOp39
 70
     1
102
RTVSPost2010Prop40
 90
        0
102
RTVSPost2010PropOp40
 70
     1
102
RTVSPost2010Prop41ColorIndex
 90
       18
102
RTVSPost2010Prop41ColorRGB
 90
        0
102
RTVSPost2010PropOp41
 70
     1
102
RTVSPost2010Prop42
 90
       50
102
RTVSPost2010PropOp42
 70
     1
102
RTVSPost2010Prop43
 90
        3
102
RTVSPost2010PropOp43
 70
     1
102
RTVSPost2010Prop44ColorIndex
 90
        5
102
RTVSPost2010Prop44ColorRGB
 90
      255
102
RTVSPost2010PropOp44
 70
     1
102
RTVSPost2010Prop45
280
     0
102
RTVSPost2010PropOp45
 70
     1
102
RTVSPost2010Prop46
 90
       50
102
RTVSPost2010PropOp46
 70
     1
102
RTVSPost2010Prop47
 90
       50
102
RTVSPost2010PropOp47
 70
     1
102
RTVSPost2010Prop48
 90
       50
102
RTVSPost2010PropOp48
 70
     1
102
RTVSPost2010Prop49
280
     0
102
RTVSPost2010PropOp49
 70
     1
102
RTVSPost2010Prop50
 90
       50
102
RTVSPost2010PropOp50
 70
     1
102
RTVSPost2010Prop51ColorIndex
 90
      256
102
RTVSPost2010Prop51ColorRGB
 90
-16777216
102
RTVSPost2010PropOp51
 70
     0
102
RTVSPost2010Prop52
140
1.0
102
RTVSPost2010PropOp52
 70
     0
102
RTVSPost2010Prop53
 90
        2
102
RTVSPost2010PropOp53
 70
     1
102
RTVSPost2010Prop54
  1
strokes_ogs.tif
102
RTVSPost2010PropOp54
 70
     1
102
RTVSPost2010Prop55
280
     0
102
RTVSPost2010PropOp55
 70
     1
102
RTVSPost2010Prop56
140
1.0
102
RTVSPost2010PropOp56
 70
     1
102
RTVSPost2010Prop57
140
1.0
102
RTVSPost2010PropOp57
 70
     1
102
RTVSPropertyOp0
 70
     1
102
RTVSPropertyOp1
 70
     1
102
RTVSPropertyOp2
 70
     1
102
RTVSPropertyOp3
 70
     1
102
RTVSPropertyOp4
 70
     1
102
RTVSPropertyOp5
 70
     1
102
RTVSPropertyOp6
 70
     1
102
RTVSPropertyOp7
 70
     1
102
RTVSPropertyOp8
 70
     1
102
RTVSPropertyOp9
 70
     1
102
RTVSPropertyOp10
 70
     1
102
RTVSPropertyOp11
 70
     1
102
RTVSPropertyOp12
 70
     1
102
RTVSPropertyOp13
 70
     1
102
RTVSPropertyOp14
 70
     1
102
RTVSPropertyOp15
 70
     1
102
RTVSPropertyOp16
 70
     1
102
RTVSPropertyOp17
 70
     1
102
RTVSPropertyOp18
 70
     1
102
RTVSPropertyOp19
 70
     1
102
RTVSPropertyOp20
 70
     1
102
RTVSPropertyOp21
 70
     1
102
RTVSPropertyOp22
 70
     1
102
RTVSPropertyOp23
 70
     1
102
RTVSPropertyOp24
 70
     1
102
RTVSPropertyOp25
 70
     1
102
RTVSPropertyOp26
 70
     1
102
RTVSPropertyOp27
 70
     1
102
RTVSPropertyOp28
 70
     1
102
RTVSPropertyOp29
 70
     1
102
RTVSPropertyOp30
 70
     1
102
RTVSPropertyOp31
 70
     1
102
RTVSPropertyOp32
 70
     1
102
RTVSPropertyOp33
 70
     1
102
RTVSPropertyOp34
 70
     1
102
RTVSPropertyOp35
 70
     1
102
RTVSPropertyOp36
 70
     1
102
RTVSPropertyOp37
 70
     1
102
RTVSPropertyOp38
 70
     1
102
RTVSPropertyOp39
 70
     1
102
RTVSPropertyOp40
 70
     1
102
RTVSPropertyOp41
 70
     1
102
RTVSPropertyOp42
 70
     1
102
RTVSPropertyOp43
 70
     1
102
RTVSPropertyOp44
 70
     1
102
RTVSPropertyOp45
 70
     1
102
RTVSPropertyOp46
 70
     1
102
RTVSPropertyOp47
 70
     1
102
RTVSPropertyOp48
 70
     1
102
RTVSPropertyOp49
 70
     1
102
RTVSPropertyOp50
 70
     1
102
RTVSPropertyOp51
 70
     0
102
RTVSPropertyOp52
 70
     0
102
RTVSPropertyOp53
 70
     1
102
RTVSPropertyOp54
 70
     1
102
RTVSPropertyOp55
 70
     1
102
RTVSPropertyOp56
 70
     1
102
RTVSPropertyOp57
 70
     1
102
RTVSPropertyOp58
 70
     1
102
RTVSPropertyOp59
 70
     1
102
RTVSPropertyOp60
 70
     1
102
RTVSPropertyOp61
 70
     1
102
RTVSPropertyOp62
 70
     1
  0
XRECORD
  5
8586
102
{ACAD_REACTORS
330
8585
102
}
330
8585
100
AcDbXrecord
280
     1
102
RTVSPost2010Prop28
280
     0
102
RTVSPost2010PropOp28
 70
     1
102
RTVSPost2010Prop29
280
     1
102
RTVSPost2010PropOp29
 70
     1
102
RTVSPost2010Prop30
280
     1
102
RTVSPost2010PropOp30
 70
     1
102
RTVSPost2010Prop31
280
     0
102
RTVSPost2010PropOp31
 70
     1
102
RTVSPost2010Prop32
280
     0
102
RTVSPost2010PropOp32
 70
     1
102
RTVSPost2010Prop33
280
     0
102
RTVSPost2010PropOp33
 70
     1
102
RTVSPost2010Prop34
280
     0
102
RTVSPost2010PropOp34
 70
     1
102
RTVSPost2010Prop35
280
     0
102
RTVSPost2010PropOp35
 70
     1
102
RTVSPost2010Prop36
280
     0
102
RTVSPost2010PropOp36
 70
     1
102
RTVSPost2010Prop37
 90
       50
102
RTVSPost2010PropOp37
 70
     1
102
RTVSPost2010Prop38
140
0.0
102
RTVSPost2010PropOp38
 70
     1
102
RTVSPost2010Prop39
140
1.0
102
RTVSPost2010PropOp39
 70
     1
102
RTVSPost2010Prop40
 90
        0
102
RTVSPost2010PropOp40
 70
     1
102
RTVSPost2010Prop41ColorIndex
 90
       18
102
RTVSPost2010Prop41ColorRGB
 90
        0
102
RTVSPost2010PropOp41
 70
     1
102
RTVSPost2010Prop42
 90
       50
102
RTVSPost2010PropOp42
 70
     1
102
RTVSPost2010Prop43
 90
        3
102
RTVSPost2010PropOp43
 70
     1
102
RTVSPost2010Prop44ColorIndex
 90
        5
102
RTVSPost2010Prop44ColorRGB
 90
      255
102
RTVSPost2010PropOp44
 70
     1
102
RTVSPost2010Prop45
280
     0
102
RTVSPost2010PropOp45
 70
     1
102
RTVSPost2010Prop46
 90
       50
102
RTVSPost2010PropOp46
 70
     1
102
RTVSPost2010Prop47
 90
       50
102
RTVSPost2010PropOp47
 70
     1
102
RTVSPost2010Prop48
 90
       50
102
RTVSPost2010PropOp48
 70
     1
102
RTVSPost2010Prop49
280
     0
102
RTVSPost2010PropOp49
 70
     1
102
RTVSPost2010Prop50
 90
       50
102
RTVSPost2010PropOp50
 70
     1
102
RTVSPost2010Prop51ColorIndex
 90
      256
102
RTVSPost2010Prop51ColorRGB
 90
-16777216
102
RTVSPost2010PropOp51
 70
     0
102
RTVSPost2010Prop52
140
1.0
102
RTVSPost2010PropOp52
 70
     0
102
RTVSPost2010Prop53
 90
        2
102
RTVSPost2010PropOp53
 70
     1
102
RTVSPost2010Prop54
  1
strokes_ogs.tif
102
RTVSPost2010PropOp54
 70
     1
102
RTVSPost2010Prop55
280
     0
102
RTVSPost2010PropOp55
 70
     1
102
RTVSPost2010Prop56
140
1.0
102
RTVSPost2010PropOp56
 70
     1
102
RTVSPost2010Prop57
140
1.0
102
RTVSPost2010PropOp57
 70
     1
102
RTVSPropertyOp0
 70
     1
102
RTVSPropertyOp1
 70
     1
102
RTVSPropertyOp2
 70
     1
102
RTVSPropertyOp3
 70
     1
102
RTVSPropertyOp4
 70
     1
102
RTVSPropertyOp5
 70
     1
102
RTVSPropertyOp6
 70
     1
102
RTVSPropertyOp7
 70
     1
102
RTVSPropertyOp8
 70
     1
102
RTVSPropertyOp9
 70
     1
102
RTVSPropertyOp10
 70
     1
102
RTVSPropertyOp11
 70
     1
102
RTVSPropertyOp12
 70
     1
102
RTVSPropertyOp13
 70
     1
102
RTVSPropertyOp14
 70
     1
102
RTVSPropertyOp15
 70
     1
102
RTVSPropertyOp16
 70
     1
102
RTVSPropertyOp17
 70
     1
102
RTVSPropertyOp18
 70
     1
102
RTVSPropertyOp19
 70
     1
102
RTVSPropertyOp20
 70
     1
102
RTVSPropertyOp21
 70
     1
102
RTVSPropertyOp22
 70
     1
102
RTVSPropertyOp23
 70
     1
102
RTVSPropertyOp24
 70
     1
102
RTVSPropertyOp25
 70
     1
102
RTVSPropertyOp26
 70
     1
102
RTVSPropertyOp27
 70
     1
102
RTVSPropertyOp28
 70
     1
102
RTVSPropertyOp29
 70
     1
102
RTVSPropertyOp30
 70
     1
102
RTVSPropertyOp31
 70
     1
102
RTVSPropertyOp32
 70
     1
102
RTVSPropertyOp33
 70
     1
102
RTVSPropertyOp34
 70
     1
102
RTVSPropertyOp35
 70
     1
102
RTVSPropertyOp36
 70
     1
102
RTVSPropertyOp37
 70
     1
102
RTVSPropertyOp38
 70
     1
102
RTVSPropertyOp39
 70
     1
102
RTVSPropertyOp40
 70
     1
102
RTVSPropertyOp41
 70
     1
102
RTVSPropertyOp42
 70
     1
102
RTVSPropertyOp43
 70
     1
102
RTVSPropertyOp44
 70
     1
102
RTVSPropertyOp45
 70
     1
102
RTVSPropertyOp46
 70
     1
102
RTVSPropertyOp47
 70
     1
102
RTVSPropertyOp48
 70
     1
102
RTVSPropertyOp49
 70
     1
102
RTVSPropertyOp50
 70
     1
102
RTVSPropertyOp51
 70
     0
102
RTVSPropertyOp52
 70
     0
102
RTVSPropertyOp53
 70
     1
102
RTVSPropertyOp54
 70
     1
102
RTVSPropertyOp55
 70
     1
102
RTVSPropertyOp56
 70
     1
102
RTVSPropertyOp57
 70
     1
102
RTVSPropertyOp58
 70
     1
102
RTVSPropertyOp59
 70
     1
102
RTVSPropertyOp60
 70
     1
102
RTVSPropertyOp61
 70
     1
102
RTVSPropertyOp62
 70
     1
  0
XRECORD
  5
8580
102
{ACAD_REACTORS
330
857F
102
}
330
857F
100
AcDbXrecord
280
     1
102
RTVSPost2010Prop28
280
     0
102
RTVSPost2010PropOp28
 70
     1
102
RTVSPost2010Prop29
280
     1
102
RTVSPost2010PropOp29
 70
     1
102
RTVSPost2010Prop30
280
     1
102
RTVSPost2010PropOp30
 70
     1
102
RTVSPost2010Prop31
280
     0
102
RTVSPost2010PropOp31
 70
     1
102
RTVSPost2010Prop32
280
     0
102
RTVSPost2010PropOp32
 70
     1
102
RTVSPost2010Prop33
280
     0
102
RTVSPost2010PropOp33
 70
     1
102
RTVSPost2010Prop34
280
     0
102
RTVSPost2010PropOp34
 70
     1
102
RTVSPost2010Prop35
280
     0
102
RTVSPost2010PropOp35
 70
     1
102
RTVSPost2010Prop36
280
     0
102
RTVSPost2010PropOp36
 70
     1
102
RTVSPost2010Prop37
 90
       50
102
RTVSPost2010PropOp37
 70
     1
102
RTVSPost2010Prop38
140
0.0
102
RTVSPost2010PropOp38
 70
     1
102
RTVSPost2010Prop39
140
1.0
102
RTVSPost2010PropOp39
 70
     1
102
RTVSPost2010Prop40
 90
        0
102
RTVSPost2010PropOp40
 70
     1
102
RTVSPost2010Prop41ColorIndex
 90
       18
102
RTVSPost2010Prop41ColorRGB
 90
        0
102
RTVSPost2010PropOp41
 70
     1
102
RTVSPost2010Prop42
 90
       50
102
RTVSPost2010PropOp42
 70
     1
102
RTVSPost2010Prop43
 90
        3
102
RTVSPost2010PropOp43
 70
     1
102
RTVSPost2010Prop44ColorIndex
 90
        5
102
RTVSPost2010Prop44ColorRGB
 90
      255
102
RTVSPost2010PropOp44
 70
     1
102
RTVSPost2010Prop45
280
     0
102
RTVSPost2010PropOp45
 70
     1
102
RTVSPost2010Prop46
 90
       50
102
RTVSPost2010PropOp46
 70
     1
102
RTVSPost2010Prop47
 90
       50
102
RTVSPost2010PropOp47
 70
     1
102
RTVSPost2010Prop48
 90
       50
102
RTVSPost2010PropOp48
 70
     1
102
RTVSPost2010Prop49
280
     0
102
RTVSPost2010PropOp49
 70
     1
102
RTVSPost2010Prop50
 90
       50
102
RTVSPost2010PropOp50
 70
     1
102
RTVSPost2010Prop51ColorIndex
 90
      256
102
RTVSPost2010Prop51ColorRGB
 90
-16777216
102
RTVSPost2010PropOp51
 70
     0
102
RTVSPost2010Prop52
140
1.0
102
RTVSPost2010PropOp52
 70
     0
102
RTVSPost2010Prop53
 90
        2
102
RTVSPost2010PropOp53
 70
     1
102
RTVSPost2010Prop54
  1
strokes_ogs.tif
102
RTVSPost2010PropOp54
 70
     1
102
RTVSPost2010Prop55
280
     0
102
RTVSPost2010PropOp55
 70
     1
102
RTVSPost2010Prop56
140
1.0
102
RTVSPost2010PropOp56
 70
     1
102
RTVSPost2010Prop57
140
1.0
102
RTVSPost2010PropOp57
 70
     1
102
RTVSPropertyOp0
 70
     1
102
RTVSPropertyOp1
 70
     1
102
RTVSPropertyOp2
 70
     1
102
RTVSPropertyOp3
 70
     1
102
RTVSPropertyOp4
 70
     1
102
RTVSPropertyOp5
 70
     1
102
RTVSPropertyOp6
 70
     1
102
RTVSPropertyOp7
 70
     1
102
RTVSPropertyOp8
 70
     1
102
RTVSPropertyOp9
 70
     1
102
RTVSPropertyOp10
 70
     1
102
RTVSPropertyOp11
 70
     1
102
RTVSPropertyOp12
 70
     1
102
RTVSPropertyOp13
 70
     1
102
RTVSPropertyOp14
 70
     1
102
RTVSPropertyOp15
 70
     1
102
RTVSPropertyOp16
 70
     1
102
RTVSPropertyOp17
 70
     1
102
RTVSPropertyOp18
 70
     1
102
RTVSPropertyOp19
 70
     1
102
RTVSPropertyOp20
 70
     1
102
RTVSPropertyOp21
 70
     1
102
RTVSPropertyOp22
 70
     1
102
RTVSPropertyOp23
 70
     1
102
RTVSPropertyOp24
 70
     1
102
RTVSPropertyOp25
 70
     1
102
RTVSPropertyOp26
 70
     1
102
RTVSPropertyOp27
 70
     1
102
RTVSPropertyOp28
 70
     1
102
RTVSPropertyOp29
 70
     1
102
RTVSPropertyOp30
 70
     1
102
RTVSPropertyOp31
 70
     1
102
RTVSPropertyOp32
 70
     1
102
RTVSPropertyOp33
 70
     1
102
RTVSPropertyOp34
 70
     1
102
RTVSPropertyOp35
 70
     1
102
RTVSPropertyOp36
 70
     1
102
RTVSPropertyOp37
 70
     1
102
RTVSPropertyOp38
 70
     1
102
RTVSPropertyOp39
 70
     1
102
RTVSPropertyOp40
 70
     1
102
RTVSPropertyOp41
 70
     1
102
RTVSPropertyOp42
 70
     1
102
RTVSPropertyOp43
 70
     1
102
RTVSPropertyOp44
 70
     1
102
RTVSPropertyOp45
 70
     1
102
RTVSPropertyOp46
 70
     1
102
RTVSPropertyOp47
 70
     1
102
RTVSPropertyOp48
 70
     1
102
RTVSPropertyOp49
 70
     1
102
RTVSPropertyOp50
 70
     1
102
RTVSPropertyOp51
 70
     0
102
RTVSPropertyOp52
 70
     0
102
RTVSPropertyOp53
 70
     1
102
RTVSPropertyOp54
 70
     1
102
RTVSPropertyOp55
 70
     1
102
RTVSPropertyOp56
 70
     1
102
RTVSPropertyOp57
 70
     1
102
RTVSPropertyOp58
 70
     1
102
RTVSPropertyOp59
 70
     1
102
RTVSPropertyOp60
 70
     1
102
RTVSPropertyOp61
 70
     1
102
RTVSPropertyOp62
 70
     1
  0
XRECORD
  5
8582
102
{ACAD_REACTORS
330
8581
102
}
330
8581
100
AcDbXrecord
280
     1
102
RTVSPost2010Prop28
280
     0
102
RTVSPost2010PropOp28
 70
     1
102
RTVSPost2010Prop29
280
     1
102
RTVSPost2010PropOp29
 70
     1
102
RTVSPost2010Prop30
280
     1
102
RTVSPost2010PropOp30
 70
     1
102
RTVSPost2010Prop31
280
     0
102
RTVSPost2010PropOp31
 70
     1
102
RTVSPost2010Prop32
280
     0
102
RTVSPost2010PropOp32
 70
     1
102
RTVSPost2010Prop33
280
     0
102
RTVSPost2010PropOp33
 70
     1
102
RTVSPost2010Prop34
280
     0
102
RTVSPost2010PropOp34
 70
     1
102
RTVSPost2010Prop35
280
     0
102
RTVSPost2010PropOp35
 70
     1
102
RTVSPost2010Prop36
280
     0
102
RTVSPost2010PropOp36
 70
     1
102
RTVSPost2010Prop37
 90
       50
102
RTVSPost2010PropOp37
 70
     1
102
RTVSPost2010Prop38
140
0.0
102
RTVSPost2010PropOp38
 70
     1
102
RTVSPost2010Prop39
140
1.0
102
RTVSPost2010PropOp39
 70
     1
102
RTVSPost2010Prop40
 90
        0
102
RTVSPost2010PropOp40
 70
     1
102
RTVSPost2010Prop41ColorIndex
 90
       18
102
RTVSPost2010Prop41ColorRGB
 90
        0
102
RTVSPost2010PropOp41
 70
     1
102
RTVSPost2010Prop42
 90
       50
102
RTVSPost2010PropOp42
 70
     1
102
RTVSPost2010Prop43
 90
        3
102
RTVSPost2010PropOp43
 70
     1
102
RTVSPost2010Prop44ColorIndex
 90
        5
102
RTVSPost2010Prop44ColorRGB
 90
      255
102
RTVSPost2010PropOp44
 70
     1
102
RTVSPost2010Prop45
280
     0
102
RTVSPost2010PropOp45
 70
     1
102
RTVSPost2010Prop46
 90
       50
102
RTVSPost2010PropOp46
 70
     1
102
RTVSPost2010Prop47
 90
       50
102
RTVSPost2010PropOp47
 70
     1
102
RTVSPost2010Prop48
 90
       50
102
RTVSPost2010PropOp48
 70
     1
102
RTVSPost2010Prop49
280
     0
102
RTVSPost2010PropOp49
 70
     1
102
RTVSPost2010Prop50
 90
       50
102
RTVSPost2010PropOp50
 70
     1
102
RTVSPost2010Prop51ColorIndex
 90
      256
102
RTVSPost2010Prop51ColorRGB
 90
-16777216
102
RTVSPost2010PropOp51
 70
     0
102
RTVSPost2010Prop52
140
1.0
102
RTVSPost2010PropOp52
 70
     0
102
RTVSPost2010Prop53
 90
        2
102
RTVSPost2010PropOp53
 70
     1
102
RTVSPost2010Prop54
  1
strokes_ogs.tif
102
RTVSPost2010PropOp54
 70
     1
102
RTVSPost2010Prop55
280
     0
102
RTVSPost2010PropOp55
 70
     1
102
RTVSPost2010Prop56
140
1.0
102
RTVSPost2010PropOp56
 70
     1
102
RTVSPost2010Prop57
140
1.0
102
RTVSPost2010PropOp57
 70
     1
102
RTVSPropertyOp0
 70
     1
102
RTVSPropertyOp1
 70
     1
102
RTVSPropertyOp2
 70
     1
102
RTVSPropertyOp3
 70
     1
102
RTVSPropertyOp4
 70
     1
102
RTVSPropertyOp5
 70
     1
102
RTVSPropertyOp6
 70
     1
102
RTVSPropertyOp7
 70
     1
102
RTVSPropertyOp8
 70
     1
102
RTVSPropertyOp9
 70
     1
102
RTVSPropertyOp10
 70
     1
102
RTVSPropertyOp11
 70
     1
102
RTVSPropertyOp12
 70
     1
102
RTVSPropertyOp13
 70
     1
102
RTVSPropertyOp14
 70
     1
102
RTVSPropertyOp15
 70
     1
102
RTVSPropertyOp16
 70
     1
102
RTVSPropertyOp17
 70
     1
102
RTVSPropertyOp18
 70
     1
102
RTVSPropertyOp19
 70
     1
102
RTVSPropertyOp20
 70
     1
102
RTVSPropertyOp21
 70
     1
102
RTVSPropertyOp22
 70
     1
102
RTVSPropertyOp23
 70
     1
102
RTVSPropertyOp24
 70
     1
102
RTVSPropertyOp25
 70
     1
102
RTVSPropertyOp26
 70
     1
102
RTVSPropertyOp27
 70
     1
102
RTVSPropertyOp28
 70
     1
102
RTVSPropertyOp29
 70
     1
102
RTVSPropertyOp30
 70
     1
102
RTVSPropertyOp31
 70
     1
102
RTVSPropertyOp32
 70
     1
102
RTVSPropertyOp33
 70
     1
102
RTVSPropertyOp34
 70
     1
102
RTVSPropertyOp35
 70
     1
102
RTVSPropertyOp36
 70
     1
102
RTVSPropertyOp37
 70
     1
102
RTVSPropertyOp38
 70
     1
102
RTVSPropertyOp39
 70
     1
102
RTVSPropertyOp40
 70
     1
102
RTVSPropertyOp41
 70
     1
102
RTVSPropertyOp42
 70
     1
102
RTVSPropertyOp43
 70
     1
102
RTVSPropertyOp44
 70
     1
102
RTVSPropertyOp45
 70
     1
102
RTVSPropertyOp46
 70
     1
102
RTVSPropertyOp47
 70
     1
102
RTVSPropertyOp48
 70
     1
102
RTVSPropertyOp49
 70
     1
102
RTVSPropertyOp50
 70
     1
102
RTVSPropertyOp51
 70
     0
102
RTVSPropertyOp52
 70
     0
102
RTVSPropertyOp53
 70
     1
102
RTVSPropertyOp54
 70
     1
102
RTVSPropertyOp55
 70
     1
102
RTVSPropertyOp56
 70
     1
102
RTVSPropertyOp57
 70
     1
102
RTVSPropertyOp58
 70
     1
102
RTVSPropertyOp59
 70
     1
102
RTVSPropertyOp60
 70
     1
102
RTVSPropertyOp61
 70
     1
102
RTVSPropertyOp62
 70
     1
  0
XRECORD
  5
8578
102
{ACAD_REACTORS
330
8577
102
}
330
8577
100
AcDbXrecord
280
     1
102
RTVSPost2010Prop28
280
     0
102
RTVSPost2010PropOp28
 70
     1
102
RTVSPost2010Prop29
280
     1
102
RTVSPost2010PropOp29
 70
     1
102
RTVSPost2010Prop30
280
     1
102
RTVSPost2010PropOp30
 70
     1
102
RTVSPost2010Prop31
280
     0
102
RTVSPost2010PropOp31
 70
     1
102
RTVSPost2010Prop32
280
     0
102
RTVSPost2010PropOp32
 70
     1
102
RTVSPost2010Prop33
280
     0
102
RTVSPost2010PropOp33
 70
     1
102
RTVSPost2010Prop34
280
     0
102
RTVSPost2010PropOp34
 70
     1
102
RTVSPost2010Prop35
280
     0
102
RTVSPost2010PropOp35
 70
     1
102
RTVSPost2010Prop36
280
     0
102
RTVSPost2010PropOp36
 70
     1
102
RTVSPost2010Prop37
 90
       50
102
RTVSPost2010PropOp37
 70
     1
102
RTVSPost2010Prop38
140
0.0
102
RTVSPost2010PropOp38
 70
     1
102
RTVSPost2010Prop39
140
1.0
102
RTVSPost2010PropOp39
 70
     1
102
RTVSPost2010Prop40
 90
        0
102
RTVSPost2010PropOp40
 70
     1
102
RTVSPost2010Prop41ColorIndex
 90
       18
102
RTVSPost2010Prop41ColorRGB
 90
        0
102
RTVSPost2010PropOp41
 70
     1
102
RTVSPost2010Prop42
 90
       50
102
RTVSPost2010PropOp42
 70
     1
102
RTVSPost2010Prop43
 90
        3
102
RTVSPost2010PropOp43
 70
     1
102
RTVSPost2010Prop44ColorIndex
 90
        5
102
RTVSPost2010Prop44ColorRGB
 90
      255
102
RTVSPost2010PropOp44
 70
     1
102
RTVSPost2010Prop45
280
     0
102
RTVSPost2010PropOp45
 70
     1
102
RTVSPost2010Prop46
 90
       50
102
RTVSPost2010PropOp46
 70
     1
102
RTVSPost2010Prop47
 90
       50
102
RTVSPost2010PropOp47
 70
     1
102
RTVSPost2010Prop48
 90
       50
102
RTVSPost2010PropOp48
 70
     1
102
RTVSPost2010Prop49
280
     0
102
RTVSPost2010PropOp49
 70
     1
102
RTVSPost2010Prop50
 90
       50
102
RTVSPost2010PropOp50
 70
     1
102
RTVSPost2010Prop51ColorIndex
 90
      256
102
RTVSPost2010Prop51ColorRGB
 90
-16777216
102
RTVSPost2010PropOp51
 70
     0
102
RTVSPost2010Prop52
140
1.0
102
RTVSPost2010PropOp52
 70
     0
102
RTVSPost2010Prop53
 90
        2
102
RTVSPost2010PropOp53
 70
     1
102
RTVSPost2010Prop54
  1
strokes_ogs.tif
102
RTVSPost2010PropOp54
 70
     1
102
RTVSPost2010Prop55
280
     0
102
RTVSPost2010PropOp55
 70
     1
102
RTVSPost2010Prop56
140
1.0
102
RTVSPost2010PropOp56
 70
     1
102
RTVSPost2010Prop57
140
1.0
102
RTVSPost2010PropOp57
 70
     1
102
RTVSPropertyOp0
 70
     1
102
RTVSPropertyOp1
 70
     1
102
RTVSPropertyOp2
 70
     1
102
RTVSPropertyOp3
 70
     1
102
RTVSPropertyOp4
 70
     1
102
RTVSPropertyOp5
 70
     1
102
RTVSPropertyOp6
 70
     1
102
RTVSPropertyOp7
 70
     1
102
RTVSPropertyOp8
 70
     1
102
RTVSPropertyOp9
 70
     1
102
RTVSPropertyOp10
 70
     1
102
RTVSPropertyOp11
 70
     1
102
RTVSPropertyOp12
 70
     1
102
RTVSPropertyOp13
 70
     1
102
RTVSPropertyOp14
 70
     1
102
RTVSPropertyOp15
 70
     1
102
RTVSPropertyOp16
 70
     1
102
RTVSPropertyOp17
 70
     1
102
RTVSPropertyOp18
 70
     1
102
RTVSPropertyOp19
 70
     1
102
RTVSPropertyOp20
 70
     1
102
RTVSPropertyOp21
 70
     1
102
RTVSPropertyOp22
 70
     1
102
RTVSPropertyOp23
 70
     1
102
RTVSPropertyOp24
 70
     1
102
RTVSPropertyOp25
 70
     1
102
RTVSPropertyOp26
 70
     1
102
RTVSPropertyOp27
 70
     1
102
RTVSPropertyOp28
 70
     1
102
RTVSPropertyOp29
 70
     1
102
RTVSPropertyOp30
 70
     1
102
RTVSPropertyOp31
 70
     1
102
RTVSPropertyOp32
 70
     1
102
RTVSPropertyOp33
 70
     1
102
RTVSPropertyOp34
 70
     1
102
RTVSPropertyOp35
 70
     1
102
RTVSPropertyOp36
 70
     1
102
RTVSPropertyOp37
 70
     1
102
RTVSPropertyOp38
 70
     1
102
RTVSPropertyOp39
 70
     1
102
RTVSPropertyOp40
 70
     1
102
RTVSPropertyOp41
 70
     1
102
RTVSPropertyOp42
 70
     1
102
RTVSPropertyOp43
 70
     1
102
RTVSPropertyOp44
 70
     1
102
RTVSPropertyOp45
 70
     1
102
RTVSPropertyOp46
 70
     1
102
RTVSPropertyOp47
 70
     1
102
RTVSPropertyOp48
 70
     1
102
RTVSPropertyOp49
 70
     1
102
RTVSPropertyOp50
 70
     1
102
RTVSPropertyOp51
 70
     0
102
RTVSPropertyOp52
 70
     0
102
RTVSPropertyOp53
 70
     1
102
RTVSPropertyOp54
 70
     1
102
RTVSPropertyOp55
 70
     1
102
RTVSPropertyOp56
 70
     1
102
RTVSPropertyOp57
 70
     1
102
RTVSPropertyOp58
 70
     1
102
RTVSPropertyOp59
 70
     1
102
RTVSPropertyOp60
 70
     1
102
RTVSPropertyOp61
 70
     1
102
RTVSPropertyOp62
 70
     1
  0
XRECORD
  5
856C
102
{ACAD_REACTORS
330
856B
102
}
330
856B
100
AcDbXrecord
280
     1
102
RTVSPost2010Prop28
280
     0
102
RTVSPost2010PropOp28
 70
     1
102
RTVSPost2010Prop29
280
     1
102
RTVSPost2010PropOp29
 70
     1
102
RTVSPost2010Prop30
280
     1
102
RTVSPost2010PropOp30
 70
     1
102
RTVSPost2010Prop31
280
     0
102
RTVSPost2010PropOp31
 70
     1
102
RTVSPost2010Prop32
280
     0
102
RTVSPost2010PropOp32
 70
     1
102
RTVSPost2010Prop33
280
     0
102
RTVSPost2010PropOp33
 70
     1
102
RTVSPost2010Prop34
280
     0
102
RTVSPost2010PropOp34
 70
     1
102
RTVSPost2010Prop35
280
     0
102
RTVSPost2010PropOp35
 70
     1
102
RTVSPost2010Prop36
280
     0
102
RTVSPost2010PropOp36
 70
     1
102
RTVSPost2010Prop37
 90
       50
102
RTVSPost2010PropOp37
 70
     1
102
RTVSPost2010Prop38
140
0.0
102
RTVSPost2010PropOp38
 70
     1
102
RTVSPost2010Prop39
140
1.0
102
RTVSPost2010PropOp39
 70
     1
102
RTVSPost2010Prop40
 90
        0
102
RTVSPost2010PropOp40
 70
     1
102
RTVSPost2010Prop41ColorIndex
 90
       18
102
RTVSPost2010Prop41ColorRGB
 90
        0
102
RTVSPost2010PropOp41
 70
     1
102
RTVSPost2010Prop42
 90
       50
102
RTVSPost2010PropOp42
 70
     1
102
RTVSPost2010Prop43
 90
        3
102
RTVSPost2010PropOp43
 70
     1
102
RTVSPost2010Prop44ColorIndex
 90
        5
102
RTVSPost2010Prop44ColorRGB
 90
      255
102
RTVSPost2010PropOp44
 70
     1
102
RTVSPost2010Prop45
280
     0
102
RTVSPost2010PropOp45
 70
     1
102
RTVSPost2010Prop46
 90
       50
102
RTVSPost2010PropOp46
 70
     1
102
RTVSPost2010Prop47
 90
       50
102
RTVSPost2010PropOp47
 70
     1
102
RTVSPost2010Prop48
 90
       50
102
RTVSPost2010PropOp48
 70
     1
102
RTVSPost2010Prop49
280
     0
102
RTVSPost2010PropOp49
 70
     1
102
RTVSPost2010Prop50
 90
       50
102
RTVSPost2010PropOp50
 70
     1
102
RTVSPost2010Prop51ColorIndex
 90
      256
102
RTVSPost2010Prop51ColorRGB
 90
-16777216
102
RTVSPost2010PropOp51
 70
     0
102
RTVSPost2010Prop52
140
1.0
102
RTVSPost2010PropOp52
 70
     0
102
RTVSPost2010Prop53
 90
        2
102
RTVSPost2010PropOp53
 70
     1
102
RTVSPost2010Prop54
  1
strokes_ogs.tif
102
RTVSPost2010PropOp54
 70
     1
102
RTVSPost2010Prop55
280
     0
102
RTVSPost2010PropOp55
 70
     1
102
RTVSPost2010Prop56
140
1.0
102
RTVSPost2010PropOp56
 70
     1
102
RTVSPost2010Prop57
140
1.0
102
RTVSPost2010PropOp57
 70
     1
102
RTVSPropertyOp0
 70
     1
102
RTVSPropertyOp1
 70
     1
102
RTVSPropertyOp2
 70
     1
102
RTVSPropertyOp3
 70
     1
102
RTVSPropertyOp4
 70
     1
102
RTVSPropertyOp5
 70
     1
102
RTVSPropertyOp6
 70
     1
102
RTVSPropertyOp7
 70
     1
102
RTVSPropertyOp8
 70
     1
102
RTVSPropertyOp9
 70
     1
102
RTVSPropertyOp10
 70
     1
102
RTVSPropertyOp11
 70
     1
102
RTVSPropertyOp12
 70
     1
102
RTVSPropertyOp13
 70
     1
102
RTVSPropertyOp14
 70
     1
102
RTVSPropertyOp15
 70
     1
102
RTVSPropertyOp16
 70
     1
102
RTVSPropertyOp17
 70
     1
102
RTVSPropertyOp18
 70
     1
102
RTVSPropertyOp19
 70
     1
102
RTVSPropertyOp20
 70
     1
102
RTVSPropertyOp21
 70
     1
102
RTVSPropertyOp22
 70
     1
102
RTVSPropertyOp23
 70
     1
102
RTVSPropertyOp24
 70
     1
102
RTVSPropertyOp25
 70
     1
102
RTVSPropertyOp26
 70
     1
102
RTVSPropertyOp27
 70
     1
102
RTVSPropertyOp28
 70
     1
102
RTVSPropertyOp29
 70
     1
102
RTVSPropertyOp30
 70
     1
102
RTVSPropertyOp31
 70
     1
102
RTVSPropertyOp32
 70
     1
102
RTVSPropertyOp33
 70
     1
102
RTVSPropertyOp34
 70
     1
102
RTVSPropertyOp35
 70
     1
102
RTVSPropertyOp36
 70
     1
102
RTVSPropertyOp37
 70
     1
102
RTVSPropertyOp38
 70
     1
102
RTVSPropertyOp39
 70
     1
102
RTVSPropertyOp40
 70
     1
102
RTVSPropertyOp41
 70
     1
102
RTVSPropertyOp42
 70
     1
102
RTVSPropertyOp43
 70
     1
102
RTVSPropertyOp44
 70
     1
102
RTVSPropertyOp45
 70
     1
102
RTVSPropertyOp46
 70
     1
102
RTVSPropertyOp47
 70
     1
102
RTVSPropertyOp48
 70
     1
102
RTVSPropertyOp49
 70
     1
102
RTVSPropertyOp50
 70
     1
102
RTVSPropertyOp51
 70
     0
102
RTVSPropertyOp52
 70
     0
102
RTVSPropertyOp53
 70
     1
102
RTVSPropertyOp54
 70
     1
102
RTVSPropertyOp55
 70
     1
102
RTVSPropertyOp56
 70
     1
102
RTVSPropertyOp57
 70
     1
102
RTVSPropertyOp58
 70
     1
102
RTVSPropertyOp59
 70
     1
102
RTVSPropertyOp60
 70
     1
102
RTVSPropertyOp61
 70
     1
102
RTVSPropertyOp62
 70
     1
  0
XRECORD
  5
8584
102
{ACAD_REACTORS
330
8583
102
}
330
8583
100
AcDbXrecord
280
     1
102
RTVSPost2010Prop28
280
     0
102
RTVSPost2010PropOp28
 70
     1
102
RTVSPost2010Prop29
280
     1
102
RTVSPost2010PropOp29
 70
     1
102
RTVSPost2010Prop30
280
     1
102
RTVSPost2010PropOp30
 70
     1
102
RTVSPost2010Prop31
280
     0
102
RTVSPost2010PropOp31
 70
     1
102
RTVSPost2010Prop32
280
     0
102
RTVSPost2010PropOp32
 70
     1
102
RTVSPost2010Prop33
280
     0
102
RTVSPost2010PropOp33
 70
     1
102
RTVSPost2010Prop34
280
     0
102
RTVSPost2010PropOp34
 70
     1
102
RTVSPost2010Prop35
280
     0
102
RTVSPost2010PropOp35
 70
     1
102
RTVSPost2010Prop36
280
     0
102
RTVSPost2010PropOp36
 70
     1
102
RTVSPost2010Prop37
 90
       50
102
RTVSPost2010PropOp37
 70
     1
102
RTVSPost2010Prop38
140
0.0
102
RTVSPost2010PropOp38
 70
     1
102
RTVSPost2010Prop39
140
1.0
102
RTVSPost2010PropOp39
 70
     1
102
RTVSPost2010Prop40
 90
        0
102
RTVSPost2010PropOp40
 70
     1
102
RTVSPost2010Prop41ColorIndex
 90
       18
102
RTVSPost2010Prop41ColorRGB
 90
        0
102
RTVSPost2010PropOp41
 70
     1
102
RTVSPost2010Prop42
 90
       50
102
RTVSPost2010PropOp42
 70
     1
102
RTVSPost2010Prop43
 90
        3
102
RTVSPost2010PropOp43
 70
     1
102
RTVSPost2010Prop44ColorIndex
 90
        5
102
RTVSPost2010Prop44ColorRGB
 90
      255
102
RTVSPost2010PropOp44
 70
     1
102
RTVSPost2010Prop45
280
     0
102
RTVSPost2010PropOp45
 70
     1
102
RTVSPost2010Prop46
 90
       50
102
RTVSPost2010PropOp46
 70
     1
102
RTVSPost2010Prop47
 90
       50
102
RTVSPost2010PropOp47
 70
     1
102
RTVSPost2010Prop48
 90
       50
102
RTVSPost2010PropOp48
 70
     1
102
RTVSPost2010Prop49
280
     0
102
RTVSPost2010PropOp49
 70
     1
102
RTVSPost2010Prop50
 90
       50
102
RTVSPost2010PropOp50
 70
     1
102
RTVSPost2010Prop51ColorIndex
 90
      256
102
RTVSPost2010Prop51ColorRGB
 90
-16777216
102
RTVSPost2010PropOp51
 70
     0
102
RTVSPost2010Prop52
140
1.0
102
RTVSPost2010PropOp52
 70
     0
102
RTVSPost2010Prop53
 90
        2
102
RTVSPost2010PropOp53
 70
     1
102
RTVSPost2010Prop54
  1
strokes_ogs.tif
102
RTVSPost2010PropOp54
 70
     1
102
RTVSPost2010Prop55
280
     0
102
RTVSPost2010PropOp55
 70
     1
102
RTVSPost2010Prop56
140
1.0
102
RTVSPost2010PropOp56
 70
     1
102
RTVSPost2010Prop57
140
1.0
102
RTVSPost2010PropOp57
 70
     1
102
RTVSPropertyOp0
 70
     1
102
RTVSPropertyOp1
 70
     1
102
RTVSPropertyOp2
 70
     1
102
RTVSPropertyOp3
 70
     1
102
RTVSPropertyOp4
 70
     1
102
RTVSPropertyOp5
 70
     1
102
RTVSPropertyOp6
 70
     1
102
RTVSPropertyOp7
 70
     1
102
RTVSPropertyOp8
 70
     1
102
RTVSPropertyOp9
 70
     1
102
RTVSPropertyOp10
 70
     1
102
RTVSPropertyOp11
 70
     1
102
RTVSPropertyOp12
 70
     1
102
RTVSPropertyOp13
 70
     1
102
RTVSPropertyOp14
 70
     1
102
RTVSPropertyOp15
 70
     1
102
RTVSPropertyOp16
 70
     1
102
RTVSPropertyOp17
 70
     1
102
RTVSPropertyOp18
 70
     1
102
RTVSPropertyOp19
 70
     1
102
RTVSPropertyOp20
 70
     1
102
RTVSPropertyOp21
 70
     1
102
RTVSPropertyOp22
 70
     1
102
RTVSPropertyOp23
 70
     1
102
RTVSPropertyOp24
 70
     1
102
RTVSPropertyOp25
 70
     1
102
RTVSPropertyOp26
 70
     1
102
RTVSPropertyOp27
 70
     1
102
RTVSPropertyOp28
 70
     1
102
RTVSPropertyOp29
 70
     1
102
RTVSPropertyOp30
 70
     1
102
RTVSPropertyOp31
 70
     1
102
RTVSPropertyOp32
 70
     1
102
RTVSPropertyOp33
 70
     1
102
RTVSPropertyOp34
 70
     1
102
RTVSPropertyOp35
 70
     1
102
RTVSPropertyOp36
 70
     1
102
RTVSPropertyOp37
 70
     1
102
RTVSPropertyOp38
 70
     1
102
RTVSPropertyOp39
 70
     1
102
RTVSPropertyOp40
 70
     1
102
RTVSPropertyOp41
 70
     1
102
RTVSPropertyOp42
 70
     1
102
RTVSPropertyOp43
 70
     1
102
RTVSPropertyOp44
 70
     1
102
RTVSPropertyOp45
 70
     1
102
RTVSPropertyOp46
 70
     1
102
RTVSPropertyOp47
 70
     1
102
RTVSPropertyOp48
 70
     1
102
RTVSPropertyOp49
 70
     1
102
RTVSPropertyOp50
 70
     1
102
RTVSPropertyOp51
 70
     0
102
RTVSPropertyOp52
 70
     0
102
RTVSPropertyOp53
 70
     1
102
RTVSPropertyOp54
 70
     1
102
RTVSPropertyOp55
 70
     1
102
RTVSPropertyOp56
 70
     1
102
RTVSPropertyOp57
 70
     1
102
RTVSPropertyOp58
 70
     1
102
RTVSPropertyOp59
 70
     1
102
RTVSPropertyOp60
 70
     1
102
RTVSPropertyOp61
 70
     1
102
RTVSPropertyOp62
 70
     1
  0
ENDSEC
  0
EOF
