  0
SECTION
  2
HEADER
  9
$ACADVER
  1
AC1015
  9
$ACADMAINTVER
 70
    20
  9
$DWGCODEPAGE
  3
ANSI_932
  9
$INSBASE
 10
0.0
 20
0.0
 30
0.0
  9
$EXTMIN
 10
-0.1602050617329951
 20
-0.22504996767384
 30
-0.0015258207003583
  9
$EXTMAX
 10
5250.160229508953
 20
7375.225084310193
 30
0.0000000349246037
  9
$LIMMIN
 10
0.0
 20
0.0
  9
$LIMMAX
 10
297.0
 20
210.0
  9
$ORTHOMODE
 70
     1
  9
$REGENMODE
 70
     1
  9
$FILLMODE
 70
     0
  9
$QTEXTMODE
 70
     0
  9
$MIRRTEXT
 70
     1
  9
$LTSCALE
 40
100.0
  9
$ATTMODE
 70
     1
  9
$TEXTSIZE
 40
180.0
  9
$TRACEWID
 40
0.05
  9
$TEXTSTYLE
  7
STANDARD
  9
$CLAYER
  8
3
  9
$CELTYPE
  6
ByLayer
  9
$CECOLOR
 62
   256
  9
$CELTSCALE
 40
1.0
  9
$DISPSILH
 70
     0
  9
$DIMSCALE
 40
25.0
  9
$DIMASZ
 40
2.0
  9
$DIMEXO
 40
1.0
  9
$DIMDLI
 40
10.0
  9
$DIMRND
 40
0.0
  9
$DIMDLE
 40
0.0
  9
$DIMEXE
 40
1.0
  9
$DIMTP
 40
1.0
  9
$DIMTM
 40
1.0
  9
$DIMTXT
 40
3.0
  9
$DIMCEN
 40
0.0
  9
$DIMTSZ
 40
0.0
  9
$DIMTOL
 70
     0
  9
$DIMLIM
 70
     0
  9
$DIMTIH
 70
     0
  9
$DIMTOH
 70
     0
  9
$DIMSE1
 70
     0
  9
$DIMSE2
 70
     0
  9
$DIMTAD
 70
     1
  9
$DIMZIN
 70
     8
  9
$DIMBLK
  1

  9
$DIMASO
 70
     1
  9
$DIMSHO
 70
     1
  9
$DIMPOST
  1

  9
$DIMAPOST
  1

  9
$DIMALT
 70
     0
  9
$DIMALTD
 70
     2
  9
$DIMALTF
 40
0.039
  9
$DIMLFAC
 40
1.0
  9
$DIMTOFL
 70
     1
  9
$DIMTVP
 40
0.0
  9
$DIMTIX
 70
     0
  9
$DIMSOXD
 70
     0
  9
$DIMSAH
 70
     1
  9
$DIMBLK1
  1
OPEN
  9
$DIMBLK2
  1
OPEN
  9
$DIMSTYLE
  2
IGA
  9
$DIMCLRD
 70
     0
  9
$DIMCLRE
 70
     0
  9
$DIMCLRT
 70
     0
  9
$DIMTFAC
 40
10.0
  9
$DIMGAP
 40
1.0
  9
$DIMJUST
 70
     0
  9
$DIMSD1
 70
     0
  9
$DIMSD2
 70
     0
  9
$DIMTOLJ
 70
     1
  9
$DIMTZIN
 70
     0
  9
$DIMALTZ
 70
     0
  9
$DIMALTTZ
 70
     0
  9
$DIMUPT
 70
     0
  9
$DIMDEC
 70
     4
  9
$DIMTDEC
 70
     4
  9
$DIMALTU
 70
     2
  9
$DIMALTTD
 70
     2
  9
$DIMTXSTY
  7
STANDARD
  9
$DIMAUNIT
 70
     0
  9
$DIMADEC
 70
     0
  9
$DIMALTRND
 40
0.0
  9
$DIMAZIN
 70
     0
  9
$DIMDSEP
 70
    46
  9
$DIMATFIT
 70
     3
  9
$DIMFRAC
 70
     0
  9
$DIMLDRBLK
  1
OPEN
  9
$DIMLUNIT
 70
     2
  9
$DIMLWD
 70
    -2
  9
$DIMLWE
 70
    -2
  9
$DIMTMOVE
 70
     0
  9
$LUNITS
 70
     2
  9
$LUPREC
 70
     3
  9
$SKETCHINC
 40
0.1
  9
$FILLETRAD
 40
50.0
  9
$AUNITS
 70
     0
  9
$AUPREC
 70
     0
  9
$MENU
  1
acad
  9
$ELEVATION
 40
0.0
  9
$PELEVATION
 40
0.0
  9
$THICKNESS
 40
0.0
  9
$LIMCHECK
 70
     0
  9
$CHAMFERA
 40
0.5
  9
$CHAMFERB
 40
0.5
  9
$CHAMFERC
 40
0.0
  9
$CHAMFERD
 40
0.0
  9
$SKPOLY
 70
     0
  9
$TDCREATE
 40
2451387.592638426
  9
$TDUCREATE
 40
2451387.217638426
  9
$TDUPDATE
 40
2460263.707812535
  9
$TDUUPDATE
 40
2460263.332812535
  9
$TDINDWG
 40
0.0297718519
  9
$TDUSRTIMER
 40
0.0297718519
  9
$USRTIMER
 70
     1
  9
$ANGBASE
 50
0.0
  9
$ANGDIR
 70
     0
  9
$PDMODE
 70
     0
  9
$PDSIZE
 40
0.0
  9
$PLINEWID
 40
0.0
  9
$SPLFRAME
 70
     0
  9
$SPLINETYPE
 70
     6
  9
$SPLINESEGS
 70
     8
  9
$HANDSEED
  5
8570
  9
$SURFTAB1
 70
     6
  9
$SURFTAB2
 70
     6
  9
$SURFTYPE
 70
     6
  9
$SURFU
 70
     6
  9
$SURFV
 70
     6
  9
$UCSBASE
  2

  9
$UCSNAME
  2

  9
$UCSORG
 10
0.0
 20
0.0
 30
0.0
  9
$UCSXDIR
 10
1.0
 20
0.0
 30
0.0
  9
$UCSYDIR
 10
0.0
 20
1.0
 30
0.0
  9
$UCSORTHOREF
  2

  9
$UCSORTHOVIEW
 70
     0
  9
$UCSORGTOP
 10
0.0
 20
0.0
 30
0.0
  9
$UCSORGBOTTOM
 10
0.0
 20
0.0
 30
0.0
  9
$UCSORGLEFT
 10
0.0
 20
0.0
 30
0.0
  9
$UCSORGRIGHT
 10
0.0
 20
0.0
 30
0.0
  9
$UCSORGFRONT
 10
0.0
 20
0.0
 30
0.0
  9
$UCSORGBACK
 10
0.0
 20
0.0
 30
0.0
  9
$PUCSBASE
  2

  9
$PUCSNAME
  2

  9
$PUCSORG
 10
0.0
 20
0.0
 30
0.0
  9
$PUCSXDIR
 10
1.0
 20
0.0
 30
0.0
  9
$PUCSYDIR
 10
0.0
 20
1.0
 30
0.0
  9
$PUCSORTHOREF
  2

  9
$PUCSORTHOVIEW
 70
     0
  9
$PUCSORGTOP
 10
0.0
 20
0.0
 30
0.0
  9
$PUCSORGBOTTOM
 10
0.0
 20
0.0
 30
0.0
  9
$PUCSORGLEFT
 10
0.0
 20
0.0
 30
0.0
  9
$PUCSORGRIGHT
 10
0.0
 20
0.0
 30
0.0
  9
$PUCSORGFRONT
 10
0.0
 20
0.0
 30
0.0
  9
$PUCSORGBACK
 10
0.0
 20
0.0
 30
0.0
  9
$USERI1
 70
     0
  9
$USERI2
 70
     0
  9
$USERI3
 70
     0
  9
$USERI4
 70
     0
  9
$USERI5
 70
     0
  9
$USERR1
 40
0.0
  9
$USERR2
 40
0.0
  9
$USERR3
 40
0.0
  9
$USERR4
 40
0.0
  9
$USERR5
 40
0.0
  9
$WORLDVIEW
 70
     1
  9
$SHADEDGE
 70
     3
  9
$SHADEDIF
 70
    70
  9
$TILEMODE
 70
     1
  9
$MAXACTVP
 70
    16
  9
$PINSBASE
 10
0.0
 20
0.0
 30
0.0
  9
$PLIMCHECK
 70
     0
  9
$PEXTMIN
 10
1.000000000000000E+20
 20
1.000000000000000E+20
 30
1.000000000000000E+20
  9
$PEXTMAX
 10
-1.000000000000000E+20
 20
-1.000000000000000E+20
 30
-1.000000000000000E+20
  9
$PLIMMIN
 10
0.0
 20
0.0
  9
$PLIMMAX
 10
12.0
 20
9.0
  9
$UNITMODE
 70
     0
  9
$VISRETAIN
 70
     0
  9
$PLINEGEN
 70
     0
  9
$PSLTSCALE
 70
     1
  9
$TREEDEPTH
 70
  3020
  9
$CMLSTYLE
  2
Standard
  9
$CMLJUST
 70
     0
  9
$CMLSCALE
 40
1.0
  9
$PROXYGRAPHICS
 70
     1
  9
$MEASUREMENT
 70
     0
  9
$CELWEIGHT
370
    -1
  9
$ENDCAPS
280
     0
  9
$JOINSTYLE
280
     0
  9
$LWDISPLAY
290
     0
  9
$INSUNITS
 70
     0
  9
$HYPERLINKBASE
  1

  9
$STYLESHEET
  1

  9
$XEDIT
290
     1
  9
$CEPSNTYPE
380
     0
  9
$PSTYLEMODE
290
     1
  9
$FINGERPRINTGUID
  2
{520ACF99-7114-4BBC-8EC0-6A5E19A16159}
  9
$VERSIONGUID
  2
{E88347B9-EF86-4D70-9413-35E130CE0630}
  9
$EXTNAMES
290
     1
  9
$PSVPSCALE
 40
0.0
  9
$OLESTARTUP
290
     0
  0
ENDSEC
  0
SECTION
  2
CLASSES
  0
CLASS
  1
ACDBDICTIONARYWDFLT
  2
AcDbDictionaryWithDefault
  3
ObjectDBX Classes
 90
        0
280
     0
281
     0
  0
CLASS
  1
MATERIAL
  2
AcDbMaterial
  3
ObjectDBX Classes
 90
     1153
280
     0
281
     0
  0
CLASS
  1
VISUALSTYLE
  2
AcDbVisualStyle
  3
ObjectDBX Classes
 90
     4095
280
     0
281
     0
  0
CLASS
  1
SCALE
  2
AcDbScale
  3
ObjectDBX Classes
 90
     1153
280
     0
281
     0
  0
CLASS
  1
TABLESTYLE
  2
AcDbTableStyle
  3
ObjectDBX Classes
 90
     4095
280
     0
281
     0
  0
CLASS
  1
MLEADERSTYLE
  2
AcDbMLeaderStyle
  3
ACDB_MLEADERSTYLE_CLASS
 90
     4095
280
     0
281
     0
  0
CLASS
  1
ACDBSECTIONVIEWSTYLE
  2
AcDbSectionViewStyle
  3
ObjectDBX Classes
 90
     1025
280
     0
281
     0
  0
CLASS
  1
ACDBDETAILVIEWSTYLE
  2
AcDbDetailViewStyle
  3
ObjectDBX Classes
 90
     1025
280
     0
281
     0
  0
CLASS
  1
DICTIONARYVAR
  2
AcDbDictionaryVar
  3
ObjectDBX Classes
 90
        0
280
     0
281
     0
  0
CLASS
  1
CELLSTYLEMAP
  2
AcDbCellStyleMap
  3
ObjectDBX Classes
 90
     1152
280
     0
281
     0
  0
CLASS
  1
ACDBPLACEHOLDER
  2
AcDbPlaceHolder
  3
ObjectDBX Classes
 90
        0
280
     0
281
     0
  0
CLASS
  1
LAYOUT
  2
AcDbLayout
  3
ObjectDBX Classes
 90
        0
280
     0
281
     0
  0
ENDSEC
  0
SECTION
  2
TABLES
  0
TABLE
  2
VPORT
  5
8136
330
0
100
AcDbSymbolTable
 70
     1
  0
VPORT
  5
81A2
330
8136
100
AcDbSymbolTableRecord
100
AcDbViewportTableRecord
  2
*ACTIVE
 70
     0
 10
0.0
 20
0.0
 11
1.0
 21
1.0
 12
2625.00001222361
 22
3687.500017171259
 13
0.0
 23
0.0
 14
10.0
 24
10.0
 15
10.0
 25
10.0
 16
0.0
 26
0.0
 36
1.0
 17
0.0
 27
0.0
 37
0.0
 40
7424.125809773068
 41
2.050213675213675
 42
50.0
 43
0.0
 44
0.0
 50
0.0
 51
0.0
 71
     0
 72
   100
 73
     1
 74
     0
 75
     0
 76
     0
 77
     0
 78
     0
281
     0
 65
     1
110
0.0
120
0.0
130
0.0
111
1.0
121
0.0
131
0.0
112
0.0
122
1.0
132
0.0
 79
     0
146
0.0
1001
ACAD_NAV_VCDISPLAY
1070
     3
  0
ENDTAB
  0
TABLE
  2
LTYPE
  5
8133
330
0
100
AcDbSymbolTable
 70
     4
  0
LTYPE
  5
8188
330
8133
100
AcDbSymbolTableRecord
100
AcDbLinetypeTableRecord
  2
ByBlock
 70
     0
  3

 72
    65
 73
     0
 40
0.0
  0
LTYPE
  5
8189
330
8133
100
AcDbSymbolTableRecord
100
AcDbLinetypeTableRecord
  2
ByLayer
 70
     0
  3

 72
    65
 73
     0
 40
0.0
  0
LTYPE
  5
818A
330
8133
100
AcDbSymbolTableRecord
100
AcDbLinetypeTableRecord
  2
CONTINUOUS
 70
     0
  3
Solid line
 72
    65
 73
     0
 40
0.0
  0
LTYPE
  5
81A3
330
8133
100
AcDbSymbolTableRecord
100
AcDbLinetypeTableRecord
  2
CENTER
 70
     0
  3
____ _ ____ _ ____ _ ____ _ ____ _ ____ _ ____ 
 72
    65
 73
     4
 40
2.0
 49
1.25
 74
     0
 49
-0.25
 74
     0
 49
0.25
 74
     0
 49
-0.25
 74
     0
  0
ENDTAB
  0
TABLE
  2
LAYER
  5
8130
102
{ACAD_XDICTIONARY
360
823E
102
}
330
0
100
AcDbSymbolTable
 70
     6
  0
LAYER
  5
8182
102
{ACAD_XDICTIONARY
360
81E8
102
}
330
8130
100
AcDbSymbolTableRecord
100
AcDbLayerTableRecord
  2
0
 70
     0
 62
     7
  6
CONTINUOUS
370
    -3
390
813D
  0
LAYER
  5
81A1
102
{ACAD_XDICTIONARY
360
81EA
102
}
330
8130
100
AcDbSymbolTableRecord
100
AcDbLayerTableRecord
  2
3
 70
     0
 62
     2
  6
CONTINUOUS
370
    -3
390
813D
  0
LAYER
  5
81A4
102
{ACAD_XDICTIONARY
360
81EC
102
}
330
8130
100
AcDbSymbolTableRecord
100
AcDbLayerTableRecord
  2
2
 70
     0
 62
     3
  6
CENTER
370
    -3
390
813D
  0
LAYER
  5
81A5
102
{ACAD_XDICTIONARY
360
81EE
102
}
330
8130
100
AcDbSymbolTableRecord
100
AcDbLayerTableRecord
  2
1
 70
     0
 62
     4
  6
CONTINUOUS
370
    -3
390
813D
  0
LAYER
  5
81A6
102
{ACAD_XDICTIONARY
360
81F0
102
}
330
8130
100
AcDbSymbolTableRecord
100
AcDbLayerTableRecord
  2
4
 70
     0
 62
     7
  6
CONTINUOUS
370
    -3
390
813D
  0
LAYER
  5
81A7
330
8130
100
AcDbSymbolTableRecord
100
AcDbLayerTableRecord
  2
DEFPOINTS
 70
     0
 62
     7
  6
CONTINUOUS
290
     0
370
    -3
390
813D
  0
ENDTAB
  0
TABLE
  2
STYLE
  5
8131
330
0
100
AcDbSymbolTable
 70
     2
  0
STYLE
  5
8183
330
8131
100
AcDbSymbolTableRecord
100
AcDbTextStyleTableRecord
  2
STANDARD
 70
     0
 40
0.0
 41
1.0
 50
0.0
 71
     0
 42
180.0
  3
simplex.shx
  4
extfont.shx
  0
STYLE
  5
8187
330
8131
100
AcDbSymbolTableRecord
100
AcDbTextStyleTableRecord
  2
Annotative
 70
     0
 40
0.0
 41
1.0
 50
0.0
 71
     0
 42
0.2
  3
txt
  4

1001
AcadAnnotative
1000
AnnotativeData
1002
{
1070
     1
1070
     1
1002
}
  0
ENDTAB
  0
TABLE
  2
VIEW
  5
8134
330
0
100
AcDbSymbolTable
 70
     0
  0
ENDTAB
  0
TABLE
  2
UCS
  5
8135
330
0
100
AcDbSymbolTable
 70
     0
  0
ENDTAB
  0
TABLE
  2
APPID
  5
8137
330
0
100
AcDbSymbolTable
 70
     8
  0
APPID
  5
8184
330
8137
100
AcDbSymbolTableRecord
100
AcDbRegAppTableRecord
  2
ACAD
 70
     0
  0
APPID
  5
818B
330
8137
100
AcDbSymbolTableRecord
100
AcDbRegAppTableRecord
  2
AcadAnnotative
 70
     0
  0
APPID
  5
81FC
330
8137
100
AcDbSymbolTableRecord
100
AcDbRegAppTableRecord
  2
ACAD_NAV_VCDISPLAY
 70
     0
  0
APPID
  5
82A7
330
8137
100
AcDbSymbolTableRecord
100
AcDbRegAppTableRecord
  2
ACAD_DSTYLE_DIMJAG
 70
     0
  0
APPID
  5
82A8
330
8137
100
AcDbSymbolTableRecord
100
AcDbRegAppTableRecord
  2
ACAD_DSTYLE_DIMTALN
 70
     0
  0
APPID
  5
8350
330
8137
100
AcDbSymbolTableRecord
100
AcDbRegAppTableRecord
  2
AcadAnnoMonitorAlertIconDisabled
 70
     0
  0
APPID
  5
8351
330
8137
100
AcDbSymbolTableRecord
100
AcDbRegAppTableRecord
  2
ACAD_EXEMPT_FROM_CAD_STANDARDS
 70
     0
  0
APPID
  5
8567
330
8137
100
AcDbSymbolTableRecord
100
AcDbRegAppTableRecord
  2
ACAD_MLEADERVER
 70
     0
  0
ENDTAB
  0
TABLE
  2
DIMSTYLE
  5
8138
330
0
100
AcDbSymbolTable
 70
     5
100
AcDbDimStyleTable
 71
     1
340
81A8
  0
DIMSTYLE
105
8185
102
{ACAD_REACTORS
330
7C8C
330
7C8D
330
7CEE
330
7CF2
330
7CF4
330
7CF5
330
7CF6
330
7CF7
330
7D1E
102
}
330
8138
100
AcDbSymbolTableRecord
100
AcDbDimStyleTableRecord
  2
Standard
 70
     0
340
8183
  0
DIMSTYLE
105
8186
330
8138
100
AcDbSymbolTableRecord
100
AcDbDimStyleTableRecord
  2
Annotative
 70
     0
340
8183
1001
AcadAnnotative
1000
AnnotativeData
1002
{
1070
     1
1070
     1
1002
}
  0
DIMSTYLE
105
81A8
102
{ACAD_REACTORS
330
8268
330
8275
330
82A9
330
830F
330
831C
330
8329
330
8336
330
8343
330
8365
330
8372
330
8384
330
84CB
330
84E1
102
}
330
8138
100
AcDbSymbolTableRecord
100
AcDbDimStyleTableRecord
  2
IGA
 70
     0
 40
2.0
 41
2.0
 42
0.5
 43
10.0
 44
1.0
 47
1.0
 48
1.0
 73
     0
 74
     0
 77
     1
 78
     8
140
3.0
141
0.0
143
0.03937
146
10.0
147
1.0
173
     1
271
     3
272
     3
279
     2
284
     8
285
     8
286
     8
340
8183
  0
DIMSTYLE
105
81A9
330
8138
100
AcDbSymbolTableRecord
100
AcDbDimStyleTableRecord
  2
MATSU
 70
     0
 41
2.0
 42
1.0
 43
10.0
 44
1.0
 73
     0
 74
     0
 77
     1
 78
     8
140
3.0
141
0.0
143
0.03937
147
0.5
172
     1
173
     1
176
   256
177
   256
178
   256
271
     3
272
     3
279
     2
284
     8
285
     8
286
     8
340
8183
  0
ENDTAB
  0
TABLE
  2
BLOCK_RECORD
  5
812F
330
0
100
AcDbSymbolTable
 70
    52
  0
BLOCK_RECORD
  5
819D
330
812F
100
AcDbSymbolTableRecord
100
AcDbBlockTableRecord
  2
*Model_Space
340
81A0
  0
BLOCK_RECORD
  5
8199
330
812F
100
AcDbSymbolTableRecord
100
AcDbBlockTableRecord
  2
*Paper_Space
340
819C
  0
BLOCK_RECORD
  5
81AD
330
812F
100
AcDbSymbolTableRecord
100
AcDbBlockTableRecord
  2
$MODEL_SPACE
340
0
  0
BLOCK_RECORD
  5
81AF
330
812F
100
AcDbSymbolTableRecord
100
AcDbBlockTableRecord
  2
$PAPER_SPACE
340
0
  0
BLOCK_RECORD
  5
81B1
330
812F
100
AcDbSymbolTableRecord
100
AcDbBlockTableRecord
  2
_OPEN
340
0
102
{BLKREFS
331
8496
331
8497
331
84A5
331
84B8
331
84BF
331
84C0
331
84DB
331
84DC
331
84E8
331
84E9
331
8316
331
8317
331
8323
331
8324
331
8330
331
8331
331
833D
331
833E
331
7E5E
331
7E5F
331
7E69
331
7E6A
331
7EAB
331
7EAC
331
8003
331
8004
331
8019
331
801A
331
7ECC
331
7ECD
331
7ED7
331
7ED8
331
7FE9
331
7FEA
331
7EED
331
7EEE
331
7EF8
331
7EF9
331
7F03
331
7F04
331
7F0E
331
7F0F
331
810B
331
810C
331
8117
331
811E
331
811F
331
8297
331
8298
331
82A0
331
82A1
331
82B0
331
82B1
331
8095
331
8096
331
7F51
331
7F52
331
803A
331
803B
331
8047
331
8048
331
8054
331
8055
331
8061
331
8062
102
}
  0
BLOCK_RECORD
  5
81B3
330
812F
100
AcDbSymbolTableRecord
100
AcDbBlockTableRecord
  2
YA_N
340
0
102
{BLKREFS
331
7C36
331
7C55
331
7C93
331
7CCC
102
}
  0
BLOCK_RECORD
  5
81B5
330
812F
100
AcDbSymbolTableRecord
100
AcDbBlockTableRecord
  2
*D4
340
0
  0
BLOCK_RECORD
  5
81B7
330
812F
100
AcDbSymbolTableRecord
100
AcDbBlockTableRecord
  2
*D5
340
0
  0
BLOCK_RECORD
  5
81B9
330
812F
100
AcDbSymbolTableRecord
100
AcDbBlockTableRecord
  2
*D6
340
0
  0
BLOCK_RECORD
  5
81BB
330
812F
100
AcDbSymbolTableRecord
100
AcDbBlockTableRecord
  2
*D7
340
0
  0
BLOCK_RECORD
  5
81BD
330
812F
100
AcDbSymbolTableRecord
100
AcDbBlockTableRecord
  2
*U8
340
0
102
{BLKREFS
331
8005
102
}
  0
BLOCK_RECORD
  5
81BE
330
812F
100
AcDbSymbolTableRecord
100
AcDbBlockTableRecord
  2
*D9
340
0
  0
BLOCK_RECORD
  5
81C0
330
812F
100
AcDbSymbolTableRecord
100
AcDbBlockTableRecord
  2
*D10
340
0
  0
BLOCK_RECORD
  5
81C2
330
812F
100
AcDbSymbolTableRecord
100
AcDbBlockTableRecord
  2
*D11
340
0
  0
BLOCK_RECORD
  5
81C4
330
812F
100
AcDbSymbolTableRecord
100
AcDbBlockTableRecord
  2
*D12
340
0
  0
BLOCK_RECORD
  5
81C6
330
812F
100
AcDbSymbolTableRecord
100
AcDbBlockTableRecord
  2
*D13
340
0
  0
BLOCK_RECORD
  5
81C8
330
812F
100
AcDbSymbolTableRecord
100
AcDbBlockTableRecord
  2
*D14
340
0
  0
BLOCK_RECORD
  5
81CA
330
812F
100
AcDbSymbolTableRecord
100
AcDbBlockTableRecord
  2
*D15
340
0
  0
BLOCK_RECORD
  5
81CC
330
812F
100
AcDbSymbolTableRecord
100
AcDbBlockTableRecord
  2
*D16
340
0
  0
BLOCK_RECORD
  5
81CE
330
812F
100
AcDbSymbolTableRecord
100
AcDbBlockTableRecord
  2
*D17
340
0
  0
BLOCK_RECORD
  5
81D0
330
812F
100
AcDbSymbolTableRecord
100
AcDbBlockTableRecord
  2
*D18
340
0
  0
BLOCK_RECORD
  5
81D2
330
812F
100
AcDbSymbolTableRecord
100
AcDbBlockTableRecord
  2
_DOT
340
0
102
{BLKREFS
331
8116
102
}
  0
BLOCK_RECORD
  5
81D3
330
812F
100
AcDbSymbolTableRecord
100
AcDbBlockTableRecord
  2
*D20
340
0
  0
BLOCK_RECORD
  5
81D5
330
812F
100
AcDbSymbolTableRecord
100
AcDbBlockTableRecord
  2
*D21
340
0
  0
BLOCK_RECORD
  5
81D8
330
812F
100
AcDbSymbolTableRecord
100
AcDbBlockTableRecord
  2
*D22
340
0
  0
BLOCK_RECORD
  5
81DA
330
812F
100
AcDbSymbolTableRecord
100
AcDbBlockTableRecord
  2
*D23
340
0
  0
BLOCK_RECORD
  5
81DC
330
812F
100
AcDbSymbolTableRecord
100
AcDbBlockTableRecord
  2
*D24
340
0
  0
BLOCK_RECORD
  5
81DE
330
812F
100
AcDbSymbolTableRecord
100
AcDbBlockTableRecord
  2
*D25
340
0
  0
BLOCK_RECORD
  5
81E0
330
812F
100
AcDbSymbolTableRecord
100
AcDbBlockTableRecord
  2
_NONE
340
0
  0
BLOCK_RECORD
  5
81E2
330
812F
100
AcDbSymbolTableRecord
100
AcDbBlockTableRecord
  2
*D27
340
0
  0
BLOCK_RECORD
  5
81E4
330
812F
100
AcDbSymbolTableRecord
100
AcDbBlockTableRecord
  2
*D28
340
0
  0
BLOCK_RECORD
  5
8269
330
812F
100
AcDbSymbolTableRecord
100
AcDbBlockTableRecord
  2
*D30
340
0
  0
BLOCK_RECORD
  5
8276
330
812F
100
AcDbSymbolTableRecord
100
AcDbBlockTableRecord
  2
*D31
340
0
  0
BLOCK_RECORD
  5
82AA
330
812F
100
AcDbSymbolTableRecord
100
AcDbBlockTableRecord
  2
*D32
340
0
  0
BLOCK_RECORD
  5
82B6
330
812F
100
AcDbSymbolTableRecord
100
AcDbBlockTableRecord
  2
*D33
340
0
  0
BLOCK_RECORD
  5
82C1
330
812F
100
AcDbSymbolTableRecord
100
AcDbBlockTableRecord
  2
*D34
340
0
  0
BLOCK_RECORD
  5
82CE
330
812F
100
AcDbSymbolTableRecord
100
AcDbBlockTableRecord
  2
*D35
340
0
  0
BLOCK_RECORD
  5
82DB
330
812F
100
AcDbSymbolTableRecord
100
AcDbBlockTableRecord
  2
*D36
340
0
  0
BLOCK_RECORD
  5
82E8
330
812F
100
AcDbSymbolTableRecord
100
AcDbBlockTableRecord
  2
*D37
340
0
  0
BLOCK_RECORD
  5
82F5
330
812F
100
AcDbSymbolTableRecord
100
AcDbBlockTableRecord
  2
*D38
340
0
  0
BLOCK_RECORD
  5
8302
330
812F
100
AcDbSymbolTableRecord
100
AcDbBlockTableRecord
  2
*D39
340
0
  0
BLOCK_RECORD
  5
8310
330
812F
100
AcDbSymbolTableRecord
100
AcDbBlockTableRecord
  2
*D40
340
0
  0
BLOCK_RECORD
  5
831D
330
812F
100
AcDbSymbolTableRecord
100
AcDbBlockTableRecord
  2
*D41
340
0
  0
BLOCK_RECORD
  5
832A
330
812F
100
AcDbSymbolTableRecord
100
AcDbBlockTableRecord
  2
*D42
340
0
  0
BLOCK_RECORD
  5
8337
330
812F
100
AcDbSymbolTableRecord
100
AcDbBlockTableRecord
  2
*D43
340
0
  0
BLOCK_RECORD
  5
8344
330
812F
100
AcDbSymbolTableRecord
100
AcDbBlockTableRecord
  2
*D44
340
0
  0
BLOCK_RECORD
  5
8366
330
812F
100
AcDbSymbolTableRecord
100
AcDbBlockTableRecord
  2
*D45
340
0
  0
BLOCK_RECORD
  5
8373
330
812F
100
AcDbSymbolTableRecord
100
AcDbBlockTableRecord
  2
*D46
340
0
  0
BLOCK_RECORD
  5
8385
330
812F
100
AcDbSymbolTableRecord
100
AcDbBlockTableRecord
  2
*D47
340
0
  0
BLOCK_RECORD
  5
83F7
330
812F
100
AcDbSymbolTableRecord
100
AcDbBlockTableRecord
  2
_DotSmall
340
0
102
{BLKREFS
331
84A6
331
84B7
102
}
  0
BLOCK_RECORD
  5
84CC
330
812F
100
AcDbSymbolTableRecord
100
AcDbBlockTableRecord
  2
*D50
340
0
  0
BLOCK_RECORD
  5
84E2
330
812F
100
AcDbSymbolTableRecord
100
AcDbBlockTableRecord
  2
*D51
340
0
  0
ENDTAB
  0
ENDSEC
  0
SECTION
  2
BLOCKS
  0
BLOCK
  5
819E
330
819D
100
AcDbEntity
  8
0
100
AcDbBlockBegin
  2
*Model_Space
 70
     0
 10
0.0
 20
0.0
 30
0.0
  3
*Model_Space
  1

  0
ENDBLK
  5
819F
330
819D
100
AcDbEntity
  8
0
100
AcDbBlockEnd
  0
BLOCK
  5
819A
330
8199
100
AcDbEntity
 67
     1
  8
0
100
AcDbBlockBegin
  2
*Paper_Space
 70
     0
 10
0.0
 20
0.0
 30
0.0
  3
*Paper_Space
  1

  0
ENDBLK
  5
819B
330
8199
100
AcDbEntity
 67
     1
  8
0
100
AcDbBlockEnd
  0
BLOCK
  5
81AE
330
81AD
100
AcDbEntity
  8
0
100
AcDbBlockBegin
  2
$MODEL_SPACE
 70
     0
 10
0.0
 20
0.0
 30
0.0
  3
$MODEL_SPACE
  1

  0
ENDBLK
  5
1B
330
81AD
100
AcDbEntity
  8
0
100
AcDbBlockEnd
  0
BLOCK
  5
81B0
330
81AF
100
AcDbEntity
  8
0
100
AcDbBlockBegin
  2
$PAPER_SPACE
 70
     0
 10
0.0
 20
0.0
 30
0.0
  3
$PAPER_SPACE
  1

  0
ENDBLK
  5
18
330
81AF
100
AcDbEntity
  8
0
100
AcDbBlockEnd
  0
BLOCK
  5
81B2
330
81B1
100
AcDbEntity
  8
0
100
AcDbBlockBegin
  2
_OPEN
 70
     0
 10
0.0
 20
0.0
 30
0.0
  3
_OPEN
  1

  0
LINE
  5
79FD
330
81B1
100
AcDbEntity
  8
0
  6
ByBlock
 62
     0
100
AcDbLine
 10
-1.0
 20
0.1666666666666666
 30
0.0
 11
0.0
 21
0.0
 31
0.0
  0
LINE
  5
79FE
330
81B1
100
AcDbEntity
  8
0
  6
ByBlock
 62
     0
100
AcDbLine
 10
0.0
 20
0.0
 30
0.0
 11
-1.0
 21
-0.1666666666666666
 31
0.0
  0
LINE
  5
79FF
330
81B1
100
AcDbEntity
  8
0
  6
ByBlock
 62
     0
100
AcDbLine
 10
0.0
 20
0.0
 30
0.0
 11
-1.0
 21
0.0
 31
0.0
  0
ENDBLK
  5
7A01
330
81B1
100
AcDbEntity
  8
0
100
AcDbBlockEnd
  0
BLOCK
  5
81B4
330
81B3
100
AcDbEntity
  8
0
100
AcDbBlockBegin
  2
YA_N
 70
     0
 10
0.0
 20
0.0
 30
0.0
  3
YA_N
  1

  0
ENDBLK
  5
7A0C
330
81B3
100
AcDbEntity
  8
0
100
AcDbBlockEnd
  0
BLOCK
  5
81B6
330
81B5
100
AcDbEntity
  8
0
100
AcDbBlockBegin
  2
*D4
 70
     1
 10
0.0
 20
0.0
 30
0.0
  3
*D4
  1

  0
LINE
  5
7E5B
330
81B5
100
AcDbEntity
  8
0
  6
ByBlock
100
AcDbLine
 10
466.5721472157604
 20
1033.593478221398
 30
0.0
 11
466.5721472157604
 21
1182.600862000624
 31
0.0
  0
LINE
  5
7E5C
330
81B5
100
AcDbEntity
  8
0
  6
ByBlock
100
AcDbLine
 10
1196.57214721576
 20
1033.593478221399
 30
0.0
 11
1196.57214721576
 21
1182.600862000624
 31
0.0
  0
LINE
  5
7E5D
330
81B5
100
AcDbEntity
  8
0
  6
ByBlock
100
AcDbLine
 10
516.5721472157603
 20
1157.600862000624
 30
0.0
 11
1146.57214721576
 21
1157.600862000624
 31
0.0
  0
INSERT
  5
7E5E
330
81B5
100
AcDbEntity
  8
0
  6
ByBlock
100
AcDbBlockReference
  2
_OPEN
 10
466.5721472157604
 20
1157.600862000624
 30
0.0
 41
50.0
 42
50.0
 43
50.0
 50
180.0
  0
INSERT
  5
7E5F
330
81B5
100
AcDbEntity
  8
0
  6
ByBlock
100
AcDbBlockReference
  2
_OPEN
 10
1196.57214721576
 20
1157.600862000624
 30
0.0
 41
50.0
 42
50.0
 43
50.0
  0
TEXT
  5
7E60
330
81B5
100
AcDbEntity
  8
3
100
AcDbText
 10
735.1435757871891
 20
1170.100862000625
 30
0.0
 40
75.0
  1
730
100
AcDbText
  0
POINT
  5
7E61
330
81B5
100
AcDbEntity
  8
DEFPOINTS
  6
ByBlock
 62
     0
100
AcDbPoint
 10
466.5721472157604
 20
1008.593478221398
 30
0.0
  0
POINT
  5
7E62
330
81B5
100
AcDbEntity
  8
DEFPOINTS
  6
ByBlock
 62
     0
100
AcDbPoint
 10
1196.57214721576
 20
1008.593478221399
 30
0.0
  0
POINT
  5
7E63
330
81B5
100
AcDbEntity
  8
DEFPOINTS
  6
ByBlock
 62
     0
100
AcDbPoint
 10
1196.57214721576
 20
1157.600862000624
 30
0.0
  0
ENDBLK
  5
7E64
330
81B5
100
AcDbEntity
  8
0
100
AcDbBlockEnd
  0
BLOCK
  5
81B8
330
81B7
100
AcDbEntity
  8
0
100
AcDbBlockBegin
  2
*D5
 70
     1
 10
0.0
 20
0.0
 30
0.0
  3
*D5
  1

  0
LINE
  5
7E66
330
81B7
100
AcDbEntity
  8
0
  6
ByBlock
100
AcDbLine
 10
466.5721472157604
 20
1033.593478221398
 30
0.0
 11
466.5721472157604
 21
1335.40963547429
 31
0.0
  0
LINE
  5
7E67
330
81B7
100
AcDbEntity
  8
0
  6
ByBlock
100
AcDbLine
 10
1225.57214721576
 20
1155.859317026828
 30
0.0
 11
1225.57214721576
 21
1335.40963547429
 31
0.0
  0
LINE
  5
7E68
330
81B7
100
AcDbEntity
  8
0
  6
ByBlock
100
AcDbLine
 10
516.5721472157603
 20
1310.40963547429
 30
0.0
 11
1175.57214721576
 21
1310.40963547429
 31
0.0
  0
INSERT
  5
7E69
330
81B7
100
AcDbEntity
  8
0
  6
ByBlock
100
AcDbBlockReference
  2
_OPEN
 10
466.5721472157604
 20
1310.40963547429
 30
0.0
 41
50.0
 42
50.0
 43
50.0
 50
180.0
  0
INSERT
  5
7E6A
330
81B7
100
AcDbEntity
  8
0
  6
ByBlock
100
AcDbBlockReference
  2
_OPEN
 10
1225.57214721576
 20
1310.40963547429
 30
0.0
 41
50.0
 42
50.0
 43
50.0
  0
TEXT
  5
7E6B
330
81B7
100
AcDbEntity
  8
3
100
AcDbText
 10
751.4292900729032
 20
1322.90963547429
 30
0.0
 40
75.0
  1
759
100
AcDbText
  0
POINT
  5
7E6C
330
81B7
100
AcDbEntity
  8
DEFPOINTS
  6
ByBlock
 62
     0
100
AcDbPoint
 10
466.5721472157604
 20
1008.593478221398
 30
0.0
  0
POINT
  5
7E6D
330
81B7
100
AcDbEntity
  8
DEFPOINTS
  6
ByBlock
 62
     0
100
AcDbPoint
 10
1225.57214721576
 20
1130.859317026828
 30
0.0
  0
POINT
  5
7E6E
330
81B7
100
AcDbEntity
  8
DEFPOINTS
  6
ByBlock
 62
     0
100
AcDbPoint
 10
1225.57214721576
 20
1310.40963547429
 30
0.0
  0
ENDBLK
  5
7E6F
330
81B7
100
AcDbEntity
  8
0
100
AcDbBlockEnd
  0
BLOCK
  5
81BA
330
81B9
100
AcDbEntity
  8
0
100
AcDbBlockBegin
  2
*D6
 70
     1
 10
0.0
 20
0.0
 30
0.0
  3
*D6
  1

  0
LINE
  5
7EA8
330
81B9
100
AcDbEntity
  8
0
  6
ByBlock
100
AcDbLine
 10
3394.272073930469
 20
1033.802367882948
 30
0.0
 11
3394.272073930469
 21
1219.111446642817
 31
0.0
  0
LINE
  5
7EA9
330
81B9
100
AcDbEntity
  8
0
  6
ByBlock
100
AcDbLine
 10
4294.27207393047
 20
1033.80235414594
 30
0.0
 11
4294.27207393047
 21
1219.111446642817
 31
0.0
  0
LINE
  5
7EAA
330
81B9
100
AcDbEntity
  8
0
  6
ByBlock
100
AcDbLine
 10
3444.272073930469
 20
1194.111446642817
 30
0.0
 11
4244.27207393047
 21
1194.111446642817
 31
0.0
  0
INSERT
  5
7EAB
330
81B9
100
AcDbEntity
  8
0
  6
ByBlock
100
AcDbBlockReference
  2
_OPEN
 10
3394.272073930469
 20
1194.111446642817
 30
0.0
 41
50.0
 42
50.0
 43
50.0
 50
180.0
  0
INSERT
  5
7EAC
330
81B9
100
AcDbEntity
  8
0
  6
ByBlock
100
AcDbBlockReference
  2
_OPEN
 10
4294.27207393047
 20
1194.111446642817
 30
0.0
 41
50.0
 42
50.0
 43
50.0
  0
TEXT
  5
7EAD
330
81B9
100
AcDbEntity
  8
3
100
AcDbText
 10
3747.843502501898
 20
1206.611446642817
 30
0.0
 40
75.0
  1
900
100
AcDbText
  0
POINT
  5
7EAE
330
81B9
100
AcDbEntity
  8
DEFPOINTS
  6
ByBlock
 62
     0
100
AcDbPoint
 10
3394.272073930469
 20
1008.802367882948
 30
0.0
  0
POINT
  5
7EAF
330
81B9
100
AcDbEntity
  8
DEFPOINTS
  6
ByBlock
 62
     0
100
AcDbPoint
 10
4294.27207393047
 20
1008.80235414594
 30
0.0
  0
POINT
  5
7EB0
330
81B9
100
AcDbEntity
  8
DEFPOINTS
  6
ByBlock
 62
     0
100
AcDbPoint
 10
4294.27207393047
 20
1194.111446642817
 30
0.0
  0
ENDBLK
  5
7EB1
330
81B9
100
AcDbEntity
  8
0
100
AcDbBlockEnd
  0
BLOCK
  5
81BC
330
81BB
100
AcDbEntity
  8
0
100
AcDbBlockBegin
  2
*D7
 70
     1
 10
0.0
 20
0.0
 30
0.0
  3
*D7
  1

  0
LINE
  5
8000
330
81BB
100
AcDbEntity
  8
0
  6
ByBlock
100
AcDbLine
 10
3218.223289427717
 20
2753.956000393227
 30
0.0
 11
3218.223289427717
 21
3309.727635421943
 31
0.0
  0
LINE
  5
8001
330
81BB
100
AcDbEntity
  8
0
  6
ByBlock
100
AcDbLine
 10
3973.223289427713
 20
3294.43220232486
 30
0.0
 11
3973.223289427713
 21
3309.727635421943
 31
0.0
  0
LINE
  5
8002
330
81BB
100
AcDbEntity
  8
0
  6
ByBlock
100
AcDbLine
 10
3268.223289427717
 20
3284.727635421943
 30
0.0
 11
3923.223289427713
 21
3284.727635421943
 31
0.0
  0
INSERT
  5
8003
330
81BB
100
AcDbEntity
  8
0
  6
ByBlock
100
AcDbBlockReference
  2
_OPEN
 10
3218.223289427717
 20
3284.727635421943
 30
0.0
 41
50.0
 42
50.0
 43
50.0
 50
180.0
  0
INSERT
  5
8004
330
81BB
100
AcDbEntity
  8
0
  6
ByBlock
100
AcDbBlockReference
  2
_OPEN
 10
3973.223289427713
 20
3284.727635421943
 30
0.0
 41
50.0
 42
50.0
 43
50.0
  0
INSERT
  5
8005
330
81BB
100
AcDbEntity
  8
3
100
AcDbBlockReference
  2
*U8
 10
0.0
 20
0.0
 30
0.0
  0
POINT
  5
8006
330
81BB
100
AcDbEntity
  8
DEFPOINTS
  6
ByBlock
 62
     0
100
AcDbPoint
 10
3218.223289427717
 20
2728.956000393227
 30
0.0
  0
POINT
  5
8007
330
81BB
100
AcDbEntity
  8
DEFPOINTS
  6
ByBlock
 62
     0
100
AcDbPoint
 10
3973.223289427713
 20
3269.43220232486
 30
0.0
  0
POINT
  5
8008
330
81BB
100
AcDbEntity
  8
DEFPOINTS
  6
ByBlock
 62
     0
100
AcDbPoint
 10
3973.223289427713
 20
3284.727635421943
 30
0.0
  0
ENDBLK
  5
8009
330
81BB
100
AcDbEntity
  8
0
100
AcDbBlockEnd
  0
BLOCK
  5
81E6
330
81BD
100
AcDbEntity
  8
0
100
AcDbBlockBegin
  2
*U8
 70
     1
 10
0.0
 20
0.0
 30
0.0
  3
*U8
  1

  0
TEXT
  5
8128
330
81BD
100
AcDbEntity
  8
3
100
AcDbText
 10
3488.580432284857
 20
3422.227635421942
 30
0.0
 40
75.0
  1
MAX
100
AcDbText
  0
TEXT
  5
8129
330
81BD
100
AcDbEntity
  8
3
100
AcDbText
 10
3499.294717999144
 20
3297.227635421942
 30
0.0
 40
75.0
  1
780
100
AcDbText
  0
ENDBLK
  5
812B
330
81BD
100
AcDbEntity
  8
0
100
AcDbBlockEnd
  0
BLOCK
  5
81BF
330
81BE
100
AcDbEntity
  8
0
100
AcDbBlockBegin
  2
*D9
 70
     1
 10
0.0
 20
0.0
 30
0.0
  3
*D9
  1

  0
LINE
  5
8016
330
81BE
100
AcDbEntity
  8
0
  6
ByBlock
100
AcDbLine
 10
3973.223289427713
 20
3264.008814348148
 30
0.0
 11
3973.223289427713
 21
3309.727635421943
 31
0.0
  0
LINE
  5
8017
330
81BE
100
AcDbEntity
  8
0
  6
ByBlock
100
AcDbLine
 10
4525.723289427713
 20
2448.756000393227
 30
0.0
 11
4525.723289427713
 21
3309.727635421943
 31
0.0
  0
LINE
  5
8018
330
81BE
100
AcDbEntity
  8
0
  6
ByBlock
100
AcDbLine
 10
4023.223289427713
 20
3284.727635421943
 30
0.0
 11
4475.723289427714
 21
3284.727635421943
 31
0.0
  0
INSERT
  5
8019
330
81BE
100
AcDbEntity
  8
0
  6
ByBlock
100
AcDbBlockReference
  2
_OPEN
 10
3973.223289427713
 20
3284.727635421943
 30
0.0
 41
50.0
 42
50.0
 43
50.0
 50
180.0
  0
INSERT
  5
801A
330
81BE
100
AcDbEntity
  8
0
  6
ByBlock
100
AcDbBlockReference
  2
_OPEN
 10
4525.723289427713
 20
3284.727635421943
 30
0.0
 41
50.0
 42
50.0
 43
50.0
  0
TEXT
  5
801B
330
81BE
100
AcDbEntity
  8
3
100
AcDbText
 10
4104.830432284856
 20
3329.3704925648
 30
0.0
 40
75.0
  1
(560)
100
AcDbText
  0
POINT
  5
801C
330
81BE
100
AcDbEntity
  8
DEFPOINTS
  6
ByBlock
 62
     0
100
AcDbPoint
 10
3973.223289427713
 20
3239.008814348148
 30
0.0
  0
POINT
  5
801D
330
81BE
100
AcDbEntity
  8
DEFPOINTS
  6
ByBlock
 62
     0
100
AcDbPoint
 10
4525.723289427713
 20
2423.756000393227
 30
0.0
  0
POINT
  5
801E
330
81BE
100
AcDbEntity
  8
DEFPOINTS
  6
ByBlock
 62
     0
100
AcDbPoint
 10
4525.723289427713
 20
3284.727635421943
 30
0.0
  0
ENDBLK
  5
801F
330
81BE
100
AcDbEntity
  8
0
100
AcDbBlockEnd
  0
BLOCK
  5
81C1
330
81C0
100
AcDbEntity
  8
0
100
AcDbBlockBegin
  2
*D10
 70
     1
 10
0.0
 20
0.0
 30
0.0
  3
*D10
  1

  0
LINE
  5
7EC9
330
81C0
100
AcDbEntity
  8
0
  6
ByBlock
100
AcDbLine
 10
4321.57207393047
 20
133.5934782213989
 30
0.0
 11
4597.054208885889
 21
133.5934782213989
 31
0.0
  0
LINE
  5
7ECA
330
81C0
100
AcDbEntity
  8
0
  6
ByBlock
100
AcDbLine
 10
4321.57207393047
 20
883.5934782213987
 30
0.0
 11
4597.054208885889
 21
883.5934782213987
 31
0.0
  0
LINE
  5
7ECB
330
81C0
100
AcDbEntity
  8
0
  6
ByBlock
100
AcDbLine
 10
4572.054208885889
 20
183.5934782213989
 30
0.0
 11
4572.054208885889
 21
833.5934782213987
 31
0.0
  0
INSERT
  5
7ECC
330
81C0
100
AcDbEntity
  8
0
  6
ByBlock
100
AcDbBlockReference
  2
_OPEN
 10
4572.054208885889
 20
133.5934782213989
 30
0.0
 41
50.0
 42
50.0
 43
50.0
 50
270.0
  0
INSERT
  5
7ECD
330
81C0
100
AcDbEntity
  8
0
  6
ByBlock
100
AcDbBlockReference
  2
_OPEN
 10
4572.054208885889
 20
883.5934782213987
 30
0.0
 41
50.0
 42
50.0
 43
50.0
 50
90.0
  0
TEXT
  5
7ECE
330
81C0
100
AcDbEntity
  8
3
100
AcDbText
 10
4559.554208885889
 20
374.6649067928275
 30
0.0
 40
75.0
  1
\U+03C6750
 50
90.0
100
AcDbText
  0
POINT
  5
7ECF
330
81C0
100
AcDbEntity
  8
DEFPOINTS
  6
ByBlock
 62
     0
100
AcDbPoint
 10
4296.57207393047
 20
133.5934782213989
 30
0.0
  0
POINT
  5
7ED0
330
81C0
100
AcDbEntity
  8
DEFPOINTS
  6
ByBlock
 62
     0
100
AcDbPoint
 10
4296.57207393047
 20
883.5934782213987
 30
0.0
  0
POINT
  5
7ED1
330
81C0
100
AcDbEntity
  8
DEFPOINTS
  6
ByBlock
 62
     0
100
AcDbPoint
 10
4572.054208885889
 20
883.5934782213987
 30
0.0
  0
ENDBLK
  5
7ED2
330
81C0
100
AcDbEntity
  8
0
100
AcDbBlockEnd
  0
BLOCK
  5
81C3
330
81C2
100
AcDbEntity
  8
0
100
AcDbBlockBegin
  2
*D11
 70
     1
 10
0.0
 20
0.0
 30
0.0
  3
*D11
  1

  0
LINE
  5
7ED4
330
81C2
100
AcDbEntity
  8
0
  6
ByBlock
100
AcDbLine
 10
75.57214721576018
 20
2748.533310535339
 30
0.0
 11
75.57214721576018
 21
2485.350850711191
 31
0.0
  0
LINE
  5
7ED5
330
81C2
100
AcDbEntity
  8
0
  6
ByBlock
100
AcDbLine
 10
1675.57214721576
 20
2748.533310535338
 30
0.0
 11
1675.57214721576
 21
2485.350850711191
 31
0.0
  0
LINE
  5
7ED6
330
81C2
100
AcDbEntity
  8
0
  6
ByBlock
100
AcDbLine
 10
125.5721472157601
 20
2510.350850711191
 30
0.0
 11
1625.57214721576
 21
2510.350850711191
 31
0.0
  0
INSERT
  5
7ED7
330
81C2
100
AcDbEntity
  8
0
  6
ByBlock
100
AcDbBlockReference
  2
_OPEN
 10
75.57214721576018
 20
2510.350850711191
 30
0.0
 41
50.0
 42
50.0
 43
50.0
 50
180.0
  0
INSERT
  5
7ED8
330
81C2
100
AcDbEntity
  8
0
  6
ByBlock
100
AcDbBlockReference
  2
_OPEN
 10
1675.57214721576
 20
2510.350850711191
 30
0.0
 41
50.0
 42
50.0
 43
50.0
  0
TEXT
  5
7ED9
330
81C2
100
AcDbEntity
  8
3
100
AcDbText
 10
750.5721472157602
 20
2522.850850711191
 30
0.0
 40
75.0
  1
1600
100
AcDbText
  0
POINT
  5
7EDA
330
81C2
100
AcDbEntity
  8
DEFPOINTS
  6
ByBlock
 62
     0
100
AcDbPoint
 10
75.57214721576018
 20
2773.533310535339
 30
0.0
  0
POINT
  5
7EDB
330
81C2
100
AcDbEntity
  8
DEFPOINTS
  6
ByBlock
 62
     0
100
AcDbPoint
 10
1675.57214721576
 20
2773.533310535337
 30
0.0
  0
POINT
  5
7EDC
330
81C2
100
AcDbEntity
  8
DEFPOINTS
  6
ByBlock
 62
     0
100
AcDbPoint
 10
1675.57214721576
 20
2510.350850711191
 30
0.0
  0
ENDBLK
  5
7EDD
330
81C2
100
AcDbEntity
  8
0
100
AcDbBlockEnd
  0
BLOCK
  5
81C5
330
81C4
100
AcDbEntity
  8
0
100
AcDbBlockBegin
  2
*D12
 70
     1
 10
0.0
 20
0.0
 30
0.0
  3
*D12
  1

  0
LINE
  5
7FE6
330
81C4
100
AcDbEntity
  8
0
  6
ByBlock
100
AcDbLine
 10
535.9528807148527
 20
4001.46291352958
 30
0.0
 11
367.0932901355845
 21
4001.46291352958
 31
0.0
  0
LINE
  5
7FE7
330
81C4
100
AcDbEntity
  8
0
  6
ByBlock
100
AcDbLine
 10
535.9528807148527
 20
4671.46291352958
 30
0.0
 11
367.0932901355845
 21
4671.46291352958
 31
0.0
  0
LINE
  5
7FE8
330
81C4
100
AcDbEntity
  8
0
  6
ByBlock
100
AcDbLine
 10
392.0932901355845
 20
4051.462913529578
 30
0.0
 11
392.0932901355845
 21
4621.462913529581
 31
0.0
  0
INSERT
  5
7FE9
330
81C4
100
AcDbEntity
  8
0
  6
ByBlock
100
AcDbBlockReference
  2
_OPEN
 10
392.0932901355845
 20
4001.46291352958
 30
0.0
 41
50.0
 42
50.0
 43
50.0
 50
270.0
  0
INSERT
  5
7FEA
330
81C4
100
AcDbEntity
  8
0
  6
ByBlock
100
AcDbBlockReference
  2
_OPEN
 10
392.0932901355845
 20
4671.46291352958
 30
0.0
 41
50.0
 42
50.0
 43
50.0
 50
90.0
  0
TEXT
  5
7FEB
330
81C4
100
AcDbEntity
  8
3
100
AcDbText
 10
379.5932901355845
 20
4240.034342101009
 30
0.0
 40
75.0
  1
670
 50
90.0
100
AcDbText
  0
POINT
  5
7FEC
330
81C4
100
AcDbEntity
  8
DEFPOINTS
  6
ByBlock
 62
     0
100
AcDbPoint
 10
560.9528807148527
 20
4001.46291352958
 30
0.0
  0
POINT
  5
7FED
330
81C4
100
AcDbEntity
  8
DEFPOINTS
  6
ByBlock
 62
     0
100
AcDbPoint
 10
560.9528807148527
 20
4671.46291352958
 30
0.0
  0
POINT
  5
7FEE
330
81C4
100
AcDbEntity
  8
DEFPOINTS
  6
ByBlock
 62
     0
100
AcDbPoint
 10
392.0932901355845
 20
4671.46291352958
 30
0.0
  0
ENDBLK
  5
7FEF
330
81C4
100
AcDbEntity
  8
0
100
AcDbBlockEnd
  0
BLOCK
  5
81C7
330
81C6
100
AcDbEntity
  8
0
100
AcDbBlockBegin
  2
*D13
 70
     1
 10
0.0
 20
0.0
 30
0.0
  3
*D13
  1

  0
LINE
  5
7EEA
330
81C6
100
AcDbEntity
  8
0
  6
ByBlock
100
AcDbLine
 10
775.5721472157602
 20
3953.533310535338
 30
0.0
 11
775.5721472157602
 21
4255.16536493951
 31
0.0
  0
LINE
  5
7EEB
330
81C6
100
AcDbEntity
  8
0
  6
ByBlock
100
AcDbLine
 10
1675.57214721576
 20
3953.533310535338
 30
0.0
 11
1675.57214721576
 21
4255.16536493951
 31
0.0
  0
LINE
  5
7EEC
330
81C6
100
AcDbEntity
  8
0
  6
ByBlock
100
AcDbLine
 10
825.5721472157601
 20
4230.165364939511
 30
0.0
 11
1625.57214721576
 21
4230.165364939511
 31
0.0
  0
INSERT
  5
7EED
330
81C6
100
AcDbEntity
  8
0
  6
ByBlock
100
AcDbBlockReference
  2
_OPEN
 10
775.5721472157602
 20
4230.165364939511
 30
0.0
 41
50.0
 42
50.0
 43
50.0
 50
180.0
  0
INSERT
  5
7EEE
330
81C6
100
AcDbEntity
  8
0
  6
ByBlock
100
AcDbBlockReference
  2
_OPEN
 10
1675.57214721576
 20
4230.165364939511
 30
0.0
 41
50.0
 42
50.0
 43
50.0
  0
TEXT
  5
7EEF
330
81C6
100
AcDbEntity
  8
3
100
AcDbText
 10
1129.143575787189
 20
4242.665364939511
 30
0.0
 40
75.0
  1
900
100
AcDbText
  0
POINT
  5
7EF0
330
81C6
100
AcDbEntity
  8
DEFPOINTS
  6
ByBlock
 62
     0
100
AcDbPoint
 10
775.5721472157602
 20
3928.533310535339
 30
0.0
  0
POINT
  5
7EF1
330
81C6
100
AcDbEntity
  8
DEFPOINTS
  6
ByBlock
 62
     0
100
AcDbPoint
 10
1675.57214721576
 20
3928.533310535338
 30
0.0
  0
POINT
  5
7EF2
330
81C6
100
AcDbEntity
  8
DEFPOINTS
  6
ByBlock
 62
     0
100
AcDbPoint
 10
1675.57214721576
 20
4230.165364939511
 30
0.0
  0
ENDBLK
  5
7EF3
330
81C6
100
AcDbEntity
  8
0
100
AcDbBlockEnd
  0
BLOCK
  5
81C9
330
81C8
100
AcDbEntity
  8
0
100
AcDbBlockBegin
  2
*D14
 70
     1
 10
0.0
 20
0.0
 30
0.0
  3
*D14
  1

  0
LINE
  5
7EF5
330
81C8
100
AcDbEntity
  8
0
  6
ByBlock
100
AcDbLine
 10
75.57214721576018
 20
3468.53331053534
 30
0.0
 11
75.57214721576018
 21
4255.16536493951
 31
0.0
  0
LINE
  5
7EF6
330
81C8
100
AcDbEntity
  8
0
  6
ByBlock
100
AcDbLine
 10
775.5721472157602
 20
3953.533310535338
 30
0.0
 11
775.5721472157602
 21
4255.16536493951
 31
0.0
  0
LINE
  5
7EF7
330
81C8
100
AcDbEntity
  8
0
  6
ByBlock
100
AcDbLine
 10
125.5721472157601
 20
4230.165364939511
 30
0.0
 11
725.5721472157602
 21
4230.165364939511
 31
0.0
  0
INSERT
  5
7EF8
330
81C8
100
AcDbEntity
  8
0
  6
ByBlock
100
AcDbBlockReference
  2
_OPEN
 10
75.57214721576018
 20
4230.165364939511
 30
0.0
 41
50.0
 42
50.0
 43
50.0
 50
180.0
  0
INSERT
  5
7EF9
330
81C8
100
AcDbEntity
  8
0
  6
ByBlock
100
AcDbBlockReference
  2
_OPEN
 10
775.5721472157602
 20
4230.165364939511
 30
0.0
 41
50.0
 42
50.0
 43
50.0
  0
TEXT
  5
7EFA
330
81C8
100
AcDbEntity
  8
3
100
AcDbText
 10
329.1435757871887
 20
4242.665364939511
 30
0.0
 40
75.0
  1
700
100
AcDbText
  0
POINT
  5
7EFB
330
81C8
100
AcDbEntity
  8
DEFPOINTS
  6
ByBlock
 62
     0
100
AcDbPoint
 10
75.57214721576018
 20
3443.53331053534
 30
0.0
  0
POINT
  5
7EFC
330
81C8
100
AcDbEntity
  8
DEFPOINTS
  6
ByBlock
 62
     0
100
AcDbPoint
 10
775.5721472157602
 20
3928.533310535339
 30
0.0
  0
POINT
  5
7EFD
330
81C8
100
AcDbEntity
  8
DEFPOINTS
  6
ByBlock
 62
     0
100
AcDbPoint
 10
775.5721472157602
 20
4230.165364939511
 30
0.0
  0
ENDBLK
  5
7EFE
330
81C8
100
AcDbEntity
  8
0
100
AcDbBlockEnd
  0
BLOCK
  5
81CB
330
81CA
100
AcDbEntity
  8
0
100
AcDbBlockBegin
  2
*D15
 70
     1
 10
0.0
 20
0.0
 30
0.0
  3
*D15
  1

  0
LINE
  5
7F00
330
81CA
100
AcDbEntity
  8
0
  6
ByBlock
100
AcDbLine
 10
1700.57214721576
 20
2773.533310535337
 30
0.0
 11
2001.969355357017
 21
2773.533310535337
 31
0.0
  0
LINE
  5
7F01
330
81CA
100
AcDbEntity
  8
0
  6
ByBlock
100
AcDbLine
 10
1700.57214721576
 20
3928.533310535338
 30
0.0
 11
2001.969355357017
 21
3928.533310535338
 31
0.0
  0
LINE
  5
7F02
330
81CA
100
AcDbEntity
  8
0
  6
ByBlock
100
AcDbLine
 10
1976.969355357018
 20
2823.533310535337
 30
0.0
 11
1976.969355357018
 21
3878.533310535337
 31
0.0
  0
INSERT
  5
7F03
330
81CA
100
AcDbEntity
  8
0
  6
ByBlock
100
AcDbBlockReference
  2
_OPEN
 10
1976.969355357018
 20
2773.533310535337
 30
0.0
 41
50.0
 42
50.0
 43
50.0
 50
270.0
  0
INSERT
  5
7F04
330
81CA
100
AcDbEntity
  8
0
  6
ByBlock
100
AcDbBlockReference
  2
_OPEN
 10
1976.969355357018
 20
3928.533310535338
 30
0.0
 41
50.0
 42
50.0
 43
50.0
 50
90.0
  0
TEXT
  5
7F05
330
81CA
100
AcDbEntity
  8
3
100
AcDbText
 10
1964.469355357017
 20
3233.176167678195
 30
0.0
 40
75.0
  1
1155
 50
90.0
100
AcDbText
  0
POINT
  5
7F06
330
81CA
100
AcDbEntity
  8
DEFPOINTS
  6
ByBlock
 62
     0
100
AcDbPoint
 10
1675.57214721576
 20
2773.533310535337
 30
0.0
  0
POINT
  5
7F07
330
81CA
100
AcDbEntity
  8
DEFPOINTS
  6
ByBlock
 62
     0
100
AcDbPoint
 10
1675.57214721576
 20
3928.533310535338
 30
0.0
  0
POINT
  5
7F08
330
81CA
100
AcDbEntity
  8
DEFPOINTS
  6
ByBlock
 62
     0
100
AcDbPoint
 10
1976.969355357018
 20
3928.533310535338
 30
0.0
  0
ENDBLK
  5
7F09
330
81CA
100
AcDbEntity
  8
0
100
AcDbBlockEnd
  0
BLOCK
  5
81CD
330
81CC
100
AcDbEntity
  8
0
100
AcDbBlockBegin
  2
*D16
 70
     1
 10
0.0
 20
0.0
 30
0.0
  3
*D16
  1

  0
LINE
  5
7F0B
330
81CC
100
AcDbEntity
  8
0
  6
ByBlock
100
AcDbLine
 10
1263.57214721576
 20
1008.593478221399
 30
0.0
 11
1978.657130385134
 21
1008.593478221399
 31
0.0
  0
LINE
  5
7F0C
330
81CC
100
AcDbEntity
  8
0
  6
ByBlock
100
AcDbLine
 10
1872.837986021189
 20
508.5934782213988
 30
0.0
 11
1978.657130385134
 21
508.5934782213988
 31
0.0
  0
LINE
  5
7F0D
330
81CC
100
AcDbEntity
  8
0
  6
ByBlock
100
AcDbLine
 10
1953.657130385134
 20
958.5934782213996
 30
0.0
 11
1953.657130385134
 21
558.5934782213988
 31
0.0
  0
INSERT
  5
7F0E
330
81CC
100
AcDbEntity
  8
0
  6
ByBlock
100
AcDbBlockReference
  2
_OPEN
 10
1953.657130385134
 20
1008.593478221399
 30
0.0
 41
50.0
 42
50.0
 43
50.0
 50
90.0
  0
INSERT
  5
7F0F
330
81CC
100
AcDbEntity
  8
0
  6
ByBlock
100
AcDbBlockReference
  2
_OPEN
 10
1953.657130385134
 20
508.5934782213988
 30
0.0
 41
50.0
 42
50.0
 43
50.0
 50
270.0
  0
TEXT
  5
7F10
330
81CC
100
AcDbEntity
  8
3
100
AcDbText
 10
1941.157130385134
 20
662.1649067928277
 30
0.0
 40
75.0
  1
500
 50
90.0
100
AcDbText
  0
POINT
  5
7F11
330
81CC
100
AcDbEntity
  8
DEFPOINTS
  6
ByBlock
 62
     0
100
AcDbPoint
 10
1238.57214721576
 20
1008.593478221399
 30
0.0
  0
POINT
  5
7F12
330
81CC
100
AcDbEntity
  8
DEFPOINTS
  6
ByBlock
 62
     0
100
AcDbPoint
 10
1847.83798602119
 20
508.5934782213988
 30
0.0
  0
POINT
  5
7F13
330
81CC
100
AcDbEntity
  8
DEFPOINTS
  6
ByBlock
 62
     0
100
AcDbPoint
 10
1953.657130385134
 20
508.5934782213988
 30
0.0
  0
ENDBLK
  5
7F14
330
81CC
100
AcDbEntity
  8
0
100
AcDbBlockEnd
  0
BLOCK
  5
81CF
330
81CE
100
AcDbEntity
  8
0
100
AcDbBlockBegin
  2
*D17
 70
     1
 10
0.0
 20
0.0
 30
0.0
  3
*D17
  1

  0
LINE
  5
8109
330
81CE
100
AcDbEntity
  8
3
100
AcDbLine
 10
2344.366003609498
 20
1808.956000393227
 30
0.0
 11
2622.450986778873
 21
1808.956000393227
 31
0.0
  0
LINE
  5
810A
330
81CE
100
AcDbEntity
  8
3
100
AcDbLine
 10
2597.450986778873
 20
2398.956000393227
 30
0.0
 11
2597.450986778873
 21
1858.956000393227
 31
0.0
  0
INSERT
  5
810B
330
81CE
100
AcDbEntity
  8
3
100
AcDbBlockReference
  2
_OPEN
 10
2597.450986778873
 20
2448.956000393227
 30
0.0
 41
50.0
 42
50.0
 43
50.0
 50
90.0
  0
INSERT
  5
810C
330
81CE
100
AcDbEntity
  8
3
100
AcDbBlockReference
  2
_OPEN
 10
2597.450986778873
 20
1808.956000393227
 30
0.0
 41
50.0
 42
50.0
 43
50.0
 50
270.0
  0
TEXT
  5
812C
330
81CE
100
AcDbEntity
  8
3
100
AcDbText
 10
2397.45
 20
1996.21
 30
0.0
 40
75.0
  1
640
100
AcDbText
  0
POINT
  5
810E
330
81CE
100
AcDbEntity
  8
DEFPOINTS
 62
     0
100
AcDbPoint
 10
2491.631842414928
 20
2448.956000393227
 30
0.0
  0
POINT
  5
810F
330
81CE
100
AcDbEntity
  8
DEFPOINTS
 62
     0
100
AcDbPoint
 10
2319.366003609498
 20
1808.956000393227
 30
0.0
  0
POINT
  5
8110
330
81CE
100
AcDbEntity
  8
DEFPOINTS
 62
     0
100
AcDbPoint
 10
2597.450986778873
 20
1808.956000393227
 30
0.0
  0
ENDBLK
  5
7F1E
330
81CE
100
AcDbEntity
  8
0
100
AcDbBlockEnd
  0
BLOCK
  5
81D1
330
81D0
100
AcDbEntity
  8
0
100
AcDbBlockBegin
  2
*D18
 70
     1
 10
0.0
 20
0.0
 30
0.0
  3
*D18
  1

  0
LINE
  5
8111
330
81D0
100
AcDbEntity
  8
3
 62
     0
100
AcDbLine
 10
2331.866003609499
 20
1713.956000393227
 30
0.0
 11
2622.450986778873
 21
1713.956000393227
 31
0.0
  0
LINE
  5
8112
330
81D0
100
AcDbEntity
  8
3
 62
     0
100
AcDbLine
 10
2331.866003609499
 20
1613.956000393227
 30
0.0
 11
2622.450986778873
 21
1613.956000393227
 31
0.0
  0
LINE
  5
8113
330
81D0
100
AcDbEntity
  8
3
 62
     0
100
AcDbLine
 10
2597.450986778873
 20
1763.956000393227
 30
0.0
 11
2597.450986778873
 21
1813.956000393227
 31
0.0
  0
LINE
  5
8114
330
81D0
100
AcDbEntity
  8
3
 62
     0
100
AcDbLine
 10
2597.450986778873
 20
1563.956000393227
 30
0.0
 11
2597.450986778873
 21
1285.384571821798
 31
0.0
  0
LINE
  5
8115
330
81D0
100
AcDbEntity
  8
3
 62
     0
100
AcDbLine
 10
2597.450986778873
 20
1713.956000393227
 30
0.0
 11
2597.450986778873
 21
1613.956000393227
 31
0.0
  0
INSERT
  5
8116
330
81D0
100
AcDbEntity
  8
3
 62
     0
100
AcDbBlockReference
  2
_DOT
 10
2597.450986778873
 20
1713.956000393227
 30
0.0
 41
50.0
 42
50.0
 43
50.0
 50
270.0
  0
INSERT
  5
8117
330
81D0
100
AcDbEntity
  8
3
 62
     0
100
AcDbBlockReference
  2
_OPEN
 10
2597.450986778873
 20
1613.956000393227
 30
0.0
 41
50.0
 42
50.0
 43
50.0
 50
90.0
  0
TEXT
  5
812D
330
81D0
100
AcDbEntity
  8
3
 62
     0
100
AcDbText
 10
2384.95
 20
1266.92
 30
0.0
 40
75.0
  1
100
100
AcDbText
  0
POINT
  5
8119
330
81D0
100
AcDbEntity
  8
DEFPOINTS
 62
     0
100
AcDbPoint
 10
2319.366003609498
 20
1713.956000393227
 30
0.0
  0
POINT
  5
811A
330
81D0
100
AcDbEntity
  8
DEFPOINTS
 62
     0
100
AcDbPoint
 10
2319.366003609498
 20
1613.956000393227
 30
0.0
  0
POINT
  5
811B
330
81D0
100
AcDbEntity
  8
DEFPOINTS
 62
     0
100
AcDbPoint
 10
2597.450986778873
 20
1613.956000393227
 30
0.0
  0
ENDBLK
  5
7FD5
330
81D0
100
AcDbEntity
  8
0
100
AcDbBlockEnd
  0
BLOCK
  5
81D7
330
81D2
100
AcDbEntity
  8
0
100
AcDbBlockBegin
  2
_DOT
 70
     0
 10
0.0
 20
0.0
 30
0.0
  3
_DOT
  1

  0
LWPOLYLINE
  5
7FD8
330
81D2
100
AcDbEntity
  8
0
  6
ByBlock
 62
     0
100
AcDbPolyline
 90
        2
 70
     1
 43
0.25
 10
-0.125
 20
0.0
 42
1.0
 10
0.125
 20
0.0
 42
1.0
  0
LINE
  5
7FDC
330
81D2
100
AcDbEntity
  8
0
  6
ByBlock
 62
     0
100
AcDbLine
 10
-0.25
 20
0.0
 30
0.0
 11
-1.0
 21
0.0
 31
0.0
  0
ENDBLK
  5
7FBB
330
81D2
100
AcDbEntity
  8
0
100
AcDbBlockEnd
  0
BLOCK
  5
81D4
330
81D3
100
AcDbEntity
  8
0
100
AcDbBlockBegin
  2
*D20
 70
     1
 10
0.0
 20
0.0
 30
0.0
  3
*D20
  1

  0
LINE
  5
811C
330
81D3
100
AcDbEntity
  8
3
100
AcDbLine
 10
2375.366003609499
 20
2420.956000393227
 30
0.0
 11
2375.366003609499
 21
3275.772157646119
 31
0.0
  0
LINE
  5
811D
330
81D3
100
AcDbEntity
  8
3
100
AcDbLine
 10
1919.366003609499
 20
3250.772157646119
 30
0.0
 11
2325.366003609498
 21
3250.772157646119
 31
0.0
  0
INSERT
  5
811E
330
81D3
100
AcDbEntity
  8
3
100
AcDbBlockReference
  2
_OPEN
 10
1869.366003609499
 20
3250.772157646119
 30
0.0
 41
50.0
 42
50.0
 43
50.0
 50
180.0
  0
INSERT
  5
811F
330
81D3
100
AcDbEntity
  8
3
100
AcDbBlockReference
  2
_OPEN
 10
2375.366003609499
 20
3250.772157646119
 30
0.0
 41
50.0
 42
50.0
 43
50.0
  0
TEXT
  5
812E
330
81D3
100
AcDbEntity
  8
3
100
AcDbText
 10
1972.37
 20
3168.02
 30
0.0
 40
75.0
  1
506
100
AcDbText
  0
POINT
  5
8121
330
81D3
100
AcDbEntity
  8
DEFPOINTS
 62
     0
100
AcDbPoint
 10
1869.366003609499
 20
3071.221839198657
 30
0.0
  0
POINT
  5
8122
330
81D3
100
AcDbEntity
  8
DEFPOINTS
 62
     0
100
AcDbPoint
 10
2375.366003609499
 20
2395.956000393227
 30
0.0
  0
POINT
  5
8123
330
81D3
100
AcDbEntity
  8
DEFPOINTS
 62
     0
100
AcDbPoint
 10
2375.366003609499
 20
3250.772157646119
 30
0.0
  0
ENDBLK
  5
7F41
330
81D3
100
AcDbEntity
  8
0
100
AcDbBlockEnd
  0
BLOCK
  5
81D6
330
81D5
100
AcDbEntity
  8
0
100
AcDbBlockBegin
  2
*D21
 70
     1
 10
0.0
 20
0.0
 30
0.0
  3
*D21
  1

  0
LINE
  5
7F4E
330
81D5
100
AcDbEntity
  8
0
  6
ByBlock
100
AcDbLine
 10
1731.57214721576
 20
480.5934782213987
 30
0.0
 11
1731.57214721576
 21
1467.082603555343
 31
0.0
  0
LINE
  5
7F4F
330
81D5
100
AcDbEntity
  8
0
  6
ByBlock
100
AcDbLine
 10
75.57214721576018
 20
-6.406521778601017
 30
0.0
 11
75.57214721576018
 21
1467.082603555343
 31
0.0
  0
LINE
  5
7F50
330
81D5
100
AcDbEntity
  8
0
  6
ByBlock
100
AcDbLine
 10
1681.57214721576
 20
1442.082603555343
 30
0.0
 11
125.5721472157601
 21
1442.082603555343
 31
0.0
  0
INSERT
  5
7F51
330
81D5
100
AcDbEntity
  8
0
  6
ByBlock
100
AcDbBlockReference
  2
_OPEN
 10
1731.57214721576
 20
1442.082603555343
 30
0.0
 41
50.0
 42
50.0
 43
50.0
  0
INSERT
  5
7F52
330
81D5
100
AcDbEntity
  8
0
  6
ByBlock
100
AcDbBlockReference
  2
_OPEN
 10
75.57214721576018
 20
1442.082603555343
 30
0.0
 41
50.0
 42
50.0
 43
50.0
 50
180.0
  0
TEXT
  5
7F53
330
81D5
100
AcDbEntity
  8
3
100
AcDbText
 10
780.3578615014743
 20
1454.582603555343
 30
0.0
 40
75.0
  1
1656
100
AcDbText
  0
POINT
  5
7F54
330
81D5
100
AcDbEntity
  8
DEFPOINTS
  6
ByBlock
 62
     0
100
AcDbPoint
 10
1731.57214721576
 20
455.5934782213987
 30
0.0
  0
POINT
  5
7F55
330
81D5
100
AcDbEntity
  8
DEFPOINTS
  6
ByBlock
 62
     0
100
AcDbPoint
 10
75.57214721576018
 20
-31.40652177860101
 30
0.0
  0
POINT
  5
7F56
330
81D5
100
AcDbEntity
  8
DEFPOINTS
  6
ByBlock
 62
     0
100
AcDbPoint
 10
75.57214721576018
 20
1442.082603555343
 30
0.0
  0
ENDBLK
  5
7F57
330
81D5
100
AcDbEntity
  8
0
100
AcDbBlockEnd
  0
BLOCK
  5
81D9
330
81D8
100
AcDbEntity
  8
0
100
AcDbBlockBegin
  2
*D22
 70
     1
 10
0.0
 20
0.0
 30
0.0
  3
*D22
  1

  0
LINE
  5
8037
330
81D8
100
AcDbEntity
  8
0
  6
ByBlock
 62
     0
100
AcDbLine
 10
719.3660036094987
 20
1656.956000393227
 30
0.0
 11
719.3660036094987
 21
1486.108227928494
 31
0.0
  0
LINE
  5
8038
330
81D8
100
AcDbEntity
  8
0
  6
ByBlock
 62
     0
100
AcDbLine
 10
1869.366003609499
 20
1656.956000393227
 30
0.0
 11
1869.366003609499
 21
1486.108227928494
 31
0.0
  0
LINE
  5
8039
330
81D8
100
AcDbEntity
  8
0
  6
ByBlock
 62
     0
100
AcDbLine
 10
769.3660036094987
 20
1511.108227928494
 30
0.0
 11
1819.366003609499
 21
1511.108227928494
 31
0.0
  0
INSERT
  5
803A
330
81D8
100
AcDbEntity
  8
0
  6
ByBlock
 62
     0
100
AcDbBlockReference
  2
_OPEN
 10
719.3660036094987
 20
1511.108227928494
 30
0.0
 41
50.0
 42
50.0
 43
50.0
 50
180.0
  0
INSERT
  5
803B
330
81D8
100
AcDbEntity
  8
0
  6
ByBlock
 62
     0
100
AcDbBlockReference
  2
_OPEN
 10
1869.366003609499
 20
1511.108227928494
 30
0.0
 41
50.0
 42
50.0
 43
50.0
  0
TEXT
  5
803C
330
81D8
100
AcDbEntity
  8
3
 62
     0
100
AcDbText
 10
1176.508860752356
 20
1536.108227928494
 30
0.0
 40
75.0
  1
1150
100
AcDbText
  0
POINT
  5
803D
330
81D8
100
AcDbEntity
  8
DEFPOINTS
  6
ByBlock
 62
     0
100
AcDbPoint
 10
719.3660036094987
 20
1681.956000393227
 30
0.0
  0
POINT
  5
803E
330
81D8
100
AcDbEntity
  8
DEFPOINTS
  6
ByBlock
 62
     0
100
AcDbPoint
 10
1869.366003609499
 20
1681.956000393227
 30
0.0
  0
POINT
  5
803F
330
81D8
100
AcDbEntity
  8
DEFPOINTS
  6
ByBlock
 62
     0
100
AcDbPoint
 10
1869.366003609499
 20
1511.108227928494
 30
0.0
  0
ENDBLK
  5
8040
330
81D8
100
AcDbEntity
  8
0
100
AcDbBlockEnd
  0
BLOCK
  5
81DB
330
81DA
100
AcDbEntity
  8
0
100
AcDbBlockBegin
  2
*D23
 70
     1
 10
0.0
 20
0.0
 30
0.0
  3
*D23
  1

  0
LINE
  5
8044
330
81DA
100
AcDbEntity
  8
0
  6
ByBlock
 62
     0
100
AcDbLine
 10
1869.366003609499
 20
1656.956000393227
 30
0.0
 11
1869.366003609499
 21
1486.108227928494
 31
0.0
  0
LINE
  5
8045
330
81DA
100
AcDbEntity
  8
0
  6
ByBlock
 62
     0
100
AcDbLine
 10
2319.366003609498
 20
1656.956000393227
 30
0.0
 11
2319.366003609498
 21
1486.108227928494
 31
0.0
  0
LINE
  5
8046
330
81DA
100
AcDbEntity
  8
0
  6
ByBlock
 62
     0
100
AcDbLine
 10
1919.366003609499
 20
1511.108227928494
 30
0.0
 11
2269.366003609499
 21
1511.108227928494
 31
0.0
  0
INSERT
  5
8047
330
81DA
100
AcDbEntity
  8
0
  6
ByBlock
 62
     0
100
AcDbBlockReference
  2
_OPEN
 10
1869.366003609499
 20
1511.108227928494
 30
0.0
 41
50.0
 42
50.0
 43
50.0
 50
180.0
  0
INSERT
  5
8048
330
81DA
100
AcDbEntity
  8
0
  6
ByBlock
 62
     0
100
AcDbBlockReference
  2
_OPEN
 10
2319.366003609498
 20
1511.108227928494
 30
0.0
 41
50.0
 42
50.0
 43
50.0
  0
TEXT
  5
8049
330
81DA
100
AcDbEntity
  8
3
 62
     0
100
AcDbText
 10
1997.937432180927
 20
1536.108227928494
 30
0.0
 40
75.0
  1
450
100
AcDbText
  0
POINT
  5
804A
330
81DA
100
AcDbEntity
  8
DEFPOINTS
  6
ByBlock
 62
     0
100
AcDbPoint
 10
1869.366003609499
 20
1681.956000393227
 30
0.0
  0
POINT
  5
804B
330
81DA
100
AcDbEntity
  8
DEFPOINTS
  6
ByBlock
 62
     0
100
AcDbPoint
 10
2319.366003609498
 20
1681.956000393227
 30
0.0
  0
POINT
  5
804C
330
81DA
100
AcDbEntity
  8
DEFPOINTS
  6
ByBlock
 62
     0
100
AcDbPoint
 10
2319.366003609498
 20
1511.108227928494
 30
0.0
  0
ENDBLK
  5
804D
330
81DA
100
AcDbEntity
  8
0
100
AcDbBlockEnd
  0
BLOCK
  5
81DD
330
81DC
100
AcDbEntity
  8
0
100
AcDbBlockBegin
  2
*D24
 70
     1
 10
0.0
 20
0.0
 30
0.0
  3
*D24
  1

  0
LINE
  5
8051
330
81DC
100
AcDbEntity
  8
0
  6
ByBlock
 62
     0
100
AcDbLine
 10
3321.223289427713
 20
1656.956000393227
 30
0.0
 11
3321.223289427713
 21
1486.108227928494
 31
0.0
  0
LINE
  5
8052
330
81DC
100
AcDbEntity
  8
0
  6
ByBlock
 62
     0
100
AcDbLine
 10
3973.223289427713
 20
1656.956000393227
 30
0.0
 11
3973.223289427713
 21
1486.108227928494
 31
0.0
  0
LINE
  5
8053
330
81DC
100
AcDbEntity
  8
0
  6
ByBlock
 62
     0
100
AcDbLine
 10
3371.223289427712
 20
1511.108227928494
 30
0.0
 11
3923.223289427713
 21
1511.108227928494
 31
0.0
  0
INSERT
  5
8054
330
81DC
100
AcDbEntity
  8
0
  6
ByBlock
 62
     0
100
AcDbBlockReference
  2
_OPEN
 10
3321.223289427713
 20
1511.108227928494
 30
0.0
 41
50.0
 42
50.0
 43
50.0
 50
180.0
  0
INSERT
  5
8055
330
81DC
100
AcDbEntity
  8
0
  6
ByBlock
 62
     0
100
AcDbBlockReference
  2
_OPEN
 10
3973.223289427713
 20
1511.108227928494
 30
0.0
 41
50.0
 42
50.0
 43
50.0
  0
TEXT
  5
8056
330
81DC
100
AcDbEntity
  8
3
 62
     0
100
AcDbText
 10
3550.794717999142
 20
1536.108227928494
 30
0.0
 40
75.0
  1
652
100
AcDbText
  0
POINT
  5
8057
330
81DC
100
AcDbEntity
  8
DEFPOINTS
  6
ByBlock
 62
     0
100
AcDbPoint
 10
3321.223289427713
 20
1681.956000393227
 30
0.0
  0
POINT
  5
8058
330
81DC
100
AcDbEntity
  8
DEFPOINTS
  6
ByBlock
 62
     0
100
AcDbPoint
 10
3973.223289427713
 20
1681.956000393227
 30
0.0
  0
POINT
  5
8059
330
81DC
100
AcDbEntity
  8
DEFPOINTS
  6
ByBlock
 62
     0
100
AcDbPoint
 10
3973.223289427713
 20
1511.108227928494
 30
0.0
  0
ENDBLK
  5
805A
330
81DC
100
AcDbEntity
  8
0
100
AcDbBlockEnd
  0
BLOCK
  5
81DF
330
81DE
100
AcDbEntity
  8
0
100
AcDbBlockBegin
  2
*D25
 70
     1
 10
0.0
 20
0.0
 30
0.0
  3
*D25
  1

  0
LINE
  5
805E
330
81DE
100
AcDbEntity
  8
0
  6
ByBlock
 62
     0
100
AcDbLine
 10
3973.223289427713
 20
1656.956000393227
 30
0.0
 11
3973.223289427713
 21
1486.108227928494
 31
0.0
  0
LINE
  5
805F
330
81DE
100
AcDbEntity
  8
0
  6
ByBlock
 62
     0
100
AcDbLine
 10
4476.223289427713
 20
1656.956000393227
 30
0.0
 11
4476.223289427713
 21
1486.108227928494
 31
0.0
  0
LINE
  5
8060
330
81DE
100
AcDbEntity
  8
0
  6
ByBlock
 62
     0
100
AcDbLine
 10
4023.223289427713
 20
1511.108227928494
 30
0.0
 11
4426.223289427713
 21
1511.108227928494
 31
0.0
  0
INSERT
  5
8061
330
81DE
100
AcDbEntity
  8
0
  6
ByBlock
 62
     0
100
AcDbBlockReference
  2
_OPEN
 10
3973.223289427713
 20
1511.108227928494
 30
0.0
 41
50.0
 42
50.0
 43
50.0
 50
180.0
  0
INSERT
  5
8062
330
81DE
100
AcDbEntity
  8
0
  6
ByBlock
 62
     0
100
AcDbBlockReference
  2
_OPEN
 10
4476.223289427713
 20
1511.108227928494
 30
0.0
 41
50.0
 42
50.0
 43
50.0
  0
TEXT
  5
8063
330
81DE
100
AcDbEntity
  8
3
 62
     0
100
AcDbText
 10
4128.294717999142
 20
1536.108227928494
 30
0.0
 40
75.0
  1
503
100
AcDbText
  0
POINT
  5
8064
330
81DE
100
AcDbEntity
  8
DEFPOINTS
  6
ByBlock
 62
     0
100
AcDbPoint
 10
3973.223289427713
 20
1681.956000393227
 30
0.0
  0
POINT
  5
8065
330
81DE
100
AcDbEntity
  8
DEFPOINTS
  6
ByBlock
 62
     0
100
AcDbPoint
 10
4476.223289427713
 20
1681.956000393227
 30
0.0
  0
POINT
  5
8066
330
81DE
100
AcDbEntity
  8
DEFPOINTS
  6
ByBlock
 62
     0
100
AcDbPoint
 10
4476.223289427713
 20
1511.108227928494
 30
0.0
  0
ENDBLK
  5
8067
330
81DE
100
AcDbEntity
  8
0
100
AcDbBlockEnd
  0
BLOCK
  5
81E1
330
81E0
100
AcDbEntity
  8
0
100
AcDbBlockBegin
  2
_NONE
 70
     0
 10
0.0
 20
0.0
 30
0.0
  3
_NONE
  1

  0
CIRCLE
  5
806B
330
81E0
100
AcDbEntity
  8
0
  6
ByBlock
 62
     0
100
AcDbCircle
 10
0.0
 20
0.0
 30
0.0
 40
0.25
  0
ENDBLK
  5
806C
330
81E0
100
AcDbEntity
  8
0
100
AcDbBlockEnd
  0
BLOCK
  5
81E3
330
81E2
100
AcDbEntity
  8
0
100
AcDbBlockBegin
  2
*D27
 70
     1
 10
0.0
 20
0.0
 30
0.0
  3
*D27
  1

  0
LINE
  5
8089
330
81E2
100
AcDbEntity
  8
0
  6
ByBlock
 62
     0
100
AcDbLine
 10
2596.658321238967
 20
1713.956000393227
 30
0.0
 11
2596.658321238967
 21
1808.956000393227
 31
0.0
  0
TEXT
  5
808A
330
81E2
100
AcDbEntity
  8
3
 62
     0
100
AcDbText
 10
2741.301178381824
 20
1652.527428964656
 30
0.0
 40
75.0
  1
(95)
 50
90.0
100
AcDbText
  0
POINT
  5
808B
330
81E2
100
AcDbEntity
  8
DEFPOINTS
  6
ByBlock
 62
     0
100
AcDbPoint
 10
2319.366003609498
 20
1713.956000393227
 30
0.0
  0
POINT
  5
808C
330
81E2
100
AcDbEntity
  8
DEFPOINTS
  6
ByBlock
 62
     0
100
AcDbPoint
 10
2319.366003609498
 20
1808.956000393227
 30
0.0
  0
POINT
  5
808D
330
81E2
100
AcDbEntity
  8
DEFPOINTS
  6
ByBlock
 62
     0
100
AcDbPoint
 10
2596.658321238967
 20
1808.956000393227
 30
0.0
  0
ENDBLK
  5
808E
330
81E2
100
AcDbEntity
  8
0
100
AcDbBlockEnd
  0
BLOCK
  5
81E5
330
81E4
100
AcDbEntity
  8
0
100
AcDbBlockBegin
  2
*D28
 70
     1
 10
0.0
 20
0.0
 30
0.0
  3
*D28
  1

  0
LINE
  5
8092
330
81E4
100
AcDbEntity
  8
0
  6
ByBlock
 62
     0
100
AcDbLine
 10
2344.366003609498
 20
1613.956000393227
 30
0.0
 11
2816.320374771335
 21
1613.956000393227
 31
0.0
  0
LINE
  5
8093
330
81E4
100
AcDbEntity
  8
0
  6
ByBlock
 62
     0
100
AcDbLine
 10
1907.366003609499
 20
2948.956000393229
 30
0.0
 11
2816.320374771335
 21
2948.956000393229
 31
0.0
  0
LINE
  5
8094
330
81E4
100
AcDbEntity
  8
0
  6
ByBlock
 62
     0
100
AcDbLine
 10
2791.320374771335
 20
1663.956000393227
 30
0.0
 11
2791.320374771335
 21
2898.956000393229
 31
0.0
  0
INSERT
  5
8095
330
81E4
100
AcDbEntity
  8
0
  6
ByBlock
 62
     0
100
AcDbBlockReference
  2
_OPEN
 10
2791.320374771335
 20
1613.956000393227
 30
0.0
 41
50.0
 42
50.0
 43
50.0
 50
270.0
  0
INSERT
  5
8096
330
81E4
100
AcDbEntity
  8
0
  6
ByBlock
 62
     0
100
AcDbBlockReference
  2
_OPEN
 10
2791.320374771335
 20
2948.956000393229
 30
0.0
 41
50.0
 42
50.0
 43
50.0
 50
90.0
  0
TEXT
  5
8097
330
81E4
100
AcDbEntity
  8
3
 62
     0
100
AcDbText
 10
2734.177517628477
 20
2108.241714678942
 30
0.0
 40
75.0
  1
(1335)
 50
90.0
100
AcDbText
  0
POINT
  5
8098
330
81E4
100
AcDbEntity
  8
DEFPOINTS
  6
ByBlock
 62
     0
100
AcDbPoint
 10
2319.366003609498
 20
1613.956000393227
 30
0.0
  0
POINT
  5
8099
330
81E4
100
AcDbEntity
  8
DEFPOINTS
  6
ByBlock
 62
     0
100
AcDbPoint
 10
1882.366003609499
 20
2948.956000393229
 30
0.0
  0
POINT
  5
809A
330
81E4
100
AcDbEntity
  8
DEFPOINTS
  6
ByBlock
 62
     0
100
AcDbPoint
 10
2791.320374771335
 20
2948.956000393229
 30
0.0
  0
ENDBLK
  5
809B
330
81E4
100
AcDbEntity
  8
0
100
AcDbBlockEnd
  0
BLOCK
  5
826A
330
8269
100
AcDbEntity
  8
0
100
AcDbBlockBegin
  2
*D30
 70
     1
 10
0.0
 20
0.0
 30
0.0
  3
*D30
  1

  0
LINE
  5
8294
330
8269
100
AcDbEntity
  8
3
 62
     0
370
    -2
100
AcDbLine
 10
3133.223289427717
 20
2753.956000393227
 30
0.0
 11
3133.223289427717
 21
3372.272819985719
 31
0.0
  0
LINE
  5
8295
330
8269
100
AcDbEntity
  8
3
 62
     0
370
    -2
100
AcDbLine
 10
3973.223289427714
 20
3254.966799471808
 30
0.0
 11
3973.223289427714
 21
3372.272819985719
 31
0.0
  0
LINE
  5
8296
330
8269
100
AcDbEntity
  8
3
 62
     0
370
    -2
100
AcDbLine
 10
3183.223289427717
 20
3347.27281998572
 30
0.0
 11
3923.223289427714
 21
3347.27281998572
 31
0.0
  0
INSERT
  5
8297
330
8269
100
AcDbEntity
  8
3
 62
     0
370
    -2
100
AcDbBlockReference
  2
_OPEN
 10
3133.223289427717
 20
3347.27281998572
 30
0.0
 41
50.0
 42
50.0
 43
50.0
 50
180.0
  0
INSERT
  5
8298
330
8269
100
AcDbEntity
  8
3
 62
     0
370
    -2
100
AcDbBlockReference
  2
_OPEN
 10
3973.223289427714
 20
3347.27281998572
 30
0.0
 41
50.0
 42
50.0
 43
50.0
  0
MTEXT
  5
8299
330
8269
100
AcDbEntity
  8
3
 62
     0
100
AcDbMText
 10
3553.223289427716
 20
3429.415677128576
 30
0.0
 40
75.0
 41
0.0
 71
     5
 72
     1
  1
\A1;(840)
 73
     1
 44
1.0
1001
ACAD
1000
MTEXTBEGIN
1070
    73
1070
     1
1070
    44
1040
1.0
1070
    74
1070
     0
1000
MTEXTEND
  0
POINT
  5
829A
330
8269
100
AcDbEntity
  8
DEFPOINTS
 62
     0
100
AcDbPoint
 10
3133.223289427717
 20
2728.956000393227
 30
0.0
  0
POINT
  5
829B
330
8269
100
AcDbEntity
  8
DEFPOINTS
 62
     0
100
AcDbPoint
 10
3973.223289427714
 20
3229.966799471808
 30
0.0
  0
POINT
  5
829C
330
8269
100
AcDbEntity
  8
DEFPOINTS
 62
     0
100
AcDbPoint
 10
3973.223289427714
 20
3347.27281998572
 30
0.0
  0
ENDBLK
  5
826B
330
8269
100
AcDbEntity
  8
0
100
AcDbBlockEnd
  0
BLOCK
  5
8277
330
8276
100
AcDbEntity
  8
0
100
AcDbBlockBegin
  2
*D31
 70
     1
 10
0.0
 20
0.0
 30
0.0
  3
*D31
  1

  0
LINE
  5
829D
330
8276
100
AcDbEntity
  8
3
 62
     0
370
    -2
100
AcDbLine
 10
3973.223289427714
 20
3254.966799471808
 30
0.0
 11
3973.223289427714
 21
3372.272819985719
 31
0.0
  0
LINE
  5
829E
330
8276
100
AcDbEntity
  8
3
 62
     0
370
    -2
100
AcDbLine
 10
4533.223289427713
 20
2448.756000393227
 30
0.0
 11
4533.223289427713
 21
3372.272819985719
 31
0.0
  0
LINE
  5
829F
330
8276
100
AcDbEntity
  8
3
 62
     0
370
    -2
100
AcDbLine
 10
4023.223289427714
 20
3347.27281998572
 30
0.0
 11
4483.223289427713
 21
3347.27281998572
 31
0.0
  0
INSERT
  5
82A0
330
8276
100
AcDbEntity
  8
3
 62
     0
370
    -2
100
AcDbBlockReference
  2
_OPEN
 10
3973.223289427714
 20
3347.27281998572
 30
0.0
 41
50.0
 42
50.0
 43
50.0
 50
180.0
  0
INSERT
  5
82A1
330
8276
100
AcDbEntity
  8
3
 62
     0
370
    -2
100
AcDbBlockReference
  2
_OPEN
 10
4533.223289427713
 20
3347.27281998572
 30
0.0
 41
50.0
 42
50.0
 43
50.0
  0
MTEXT
  5
82A2
330
8276
100
AcDbEntity
  8
3
 62
     0
100
AcDbMText
 10
4253.223289427713
 20
3429.415677128576
 30
0.0
 40
75.0
 41
0.0
 71
     5
 72
     1
  1
\A1;(560)
 73
     1
 44
1.0
1001
ACAD
1000
MTEXTBEGIN
1070
    73
1070
     1
1070
    44
1040
1.0
1070
    74
1070
     0
1000
MTEXTEND
  0
POINT
  5
82A3
330
8276
100
AcDbEntity
  8
DEFPOINTS
 62
     0
100
AcDbPoint
 10
3973.223289427714
 20
3229.966799471808
 30
0.0
  0
POINT
  5
82A4
330
8276
100
AcDbEntity
  8
DEFPOINTS
 62
     0
100
AcDbPoint
 10
4533.223289427713
 20
2423.756000393227
 30
0.0
  0
POINT
  5
82A5
330
8276
100
AcDbEntity
  8
DEFPOINTS
 62
     0
100
AcDbPoint
 10
4533.223289427713
 20
3347.27281998572
 30
0.0
  0
ENDBLK
  5
8278
330
8276
100
AcDbEntity
  8
0
100
AcDbBlockEnd
  0
BLOCK
  5
82AB
330
82AA
100
AcDbEntity
  8
0
100
AcDbBlockBegin
  2
*D32
 70
     1
 10
0.0
 20
0.0
 30
0.0
  3
*D32
  1

  0
LINE
  5
82AD
330
82AA
100
AcDbEntity
  8
3
 62
     0
370
    -2
100
AcDbLine
 10
719.3660036094987
 20
3976.46291352958
 30
0.0
 11
719.3660036094987
 21
3625.10445721307
 31
0.0
  0
LINE
  5
82AE
330
82AA
100
AcDbEntity
  8
3
 62
     0
370
    -2
100
AcDbLine
 10
2319.366003609498
 20
3976.462913529579
 30
0.0
 11
2319.366003609498
 21
3625.10445721307
 31
0.0
  0
LINE
  5
82AF
330
82AA
100
AcDbEntity
  8
3
 62
     0
370
    -2
100
AcDbLine
 10
769.3660036094987
 20
3650.10445721307
 30
0.0
 11
2269.366003609498
 21
3650.10445721307
 31
0.0
  0
INSERT
  5
82B0
330
82AA
100
AcDbEntity
  8
3
 62
     0
370
    -2
100
AcDbBlockReference
  2
_OPEN
 10
719.3660036094987
 20
3650.10445721307
 30
0.0
 41
50.0
 42
50.0
 43
50.0
 50
180.0
  0
INSERT
  5
82B1
330
82AA
100
AcDbEntity
  8
3
 62
     0
370
    -2
100
AcDbBlockReference
  2
_OPEN
 10
2319.366003609498
 20
3650.10445721307
 30
0.0
 41
50.0
 42
50.0
 43
50.0
  0
MTEXT
  5
82B2
330
82AA
100
AcDbEntity
  8
3
 62
     0
100
AcDbMText
 10
1519.366003609498
 20
3712.60445721307
 30
0.0
 40
75.0
 41
0.0
 71
     5
 72
     1
  1
\A1;1600
 73
     1
 44
1.0
1001
ACAD
1000
MTEXTBEGIN
1070
    73
1070
     1
1070
    44
1040
1.0
1070
    74
1070
     0
1000
MTEXTEND
  0
POINT
  5
82B3
330
82AA
100
AcDbEntity
  8
DEFPOINTS
 62
     0
100
AcDbPoint
 10
719.3660036094987
 20
4001.46291352958
 30
0.0
  0
POINT
  5
82B4
330
82AA
100
AcDbEntity
  8
DEFPOINTS
 62
     0
100
AcDbPoint
 10
2319.366003609498
 20
4001.462913529579
 30
0.0
  0
POINT
  5
82B5
330
82AA
100
AcDbEntity
  8
DEFPOINTS
 62
     0
100
AcDbPoint
 10
2319.366003609498
 20
3650.10445721307
 30
0.0
  0
ENDBLK
  5
82AC
330
82AA
100
AcDbEntity
  8
0
100
AcDbBlockEnd
  0
BLOCK
  5
82B7
330
82B6
100
AcDbEntity
  8
0
100
AcDbBlockBegin
  2
*D33
 70
     1
 10
0.0
 20
0.0
 30
0.0
  3
*D33
  1

  0
LINE
  5
82B9
330
82B6
100
AcDbEntity
  8
3
 62
     0
370
    -2
100
AcDbLine
 10
2596.658321238967
 20
1733.456000393227
 30
0.0
 11
2596.658321238967
 21
1763.277428964655
 31
0.0
  0
LINE
  5
82BA
330
82B6
100
AcDbEntity
  8
3
 62
     0
370
    -2
100
AcDbLine
 10
2596.658321238967
 20
1804.456000393227
 30
0.0
 11
2596.658321238967
 21
1774.634571821798
 31
0.0
  0
SOLID
  5
82BB
330
82B6
100
AcDbEntity
  8
3
 62
     0
100
AcDbTrace
 10
2595.908321238967
 20
1733.456000393227
 30
0.0
 11
2597.408321238967
 21
1733.456000393227
 31
0.0
 12
2596.658321238967
 22
1728.956000393227
 32
0.0
 13
2596.658321238967
 23
1728.956000393227
 33
0.0
  0
SOLID
  5
82BC
330
82B6
100
AcDbEntity
  8
3
 62
     0
100
AcDbTrace
 10
2595.908321238967
 20
1804.456000393227
 30
0.0
 11
2597.408321238967
 21
1804.456000393227
 31
0.0
 12
2596.658321238967
 22
1808.956000393227
 32
0.0
 13
2596.658321238967
 23
1808.956000393227
 33
0.0
  0
MTEXT
  5
82BD
330
82B6
100
AcDbEntity
  8
3
 62
     0
100
AcDbMText
 10
2596.658321238967
 20
1768.956000393227
 30
0.0
 40
4.5
 41
0.0
 71
     5
 72
     1
  1
\A1;(80)
 73
     1
 44
1.0
1001
ACAD
1000
MTEXTBEGIN
1070
    73
1070
     1
1070
    44
1040
1.0
1070
    74
1070
     0
1000
MTEXTEND
  0
POINT
  5
82BE
330
82B6
100
AcDbEntity
  8
DEFPOINTS
 62
     0
100
AcDbPoint
 10
2319.366003609498
 20
1728.956000393227
 30
0.0
  0
POINT
  5
82BF
330
82B6
100
AcDbEntity
  8
DEFPOINTS
 62
     0
100
AcDbPoint
 10
2319.366003609498
 20
1808.956000393227
 30
0.0
  0
POINT
  5
82C0
330
82B6
100
AcDbEntity
  8
DEFPOINTS
 62
     0
100
AcDbPoint
 10
2596.658321238967
 20
1808.956000393227
 30
0.0
  0
ENDBLK
  5
82B8
330
82B6
100
AcDbEntity
  8
0
100
AcDbBlockEnd
  0
BLOCK
  5
82C2
330
82C1
100
AcDbEntity
  8
0
100
AcDbBlockBegin
  2
*D34
 70
     1
 10
0.0
 20
0.0
 30
0.0
  3
*D34
  1

  0
LINE
  5
82C4
330
82C1
100
AcDbEntity
  8
3
 62
     0
370
    -2
100
AcDbLine
 10
2344.366003609498
 20
1628.956000393227
 30
0.0
 11
2795.820374771334
 21
1628.956000393227
 31
0.0
  0
LINE
  5
82C5
330
82C1
100
AcDbEntity
  8
3
 62
     0
370
    -2
100
AcDbLine
 10
1907.366003609499
 20
2948.956000393229
 30
0.0
 11
2795.820374771334
 21
2948.956000393229
 31
0.0
  0
LINE
  5
82C6
330
82C1
100
AcDbEntity
  8
3
 62
     0
370
    -2
100
AcDbLine
 10
2791.320374771335
 20
1633.456000393227
 30
0.0
 11
2791.320374771335
 21
2283.277428964657
 31
0.0
  0
LINE
  5
82C7
330
82C1
100
AcDbEntity
  8
3
 62
     0
370
    -2
100
AcDbLine
 10
2791.320374771335
 20
2944.456000393229
 30
0.0
 11
2791.320374771335
 21
2294.634571821799
 31
0.0
  0
SOLID
  5
82C8
330
82C1
100
AcDbEntity
  8
3
 62
     0
100
AcDbTrace
 10
2790.570374771335
 20
1633.456000393227
 30
0.0
 11
2792.070374771335
 21
1633.456000393227
 31
0.0
 12
2791.320374771335
 22
1628.956000393227
 32
0.0
 13
2791.320374771335
 23
1628.956000393227
 33
0.0
  0
SOLID
  5
82C9
330
82C1
100
AcDbEntity
  8
3
 62
     0
100
AcDbTrace
 10
2790.570374771335
 20
2944.456000393229
 30
0.0
 11
2792.070374771335
 21
2944.456000393229
 31
0.0
 12
2791.320374771335
 22
2948.956000393229
 32
0.0
 13
2791.320374771335
 23
2948.956000393229
 33
0.0
  0
MTEXT
  5
82CA
330
82C1
100
AcDbEntity
  8
3
 62
     0
100
AcDbMText
 10
2791.320374771334
 20
2288.956000393229
 30
0.0
 40
4.5
 41
0.0
 71
     5
 72
     1
  1
\A1;(1320)
 73
     1
 44
1.0
1001
ACAD
1000
MTEXTBEGIN
1070
    73
1070
     1
1070
    44
1040
1.0
1070
    74
1070
     0
1000
MTEXTEND
  0
POINT
  5
82CB
330
82C1
100
AcDbEntity
  8
DEFPOINTS
 62
     0
100
AcDbPoint
 10
2319.366003609498
 20
1628.956000393227
 30
0.0
  0
POINT
  5
82CC
330
82C1
100
AcDbEntity
  8
DEFPOINTS
 62
     0
100
AcDbPoint
 10
1882.366003609499
 20
2948.956000393229
 30
0.0
  0
POINT
  5
82CD
330
82C1
100
AcDbEntity
  8
DEFPOINTS
 62
     0
100
AcDbPoint
 10
2791.320374771335
 20
2948.956000393229
 30
0.0
  0
ENDBLK
  5
82C3
330
82C1
100
AcDbEntity
  8
0
100
AcDbBlockEnd
  0
BLOCK
  5
82CF
330
82CE
100
AcDbEntity
  8
0
100
AcDbBlockBegin
  2
*D35
 70
     1
 10
0.0
 20
0.0
 30
0.0
  3
*D35
  1

  0
LINE
  5
82D1
330
82CE
100
AcDbEntity
  8
3
 62
     0
370
    -2
100
AcDbLine
 10
719.3660036094987
 20
1603.956000393227
 30
0.0
 11
719.3660036094987
 21
1453.608227928494
 31
0.0
  0
LINE
  5
82D2
330
82CE
100
AcDbEntity
  8
3
 62
     0
370
    -2
100
AcDbLine
 10
1869.366003609498
 20
1603.956000393227
 30
0.0
 11
1869.366003609498
 21
1453.608227928494
 31
0.0
  0
LINE
  5
82D3
330
82CE
100
AcDbEntity
  8
3
 62
     0
370
    -2
100
AcDbLine
 10
723.8660036094987
 20
1458.108227928494
 30
0.0
 11
1285.04457503807
 21
1458.108227928494
 31
0.0
  0
LINE
  5
82D4
330
82CE
100
AcDbEntity
  8
3
 62
     0
370
    -2
100
AcDbLine
 10
1864.866003609498
 20
1458.108227928494
 30
0.0
 11
1303.687432180927
 21
1458.108227928494
 31
0.0
  0
SOLID
  5
82D5
330
82CE
100
AcDbEntity
  8
3
 62
     0
100
AcDbTrace
 10
723.8660036094987
 20
1458.858227928494
 30
0.0
 11
723.8660036094987
 21
1457.358227928494
 31
0.0
 12
719.3660036094987
 22
1458.108227928494
 32
0.0
 13
719.3660036094987
 23
1458.108227928494
 33
0.0
  0
SOLID
  5
82D6
330
82CE
100
AcDbEntity
  8
3
 62
     0
100
AcDbTrace
 10
1864.866003609498
 20
1458.858227928494
 30
0.0
 11
1864.866003609498
 21
1457.358227928494
 31
0.0
 12
1869.366003609498
 22
1458.108227928494
 32
0.0
 13
1869.366003609498
 23
1458.108227928494
 33
0.0
  0
MTEXT
  5
82D7
330
82CE
100
AcDbEntity
  8
3
 62
     0
100
AcDbMText
 10
1294.366003609498
 20
1458.108227928494
 30
0.0
 40
4.5
 41
0.0
 71
     5
 72
     1
  1
\A1;1150
 73
     1
 44
1.0
1001
ACAD
1000
MTEXTBEGIN
1070
    73
1070
     1
1070
    44
1040
1.0
1070
    74
1070
     0
1000
MTEXTEND
  0
POINT
  5
82D8
330
82CE
100
AcDbEntity
  8
DEFPOINTS
 62
     0
100
AcDbPoint
 10
719.3660036094987
 20
1628.956000393227
 30
0.0
  0
POINT
  5
82D9
330
82CE
100
AcDbEntity
  8
DEFPOINTS
 62
     0
100
AcDbPoint
 10
1869.366003609498
 20
1628.956000393227
 30
0.0
  0
POINT
  5
82DA
330
82CE
100
AcDbEntity
  8
DEFPOINTS
 62
     0
100
AcDbPoint
 10
1869.366003609498
 20
1458.108227928494
 30
0.0
  0
ENDBLK
  5
82D0
330
82CE
100
AcDbEntity
  8
0
100
AcDbBlockEnd
  0
BLOCK
  5
82DC
330
82DB
100
AcDbEntity
  8
0
100
AcDbBlockBegin
  2
*D36
 70
     1
 10
0.0
 20
0.0
 30
0.0
  3
*D36
  1

  0
LINE
  5
82DE
330
82DB
100
AcDbEntity
  8
3
 62
     0
370
    -2
100
AcDbLine
 10
1869.366003609498
 20
1603.956000393227
 30
0.0
 11
1869.366003609498
 21
1453.608227928494
 31
0.0
  0
LINE
  5
82DF
330
82DB
100
AcDbEntity
  8
3
 62
     0
370
    -2
100
AcDbLine
 10
2319.366003609498
 20
1603.956000393227
 30
0.0
 11
2319.366003609498
 21
1453.608227928494
 31
0.0
  0
LINE
  5
82E0
330
82DB
100
AcDbEntity
  8
3
 62
     0
370
    -2
100
AcDbLine
 10
1873.866003609498
 20
1458.108227928494
 30
0.0
 11
2086.330289323784
 21
1458.108227928494
 31
0.0
  0
LINE
  5
82E1
330
82DB
100
AcDbEntity
  8
3
 62
     0
370
    -2
100
AcDbLine
 10
2314.866003609498
 20
1458.108227928494
 30
0.0
 11
2102.401717895212
 21
1458.108227928494
 31
0.0
  0
SOLID
  5
82E2
330
82DB
100
AcDbEntity
  8
3
 62
     0
100
AcDbTrace
 10
1873.866003609498
 20
1458.858227928494
 30
0.0
 11
1873.866003609498
 21
1457.358227928494
 31
0.0
 12
1869.366003609498
 22
1458.108227928494
 32
0.0
 13
1869.366003609498
 23
1458.108227928494
 33
0.0
  0
SOLID
  5
82E3
330
82DB
100
AcDbEntity
  8
3
 62
     0
100
AcDbTrace
 10
2314.866003609498
 20
1458.858227928494
 30
0.0
 11
2314.866003609498
 21
1457.358227928494
 31
0.0
 12
2319.366003609498
 22
1458.108227928494
 32
0.0
 13
2319.366003609498
 23
1458.108227928494
 33
0.0
  0
MTEXT
  5
82E4
330
82DB
100
AcDbEntity
  8
3
 62
     0
100
AcDbMText
 10
2094.366003609498
 20
1458.108227928494
 30
0.0
 40
4.5
 41
0.0
 71
     5
 72
     1
  1
\A1;450
 73
     1
 44
1.0
1001
ACAD
1000
MTEXTBEGIN
1070
    73
1070
     1
1070
    44
1040
1.0
1070
    74
1070
     0
1000
MTEXTEND
  0
POINT
  5
82E5
330
82DB
100
AcDbEntity
  8
DEFPOINTS
 62
     0
100
AcDbPoint
 10
1869.366003609498
 20
1628.956000393227
 30
0.0
  0
POINT
  5
82E6
330
82DB
100
AcDbEntity
  8
DEFPOINTS
 62
     0
100
AcDbPoint
 10
2319.366003609498
 20
1628.956000393227
 30
0.0
  0
POINT
  5
82E7
330
82DB
100
AcDbEntity
  8
DEFPOINTS
 62
     0
100
AcDbPoint
 10
2319.366003609498
 20
1458.108227928494
 30
0.0
  0
ENDBLK
  5
82DD
330
82DB
100
AcDbEntity
  8
0
100
AcDbBlockEnd
  0
BLOCK
  5
82E9
330
82E8
100
AcDbEntity
  8
0
100
AcDbBlockBegin
  2
*D37
 70
     1
 10
0.0
 20
0.0
 30
0.0
  3
*D37
  1

  0
LINE
  5
82EB
330
82E8
100
AcDbEntity
  8
3
 62
     0
370
    -2
100
AcDbLine
 10
3321.223289427713
 20
1603.956000393227
 30
0.0
 11
3321.223289427713
 21
1453.608227928494
 31
0.0
  0
LINE
  5
82EC
330
82E8
100
AcDbEntity
  8
3
 62
     0
370
    -2
100
AcDbLine
 10
3973.223289427713
 20
1603.956000393227
 30
0.0
 11
3973.223289427713
 21
1453.608227928494
 31
0.0
  0
LINE
  5
82ED
330
82E8
100
AcDbEntity
  8
3
 62
     0
370
    -2
100
AcDbLine
 10
3325.723289427713
 20
1458.108227928494
 30
0.0
 11
3639.187575141999
 21
1458.108227928494
 31
0.0
  0
LINE
  5
82EE
330
82E8
100
AcDbEntity
  8
3
 62
     0
370
    -2
100
AcDbLine
 10
3968.723289427713
 20
1458.108227928494
 30
0.0
 11
3655.259003713427
 21
1458.108227928494
 31
0.0
  0
SOLID
  5
82EF
330
82E8
100
AcDbEntity
  8
3
 62
     0
100
AcDbTrace
 10
3325.723289427713
 20
1458.858227928494
 30
0.0
 11
3325.723289427713
 21
1457.358227928494
 31
0.0
 12
3321.223289427713
 22
1458.108227928494
 32
0.0
 13
3321.223289427713
 23
1458.108227928494
 33
0.0
  0
SOLID
  5
82F0
330
82E8
100
AcDbEntity
  8
3
 62
     0
100
AcDbTrace
 10
3968.723289427713
 20
1458.858227928494
 30
0.0
 11
3968.723289427713
 21
1457.358227928494
 31
0.0
 12
3973.223289427713
 22
1458.108227928494
 32
0.0
 13
3973.223289427713
 23
1458.108227928494
 33
0.0
  0
MTEXT
  5
82F1
330
82E8
100
AcDbEntity
  8
3
 62
     0
100
AcDbMText
 10
3647.223289427714
 20
1458.108227928494
 30
0.0
 40
4.5
 41
0.0
 71
     5
 72
     1
  1
\A1;652
 73
     1
 44
1.0
1001
ACAD
1000
MTEXTBEGIN
1070
    73
1070
     1
1070
    44
1040
1.0
1070
    74
1070
     0
1000
MTEXTEND
  0
POINT
  5
82F2
330
82E8
100
AcDbEntity
  8
DEFPOINTS
 62
     0
100
AcDbPoint
 10
3321.223289427713
 20
1628.956000393227
 30
0.0
  0
POINT
  5
82F3
330
82E8
100
AcDbEntity
  8
DEFPOINTS
 62
     0
100
AcDbPoint
 10
3973.223289427713
 20
1628.956000393227
 30
0.0
  0
POINT
  5
82F4
330
82E8
100
AcDbEntity
  8
DEFPOINTS
 62
     0
100
AcDbPoint
 10
3973.223289427713
 20
1458.108227928494
 30
0.0
  0
ENDBLK
  5
82EA
330
82E8
100
AcDbEntity
  8
0
100
AcDbBlockEnd
  0
BLOCK
  5
82F6
330
82F5
100
AcDbEntity
  8
0
100
AcDbBlockBegin
  2
*D38
 70
     1
 10
0.0
 20
0.0
 30
0.0
  3
*D38
  1

  0
LINE
  5
82F8
330
82F5
100
AcDbEntity
  8
3
 62
     0
370
    -2
100
AcDbLine
 10
3973.223289427713
 20
1603.956000393227
 30
0.0
 11
3973.223289427713
 21
1453.608227928494
 31
0.0
  0
LINE
  5
82F9
330
82F5
100
AcDbEntity
  8
3
 62
     0
370
    -2
100
AcDbLine
 10
4476.223289427713
 20
1603.956000393227
 30
0.0
 11
4476.223289427713
 21
1453.608227928494
 31
0.0
  0
LINE
  5
82FA
330
82F5
100
AcDbEntity
  8
3
 62
     0
370
    -2
100
AcDbLine
 10
3977.723289427713
 20
1458.108227928494
 30
0.0
 11
4216.687575141999
 21
1458.108227928494
 31
0.0
  0
LINE
  5
82FB
330
82F5
100
AcDbEntity
  8
3
 62
     0
370
    -2
100
AcDbLine
 10
4471.723289427713
 20
1458.108227928494
 30
0.0
 11
4232.759003713428
 21
1458.108227928494
 31
0.0
  0
SOLID
  5
82FC
330
82F5
100
AcDbEntity
  8
3
 62
     0
100
AcDbTrace
 10
3977.723289427713
 20
1458.858227928494
 30
0.0
 11
3977.723289427713
 21
1457.358227928494
 31
0.0
 12
3973.223289427713
 22
1458.108227928494
 32
0.0
 13
3973.223289427713
 23
1458.108227928494
 33
0.0
  0
SOLID
  5
82FD
330
82F5
100
AcDbEntity
  8
3
 62
     0
100
AcDbTrace
 10
4471.723289427713
 20
1458.858227928494
 30
0.0
 11
4471.723289427713
 21
1457.358227928494
 31
0.0
 12
4476.223289427713
 22
1458.108227928494
 32
0.0
 13
4476.223289427713
 23
1458.108227928494
 33
0.0
  0
MTEXT
  5
82FE
330
82F5
100
AcDbEntity
  8
3
 62
     0
100
AcDbMText
 10
4224.723289427713
 20
1458.108227928494
 30
0.0
 40
4.5
 41
0.0
 71
     5
 72
     1
  1
\A1;503
 73
     1
 44
1.0
1001
ACAD
1000
MTEXTBEGIN
1070
    73
1070
     1
1070
    44
1040
1.0
1070
    74
1070
     0
1000
MTEXTEND
  0
POINT
  5
82FF
330
82F5
100
AcDbEntity
  8
DEFPOINTS
 62
     0
100
AcDbPoint
 10
3973.223289427713
 20
1628.956000393227
 30
0.0
  0
POINT
  5
8300
330
82F5
100
AcDbEntity
  8
DEFPOINTS
 62
     0
100
AcDbPoint
 10
4476.223289427713
 20
1628.956000393227
 30
0.0
  0
POINT
  5
8301
330
82F5
100
AcDbEntity
  8
DEFPOINTS
 62
     0
100
AcDbPoint
 10
4476.223289427713
 20
1458.108227928494
 30
0.0
  0
ENDBLK
  5
82F7
330
82F5
100
AcDbEntity
  8
0
100
AcDbBlockEnd
  0
BLOCK
  5
8303
330
8302
100
AcDbEntity
  8
0
100
AcDbBlockBegin
  2
*D39
 70
     1
 10
0.0
 20
0.0
 30
0.0
  3
*D39
  1

  0
LINE
  5
8305
330
8302
100
AcDbEntity
  8
3
 62
     0
370
    -2
100
AcDbLine
 10
2320.928503609498
 20
1728.956000393227
 30
0.0
 11
2601.950986778873
 21
1728.956000393227
 31
0.0
  0
LINE
  5
8306
330
8302
100
AcDbEntity
  8
3
 62
     0
370
    -2
100
AcDbLine
 10
2320.928503609498
 20
1628.956000393227
 30
0.0
 11
2601.950986778873
 21
1628.956000393227
 31
0.0
  0
LINE
  5
8307
330
8302
100
AcDbEntity
  8
3
 62
     0
370
    -2
100
AcDbLine
 10
2597.450986778873
 20
1724.456000393226
 30
0.0
 11
2597.450986778873
 21
1683.456000393227
 31
0.0
  0
LINE
  5
8308
330
8302
100
AcDbEntity
  8
3
 62
     0
370
    -2
100
AcDbLine
 10
2597.450986778873
 20
1633.456000393227
 30
0.0
 11
2597.450986778873
 21
1674.456000393227
 31
0.0
  0
SOLID
  5
8309
330
8302
100
AcDbEntity
  8
3
 62
     0
100
AcDbTrace
 10
2596.700986778873
 20
1724.456000393226
 30
0.0
 11
2598.200986778873
 21
1724.456000393226
 31
0.0
 12
2597.450986778873
 22
1728.956000393227
 32
0.0
 13
2597.450986778873
 23
1728.956000393227
 33
0.0
  0
SOLID
  5
830A
330
8302
100
AcDbEntity
  8
3
 62
     0
100
AcDbTrace
 10
2596.700986778873
 20
1633.456000393227
 30
0.0
 11
2598.200986778873
 21
1633.456000393227
 31
0.0
 12
2597.450986778873
 22
1628.956000393227
 32
0.0
 13
2597.450986778873
 23
1628.956000393227
 33
0.0
  0
MTEXT
  5
830B
330
8302
100
AcDbEntity
  8
3
 62
     0
100
AcDbMText
 10
2597.450986778873
 20
1678.956000393227
 30
0.0
 40
4.5
 41
0.0
 71
     5
 72
     1
  1
\A1;100
 73
     1
 44
1.0
1001
ACAD
1000
MTEXTBEGIN
1070
    73
1070
     1
1070
    44
1040
1.0
1070
    74
1070
     0
1000
MTEXTEND
  0
POINT
  5
830C
330
8302
100
AcDbEntity
  8
DEFPOINTS
 62
     0
100
AcDbPoint
 10
2319.366003609498
 20
1728.956000393227
 30
0.0
  0
POINT
  5
830D
330
8302
100
AcDbEntity
  8
DEFPOINTS
 62
     0
100
AcDbPoint
 10
2319.366003609498
 20
1628.956000393227
 30
0.0
  0
POINT
  5
830E
330
8302
100
AcDbEntity
  8
DEFPOINTS
 62
     0
100
AcDbPoint
 10
2597.450986778873
 20
1628.956000393227
 30
0.0
  0
ENDBLK
  5
8304
330
8302
100
AcDbEntity
  8
0
100
AcDbBlockEnd
  0
BLOCK
  5
8311
330
8310
100
AcDbEntity
  8
0
100
AcDbBlockBegin
  2
*D40
 70
     1
 10
0.0
 20
0.0
 30
0.0
  3
*D40
  1

  0
LINE
  5
8313
330
8310
100
AcDbEntity
  8
3
 62
     0
370
    -2
100
AcDbLine
 10
3321.223289427713
 20
1603.956000393227
 30
0.0
 11
3321.223289427713
 21
1437.166043842768
 31
0.0
  0
LINE
  5
8314
330
8310
100
AcDbEntity
  8
3
 62
     0
370
    -2
100
AcDbLine
 10
3973.223289427713
 20
1603.956000393227
 30
0.0
 11
3973.223289427713
 21
1437.166043842768
 31
0.0
  0
LINE
  5
8315
330
8310
100
AcDbEntity
  8
3
 62
     0
370
    -2
100
AcDbLine
 10
3371.223289427713
 20
1462.166043842768
 30
0.0
 11
3923.223289427713
 21
1462.166043842768
 31
0.0
  0
INSERT
  5
8316
330
8310
100
AcDbEntity
  8
3
 62
     0
370
    -2
100
AcDbBlockReference
  2
_OPEN
 10
3321.223289427713
 20
1462.166043842768
 30
0.0
 41
50.0
 42
50.0
 43
50.0
 50
180.0
  0
INSERT
  5
8317
330
8310
100
AcDbEntity
  8
3
 62
     0
370
    -2
100
AcDbBlockReference
  2
_OPEN
 10
3973.223289427713
 20
1462.166043842768
 30
0.0
 41
50.0
 42
50.0
 43
50.0
  0
MTEXT
  5
8318
330
8310
100
AcDbEntity
  8
3
 62
     0
100
AcDbMText
 10
3647.223289427714
 20
1524.666043842768
 30
0.0
 40
75.0
 41
0.0
 71
     5
 72
     1
  1
\A1;652
 73
     1
 44
1.0
1001
ACAD
1000
MTEXTBEGIN
1070
    73
1070
     1
1070
    44
1040
1.0
1070
    74
1070
     0
1000
MTEXTEND
  0
POINT
  5
8319
330
8310
100
AcDbEntity
  8
DEFPOINTS
 62
     0
100
AcDbPoint
 10
3321.223289427713
 20
1628.956000393227
 30
0.0
  0
POINT
  5
831A
330
8310
100
AcDbEntity
  8
DEFPOINTS
 62
     0
100
AcDbPoint
 10
3973.223289427713
 20
1628.956000393227
 30
0.0
  0
POINT
  5
831B
330
8310
100
AcDbEntity
  8
DEFPOINTS
 62
     0
100
AcDbPoint
 10
3973.223289427713
 20
1462.166043842768
 30
0.0
  0
ENDBLK
  5
8312
330
8310
100
AcDbEntity
  8
0
100
AcDbBlockEnd
  0
BLOCK
  5
831E
330
831D
100
AcDbEntity
  8
0
100
AcDbBlockBegin
  2
*D41
 70
     1
 10
0.0
 20
0.0
 30
0.0
  3
*D41
  1

  0
LINE
  5
8320
330
831D
100
AcDbEntity
  8
3
 62
     0
370
    -2
100
AcDbLine
 10
3973.223289427713
 20
1603.956000393227
 30
0.0
 11
3973.223289427713
 21
1437.166043842768
 31
0.0
  0
LINE
  5
8321
330
831D
100
AcDbEntity
  8
3
 62
     0
370
    -2
100
AcDbLine
 10
4476.223289427713
 20
1603.956000393227
 30
0.0
 11
4476.223289427713
 21
1437.166043842768
 31
0.0
  0
LINE
  5
8322
330
831D
100
AcDbEntity
  8
3
 62
     0
370
    -2
100
AcDbLine
 10
4023.223289427713
 20
1462.166043842768
 30
0.0
 11
4426.223289427713
 21
1462.166043842768
 31
0.0
  0
INSERT
  5
8323
330
831D
100
AcDbEntity
  8
3
 62
     0
370
    -2
100
AcDbBlockReference
  2
_OPEN
 10
3973.223289427713
 20
1462.166043842768
 30
0.0
 41
50.0
 42
50.0
 43
50.0
 50
180.0
  0
INSERT
  5
8324
330
831D
100
AcDbEntity
  8
3
 62
     0
370
    -2
100
AcDbBlockReference
  2
_OPEN
 10
4476.223289427713
 20
1462.166043842768
 30
0.0
 41
50.0
 42
50.0
 43
50.0
  0
MTEXT
  5
8325
330
831D
100
AcDbEntity
  8
3
 62
     0
100
AcDbMText
 10
4224.723289427713
 20
1524.666043842768
 30
0.0
 40
75.0
 41
0.0
 71
     5
 72
     1
  1
\A1;503
 73
     1
 44
1.0
1001
ACAD
1000
MTEXTBEGIN
1070
    73
1070
     1
1070
    44
1040
1.0
1070
    74
1070
     0
1000
MTEXTEND
  0
POINT
  5
8326
330
831D
100
AcDbEntity
  8
DEFPOINTS
 62
     0
100
AcDbPoint
 10
3973.223289427713
 20
1628.956000393227
 30
0.0
  0
POINT
  5
8327
330
831D
100
AcDbEntity
  8
DEFPOINTS
 62
     0
100
AcDbPoint
 10
4476.223289427713
 20
1628.956000393227
 30
0.0
  0
POINT
  5
8328
330
831D
100
AcDbEntity
  8
DEFPOINTS
 62
     0
100
AcDbPoint
 10
4476.223289427713
 20
1462.166043842768
 30
0.0
  0
ENDBLK
  5
831F
330
831D
100
AcDbEntity
  8
0
100
AcDbBlockEnd
  0
BLOCK
  5
832B
330
832A
100
AcDbEntity
  8
0
100
AcDbBlockBegin
  2
*D42
 70
     1
 10
0.0
 20
0.0
 30
0.0
  3
*D42
  1

  0
LINE
  5
832D
330
832A
100
AcDbEntity
  8
3
 62
     0
370
    -2
100
AcDbLine
 10
719.3660036094987
 20
1603.956000393227
 30
0.0
 11
719.3660036094987
 21
1434.614971353661
 31
0.0
  0
LINE
  5
832E
330
832A
100
AcDbEntity
  8
3
 62
     0
370
    -2
100
AcDbLine
 10
1869.366003609499
 20
1603.956000393227
 30
0.0
 11
1869.366003609499
 21
1434.614971353661
 31
0.0
  0
LINE
  5
832F
330
832A
100
AcDbEntity
  8
3
 62
     0
370
    -2
100
AcDbLine
 10
769.3660036094987
 20
1459.614971353661
 30
0.0
 11
1819.366003609499
 21
1459.614971353661
 31
0.0
  0
INSERT
  5
8330
330
832A
100
AcDbEntity
  8
3
 62
     0
370
    -2
100
AcDbBlockReference
  2
_OPEN
 10
719.3660036094987
 20
1459.614971353661
 30
0.0
 41
50.0
 42
50.0
 43
50.0
 50
180.0
  0
INSERT
  5
8331
330
832A
100
AcDbEntity
  8
3
 62
     0
370
    -2
100
AcDbBlockReference
  2
_OPEN
 10
1869.366003609499
 20
1459.614971353661
 30
0.0
 41
50.0
 42
50.0
 43
50.0
  0
MTEXT
  5
8332
330
832A
100
AcDbEntity
  8
3
 62
     0
100
AcDbMText
 10
1294.366003609499
 20
1522.114971353661
 30
0.0
 40
75.0
 41
0.0
 71
     5
 72
     1
  1
\A1;1150
 73
     1
 44
1.0
1001
ACAD
1000
MTEXTBEGIN
1070
    73
1070
     1
1070
    44
1040
1.0
1070
    74
1070
     0
1000
MTEXTEND
  0
POINT
  5
8333
330
832A
100
AcDbEntity
  8
DEFPOINTS
 62
     0
100
AcDbPoint
 10
719.3660036094987
 20
1628.956000393227
 30
0.0
  0
POINT
  5
8334
330
832A
100
AcDbEntity
  8
DEFPOINTS
 62
     0
100
AcDbPoint
 10
1869.366003609499
 20
1628.956000393227
 30
0.0
  0
POINT
  5
8335
330
832A
100
AcDbEntity
  8
DEFPOINTS
 62
     0
100
AcDbPoint
 10
1869.366003609499
 20
1459.614971353661
 30
0.0
  0
ENDBLK
  5
832C
330
832A
100
AcDbEntity
  8
0
100
AcDbBlockEnd
  0
BLOCK
  5
8338
330
8337
100
AcDbEntity
  8
0
100
AcDbBlockBegin
  2
*D43
 70
     1
 10
0.0
 20
0.0
 30
0.0
  3
*D43
  1

  0
LINE
  5
833A
330
8337
100
AcDbEntity
  8
3
 62
     0
370
    -2
100
AcDbLine
 10
1869.366003609499
 20
1603.956000393227
 30
0.0
 11
1869.366003609499
 21
1434.614971353661
 31
0.0
  0
LINE
  5
833B
330
8337
100
AcDbEntity
  8
3
 62
     0
370
    -2
100
AcDbLine
 10
2319.366003609498
 20
1603.956000393227
 30
0.0
 11
2319.366003609498
 21
1434.614971353661
 31
0.0
  0
LINE
  5
833C
330
8337
100
AcDbEntity
  8
3
 62
     0
370
    -2
100
AcDbLine
 10
1919.366003609499
 20
1459.614971353661
 30
0.0
 11
2269.366003609498
 21
1459.614971353661
 31
0.0
  0
INSERT
  5
833D
330
8337
100
AcDbEntity
  8
3
 62
     0
370
    -2
100
AcDbBlockReference
  2
_OPEN
 10
1869.366003609499
 20
1459.614971353661
 30
0.0
 41
50.0
 42
50.0
 43
50.0
 50
180.0
  0
INSERT
  5
833E
330
8337
100
AcDbEntity
  8
3
 62
     0
370
    -2
100
AcDbBlockReference
  2
_OPEN
 10
2319.366003609498
 20
1459.614971353661
 30
0.0
 41
50.0
 42
50.0
 43
50.0
  0
MTEXT
  5
833F
330
8337
100
AcDbEntity
  8
3
 62
     0
100
AcDbMText
 10
2094.366003609499
 20
1522.114971353661
 30
0.0
 40
75.0
 41
0.0
 71
     5
 72
     1
  1
\A1;450
 73
     1
 44
1.0
1001
ACAD
1000
MTEXTBEGIN
1070
    73
1070
     1
1070
    44
1040
1.0
1070
    74
1070
     0
1000
MTEXTEND
  0
POINT
  5
8340
330
8337
100
AcDbEntity
  8
DEFPOINTS
 62
     0
100
AcDbPoint
 10
1869.366003609499
 20
1628.956000393227
 30
0.0
  0
POINT
  5
8341
330
8337
100
AcDbEntity
  8
DEFPOINTS
 62
     0
100
AcDbPoint
 10
2319.366003609498
 20
1628.956000393227
 30
0.0
  0
POINT
  5
8342
330
8337
100
AcDbEntity
  8
DEFPOINTS
 62
     0
100
AcDbPoint
 10
2319.366003609498
 20
1459.614971353661
 30
0.0
  0
ENDBLK
  5
8339
330
8337
100
AcDbEntity
  8
0
100
AcDbBlockEnd
  0
BLOCK
  5
8345
330
8344
100
AcDbEntity
  8
0
100
AcDbBlockBegin
  2
*D44
 70
     1
 10
0.0
 20
0.0
 30
0.0
  3
*D44
  1

  0
LINE
  5
84BC
330
8344
100
AcDbEntity
  8
3
 62
     0
370
    -2
100
AcDbLine
 10
2344.366003609498
 20
1628.956000393227
 30
0.0
 11
2996.582959990381
 21
1628.956000393227
 31
0.0
  0
LINE
  5
84BD
330
8344
100
AcDbEntity
  8
3
 62
     0
370
    -2
100
AcDbLine
 10
1907.366003609499
 20
2948.956000393229
 30
0.0
 11
2996.582959990381
 21
2948.956000393229
 31
0.0
  0
LINE
  5
84BE
330
8344
100
AcDbEntity
  8
3
 62
     0
370
    -2
100
AcDbLine
 10
2971.582959990381
 20
1678.956000393227
 30
0.0
 11
2971.582959990381
 21
2898.956000393229
 31
0.0
  0
INSERT
  5
84BF
330
8344
100
AcDbEntity
  8
3
 62
     0
370
    -2
100
AcDbBlockReference
  2
_OPEN
 10
2971.582959990381
 20
1628.956000393227
 30
0.0
 41
50.0
 42
50.0
 43
50.0
 50
270.0
  0
INSERT
  5
84C0
330
8344
100
AcDbEntity
  8
3
 62
     0
370
    -2
100
AcDbBlockReference
  2
_OPEN
 10
2971.582959990381
 20
2948.956000393229
 30
0.0
 41
50.0
 42
50.0
 43
50.0
 50
90.0
  0
MTEXT
  5
84C1
330
8344
100
AcDbEntity
  8
3
 62
     0
100
AcDbMText
 10
2889.440102847523
 20
2288.956000393229
 30
0.0
 40
75.0
 41
0.0
 71
     5
 72
     1
  1
\A1;(1320)
 11
0.0000000000000001
 21
1.0
 31
0.0
 73
     1
 44
1.0
1001
ACAD
1000
MTEXTBEGIN
1070
    73
1070
     1
1070
    44
1040
1.0
1070
    74
1070
     0
1000
MTEXTEND
  0
POINT
  5
84C2
330
8344
100
AcDbEntity
  8
DEFPOINTS
 62
     0
100
AcDbPoint
 10
2319.366003609498
 20
1628.956000393227
 30
0.0
  0
POINT
  5
84C3
330
8344
100
AcDbEntity
  8
DEFPOINTS
 62
     0
100
AcDbPoint
 10
1882.366003609499
 20
2948.956000393229
 30
0.0
  0
POINT
  5
84C4
330
8344
100
AcDbEntity
  8
DEFPOINTS
 62
     0
100
AcDbPoint
 10
2971.582959990381
 20
2948.956000393229
 30
0.0
  0
ENDBLK
  5
8346
330
8344
100
AcDbEntity
  8
0
100
AcDbBlockEnd
  0
BLOCK
  5
8367
330
8366
100
AcDbEntity
  8
0
100
AcDbBlockBegin
  2
*D45
 70
     1
 10
0.0
 20
0.0
 30
0.0
  3
*D45
  1

  0
LINE
  5
8493
330
8366
100
AcDbEntity
  8
3
 62
     0
370
    -2
100
AcDbLine
 10
2516.631842414928
 20
2448.956000393227
 30
0.0
 11
2622.450986778873
 21
2448.956000393227
 31
0.0
  0
LINE
  5
8494
330
8366
100
AcDbEntity
  8
3
 62
     0
370
    -2
100
AcDbLine
 10
2344.366003609498
 20
1808.956000393227
 30
0.0
 11
2622.450986778873
 21
1808.956000393227
 31
0.0
  0
LINE
  5
8495
330
8366
100
AcDbEntity
  8
3
 62
     0
370
    -2
100
AcDbLine
 10
2597.450986778873
 20
2398.956000393227
 30
0.0
 11
2597.450986778873
 21
1858.956000393227
 31
0.0
  0
INSERT
  5
8496
330
8366
100
AcDbEntity
  8
3
 62
     0
370
    -2
100
AcDbBlockReference
  2
_OPEN
 10
2597.450986778873
 20
2448.956000393227
 30
0.0
 41
50.0
 42
50.0
 43
50.0
 50
90.0
  0
INSERT
  5
8497
330
8366
100
AcDbEntity
  8
3
 62
     0
370
    -2
100
AcDbBlockReference
  2
_OPEN
 10
2597.450986778873
 20
1808.956000393227
 30
0.0
 41
50.0
 42
50.0
 43
50.0
 50
270.0
  0
MTEXT
  5
8498
330
8366
100
AcDbEntity
  8
3
 62
     0
100
AcDbMText
 10
2534.950986778872
 20
2128.956000393228
 30
0.0
 40
75.0
 41
0.0
 71
     5
 72
     1
  1
\A1;640
 11
0.0000000000000001
 21
1.0
 31
0.0
 73
     1
 44
1.0
1001
ACAD
1000
MTEXTBEGIN
1070
    73
1070
     1
1070
    44
1040
1.0
1070
    74
1070
     0
1000
MTEXTEND
  0
POINT
  5
8499
330
8366
100
AcDbEntity
  8
DEFPOINTS
 62
     0
100
AcDbPoint
 10
2491.631842414928
 20
2448.956000393227
 30
0.0
  0
POINT
  5
849A
330
8366
100
AcDbEntity
  8
DEFPOINTS
 62
     0
100
AcDbPoint
 10
2319.366003609498
 20
1808.956000393227
 30
0.0
  0
POINT
  5
849B
330
8366
100
AcDbEntity
  8
DEFPOINTS
 62
     0
100
AcDbPoint
 10
2597.450986778873
 20
1808.956000393227
 30
0.0
  0
ENDBLK
  5
8368
330
8366
100
AcDbEntity
  8
0
100
AcDbBlockEnd
  0
BLOCK
  5
8374
330
8373
100
AcDbEntity
  8
0
100
AcDbBlockBegin
  2
*D46
 70
     1
 10
0.0
 20
0.0
 30
0.0
  3
*D46
  1

  0
LINE
  5
849C
330
8373
100
AcDbEntity
  8
3
 62
     0
370
    -2
100
AcDbLine
 10
2344.366003609498
 20
1808.956000393227
 30
0.0
 11
2622.450986778873
 21
1808.956000393227
 31
0.0
  0
LINE
  5
849D
330
8373
100
AcDbEntity
  8
3
 62
     0
370
    -2
100
AcDbLine
 10
2344.366003609498
 20
1728.956000393227
 30
0.0
 11
2622.450986778873
 21
1728.956000393227
 31
0.0
  0
LINE
  5
849E
330
8373
100
AcDbEntity
  8
3
 62
     0
370
    -2
100
AcDbLine
 10
2597.450986778873
 20
1858.956000393227
 30
0.0
 11
2597.450986778873
 21
1908.956000393226
 31
0.0
  0
LINE
  5
849F
330
8373
100
AcDbEntity
  8
3
 62
     0
370
    -2
100
AcDbLine
 10
2597.450986778873
 20
1728.956000393227
 30
0.0
 11
2597.450986778873
 21
1678.956000393227
 31
0.0
  0
LINE
  5
84A0
330
8373
100
AcDbEntity
  8
3
 62
     0
370
    -2
100
AcDbLine
 10
2597.450986778873
 20
1768.956000393227
 30
0.0
 11
2831.379558207444
 21
1839.134571821798
 31
0.0
  0
LINE
  5
84A1
330
8373
100
AcDbEntity
  8
3
 62
     0
370
    -2
100
AcDbLine
 10
2831.379558207444
 20
1839.134571821798
 30
0.0
 11
2831.379558207444
 21
2106.991714678941
 31
0.0
  0
MTEXT
  5
84A2
330
8373
100
AcDbEntity
  8
3
 62
     0
100
AcDbMText
 10
2749.236701064587
 20
1973.06314325037
 30
0.0
 40
75.0
 41
0.0
 71
     5
 72
     1
  1
\A1;(80)
 11
0.0000000000000001
 21
1.0
 31
0.0
 73
     1
 44
1.0
1001
ACAD
1000
MTEXTBEGIN
1070
    73
1070
     1
1070
    44
1040
1.0
1070
    74
1070
     0
1000
MTEXTEND
  0
LINE
  5
84A3
330
8373
100
AcDbEntity
  8
3
 62
     0
370
    -2
100
AcDbLine
 10
2597.450986778873
 20
1808.956000393227
 30
0.0
 11
2597.450986778873
 21
1728.956000393227
 31
0.0
  0
LINE
  5
84A4
330
8373
100
AcDbEntity
  8
3
 62
     0
370
    -2
100
AcDbLine
 10
2597.450986778873
 20
1808.956000393227
 30
0.0
 11
2597.450986778873
 21
1728.956000393227
 31
0.0
  0
INSERT
  5
84A5
330
8373
100
AcDbEntity
  8
3
 62
     0
370
    -2
100
AcDbBlockReference
  2
_OPEN
 10
2597.450986778873
 20
1808.956000393227
 30
0.0
 41
50.0
 42
50.0
 43
50.0
 50
270.0
  0
INSERT
  5
84A6
330
8373
100
AcDbEntity
  8
3
 62
     0
370
    -2
100
AcDbBlockReference
  2
_DotSmall
 10
2597.450986778873
 20
1728.956000393227
 30
0.0
 41
50.0
 42
50.0
 43
50.0
 50
90.0
  0
POINT
  5
84A7
330
8373
100
AcDbEntity
  8
DEFPOINTS
 62
     0
100
AcDbPoint
 10
2319.366003609498
 20
1808.956000393227
 30
0.0
  0
POINT
  5
84A8
330
8373
100
AcDbEntity
  8
DEFPOINTS
 62
     0
100
AcDbPoint
 10
2319.366003609498
 20
1728.956000393227
 30
0.0
  0
POINT
  5
84A9
330
8373
100
AcDbEntity
  8
DEFPOINTS
 62
     0
100
AcDbPoint
 10
2597.450986778873
 20
1728.956000393227
 30
0.0
  0
ENDBLK
  5
8375
330
8373
100
AcDbEntity
  8
0
100
AcDbBlockEnd
  0
BLOCK
  5
8386
330
8385
100
AcDbEntity
  8
0
100
AcDbBlockBegin
  2
*D47
 70
     1
 10
0.0
 20
0.0
 30
0.0
  3
*D47
  1

  0
LINE
  5
84B3
330
8385
100
AcDbEntity
  8
3
 62
     0
370
    -2
100
AcDbLine
 10
2344.366003609498
 20
1728.956000393227
 30
0.0
 11
2622.450986778873
 21
1728.956000393227
 31
0.0
  0
LINE
  5
84B4
330
8385
100
AcDbEntity
  8
3
 62
     0
370
    -2
100
AcDbLine
 10
2344.366003609498
 20
1628.956000393227
 30
0.0
 11
2622.450986778873
 21
1628.956000393227
 31
0.0
  0
LINE
  5
84B5
330
8385
100
AcDbEntity
  8
3
 62
     0
370
    -2
100
AcDbLine
 10
2597.450986778873
 20
1728.956000393227
 30
0.0
 11
2597.450986778873
 21
1678.956000393227
 31
0.0
  0
MTEXT
  5
84B6
330
8385
100
AcDbEntity
  8
3
 62
     0
100
AcDbMText
 10
2525.211624817581
 20
1517.756862601163
 30
0.0
 40
75.0
 41
0.0
 71
     5
 72
     1
  1
\A1;100
 11
0.0000000000000001
 21
1.0
 31
0.0
 73
     1
 44
1.0
1001
ACAD
1000
MTEXTBEGIN
1070
    73
1070
     1
1070
    44
1040
1.0
1070
    74
1070
     0
1000
MTEXTEND
  0
INSERT
  5
84B7
330
8385
100
AcDbEntity
  8
3
 62
     0
370
    -2
100
AcDbBlockReference
  2
_DotSmall
 10
2597.450986778873
 20
1728.956000393227
 30
0.0
 41
50.0
 42
50.0
 43
50.0
 50
90.0
  0
INSERT
  5
84B8
330
8385
100
AcDbEntity
  8
3
 62
     0
370
    -2
100
AcDbBlockReference
  2
_OPEN
 10
2597.450986778873
 20
1628.956000393227
 30
0.0
 41
50.0
 42
50.0
 43
50.0
 50
270.0
  0
POINT
  5
84B9
330
8385
100
AcDbEntity
  8
DEFPOINTS
 62
     0
100
AcDbPoint
 10
2319.366003609498
 20
1728.956000393227
 30
0.0
  0
POINT
  5
84BA
330
8385
100
AcDbEntity
  8
DEFPOINTS
 62
     0
100
AcDbPoint
 10
2319.366003609498
 20
1628.956000393227
 30
0.0
  0
POINT
  5
84BB
330
8385
100
AcDbEntity
  8
DEFPOINTS
 62
     0
100
AcDbPoint
 10
2597.450986778873
 20
1628.956000393227
 30
0.0
  0
ENDBLK
  5
8387
330
8385
100
AcDbEntity
  8
0
100
AcDbBlockEnd
  0
BLOCK
  5
83F9
330
83F7
100
AcDbEntity
  8
0
100
AcDbBlockBegin
  2
_DotSmall
 70
     0
 10
0.0
 20
0.0
 30
0.0
  3
_DotSmall
  1

  0
LWPOLYLINE
  5
83F8
330
83F7
100
AcDbEntity
  8
0
  6
ByBlock
 62
     0
100
AcDbPolyline
 90
        2
 70
     1
 43
0.5
 10
-0.0625
 20
0.0
 42
1.0
 10
0.0625
 20
0.0
 42
1.0
  0
ENDBLK
  5
83FA
330
83F7
100
AcDbEntity
  8
0
100
AcDbBlockEnd
  0
BLOCK
  5
84CD
330
84CC
100
AcDbEntity
  8
0
100
AcDbBlockBegin
  2
*D50
 70
     1
 10
0.0
 20
0.0
 30
0.0
  3
*D50
  1

  0
LINE
  5
84D8
330
84CC
100
AcDbEntity
  8
3
 62
     0
370
    -2
100
AcDbLine
 10
1869.366003609498
 20
3108.709552908742
 30
0.0
 11
1869.366003609498
 21
3275.772157646118
 31
0.0
  0
LINE
  5
84D9
330
84CC
100
AcDbEntity
  8
3
 62
     0
370
    -2
100
AcDbLine
 10
2358.366003609499
 20
2420.956000393229
 30
0.0
 11
2358.366003609499
 21
3275.772157646118
 31
0.0
  0
LINE
  5
84DA
330
84CC
100
AcDbEntity
  8
3
 62
     0
370
    -2
100
AcDbLine
 10
1919.366003609498
 20
3250.772157646118
 30
0.0
 11
2308.366003609499
 21
3250.772157646118
 31
0.0
  0
INSERT
  5
84DB
330
84CC
100
AcDbEntity
  8
3
 62
     0
370
    -2
100
AcDbBlockReference
  2
_OPEN
 10
1869.366003609498
 20
3250.772157646118
 30
0.0
 41
50.0
 42
50.0
 43
50.0
 50
180.0
  0
INSERT
  5
84DC
330
84CC
100
AcDbEntity
  8
3
 62
     0
370
    -2
100
AcDbBlockReference
  2
_OPEN
 10
2358.366003609499
 20
3250.772157646118
 30
0.0
 41
50.0
 42
50.0
 43
50.0
  0
MTEXT
  5
84DD
330
84CC
100
AcDbEntity
  8
3
 62
     0
100
AcDbMText
 10
2113.866003609499
 20
3313.272157646118
 30
0.0
 40
75.0
 41
0.0
 71
     5
 72
     1
  1
\A1;489
 73
     1
 44
1.0
1001
ACAD
1000
MTEXTBEGIN
1070
    73
1070
     1
1070
    44
1040
1.0
1070
    74
1070
     0
1000
MTEXTEND
  0
POINT
  5
84DE
330
84CC
100
AcDbEntity
  8
DEFPOINTS
 62
     0
100
AcDbPoint
 10
1869.366003609498
 20
3083.709552908742
 30
0.0
  0
POINT
  5
84DF
330
84CC
100
AcDbEntity
  8
DEFPOINTS
 62
     0
100
AcDbPoint
 10
2358.366003609499
 20
2395.956000393229
 30
0.0
  0
POINT
  5
84E0
330
84CC
100
AcDbEntity
  8
DEFPOINTS
 62
     0
100
AcDbPoint
 10
2358.366003609499
 20
3250.772157646118
 30
0.0
  0
ENDBLK
  5
84CE
330
84CC
100
AcDbEntity
  8
0
100
AcDbBlockEnd
  0
BLOCK
  5
84E3
330
84E2
100
AcDbEntity
  8
0
100
AcDbBlockBegin
  2
*D51
 70
     1
 10
0.0
 20
0.0
 30
0.0
  3
*D51
  1

  0
LINE
  5
84E5
330
84E2
100
AcDbEntity
  8
3
 62
     0
370
    -2
100
AcDbLine
 10
719.3660036094987
 20
1933.956000393227
 30
0.0
 11
719.3660036094988
 21
3431.390604686985
 31
0.0
  0
LINE
  5
84E6
330
84E2
100
AcDbEntity
  8
3
 62
     0
370
    -2
100
AcDbLine
 10
2358.366003609499
 20
2420.956000393229
 30
0.0
 11
2358.366003609499
 21
3431.390604686985
 31
0.0
  0
LINE
  5
84E7
330
84E2
100
AcDbEntity
  8
3
 62
     0
370
    -2
100
AcDbLine
 10
769.3660036094988
 20
3406.390604686985
 30
0.0
 11
2308.366003609499
 21
3406.390604686985
 31
0.0
  0
INSERT
  5
84E8
330
84E2
100
AcDbEntity
  8
3
 62
     0
370
    -2
100
AcDbBlockReference
  2
_OPEN
 10
719.3660036094988
 20
3406.390604686985
 30
0.0
 41
50.0
 42
50.0
 43
50.0
 50
180.0
  0
INSERT
  5
84E9
330
84E2
100
AcDbEntity
  8
3
 62
     0
370
    -2
100
AcDbBlockReference
  2
_OPEN
 10
2358.366003609499
 20
3406.390604686985
 30
0.0
 41
50.0
 42
50.0
 43
50.0
  0
MTEXT
  5
84EA
330
84E2
100
AcDbEntity
  8
3
 62
     0
100
AcDbMText
 10
1538.866003609499
 20
3468.890604686985
 30
0.0
 40
75.0
 41
0.0
 71
     5
 72
     1
  1
\A1;1639
 73
     1
 44
1.0
1001
ACAD
1000
MTEXTBEGIN
1070
    73
1070
     1
1070
    44
1040
1.0
1070
    74
1070
     0
1000
MTEXTEND
  0
POINT
  5
84EB
330
84E2
100
AcDbEntity
  8
DEFPOINTS
 62
     0
100
AcDbPoint
 10
719.3660036094987
 20
1908.956000393227
 30
0.0
  0
POINT
  5
84EC
330
84E2
100
AcDbEntity
  8
DEFPOINTS
 62
     0
100
AcDbPoint
 10
2358.366003609499
 20
2395.956000393229
 30
0.0
  0
POINT
  5
84ED
330
84E2
100
AcDbEntity
  8
DEFPOINTS
 62
     0
100
AcDbPoint
 10
2358.366003609499
 20
3406.390604686985
 30
0.0
  0
ENDBLK
  5
84E4
330
84E2
100
AcDbEntity
  8
0
100
AcDbBlockEnd
  0
ENDSEC
  0
SECTION
  2
ENTITIES
  0
INSERT
  5
7C36
330
819D
100
AcDbEntity
  8
0
100
AcDbBlockReference
  2
YA_N
 10
6.0
 20
5.0
 30
0.0
  0
LINE
  5
7C42
330
819D
100
AcDbEntity
  8
2
100
AcDbLine
 10
1869.366003609499
 20
1628.956000393227
 30
0.0
 11
1869.366003609498
 21
3083.709552908742
 31
0.0
  0
LINE
  5
7C43
330
819D
100
AcDbEntity
  8
2
100
AcDbLine
 10
2491.631842414928
 20
2448.956000393227
 30
0.0
 11
1059.828449933635
 21
2448.956000393227
 31
0.0
  0
LINE
  5
7C44
330
819D
100
AcDbEntity
  8
1
100
AcDbLine
 10
1172.366003609499
 20
1948.956000393227
 30
0.0
 11
766.3660036094993
 21
1948.956000393227
 31
0.0
  0
LINE
  5
7C45
330
819D
100
AcDbEntity
  8
1
100
AcDbLine
 10
1169.366003609499
 20
1908.956000393227
 30
0.0
 11
1169.366003609499
 21
1948.956000393227
 31
0.0
  0
LINE
  5
7C46
330
819D
100
AcDbEntity
  8
1
100
AcDbLine
 10
2319.366003609498
 20
1628.956000393227
 30
0.0
 11
719.3660036094987
 21
1628.956000393227
 31
0.0
  0
LINE
  5
7C47
330
819D
100
AcDbEntity
  8
1
100
AcDbLine
 10
2319.366003609498
 20
1728.956000393227
 30
0.0
 11
2319.366003609498
 21
1628.956000393227
 31
0.0
  0
LINE
  5
7C48
330
819D
100
AcDbEntity
  8
1
100
AcDbLine
 10
719.3660036094987
 20
1728.956000393227
 30
0.0
 11
719.3660036094987
 21
1628.956000393227
 31
0.0
  0
LINE
  5
7C49
330
819D
100
AcDbEntity
  8
1
100
AcDbLine
 10
2319.366003609498
 20
1728.956000393227
 30
0.0
 11
719.3660036094987
 21
1728.956000393227
 31
0.0
1001
ACAD
1000
ASC_BOUNDS
1002
{
1070
    19
1005
0
1002
}
  0
LINE
  5
7C4A
330
819D
100
AcDbEntity
  8
2
100
AcDbLine
 10
3973.223289427713
 20
1628.956000393227
 30
0.0
 11
3973.223289427714
 21
3119.027112675834
 31
0.0
  0
LINE
  5
7C4B
330
819D
100
AcDbEntity
  8
2
100
AcDbLine
 10
3120.81283606491
 20
2448.956000393227
 30
0.0
 11
4559.505647823026
 21
2448.956000393227
 31
0.0
  0
LINE
  5
7C4C
330
819D
100
AcDbEntity
  8
1
100
AcDbLine
 10
3321.223289427713
 20
1628.956000393227
 30
0.0
 11
4451.223289427712
 21
1628.956000393227
 31
0.0
  0
LINE
  5
7C4D
330
819D
100
AcDbEntity
  8
1
100
AcDbLine
 10
3321.223289427713
 20
1728.956000393227
 30
0.0
 11
4476.223289427713
 21
1728.956000393227
 31
0.0
1001
ACAD
1000
ASC_BOUNDS
1002
{
1070
    19
1002
}
  0
LINE
  5
7C4E
330
819D
100
AcDbEntity
  8
2
100
AcDbLine
 10
1869.366003609498
 20
5238.352917144098
 30
0.0
 11
1869.366003609498
 21
3782.571713279613
 31
0.0
  0
LINE
  5
7C4F
330
819D
100
AcDbEntity
  8
2
100
AcDbLine
 10
969.3660036094989
 20
4624.373845528817
 30
0.0
 11
969.3660036094994
 21
3782.571713279613
 31
0.0
  0
LINE
  5
7C50
330
819D
100
AcDbEntity
  8
2
100
AcDbLine
 10
2466.564200637578
 20
4653.462913529578
 30
0.0
 11
658.8504489204495
 21
4653.462913529581
 31
0.0
  0
LINE
  5
7C51
330
819D
100
AcDbEntity
  8
2
100
AcDbLine
 10
3251.256190229803
 20
2158.956000393227
 30
0.0
 11
3670.064598763467
 21
2158.956000393227
 31
0.0
  0
LINE
  5
7C52
330
819D
100
AcDbEntity
  8
1
100
AcDbLine
 10
4423.223289427713
 20
1908.956000393227
 30
0.0
 11
4423.223289427713
 21
2448.956000393227
 31
0.0
  0
POINT
  5
7C53
330
819D
100
AcDbEntity
  8
1
100
AcDbPoint
 10
2319.366003609498
 20
1628.956000393227
 30
0.0
  0
INSERT
  5
7C55
330
819D
100
AcDbEntity
  8
0
100
AcDbBlockReference
  2
YA_N
 10
-1092.024831295133
 20
-1095.319682135705
 30
0.0
 41
20.0
 42
20.0
 43
20.0
  0
LINE
  5
7C57
330
819D
100
AcDbEntity
  8
1
100
AcDbLine
 10
815.3660036094986
 20
2014.956000393227
 30
0.0
 11
834.7985036094984
 21
2068.346000393228
 31
0.0
  0
LINE
  5
7C58
330
819D
100
AcDbEntity
  8
1
100
AcDbLine
 10
1123.366003609499
 20
2014.956000393227
 30
0.0
 11
1103.933403609498
 21
2068.346000393228
 31
0.0
  0
ARC
  5
7C59
330
819D
100
AcDbEntity
  8
1
100
AcDbCircle
 10
969.3660036094989
 20
2158.956000393227
 30
0.0
 40
162.0
100
AcDbArc
 50
180.0
 51
254.3518999999999
  0
ARC
  5
7C5A
330
819D
100
AcDbEntity
  8
1
100
AcDbCircle
 10
969.3660036094989
 20
2158.956000393227
 30
0.0
 40
162.0
100
AcDbArc
 50
285.4573
 51
180.0
  0
LINE
  5
7C5B
330
819D
100
AcDbEntity
  8
2
100
AcDbLine
 10
969.3660036094989
 20
2408.192000393227
 30
0.0
 11
969.3660036094989
 21
1628.956000393227
 31
0.0
  0
LINE
  5
7C5C
330
819D
100
AcDbEntity
  8
1
100
AcDbLine
 10
1013.046603609499
 20
2002.956000393227
 30
0.0
 11
925.6853036094989
 21
2002.956000393227
 31
0.0
  0
LINE
  5
7C5D
330
819D
100
AcDbEntity
  8
1
100
AcDbLine
 10
1054.309903609499
 20
2021.012000393227
 30
0.0
 11
1062.487303609498
 21
2012.834000393227
 31
0.0
  0
LINE
  5
7C5E
330
819D
100
AcDbEntity
  8
1
100
AcDbLine
 10
1076.579203609499
 20
2016.956000393227
 30
0.0
 11
1121.366003609499
 21
2016.956000393227
 31
0.0
  0
LINE
  5
7C5F
330
819D
100
AcDbEntity
  8
1
100
AcDbLine
 10
1103.616003609498
 20
2016.956000393227
 30
0.0
 11
1103.616003609498
 21
1998.956000393227
 31
0.0
  0
ARC
  5
7C60
330
819D
100
AcDbEntity
  8
1
100
AcDbCircle
 10
1121.366003609499
 20
2014.956000393227
 30
0.0
 40
2.0
100
AcDbArc
 50
0.0
 51
90.0
  0
LINE
  5
7C61
330
819D
100
AcDbEntity
  8
1
100
AcDbLine
 10
1096.366003609498
 20
2021.685000393227
 30
0.0
 11
1096.366003609498
 21
1991.427000393227
 31
0.0
  0
LINE
  5
7C62
330
819D
100
AcDbEntity
  8
1
100
AcDbLine
 10
1123.366003609499
 20
1998.956000393227
 30
0.0
 11
1123.366003609499
 21
2014.956000393227
 31
0.0
  0
LINE
  5
7C63
330
819D
100
AcDbEntity
  8
1
100
AcDbLine
 10
1089.116003609498
 20
2016.956000393227
 30
0.0
 11
1089.116003609498
 21
1998.956000393227
 31
0.0
  0
ARC
  5
7C64
330
819D
100
AcDbEntity
  8
1
100
AcDbCircle
 10
1060.366003609499
 20
2010.713000393227
 30
0.0
 40
3.0
100
AcDbArc
 50
0.0
 51
45.0
  0
LINE
  5
7C65
330
819D
100
AcDbEntity
  8
1
100
AcDbLine
 10
1063.366003609498
 20
1998.956000393227
 30
0.0
 11
1063.366003609498
 21
2010.713000393227
 31
0.0
  0
ARC
  5
7C66
330
819D
100
AcDbEntity
  8
1
100
AcDbCircle
 10
1074.446503609499
 20
2029.159000393227
 30
0.0
 40
8.0
100
AcDbArc
 50
225.0
 51
308.9931000000001
  0
ARC
  5
7C67
330
819D
100
AcDbEntity
  8
1
100
AcDbCircle
 10
969.3660036094989
 20
2158.956000393227
 30
0.0
 40
175.0
100
AcDbArc
 50
308.9929999999999
 51
313.8071
  0
ARC
  5
7C68
330
819D
100
AcDbEntity
  8
1
100
AcDbCircle
 10
1084.968803609499
 20
2038.436000393227
 30
0.0
 40
8.0
100
AcDbArc
 50
313.8068
 51
45.0
  0
LINE
  5
7C69
330
819D
100
AcDbEntity
  8
1
100
AcDbLine
 10
1087.110703609499
 20
2047.608000393227
 30
0.0
 11
1090.826703609499
 21
2043.892000393227
 31
0.0
  0
ARC
  5
7C6A
330
819D
100
AcDbEntity
  8
1
100
AcDbCircle
 10
1076.579203609499
 20
2019.956000393227
 30
0.0
 40
3.0
100
AcDbArc
 50
225.0
 51
270.0
  0
LINE
  5
7C6B
330
819D
100
AcDbEntity
  8
1
100
AcDbLine
 10
1064.477203609499
 20
2027.815000393227
 30
0.0
 11
1074.457803609499
 21
2017.834000393227
 31
0.0
  0
ARC
  5
7C6C
330
819D
100
AcDbEntity
  8
1
100
AcDbCircle
 10
864.2854036094984
 20
2029.159000393227
 30
0.0
 40
8.0
100
AcDbArc
 50
231.0068999999999
 51
315.0
  0
LINE
  5
7C6D
330
819D
100
AcDbEntity
  8
1
100
AcDbLine
 10
862.1528036094987
 20
2016.956000393227
 30
0.0
 11
817.3660036094988
 21
2016.956000393227
 31
0.0
  0
LINE
  5
7C6E
330
819D
100
AcDbEntity
  8
1
100
AcDbLine
 10
884.4221036094984
 20
2021.012000393227
 30
0.0
 11
876.2446036094987
 21
2012.834000393227
 31
0.0
  0
ARC
  5
7C6F
330
819D
100
AcDbEntity
  8
1
100
AcDbCircle
 10
878.3660036094989
 20
2010.713000393227
 30
0.0
 40
3.0
100
AcDbArc
 50
135.0
 51
180.0
  0
LINE
  5
7C70
330
819D
100
AcDbEntity
  8
1
100
AcDbLine
 10
875.3660036094988
 20
1998.956000393227
 30
0.0
 11
875.3660036094988
 21
2010.713000393227
 31
0.0
  0
ARC
  5
7C71
330
819D
100
AcDbEntity
  8
1
100
AcDbCircle
 10
862.1528036094987
 20
2019.956000393227
 30
0.0
 40
3.0
100
AcDbArc
 50
270.0
 51
315.0
  0
LINE
  5
7C72
330
819D
100
AcDbEntity
  8
1
100
AcDbLine
 10
864.163803609499
 20
2017.724000393227
 30
0.0
 11
874.2548036094991
 21
2027.815000393227
 31
0.0
  0
LINE
  5
7C73
330
819D
100
AcDbEntity
  8
1
100
AcDbLine
 10
849.6160036094988
 20
2016.956000393227
 30
0.0
 11
849.6160036094988
 21
1998.956000393227
 31
0.0
  0
LINE
  5
7C74
330
819D
100
AcDbEntity
  8
1
100
AcDbLine
 10
835.1160036094988
 20
2016.956000393227
 30
0.0
 11
835.1160036094988
 21
1998.956000393227
 31
0.0
  0
LINE
  5
7C75
330
819D
100
AcDbEntity
  8
1
100
AcDbLine
 10
842.3660036094988
 20
2021.685000393227
 30
0.0
 11
842.3660036094988
 21
1991.427000393227
 31
0.0
  0
ARC
  5
7C76
330
819D
100
AcDbEntity
  8
1
100
AcDbCircle
 10
853.7631036094991
 20
2038.436000393227
 30
0.0
 40
8.0
100
AcDbArc
 50
135.0
 51
226.1931999999999
  0
LINE
  5
7C77
330
819D
100
AcDbEntity
  8
1
100
AcDbLine
 10
851.6213036094985
 20
2047.608000393227
 30
0.0
 11
847.9053036094988
 21
2043.892000393227
 31
0.0
  0
ARC
  5
7C78
330
819D
100
AcDbEntity
  8
1
100
AcDbCircle
 10
969.3660036094989
 20
2158.956000393227
 30
0.0
 40
175.0
100
AcDbArc
 50
226.1928999999999
 51
231.0069999999999
  0
ARC
  5
7C79
330
819D
100
AcDbEntity
  8
1
100
AcDbCircle
 10
817.3660036094988
 20
2014.956000393227
 30
0.0
 40
2.0
100
AcDbArc
 50
90.0
 51
180.0
  0
LINE
  5
7C7A
330
819D
100
AcDbEntity
  8
1
100
AcDbLine
 10
815.3660036094986
 20
1998.956000393227
 30
0.0
 11
815.3660036094986
 21
2014.956000393227
 31
0.0
  0
LINE
  5
7C7B
330
819D
100
AcDbEntity
  8
2
100
AcDbLine
 10
1162.222878509022
 20
2158.956000393227
 30
0.0
 11
771.6070763908283
 21
2158.956000393227
 31
0.0
  0
LINE
  5
7C7C
330
819D
100
AcDbEntity
  8
1
100
AcDbLine
 10
1159.325470979757
 20
1998.956000393227
 30
0.0
 11
1029.366003609498
 21
1998.956000393227
 31
0.0
  0
LINE
  5
7C7D
330
819D
100
AcDbEntity
  8
1
100
AcDbLine
 10
1172.366003609499
 20
1948.956000393227
 30
0.0
 11
1159.325470979757
 21
1998.956000393227
 31
0.0
  0
LINE
  5
7C7E
330
819D
100
AcDbEntity
  8
1
100
AcDbLine
 10
766.3660036094993
 20
1948.956000393227
 30
0.0
 11
779.7474445184324
 21
1998.956000393227
 31
0.0
  0
LINE
  5
7C7F
330
819D
100
AcDbEntity
  8
1
100
AcDbLine
 10
909.3660036094988
 20
1998.956000393227
 30
0.0
 11
909.3660036094988
 21
1993.956000393227
 31
0.0
  0
LINE
  5
7C80
330
819D
100
AcDbEntity
  8
1
100
AcDbLine
 10
1029.366003609498
 20
1998.956000393227
 30
0.0
 11
1029.366003609498
 21
1993.956000393227
 31
0.0
  0
LINE
  5
7C81
330
819D
100
AcDbEntity
  8
1
100
AcDbLine
 10
1029.366003609498
 20
1993.956000393227
 30
0.0
 11
909.3660036094988
 21
1993.956000393227
 31
0.0
  0
LINE
  5
7C82
330
819D
100
AcDbEntity
  8
1
100
AcDbLine
 10
1029.366003609498
 20
1953.956000393227
 30
0.0
 11
909.3660036094988
 21
1953.956000393227
 31
0.0
  0
LINE
  5
7C83
330
819D
100
AcDbEntity
  8
1
100
AcDbLine
 10
909.3660036094988
 20
1998.956000393227
 30
0.0
 11
779.7474445184318
 21
1998.956000393227
 31
0.0
  0
LINE
  5
7C84
330
819D
100
AcDbEntity
  8
1
100
AcDbLine
 10
909.3660036094988
 20
1953.956000393227
 30
0.0
 11
909.3660036094988
 21
1948.956000393227
 31
0.0
  0
LINE
  5
7C85
330
819D
100
AcDbEntity
  8
1
100
AcDbLine
 10
1029.366003609498
 20
1953.956000393227
 30
0.0
 11
1029.366003609498
 21
1948.956000393227
 31
0.0
  0
POINT
  5
7C87
330
819D
100
AcDbEntity
  8
1
100
AcDbPoint
 10
2319.366003609498
 20
1633.956000393227
 30
0.0
  0
POINT
  5
7C88
330
819D
100
AcDbEntity
  8
1
100
AcDbPoint
 10
2319.366003609498
 20
1628.956000393227
 30
0.0
  0
POINT
  5
7C89
330
819D
100
AcDbEntity
  8
1
100
AcDbPoint
 10
2319.366003609498
 20
1633.956000393227
 30
0.0
  0
POINT
  5
7C8A
330
819D
100
AcDbEntity
  8
1
100
AcDbPoint
 10
2319.366003609498
 20
1668.956000393227
 30
0.0
  0
DIMENSION
  5
7C8C
330
819D
100
AcDbEntity
  8
3
100
AcDbDimension
  2
*D4
 10
1840.366003609499
 20
3097.963384172453
 30
0.0
 11
1316.952880714852
 21
3147.963384172453
 31
0.0
 12
643.7938563937384
 22
1940.362522171828
 32
0.0
 71
     5
 42
-1.0
  3
Standard
100
AcDbAlignedDimension
 13
1110.366003609499
 23
2948.956000393227
 33
0.0
 14
1840.366003609499
 24
2948.956000393229
 34
0.0
100
AcDbRotatedDimension
1001
ACAD
1000
DSTYLE
1002
{
1070
    40
1040
25.0
1002
}
  0
DIMENSION
  5
7C8D
330
819D
100
AcDbEntity
  8
3
100
AcDbDimension
  2
*D5
 10
1869.366003609499
 20
3250.772157646119
 30
0.0
 11
1331.452880714852
 21
3300.772157646119
 31
0.0
 12
643.7938563937384
 22
1940.362522171828
 32
0.0
 71
     5
 42
-1.0
  3
Standard
100
AcDbAlignedDimension
 13
1110.366003609499
 23
2948.956000393227
 33
0.0
 14
1869.366003609499
 24
3071.221839198657
 34
0.0
100
AcDbRotatedDimension
1001
ACAD
1000
DSTYLE
1002
{
1070
    40
1040
25.0
1002
}
  0
LINE
  5
7C8E
330
819D
100
AcDbEntity
  8
1
100
AcDbLine
 10
4426.223289427713
 20
1628.956000393227
 30
0.0
 11
4476.223289427713
 21
1628.956000393227
 31
0.0
  0
POINT
  5
7C8F
330
819D
100
AcDbEntity
  8
1
100
AcDbPoint
 10
2319.366003609498
 20
1633.956000393227
 30
0.0
  0
POINT
  5
7C90
330
819D
100
AcDbEntity
  8
1
100
AcDbPoint
 10
2319.366003609498
 20
1628.956000393227
 30
0.0
  0
POINT
  5
7C91
330
819D
100
AcDbEntity
  8
1
100
AcDbPoint
 10
2319.366003609498
 20
1633.956000393227
 30
0.0
  0
POINT
  5
7C92
330
819D
100
AcDbEntity
  8
1
100
AcDbPoint
 10
2319.366003609498
 20
1668.956000393227
 30
0.0
  0
INSERT
  5
7C93
330
819D
100
AcDbEntity
  8
0
100
AcDbBlockReference
  2
YA_N
 10
-1018.773193578214
 20
-860.9217325598891
 30
0.0
 41
20.0
 42
20.0
 43
20.0
  0
POINT
  5
7C95
330
819D
100
AcDbEntity
  8
1
100
AcDbPoint
 10
2319.366003609498
 20
1728.956000393227
 30
0.0
  0
POINT
  5
7C96
330
819D
100
AcDbEntity
  8
1
100
AcDbPoint
 10
2319.366003609498
 20
1628.956000393227
 30
0.0
  0
POINT
  5
7C97
330
819D
100
AcDbEntity
  8
1
100
AcDbPoint
 10
2319.366003609498
 20
1728.956000393227
 30
0.0
  0
LINE
  5
7C98
330
819D
100
AcDbEntity
  8
1
100
AcDbLine
 10
3483.223289427712
 20
2948.956000393227
 30
0.0
 11
4463.223289427713
 21
2948.956000393227
 31
0.0
  0
LINE
  5
7C99
330
819D
100
AcDbEntity
  8
1
100
AcDbLine
 10
4423.223289427713
 20
2448.956000393227
 30
0.0
 11
4423.223289427713
 21
2948.956000393227
 31
0.0
  0
LINE
  5
7C9B
330
819D
100
AcDbEntity
  8
1
100
AcDbLine
 10
3523.223289427714
 20
2448.956000393227
 30
0.0
 11
3523.223289427714
 21
2948.956000393227
 31
0.0
  0
LINE
  5
7C9C
330
819D
100
AcDbEntity
  8
1
100
AcDbLine
 10
3523.223289427714
 20
1908.956000393227
 30
0.0
 11
3523.223289427712
 21
2448.956000393227
 31
0.0
  0
LINE
  5
7C9E
330
819D
100
AcDbEntity
  8
1
100
AcDbLine
 10
4435.723289427712
 20
2313.756000393227
 30
0.0
 11
4435.723289427714
 21
2433.756000393227
 31
0.0
  0
LINE
  5
7C9F
330
819D
100
AcDbEntity
  8
1
100
AcDbLine
 10
4533.223289427712
 20
2323.756000393227
 30
0.0
 11
4533.223289427713
 21
2423.756000393227
 31
0.0
  0
LINE
  5
7CA0
330
819D
100
AcDbEntity
  8
1
100
AcDbLine
 10
4435.723289427714
 20
2433.756000393227
 30
0.0
 11
4475.523289427713
 21
2433.756000393227
 31
0.0
  0
LINE
  5
7CA1
330
819D
100
AcDbEntity
  8
1
100
AcDbLine
 10
4435.723289427712
 20
2313.756000393227
 30
0.0
 11
4475.523289427713
 21
2313.756000393227
 31
0.0
  0
ARC
  5
7CA2
330
819D
100
AcDbEntity
  8
1
100
AcDbCircle
 10
4523.223289427714
 20
2423.756000393227
 30
0.0
 40
10.0
100
AcDbArc
 50
359.9999999999982
 51
90.0
  0
ARC
  5
7CA3
330
819D
100
AcDbEntity
  8
1
100
AcDbCircle
 10
4523.223289427712
 20
2323.756000393227
 30
0.0
 40
10.0
100
AcDbArc
 50
270.0
 51
359.9999999999982
  0
LINE
  5
7CA4
330
819D
100
AcDbEntity
  8
1
100
AcDbLine
 10
4475.523289427713
 20
2313.756000393227
 30
0.0
 11
4523.223289427712
 21
2313.756000393227
 31
0.0
  0
LINE
  5
7CA5
330
819D
100
AcDbEntity
  8
1
100
AcDbLine
 10
4475.523289427713
 20
2433.756000393227
 30
0.0
 11
4523.223289427714
 21
2433.756000393227
 31
0.0
  0
LINE
  5
7CA6
330
819D
100
AcDbEntity
  8
1
100
AcDbLine
 10
769.3660036094987
 20
1908.956000393227
 30
0.0
 11
769.3660036094984
 21
1948.956000393227
 31
0.0
  0
POINT
  5
7CA7
330
819D
100
AcDbEntity
  8
1
100
AcDbPoint
 10
4533.223289427713
 20
2423.756000393227
 30
0.0
  0
LINE
  5
7CA8
330
819D
100
AcDbEntity
  8
1
100
AcDbLine
 10
2319.366003609498
 20
5156.462913529579
 30
0.0
 11
1419.366003609499
 21
5156.462913529579
 31
0.0
  0
LINE
  5
7CA9
330
819D
100
AcDbEntity
  8
1
100
AcDbLine
 10
2319.366003609498
 20
4001.462913529579
 30
0.0
 11
719.3660036094987
 21
4001.46291352958
 31
0.0
  0
LINE
  5
7CAA
330
819D
100
AcDbEntity
  8
1
100
AcDbLine
 10
2319.366003609498
 20
5156.462913529579
 30
0.0
 11
2319.366003609498
 21
5103.462913529579
 31
0.0
  0
LINE
  5
7CAB
330
819D
100
AcDbEntity
  8
1
100
AcDbLine
 10
1419.366003609499
 20
5156.462913529579
 30
0.0
 11
1419.366003609499
 21
5103.462913529579
 31
0.0
  0
LINE
  5
7CAC
330
819D
100
AcDbEntity
  8
1
100
AcDbLine
 10
719.3660036094987
 20
4671.46291352958
 30
0.0
 11
719.3660036094987
 21
4001.462913529581
 31
0.0
  0
LINE
  5
7CAD
330
819D
100
AcDbEntity
  8
1
100
AcDbLine
 10
1110.366003609499
 20
4671.462913529579
 30
0.0
 11
719.3660036094987
 21
4671.46291352958
 31
0.0
  0
POINT
  5
7CAE
330
819D
100
AcDbEntity
  8
1
100
AcDbPoint
 10
2319.366003609498
 20
1728.956000393227
 30
0.0
  0
POINT
  5
7CAF
330
819D
100
AcDbEntity
  8
1
100
AcDbPoint
 10
2319.366003609498
 20
1628.956000393227
 30
0.0
  0
POINT
  5
7CB0
330
819D
100
AcDbEntity
  8
1
100
AcDbPoint
 10
2319.366003609498
 20
1728.956000393227
 30
0.0
  0
LINE
  5
7CB1
330
819D
100
AcDbEntity
  8
1
100
AcDbLine
 10
2319.366003609498
 20
1808.956000393227
 30
0.0
 11
719.3660036094987
 21
1808.956000393227
 31
0.0
1001
ACAD
1000
ASC_BOUNDS
1002
{
1070
    19
1002
}
  0
LINE
  5
7CB2
330
819D
100
AcDbEntity
  8
1
100
AcDbLine
 10
2319.366003609498
 20
1908.956000393227
 30
0.0
 11
719.3660036094987
 21
1908.956000393227
 31
0.0
1001
ACAD
1000
ASC_BOUNDS
1002
{
1070
    19
1005
0
1002
}
  0
LINE
  5
7CB3
330
819D
100
AcDbEntity
  8
1
100
AcDbLine
 10
719.3660036094987
 20
1908.956000393227
 30
0.0
 11
719.3660036094987
 21
1808.956000393227
 31
0.0
  0
LINE
  5
7CB4
330
819D
100
AcDbEntity
  8
1
100
AcDbLine
 10
2319.366003609498
 20
1908.956000393227
 30
0.0
 11
2319.366003609498
 21
1808.956000393227
 31
0.0
  0
POINT
  5
7CB5
330
819D
100
AcDbEntity
  8
1
100
AcDbPoint
 10
2319.366003609498
 20
1908.956000393227
 30
0.0
  0
POINT
  5
7CB6
330
819D
100
AcDbEntity
  8
1
100
AcDbPoint
 10
2319.366003609498
 20
1908.956000393227
 30
0.0
  0
POINT
  5
7CB7
330
819D
100
AcDbEntity
  8
1
100
AcDbPoint
 10
2319.366003609498
 20
1908.956000393227
 30
0.0
  0
POINT
  5
7CB8
330
819D
100
AcDbEntity
  8
1
100
AcDbPoint
 10
2319.366003609498
 20
1908.956000393227
 30
0.0
  0
POINT
  5
7CBB
330
819D
100
AcDbEntity
  8
1
100
AcDbPoint
 10
2319.366003609498
 20
1728.956000393227
 30
0.0
  0
POINT
  5
7CBC
330
819D
100
AcDbEntity
  8
1
100
AcDbPoint
 10
2319.366003609498
 20
1628.956000393227
 30
0.0
  0
POINT
  5
7CBD
330
819D
100
AcDbEntity
  8
1
100
AcDbPoint
 10
2319.366003609498
 20
1728.956000393227
 30
0.0
  0
POINT
  5
7CBE
330
819D
100
AcDbEntity
  8
1
100
AcDbPoint
 10
2319.366003609498
 20
1808.956000393227
 30
0.0
  0
CIRCLE
  5
7CC4
330
819D
100
AcDbEntity
  8
1
100
AcDbCircle
 10
969.3660036094989
 20
2158.956000393227
 30
0.0
 40
79.0
  0
CIRCLE
  5
7CC5
330
819D
100
AcDbEntity
  8
1
100
AcDbCircle
 10
1869.366003609499
 20
2448.956000393227
 30
0.0
 40
203.2
  0
LINE
  5
7CC6
330
819D
100
AcDbEntity
  8
1
100
AcDbLine
 10
1799.946634138445
 20
2639.93032102886
 30
0.0
 11
942.3771739430952
 21
2233.20290654586
 31
0.0
  0
LINE
  5
7CC7
330
819D
100
AcDbEntity
  8
1
100
AcDbLine
 10
1885.216914603503
 20
2246.375180420901
 30
0.0
 11
975.5285132971284
 21
2080.19672491186
 31
0.0
  0
ARC
  5
7CC8
330
819D
100
AcDbEntity
  8
1
100
AcDbCircle
 10
1869.366003609499
 20
2448.956000393227
 30
0.0
 40
280.0
100
AcDbArc
 50
274.1096317013021
 51
110.3406136501693
  0
ARC
  5
7CC9
330
819D
100
AcDbEntity
  8
1
100
AcDbCircle
 10
969.3660036094989
 20
2158.956000393227
 30
0.0
 40
150.0
100
AcDbArc
 50
110.3406136501693
 51
274.1096317013021
  0
LINE
  5
7CCA
330
819D
100
AcDbEntity
  8
1
100
AcDbLine
 10
1772.037897392183
 20
2711.495977806479
 30
0.0
 11
917.2259467073656
 21
2299.602416864612
 31
0.0
  0
LINE
  5
7CCB
330
819D
100
AcDbEntity
  8
1
100
AcDbLine
 10
1889.432236650905
 20
2169.675950458528
 30
0.0
 11
980.1157713102528
 21
2009.341687928209
 31
0.0
  0
INSERT
  5
7CCC
330
819D
100
AcDbEntity
  8
0
100
AcDbBlockReference
  2
YA_N
 10
2545.878788900856
 20
-1567.120050791241
 30
0.0
  0
LINE
  5
7CCF
330
819D
100
AcDbEntity
  8
1
100
AcDbLine
 10
3321.223289427713
 20
1908.956000393227
 30
0.0
 11
4476.223289427713
 21
1908.956000393227
 31
0.0
1001
ACAD
1000
ASC_BOUNDS
1002
{
1070
    19
1002
}
  0
LINE
  5
7CD0
330
819D
100
AcDbEntity
  8
1
100
AcDbLine
 10
3321.223289427713
 20
1628.956000393227
 30
0.0
 11
3321.223289427713
 21
1728.956000393227
 31
0.0
  0
LINE
  5
7CD1
330
819D
100
AcDbEntity
  8
1
100
AcDbLine
 10
3321.223289427713
 20
1808.956000393227
 30
0.0
 11
4476.223289427713
 21
1808.956000393227
 31
0.0
  0
LINE
  5
7CD2
330
819D
100
AcDbEntity
  8
1
100
AcDbLine
 10
4476.223289427713
 20
1628.956000393227
 30
0.0
 11
4476.223289427713
 21
1728.956000393227
 31
0.0
  0
LINE
  5
7CD5
330
819D
100
AcDbEntity
  8
1
100
AcDbLine
 10
3470.923289427711
 20
2425.756000393227
 30
0.0
 11
3430.723289427711
 21
2425.756000393227
 31
0.0
  0
LINE
  5
7CD6
330
819D
100
AcDbEntity
  8
1
100
AcDbLine
 10
3470.923289427711
 20
2305.756000393227
 30
0.0
 11
3430.723289427714
 21
2305.756000393227
 31
0.0
  0
LINE
  5
7CD7
330
819D
100
AcDbEntity
  8
1
100
AcDbLine
 10
3510.723289427713
 20
2305.756000393227
 30
0.0
 11
3510.72328942771
 21
2425.756000393227
 31
0.0
  0
LINE
  5
7CD8
330
819D
100
AcDbEntity
  8
1
100
AcDbLine
 10
3510.723289427713
 20
2305.756000393227
 30
0.0
 11
3470.923289427711
 21
2305.756000393227
 31
0.0
  0
LINE
  5
7CD9
330
819D
100
AcDbEntity
  8
1
100
AcDbLine
 10
3510.72328942771
 20
2425.756000393227
 30
0.0
 11
3470.923289427711
 21
2425.756000393227
 31
0.0
  0
LINE
  5
7CDA
330
819D
100
AcDbEntity
  8
1
100
AcDbLine
 10
3420.723289427714
 20
2315.756000393227
 30
0.0
 11
3420.723289427711
 21
2415.756000393227
 31
0.0
  0
ARC
  5
7CDB
330
819D
100
AcDbEntity
  8
1
100
AcDbCircle
 10
3430.723289427714
 20
2315.756000393227
 30
0.0
 40
10.0
100
AcDbArc
 50
180.0000000000016
 51
270.0
  0
ARC
  5
7CDC
330
819D
100
AcDbEntity
  8
1
100
AcDbCircle
 10
3430.723289427711
 20
2415.756000393227
 30
0.0
 40
10.0
100
AcDbArc
 50
90.0
 51
180.0000000000016
  0
POINT
  5
7CDD
330
819D
100
AcDbEntity
  8
1
100
AcDbPoint
 10
3420.723289427711
 20
2415.756000393227
 30
0.0
  0
LINE
  5
7CDE
330
819D
100
AcDbEntity
  8
1
100
AcDbLine
 10
3393.223289427714
 20
2423.956000393227
 30
0.0
 11
3393.223289427714
 21
2473.956000393227
 31
0.0
  0
LINE
  5
7CDF
330
819D
100
AcDbEntity
  8
1
100
AcDbLine
 10
3393.223289427714
 20
2473.956000393227
 30
0.0
 11
3523.223289427714
 21
2473.956000393227
 31
0.0
  0
LINE
  5
7CE0
330
819D
100
AcDbEntity
  8
1
100
AcDbLine
 10
3393.223289427714
 20
2423.956000393227
 30
0.0
 11
3425.123289427713
 21
2423.956000393227
 31
0.0
  0
LINE
  5
7CE1
330
819D
100
AcDbEntity
  8
1
100
AcDbLine
 10
3369.223289427714
 20
2469.956000393227
 30
0.0
 11
3393.223289427714
 21
2469.956000393227
 31
0.0
  0
LINE
  5
7CE2
330
819D
100
AcDbEntity
  8
1
100
AcDbLine
 10
3369.223289427712
 20
2427.956000393227
 30
0.0
 11
3393.223289427712
 21
2427.956000393227
 31
0.0
  0
LINE
  5
7CE3
330
819D
100
AcDbEntity
  8
1
100
AcDbLine
 10
3369.223289427707
 20
2079.956000393227
 30
0.0
 11
3369.223289427714
 21
2652.156000393227
 31
0.0
  0
LINE
  5
7CE4
330
819D
100
AcDbEntity
  8
1
100
AcDbLine
 10
3268.223289427715
 20
2652.156000393227
 30
0.0
 11
3369.223289427716
 21
2652.156000393227
 31
0.0
  0
LINE
  5
7CE5
330
819D
100
AcDbEntity
  8
1
100
AcDbLine
 10
3268.223289427709
 20
2245.756000393227
 30
0.0
 11
3369.22328942771
 21
2245.756000393227
 31
0.0
  0
LINE
  5
7CE6
330
819D
100
AcDbEntity
  8
1
100
AcDbLine
 10
3268.223289427707
 20
2079.956000393227
 30
0.0
 11
3268.223289427715
 21
2652.156000393229
 31
0.0
  0
LINE
  5
7CE7
330
819D
100
AcDbEntity
  8
1
100
AcDbLine
 10
3268.223289427711
 20
2237.956000393227
 30
0.0
 11
3369.223289427711
 21
2237.956000393227
 31
0.0
  0
LINE
  5
7CE8
330
819D
100
AcDbEntity
  8
1
100
AcDbLine
 10
3268.223289427709
 20
2079.956000393227
 30
0.0
 11
3369.22328942771
 21
2079.956000393227
 31
0.0
  0
LINE
  5
7CE9
330
819D
100
AcDbEntity
  8
1
100
AcDbLine
 10
3133.223289427717
 20
2728.956000393227
 30
0.0
 11
3419.223289427716
 21
2728.956000393227
 31
0.0
  0
LINE
  5
7CEA
330
819D
100
AcDbEntity
  8
1
100
AcDbLine
 10
3133.223289427708
 20
2008.956000393227
 30
0.0
 11
3419.223289427707
 21
2008.956000393227
 31
0.0
  0
LINE
  5
7CEB
330
819D
100
AcDbEntity
  8
1
100
AcDbLine
 10
3419.223289427707
 20
2008.956000393227
 30
0.0
 11
3419.223289427707
 21
2028.956000393227
 31
0.0
  0
LINE
  5
7CEC
330
819D
100
AcDbEntity
  8
1
100
AcDbLine
 10
3133.223289427708
 20
2008.956000393227
 30
0.0
 11
3133.223289427717
 21
2728.956000393227
 31
0.0
  0
LINE
  5
7CED
330
819D
100
AcDbEntity
  8
1
100
AcDbLine
 10
3419.223289427716
 20
2708.956000393227
 30
0.0
 11
3419.223289427716
 21
2728.956000393227
 31
0.0
  0
DIMENSION
  5
7CEE
330
819D
100
AcDbEntity
  8
3
100
AcDbDimension
  2
*D6
 10
4423.223289427713
 20
3134.473968814646
 30
0.0
 11
3973.223289427713
 21
3184.473968814645
 31
0.0
 12
128.9512154972435
 22
1940.362522171828
 32
0.0
 71
     5
 42
-1.0
  3
Standard
100
AcDbAlignedDimension
 13
3523.223289427714
 23
2949.164890054777
 33
0.0
 14
4423.223289427713
 24
2949.16487631777
 34
0.0
100
AcDbRotatedDimension
1001
ACAD
1000
DSTYLE
1002
{
1070
    40
1040
25.0
1002
}
  0
DIMENSION
  5
7CF2
330
819D
100
AcDbEntity
  8
3
100
AcDbDimension
  2
*D10
 10
4701.005424383132
 20
2823.956000393227
 30
0.0
 11
4651.005424383131
 21
2448.956000393227
 31
0.0
 12
128.9512154972435
 22
1940.362522171828
 32
0.0
  1
\U+03C6<>
 71
     5
 42
-1.0
  3
Standard
100
AcDbAlignedDimension
 13
4425.523289427713
 23
2073.956000393227
 33
0.0
 14
4425.523289427713
 24
2823.956000393227
 34
0.0
 50
90.0
100
AcDbRotatedDimension
1001
ACAD
1000
DSTYLE
1002
{
1070
    40
1040
25.0
1002
}
  0
DIMENSION
  5
7CF4
330
819D
100
AcDbEntity
  8
3
100
AcDbDimension
  2
*D12
 10
550.5064130302306
 20
4671.46291352958
 30
0.0
 11
342.0932901355845
 21
4336.462913529579
 31
0.0
 12
158.4131228946462
 22
0.0
 32
0.0
 71
     5
 42
-1.0
  3
Standard
100
AcDbAlignedDimension
 13
719.3660036094987
 23
4001.46291352958
 33
0.0
 14
719.3660036094987
 24
4671.46291352958
 34
0.0
 50
90.0
100
AcDbRotatedDimension
1001
ACAD
1000
DSTYLE
1002
{
1070
    40
1040
25.0
1002
}
  0
DIMENSION
  5
7CF5
330
819D
100
AcDbEntity
  8
3
100
AcDbDimension
  2
*D13
 10
2319.366003609498
 20
5458.094967933752
 30
0.0
 11
1710.952880714852
 21
5508.094967933753
 31
0.0
 12
643.7938563937384
 22
1227.929602994241
 32
0.0
 71
     5
 42
-1.0
  3
Standard
100
AcDbAlignedDimension
 13
1419.366003609499
 23
5156.462913529579
 33
0.0
 14
2319.366003609498
 24
5156.462913529579
 34
0.0
100
AcDbRotatedDimension
1001
ACAD
1000
DSTYLE
1002
{
1070
    40
1040
25.0
1002
}
  0
DIMENSION
  5
7CF6
330
819D
100
AcDbEntity
  8
3
100
AcDbDimension
  2
*D14
 10
1419.366003609499
 20
5458.094967933752
 30
0.0
 11
910.9528807148526
 21
5508.094967933753
 31
0.0
 12
643.7938563937384
 22
1227.929602994241
 32
0.0
 71
     5
 42
-1.0
  3
Standard
100
AcDbAlignedDimension
 13
719.3660036094987
 23
4671.46291352958
 33
0.0
 14
1419.366003609499
 24
5156.462913529579
 34
0.0
100
AcDbRotatedDimension
1001
ACAD
1000
DSTYLE
1002
{
1070
    40
1040
25.0
1002
}
  0
DIMENSION
  5
7CF7
330
819D
100
AcDbEntity
  8
3
100
AcDbDimension
  2
*D15
 10
2620.763211750756
 20
5156.462913529579
 30
0.0
 11
2412.35008885611
 21
4578.962913529578
 31
0.0
 12
643.7938563937384
 22
1227.929602994241
 32
0.0
 71
     5
 42
-1.0
  3
Standard
100
AcDbAlignedDimension
 13
2319.366003609498
 23
4001.462913529579
 33
0.0
 14
2319.366003609498
 24
5156.462913529579
 34
0.0
 50
90.0
100
AcDbRotatedDimension
1001
ACAD
1000
DSTYLE
1002
{
1070
    40
1040
25.0
1002
}
  0
LINE
  5
7CF8
330
819D
100
AcDbEntity
  8
1
100
AcDbLine
 10
3321.223289427713
 20
1808.956000393227
 30
0.0
 11
3321.223289427713
 21
1908.956000393227
 31
0.0
  0
LINE
  5
7CF9
330
819D
100
AcDbEntity
  8
1
100
AcDbLine
 10
2149.366003609499
 20
3813.462913529579
 30
0.0
 11
2149.366003609499
 21
4098.462913529579
 31
0.0
  0
LINE
  5
7CFA
330
819D
100
AcDbEntity
  8
1
100
AcDbLine
 10
819.3660036094989
 20
3813.462913529579
 30
0.0
 11
819.3660036094989
 21
4098.462913529579
 31
0.0
  0
LINE
  5
7CFB
330
819D
100
AcDbEntity
  8
1
100
AcDbLine
 10
2072.566003609499
 20
3948.46291352958
 30
0.0
 11
2072.566003609499
 21
4048.462913529578
 31
0.0
  0
LINE
  5
7CFC
330
819D
100
AcDbEntity
  8
1
100
AcDbLine
 10
1666.166003609498
 20
3948.46291352958
 30
0.0
 11
1666.166003609498
 21
4048.462913529578
 31
0.0
  0
LINE
  5
7CFD
330
819D
100
AcDbEntity
  8
1
100
AcDbLine
 10
1048.366003609498
 20
3948.46291352958
 30
0.0
 11
1048.366003609498
 21
4048.462913529578
 31
0.0
  0
LINE
  5
7CFE
330
819D
100
AcDbEntity
  8
1
100
AcDbLine
 10
890.3660036094988
 20
3948.46291352958
 30
0.0
 11
890.3660036094988
 21
4048.462913529581
 31
0.0
  0
LINE
  5
7CFF
330
819D
100
AcDbEntity
  8
1
100
AcDbLine
 10
2149.366003609499
 20
3813.462913529579
 30
0.0
 11
819.3660036094989
 21
3813.462913529579
 31
0.0
  0
LINE
  5
7D00
330
819D
100
AcDbEntity
  8
1
100
AcDbLine
 10
2149.366003609499
 20
4098.462913529579
 30
0.0
 11
819.3660036094989
 21
4098.462913529579
 31
0.0
  0
LINE
  5
7D01
330
819D
100
AcDbEntity
  8
1
100
AcDbLine
 10
2072.566003609499
 20
4048.462913529578
 30
0.0
 11
1666.166003609498
 21
4048.462913529578
 31
0.0
  0
LINE
  5
7D02
330
819D
100
AcDbEntity
  8
1
100
AcDbLine
 10
2072.566003609499
 20
3948.46291352958
 30
0.0
 11
1666.166003609498
 21
3948.46291352958
 31
0.0
  0
LINE
  5
7D03
330
819D
100
AcDbEntity
  8
1
100
AcDbLine
 10
1048.366003609498
 20
4048.462913529578
 30
0.0
 11
890.3660036094988
 21
4048.462913529578
 31
0.0
  0
LINE
  5
7D04
330
819D
100
AcDbEntity
  8
1
100
AcDbLine
 10
1048.366003609498
 20
3948.46291352958
 30
0.0
 11
890.3660036094988
 21
3948.46291352958
 31
0.0
  0
LINE
  5
7D05
330
819D
100
AcDbEntity
  8
1
100
AcDbLine
 10
2375.366003609499
 20
4203.462913529577
 30
0.0
 11
1110.366003609499
 21
4203.46291352958
 31
0.0
  0
LINE
  5
7D06
330
819D
100
AcDbEntity
  8
1
100
AcDbLine
 10
2375.366003609499
 20
5103.462913529579
 30
0.0
 11
1110.366003609499
 21
5103.462913529579
 31
0.0
  0
LINE
  5
7D07
330
819D
100
AcDbEntity
  8
1
100
AcDbLine
 10
2369.366003609499
 20
5143.462913529579
 30
0.0
 11
2366.366003609499
 21
5143.462913529579
 31
0.0
  0
LINE
  5
7D08
330
819D
100
AcDbEntity
  8
1
100
AcDbLine
 10
2369.366003609499
 20
4163.462913529577
 30
0.0
 11
2366.366003609499
 21
4163.462913529579
 31
0.0
  0
LINE
  5
7D09
330
819D
100
AcDbEntity
  8
1
100
AcDbLine
 10
1894.366003609499
 20
4203.46291352958
 30
0.0
 11
1894.366003609499
 21
4048.462913529578
 31
0.0
  0
LINE
  5
7D0A
330
819D
100
AcDbEntity
  8
1
100
AcDbLine
 10
1844.366003609499
 20
4203.46291352958
 30
0.0
 11
1844.366003609499
 21
4048.462913529578
 31
0.0
  0
LINE
  5
7D0B
330
819D
100
AcDbEntity
  8
1
100
AcDbLine
 10
1131.366003609499
 20
4066.462913529579
 30
0.0
 11
1131.366003609499
 21
4203.46291352958
 31
0.0
  0
LINE
  5
7D0C
330
819D
100
AcDbEntity
  8
1
100
AcDbLine
 10
807.3660036094988
 20
4066.462913529579
 30
0.0
 11
807.3660036094988
 21
4551.462913529578
 31
0.0
  0
LINE
  5
7D0D
330
819D
100
AcDbEntity
  8
1
100
AcDbLine
 10
1110.366003609499
 20
4551.462913529578
 30
0.0
 11
807.3660036094988
 21
4551.462913529578
 31
0.0
  0
LINE
  5
7D0E
330
819D
100
AcDbEntity
  8
1
100
AcDbLine
 10
1131.366003609499
 20
4066.462913529579
 30
0.0
 11
807.3660036094988
 21
4066.462913529579
 31
0.0
  0
LINE
  5
7D0F
330
819D
100
AcDbEntity
  8
1
100
AcDbLine
 10
990.3660036094988
 20
4066.462913529579
 30
0.0
 11
990.3660036094988
 21
4048.462913529578
 31
0.0
  0
LINE
  5
7D10
330
819D
100
AcDbEntity
  8
1
100
AcDbLine
 10
948.3660036094988
 20
4066.462913529579
 30
0.0
 11
948.3660036094988
 21
4048.462913529578
 31
0.0
  0
LINE
  5
7D11
330
819D
100
AcDbEntity
  8
1
100
AcDbLine
 10
3387.223289427709
 20
2320.956000393231
 30
0.0
 11
3420.725289627752
 21
2320.956000393231
 31
0.0
  0
LINE
  5
7D12
330
819D
100
AcDbEntity
  8
1
100
AcDbLine
 10
3387.223289427709
 20
1996.956000393231
 30
0.0
 11
3523.223289427712
 21
1996.956000393231
 31
0.0
  0
LINE
  5
7D13
330
819D
100
AcDbEntity
  8
1
100
AcDbLine
 10
3387.223289427709
 20
1996.956000393231
 30
0.0
 11
3387.223289427709
 21
2320.956000393231
 31
0.0
  0
LINE
  5
7D14
330
819D
100
AcDbEntity
  8
1
100
AcDbLine
 10
3387.223289427709
 20
2137.956000393231
 30
0.0
 11
3369.22328942771
 21
2137.956000393231
 31
0.0
  0
LINE
  5
7D15
330
819D
100
AcDbEntity
  8
1
100
AcDbLine
 10
3387.223289427709
 20
2179.956000393231
 30
0.0
 11
3369.22328942771
 21
2179.956000393231
 31
0.0
  0
LINE
  5
7D16
330
819D
100
AcDbEntity
  8
1
100
AcDbLine
 10
3510.723289427711
 20
2320.956000393231
 30
0.0
 11
3523.223289427712
 21
2320.956000393231
 31
0.0
  0
LINE
  5
7D1D
330
819D
100
AcDbEntity
  8
1
100
AcDbLine
 10
4476.223289427713
 20
1808.956000393227
 30
0.0
 11
4476.223289427713
 21
1908.956000393227
 31
0.0
  0
DIMENSION
  5
7D1E
330
819D
100
AcDbEntity
  8
3
100
AcDbDimension
  2
*D16
 10
2597.450986778873
 20
2448.956000393227
 30
0.0
 11
2389.037863884226
 21
2698.956000393228
 31
0.0
 12
643.7938563937384
 22
1940.362522171828
 32
0.0
 71
     5
 42
-1.0
  3
Standard
100
AcDbAlignedDimension
 13
1882.366003609499
 23
2948.956000393229
 33
0.0
 14
2491.631842414928
 24
2448.956000393227
 34
0.0
 50
90.0
100
AcDbRotatedDimension
1001
ACAD
1000
DSTYLE
1002
{
1070
    40
1040
25.0
1002
}
  0
LINE
  5
7D25
330
819D
100
AcDbEntity
  8
1
100
AcDbLine
 10
1110.366003609499
 20
5103.462913529579
 30
0.0
 11
1110.366003609499
 21
4203.46291352958
 31
0.0
  0
LINE
  5
7D26
330
819D
100
AcDbEntity
  8
1
100
AcDbLine
 10
2375.366003609499
 20
5103.462913529579
 30
0.0
 11
2375.366003609499
 21
4203.462913529577
 31
0.0
  0
LINE
  5
7D27
330
819D
100
AcDbEntity
  8
1
100
AcDbLine
 10
1840.366003609499
 20
5103.462913529579
 30
0.0
 11
1840.366003609499
 21
4203.46291352958
 31
0.0
  0
LINE
  5
7D28
330
819D
100
AcDbEntity
  8
1
100
AcDbLine
 10
1840.366003609499
 20
5103.462913529579
 30
0.0
 11
1110.366003609499
 21
4203.46291352958
 31
0.0
  0
LINE
  5
7D29
330
819D
100
AcDbEntity
  8
1
100
AcDbLine
 10
1110.366003609499
 20
5103.462913529579
 30
0.0
 11
1840.366003609499
 21
4203.46291352958
 31
0.0
  0
LINE
  5
7D2A
330
819D
100
AcDbEntity
  8
1
100
AcDbLine
 10
2319.366003609498
 20
4203.462913529577
 30
0.0
 11
2319.366003609498
 21
4001.46291352958
 31
0.0
  0
LINE
  5
7D2B
330
819D
100
AcDbEntity
  8
1
100
AcDbLine
 10
3483.223289427712
 20
2945.956000393227
 30
0.0
 11
4463.223289427713
 21
2945.956000393227
 31
0.0
  0
LINE
  5
7D2C
330
819D
100
AcDbEntity
  8
1
100
AcDbLine
 10
3483.223289427712
 20
2945.956000393227
 30
0.0
 11
3483.223289427713
 21
2948.956000393227
 31
0.0
  0
LINE
  5
7D2D
330
819D
100
AcDbEntity
  8
1
100
AcDbLine
 10
4463.223289427713
 20
2945.956000393227
 30
0.0
 11
4463.223289427713
 21
2948.956000393227
 31
0.0
  0
LINE
  5
7F58
330
819D
100
AcDbEntity
  8
4
100
AcDbLine
 10
4625.0
 20
1250.0
 30
0.0
 11
4625.0
 21
750.0
 31
0.0
  0
LINE
  5
7F59
330
819D
100
AcDbEntity
  8
4
100
AcDbLine
 10
2875.0
 20
1250.0
 30
0.0
 11
2875.0
 21
750.0
 31
0.0
  0
LINE
  5
7F5A
330
819D
100
AcDbEntity
  8
4
100
AcDbLine
 10
1625.0
 20
1250.0
 30
0.0
 11
1625.0
 21
750.0
 31
0.0
  0
LINE
  5
7F5D
330
819D
100
AcDbEntity
  8
4
100
AcDbLine
 10
1625.0
 20
750.0
 30
0.0
 11
4625.0
 21
750.0
 31
0.0
  0
LINE
  5
7F5E
330
819D
100
AcDbEntity
  8
4
100
AcDbLine
 10
1625.0
 20
1000.0
 30
0.0
 11
4625.0
 21
1000.0
 31
0.0
  0
TEXT
  5
7F5F
330
819D
100
AcDbEntity
  8
4
100
AcDbText
 10
1721.255202117253
 20
1078.857564666532
 30
0.0
 40
125.0
  1
機器名称
100
AcDbText
  0
TEXT
  5
7F60
330
819D
100
AcDbEntity
  8
4
100
AcDbText
 10
1715.645265061993
 20
804.1128918300273
 30
0.0
 40
125.0
  1
機器型番
100
AcDbText
  0
TEXT
  5
7F61
330
819D
100
AcDbEntity
  8
4
100
AcDbText
 10
2944.196863719162
 20
1056.429422393921
 30
0.0
 40
125.0
  1
ミツヤ多翼送風機
100
AcDbText
  0
TEXT
  5
7F62
330
819D
100
AcDbEntity
  8
4
100
AcDbText
 10
2966.636238963701
 20
792.8989606998584
 30
0.0
 40
125.0
  1
MF#4 1/2-5
100
AcDbText
  0
TEXT
  5
7F64
330
819D
100
AcDbEntity
  8
4
100
AcDbText
 10
2011.143671690759
 20
5958.572103331289
 30
0.0
 40
135.0
  1
床置防振ベット
100
AcDbText
  0
TEXT
  5
7F65
330
819D
100
AcDbEntity
  8
4
100
AcDbText
 10
790.4189833236158
 20
6334.702440498245
 30
0.0
 40
180.0
  1
遠心式両吸込両持多翼ファン
100
AcDbText
  0
LINE
  5
7F66
330
819D
100
AcDbEntity
  8
4
100
AcDbLine
 10
625.0
 20
6173.521885662012
 30
0.0
 11
4625.0
 21
6173.521885662012
 31
0.0
  0
LINE
  5
7F67
330
819D
100
AcDbEntity
  8
4
100
AcDbLine
 10
625.0
 20
6673.521885662011
 30
0.0
 11
4625.0
 21
6673.521885662011
 31
0.0
  0
LINE
  5
7F68
330
819D
100
AcDbEntity
  8
4
100
AcDbLine
 10
1625.0
 20
1250.0
 30
0.0
 11
4625.0
 21
1250.0
 31
0.0
  0
LINE
  5
7F69
330
819D
100
AcDbEntity
  8
4
100
AcDbLine
 10
625.0
 20
6673.521885662011
 30
0.0
 11
625.0
 21
6173.521885662012
 31
0.0
  0
TEXT
  5
7F6A
330
819D
100
AcDbEntity
  8
4
100
AcDbText
 10
921.4965910840033
 20
5955.798693865858
 30
0.0
 40
135.0
  1
右回転上向
100
AcDbText
  0
TEXT
  5
7F6B
330
819D
100
AcDbEntity
  8
4
100
AcDbText
 10
3672.423898123224
 20
6765.15270373827
 30
0.0
 40
140.0
  1
No.
100
AcDbText
  0
TEXT
  5
7F6C
330
819D
100
AcDbEntity
  8
4
100
AcDbText
 10
3278.240156500032
 20
5958.572103331289
 30
0.0
 40
135.0
  1
縮尺：1/25
100
AcDbText
  0
LINE
  5
7F6D
330
819D
100
AcDbEntity
  8
4
100
AcDbLine
 10
4625.0
 20
6673.521885662011
 30
0.0
 11
4625.0
 21
6173.521885662012
 31
0.0
  0
LINE
  5
7F6E
330
819D
100
AcDbEntity
  8
4
100
AcDbLine
 10
5250.0
 20
7375.0
 30
0.0
 11
5250.0
 21
7375.0
 31
0.0
  0
LINE
  5
7F6F
330
819D
100
AcDbEntity
  8
4
100
AcDbLine
 10
3601.543555899662
 20
6703.158957813504
 30
0.0
 11
3601.543555899662
 21
6966.630653874381
 31
0.0
  0
LINE
  5
7F70
330
819D
100
AcDbEntity
  8
4
100
AcDbLine
 10
3601.543555899662
 20
6966.630653874381
 30
0.0
 11
4625.0
 21
6966.630653874381
 31
0.0
  0
LINE
  5
7F71
330
819D
100
AcDbEntity
  8
4
100
AcDbLine
 10
4625.0
 20
6966.630653874381
 30
0.0
 11
4625.0
 21
6703.158957813504
 31
0.0
  0
LINE
  5
7F72
330
819D
100
AcDbEntity
  8
4
100
AcDbLine
 10
4625.0
 20
6703.158957813504
 30
0.0
 11
3601.543555899662
 21
6703.158957813504
 31
0.0
  0
LINE
  5
7F73
330
819D
100
AcDbEntity
  8
4
100
AcDbLine
 10
0.0
 20
0.0
 30
0.0
 11
0.0
 21
7375.0
 31
0.0
  0
LINE
  5
7F74
330
819D
100
AcDbEntity
  8
4
100
AcDbLine
 10
0.0
 20
7375.0
 30
0.0
 11
5250.0
 21
7375.0
 31
0.0
  0
LINE
  5
7F75
330
819D
100
AcDbEntity
  8
4
100
AcDbLine
 10
5250.0
 20
7375.0
 30
0.0
 11
5250.0
 21
0.0
 31
0.0
  0
LINE
  5
7F76
330
819D
100
AcDbEntity
  8
4
100
AcDbLine
 10
5250.0
 20
0.0
 30
0.0
 11
0.0
 21
0.0
 31
0.0
  0
LINE
  5
8259
330
819D
100
AcDbEntity
  8
1
100
AcDbLine
 10
1110.724513232679
 20
2945.956000393227
 30
0.0
 11
1173.691857253649
 21
2419.046763237285
 31
0.0
  0
ARC
  5
825A
330
819D
100
AcDbEntity
  8
1
100
AcDbCircle
 10
1816.366003609499
 20
2501.956000393229
 30
0.0
 40
648.0
100
AcDbArc
 50
187.3509360175293
 51
246.2232656341104
  0
ARC
  5
825B
330
819D
100
AcDbEntity
  8
1
100
AcDbCircle
 10
1816.366003609499
 20
2395.956000393229
 30
0.0
 40
541.9999999999998
100
AcDbArc
 50
296.0352751318408
 51
5.611691433105804
  0
ARC
  5
825C
330
819D
100
AcDbEntity
  8
1
100
AcDbCircle
 10
1910.366003609499
 20
2407.956000393229
 30
0.0
 40
448.0
100
AcDbArc
 50
5.250934316550378
 51
90.0
  0
ARC
  5
825D
330
819D
100
AcDbEntity
  8
1
100
AcDbCircle
 10
1910.366003609498
 20
2489.956000393229
 30
0.0
 40
366.0
100
AcDbArc
 50
90.0
 51
101.0261404812872
  0
LINE
  5
825E
330
819D
100
AcDbEntity
  8
1
100
AcDbLine
 10
1840.366003609498
 20
2948.956000393229
 30
0.0
 11
1840.366003609498
 21
2849.199650302312
 31
0.0
  0
LINE
  5
825F
330
819D
100
AcDbEntity
  8
1
100
AcDbLine
 10
1068.366003609499
 20
2948.956000393227
 30
0.0
 11
1882.366003609498
 21
2948.956000393229
 31
0.0
  0
LINE
  5
8260
330
819D
100
AcDbEntity
  8
1
100
AcDbLine
 10
1068.366003609499
 20
2948.956000393227
 30
0.0
 11
1068.366003609499
 21
2945.956000393227
 31
0.0
  0
LINE
  5
8261
330
819D
100
AcDbEntity
  8
1
100
AcDbLine
 10
1882.366003609498
 20
2948.956000393229
 30
0.0
 11
1882.366003609498
 21
2945.956000393227
 31
0.0
  0
LINE
  5
8262
330
819D
100
AcDbEntity
  8
1
100
AcDbLine
 10
1113.815235182102
 20
2908.956000393227
 30
0.0
 11
1840.366003609498
 21
2908.956000393227
 31
0.0
  0
LINE
  5
8263
330
819D
100
AcDbEntity
  8
1
100
AcDbLine
 10
1068.366003609499
 20
2945.956000393227
 30
0.0
 11
1882.366003609498
 21
2945.956000393227
 31
0.0
  0
POINT
  5
8264
330
819D
100
AcDbEntity
  8
1
100
AcDbPoint
 10
1869.366003609498
 20
2909.138572857679
 30
0.0
 50
270.0
  0
LINE
  5
8265
330
819D
100
AcDbEntity
  8
1
100
AcDbLine
 10
1869.366003609498
 20
2952.43780602572
 30
0.0
 11
1869.366003609498
 21
2968.111111442036
 31
0.0
  0
CIRCLE
  5
8266
330
819D
100
AcDbEntity
  8
1
100
AcDbCircle
 10
1869.366003609498
 20
2448.956000393227
 30
0.0
 40
375.0
  0
CIRCLE
  5
8267
330
819D
100
AcDbEntity
  8
1
100
AcDbCircle
 10
1869.366003609498
 20
2448.956000393227
 30
0.0
 40
415.0
  0
DIMENSION
  5
8268
330
819D
100
AcDbEntity
  8
3
100
AcDbDimension
  2
*D30
 10
3973.223289427714
 20
3347.27281998572
 30
0.0
 11
3553.223289427716
 21
3429.415677128576
 31
0.0
 70
    32
 71
     5
 42
839.9999999999968
  3
IGA
100
AcDbAlignedDimension
 13
3133.223289427717
 23
2728.956000393227
 33
0.0
 14
3973.223289427714
 24
3229.966799471808
 34
0.0
100
AcDbRotatedDimension
1001
ACAD
1000
DSTYLE
1002
{
1070
     3
1000
(<>)
1070
    40
1040
25.0
1070
    42
1040
1.0
1070
   143
1040
0.039
1070
   172
1070
     1
1070
   271
1070
     4
1070
   272
1070
     4
1070
   279
1070
     0
1070
   284
1070
     0
1070
   285
1070
     0
1070
   286
1070
     0
1070
   341
1005
81B1
1070
   343
1005
81B1
1070
   344
1005
81B1
1002
}
  0
DIMENSION
  5
8275
330
819D
100
AcDbEntity
  8
3
100
AcDbDimension
  2
*D31
 10
4533.223289427713
 20
3347.27281998572
 30
0.0
 11
4253.223289427713
 21
3429.415677128576
 31
0.0
 70
    32
 71
     5
 42
559.999999999999
  3
IGA
100
AcDbAlignedDimension
 13
3973.223289427714
 23
3229.966799471808
 33
0.0
 14
4533.223289427713
 24
2423.756000393227
 34
0.0
100
AcDbRotatedDimension
1001
ACAD
1000
DSTYLE
1002
{
1070
     3
1000
(<>)
1070
    40
1040
25.0
1070
    42
1040
1.0
1070
   143
1040
0.039
1070
   172
1070
     1
1070
   271
1070
     4
1070
   272
1070
     4
1070
   279
1070
     1
1070
   284
1070
     0
1070
   285
1070
     0
1070
   286
1070
     0
1070
   341
1005
81B1
1070
   343
1005
81B1
1070
   344
1005
81B1
1002
}
  0
DIMENSION
  5
82A9
330
819D
100
AcDbEntity
  8
3
100
AcDbDimension
  2
*D32
 10
2319.366003609498
 20
3650.10445721307
 30
0.0
 11
1519.366003609498
 21
3712.60445721307
 31
0.0
 70
    32
 71
     5
 42
1599.999999999999
  3
IGA
100
AcDbAlignedDimension
 13
719.3660036094987
 23
4001.46291352958
 33
0.0
 14
2319.366003609498
 24
4001.462913529579
 34
0.0
100
AcDbRotatedDimension
1001
ACAD
1000
DSTYLE
1002
{
1070
    40
1040
25.0
1070
    42
1040
1.0
1070
   143
1040
0.039
1070
   172
1070
     1
1070
   271
1070
     4
1070
   272
1070
     4
1070
   279
1070
     0
1070
   284
1070
     0
1070
   285
1070
     0
1070
   286
1070
     0
1070
   341
1005
81B1
1070
   343
1005
81B1
1070
   344
1005
81B1
1002
}
  0
DIMENSION
  5
830F
330
819D
100
AcDbEntity
  8
3
100
AcDbDimension
  2
*D40
 10
3973.223289427713
 20
1462.166043842768
 30
0.0
 11
3647.223289427714
 21
1524.666043842768
 31
0.0
 70
    32
 71
     5
 42
652.0
  3
IGA
100
AcDbAlignedDimension
 13
3321.223289427713
 23
1628.956000393227
 33
0.0
 14
3973.223289427713
 24
1628.956000393227
 34
0.0
100
AcDbRotatedDimension
1001
ACAD
1000
DSTYLE
1002
{
1070
    40
1040
25.0
1070
    42
1040
1.0
1070
   143
1040
0.039
1070
   172
1070
     1
1070
   271
1070
     4
1070
   272
1070
     4
1070
   279
1070
     0
1070
   284
1070
     0
1070
   285
1070
     0
1070
   286
1070
     0
1070
   341
1005
81B1
1070
   343
1005
81B1
1070
   344
1005
81B1
1002
}
  0
DIMENSION
  5
831C
330
819D
100
AcDbEntity
  8
3
100
AcDbDimension
  2
*D41
 10
4476.223289427713
 20
1462.166043842768
 30
0.0
 11
4224.723289427713
 21
1524.666043842768
 31
0.0
 70
    32
 71
     5
 42
503.0
  3
IGA
100
AcDbAlignedDimension
 13
3973.223289427713
 23
1628.956000393227
 33
0.0
 14
4476.223289427713
 24
1628.956000393227
 34
0.0
100
AcDbRotatedDimension
1001
ACAD
1000
DSTYLE
1002
{
1070
    40
1040
25.0
1070
    42
1040
1.0
1070
   143
1040
0.039
1070
   172
1070
     1
1070
   271
1070
     4
1070
   272
1070
     4
1070
   279
1070
     1
1070
   284
1070
     0
1070
   285
1070
     0
1070
   286
1070
     0
1070
   341
1005
81B1
1070
   343
1005
81B1
1070
   344
1005
81B1
1002
}
  0
DIMENSION
  5
8329
330
819D
100
AcDbEntity
  8
3
100
AcDbDimension
  2
*D42
 10
1869.366003609499
 20
1459.614971353661
 30
0.0
 11
1294.366003609499
 21
1522.114971353661
 31
0.0
 70
    32
 71
     5
 42
1150.0
  3
IGA
100
AcDbAlignedDimension
 13
719.3660036094987
 23
1628.956000393227
 33
0.0
 14
1869.366003609499
 24
1628.956000393227
 34
0.0
100
AcDbRotatedDimension
1001
ACAD
1000
DSTYLE
1002
{
1070
    40
1040
25.0
1070
    42
1040
1.0
1070
   143
1040
0.039
1070
   172
1070
     1
1070
   271
1070
     4
1070
   272
1070
     4
1070
   279
1070
     0
1070
   284
1070
     0
1070
   285
1070
     0
1070
   286
1070
     0
1070
   341
1005
81B1
1070
   343
1005
81B1
1070
   344
1005
81B1
1002
}
  0
DIMENSION
  5
8336
330
819D
100
AcDbEntity
  8
3
100
AcDbDimension
  2
*D43
 10
2319.366003609498
 20
1459.614971353661
 30
0.0
 11
2094.366003609499
 21
1522.114971353661
 31
0.0
 70
    32
 71
     5
 42
449.9999999999988
  3
IGA
100
AcDbAlignedDimension
 13
1869.366003609499
 23
1628.956000393227
 33
0.0
 14
2319.366003609498
 24
1628.956000393227
 34
0.0
100
AcDbRotatedDimension
1001
ACAD
1000
DSTYLE
1002
{
1070
    40
1040
25.0
1070
    42
1040
1.0
1070
   143
1040
0.039
1070
   172
1070
     1
1070
   271
1070
     4
1070
   272
1070
     4
1070
   279
1070
     1
1070
   284
1070
     0
1070
   285
1070
     0
1070
   286
1070
     0
1070
   341
1005
81B1
1070
   343
1005
81B1
1070
   344
1005
81B1
1002
}
  0
DIMENSION
  5
8343
330
819D
100
AcDbEntity
  8
3
100
AcDbDimension
  2
*D44
 10
2971.582959990381
 20
2948.956000393229
 30
0.0
 11
2889.440102847523
 21
2288.956000393229
 31
0.0
 70
    32
  1
(<>)
 71
     5
 42
1320.000000000001
  3
IGA
100
AcDbAlignedDimension
 13
2319.366003609498
 23
1628.956000393227
 33
0.0
 14
1882.366003609499
 24
2948.956000393229
 34
0.0
 50
90.0
100
AcDbRotatedDimension
1001
ACAD
1000
DSTYLE
1002
{
1070
    40
1040
25.0
1070
    42
1040
1.0
1070
   143
1040
0.039
1070
   172
1070
     1
1070
   271
1070
     4
1070
   272
1070
     4
1070
   279
1070
     0
1070
   284
1070
     0
1070
   285
1070
     0
1070
   286
1070
     0
1070
   341
1005
81B1
1070
   343
1005
81B1
1070
   344
1005
81B1
1002
}
  0
DIMENSION
  5
8365
330
819D
100
AcDbEntity
  8
3
100
AcDbDimension
  2
*D45
 10
2597.450986778873
 20
1808.956000393227
 30
0.0
 11
2534.950986778872
 21
2128.956000393228
 31
0.0
 70
    32
 71
     5
 42
640.0
  3
IGA
100
AcDbAlignedDimension
 13
2491.631842414928
 23
2448.956000393227
 33
0.0
 14
2319.366003609498
 24
1808.956000393227
 34
0.0
 50
90.0
100
AcDbRotatedDimension
1001
ACAD
1000
DSTYLE
1002
{
1070
    40
1040
25.0
1070
    42
1040
1.0
1070
   143
1040
0.039
1070
   172
1070
     1
1070
   271
1070
     4
1070
   272
1070
     4
1070
   279
1070
     0
1070
   284
1070
     0
1070
   285
1070
     0
1070
   286
1070
     0
1070
   341
1005
81B1
1070
   343
1005
81B1
1070
   344
1005
81B1
1002
}
  0
DIMENSION
  5
8372
330
819D
100
AcDbEntity
  8
3
100
AcDbDimension
  2
*D46
 10
2597.450986778873
 20
1728.956000393227
 30
0.0
 11
2749.236701064587
 21
1864.134571821798
 31
0.0
 70
    32
  1
(<>)
 71
     5
 42
80.0
  3
IGA
100
AcDbAlignedDimension
 13
2319.366003609498
 23
1808.956000393227
 33
0.0
 14
2319.366003609498
 24
1728.956000393227
 34
0.0
 50
90.0
100
AcDbRotatedDimension
1001
ACAD
1000
DSTYLE
1002
{
1070
    40
1040
25.0
1070
    42
1040
1.0
1070
   143
1040
0.039
1070
   172
1070
     1
1070
   271
1070
     4
1070
   272
1070
     4
1070
   279
1070
     1
1070
   284
1070
     0
1070
   285
1070
     0
1070
   286
1070
     0
1070
   341
1005
81B1
1070
   343
1005
81B1
1070
   344
1005
83F7
1002
}
  0
DIMENSION
  5
8384
330
819D
100
AcDbEntity
  8
3
100
AcDbDimension
  2
*D47
 10
2597.450986778873
 20
1628.956000393227
 30
0.0
 11
2587.711624817581
 21
1517.756862601163
 31
0.0
 70
   160
 71
     5
 42
100.0
  3
IGA
100
AcDbAlignedDimension
 13
2319.366003609498
 23
1728.956000393227
 33
0.0
 14
2319.366003609498
 24
1628.956000393227
 34
0.0
 50
90.0
100
AcDbRotatedDimension
1001
ACAD
1000
DSTYLE
1002
{
1070
    40
1040
25.0
1070
    42
1040
1.0
1070
   143
1040
0.039
1070
   172
1070
     1
1070
   271
1070
     4
1070
   272
1070
     4
1070
   279
1070
     1
1070
   284
1070
     0
1070
   285
1070
     0
1070
   286
1070
     0
1070
   341
1005
81B1
1070
   343
1005
83F7
1070
   344
1005
81B1
1002
}
  0
DIMENSION
  5
84CB
330
819D
100
AcDbEntity
  8
3
100
AcDbDimension
  2
*D50
 10
2358.366003609499
 20
3250.772157646118
 30
0.0
 11
2113.866003609499
 21
3313.272157646118
 31
0.0
 70
    32
 71
     5
 42
489.0000000000009
  3
IGA
100
AcDbAlignedDimension
 13
1869.366003609498
 23
3083.709552908742
 33
0.0
 14
2358.366003609499
 24
2395.956000393229
 34
0.0
100
AcDbRotatedDimension
1001
ACAD
1000
DSTYLE
1002
{
1070
    40
1040
25.0
1070
    42
1040
1.0
1070
   143
1040
0.039
1070
   172
1070
     1
1070
   271
1070
     4
1070
   272
1070
     4
1070
   279
1070
     0
1070
   284
1070
     0
1070
   285
1070
     0
1070
   286
1070
     0
1070
   341
1005
81B1
1070
   343
1005
81B1
1070
   344
1005
81B1
1002
}
  0
DIMENSION
  5
84E1
330
819D
100
AcDbEntity
  8
3
100
AcDbDimension
  2
*D51
 10
2358.366003609499
 20
3406.390604686985
 30
0.0
 11
1538.866003609499
 21
3468.890604686985
 31
0.0
 70
    32
 71
     5
 42
1639.0
  3
IGA
100
AcDbAlignedDimension
 13
719.3660036094987
 23
1908.956000393227
 33
0.0
 14
2358.366003609499
 24
2395.956000393229
 34
0.0
100
AcDbRotatedDimension
1001
ACAD
1000
DSTYLE
1002
{
1070
    40
1040
25.0
1070
    42
1040
1.0
1070
   143
1040
0.039
1070
   172
1070
     1
1070
   271
1070
     4
1070
   272
1070
     4
1070
   279
1070
     0
1070
   284
1070
     0
1070
   285
1070
     0
1070
   286
1070
     0
1070
   341
1005
81B1
1070
   343
1005
81B1
1070
   344
1005
81B1
1002
}
  0
ENDSEC
  0
SECTION
  2
OBJECTS
  0
DICTIONARY
  5
813A
330
0
100
AcDbDictionary
281
     1
  3
ACAD_CIP_PREVIOUS_PRODUCT_INFO
350
81E7
  3
ACAD_COLOR
350
8190
  3
ACAD_DETAILVIEWSTYLE
350
8197
  3
ACAD_GROUP
350
813B
  3
ACAD_LAYOUT
350
818F
  3
ACAD_MATERIAL
350
813E
  3
ACAD_MLEADERSTYLE
350
8193
  3
ACAD_MLINESTYLE
350
818C
  3
ACAD_PLOTSETTINGS
350
818E
  3
ACAD_PLOTSTYLENAME
350
813C
  3
ACAD_SCALELIST
350
8170
  3
ACAD_SECTIONVIEWSTYLE
350
8195
  3
ACAD_TABLESTYLE
350
8191
  3
ACAD_VISUALSTYLE
350
8157
  3
ACDB_RECOMPOSE_DATA
350
8531
  3
AcDbVariableDictionary
350
81F2
  3
DWGPROPS
350
8532
  0
DICTIONARY
  5
823E
330
8130
100
AcDbDictionary
280
     1
281
     1
  3
ACAD_LAYERSTATES
360
823F
  0
DICTIONARY
  5
81E8
330
8182
100
AcDbDictionary
280
     1
281
     1
  3
ADSK_XREC_LAYER_RECONCILED
360
81E9
  0
DICTIONARY
  5
81EA
330
81A1
100
AcDbDictionary
280
     1
281
     1
  3
ADSK_XREC_LAYER_RECONCILED
360
81EB
  0
DICTIONARY
  5
81EC
330
81A4
100
AcDbDictionary
280
     1
281
     1
  3
ADSK_XREC_LAYER_RECONCILED
360
81ED
  0
DICTIONARY
  5
81EE
330
81A5
100
AcDbDictionary
280
     1
281
     1
  3
ADSK_XREC_LAYER_RECONCILED
360
81EF
  0
DICTIONARY
  5
81F0
330
81A6
100
AcDbDictionary
280
     1
281
     1
  3
ADSK_XREC_LAYER_RECONCILED
360
81F1
  0
XRECORD
  5
81E7
102
{ACAD_REACTORS
330
813A
102
}
330
813A
100
AcDbXrecord
280
     1
300
ACDLT
300
2015
300
INVLTS_F_S
  0
DICTIONARY
  5
8190
102
{ACAD_REACTORS
330
813A
102
}
330
813A
100
AcDbDictionary
281
     1
  0
DICTIONARY
  5
8197
102
{ACAD_REACTORS
330
813A
102
}
330
813A
100
AcDbDictionary
281
     1
  3
Imperial24
350
8198
  0
DICTIONARY
  5
813B
102
{ACAD_REACTORS
330
813A
102
}
330
813A
100
AcDbDictionary
281
     1
  0
DICTIONARY
  5
818F
102
{ACAD_REACTORS
330
813A
102
}
330
813A
100
AcDbDictionary
281
     1
  3
Model
350
81A0
  3
レイアウト1
350
819C
  0
DICTIONARY
  5
813E
102
{ACAD_REACTORS
330
813A
102
}
330
813A
100
AcDbDictionary
281
     1
  3
ByBlock
350
8147
  3
ByLayer
350
813F
  3
Global
350
814F
  0
DICTIONARY
  5
8193
102
{ACAD_REACTORS
330
813A
102
}
330
813A
100
AcDbDictionary
281
     1
  3
Standard
350
8194
  0
DICTIONARY
  5
818C
102
{ACAD_REACTORS
330
813A
102
}
330
813A
100
AcDbDictionary
281
     1
  3
Standard
350
818D
  0
DICTIONARY
  5
818E
102
{ACAD_REACTORS
330
813A
102
}
330
813A
100
AcDbDictionary
281
     1
  0
ACDBDICTIONARYWDFLT
  5
813C
102
{ACAD_REACTORS
330
813A
102
}
330
813A
100
AcDbDictionary
281
     1
  3
Normal
350
813D
100
AcDbDictionaryWithDefault
340
813D
  0
DICTIONARY
  5
8170
102
{ACAD_REACTORS
330
813A
102
}
330
813A
100
AcDbDictionary
281
     1
  3
A0
350
8171
  3
A1
350
8172
  3
A2
350
8173
  3
A3
350
8174
  3
A4
350
8175
  3
A5
350
8176
  3
A6
350
8177
  3
A7
350
8178
  3
A8
350
8179
  3
A9
350
817A
  3
B0
350
817B
  3
B1
350
817C
  3
B2
350
817D
  3
B3
350
817E
  3
B4
350
817F
  3
B5
350
8180
  3
B6
350
8181
  0
DICTIONARY
  5
8195
102
{ACAD_REACTORS
330
813A
102
}
330
813A
100
AcDbDictionary
281
     1
  3
Imperial24
350
8196
  0
DICTIONARY
  5
8191
102
{ACAD_REACTORS
330
813A
102
}
330
813A
100
AcDbDictionary
281
     1
  3
Standard
350
8192
  0
DICTIONARY
  5
8157
102
{ACAD_REACTORS
330
813A
102
}
330
813A
100
AcDbDictionary
281
     1
  3
2dWireframe
350
815D
  3
Basic
350
815C
  3
Brighten
350
8163
  3
ColorChange
350
8167
  3
Conceptual
350
8160
  3
Dim
350
8162
  3
EdgeColorOff
350
816F
  3
Facepattern
350
8166
  3
Flat
350
8158
  3
FlatWithEdges
350
8159
  3
Gouraud
350
815A
  3
GouraudWithEdges
350
815B
  3
Hidden
350
815F
  3
JitterOff
350
816D
  3
Linepattern
350
8165
  3
OverhangOff
350
816E
  3
Realistic
350
8161
  3
Shaded
350
816C
  3
Shaded with edges
350
816B
  3
Shades of Gray
350
8168
  3
Sketchy
350
8169
  3
Thicken
350
8164
  3
Wireframe
350
815E
  3
X-Ray
350
816A
  0
XRECORD
  5
8531
102
{ACAD_REACTORS
330
813A
102
}
330
813A
100
AcDbXrecord
280
     1
 90
        1
330
8192
  0
DICTIONARY
  5
81F2
102
{ACAD_REACTORS
330
813A
102
}
330
813A
100
AcDbDictionary
281
     1
  3
CANNOSCALE
350
81F7
  3
CMLEADERSTYLE
350
81F4
  3
CTABLESTYLE
350
81F3
  3
CVIEWDETAILSTYLE
350
81F5
  3
CVIEWSECTIONSTYLE
350
81F6
  3
DIMASSOC
350
81FA
  3
INDEXCTL
350
81F9
  3
SORTENTS
350
81F8
  3
XCLIPFRAME
350
81FB
  0
XRECORD
  5
8532
102
{ACAD_REACTORS
330
813A
102
}
330
813A
100
AcDbXrecord
280
     1
  1
DWGPROPS COOKIE
  2

  3

  4

  6

  7

  8
yasukiyo.ogawa
  9

300
=
301
=
302
=
303
=
304
=
305
=
306
=
307
=
308
=
309
=
 40
0.0297710532407408
 41
2451387.592638426
 42
2460263.707812535
  1

 90
        0
  0
DICTIONARY
  5
823F
102
{ACAD_REACTORS
330
823E
102
}
330
823E
100
AcDbDictionary
281
     1
  0
XRECORD
  5
81E9
102
{ACAD_REACTORS
330
81E8
102
}
330
81E8
100
AcDbXrecord
280
     1
290
     1
  0
XRECORD
  5
81EB
102
{ACAD_REACTORS
330
81EA
102
}
330
81EA
100
AcDbXrecord
280
     1
290
     1
  0
XRECORD
  5
81ED
102
{ACAD_REACTORS
330
81EC
102
}
330
81EC
100
AcDbXrecord
280
     1
290
     1
  0
XRECORD
  5
81EF
102
{ACAD_REACTORS
330
81EE
102
}
330
81EE
100
AcDbXrecord
280
     1
290
     1
  0
XRECORD
  5
81F1
102
{ACAD_REACTORS
330
81F0
102
}
330
81F0
100
AcDbXrecord
280
     1
290
     1
  0
ACDBDETAILVIEWSTYLE
  5
8198
102
{ACAD_XDICTIONARY
360
856A
102
}
102
{ACAD_REACTORS
330
8197
102
}
330
8197
100
AcDbModelDocViewStyle
 70
     0
  3
Imperial24
290
     0
100
AcDbDetailViewStyle
 70
     0
 71
     0
 90
        3
 71
     1
340
8183
 40
0.24
340
0
 40
0.24
300

 40
0.36
280
     3
 71
     2
340
818A
 90
       25
 71
     3
340
8183
 40
0.24
 90
        1
 40
0.75
 90
        1
300
%<\AcVar ViewType \f "%tc1">% %<\AcVar ViewDetailId>%\PSCALE %<\AcVar ViewScale \f "%sn">%
 71
     4
340
818A
 90
       25
340
818A
 90
       25
280
     0
  0
LAYOUT
  5
81A0
102
{ACAD_XDICTIONARY
360
856E
102
}
102
{ACAD_REACTORS
330
818F
102
}
330
818F
100
AcDbPlotSettings
  1

  2
RICOH imagio MP W3600 RPCS
  4

  6

 40
0.0
 41
0.0
 42
0.0
 43
0.0
 44
0.0
 45
0.0
 46
0.0
 47
0.0
 48
0.0
 49
0.0
140
0.0
141
0.0
142
1.0
143
1.0
 70
  1712
 72
     0
 73
     0
 74
     0
  7

 75
     0
147
1.0
148
0.0
149
0.0
100
AcDbLayout
  1
Model
 70
     1
 71
     0
 10
0.0
 20
0.0
 11
12.0
 21
9.0
 12
0.0
 22
0.0
 32
0.0
 14
0.0
 24
0.0
 34
0.0
 15
0.0
 25
0.0
 35
0.0
146
0.0
 13
0.0
 23
0.0
 33
0.0
 16
1.0
 26
0.0
 36
0.0
 17
0.0
 27
1.0
 37
0.0
 76
     0
330
819D
331
81A2
  0
LAYOUT
  5
819C
102
{ACAD_XDICTIONARY
360
856C
102
}
102
{ACAD_REACTORS
330
818F
102
}
330
818F
100
AcDbPlotSettings
  1

  2
RICOH imagio MP W3600 RPCS
  4

  6

 40
0.0
 41
0.0
 42
0.0
 43
0.0
 44
0.0
 45
0.0
 46
0.0
 47
0.0
 48
0.0
 49
0.0
140
0.0
141
0.0
142
1.0
143
1.0
 70
   688
 72
     0
 73
     0
 74
     5
  7

 75
    16
147
1.0
148
0.0
149
0.0
100
AcDbLayout
  1
レイアウト1
 70
     1
 71
     1
 10
0.0
 20
0.0
 11
12.0
 21
9.0
 12
0.0
 22
0.0
 32
0.0
 14
1.000000000000000E+20
 24
1.000000000000000E+20
 34
1.000000000000000E+20
 15
-1.000000000000000E+20
 25
-1.000000000000000E+20
 35
-1.000000000000000E+20
146
0.0
 13
0.0
 23
0.0
 33
0.0
 16
1.0
 26
0.0
 36
0.0
 17
0.0
 27
1.0
 37
0.0
 76
     0
330
8199
  0
MATERIAL
  5
8147
102
{ACAD_XDICTIONARY
360
8148
102
}
102
{ACAD_REACTORS
330
813E
102
}
330
813E
100
AcDbMaterial
  1
ByBlock
 72
     0
 43
0.0208333333333333
 43
0.0
 43
0.0
 43
0.0
 43
0.0
 43
0.0208333333333333
 43
0.0
 43
0.0
 43
0.0
 43
0.0
 43
1.0
 43
0.0
 43
0.0
 43
0.0
 43
0.0
 43
1.0
 77
     0
 47
0.0208333333333333
 47
0.0
 47
0.0
 47
0.0
 47
0.0
 47
0.0208333333333333
 47
0.0
 47
0.0
 47
0.0
 47
0.0
 47
1.0
 47
0.0
 47
0.0
 47
0.0
 47
0.0
 47
1.0
171
     0
 49
0.0208333333333333
 49
0.0
 49
0.0
 49
0.0
 49
0.0
 49
0.0208333333333333
 49
0.0
 49
0.0
 49
0.0
 49
0.0
 49
1.0
 49
0.0
 49
0.0
 49
0.0
 49
0.0
 49
1.0
175
     0
142
0.0208333333333333
142
0.0
142
0.0
142
0.0
142
0.0
142
0.0208333333333333
142
0.0
142
0.0
142
0.0
142
0.0
142
1.0
142
0.0
142
0.0
142
0.0
142
0.0
142
1.0
179
     0
144
0.0208333333333333
144
0.0
144
0.0
144
0.0
144
0.0
144
0.0208333333333333
144
0.0
144
0.0
144
0.0
144
0.0
144
1.0
144
0.0
144
0.0
144
0.0
144
0.0
144
1.0
147
0.0208333333333333
147
0.0
147
0.0
147
0.0
147
0.0
147
0.0208333333333333
147
0.0
147
0.0
147
0.0
147
0.0
147
1.0
147
0.0
147
0.0
147
0.0
147
0.0
147
1.0
  0
MATERIAL
  5
813F
102
{ACAD_XDICTIONARY
360
8140
102
}
102
{ACAD_REACTORS
330
813E
102
}
330
813E
100
AcDbMaterial
  1
ByLayer
 72
     0
 43
0.0208333333333333
 43
0.0
 43
0.0
 43
0.0
 43
0.0
 43
0.0208333333333333
 43
0.0
 43
0.0
 43
0.0
 43
0.0
 43
1.0
 43
0.0
 43
0.0
 43
0.0
 43
0.0
 43
1.0
 77
     0
 47
0.0208333333333333
 47
0.0
 47
0.0
 47
0.0
 47
0.0
 47
0.0208333333333333
 47
0.0
 47
0.0
 47
0.0
 47
0.0
 47
1.0
 47
0.0
 47
0.0
 47
0.0
 47
0.0
 47
1.0
171
     0
 49
0.0208333333333333
 49
0.0
 49
0.0
 49
0.0
 49
0.0
 49
0.0208333333333333
 49
0.0
 49
0.0
 49
0.0
 49
0.0
 49
1.0
 49
0.0
 49
0.0
 49
0.0
 49
0.0
 49
1.0
175
     0
142
0.0208333333333333
142
0.0
142
0.0
142
0.0
142
0.0
142
0.0208333333333333
142
0.0
142
0.0
142
0.0
142
0.0
142
1.0
142
0.0
142
0.0
142
0.0
142
0.0
142
1.0
179
     0
144
0.0208333333333333
144
0.0
144
0.0
144
0.0
144
0.0
144
0.0208333333333333
144
0.0
144
0.0
144
0.0
144
0.0
144
1.0
144
0.0
144
0.0
144
0.0
144
0.0
144
1.0
147
0.0208333333333333
147
0.0
147
0.0
147
0.0
147
0.0
147
0.0208333333333333
147
0.0
147
0.0
147
0.0
147
0.0
147
1.0
147
0.0
147
0.0
147
0.0
147
0.0
147
1.0
  0
MATERIAL
  5
814F
102
{ACAD_XDICTIONARY
360
8150
102
}
102
{ACAD_REACTORS
330
813E
102
}
330
813E
100
AcDbMaterial
  1
Global
 72
     0
 43
0.0208333333333333
 43
0.0
 43
0.0
 43
0.0
 43
0.0
 43
0.0208333333333333
 43
0.0
 43
0.0
 43
0.0
 43
0.0
 43
1.0
 43
0.0
 43
0.0
 43
0.0
 43
0.0
 43
1.0
 77
     0
 47
0.0208333333333333
 47
0.0
 47
0.0
 47
0.0
 47
0.0
 47
0.0208333333333333
 47
0.0
 47
0.0
 47
0.0
 47
0.0
 47
1.0
 47
0.0
 47
0.0
 47
0.0
 47
0.0
 47
1.0
171
     0
 49
0.0208333333333333
 49
0.0
 49
0.0
 49
0.0
 49
0.0
 49
0.0208333333333333
 49
0.0
 49
0.0
 49
0.0
 49
0.0
 49
1.0
 49
0.0
 49
0.0
 49
0.0
 49
0.0
 49
1.0
175
     0
142
0.0208333333333333
142
0.0
142
0.0
142
0.0
142
0.0
142
0.0208333333333333
142
0.0
142
0.0
142
0.0
142
0.0
142
1.0
142
0.0
142
0.0
142
0.0
142
0.0
142
1.0
179
     0
144
0.0208333333333333
144
0.0
144
0.0
144
0.0
144
0.0
144
0.0208333333333333
144
0.0
144
0.0
144
0.0
144
0.0
144
1.0
144
0.0
144
0.0
144
0.0
144
0.0
144
1.0
147
0.0208333333333333
147
0.0
147
0.0
147
0.0
147
0.0
147
0.0208333333333333
147
0.0
147
0.0
147
0.0
147
0.0
147
1.0
147
0.0
147
0.0
147
0.0
147
0.0
147
1.0
  0
MLEADERSTYLE
  5
8194
102
{ACAD_REACTORS
330
8193
102
}
330
8193
100
AcDbMLeaderStyle
170
     2
171
     1
172
     0
 90
        2
 40
0.0
 41
0.0
173
     1
 91
-1056964608
340
8188
 92
       -2
290
     1
 42
0.09
291
     1
 43
0.36
  3
Standard
 44
0.18
300

342
8183
174
     1
178
     6
175
     1
176
     0
 93
-1056964608
 45
0.18
292
     0
297
     0
 46
0.18
 94
-1056964608
 47
1.0
 49
1.0
140
1.0
293
     1
141
0.0
294
     1
177
     0
142
1.0
295
     0
296
     0
143
0.125
1001
ACAD_MLEADERVER
1070
     2
  0
MLINESTYLE
  5
818D
102
{ACAD_REACTORS
330
818C
102
}
330
818C
100
AcDbMlineStyle
  2
STANDARD
 70
     0
  3

 62
   256
 51
90.0
 52
90.0
 71
     2
 49
0.5
 62
   256
  6
BYLAYER
 49
-0.5
 62
   256
  6
BYLAYER
  0
ACDBPLACEHOLDER
  5
813D
102
{ACAD_REACTORS
330
813C
102
}
330
813C
  0
SCALE
  5
8171
102
{ACAD_REACTORS
330
8170
102
}
330
8170
100
AcDbScale
 70
     0
300
1:1
140
1.0
141
1.0
290
     1
  0
SCALE
  5
8172
102
{ACAD_REACTORS
330
8170
102
}
330
8170
100
AcDbScale
 70
     0
300
1/128" = 1'-0"
140
0.0078125
141
12.0
290
     0
  0
SCALE
  5
8173
102
{ACAD_REACTORS
330
8170
102
}
330
8170
100
AcDbScale
 70
     0
300
1/64" = 1'-0"
140
0.015625
141
12.0
290
     0
  0
SCALE
  5
8174
102
{ACAD_REACTORS
330
8170
102
}
330
8170
100
AcDbScale
 70
     0
300
1/32" = 1'-0"
140
0.03125
141
12.0
290
     0
  0
SCALE
  5
8175
102
{ACAD_REACTORS
330
8170
102
}
330
8170
100
AcDbScale
 70
     0
300
1/16" = 1'-0"
140
0.0625
141
12.0
290
     0
  0
SCALE
  5
8176
102
{ACAD_REACTORS
330
8170
102
}
330
8170
100
AcDbScale
 70
     0
300
3/32" = 1'-0"
140
0.09375
141
12.0
290
     0
  0
SCALE
  5
8177
102
{ACAD_REACTORS
330
8170
102
}
330
8170
100
AcDbScale
 70
     0
300
1/8" = 1'-0"
140
0.125
141
12.0
290
     0
  0
SCALE
  5
8178
102
{ACAD_REACTORS
330
8170
102
}
330
8170
100
AcDbScale
 70
     0
300
3/16" = 1'-0"
140
0.1875
141
12.0
290
     0
  0
SCALE
  5
8179
102
{ACAD_REACTORS
330
8170
102
}
330
8170
100
AcDbScale
 70
     0
300
1/4" = 1'-0"
140
0.25
141
12.0
290
     0
  0
SCALE
  5
817A
102
{ACAD_REACTORS
330
8170
102
}
330
8170
100
AcDbScale
 70
     0
300
3/8" = 1'-0"
140
0.375
141
12.0
290
     0
  0
SCALE
  5
817B
102
{ACAD_REACTORS
330
8170
102
}
330
8170
100
AcDbScale
 70
     0
300
1/2" = 1'-0"
140
0.5
141
12.0
290
     0
  0
SCALE
  5
817C
102
{ACAD_REACTORS
330
8170
102
}
330
8170
100
AcDbScale
 70
     0
300
3/4" = 1'-0"
140
0.75
141
12.0
290
     0
  0
SCALE
  5
817D
102
{ACAD_REACTORS
330
8170
102
}
330
8170
100
AcDbScale
 70
     0
300
1" = 1'-0"
140
1.0
141
12.0
290
     0
  0
SCALE
  5
817E
102
{ACAD_REACTORS
330
8170
102
}
330
8170
100
AcDbScale
 70
     0
300
1-1/2" = 1'-0"
140
1.5
141
12.0
290
     0
  0
SCALE
  5
817F
102
{ACAD_REACTORS
330
8170
102
}
330
8170
100
AcDbScale
 70
     0
300
3" = 1'-0"
140
3.0
141
12.0
290
     0
  0
SCALE
  5
8180
102
{ACAD_REACTORS
330
8170
102
}
330
8170
100
AcDbScale
 70
     0
300
6" = 1'-0"
140
6.0
141
12.0
290
     0
  0
SCALE
  5
8181
102
{ACAD_REACTORS
330
8170
102
}
330
8170
100
AcDbScale
 70
     0
300
1'-0" = 1'-0"
140
12.0
141
12.0
290
     0
  0
ACDBSECTIONVIEWSTYLE
  5
8196
102
{ACAD_XDICTIONARY
360
8568
102
}
102
{ACAD_REACTORS
330
8195
102
}
330
8195
100
AcDbModelDocViewStyle
 70
     0
  3
Imperial24
290
     0
100
AcDbSectionViewStyle
 70
     0
 71
     0
 90
       78
 71
     1
340
8183
 40
0.24
340
0
340
0
 40
0.24
300
I, O, Q, S, X, Z
 40
0.48
 90
        3
 40
0.18
 90
        1
 71
     2
340
818A
 90
       25
340
818A
 90
       50
 40
0.24
 40
0.0
 40
0.24
 71
     3
340
8183
 40
0.24
 90
        1
 40
0.75
 90
        1
300
%<\AcVar ViewType \f "%tc1">% %<\AcVar ViewSectionStartId>%-%<\AcVar ViewSectionEndId>%\PSCALE %<\AcVar ViewScale \f "%sn">%
 71
     4
300
ANSI31
 40
1.0
 90
        0
290
     0
290
     0
 90
        6
 40
0.0
 40
1.570796326794896
 40
0.2617993877991494
 40
1.308996938995747
 40
-0.2617993877991494
 40
1.832595714594046
  0
TABLESTYLE
  5
8192
102
{ACAD_XDICTIONARY
360
852F
102
}
102
{ACAD_REACTORS
330
8191
102
}
330
8191
100
AcDbTableStyle
  3
Standard
 70
     0
 71
     0
 40
0.06
 41
0.06
280
     0
281
     0
  7
STANDARD
140
0.18
170
     2
 62
     0
 63
     7
283
     0
274
    -2
284
     1
 64
     0
275
    -2
285
     1
 65
     0
276
    -2
286
     1
 66
     0
277
    -2
287
     1
 67
     0
278
    -2
288
     1
 68
     0
279
    -2
289
     1
 69
     0
  7
STANDARD
140
0.25
170
     5
 62
     0
 63
     7
283
     0
274
    -2
284
     1
 64
     0
275
    -2
285
     1
 65
     0
276
    -2
286
     1
 66
     0
277
    -2
287
     1
 67
     0
278
    -2
288
     1
 68
     0
279
    -2
289
     1
 69
     0
  7
STANDARD
140
0.18
170
     5
 62
     0
 63
     7
283
     0
274
    -2
284
     1
 64
     0
275
    -2
285
     1
 65
     0
276
    -2
286
     1
 66
     0
277
    -2
287
     1
 67
     0
278
    -2
288
     1
 68
     0
279
    -2
289
     1
 69
     0
  0
VISUALSTYLE
  5
815D
102
{ACAD_XDICTIONARY
360
8540
102
}
102
{ACAD_REACTORS
330
8157
102
}
330
8157
100
AcDbVisualStyle
  2
2dWireframe
 70
     4
 71
     0
 72
     2
 73
     0
 90
        0
 40
-0.6
 41
-30.0
 62
     5
 63
     7
 74
     1
 91
        4
 64
     7
 65
   257
 75
     1
175
     1
 42
1.0
 92
        0
 66
   257
 43
1.0
 76
     1
 77
     6
 78
     2
 67
     7
 79
     5
170
     0
171
     0
290
     0
174
     0
 93
        1
 44
0.0
173
     0
291
     0
 45
0.0
1001
ACAD
1000
AcDbSavedByObjectVersion
1070
     0
  0
VISUALSTYLE
  5
815C
102
{ACAD_XDICTIONARY
360
853E
102
}
102
{ACAD_REACTORS
330
8157
102
}
330
8157
100
AcDbVisualStyle
  2
Basic
 70
     7
 71
     1
 72
     0
 73
     1
 90
        0
 40
-0.6
 41
-30.0
 62
     5
 63
     7
 74
     0
 91
        4
 64
     7
 65
   257
 75
     1
175
     1
 42
1.0
 92
        8
 66
     7
 43
1.0
 76
     1
 77
     6
 78
     2
 67
     7
 79
     5
170
     0
171
     0
290
     0
174
     0
 93
        1
 44
0.0
173
     0
291
     1
 45
0.0
1001
ACAD
1000
AcDbSavedByObjectVersion
1070
     0
  0
VISUALSTYLE
  5
8163
102
{ACAD_XDICTIONARY
360
854C
102
}
102
{ACAD_REACTORS
330
8157
102
}
330
8157
100
AcDbVisualStyle
  2
Brighten
 70
    12
 71
     2
 72
     2
 73
     0
 90
        0
 40
-0.6
 41
-30.0
 62
     5
 63
     7
 74
     1
 91
        4
 64
     7
 65
   257
 75
     1
175
     1
 42
1.0
 92
        8
 66
     7
 43
1.0
 76
     1
 77
     6
 78
     2
 67
     7
 79
     5
170
     0
171
     0
290
     0
174
     0
 93
        1
 44
50.0
173
     0
291
     1
 45
0.0
1001
ACAD
1000
AcDbSavedByObjectVersion
1070
     0
  0
VISUALSTYLE
  5
8167
102
{ACAD_XDICTIONARY
360
8554
102
}
102
{ACAD_REACTORS
330
8157
102
}
330
8157
100
AcDbVisualStyle
  2
ColorChange
 70
    16
 71
     2
 72
     2
 73
     3
 90
        0
 40
-0.6
 41
-30.0
 62
     5
 63
     8
 74
     1
 91
        4
 64
     7
 65
   257
 75
     1
175
     1
 42
1.0
 92
        8
 66
     8
 43
1.0
 76
     1
 77
     6
 78
     2
 67
     7
 79
     5
170
     0
171
     0
290
     0
174
     0
 93
        1
 44
0.0
173
     0
291
     1
 45
0.0
1001
ACAD
1000
AcDbSavedByObjectVersion
1070
     0
  0
VISUALSTYLE
  5
8160
102
{ACAD_XDICTIONARY
360
8546
102
}
102
{ACAD_REACTORS
330
8157
102
}
330
8157
100
AcDbVisualStyle
  2
Conceptual
 70
     9
 71
     3
 72
     2
 73
     0
 90
        0
 40
-0.6
 41
-30.0
 62
     5
 63
     7
 74
     2
 91
        2
 64
     7
 65
   257
 75
     1
175
     1
 42
179.0
 92
        8
 66
     7
 43
1.0
 76
     1
 77
     6
 78
     2
 67
     7
 79
     3
170
     0
171
     0
290
     0
174
     0
 93
        1
 44
0.0
173
     0
291
     0
 45
0.0
1001
ACAD
1000
AcDbSavedByObjectVersion
1070
     0
  0
VISUALSTYLE
  5
8162
102
{ACAD_XDICTIONARY
360
854A
102
}
102
{ACAD_REACTORS
330
8157
102
}
330
8157
100
AcDbVisualStyle
  2
Dim
 70
    11
 71
     2
 72
     2
 73
     0
 90
        0
 40
-0.6
 41
-30.0
 62
     5
 63
     7
 74
     1
 91
        4
 64
     7
 65
   257
 75
     1
175
     1
 42
1.0
 92
        8
 66
     7
 43
1.0
 76
     1
 77
     6
 78
     2
 67
     7
 79
     5
170
     0
171
     0
290
     0
174
     0
 93
        1
 44
-50.0
173
     0
291
     1
 45
0.0
1001
ACAD
1000
AcDbSavedByObjectVersion
1070
     0
  0
VISUALSTYLE
  5
816F
102
{ACAD_XDICTIONARY
360
8564
102
}
102
{ACAD_REACTORS
330
8157
102
}
330
8157
100
AcDbVisualStyle
  2
EdgeColorOff
 70
    22
 71
     2
 72
     2
 73
     0
 90
        0
 40
-0.6
 41
-30.0
 62
     5
 63
     7
 74
     1
 91
        4
 64
     7
 65
   257
 75
     1
175
     1
 42
1.0
 92
        8
 66
     7
 43
1.0
 76
     1
 77
     6
 78
     2
 67
     7
 79
     5
170
     0
171
     0
290
     0
174
     0
 93
        1
 44
0.0
173
     0
291
     1
 45
0.0
1001
ACAD
1000
AcDbSavedByObjectVersion
1070
     0
  0
VISUALSTYLE
  5
8166
102
{ACAD_XDICTIONARY
360
8552
102
}
102
{ACAD_REACTORS
330
8157
102
}
330
8157
100
AcDbVisualStyle
  2
Facepattern
 70
    15
 71
     2
 72
     2
 73
     0
 90
        0
 40
-0.6
 41
-30.0
 62
     5
 63
     7
 74
     1
 91
        4
 64
     7
 65
   257
 75
     1
175
     1
 42
1.0
 92
        8
 66
     7
 43
1.0
 76
     1
 77
     6
 78
     2
 67
     7
 79
     5
170
     0
171
     0
290
     0
174
     0
 93
        1
 44
0.0
173
     0
291
     1
 45
0.0
1001
ACAD
1000
AcDbSavedByObjectVersion
1070
     0
  0
VISUALSTYLE
  5
8158
102
{ACAD_XDICTIONARY
360
8536
102
}
102
{ACAD_REACTORS
330
8157
102
}
330
8157
100
AcDbVisualStyle
  2
Flat
 70
     0
 71
     2
 72
     1
 73
     1
 90
        2
 40
-0.6
 41
30.0
 62
     5
 63
     7
 74
     0
 91
        0
 64
     7
 65
   257
 75
     1
175
     1
 42
1.0
 92
        8
 66
     7
 43
1.0
 76
     1
 77
     6
 78
     2
 67
     7
 79
     5
170
     0
171
     0
290
     0
174
     0
 93
       13
 44
0.0
173
     0
291
     1
 45
0.0
1001
ACAD
1000
AcDbSavedByObjectVersion
1070
     0
  0
VISUALSTYLE
  5
8159
102
{ACAD_XDICTIONARY
360
8538
102
}
102
{ACAD_REACTORS
330
8157
102
}
330
8157
100
AcDbVisualStyle
  2
FlatWithEdges
 70
     1
 71
     2
 72
     1
 73
     1
 90
        2
 40
-0.6
 41
30.0
 62
     5
 63
     7
 74
     1
 91
        0
 64
     7
 65
   257
 75
     1
175
     1
 42
1.0
 92
        0
 66
   257
 43
1.0
 76
     1
 77
     6
 78
     2
 67
     7
 79
     5
170
     0
171
     0
290
     0
174
     0
 93
       13
 44
0.0
173
     0
291
     1
 45
0.0
1001
ACAD
1000
AcDbSavedByObjectVersion
1070
     0
  0
VISUALSTYLE
  5
815A
102
{ACAD_XDICTIONARY
360
853A
102
}
102
{ACAD_REACTORS
330
8157
102
}
330
8157
100
AcDbVisualStyle
  2
Gouraud
 70
     2
 71
     2
 72
     2
 73
     1
 90
        2
 40
-0.6
 41
30.0
 62
     5
 63
     7
 74
     0
 91
        0
 64
     7
 65
   257
 75
     1
175
     1
 42
1.0
 92
        0
 66
     7
 43
1.0
 76
     1
 77
     6
 78
     2
 67
     7
 79
     5
170
     0
171
     0
290
     0
174
     0
 93
       13
 44
0.0
173
     0
291
     1
 45
0.0
1001
ACAD
1000
AcDbSavedByObjectVersion
1070
     0
  0
VISUALSTYLE
  5
815B
102
{ACAD_XDICTIONARY
360
853C
102
}
102
{ACAD_REACTORS
330
8157
102
}
330
8157
100
AcDbVisualStyle
  2
GouraudWithEdges
 70
     3
 71
     2
 72
     2
 73
     1
 90
        2
 40
-0.6
 41
30.0
 62
     5
 63
     7
 74
     1
 91
        0
 64
     7
 65
   257
 75
     1
175
     1
 42
1.0
 92
        0
 66
   257
 43
1.0
 76
     1
 77
     6
 78
     2
 67
     7
 79
     5
170
     0
171
     0
290
     0
174
     0
 93
       13
 44
0.0
173
     0
291
     1
 45
0.0
1001
ACAD
1000
AcDbSavedByObjectVersion
1070
     0
  0
VISUALSTYLE
  5
815F
102
{ACAD_XDICTIONARY
360
8544
102
}
102
{ACAD_REACTORS
330
8157
102
}
330
8157
100
AcDbVisualStyle
  2
Hidden
 70
     6
 71
     1
 72
     2
 73
     2
 90
        0
 40
-0.6
 41
-30.0
 62
     5
 63
     7
 74
     2
 91
        2
 64
     7
 65
   257
 75
     2
175
     1
 42
40.0
 92
        0
 66
   257
 43
1.0
 76
     1
 77
     6
 78
     2
 67
     7
 79
     3
170
     0
171
     0
290
     0
174
     0
 93
        1
 44
0.0
173
     0
291
     0
 45
0.0
1001
ACAD
1000
AcDbSavedByObjectVersion
1070
     0
  0
VISUALSTYLE
  5
816D
102
{ACAD_XDICTIONARY
360
8560
102
}
102
{ACAD_REACTORS
330
8157
102
}
330
8157
100
AcDbVisualStyle
  2
JitterOff
 70
    20
 71
     2
 72
     2
 73
     0
 90
        0
 40
-0.6
 41
-30.0
 62
     5
 63
     7
 74
     1
 91
        4
 64
     7
 65
   257
 75
     1
175
     1
 42
1.0
 92
       10
 66
     7
 43
1.0
 76
     1
 77
     6
 78
     2
 67
     7
 79
     5
170
     0
171
     0
290
     0
174
     0
 93
        1
 44
0.0
173
     0
291
     1
 45
0.0
1001
ACAD
1000
AcDbSavedByObjectVersion
1070
     0
  0
VISUALSTYLE
  5
8165
102
{ACAD_XDICTIONARY
360
8550
102
}
102
{ACAD_REACTORS
330
8157
102
}
330
8157
100
AcDbVisualStyle
  2
Linepattern
 70
    14
 71
     2
 72
     2
 73
     0
 90
        0
 40
-0.6
 41
-30.0
 62
     5
 63
     7
 74
     1
 91
        4
 64
     7
 65
   257
 75
     7
175
     7
 42
1.0
 92
        8
 66
     7
 43
1.0
 76
     1
 77
     6
 78
     2
 67
     7
 79
     5
170
     0
171
     0
290
     0
174
     0
 93
        1
 44
0.0
173
     0
291
     1
 45
0.0
1001
ACAD
1000
AcDbSavedByObjectVersion
1070
     0
  0
VISUALSTYLE
  5
816E
102
{ACAD_XDICTIONARY
360
8562
102
}
102
{ACAD_REACTORS
330
8157
102
}
330
8157
100
AcDbVisualStyle
  2
OverhangOff
 70
    21
 71
     2
 72
     2
 73
     0
 90
        0
 40
-0.6
 41
-30.0
 62
     5
 63
     7
 74
     1
 91
        4
 64
     7
 65
   257
 75
     1
175
     1
 42
1.0
 92
        9
 66
     7
 43
1.0
 76
     1
 77
     6
 78
     2
 67
     7
 79
     5
170
     0
171
     0
290
     0
174
     0
 93
        1
 44
0.0
173
     0
291
     1
 45
0.0
1001
ACAD
1000
AcDbSavedByObjectVersion
1070
     0
  0
VISUALSTYLE
  5
8161
102
{ACAD_XDICTIONARY
360
8548
102
}
102
{ACAD_REACTORS
330
8157
102
}
330
8157
100
AcDbVisualStyle
  2
Realistic
 70
     8
 71
     2
 72
     3
 73
     0
 90
        2
 40
-0.6
 41
30.0
 62
     5
 63
     7
 74
     0
 91
        0
 64
     7
 65
   257
 75
     1
175
     1
 42
1.0
 92
        8
 66
   257
 43
1.0
 76
     1
 77
     6
 78
     2
 67
     7
 79
     3
170
     0
171
     0
290
     0
174
     0
 93
       13
 44
0.0
173
     0
291
     0
 45
0.0
1001
ACAD
1000
AcDbSavedByObjectVersion
1070
     0
  0
VISUALSTYLE
  5
816C
102
{ACAD_XDICTIONARY
360
855E
102
}
102
{ACAD_REACTORS
330
8157
102
}
330
8157
100
AcDbVisualStyle
  2
Shaded
 70
    27
 71
     2
 72
     2
 73
     1
 90
        2
 40
-0.6
 41
30.0
 62
     5
 63
     7
 74
     0
 91
        4
 64
     7
 65
   257
 75
     1
175
     1
 42
1.0
 92
        8
 66
   257
 43
1.0
 76
     1
 77
     6
 78
     2
 67
     8
 79
     3
170
     0
171
     0
290
     0
174
     0
 93
        5
 44
0.0
173
     0
291
     0
 45
0.0
1001
ACAD
1000
AcDbSavedByObjectVersion
1070
     0
  0
VISUALSTYLE
  5
816B
102
{ACAD_XDICTIONARY
360
855C
102
}
102
{ACAD_REACTORS
330
8157
102
}
330
8157
100
AcDbVisualStyle
  2
Shaded with edges
 70
    26
 71
     2
 72
     2
 73
     1
 90
        2
 40
-0.6
 41
30.0
 62
     5
 63
     7
 74
     1
 91
       10
 64
     7
 65
   257
 75
     2
175
     1
 42
1.0
 92
        8
 66
   257
 43
1.0
 76
     1
 77
     6
 78
     2
 67
     7
 79
     3
170
     0
171
     0
290
     0
174
     0
 93
        5
 44
0.0
173
     0
291
     0
 45
0.0
1001
ACAD
1000
AcDbSavedByObjectVersion
1070
     0
  0
VISUALSTYLE
  5
8168
102
{ACAD_XDICTIONARY
360
8556
102
}
102
{ACAD_REACTORS
330
8157
102
}
330
8157
100
AcDbVisualStyle
  2
Shades of Gray
 70
    23
 71
     2
 72
     2
 73
     3
 90
        0
 40
-0.6
 41
-30.0
 62
     5
 63
     7
 74
     2
 91
        2
 64
     7
 65
     7
 75
     1
175
     1
 42
40.0
 92
        8
 66
     7
 43
1.0
 76
     1
 77
     6
 78
     2
 67
     7
 79
     3
170
     0
171
     0
290
     0
174
     0
 93
        1
 44
0.0
173
     0
291
     0
 45
0.0
1001
ACAD
1000
AcDbSavedByObjectVersion
1070
     0
  0
VISUALSTYLE
  5
8169
102
{ACAD_XDICTIONARY
360
8558
102
}
102
{ACAD_REACTORS
330
8157
102
}
330
8157
100
AcDbVisualStyle
  2
Sketchy
 70
    24
 71
     1
 72
     2
 73
     2
 90
        0
 40
-0.6
 41
-30.0
 62
     5
 63
     7
 74
     2
 91
        2
 64
     7
 65
     7
 75
     1
175
     1
 42
40.0
 92
       11
 66
     7
 43
1.0
 76
     1
 77
     6
 78
     2
 67
     7
 79
     6
170
     0
171
     0
290
     0
174
     0
 93
        1
 44
0.0
173
     0
291
     0
 45
0.0
1001
ACAD
1000
AcDbSavedByObjectVersion
1070
     0
  0
VISUALSTYLE
  5
8164
102
{ACAD_XDICTIONARY
360
854E
102
}
102
{ACAD_REACTORS
330
8157
102
}
330
8157
100
AcDbVisualStyle
  2
Thicken
 70
    13
 71
     2
 72
     2
 73
     0
 90
        0
 40
-0.6
 41
-30.0
 62
     5
 63
     7
 74
     1
 91
        4
 64
     7
 65
   257
 75
     1
175
     1
 42
1.0
 92
       12
 66
     7
 43
1.0
 76
     1
 77
     6
 78
     2
 67
     7
 79
     5
170
     0
171
     0
290
     0
174
     0
 93
        1
 44
0.0
173
     0
291
     1
 45
0.0
1001
ACAD
1000
AcDbSavedByObjectVersion
1070
     0
  0
VISUALSTYLE
  5
815E
102
{ACAD_XDICTIONARY
360
8542
102
}
102
{ACAD_REACTORS
330
8157
102
}
330
8157
100
AcDbVisualStyle
  2
Wireframe
 70
     5
 71
     0
 72
     2
 73
     0
 90
        0
 40
-0.6
 41
-30.0
 62
     5
 63
     7
 74
     1
 91
        4
 64
     7
 65
   257
 75
     1
175
     1
 42
1.0
 92
        0
 66
   257
 43
1.0
 76
     1
 77
     6
 78
     2
 67
     7
 79
     3
170
     0
171
     0
290
     0
174
     0
 93
        1
 44
0.0
173
     0
291
     0
 45
0.0
1001
ACAD
1000
AcDbSavedByObjectVersion
1070
     0
  0
VISUALSTYLE
  5
816A
102
{ACAD_XDICTIONARY
360
855A
102
}
102
{ACAD_REACTORS
330
8157
102
}
330
8157
100
AcDbVisualStyle
  2
X-Ray
 70
    25
 71
     2
 72
     2
 73
     1
 90
        1
 40
0.5
 41
-30.0
 62
     5
 63
     7
 74
     1
 91
        0
 64
     7
 65
   257
 75
     1
175
     1
 42
1.0
 92
        8
 66
     7
 43
1.0
 76
     1
 77
     6
 78
     2
 67
     7
 79
     3
170
     0
171
     0
290
     0
174
     0
 93
       13
 44
0.0
173
     0
291
     0
 45
0.0
1001
ACAD
1000
AcDbSavedByObjectVersion
1070
     0
  0
DICTIONARYVAR
  5
81F7
102
{ACAD_REACTORS
330
81F2
102
}
330
81F2
100
DictionaryVariables
280
     0
  1
1:1
  0
DICTIONARYVAR
  5
81F4
102
{ACAD_REACTORS
330
81F2
102
}
330
81F2
100
DictionaryVariables
280
     0
  1
STANDARD
  0
DICTIONARYVAR
  5
81F3
102
{ACAD_REACTORS
330
81F2
102
}
330
81F2
100
DictionaryVariables
280
     0
  1
STANDARD
  0
DICTIONARYVAR
  5
81F5
102
{ACAD_REACTORS
330
81F2
102
}
330
81F2
100
DictionaryVariables
280
     0
  1
Imperial24
  0
DICTIONARYVAR
  5
81F6
102
{ACAD_REACTORS
330
81F2
102
}
330
81F2
100
DictionaryVariables
280
     0
  1
Imperial24
  0
DICTIONARYVAR
  5
81FA
102
{ACAD_REACTORS
330
81F2
102
}
330
81F2
100
DictionaryVariables
280
     0
  1
1
  0
DICTIONARYVAR
  5
81F9
102
{ACAD_REACTORS
330
81F2
102
}
330
81F2
100
DictionaryVariables
280
     0
  1
0
  0
DICTIONARYVAR
  5
81F8
102
{ACAD_REACTORS
330
81F2
102
}
330
81F2
100
DictionaryVariables
280
     0
  1
127
  0
DICTIONARYVAR
  5
81FB
102
{ACAD_REACTORS
330
81F2
102
}
330
81F2
100
DictionaryVariables
280
     0
  1
2
  0
DICTIONARY
  5
856A
330
8198
100
AcDbDictionary
280
     1
281
     1
  3
ACAD_XREC_ROUNDTRIP
360
856B
  0
DICTIONARY
  5
856E
330
81A0
100
AcDbDictionary
280
     1
281
     1
  3
ACAD_XREC_ROUNDTRIP
360
856F
  0
DICTIONARY
  5
856C
330
819C
100
AcDbDictionary
280
     1
281
     1
  3
ACAD_XREC_ROUNDTRIP
360
856D
  0
DICTIONARY
  5
8148
330
8147
100
AcDbDictionary
280
     1
281
     1
  3
ACAD_XREC_ROUNDTRIP
360
8534
  3
BUMPTILE
360
814A
  3
DIFFUSETILE
360
8149
  3
OPACITYTILE
360
814D
  3
REFLECTIONTILE
360
814C
  3
REFRACTIONTILE
360
814E
  3
SPECULARTILE
360
814B
  0
DICTIONARY
  5
8140
330
813F
100
AcDbDictionary
280
     1
281
     1
  3
ACAD_XREC_ROUNDTRIP
360
8533
  3
BUMPTILE
360
8142
  3
DIFFUSETILE
360
8141
  3
OPACITYTILE
360
8145
  3
REFLECTIONTILE
360
8144
  3
REFRACTIONTILE
360
8146
  3
SPECULARTILE
360
8143
  0
DICTIONARY
  5
8150
330
814F
100
AcDbDictionary
280
     1
281
     1
  3
ACAD_XREC_ROUNDTRIP
360
8535
  3
BUMPTILE
360
8152
  3
DIFFUSETILE
360
8151
  3
FBXASSET
360
82A6
  3
OPACITYTILE
360
8155
  3
REFLECTIONTILE
360
8154
  3
REFRACTIONTILE
360
8156
  3
SPECULARTILE
360
8153
  0
DICTIONARY
  5
8568
330
8196
100
AcDbDictionary
280
     1
281
     1
  3
ACAD_XREC_ROUNDTRIP
360
8569
  0
DICTIONARY
  5
852F
330
8192
100
AcDbDictionary
280
     1
281
     1
  3
ACAD_ROUNDTRIP_2008_TABLESTYLE_CELLSTYLEMAP
360
8530
  3
ACAD_XREC_ROUNDTRIP
360
8566
  0
DICTIONARY
  5
8540
330
815D
100
AcDbDictionary
280
     1
281
     1
  3
ACAD_XREC_ROUNDTRIP
360
8541
  0
DICTIONARY
  5
853E
330
815C
100
AcDbDictionary
280
     1
281
     1
  3
ACAD_XREC_ROUNDTRIP
360
853F
  0
DICTIONARY
  5
854C
330
8163
100
AcDbDictionary
280
     1
281
     1
  3
ACAD_XREC_ROUNDTRIP
360
854D
  0
DICTIONARY
  5
8554
330
8167
100
AcDbDictionary
280
     1
281
     1
  3
ACAD_XREC_ROUNDTRIP
360
8555
  0
DICTIONARY
  5
8546
330
8160
100
AcDbDictionary
280
     1
281
     1
  3
ACAD_XREC_ROUNDTRIP
360
8547
  0
DICTIONARY
  5
854A
330
8162
100
AcDbDictionary
280
     1
281
     1
  3
ACAD_XREC_ROUNDTRIP
360
854B
  0
DICTIONARY
  5
8564
330
816F
100
AcDbDictionary
280
     1
281
     1
  3
ACAD_XREC_ROUNDTRIP
360
8565
  0
DICTIONARY
  5
8552
330
8166
100
AcDbDictionary
280
     1
281
     1
  3
ACAD_XREC_ROUNDTRIP
360
8553
  0
DICTIONARY
  5
8536
330
8158
100
AcDbDictionary
280
     1
281
     1
  3
ACAD_XREC_ROUNDTRIP
360
8537
  0
DICTIONARY
  5
8538
330
8159
100
AcDbDictionary
280
     1
281
     1
  3
ACAD_XREC_ROUNDTRIP
360
8539
  0
DICTIONARY
  5
853A
330
815A
100
AcDbDictionary
280
     1
281
     1
  3
ACAD_XREC_ROUNDTRIP
360
853B
  0
DICTIONARY
  5
853C
330
815B
100
AcDbDictionary
280
     1
281
     1
  3
ACAD_XREC_ROUNDTRIP
360
853D
  0
DICTIONARY
  5
8544
330
815F
100
AcDbDictionary
280
     1
281
     1
  3
ACAD_XREC_ROUNDTRIP
360
8545
  0
DICTIONARY
  5
8560
330
816D
100
AcDbDictionary
280
     1
281
     1
  3
ACAD_XREC_ROUNDTRIP
360
8561
  0
DICTIONARY
  5
8550
330
8165
100
AcDbDictionary
280
     1
281
     1
  3
ACAD_XREC_ROUNDTRIP
360
8551
  0
DICTIONARY
  5
8562
330
816E
100
AcDbDictionary
280
     1
281
     1
  3
ACAD_XREC_ROUNDTRIP
360
8563
  0
DICTIONARY
  5
8548
330
8161
100
AcDbDictionary
280
     1
281
     1
  3
ACAD_XREC_ROUNDTRIP
360
8549
  0
DICTIONARY
  5
855E
330
816C
100
AcDbDictionary
280
     1
281
     1
  3
ACAD_XREC_ROUNDTRIP
360
855F
  0
DICTIONARY
  5
855C
330
816B
100
AcDbDictionary
280
     1
281
     1
  3
ACAD_XREC_ROUNDTRIP
360
855D
  0
DICTIONARY
  5
8556
330
8168
100
AcDbDictionary
280
     1
281
     1
  3
ACAD_XREC_ROUNDTRIP
360
8557
  0
DICTIONARY
  5
8558
330
8169
100
AcDbDictionary
280
     1
281
     1
  3
ACAD_XREC_ROUNDTRIP
360
8559
  0
DICTIONARY
  5
854E
330
8164
100
AcDbDictionary
280
     1
281
     1
  3
ACAD_XREC_ROUNDTRIP
360
854F
  0
DICTIONARY
  5
8542
330
815E
100
AcDbDictionary
280
     1
281
     1
  3
ACAD_XREC_ROUNDTRIP
360
8543
  0
DICTIONARY
  5
855A
330
816A
100
AcDbDictionary
280
     1
281
     1
  3
ACAD_XREC_ROUNDTRIP
360
855B
  0
XRECORD
  5
856B
102
{ACAD_REACTORS
330
856A
102
}
330
856A
100
AcDbXrecord
280
     1
102
DISPLAYNAME
  1
Imperial24
102
FLAGS
 90
        0
  0
XRECORD
  5
856F
102
{ACAD_REACTORS
330
856E
102
}
330
856E
100
AcDbXrecord
280
     1
102
SHADEPLOT
 70
     0
102
SHADEPLOTRESLEVEL
 70
     2
102
SHADEPLOTCUSTOMDPI
 70
   300
  0
XRECORD
  5
856D
102
{ACAD_REACTORS
330
856C
102
}
330
856C
100
AcDbXrecord
280
     1
102
SHADEPLOT
 70
     0
102
SHADEPLOTRESLEVEL
 70
     2
102
SHADEPLOTCUSTOMDPI
 70
   300
  0
XRECORD
  5
8534
102
{ACAD_REACTORS
330
8148
102
}
330
8148
100
AcDbXrecord
280
     1
102
MATERIAL
148
0.0
149
0.0
149
0.0
 93
        0
 94
      127
282
     0
 72
     0
 77
     0
171
     0
175
     0
179
     0
273
     0
  0
XRECORD
  5
814A
102
{ACAD_REACTORS
330
8148
102
}
330
8148
100
AcDbXrecord
280
     1
270
     1
271
     1
  0
XRECORD
  5
8149
102
{ACAD_REACTORS
330
8148
102
}
330
8148
100
AcDbXrecord
280
     1
270
     1
271
     1
  0
XRECORD
  5
814D
102
{ACAD_REACTORS
330
8148
102
}
330
8148
100
AcDbXrecord
280
     1
270
     1
271
     1
  0
XRECORD
  5
814C
102
{ACAD_REACTORS
330
8148
102
}
330
8148
100
AcDbXrecord
280
     1
270
     1
271
     1
  0
XRECORD
  5
814E
102
{ACAD_REACTORS
330
8148
102
}
330
8148
100
AcDbXrecord
280
     1
270
     1
271
     1
  0
XRECORD
  5
814B
102
{ACAD_REACTORS
330
8148
102
}
330
8148
100
AcDbXrecord
280
     1
270
     1
271
     1
  0
XRECORD
  5
8533
102
{ACAD_REACTORS
330
8140
102
}
330
8140
100
AcDbXrecord
280
     1
102
MATERIAL
148
0.0
149
0.0
149
0.0
 93
        0
 94
      127
282
     0
 72
     0
 77
     0
171
     0
175
     0
179
     0
273
     0
  0
XRECORD
  5
8142
102
{ACAD_REACTORS
330
8140
102
}
330
8140
100
AcDbXrecord
280
     1
270
     1
271
     1
  0
XRECORD
  5
8141
102
{ACAD_REACTORS
330
8140
102
}
330
8140
100
AcDbXrecord
280
     1
270
     1
271
     1
  0
XRECORD
  5
8145
102
{ACAD_REACTORS
330
8140
102
}
330
8140
100
AcDbXrecord
280
     1
270
     1
271
     1
  0
XRECORD
  5
8144
102
{ACAD_REACTORS
330
8140
102
}
330
8140
100
AcDbXrecord
280
     1
270
     1
271
     1
  0
XRECORD
  5
8146
102
{ACAD_REACTORS
330
8140
102
}
330
8140
100
AcDbXrecord
280
     1
270
     1
271
     1
  0
XRECORD
  5
8143
102
{ACAD_REACTORS
330
8140
102
}
330
8140
100
AcDbXrecord
280
     1
270
     1
271
     1
  0
XRECORD
  5
8535
102
{ACAD_REACTORS
330
8150
102
}
330
8150
100
AcDbXrecord
280
     1
102
MATERIAL
148
0.0
149
0.0
149
0.0
 93
        0
 94
      127
282
     0
 72
     0
 77
     0
171
     0
175
     0
179
     0
273
     0
  0
XRECORD
  5
8152
102
{ACAD_REACTORS
330
8150
102
}
330
8150
100
AcDbXrecord
280
     1
270
     1
271
     1
  0
XRECORD
  5
8151
102
{ACAD_REACTORS
330
8150
102
}
330
8150
100
AcDbXrecord
280
     1
270
     1
271
     1
  0
XRECORD
  5
82A6
102
{ACAD_REACTORS
330
8150
102
}
330
8150
100
AcDbXrecord
280
     1
 70
     1
 90
1959938040
 71
     1
  1
230F471E-87B1-4859-ACCE-1318A32C1EF9
311
504B0304140006080800FD846E5702CD9F97CE000000200100004F00000041313141363032322D413342312D344646342D424346452D4236363746443634303931372F4173736574446174612F446566696E6974696F6E4974657261746F7250726F706572746965732E62696EEB606060F80F0540260323103700495E20ED
311
9E9A975A94991C9C9C919A9BC8C00612C9C94F4ACC6147C831019920AE4B6A5A62694E0948976F6671726A4E4E625E6A7E69B12042A9426E6209D0B8C41C3D90264E20860914834C48875806B2DF0F88414E02D189290556F689C5C5A925B6FA694915FA4EAEE666AECEC696BAC62E4E96BA26E6962EBA4EE64666BA06162E
311
2E4EAE26CE9646E64EFA45A9C5F9A545C9A9C5FA46FA06F15093E30BF2D219189EE8315FBC06B4C4430A42AF6185D0021F99C0E2257720F48DE3101A00504B0304140006080800FD846E573EC66E85FD000000300200004500000041313141363032322D413342312D344646342D424346452D423636374644363430393137
311
2F4173736574446174612F496E7374616E636550726F706572746965732E62696EEB606060F80F0540260323103700495E20ED9E9A975A94991C9C9C919A9BA802143032367033313774D5B5307732D435B130B5D475747676D5353436B470343672367475B36447680469313634717135022A34353131D635313332D47572
311
7372D13534373670367376B67474B5042A03DBCBA019D37FE8ABC6157B20CD04146B0062181F4C03F940F0C11EA29A8141C08141002C0426541C106CAC2CA046088033B02A030AC2157C6006F21A8018AAF50194E6010A610250382264E08660284CD9E98021862280A91564B406929A0FF62C401E28B6F88038B83CB12439
311
43D7A928312F2535052403036AAFFF061571AD77602FD8F690376E8503A5E200504B0304140006080800FD846E5728BB58AF800100009E0500003D00000041313141363032322D413342312D344646342D424346452D4236363746443634303931372F536368656D61732F436F6D6D6F6E536368656D612E786D6CBD544D4F
311
C23018BEFB2B96DE15493C78601010A34B880709DEDFB52FD0D8B54BD70DF6EFED3AC0B12E6442E2716BFB3CEFF3D18E26FB440405EA8C2B1992E1C323095052C5B8DC842437EBFB673219DF8DA659866649B798C078B48AE6410122242F2A4994AC7F93815DF85C049C8564CA0A901499DD886B2EB9B1E02448F358701A92
311
35880C49A0119892A20C89D1B9FD768815CAD268CB5E0355B40B1E47F3E37A2020464BED06AA57CE8FCC20C3C3446D46761A2632A8C1283D07031EFF2AE7CCB1BFEEE916E406DFAC8E36FFD99A9D60A6944090EEDC3B670C7DC13DE86B6B2C5C240D6E503BB85ACD579D513F1B9F9A69DC9CC22AFA80C426D40AF0B21EA168
311
559156B6276F0F726A6BFF04DCD513A87A62CAD41FB24FCB2858B3952E3D852084DA25B9303C15687973CC8E8AAE11DF2836C38C6A9E765E8C1BA1BFB1DC29CDFE518C8B5A7655A4ED7E77291ABEB80DBD82EC866ADE1B8D05AF9E35CF09D7A061F38A986D9EC412B8F0F65E5D81534D9B231D1E5A8FE577A241F3A5FD0150
311
4B0304140006080800FD846E572CCEBD668A040000E01200003E00000041313141363032322D413342312D344646342D424346452D4236363746443634303931372F536368656D61732F47656E65726963536368656D612E786D6CD5586D6FDB380CFE7EBF42F0F7A649B70E1B90744856B4970F450FCD7A5F05459613EDE4
311
174872DADCAF3F522F8ED3B88D2F1D06AC4050DBA2493EE4438AF2F8EB73AEC8466823CB62928C06C384888297A92C5693A4B6D9D9E7E4EBD51FE3A931C22EF85AE4EC6AFC38BF261BA626C9AD288496DC3F4FCEAFC63366845F7A10452AF41DB320C0D44EC26EAB20918735565582695670811A6A49643A49A6E9069FA460
311
4A64B29016DC4B48552F95E4932463CA888468C1D2B250DB4962750DF7CE273069CE8363F1FF4EDB00E0A21999574AE4A2B00C353B93F3BD4777B8A61ED8F604ABFEDD79CE56A2B7BDFBDBC50996E0ADDE16FED26223C5D30956C29BDF4A55EA686E5E58B112DA45CE67F76F4FA27EFA3FB672FD7372FC388FAECDCA5209E6
311
93CAD167BADCD272F943701B3812F8A3D852008B1D2E32DB927B2F833C6EA95879925356D254582695095A3CE982924720BE5774A3CB9CDCDB350427D2DF20DA1B5532EBE2D5D6288D75D4F7E4FD9890A0EF8E3D93EBB8F8BA4758158EF6FB90A6F9520281C93DE7AAC6D24607DA296BB96018123F821A7D6A5C5884050C47
311
5DA4865442732C8B95684A50165CBB3A32F25F783A4A480ED59AD7F924B968AEA50131F46303223E6A397B0E52976030DC1DCA81D7E7C1EDEEA42C19FF27635C505E2BD5198A599020DF50A2330FCB3AAF28CB0124108429553EF1B228802E2265D8F7CC2401042B155BCC7070F1E5C55F13B4A9577362CCCE46C32174E010
311
C3C378C44841A4BDA00FE3A12006CE11EE6AEC59894D3526DDE1CD59D503ECC324017F8061B7F162162FA62EDD81AE3308617770796DCBDAD2B2625C5AE8A63DE20B2C8AA5E95E76E5730823955956E33E705425A2187C185D36489A1B44D3DCEC2172F6BA2105C3546287A7194B2331768EBBE64F6E70A9930ABE0ADEA89E
311
9E2C38523B810287AD67A54A039C1606EAFE68F8304610BB9093DBDDABC0B2AE4E290DCDA15376D7E39F72B556F0B32EAB5D3D498B4C41ABADEC3A1434C422D87E8025A84BDCB2B1417ED750FAE4DA8976863974C577C7F902D3F156AD354DEA3540DE6BEAE2BEA52F7A2EB4CA43802ECE5BF2CE2EDC9347179FFB023CE412
311
E60BE16DA0BE29B374988A553F561DC04615DD35F7D2C8979F60E5955CE93DF29DED8AFA1EE6642D53418086C03C47C377910F75F7E8F5EF665F70B60FFB22AEDF897D119E8423C773E819A3C1E55E550599EE6EDCA34D0C86FD72057DF2CD46F16A470682471C164E4346D5306BF12D7D12D82CFF673D41636C347443FEB5
311
1B50D72EA171A8E4A58623A4A16E0FA2B8B10A0D23268D87C33896EE8FB73305A74BF224EDBADFA0BD674AB354D63DB7BD5D83426761C077DE767728235446A552754EB93B755891C3C4CC6CADE37CF0E912A7BB38DBA010F9DE1282EDF470CA69A9CDA482E334C4A6EA4107987980B17E72F31730EBF88BBD39E7C629F567
311
97A3C0009C2C5AE7951D9A05A02773440F02EEB4DE396A3B6A570C72CCFBCD823B0B8ED3F1D5CEDDFED772FA70236C83FB7D86C385D570B87107535572A60A96035F8F7C6A7192F13007246BBE0521855E6AC46F3E27689CEE7D186A6FD679D98CDCAD13333E04EBE7ED6F55FF01504B0304140006080800FD846E57618013
311
4D5F0100006B0300004500000041313141363032322D413342312D344646342D424346452D4236363746443634303931372F536368656D61732F52656E6465724D6174657269616C536368656D612E786D6CA5934D6FC2300C86EFFB1551EEE343DBA41D1A103009551ADAD40EAE28A4A68D9426284961FCFBE5A340113B20
311
71746D3F765EBF4DC6BFB5407BD0862B49F0B037C0082453059725C18DDD3EBFE3F1E829991803366715D474942CD30FB4A782E00C64017A412D684E454CE3FE28995203B162A6EA5AC94B66997D225E109CD63B0135484BAD1B3C07E9080CA35DB3119C11BCA5C200461A68A1A438126C75E3E230D40FF81FB3F03C91D1E3
311
A3A0AF79FE28E25BC39EC3E17E4C2A2D94A0833A51AF55BCCA7D88572FCBAC529C4140B020FC3AAFA886621DCED7EAD7664CC86024E806DC297DA1BB393E4156543457A4537DB8817349A70F8ACBF09B3EEE2CB2F33E91B65D60786E4E3B39B77E3FEEEF5650424525DA657FB8B46BE6BF064646F0A0F7327C0BC1BC1B4CBB
311
C1C419FA3CCB23500007872A2580CAAE5461865565294E4EDB4617B62FF579DF9A5B2F54E834076A597573A020912FED777F9B3F504B0304140006080800FD846E578C8A2C2751000000570000004700000041313141363032322D413342312D344646342D424346452D4236363746443634303931372F4173736574446174
311
612F41737365745461626C654F66436F6E74656E74732E62696E536160603032367033313774D5B5307732D435B130B5D475747676D5353436B470343672367475B31402AACB4D2C492DCA4CCC492C28484D2C4ACC4B4E050A82012F90744FCD03CA26072767A4E6260200504B0304140006080800FD846E57F86583405800
311
0000680000004500000041313141363032322D413342312D344646342D424346452D4236363746443634303931372F4173736574446174612F53747265616D56657273696F6E5461626C652E696E66558CBD0A80300C06F73E4B117FB66E451741D041DC5BF98480A492E4FDD18EAEC7DD4555D89EF28DF51A0B1BD8340C4D
311
E7DD848B988C0ACF0649566493F2408C508DDEBB99D5129FF8F1AF8CF5B9503E20FAE5A16B5AF702504B0304140006080800FD846E577926BF41350100009A0400003600000041313141363032322D413342312D344646342D424346452D4236363746443634303931372F4173736574446174612F636E782E786D6CCD9431
311
4FC3301085FF4AE43D76D302A295E30AC1D209242A06B6AB7369AD3A76645F10FC7BEC3603A888A943D6F3BBF3F327BF93EBCFCE161F18A2F1AE66159FB1029DF68D71FB9A0DD496F7AC582B19BCA71F325638E8B066B9CC94DC073FF463A9C116069BABD6B8E3587C8811690B3B8BCFEDA377848E222BB485186B16F5013B
311
E030906F301E790304BCE201A31F82C634894C87E3241D10081BA6E6B3F9A2ACAAB2BAD95677ABC57275BB7C97222B95DC796F47BD499705DF17FA7C2B533329F2B1924330A326BF85A9BF3CF29D715224A5929142623276D0579F3AA0EFADD140099DF09A90CA2442E8A4388B951499C12F124FD81A6772CB261903F2E125
311
D9C340062747E43FAFD727B37191C0699C2E8F4B87D7A7F07AFA416FE7409E1233B59C5C3AE4C6B557488938AD91149ABC55D437504B0304140006080800FD846E57DFB91792090100004F0300003400000041313141363032322D413342312D344646342D424346452D4236363746443634303931372F536368656D61732F
311
636E782E786D6CCD93BD52032114855F85A1DF1F12754C86258585958D5AD921DC244C58EECE051C7D7B61DD2299B1D3221D1CBE61CE395CE4EE73F4EC03283A0C03176DCF190483D685C3C073DA37F79CED9424C474867116F40803AF3257F24098A745B2B0D7D957D5BB705AC4071C470C2FE608A3E6CC781DE3C0E3BC6D
311
754E68219E5AAB936E454B10319381724372232C3718029DC072B5EA57EB468846DCBC8ABBED7AB3BDDDBCC9AE924ABE23FA85772101E1C40C964528767AD9D5632533B985A919B83AF7D696366457082563A2D2C142A6AFA9907A9ABC333A95AABA19FC6194EC6AD48BC08F10809CB9CEC417E6FE2DF233040BF4545E899C
311
F6D799FC378F7F2BA09B67BF8C40FD0AEA1B504B0304140006080800FD846E57410A3D5871000000A40000002C00000041313141363032322D413342312D344646342D424346452D4236363746443634303931372F636E782E786D6C55CC4D0E82301086E1AB34B31774E7A22D31F1069E60020334B633A63FC6E34B0909B0
311
7DDE2F9FEE7EC1AB2FC5E4840DDC9A2B28E25E06C7938192C7CB1D54677514C9871928C640062A83D55394F2D968A0118BAFEA1DBF377CA444F98919176EAB9FEAAB9F2960DA5BBB1E2ED3FA6FFF504B0304140006080800FD846E57128B06C67E000000A300000007000000636E782E786D6C4D8CD10AC22018465F45FE7B
311
4B97B802E7D0CAF718CD0D99D3B0193D7E1ABBE8EA83C3778EE83FAB476F9B5E2E860EE88100B2E1114717E60EF236E133A05E8A14E3F677031486D57650314831A7989F3B1AED34645FA97761D9A1A25471D234589D34C5CC1886F5D5DCB1E6BC3537CEC885B6C53856A5CCAF57B6E6E517504B0304140006080800FD846E
311
5716E99B5DA600000035010000130000005B436F6E74656E745F54797065735D2E786D6C9590410E82301045AFD2740F4517C6180A0BF5065E60AC53688469D30E066F6F91AD9AB89CF9FFFD3F99BA9DC7413C3026E749CB4D59498164FCCD51A7E5C4B6D84BD136F5E5193089ECA5A465CF1C0E4A25D3E308A9F401292BD6
311
C711388FB15301CC1D3A54DBAADA29E38991B8E0254336F5092D4C038BF39CD76B6FC6A538AEBEA54A4B08617006389FA516557DE4AE8E7E70DE30729138228C5F021CD93F02D4FB0DCD0B504B0304140006080800FD846E573DEE336E64000000790000001B0000006175746F6465736B2D64657369676E2D7061636B6167
311
652E786D6C35CBC10E83200C00D05F21DCA56CA76D41FC96062B120735B69A7DBE268BB7777961F8D5AF396893C2ADB70FE7ADA196782C2DF776D7A97B5933C430F15651E5469C55D70F80A4992A3ADC954792C525AE70A1E4D6AD9816CC044FEFDF01FE3FDE907802504B0304140006080800FD846E57B4C402C1F9000000
311
960100003700000041313141363032322D413342312D344646342D424346452D4236363746443634303931372F4173736574446174612F636F72652E786D6C8550CB6E833010FC15B477436C2040641CB50DFD829E7AB36C875A0936F2A3EAE7D70E546A4F3DED6A76766677E8F96BB9179FCA796DCD08B83C40A18CB0529B
311
798418AEA887E2CCA8B336FCA24161F8A246C830303A3B1BD71D12D60465326AAC543BC8BD57010A714FCD085E7CA885973C86C4F0B772E5E2C66755E272E3311AA396FBAA96494D5FB572C09EBAA66B5E3A82F0D41C5043FA1AF5AFCF2D9AEA637721C3D40E7D4FABBCCC68D0CB8FBB708A0725819103A911C608376FF878
311
AA87533BBCD32A3319F5C1A59F77D3FC5DB2CB575F78E0B4DAA67F54E32AFF578DDA849AECAADB860786D3918F01A3554E29954784A9E644D937504B0304140006080800FD846E57FC18EC5AF7000000940100003500000041313141363032322D413342312D344646342D424346452D4236363746443634303931372F5363
311
68656D61732F636F72652E786D6C8550CB6E84300CFC15E47B8004586015B2EA83FE407BEA2D22591AED92A03CAA7E7E13A0527BEAC9D678666C0FBD7C2DF7EC535AA78C1E00E72564524F46283D0F10FC1575905D18B5C6F85F34C8345FE400090646676BC27A4093D15EEA846A23E40172E7A4876CBAC76600377DC885E7
311
3CF8C870B77CE5D38DCF32C7F9CE633404250EA912D14D5D95B4C01EDABAAD9F5A82F05897A8265D85BA97C7068DD5A97D26FDD8F45D478B2466D4ABE567FB6425F752002325A910C608D76FF874AEFA73D3BFD322311975DEC69F8FA5E93B60AFDB9D8E16FBEC8F6758C5FF9E41695F91C373573860389EB80D182D5246B1
311
6C01C69AF264DF504B0304140006080800FD846E5785CC45EB02010000D70100002D00000041313141363032322D413342312D344646342D424346452D4236363746443634303931372F636F72652E786D6C9591C14E843010865F85CCBD4081656553BA019527F0E4ADD2596C7669495B8C8F6F2B18F5A6A7367FBF7FA6FF
311
0C3BBFCFB7E40DAD5346B740D31C12D4A3914A4F2DACFE42EE203973668DF13F3048B498B1852803679335EBB24BA3D11E7554B591B88BC239F4908CB77069C18DAF388B54AC3E10EE9A2E62BC8A09539A6E1C675ECD5FD6D1A2F02881177951124A09AD9E687D2A9BD3A179665924395B95F665B137C3F9056562161F2201
311
3FB06C7B0DD4AAE4CE2819FEA82E0A2DF08ED2AECE8B8274654F49350C15E9EF8747D2D7F57178A8ABBCA1C75024983973DE86C9EC45E20CFE6ADF8CBF92AD8BFC67B2CDE180D3EF50591C3367D9E70EC21957C23F00504B0304140006080800FD846E572CC72E1C08010000B201000008000000636F72652E786D6C8D504D
311
6F842014FC2BE4DD51415D75836CFA617F414FBD51612D590503B869FF7D61D726EDADA74766E6BD19869D3E97195D95F3DA9A1E4856005266B4529BA9872D9C710BE8C499B336FC92013262513D2418389B9CDDD61D1AAD09CA24D458A9765078AF02A0718E8F1EFCF8A11691892D4485BF64AB182F625219C9EE3ACE825E
311
7E5647A7445012382D688909C1A47A258763D91DEBEE8DE549C9D9B669B95B6919DDF5592B07FCA1A99AEAA9A1980C55812BDA96B87D79ACF1501E9A67DA0D75D7B62C4FCB9CF9E0E29FF7233167405E5C932FCBEF1467EFD6CEBB208692C89AF90B78C1F244FC09BDADF21FA1B50925DD0FDE373C701203DD88689C1A8CE3
311
566F9CA96DFE0D504B01021400140006080800FD846E5702CD9F97CE000000200100004F000000000000000000000000000000000041313141363032322D413342312D344646342D424346452D4236363746443634303931372F4173736574446174612F446566696E6974696F6E4974657261746F7250726F706572746965
311
732E62696E504B01021400140006080800FD846E573EC66E85FD0000003002000045000000000000000000000000003B01000041313141363032322D413342312D344646342D424346452D4236363746443634303931372F4173736574446174612F496E7374616E636550726F706572746965732E62696E504B0102140014
311
0006080800FD846E5728BB58AF800100009E0500003D000000000000000000000000009B02000041313141363032322D413342312D344646342D424346452D4236363746443634303931372F536368656D61732F436F6D6D6F6E536368656D612E786D6C504B01021400140006080800FD846E572CCEBD668A040000E01200
311
003E000000000000000000000000007604000041313141363032322D413342312D344646342D424346452D4236363746443634303931372F536368656D61732F47656E65726963536368656D612E786D6C504B01021400140006080800FD846E576180134D5F0100006B03000045000000000000000000000000005C090000
311
41313141363032322D413342312D344646342D424346452D4236363746443634303931372F536368656D61732F52656E6465724D6174657269616C536368656D612E786D6C504B01021400140006080800FD846E578C8A2C27510000005700000047000000000000000000000000001E0B000041313141363032322D413342
311
312D344646342D424346452D4236363746443634303931372F4173736574446174612F41737365745461626C654F66436F6E74656E74732E62696E504B01021400140006080800FD846E57F865834058000000680000004500000000000000000000000000D40B000041313141363032322D413342312D344646342D424346
311
452D4236363746443634303931372F4173736574446174612F53747265616D56657273696F6E5461626C652E696E66504B01021400140006080800FD846E577926BF41350100009A04000036000000000000000000000000008F0C000041313141363032322D413342312D344646342D424346452D42363637464436343039
311
31372F4173736574446174612F636E782E786D6C504B01021400140006080800FD846E57DFB91792090100004F0300003400000000000000000000000000180E000041313141363032322D413342312D344646342D424346452D4236363746443634303931372F536368656D61732F636E782E786D6C504B01021400140006
311
080800FD846E57410A3D5871000000A40000002C00000000000000000000000000730F000041313141363032322D413342312D344646342D424346452D4236363746443634303931372F636E782E786D6C504B01021400140006080800FD846E57128B06C67E000000A300000007000000000000000000000000002E100000
311
636E782E786D6C504B01021400140006080800FD846E5716E99B5DA6000000350100001300000000000000000000000000D11000005B436F6E74656E745F54797065735D2E786D6C504B01021400140006080800FD846E573DEE336E64000000790000001B00000000000000000000000000A81100006175746F6465736B2D
311
64657369676E2D7061636B6167652E786D6C504B01021400140006080800FD846E57B4C402C1F90000009601000037000000000000000000000000004512000041313141363032322D413342312D344646342D424346452D4236363746443634303931372F4173736574446174612F636F72652E786D6C504B010214001400
311
06080800FD846E57FC18EC5AF70000009401000035000000000000000000000000009313000041313141363032322D413342312D344646342D424346452D4236363746443634303931372F536368656D61732F636F72652E786D6C504B01021400140006080800FD846E5785CC45EB02010000D70100002D00000000000000
311
000000000000DD14000041313141363032322D413342312D344646342D424346452D4236363746443634303931372F636F72652E786D6C504B01021400140006080800FD846E572CC72E1C08010000B201000008000000000000000000000000002A160000636F72652E786D6C504B050600000000110011005A0600005817
311
00000000
310
504B0304140006080800FD846E57000000000000000000000000370000006662782F31423742363541332D414146322D343133372D423639432D3342344532443130424131362F617474726962757465732E62696E504B0304140006080800FD846E57000000000000000000000000350000006662782F3142374236354133
310
2D414146322D343133372D423639432D3342344532443130424131362F76657274696365732E62696E504B0304140006080800FD846E57F270F1330600000004000000360000006662782F31423742363541332D414146322D343133372D423639432D3342344532443130424131362F747269616E676C65732E62696E6366
310
60600000504B0304140006080800FD846E5751464CB48900000043010000360000006662782F31423742363541332D414146322D343133372D423639432D3342344532443130424131362F6469726563746F72792E786D6C9D8F310EC2300C45AF127987122606C71DD918B841D4B851A43646695A717C52A85029031293A5
310
A76FBF6FACEF7DA7264E43906840EF0FA03836E242F406C6DCEE4EA06AC22492573150D1F66C60C640E8938CB705396EEDD86DE9B5042FE27813D640EA63BB001C722AF6E55CB61E4863F58284D5D3F53DD715CE1C3985E63FD7F1B7EBDD617E9F1E504B0304140006080800FD846E570E754F7042070000201C0000340000
310
006662782F31423742363541332D414146322D343133372D423639432D3342344532443130424131362F6F626A656374732E786D6CDD59596FDB3810FE2B84F665F74197E5B3705CC4470AA3485BD4E862DF045AA61D6E74819212677FFD0E29521615D9567A008B75005BA1A8E1CC37F768FAFE1885E889B08C26F18DE15A
310
8E81481C243B1A1F6E8C22DF9B6303BD9FA1294B92BCB6CF40318EC88DC1978DD9F4C09222954B3BB2C745D85CBD9BFF85B280C4C4404188B3ECC6C8820712610B1779B223D9A3B5C339B60EFBA3E55AE5469DEC81E1F4A171548A1989736015D663A0223970F57F41247B36B5F9066D9BD76D5BEFC2365B08AE334AE32CC7
310
71F08AABC671BD335C358EF3DCFE72D51B4CCC41BFEF99FD61CF35E777F3A5E98E3C67315C2C26B7AB898166D36D928495025212EF408B2FC6CC9DDAFC4E25BE44A18DEF208963124834DB36EC88A44B49D6C44403D615A2D51452CA5A5BF03A0A7F665B2750349634B49570EAB76EBDC9F66F0021EB62A52C23DCCAB39C81
310
AE25F6A53F3853BB5CD5F4423314E19C308A4314D22DC30C14045B4B056964B8B77052886326B4A8E8D57905C3BEEE4B6D5CEE8B30E4FE6BCC84A7F9E08F24CF0467F41FC24EDCD74F039E40DA82C6F9580A9BBFA4406232B5C56279CFEBC99B2590681FE203580B88C93779BD065E0B1E0BD64B63F6F16E7BDCF0F8D07E78
310
CA9294B09C5B9E7066E9774A8335D302E3EB004A89ABAEBB132A5F01FA4F807CC50B9A82E6183DF68F7D253BC371B64F5804DA410E321DF87210BF7C7535B5AB87670869B1F21CA6E0B63F09534D0CEDEC1AA4B3E913187DC23C29DC26C021D8F43D8DB99F83A1A030812588F7FBEDD198AD2198C2223C8543901EFEA636BF
310
44F053D28178D3D0505BF8EDA028E5304D3F3BE9EA03D80CA341A52A4DC673F80E7E0ABEB7CBCDC74DC1F63820F7D2B197644F639A43326D6748035D73F96FEB4FC2233F84C91687A7A7B54D011C734878DC6851CB46AA0509BD00273C0D979A112BF714BC3D0C714C922293EB6D712A48C284F9DB17BF74E1D6B3FE543650
310
1E260DA0359641720F184D3926C64C6AAB0A84564D50B030CCA4051E4AADFADB224A7D1C2545CC43ED6B536CF20171865B225015D494612BAF55647774BF2F32085EAD24171A90D29F15E1D2C2FB10C7DAF86564CF3024D124F629E4607096D613B4032AF02EF39C9170EFD3302C227F4F43C8237E84D333F43B4A50CF5C8F
310
E4E53961BB5682BA65299F5436C40197C02A9054B62A63BED429234F949799229FA96CA0ED9075A831EB9F49173C53B400AA8C519879CF73EEFA2377658E4773D7EC8FA176BA5D2C56A6EBB9E35BAFB770577790B2A49508044ED1AA9EEF4095BCCCD1FC2F7F28A26D8C6908373805BC4BDFBD17D9F3C686D068CF57A3E16A
310
E14D4C6F399F98FDD16469CE47BDA1E98C97CBF9AABF98F446739B912C29584032BB673BBE32C9343E9CE3AA8AA53C6B81FCF02D2185B2E67AB253FA6A0AF33F8EA1CD9CA029F1BF1A44ABD8D55210760DA2FCD16608C5C1234F517E00555FABFB348268938FB638F7C6B8EC589E233EAE3BE93993DE7832AC8CFD62A016E7
310
FC709C6B932080BEB3C8FD24C501CDDB136A03978E71FA4DB9C5F2DC010274AAEFEA90CB79461EE2D3081F88BFC7BC4B68098CD72468CD618730C9321A934C7479AFAABF064DC782624ACFB92D4648333F2239FE1EFB136D43C3A62136873EF4A3399F085CAD0A2A83961DC8398ABCFB85C42DE47FF1331CA561D9E95EC3C0
310
ED2908548FD366719C697EC413D89B8F73DFD91131B8B846BD625FD507AD5A6B529F7C37F933F0A8BAE617C2A38EE85E3A590377C23F63082AC381EB8D9422AE61A58ECA791F1716D079062FFE33A187874E8566379DD44AB6B2A8CE49046D2CCE0BD6C95F8703E7D541322E341CA276D21B8B43D1BFA90E0ED0130DDCB9F2
310
B6760CD4A13486395727415E49D16AC2421762A6C747576FF0EB8BCAAE53FDE178F9CB2BE6BAF34550E875C101AAE53200CBE8A3D5D4AD55B7560F65CF380F20906EC4AF39078FD891DDA931D3C8B595E8AA3EBD563DAF79408D60628B799CBDE717E1570CAA86EE39B33F94459B5DAEAF7962B360387DE243635AA7F5F9C3
310
A64105563A3FFD8563449E1B14E4EA8277C317487D5B9F7AFE060529D1B7F585C7FF131D855260ADB380697096841486F264870E2481EC0D63870EDD068B4826B2F2A94B516F043A3CFD54CE5473BC0D558F133C60184C87B2172B02188A42C6BC31E43AFA0DC6A07C12298653D623B461328619A860F4C6008BCD29745BD6
310
16C659627828A837C695E0D8383EF07C5F3E55FD7F7AEC55F755EDE9828B944C7326286C53F19E00AABEF2C66CFAFDA22B7610CEE1725BE49530A78593341204F542A0140EA67E8F12DE23141497E5722DB1476B483B4DE62FDA4149D5CC313B88F17ACD266F975F6C3E195F7F4669581CB83A2F75BF1A259377DD61514EA1
310
A6601852CC14F31A72F1CEFEC21278C514A13B0A46807E3F8E877FD88B248A92B85CB26FE58B2AB47980D74E3B5B8DFCA08D77DC812DA60072ACEF6F71462CBCCB1E610154CB289F8D96106B065045D39A01288D705DC063DAFEF512C9DAA83621A9875D0E8F98E9237024FE2E87BB4D7D436D0009BE005C899BA70BB530B5
310
190CC167FF02504B0304140006080800FD846E575F672A8F3E01000046050000300000006662782F31423742363541332D414146322D343133372D423639432D3342344532443130424131362F636E782E786D6CCD94C14E032110865F8570DFA5DBAAB186A589079FC083F1C6B2D315CBC2060663DF5EA8B46A4C8D8726ED
310
8D0CFF24FF37F367F8EA7D34E40D7CD0CEB6B4A967948055AED7766869C475754BC94A70EF1C7E935162E5082DCD652AF8E05D9C4AA987B58C26578DB69B5294885E77112150A28C0CA1A541BDC0286B19D1F51036752F51D64DED21B8E815A47ED423947EE54122F454CC67F345D5345573F5D8DCDC2D9677D7CB67CEB252
310
F0CE3953F4DA22783711E5D2C3263333CEF2B7E0D1EBA2C904547C39AB3B6D394BFF8287E4D60E4587DB29EBA6C96825318D893985805512811C39FB140BCE32EF0FEA87FBA7BD03D26B0F0A9DDF9E6900CDB1011C8CD52909FFE3DF09FFC676DD6BC23DD7B68FC2165B2743DDA735A4B8FEDE7F4A91B483B9BCD01F8C9D3E
310
F3E994A0569787BCF7752262B63B7969E9F9028A0F504B0304140006080800FD846E579AA899CE7F000000A30000000B0000006662782F636E782E786D6C4D8C4D0E83201805AF42BE3DAD88C536010CF4E71EA6A2214568A8188F5F685C74F592C99BE1DD363BB49AF8B1C10B20870A90F1CF30583F0948CB88CF803AC963
310
08CBDF0D90EF6723A060907C8A21BD773498B14FAE5067FD6B8744B79A9D14C54A3D6ADC10DA62CD2E574C7573AF6FA4D28AB06C1C8B92E7D7CB5BF2F20B504B0304140006080800FD846E57A6D797065F0000008200000007000000636E782E786D6C4DCB3B0E80201045D1AD90E9FD7516806B51190811670C8A61F982B1
310
B0BAC9C97B72CA7B1037C6D3332918DA1E04D2CAC69353902EDB8C20262D23F3F59B81A079470595414B17391D1F19B4730A5583A7ED43BBE4025D9592775E5ADFFA01504B0304140006080800FD846E574FEB6A7CA0000000F4000000130000005B436F6E74656E745F54797065735D2E786D6C7D8F4B0EC2300C44AF1279
310
DFA6B0400835ED02B8011730C16D239A8F121795DB93D02D6269CFBC19BBED573B8B17C564BC53B0AB1B10E4B47F18372A5878A88E20FAAEBDBD032591BD2E299898C349CAA427B2986A1FC86565F0D122E7318E32A07EE24872DF3407A9BD63725C71C980AEBDD080CBCCE2BAE6F5D69B7110E7CD57AA146008B3D1C8F92C
310
5954F993BB1BF787F39A89ABC491D09600F9FDA2FB00504B0304140006080800FD846E573DEE336E64000000790000001B0000006175746F6465736B2D64657369676E2D7061636B6167652E786D6C35CBC10E83200C00D05F21DCA56CA76D41FC96062B120735B69A7DBE268BB7777961F8D5AF396893C2ADB70FE7ADA196
310
782C2DF776D7A97B5933C430F15651E5469C55D70F80A4992A3ADC954792C525AE70A1E4D6AD9816CC044FEFDF01FE3FDE907802504B0304140006080800FD846E5734B3E8F5F8000000960100003B0000006662782F31423742363541332D414146322D343133372D423639432D3342344532443130424131362F7265736F
310
75726365732F636F72652E786D6C8550496EC3300CFC8AC1BB6C4B8EB740569004E80B7AEA4D909944482C055A8A3EBF52EC02EDA92712C3992139FCF0B53C8A4F745E5B33012D6B28D0283B6B739D20860B19A03808EEAC0DBF685018B9E0041906C1AFCEC6E706296B029A8C1A3BE3064AEF3140A11EA999C0AB1B2EB294
310
312486BF974FA9EEF28A252D579EE031EA7993EA39B9E98B4607A2EE3B766C6B4ABA616CC88EB567320C3D23CD1B6B4EA7333BF66DCDAB2C163CE8E567BB722803CE2058CD1A4229A1BB77DAED9B71DF8E1FBCCA4CC17D70E9E76D69FE0E84436FA353E879B54EFFB8C6E7FCBF6BD426346C735D151E044D47BE06825739A5
310
545E11A69A1315DF504B0304140006080800FD846E57942A4A7AF2000000B1010000310000006662782F31423742363541332D414146322D343133372D423639432D3342344532443130424131362F636F72652E786D6C8D50CB6EC32010FC158B3BB6318E534798C8EEE30B7AEA0DC1C64589C1E251F5F30BB12BB5B79C16
310
CDCE30B3C3CEDFCBADF802E7B5350322658D0A30D22A6DE601C570C14FA83873E6AC0D7F68A830628101651871363B1BD71D92D60430193556C10E0AEF21A042DED263405E7EC2224A114362F86BB90A79153394A4DC789C05BDFC4AA503114021DED40DC58460D2BE93EE44FBD3A1FF6055667216A356BB9556C95D5F3438
310
C4C9749CBAC348F138BE35B825F488A7AE7FC6746A5F9B17524F23E95895C59CF9E0D2CDFB27F9BA47E59BF05FE6B8AA07326B1368B31B6E0A9F3C539EFB82B32A1798C6BDDD3473D9FC07504B0304140006080800FD846E572A66765553010000DD0200000C0000006662782F636F72652E786D6C8D52DB8E832014FC15C3
310
3B2A585BDB204DDB64BF609FF68D227549150C82E9E72F7889EBC35E628264CE3933672690F3AB6DA241985E6A550214A720128AEB4AAABA04CE3E6001A23325466BFBAD0D448AB5A204010694D446BB6E86B85656A8802A5D8919647D2F2C8878E32F25E8F9A76859CC9CF51DFD33EE187FB25AC4289EFA28714E56F3A8AC
310
3C9B7C4861004D0F7B7CC95304F7C531833B9CDF60511C30CCDE7076BDDEF0E590A72409C39458D92EEADC08664505284E7106118268F78EF6A7EC78CA8F1F24099D94F4D678CFB3687007E8E3FE22C9846FF85C57FDCDE7A4B2199EF9A6891E50E4D71B0B9424211FFF1BC3DB66E8857D7E96DD9BC5C2D34383E0569B9DAF
310
54DAADA581354E78EA341A3F924C55CF3C12FCC4837FE1F99DC307C554ED5763D65FEFCE06F5ED4E9D3070B0AF4869D3B2665D6E5A713D57A18DA5659CEB469BFF4C2F56973093F030E917504B0304140006080800FD846E571A1928B906010000B201000008000000636F72652E786D6C8D504B6EC32014BC0A628F6D20FE
310
45982889D41374D51D35C445B1C1E213B5B72FC4AED4EEBA7A6866DE9B61D8E97399C14339AFAD19202E2A089419ADD4661A600C37D44170E2CC591B7EC92030625103CC30E46C7236AE3B345A1394C9A8B152EDA0F05E0508C6393D06E8C70FB58842C49014FE5EAC62BC8B4915B8D8749C05BDFCAC8E4E89A024E4A42214
310
618CF0E1153747DA1FEBFE8D9559C9598C5AEE565A26777DD3CA415EB50D39D715464DD7537420F515755D4B107D21F472B992735B57ACCCCB9CF9E0D29FF7232967005E3CB22F2B378AB3776BE75D90424960CDFC954C5899893FA1E32AFF115A9B40C97E70DBF090E314E84924E3DC601ACF7AD3CC6DF36F504B01021400
310
140006080800FD846E570000000000000000000000003700000000000000000000000000000000006662782F31423742363541332D414146322D343133372D423639432D3342344532443130424131362F617474726962757465732E62696E504B01021400140006080800FD846E5700000000000000000000000035000000
310
00000000000000000000550000006662782F31423742363541332D414146322D343133372D423639432D3342344532443130424131362F76657274696365732E62696E504B01021400140006080800FD846E57F270F13306000000040000003600000000000000000000000000A80000006662782F31423742363541332D41
310
4146322D343133372D423639432D3342344532443130424131362F747269616E676C65732E62696E504B01021400140006080800FD846E5751464CB489000000430100003600000000000000000000000000020100006662782F31423742363541332D414146322D343133372D423639432D3342344532443130424131362F
310
6469726563746F72792E786D6C504B01021400140006080800FD846E570E754F7042070000201C00003400000000000000000000000000DF0100006662782F31423742363541332D414146322D343133372D423639432D3342344532443130424131362F6F626A656374732E786D6C504B01021400140006080800FD846E57
310
5F672A8F3E010000460500003000000000000000000000000000730900006662782F31423742363541332D414146322D343133372D423639432D3342344532443130424131362F636E782E786D6C504B01021400140006080800FD846E579AA899CE7F000000A30000000B00000000000000000000000000FF0A0000666278
310
2F636E782E786D6C504B01021400140006080800FD846E57A6D797065F000000820000000700000000000000000000000000A70B0000636E782E786D6C504B01021400140006080800FD846E574FEB6A7CA0000000F400000013000000000000000000000000002B0C00005B436F6E74656E745F54797065735D2E786D6C50
310
4B01021400140006080800FD846E573DEE336E64000000790000001B00000000000000000000000000FC0C00006175746F6465736B2D64657369676E2D7061636B6167652E786D6C504B01021400140006080800FD846E5734B3E8F5F8000000960100003B00000000000000000000000000990D00006662782F3142374236
310
3541332D414146322D343133372D423639432D3342344532443130424131362F7265736F75726365732F636F72652E786D6C504B01021400140006080800FD846E57942A4A7AF2000000B10100003100000000000000000000000000EA0E00006662782F31423742363541332D414146322D343133372D423639432D334234
310
4532443130424131362F636F72652E786D6C504B01021400140006080800FD846E572A66765553010000DD0200000C000000000000000000000000002B1000006662782F636F72652E786D6C504B01021400140006080800FD846E571A1928B906010000B20100000800000000000000000000000000A8110000636F72652E
310
786D6C504B0506000000000E000E0080040000D41200000000
  0
XRECORD
  5
8155
102
{ACAD_REACTORS
330
8150
102
}
330
8150
100
AcDbXrecord
280
     1
270
     1
271
     1
  0
XRECORD
  5
8154
102
{ACAD_REACTORS
330
8150
102
}
330
8150
100
AcDbXrecord
280
     1
270
     1
271
     1
  0
XRECORD
  5
8156
102
{ACAD_REACTORS
330
8150
102
}
330
8150
100
AcDbXrecord
280
     1
270
     1
271
     1
  0
XRECORD
  5
8153
102
{ACAD_REACTORS
330
8150
102
}
330
8150
100
AcDbXrecord
280
     1
270
     1
271
     1
  0
XRECORD
  5
8569
102
{ACAD_REACTORS
330
8568
102
}
330
8568
100
AcDbXrecord
280
     1
102
DISPLAYNAME
  1
Imperial24
102
FLAGS
 90
        0
  0
CELLSTYLEMAP
  5
8530
102
{ACAD_REACTORS
330
852F
102
}
330
852F
100
AcDbCellStyleMap
 90
        3
300
CELLSTYLE
  1
TABLEFORMAT_BEGIN
 90
        5
170
     1
 91
        0
 92
    32768
 62
   257
 93
        1
300
CONTENTFORMAT
  1
CONTENTFORMAT_BEGIN
 90
        0
 91
        0
 92
      512
 93
        0
300

 40
0.0
140
1.0
 94
        5
 62
     0
340
8183
144
0.25
309
CONTENTFORMAT_END
171
     0
 94
        0
309
TABLEFORMAT_END
  1
CELLSTYLE_BEGIN
 90
        1
 91
        1
300
_TITLE
309
CELLSTYLE_END
300
CELLSTYLE
  1
TABLEFORMAT_BEGIN
 90
        5
170
     1
 91
        0
 92
        0
 62
   257
 93
        1
300
CONTENTFORMAT
  1
CONTENTFORMAT_BEGIN
 90
        0
 91
        0
 92
      512
 93
        0
300

 40
0.0
140
1.0
 94
        5
 62
     0
340
8183
144
0.18
309
CONTENTFORMAT_END
171
     0
 94
        0
309
TABLEFORMAT_END
  1
CELLSTYLE_BEGIN
 90
        2
 91
        1
300
_HEADER
309
CELLSTYLE_END
300
CELLSTYLE
  1
TABLEFORMAT_BEGIN
 90
        5
170
     1
 91
        0
 92
        0
 62
   257
 93
        1
300
CONTENTFORMAT
  1
CONTENTFORMAT_BEGIN
 90
        0
 91
        0
 92
      512
 93
        0
300

 40
0.0
140
1.0
 94
        2
 62
     0
340
8183
144
0.18
309
CONTENTFORMAT_END
171
     0
 94
        0
309
TABLEFORMAT_END
  1
CELLSTYLE_BEGIN
 90
        3
 91
        2
300
_DATA
309
CELLSTYLE_END
  0
XRECORD
  5
8566
102
{ACAD_REACTORS
330
852F
102
}
330
852F
100
AcDbXrecord
280
     1
102
ACAD_ROUNDTRIP_PRE2007_TABLESTYLE
 90
      512
 91
        0
  1

 92
      512
 93
        0
  2

 94
      512
 95
        0
  3

  0
XRECORD
  5
8541
102
{ACAD_REACTORS
330
8540
102
}
330
8540
100
AcDbXrecord
280
     1
102
RTVSPost2010Prop28
280
     1
102
RTVSPost2010PropOp28
 70
     1
102
RTVSPost2010Prop29
280
     1
102
RTVSPost2010PropOp29
 70
     1
102
RTVSPost2010Prop30
280
     0
102
RTVSPost2010PropOp30
 70
     1
102
RTVSPost2010Prop31
280
     0
102
RTVSPost2010PropOp31
 70
     1
102
RTVSPost2010Prop32
280
     0
102
RTVSPost2010PropOp32
 70
     1
102
RTVSPost2010Prop33
280
     0
102
RTVSPost2010PropOp33
 70
     1
102
RTVSPost2010Prop34
280
     0
102
RTVSPost2010PropOp34
 70
     1
102
RTVSPost2010Prop35
280
     0
102
RTVSPost2010PropOp35
 70
     1
102
RTVSPost2010Prop36
280
     0
102
RTVSPost2010PropOp36
 70
     1
102
RTVSPost2010Prop37
 90
       50
102
RTVSPost2010PropOp37
 70
     1
102
RTVSPost2010Prop38
140
0.0
102
RTVSPost2010PropOp38
 70
     1
102
RTVSPost2010Prop39
140
1.0
102
RTVSPost2010PropOp39
 70
     1
102
RTVSPost2010Prop40
 90
        0
102
RTVSPost2010PropOp40
 70
     1
102
RTVSPost2010Prop41ColorIndex
 90
       18
102
RTVSPost2010Prop41ColorRGB
 90
        0
102
RTVSPost2010PropOp41
 70
     1
102
RTVSPost2010Prop42
 90
       50
102
RTVSPost2010PropOp42
 70
     1
102
RTVSPost2010Prop43
 90
        3
102
RTVSPost2010PropOp43
 70
     1
102
RTVSPost2010Prop44ColorIndex
 90
        5
102
RTVSPost2010Prop44ColorRGB
 90
      255
102
RTVSPost2010PropOp44
 70
     1
102
RTVSPost2010Prop45
280
     0
102
RTVSPost2010PropOp45
 70
     1
102
RTVSPost2010Prop46
 90
       50
102
RTVSPost2010PropOp46
 70
     1
102
RTVSPost2010Prop47
 90
       50
102
RTVSPost2010PropOp47
 70
     1
102
RTVSPost2010Prop48
 90
       50
102
RTVSPost2010PropOp48
 70
     1
102
RTVSPost2010Prop49
280
     0
102
RTVSPost2010PropOp49
 70
     1
102
RTVSPost2010Prop50
 90
       50
102
RTVSPost2010PropOp50
 70
     1
102
RTVSPost2010Prop51ColorIndex
 90
      256
102
RTVSPost2010Prop51ColorRGB
 90
-16777216
102
RTVSPost2010PropOp51
 70
     0
102
RTVSPost2010Prop52
140
1.0
102
RTVSPost2010PropOp52
 70
     0
102
RTVSPost2010Prop53
 90
        2
102
RTVSPost2010PropOp53
 70
     1
102
RTVSPost2010Prop54
  1
strokes_ogs.tif
102
RTVSPost2010PropOp54
 70
     1
102
RTVSPost2010Prop55
280
     0
102
RTVSPost2010PropOp55
 70
     1
102
RTVSPost2010Prop56
140
1.0
102
RTVSPost2010PropOp56
 70
     1
102
RTVSPost2010Prop57
140
1.0
102
RTVSPost2010PropOp57
 70
     1
102
RTVSPropertyOp0
 70
     1
102
RTVSPropertyOp1
 70
     1
102
RTVSPropertyOp2
 70
     1
102
RTVSPropertyOp3
 70
     1
102
RTVSPropertyOp4
 70
     1
102
RTVSPropertyOp5
 70
     1
102
RTVSPropertyOp6
 70
     1
102
RTVSPropertyOp7
 70
     1
102
RTVSPropertyOp8
 70
     1
102
RTVSPropertyOp9
 70
     1
102
RTVSPropertyOp10
 70
     1
102
RTVSPropertyOp11
 70
     1
102
RTVSPropertyOp12
 70
     1
102
RTVSPropertyOp13
 70
     1
102
RTVSPropertyOp14
 70
     1
102
RTVSPropertyOp15
 70
     1
102
RTVSPropertyOp16
 70
     1
102
RTVSPropertyOp17
 70
     1
102
RTVSPropertyOp18
 70
     1
102
RTVSPropertyOp19
 70
     1
102
RTVSPropertyOp20
 70
     1
102
RTVSPropertyOp21
 70
     1
102
RTVSPropertyOp22
 70
     1
102
RTVSPropertyOp23
 70
     1
102
RTVSPropertyOp24
 70
     1
102
RTVSPropertyOp25
 70
     1
102
RTVSPropertyOp26
 70
     1
102
RTVSPropertyOp27
 70
     1
102
RTVSPropertyOp28
 70
     1
102
RTVSPropertyOp29
 70
     1
102
RTVSPropertyOp30
 70
     1
102
RTVSPropertyOp31
 70
     1
102
RTVSPropertyOp32
 70
     1
102
RTVSPropertyOp33
 70
     1
102
RTVSPropertyOp34
 70
     1
102
RTVSPropertyOp35
 70
     1
102
RTVSPropertyOp36
 70
     1
102
RTVSPropertyOp37
 70
     1
102
RTVSPropertyOp38
 70
     1
102
RTVSPropertyOp39
 70
     1
102
RTVSPropertyOp40
 70
     1
102
RTVSPropertyOp41
 70
     1
102
RTVSPropertyOp42
 70
     1
102
RTVSPropertyOp43
 70
     1
102
RTVSPropertyOp44
 70
     1
102
RTVSPropertyOp45
 70
     1
102
RTVSPropertyOp46
 70
     1
102
RTVSPropertyOp47
 70
     1
102
RTVSPropertyOp48
 70
     1
102
RTVSPropertyOp49
 70
     1
102
RTVSPropertyOp50
 70
     1
102
RTVSPropertyOp51
 70
     0
102
RTVSPropertyOp52
 70
     0
102
RTVSPropertyOp53
 70
     1
102
RTVSPropertyOp54
 70
     1
102
RTVSPropertyOp55
 70
     1
102
RTVSPropertyOp56
 70
     1
102
RTVSPropertyOp57
 70
     1
102
RTVSPropertyOp58
 70
     1
102
RTVSPropertyOp59
 70
     1
102
RTVSPropertyOp60
 70
     1
102
RTVSPropertyOp61
 70
     1
102
RTVSPropertyOp62
 70
     1
  0
XRECORD
  5
853F
102
{ACAD_REACTORS
330
853E
102
}
330
853E
100
AcDbXrecord
280
     1
102
RTVSPost2010Prop28
280
     0
102
RTVSPost2010PropOp28
 70
     1
102
RTVSPost2010Prop29
280
     1
102
RTVSPost2010PropOp29
 70
     1
102
RTVSPost2010Prop30
280
     1
102
RTVSPost2010PropOp30
 70
     1
102
RTVSPost2010Prop31
280
     0
102
RTVSPost2010PropOp31
 70
     1
102
RTVSPost2010Prop32
280
     0
102
RTVSPost2010PropOp32
 70
     1
102
RTVSPost2010Prop33
280
     0
102
RTVSPost2010PropOp33
 70
     1
102
RTVSPost2010Prop34
280
     0
102
RTVSPost2010PropOp34
 70
     1
102
RTVSPost2010Prop35
280
     0
102
RTVSPost2010PropOp35
 70
     1
102
RTVSPost2010Prop36
280
     0
102
RTVSPost2010PropOp36
 70
     1
102
RTVSPost2010Prop37
 90
       50
102
RTVSPost2010PropOp37
 70
     1
102
RTVSPost2010Prop38
140
0.0
102
RTVSPost2010PropOp38
 70
     1
102
RTVSPost2010Prop39
140
1.0
102
RTVSPost2010PropOp39
 70
     1
102
RTVSPost2010Prop40
 90
        0
102
RTVSPost2010PropOp40
 70
     1
102
RTVSPost2010Prop41ColorIndex
 90
       18
102
RTVSPost2010Prop41ColorRGB
 90
        0
102
RTVSPost2010PropOp41
 70
     1
102
RTVSPost2010Prop42
 90
       50
102
RTVSPost2010PropOp42
 70
     1
102
RTVSPost2010Prop43
 90
        3
102
RTVSPost2010PropOp43
 70
     1
102
RTVSPost2010Prop44ColorIndex
 90
        5
102
RTVSPost2010Prop44ColorRGB
 90
      255
102
RTVSPost2010PropOp44
 70
     1
102
RTVSPost2010Prop45
280
     0
102
RTVSPost2010PropOp45
 70
     1
102
RTVSPost2010Prop46
 90
       50
102
RTVSPost2010PropOp46
 70
     1
102
RTVSPost2010Prop47
 90
       50
102
RTVSPost2010PropOp47
 70
     1
102
RTVSPost2010Prop48
 90
       50
102
RTVSPost2010PropOp48
 70
     1
102
RTVSPost2010Prop49
280
     0
102
RTVSPost2010PropOp49
 70
     1
102
RTVSPost2010Prop50
 90
       50
102
RTVSPost2010PropOp50
 70
     1
102
RTVSPost2010Prop51ColorIndex
 90
      256
102
RTVSPost2010Prop51ColorRGB
 90
-16777216
102
RTVSPost2010PropOp51
 70
     0
102
RTVSPost2010Prop52
140
1.0
102
RTVSPost2010PropOp52
 70
     0
102
RTVSPost2010Prop53
 90
        2
102
RTVSPost2010PropOp53
 70
     1
102
RTVSPost2010Prop54
  1
strokes_ogs.tif
102
RTVSPost2010PropOp54
 70
     1
102
RTVSPost2010Prop55
280
     0
102
RTVSPost2010PropOp55
 70
     1
102
RTVSPost2010Prop56
140
1.0
102
RTVSPost2010PropOp56
 70
     1
102
RTVSPost2010Prop57
140
1.0
102
RTVSPost2010PropOp57
 70
     1
102
RTVSPropertyOp0
 70
     1
102
RTVSPropertyOp1
 70
     1
102
RTVSPropertyOp2
 70
     1
102
RTVSPropertyOp3
 70
     1
102
RTVSPropertyOp4
 70
     1
102
RTVSPropertyOp5
 70
     1
102
RTVSPropertyOp6
 70
     1
102
RTVSPropertyOp7
 70
     1
102
RTVSPropertyOp8
 70
     1
102
RTVSPropertyOp9
 70
     1
102
RTVSPropertyOp10
 70
     1
102
RTVSPropertyOp11
 70
     1
102
RTVSPropertyOp12
 70
     1
102
RTVSPropertyOp13
 70
     1
102
RTVSPropertyOp14
 70
     1
102
RTVSPropertyOp15
 70
     1
102
RTVSPropertyOp16
 70
     1
102
RTVSPropertyOp17
 70
     1
102
RTVSPropertyOp18
 70
     1
102
RTVSPropertyOp19
 70
     1
102
RTVSPropertyOp20
 70
     1
102
RTVSPropertyOp21
 70
     1
102
RTVSPropertyOp22
 70
     1
102
RTVSPropertyOp23
 70
     1
102
RTVSPropertyOp24
 70
     1
102
RTVSPropertyOp25
 70
     1
102
RTVSPropertyOp26
 70
     1
102
RTVSPropertyOp27
 70
     1
102
RTVSPropertyOp28
 70
     1
102
RTVSPropertyOp29
 70
     1
102
RTVSPropertyOp30
 70
     1
102
RTVSPropertyOp31
 70
     1
102
RTVSPropertyOp32
 70
     1
102
RTVSPropertyOp33
 70
     1
102
RTVSPropertyOp34
 70
     1
102
RTVSPropertyOp35
 70
     1
102
RTVSPropertyOp36
 70
     1
102
RTVSPropertyOp37
 70
     1
102
RTVSPropertyOp38
 70
     1
102
RTVSPropertyOp39
 70
     1
102
RTVSPropertyOp40
 70
     1
102
RTVSPropertyOp41
 70
     1
102
RTVSPropertyOp42
 70
     1
102
RTVSPropertyOp43
 70
     1
102
RTVSPropertyOp44
 70
     1
102
RTVSPropertyOp45
 70
     1
102
RTVSPropertyOp46
 70
     1
102
RTVSPropertyOp47
 70
     1
102
RTVSPropertyOp48
 70
     1
102
RTVSPropertyOp49
 70
     1
102
RTVSPropertyOp50
 70
     1
102
RTVSPropertyOp51
 70
     0
102
RTVSPropertyOp52
 70
     0
102
RTVSPropertyOp53
 70
     1
102
RTVSPropertyOp54
 70
     1
102
RTVSPropertyOp55
 70
     1
102
RTVSPropertyOp56
 70
     1
102
RTVSPropertyOp57
 70
     1
102
RTVSPropertyOp58
 70
     1
102
RTVSPropertyOp59
 70
     1
102
RTVSPropertyOp60
 70
     1
102
RTVSPropertyOp61
 70
     1
102
RTVSPropertyOp62
 70
     1
  0
XRECORD
  5
854D
102
{ACAD_REACTORS
330
854C
102
}
330
854C
100
AcDbXrecord
280
     1
102
RTVSPost2010Prop28
280
     0
102
RTVSPost2010PropOp28
 70
     1
102
RTVSPost2010Prop29
280
     1
102
RTVSPost2010PropOp29
 70
     1
102
RTVSPost2010Prop30
280
     1
102
RTVSPost2010PropOp30
 70
     1
102
RTVSPost2010Prop31
280
     0
102
RTVSPost2010PropOp31
 70
     1
102
RTVSPost2010Prop32
280
     0
102
RTVSPost2010PropOp32
 70
     1
102
RTVSPost2010Prop33
280
     0
102
RTVSPost2010PropOp33
 70
     1
102
RTVSPost2010Prop34
280
     0
102
RTVSPost2010PropOp34
 70
     1
102
RTVSPost2010Prop35
280
     0
102
RTVSPost2010PropOp35
 70
     1
102
RTVSPost2010Prop36
280
     0
102
RTVSPost2010PropOp36
 70
     1
102
RTVSPost2010Prop37
 90
       50
102
RTVSPost2010PropOp37
 70
     1
102
RTVSPost2010Prop38
140
0.0
102
RTVSPost2010PropOp38
 70
     1
102
RTVSPost2010Prop39
140
1.0
102
RTVSPost2010PropOp39
 70
     1
102
RTVSPost2010Prop40
 90
        0
102
RTVSPost2010PropOp40
 70
     1
102
RTVSPost2010Prop41ColorIndex
 90
       18
102
RTVSPost2010Prop41ColorRGB
 90
        0
102
RTVSPost2010PropOp41
 70
     1
102
RTVSPost2010Prop42
 90
       50
102
RTVSPost2010PropOp42
 70
     1
102
RTVSPost2010Prop43
 90
        3
102
RTVSPost2010PropOp43
 70
     1
102
RTVSPost2010Prop44ColorIndex
 90
        5
102
RTVSPost2010Prop44ColorRGB
 90
      255
102
RTVSPost2010PropOp44
 70
     1
102
RTVSPost2010Prop45
280
     0
102
RTVSPost2010PropOp45
 70
     1
102
RTVSPost2010Prop46
 90
       50
102
RTVSPost2010PropOp46
 70
     1
102
RTVSPost2010Prop47
 90
       50
102
RTVSPost2010PropOp47
 70
     1
102
RTVSPost2010Prop48
 90
       50
102
RTVSPost2010PropOp48
 70
     1
102
RTVSPost2010Prop49
280
     0
102
RTVSPost2010PropOp49
 70
     1
102
RTVSPost2010Prop50
 90
       50
102
RTVSPost2010PropOp50
 70
     1
102
RTVSPost2010Prop51ColorIndex
 90
      256
102
RTVSPost2010Prop51ColorRGB
 90
-16777216
102
RTVSPost2010PropOp51
 70
     0
102
RTVSPost2010Prop52
140
1.0
102
RTVSPost2010PropOp52
 70
     0
102
RTVSPost2010Prop53
 90
        2
102
RTVSPost2010PropOp53
 70
     1
102
RTVSPost2010Prop54
  1
strokes_ogs.tif
102
RTVSPost2010PropOp54
 70
     1
102
RTVSPost2010Prop55
280
     0
102
RTVSPost2010PropOp55
 70
     1
102
RTVSPost2010Prop56
140
1.0
102
RTVSPost2010PropOp56
 70
     1
102
RTVSPost2010Prop57
140
1.0
102
RTVSPost2010PropOp57
 70
     1
102
RTVSPropertyOp0
 70
     1
102
RTVSPropertyOp1
 70
     1
102
RTVSPropertyOp2
 70
     1
102
RTVSPropertyOp3
 70
     1
102
RTVSPropertyOp4
 70
     1
102
RTVSPropertyOp5
 70
     1
102
RTVSPropertyOp6
 70
     1
102
RTVSPropertyOp7
 70
     1
102
RTVSPropertyOp8
 70
     1
102
RTVSPropertyOp9
 70
     1
102
RTVSPropertyOp10
 70
     1
102
RTVSPropertyOp11
 70
     1
102
RTVSPropertyOp12
 70
     1
102
RTVSPropertyOp13
 70
     1
102
RTVSPropertyOp14
 70
     1
102
RTVSPropertyOp15
 70
     1
102
RTVSPropertyOp16
 70
     1
102
RTVSPropertyOp17
 70
     1
102
RTVSPropertyOp18
 70
     1
102
RTVSPropertyOp19
 70
     1
102
RTVSPropertyOp20
 70
     1
102
RTVSPropertyOp21
 70
     1
102
RTVSPropertyOp22
 70
     1
102
RTVSPropertyOp23
 70
     1
102
RTVSPropertyOp24
 70
     1
102
RTVSPropertyOp25
 70
     1
102
RTVSPropertyOp26
 70
     1
102
RTVSPropertyOp27
 70
     1
102
RTVSPropertyOp28
 70
     1
102
RTVSPropertyOp29
 70
     1
102
RTVSPropertyOp30
 70
     1
102
RTVSPropertyOp31
 70
     1
102
RTVSPropertyOp32
 70
     1
102
RTVSPropertyOp33
 70
     1
102
RTVSPropertyOp34
 70
     1
102
RTVSPropertyOp35
 70
     1
102
RTVSPropertyOp36
 70
     1
102
RTVSPropertyOp37
 70
     1
102
RTVSPropertyOp38
 70
     1
102
RTVSPropertyOp39
 70
     1
102
RTVSPropertyOp40
 70
     1
102
RTVSPropertyOp41
 70
     1
102
RTVSPropertyOp42
 70
     1
102
RTVSPropertyOp43
 70
     1
102
RTVSPropertyOp44
 70
     1
102
RTVSPropertyOp45
 70
     1
102
RTVSPropertyOp46
 70
     1
102
RTVSPropertyOp47
 70
     1
102
RTVSPropertyOp48
 70
     1
102
RTVSPropertyOp49
 70
     1
102
RTVSPropertyOp50
 70
     1
102
RTVSPropertyOp51
 70
     0
102
RTVSPropertyOp52
 70
     0
102
RTVSPropertyOp53
 70
     1
102
RTVSPropertyOp54
 70
     1
102
RTVSPropertyOp55
 70
     1
102
RTVSPropertyOp56
 70
     1
102
RTVSPropertyOp57
 70
     1
102
RTVSPropertyOp58
 70
     1
102
RTVSPropertyOp59
 70
     1
102
RTVSPropertyOp60
 70
     1
102
RTVSPropertyOp61
 70
     1
102
RTVSPropertyOp62
 70
     1
  0
XRECORD
  5
8555
102
{ACAD_REACTORS
330
8554
102
}
330
8554
100
AcDbXrecord
280
     1
102
RTVSPost2010Prop28
280
     0
102
RTVSPost2010PropOp28
 70
     1
102
RTVSPost2010Prop29
280
     1
102
RTVSPost2010PropOp29
 70
     1
102
RTVSPost2010Prop30
280
     1
102
RTVSPost2010PropOp30
 70
     1
102
RTVSPost2010Prop31
280
     0
102
RTVSPost2010PropOp31
 70
     1
102
RTVSPost2010Prop32
280
     0
102
RTVSPost2010PropOp32
 70
     1
102
RTVSPost2010Prop33
280
     0
102
RTVSPost2010PropOp33
 70
     1
102
RTVSPost2010Prop34
280
     0
102
RTVSPost2010PropOp34
 70
     1
102
RTVSPost2010Prop35
280
     0
102
RTVSPost2010PropOp35
 70
     1
102
RTVSPost2010Prop36
280
     0
102
RTVSPost2010PropOp36
 70
     1
102
RTVSPost2010Prop37
 90
       50
102
RTVSPost2010PropOp37
 70
     1
102
RTVSPost2010Prop38
140
0.0
102
RTVSPost2010PropOp38
 70
     1
102
RTVSPost2010Prop39
140
1.0
102
RTVSPost2010PropOp39
 70
     1
102
RTVSPost2010Prop40
 90
        0
102
RTVSPost2010PropOp40
 70
     1
102
RTVSPost2010Prop41ColorIndex
 90
       18
102
RTVSPost2010Prop41ColorRGB
 90
        0
102
RTVSPost2010PropOp41
 70
     1
102
RTVSPost2010Prop42
 90
       50
102
RTVSPost2010PropOp42
 70
     1
102
RTVSPost2010Prop43
 90
        3
102
RTVSPost2010PropOp43
 70
     1
102
RTVSPost2010Prop44ColorIndex
 90
        5
102
RTVSPost2010Prop44ColorRGB
 90
      255
102
RTVSPost2010PropOp44
 70
     1
102
RTVSPost2010Prop45
280
     0
102
RTVSPost2010PropOp45
 70
     1
102
RTVSPost2010Prop46
 90
       50
102
RTVSPost2010PropOp46
 70
     1
102
RTVSPost2010Prop47
 90
       50
102
RTVSPost2010PropOp47
 70
     1
102
RTVSPost2010Prop48
 90
       50
102
RTVSPost2010PropOp48
 70
     1
102
RTVSPost2010Prop49
280
     0
102
RTVSPost2010PropOp49
 70
     1
102
RTVSPost2010Prop50
 90
       50
102
RTVSPost2010PropOp50
 70
     1
102
RTVSPost2010Prop51ColorIndex
 90
      256
102
RTVSPost2010Prop51ColorRGB
 90
-16777216
102
RTVSPost2010PropOp51
 70
     0
102
RTVSPost2010Prop52
140
1.0
102
RTVSPost2010PropOp52
 70
     0
102
RTVSPost2010Prop53
 90
        2
102
RTVSPost2010PropOp53
 70
     1
102
RTVSPost2010Prop54
  1
strokes_ogs.tif
102
RTVSPost2010PropOp54
 70
     1
102
RTVSPost2010Prop55
280
     0
102
RTVSPost2010PropOp55
 70
     1
102
RTVSPost2010Prop56
140
1.0
102
RTVSPost2010PropOp56
 70
     1
102
RTVSPost2010Prop57
140
1.0
102
RTVSPost2010PropOp57
 70
     1
102
RTVSPropertyOp0
 70
     1
102
RTVSPropertyOp1
 70
     1
102
RTVSPropertyOp2
 70
     1
102
RTVSPropertyOp3
 70
     1
102
RTVSPropertyOp4
 70
     1
102
RTVSPropertyOp5
 70
     1
102
RTVSPropertyOp6
 70
     1
102
RTVSPropertyOp7
 70
     1
102
RTVSPropertyOp8
 70
     1
102
RTVSPropertyOp9
 70
     1
102
RTVSPropertyOp10
 70
     1
102
RTVSPropertyOp11
 70
     1
102
RTVSPropertyOp12
 70
     1
102
RTVSPropertyOp13
 70
     1
102
RTVSPropertyOp14
 70
     1
102
RTVSPropertyOp15
 70
     1
102
RTVSPropertyOp16
 70
     1
102
RTVSPropertyOp17
 70
     1
102
RTVSPropertyOp18
 70
     1
102
RTVSPropertyOp19
 70
     1
102
RTVSPropertyOp20
 70
     1
102
RTVSPropertyOp21
 70
     1
102
RTVSPropertyOp22
 70
     1
102
RTVSPropertyOp23
 70
     1
102
RTVSPropertyOp24
 70
     1
102
RTVSPropertyOp25
 70
     1
102
RTVSPropertyOp26
 70
     1
102
RTVSPropertyOp27
 70
     1
102
RTVSPropertyOp28
 70
     1
102
RTVSPropertyOp29
 70
     1
102
RTVSPropertyOp30
 70
     1
102
RTVSPropertyOp31
 70
     1
102
RTVSPropertyOp32
 70
     1
102
RTVSPropertyOp33
 70
     1
102
RTVSPropertyOp34
 70
     1
102
RTVSPropertyOp35
 70
     1
102
RTVSPropertyOp36
 70
     1
102
RTVSPropertyOp37
 70
     1
102
RTVSPropertyOp38
 70
     1
102
RTVSPropertyOp39
 70
     1
102
RTVSPropertyOp40
 70
     1
102
RTVSPropertyOp41
 70
     1
102
RTVSPropertyOp42
 70
     1
102
RTVSPropertyOp43
 70
     1
102
RTVSPropertyOp44
 70
     1
102
RTVSPropertyOp45
 70
     1
102
RTVSPropertyOp46
 70
     1
102
RTVSPropertyOp47
 70
     1
102
RTVSPropertyOp48
 70
     1
102
RTVSPropertyOp49
 70
     1
102
RTVSPropertyOp50
 70
     1
102
RTVSPropertyOp51
 70
     0
102
RTVSPropertyOp52
 70
     0
102
RTVSPropertyOp53
 70
     1
102
RTVSPropertyOp54
 70
     1
102
RTVSPropertyOp55
 70
     1
102
RTVSPropertyOp56
 70
     1
102
RTVSPropertyOp57
 70
     1
102
RTVSPropertyOp58
 70
     1
102
RTVSPropertyOp59
 70
     1
102
RTVSPropertyOp60
 70
     1
102
RTVSPropertyOp61
 70
     1
102
RTVSPropertyOp62
 70
     1
  0
XRECORD
  5
8547
102
{ACAD_REACTORS
330
8546
102
}
330
8546
100
AcDbXrecord
280
     1
102
RTVSPost2010Prop28
280
     0
102
RTVSPost2010PropOp28
 70
     1
102
RTVSPost2010Prop29
280
     1
102
RTVSPost2010PropOp29
 70
     1
102
RTVSPost2010Prop30
280
     1
102
RTVSPost2010PropOp30
 70
     1
102
RTVSPost2010Prop31
280
     0
102
RTVSPost2010PropOp31
 70
     1
102
RTVSPost2010Prop32
280
     0
102
RTVSPost2010PropOp32
 70
     1
102
RTVSPost2010Prop33
280
     0
102
RTVSPost2010PropOp33
 70
     1
102
RTVSPost2010Prop34
280
     0
102
RTVSPost2010PropOp34
 70
     1
102
RTVSPost2010Prop35
280
     0
102
RTVSPost2010PropOp35
 70
     1
102
RTVSPost2010Prop36
280
     0
102
RTVSPost2010PropOp36
 70
     1
102
RTVSPost2010Prop37
 90
       50
102
RTVSPost2010PropOp37
 70
     1
102
RTVSPost2010Prop38
140
0.0
102
RTVSPost2010PropOp38
 70
     1
102
RTVSPost2010Prop39
140
1.0
102
RTVSPost2010PropOp39
 70
     1
102
RTVSPost2010Prop40
 90
        0
102
RTVSPost2010PropOp40
 70
     1
102
RTVSPost2010Prop41ColorIndex
 90
       18
102
RTVSPost2010Prop41ColorRGB
 90
        0
102
RTVSPost2010PropOp41
 70
     1
102
RTVSPost2010Prop42
 90
       50
102
RTVSPost2010PropOp42
 70
     1
102
RTVSPost2010Prop43
 90
        3
102
RTVSPost2010PropOp43
 70
     1
102
RTVSPost2010Prop44ColorIndex
 90
        5
102
RTVSPost2010Prop44ColorRGB
 90
      255
102
RTVSPost2010PropOp44
 70
     1
102
RTVSPost2010Prop45
280
     0
102
RTVSPost2010PropOp45
 70
     1
102
RTVSPost2010Prop46
 90
       50
102
RTVSPost2010PropOp46
 70
     1
102
RTVSPost2010Prop47
 90
       50
102
RTVSPost2010PropOp47
 70
     1
102
RTVSPost2010Prop48
 90
       50
102
RTVSPost2010PropOp48
 70
     1
102
RTVSPost2010Prop49
280
     0
102
RTVSPost2010PropOp49
 70
     1
102
RTVSPost2010Prop50
 90
       50
102
RTVSPost2010PropOp50
 70
     1
102
RTVSPost2010Prop51ColorIndex
 90
      256
102
RTVSPost2010Prop51ColorRGB
 90
-16777216
102
RTVSPost2010PropOp51
 70
     0
102
RTVSPost2010Prop52
140
1.0
102
RTVSPost2010PropOp52
 70
     0
102
RTVSPost2010Prop53
 90
        2
102
RTVSPost2010PropOp53
 70
     1
102
RTVSPost2010Prop54
  1
strokes_ogs.tif
102
RTVSPost2010PropOp54
 70
     1
102
RTVSPost2010Prop55
280
     0
102
RTVSPost2010PropOp55
 70
     1
102
RTVSPost2010Prop56
140
1.0
102
RTVSPost2010PropOp56
 70
     1
102
RTVSPost2010Prop57
140
1.0
102
RTVSPost2010PropOp57
 70
     1
102
RTVSPropertyOp0
 70
     1
102
RTVSPropertyOp1
 70
     1
102
RTVSPropertyOp2
 70
     1
102
RTVSPropertyOp3
 70
     1
102
RTVSPropertyOp4
 70
     1
102
RTVSPropertyOp5
 70
     1
102
RTVSPropertyOp6
 70
     1
102
RTVSPropertyOp7
 70
     1
102
RTVSPropertyOp8
 70
     1
102
RTVSPropertyOp9
 70
     1
102
RTVSPropertyOp10
 70
     1
102
RTVSPropertyOp11
 70
     1
102
RTVSPropertyOp12
 70
     1
102
RTVSPropertyOp13
 70
     1
102
RTVSPropertyOp14
 70
     1
102
RTVSPropertyOp15
 70
     1
102
RTVSPropertyOp16
 70
     1
102
RTVSPropertyOp17
 70
     1
102
RTVSPropertyOp18
 70
     1
102
RTVSPropertyOp19
 70
     1
102
RTVSPropertyOp20
 70
     1
102
RTVSPropertyOp21
 70
     1
102
RTVSPropertyOp22
 70
     1
102
RTVSPropertyOp23
 70
     1
102
RTVSPropertyOp24
 70
     1
102
RTVSPropertyOp25
 70
     1
102
RTVSPropertyOp26
 70
     1
102
RTVSPropertyOp27
 70
     1
102
RTVSPropertyOp28
 70
     1
102
RTVSPropertyOp29
 70
     1
102
RTVSPropertyOp30
 70
     1
102
RTVSPropertyOp31
 70
     1
102
RTVSPropertyOp32
 70
     1
102
RTVSPropertyOp33
 70
     1
102
RTVSPropertyOp34
 70
     1
102
RTVSPropertyOp35
 70
     1
102
RTVSPropertyOp36
 70
     1
102
RTVSPropertyOp37
 70
     1
102
RTVSPropertyOp38
 70
     1
102
RTVSPropertyOp39
 70
     1
102
RTVSPropertyOp40
 70
     1
102
RTVSPropertyOp41
 70
     1
102
RTVSPropertyOp42
 70
     1
102
RTVSPropertyOp43
 70
     1
102
RTVSPropertyOp44
 70
     1
102
RTVSPropertyOp45
 70
     1
102
RTVSPropertyOp46
 70
     1
102
RTVSPropertyOp47
 70
     1
102
RTVSPropertyOp48
 70
     1
102
RTVSPropertyOp49
 70
     1
102
RTVSPropertyOp50
 70
     1
102
RTVSPropertyOp51
 70
     0
102
RTVSPropertyOp52
 70
     0
102
RTVSPropertyOp53
 70
     1
102
RTVSPropertyOp54
 70
     1
102
RTVSPropertyOp55
 70
     1
102
RTVSPropertyOp56
 70
     1
102
RTVSPropertyOp57
 70
     1
102
RTVSPropertyOp58
 70
     1
102
RTVSPropertyOp59
 70
     1
102
RTVSPropertyOp60
 70
     1
102
RTVSPropertyOp61
 70
     1
102
RTVSPropertyOp62
 70
     1
  0
XRECORD
  5
854B
102
{ACAD_REACTORS
330
854A
102
}
330
854A
100
AcDbXrecord
280
     1
102
RTVSPost2010Prop28
280
     0
102
RTVSPost2010PropOp28
 70
     1
102
RTVSPost2010Prop29
280
     1
102
RTVSPost2010PropOp29
 70
     1
102
RTVSPost2010Prop30
280
     1
102
RTVSPost2010PropOp30
 70
     1
102
RTVSPost2010Prop31
280
     0
102
RTVSPost2010PropOp31
 70
     1
102
RTVSPost2010Prop32
280
     0
102
RTVSPost2010PropOp32
 70
     1
102
RTVSPost2010Prop33
280
     0
102
RTVSPost2010PropOp33
 70
     1
102
RTVSPost2010Prop34
280
     0
102
RTVSPost2010PropOp34
 70
     1
102
RTVSPost2010Prop35
280
     0
102
RTVSPost2010PropOp35
 70
     1
102
RTVSPost2010Prop36
280
     0
102
RTVSPost2010PropOp36
 70
     1
102
RTVSPost2010Prop37
 90
       50
102
RTVSPost2010PropOp37
 70
     1
102
RTVSPost2010Prop38
140
0.0
102
RTVSPost2010PropOp38
 70
     1
102
RTVSPost2010Prop39
140
1.0
102
RTVSPost2010PropOp39
 70
     1
102
RTVSPost2010Prop40
 90
        0
102
RTVSPost2010PropOp40
 70
     1
102
RTVSPost2010Prop41ColorIndex
 90
       18
102
RTVSPost2010Prop41ColorRGB
 90
        0
102
RTVSPost2010PropOp41
 70
     1
102
RTVSPost2010Prop42
 90
       50
102
RTVSPost2010PropOp42
 70
     1
102
RTVSPost2010Prop43
 90
        3
102
RTVSPost2010PropOp43
 70
     1
102
RTVSPost2010Prop44ColorIndex
 90
        5
102
RTVSPost2010Prop44ColorRGB
 90
      255
102
RTVSPost2010PropOp44
 70
     1
102
RTVSPost2010Prop45
280
     0
102
RTVSPost2010PropOp45
 70
     1
102
RTVSPost2010Prop46
 90
       50
102
RTVSPost2010PropOp46
 70
     1
102
RTVSPost2010Prop47
 90
       50
102
RTVSPost2010PropOp47
 70
     1
102
RTVSPost2010Prop48
 90
       50
102
RTVSPost2010PropOp48
 70
     1
102
RTVSPost2010Prop49
280
     0
102
RTVSPost2010PropOp49
 70
     1
102
RTVSPost2010Prop50
 90
       50
102
RTVSPost2010PropOp50
 70
     1
102
RTVSPost2010Prop51ColorIndex
 90
      256
102
RTVSPost2010Prop51ColorRGB
 90
-16777216
102
RTVSPost2010PropOp51
 70
     0
102
RTVSPost2010Prop52
140
1.0
102
RTVSPost2010PropOp52
 70
     0
102
RTVSPost2010Prop53
 90
        2
102
RTVSPost2010PropOp53
 70
     1
102
RTVSPost2010Prop54
  1
strokes_ogs.tif
102
RTVSPost2010PropOp54
 70
     1
102
RTVSPost2010Prop55
280
     0
102
RTVSPost2010PropOp55
 70
     1
102
RTVSPost2010Prop56
140
1.0
102
RTVSPost2010PropOp56
 70
     1
102
RTVSPost2010Prop57
140
1.0
102
RTVSPost2010PropOp57
 70
     1
102
RTVSPropertyOp0
 70
     1
102
RTVSPropertyOp1
 70
     1
102
RTVSPropertyOp2
 70
     1
102
RTVSPropertyOp3
 70
     1
102
RTVSPropertyOp4
 70
     1
102
RTVSPropertyOp5
 70
     1
102
RTVSPropertyOp6
 70
     1
102
RTVSPropertyOp7
 70
     1
102
RTVSPropertyOp8
 70
     1
102
RTVSPropertyOp9
 70
     1
102
RTVSPropertyOp10
 70
     1
102
RTVSPropertyOp11
 70
     1
102
RTVSPropertyOp12
 70
     1
102
RTVSPropertyOp13
 70
     1
102
RTVSPropertyOp14
 70
     1
102
RTVSPropertyOp15
 70
     1
102
RTVSPropertyOp16
 70
     1
102
RTVSPropertyOp17
 70
     1
102
RTVSPropertyOp18
 70
     1
102
RTVSPropertyOp19
 70
     1
102
RTVSPropertyOp20
 70
     1
102
RTVSPropertyOp21
 70
     1
102
RTVSPropertyOp22
 70
     1
102
RTVSPropertyOp23
 70
     1
102
RTVSPropertyOp24
 70
     1
102
RTVSPropertyOp25
 70
     1
102
RTVSPropertyOp26
 70
     1
102
RTVSPropertyOp27
 70
     1
102
RTVSPropertyOp28
 70
     1
102
RTVSPropertyOp29
 70
     1
102
RTVSPropertyOp30
 70
     1
102
RTVSPropertyOp31
 70
     1
102
RTVSPropertyOp32
 70
     1
102
RTVSPropertyOp33
 70
     1
102
RTVSPropertyOp34
 70
     1
102
RTVSPropertyOp35
 70
     1
102
RTVSPropertyOp36
 70
     1
102
RTVSPropertyOp37
 70
     1
102
RTVSPropertyOp38
 70
     1
102
RTVSPropertyOp39
 70
     1
102
RTVSPropertyOp40
 70
     1
102
RTVSPropertyOp41
 70
     1
102
RTVSPropertyOp42
 70
     1
102
RTVSPropertyOp43
 70
     1
102
RTVSPropertyOp44
 70
     1
102
RTVSPropertyOp45
 70
     1
102
RTVSPropertyOp46
 70
     1
102
RTVSPropertyOp47
 70
     1
102
RTVSPropertyOp48
 70
     1
102
RTVSPropertyOp49
 70
     1
102
RTVSPropertyOp50
 70
     1
102
RTVSPropertyOp51
 70
     0
102
RTVSPropertyOp52
 70
     0
102
RTVSPropertyOp53
 70
     1
102
RTVSPropertyOp54
 70
     1
102
RTVSPropertyOp55
 70
     1
102
RTVSPropertyOp56
 70
     1
102
RTVSPropertyOp57
 70
     1
102
RTVSPropertyOp58
 70
     1
102
RTVSPropertyOp59
 70
     1
102
RTVSPropertyOp60
 70
     1
102
RTVSPropertyOp61
 70
     1
102
RTVSPropertyOp62
 70
     1
  0
XRECORD
  5
8565
102
{ACAD_REACTORS
330
8564
102
}
330
8564
100
AcDbXrecord
280
     1
102
RTVSPost2010Prop28
280
     0
102
RTVSPost2010PropOp28
 70
     1
102
RTVSPost2010Prop29
280
     1
102
RTVSPost2010PropOp29
 70
     1
102
RTVSPost2010Prop30
280
     1
102
RTVSPost2010PropOp30
 70
     1
102
RTVSPost2010Prop31
280
     0
102
RTVSPost2010PropOp31
 70
     1
102
RTVSPost2010Prop32
280
     0
102
RTVSPost2010PropOp32
 70
     1
102
RTVSPost2010Prop33
280
     0
102
RTVSPost2010PropOp33
 70
     1
102
RTVSPost2010Prop34
280
     0
102
RTVSPost2010PropOp34
 70
     1
102
RTVSPost2010Prop35
280
     0
102
RTVSPost2010PropOp35
 70
     1
102
RTVSPost2010Prop36
280
     0
102
RTVSPost2010PropOp36
 70
     1
102
RTVSPost2010Prop37
 90
       50
102
RTVSPost2010PropOp37
 70
     0
102
RTVSPost2010Prop38
140
0.0
102
RTVSPost2010PropOp38
 70
     0
102
RTVSPost2010Prop39
140
1.0
102
RTVSPost2010PropOp39
 70
     0
102
RTVSPost2010Prop40
 90
        0
102
RTVSPost2010PropOp40
 70
     0
102
RTVSPost2010Prop41ColorIndex
 90
       18
102
RTVSPost2010Prop41ColorRGB
 90
        0
102
RTVSPost2010PropOp41
 70
     0
102
RTVSPost2010Prop42
 90
       50
102
RTVSPost2010PropOp42
 70
     0
102
RTVSPost2010Prop43
 90
        3
102
RTVSPost2010PropOp43
 70
     0
102
RTVSPost2010Prop44ColorIndex
 90
        5
102
RTVSPost2010Prop44ColorRGB
 90
      255
102
RTVSPost2010PropOp44
 70
     0
102
RTVSPost2010Prop45
280
     0
102
RTVSPost2010PropOp45
 70
     1
102
RTVSPost2010Prop46
 90
       50
102
RTVSPost2010PropOp46
 70
     0
102
RTVSPost2010Prop47
 90
       50
102
RTVSPost2010PropOp47
 70
     0
102
RTVSPost2010Prop48
 90
       50
102
RTVSPost2010PropOp48
 70
     0
102
RTVSPost2010Prop49
280
     0
102
RTVSPost2010PropOp49
 70
     1
102
RTVSPost2010Prop50
 90
       50
102
RTVSPost2010PropOp50
 70
     0
102
RTVSPost2010Prop51ColorIndex
 90
      256
102
RTVSPost2010Prop51ColorRGB
 90
-16777216
102
RTVSPost2010PropOp51
 70
     0
102
RTVSPost2010Prop52
140
1.0
102
RTVSPost2010PropOp52
 70
     0
102
RTVSPost2010Prop53
 90
        2
102
RTVSPost2010PropOp53
 70
     0
102
RTVSPost2010Prop54
  1
strokes_ogs.tif
102
RTVSPost2010PropOp54
 70
     0
102
RTVSPost2010Prop55
280
     0
102
RTVSPost2010PropOp55
 70
     1
102
RTVSPost2010Prop56
140
1.0
102
RTVSPost2010PropOp56
 70
     0
102
RTVSPost2010Prop57
140
1.0
102
RTVSPost2010PropOp57
 70
     0
102
RTVSPropertyOp0
 70
     0
102
RTVSPropertyOp1
 70
     0
102
RTVSPropertyOp2
 70
     0
102
RTVSPropertyOp3
 70
     0
102
RTVSPropertyOp4
 70
     0
102
RTVSPropertyOp5
 70
     0
102
RTVSPropertyOp6
 70
     0
102
RTVSPropertyOp7
 70
     0
102
RTVSPropertyOp8
 70
     0
102
RTVSPropertyOp9
 70
     0
102
RTVSPropertyOp10
 70
     0
102
RTVSPropertyOp11
 70
     0
102
RTVSPropertyOp12
 70
     0
102
RTVSPropertyOp13
 70
     0
102
RTVSPropertyOp14
 70
     2
102
RTVSPropertyOp15
 70
     0
102
RTVSPropertyOp16
 70
     0
102
RTVSPropertyOp17
 70
     0
102
RTVSPropertyOp18
 70
     0
102
RTVSPropertyOp19
 70
     0
102
RTVSPropertyOp20
 70
     0
102
RTVSPropertyOp21
 70
     0
102
RTVSPropertyOp22
 70
     0
102
RTVSPropertyOp23
 70
     0
102
RTVSPropertyOp24
 70
     0
102
RTVSPropertyOp25
 70
     0
102
RTVSPropertyOp26
 70
     0
102
RTVSPropertyOp27
 70
     0
102
RTVSPropertyOp28
 70
     1
102
RTVSPropertyOp29
 70
     1
102
RTVSPropertyOp30
 70
     1
102
RTVSPropertyOp31
 70
     1
102
RTVSPropertyOp32
 70
     1
102
RTVSPropertyOp33
 70
     1
102
RTVSPropertyOp34
 70
     1
102
RTVSPropertyOp35
 70
     1
102
RTVSPropertyOp36
 70
     1
102
RTVSPropertyOp37
 70
     0
102
RTVSPropertyOp38
 70
     0
102
RTVSPropertyOp39
 70
     0
102
RTVSPropertyOp40
 70
     0
102
RTVSPropertyOp41
 70
     0
102
RTVSPropertyOp42
 70
     0
102
RTVSPropertyOp43
 70
     0
102
RTVSPropertyOp44
 70
     0
102
RTVSPropertyOp45
 70
     1
102
RTVSPropertyOp46
 70
     0
102
RTVSPropertyOp47
 70
     0
102
RTVSPropertyOp48
 70
     0
102
RTVSPropertyOp49
 70
     1
102
RTVSPropertyOp50
 70
     0
102
RTVSPropertyOp51
 70
     0
102
RTVSPropertyOp52
 70
     0
102
RTVSPropertyOp53
 70
     0
102
RTVSPropertyOp54
 70
     0
102
RTVSPropertyOp55
 70
     1
102
RTVSPropertyOp56
 70
     0
102
RTVSPropertyOp57
 70
     0
102
RTVSPropertyOp58
 70
     0
102
RTVSPropertyOp59
 70
     0
102
RTVSPropertyOp60
 70
     0
102
RTVSPropertyOp61
 70
     0
102
RTVSPropertyOp62
 70
     0
  0
XRECORD
  5
8553
102
{ACAD_REACTORS
330
8552
102
}
330
8552
100
AcDbXrecord
280
     1
102
RTVSPost2010Prop28
280
     0
102
RTVSPost2010PropOp28
 70
     1
102
RTVSPost2010Prop29
280
     1
102
RTVSPost2010PropOp29
 70
     1
102
RTVSPost2010Prop30
280
     1
102
RTVSPost2010PropOp30
 70
     1
102
RTVSPost2010Prop31
280
     0
102
RTVSPost2010PropOp31
 70
     1
102
RTVSPost2010Prop32
280
     0
102
RTVSPost2010PropOp32
 70
     1
102
RTVSPost2010Prop33
280
     0
102
RTVSPost2010PropOp33
 70
     1
102
RTVSPost2010Prop34
280
     0
102
RTVSPost2010PropOp34
 70
     1
102
RTVSPost2010Prop35
280
     0
102
RTVSPost2010PropOp35
 70
     1
102
RTVSPost2010Prop36
280
     0
102
RTVSPost2010PropOp36
 70
     1
102
RTVSPost2010Prop37
 90
       50
102
RTVSPost2010PropOp37
 70
     1
102
RTVSPost2010Prop38
140
0.0
102
RTVSPost2010PropOp38
 70
     1
102
RTVSPost2010Prop39
140
1.0
102
RTVSPost2010PropOp39
 70
     1
102
RTVSPost2010Prop40
 90
        0
102
RTVSPost2010PropOp40
 70
     1
102
RTVSPost2010Prop41ColorIndex
 90
       18
102
RTVSPost2010Prop41ColorRGB
 90
        0
102
RTVSPost2010PropOp41
 70
     1
102
RTVSPost2010Prop42
 90
       50
102
RTVSPost2010PropOp42
 70
     1
102
RTVSPost2010Prop43
 90
        3
102
RTVSPost2010PropOp43
 70
     1
102
RTVSPost2010Prop44ColorIndex
 90
        5
102
RTVSPost2010Prop44ColorRGB
 90
      255
102
RTVSPost2010PropOp44
 70
     1
102
RTVSPost2010Prop45
280
     0
102
RTVSPost2010PropOp45
 70
     1
102
RTVSPost2010Prop46
 90
       50
102
RTVSPost2010PropOp46
 70
     1
102
RTVSPost2010Prop47
 90
       50
102
RTVSPost2010PropOp47
 70
     1
102
RTVSPost2010Prop48
 90
       50
102
RTVSPost2010PropOp48
 70
     1
102
RTVSPost2010Prop49
280
     0
102
RTVSPost2010PropOp49
 70
     1
102
RTVSPost2010Prop50
 90
       50
102
RTVSPost2010PropOp50
 70
     1
102
RTVSPost2010Prop51ColorIndex
 90
      256
102
RTVSPost2010Prop51ColorRGB
 90
-16777216
102
RTVSPost2010PropOp51
 70
     0
102
RTVSPost2010Prop52
140
1.0
102
RTVSPost2010PropOp52
 70
     0
102
RTVSPost2010Prop53
 90
        2
102
RTVSPost2010PropOp53
 70
     1
102
RTVSPost2010Prop54
  1
strokes_ogs.tif
102
RTVSPost2010PropOp54
 70
     1
102
RTVSPost2010Prop55
280
     0
102
RTVSPost2010PropOp55
 70
     1
102
RTVSPost2010Prop56
140
1.0
102
RTVSPost2010PropOp56
 70
     1
102
RTVSPost2010Prop57
140
1.0
102
RTVSPost2010PropOp57
 70
     1
102
RTVSPropertyOp0
 70
     1
102
RTVSPropertyOp1
 70
     1
102
RTVSPropertyOp2
 70
     1
102
RTVSPropertyOp3
 70
     1
102
RTVSPropertyOp4
 70
     1
102
RTVSPropertyOp5
 70
     1
102
RTVSPropertyOp6
 70
     1
102
RTVSPropertyOp7
 70
     1
102
RTVSPropertyOp8
 70
     1
102
RTVSPropertyOp9
 70
     1
102
RTVSPropertyOp10
 70
     1
102
RTVSPropertyOp11
 70
     1
102
RTVSPropertyOp12
 70
     1
102
RTVSPropertyOp13
 70
     1
102
RTVSPropertyOp14
 70
     1
102
RTVSPropertyOp15
 70
     1
102
RTVSPropertyOp16
 70
     1
102
RTVSPropertyOp17
 70
     1
102
RTVSPropertyOp18
 70
     1
102
RTVSPropertyOp19
 70
     1
102
RTVSPropertyOp20
 70
     1
102
RTVSPropertyOp21
 70
     1
102
RTVSPropertyOp22
 70
     1
102
RTVSPropertyOp23
 70
     1
102
RTVSPropertyOp24
 70
     1
102
RTVSPropertyOp25
 70
     1
102
RTVSPropertyOp26
 70
     1
102
RTVSPropertyOp27
 70
     1
102
RTVSPropertyOp28
 70
     1
102
RTVSPropertyOp29
 70
     1
102
RTVSPropertyOp30
 70
     1
102
RTVSPropertyOp31
 70
     1
102
RTVSPropertyOp32
 70
     1
102
RTVSPropertyOp33
 70
     1
102
RTVSPropertyOp34
 70
     1
102
RTVSPropertyOp35
 70
     1
102
RTVSPropertyOp36
 70
     1
102
RTVSPropertyOp37
 70
     1
102
RTVSPropertyOp38
 70
     1
102
RTVSPropertyOp39
 70
     1
102
RTVSPropertyOp40
 70
     1
102
RTVSPropertyOp41
 70
     1
102
RTVSPropertyOp42
 70
     1
102
RTVSPropertyOp43
 70
     1
102
RTVSPropertyOp44
 70
     1
102
RTVSPropertyOp45
 70
     1
102
RTVSPropertyOp46
 70
     1
102
RTVSPropertyOp47
 70
     1
102
RTVSPropertyOp48
 70
     1
102
RTVSPropertyOp49
 70
     1
102
RTVSPropertyOp50
 70
     1
102
RTVSPropertyOp51
 70
     0
102
RTVSPropertyOp52
 70
     0
102
RTVSPropertyOp53
 70
     1
102
RTVSPropertyOp54
 70
     1
102
RTVSPropertyOp55
 70
     1
102
RTVSPropertyOp56
 70
     1
102
RTVSPropertyOp57
 70
     1
102
RTVSPropertyOp58
 70
     1
102
RTVSPropertyOp59
 70
     1
102
RTVSPropertyOp60
 70
     1
102
RTVSPropertyOp61
 70
     1
102
RTVSPropertyOp62
 70
     1
  0
XRECORD
  5
8537
102
{ACAD_REACTORS
330
8536
102
}
330
8536
100
AcDbXrecord
280
     1
102
RTVSPost2010Prop28
280
     0
102
RTVSPost2010PropOp28
 70
     1
102
RTVSPost2010Prop29
280
     1
102
RTVSPost2010PropOp29
 70
     1
102
RTVSPost2010Prop30
280
     1
102
RTVSPost2010PropOp30
 70
     1
102
RTVSPost2010Prop31
280
     0
102
RTVSPost2010PropOp31
 70
     1
102
RTVSPost2010Prop32
280
     0
102
RTVSPost2010PropOp32
 70
     1
102
RTVSPost2010Prop33
280
     0
102
RTVSPost2010PropOp33
 70
     1
102
RTVSPost2010Prop34
280
     0
102
RTVSPost2010PropOp34
 70
     1
102
RTVSPost2010Prop35
280
     0
102
RTVSPost2010PropOp35
 70
     1
102
RTVSPost2010Prop36
280
     0
102
RTVSPost2010PropOp36
 70
     1
102
RTVSPost2010Prop37
 90
       50
102
RTVSPost2010PropOp37
 70
     1
102
RTVSPost2010Prop38
140
0.0
102
RTVSPost2010PropOp38
 70
     1
102
RTVSPost2010Prop39
140
1.0
102
RTVSPost2010PropOp39
 70
     1
102
RTVSPost2010Prop40
 90
        0
102
RTVSPost2010PropOp40
 70
     1
102
RTVSPost2010Prop41ColorIndex
 90
       18
102
RTVSPost2010Prop41ColorRGB
 90
        0
102
RTVSPost2010PropOp41
 70
     1
102
RTVSPost2010Prop42
 90
       50
102
RTVSPost2010PropOp42
 70
     1
102
RTVSPost2010Prop43
 90
        3
102
RTVSPost2010PropOp43
 70
     1
102
RTVSPost2010Prop44ColorIndex
 90
        5
102
RTVSPost2010Prop44ColorRGB
 90
      255
102
RTVSPost2010PropOp44
 70
     1
102
RTVSPost2010Prop45
280
     0
102
RTVSPost2010PropOp45
 70
     1
102
RTVSPost2010Prop46
 90
       50
102
RTVSPost2010PropOp46
 70
     1
102
RTVSPost2010Prop47
 90
       50
102
RTVSPost2010PropOp47
 70
     1
102
RTVSPost2010Prop48
 90
       50
102
RTVSPost2010PropOp48
 70
     1
102
RTVSPost2010Prop49
280
     0
102
RTVSPost2010PropOp49
 70
     1
102
RTVSPost2010Prop50
 90
       50
102
RTVSPost2010PropOp50
 70
     1
102
RTVSPost2010Prop51ColorIndex
 90
      256
102
RTVSPost2010Prop51ColorRGB
 90
-16777216
102
RTVSPost2010PropOp51
 70
     0
102
RTVSPost2010Prop52
140
1.0
102
RTVSPost2010PropOp52
 70
     0
102
RTVSPost2010Prop53
 90
        2
102
RTVSPost2010PropOp53
 70
     1
102
RTVSPost2010Prop54
  1
strokes_ogs.tif
102
RTVSPost2010PropOp54
 70
     1
102
RTVSPost2010Prop55
280
     0
102
RTVSPost2010PropOp55
 70
     1
102
RTVSPost2010Prop56
140
1.0
102
RTVSPost2010PropOp56
 70
     1
102
RTVSPost2010Prop57
140
1.0
102
RTVSPost2010PropOp57
 70
     1
102
RTVSPropertyOp0
 70
     1
102
RTVSPropertyOp1
 70
     1
102
RTVSPropertyOp2
 70
     1
102
RTVSPropertyOp3
 70
     1
102
RTVSPropertyOp4
 70
     1
102
RTVSPropertyOp5
 70
     1
102
RTVSPropertyOp6
 70
     1
102
RTVSPropertyOp7
 70
     1
102
RTVSPropertyOp8
 70
     1
102
RTVSPropertyOp9
 70
     1
102
RTVSPropertyOp10
 70
     1
102
RTVSPropertyOp11
 70
     1
102
RTVSPropertyOp12
 70
     1
102
RTVSPropertyOp13
 70
     1
102
RTVSPropertyOp14
 70
     1
102
RTVSPropertyOp15
 70
     1
102
RTVSPropertyOp16
 70
     1
102
RTVSPropertyOp17
 70
     1
102
RTVSPropertyOp18
 70
     1
102
RTVSPropertyOp19
 70
     1
102
RTVSPropertyOp20
 70
     1
102
RTVSPropertyOp21
 70
     1
102
RTVSPropertyOp22
 70
     1
102
RTVSPropertyOp23
 70
     1
102
RTVSPropertyOp24
 70
     1
102
RTVSPropertyOp25
 70
     1
102
RTVSPropertyOp26
 70
     1
102
RTVSPropertyOp27
 70
     1
102
RTVSPropertyOp28
 70
     1
102
RTVSPropertyOp29
 70
     1
102
RTVSPropertyOp30
 70
     1
102
RTVSPropertyOp31
 70
     1
102
RTVSPropertyOp32
 70
     1
102
RTVSPropertyOp33
 70
     1
102
RTVSPropertyOp34
 70
     1
102
RTVSPropertyOp35
 70
     1
102
RTVSPropertyOp36
 70
     1
102
RTVSPropertyOp37
 70
     1
102
RTVSPropertyOp38
 70
     1
102
RTVSPropertyOp39
 70
     1
102
RTVSPropertyOp40
 70
     1
102
RTVSPropertyOp41
 70
     1
102
RTVSPropertyOp42
 70
     1
102
RTVSPropertyOp43
 70
     1
102
RTVSPropertyOp44
 70
     1
102
RTVSPropertyOp45
 70
     1
102
RTVSPropertyOp46
 70
     1
102
RTVSPropertyOp47
 70
     1
102
RTVSPropertyOp48
 70
     1
102
RTVSPropertyOp49
 70
     1
102
RTVSPropertyOp50
 70
     1
102
RTVSPropertyOp51
 70
     0
102
RTVSPropertyOp52
 70
     0
102
RTVSPropertyOp53
 70
     1
102
RTVSPropertyOp54
 70
     1
102
RTVSPropertyOp55
 70
     1
102
RTVSPropertyOp56
 70
     1
102
RTVSPropertyOp57
 70
     1
102
RTVSPropertyOp58
 70
     1
102
RTVSPropertyOp59
 70
     1
102
RTVSPropertyOp60
 70
     1
102
RTVSPropertyOp61
 70
     1
102
RTVSPropertyOp62
 70
     1
  0
XRECORD
  5
8539
102
{ACAD_REACTORS
330
8538
102
}
330
8538
100
AcDbXrecord
280
     1
102
RTVSPost2010Prop28
280
     0
102
RTVSPost2010PropOp28
 70
     1
102
RTVSPost2010Prop29
280
     1
102
RTVSPost2010PropOp29
 70
     1
102
RTVSPost2010Prop30
280
     1
102
RTVSPost2010PropOp30
 70
     1
102
RTVSPost2010Prop31
280
     0
102
RTVSPost2010PropOp31
 70
     1
102
RTVSPost2010Prop32
280
     0
102
RTVSPost2010PropOp32
 70
     1
102
RTVSPost2010Prop33
280
     0
102
RTVSPost2010PropOp33
 70
     1
102
RTVSPost2010Prop34
280
     0
102
RTVSPost2010PropOp34
 70
     1
102
RTVSPost2010Prop35
280
     0
102
RTVSPost2010PropOp35
 70
     1
102
RTVSPost2010Prop36
280
     0
102
RTVSPost2010PropOp36
 70
     1
102
RTVSPost2010Prop37
 90
       50
102
RTVSPost2010PropOp37
 70
     1
102
RTVSPost2010Prop38
140
0.0
102
RTVSPost2010PropOp38
 70
     1
102
RTVSPost2010Prop39
140
1.0
102
RTVSPost2010PropOp39
 70
     1
102
RTVSPost2010Prop40
 90
        0
102
RTVSPost2010PropOp40
 70
     1
102
RTVSPost2010Prop41ColorIndex
 90
       18
102
RTVSPost2010Prop41ColorRGB
 90
        0
102
RTVSPost2010PropOp41
 70
     1
102
RTVSPost2010Prop42
 90
       50
102
RTVSPost2010PropOp42
 70
     1
102
RTVSPost2010Prop43
 90
        3
102
RTVSPost2010PropOp43
 70
     1
102
RTVSPost2010Prop44ColorIndex
 90
        5
102
RTVSPost2010Prop44ColorRGB
 90
      255
102
RTVSPost2010PropOp44
 70
     1
102
RTVSPost2010Prop45
280
     0
102
RTVSPost2010PropOp45
 70
     1
102
RTVSPost2010Prop46
 90
       50
102
RTVSPost2010PropOp46
 70
     1
102
RTVSPost2010Prop47
 90
       50
102
RTVSPost2010PropOp47
 70
     1
102
RTVSPost2010Prop48
 90
       50
102
RTVSPost2010PropOp48
 70
     1
102
RTVSPost2010Prop49
280
     0
102
RTVSPost2010PropOp49
 70
     1
102
RTVSPost2010Prop50
 90
       50
102
RTVSPost2010PropOp50
 70
     1
102
RTVSPost2010Prop51ColorIndex
 90
      256
102
RTVSPost2010Prop51ColorRGB
 90
-16777216
102
RTVSPost2010PropOp51
 70
     0
102
RTVSPost2010Prop52
140
1.0
102
RTVSPost2010PropOp52
 70
     0
102
RTVSPost2010Prop53
 90
        2
102
RTVSPost2010PropOp53
 70
     1
102
RTVSPost2010Prop54
  1
strokes_ogs.tif
102
RTVSPost2010PropOp54
 70
     1
102
RTVSPost2010Prop55
280
     0
102
RTVSPost2010PropOp55
 70
     1
102
RTVSPost2010Prop56
140
1.0
102
RTVSPost2010PropOp56
 70
     1
102
RTVSPost2010Prop57
140
1.0
102
RTVSPost2010PropOp57
 70
     1
102
RTVSPropertyOp0
 70
     1
102
RTVSPropertyOp1
 70
     1
102
RTVSPropertyOp2
 70
     1
102
RTVSPropertyOp3
 70
     1
102
RTVSPropertyOp4
 70
     1
102
RTVSPropertyOp5
 70
     1
102
RTVSPropertyOp6
 70
     1
102
RTVSPropertyOp7
 70
     1
102
RTVSPropertyOp8
 70
     1
102
RTVSPropertyOp9
 70
     1
102
RTVSPropertyOp10
 70
     1
102
RTVSPropertyOp11
 70
     1
102
RTVSPropertyOp12
 70
     1
102
RTVSPropertyOp13
 70
     1
102
RTVSPropertyOp14
 70
     1
102
RTVSPropertyOp15
 70
     1
102
RTVSPropertyOp16
 70
     1
102
RTVSPropertyOp17
 70
     1
102
RTVSPropertyOp18
 70
     1
102
RTVSPropertyOp19
 70
     1
102
RTVSPropertyOp20
 70
     1
102
RTVSPropertyOp21
 70
     1
102
RTVSPropertyOp22
 70
     1
102
RTVSPropertyOp23
 70
     1
102
RTVSPropertyOp24
 70
     1
102
RTVSPropertyOp25
 70
     1
102
RTVSPropertyOp26
 70
     1
102
RTVSPropertyOp27
 70
     1
102
RTVSPropertyOp28
 70
     1
102
RTVSPropertyOp29
 70
     1
102
RTVSPropertyOp30
 70
     1
102
RTVSPropertyOp31
 70
     1
102
RTVSPropertyOp32
 70
     1
102
RTVSPropertyOp33
 70
     1
102
RTVSPropertyOp34
 70
     1
102
RTVSPropertyOp35
 70
     1
102
RTVSPropertyOp36
 70
     1
102
RTVSPropertyOp37
 70
     1
102
RTVSPropertyOp38
 70
     1
102
RTVSPropertyOp39
 70
     1
102
RTVSPropertyOp40
 70
     1
102
RTVSPropertyOp41
 70
     1
102
RTVSPropertyOp42
 70
     1
102
RTVSPropertyOp43
 70
     1
102
RTVSPropertyOp44
 70
     1
102
RTVSPropertyOp45
 70
     1
102
RTVSPropertyOp46
 70
     1
102
RTVSPropertyOp47
 70
     1
102
RTVSPropertyOp48
 70
     1
102
RTVSPropertyOp49
 70
     1
102
RTVSPropertyOp50
 70
     1
102
RTVSPropertyOp51
 70
     0
102
RTVSPropertyOp52
 70
     0
102
RTVSPropertyOp53
 70
     1
102
RTVSPropertyOp54
 70
     1
102
RTVSPropertyOp55
 70
     1
102
RTVSPropertyOp56
 70
     1
102
RTVSPropertyOp57
 70
     1
102
RTVSPropertyOp58
 70
     1
102
RTVSPropertyOp59
 70
     1
102
RTVSPropertyOp60
 70
     1
102
RTVSPropertyOp61
 70
     1
102
RTVSPropertyOp62
 70
     1
  0
XRECORD
  5
853B
102
{ACAD_REACTORS
330
853A
102
}
330
853A
100
AcDbXrecord
280
     1
102
RTVSPost2010Prop28
280
     0
102
RTVSPost2010PropOp28
 70
     1
102
RTVSPost2010Prop29
280
     1
102
RTVSPost2010PropOp29
 70
     1
102
RTVSPost2010Prop30
280
     1
102
RTVSPost2010PropOp30
 70
     1
102
RTVSPost2010Prop31
280
     0
102
RTVSPost2010PropOp31
 70
     1
102
RTVSPost2010Prop32
280
     0
102
RTVSPost2010PropOp32
 70
     1
102
RTVSPost2010Prop33
280
     0
102
RTVSPost2010PropOp33
 70
     1
102
RTVSPost2010Prop34
280
     0
102
RTVSPost2010PropOp34
 70
     1
102
RTVSPost2010Prop35
280
     0
102
RTVSPost2010PropOp35
 70
     1
102
RTVSPost2010Prop36
280
     0
102
RTVSPost2010PropOp36
 70
     1
102
RTVSPost2010Prop37
 90
       50
102
RTVSPost2010PropOp37
 70
     1
102
RTVSPost2010Prop38
140
0.0
102
RTVSPost2010PropOp38
 70
     1
102
RTVSPost2010Prop39
140
1.0
102
RTVSPost2010PropOp39
 70
     1
102
RTVSPost2010Prop40
 90
        0
102
RTVSPost2010PropOp40
 70
     1
102
RTVSPost2010Prop41ColorIndex
 90
       18
102
RTVSPost2010Prop41ColorRGB
 90
        0
102
RTVSPost2010PropOp41
 70
     1
102
RTVSPost2010Prop42
 90
       50
102
RTVSPost2010PropOp42
 70
     1
102
RTVSPost2010Prop43
 90
        3
102
RTVSPost2010PropOp43
 70
     1
102
RTVSPost2010Prop44ColorIndex
 90
        5
102
RTVSPost2010Prop44ColorRGB
 90
      255
102
RTVSPost2010PropOp44
 70
     1
102
RTVSPost2010Prop45
280
     0
102
RTVSPost2010PropOp45
 70
     1
102
RTVSPost2010Prop46
 90
       50
102
RTVSPost2010PropOp46
 70
     1
102
RTVSPost2010Prop47
 90
       50
102
RTVSPost2010PropOp47
 70
     1
102
RTVSPost2010Prop48
 90
       50
102
RTVSPost2010PropOp48
 70
     1
102
RTVSPost2010Prop49
280
     0
102
RTVSPost2010PropOp49
 70
     1
102
RTVSPost2010Prop50
 90
       50
102
RTVSPost2010PropOp50
 70
     1
102
RTVSPost2010Prop51ColorIndex
 90
      256
102
RTVSPost2010Prop51ColorRGB
 90
-16777216
102
RTVSPost2010PropOp51
 70
     0
102
RTVSPost2010Prop52
140
1.0
102
RTVSPost2010PropOp52
 70
     0
102
RTVSPost2010Prop53
 90
        2
102
RTVSPost2010PropOp53
 70
     1
102
RTVSPost2010Prop54
  1
strokes_ogs.tif
102
RTVSPost2010PropOp54
 70
     1
102
RTVSPost2010Prop55
280
     0
102
RTVSPost2010PropOp55
 70
     1
102
RTVSPost2010Prop56
140
1.0
102
RTVSPost2010PropOp56
 70
     1
102
RTVSPost2010Prop57
140
1.0
102
RTVSPost2010PropOp57
 70
     1
102
RTVSPropertyOp0
 70
     1
102
RTVSPropertyOp1
 70
     1
102
RTVSPropertyOp2
 70
     1
102
RTVSPropertyOp3
 70
     1
102
RTVSPropertyOp4
 70
     1
102
RTVSPropertyOp5
 70
     1
102
RTVSPropertyOp6
 70
     1
102
RTVSPropertyOp7
 70
     1
102
RTVSPropertyOp8
 70
     1
102
RTVSPropertyOp9
 70
     1
102
RTVSPropertyOp10
 70
     1
102
RTVSPropertyOp11
 70
     1
102
RTVSPropertyOp12
 70
     1
102
RTVSPropertyOp13
 70
     1
102
RTVSPropertyOp14
 70
     1
102
RTVSPropertyOp15
 70
     1
102
RTVSPropertyOp16
 70
     1
102
RTVSPropertyOp17
 70
     1
102
RTVSPropertyOp18
 70
     1
102
RTVSPropertyOp19
 70
     1
102
RTVSPropertyOp20
 70
     1
102
RTVSPropertyOp21
 70
     1
102
RTVSPropertyOp22
 70
     1
102
RTVSPropertyOp23
 70
     1
102
RTVSPropertyOp24
 70
     1
102
RTVSPropertyOp25
 70
     1
102
RTVSPropertyOp26
 70
     1
102
RTVSPropertyOp27
 70
     1
102
RTVSPropertyOp28
 70
     1
102
RTVSPropertyOp29
 70
     1
102
RTVSPropertyOp30
 70
     1
102
RTVSPropertyOp31
 70
     1
102
RTVSPropertyOp32
 70
     1
102
RTVSPropertyOp33
 70
     1
102
RTVSPropertyOp34
 70
     1
102
RTVSPropertyOp35
 70
     1
102
RTVSPropertyOp36
 70
     1
102
RTVSPropertyOp37
 70
     1
102
RTVSPropertyOp38
 70
     1
102
RTVSPropertyOp39
 70
     1
102
RTVSPropertyOp40
 70
     1
102
RTVSPropertyOp41
 70
     1
102
RTVSPropertyOp42
 70
     1
102
RTVSPropertyOp43
 70
     1
102
RTVSPropertyOp44
 70
     1
102
RTVSPropertyOp45
 70
     1
102
RTVSPropertyOp46
 70
     1
102
RTVSPropertyOp47
 70
     1
102
RTVSPropertyOp48
 70
     1
102
RTVSPropertyOp49
 70
     1
102
RTVSPropertyOp50
 70
     1
102
RTVSPropertyOp51
 70
     0
102
RTVSPropertyOp52
 70
     0
102
RTVSPropertyOp53
 70
     1
102
RTVSPropertyOp54
 70
     1
102
RTVSPropertyOp55
 70
     1
102
RTVSPropertyOp56
 70
     1
102
RTVSPropertyOp57
 70
     1
102
RTVSPropertyOp58
 70
     1
102
RTVSPropertyOp59
 70
     1
102
RTVSPropertyOp60
 70
     1
102
RTVSPropertyOp61
 70
     1
102
RTVSPropertyOp62
 70
     1
  0
XRECORD
  5
853D
102
{ACAD_REACTORS
330
853C
102
}
330
853C
100
AcDbXrecord
280
     1
102
RTVSPost2010Prop28
280
     0
102
RTVSPost2010PropOp28
 70
     1
102
RTVSPost2010Prop29
280
     1
102
RTVSPost2010PropOp29
 70
     1
102
RTVSPost2010Prop30
280
     1
102
RTVSPost2010PropOp30
 70
     1
102
RTVSPost2010Prop31
280
     0
102
RTVSPost2010PropOp31
 70
     1
102
RTVSPost2010Prop32
280
     0
102
RTVSPost2010PropOp32
 70
     1
102
RTVSPost2010Prop33
280
     0
102
RTVSPost2010PropOp33
 70
     1
102
RTVSPost2010Prop34
280
     0
102
RTVSPost2010PropOp34
 70
     1
102
RTVSPost2010Prop35
280
     0
102
RTVSPost2010PropOp35
 70
     1
102
RTVSPost2010Prop36
280
     0
102
RTVSPost2010PropOp36
 70
     1
102
RTVSPost2010Prop37
 90
       50
102
RTVSPost2010PropOp37
 70
     1
102
RTVSPost2010Prop38
140
0.0
102
RTVSPost2010PropOp38
 70
     1
102
RTVSPost2010Prop39
140
1.0
102
RTVSPost2010PropOp39
 70
     1
102
RTVSPost2010Prop40
 90
        0
102
RTVSPost2010PropOp40
 70
     1
102
RTVSPost2010Prop41ColorIndex
 90
       18
102
RTVSPost2010Prop41ColorRGB
 90
        0
102
RTVSPost2010PropOp41
 70
     1
102
RTVSPost2010Prop42
 90
       50
102
RTVSPost2010PropOp42
 70
     1
102
RTVSPost2010Prop43
 90
        3
102
RTVSPost2010PropOp43
 70
     1
102
RTVSPost2010Prop44ColorIndex
 90
        5
102
RTVSPost2010Prop44ColorRGB
 90
      255
102
RTVSPost2010PropOp44
 70
     1
102
RTVSPost2010Prop45
280
     0
102
RTVSPost2010PropOp45
 70
     1
102
RTVSPost2010Prop46
 90
       50
102
RTVSPost2010PropOp46
 70
     1
102
RTVSPost2010Prop47
 90
       50
102
RTVSPost2010PropOp47
 70
     1
102
RTVSPost2010Prop48
 90
       50
102
RTVSPost2010PropOp48
 70
     1
102
RTVSPost2010Prop49
280
     0
102
RTVSPost2010PropOp49
 70
     1
102
RTVSPost2010Prop50
 90
       50
102
RTVSPost2010PropOp50
 70
     1
102
RTVSPost2010Prop51ColorIndex
 90
      256
102
RTVSPost2010Prop51ColorRGB
 90
-16777216
102
RTVSPost2010PropOp51
 70
     0
102
RTVSPost2010Prop52
140
1.0
102
RTVSPost2010PropOp52
 70
     0
102
RTVSPost2010Prop53
 90
        2
102
RTVSPost2010PropOp53
 70
     1
102
RTVSPost2010Prop54
  1
strokes_ogs.tif
102
RTVSPost2010PropOp54
 70
     1
102
RTVSPost2010Prop55
280
     0
102
RTVSPost2010PropOp55
 70
     1
102
RTVSPost2010Prop56
140
1.0
102
RTVSPost2010PropOp56
 70
     1
102
RTVSPost2010Prop57
140
1.0
102
RTVSPost2010PropOp57
 70
     1
102
RTVSPropertyOp0
 70
     1
102
RTVSPropertyOp1
 70
     1
102
RTVSPropertyOp2
 70
     1
102
RTVSPropertyOp3
 70
     1
102
RTVSPropertyOp4
 70
     1
102
RTVSPropertyOp5
 70
     1
102
RTVSPropertyOp6
 70
     1
102
RTVSPropertyOp7
 70
     1
102
RTVSPropertyOp8
 70
     1
102
RTVSPropertyOp9
 70
     1
102
RTVSPropertyOp10
 70
     1
102
RTVSPropertyOp11
 70
     1
102
RTVSPropertyOp12
 70
     1
102
RTVSPropertyOp13
 70
     1
102
RTVSPropertyOp14
 70
     1
102
RTVSPropertyOp15
 70
     1
102
RTVSPropertyOp16
 70
     1
102
RTVSPropertyOp17
 70
     1
102
RTVSPropertyOp18
 70
     1
102
RTVSPropertyOp19
 70
     1
102
RTVSPropertyOp20
 70
     1
102
RTVSPropertyOp21
 70
     1
102
RTVSPropertyOp22
 70
     1
102
RTVSPropertyOp23
 70
     1
102
RTVSPropertyOp24
 70
     1
102
RTVSPropertyOp25
 70
     1
102
RTVSPropertyOp26
 70
     1
102
RTVSPropertyOp27
 70
     1
102
RTVSPropertyOp28
 70
     1
102
RTVSPropertyOp29
 70
     1
102
RTVSPropertyOp30
 70
     1
102
RTVSPropertyOp31
 70
     1
102
RTVSPropertyOp32
 70
     1
102
RTVSPropertyOp33
 70
     1
102
RTVSPropertyOp34
 70
     1
102
RTVSPropertyOp35
 70
     1
102
RTVSPropertyOp36
 70
     1
102
RTVSPropertyOp37
 70
     1
102
RTVSPropertyOp38
 70
     1
102
RTVSPropertyOp39
 70
     1
102
RTVSPropertyOp40
 70
     1
102
RTVSPropertyOp41
 70
     1
102
RTVSPropertyOp42
 70
     1
102
RTVSPropertyOp43
 70
     1
102
RTVSPropertyOp44
 70
     1
102
RTVSPropertyOp45
 70
     1
102
RTVSPropertyOp46
 70
     1
102
RTVSPropertyOp47
 70
     1
102
RTVSPropertyOp48
 70
     1
102
RTVSPropertyOp49
 70
     1
102
RTVSPropertyOp50
 70
     1
102
RTVSPropertyOp51
 70
     0
102
RTVSPropertyOp52
 70
     0
102
RTVSPropertyOp53
 70
     1
102
RTVSPropertyOp54
 70
     1
102
RTVSPropertyOp55
 70
     1
102
RTVSPropertyOp56
 70
     1
102
RTVSPropertyOp57
 70
     1
102
RTVSPropertyOp58
 70
     1
102
RTVSPropertyOp59
 70
     1
102
RTVSPropertyOp60
 70
     1
102
RTVSPropertyOp61
 70
     1
102
RTVSPropertyOp62
 70
     1
  0
XRECORD
  5
8545
102
{ACAD_REACTORS
330
8544
102
}
330
8544
100
AcDbXrecord
280
     1
102
RTVSPost2010Prop28
280
     0
102
RTVSPost2010PropOp28
 70
     1
102
RTVSPost2010Prop29
280
     1
102
RTVSPost2010PropOp29
 70
     1
102
RTVSPost2010Prop30
280
     1
102
RTVSPost2010PropOp30
 70
     1
102
RTVSPost2010Prop31
280
     0
102
RTVSPost2010PropOp31
 70
     1
102
RTVSPost2010Prop32
280
     0
102
RTVSPost2010PropOp32
 70
     1
102
RTVSPost2010Prop33
280
     0
102
RTVSPost2010PropOp33
 70
     1
102
RTVSPost2010Prop34
280
     0
102
RTVSPost2010PropOp34
 70
     1
102
RTVSPost2010Prop35
280
     0
102
RTVSPost2010PropOp35
 70
     1
102
RTVSPost2010Prop36
280
     0
102
RTVSPost2010PropOp36
 70
     1
102
RTVSPost2010Prop37
 90
       50
102
RTVSPost2010PropOp37
 70
     1
102
RTVSPost2010Prop38
140
0.0
102
RTVSPost2010PropOp38
 70
     1
102
RTVSPost2010Prop39
140
1.0
102
RTVSPost2010PropOp39
 70
     1
102
RTVSPost2010Prop40
 90
        0
102
RTVSPost2010PropOp40
 70
     1
102
RTVSPost2010Prop41ColorIndex
 90
       18
102
RTVSPost2010Prop41ColorRGB
 90
        0
102
RTVSPost2010PropOp41
 70
     1
102
RTVSPost2010Prop42
 90
       50
102
RTVSPost2010PropOp42
 70
     1
102
RTVSPost2010Prop43
 90
        3
102
RTVSPost2010PropOp43
 70
     1
102
RTVSPost2010Prop44ColorIndex
 90
        5
102
RTVSPost2010Prop44ColorRGB
 90
      255
102
RTVSPost2010PropOp44
 70
     1
102
RTVSPost2010Prop45
280
     0
102
RTVSPost2010PropOp45
 70
     1
102
RTVSPost2010Prop46
 90
       50
102
RTVSPost2010PropOp46
 70
     1
102
RTVSPost2010Prop47
 90
       50
102
RTVSPost2010PropOp47
 70
     1
102
RTVSPost2010Prop48
 90
       50
102
RTVSPost2010PropOp48
 70
     1
102
RTVSPost2010Prop49
280
     0
102
RTVSPost2010PropOp49
 70
     1
102
RTVSPost2010Prop50
 90
       50
102
RTVSPost2010PropOp50
 70
     1
102
RTVSPost2010Prop51ColorIndex
 90
      256
102
RTVSPost2010Prop51ColorRGB
 90
-16777216
102
RTVSPost2010PropOp51
 70
     0
102
RTVSPost2010Prop52
140
1.0
102
RTVSPost2010PropOp52
 70
     0
102
RTVSPost2010Prop53
 90
        2
102
RTVSPost2010PropOp53
 70
     1
102
RTVSPost2010Prop54
  1
strokes_ogs.tif
102
RTVSPost2010PropOp54
 70
     1
102
RTVSPost2010Prop55
280
     0
102
RTVSPost2010PropOp55
 70
     1
102
RTVSPost2010Prop56
140
1.0
102
RTVSPost2010PropOp56
 70
     1
102
RTVSPost2010Prop57
140
1.0
102
RTVSPost2010PropOp57
 70
     1
102
RTVSPropertyOp0
 70
     1
102
RTVSPropertyOp1
 70
     1
102
RTVSPropertyOp2
 70
     1
102
RTVSPropertyOp3
 70
     1
102
RTVSPropertyOp4
 70
     1
102
RTVSPropertyOp5
 70
     1
102
RTVSPropertyOp6
 70
     1
102
RTVSPropertyOp7
 70
     1
102
RTVSPropertyOp8
 70
     1
102
RTVSPropertyOp9
 70
     1
102
RTVSPropertyOp10
 70
     1
102
RTVSPropertyOp11
 70
     1
102
RTVSPropertyOp12
 70
     1
102
RTVSPropertyOp13
 70
     1
102
RTVSPropertyOp14
 70
     1
102
RTVSPropertyOp15
 70
     1
102
RTVSPropertyOp16
 70
     1
102
RTVSPropertyOp17
 70
     1
102
RTVSPropertyOp18
 70
     1
102
RTVSPropertyOp19
 70
     1
102
RTVSPropertyOp20
 70
     1
102
RTVSPropertyOp21
 70
     1
102
RTVSPropertyOp22
 70
     1
102
RTVSPropertyOp23
 70
     1
102
RTVSPropertyOp24
 70
     1
102
RTVSPropertyOp25
 70
     1
102
RTVSPropertyOp26
 70
     1
102
RTVSPropertyOp27
 70
     1
102
RTVSPropertyOp28
 70
     1
102
RTVSPropertyOp29
 70
     1
102
RTVSPropertyOp30
 70
     1
102
RTVSPropertyOp31
 70
     1
102
RTVSPropertyOp32
 70
     1
102
RTVSPropertyOp33
 70
     1
102
RTVSPropertyOp34
 70
     1
102
RTVSPropertyOp35
 70
     1
102
RTVSPropertyOp36
 70
     1
102
RTVSPropertyOp37
 70
     1
102
RTVSPropertyOp38
 70
     1
102
RTVSPropertyOp39
 70
     1
102
RTVSPropertyOp40
 70
     1
102
RTVSPropertyOp41
 70
     1
102
RTVSPropertyOp42
 70
     1
102
RTVSPropertyOp43
 70
     1
102
RTVSPropertyOp44
 70
     1
102
RTVSPropertyOp45
 70
     1
102
RTVSPropertyOp46
 70
     1
102
RTVSPropertyOp47
 70
     1
102
RTVSPropertyOp48
 70
     1
102
RTVSPropertyOp49
 70
     1
102
RTVSPropertyOp50
 70
     1
102
RTVSPropertyOp51
 70
     0
102
RTVSPropertyOp52
 70
     0
102
RTVSPropertyOp53
 70
     1
102
RTVSPropertyOp54
 70
     1
102
RTVSPropertyOp55
 70
     1
102
RTVSPropertyOp56
 70
     1
102
RTVSPropertyOp57
 70
     1
102
RTVSPropertyOp58
 70
     1
102
RTVSPropertyOp59
 70
     1
102
RTVSPropertyOp60
 70
     1
102
RTVSPropertyOp61
 70
     1
102
RTVSPropertyOp62
 70
     1
  0
XRECORD
  5
8561
102
{ACAD_REACTORS
330
8560
102
}
330
8560
100
AcDbXrecord
280
     1
102
RTVSPost2010Prop28
280
     0
102
RTVSPost2010PropOp28
 70
     1
102
RTVSPost2010Prop29
280
     1
102
RTVSPost2010PropOp29
 70
     1
102
RTVSPost2010Prop30
280
     1
102
RTVSPost2010PropOp30
 70
     1
102
RTVSPost2010Prop31
280
     0
102
RTVSPost2010PropOp31
 70
     1
102
RTVSPost2010Prop32
280
     0
102
RTVSPost2010PropOp32
 70
     1
102
RTVSPost2010Prop33
280
     0
102
RTVSPost2010PropOp33
 70
     1
102
RTVSPost2010Prop34
280
     0
102
RTVSPost2010PropOp34
 70
     1
102
RTVSPost2010Prop35
280
     0
102
RTVSPost2010PropOp35
 70
     1
102
RTVSPost2010Prop36
280
     0
102
RTVSPost2010PropOp36
 70
     1
102
RTVSPost2010Prop37
 90
       50
102
RTVSPost2010PropOp37
 70
     0
102
RTVSPost2010Prop38
140
0.0
102
RTVSPost2010PropOp38
 70
     0
102
RTVSPost2010Prop39
140
1.0
102
RTVSPost2010PropOp39
 70
     0
102
RTVSPost2010Prop40
 90
        0
102
RTVSPost2010PropOp40
 70
     0
102
RTVSPost2010Prop41ColorIndex
 90
       18
102
RTVSPost2010Prop41ColorRGB
 90
        0
102
RTVSPost2010PropOp41
 70
     0
102
RTVSPost2010Prop42
 90
       50
102
RTVSPost2010PropOp42
 70
     0
102
RTVSPost2010Prop43
 90
        3
102
RTVSPost2010PropOp43
 70
     0
102
RTVSPost2010Prop44ColorIndex
 90
        5
102
RTVSPost2010Prop44ColorRGB
 90
      255
102
RTVSPost2010PropOp44
 70
     0
102
RTVSPost2010Prop45
280
     0
102
RTVSPost2010PropOp45
 70
     1
102
RTVSPost2010Prop46
 90
       50
102
RTVSPost2010PropOp46
 70
     0
102
RTVSPost2010Prop47
 90
       50
102
RTVSPost2010PropOp47
 70
     0
102
RTVSPost2010Prop48
 90
       50
102
RTVSPost2010PropOp48
 70
     0
102
RTVSPost2010Prop49
280
     0
102
RTVSPost2010PropOp49
 70
     1
102
RTVSPost2010Prop50
 90
       50
102
RTVSPost2010PropOp50
 70
     0
102
RTVSPost2010Prop51ColorIndex
 90
      256
102
RTVSPost2010Prop51ColorRGB
 90
-16777216
102
RTVSPost2010PropOp51
 70
     0
102
RTVSPost2010Prop52
140
1.0
102
RTVSPost2010PropOp52
 70
     0
102
RTVSPost2010Prop53
 90
        2
102
RTVSPost2010PropOp53
 70
     0
102
RTVSPost2010Prop54
  1
strokes_ogs.tif
102
RTVSPost2010PropOp54
 70
     0
102
RTVSPost2010Prop55
280
     0
102
RTVSPost2010PropOp55
 70
     1
102
RTVSPost2010Prop56
140
1.0
102
RTVSPost2010PropOp56
 70
     0
102
RTVSPost2010Prop57
140
1.0
102
RTVSPost2010PropOp57
 70
     0
102
RTVSPropertyOp0
 70
     0
102
RTVSPropertyOp1
 70
     0
102
RTVSPropertyOp2
 70
     0
102
RTVSPropertyOp3
 70
     0
102
RTVSPropertyOp4
 70
     0
102
RTVSPropertyOp5
 70
     0
102
RTVSPropertyOp6
 70
     0
102
RTVSPropertyOp7
 70
     0
102
RTVSPropertyOp8
 70
     0
102
RTVSPropertyOp9
 70
     0
102
RTVSPropertyOp10
 70
     0
102
RTVSPropertyOp11
 70
     0
102
RTVSPropertyOp12
 70
     0
102
RTVSPropertyOp13
 70
     0
102
RTVSPropertyOp14
 70
     2
102
RTVSPropertyOp15
 70
     0
102
RTVSPropertyOp16
 70
     0
102
RTVSPropertyOp17
 70
     0
102
RTVSPropertyOp18
 70
     0
102
RTVSPropertyOp19
 70
     0
102
RTVSPropertyOp20
 70
     0
102
RTVSPropertyOp21
 70
     0
102
RTVSPropertyOp22
 70
     0
102
RTVSPropertyOp23
 70
     0
102
RTVSPropertyOp24
 70
     0
102
RTVSPropertyOp25
 70
     0
102
RTVSPropertyOp26
 70
     0
102
RTVSPropertyOp27
 70
     0
102
RTVSPropertyOp28
 70
     1
102
RTVSPropertyOp29
 70
     1
102
RTVSPropertyOp30
 70
     1
102
RTVSPropertyOp31
 70
     1
102
RTVSPropertyOp32
 70
     1
102
RTVSPropertyOp33
 70
     1
102
RTVSPropertyOp34
 70
     1
102
RTVSPropertyOp35
 70
     1
102
RTVSPropertyOp36
 70
     1
102
RTVSPropertyOp37
 70
     0
102
RTVSPropertyOp38
 70
     0
102
RTVSPropertyOp39
 70
     0
102
RTVSPropertyOp40
 70
     0
102
RTVSPropertyOp41
 70
     0
102
RTVSPropertyOp42
 70
     0
102
RTVSPropertyOp43
 70
     0
102
RTVSPropertyOp44
 70
     0
102
RTVSPropertyOp45
 70
     1
102
RTVSPropertyOp46
 70
     0
102
RTVSPropertyOp47
 70
     0
102
RTVSPropertyOp48
 70
     0
102
RTVSPropertyOp49
 70
     1
102
RTVSPropertyOp50
 70
     0
102
RTVSPropertyOp51
 70
     0
102
RTVSPropertyOp52
 70
     0
102
RTVSPropertyOp53
 70
     0
102
RTVSPropertyOp54
 70
     0
102
RTVSPropertyOp55
 70
     1
102
RTVSPropertyOp56
 70
     0
102
RTVSPropertyOp57
 70
     0
102
RTVSPropertyOp58
 70
     0
102
RTVSPropertyOp59
 70
     0
102
RTVSPropertyOp60
 70
     0
102
RTVSPropertyOp61
 70
     0
102
RTVSPropertyOp62
 70
     0
  0
XRECORD
  5
8551
102
{ACAD_REACTORS
330
8550
102
}
330
8550
100
AcDbXrecord
280
     1
102
RTVSPost2010Prop28
280
     0
102
RTVSPost2010PropOp28
 70
     1
102
RTVSPost2010Prop29
280
     1
102
RTVSPost2010PropOp29
 70
     1
102
RTVSPost2010Prop30
280
     1
102
RTVSPost2010PropOp30
 70
     1
102
RTVSPost2010Prop31
280
     0
102
RTVSPost2010PropOp31
 70
     1
102
RTVSPost2010Prop32
280
     0
102
RTVSPost2010PropOp32
 70
     1
102
RTVSPost2010Prop33
280
     0
102
RTVSPost2010PropOp33
 70
     1
102
RTVSPost2010Prop34
280
     0
102
RTVSPost2010PropOp34
 70
     1
102
RTVSPost2010Prop35
280
     0
102
RTVSPost2010PropOp35
 70
     1
102
RTVSPost2010Prop36
280
     0
102
RTVSPost2010PropOp36
 70
     1
102
RTVSPost2010Prop37
 90
       50
102
RTVSPost2010PropOp37
 70
     1
102
RTVSPost2010Prop38
140
0.0
102
RTVSPost2010PropOp38
 70
     1
102
RTVSPost2010Prop39
140
1.0
102
RTVSPost2010PropOp39
 70
     1
102
RTVSPost2010Prop40
 90
        0
102
RTVSPost2010PropOp40
 70
     1
102
RTVSPost2010Prop41ColorIndex
 90
       18
102
RTVSPost2010Prop41ColorRGB
 90
        0
102
RTVSPost2010PropOp41
 70
     1
102
RTVSPost2010Prop42
 90
       50
102
RTVSPost2010PropOp42
 70
     1
102
RTVSPost2010Prop43
 90
        3
102
RTVSPost2010PropOp43
 70
     1
102
RTVSPost2010Prop44ColorIndex
 90
        5
102
RTVSPost2010Prop44ColorRGB
 90
      255
102
RTVSPost2010PropOp44
 70
     1
102
RTVSPost2010Prop45
280
     0
102
RTVSPost2010PropOp45
 70
     1
102
RTVSPost2010Prop46
 90
       50
102
RTVSPost2010PropOp46
 70
     1
102
RTVSPost2010Prop47
 90
       50
102
RTVSPost2010PropOp47
 70
     1
102
RTVSPost2010Prop48
 90
       50
102
RTVSPost2010PropOp48
 70
     1
102
RTVSPost2010Prop49
280
     0
102
RTVSPost2010PropOp49
 70
     1
102
RTVSPost2010Prop50
 90
       50
102
RTVSPost2010PropOp50
 70
     1
102
RTVSPost2010Prop51ColorIndex
 90
      256
102
RTVSPost2010Prop51ColorRGB
 90
-16777216
102
RTVSPost2010PropOp51
 70
     0
102
RTVSPost2010Prop52
140
1.0
102
RTVSPost2010PropOp52
 70
     0
102
RTVSPost2010Prop53
 90
        2
102
RTVSPost2010PropOp53
 70
     1
102
RTVSPost2010Prop54
  1
strokes_ogs.tif
102
RTVSPost2010PropOp54
 70
     1
102
RTVSPost2010Prop55
280
     0
102
RTVSPost2010PropOp55
 70
     1
102
RTVSPost2010Prop56
140
1.0
102
RTVSPost2010PropOp56
 70
     1
102
RTVSPost2010Prop57
140
1.0
102
RTVSPost2010PropOp57
 70
     1
102
RTVSPropertyOp0
 70
     1
102
RTVSPropertyOp1
 70
     1
102
RTVSPropertyOp2
 70
     1
102
RTVSPropertyOp3
 70
     1
102
RTVSPropertyOp4
 70
     1
102
RTVSPropertyOp5
 70
     1
102
RTVSPropertyOp6
 70
     1
102
RTVSPropertyOp7
 70
     1
102
RTVSPropertyOp8
 70
     1
102
RTVSPropertyOp9
 70
     1
102
RTVSPropertyOp10
 70
     1
102
RTVSPropertyOp11
 70
     1
102
RTVSPropertyOp12
 70
     1
102
RTVSPropertyOp13
 70
     1
102
RTVSPropertyOp14
 70
     1
102
RTVSPropertyOp15
 70
     1
102
RTVSPropertyOp16
 70
     1
102
RTVSPropertyOp17
 70
     1
102
RTVSPropertyOp18
 70
     1
102
RTVSPropertyOp19
 70
     1
102
RTVSPropertyOp20
 70
     1
102
RTVSPropertyOp21
 70
     1
102
RTVSPropertyOp22
 70
     1
102
RTVSPropertyOp23
 70
     1
102
RTVSPropertyOp24
 70
     1
102
RTVSPropertyOp25
 70
     1
102
RTVSPropertyOp26
 70
     1
102
RTVSPropertyOp27
 70
     1
102
RTVSPropertyOp28
 70
     1
102
RTVSPropertyOp29
 70
     1
102
RTVSPropertyOp30
 70
     1
102
RTVSPropertyOp31
 70
     1
102
RTVSPropertyOp32
 70
     1
102
RTVSPropertyOp33
 70
     1
102
RTVSPropertyOp34
 70
     1
102
RTVSPropertyOp35
 70
     1
102
RTVSPropertyOp36
 70
     1
102
RTVSPropertyOp37
 70
     1
102
RTVSPropertyOp38
 70
     1
102
RTVSPropertyOp39
 70
     1
102
RTVSPropertyOp40
 70
     1
102
RTVSPropertyOp41
 70
     1
102
RTVSPropertyOp42
 70
     1
102
RTVSPropertyOp43
 70
     1
102
RTVSPropertyOp44
 70
     1
102
RTVSPropertyOp45
 70
     1
102
RTVSPropertyOp46
 70
     1
102
RTVSPropertyOp47
 70
     1
102
RTVSPropertyOp48
 70
     1
102
RTVSPropertyOp49
 70
     1
102
RTVSPropertyOp50
 70
     1
102
RTVSPropertyOp51
 70
     0
102
RTVSPropertyOp52
 70
     0
102
RTVSPropertyOp53
 70
     1
102
RTVSPropertyOp54
 70
     1
102
RTVSPropertyOp55
 70
     1
102
RTVSPropertyOp56
 70
     1
102
RTVSPropertyOp57
 70
     1
102
RTVSPropertyOp58
 70
     1
102
RTVSPropertyOp59
 70
     1
102
RTVSPropertyOp60
 70
     1
102
RTVSPropertyOp61
 70
     1
102
RTVSPropertyOp62
 70
     1
  0
XRECORD
  5
8563
102
{ACAD_REACTORS
330
8562
102
}
330
8562
100
AcDbXrecord
280
     1
102
RTVSPost2010Prop28
280
     0
102
RTVSPost2010PropOp28
 70
     1
102
RTVSPost2010Prop29
280
     1
102
RTVSPost2010PropOp29
 70
     1
102
RTVSPost2010Prop30
280
     1
102
RTVSPost2010PropOp30
 70
     1
102
RTVSPost2010Prop31
280
     0
102
RTVSPost2010PropOp31
 70
     1
102
RTVSPost2010Prop32
280
     0
102
RTVSPost2010PropOp32
 70
     1
102
RTVSPost2010Prop33
280
     0
102
RTVSPost2010PropOp33
 70
     1
102
RTVSPost2010Prop34
280
     0
102
RTVSPost2010PropOp34
 70
     1
102
RTVSPost2010Prop35
280
     0
102
RTVSPost2010PropOp35
 70
     1
102
RTVSPost2010Prop36
280
     0
102
RTVSPost2010PropOp36
 70
     1
102
RTVSPost2010Prop37
 90
       50
102
RTVSPost2010PropOp37
 70
     0
102
RTVSPost2010Prop38
140
0.0
102
RTVSPost2010PropOp38
 70
     0
102
RTVSPost2010Prop39
140
1.0
102
RTVSPost2010PropOp39
 70
     0
102
RTVSPost2010Prop40
 90
        0
102
RTVSPost2010PropOp40
 70
     0
102
RTVSPost2010Prop41ColorIndex
 90
       18
102
RTVSPost2010Prop41ColorRGB
 90
        0
102
RTVSPost2010PropOp41
 70
     0
102
RTVSPost2010Prop42
 90
       50
102
RTVSPost2010PropOp42
 70
     0
102
RTVSPost2010Prop43
 90
        3
102
RTVSPost2010PropOp43
 70
     0
102
RTVSPost2010Prop44ColorIndex
 90
        5
102
RTVSPost2010Prop44ColorRGB
 90
      255
102
RTVSPost2010PropOp44
 70
     0
102
RTVSPost2010Prop45
280
     0
102
RTVSPost2010PropOp45
 70
     1
102
RTVSPost2010Prop46
 90
       50
102
RTVSPost2010PropOp46
 70
     0
102
RTVSPost2010Prop47
 90
       50
102
RTVSPost2010PropOp47
 70
     0
102
RTVSPost2010Prop48
 90
       50
102
RTVSPost2010PropOp48
 70
     0
102
RTVSPost2010Prop49
280
     0
102
RTVSPost2010PropOp49
 70
     1
102
RTVSPost2010Prop50
 90
       50
102
RTVSPost2010PropOp50
 70
     0
102
RTVSPost2010Prop51ColorIndex
 90
      256
102
RTVSPost2010Prop51ColorRGB
 90
-16777216
102
RTVSPost2010PropOp51
 70
     0
102
RTVSPost2010Prop52
140
1.0
102
RTVSPost2010PropOp52
 70
     0
102
RTVSPost2010Prop53
 90
        2
102
RTVSPost2010PropOp53
 70
     0
102
RTVSPost2010Prop54
  1
strokes_ogs.tif
102
RTVSPost2010PropOp54
 70
     0
102
RTVSPost2010Prop55
280
     0
102
RTVSPost2010PropOp55
 70
     1
102
RTVSPost2010Prop56
140
1.0
102
RTVSPost2010PropOp56
 70
     0
102
RTVSPost2010Prop57
140
1.0
102
RTVSPost2010PropOp57
 70
     0
102
RTVSPropertyOp0
 70
     0
102
RTVSPropertyOp1
 70
     0
102
RTVSPropertyOp2
 70
     0
102
RTVSPropertyOp3
 70
     0
102
RTVSPropertyOp4
 70
     0
102
RTVSPropertyOp5
 70
     0
102
RTVSPropertyOp6
 70
     0
102
RTVSPropertyOp7
 70
     0
102
RTVSPropertyOp8
 70
     0
102
RTVSPropertyOp9
 70
     0
102
RTVSPropertyOp10
 70
     0
102
RTVSPropertyOp11
 70
     0
102
RTVSPropertyOp12
 70
     0
102
RTVSPropertyOp13
 70
     0
102
RTVSPropertyOp14
 70
     2
102
RTVSPropertyOp15
 70
     0
102
RTVSPropertyOp16
 70
     0
102
RTVSPropertyOp17
 70
     0
102
RTVSPropertyOp18
 70
     0
102
RTVSPropertyOp19
 70
     0
102
RTVSPropertyOp20
 70
     0
102
RTVSPropertyOp21
 70
     0
102
RTVSPropertyOp22
 70
     0
102
RTVSPropertyOp23
 70
     0
102
RTVSPropertyOp24
 70
     0
102
RTVSPropertyOp25
 70
     0
102
RTVSPropertyOp26
 70
     0
102
RTVSPropertyOp27
 70
     0
102
RTVSPropertyOp28
 70
     1
102
RTVSPropertyOp29
 70
     1
102
RTVSPropertyOp30
 70
     1
102
RTVSPropertyOp31
 70
     1
102
RTVSPropertyOp32
 70
     1
102
RTVSPropertyOp33
 70
     1
102
RTVSPropertyOp34
 70
     1
102
RTVSPropertyOp35
 70
     1
102
RTVSPropertyOp36
 70
     1
102
RTVSPropertyOp37
 70
     0
102
RTVSPropertyOp38
 70
     0
102
RTVSPropertyOp39
 70
     0
102
RTVSPropertyOp40
 70
     0
102
RTVSPropertyOp41
 70
     0
102
RTVSPropertyOp42
 70
     0
102
RTVSPropertyOp43
 70
     0
102
RTVSPropertyOp44
 70
     0
102
RTVSPropertyOp45
 70
     1
102
RTVSPropertyOp46
 70
     0
102
RTVSPropertyOp47
 70
     0
102
RTVSPropertyOp48
 70
     0
102
RTVSPropertyOp49
 70
     1
102
RTVSPropertyOp50
 70
     0
102
RTVSPropertyOp51
 70
     0
102
RTVSPropertyOp52
 70
     0
102
RTVSPropertyOp53
 70
     0
102
RTVSPropertyOp54
 70
     0
102
RTVSPropertyOp55
 70
     1
102
RTVSPropertyOp56
 70
     0
102
RTVSPropertyOp57
 70
     0
102
RTVSPropertyOp58
 70
     0
102
RTVSPropertyOp59
 70
     0
102
RTVSPropertyOp60
 70
     0
102
RTVSPropertyOp61
 70
     0
102
RTVSPropertyOp62
 70
     0
  0
XRECORD
  5
8549
102
{ACAD_REACTORS
330
8548
102
}
330
8548
100
AcDbXrecord
280
     1
102
RTVSPost2010Prop28
280
     0
102
RTVSPost2010PropOp28
 70
     1
102
RTVSPost2010Prop29
280
     1
102
RTVSPost2010PropOp29
 70
     1
102
RTVSPost2010Prop30
280
     1
102
RTVSPost2010PropOp30
 70
     1
102
RTVSPost2010Prop31
280
     0
102
RTVSPost2010PropOp31
 70
     1
102
RTVSPost2010Prop32
280
     0
102
RTVSPost2010PropOp32
 70
     1
102
RTVSPost2010Prop33
280
     0
102
RTVSPost2010PropOp33
 70
     1
102
RTVSPost2010Prop34
280
     0
102
RTVSPost2010PropOp34
 70
     1
102
RTVSPost2010Prop35
280
     0
102
RTVSPost2010PropOp35
 70
     1
102
RTVSPost2010Prop36
280
     0
102
RTVSPost2010PropOp36
 70
     1
102
RTVSPost2010Prop37
 90
       50
102
RTVSPost2010PropOp37
 70
     1
102
RTVSPost2010Prop38
140
0.0
102
RTVSPost2010PropOp38
 70
     1
102
RTVSPost2010Prop39
140
1.0
102
RTVSPost2010PropOp39
 70
     1
102
RTVSPost2010Prop40
 90
        0
102
RTVSPost2010PropOp40
 70
     1
102
RTVSPost2010Prop41ColorIndex
 90
       18
102
RTVSPost2010Prop41ColorRGB
 90
        0
102
RTVSPost2010PropOp41
 70
     1
102
RTVSPost2010Prop42
 90
       50
102
RTVSPost2010PropOp42
 70
     1
102
RTVSPost2010Prop43
 90
        3
102
RTVSPost2010PropOp43
 70
     1
102
RTVSPost2010Prop44ColorIndex
 90
        5
102
RTVSPost2010Prop44ColorRGB
 90
      255
102
RTVSPost2010PropOp44
 70
     1
102
RTVSPost2010Prop45
280
     0
102
RTVSPost2010PropOp45
 70
     1
102
RTVSPost2010Prop46
 90
       50
102
RTVSPost2010PropOp46
 70
     1
102
RTVSPost2010Prop47
 90
       50
102
RTVSPost2010PropOp47
 70
     1
102
RTVSPost2010Prop48
 90
       50
102
RTVSPost2010PropOp48
 70
     1
102
RTVSPost2010Prop49
280
     0
102
RTVSPost2010PropOp49
 70
     1
102
RTVSPost2010Prop50
 90
       50
102
RTVSPost2010PropOp50
 70
     1
102
RTVSPost2010Prop51ColorIndex
 90
      256
102
RTVSPost2010Prop51ColorRGB
 90
-16777216
102
RTVSPost2010PropOp51
 70
     0
102
RTVSPost2010Prop52
140
1.0
102
RTVSPost2010PropOp52
 70
     0
102
RTVSPost2010Prop53
 90
        2
102
RTVSPost2010PropOp53
 70
     1
102
RTVSPost2010Prop54
  1
strokes_ogs.tif
102
RTVSPost2010PropOp54
 70
     1
102
RTVSPost2010Prop55
280
     0
102
RTVSPost2010PropOp55
 70
     1
102
RTVSPost2010Prop56
140
1.0
102
RTVSPost2010PropOp56
 70
     1
102
RTVSPost2010Prop57
140
1.0
102
RTVSPost2010PropOp57
 70
     1
102
RTVSPropertyOp0
 70
     1
102
RTVSPropertyOp1
 70
     1
102
RTVSPropertyOp2
 70
     1
102
RTVSPropertyOp3
 70
     1
102
RTVSPropertyOp4
 70
     1
102
RTVSPropertyOp5
 70
     1
102
RTVSPropertyOp6
 70
     1
102
RTVSPropertyOp7
 70
     1
102
RTVSPropertyOp8
 70
     1
102
RTVSPropertyOp9
 70
     1
102
RTVSPropertyOp10
 70
     1
102
RTVSPropertyOp11
 70
     1
102
RTVSPropertyOp12
 70
     1
102
RTVSPropertyOp13
 70
     1
102
RTVSPropertyOp14
 70
     1
102
RTVSPropertyOp15
 70
     1
102
RTVSPropertyOp16
 70
     1
102
RTVSPropertyOp17
 70
     1
102
RTVSPropertyOp18
 70
     1
102
RTVSPropertyOp19
 70
     1
102
RTVSPropertyOp20
 70
     1
102
RTVSPropertyOp21
 70
     1
102
RTVSPropertyOp22
 70
     1
102
RTVSPropertyOp23
 70
     1
102
RTVSPropertyOp24
 70
     1
102
RTVSPropertyOp25
 70
     1
102
RTVSPropertyOp26
 70
     1
102
RTVSPropertyOp27
 70
     1
102
RTVSPropertyOp28
 70
     1
102
RTVSPropertyOp29
 70
     1
102
RTVSPropertyOp30
 70
     1
102
RTVSPropertyOp31
 70
     1
102
RTVSPropertyOp32
 70
     1
102
RTVSPropertyOp33
 70
     1
102
RTVSPropertyOp34
 70
     1
102
RTVSPropertyOp35
 70
     1
102
RTVSPropertyOp36
 70
     1
102
RTVSPropertyOp37
 70
     1
102
RTVSPropertyOp38
 70
     1
102
RTVSPropertyOp39
 70
     1
102
RTVSPropertyOp40
 70
     1
102
RTVSPropertyOp41
 70
     1
102
RTVSPropertyOp42
 70
     1
102
RTVSPropertyOp43
 70
     1
102
RTVSPropertyOp44
 70
     1
102
RTVSPropertyOp45
 70
     1
102
RTVSPropertyOp46
 70
     1
102
RTVSPropertyOp47
 70
     1
102
RTVSPropertyOp48
 70
     1
102
RTVSPropertyOp49
 70
     1
102
RTVSPropertyOp50
 70
     1
102
RTVSPropertyOp51
 70
     0
102
RTVSPropertyOp52
 70
     0
102
RTVSPropertyOp53
 70
     1
102
RTVSPropertyOp54
 70
     1
102
RTVSPropertyOp55
 70
     1
102
RTVSPropertyOp56
 70
     1
102
RTVSPropertyOp57
 70
     1
102
RTVSPropertyOp58
 70
     1
102
RTVSPropertyOp59
 70
     1
102
RTVSPropertyOp60
 70
     1
102
RTVSPropertyOp61
 70
     1
102
RTVSPropertyOp62
 70
     1
  0
XRECORD
  5
855F
102
{ACAD_REACTORS
330
855E
102
}
330
855E
100
AcDbXrecord
280
     1
102
RTVSPost2010Prop28
280
     0
102
RTVSPost2010PropOp28
 70
     1
102
RTVSPost2010Prop29
280
     1
102
RTVSPost2010PropOp29
 70
     1
102
RTVSPost2010Prop30
280
     1
102
RTVSPost2010PropOp30
 70
     1
102
RTVSPost2010Prop31
280
     0
102
RTVSPost2010PropOp31
 70
     1
102
RTVSPost2010Prop32
280
     0
102
RTVSPost2010PropOp32
 70
     1
102
RTVSPost2010Prop33
280
     0
102
RTVSPost2010PropOp33
 70
     1
102
RTVSPost2010Prop34
280
     0
102
RTVSPost2010PropOp34
 70
     1
102
RTVSPost2010Prop35
280
     0
102
RTVSPost2010PropOp35
 70
     1
102
RTVSPost2010Prop36
280
     0
102
RTVSPost2010PropOp36
 70
     1
102
RTVSPost2010Prop37
 90
       50
102
RTVSPost2010PropOp37
 70
     1
102
RTVSPost2010Prop38
140
0.0
102
RTVSPost2010PropOp38
 70
     1
102
RTVSPost2010Prop39
140
1.0
102
RTVSPost2010PropOp39
 70
     1
102
RTVSPost2010Prop40
 90
        0
102
RTVSPost2010PropOp40
 70
     1
102
RTVSPost2010Prop41ColorIndex
 90
       18
102
RTVSPost2010Prop41ColorRGB
 90
        0
102
RTVSPost2010PropOp41
 70
     1
102
RTVSPost2010Prop42
 90
       50
102
RTVSPost2010PropOp42
 70
     1
102
RTVSPost2010Prop43
 90
        3
102
RTVSPost2010PropOp43
 70
     1
102
RTVSPost2010Prop44ColorIndex
 90
        5
102
RTVSPost2010Prop44ColorRGB
 90
      255
102
RTVSPost2010PropOp44
 70
     1
102
RTVSPost2010Prop45
280
     0
102
RTVSPost2010PropOp45
 70
     1
102
RTVSPost2010Prop46
 90
       50
102
RTVSPost2010PropOp46
 70
     1
102
RTVSPost2010Prop47
 90
       50
102
RTVSPost2010PropOp47
 70
     1
102
RTVSPost2010Prop48
 90
       50
102
RTVSPost2010PropOp48
 70
     1
102
RTVSPost2010Prop49
280
     0
102
RTVSPost2010PropOp49
 70
     1
102
RTVSPost2010Prop50
 90
       50
102
RTVSPost2010PropOp50
 70
     1
102
RTVSPost2010Prop51ColorIndex
 90
      256
102
RTVSPost2010Prop51ColorRGB
 90
-16777216
102
RTVSPost2010PropOp51
 70
     0
102
RTVSPost2010Prop52
140
1.0
102
RTVSPost2010PropOp52
 70
     0
102
RTVSPost2010Prop53
 90
        2
102
RTVSPost2010PropOp53
 70
     1
102
RTVSPost2010Prop54
  1
strokes_ogs.tif
102
RTVSPost2010PropOp54
 70
     1
102
RTVSPost2010Prop55
280
     0
102
RTVSPost2010PropOp55
 70
     1
102
RTVSPost2010Prop56
140
1.0
102
RTVSPost2010PropOp56
 70
     1
102
RTVSPost2010Prop57
140
1.0
102
RTVSPost2010PropOp57
 70
     1
102
RTVSPropertyOp0
 70
     1
102
RTVSPropertyOp1
 70
     1
102
RTVSPropertyOp2
 70
     1
102
RTVSPropertyOp3
 70
     1
102
RTVSPropertyOp4
 70
     1
102
RTVSPropertyOp5
 70
     1
102
RTVSPropertyOp6
 70
     1
102
RTVSPropertyOp7
 70
     1
102
RTVSPropertyOp8
 70
     1
102
RTVSPropertyOp9
 70
     1
102
RTVSPropertyOp10
 70
     1
102
RTVSPropertyOp11
 70
     1
102
RTVSPropertyOp12
 70
     1
102
RTVSPropertyOp13
 70
     1
102
RTVSPropertyOp14
 70
     1
102
RTVSPropertyOp15
 70
     1
102
RTVSPropertyOp16
 70
     1
102
RTVSPropertyOp17
 70
     1
102
RTVSPropertyOp18
 70
     1
102
RTVSPropertyOp19
 70
     1
102
RTVSPropertyOp20
 70
     1
102
RTVSPropertyOp21
 70
     1
102
RTVSPropertyOp22
 70
     1
102
RTVSPropertyOp23
 70
     1
102
RTVSPropertyOp24
 70
     1
102
RTVSPropertyOp25
 70
     1
102
RTVSPropertyOp26
 70
     1
102
RTVSPropertyOp27
 70
     1
102
RTVSPropertyOp28
 70
     1
102
RTVSPropertyOp29
 70
     1
102
RTVSPropertyOp30
 70
     1
102
RTVSPropertyOp31
 70
     1
102
RTVSPropertyOp32
 70
     1
102
RTVSPropertyOp33
 70
     1
102
RTVSPropertyOp34
 70
     1
102
RTVSPropertyOp35
 70
     1
102
RTVSPropertyOp36
 70
     1
102
RTVSPropertyOp37
 70
     1
102
RTVSPropertyOp38
 70
     1
102
RTVSPropertyOp39
 70
     1
102
RTVSPropertyOp40
 70
     1
102
RTVSPropertyOp41
 70
     1
102
RTVSPropertyOp42
 70
     1
102
RTVSPropertyOp43
 70
     1
102
RTVSPropertyOp44
 70
     1
102
RTVSPropertyOp45
 70
     1
102
RTVSPropertyOp46
 70
     1
102
RTVSPropertyOp47
 70
     1
102
RTVSPropertyOp48
 70
     1
102
RTVSPropertyOp49
 70
     1
102
RTVSPropertyOp50
 70
     1
102
RTVSPropertyOp51
 70
     0
102
RTVSPropertyOp52
 70
     0
102
RTVSPropertyOp53
 70
     1
102
RTVSPropertyOp54
 70
     1
102
RTVSPropertyOp55
 70
     1
102
RTVSPropertyOp56
 70
     1
102
RTVSPropertyOp57
 70
     1
102
RTVSPropertyOp58
 70
     1
102
RTVSPropertyOp59
 70
     1
102
RTVSPropertyOp60
 70
     1
102
RTVSPropertyOp61
 70
     1
102
RTVSPropertyOp62
 70
     1
  0
XRECORD
  5
855D
102
{ACAD_REACTORS
330
855C
102
}
330
855C
100
AcDbXrecord
280
     1
102
RTVSPost2010Prop28
280
     0
102
RTVSPost2010PropOp28
 70
     1
102
RTVSPost2010Prop29
280
     1
102
RTVSPost2010PropOp29
 70
     1
102
RTVSPost2010Prop30
280
     1
102
RTVSPost2010PropOp30
 70
     1
102
RTVSPost2010Prop31
280
     0
102
RTVSPost2010PropOp31
 70
     1
102
RTVSPost2010Prop32
280
     0
102
RTVSPost2010PropOp32
 70
     1
102
RTVSPost2010Prop33
280
     0
102
RTVSPost2010PropOp33
 70
     1
102
RTVSPost2010Prop34
280
     0
102
RTVSPost2010PropOp34
 70
     1
102
RTVSPost2010Prop35
280
     0
102
RTVSPost2010PropOp35
 70
     1
102
RTVSPost2010Prop36
280
     0
102
RTVSPost2010PropOp36
 70
     1
102
RTVSPost2010Prop37
 90
       50
102
RTVSPost2010PropOp37
 70
     1
102
RTVSPost2010Prop38
140
0.0
102
RTVSPost2010PropOp38
 70
     1
102
RTVSPost2010Prop39
140
1.0
102
RTVSPost2010PropOp39
 70
     1
102
RTVSPost2010Prop40
 90
        0
102
RTVSPost2010PropOp40
 70
     1
102
RTVSPost2010Prop41ColorIndex
 90
       18
102
RTVSPost2010Prop41ColorRGB
 90
        0
102
RTVSPost2010PropOp41
 70
     1
102
RTVSPost2010Prop42
 90
       50
102
RTVSPost2010PropOp42
 70
     1
102
RTVSPost2010Prop43
 90
        3
102
RTVSPost2010PropOp43
 70
     1
102
RTVSPost2010Prop44ColorIndex
 90
        5
102
RTVSPost2010Prop44ColorRGB
 90
      255
102
RTVSPost2010PropOp44
 70
     1
102
RTVSPost2010Prop45
280
     0
102
RTVSPost2010PropOp45
 70
     1
102
RTVSPost2010Prop46
 90
       50
102
RTVSPost2010PropOp46
 70
     1
102
RTVSPost2010Prop47
 90
       50
102
RTVSPost2010PropOp47
 70
     1
102
RTVSPost2010Prop48
 90
       50
102
RTVSPost2010PropOp48
 70
     1
102
RTVSPost2010Prop49
280
     0
102
RTVSPost2010PropOp49
 70
     1
102
RTVSPost2010Prop50
 90
       50
102
RTVSPost2010PropOp50
 70
     1
102
RTVSPost2010Prop51ColorIndex
 90
      256
102
RTVSPost2010Prop51ColorRGB
 90
-16777216
102
RTVSPost2010PropOp51
 70
     0
102
RTVSPost2010Prop52
140
1.0
102
RTVSPost2010PropOp52
 70
     0
102
RTVSPost2010Prop53
 90
        2
102
RTVSPost2010PropOp53
 70
     1
102
RTVSPost2010Prop54
  1
strokes_ogs.tif
102
RTVSPost2010PropOp54
 70
     1
102
RTVSPost2010Prop55
280
     0
102
RTVSPost2010PropOp55
 70
     1
102
RTVSPost2010Prop56
140
1.0
102
RTVSPost2010PropOp56
 70
     1
102
RTVSPost2010Prop57
140
1.0
102
RTVSPost2010PropOp57
 70
     1
102
RTVSPropertyOp0
 70
     1
102
RTVSPropertyOp1
 70
     1
102
RTVSPropertyOp2
 70
     1
102
RTVSPropertyOp3
 70
     1
102
RTVSPropertyOp4
 70
     1
102
RTVSPropertyOp5
 70
     1
102
RTVSPropertyOp6
 70
     1
102
RTVSPropertyOp7
 70
     1
102
RTVSPropertyOp8
 70
     1
102
RTVSPropertyOp9
 70
     1
102
RTVSPropertyOp10
 70
     1
102
RTVSPropertyOp11
 70
     1
102
RTVSPropertyOp12
 70
     1
102
RTVSPropertyOp13
 70
     1
102
RTVSPropertyOp14
 70
     1
102
RTVSPropertyOp15
 70
     1
102
RTVSPropertyOp16
 70
     1
102
RTVSPropertyOp17
 70
     1
102
RTVSPropertyOp18
 70
     1
102
RTVSPropertyOp19
 70
     1
102
RTVSPropertyOp20
 70
     1
102
RTVSPropertyOp21
 70
     1
102
RTVSPropertyOp22
 70
     1
102
RTVSPropertyOp23
 70
     1
102
RTVSPropertyOp24
 70
     1
102
RTVSPropertyOp25
 70
     1
102
RTVSPropertyOp26
 70
     1
102
RTVSPropertyOp27
 70
     1
102
RTVSPropertyOp28
 70
     1
102
RTVSPropertyOp29
 70
     1
102
RTVSPropertyOp30
 70
     1
102
RTVSPropertyOp31
 70
     1
102
RTVSPropertyOp32
 70
     1
102
RTVSPropertyOp33
 70
     1
102
RTVSPropertyOp34
 70
     1
102
RTVSPropertyOp35
 70
     1
102
RTVSPropertyOp36
 70
     1
102
RTVSPropertyOp37
 70
     1
102
RTVSPropertyOp38
 70
     1
102
RTVSPropertyOp39
 70
     1
102
RTVSPropertyOp40
 70
     1
102
RTVSPropertyOp41
 70
     1
102
RTVSPropertyOp42
 70
     1
102
RTVSPropertyOp43
 70
     1
102
RTVSPropertyOp44
 70
     1
102
RTVSPropertyOp45
 70
     1
102
RTVSPropertyOp46
 70
     1
102
RTVSPropertyOp47
 70
     1
102
RTVSPropertyOp48
 70
     1
102
RTVSPropertyOp49
 70
     1
102
RTVSPropertyOp50
 70
     1
102
RTVSPropertyOp51
 70
     0
102
RTVSPropertyOp52
 70
     0
102
RTVSPropertyOp53
 70
     1
102
RTVSPropertyOp54
 70
     1
102
RTVSPropertyOp55
 70
     1
102
RTVSPropertyOp56
 70
     1
102
RTVSPropertyOp57
 70
     1
102
RTVSPropertyOp58
 70
     1
102
RTVSPropertyOp59
 70
     1
102
RTVSPropertyOp60
 70
     1
102
RTVSPropertyOp61
 70
     1
102
RTVSPropertyOp62
 70
     1
  0
XRECORD
  5
8557
102
{ACAD_REACTORS
330
8556
102
}
330
8556
100
AcDbXrecord
280
     1
102
RTVSPost2010Prop28
280
     0
102
RTVSPost2010PropOp28
 70
     1
102
RTVSPost2010Prop29
280
     1
102
RTVSPost2010PropOp29
 70
     1
102
RTVSPost2010Prop30
280
     1
102
RTVSPost2010PropOp30
 70
     1
102
RTVSPost2010Prop31
280
     0
102
RTVSPost2010PropOp31
 70
     1
102
RTVSPost2010Prop32
280
     0
102
RTVSPost2010PropOp32
 70
     1
102
RTVSPost2010Prop33
280
     0
102
RTVSPost2010PropOp33
 70
     1
102
RTVSPost2010Prop34
280
     0
102
RTVSPost2010PropOp34
 70
     1
102
RTVSPost2010Prop35
280
     0
102
RTVSPost2010PropOp35
 70
     1
102
RTVSPost2010Prop36
280
     0
102
RTVSPost2010PropOp36
 70
     1
102
RTVSPost2010Prop37
 90
       50
102
RTVSPost2010PropOp37
 70
     1
102
RTVSPost2010Prop38
140
0.0
102
RTVSPost2010PropOp38
 70
     1
102
RTVSPost2010Prop39
140
1.0
102
RTVSPost2010PropOp39
 70
     1
102
RTVSPost2010Prop40
 90
        0
102
RTVSPost2010PropOp40
 70
     1
102
RTVSPost2010Prop41ColorIndex
 90
       18
102
RTVSPost2010Prop41ColorRGB
 90
        0
102
RTVSPost2010PropOp41
 70
     1
102
RTVSPost2010Prop42
 90
       50
102
RTVSPost2010PropOp42
 70
     1
102
RTVSPost2010Prop43
 90
        3
102
RTVSPost2010PropOp43
 70
     1
102
RTVSPost2010Prop44ColorIndex
 90
        5
102
RTVSPost2010Prop44ColorRGB
 90
      255
102
RTVSPost2010PropOp44
 70
     1
102
RTVSPost2010Prop45
280
     0
102
RTVSPost2010PropOp45
 70
     1
102
RTVSPost2010Prop46
 90
       50
102
RTVSPost2010PropOp46
 70
     1
102
RTVSPost2010Prop47
 90
       50
102
RTVSPost2010PropOp47
 70
     1
102
RTVSPost2010Prop48
 90
       50
102
RTVSPost2010PropOp48
 70
     1
102
RTVSPost2010Prop49
280
     0
102
RTVSPost2010PropOp49
 70
     1
102
RTVSPost2010Prop50
 90
       50
102
RTVSPost2010PropOp50
 70
     1
102
RTVSPost2010Prop51ColorIndex
 90
      256
102
RTVSPost2010Prop51ColorRGB
 90
-16777216
102
RTVSPost2010PropOp51
 70
     0
102
RTVSPost2010Prop52
140
1.0
102
RTVSPost2010PropOp52
 70
     0
102
RTVSPost2010Prop53
 90
        2
102
RTVSPost2010PropOp53
 70
     1
102
RTVSPost2010Prop54
  1
strokes_ogs.tif
102
RTVSPost2010PropOp54
 70
     1
102
RTVSPost2010Prop55
280
     0
102
RTVSPost2010PropOp55
 70
     1
102
RTVSPost2010Prop56
140
1.0
102
RTVSPost2010PropOp56
 70
     1
102
RTVSPost2010Prop57
140
1.0
102
RTVSPost2010PropOp57
 70
     1
102
RTVSPropertyOp0
 70
     1
102
RTVSPropertyOp1
 70
     1
102
RTVSPropertyOp2
 70
     1
102
RTVSPropertyOp3
 70
     1
102
RTVSPropertyOp4
 70
     1
102
RTVSPropertyOp5
 70
     1
102
RTVSPropertyOp6
 70
     1
102
RTVSPropertyOp7
 70
     1
102
RTVSPropertyOp8
 70
     1
102
RTVSPropertyOp9
 70
     1
102
RTVSPropertyOp10
 70
     1
102
RTVSPropertyOp11
 70
     1
102
RTVSPropertyOp12
 70
     1
102
RTVSPropertyOp13
 70
     1
102
RTVSPropertyOp14
 70
     1
102
RTVSPropertyOp15
 70
     1
102
RTVSPropertyOp16
 70
     1
102
RTVSPropertyOp17
 70
     1
102
RTVSPropertyOp18
 70
     1
102
RTVSPropertyOp19
 70
     1
102
RTVSPropertyOp20
 70
     1
102
RTVSPropertyOp21
 70
     1
102
RTVSPropertyOp22
 70
     1
102
RTVSPropertyOp23
 70
     1
102
RTVSPropertyOp24
 70
     1
102
RTVSPropertyOp25
 70
     1
102
RTVSPropertyOp26
 70
     1
102
RTVSPropertyOp27
 70
     1
102
RTVSPropertyOp28
 70
     1
102
RTVSPropertyOp29
 70
     1
102
RTVSPropertyOp30
 70
     1
102
RTVSPropertyOp31
 70
     1
102
RTVSPropertyOp32
 70
     1
102
RTVSPropertyOp33
 70
     1
102
RTVSPropertyOp34
 70
     1
102
RTVSPropertyOp35
 70
     1
102
RTVSPropertyOp36
 70
     1
102
RTVSPropertyOp37
 70
     1
102
RTVSPropertyOp38
 70
     1
102
RTVSPropertyOp39
 70
     1
102
RTVSPropertyOp40
 70
     1
102
RTVSPropertyOp41
 70
     1
102
RTVSPropertyOp42
 70
     1
102
RTVSPropertyOp43
 70
     1
102
RTVSPropertyOp44
 70
     1
102
RTVSPropertyOp45
 70
     1
102
RTVSPropertyOp46
 70
     1
102
RTVSPropertyOp47
 70
     1
102
RTVSPropertyOp48
 70
     1
102
RTVSPropertyOp49
 70
     1
102
RTVSPropertyOp50
 70
     1
102
RTVSPropertyOp51
 70
     0
102
RTVSPropertyOp52
 70
     0
102
RTVSPropertyOp53
 70
     1
102
RTVSPropertyOp54
 70
     1
102
RTVSPropertyOp55
 70
     1
102
RTVSPropertyOp56
 70
     1
102
RTVSPropertyOp57
 70
     1
102
RTVSPropertyOp58
 70
     1
102
RTVSPropertyOp59
 70
     1
102
RTVSPropertyOp60
 70
     1
102
RTVSPropertyOp61
 70
     1
102
RTVSPropertyOp62
 70
     1
  0
XRECORD
  5
8559
102
{ACAD_REACTORS
330
8558
102
}
330
8558
100
AcDbXrecord
280
     1
102
RTVSPost2010Prop28
280
     0
102
RTVSPost2010PropOp28
 70
     1
102
RTVSPost2010Prop29
280
     1
102
RTVSPost2010PropOp29
 70
     1
102
RTVSPost2010Prop30
280
     1
102
RTVSPost2010PropOp30
 70
     1
102
RTVSPost2010Prop31
280
     0
102
RTVSPost2010PropOp31
 70
     1
102
RTVSPost2010Prop32
280
     0
102
RTVSPost2010PropOp32
 70
     1
102
RTVSPost2010Prop33
280
     0
102
RTVSPost2010PropOp33
 70
     1
102
RTVSPost2010Prop34
280
     0
102
RTVSPost2010PropOp34
 70
     1
102
RTVSPost2010Prop35
280
     0
102
RTVSPost2010PropOp35
 70
     1
102
RTVSPost2010Prop36
280
     0
102
RTVSPost2010PropOp36
 70
     1
102
RTVSPost2010Prop37
 90
       50
102
RTVSPost2010PropOp37
 70
     1
102
RTVSPost2010Prop38
140
0.0
102
RTVSPost2010PropOp38
 70
     1
102
RTVSPost2010Prop39
140
1.0
102
RTVSPost2010PropOp39
 70
     1
102
RTVSPost2010Prop40
 90
        0
102
RTVSPost2010PropOp40
 70
     1
102
RTVSPost2010Prop41ColorIndex
 90
       18
102
RTVSPost2010Prop41ColorRGB
 90
        0
102
RTVSPost2010PropOp41
 70
     1
102
RTVSPost2010Prop42
 90
       50
102
RTVSPost2010PropOp42
 70
     1
102
RTVSPost2010Prop43
 90
        3
102
RTVSPost2010PropOp43
 70
     1
102
RTVSPost2010Prop44ColorIndex
 90
        5
102
RTVSPost2010Prop44ColorRGB
 90
      255
102
RTVSPost2010PropOp44
 70
     1
102
RTVSPost2010Prop45
280
     0
102
RTVSPost2010PropOp45
 70
     1
102
RTVSPost2010Prop46
 90
       50
102
RTVSPost2010PropOp46
 70
     1
102
RTVSPost2010Prop47
 90
       50
102
RTVSPost2010PropOp47
 70
     1
102
RTVSPost2010Prop48
 90
       50
102
RTVSPost2010PropOp48
 70
     1
102
RTVSPost2010Prop49
280
     0
102
RTVSPost2010PropOp49
 70
     1
102
RTVSPost2010Prop50
 90
       50
102
RTVSPost2010PropOp50
 70
     1
102
RTVSPost2010Prop51ColorIndex
 90
      256
102
RTVSPost2010Prop51ColorRGB
 90
-16777216
102
RTVSPost2010PropOp51
 70
     0
102
RTVSPost2010Prop52
140
1.0
102
RTVSPost2010PropOp52
 70
     0
102
RTVSPost2010Prop53
 90
        2
102
RTVSPost2010PropOp53
 70
     1
102
RTVSPost2010Prop54
  1
strokes_ogs.tif
102
RTVSPost2010PropOp54
 70
     1
102
RTVSPost2010Prop55
280
     0
102
RTVSPost2010PropOp55
 70
     1
102
RTVSPost2010Prop56
140
1.0
102
RTVSPost2010PropOp56
 70
     1
102
RTVSPost2010Prop57
140
1.0
102
RTVSPost2010PropOp57
 70
     1
102
RTVSPropertyOp0
 70
     1
102
RTVSPropertyOp1
 70
     1
102
RTVSPropertyOp2
 70
     1
102
RTVSPropertyOp3
 70
     1
102
RTVSPropertyOp4
 70
     1
102
RTVSPropertyOp5
 70
     1
102
RTVSPropertyOp6
 70
     1
102
RTVSPropertyOp7
 70
     1
102
RTVSPropertyOp8
 70
     1
102
RTVSPropertyOp9
 70
     1
102
RTVSPropertyOp10
 70
     1
102
RTVSPropertyOp11
 70
     1
102
RTVSPropertyOp12
 70
     1
102
RTVSPropertyOp13
 70
     1
102
RTVSPropertyOp14
 70
     1
102
RTVSPropertyOp15
 70
     1
102
RTVSPropertyOp16
 70
     1
102
RTVSPropertyOp17
 70
     1
102
RTVSPropertyOp18
 70
     1
102
RTVSPropertyOp19
 70
     1
102
RTVSPropertyOp20
 70
     1
102
RTVSPropertyOp21
 70
     1
102
RTVSPropertyOp22
 70
     1
102
RTVSPropertyOp23
 70
     1
102
RTVSPropertyOp24
 70
     1
102
RTVSPropertyOp25
 70
     1
102
RTVSPropertyOp26
 70
     1
102
RTVSPropertyOp27
 70
     1
102
RTVSPropertyOp28
 70
     1
102
RTVSPropertyOp29
 70
     1
102
RTVSPropertyOp30
 70
     1
102
RTVSPropertyOp31
 70
     1
102
RTVSPropertyOp32
 70
     1
102
RTVSPropertyOp33
 70
     1
102
RTVSPropertyOp34
 70
     1
102
RTVSPropertyOp35
 70
     1
102
RTVSPropertyOp36
 70
     1
102
RTVSPropertyOp37
 70
     1
102
RTVSPropertyOp38
 70
     1
102
RTVSPropertyOp39
 70
     1
102
RTVSPropertyOp40
 70
     1
102
RTVSPropertyOp41
 70
     1
102
RTVSPropertyOp42
 70
     1
102
RTVSPropertyOp43
 70
     1
102
RTVSPropertyOp44
 70
     1
102
RTVSPropertyOp45
 70
     1
102
RTVSPropertyOp46
 70
     1
102
RTVSPropertyOp47
 70
     1
102
RTVSPropertyOp48
 70
     1
102
RTVSPropertyOp49
 70
     1
102
RTVSPropertyOp50
 70
     1
102
RTVSPropertyOp51
 70
     0
102
RTVSPropertyOp52
 70
     0
102
RTVSPropertyOp53
 70
     1
102
RTVSPropertyOp54
 70
     1
102
RTVSPropertyOp55
 70
     1
102
RTVSPropertyOp56
 70
     1
102
RTVSPropertyOp57
 70
     1
102
RTVSPropertyOp58
 70
     1
102
RTVSPropertyOp59
 70
     1
102
RTVSPropertyOp60
 70
     1
102
RTVSPropertyOp61
 70
     1
102
RTVSPropertyOp62
 70
     1
  0
XRECORD
  5
854F
102
{ACAD_REACTORS
330
854E
102
}
330
854E
100
AcDbXrecord
280
     1
102
RTVSPost2010Prop28
280
     0
102
RTVSPost2010PropOp28
 70
     1
102
RTVSPost2010Prop29
280
     1
102
RTVSPost2010PropOp29
 70
     1
102
RTVSPost2010Prop30
280
     1
102
RTVSPost2010PropOp30
 70
     1
102
RTVSPost2010Prop31
280
     0
102
RTVSPost2010PropOp31
 70
     1
102
RTVSPost2010Prop32
280
     0
102
RTVSPost2010PropOp32
 70
     1
102
RTVSPost2010Prop33
280
     0
102
RTVSPost2010PropOp33
 70
     1
102
RTVSPost2010Prop34
280
     0
102
RTVSPost2010PropOp34
 70
     1
102
RTVSPost2010Prop35
280
     0
102
RTVSPost2010PropOp35
 70
     1
102
RTVSPost2010Prop36
280
     0
102
RTVSPost2010PropOp36
 70
     1
102
RTVSPost2010Prop37
 90
       50
102
RTVSPost2010PropOp37
 70
     1
102
RTVSPost2010Prop38
140
0.0
102
RTVSPost2010PropOp38
 70
     1
102
RTVSPost2010Prop39
140
1.0
102
RTVSPost2010PropOp39
 70
     1
102
RTVSPost2010Prop40
 90
        0
102
RTVSPost2010PropOp40
 70
     1
102
RTVSPost2010Prop41ColorIndex
 90
       18
102
RTVSPost2010Prop41ColorRGB
 90
        0
102
RTVSPost2010PropOp41
 70
     1
102
RTVSPost2010Prop42
 90
       50
102
RTVSPost2010PropOp42
 70
     1
102
RTVSPost2010Prop43
 90
        3
102
RTVSPost2010PropOp43
 70
     1
102
RTVSPost2010Prop44ColorIndex
 90
        5
102
RTVSPost2010Prop44ColorRGB
 90
      255
102
RTVSPost2010PropOp44
 70
     1
102
RTVSPost2010Prop45
280
     0
102
RTVSPost2010PropOp45
 70
     1
102
RTVSPost2010Prop46
 90
       50
102
RTVSPost2010PropOp46
 70
     1
102
RTVSPost2010Prop47
 90
       50
102
RTVSPost2010PropOp47
 70
     1
102
RTVSPost2010Prop48
 90
       50
102
RTVSPost2010PropOp48
 70
     1
102
RTVSPost2010Prop49
280
     0
102
RTVSPost2010PropOp49
 70
     1
102
RTVSPost2010Prop50
 90
       50
102
RTVSPost2010PropOp50
 70
     1
102
RTVSPost2010Prop51ColorIndex
 90
      256
102
RTVSPost2010Prop51ColorRGB
 90
-16777216
102
RTVSPost2010PropOp51
 70
     0
102
RTVSPost2010Prop52
140
1.0
102
RTVSPost2010PropOp52
 70
     0
102
RTVSPost2010Prop53
 90
        2
102
RTVSPost2010PropOp53
 70
     1
102
RTVSPost2010Prop54
  1
strokes_ogs.tif
102
RTVSPost2010PropOp54
 70
     1
102
RTVSPost2010Prop55
280
     0
102
RTVSPost2010PropOp55
 70
     1
102
RTVSPost2010Prop56
140
1.0
102
RTVSPost2010PropOp56
 70
     1
102
RTVSPost2010Prop57
140
1.0
102
RTVSPost2010PropOp57
 70
     1
102
RTVSPropertyOp0
 70
     1
102
RTVSPropertyOp1
 70
     1
102
RTVSPropertyOp2
 70
     1
102
RTVSPropertyOp3
 70
     1
102
RTVSPropertyOp4
 70
     1
102
RTVSPropertyOp5
 70
     1
102
RTVSPropertyOp6
 70
     1
102
RTVSPropertyOp7
 70
     1
102
RTVSPropertyOp8
 70
     1
102
RTVSPropertyOp9
 70
     1
102
RTVSPropertyOp10
 70
     1
102
RTVSPropertyOp11
 70
     1
102
RTVSPropertyOp12
 70
     1
102
RTVSPropertyOp13
 70
     1
102
RTVSPropertyOp14
 70
     1
102
RTVSPropertyOp15
 70
     1
102
RTVSPropertyOp16
 70
     1
102
RTVSPropertyOp17
 70
     1
102
RTVSPropertyOp18
 70
     1
102
RTVSPropertyOp19
 70
     1
102
RTVSPropertyOp20
 70
     1
102
RTVSPropertyOp21
 70
     1
102
RTVSPropertyOp22
 70
     1
102
RTVSPropertyOp23
 70
     1
102
RTVSPropertyOp24
 70
     1
102
RTVSPropertyOp25
 70
     1
102
RTVSPropertyOp26
 70
     1
102
RTVSPropertyOp27
 70
     1
102
RTVSPropertyOp28
 70
     1
102
RTVSPropertyOp29
 70
     1
102
RTVSPropertyOp30
 70
     1
102
RTVSPropertyOp31
 70
     1
102
RTVSPropertyOp32
 70
     1
102
RTVSPropertyOp33
 70
     1
102
RTVSPropertyOp34
 70
     1
102
RTVSPropertyOp35
 70
     1
102
RTVSPropertyOp36
 70
     1
102
RTVSPropertyOp37
 70
     1
102
RTVSPropertyOp38
 70
     1
102
RTVSPropertyOp39
 70
     1
102
RTVSPropertyOp40
 70
     1
102
RTVSPropertyOp41
 70
     1
102
RTVSPropertyOp42
 70
     1
102
RTVSPropertyOp43
 70
     1
102
RTVSPropertyOp44
 70
     1
102
RTVSPropertyOp45
 70
     1
102
RTVSPropertyOp46
 70
     1
102
RTVSPropertyOp47
 70
     1
102
RTVSPropertyOp48
 70
     1
102
RTVSPropertyOp49
 70
     1
102
RTVSPropertyOp50
 70
     1
102
RTVSPropertyOp51
 70
     0
102
RTVSPropertyOp52
 70
     0
102
RTVSPropertyOp53
 70
     1
102
RTVSPropertyOp54
 70
     1
102
RTVSPropertyOp55
 70
     1
102
RTVSPropertyOp56
 70
     1
102
RTVSPropertyOp57
 70
     1
102
RTVSPropertyOp58
 70
     1
102
RTVSPropertyOp59
 70
     1
102
RTVSPropertyOp60
 70
     1
102
RTVSPropertyOp61
 70
     1
102
RTVSPropertyOp62
 70
     1
  0
XRECORD
  5
8543
102
{ACAD_REACTORS
330
8542
102
}
330
8542
100
AcDbXrecord
280
     1
102
RTVSPost2010Prop28
280
     0
102
RTVSPost2010PropOp28
 70
     1
102
RTVSPost2010Prop29
280
     1
102
RTVSPost2010PropOp29
 70
     1
102
RTVSPost2010Prop30
280
     1
102
RTVSPost2010PropOp30
 70
     1
102
RTVSPost2010Prop31
280
     0
102
RTVSPost2010PropOp31
 70
     1
102
RTVSPost2010Prop32
280
     0
102
RTVSPost2010PropOp32
 70
     1
102
RTVSPost2010Prop33
280
     0
102
RTVSPost2010PropOp33
 70
     1
102
RTVSPost2010Prop34
280
     0
102
RTVSPost2010PropOp34
 70
     1
102
RTVSPost2010Prop35
280
     0
102
RTVSPost2010PropOp35
 70
     1
102
RTVSPost2010Prop36
280
     0
102
RTVSPost2010PropOp36
 70
     1
102
RTVSPost2010Prop37
 90
       50
102
RTVSPost2010PropOp37
 70
     1
102
RTVSPost2010Prop38
140
0.0
102
RTVSPost2010PropOp38
 70
     1
102
RTVSPost2010Prop39
140
1.0
102
RTVSPost2010PropOp39
 70
     1
102
RTVSPost2010Prop40
 90
        0
102
RTVSPost2010PropOp40
 70
     1
102
RTVSPost2010Prop41ColorIndex
 90
       18
102
RTVSPost2010Prop41ColorRGB
 90
        0
102
RTVSPost2010PropOp41
 70
     1
102
RTVSPost2010Prop42
 90
       50
102
RTVSPost2010PropOp42
 70
     1
102
RTVSPost2010Prop43
 90
        3
102
RTVSPost2010PropOp43
 70
     1
102
RTVSPost2010Prop44ColorIndex
 90
        5
102
RTVSPost2010Prop44ColorRGB
 90
      255
102
RTVSPost2010PropOp44
 70
     1
102
RTVSPost2010Prop45
280
     0
102
RTVSPost2010PropOp45
 70
     1
102
RTVSPost2010Prop46
 90
       50
102
RTVSPost2010PropOp46
 70
     1
102
RTVSPost2010Prop47
 90
       50
102
RTVSPost2010PropOp47
 70
     1
102
RTVSPost2010Prop48
 90
       50
102
RTVSPost2010PropOp48
 70
     1
102
RTVSPost2010Prop49
280
     0
102
RTVSPost2010PropOp49
 70
     1
102
RTVSPost2010Prop50
 90
       50
102
RTVSPost2010PropOp50
 70
     1
102
RTVSPost2010Prop51ColorIndex
 90
      256
102
RTVSPost2010Prop51ColorRGB
 90
-16777216
102
RTVSPost2010PropOp51
 70
     0
102
RTVSPost2010Prop52
140
1.0
102
RTVSPost2010PropOp52
 70
     0
102
RTVSPost2010Prop53
 90
        2
102
RTVSPost2010PropOp53
 70
     1
102
RTVSPost2010Prop54
  1
strokes_ogs.tif
102
RTVSPost2010PropOp54
 70
     1
102
RTVSPost2010Prop55
280
     0
102
RTVSPost2010PropOp55
 70
     1
102
RTVSPost2010Prop56
140
1.0
102
RTVSPost2010PropOp56
 70
     1
102
RTVSPost2010Prop57
140
1.0
102
RTVSPost2010PropOp57
 70
     1
102
RTVSPropertyOp0
 70
     1
102
RTVSPropertyOp1
 70
     1
102
RTVSPropertyOp2
 70
     1
102
RTVSPropertyOp3
 70
     1
102
RTVSPropertyOp4
 70
     1
102
RTVSPropertyOp5
 70
     1
102
RTVSPropertyOp6
 70
     1
102
RTVSPropertyOp7
 70
     1
102
RTVSPropertyOp8
 70
     1
102
RTVSPropertyOp9
 70
     1
102
RTVSPropertyOp10
 70
     1
102
RTVSPropertyOp11
 70
     1
102
RTVSPropertyOp12
 70
     1
102
RTVSPropertyOp13
 70
     1
102
RTVSPropertyOp14
 70
     1
102
RTVSPropertyOp15
 70
     1
102
RTVSPropertyOp16
 70
     1
102
RTVSPropertyOp17
 70
     1
102
RTVSPropertyOp18
 70
     1
102
RTVSPropertyOp19
 70
     1
102
RTVSPropertyOp20
 70
     1
102
RTVSPropertyOp21
 70
     1
102
RTVSPropertyOp22
 70
     1
102
RTVSPropertyOp23
 70
     1
102
RTVSPropertyOp24
 70
     1
102
RTVSPropertyOp25
 70
     1
102
RTVSPropertyOp26
 70
     1
102
RTVSPropertyOp27
 70
     1
102
RTVSPropertyOp28
 70
     1
102
RTVSPropertyOp29
 70
     1
102
RTVSPropertyOp30
 70
     1
102
RTVSPropertyOp31
 70
     1
102
RTVSPropertyOp32
 70
     1
102
RTVSPropertyOp33
 70
     1
102
RTVSPropertyOp34
 70
     1
102
RTVSPropertyOp35
 70
     1
102
RTVSPropertyOp36
 70
     1
102
RTVSPropertyOp37
 70
     1
102
RTVSPropertyOp38
 70
     1
102
RTVSPropertyOp39
 70
     1
102
RTVSPropertyOp40
 70
     1
102
RTVSPropertyOp41
 70
     1
102
RTVSPropertyOp42
 70
     1
102
RTVSPropertyOp43
 70
     1
102
RTVSPropertyOp44
 70
     1
102
RTVSPropertyOp45
 70
     1
102
RTVSPropertyOp46
 70
     1
102
RTVSPropertyOp47
 70
     1
102
RTVSPropertyOp48
 70
     1
102
RTVSPropertyOp49
 70
     1
102
RTVSPropertyOp50
 70
     1
102
RTVSPropertyOp51
 70
     0
102
RTVSPropertyOp52
 70
     0
102
RTVSPropertyOp53
 70
     1
102
RTVSPropertyOp54
 70
     1
102
RTVSPropertyOp55
 70
     1
102
RTVSPropertyOp56
 70
     1
102
RTVSPropertyOp57
 70
     1
102
RTVSPropertyOp58
 70
     1
102
RTVSPropertyOp59
 70
     1
102
RTVSPropertyOp60
 70
     1
102
RTVSPropertyOp61
 70
     1
102
RTVSPropertyOp62
 70
     1
  0
XRECORD
  5
855B
102
{ACAD_REACTORS
330
855A
102
}
330
855A
100
AcDbXrecord
280
     1
102
RTVSPost2010Prop28
280
     0
102
RTVSPost2010PropOp28
 70
     1
102
RTVSPost2010Prop29
280
     1
102
RTVSPost2010PropOp29
 70
     1
102
RTVSPost2010Prop30
280
     1
102
RTVSPost2010PropOp30
 70
     1
102
RTVSPost2010Prop31
280
     0
102
RTVSPost2010PropOp31
 70
     1
102
RTVSPost2010Prop32
280
     0
102
RTVSPost2010PropOp32
 70
     1
102
RTVSPost2010Prop33
280
     0
102
RTVSPost2010PropOp33
 70
     1
102
RTVSPost2010Prop34
280
     0
102
RTVSPost2010PropOp34
 70
     1
102
RTVSPost2010Prop35
280
     0
102
RTVSPost2010PropOp35
 70
     1
102
RTVSPost2010Prop36
280
     0
102
RTVSPost2010PropOp36
 70
     1
102
RTVSPost2010Prop37
 90
       50
102
RTVSPost2010PropOp37
 70
     1
102
RTVSPost2010Prop38
140
0.0
102
RTVSPost2010PropOp38
 70
     1
102
RTVSPost2010Prop39
140
1.0
102
RTVSPost2010PropOp39
 70
     1
102
RTVSPost2010Prop40
 90
        0
102
RTVSPost2010PropOp40
 70
     1
102
RTVSPost2010Prop41ColorIndex
 90
       18
102
RTVSPost2010Prop41ColorRGB
 90
        0
102
RTVSPost2010PropOp41
 70
     1
102
RTVSPost2010Prop42
 90
       50
102
RTVSPost2010PropOp42
 70
     1
102
RTVSPost2010Prop43
 90
        3
102
RTVSPost2010PropOp43
 70
     1
102
RTVSPost2010Prop44ColorIndex
 90
        5
102
RTVSPost2010Prop44ColorRGB
 90
      255
102
RTVSPost2010PropOp44
 70
     1
102
RTVSPost2010Prop45
280
     0
102
RTVSPost2010PropOp45
 70
     1
102
RTVSPost2010Prop46
 90
       50
102
RTVSPost2010PropOp46
 70
     1
102
RTVSPost2010Prop47
 90
       50
102
RTVSPost2010PropOp47
 70
     1
102
RTVSPost2010Prop48
 90
       50
102
RTVSPost2010PropOp48
 70
     1
102
RTVSPost2010Prop49
280
     0
102
RTVSPost2010PropOp49
 70
     1
102
RTVSPost2010Prop50
 90
       50
102
RTVSPost2010PropOp50
 70
     1
102
RTVSPost2010Prop51ColorIndex
 90
      256
102
RTVSPost2010Prop51ColorRGB
 90
-16777216
102
RTVSPost2010PropOp51
 70
     0
102
RTVSPost2010Prop52
140
1.0
102
RTVSPost2010PropOp52
 70
     0
102
RTVSPost2010Prop53
 90
        2
102
RTVSPost2010PropOp53
 70
     1
102
RTVSPost2010Prop54
  1
strokes_ogs.tif
102
RTVSPost2010PropOp54
 70
     1
102
RTVSPost2010Prop55
280
     0
102
RTVSPost2010PropOp55
 70
     1
102
RTVSPost2010Prop56
140
1.0
102
RTVSPost2010PropOp56
 70
     1
102
RTVSPost2010Prop57
140
1.0
102
RTVSPost2010PropOp57
 70
     1
102
RTVSPropertyOp0
 70
     1
102
RTVSPropertyOp1
 70
     1
102
RTVSPropertyOp2
 70
     1
102
RTVSPropertyOp3
 70
     1
102
RTVSPropertyOp4
 70
     1
102
RTVSPropertyOp5
 70
     1
102
RTVSPropertyOp6
 70
     1
102
RTVSPropertyOp7
 70
     1
102
RTVSPropertyOp8
 70
     1
102
RTVSPropertyOp9
 70
     1
102
RTVSPropertyOp10
 70
     1
102
RTVSPropertyOp11
 70
     1
102
RTVSPropertyOp12
 70
     1
102
RTVSPropertyOp13
 70
     1
102
RTVSPropertyOp14
 70
     1
102
RTVSPropertyOp15
 70
     1
102
RTVSPropertyOp16
 70
     1
102
RTVSPropertyOp17
 70
     1
102
RTVSPropertyOp18
 70
     1
102
RTVSPropertyOp19
 70
     1
102
RTVSPropertyOp20
 70
     1
102
RTVSPropertyOp21
 70
     1
102
RTVSPropertyOp22
 70
     1
102
RTVSPropertyOp23
 70
     1
102
RTVSPropertyOp24
 70
     1
102
RTVSPropertyOp25
 70
     1
102
RTVSPropertyOp26
 70
     1
102
RTVSPropertyOp27
 70
     1
102
RTVSPropertyOp28
 70
     1
102
RTVSPropertyOp29
 70
     1
102
RTVSPropertyOp30
 70
     1
102
RTVSPropertyOp31
 70
     1
102
RTVSPropertyOp32
 70
     1
102
RTVSPropertyOp33
 70
     1
102
RTVSPropertyOp34
 70
     1
102
RTVSPropertyOp35
 70
     1
102
RTVSPropertyOp36
 70
     1
102
RTVSPropertyOp37
 70
     1
102
RTVSPropertyOp38
 70
     1
102
RTVSPropertyOp39
 70
     1
102
RTVSPropertyOp40
 70
     1
102
RTVSPropertyOp41
 70
     1
102
RTVSPropertyOp42
 70
     1
102
RTVSPropertyOp43
 70
     1
102
RTVSPropertyOp44
 70
     1
102
RTVSPropertyOp45
 70
     1
102
RTVSPropertyOp46
 70
     1
102
RTVSPropertyOp47
 70
     1
102
RTVSPropertyOp48
 70
     1
102
RTVSPropertyOp49
 70
     1
102
RTVSPropertyOp50
 70
     1
102
RTVSPropertyOp51
 70
     0
102
RTVSPropertyOp52
 70
     0
102
RTVSPropertyOp53
 70
     1
102
RTVSPropertyOp54
 70
     1
102
RTVSPropertyOp55
 70
     1
102
RTVSPropertyOp56
 70
     1
102
RTVSPropertyOp57
 70
     1
102
RTVSPropertyOp58
 70
     1
102
RTVSPropertyOp59
 70
     1
102
RTVSPropertyOp60
 70
     1
102
RTVSPropertyOp61
 70
     1
102
RTVSPropertyOp62
 70
     1
  0
ENDSEC
  0
EOF
