  0
SECTION
  2
HEADER
  9
$ACADVER
  1
AC1015
  9
$ACADMAINTVER
 70
    20
  9
$DWGCODEPAGE
  3
ANSI_932
  9
$INSBASE
 10
0.0
 20
0.0
 30
0.0
  9
$EXTMIN
 10
-0.1602050617329951
 20
-0.22504996767384
 30
-0.0015258207003583
  9
$EXTMAX
 10
5250.160229508953
 20
7375.225084310193
 30
0.0000000349246037
  9
$LIMMIN
 10
0.0
 20
0.0
  9
$LIMMAX
 10
297.0
 20
210.0
  9
$ORTHOMODE
 70
     1
  9
$REGENMODE
 70
     1
  9
$FILLMODE
 70
     0
  9
$QTEXTMODE
 70
     0
  9
$MIRRTEXT
 70
     1
  9
$LTSCALE
 40
100.0
  9
$ATTMODE
 70
     1
  9
$TEXTSIZE
 40
180.0
  9
$TRACEWID
 40
0.05
  9
$TEXTSTYLE
  7
STANDARD
  9
$CLAYER
  8
3
  9
$CELTYPE
  6
ByLayer
  9
$CECOLOR
 62
   256
  9
$CELTSCALE
 40
1.0
  9
$DISPSILH
 70
     0
  9
$DIMSCALE
 40
25.0
  9
$DIMASZ
 40
2.0
  9
$DIMEXO
 40
1.0
  9
$DIMDLI
 40
10.0
  9
$DIMRND
 40
0.0
  9
$DIMDLE
 40
0.0
  9
$DIMEXE
 40
1.0
  9
$DIMTP
 40
1.0
  9
$DIMTM
 40
1.0
  9
$DIMTXT
 40
3.0
  9
$DIMCEN
 40
0.0
  9
$DIMTSZ
 40
0.0
  9
$DIMTOL
 70
     0
  9
$DIMLIM
 70
     0
  9
$DIMTIH
 70
     0
  9
$DIMTOH
 70
     0
  9
$DIMSE1
 70
     0
  9
$DIMSE2
 70
     0
  9
$DIMTAD
 70
     1
  9
$DIMZIN
 70
     8
  9
$DIMBLK
  1

  9
$DIMASO
 70
     1
  9
$DIMSHO
 70
     1
  9
$DIMPOST
  1

  9
$DIMAPOST
  1

  9
$DIMALT
 70
     0
  9
$DIMALTD
 70
     2
  9
$DIMALTF
 40
0.039
  9
$DIMLFAC
 40
1.0
  9
$DIMTOFL
 70
     1
  9
$DIMTVP
 40
0.0
  9
$DIMTIX
 70
     0
  9
$DIMSOXD
 70
     0
  9
$DIMSAH
 70
     1
  9
$DIMBLK1
  1
OPEN
  9
$DIMBLK2
  1
OPEN
  9
$DIMSTYLE
  2
IGA
  9
$DIMCLRD
 70
     0
  9
$DIMCLRE
 70
     0
  9
$DIMCLRT
 70
     0
  9
$DIMTFAC
 40
10.0
  9
$DIMGAP
 40
1.0
  9
$DIMJUST
 70
     0
  9
$DIMSD1
 70
     0
  9
$DIMSD2
 70
     0
  9
$DIMTOLJ
 70
     1
  9
$DIMTZIN
 70
     0
  9
$DIMALTZ
 70
     0
  9
$DIMALTTZ
 70
     0
  9
$DIMUPT
 70
     0
  9
$DIMDEC
 70
     4
  9
$DIMTDEC
 70
     4
  9
$DIMALTU
 70
     2
  9
$DIMALTTD
 70
     2
  9
$DIMTXSTY
  7
STANDARD
  9
$DIMAUNIT
 70
     0
  9
$DIMADEC
 70
     0
  9
$DIMALTRND
 40
0.0
  9
$DIMAZIN
 70
     0
  9
$DIMDSEP
 70
    46
  9
$DIMATFIT
 70
     3
  9
$DIMFRAC
 70
     0
  9
$DIMLDRBLK
  1
OPEN
  9
$DIMLUNIT
 70
     2
  9
$DIMLWD
 70
    -2
  9
$DIMLWE
 70
    -2
  9
$DIMTMOVE
 70
     0
  9
$LUNITS
 70
     2
  9
$LUPREC
 70
     3
  9
$SKETCHINC
 40
0.1
  9
$FILLETRAD
 40
50.0
  9
$AUNITS
 70
     0
  9
$AUPREC
 70
     0
  9
$MENU
  1
acad
  9
$ELEVATION
 40
0.0
  9
$PELEVATION
 40
0.0
  9
$THICKNESS
 40
0.0
  9
$LIMCHECK
 70
     0
  9
$CHAMFERA
 40
0.5
  9
$CHAMFERB
 40
0.5
  9
$CHAMFERC
 40
0.0
  9
$CHAMFERD
 40
0.0
  9
$SKPOLY
 70
     0
  9
$TDCREATE
 40
2451387.581912616
  9
$TDUCREATE
 40
2451387.206912616
  9
$TDUPDATE
 40
2460263.707616528
  9
$TDUUPDATE
 40
2460263.332616528
  9
$TDINDWG
 40
0.0774266435
  9
$TDUSRTIMER
 40
0.0774264120
  9
$USRTIMER
 70
     1
  9
$ANGBASE
 50
0.0
  9
$ANGDIR
 70
     0
  9
$PDMODE
 70
     0
  9
$PDSIZE
 40
0.0
  9
$PLINEWID
 40
0.0
  9
$SPLFRAME
 70
     0
  9
$SPLINETYPE
 70
     6
  9
$SPLINESEGS
 70
     8
  9
$HANDSEED
  5
85B5
  9
$SURFTAB1
 70
     6
  9
$SURFTAB2
 70
     6
  9
$SURFTYPE
 70
     6
  9
$SURFU
 70
     6
  9
$SURFV
 70
     6
  9
$UCSBASE
  2

  9
$UCSNAME
  2

  9
$UCSORG
 10
0.0
 20
0.0
 30
0.0
  9
$UCSXDIR
 10
1.0
 20
0.0
 30
0.0
  9
$UCSYDIR
 10
0.0
 20
1.0
 30
0.0
  9
$UCSORTHOREF
  2

  9
$UCSORTHOVIEW
 70
     0
  9
$UCSORGTOP
 10
0.0
 20
0.0
 30
0.0
  9
$UCSORGBOTTOM
 10
0.0
 20
0.0
 30
0.0
  9
$UCSORGLEFT
 10
0.0
 20
0.0
 30
0.0
  9
$UCSORGRIGHT
 10
0.0
 20
0.0
 30
0.0
  9
$UCSORGFRONT
 10
0.0
 20
0.0
 30
0.0
  9
$UCSORGBACK
 10
0.0
 20
0.0
 30
0.0
  9
$PUCSBASE
  2

  9
$PUCSNAME
  2

  9
$PUCSORG
 10
0.0
 20
0.0
 30
0.0
  9
$PUCSXDIR
 10
1.0
 20
0.0
 30
0.0
  9
$PUCSYDIR
 10
0.0
 20
1.0
 30
0.0
  9
$PUCSORTHOREF
  2

  9
$PUCSORTHOVIEW
 70
     0
  9
$PUCSORGTOP
 10
0.0
 20
0.0
 30
0.0
  9
$PUCSORGBOTTOM
 10
0.0
 20
0.0
 30
0.0
  9
$PUCSORGLEFT
 10
0.0
 20
0.0
 30
0.0
  9
$PUCSORGRIGHT
 10
0.0
 20
0.0
 30
0.0
  9
$PUCSORGFRONT
 10
0.0
 20
0.0
 30
0.0
  9
$PUCSORGBACK
 10
0.0
 20
0.0
 30
0.0
  9
$USERI1
 70
     0
  9
$USERI2
 70
     0
  9
$USERI3
 70
     0
  9
$USERI4
 70
     0
  9
$USERI5
 70
     0
  9
$USERR1
 40
0.0
  9
$USERR2
 40
0.0
  9
$USERR3
 40
0.0
  9
$USERR4
 40
0.0
  9
$USERR5
 40
0.0
  9
$WORLDVIEW
 70
     1
  9
$SHADEDGE
 70
     3
  9
$SHADEDIF
 70
    70
  9
$TILEMODE
 70
     1
  9
$MAXACTVP
 70
    16
  9
$PINSBASE
 10
0.0
 20
0.0
 30
0.0
  9
$PLIMCHECK
 70
     0
  9
$PEXTMIN
 10
1.000000000000000E+20
 20
1.000000000000000E+20
 30
1.000000000000000E+20
  9
$PEXTMAX
 10
-1.000000000000000E+20
 20
-1.000000000000000E+20
 30
-1.000000000000000E+20
  9
$PLIMMIN
 10
0.0
 20
0.0
  9
$PLIMMAX
 10
12.0
 20
9.0
  9
$UNITMODE
 70
     0
  9
$VISRETAIN
 70
     0
  9
$PLINEGEN
 70
     0
  9
$PSLTSCALE
 70
     1
  9
$TREEDEPTH
 70
  3020
  9
$CMLSTYLE
  2
Standard
  9
$CMLJUST
 70
     0
  9
$CMLSCALE
 40
1.0
  9
$PROXYGRAPHICS
 70
     1
  9
$MEASUREMENT
 70
     0
  9
$CELWEIGHT
370
    -1
  9
$ENDCAPS
280
     0
  9
$JOINSTYLE
280
     0
  9
$LWDISPLAY
290
     0
  9
$INSUNITS
 70
     0
  9
$HYPERLINKBASE
  1

  9
$STYLESHEET
  1

  9
$XEDIT
290
     1
  9
$CEPSNTYPE
380
     0
  9
$PSTYLEMODE
290
     1
  9
$FINGERPRINTGUID
  2
{E3F6E929-296C-44F8-A8F2-2B8A7EFB4023}
  9
$VERSIONGUID
  2
{C54E25D5-8918-41F4-9CFE-FB9DEFB7B77B}
  9
$EXTNAMES
290
     1
  9
$PSVPSCALE
 40
0.0
  9
$OLESTARTUP
290
     0
  0
ENDSEC
  0
SECTION
  2
CLASSES
  0
CLASS
  1
ACDBDICTIONARYWDFLT
  2
AcDbDictionaryWithDefault
  3
ObjectDBX Classes
 90
        0
280
     0
281
     0
  0
CLASS
  1
MATERIAL
  2
AcDbMaterial
  3
ObjectDBX Classes
 90
     1153
280
     0
281
     0
  0
CLASS
  1
VISUALSTYLE
  2
AcDbVisualStyle
  3
ObjectDBX Classes
 90
     4095
280
     0
281
     0
  0
CLASS
  1
SCALE
  2
AcDbScale
  3
ObjectDBX Classes
 90
     1153
280
     0
281
     0
  0
CLASS
  1
TABLESTYLE
  2
AcDbTableStyle
  3
ObjectDBX Classes
 90
     4095
280
     0
281
     0
  0
CLASS
  1
MLEADERSTYLE
  2
AcDbMLeaderStyle
  3
ACDB_MLEADERSTYLE_CLASS
 90
     4095
280
     0
281
     0
  0
CLASS
  1
ACDBSECTIONVIEWSTYLE
  2
AcDbSectionViewStyle
  3
ObjectDBX Classes
 90
     1025
280
     0
281
     0
  0
CLASS
  1
ACDBDETAILVIEWSTYLE
  2
AcDbDetailViewStyle
  3
ObjectDBX Classes
 90
     1025
280
     0
281
     0
  0
CLASS
  1
DICTIONARYVAR
  2
AcDbDictionaryVar
  3
ObjectDBX Classes
 90
        0
280
     0
281
     0
  0
CLASS
  1
CELLSTYLEMAP
  2
AcDbCellStyleMap
  3
ObjectDBX Classes
 90
     1152
280
     0
281
     0
  0
CLASS
  1
SORTENTSTABLE
  2
AcDbSortentsTable
  3
ObjectDBX Classes
 90
        0
280
     0
281
     0
  0
CLASS
  1
ACDBPLACEHOLDER
  2
AcDbPlaceHolder
  3
ObjectDBX Classes
 90
        0
280
     0
281
     0
  0
CLASS
  1
LAYOUT
  2
AcDbLayout
  3
ObjectDBX Classes
 90
        0
280
     0
281
     0
  0
ENDSEC
  0
SECTION
  2
TABLES
  0
TABLE
  2
VPORT
  5
8126
330
0
100
AcDbSymbolTable
 70
     1
  0
VPORT
  5
8192
330
8126
100
AcDbSymbolTableRecord
100
AcDbViewportTableRecord
  2
*ACTIVE
 70
     0
 10
0.0
 20
0.0
 11
1.0
 21
1.0
 12
2625.00001222361
 22
3687.500017171259
 13
0.0
 23
0.0
 14
10.0
 24
10.0
 15
10.0
 25
10.0
 16
0.0
 26
0.0
 36
1.0
 17
0.0
 27
0.0
 37
0.0
 40
7423.867850136729
 41
2.050213675213675
 42
50.0
 43
0.0
 44
0.0
 50
0.0
 51
0.0
 71
     0
 72
   100
 73
     1
 74
     0
 75
     0
 76
     0
 77
     0
 78
     0
281
     0
 65
     1
110
0.0
120
0.0
130
0.0
111
1.0
121
0.0
131
0.0
112
0.0
122
1.0
132
0.0
 79
     0
146
0.0
1001
ACAD_NAV_VCDISPLAY
1070
     3
  0
ENDTAB
  0
TABLE
  2
LTYPE
  5
8123
330
0
100
AcDbSymbolTable
 70
     3
  0
LTYPE
  5
8178
330
8123
100
AcDbSymbolTableRecord
100
AcDbLinetypeTableRecord
  2
ByBlock
 70
     0
  3

 72
    65
 73
     0
 40
0.0
  0
LTYPE
  5
8179
330
8123
100
AcDbSymbolTableRecord
100
AcDbLinetypeTableRecord
  2
ByLayer
 70
     0
  3

 72
    65
 73
     0
 40
0.0
  0
LTYPE
  5
817A
330
8123
100
AcDbSymbolTableRecord
100
AcDbLinetypeTableRecord
  2
CONTINUOUS
 70
     0
  3
Solid line
 72
    65
 73
     0
 40
0.0
  0
LTYPE
  5
8193
330
8123
100
AcDbSymbolTableRecord
100
AcDbLinetypeTableRecord
  2
CENTER
 70
     0
  3
____ _ ____ _ ____ _ ____ _ ____ _ ____ _ ____ 
 72
    65
 73
     4
 40
2.0
 49
1.25
 74
     0
 49
-0.25
 74
     0
 49
0.25
 74
     0
 49
-0.25
 74
     0
  0
ENDTAB
  0
TABLE
  2
LAYER
  5
8120
102
{ACAD_XDICTIONARY
360
822E
102
}
330
0
100
AcDbSymbolTable
 70
     6
  0
LAYER
  5
8172
102
{ACAD_XDICTIONARY
360
81D8
102
}
330
8120
100
AcDbSymbolTableRecord
100
AcDbLayerTableRecord
  2
0
 70
     0
 62
     7
  6
CONTINUOUS
370
    -3
390
812D
  0
LAYER
  5
8191
102
{ACAD_XDICTIONARY
360
81DA
102
}
330
8120
100
AcDbSymbolTableRecord
100
AcDbLayerTableRecord
  2
3
 70
     0
 62
     2
  6
CONTINUOUS
370
    -3
390
812D
  0
LAYER
  5
8194
102
{ACAD_XDICTIONARY
360
81DC
102
}
330
8120
100
AcDbSymbolTableRecord
100
AcDbLayerTableRecord
  2
2
 70
     0
 62
     3
  6
CENTER
370
    -3
390
812D
  0
LAYER
  5
8195
102
{ACAD_XDICTIONARY
360
81DE
102
}
330
8120
100
AcDbSymbolTableRecord
100
AcDbLayerTableRecord
  2
1
 70
     0
 62
     4
  6
CONTINUOUS
370
    -3
390
812D
  0
LAYER
  5
8196
102
{ACAD_XDICTIONARY
360
81E0
102
}
330
8120
100
AcDbSymbolTableRecord
100
AcDbLayerTableRecord
  2
4
 70
     0
 62
     7
  6
CONTINUOUS
370
    -3
390
812D
  0
LAYER
  5
8197
330
8120
100
AcDbSymbolTableRecord
100
AcDbLayerTableRecord
  2
DEFPOINTS
 70
     0
 62
     7
  6
CONTINUOUS
290
     0
370
    -3
390
812D
  0
ENDTAB
  0
TABLE
  2
STYLE
  5
8121
330
0
100
AcDbSymbolTable
 70
     2
  0
STYLE
  5
8173
330
8121
100
AcDbSymbolTableRecord
100
AcDbTextStyleTableRecord
  2
STANDARD
 70
     0
 40
0.0
 41
1.0
 50
0.0
 71
     0
 42
180.0
  3
simplex.shx
  4
extfont.shx
  0
STYLE
  5
8177
330
8121
100
AcDbSymbolTableRecord
100
AcDbTextStyleTableRecord
  2
Annotative
 70
     0
 40
0.0
 41
1.0
 50
0.0
 71
     0
 42
0.2
  3
txt
  4

1001
AcadAnnotative
1000
AnnotativeData
1002
{
1070
     1
1070
     1
1002
}
  0
ENDTAB
  0
TABLE
  2
VIEW
  5
8124
330
0
100
AcDbSymbolTable
 70
     0
  0
ENDTAB
  0
TABLE
  2
UCS
  5
8125
330
0
100
AcDbSymbolTable
 70
     0
  0
ENDTAB
  0
TABLE
  2
APPID
  5
8127
330
0
100
AcDbSymbolTable
 70
     8
  0
APPID
  5
8174
330
8127
100
AcDbSymbolTableRecord
100
AcDbRegAppTableRecord
  2
ACAD
 70
     0
  0
APPID
  5
817B
330
8127
100
AcDbSymbolTableRecord
100
AcDbRegAppTableRecord
  2
AcadAnnotative
 70
     0
  0
APPID
  5
81EC
330
8127
100
AcDbSymbolTableRecord
100
AcDbRegAppTableRecord
  2
ACAD_NAV_VCDISPLAY
 70
     0
  0
APPID
  5
8299
330
8127
100
AcDbSymbolTableRecord
100
AcDbRegAppTableRecord
  2
ACAD_DSTYLE_DIMJAG
 70
     0
  0
APPID
  5
829A
330
8127
100
AcDbSymbolTableRecord
100
AcDbRegAppTableRecord
  2
ACAD_DSTYLE_DIMTALN
 70
     0
  0
APPID
  5
8459
330
8127
100
AcDbSymbolTableRecord
100
AcDbRegAppTableRecord
  2
AcadAnnoMonitorAlertIconDisabled
 70
     0
  0
APPID
  5
845A
330
8127
100
AcDbSymbolTableRecord
100
AcDbRegAppTableRecord
  2
ACAD_EXEMPT_FROM_CAD_STANDARDS
 70
     0
  0
APPID
  5
85AC
330
8127
100
AcDbSymbolTableRecord
100
AcDbRegAppTableRecord
  2
ACAD_MLEADERVER
 70
     0
  0
ENDTAB
  0
TABLE
  2
DIMSTYLE
  5
8128
330
0
100
AcDbSymbolTable
 70
     4
100
AcDbDimStyleTable
 71
     1
340
8198
  0
DIMSTYLE
105
8175
102
{ACAD_REACTORS
330
7C8D
330
7C8E
330
7C9C
330
7CF2
330
7CF6
330
7CF8
330
7CF9
330
7CFA
330
7CFB
330
7D00
102
}
330
8128
100
AcDbSymbolTableRecord
100
AcDbDimStyleTableRecord
  2
Standard
 70
     0
340
8173
  0
DIMSTYLE
105
8176
330
8128
100
AcDbSymbolTableRecord
100
AcDbDimStyleTableRecord
  2
Annotative
 70
     0
340
8173
1001
AcadAnnotative
1000
AnnotativeData
1002
{
1070
     1
1070
     1
1002
}
  0
DIMSTYLE
105
8198
102
{ACAD_REACTORS
330
826C
330
8279
330
829B
330
8313
330
8320
330
832D
330
833A
330
8347
330
8354
330
8366
330
8494
330
84DC
102
}
330
8128
100
AcDbSymbolTableRecord
100
AcDbDimStyleTableRecord
  2
IGA
 70
     0
 40
2.0
 41
2.0
 42
0.5
 43
10.0
 44
1.0
 47
1.0
 48
1.0
 73
     0
 74
     0
 77
     1
 78
     8
140
3.0
141
0.0
143
0.03937
146
10.0
147
1.0
173
     1
271
     3
272
     3
279
     2
284
     8
285
     8
286
     8
340
8173
  0
DIMSTYLE
105
8199
330
8128
100
AcDbSymbolTableRecord
100
AcDbDimStyleTableRecord
  2
MATSU
 70
     0
 41
2.0
 42
1.0
 43
10.0
 44
1.0
 73
     0
 74
     0
 77
     1
 78
     8
140
3.0
141
0.0
143
0.03937
147
0.5
172
     1
173
     1
176
   256
177
   256
178
   256
271
     3
272
     3
279
     2
284
     8
285
     8
286
     8
340
8173
  0
ENDTAB
  0
TABLE
  2
BLOCK_RECORD
  5
811F
330
0
100
AcDbSymbolTable
 70
    50
  0
BLOCK_RECORD
  5
818D
330
811F
100
AcDbSymbolTableRecord
100
AcDbBlockTableRecord
  2
*Model_Space
340
8190
  0
BLOCK_RECORD
  5
8189
330
811F
100
AcDbSymbolTableRecord
100
AcDbBlockTableRecord
  2
*Paper_Space
340
818C
  0
BLOCK_RECORD
  5
819D
330
811F
100
AcDbSymbolTableRecord
100
AcDbBlockTableRecord
  2
$MODEL_SPACE
340
0
  0
BLOCK_RECORD
  5
819F
330
811F
100
AcDbSymbolTableRecord
100
AcDbBlockTableRecord
  2
$PAPER_SPACE
340
0
  0
BLOCK_RECORD
  5
81A1
330
811F
100
AcDbSymbolTableRecord
100
AcDbBlockTableRecord
  2
_OPEN
340
0
102
{BLKREFS
331
82A2
331
82A3
331
82AB
331
82AC
331
82B4
331
82B5
331
7E60
331
7E61
331
7E6B
331
7E6C
331
7E76
331
7E77
331
7E81
331
7E82
331
7E97
331
7E98
331
7ECE
331
7ECF
331
8037
331
8038
331
802C
331
802D
331
7EEF
331
7EF0
331
7EFA
331
7EFB
331
8007
331
8008
331
7F10
331
7F11
331
7F1B
331
7F1C
331
7F26
331
7F27
331
8111
331
7F56
331
7F57
331
804B
331
804C
331
8058
331
8059
331
8065
331
8066
331
8072
331
8073
331
80A6
331
80A7
331
831A
331
831B
331
8327
331
8328
331
8334
331
8335
331
8341
331
8342
331
84AD
331
84AE
331
84B6
331
84B7
331
84C5
331
84D8
331
84EC
331
84ED
102
}
  0
BLOCK_RECORD
  5
81A3
330
811F
100
AcDbSymbolTableRecord
100
AcDbBlockTableRecord
  2
YA_N
340
0
102
{BLKREFS
331
7C37
331
7C56
331
7C94
331
7CD0
102
}
  0
BLOCK_RECORD
  5
81A5
330
811F
100
AcDbSymbolTableRecord
100
AcDbBlockTableRecord
  2
*D4
340
0
  0
BLOCK_RECORD
  5
81A7
330
811F
100
AcDbSymbolTableRecord
100
AcDbBlockTableRecord
  2
*D5
340
0
  0
BLOCK_RECORD
  5
81A9
330
811F
100
AcDbSymbolTableRecord
100
AcDbBlockTableRecord
  2
*D6
340
0
  0
BLOCK_RECORD
  5
81AB
330
811F
100
AcDbSymbolTableRecord
100
AcDbBlockTableRecord
  2
*D7
340
0
  0
BLOCK_RECORD
  5
81AD
330
811F
100
AcDbSymbolTableRecord
100
AcDbBlockTableRecord
  2
*D8
340
0
  0
BLOCK_RECORD
  5
81AF
330
811F
100
AcDbSymbolTableRecord
100
AcDbBlockTableRecord
  2
*D9
340
0
  0
BLOCK_RECORD
  5
81B1
330
811F
100
AcDbSymbolTableRecord
100
AcDbBlockTableRecord
  2
*D10
340
0
  0
BLOCK_RECORD
  5
81B3
330
811F
100
AcDbSymbolTableRecord
100
AcDbBlockTableRecord
  2
*U11
340
0
102
{BLKREFS
331
8039
102
}
  0
BLOCK_RECORD
  5
81B4
330
811F
100
AcDbSymbolTableRecord
100
AcDbBlockTableRecord
  2
*D12
340
0
  0
BLOCK_RECORD
  5
81B6
330
811F
100
AcDbSymbolTableRecord
100
AcDbBlockTableRecord
  2
*D13
340
0
  0
BLOCK_RECORD
  5
81B8
330
811F
100
AcDbSymbolTableRecord
100
AcDbBlockTableRecord
  2
*D14
340
0
  0
BLOCK_RECORD
  5
81BA
330
811F
100
AcDbSymbolTableRecord
100
AcDbBlockTableRecord
  2
*D15
340
0
  0
BLOCK_RECORD
  5
81BC
330
811F
100
AcDbSymbolTableRecord
100
AcDbBlockTableRecord
  2
*D16
340
0
  0
BLOCK_RECORD
  5
81BE
330
811F
100
AcDbSymbolTableRecord
100
AcDbBlockTableRecord
  2
*D17
340
0
  0
BLOCK_RECORD
  5
81C0
330
811F
100
AcDbSymbolTableRecord
100
AcDbBlockTableRecord
  2
*D18
340
0
  0
BLOCK_RECORD
  5
81C2
330
811F
100
AcDbSymbolTableRecord
100
AcDbBlockTableRecord
  2
*D19
340
0
  0
BLOCK_RECORD
  5
81C4
330
811F
100
AcDbSymbolTableRecord
100
AcDbBlockTableRecord
  2
_DOT
340
0
102
{BLKREFS
331
8110
102
}
  0
BLOCK_RECORD
  5
81C5
330
811F
100
AcDbSymbolTableRecord
100
AcDbBlockTableRecord
  2
*D21
340
0
  0
BLOCK_RECORD
  5
81C8
330
811F
100
AcDbSymbolTableRecord
100
AcDbBlockTableRecord
  2
*D22
340
0
  0
BLOCK_RECORD
  5
81CA
330
811F
100
AcDbSymbolTableRecord
100
AcDbBlockTableRecord
  2
*D23
340
0
  0
BLOCK_RECORD
  5
81CC
330
811F
100
AcDbSymbolTableRecord
100
AcDbBlockTableRecord
  2
*D24
340
0
  0
BLOCK_RECORD
  5
81CE
330
811F
100
AcDbSymbolTableRecord
100
AcDbBlockTableRecord
  2
*D25
340
0
  0
BLOCK_RECORD
  5
81D0
330
811F
100
AcDbSymbolTableRecord
100
AcDbBlockTableRecord
  2
_NONE
340
0
  0
BLOCK_RECORD
  5
81D2
330
811F
100
AcDbSymbolTableRecord
100
AcDbBlockTableRecord
  2
*D27
340
0
  0
BLOCK_RECORD
  5
81D4
330
811F
100
AcDbSymbolTableRecord
100
AcDbBlockTableRecord
  2
*D28
340
0
  0
BLOCK_RECORD
  5
826D
330
811F
100
AcDbSymbolTableRecord
100
AcDbBlockTableRecord
  2
*D30
340
0
  0
BLOCK_RECORD
  5
827A
330
811F
100
AcDbSymbolTableRecord
100
AcDbBlockTableRecord
  2
*D31
340
0
  0
BLOCK_RECORD
  5
829C
330
811F
100
AcDbSymbolTableRecord
100
AcDbBlockTableRecord
  2
*D32
340
0
  0
BLOCK_RECORD
  5
82BA
330
811F
100
AcDbSymbolTableRecord
100
AcDbBlockTableRecord
  2
*D33
340
0
  0
BLOCK_RECORD
  5
82C7
330
811F
100
AcDbSymbolTableRecord
100
AcDbBlockTableRecord
  2
*D34
340
0
  0
BLOCK_RECORD
  5
82D4
330
811F
100
AcDbSymbolTableRecord
100
AcDbBlockTableRecord
  2
*D35
340
0
  0
BLOCK_RECORD
  5
82E1
330
811F
100
AcDbSymbolTableRecord
100
AcDbBlockTableRecord
  2
*D36
340
0
  0
BLOCK_RECORD
  5
82EE
330
811F
100
AcDbSymbolTableRecord
100
AcDbBlockTableRecord
  2
*D37
340
0
  0
BLOCK_RECORD
  5
82F9
330
811F
100
AcDbSymbolTableRecord
100
AcDbBlockTableRecord
  2
*D38
340
0
  0
BLOCK_RECORD
  5
8306
330
811F
100
AcDbSymbolTableRecord
100
AcDbBlockTableRecord
  2
*D39
340
0
  0
BLOCK_RECORD
  5
8314
330
811F
100
AcDbSymbolTableRecord
100
AcDbBlockTableRecord
  2
*D40
340
0
  0
BLOCK_RECORD
  5
8321
330
811F
100
AcDbSymbolTableRecord
100
AcDbBlockTableRecord
  2
*D41
340
0
  0
BLOCK_RECORD
  5
832E
330
811F
100
AcDbSymbolTableRecord
100
AcDbBlockTableRecord
  2
*D42
340
0
  0
BLOCK_RECORD
  5
833B
330
811F
100
AcDbSymbolTableRecord
100
AcDbBlockTableRecord
  2
*D43
340
0
  0
BLOCK_RECORD
  5
8348
330
811F
100
AcDbSymbolTableRecord
100
AcDbBlockTableRecord
  2
*D44
340
0
  0
BLOCK_RECORD
  5
8355
330
811F
100
AcDbSymbolTableRecord
100
AcDbBlockTableRecord
  2
*D45
340
0
  0
BLOCK_RECORD
  5
8367
330
811F
100
AcDbSymbolTableRecord
100
AcDbBlockTableRecord
  2
*D46
340
0
  0
BLOCK_RECORD
  5
83D9
330
811F
100
AcDbSymbolTableRecord
100
AcDbBlockTableRecord
  2
_DotSmall
340
0
102
{BLKREFS
331
84C6
331
84D7
102
}
  0
BLOCK_RECORD
  5
8495
330
811F
100
AcDbSymbolTableRecord
100
AcDbBlockTableRecord
  2
*D48
340
0
  0
BLOCK_RECORD
  5
84DD
330
811F
100
AcDbSymbolTableRecord
100
AcDbBlockTableRecord
  2
*D49
340
0
  0
ENDTAB
  0
ENDSEC
  0
SECTION
  2
BLOCKS
  0
BLOCK
  5
818E
330
818D
100
AcDbEntity
  8
0
100
AcDbBlockBegin
  2
*Model_Space
 70
     0
 10
0.0
 20
0.0
 30
0.0
  3
*Model_Space
  1

  0
ENDBLK
  5
818F
330
818D
100
AcDbEntity
  8
0
100
AcDbBlockEnd
  0
BLOCK
  5
818A
330
8189
100
AcDbEntity
 67
     1
  8
0
100
AcDbBlockBegin
  2
*Paper_Space
 70
     0
 10
0.0
 20
0.0
 30
0.0
  3
*Paper_Space
  1

  0
ENDBLK
  5
818B
330
8189
100
AcDbEntity
 67
     1
  8
0
100
AcDbBlockEnd
  0
BLOCK
  5
819E
330
819D
100
AcDbEntity
  8
0
100
AcDbBlockBegin
  2
$MODEL_SPACE
 70
     0
 10
0.0
 20
0.0
 30
0.0
  3
$MODEL_SPACE
  1

  0
ENDBLK
  5
1B
330
819D
100
AcDbEntity
  8
0
100
AcDbBlockEnd
  0
BLOCK
  5
81A0
330
819F
100
AcDbEntity
  8
0
100
AcDbBlockBegin
  2
$PAPER_SPACE
 70
     0
 10
0.0
 20
0.0
 30
0.0
  3
$PAPER_SPACE
  1

  0
ENDBLK
  5
18
330
819F
100
AcDbEntity
  8
0
100
AcDbBlockEnd
  0
BLOCK
  5
81A2
330
81A1
100
AcDbEntity
  8
0
100
AcDbBlockBegin
  2
_OPEN
 70
     0
 10
0.0
 20
0.0
 30
0.0
  3
_OPEN
  1

  0
LINE
  5
79FD
330
81A1
100
AcDbEntity
  8
0
  6
ByBlock
 62
     0
100
AcDbLine
 10
-1.0
 20
0.1666666666666666
 30
0.0
 11
0.0
 21
0.0
 31
0.0
  0
LINE
  5
79FE
330
81A1
100
AcDbEntity
  8
0
  6
ByBlock
 62
     0
100
AcDbLine
 10
0.0
 20
0.0
 30
0.0
 11
-1.0
 21
-0.1666666666666666
 31
0.0
  0
LINE
  5
79FF
330
81A1
100
AcDbEntity
  8
0
  6
ByBlock
 62
     0
100
AcDbLine
 10
0.0
 20
0.0
 30
0.0
 11
-1.0
 21
0.0
 31
0.0
  0
ENDBLK
  5
7A01
330
81A1
100
AcDbEntity
  8
0
100
AcDbBlockEnd
  0
BLOCK
  5
81A4
330
81A3
100
AcDbEntity
  8
0
100
AcDbBlockBegin
  2
YA_N
 70
     0
 10
0.0
 20
0.0
 30
0.0
  3
YA_N
  1

  0
ENDBLK
  5
7A0C
330
81A3
100
AcDbEntity
  8
0
100
AcDbBlockEnd
  0
BLOCK
  5
81A6
330
81A5
100
AcDbEntity
  8
0
100
AcDbBlockBegin
  2
*D4
 70
     1
 10
0.0
 20
0.0
 30
0.0
  3
*D4
  1

  0
LINE
  5
7E5D
330
81A5
100
AcDbEntity
  8
0
  6
ByBlock
100
AcDbLine
 10
1750.57214721576
 20
1267.593478221399
 30
0.0
 11
1899.579530994986
 21
1267.593478221399
 31
0.0
  0
LINE
  5
7E5E
330
81A5
100
AcDbEntity
  8
0
  6
ByBlock
100
AcDbLine
 10
1750.572147215761
 20
537.5934782213988
 30
0.0
 11
1899.579530994986
 21
537.5934782213988
 31
0.0
  0
LINE
  5
7E5F
330
81A5
100
AcDbEntity
  8
0
  6
ByBlock
100
AcDbLine
 10
1874.579530994986
 20
1217.593478221399
 30
0.0
 11
1874.579530994986
 21
587.5934782213988
 31
0.0
  0
INSERT
  5
7E60
330
81A5
100
AcDbEntity
  8
0
  6
ByBlock
100
AcDbBlockReference
  2
_OPEN
 10
1874.579530994986
 20
1267.593478221399
 30
0.0
 41
50.0
 42
50.0
 43
50.0
 50
90.0
  0
INSERT
  5
7E61
330
81A5
100
AcDbEntity
  8
0
  6
ByBlock
100
AcDbBlockReference
  2
_OPEN
 10
1874.579530994986
 20
537.5934782213988
 30
0.0
 41
50.0
 42
50.0
 43
50.0
 50
270.0
  0
TEXT
  5
7E62
330
81A5
100
AcDbEntity
  8
3
100
AcDbText
 10
1862.079530994986
 20
806.1649067928273
 30
0.0
 40
75.0
  1
730
 50
90.0
100
AcDbText
  0
POINT
  5
7E63
330
81A5
100
AcDbEntity
  8
DEFPOINTS
  6
ByBlock
 62
     0
100
AcDbPoint
 10
1725.57214721576
 20
1267.593478221399
 30
0.0
  0
POINT
  5
7E64
330
81A5
100
AcDbEntity
  8
DEFPOINTS
  6
ByBlock
 62
     0
100
AcDbPoint
 10
1725.572147215761
 20
537.5934782213988
 30
0.0
  0
POINT
  5
7E65
330
81A5
100
AcDbEntity
  8
DEFPOINTS
  6
ByBlock
 62
     0
100
AcDbPoint
 10
1874.579530994986
 20
537.5934782213988
 30
0.0
  0
ENDBLK
  5
7E66
330
81A5
100
AcDbEntity
  8
0
100
AcDbBlockEnd
  0
BLOCK
  5
81A8
330
81A7
100
AcDbEntity
  8
0
100
AcDbBlockBegin
  2
*D5
 70
     1
 10
0.0
 20
0.0
 30
0.0
  3
*D5
  1

  0
LINE
  5
7E68
330
81A7
100
AcDbEntity
  8
0
  6
ByBlock
100
AcDbLine
 10
1750.57214721576
 20
1267.593478221399
 30
0.0
 11
2052.388304468651
 21
1267.593478221399
 31
0.0
  0
LINE
  5
7E69
330
81A7
100
AcDbEntity
  8
0
  6
ByBlock
100
AcDbLine
 10
1872.837986021189
 20
508.5934782213988
 30
0.0
 11
2052.388304468651
 21
508.5934782213988
 31
0.0
  0
LINE
  5
7E6A
330
81A7
100
AcDbEntity
  8
0
  6
ByBlock
100
AcDbLine
 10
2027.388304468651
 20
1217.593478221399
 30
0.0
 11
2027.388304468651
 21
558.5934782213988
 31
0.0
  0
INSERT
  5
7E6B
330
81A7
100
AcDbEntity
  8
0
  6
ByBlock
100
AcDbBlockReference
  2
_OPEN
 10
2027.388304468651
 20
1267.593478221399
 30
0.0
 41
50.0
 42
50.0
 43
50.0
 50
90.0
  0
INSERT
  5
7E6C
330
81A7
100
AcDbEntity
  8
0
  6
ByBlock
100
AcDbBlockReference
  2
_OPEN
 10
2027.388304468651
 20
508.5934782213988
 30
0.0
 41
50.0
 42
50.0
 43
50.0
 50
270.0
  0
TEXT
  5
7E6D
330
81A7
100
AcDbEntity
  8
3
100
AcDbText
 10
2014.888304468651
 20
793.4506210785417
 30
0.0
 40
75.0
  1
759
 50
90.0
100
AcDbText
  0
POINT
  5
7E6E
330
81A7
100
AcDbEntity
  8
DEFPOINTS
  6
ByBlock
 62
     0
100
AcDbPoint
 10
1725.57214721576
 20
1267.593478221399
 30
0.0
  0
POINT
  5
7E6F
330
81A7
100
AcDbEntity
  8
DEFPOINTS
  6
ByBlock
 62
     0
100
AcDbPoint
 10
1847.83798602119
 20
508.5934782213988
 30
0.0
  0
POINT
  5
7E70
330
81A7
100
AcDbEntity
  8
DEFPOINTS
  6
ByBlock
 62
     0
100
AcDbPoint
 10
2027.388304468651
 20
508.5934782213988
 30
0.0
  0
ENDBLK
  5
7E71
330
81A7
100
AcDbEntity
  8
0
100
AcDbBlockEnd
  0
BLOCK
  5
81AA
330
81A9
100
AcDbEntity
  8
0
100
AcDbBlockBegin
  2
*D6
 70
     1
 10
0.0
 20
0.0
 30
0.0
  3
*D6
  1

  0
LINE
  5
7E73
330
81A9
100
AcDbEntity
  8
0
  6
ByBlock
100
AcDbLine
 10
1725.57214721576
 20
1334.593478221398
 30
0.0
 11
1725.57214721576
 21
1485.574010402429
 31
0.0
  0
LINE
  5
7E74
330
81A9
100
AcDbEntity
  8
0
  6
ByBlock
100
AcDbLine
 10
1225.57214721576
 20
1363.64476267854
 30
0.0
 11
1225.57214721576
 21
1485.574010402429
 31
0.0
  0
LINE
  5
7E75
330
81A9
100
AcDbEntity
  8
0
  6
ByBlock
100
AcDbLine
 10
1675.57214721576
 20
1460.57401040243
 30
0.0
 11
1275.57214721576
 21
1460.57401040243
 31
0.0
  0
INSERT
  5
7E76
330
81A9
100
AcDbEntity
  8
0
  6
ByBlock
100
AcDbBlockReference
  2
_OPEN
 10
1725.57214721576
 20
1460.57401040243
 30
0.0
 41
50.0
 42
50.0
 43
50.0
  0
INSERT
  5
7E77
330
81A9
100
AcDbEntity
  8
0
  6
ByBlock
100
AcDbBlockReference
  2
_OPEN
 10
1225.57214721576
 20
1460.57401040243
 30
0.0
 41
50.0
 42
50.0
 43
50.0
 50
180.0
  0
TEXT
  5
7E78
330
81A9
100
AcDbEntity
  8
3
100
AcDbText
 10
1379.143575787189
 20
1473.07401040243
 30
0.0
 40
75.0
  1
500
100
AcDbText
  0
POINT
  5
7E79
330
81A9
100
AcDbEntity
  8
DEFPOINTS
  6
ByBlock
 62
     0
100
AcDbPoint
 10
1725.57214721576
 20
1309.593478221398
 30
0.0
  0
POINT
  5
7E7A
330
81A9
100
AcDbEntity
  8
DEFPOINTS
  6
ByBlock
 62
     0
100
AcDbPoint
 10
1225.57214721576
 20
1338.64476267854
 30
0.0
  0
POINT
  5
7E7B
330
81A9
100
AcDbEntity
  8
DEFPOINTS
  6
ByBlock
 62
     0
100
AcDbPoint
 10
1225.57214721576
 20
1460.57401040243
 30
0.0
  0
ENDBLK
  5
7E7C
330
81A9
100
AcDbEntity
  8
0
100
AcDbBlockEnd
  0
BLOCK
  5
81AC
330
81AB
100
AcDbEntity
  8
0
100
AcDbBlockBegin
  2
*D7
 70
     1
 10
0.0
 20
0.0
 30
0.0
  3
*D7
  1

  0
LINE
  5
7E7E
330
81AB
100
AcDbEntity
  8
0
  6
ByBlock
100
AcDbLine
 10
1225.57214721576
 20
1363.64476267854
 30
0.0
 11
1225.57214721576
 21
1485.574010402429
 31
0.0
  0
LINE
  5
7E7F
330
81AB
100
AcDbEntity
  8
0
  6
ByBlock
100
AcDbLine
 10
615.6875418733219
 20
533.5934782213992
 30
0.0
 11
615.6875418733219
 21
1485.574010402429
 31
0.0
  0
LINE
  5
7E80
330
81AB
100
AcDbEntity
  8
0
  6
ByBlock
100
AcDbLine
 10
1175.57214721576
 20
1460.57401040243
 30
0.0
 11
665.6875418733219
 21
1460.57401040243
 31
0.0
  0
INSERT
  5
7E81
330
81AB
100
AcDbEntity
  8
0
  6
ByBlock
100
AcDbBlockReference
  2
_OPEN
 10
1225.57214721576
 20
1460.57401040243
 30
0.0
 41
50.0
 42
50.0
 43
50.0
  0
INSERT
  5
7E82
330
81AB
100
AcDbEntity
  8
0
  6
ByBlock
100
AcDbBlockReference
  2
_OPEN
 10
615.6875418733219
 20
1460.57401040243
 30
0.0
 41
50.0
 42
50.0
 43
50.0
 50
180.0
  0
TEXT
  5
7E83
330
81AB
100
AcDbEntity
  8
3
100
AcDbText
 10
831.344130258827
 20
1473.07401040243
 30
0.0
 40
75.0
  1
612
100
AcDbText
  0
POINT
  5
7E84
330
81AB
100
AcDbEntity
  8
DEFPOINTS
  6
ByBlock
 62
     0
100
AcDbPoint
 10
1225.57214721576
 20
1338.64476267854
 30
0.0
  0
POINT
  5
7E85
330
81AB
100
AcDbEntity
  8
DEFPOINTS
  6
ByBlock
 62
     0
100
AcDbPoint
 10
615.6875418733219
 20
508.5934782213991
 30
0.0
  0
POINT
  5
7E86
330
81AB
100
AcDbEntity
  8
DEFPOINTS
  6
ByBlock
 62
     0
100
AcDbPoint
 10
615.6875418733219
 20
1460.57401040243
 30
0.0
  0
ENDBLK
  5
7E87
330
81AB
100
AcDbEntity
  8
0
100
AcDbBlockEnd
  0
BLOCK
  5
81AE
330
81AD
100
AcDbEntity
  8
0
100
AcDbBlockBegin
  2
*D8
 70
     1
 10
0.0
 20
0.0
 30
0.0
  3
*D8
  1

  0
LINE
  5
7E94
330
81AD
100
AcDbEntity
  8
0
  6
ByBlock
100
AcDbLine
 10
1872.837986021189
 20
508.5934782213988
 30
0.0
 11
2051.325961501075
 21
508.5934782213988
 31
0.0
  0
LINE
  5
7E95
330
81AD
100
AcDbEntity
  8
0
  6
ByBlock
100
AcDbLine
 10
1700.57214721576
 20
-36.40652177860101
 30
0.0
 11
2051.325961501075
 21
-36.40652177860101
 31
0.0
  0
LINE
  5
7E96
330
81AD
100
AcDbEntity
  8
0
  6
ByBlock
100
AcDbLine
 10
2026.325961501076
 20
458.5934782213988
 30
0.0
 11
2026.325961501076
 21
13.59347822139898
 31
0.0
  0
INSERT
  5
7E97
330
81AD
100
AcDbEntity
  8
0
  6
ByBlock
100
AcDbBlockReference
  2
_OPEN
 10
2026.325961501076
 20
508.5934782213988
 30
0.0
 41
50.0
 42
50.0
 43
50.0
 50
90.0
  0
INSERT
  5
7E98
330
81AD
100
AcDbEntity
  8
0
  6
ByBlock
100
AcDbBlockReference
  2
_OPEN
 10
2026.325961501076
 20
-36.40652177860101
 30
0.0
 41
50.0
 42
50.0
 43
50.0
 50
270.0
  0
TEXT
  5
7E99
330
81AD
100
AcDbEntity
  8
3
100
AcDbText
 10
2013.825961501075
 20
139.6649067928275
 30
0.0
 40
75.0
  1
545
 50
90.0
100
AcDbText
  0
POINT
  5
7E9A
330
81AD
100
AcDbEntity
  8
DEFPOINTS
  6
ByBlock
 62
     0
100
AcDbPoint
 10
1847.83798602119
 20
508.5934782213988
 30
0.0
  0
POINT
  5
7E9B
330
81AD
100
AcDbEntity
  8
DEFPOINTS
  6
ByBlock
 62
     0
100
AcDbPoint
 10
1675.57214721576
 20
-36.40652177860101
 30
0.0
  0
POINT
  5
7E9C
330
81AD
100
AcDbEntity
  8
DEFPOINTS
  6
ByBlock
 62
     0
100
AcDbPoint
 10
2026.325961501076
 20
-36.40652177860101
 30
0.0
  0
ENDBLK
  5
7E9D
330
81AD
100
AcDbEntity
  8
0
100
AcDbBlockEnd
  0
BLOCK
  5
81B0
330
81AF
100
AcDbEntity
  8
0
100
AcDbBlockBegin
  2
*D9
 70
     1
 10
0.0
 20
0.0
 30
0.0
  3
*D9
  1

  0
LINE
  5
7ECB
330
81AF
100
AcDbEntity
  8
0
  6
ByBlock
100
AcDbLine
 10
3394.272073930469
 20
1292.802367882948
 30
0.0
 11
3394.272073930469
 21
1484.407041015605
 31
0.0
  0
LINE
  5
7ECC
330
81AF
100
AcDbEntity
  8
0
  6
ByBlock
100
AcDbLine
 10
4294.27207393047
 20
1292.80235414594
 30
0.0
 11
4294.27207393047
 21
1484.407041015605
 31
0.0
  0
LINE
  5
7ECD
330
81AF
100
AcDbEntity
  8
0
  6
ByBlock
100
AcDbLine
 10
3444.272073930469
 20
1459.407041015604
 30
0.0
 11
4244.27207393047
 21
1459.407041015604
 31
0.0
  0
INSERT
  5
7ECE
330
81AF
100
AcDbEntity
  8
0
  6
ByBlock
100
AcDbBlockReference
  2
_OPEN
 10
3394.272073930469
 20
1459.407041015604
 30
0.0
 41
50.0
 42
50.0
 43
50.0
 50
180.0
  0
INSERT
  5
7ECF
330
81AF
100
AcDbEntity
  8
0
  6
ByBlock
100
AcDbBlockReference
  2
_OPEN
 10
4294.27207393047
 20
1459.407041015604
 30
0.0
 41
50.0
 42
50.0
 43
50.0
  0
TEXT
  5
7ED0
330
81AF
100
AcDbEntity
  8
3
100
AcDbText
 10
3747.843502501898
 20
1471.907041015605
 30
0.0
 40
75.0
  1
900
100
AcDbText
  0
POINT
  5
7ED1
330
81AF
100
AcDbEntity
  8
DEFPOINTS
  6
ByBlock
 62
     0
100
AcDbPoint
 10
3394.272073930469
 20
1267.802367882948
 30
0.0
  0
POINT
  5
7ED2
330
81AF
100
AcDbEntity
  8
DEFPOINTS
  6
ByBlock
 62
     0
100
AcDbPoint
 10
4294.27207393047
 20
1267.80235414594
 30
0.0
  0
POINT
  5
7ED3
330
81AF
100
AcDbEntity
  8
DEFPOINTS
  6
ByBlock
 62
     0
100
AcDbPoint
 10
4294.27207393047
 20
1459.407041015604
 30
0.0
  0
ENDBLK
  5
7ED4
330
81AF
100
AcDbEntity
  8
0
100
AcDbBlockEnd
  0
BLOCK
  5
81B2
330
81B1
100
AcDbEntity
  8
0
100
AcDbBlockBegin
  2
*D10
 70
     1
 10
0.0
 20
0.0
 30
0.0
  3
*D10
  1

  0
LINE
  5
8034
330
81B1
100
AcDbEntity
  8
0
  6
ByBlock
100
AcDbLine
 10
3233.415278056259
 20
2674.453614188716
 30
0.0
 11
3233.415278056259
 21
3495.520843590219
 31
0.0
  0
LINE
  5
8035
330
81B1
100
AcDbEntity
  8
0
  6
ByBlock
100
AcDbLine
 10
3988.415278056257
 20
3437.98767709568
 30
0.0
 11
3988.415278056257
 21
3495.520843590219
 31
0.0
  0
LINE
  5
8036
330
81B1
100
AcDbEntity
  8
0
  6
ByBlock
100
AcDbLine
 10
3283.415278056259
 20
3470.520843590219
 30
0.0
 11
3938.415278056257
 21
3470.520843590219
 31
0.0
  0
INSERT
  5
8037
330
81B1
100
AcDbEntity
  8
0
  6
ByBlock
100
AcDbBlockReference
  2
_OPEN
 10
3233.415278056259
 20
3470.520843590219
 30
0.0
 41
50.0
 42
50.0
 43
50.0
 50
180.0
  0
INSERT
  5
8038
330
81B1
100
AcDbEntity
  8
0
  6
ByBlock
100
AcDbBlockReference
  2
_OPEN
 10
3988.415278056257
 20
3470.520843590219
 30
0.0
 41
50.0
 42
50.0
 43
50.0
  0
INSERT
  5
8039
330
81B1
100
AcDbEntity
  8
3
100
AcDbBlockReference
  2
*U11
 10
0.0
 20
0.0
 30
0.0
  0
POINT
  5
803A
330
81B1
100
AcDbEntity
  8
DEFPOINTS
  6
ByBlock
 62
     0
100
AcDbPoint
 10
3233.415278056259
 20
2649.453614188717
 30
0.0
  0
POINT
  5
803B
330
81B1
100
AcDbEntity
  8
DEFPOINTS
  6
ByBlock
 62
     0
100
AcDbPoint
 10
3988.415278056257
 20
3412.98767709568
 30
0.0
  0
POINT
  5
803C
330
81B1
100
AcDbEntity
  8
DEFPOINTS
  6
ByBlock
 62
     0
100
AcDbPoint
 10
3988.415278056257
 20
3470.520843590219
 30
0.0
  0
ENDBLK
  5
803D
330
81B1
100
AcDbEntity
  8
0
100
AcDbBlockEnd
  0
BLOCK
  5
81D6
330
81B3
100
AcDbEntity
  8
0
100
AcDbBlockBegin
  2
*U11
 70
     1
 10
0.0
 20
0.0
 30
0.0
  3
*U11
  1

  0
TEXT
  5
811A
330
81B3
100
AcDbEntity
  8
3
100
AcDbText
 10
3503.772420913401
 20
3608.020843590221
 30
0.0
 40
75.0
  1
MAX
100
AcDbText
  0
TEXT
  5
811B
330
81B3
100
AcDbEntity
  8
3
100
AcDbText
 10
3514.486706627686
 20
3483.020843590221
 30
0.0
 40
75.0
  1
780
100
AcDbText
  0
ENDBLK
  5
811D
330
81B3
100
AcDbEntity
  8
0
100
AcDbBlockEnd
  0
BLOCK
  5
81B5
330
81B4
100
AcDbEntity
  8
0
100
AcDbBlockBegin
  2
*D12
 70
     1
 10
0.0
 20
0.0
 30
0.0
  3
*D12
  1

  0
LINE
  5
8029
330
81B4
100
AcDbEntity
  8
0
  6
ByBlock
100
AcDbLine
 10
3988.415278056257
 20
3437.98767709568
 30
0.0
 11
3988.415278056257
 21
3495.520843590219
 31
0.0
  0
LINE
  5
802A
330
81B4
100
AcDbEntity
  8
0
  6
ByBlock
100
AcDbLine
 10
4540.915278056256
 20
2369.253614188716
 30
0.0
 11
4540.915278056256
 21
3495.520843590219
 31
0.0
  0
LINE
  5
802B
330
81B4
100
AcDbEntity
  8
0
  6
ByBlock
100
AcDbLine
 10
4038.415278056256
 20
3470.520843590219
 30
0.0
 11
4490.915278056256
 21
3470.520843590219
 31
0.0
  0
INSERT
  5
802C
330
81B4
100
AcDbEntity
  8
0
  6
ByBlock
100
AcDbBlockReference
  2
_OPEN
 10
3988.415278056257
 20
3470.520843590219
 30
0.0
 41
50.0
 42
50.0
 43
50.0
 50
180.0
  0
INSERT
  5
802D
330
81B4
100
AcDbEntity
  8
0
  6
ByBlock
100
AcDbBlockReference
  2
_OPEN
 10
4540.915278056256
 20
3470.520843590219
 30
0.0
 41
50.0
 42
50.0
 43
50.0
  0
TEXT
  5
802E
330
81B4
100
AcDbEntity
  8
3
100
AcDbText
 10
4120.0224209134
 20
3515.163700733078
 30
0.0
 40
75.0
  1
(560)
100
AcDbText
  0
POINT
  5
802F
330
81B4
100
AcDbEntity
  8
DEFPOINTS
  6
ByBlock
 62
     0
100
AcDbPoint
 10
3988.415278056257
 20
3412.98767709568
 30
0.0
  0
POINT
  5
8030
330
81B4
100
AcDbEntity
  8
DEFPOINTS
  6
ByBlock
 62
     0
100
AcDbPoint
 10
4540.915278056256
 20
2344.253614188716
 30
0.0
  0
POINT
  5
8031
330
81B4
100
AcDbEntity
  8
DEFPOINTS
  6
ByBlock
 62
     0
100
AcDbPoint
 10
4540.915278056256
 20
3470.520843590219
 30
0.0
  0
ENDBLK
  5
8032
330
81B4
100
AcDbEntity
  8
0
100
AcDbBlockEnd
  0
BLOCK
  5
81B7
330
81B6
100
AcDbEntity
  8
0
100
AcDbBlockBegin
  2
*D13
 70
     1
 10
0.0
 20
0.0
 30
0.0
  3
*D13
  1

  0
LINE
  5
7EEC
330
81B6
100
AcDbEntity
  8
0
  6
ByBlock
100
AcDbLine
 10
4321.57207393047
 20
133.5934782213989
 30
0.0
 11
4597.054208885889
 21
133.5934782213989
 31
0.0
  0
LINE
  5
7EED
330
81B6
100
AcDbEntity
  8
0
  6
ByBlock
100
AcDbLine
 10
4321.57207393047
 20
883.5934782213987
 30
0.0
 11
4597.054208885889
 21
883.5934782213987
 31
0.0
  0
LINE
  5
7EEE
330
81B6
100
AcDbEntity
  8
0
  6
ByBlock
100
AcDbLine
 10
4572.054208885889
 20
183.5934782213989
 30
0.0
 11
4572.054208885889
 21
833.5934782213987
 31
0.0
  0
INSERT
  5
7EEF
330
81B6
100
AcDbEntity
  8
0
  6
ByBlock
100
AcDbBlockReference
  2
_OPEN
 10
4572.054208885889
 20
133.5934782213989
 30
0.0
 41
50.0
 42
50.0
 43
50.0
 50
270.0
  0
INSERT
  5
7EF0
330
81B6
100
AcDbEntity
  8
0
  6
ByBlock
100
AcDbBlockReference
  2
_OPEN
 10
4572.054208885889
 20
883.5934782213987
 30
0.0
 41
50.0
 42
50.0
 43
50.0
 50
90.0
  0
TEXT
  5
7EF1
330
81B6
100
AcDbEntity
  8
3
100
AcDbText
 10
4559.554208885889
 20
374.6649067928275
 30
0.0
 40
75.0
  1
\U+03C6750
 50
90.0
100
AcDbText
  0
POINT
  5
7EF2
330
81B6
100
AcDbEntity
  8
DEFPOINTS
  6
ByBlock
 62
     0
100
AcDbPoint
 10
4296.57207393047
 20
133.5934782213989
 30
0.0
  0
POINT
  5
7EF3
330
81B6
100
AcDbEntity
  8
DEFPOINTS
  6
ByBlock
 62
     0
100
AcDbPoint
 10
4296.57207393047
 20
883.5934782213987
 30
0.0
  0
POINT
  5
7EF4
330
81B6
100
AcDbEntity
  8
DEFPOINTS
  6
ByBlock
 62
     0
100
AcDbPoint
 10
4572.054208885889
 20
883.5934782213987
 30
0.0
  0
ENDBLK
  5
7EF5
330
81B6
100
AcDbEntity
  8
0
100
AcDbBlockEnd
  0
BLOCK
  5
81B9
330
81B8
100
AcDbEntity
  8
0
100
AcDbBlockBegin
  2
*D14
 70
     1
 10
0.0
 20
0.0
 30
0.0
  3
*D14
  1

  0
LINE
  5
7EF7
330
81B8
100
AcDbEntity
  8
0
  6
ByBlock
100
AcDbLine
 10
75.57214721576018
 20
2748.533310535339
 30
0.0
 11
75.57214721576018
 21
2485.350850711191
 31
0.0
  0
LINE
  5
7EF8
330
81B8
100
AcDbEntity
  8
0
  6
ByBlock
100
AcDbLine
 10
1675.57214721576
 20
2748.533310535338
 30
0.0
 11
1675.57214721576
 21
2485.350850711191
 31
0.0
  0
LINE
  5
7EF9
330
81B8
100
AcDbEntity
  8
0
  6
ByBlock
100
AcDbLine
 10
125.5721472157601
 20
2510.350850711191
 30
0.0
 11
1625.57214721576
 21
2510.350850711191
 31
0.0
  0
INSERT
  5
7EFA
330
81B8
100
AcDbEntity
  8
0
  6
ByBlock
100
AcDbBlockReference
  2
_OPEN
 10
75.57214721576018
 20
2510.350850711191
 30
0.0
 41
50.0
 42
50.0
 43
50.0
 50
180.0
  0
INSERT
  5
7EFB
330
81B8
100
AcDbEntity
  8
0
  6
ByBlock
100
AcDbBlockReference
  2
_OPEN
 10
1675.57214721576
 20
2510.350850711191
 30
0.0
 41
50.0
 42
50.0
 43
50.0
  0
TEXT
  5
7EFC
330
81B8
100
AcDbEntity
  8
3
100
AcDbText
 10
750.5721472157602
 20
2522.850850711191
 30
0.0
 40
75.0
  1
1600
100
AcDbText
  0
POINT
  5
7EFD
330
81B8
100
AcDbEntity
  8
DEFPOINTS
  6
ByBlock
 62
     0
100
AcDbPoint
 10
75.57214721576018
 20
2773.533310535339
 30
0.0
  0
POINT
  5
7EFE
330
81B8
100
AcDbEntity
  8
DEFPOINTS
  6
ByBlock
 62
     0
100
AcDbPoint
 10
1675.57214721576
 20
2773.533310535337
 30
0.0
  0
POINT
  5
7EFF
330
81B8
100
AcDbEntity
  8
DEFPOINTS
  6
ByBlock
 62
     0
100
AcDbPoint
 10
1675.57214721576
 20
2510.350850711191
 30
0.0
  0
ENDBLK
  5
7F00
330
81B8
100
AcDbEntity
  8
0
100
AcDbBlockEnd
  0
BLOCK
  5
81BB
330
81BA
100
AcDbEntity
  8
0
100
AcDbBlockBegin
  2
*D15
 70
     1
 10
0.0
 20
0.0
 30
0.0
  3
*D15
  1

  0
LINE
  5
8004
330
81BA
100
AcDbEntity
  8
0
  6
ByBlock
100
AcDbLine
 10
445.536118939588
 20
4067.085753370572
 30
0.0
 11
303.0787369991485
 21
4067.085753370572
 31
0.0
  0
LINE
  5
8005
330
81BA
100
AcDbEntity
  8
0
  6
ByBlock
100
AcDbLine
 10
445.536118939588
 20
4737.085753370575
 30
0.0
 11
303.0787369991485
 21
4737.085753370575
 31
0.0
  0
LINE
  5
8006
330
81BA
100
AcDbEntity
  8
0
  6
ByBlock
100
AcDbLine
 10
328.0787369991485
 20
4117.085753370573
 30
0.0
 11
328.0787369991485
 21
4687.085753370575
 31
0.0
  0
INSERT
  5
8007
330
81BA
100
AcDbEntity
  8
0
  6
ByBlock
100
AcDbBlockReference
  2
_OPEN
 10
328.0787369991485
 20
4067.085753370572
 30
0.0
 41
50.0
 42
50.0
 43
50.0
 50
270.0
  0
INSERT
  5
8008
330
81BA
100
AcDbEntity
  8
0
  6
ByBlock
100
AcDbBlockReference
  2
_OPEN
 10
328.0787369991485
 20
4737.085753370575
 30
0.0
 41
50.0
 42
50.0
 43
50.0
 50
90.0
  0
TEXT
  5
8009
330
81BA
100
AcDbEntity
  8
3
100
AcDbText
 10
315.5787369991485
 20
4305.657181942001
 30
0.0
 40
75.0
  1
670
 50
90.0
100
AcDbText
  0
POINT
  5
800A
330
81BA
100
AcDbEntity
  8
DEFPOINTS
  6
ByBlock
 62
     0
100
AcDbPoint
 10
470.536118939588
 20
4067.085753370572
 30
0.0
  0
POINT
  5
800B
330
81BA
100
AcDbEntity
  8
DEFPOINTS
  6
ByBlock
 62
     0
100
AcDbPoint
 10
470.536118939588
 20
4737.085753370575
 30
0.0
  0
POINT
  5
800C
330
81BA
100
AcDbEntity
  8
DEFPOINTS
  6
ByBlock
 62
     0
100
AcDbPoint
 10
328.0787369991485
 20
4737.085753370575
 30
0.0
  0
ENDBLK
  5
800D
330
81BA
100
AcDbEntity
  8
0
100
AcDbBlockEnd
  0
BLOCK
  5
81BD
330
81BC
100
AcDbEntity
  8
0
100
AcDbBlockBegin
  2
*D16
 70
     1
 10
0.0
 20
0.0
 30
0.0
  3
*D16
  1

  0
LINE
  5
7F0D
330
81BC
100
AcDbEntity
  8
0
  6
ByBlock
100
AcDbLine
 10
775.5721472157602
 20
3953.533310535338
 30
0.0
 11
775.5721472157602
 21
4255.16536493951
 31
0.0
  0
LINE
  5
7F0E
330
81BC
100
AcDbEntity
  8
0
  6
ByBlock
100
AcDbLine
 10
1675.57214721576
 20
3953.533310535338
 30
0.0
 11
1675.57214721576
 21
4255.16536493951
 31
0.0
  0
LINE
  5
7F0F
330
81BC
100
AcDbEntity
  8
0
  6
ByBlock
100
AcDbLine
 10
825.5721472157601
 20
4230.165364939511
 30
0.0
 11
1625.57214721576
 21
4230.165364939511
 31
0.0
  0
INSERT
  5
7F10
330
81BC
100
AcDbEntity
  8
0
  6
ByBlock
100
AcDbBlockReference
  2
_OPEN
 10
775.5721472157602
 20
4230.165364939511
 30
0.0
 41
50.0
 42
50.0
 43
50.0
 50
180.0
  0
INSERT
  5
7F11
330
81BC
100
AcDbEntity
  8
0
  6
ByBlock
100
AcDbBlockReference
  2
_OPEN
 10
1675.57214721576
 20
4230.165364939511
 30
0.0
 41
50.0
 42
50.0
 43
50.0
  0
TEXT
  5
7F12
330
81BC
100
AcDbEntity
  8
3
100
AcDbText
 10
1129.143575787189
 20
4242.665364939511
 30
0.0
 40
75.0
  1
900
100
AcDbText
  0
POINT
  5
7F13
330
81BC
100
AcDbEntity
  8
DEFPOINTS
  6
ByBlock
 62
     0
100
AcDbPoint
 10
775.5721472157602
 20
3928.533310535339
 30
0.0
  0
POINT
  5
7F14
330
81BC
100
AcDbEntity
  8
DEFPOINTS
  6
ByBlock
 62
     0
100
AcDbPoint
 10
1675.57214721576
 20
3928.533310535338
 30
0.0
  0
POINT
  5
7F15
330
81BC
100
AcDbEntity
  8
DEFPOINTS
  6
ByBlock
 62
     0
100
AcDbPoint
 10
1675.57214721576
 20
4230.165364939511
 30
0.0
  0
ENDBLK
  5
7F16
330
81BC
100
AcDbEntity
  8
0
100
AcDbBlockEnd
  0
BLOCK
  5
81BF
330
81BE
100
AcDbEntity
  8
0
100
AcDbBlockBegin
  2
*D17
 70
     1
 10
0.0
 20
0.0
 30
0.0
  3
*D17
  1

  0
LINE
  5
7F18
330
81BE
100
AcDbEntity
  8
0
  6
ByBlock
100
AcDbLine
 10
75.57214721576018
 20
3468.53331053534
 30
0.0
 11
75.57214721576018
 21
4255.16536493951
 31
0.0
  0
LINE
  5
7F19
330
81BE
100
AcDbEntity
  8
0
  6
ByBlock
100
AcDbLine
 10
775.5721472157602
 20
3953.533310535338
 30
0.0
 11
775.5721472157602
 21
4255.16536493951
 31
0.0
  0
LINE
  5
7F1A
330
81BE
100
AcDbEntity
  8
0
  6
ByBlock
100
AcDbLine
 10
125.5721472157601
 20
4230.165364939511
 30
0.0
 11
725.5721472157602
 21
4230.165364939511
 31
0.0
  0
INSERT
  5
7F1B
330
81BE
100
AcDbEntity
  8
0
  6
ByBlock
100
AcDbBlockReference
  2
_OPEN
 10
75.57214721576018
 20
4230.165364939511
 30
0.0
 41
50.0
 42
50.0
 43
50.0
 50
180.0
  0
INSERT
  5
7F1C
330
81BE
100
AcDbEntity
  8
0
  6
ByBlock
100
AcDbBlockReference
  2
_OPEN
 10
775.5721472157602
 20
4230.165364939511
 30
0.0
 41
50.0
 42
50.0
 43
50.0
  0
TEXT
  5
7F1D
330
81BE
100
AcDbEntity
  8
3
100
AcDbText
 10
329.1435757871887
 20
4242.665364939511
 30
0.0
 40
75.0
  1
700
100
AcDbText
  0
POINT
  5
7F1E
330
81BE
100
AcDbEntity
  8
DEFPOINTS
  6
ByBlock
 62
     0
100
AcDbPoint
 10
75.57214721576018
 20
3443.53331053534
 30
0.0
  0
POINT
  5
7F1F
330
81BE
100
AcDbEntity
  8
DEFPOINTS
  6
ByBlock
 62
     0
100
AcDbPoint
 10
775.5721472157602
 20
3928.533310535339
 30
0.0
  0
POINT
  5
7F20
330
81BE
100
AcDbEntity
  8
DEFPOINTS
  6
ByBlock
 62
     0
100
AcDbPoint
 10
775.5721472157602
 20
4230.165364939511
 30
0.0
  0
ENDBLK
  5
7F21
330
81BE
100
AcDbEntity
  8
0
100
AcDbBlockEnd
  0
BLOCK
  5
81C1
330
81C0
100
AcDbEntity
  8
0
100
AcDbBlockBegin
  2
*D18
 70
     1
 10
0.0
 20
0.0
 30
0.0
  3
*D18
  1

  0
LINE
  5
7F23
330
81C0
100
AcDbEntity
  8
0
  6
ByBlock
100
AcDbLine
 10
1700.57214721576
 20
2773.533310535337
 30
0.0
 11
2001.969355357017
 21
2773.533310535337
 31
0.0
  0
LINE
  5
7F24
330
81C0
100
AcDbEntity
  8
0
  6
ByBlock
100
AcDbLine
 10
1700.57214721576
 20
3928.533310535338
 30
0.0
 11
2001.969355357017
 21
3928.533310535338
 31
0.0
  0
LINE
  5
7F25
330
81C0
100
AcDbEntity
  8
0
  6
ByBlock
100
AcDbLine
 10
1976.969355357018
 20
2823.533310535337
 30
0.0
 11
1976.969355357018
 21
3878.533310535337
 31
0.0
  0
INSERT
  5
7F26
330
81C0
100
AcDbEntity
  8
0
  6
ByBlock
100
AcDbBlockReference
  2
_OPEN
 10
1976.969355357018
 20
2773.533310535337
 30
0.0
 41
50.0
 42
50.0
 43
50.0
 50
270.0
  0
INSERT
  5
7F27
330
81C0
100
AcDbEntity
  8
0
  6
ByBlock
100
AcDbBlockReference
  2
_OPEN
 10
1976.969355357018
 20
3928.533310535338
 30
0.0
 41
50.0
 42
50.0
 43
50.0
 50
90.0
  0
TEXT
  5
7F28
330
81C0
100
AcDbEntity
  8
3
100
AcDbText
 10
1964.469355357017
 20
3233.176167678195
 30
0.0
 40
75.0
  1
1155
 50
90.0
100
AcDbText
  0
POINT
  5
7F29
330
81C0
100
AcDbEntity
  8
DEFPOINTS
  6
ByBlock
 62
     0
100
AcDbPoint
 10
1675.57214721576
 20
2773.533310535337
 30
0.0
  0
POINT
  5
7F2A
330
81C0
100
AcDbEntity
  8
DEFPOINTS
  6
ByBlock
 62
     0
100
AcDbPoint
 10
1675.57214721576
 20
3928.533310535338
 30
0.0
  0
POINT
  5
7F2B
330
81C0
100
AcDbEntity
  8
DEFPOINTS
  6
ByBlock
 62
     0
100
AcDbPoint
 10
1976.969355357018
 20
3928.533310535338
 30
0.0
  0
ENDBLK
  5
7F2C
330
81C0
100
AcDbEntity
  8
0
100
AcDbBlockEnd
  0
BLOCK
  5
81C3
330
81C2
100
AcDbEntity
  8
0
100
AcDbBlockBegin
  2
*D19
 70
     1
 10
0.0
 20
0.0
 30
0.0
  3
*D19
  1

  0
LINE
  5
810B
330
81C2
100
AcDbEntity
  8
3
 62
     0
100
AcDbLine
 10
2373.460156090059
 20
1729.453614188716
 30
0.0
 11
2736.713970375375
 21
1729.453614188716
 31
0.0
  0
LINE
  5
810C
330
81C2
100
AcDbEntity
  8
3
 62
     0
100
AcDbLine
 10
2373.460156090059
 20
1629.453614188716
 30
0.0
 11
2736.713970375375
 21
1629.453614188716
 31
0.0
  0
LINE
  5
810D
330
81C2
100
AcDbEntity
  8
3
 62
     0
100
AcDbLine
 10
2711.713970375375
 20
1779.453614188716
 30
0.0
 11
2711.713970375375
 21
1829.453614188716
 31
0.0
  0
LINE
  5
810E
330
81C2
100
AcDbEntity
  8
3
 62
     0
100
AcDbLine
 10
2711.713970375375
 20
1579.453614188716
 30
0.0
 11
2711.713970375375
 21
1300.882185617288
 31
0.0
  0
LINE
  5
810F
330
81C2
100
AcDbEntity
  8
3
 62
     0
100
AcDbLine
 10
2711.713970375375
 20
1729.453614188716
 30
0.0
 11
2711.713970375375
 21
1629.453614188716
 31
0.0
  0
INSERT
  5
8110
330
81C2
100
AcDbEntity
  8
3
 62
     0
100
AcDbBlockReference
  2
_DOT
 10
2711.713970375375
 20
1729.453614188716
 30
0.0
 41
50.0
 42
50.0
 43
50.0
 50
270.0
  0
INSERT
  5
8111
330
81C2
100
AcDbEntity
  8
3
 62
     0
100
AcDbBlockReference
  2
_OPEN
 10
2711.713970375375
 20
1629.453614188716
 30
0.0
 41
50.0
 42
50.0
 43
50.0
 50
90.0
  0
TEXT
  5
811E
330
81C2
100
AcDbEntity
  8
3
 62
     0
100
AcDbText
 10
2499.21
 20
1282.42
 30
0.0
 40
75.0
  1
100
100
AcDbText
  0
POINT
  5
8113
330
81C2
100
AcDbEntity
  8
DEFPOINTS
 62
     0
100
AcDbPoint
 10
2360.960156090059
 20
1729.453614188716
 30
0.0
  0
POINT
  5
8114
330
81C2
100
AcDbEntity
  8
DEFPOINTS
 62
     0
100
AcDbPoint
 10
2360.960156090059
 20
1629.453614188716
 30
0.0
  0
POINT
  5
8115
330
81C2
100
AcDbEntity
  8
DEFPOINTS
 62
     0
100
AcDbPoint
 10
2711.713970375375
 20
1629.453614188716
 30
0.0
  0
ENDBLK
  5
7FD7
330
81C2
100
AcDbEntity
  8
0
100
AcDbBlockEnd
  0
BLOCK
  5
81C7
330
81C4
100
AcDbEntity
  8
0
100
AcDbBlockBegin
  2
_DOT
 70
     0
 10
0.0
 20
0.0
 30
0.0
  3
_DOT
  1

  0
LWPOLYLINE
  5
7FF6
330
81C4
100
AcDbEntity
  8
0
  6
ByBlock
 62
     0
100
AcDbPolyline
 90
        2
 70
     1
 43
0.25
 10
-0.125
 20
0.0
 42
1.0
 10
0.125
 20
0.0
 42
1.0
  0
LINE
  5
7FFA
330
81C4
100
AcDbEntity
  8
0
  6
ByBlock
 62
     0
100
AcDbLine
 10
-0.25
 20
0.0
 30
0.0
 11
-1.0
 21
0.0
 31
0.0
  0
ENDBLK
  5
7FCA
330
81C4
100
AcDbEntity
  8
0
100
AcDbBlockEnd
  0
BLOCK
  5
81C6
330
81C5
100
AcDbEntity
  8
0
100
AcDbBlockBegin
  2
*D21
 70
     1
 10
0.0
 20
0.0
 30
0.0
  3
*D21
  1

  0
LINE
  5
7F53
330
81C5
100
AcDbEntity
  8
0
  6
ByBlock
100
AcDbLine
 10
1725.57214721576
 20
1334.593478221398
 30
0.0
 11
1725.57214721576
 21
1654.359497277424
 31
0.0
  0
LINE
  5
7F54
330
81C5
100
AcDbEntity
  8
0
  6
ByBlock
100
AcDbLine
 10
75.57214721576018
 20
88.59347822139898
 30
0.0
 11
75.57214721576018
 21
1654.359497277424
 31
0.0
  0
LINE
  5
7F55
330
81C5
100
AcDbEntity
  8
0
  6
ByBlock
100
AcDbLine
 10
1675.57214721576
 20
1629.359497277424
 30
0.0
 11
125.5721472157601
 21
1629.359497277424
 31
0.0
  0
INSERT
  5
7F56
330
81C5
100
AcDbEntity
  8
0
  6
ByBlock
100
AcDbBlockReference
  2
_OPEN
 10
1725.57214721576
 20
1629.359497277424
 30
0.0
 41
50.0
 42
50.0
 43
50.0
  0
INSERT
  5
7F57
330
81C5
100
AcDbEntity
  8
0
  6
ByBlock
100
AcDbBlockReference
  2
_OPEN
 10
75.57214721576018
 20
1629.359497277424
 30
0.0
 41
50.0
 42
50.0
 43
50.0
 50
180.0
  0
TEXT
  5
7F58
330
81C5
100
AcDbEntity
  8
3
100
AcDbText
 10
775.5721472157602
 20
1641.859497277424
 30
0.0
 40
75.0
  1
1650
100
AcDbText
  0
POINT
  5
7F59
330
81C5
100
AcDbEntity
  8
DEFPOINTS
  6
ByBlock
 62
     0
100
AcDbPoint
 10
1725.57214721576
 20
1309.593478221398
 30
0.0
  0
POINT
  5
7F5A
330
81C5
100
AcDbEntity
  8
DEFPOINTS
  6
ByBlock
 62
     0
100
AcDbPoint
 10
75.57214721576018
 20
63.59347822139898
 30
0.0
  0
POINT
  5
7F5B
330
81C5
100
AcDbEntity
  8
DEFPOINTS
  6
ByBlock
 62
     0
100
AcDbPoint
 10
75.57214721576018
 20
1629.359497277424
 30
0.0
  0
ENDBLK
  5
7F5C
330
81C5
100
AcDbEntity
  8
0
100
AcDbBlockEnd
  0
BLOCK
  5
81C9
330
81C8
100
AcDbEntity
  8
0
100
AcDbBlockBegin
  2
*D22
 70
     1
 10
0.0
 20
0.0
 30
0.0
  3
*D22
  1

  0
LINE
  5
8048
330
81C8
100
AcDbEntity
  8
0
  6
ByBlock
 62
     0
100
AcDbLine
 10
760.960156090059
 20
1672.453614188716
 30
0.0
 11
760.960156090059
 21
1486.998059792202
 31
0.0
  0
LINE
  5
8049
330
81C8
100
AcDbEntity
  8
0
  6
ByBlock
 62
     0
100
AcDbLine
 10
1910.960156090059
 20
1672.453614188716
 30
0.0
 11
1910.960156090059
 21
1486.998059792202
 31
0.0
  0
LINE
  5
804A
330
81C8
100
AcDbEntity
  8
0
  6
ByBlock
 62
     0
100
AcDbLine
 10
810.9601560900591
 20
1511.998059792202
 30
0.0
 11
1860.960156090059
 21
1511.998059792202
 31
0.0
  0
INSERT
  5
804B
330
81C8
100
AcDbEntity
  8
0
  6
ByBlock
 62
     0
100
AcDbBlockReference
  2
_OPEN
 10
760.960156090059
 20
1511.998059792202
 30
0.0
 41
50.0
 42
50.0
 43
50.0
 50
180.0
  0
INSERT
  5
804C
330
81C8
100
AcDbEntity
  8
0
  6
ByBlock
 62
     0
100
AcDbBlockReference
  2
_OPEN
 10
1910.960156090059
 20
1511.998059792202
 30
0.0
 41
50.0
 42
50.0
 43
50.0
  0
TEXT
  5
804D
330
81C8
100
AcDbEntity
  8
3
 62
     0
100
AcDbText
 10
1218.103013232916
 20
1536.998059792202
 30
0.0
 40
75.0
  1
1150
100
AcDbText
  0
POINT
  5
804E
330
81C8
100
AcDbEntity
  8
DEFPOINTS
  6
ByBlock
 62
     0
100
AcDbPoint
 10
760.960156090059
 20
1697.453614188716
 30
0.0
  0
POINT
  5
804F
330
81C8
100
AcDbEntity
  8
DEFPOINTS
  6
ByBlock
 62
     0
100
AcDbPoint
 10
1910.960156090059
 20
1697.453614188716
 30
0.0
  0
POINT
  5
8050
330
81C8
100
AcDbEntity
  8
DEFPOINTS
  6
ByBlock
 62
     0
100
AcDbPoint
 10
1910.960156090059
 20
1511.998059792202
 30
0.0
  0
ENDBLK
  5
8051
330
81C8
100
AcDbEntity
  8
0
100
AcDbBlockEnd
  0
BLOCK
  5
81CB
330
81CA
100
AcDbEntity
  8
0
100
AcDbBlockBegin
  2
*D23
 70
     1
 10
0.0
 20
0.0
 30
0.0
  3
*D23
  1

  0
LINE
  5
8055
330
81CA
100
AcDbEntity
  8
0
  6
ByBlock
 62
     0
100
AcDbLine
 10
1910.960156090059
 20
1672.453614188716
 30
0.0
 11
1910.960156090059
 21
1486.998059792202
 31
0.0
  0
LINE
  5
8056
330
81CA
100
AcDbEntity
  8
0
  6
ByBlock
 62
     0
100
AcDbLine
 10
2360.960156090059
 20
1672.453614188716
 30
0.0
 11
2360.960156090059
 21
1486.998059792202
 31
0.0
  0
LINE
  5
8057
330
81CA
100
AcDbEntity
  8
0
  6
ByBlock
 62
     0
100
AcDbLine
 10
1960.960156090059
 20
1511.998059792202
 30
0.0
 11
2310.960156090059
 21
1511.998059792202
 31
0.0
  0
INSERT
  5
8058
330
81CA
100
AcDbEntity
  8
0
  6
ByBlock
 62
     0
100
AcDbBlockReference
  2
_OPEN
 10
1910.960156090059
 20
1511.998059792202
 30
0.0
 41
50.0
 42
50.0
 43
50.0
 50
180.0
  0
INSERT
  5
8059
330
81CA
100
AcDbEntity
  8
0
  6
ByBlock
 62
     0
100
AcDbBlockReference
  2
_OPEN
 10
2360.960156090059
 20
1511.998059792202
 30
0.0
 41
50.0
 42
50.0
 43
50.0
  0
TEXT
  5
805A
330
81CA
100
AcDbEntity
  8
3
 62
     0
100
AcDbText
 10
2039.531584661487
 20
1536.998059792202
 30
0.0
 40
75.0
  1
450
100
AcDbText
  0
POINT
  5
805B
330
81CA
100
AcDbEntity
  8
DEFPOINTS
  6
ByBlock
 62
     0
100
AcDbPoint
 10
1910.960156090059
 20
1697.453614188716
 30
0.0
  0
POINT
  5
805C
330
81CA
100
AcDbEntity
  8
DEFPOINTS
  6
ByBlock
 62
     0
100
AcDbPoint
 10
2360.960156090059
 20
1697.453614188716
 30
0.0
  0
POINT
  5
805D
330
81CA
100
AcDbEntity
  8
DEFPOINTS
  6
ByBlock
 62
     0
100
AcDbPoint
 10
2360.960156090059
 20
1511.998059792202
 30
0.0
  0
ENDBLK
  5
805E
330
81CA
100
AcDbEntity
  8
0
100
AcDbBlockEnd
  0
BLOCK
  5
81CD
330
81CC
100
AcDbEntity
  8
0
100
AcDbBlockBegin
  2
*D24
 70
     1
 10
0.0
 20
0.0
 30
0.0
  3
*D24
  1

  0
LINE
  5
8062
330
81CC
100
AcDbEntity
  8
0
  6
ByBlock
 62
     0
100
AcDbLine
 10
3336.415278056256
 20
1672.453614188716
 30
0.0
 11
3336.415278056256
 21
1486.998059792202
 31
0.0
  0
LINE
  5
8063
330
81CC
100
AcDbEntity
  8
0
  6
ByBlock
 62
     0
100
AcDbLine
 10
3988.415278056257
 20
1672.453614188716
 30
0.0
 11
3988.415278056257
 21
1486.998059792202
 31
0.0
  0
LINE
  5
8064
330
81CC
100
AcDbEntity
  8
0
  6
ByBlock
 62
     0
100
AcDbLine
 10
3386.415278056257
 20
1511.998059792202
 30
0.0
 11
3938.415278056257
 21
1511.998059792202
 31
0.0
  0
INSERT
  5
8065
330
81CC
100
AcDbEntity
  8
0
  6
ByBlock
 62
     0
100
AcDbBlockReference
  2
_OPEN
 10
3336.415278056256
 20
1511.998059792202
 30
0.0
 41
50.0
 42
50.0
 43
50.0
 50
180.0
  0
INSERT
  5
8066
330
81CC
100
AcDbEntity
  8
0
  6
ByBlock
 62
     0
100
AcDbBlockReference
  2
_OPEN
 10
3988.415278056257
 20
1511.998059792202
 30
0.0
 41
50.0
 42
50.0
 43
50.0
  0
TEXT
  5
8067
330
81CC
100
AcDbEntity
  8
3
 62
     0
100
AcDbText
 10
3565.986706627684
 20
1536.998059792202
 30
0.0
 40
75.0
  1
652
100
AcDbText
  0
POINT
  5
8068
330
81CC
100
AcDbEntity
  8
DEFPOINTS
  6
ByBlock
 62
     0
100
AcDbPoint
 10
3336.415278056256
 20
1697.453614188716
 30
0.0
  0
POINT
  5
8069
330
81CC
100
AcDbEntity
  8
DEFPOINTS
  6
ByBlock
 62
     0
100
AcDbPoint
 10
3988.415278056257
 20
1697.453614188716
 30
0.0
  0
POINT
  5
806A
330
81CC
100
AcDbEntity
  8
DEFPOINTS
  6
ByBlock
 62
     0
100
AcDbPoint
 10
3988.415278056257
 20
1511.998059792202
 30
0.0
  0
ENDBLK
  5
806B
330
81CC
100
AcDbEntity
  8
0
100
AcDbBlockEnd
  0
BLOCK
  5
81CF
330
81CE
100
AcDbEntity
  8
0
100
AcDbBlockBegin
  2
*D25
 70
     1
 10
0.0
 20
0.0
 30
0.0
  3
*D25
  1

  0
LINE
  5
806F
330
81CE
100
AcDbEntity
  8
0
  6
ByBlock
 62
     0
100
AcDbLine
 10
3988.415278056257
 20
1672.453614188716
 30
0.0
 11
3988.415278056257
 21
1486.998059792202
 31
0.0
  0
LINE
  5
8070
330
81CE
100
AcDbEntity
  8
0
  6
ByBlock
 62
     0
100
AcDbLine
 10
4491.415278056257
 20
1672.453614188716
 30
0.0
 11
4491.415278056257
 21
1486.998059792202
 31
0.0
  0
LINE
  5
8071
330
81CE
100
AcDbEntity
  8
0
  6
ByBlock
 62
     0
100
AcDbLine
 10
4038.415278056256
 20
1511.998059792202
 30
0.0
 11
4441.415278056257
 21
1511.998059792202
 31
0.0
  0
INSERT
  5
8072
330
81CE
100
AcDbEntity
  8
0
  6
ByBlock
 62
     0
100
AcDbBlockReference
  2
_OPEN
 10
3988.415278056257
 20
1511.998059792202
 30
0.0
 41
50.0
 42
50.0
 43
50.0
 50
180.0
  0
INSERT
  5
8073
330
81CE
100
AcDbEntity
  8
0
  6
ByBlock
 62
     0
100
AcDbBlockReference
  2
_OPEN
 10
4491.415278056257
 20
1511.998059792202
 30
0.0
 41
50.0
 42
50.0
 43
50.0
  0
TEXT
  5
8074
330
81CE
100
AcDbEntity
  8
3
 62
     0
100
AcDbText
 10
4143.486706627685
 20
1536.998059792202
 30
0.0
 40
75.0
  1
503
100
AcDbText
  0
POINT
  5
8075
330
81CE
100
AcDbEntity
  8
DEFPOINTS
  6
ByBlock
 62
     0
100
AcDbPoint
 10
3988.415278056257
 20
1697.453614188716
 30
0.0
  0
POINT
  5
8076
330
81CE
100
AcDbEntity
  8
DEFPOINTS
  6
ByBlock
 62
     0
100
AcDbPoint
 10
4491.415278056257
 20
1697.453614188716
 30
0.0
  0
POINT
  5
8077
330
81CE
100
AcDbEntity
  8
DEFPOINTS
  6
ByBlock
 62
     0
100
AcDbPoint
 10
4491.415278056257
 20
1511.998059792202
 30
0.0
  0
ENDBLK
  5
8078
330
81CE
100
AcDbEntity
  8
0
100
AcDbBlockEnd
  0
BLOCK
  5
81D1
330
81D0
100
AcDbEntity
  8
0
100
AcDbBlockBegin
  2
_NONE
 70
     0
 10
0.0
 20
0.0
 30
0.0
  3
_NONE
  1

  0
CIRCLE
  5
807C
330
81D0
100
AcDbEntity
  8
0
  6
ByBlock
 62
     0
100
AcDbCircle
 10
0.0
 20
0.0
 30
0.0
 40
0.25
  0
ENDBLK
  5
807D
330
81D0
100
AcDbEntity
  8
0
100
AcDbBlockEnd
  0
BLOCK
  5
81D3
330
81D2
100
AcDbEntity
  8
0
100
AcDbBlockBegin
  2
*D27
 70
     1
 10
0.0
 20
0.0
 30
0.0
  3
*D27
  1

  0
LINE
  5
809A
330
81D2
100
AcDbEntity
  8
0
  6
ByBlock
 62
     0
100
AcDbLine
 10
2710.923627232663
 20
1729.453614188716
 30
0.0
 11
2710.923627232663
 21
1824.453614188716
 31
0.0
  0
TEXT
  5
809B
330
81D2
100
AcDbEntity
  8
3
 62
     0
100
AcDbText
 10
2855.56648437552
 20
1668.025042760145
 30
0.0
 40
75.0
  1
(95)
 50
90.0
100
AcDbText
  0
POINT
  5
809C
330
81D2
100
AcDbEntity
  8
DEFPOINTS
  6
ByBlock
 62
     0
100
AcDbPoint
 10
2360.960156090059
 20
1729.453614188716
 30
0.0
  0
POINT
  5
809D
330
81D2
100
AcDbEntity
  8
DEFPOINTS
  6
ByBlock
 62
     0
100
AcDbPoint
 10
2360.960156090059
 20
1824.453614188716
 30
0.0
  0
POINT
  5
809E
330
81D2
100
AcDbEntity
  8
DEFPOINTS
  6
ByBlock
 62
     0
100
AcDbPoint
 10
2710.923627232663
 20
1824.453614188716
 30
0.0
  0
ENDBLK
  5
809F
330
81D2
100
AcDbEntity
  8
0
100
AcDbBlockEnd
  0
BLOCK
  5
81D5
330
81D4
100
AcDbEntity
  8
0
100
AcDbBlockBegin
  2
*D28
 70
     1
 10
0.0
 20
0.0
 30
0.0
  3
*D28
  1

  0
LINE
  5
80A3
330
81D4
100
AcDbEntity
  8
0
  6
ByBlock
 62
     0
100
AcDbLine
 10
2385.960156090058
 20
1629.453614188716
 30
0.0
 11
2931.407729709775
 21
1629.453614188716
 31
0.0
  0
LINE
  5
80A4
330
81D4
100
AcDbEntity
  8
0
  6
ByBlock
 62
     0
100
AcDbLine
 10
2435.960156090059
 20
3128.453614188716
 30
0.0
 11
2931.407729709775
 21
3128.453614188716
 31
0.0
  0
LINE
  5
80A5
330
81D4
100
AcDbEntity
  8
0
  6
ByBlock
 62
     0
100
AcDbLine
 10
2906.407729709775
 20
1679.453614188716
 30
0.0
 11
2906.407729709775
 21
3078.453614188715
 31
0.0
  0
INSERT
  5
80A6
330
81D4
100
AcDbEntity
  8
0
  6
ByBlock
 62
     0
100
AcDbBlockReference
  2
_OPEN
 10
2906.407729709775
 20
1629.453614188716
 30
0.0
 41
50.0
 42
50.0
 43
50.0
 50
270.0
  0
INSERT
  5
80A7
330
81D4
100
AcDbEntity
  8
0
  6
ByBlock
 62
     0
100
AcDbBlockReference
  2
_OPEN
 10
2906.407729709775
 20
3128.453614188716
 30
0.0
 41
50.0
 42
50.0
 43
50.0
 50
90.0
  0
TEXT
  5
80A8
330
81D4
100
AcDbEntity
  8
3
 62
     0
100
AcDbText
 10
2849.264872566918
 20
2205.73932847443
 30
0.0
 40
75.0
  1
(1499)
 50
90.0
100
AcDbText
  0
POINT
  5
80A9
330
81D4
100
AcDbEntity
  8
DEFPOINTS
  6
ByBlock
 62
     0
100
AcDbPoint
 10
2360.960156090059
 20
1629.453614188716
 30
0.0
  0
POINT
  5
80AA
330
81D4
100
AcDbEntity
  8
DEFPOINTS
  6
ByBlock
 62
     0
100
AcDbPoint
 10
2410.960156090059
 20
3128.453614188716
 30
0.0
  0
POINT
  5
80AB
330
81D4
100
AcDbEntity
  8
DEFPOINTS
  6
ByBlock
 62
     0
100
AcDbPoint
 10
2906.407729709775
 20
3128.453614188716
 30
0.0
  0
ENDBLK
  5
80AC
330
81D4
100
AcDbEntity
  8
0
100
AcDbBlockEnd
  0
BLOCK
  5
826E
330
826D
100
AcDbEntity
  8
0
100
AcDbBlockBegin
  2
*D30
 70
     1
 10
0.0
 20
0.0
 30
0.0
  3
*D30
  1

  0
LINE
  5
82A8
330
826D
100
AcDbEntity
  8
3
 62
     0
370
    -2
100
AcDbLine
 10
3148.415278056259
 20
2674.453614188717
 30
0.0
 11
3148.415278056259
 21
3519.511764729268
 31
0.0
  0
LINE
  5
82A9
330
826D
100
AcDbEntity
  8
3
 62
     0
370
    -2
100
AcDbLine
 10
3988.415278056257
 20
3432.767176982922
 30
0.0
 11
3988.415278056257
 21
3519.511764729268
 31
0.0
  0
LINE
  5
82AA
330
826D
100
AcDbEntity
  8
3
 62
     0
370
    -2
100
AcDbLine
 10
3198.41527805626
 20
3494.511764729268
 30
0.0
 11
3938.415278056257
 21
3494.511764729268
 31
0.0
  0
INSERT
  5
82AB
330
826D
100
AcDbEntity
  8
3
 62
     0
370
    -2
100
AcDbBlockReference
  2
_OPEN
 10
3148.415278056259
 20
3494.511764729268
 30
0.0
 41
50.0
 42
50.0
 43
50.0
 50
180.0
  0
INSERT
  5
82AC
330
826D
100
AcDbEntity
  8
3
 62
     0
370
    -2
100
AcDbBlockReference
  2
_OPEN
 10
3988.415278056257
 20
3494.511764729268
 30
0.0
 41
50.0
 42
50.0
 43
50.0
  0
MTEXT
  5
82AD
330
826D
100
AcDbEntity
  8
3
 62
     0
100
AcDbMText
 10
3568.415278056259
 20
3576.654621872125
 30
0.0
 40
75.0
 41
0.0
 71
     5
 72
     1
  1
\A1;(840)
 73
     1
 44
1.0
1001
ACAD
1000
MTEXTBEGIN
1070
    73
1070
     1
1070
    44
1040
1.0
1070
    74
1070
     0
1000
MTEXTEND
  0
POINT
  5
82AE
330
826D
100
AcDbEntity
  8
DEFPOINTS
 62
     0
100
AcDbPoint
 10
3148.415278056259
 20
2649.453614188717
 30
0.0
  0
POINT
  5
82AF
330
826D
100
AcDbEntity
  8
DEFPOINTS
 62
     0
100
AcDbPoint
 10
3988.415278056257
 20
3407.767176982922
 30
0.0
  0
POINT
  5
82B0
330
826D
100
AcDbEntity
  8
DEFPOINTS
 62
     0
100
AcDbPoint
 10
3988.415278056257
 20
3494.511764729268
 30
0.0
  0
ENDBLK
  5
826F
330
826D
100
AcDbEntity
  8
0
100
AcDbBlockEnd
  0
BLOCK
  5
827B
330
827A
100
AcDbEntity
  8
0
100
AcDbBlockBegin
  2
*D31
 70
     1
 10
0.0
 20
0.0
 30
0.0
  3
*D31
  1

  0
LINE
  5
82B1
330
827A
100
AcDbEntity
  8
3
 62
     0
370
    -2
100
AcDbLine
 10
3988.415278056257
 20
3432.767176982922
 30
0.0
 11
3988.415278056257
 21
3519.511764729268
 31
0.0
  0
LINE
  5
82B2
330
827A
100
AcDbEntity
  8
3
 62
     0
370
    -2
100
AcDbLine
 10
4548.415278056256
 20
2369.253614188716
 30
0.0
 11
4548.415278056256
 21
3519.511764729268
 31
0.0
  0
LINE
  5
82B3
330
827A
100
AcDbEntity
  8
3
 62
     0
370
    -2
100
AcDbLine
 10
4038.415278056256
 20
3494.511764729268
 30
0.0
 11
4498.415278056255
 21
3494.511764729268
 31
0.0
  0
INSERT
  5
82B4
330
827A
100
AcDbEntity
  8
3
 62
     0
370
    -2
100
AcDbBlockReference
  2
_OPEN
 10
3988.415278056257
 20
3494.511764729268
 30
0.0
 41
50.0
 42
50.0
 43
50.0
 50
180.0
  0
INSERT
  5
82B5
330
827A
100
AcDbEntity
  8
3
 62
     0
370
    -2
100
AcDbBlockReference
  2
_OPEN
 10
4548.415278056256
 20
3494.511764729268
 30
0.0
 41
50.0
 42
50.0
 43
50.0
  0
MTEXT
  5
82B6
330
827A
100
AcDbEntity
  8
3
 62
     0
100
AcDbMText
 10
4268.415278056256
 20
3576.654621872125
 30
0.0
 40
75.0
 41
0.0
 71
     5
 72
     1
  1
\A1;(560)
 73
     1
 44
1.0
1001
ACAD
1000
MTEXTBEGIN
1070
    73
1070
     1
1070
    44
1040
1.0
1070
    74
1070
     0
1000
MTEXTEND
  0
POINT
  5
82B7
330
827A
100
AcDbEntity
  8
DEFPOINTS
 62
     0
100
AcDbPoint
 10
3988.415278056257
 20
3407.767176982922
 30
0.0
  0
POINT
  5
82B8
330
827A
100
AcDbEntity
  8
DEFPOINTS
 62
     0
100
AcDbPoint
 10
4548.415278056256
 20
2344.253614188716
 30
0.0
  0
POINT
  5
82B9
330
827A
100
AcDbEntity
  8
DEFPOINTS
 62
     0
100
AcDbPoint
 10
4548.415278056256
 20
3494.511764729268
 30
0.0
  0
ENDBLK
  5
827C
330
827A
100
AcDbEntity
  8
0
100
AcDbBlockEnd
  0
BLOCK
  5
829D
330
829C
100
AcDbEntity
  8
0
100
AcDbBlockBegin
  2
*D32
 70
     1
 10
0.0
 20
0.0
 30
0.0
  3
*D32
  1

  0
LINE
  5
829F
330
829C
100
AcDbEntity
  8
3
 62
     0
370
    -2
100
AcDbLine
 10
760.960156090059
 20
4042.085753370572
 30
0.0
 11
760.960156090059
 21
3695.929396599721
 31
0.0
  0
LINE
  5
82A0
330
829C
100
AcDbEntity
  8
3
 62
     0
370
    -2
100
AcDbLine
 10
2360.960156090059
 20
4042.085753370572
 30
0.0
 11
2360.960156090059
 21
3695.929396599721
 31
0.0
  0
LINE
  5
82A1
330
829C
100
AcDbEntity
  8
3
 62
     0
370
    -2
100
AcDbLine
 10
810.9601560900591
 20
3720.92939659972
 30
0.0
 11
2310.960156090059
 21
3720.92939659972
 31
0.0
  0
INSERT
  5
82A2
330
829C
100
AcDbEntity
  8
3
 62
     0
370
    -2
100
AcDbBlockReference
  2
_OPEN
 10
760.960156090059
 20
3720.92939659972
 30
0.0
 41
50.0
 42
50.0
 43
50.0
 50
180.0
  0
INSERT
  5
82A3
330
829C
100
AcDbEntity
  8
3
 62
     0
370
    -2
100
AcDbBlockReference
  2
_OPEN
 10
2360.960156090059
 20
3720.92939659972
 30
0.0
 41
50.0
 42
50.0
 43
50.0
  0
MTEXT
  5
82A4
330
829C
100
AcDbEntity
  8
3
 62
     0
100
AcDbMText
 10
1560.960156090059
 20
3783.42939659972
 30
0.0
 40
75.0
 41
0.0
 71
     5
 72
     1
  1
\A1;1600
 73
     1
 44
1.0
1001
ACAD
1000
MTEXTBEGIN
1070
    73
1070
     1
1070
    44
1040
1.0
1070
    74
1070
     0
1000
MTEXTEND
  0
POINT
  5
82A5
330
829C
100
AcDbEntity
  8
DEFPOINTS
 62
     0
100
AcDbPoint
 10
760.960156090059
 20
4067.085753370572
 30
0.0
  0
POINT
  5
82A6
330
829C
100
AcDbEntity
  8
DEFPOINTS
 62
     0
100
AcDbPoint
 10
2360.960156090059
 20
4067.085753370572
 30
0.0
  0
POINT
  5
82A7
330
829C
100
AcDbEntity
  8
DEFPOINTS
 62
     0
100
AcDbPoint
 10
2360.960156090059
 20
3720.92939659972
 30
0.0
  0
ENDBLK
  5
829E
330
829C
100
AcDbEntity
  8
0
100
AcDbBlockEnd
  0
BLOCK
  5
82BB
330
82BA
100
AcDbEntity
  8
0
100
AcDbBlockBegin
  2
*D33
 70
     1
 10
0.0
 20
0.0
 30
0.0
  3
*D33
  1

  0
LINE
  5
82BD
330
82BA
100
AcDbEntity
  8
3
 62
     0
370
    -2
100
AcDbLine
 10
760.960156090059
 20
1619.453614188716
 30
0.0
 11
760.960156090059
 21
1454.498059792202
 31
0.0
  0
LINE
  5
82BE
330
82BA
100
AcDbEntity
  8
3
 62
     0
370
    -2
100
AcDbLine
 10
1910.960156090059
 20
1619.453614188716
 30
0.0
 11
1910.960156090059
 21
1454.498059792202
 31
0.0
  0
LINE
  5
82BF
330
82BA
100
AcDbEntity
  8
3
 62
     0
370
    -2
100
AcDbLine
 10
765.460156090059
 20
1458.998059792202
 30
0.0
 11
1326.63872751863
 21
1458.998059792202
 31
0.0
  0
LINE
  5
82C0
330
82BA
100
AcDbEntity
  8
3
 62
     0
370
    -2
100
AcDbLine
 10
1906.460156090059
 20
1458.998059792202
 30
0.0
 11
1345.281584661488
 21
1458.998059792202
 31
0.0
  0
SOLID
  5
82C1
330
82BA
100
AcDbEntity
  8
3
 62
     0
100
AcDbTrace
 10
765.460156090059
 20
1459.748059792202
 30
0.0
 11
765.460156090059
 21
1458.248059792202
 31
0.0
 12
760.960156090059
 22
1458.998059792202
 32
0.0
 13
760.960156090059
 23
1458.998059792202
 33
0.0
  0
SOLID
  5
82C2
330
82BA
100
AcDbEntity
  8
3
 62
     0
100
AcDbTrace
 10
1906.460156090059
 20
1459.748059792202
 30
0.0
 11
1906.460156090059
 21
1458.248059792202
 31
0.0
 12
1910.960156090059
 22
1458.998059792202
 32
0.0
 13
1910.960156090059
 23
1458.998059792202
 33
0.0
  0
MTEXT
  5
82C3
330
82BA
100
AcDbEntity
  8
3
 62
     0
100
AcDbMText
 10
1335.960156090059
 20
1458.998059792202
 30
0.0
 40
4.5
 41
0.0
 71
     5
 72
     1
  1
\A1;1150
 73
     1
 44
1.0
1001
ACAD
1000
MTEXTBEGIN
1070
    73
1070
     1
1070
    44
1040
1.0
1070
    74
1070
     0
1000
MTEXTEND
  0
POINT
  5
82C4
330
82BA
100
AcDbEntity
  8
DEFPOINTS
 62
     0
100
AcDbPoint
 10
760.960156090059
 20
1644.453614188716
 30
0.0
  0
POINT
  5
82C5
330
82BA
100
AcDbEntity
  8
DEFPOINTS
 62
     0
100
AcDbPoint
 10
1910.960156090059
 20
1644.453614188716
 30
0.0
  0
POINT
  5
82C6
330
82BA
100
AcDbEntity
  8
DEFPOINTS
 62
     0
100
AcDbPoint
 10
1910.960156090059
 20
1458.998059792202
 30
0.0
  0
ENDBLK
  5
82BC
330
82BA
100
AcDbEntity
  8
0
100
AcDbBlockEnd
  0
BLOCK
  5
82C8
330
82C7
100
AcDbEntity
  8
0
100
AcDbBlockBegin
  2
*D34
 70
     1
 10
0.0
 20
0.0
 30
0.0
  3
*D34
  1

  0
LINE
  5
82CA
330
82C7
100
AcDbEntity
  8
3
 62
     0
370
    -2
100
AcDbLine
 10
1910.960156090059
 20
1619.453614188716
 30
0.0
 11
1910.960156090059
 21
1454.498059792202
 31
0.0
  0
LINE
  5
82CB
330
82C7
100
AcDbEntity
  8
3
 62
     0
370
    -2
100
AcDbLine
 10
2360.960156090059
 20
1619.453614188716
 30
0.0
 11
2360.960156090059
 21
1454.498059792202
 31
0.0
  0
LINE
  5
82CC
330
82C7
100
AcDbEntity
  8
3
 62
     0
370
    -2
100
AcDbLine
 10
1915.460156090059
 20
1458.998059792202
 30
0.0
 11
2127.924441804344
 21
1458.998059792202
 31
0.0
  0
LINE
  5
82CD
330
82C7
100
AcDbEntity
  8
3
 62
     0
370
    -2
100
AcDbLine
 10
2356.460156090059
 20
1458.998059792202
 30
0.0
 11
2143.995870375773
 21
1458.998059792202
 31
0.0
  0
SOLID
  5
82CE
330
82C7
100
AcDbEntity
  8
3
 62
     0
100
AcDbTrace
 10
1915.460156090059
 20
1459.748059792202
 30
0.0
 11
1915.460156090059
 21
1458.248059792202
 31
0.0
 12
1910.960156090059
 22
1458.998059792202
 32
0.0
 13
1910.960156090059
 23
1458.998059792202
 33
0.0
  0
SOLID
  5
82CF
330
82C7
100
AcDbEntity
  8
3
 62
     0
100
AcDbTrace
 10
2356.460156090059
 20
1459.748059792202
 30
0.0
 11
2356.460156090059
 21
1458.248059792202
 31
0.0
 12
2360.960156090059
 22
1458.998059792202
 32
0.0
 13
2360.960156090059
 23
1458.998059792202
 33
0.0
  0
MTEXT
  5
82D0
330
82C7
100
AcDbEntity
  8
3
 62
     0
100
AcDbMText
 10
2135.960156090058
 20
1458.998059792202
 30
0.0
 40
4.5
 41
0.0
 71
     5
 72
     1
  1
\A1;450
 73
     1
 44
1.0
1001
ACAD
1000
MTEXTBEGIN
1070
    73
1070
     1
1070
    44
1040
1.0
1070
    74
1070
     0
1000
MTEXTEND
  0
POINT
  5
82D1
330
82C7
100
AcDbEntity
  8
DEFPOINTS
 62
     0
100
AcDbPoint
 10
1910.960156090059
 20
1644.453614188716
 30
0.0
  0
POINT
  5
82D2
330
82C7
100
AcDbEntity
  8
DEFPOINTS
 62
     0
100
AcDbPoint
 10
2360.960156090059
 20
1644.453614188716
 30
0.0
  0
POINT
  5
82D3
330
82C7
100
AcDbEntity
  8
DEFPOINTS
 62
     0
100
AcDbPoint
 10
2360.960156090059
 20
1458.998059792202
 30
0.0
  0
ENDBLK
  5
82C9
330
82C7
100
AcDbEntity
  8
0
100
AcDbBlockEnd
  0
BLOCK
  5
82D5
330
82D4
100
AcDbEntity
  8
0
100
AcDbBlockBegin
  2
*D35
 70
     1
 10
0.0
 20
0.0
 30
0.0
  3
*D35
  1

  0
LINE
  5
82D7
330
82D4
100
AcDbEntity
  8
3
 62
     0
370
    -2
100
AcDbLine
 10
3336.415278056256
 20
1619.453614188716
 30
0.0
 11
3336.415278056256
 21
1454.498059792202
 31
0.0
  0
LINE
  5
82D8
330
82D4
100
AcDbEntity
  8
3
 62
     0
370
    -2
100
AcDbLine
 10
3988.415278056257
 20
1619.453614188716
 30
0.0
 11
3988.415278056257
 21
1454.498059792202
 31
0.0
  0
LINE
  5
82D9
330
82D4
100
AcDbEntity
  8
3
 62
     0
370
    -2
100
AcDbLine
 10
3340.915278056256
 20
1458.998059792202
 30
0.0
 11
3654.379563770542
 21
1458.998059792202
 31
0.0
  0
LINE
  5
82DA
330
82D4
100
AcDbEntity
  8
3
 62
     0
370
    -2
100
AcDbLine
 10
3983.915278056257
 20
1458.998059792202
 30
0.0
 11
3670.450992341971
 21
1458.998059792202
 31
0.0
  0
SOLID
  5
82DB
330
82D4
100
AcDbEntity
  8
3
 62
     0
100
AcDbTrace
 10
3340.915278056256
 20
1459.748059792202
 30
0.0
 11
3340.915278056256
 21
1458.248059792202
 31
0.0
 12
3336.415278056256
 22
1458.998059792202
 32
0.0
 13
3336.415278056256
 23
1458.998059792202
 33
0.0
  0
SOLID
  5
82DC
330
82D4
100
AcDbEntity
  8
3
 62
     0
100
AcDbTrace
 10
3983.915278056257
 20
1459.748059792202
 30
0.0
 11
3983.915278056257
 21
1458.248059792202
 31
0.0
 12
3988.415278056257
 22
1458.998059792202
 32
0.0
 13
3988.415278056257
 23
1458.998059792202
 33
0.0
  0
MTEXT
  5
82DD
330
82D4
100
AcDbEntity
  8
3
 62
     0
100
AcDbMText
 10
3662.415278056256
 20
1458.998059792202
 30
0.0
 40
4.5
 41
0.0
 71
     5
 72
     1
  1
\A1;652
 73
     1
 44
1.0
1001
ACAD
1000
MTEXTBEGIN
1070
    73
1070
     1
1070
    44
1040
1.0
1070
    74
1070
     0
1000
MTEXTEND
  0
POINT
  5
82DE
330
82D4
100
AcDbEntity
  8
DEFPOINTS
 62
     0
100
AcDbPoint
 10
3336.415278056256
 20
1644.453614188716
 30
0.0
  0
POINT
  5
82DF
330
82D4
100
AcDbEntity
  8
DEFPOINTS
 62
     0
100
AcDbPoint
 10
3988.415278056257
 20
1644.453614188716
 30
0.0
  0
POINT
  5
82E0
330
82D4
100
AcDbEntity
  8
DEFPOINTS
 62
     0
100
AcDbPoint
 10
3988.415278056257
 20
1458.998059792202
 30
0.0
  0
ENDBLK
  5
82D6
330
82D4
100
AcDbEntity
  8
0
100
AcDbBlockEnd
  0
BLOCK
  5
82E2
330
82E1
100
AcDbEntity
  8
0
100
AcDbBlockBegin
  2
*D36
 70
     1
 10
0.0
 20
0.0
 30
0.0
  3
*D36
  1

  0
LINE
  5
82E4
330
82E1
100
AcDbEntity
  8
3
 62
     0
370
    -2
100
AcDbLine
 10
3988.415278056257
 20
1619.453614188716
 30
0.0
 11
3988.415278056257
 21
1454.498059792202
 31
0.0
  0
LINE
  5
82E5
330
82E1
100
AcDbEntity
  8
3
 62
     0
370
    -2
100
AcDbLine
 10
4491.415278056257
 20
1619.453614188716
 30
0.0
 11
4491.415278056257
 21
1454.498059792202
 31
0.0
  0
LINE
  5
82E6
330
82E1
100
AcDbEntity
  8
3
 62
     0
370
    -2
100
AcDbLine
 10
3992.915278056256
 20
1458.998059792202
 30
0.0
 11
4231.879563770541
 21
1458.998059792202
 31
0.0
  0
LINE
  5
82E7
330
82E1
100
AcDbEntity
  8
3
 62
     0
370
    -2
100
AcDbLine
 10
4486.915278056256
 20
1458.998059792202
 30
0.0
 11
4247.950992341971
 21
1458.998059792202
 31
0.0
  0
SOLID
  5
82E8
330
82E1
100
AcDbEntity
  8
3
 62
     0
100
AcDbTrace
 10
3992.915278056256
 20
1459.748059792202
 30
0.0
 11
3992.915278056256
 21
1458.248059792202
 31
0.0
 12
3988.415278056257
 22
1458.998059792202
 32
0.0
 13
3988.415278056257
 23
1458.998059792202
 33
0.0
  0
SOLID
  5
82E9
330
82E1
100
AcDbEntity
  8
3
 62
     0
100
AcDbTrace
 10
4486.915278056256
 20
1459.748059792202
 30
0.0
 11
4486.915278056256
 21
1458.248059792202
 31
0.0
 12
4491.415278056257
 22
1458.998059792202
 32
0.0
 13
4491.415278056257
 23
1458.998059792202
 33
0.0
  0
MTEXT
  5
82EA
330
82E1
100
AcDbEntity
  8
3
 62
     0
100
AcDbMText
 10
4239.915278056257
 20
1458.998059792202
 30
0.0
 40
4.5
 41
0.0
 71
     5
 72
     1
  1
\A1;503
 73
     1
 44
1.0
1001
ACAD
1000
MTEXTBEGIN
1070
    73
1070
     1
1070
    44
1040
1.0
1070
    74
1070
     0
1000
MTEXTEND
  0
POINT
  5
82EB
330
82E1
100
AcDbEntity
  8
DEFPOINTS
 62
     0
100
AcDbPoint
 10
3988.415278056257
 20
1644.453614188716
 30
0.0
  0
POINT
  5
82EC
330
82E1
100
AcDbEntity
  8
DEFPOINTS
 62
     0
100
AcDbPoint
 10
4491.415278056257
 20
1644.453614188716
 30
0.0
  0
POINT
  5
82ED
330
82E1
100
AcDbEntity
  8
DEFPOINTS
 62
     0
100
AcDbPoint
 10
4491.415278056257
 20
1458.998059792202
 30
0.0
  0
ENDBLK
  5
82E3
330
82E1
100
AcDbEntity
  8
0
100
AcDbBlockEnd
  0
BLOCK
  5
82EF
330
82EE
100
AcDbEntity
  8
0
100
AcDbBlockBegin
  2
*D37
 70
     1
 10
0.0
 20
0.0
 30
0.0
  3
*D37
  1

  0
LINE
  5
82F1
330
82EE
100
AcDbEntity
  8
3
 62
     0
370
    -2
100
AcDbLine
 10
2710.923627232663
 20
1748.953614188716
 30
0.0
 11
2710.923627232663
 21
1778.775042760144
 31
0.0
  0
LINE
  5
82F2
330
82EE
100
AcDbEntity
  8
3
 62
     0
370
    -2
100
AcDbLine
 10
2710.923627232663
 20
1819.953614188715
 30
0.0
 11
2710.923627232663
 21
1790.132185617287
 31
0.0
  0
SOLID
  5
82F3
330
82EE
100
AcDbEntity
  8
3
 62
     0
100
AcDbTrace
 10
2710.173627232663
 20
1748.953614188716
 30
0.0
 11
2711.673627232663
 21
1748.953614188716
 31
0.0
 12
2710.923627232663
 22
1744.453614188716
 32
0.0
 13
2710.923627232663
 23
1744.453614188716
 33
0.0
  0
SOLID
  5
82F4
330
82EE
100
AcDbEntity
  8
3
 62
     0
100
AcDbTrace
 10
2710.173627232663
 20
1819.953614188715
 30
0.0
 11
2711.673627232663
 21
1819.953614188715
 31
0.0
 12
2710.923627232663
 22
1824.453614188716
 32
0.0
 13
2710.923627232663
 23
1824.453614188716
 33
0.0
  0
MTEXT
  5
82F5
330
82EE
100
AcDbEntity
  8
3
 62
     0
100
AcDbMText
 10
2710.923627232663
 20
1784.453614188716
 30
0.0
 40
4.5
 41
0.0
 71
     5
 72
     1
  1
\A1;(80)
 73
     1
 44
1.0
1001
ACAD
1000
MTEXTBEGIN
1070
    73
1070
     1
1070
    44
1040
1.0
1070
    74
1070
     0
1000
MTEXTEND
  0
POINT
  5
82F6
330
82EE
100
AcDbEntity
  8
DEFPOINTS
 62
     0
100
AcDbPoint
 10
2360.960156090059
 20
1744.453614188716
 30
0.0
  0
POINT
  5
82F7
330
82EE
100
AcDbEntity
  8
DEFPOINTS
 62
     0
100
AcDbPoint
 10
2360.960156090059
 20
1824.453614188716
 30
0.0
  0
POINT
  5
82F8
330
82EE
100
AcDbEntity
  8
DEFPOINTS
 62
     0
100
AcDbPoint
 10
2710.923627232663
 20
1824.453614188716
 30
0.0
  0
ENDBLK
  5
82F0
330
82EE
100
AcDbEntity
  8
0
100
AcDbBlockEnd
  0
BLOCK
  5
82FA
330
82F9
100
AcDbEntity
  8
0
100
AcDbBlockBegin
  2
*D38
 70
     1
 10
0.0
 20
0.0
 30
0.0
  3
*D38
  1

  0
LINE
  5
82FC
330
82F9
100
AcDbEntity
  8
3
 62
     0
370
    -2
100
AcDbLine
 10
2385.960156090058
 20
1644.453614188716
 30
0.0
 11
2910.907729709774
 21
1644.453614188716
 31
0.0
  0
LINE
  5
82FD
330
82F9
100
AcDbEntity
  8
3
 62
     0
370
    -2
100
AcDbLine
 10
2435.960156090059
 20
3128.453614188716
 30
0.0
 11
2910.907729709775
 21
3128.453614188716
 31
0.0
  0
LINE
  5
82FE
330
82F9
100
AcDbEntity
  8
3
 62
     0
370
    -2
100
AcDbLine
 10
2906.407729709775
 20
1648.953614188715
 30
0.0
 11
2906.407729709775
 21
2380.775042760145
 31
0.0
  0
LINE
  5
82FF
330
82F9
100
AcDbEntity
  8
3
 62
     0
370
    -2
100
AcDbLine
 10
2906.407729709775
 20
3123.953614188716
 30
0.0
 11
2906.407729709775
 21
2392.132185617288
 31
0.0
  0
SOLID
  5
8300
330
82F9
100
AcDbEntity
  8
3
 62
     0
100
AcDbTrace
 10
2905.657729709774
 20
1648.953614188715
 30
0.0
 11
2907.157729709775
 21
1648.953614188715
 31
0.0
 12
2906.407729709775
 22
1644.453614188716
 32
0.0
 13
2906.407729709775
 23
1644.453614188716
 33
0.0
  0
SOLID
  5
8301
330
82F9
100
AcDbEntity
  8
3
 62
     0
100
AcDbTrace
 10
2905.657729709775
 20
3123.953614188716
 30
0.0
 11
2907.157729709775
 21
3123.953614188716
 31
0.0
 12
2906.407729709775
 22
3128.453614188716
 32
0.0
 13
2906.407729709775
 23
3128.453614188716
 33
0.0
  0
MTEXT
  5
8302
330
82F9
100
AcDbEntity
  8
3
 62
     0
100
AcDbMText
 10
2906.407729709774
 20
2386.453614188717
 30
0.0
 40
4.5
 41
0.0
 71
     5
 72
     1
  1
\A1;(1484)
 73
     1
 44
1.0
1001
ACAD
1000
MTEXTBEGIN
1070
    73
1070
     1
1070
    44
1040
1.0
1070
    74
1070
     0
1000
MTEXTEND
  0
POINT
  5
8303
330
82F9
100
AcDbEntity
  8
DEFPOINTS
 62
     0
100
AcDbPoint
 10
2360.960156090059
 20
1644.453614188716
 30
0.0
  0
POINT
  5
8304
330
82F9
100
AcDbEntity
  8
DEFPOINTS
 62
     0
100
AcDbPoint
 10
2410.960156090059
 20
3128.453614188716
 30
0.0
  0
POINT
  5
8305
330
82F9
100
AcDbEntity
  8
DEFPOINTS
 62
     0
100
AcDbPoint
 10
2906.407729709775
 20
3128.453614188716
 30
0.0
  0
ENDBLK
  5
82FB
330
82F9
100
AcDbEntity
  8
0
100
AcDbBlockEnd
  0
BLOCK
  5
8307
330
8306
100
AcDbEntity
  8
0
100
AcDbBlockBegin
  2
*D39
 70
     1
 10
0.0
 20
0.0
 30
0.0
  3
*D39
  1

  0
LINE
  5
8309
330
8306
100
AcDbEntity
  8
3
 62
     0
370
    -2
100
AcDbLine
 10
2362.522656090058
 20
1744.453614188716
 30
0.0
 11
2716.213970375375
 21
1744.453614188716
 31
0.0
  0
LINE
  5
830A
330
8306
100
AcDbEntity
  8
3
 62
     0
370
    -2
100
AcDbLine
 10
2362.522656090058
 20
1644.453614188716
 30
0.0
 11
2716.213970375375
 21
1644.453614188716
 31
0.0
  0
LINE
  5
830B
330
8306
100
AcDbEntity
  8
3
 62
     0
370
    -2
100
AcDbLine
 10
2711.713970375375
 20
1739.953614188715
 30
0.0
 11
2711.713970375375
 21
1698.953614188716
 31
0.0
  0
LINE
  5
830C
330
8306
100
AcDbEntity
  8
3
 62
     0
370
    -2
100
AcDbLine
 10
2711.713970375375
 20
1648.953614188715
 30
0.0
 11
2711.713970375375
 21
1689.953614188716
 31
0.0
  0
SOLID
  5
830D
330
8306
100
AcDbEntity
  8
3
 62
     0
100
AcDbTrace
 10
2710.963970375375
 20
1739.953614188715
 30
0.0
 11
2712.463970375375
 21
1739.953614188715
 31
0.0
 12
2711.713970375375
 22
1744.453614188716
 32
0.0
 13
2711.713970375375
 23
1744.453614188716
 33
0.0
  0
SOLID
  5
830E
330
8306
100
AcDbEntity
  8
3
 62
     0
100
AcDbTrace
 10
2710.963970375375
 20
1648.953614188715
 30
0.0
 11
2712.463970375375
 21
1648.953614188715
 31
0.0
 12
2711.713970375375
 22
1644.453614188716
 32
0.0
 13
2711.713970375375
 23
1644.453614188716
 33
0.0
  0
MTEXT
  5
830F
330
8306
100
AcDbEntity
  8
3
 62
     0
100
AcDbMText
 10
2711.713970375374
 20
1694.453614188716
 30
0.0
 40
4.5
 41
0.0
 71
     5
 72
     1
  1
\A1;100
 73
     1
 44
1.0
1001
ACAD
1000
MTEXTBEGIN
1070
    73
1070
     1
1070
    44
1040
1.0
1070
    74
1070
     0
1000
MTEXTEND
  0
POINT
  5
8310
330
8306
100
AcDbEntity
  8
DEFPOINTS
 62
     0
100
AcDbPoint
 10
2360.960156090059
 20
1744.453614188716
 30
0.0
  0
POINT
  5
8311
330
8306
100
AcDbEntity
  8
DEFPOINTS
 62
     0
100
AcDbPoint
 10
2360.960156090059
 20
1644.453614188716
 30
0.0
  0
POINT
  5
8312
330
8306
100
AcDbEntity
  8
DEFPOINTS
 62
     0
100
AcDbPoint
 10
2711.713970375375
 20
1644.453614188716
 30
0.0
  0
ENDBLK
  5
8308
330
8306
100
AcDbEntity
  8
0
100
AcDbBlockEnd
  0
BLOCK
  5
8315
330
8314
100
AcDbEntity
  8
0
100
AcDbBlockBegin
  2
*D40
 70
     1
 10
0.0
 20
0.0
 30
0.0
  3
*D40
  1

  0
LINE
  5
8317
330
8314
100
AcDbEntity
  8
3
 62
     0
370
    -2
100
AcDbLine
 10
3336.415278056256
 20
1619.453614188716
 30
0.0
 11
3336.415278056256
 21
1487.769599925283
 31
0.0
  0
LINE
  5
8318
330
8314
100
AcDbEntity
  8
3
 62
     0
370
    -2
100
AcDbLine
 10
3988.415278056257
 20
1619.453614188716
 30
0.0
 11
3988.415278056257
 21
1487.769599925283
 31
0.0
  0
LINE
  5
8319
330
8314
100
AcDbEntity
  8
3
 62
     0
370
    -2
100
AcDbLine
 10
3386.415278056257
 20
1512.769599925283
 30
0.0
 11
3938.415278056257
 21
1512.769599925283
 31
0.0
  0
INSERT
  5
831A
330
8314
100
AcDbEntity
  8
3
 62
     0
370
    -2
100
AcDbBlockReference
  2
_OPEN
 10
3336.415278056256
 20
1512.769599925283
 30
0.0
 41
50.0
 42
50.0
 43
50.0
 50
180.0
  0
INSERT
  5
831B
330
8314
100
AcDbEntity
  8
3
 62
     0
370
    -2
100
AcDbBlockReference
  2
_OPEN
 10
3988.415278056257
 20
1512.769599925283
 30
0.0
 41
50.0
 42
50.0
 43
50.0
  0
MTEXT
  5
831C
330
8314
100
AcDbEntity
  8
3
 62
     0
100
AcDbMText
 10
3662.415278056256
 20
1575.269599925283
 30
0.0
 40
75.0
 41
0.0
 71
     5
 72
     1
  1
\A1;652
 73
     1
 44
1.0
1001
ACAD
1000
MTEXTBEGIN
1070
    73
1070
     1
1070
    44
1040
1.0
1070
    74
1070
     0
1000
MTEXTEND
  0
POINT
  5
831D
330
8314
100
AcDbEntity
  8
DEFPOINTS
 62
     0
100
AcDbPoint
 10
3336.415278056256
 20
1644.453614188716
 30
0.0
  0
POINT
  5
831E
330
8314
100
AcDbEntity
  8
DEFPOINTS
 62
     0
100
AcDbPoint
 10
3988.415278056257
 20
1644.453614188716
 30
0.0
  0
POINT
  5
831F
330
8314
100
AcDbEntity
  8
DEFPOINTS
 62
     0
100
AcDbPoint
 10
3988.415278056257
 20
1512.769599925283
 30
0.0
  0
ENDBLK
  5
8316
330
8314
100
AcDbEntity
  8
0
100
AcDbBlockEnd
  0
BLOCK
  5
8322
330
8321
100
AcDbEntity
  8
0
100
AcDbBlockBegin
  2
*D41
 70
     1
 10
0.0
 20
0.0
 30
0.0
  3
*D41
  1

  0
LINE
  5
8324
330
8321
100
AcDbEntity
  8
3
 62
     0
370
    -2
100
AcDbLine
 10
3988.415278056257
 20
1619.453614188716
 30
0.0
 11
3988.415278056257
 21
1487.769599925283
 31
0.0
  0
LINE
  5
8325
330
8321
100
AcDbEntity
  8
3
 62
     0
370
    -2
100
AcDbLine
 10
4491.415278056257
 20
1619.453614188716
 30
0.0
 11
4491.415278056257
 21
1487.769599925283
 31
0.0
  0
LINE
  5
8326
330
8321
100
AcDbEntity
  8
3
 62
     0
370
    -2
100
AcDbLine
 10
4038.415278056256
 20
1512.769599925283
 30
0.0
 11
4441.415278056257
 21
1512.769599925283
 31
0.0
  0
INSERT
  5
8327
330
8321
100
AcDbEntity
  8
3
 62
     0
370
    -2
100
AcDbBlockReference
  2
_OPEN
 10
3988.415278056257
 20
1512.769599925283
 30
0.0
 41
50.0
 42
50.0
 43
50.0
 50
180.0
  0
INSERT
  5
8328
330
8321
100
AcDbEntity
  8
3
 62
     0
370
    -2
100
AcDbBlockReference
  2
_OPEN
 10
4491.415278056257
 20
1512.769599925283
 30
0.0
 41
50.0
 42
50.0
 43
50.0
  0
MTEXT
  5
8329
330
8321
100
AcDbEntity
  8
3
 62
     0
100
AcDbMText
 10
4239.915278056257
 20
1575.269599925283
 30
0.0
 40
75.0
 41
0.0
 71
     5
 72
     1
  1
\A1;503
 73
     1
 44
1.0
1001
ACAD
1000
MTEXTBEGIN
1070
    73
1070
     1
1070
    44
1040
1.0
1070
    74
1070
     0
1000
MTEXTEND
  0
POINT
  5
832A
330
8321
100
AcDbEntity
  8
DEFPOINTS
 62
     0
100
AcDbPoint
 10
3988.415278056257
 20
1644.453614188716
 30
0.0
  0
POINT
  5
832B
330
8321
100
AcDbEntity
  8
DEFPOINTS
 62
     0
100
AcDbPoint
 10
4491.415278056257
 20
1644.453614188716
 30
0.0
  0
POINT
  5
832C
330
8321
100
AcDbEntity
  8
DEFPOINTS
 62
     0
100
AcDbPoint
 10
4491.415278056257
 20
1512.769599925283
 30
0.0
  0
ENDBLK
  5
8323
330
8321
100
AcDbEntity
  8
0
100
AcDbBlockEnd
  0
BLOCK
  5
832F
330
832E
100
AcDbEntity
  8
0
100
AcDbBlockBegin
  2
*D42
 70
     1
 10
0.0
 20
0.0
 30
0.0
  3
*D42
  1

  0
LINE
  5
8331
330
832E
100
AcDbEntity
  8
3
 62
     0
370
    -2
100
AcDbLine
 10
760.960156090059
 20
1619.453614188716
 30
0.0
 11
760.960156090059
 21
1462.314870831757
 31
0.0
  0
LINE
  5
8332
330
832E
100
AcDbEntity
  8
3
 62
     0
370
    -2
100
AcDbLine
 10
1910.960156090059
 20
1619.453614188716
 30
0.0
 11
1910.960156090059
 21
1462.314870831757
 31
0.0
  0
LINE
  5
8333
330
832E
100
AcDbEntity
  8
3
 62
     0
370
    -2
100
AcDbLine
 10
810.9601560900591
 20
1487.314870831756
 30
0.0
 11
1860.960156090059
 21
1487.314870831756
 31
0.0
  0
INSERT
  5
8334
330
832E
100
AcDbEntity
  8
3
 62
     0
370
    -2
100
AcDbBlockReference
  2
_OPEN
 10
760.960156090059
 20
1487.314870831756
 30
0.0
 41
50.0
 42
50.0
 43
50.0
 50
180.0
  0
INSERT
  5
8335
330
832E
100
AcDbEntity
  8
3
 62
     0
370
    -2
100
AcDbBlockReference
  2
_OPEN
 10
1910.960156090059
 20
1487.314870831756
 30
0.0
 41
50.0
 42
50.0
 43
50.0
  0
MTEXT
  5
8336
330
832E
100
AcDbEntity
  8
3
 62
     0
100
AcDbMText
 10
1335.960156090059
 20
1549.814870831756
 30
0.0
 40
75.0
 41
0.0
 71
     5
 72
     1
  1
\A1;1150
 73
     1
 44
1.0
1001
ACAD
1000
MTEXTBEGIN
1070
    73
1070
     1
1070
    44
1040
1.0
1070
    74
1070
     0
1000
MTEXTEND
  0
POINT
  5
8337
330
832E
100
AcDbEntity
  8
DEFPOINTS
 62
     0
100
AcDbPoint
 10
760.960156090059
 20
1644.453614188716
 30
0.0
  0
POINT
  5
8338
330
832E
100
AcDbEntity
  8
DEFPOINTS
 62
     0
100
AcDbPoint
 10
1910.960156090059
 20
1644.453614188716
 30
0.0
  0
POINT
  5
8339
330
832E
100
AcDbEntity
  8
DEFPOINTS
 62
     0
100
AcDbPoint
 10
1910.960156090059
 20
1487.314870831756
 30
0.0
  0
ENDBLK
  5
8330
330
832E
100
AcDbEntity
  8
0
100
AcDbBlockEnd
  0
BLOCK
  5
833C
330
833B
100
AcDbEntity
  8
0
100
AcDbBlockBegin
  2
*D43
 70
     1
 10
0.0
 20
0.0
 30
0.0
  3
*D43
  1

  0
LINE
  5
833E
330
833B
100
AcDbEntity
  8
3
 62
     0
370
    -2
100
AcDbLine
 10
1910.960156090059
 20
1619.453614188716
 30
0.0
 11
1910.960156090059
 21
1462.314870831757
 31
0.0
  0
LINE
  5
833F
330
833B
100
AcDbEntity
  8
3
 62
     0
370
    -2
100
AcDbLine
 10
2360.960156090059
 20
1619.453614188716
 30
0.0
 11
2360.960156090059
 21
1462.314870831757
 31
0.0
  0
LINE
  5
8340
330
833B
100
AcDbEntity
  8
3
 62
     0
370
    -2
100
AcDbLine
 10
1960.960156090059
 20
1487.314870831756
 30
0.0
 11
2310.960156090059
 21
1487.314870831756
 31
0.0
  0
INSERT
  5
8341
330
833B
100
AcDbEntity
  8
3
 62
     0
370
    -2
100
AcDbBlockReference
  2
_OPEN
 10
1910.960156090059
 20
1487.314870831756
 30
0.0
 41
50.0
 42
50.0
 43
50.0
 50
180.0
  0
INSERT
  5
8342
330
833B
100
AcDbEntity
  8
3
 62
     0
370
    -2
100
AcDbBlockReference
  2
_OPEN
 10
2360.960156090059
 20
1487.314870831756
 30
0.0
 41
50.0
 42
50.0
 43
50.0
  0
MTEXT
  5
8343
330
833B
100
AcDbEntity
  8
3
 62
     0
100
AcDbMText
 10
2135.960156090058
 20
1549.814870831756
 30
0.0
 40
75.0
 41
0.0
 71
     5
 72
     1
  1
\A1;450
 73
     1
 44
1.0
1001
ACAD
1000
MTEXTBEGIN
1070
    73
1070
     1
1070
    44
1040
1.0
1070
    74
1070
     0
1000
MTEXTEND
  0
POINT
  5
8344
330
833B
100
AcDbEntity
  8
DEFPOINTS
 62
     0
100
AcDbPoint
 10
1910.960156090059
 20
1644.453614188716
 30
0.0
  0
POINT
  5
8345
330
833B
100
AcDbEntity
  8
DEFPOINTS
 62
     0
100
AcDbPoint
 10
2360.960156090059
 20
1644.453614188716
 30
0.0
  0
POINT
  5
8346
330
833B
100
AcDbEntity
  8
DEFPOINTS
 62
     0
100
AcDbPoint
 10
2360.960156090059
 20
1487.314870831756
 30
0.0
  0
ENDBLK
  5
833D
330
833B
100
AcDbEntity
  8
0
100
AcDbBlockEnd
  0
BLOCK
  5
8349
330
8348
100
AcDbEntity
  8
0
100
AcDbBlockBegin
  2
*D44
 70
     1
 10
0.0
 20
0.0
 30
0.0
  3
*D44
  1

  0
LINE
  5
84B3
330
8348
100
AcDbEntity
  8
3
 62
     0
370
    -2
100
AcDbLine
 10
2558.225994895488
 20
2369.453614188716
 30
0.0
 11
2737.77631334295
 21
2369.453614188716
 31
0.0
  0
LINE
  5
84B4
330
8348
100
AcDbEntity
  8
3
 62
     0
370
    -2
100
AcDbLine
 10
2385.960156090058
 20
1824.453614188716
 30
0.0
 11
2737.77631334295
 21
1824.453614188716
 31
0.0
  0
LINE
  5
84B5
330
8348
100
AcDbEntity
  8
3
 62
     0
370
    -2
100
AcDbLine
 10
2712.77631334295
 20
2319.453614188716
 30
0.0
 11
2712.77631334295
 21
1874.453614188716
 31
0.0
  0
INSERT
  5
84B6
330
8348
100
AcDbEntity
  8
3
 62
     0
370
    -2
100
AcDbBlockReference
  2
_OPEN
 10
2712.77631334295
 20
2369.453614188716
 30
0.0
 41
50.0
 42
50.0
 43
50.0
 50
90.0
  0
INSERT
  5
84B7
330
8348
100
AcDbEntity
  8
3
 62
     0
370
    -2
100
AcDbBlockReference
  2
_OPEN
 10
2712.77631334295
 20
1824.453614188716
 30
0.0
 41
50.0
 42
50.0
 43
50.0
 50
270.0
  0
MTEXT
  5
84B8
330
8348
100
AcDbEntity
  8
3
 62
     0
100
AcDbMText
 10
2650.27631334295
 20
2096.953614188716
 30
0.0
 40
75.0
 41
0.0
 71
     5
 72
     1
  1
\A1;545
 11
0.0000000000000001
 21
1.0
 31
0.0
 73
     1
 44
1.0
1001
ACAD
1000
MTEXTBEGIN
1070
    73
1070
     1
1070
    44
1040
1.0
1070
    74
1070
     0
1000
MTEXTEND
  0
POINT
  5
84B9
330
8348
100
AcDbEntity
  8
DEFPOINTS
 62
     0
100
AcDbPoint
 10
2533.225994895488
 20
2369.453614188716
 30
0.0
  0
POINT
  5
84BA
330
8348
100
AcDbEntity
  8
DEFPOINTS
 62
     0
100
AcDbPoint
 10
2360.960156090059
 20
1824.453614188716
 30
0.0
  0
POINT
  5
84BB
330
8348
100
AcDbEntity
  8
DEFPOINTS
 62
     0
100
AcDbPoint
 10
2712.77631334295
 20
1824.453614188716
 30
0.0
  0
ENDBLK
  5
834A
330
8348
100
AcDbEntity
  8
0
100
AcDbBlockEnd
  0
BLOCK
  5
8356
330
8355
100
AcDbEntity
  8
0
100
AcDbBlockBegin
  2
*D45
 70
     1
 10
0.0
 20
0.0
 30
0.0
  3
*D45
  1

  0
LINE
  5
84BC
330
8355
100
AcDbEntity
  8
3
 62
     0
370
    -2
100
AcDbLine
 10
2385.960156090058
 20
1824.453614188716
 30
0.0
 11
2737.77631334295
 21
1824.453614188716
 31
0.0
  0
LINE
  5
84BD
330
8355
100
AcDbEntity
  8
3
 62
     0
370
    -2
100
AcDbLine
 10
2385.960156090058
 20
1744.453614188716
 30
0.0
 11
2737.77631334295
 21
1744.453614188716
 31
0.0
  0
LINE
  5
84BE
330
8355
100
AcDbEntity
  8
3
 62
     0
370
    -2
100
AcDbLine
 10
2712.77631334295
 20
1874.453614188716
 30
0.0
 11
2712.77631334295
 21
1924.453614188716
 31
0.0
  0
LINE
  5
84BF
330
8355
100
AcDbEntity
  8
3
 62
     0
370
    -2
100
AcDbLine
 10
2712.77631334295
 20
1744.453614188716
 30
0.0
 11
2712.77631334295
 21
1694.453614188716
 31
0.0
  0
LINE
  5
84C0
330
8355
100
AcDbEntity
  8
3
 62
     0
370
    -2
100
AcDbLine
 10
2712.77631334295
 20
1784.453614188716
 30
0.0
 11
2945.404832943547
 21
1829.632185617287
 31
0.0
  0
LINE
  5
84C1
330
8355
100
AcDbEntity
  8
3
 62
     0
370
    -2
100
AcDbLine
 10
2945.404832943547
 20
1829.632185617287
 30
0.0
 11
2945.404832943547
 21
2097.48932847443
 31
0.0
  0
MTEXT
  5
84C2
330
8355
100
AcDbEntity
  8
3
 62
     0
100
AcDbMText
 10
2863.261975800689
 20
1963.560757045858
 30
0.0
 40
75.0
 41
0.0
 71
     5
 72
     1
  1
\A1;(80)
 11
0.0000000000000001
 21
1.0
 31
0.0
 73
     1
 44
1.0
1001
ACAD
1000
MTEXTBEGIN
1070
    73
1070
     1
1070
    44
1040
1.0
1070
    74
1070
     0
1000
MTEXTEND
  0
LINE
  5
84C3
330
8355
100
AcDbEntity
  8
3
 62
     0
370
    -2
100
AcDbLine
 10
2712.77631334295
 20
1824.453614188716
 30
0.0
 11
2712.77631334295
 21
1744.453614188716
 31
0.0
  0
LINE
  5
84C4
330
8355
100
AcDbEntity
  8
3
 62
     0
370
    -2
100
AcDbLine
 10
2712.77631334295
 20
1824.453614188716
 30
0.0
 11
2712.77631334295
 21
1744.453614188716
 31
0.0
  0
INSERT
  5
84C5
330
8355
100
AcDbEntity
  8
3
 62
     0
370
    -2
100
AcDbBlockReference
  2
_OPEN
 10
2712.77631334295
 20
1824.453614188716
 30
0.0
 41
50.0
 42
50.0
 43
50.0
 50
270.0
  0
INSERT
  5
84C6
330
8355
100
AcDbEntity
  8
3
 62
     0
370
    -2
100
AcDbBlockReference
  2
_DotSmall
 10
2712.77631334295
 20
1744.453614188716
 30
0.0
 41
50.0
 42
50.0
 43
50.0
 50
90.0
  0
POINT
  5
84C7
330
8355
100
AcDbEntity
  8
DEFPOINTS
 62
     0
100
AcDbPoint
 10
2360.960156090059
 20
1824.453614188716
 30
0.0
  0
POINT
  5
84C8
330
8355
100
AcDbEntity
  8
DEFPOINTS
 62
     0
100
AcDbPoint
 10
2360.960156090059
 20
1744.453614188716
 30
0.0
  0
POINT
  5
84C9
330
8355
100
AcDbEntity
  8
DEFPOINTS
 62
     0
100
AcDbPoint
 10
2712.77631334295
 20
1744.453614188716
 30
0.0
  0
ENDBLK
  5
8357
330
8355
100
AcDbEntity
  8
0
100
AcDbBlockEnd
  0
BLOCK
  5
8368
330
8367
100
AcDbEntity
  8
0
100
AcDbBlockBegin
  2
*D46
 70
     1
 10
0.0
 20
0.0
 30
0.0
  3
*D46
  1

  0
LINE
  5
84D3
330
8367
100
AcDbEntity
  8
3
 62
     0
370
    -2
100
AcDbLine
 10
2385.960156090058
 20
1744.453614188716
 30
0.0
 11
2737.77631334295
 21
1744.453614188716
 31
0.0
  0
LINE
  5
84D4
330
8367
100
AcDbEntity
  8
3
 62
     0
370
    -2
100
AcDbLine
 10
2385.960156090058
 20
1644.453614188716
 30
0.0
 11
2737.77631334295
 21
1644.453614188716
 31
0.0
  0
LINE
  5
84D5
330
8367
100
AcDbEntity
  8
3
 62
     0
370
    -2
100
AcDbLine
 10
2712.77631334295
 20
1744.453614188716
 30
0.0
 11
2712.77631334295
 21
1694.453614188716
 31
0.0
  0
MTEXT
  5
84D6
330
8367
100
AcDbEntity
  8
3
 62
     0
100
AcDbMText
 10
2648.665803763397
 20
1535.389850655229
 30
0.0
 40
75.0
 41
0.0
 71
     5
 72
     1
  1
\A1;100
 11
0.0000000000000001
 21
1.0
 31
0.0
 73
     1
 44
1.0
1001
ACAD
1000
MTEXTBEGIN
1070
    73
1070
     1
1070
    44
1040
1.0
1070
    74
1070
     0
1000
MTEXTEND
  0
INSERT
  5
84D7
330
8367
100
AcDbEntity
  8
3
 62
     0
370
    -2
100
AcDbBlockReference
  2
_DotSmall
 10
2712.77631334295
 20
1744.453614188716
 30
0.0
 41
50.0
 42
50.0
 43
50.0
 50
90.0
  0
INSERT
  5
84D8
330
8367
100
AcDbEntity
  8
3
 62
     0
370
    -2
100
AcDbBlockReference
  2
_OPEN
 10
2712.77631334295
 20
1644.453614188716
 30
0.0
 41
50.0
 42
50.0
 43
50.0
 50
270.0
  0
POINT
  5
84D9
330
8367
100
AcDbEntity
  8
DEFPOINTS
 62
     0
100
AcDbPoint
 10
2360.960156090059
 20
1744.453614188716
 30
0.0
  0
POINT
  5
84DA
330
8367
100
AcDbEntity
  8
DEFPOINTS
 62
     0
100
AcDbPoint
 10
2360.960156090059
 20
1644.453614188716
 30
0.0
  0
POINT
  5
84DB
330
8367
100
AcDbEntity
  8
DEFPOINTS
 62
     0
100
AcDbPoint
 10
2712.77631334295
 20
1644.453614188716
 30
0.0
  0
ENDBLK
  5
8369
330
8367
100
AcDbEntity
  8
0
100
AcDbBlockEnd
  0
BLOCK
  5
83DB
330
83D9
100
AcDbEntity
  8
0
100
AcDbBlockBegin
  2
_DotSmall
 70
     0
 10
0.0
 20
0.0
 30
0.0
  3
_DotSmall
  1

  0
LWPOLYLINE
  5
83DA
330
83D9
100
AcDbEntity
  8
0
  6
ByBlock
 62
     0
100
AcDbPolyline
 90
        2
 70
     1
 43
0.5
 10
-0.0625
 20
0.0
 42
1.0
 10
0.0625
 20
0.0
 42
1.0
  0
ENDBLK
  5
83DC
330
83D9
100
AcDbEntity
  8
0
100
AcDbBlockEnd
  0
BLOCK
  5
8496
330
8495
100
AcDbEntity
  8
0
100
AcDbBlockBegin
  2
*D48
 70
     1
 10
0.0
 20
0.0
 30
0.0
  3
*D48
  1

  0
LINE
  5
84AA
330
8495
100
AcDbEntity
  8
3
 62
     0
370
    -2
100
AcDbLine
 10
2385.960156090058
 20
1644.453614188716
 30
0.0
 11
3037.880430118407
 21
1644.453614188716
 31
0.0
  0
LINE
  5
84AB
330
8495
100
AcDbEntity
  8
3
 62
     0
370
    -2
100
AcDbLine
 10
2435.960156090059
 20
3128.453614188716
 30
0.0
 11
3037.880430118407
 21
3128.453614188716
 31
0.0
  0
LINE
  5
84AC
330
8495
100
AcDbEntity
  8
3
 62
     0
370
    -2
100
AcDbLine
 10
3012.880430118407
 20
1694.453614188716
 30
0.0
 11
3012.880430118407
 21
3078.453614188715
 31
0.0
  0
INSERT
  5
84AD
330
8495
100
AcDbEntity
  8
3
 62
     0
370
    -2
100
AcDbBlockReference
  2
_OPEN
 10
3012.880430118407
 20
1644.453614188716
 30
0.0
 41
50.0
 42
50.0
 43
50.0
 50
270.0
  0
INSERT
  5
84AE
330
8495
100
AcDbEntity
  8
3
 62
     0
370
    -2
100
AcDbBlockReference
  2
_OPEN
 10
3012.880430118407
 20
3128.453614188716
 30
0.0
 41
50.0
 42
50.0
 43
50.0
 50
90.0
  0
MTEXT
  5
84AF
330
8495
100
AcDbEntity
  8
3
 62
     0
100
AcDbMText
 10
2930.737572975548
 20
2386.453614188717
 30
0.0
 40
75.0
 41
0.0
 71
     5
 72
     1
  1
\A1;(1484)
 11
0.0000000000000001
 21
1.0
 31
0.0
 73
     1
 44
1.0
1001
ACAD
1000
MTEXTBEGIN
1070
    73
1070
     1
1070
    44
1040
1.0
1070
    74
1070
     0
1000
MTEXTEND
  0
POINT
  5
84B0
330
8495
100
AcDbEntity
  8
DEFPOINTS
 62
     0
100
AcDbPoint
 10
2360.960156090059
 20
1644.453614188716
 30
0.0
  0
POINT
  5
84B1
330
8495
100
AcDbEntity
  8
DEFPOINTS
 62
     0
100
AcDbPoint
 10
2410.960156090059
 20
3128.453614188716
 30
0.0
  0
POINT
  5
84B2
330
8495
100
AcDbEntity
  8
DEFPOINTS
 62
     0
100
AcDbPoint
 10
3012.880430118407
 20
3128.453614188716
 30
0.0
  0
ENDBLK
  5
8497
330
8495
100
AcDbEntity
  8
0
100
AcDbBlockEnd
  0
BLOCK
  5
84DE
330
84DD
100
AcDbEntity
  8
0
100
AcDbBlockBegin
  2
*D49
 70
     1
 10
0.0
 20
0.0
 30
0.0
  3
*D49
  1

  0
LINE
  5
84E9
330
84DD
100
AcDbEntity
  8
3
 62
     0
370
    -2
100
AcDbLine
 10
1910.960156090059
 20
3224.504898645857
 30
0.0
 11
1910.960156090059
 21
3346.434146369747
 31
0.0
  0
LINE
  5
84EA
330
84DD
100
AcDbEntity
  8
3
 62
     0
370
    -2
100
AcDbLine
 10
1315.960156090061
 20
2447.453614188716
 30
0.0
 11
1315.960156090061
 21
3346.434146369747
 31
0.0
  0
LINE
  5
84EB
330
84DD
100
AcDbEntity
  8
3
 62
     0
370
    -2
100
AcDbLine
 10
1860.960156090059
 20
3321.434146369747
 30
0.0
 11
1365.960156090061
 21
3321.434146369747
 31
0.0
  0
INSERT
  5
84EC
330
84DD
100
AcDbEntity
  8
3
 62
     0
370
    -2
100
AcDbBlockReference
  2
_OPEN
 10
1910.960156090059
 20
3321.434146369747
 30
0.0
 41
50.0
 42
50.0
 43
50.0
  0
INSERT
  5
84ED
330
84DD
100
AcDbEntity
  8
3
 62
     0
370
    -2
100
AcDbBlockReference
  2
_OPEN
 10
1315.960156090061
 20
3321.434146369747
 30
0.0
 41
50.0
 42
50.0
 43
50.0
 50
180.0
  0
MTEXT
  5
84EE
330
84DD
100
AcDbEntity
  8
3
 62
     0
100
AcDbMText
 10
1613.46015609006
 20
3383.934146369747
 30
0.0
 40
75.0
 41
0.0
 71
     5
 72
     1
  1
\A1;595
 73
     1
 44
1.0
1001
ACAD
1000
MTEXTBEGIN
1070
    73
1070
     1
1070
    44
1040
1.0
1070
    74
1070
     0
1000
MTEXTEND
  0
POINT
  5
84EF
330
84DD
100
AcDbEntity
  8
DEFPOINTS
 62
     0
100
AcDbPoint
 10
1910.960156090059
 20
3199.504898645857
 30
0.0
  0
POINT
  5
84F0
330
84DD
100
AcDbEntity
  8
DEFPOINTS
 62
     0
100
AcDbPoint
 10
1315.960156090061
 20
2422.453614188716
 30
0.0
  0
POINT
  5
84F1
330
84DD
100
AcDbEntity
  8
DEFPOINTS
 62
     0
100
AcDbPoint
 10
1315.960156090061
 20
3321.434146369747
 30
0.0
  0
ENDBLK
  5
84DF
330
84DD
100
AcDbEntity
  8
0
100
AcDbBlockEnd
  0
ENDSEC
  0
SECTION
  2
ENTITIES
  0
INSERT
  5
7C37
330
818D
100
AcDbEntity
  8
0
100
AcDbBlockReference
  2
YA_N
 10
6.0
 20
5.0
 30
0.0
  0
LINE
  5
7C43
330
818D
100
AcDbEntity
  8
2
100
AcDbLine
 10
1910.960156090059
 20
1644.453614188716
 30
0.0
 11
1910.960156090059
 21
3199.504898645857
 31
0.0
  0
LINE
  5
7C44
330
818D
100
AcDbEntity
  8
2
100
AcDbLine
 10
2533.225994895488
 20
2369.453614188716
 30
0.0
 11
1235.933678587454
 21
2369.453614188716
 31
0.0
  0
LINE
  5
7C45
330
818D
100
AcDbEntity
  8
1
100
AcDbLine
 10
1213.960156090059
 20
1964.453614188716
 30
0.0
 11
807.9601560900595
 21
1964.453614188716
 31
0.0
  0
LINE
  5
7C46
330
818D
100
AcDbEntity
  8
1
100
AcDbLine
 10
1210.960156090059
 20
1924.453614188716
 30
0.0
 11
1210.960156090059
 21
1964.453614188716
 31
0.0
  0
LINE
  5
7C47
330
818D
100
AcDbEntity
  8
1
100
AcDbLine
 10
2360.960156090059
 20
1644.453614188716
 30
0.0
 11
760.960156090059
 21
1644.453614188716
 31
0.0
  0
LINE
  5
7C48
330
818D
100
AcDbEntity
  8
1
100
AcDbLine
 10
2360.960156090059
 20
1744.453614188716
 30
0.0
 11
2360.960156090059
 21
1644.453614188716
 31
0.0
  0
LINE
  5
7C49
330
818D
100
AcDbEntity
  8
1
100
AcDbLine
 10
760.960156090059
 20
1744.453614188716
 30
0.0
 11
760.960156090059
 21
1644.453614188716
 31
0.0
  0
LINE
  5
7C4A
330
818D
100
AcDbEntity
  8
1
100
AcDbLine
 10
2360.960156090059
 20
1744.453614188716
 30
0.0
 11
760.960156090059
 21
1744.453614188716
 31
0.0
1001
ACAD
1000
ASC_BOUNDS
1002
{
1070
    19
1005
0
1002
}
  0
LINE
  5
7C4B
330
818D
100
AcDbEntity
  8
2
100
AcDbLine
 10
3988.415278056257
 20
1644.453614188716
 30
0.0
 11
3988.415278056257
 21
3304.820320844111
 31
0.0
  0
LINE
  5
7C4C
330
818D
100
AcDbEntity
  8
2
100
AcDbLine
 10
3136.004824693453
 20
2369.453614188716
 30
0.0
 11
4574.69763645157
 21
2369.453614188716
 31
0.0
  0
LINE
  5
7C4D
330
818D
100
AcDbEntity
  8
1
100
AcDbLine
 10
3336.415278056256
 20
1644.453614188716
 30
0.0
 11
4466.415278056256
 21
1644.453614188716
 31
0.0
  0
LINE
  5
7C4E
330
818D
100
AcDbEntity
  8
1
100
AcDbLine
 10
3336.415278056256
 20
1744.453614188716
 30
0.0
 11
4491.415278056257
 21
1744.453614188716
 31
0.0
1001
ACAD
1000
ASC_BOUNDS
1002
{
1070
    19
1002
}
  0
LINE
  5
7C4F
330
818D
100
AcDbEntity
  8
2
100
AcDbLine
 10
1910.960156090059
 20
5303.975756985092
 30
0.0
 11
1910.960156090059
 21
3848.194553120605
 31
0.0
  0
LINE
  5
7C50
330
818D
100
AcDbEntity
  8
2
100
AcDbLine
 10
1010.960156090058
 20
4689.996685369808
 30
0.0
 11
1010.96015609006
 21
3848.194553120605
 31
0.0
  0
LINE
  5
7C51
330
818D
100
AcDbEntity
  8
2
100
AcDbLine
 10
2508.158353118139
 20
4719.085753370571
 30
0.0
 11
726.8468100398385
 21
4719.085753370573
 31
0.0
  0
LINE
  5
7C52
330
818D
100
AcDbEntity
  8
2
100
AcDbLine
 10
3136.302777474073
 20
2174.453614188716
 30
0.0
 11
3685.25658739201
 21
2174.453614188716
 31
0.0
  0
LINE
  5
7C53
330
818D
100
AcDbEntity
  8
1
100
AcDbLine
 10
4438.415278056257
 20
1924.453614188716
 30
0.0
 11
4438.415278056257
 21
2369.453614188716
 31
0.0
  0
POINT
  5
7C54
330
818D
100
AcDbEntity
  8
1
100
AcDbPoint
 10
2360.960156090059
 20
1644.453614188716
 30
0.0
  0
INSERT
  5
7C56
330
818D
100
AcDbEntity
  8
0
100
AcDbBlockReference
  2
YA_N
 10
-1092.024831295133
 20
-1095.319682135705
 30
0.0
 41
20.0
 42
20.0
 43
20.0
  0
LINE
  5
7C58
330
818D
100
AcDbEntity
  8
1
100
AcDbLine
 10
856.960156090059
 20
2030.453614188716
 30
0.0
 11
876.3926560900591
 21
2083.843614188717
 31
0.0
  0
LINE
  5
7C59
330
818D
100
AcDbEntity
  8
1
100
AcDbLine
 10
1164.960156090058
 20
2030.453614188716
 30
0.0
 11
1145.527556090059
 21
2083.843614188717
 31
0.0
  0
ARC
  5
7C5A
330
818D
100
AcDbEntity
  8
1
100
AcDbCircle
 10
1010.960156090058
 20
2174.453614188716
 30
0.0
 40
162.0
100
AcDbArc
 50
180.0
 51
254.3518999999999
  0
ARC
  5
7C5B
330
818D
100
AcDbEntity
  8
1
100
AcDbCircle
 10
1010.960156090058
 20
2174.453614188716
 30
0.0
 40
162.0
100
AcDbArc
 50
285.4573
 51
180.0
  0
LINE
  5
7C5C
330
818D
100
AcDbEntity
  8
2
100
AcDbLine
 10
1010.960156090058
 20
2423.689614188716
 30
0.0
 11
1010.960156090058
 21
1644.453614188716
 31
0.0
  0
LINE
  5
7C5D
330
818D
100
AcDbEntity
  8
1
100
AcDbLine
 10
1054.640756090059
 20
2018.453614188716
 30
0.0
 11
967.2794560900591
 21
2018.453614188716
 31
0.0
  0
LINE
  5
7C5E
330
818D
100
AcDbEntity
  8
1
100
AcDbLine
 10
1095.904056090059
 20
2036.509614188716
 30
0.0
 11
1104.081456090058
 21
2028.331614188716
 31
0.0
  0
LINE
  5
7C5F
330
818D
100
AcDbEntity
  8
1
100
AcDbLine
 10
1118.173356090059
 20
2032.453614188716
 30
0.0
 11
1162.960156090059
 21
2032.453614188716
 31
0.0
  0
ARC
  5
7C61
330
818D
100
AcDbEntity
  8
1
100
AcDbCircle
 10
1162.960156090059
 20
2030.453614188716
 30
0.0
 40
2.0
100
AcDbArc
 50
0.0
 51
90.0
  0
LINE
  5
7C63
330
818D
100
AcDbEntity
  8
1
100
AcDbLine
 10
1164.960156090058
 20
2014.453614188716
 30
0.0
 11
1164.960156090058
 21
2030.453614188716
 31
0.0
  0
ARC
  5
7C65
330
818D
100
AcDbEntity
  8
1
100
AcDbCircle
 10
1101.960156090059
 20
2026.210614188716
 30
0.0
 40
3.0
100
AcDbArc
 50
0.0
 51
45.0
  0
LINE
  5
7C66
330
818D
100
AcDbEntity
  8
1
100
AcDbLine
 10
1104.960156090059
 20
2014.453614188716
 30
0.0
 11
1104.960156090059
 21
2026.210614188716
 31
0.0
  0
ARC
  5
7C6B
330
818D
100
AcDbEntity
  8
1
100
AcDbCircle
 10
1118.173356090059
 20
2035.453614188716
 30
0.0
 40
3.0
100
AcDbArc
 50
225.0
 51
270.0
  0
LINE
  5
7C6C
330
818D
100
AcDbEntity
  8
1
100
AcDbLine
 10
1106.071356090059
 20
2043.312614188716
 30
0.0
 11
1116.051956090059
 21
2033.331614188716
 31
0.0
  0
LINE
  5
7C6E
330
818D
100
AcDbEntity
  8
1
100
AcDbLine
 10
903.7469560900589
 20
2032.453614188716
 30
0.0
 11
858.960156090059
 21
2032.453614188716
 31
0.0
  0
LINE
  5
7C6F
330
818D
100
AcDbEntity
  8
1
100
AcDbLine
 10
926.0162560900589
 20
2036.509614188716
 30
0.0
 11
917.8387560900592
 21
2028.331614188716
 31
0.0
  0
ARC
  5
7C70
330
818D
100
AcDbEntity
  8
1
100
AcDbCircle
 10
919.9601560900591
 20
2026.210614188716
 30
0.0
 40
3.0
100
AcDbArc
 50
135.0
 51
180.0
  0
LINE
  5
7C71
330
818D
100
AcDbEntity
  8
1
100
AcDbLine
 10
916.960156090059
 20
2014.453614188716
 30
0.0
 11
916.960156090059
 21
2026.210614188716
 31
0.0
  0
ARC
  5
7C72
330
818D
100
AcDbEntity
  8
1
100
AcDbCircle
 10
903.7469560900589
 20
2035.453614188716
 30
0.0
 40
3.0
100
AcDbArc
 50
270.0
 51
315.0
  0
LINE
  5
7C73
330
818D
100
AcDbEntity
  8
1
100
AcDbLine
 10
905.7579560900594
 20
2033.221614188716
 30
0.0
 11
915.8489560900592
 21
2043.312614188716
 31
0.0
  0
ARC
  5
7C7A
330
818D
100
AcDbEntity
  8
1
100
AcDbCircle
 10
858.960156090059
 20
2030.453614188716
 30
0.0
 40
2.0
100
AcDbArc
 50
90.0
 51
180.0
  0
LINE
  5
7C7B
330
818D
100
AcDbEntity
  8
1
100
AcDbLine
 10
856.960156090059
 20
2014.453614188716
 30
0.0
 11
856.960156090059
 21
2030.453614188716
 31
0.0
  0
LINE
  5
7C7C
330
818D
100
AcDbEntity
  8
2
100
AcDbLine
 10
1203.817030989583
 20
2174.453614188716
 30
0.0
 11
813.2012288713886
 21
2174.453614188716
 31
0.0
  0
LINE
  5
7C7D
330
818D
100
AcDbEntity
  8
1
100
AcDbLine
 10
1200.919623460317
 20
2014.453614188716
 30
0.0
 11
1070.960156090059
 21
2014.453614188716
 31
0.0
  0
LINE
  5
7C7E
330
818D
100
AcDbEntity
  8
1
100
AcDbLine
 10
1213.960156090059
 20
1964.453614188716
 30
0.0
 11
1200.919623460317
 21
2014.453614188716
 31
0.0
  0
LINE
  5
7C7F
330
818D
100
AcDbEntity
  8
1
100
AcDbLine
 10
807.9601560900595
 20
1964.453614188716
 30
0.0
 11
821.3415969989926
 21
2014.453614188716
 31
0.0
  0
LINE
  5
7C80
330
818D
100
AcDbEntity
  8
1
100
AcDbLine
 10
950.9601560900589
 20
2014.453614188716
 30
0.0
 11
950.9601560900589
 21
2009.453614188716
 31
0.0
  0
LINE
  5
7C81
330
818D
100
AcDbEntity
  8
1
100
AcDbLine
 10
1070.960156090059
 20
2014.453614188716
 30
0.0
 11
1070.960156090059
 21
2009.453614188716
 31
0.0
  0
LINE
  5
7C82
330
818D
100
AcDbEntity
  8
1
100
AcDbLine
 10
1070.960156090059
 20
2009.453614188716
 30
0.0
 11
950.9601560900589
 21
2009.453614188716
 31
0.0
  0
LINE
  5
7C84
330
818D
100
AcDbEntity
  8
1
100
AcDbLine
 10
950.9601560900589
 20
2014.453614188716
 30
0.0
 11
821.3415969989922
 21
2014.453614188716
 31
0.0
  0
POINT
  5
7C88
330
818D
100
AcDbEntity
  8
1
100
AcDbPoint
 10
2360.960156090059
 20
1649.453614188716
 30
0.0
  0
POINT
  5
7C89
330
818D
100
AcDbEntity
  8
1
100
AcDbPoint
 10
2360.960156090059
 20
1644.453614188716
 30
0.0
  0
POINT
  5
7C8A
330
818D
100
AcDbEntity
  8
1
100
AcDbPoint
 10
2360.960156090059
 20
1649.453614188716
 30
0.0
  0
POINT
  5
7C8B
330
818D
100
AcDbEntity
  8
1
100
AcDbPoint
 10
2360.960156090059
 20
1684.453614188716
 30
0.0
  0
DIMENSION
  5
7C8D
330
818D
100
AcDbEntity
  8
3
100
AcDbDimension
  2
*D4
 10
2559.967539869285
 20
2398.453614188716
 30
0.0
 11
2509.967539869285
 21
2763.453614188716
 31
0.0
 12
685.388008874299
 22
1860.860135967317
 32
0.0
 71
     5
 42
-1.0
  3
Standard
100
AcDbAlignedDimension
 13
2410.960156090059
 23
3128.453614188716
 33
0.0
 14
2410.96015609006
 24
2398.453614188716
 34
0.0
 50
270.0
100
AcDbRotatedDimension
1001
ACAD
1000
DSTYLE
1002
{
1070
    40
1040
25.0
1002
}
  0
DIMENSION
  5
7C8E
330
818D
100
AcDbEntity
  8
3
100
AcDbDimension
  2
*D5
 10
2712.77631334295
 20
2369.453614188716
 30
0.0
 11
2662.776313342949
 21
2748.953614188716
 31
0.0
 12
685.388008874299
 22
1860.860135967317
 32
0.0
 71
     5
 42
-1.0
  3
Standard
100
AcDbAlignedDimension
 13
2410.960156090059
 23
3128.453614188716
 33
0.0
 14
2533.225994895488
 24
2369.453614188716
 34
0.0
 50
270.0
100
AcDbRotatedDimension
1001
ACAD
1000
DSTYLE
1002
{
1070
    40
1040
25.0
1002
}
  0
LINE
  5
7C8F
330
818D
100
AcDbEntity
  8
1
100
AcDbLine
 10
4441.415278056257
 20
1644.453614188716
 30
0.0
 11
4491.415278056257
 21
1644.453614188716
 31
0.0
  0
POINT
  5
7C90
330
818D
100
AcDbEntity
  8
1
100
AcDbPoint
 10
2360.960156090059
 20
1649.453614188716
 30
0.0
  0
POINT
  5
7C91
330
818D
100
AcDbEntity
  8
1
100
AcDbPoint
 10
2360.960156090059
 20
1644.453614188716
 30
0.0
  0
POINT
  5
7C92
330
818D
100
AcDbEntity
  8
1
100
AcDbPoint
 10
2360.960156090059
 20
1649.453614188716
 30
0.0
  0
POINT
  5
7C93
330
818D
100
AcDbEntity
  8
1
100
AcDbPoint
 10
2360.960156090059
 20
1684.453614188716
 30
0.0
  0
INSERT
  5
7C94
330
818D
100
AcDbEntity
  8
0
100
AcDbBlockReference
  2
YA_N
 10
-1018.773193578214
 20
-860.9217325598891
 30
0.0
 41
20.0
 42
20.0
 43
20.0
  0
POINT
  5
7C96
330
818D
100
AcDbEntity
  8
1
100
AcDbPoint
 10
2360.960156090059
 20
1744.453614188716
 30
0.0
  0
POINT
  5
7C97
330
818D
100
AcDbEntity
  8
1
100
AcDbPoint
 10
2360.960156090059
 20
1644.453614188716
 30
0.0
  0
POINT
  5
7C98
330
818D
100
AcDbEntity
  8
1
100
AcDbPoint
 10
2360.960156090059
 20
1744.453614188716
 30
0.0
  0
LINE
  5
7C99
330
818D
100
AcDbEntity
  8
1
100
AcDbLine
 10
3538.415278056257
 20
3128.453614188716
 30
0.0
 11
4438.415278056257
 21
3128.453614188716
 31
0.0
  0
LINE
  5
7C9A
330
818D
100
AcDbEntity
  8
1
100
AcDbLine
 10
4438.415278056257
 20
2369.453614188716
 30
0.0
 11
4438.415278056257
 21
3128.453614188716
 31
0.0
  0
DIMENSION
  5
7C9C
330
818D
100
AcDbEntity
  8
3
100
AcDbDimension
  2
*D6
 10
1910.960156090059
 20
3321.434146369746
 30
0.0
 11
2160.960156090059
 21
3371.434146369747
 31
0.0
 12
685.388008874299
 22
1860.860135967317
 32
0.0
 71
     5
 42
-1.0
  3
Standard
100
AcDbAlignedDimension
 13
2410.960156090059
 23
3170.453614188716
 33
0.0
 14
1910.960156090059
 24
3199.504898645857
 34
0.0
100
AcDbRotatedDimension
1001
ACAD
1000
DSTYLE
1002
{
1070
    40
1040
25.0
1002
}
  0
LINE
  5
7C9E
330
818D
100
AcDbEntity
  8
1
100
AcDbLine
 10
3538.415278056257
 20
2369.453614188716
 30
0.0
 11
3538.415278056257
 21
3128.453614188716
 31
0.0
  0
LINE
  5
7C9F
330
818D
100
AcDbEntity
  8
1
100
AcDbLine
 10
3538.415278056257
 20
1924.453614188716
 30
0.0
 11
3538.415278056255
 21
2369.453614188716
 31
0.0
  0
LINE
  5
7CA1
330
818D
100
AcDbEntity
  8
1
100
AcDbLine
 10
4450.915278056256
 20
2234.253614188716
 30
0.0
 11
4450.915278056257
 21
2354.253614188717
 31
0.0
  0
LINE
  5
7CA2
330
818D
100
AcDbEntity
  8
1
100
AcDbLine
 10
4548.415278056254
 20
2244.253614188716
 30
0.0
 11
4548.415278056256
 21
2344.253614188716
 31
0.0
  0
LINE
  5
7CA3
330
818D
100
AcDbEntity
  8
1
100
AcDbLine
 10
4450.915278056257
 20
2354.253614188717
 30
0.0
 11
4490.715278056257
 21
2354.253614188717
 31
0.0
  0
LINE
  5
7CA4
330
818D
100
AcDbEntity
  8
1
100
AcDbLine
 10
4450.915278056256
 20
2234.253614188716
 30
0.0
 11
4490.715278056257
 21
2234.253614188716
 31
0.0
  0
ARC
  5
7CA5
330
818D
100
AcDbEntity
  8
1
100
AcDbCircle
 10
4538.415278056256
 20
2344.253614188716
 30
0.0
 40
10.0
100
AcDbArc
 50
359.9999999999982
 51
90.0
  0
ARC
  5
7CA6
330
818D
100
AcDbEntity
  8
1
100
AcDbCircle
 10
4538.415278056256
 20
2244.253614188716
 30
0.0
 40
10.0
100
AcDbArc
 50
270.0
 51
359.9999999999982
  0
LINE
  5
7CA7
330
818D
100
AcDbEntity
  8
1
100
AcDbLine
 10
4490.715278056257
 20
2234.253614188716
 30
0.0
 11
4538.415278056256
 21
2234.253614188716
 31
0.0
  0
LINE
  5
7CA8
330
818D
100
AcDbEntity
  8
1
100
AcDbLine
 10
4490.715278056257
 20
2354.253614188717
 30
0.0
 11
4538.415278056256
 21
2354.253614188717
 31
0.0
  0
LINE
  5
7CA9
330
818D
100
AcDbEntity
  8
1
100
AcDbLine
 10
810.9601560900591
 20
1924.453614188716
 30
0.0
 11
810.9601560900587
 21
1964.453614188716
 31
0.0
  0
POINT
  5
7CAA
330
818D
100
AcDbEntity
  8
1
100
AcDbPoint
 10
4548.415278056256
 20
2344.253614188716
 30
0.0
  0
LINE
  5
7CAB
330
818D
100
AcDbEntity
  8
1
100
AcDbLine
 10
2360.960156090059
 20
5222.085753370572
 30
0.0
 11
1460.960156090059
 21
5222.085753370573
 31
0.0
  0
LINE
  5
7CAC
330
818D
100
AcDbEntity
  8
1
100
AcDbLine
 10
2360.960156090059
 20
4067.085753370572
 30
0.0
 11
760.960156090059
 21
4067.085753370572
 31
0.0
  0
LINE
  5
7CAD
330
818D
100
AcDbEntity
  8
1
100
AcDbLine
 10
2360.960156090059
 20
5222.085753370573
 30
0.0
 11
2360.960156090059
 21
5169.085753370572
 31
0.0
  0
LINE
  5
7CAE
330
818D
100
AcDbEntity
  8
1
100
AcDbLine
 10
1460.960156090059
 20
5222.085753370573
 30
0.0
 11
1460.960156090059
 21
5169.085753370573
 31
0.0
  0
LINE
  5
7CAF
330
818D
100
AcDbEntity
  8
1
100
AcDbLine
 10
760.960156090059
 20
4737.085753370575
 30
0.0
 11
760.960156090059
 21
4067.085753370574
 31
0.0
  0
LINE
  5
7CB0
330
818D
100
AcDbEntity
  8
1
100
AcDbLine
 10
1298.960156090059
 20
4737.085753370573
 30
0.0
 11
760.960156090059
 21
4737.085753370575
 31
0.0
  0
POINT
  5
7CB2
330
818D
100
AcDbEntity
  8
1
100
AcDbPoint
 10
2360.960156090059
 20
1744.453614188716
 30
0.0
  0
POINT
  5
7CB3
330
818D
100
AcDbEntity
  8
1
100
AcDbPoint
 10
2360.960156090059
 20
1644.453614188716
 30
0.0
  0
POINT
  5
7CB4
330
818D
100
AcDbEntity
  8
1
100
AcDbPoint
 10
2360.960156090059
 20
1744.453614188716
 30
0.0
  0
LINE
  5
7CB5
330
818D
100
AcDbEntity
  8
1
100
AcDbLine
 10
2360.960156090059
 20
1824.453614188716
 30
0.0
 11
760.960156090059
 21
1824.453614188716
 31
0.0
1001
ACAD
1000
ASC_BOUNDS
1002
{
1070
    19
1002
}
  0
LINE
  5
7CB6
330
818D
100
AcDbEntity
  8
1
100
AcDbLine
 10
2360.960156090059
 20
1924.453614188716
 30
0.0
 11
760.960156090059
 21
1924.453614188716
 31
0.0
1001
ACAD
1000
ASC_BOUNDS
1002
{
1070
    19
1005
0
1002
}
  0
LINE
  5
7CB7
330
818D
100
AcDbEntity
  8
1
100
AcDbLine
 10
760.960156090059
 20
1924.453614188716
 30
0.0
 11
760.960156090059
 21
1824.453614188716
 31
0.0
  0
LINE
  5
7CB8
330
818D
100
AcDbEntity
  8
1
100
AcDbLine
 10
2360.960156090059
 20
1924.453614188716
 30
0.0
 11
2360.960156090059
 21
1824.453614188716
 31
0.0
  0
POINT
  5
7CB9
330
818D
100
AcDbEntity
  8
1
100
AcDbPoint
 10
2360.960156090059
 20
1924.453614188716
 30
0.0
  0
POINT
  5
7CBA
330
818D
100
AcDbEntity
  8
1
100
AcDbPoint
 10
2360.960156090059
 20
1924.453614188716
 30
0.0
  0
POINT
  5
7CBB
330
818D
100
AcDbEntity
  8
1
100
AcDbPoint
 10
2360.960156090059
 20
1924.453614188716
 30
0.0
  0
POINT
  5
7CBC
330
818D
100
AcDbEntity
  8
1
100
AcDbPoint
 10
2360.960156090059
 20
1924.453614188716
 30
0.0
  0
POINT
  5
7CBF
330
818D
100
AcDbEntity
  8
1
100
AcDbPoint
 10
2360.960156090059
 20
1744.453614188716
 30
0.0
  0
POINT
  5
7CC0
330
818D
100
AcDbEntity
  8
1
100
AcDbPoint
 10
2360.960156090059
 20
1644.453614188716
 30
0.0
  0
POINT
  5
7CC1
330
818D
100
AcDbEntity
  8
1
100
AcDbPoint
 10
2360.960156090059
 20
1744.453614188716
 30
0.0
  0
POINT
  5
7CC2
330
818D
100
AcDbEntity
  8
1
100
AcDbPoint
 10
2360.960156090059
 20
1824.453614188716
 30
0.0
  0
CIRCLE
  5
7CC8
330
818D
100
AcDbEntity
  8
1
100
AcDbCircle
 10
1010.960156090058
 20
2174.453614188716
 30
0.0
 40
79.0
  0
CIRCLE
  5
7CC9
330
818D
100
AcDbEntity
  8
1
100
AcDbCircle
 10
1910.960156090059
 20
2369.453614188716
 30
0.0
 40
203.2
  0
LINE
  5
7CCA
330
818D
100
AcDbEntity
  8
1
100
AcDbLine
 10
1841.540786619004
 20
2560.427934824349
 30
0.0
 11
983.9713264236552
 21
2248.700520341349
 31
0.0
  0
LINE
  5
7CCB
330
818D
100
AcDbEntity
  8
1
100
AcDbLine
 10
1926.811067084063
 20
2166.87279421639
 30
0.0
 11
1017.122665777688
 21
2095.694338707349
 31
0.0
  0
ARC
  5
7CCC
330
818D
100
AcDbEntity
  8
1
100
AcDbCircle
 10
1910.960156090059
 20
2369.453614188716
 30
0.0
 40
280.0
100
AcDbArc
 50
274.1096317013021
 51
110.3406136501693
  0
ARC
  5
7CCD
330
818D
100
AcDbEntity
  8
1
100
AcDbCircle
 10
1010.960156090058
 20
2174.453614188716
 30
0.0
 40
150.0
100
AcDbArc
 50
110.3406136501693
 51
274.1096317013021
  0
LINE
  5
7CCE
330
818D
100
AcDbEntity
  8
1
100
AcDbLine
 10
1813.632049872743
 20
2631.993591601968
 30
0.0
 11
958.8200991879258
 21
2315.100030660101
 31
0.0
  0
LINE
  5
7CCF
330
818D
100
AcDbEntity
  8
1
100
AcDbLine
 10
1931.026389131466
 20
2090.173564254017
 30
0.0
 11
1021.709923790812
 21
2024.839301723699
 31
0.0
  0
INSERT
  5
7CD0
330
818D
100
AcDbEntity
  8
0
100
AcDbBlockReference
  2
YA_N
 10
2545.878788900856
 20
-1567.120050791241
 30
0.0
  0
LINE
  5
7CD2
330
818D
100
AcDbEntity
  8
1
100
AcDbLine
 10
3536.115278056255
 20
1951.453614188716
 30
0.0
 11
3534.915278056255
 21
1951.453614188716
 31
0.0
  0
LINE
  5
7CD3
330
818D
100
AcDbEntity
  8
1
100
AcDbLine
 10
3336.415278056256
 20
1924.453614188716
 30
0.0
 11
4491.415278056257
 21
1924.453614188716
 31
0.0
1001
ACAD
1000
ASC_BOUNDS
1002
{
1070
    19
1002
}
  0
LINE
  5
7CD4
330
818D
100
AcDbEntity
  8
1
100
AcDbLine
 10
3336.415278056256
 20
1644.453614188716
 30
0.0
 11
3336.415278056255
 21
1744.453614188716
 31
0.0
  0
LINE
  5
7CD5
330
818D
100
AcDbEntity
  8
1
100
AcDbLine
 10
3336.415278056256
 20
1824.453614188716
 30
0.0
 11
4491.415278056257
 21
1824.453614188716
 31
0.0
  0
LINE
  5
7CD6
330
818D
100
AcDbEntity
  8
1
100
AcDbLine
 10
4491.415278056257
 20
1644.453614188716
 30
0.0
 11
4491.415278056257
 21
1744.453614188716
 31
0.0
  0
LINE
  5
7CD9
330
818D
100
AcDbEntity
  8
1
100
AcDbLine
 10
3486.115278056254
 20
2346.253614188716
 30
0.0
 11
3445.915278056255
 21
2346.253614188716
 31
0.0
  0
LINE
  5
7CDA
330
818D
100
AcDbEntity
  8
1
100
AcDbLine
 10
3486.115278056254
 20
2226.253614188717
 30
0.0
 11
3445.915278056256
 21
2226.253614188717
 31
0.0
  0
LINE
  5
7CDB
330
818D
100
AcDbEntity
  8
1
100
AcDbLine
 10
3525.915278056257
 20
2226.253614188717
 30
0.0
 11
3525.915278056253
 21
2346.253614188716
 31
0.0
  0
LINE
  5
7CDC
330
818D
100
AcDbEntity
  8
1
100
AcDbLine
 10
3525.915278056257
 20
2226.253614188717
 30
0.0
 11
3486.115278056254
 21
2226.253614188717
 31
0.0
  0
LINE
  5
7CDD
330
818D
100
AcDbEntity
  8
1
100
AcDbLine
 10
3525.915278056253
 20
2346.253614188716
 30
0.0
 11
3486.115278056254
 21
2346.253614188716
 31
0.0
  0
LINE
  5
7CDE
330
818D
100
AcDbEntity
  8
1
100
AcDbLine
 10
3435.915278056257
 20
2236.253614188716
 30
0.0
 11
3435.915278056255
 21
2336.253614188716
 31
0.0
  0
ARC
  5
7CDF
330
818D
100
AcDbEntity
  8
1
100
AcDbCircle
 10
3445.915278056256
 20
2236.253614188716
 30
0.0
 40
10.0
100
AcDbArc
 50
180.0000000000016
 51
270.0
  0
ARC
  5
7CE0
330
818D
100
AcDbEntity
  8
1
100
AcDbCircle
 10
3445.915278056255
 20
2336.253614188716
 30
0.0
 40
10.0
100
AcDbArc
 50
90.0
 51
180.0000000000016
  0
POINT
  5
7CE1
330
818D
100
AcDbEntity
  8
1
100
AcDbPoint
 10
3435.915278056255
 20
2336.253614188716
 30
0.0
  0
LINE
  5
7CE2
330
818D
100
AcDbEntity
  8
1
100
AcDbLine
 10
3408.415278056256
 20
2344.453614188716
 30
0.0
 11
3408.415278056256
 21
2394.453614188716
 31
0.0
  0
LINE
  5
7CE3
330
818D
100
AcDbEntity
  8
1
100
AcDbLine
 10
3408.415278056256
 20
2394.453614188716
 30
0.0
 11
3538.415278056257
 21
2394.453614188716
 31
0.0
  0
LINE
  5
7CE4
330
818D
100
AcDbEntity
  8
1
100
AcDbLine
 10
3408.415278056256
 20
2344.453614188716
 30
0.0
 11
3440.315278056255
 21
2344.453614188716
 31
0.0
  0
LINE
  5
7CE5
330
818D
100
AcDbEntity
  8
1
100
AcDbLine
 10
3384.415278056257
 20
2390.453614188716
 30
0.0
 11
3408.415278056256
 21
2390.453614188716
 31
0.0
  0
LINE
  5
7CE6
330
818D
100
AcDbEntity
  8
1
100
AcDbLine
 10
3384.415278056255
 20
2348.453614188716
 30
0.0
 11
3408.415278056255
 21
2348.453614188716
 31
0.0
  0
LINE
  5
7CE7
330
818D
100
AcDbEntity
  8
1
100
AcDbLine
 10
3384.415278056251
 20
2095.453614188716
 30
0.0
 11
3384.415278056258
 21
2572.653614188717
 31
0.0
  0
LINE
  5
7CE8
330
818D
100
AcDbEntity
  8
1
100
AcDbLine
 10
3283.415278056257
 20
2572.653614188717
 30
0.0
 11
3384.415278056259
 21
2572.653614188717
 31
0.0
  0
LINE
  5
7CE9
330
818D
100
AcDbEntity
  8
1
100
AcDbLine
 10
3283.415278056251
 20
2166.253614188716
 30
0.0
 11
3384.415278056253
 21
2166.253614188716
 31
0.0
  0
LINE
  5
7CEA
330
818D
100
AcDbEntity
  8
1
100
AcDbLine
 10
3283.415278056251
 20
2095.453614188716
 30
0.0
 11
3283.415278056259
 21
2572.653614188719
 31
0.0
  0
LINE
  5
7CEB
330
818D
100
AcDbEntity
  8
1
100
AcDbLine
 10
3283.415278056255
 20
2253.453614188716
 30
0.0
 11
3384.415278056255
 21
2253.453614188716
 31
0.0
  0
LINE
  5
7CEC
330
818D
100
AcDbEntity
  8
1
100
AcDbLine
 10
3283.415278056251
 20
2095.453614188716
 30
0.0
 11
3384.415278056252
 21
2095.453614188716
 31
0.0
  0
LINE
  5
7CED
330
818D
100
AcDbEntity
  8
1
100
AcDbLine
 10
3148.415278056259
 20
2649.453614188717
 30
0.0
 11
3434.415278056258
 21
2649.453614188717
 31
0.0
  0
LINE
  5
7CEE
330
818D
100
AcDbEntity
  8
1
100
AcDbLine
 10
3148.415278056252
 20
2024.453614188716
 30
0.0
 11
3434.41527805625
 21
2024.453614188716
 31
0.0
  0
LINE
  5
7CEF
330
818D
100
AcDbEntity
  8
1
100
AcDbLine
 10
3434.415278056252
 20
2024.453614188716
 30
0.0
 11
3434.415278056252
 21
2044.453614188716
 31
0.0
  0
LINE
  5
7CF0
330
818D
100
AcDbEntity
  8
1
100
AcDbLine
 10
3148.415278056252
 20
2024.453614188716
 30
0.0
 11
3148.415278056259
 21
2649.453614188717
 31
0.0
  0
LINE
  5
7CF1
330
818D
100
AcDbEntity
  8
1
100
AcDbLine
 10
3434.415278056258
 20
2629.453614188716
 30
0.0
 11
3434.415278056258
 21
2649.453614188717
 31
0.0
  0
DIMENSION
  5
7CF2
330
818D
100
AcDbEntity
  8
3
100
AcDbDimension
  2
*D9
 10
4438.415278056257
 20
3320.267176982923
 30
0.0
 11
3988.415278056257
 21
3370.267176982923
 31
0.0
 12
144.1432041257867
 22
1860.860135967317
 32
0.0
 71
     5
 42
-1.0
  3
Standard
100
AcDbAlignedDimension
 13
3538.415278056257
 23
3128.662503850267
 33
0.0
 14
4438.415278056257
 24
3128.662490113259
 34
0.0
100
AcDbRotatedDimension
1001
ACAD
1000
DSTYLE
1002
{
1070
    40
1040
25.0
1002
}
  0
DIMENSION
  5
7CF6
330
818D
100
AcDbEntity
  8
3
100
AcDbDimension
  2
*D13
 10
4716.197413011676
 20
2744.453614188716
 30
0.0
 11
4666.197413011675
 21
2369.453614188716
 31
0.0
 12
144.1432041257867
 22
1860.860135967317
 32
0.0
  1
\U+03C6<>
 71
     5
 42
-1.0
  3
Standard
100
AcDbAlignedDimension
 13
4440.715278056256
 23
1994.453614188716
 33
0.0
 14
4440.715278056256
 24
2744.453614188716
 34
0.0
 50
90.0
100
AcDbRotatedDimension
1001
ACAD
1000
DSTYLE
1002
{
1070
    40
1040
25.0
1002
}
  0
DIMENSION
  5
7CF8
330
818D
100
AcDbEntity
  8
3
100
AcDbDimension
  2
*D15
 10
618.5027741496196
 20
4737.085753370575
 30
0.0
 11
568.5027741496196
 21
4402.085753370573
 31
0.0
 12
290.4240371504711
 22
0.0
 32
0.0
 71
     5
 42
-1.0
  3
Standard
100
AcDbAlignedDimension
 13
760.960156090059
 23
4067.085753370572
 33
0.0
 14
760.960156090059
 24
4737.085753370575
 34
0.0
 50
90.0
100
AcDbRotatedDimension
1001
ACAD
1000
DSTYLE
1002
{
1070
    40
1040
25.0
1002
}
  0
DIMENSION
  5
7CF9
330
818D
100
AcDbEntity
  8
3
100
AcDbDimension
  2
*D16
 10
2360.960156090059
 20
5523.717807774745
 30
0.0
 11
1910.960156090059
 21
5573.717807774745
 31
0.0
 12
685.388008874299
 22
1293.552442835234
 32
0.0
 71
     5
 42
-1.0
  3
Standard
100
AcDbAlignedDimension
 13
1460.960156090059
 23
5222.085753370573
 33
0.0
 14
2360.960156090059
 24
5222.085753370573
 34
0.0
100
AcDbRotatedDimension
1001
ACAD
1000
DSTYLE
1002
{
1070
    40
1040
25.0
1002
}
  0
DIMENSION
  5
7CFA
330
818D
100
AcDbEntity
  8
3
100
AcDbDimension
  2
*D17
 10
1460.960156090059
 20
5523.717807774745
 30
0.0
 11
1110.960156090059
 21
5573.717807774745
 31
0.0
 12
685.388008874299
 22
1293.552442835234
 32
0.0
 71
     5
 42
-1.0
  3
Standard
100
AcDbAlignedDimension
 13
760.960156090059
 23
4737.085753370575
 33
0.0
 14
1460.960156090059
 24
5222.085753370573
 34
0.0
100
AcDbRotatedDimension
1001
ACAD
1000
DSTYLE
1002
{
1070
    40
1040
25.0
1002
}
  0
DIMENSION
  5
7CFB
330
818D
100
AcDbEntity
  8
3
100
AcDbDimension
  2
*D18
 10
2662.357364231317
 20
5222.085753370573
 30
0.0
 11
2612.357364231316
 21
4644.585753370572
 31
0.0
 12
685.388008874299
 22
1293.552442835234
 32
0.0
 71
     5
 42
-1.0
  3
Standard
100
AcDbAlignedDimension
 13
2360.960156090059
 23
4067.085753370572
 33
0.0
 14
2360.960156090059
 24
5222.085753370573
 34
0.0
 50
90.0
100
AcDbRotatedDimension
1001
ACAD
1000
DSTYLE
1002
{
1070
    40
1040
25.0
1002
}
  0
LINE
  5
7CFC
330
818D
100
AcDbEntity
  8
1
100
AcDbLine
 10
3336.415278056255
 20
1824.453614188716
 30
0.0
 11
3336.415278056256
 21
1924.453614188716
 31
0.0
  0
DIMENSION
  5
7D00
330
818D
100
AcDbEntity
  8
3
100
AcDbDimension
  2
*D21
 10
760.960156090059
 20
3490.219633244743
 30
0.0
 11
1585.960156090059
 21
3540.219633244742
 31
0.0
 12
685.388008874299
 22
1860.860135967317
 32
0.0
 71
     5
 42
-1.0
  3
Standard
100
AcDbAlignedDimension
 13
2410.960156090059
 23
3170.453614188716
 33
0.0
 14
760.960156090059
 24
1924.453614188716
 34
0.0
100
AcDbRotatedDimension
1001
ACAD
1000
DSTYLE
1002
{
1070
    40
1040
25.0
1002
}
  0
LINE
  5
7D01
330
818D
100
AcDbEntity
  8
1
100
AcDbLine
 10
2190.96015609006
 20
3879.085753370573
 30
0.0
 11
2190.96015609006
 21
4164.085753370573
 31
0.0
  0
LINE
  5
7D02
330
818D
100
AcDbEntity
  8
1
100
AcDbLine
 10
860.9601560900591
 20
3879.085753370573
 30
0.0
 11
860.9601560900591
 21
4164.085753370573
 31
0.0
  0
LINE
  5
7D03
330
818D
100
AcDbEntity
  8
1
100
AcDbLine
 10
2114.16015609006
 20
4014.085753370573
 30
0.0
 11
2114.16015609006
 21
4114.085753370573
 31
0.0
  0
LINE
  5
7D04
330
818D
100
AcDbEntity
  8
1
100
AcDbLine
 10
1707.760156090059
 20
4014.085753370573
 30
0.0
 11
1707.760156090059
 21
4114.085753370573
 31
0.0
  0
LINE
  5
7D05
330
818D
100
AcDbEntity
  8
1
100
AcDbLine
 10
1089.960156090058
 20
4014.085753370573
 30
0.0
 11
1089.960156090058
 21
4114.085753370573
 31
0.0
  0
LINE
  5
7D06
330
818D
100
AcDbEntity
  8
1
100
AcDbLine
 10
931.9601560900592
 20
4014.085753370573
 30
0.0
 11
931.9601560900592
 21
4114.085753370574
 31
0.0
  0
LINE
  5
7D07
330
818D
100
AcDbEntity
  8
1
100
AcDbLine
 10
2190.96015609006
 20
3879.085753370573
 30
0.0
 11
860.9601560900591
 21
3879.085753370573
 31
0.0
  0
LINE
  5
7D08
330
818D
100
AcDbEntity
  8
1
100
AcDbLine
 10
2190.96015609006
 20
4164.085753370573
 30
0.0
 11
860.9601560900591
 21
4164.085753370573
 31
0.0
  0
LINE
  5
7D09
330
818D
100
AcDbEntity
  8
1
100
AcDbLine
 10
2114.16015609006
 20
4114.085753370573
 30
0.0
 11
1707.760156090059
 21
4114.085753370573
 31
0.0
  0
LINE
  5
7D0A
330
818D
100
AcDbEntity
  8
1
100
AcDbLine
 10
2114.16015609006
 20
4014.085753370573
 30
0.0
 11
1707.760156090059
 21
4014.085753370573
 31
0.0
  0
LINE
  5
7D0B
330
818D
100
AcDbEntity
  8
1
100
AcDbLine
 10
1089.960156090058
 20
4114.085753370573
 30
0.0
 11
931.9601560900592
 21
4114.085753370573
 31
0.0
  0
LINE
  5
7D0C
330
818D
100
AcDbEntity
  8
1
100
AcDbLine
 10
1089.960156090058
 20
4014.085753370573
 30
0.0
 11
931.9601560900592
 21
4014.085753370573
 31
0.0
  0
LINE
  5
7D0D
330
818D
100
AcDbEntity
  8
1
100
AcDbLine
 10
2410.960156090059
 20
4269.085753370569
 30
0.0
 11
1298.960156090059
 21
4269.085753370573
 31
0.0
  0
LINE
  5
7D0E
330
818D
100
AcDbEntity
  8
1
100
AcDbLine
 10
2410.960156090059
 20
5169.085753370572
 30
0.0
 11
1298.960156090059
 21
5169.085753370573
 31
0.0
  0
LINE
  5
7D0F
330
818D
100
AcDbEntity
  8
1
100
AcDbLine
 10
2410.960156090059
 20
5209.085753370573
 30
0.0
 11
2410.960156090059
 21
4229.085753370571
 31
0.0
  0
LINE
  5
7D10
330
818D
100
AcDbEntity
  8
1
100
AcDbLine
 10
1298.960156090059
 20
5169.085753370573
 30
0.0
 11
1298.960156090059
 21
4269.085753370573
 31
0.0
  0
LINE
  5
7D11
330
818D
100
AcDbEntity
  8
1
100
AcDbLine
 10
2410.960156090059
 20
5209.085753370573
 30
0.0
 11
2407.960156090059
 21
5209.085753370573
 31
0.0
  0
LINE
  5
7D12
330
818D
100
AcDbEntity
  8
1
100
AcDbLine
 10
2410.960156090059
 20
4229.085753370571
 30
0.0
 11
2407.960156090059
 21
4229.085753370571
 31
0.0
  0
LINE
  5
7D13
330
818D
100
AcDbEntity
  8
1
100
AcDbLine
 10
2407.960156090059
 20
5209.085753370573
 30
0.0
 11
2407.960156090059
 21
4229.085753370571
 31
0.0
  0
LINE
  5
7D14
330
818D
100
AcDbEntity
  8
1
100
AcDbLine
 10
1935.960156090059
 20
4269.085753370572
 30
0.0
 11
1935.960156090059
 21
4114.085753370573
 31
0.0
  0
LINE
  5
7D15
330
818D
100
AcDbEntity
  8
1
100
AcDbLine
 10
1885.960156090059
 20
4269.085753370573
 30
0.0
 11
1885.960156090059
 21
4114.085753370573
 31
0.0
  0
LINE
  5
7D16
330
818D
100
AcDbEntity
  8
1
100
AcDbLine
 10
3538.415278056257
 20
2398.453614188716
 30
0.0
 11
4438.415278056257
 21
2398.453614188716
 31
0.0
  0
LINE
  5
7D17
330
818D
100
AcDbEntity
  8
1
100
AcDbLine
 10
4438.415278056257
 20
3128.453614188716
 30
0.0
 11
3538.415278056257
 21
2398.453614188716
 31
0.0
  0
LINE
  5
7D18
330
818D
100
AcDbEntity
  8
1
100
AcDbLine
 10
3538.415278056257
 20
3128.453614188716
 30
0.0
 11
4438.415278056257
 21
2398.453614188716
 31
0.0
  0
LINE
  5
7D19
330
818D
100
AcDbEntity
  8
1
100
AcDbLine
 10
1172.960156090058
 20
4132.085753370573
 30
0.0
 11
1172.960156090058
 21
4617.085753370573
 31
0.0
  0
LINE
  5
7D1A
330
818D
100
AcDbEntity
  8
1
100
AcDbLine
 10
848.960156090059
 20
4132.085753370573
 30
0.0
 11
848.960156090059
 21
4617.085753370573
 31
0.0
  0
LINE
  5
7D1B
330
818D
100
AcDbEntity
  8
1
100
AcDbLine
 10
1172.960156090058
 20
4617.085753370573
 30
0.0
 11
848.960156090059
 21
4617.085753370573
 31
0.0
  0
LINE
  5
7D1C
330
818D
100
AcDbEntity
  8
1
100
AcDbLine
 10
1172.960156090058
 20
4132.085753370573
 30
0.0
 11
848.960156090059
 21
4132.085753370573
 31
0.0
  0
LINE
  5
7D1D
330
818D
100
AcDbEntity
  8
1
100
AcDbLine
 10
1031.960156090058
 20
4132.085753370573
 30
0.0
 11
1031.960156090058
 21
4114.085753370573
 31
0.0
  0
LINE
  5
7D1E
330
818D
100
AcDbEntity
  8
1
100
AcDbLine
 10
989.9601560900592
 20
4132.085753370573
 30
0.0
 11
989.9601560900592
 21
4114.085753370573
 31
0.0
  0
LINE
  5
7D1F
330
818D
100
AcDbEntity
  8
1
100
AcDbLine
 10
3402.415278056253
 20
2336.453614188719
 30
0.0
 11
3435.917278256294
 21
2336.453614188719
 31
0.0
  0
LINE
  5
7D20
330
818D
100
AcDbEntity
  8
1
100
AcDbLine
 10
3402.415278056253
 20
2012.453614188719
 30
0.0
 11
3538.415278056255
 21
2012.453614188719
 31
0.0
  0
LINE
  5
7D21
330
818D
100
AcDbEntity
  8
1
100
AcDbLine
 10
3402.415278056253
 20
2012.453614188719
 30
0.0
 11
3402.415278056253
 21
2336.453614188719
 31
0.0
  0
LINE
  5
7D22
330
818D
100
AcDbEntity
  8
1
100
AcDbLine
 10
3402.415278056252
 20
2153.453614188719
 30
0.0
 11
3384.415278056253
 21
2153.453614188719
 31
0.0
  0
LINE
  5
7D23
330
818D
100
AcDbEntity
  8
1
100
AcDbLine
 10
3402.415278056252
 20
2195.453614188719
 30
0.0
 11
3384.415278056253
 21
2195.453614188719
 31
0.0
  0
LINE
  5
7D24
330
818D
100
AcDbEntity
  8
1
100
AcDbLine
 10
3525.915278056253
 20
2336.453614188719
 30
0.0
 11
3538.415278056255
 21
2336.453614188719
 31
0.0
  0
LINE
  5
7D2B
330
818D
100
AcDbEntity
  8
1
100
AcDbLine
 10
4491.415278056257
 20
1824.453614188716
 30
0.0
 11
4491.415278056257
 21
1924.453614188716
 31
0.0
  0
LINE
  5
7D2C
330
818D
100
AcDbEntity
  8
1
100
AcDbLine
 10
2360.960156090059
 20
4269.085753370572
 30
0.0
 11
2360.960156090059
 21
4067.085753370572
 31
0.0
  0
LINE
  5
7F5D
330
818D
100
AcDbEntity
  8
4
100
AcDbLine
 10
4625.0
 20
1250.0
 30
0.0
 11
4625.0
 21
750.0
 31
0.0
  0
LINE
  5
7F5E
330
818D
100
AcDbEntity
  8
4
100
AcDbLine
 10
2875.0
 20
1250.0
 30
0.0
 11
2875.0
 21
750.0
 31
0.0
  0
LINE
  5
7F5F
330
818D
100
AcDbEntity
  8
4
100
AcDbLine
 10
1625.0
 20
1250.0
 30
0.0
 11
1625.0
 21
750.0
 31
0.0
  0
LINE
  5
7F62
330
818D
100
AcDbEntity
  8
4
100
AcDbLine
 10
1625.0
 20
750.0
 30
0.0
 11
4625.0
 21
750.0
 31
0.0
  0
LINE
  5
7F63
330
818D
100
AcDbEntity
  8
4
100
AcDbLine
 10
1625.0
 20
1000.0
 30
0.0
 11
4625.0
 21
1000.0
 31
0.0
  0
TEXT
  5
7F64
330
818D
100
AcDbEntity
  8
4
100
AcDbText
 10
1721.255202117253
 20
1078.857564666532
 30
0.0
 40
125.0
  1
機器名称
100
AcDbText
  0
TEXT
  5
7F65
330
818D
100
AcDbEntity
  8
4
100
AcDbText
 10
1715.645265061993
 20
804.1128918300273
 30
0.0
 40
125.0
  1
機器型番
100
AcDbText
  0
TEXT
  5
7F66
330
818D
100
AcDbEntity
  8
4
100
AcDbText
 10
2944.196863719162
 20
1056.429422393921
 30
0.0
 40
125.0
  1
ミツヤ多翼送風機
100
AcDbText
  0
TEXT
  5
7F67
330
818D
100
AcDbEntity
  8
4
100
AcDbText
 10
2966.636238963701
 20
792.8989606998584
 30
0.0
 40
125.0
  1
MF#4 1/2-5
100
AcDbText
  0
TEXT
  5
7F69
330
818D
100
AcDbEntity
  8
4
100
AcDbText
 10
1945.138169307454
 20
5958.572103331289
 30
0.0
 40
135.0
  1
床置防振ベット
100
AcDbText
  0
TEXT
  5
7F6A
330
818D
100
AcDbEntity
  8
4
100
AcDbText
 10
790.4189833236158
 20
6334.702440498245
 30
0.0
 40
180.0
  1
遠心式両吸込両持多翼ファン
100
AcDbText
  0
LINE
  5
7F6B
330
818D
100
AcDbEntity
  8
4
100
AcDbLine
 10
625.0
 20
6173.521885662012
 30
0.0
 11
4625.0
 21
6173.521885662012
 31
0.0
  0
LINE
  5
7F6C
330
818D
100
AcDbEntity
  8
4
100
AcDbLine
 10
625.0
 20
6673.521885662011
 30
0.0
 11
4625.0
 21
6673.521885662011
 31
0.0
  0
LINE
  5
7F6D
330
818D
100
AcDbEntity
  8
4
100
AcDbLine
 10
1625.0
 20
1250.0
 30
0.0
 11
4625.0
 21
1250.0
 31
0.0
  0
LINE
  5
7F6E
330
818D
100
AcDbEntity
  8
4
100
AcDbLine
 10
625.0
 20
6673.521885662011
 30
0.0
 11
625.0
 21
6173.521885662012
 31
0.0
  0
TEXT
  5
7F6F
330
818D
100
AcDbEntity
  8
4
100
AcDbText
 10
855.491088700699
 20
5955.798693865858
 30
0.0
 40
135.0
  1
右回転右横向
100
AcDbText
  0
TEXT
  5
7F70
330
818D
100
AcDbEntity
  8
4
100
AcDbText
 10
3672.423898123224
 20
6765.15270373827
 30
0.0
 40
140.0
  1
No.
100
AcDbText
  0
TEXT
  5
7F71
330
818D
100
AcDbEntity
  8
4
100
AcDbText
 10
3278.240156500032
 20
5958.572103331289
 30
0.0
 40
135.0
  1
縮尺：1/25
100
AcDbText
  0
LINE
  5
7F72
330
818D
100
AcDbEntity
  8
4
100
AcDbLine
 10
4625.0
 20
6673.521885662011
 30
0.0
 11
4625.0
 21
6173.521885662012
 31
0.0
  0
LINE
  5
7F73
330
818D
100
AcDbEntity
  8
4
100
AcDbLine
 10
5250.0
 20
7375.0
 30
0.0
 11
5250.0
 21
7375.0
 31
0.0
  0
LINE
  5
7F74
330
818D
100
AcDbEntity
  8
4
100
AcDbLine
 10
3601.543555899662
 20
6703.158957813504
 30
0.0
 11
3601.543555899662
 21
6966.630653874381
 31
0.0
  0
LINE
  5
7F75
330
818D
100
AcDbEntity
  8
4
100
AcDbLine
 10
3601.543555899662
 20
6966.630653874381
 30
0.0
 11
4625.0
 21
6966.630653874381
 31
0.0
  0
LINE
  5
7F76
330
818D
100
AcDbEntity
  8
4
100
AcDbLine
 10
4625.0
 20
6966.630653874381
 30
0.0
 11
4625.0
 21
6703.158957813504
 31
0.0
  0
LINE
  5
7F77
330
818D
100
AcDbEntity
  8
4
100
AcDbLine
 10
4625.0
 20
6703.158957813504
 30
0.0
 11
3601.543555899662
 21
6703.158957813504
 31
0.0
  0
LINE
  5
7F78
330
818D
100
AcDbEntity
  8
4
100
AcDbLine
 10
0.0
 20
0.0
 30
0.0
 11
0.0
 21
7375.0
 31
0.0
  0
LINE
  5
7F79
330
818D
100
AcDbEntity
  8
4
100
AcDbLine
 10
0.0
 20
7375.0
 30
0.0
 11
5250.0
 21
7375.0
 31
0.0
  0
LINE
  5
7F7A
330
818D
100
AcDbEntity
  8
4
100
AcDbLine
 10
5250.0
 20
7375.0
 30
0.0
 11
5250.0
 21
0.0
 31
0.0
  0
LINE
  5
7F7B
330
818D
100
AcDbEntity
  8
4
100
AcDbLine
 10
5250.0
 20
0.0
 30
0.0
 11
0.0
 21
0.0
 31
0.0
  0
LINE
  5
825D
330
818D
100
AcDbEntity
  8
1
100
AcDbLine
 10
2407.960156090059
 20
3128.095104565536
 30
0.0
 11
1881.050918934117
 21
3065.127760544565
 31
0.0
  0
ARC
  5
825E
330
818D
100
AcDbEntity
  8
1
100
AcDbCircle
 10
1963.960156090061
 20
2422.453614188716
 30
0.0
 40
648.0
100
AcDbArc
 50
97.35093601752982
 51
180.0
  0
ARC
  5
825F
330
818D
100
AcDbEntity
  8
1
100
AcDbCircle
 10
1857.960156090061
 20
2422.453614188716
 30
0.0
 40
541.9999999999998
100
AcDbArc
 50
180.0
 51
246.754061256443
  0
ARC
  5
8260
330
818D
100
AcDbEntity
  8
1
100
AcDbCircle
 10
1869.960156090061
 20
2328.453614188715
 30
0.0
 40
448.0
100
AcDbArc
 50
295.606206716391
 51
0.0
  0
ARC
  5
8261
330
818D
100
AcDbEntity
  8
1
100
AcDbCircle
 10
1951.960156090061
 20
2328.453614188716
 30
0.0
 40
366.0
100
AcDbArc
 50
0.0
 51
11.02614048129094
  0
LINE
  5
8262
330
818D
100
AcDbEntity
  8
1
100
AcDbLine
 10
2410.960156090061
 20
2398.453614188716
 30
0.0
 11
2311.203805999145
 21
2398.453614188716
 31
0.0
  0
LINE
  5
8263
330
818D
100
AcDbEntity
  8
1
100
AcDbLine
 10
2410.960156090059
 20
3170.453614188716
 30
0.0
 11
2410.960156090061
 21
2356.453614188716
 31
0.0
  0
LINE
  5
8264
330
818D
100
AcDbEntity
  8
1
100
AcDbLine
 10
2410.960156090059
 20
3170.453614188716
 30
0.0
 11
2407.960156090059
 21
3170.453614188716
 31
0.0
  0
LINE
  5
8265
330
818D
100
AcDbEntity
  8
1
100
AcDbLine
 10
2410.960156090061
 20
2356.453614188716
 30
0.0
 11
2407.960156090059
 21
2356.453614188716
 31
0.0
  0
LINE
  5
8266
330
818D
100
AcDbEntity
  8
1
100
AcDbLine
 10
2370.960156090059
 20
3125.004382616112
 30
0.0
 11
2370.960156090059
 21
2398.453614188716
 31
0.0
  0
LINE
  5
8267
330
818D
100
AcDbEntity
  8
1
100
AcDbLine
 10
2407.960156090059
 20
3170.453614188716
 30
0.0
 11
2407.960156090059
 21
2356.453614188716
 31
0.0
  0
POINT
  5
8268
330
818D
100
AcDbEntity
  8
1
100
AcDbPoint
 10
2371.142728554511
 20
2369.453614188716
 30
0.0
 50
180.0
  0
LINE
  5
8269
330
818D
100
AcDbEntity
  8
1
100
AcDbLine
 10
2414.441961722552
 20
2369.453614188716
 30
0.0
 11
2430.115267138868
 21
2369.453614188716
 31
0.0
  0
CIRCLE
  5
826A
330
818D
100
AcDbEntity
  8
1
100
AcDbCircle
 10
1910.960156090059
 20
2369.453614188716
 30
0.0
 40
375.0
  0
CIRCLE
  5
826B
330
818D
100
AcDbEntity
  8
1
100
AcDbCircle
 10
1910.960156090059
 20
2369.453614188716
 30
0.0
 40
415.0
  0
DIMENSION
  5
826C
330
818D
100
AcDbEntity
  8
3
100
AcDbDimension
  2
*D30
 10
3988.415278056257
 20
3494.511764729268
 30
0.0
 11
3568.415278056259
 21
3576.654621872125
 31
0.0
 70
    32
 71
     5
 42
839.9999999999977
  3
IGA
100
AcDbAlignedDimension
 13
3148.415278056259
 23
2649.453614188717
 33
0.0
 14
3988.415278056257
 24
3407.767176982922
 34
0.0
100
AcDbRotatedDimension
1001
ACAD
1000
DSTYLE
1002
{
1070
     3
1000
(<>)
1070
    40
1040
25.0
1070
    42
1040
1.0
1070
   143
1040
0.039
1070
   172
1070
     1
1070
   271
1070
     4
1070
   272
1070
     4
1070
   279
1070
     0
1070
   284
1070
     0
1070
   285
1070
     0
1070
   286
1070
     0
1070
   341
1005
81A1
1070
   343
1005
81A1
1070
   344
1005
81A1
1002
}
  0
DIMENSION
  5
8279
330
818D
100
AcDbEntity
  8
3
100
AcDbDimension
  2
*D31
 10
4548.415278056256
 20
3494.511764729268
 30
0.0
 11
4268.415278056256
 21
3576.654621872125
 31
0.0
 70
    32
 71
     5
 42
559.9999999999995
  3
IGA
100
AcDbAlignedDimension
 13
3988.415278056257
 23
3407.767176982922
 33
0.0
 14
4548.415278056256
 24
2344.253614188716
 34
0.0
100
AcDbRotatedDimension
1001
ACAD
1000
DSTYLE
1002
{
1070
     3
1000
(<>)
1070
    40
1040
25.0
1070
    42
1040
1.0
1070
   143
1040
0.039
1070
   172
1070
     1
1070
   271
1070
     4
1070
   272
1070
     4
1070
   279
1070
     1
1070
   284
1070
     0
1070
   285
1070
     0
1070
   286
1070
     0
1070
   341
1005
81A1
1070
   343
1005
81A1
1070
   344
1005
81A1
1002
}
  0
DIMENSION
  5
829B
330
818D
100
AcDbEntity
  8
3
100
AcDbDimension
  2
*D32
 10
2360.960156090059
 20
3720.92939659972
 30
0.0
 11
1560.960156090059
 21
3783.42939659972
 31
0.0
 70
    32
 71
     5
 42
1599.999999999999
  3
IGA
100
AcDbAlignedDimension
 13
760.960156090059
 23
4067.085753370572
 33
0.0
 14
2360.960156090059
 24
4067.085753370572
 34
0.0
100
AcDbRotatedDimension
1001
ACAD
1000
DSTYLE
1002
{
1070
    40
1040
25.0
1070
    42
1040
1.0
1070
   143
1040
0.039
1070
   172
1070
     1
1070
   271
1070
     4
1070
   272
1070
     4
1070
   279
1070
     0
1070
   284
1070
     0
1070
   285
1070
     0
1070
   286
1070
     0
1070
   341
1005
81A1
1070
   343
1005
81A1
1070
   344
1005
81A1
1002
}
  0
DIMENSION
  5
8313
330
818D
100
AcDbEntity
  8
3
100
AcDbDimension
  2
*D40
 10
3988.415278056257
 20
1512.769599925283
 30
0.0
 11
3662.415278056256
 21
1575.269599925283
 31
0.0
 70
    32
 71
     5
 42
652.0
  3
IGA
100
AcDbAlignedDimension
 13
3336.415278056256
 23
1644.453614188716
 33
0.0
 14
3988.415278056257
 24
1644.453614188716
 34
0.0
100
AcDbRotatedDimension
1001
ACAD
1000
DSTYLE
1002
{
1070
    40
1040
25.0
1070
    42
1040
1.0
1070
   143
1040
0.039
1070
   172
1070
     1
1070
   271
1070
     4
1070
   272
1070
     4
1070
   279
1070
     0
1070
   284
1070
     0
1070
   285
1070
     0
1070
   286
1070
     0
1070
   341
1005
81A1
1070
   343
1005
81A1
1070
   344
1005
81A1
1002
}
  0
DIMENSION
  5
8320
330
818D
100
AcDbEntity
  8
3
100
AcDbDimension
  2
*D41
 10
4491.415278056257
 20
1512.769599925283
 30
0.0
 11
4239.915278056257
 21
1575.269599925283
 31
0.0
 70
    32
 71
     5
 42
503.0
  3
IGA
100
AcDbAlignedDimension
 13
3988.415278056257
 23
1644.453614188716
 33
0.0
 14
4491.415278056257
 24
1644.453614188716
 34
0.0
100
AcDbRotatedDimension
1001
ACAD
1000
DSTYLE
1002
{
1070
    40
1040
25.0
1070
    42
1040
1.0
1070
   143
1040
0.039
1070
   172
1070
     1
1070
   271
1070
     4
1070
   272
1070
     4
1070
   279
1070
     1
1070
   284
1070
     0
1070
   285
1070
     0
1070
   286
1070
     0
1070
   341
1005
81A1
1070
   343
1005
81A1
1070
   344
1005
81A1
1002
}
  0
DIMENSION
  5
832D
330
818D
100
AcDbEntity
  8
3
100
AcDbDimension
  2
*D42
 10
1910.960156090059
 20
1487.314870831756
 30
0.0
 11
1335.960156090059
 21
1549.814870831756
 31
0.0
 70
    32
 71
     5
 42
1150.0
  3
IGA
100
AcDbAlignedDimension
 13
760.960156090059
 23
1644.453614188716
 33
0.0
 14
1910.960156090059
 24
1644.453614188716
 34
0.0
100
AcDbRotatedDimension
1001
ACAD
1000
DSTYLE
1002
{
1070
    40
1040
25.0
1070
    42
1040
1.0
1070
   143
1040
0.039
1070
   172
1070
     1
1070
   271
1070
     4
1070
   272
1070
     4
1070
   279
1070
     0
1070
   284
1070
     0
1070
   285
1070
     0
1070
   286
1070
     0
1070
   341
1005
81A1
1070
   343
1005
81A1
1070
   344
1005
81A1
1002
}
  0
DIMENSION
  5
833A
330
818D
100
AcDbEntity
  8
3
100
AcDbDimension
  2
*D43
 10
2360.960156090059
 20
1487.314870831756
 30
0.0
 11
2135.960156090058
 21
1549.814870831756
 31
0.0
 70
    32
 71
     5
 42
449.9999999999998
  3
IGA
100
AcDbAlignedDimension
 13
1910.960156090059
 23
1644.453614188716
 33
0.0
 14
2360.960156090059
 24
1644.453614188716
 34
0.0
100
AcDbRotatedDimension
1001
ACAD
1000
DSTYLE
1002
{
1070
    40
1040
25.0
1070
    42
1040
1.0
1070
   143
1040
0.039
1070
   172
1070
     1
1070
   271
1070
     4
1070
   272
1070
     4
1070
   279
1070
     1
1070
   284
1070
     0
1070
   285
1070
     0
1070
   286
1070
     0
1070
   341
1005
81A1
1070
   343
1005
81A1
1070
   344
1005
81A1
1002
}
  0
DIMENSION
  5
8347
330
818D
100
AcDbEntity
  8
3
100
AcDbDimension
  2
*D44
 10
2712.77631334295
 20
1824.453614188716
 30
0.0
 11
2650.27631334295
 21
2096.953614188716
 31
0.0
 70
    32
 71
     5
 42
545.0
  3
IGA
100
AcDbAlignedDimension
 13
2533.225994895488
 23
2369.453614188716
 33
0.0
 14
2360.960156090059
 24
1824.453614188716
 34
0.0
 50
90.0
100
AcDbRotatedDimension
1001
ACAD
1000
DSTYLE
1002
{
1070
    40
1040
25.0
1070
    42
1040
1.0
1070
   143
1040
0.039
1070
   172
1070
     1
1070
   271
1070
     4
1070
   272
1070
     4
1070
   279
1070
     0
1070
   284
1070
     0
1070
   285
1070
     0
1070
   286
1070
     0
1070
   341
1005
81A1
1070
   343
1005
81A1
1070
   344
1005
81A1
1002
}
  0
DIMENSION
  5
8354
330
818D
100
AcDbEntity
  8
3
100
AcDbDimension
  2
*D45
 10
2712.77631334295
 20
1744.453614188716
 30
0.0
 11
2945.404832943547
 21
1854.632185617287
 31
0.0
 70
   160
  1
(<>)
 71
     5
 42
80.0
  3
IGA
100
AcDbAlignedDimension
 13
2360.960156090059
 23
1824.453614188716
 33
0.0
 14
2360.960156090059
 24
1744.453614188716
 34
0.0
 50
90.0
100
AcDbRotatedDimension
1001
ACAD
1000
DSTYLE
1002
{
1070
    40
1040
25.0
1070
    42
1040
1.0
1070
   143
1040
0.039
1070
   172
1070
     1
1070
   271
1070
     4
1070
   272
1070
     4
1070
   279
1070
     1
1070
   284
1070
     0
1070
   285
1070
     0
1070
   286
1070
     0
1070
   341
1005
81A1
1070
   343
1005
81A1
1070
   344
1005
83D9
1002
}
  0
DIMENSION
  5
8366
330
818D
100
AcDbEntity
  8
3
100
AcDbDimension
  2
*D46
 10
2712.77631334295
 20
1644.453614188716
 30
0.0
 11
2711.165803763397
 21
1535.389850655229
 31
0.0
 70
   160
 71
     5
 42
100.0
  3
IGA
100
AcDbAlignedDimension
 13
2360.960156090059
 23
1744.453614188716
 33
0.0
 14
2360.960156090059
 24
1644.453614188716
 34
0.0
 50
90.0
100
AcDbRotatedDimension
1001
ACAD
1000
DSTYLE
1002
{
1070
    40
1040
25.0
1070
    42
1040
1.0
1070
   143
1040
0.039
1070
   172
1070
     1
1070
   271
1070
     4
1070
   272
1070
     4
1070
   279
1070
     1
1070
   284
1070
     0
1070
   285
1070
     0
1070
   286
1070
     0
1070
   341
1005
81A1
1070
   343
1005
83D9
1070
   344
1005
81A1
1002
}
  0
DIMENSION
  5
8494
330
818D
100
AcDbEntity
  8
3
100
AcDbDimension
  2
*D48
 10
3012.880430118407
 20
3128.453614188716
 30
0.0
 11
2930.737572975548
 21
2386.453614188717
 31
0.0
 70
    32
  1
(<>)
 71
     5
 42
1483.999999999999
  3
IGA
100
AcDbAlignedDimension
 13
2360.960156090059
 23
1644.453614188716
 33
0.0
 14
2410.960156090059
 24
3128.453614188716
 34
0.0
 50
90.0
100
AcDbRotatedDimension
1001
ACAD
1000
DSTYLE
1002
{
1070
    40
1040
25.0
1070
    42
1040
1.0
1070
   143
1040
0.039
1070
   172
1070
     1
1070
   271
1070
     4
1070
   272
1070
     4
1070
   279
1070
     0
1070
   284
1070
     0
1070
   285
1070
     0
1070
   286
1070
     0
1070
   341
1005
81A1
1070
   343
1005
81A1
1070
   344
1005
81A1
1002
}
  0
DIMENSION
  5
84DC
330
818D
100
AcDbEntity
  8
3
100
AcDbDimension
  2
*D49
 10
1315.960156090061
 20
3321.434146369747
 30
0.0
 11
1613.46015609006
 21
3383.934146369747
 31
0.0
 70
    32
 71
     5
 42
594.9999999999977
  3
IGA
100
AcDbAlignedDimension
 13
1910.960156090059
 23
3199.504898645857
 33
0.0
 14
1315.960156090061
 24
2422.453614188716
 34
0.0
100
AcDbRotatedDimension
1001
ACAD
1000
DSTYLE
1002
{
1070
    40
1040
25.0
1070
    42
1040
1.0
1070
   143
1040
0.039
1070
   172
1070
     1
1070
   271
1070
     4
1070
   272
1070
     4
1070
   279
1070
     0
1070
   284
1070
     0
1070
   285
1070
     0
1070
   286
1070
     0
1070
   341
1005
81A1
1070
   343
1005
81A1
1070
   344
1005
81A1
1002
}
  0
ENDSEC
  0
SECTION
  2
OBJECTS
  0
DICTIONARY
  5
812A
330
0
100
AcDbDictionary
281
     1
  3
ACAD_CIP_PREVIOUS_PRODUCT_INFO
350
81D7
  3
ACAD_COLOR
350
8180
  3
ACAD_DETAILVIEWSTYLE
350
8187
  3
ACAD_GROUP
350
812B
  3
ACAD_LAYOUT
350
817F
  3
ACAD_MATERIAL
350
812E
  3
ACAD_MLEADERSTYLE
350
8183
  3
ACAD_MLINESTYLE
350
817C
  3
ACAD_PLOTSETTINGS
350
817E
  3
ACAD_PLOTSTYLENAME
350
812C
  3
ACAD_SCALELIST
350
8160
  3
ACAD_SECTIONVIEWSTYLE
350
8185
  3
ACAD_TABLESTYLE
350
8181
  3
ACAD_VISUALSTYLE
350
8147
  3
ACDB_RECOMPOSE_DATA
350
8576
  3
AcDbVariableDictionary
350
81E2
  3
DWGPROPS
350
8577
  0
DICTIONARY
  5
822E
330
8120
100
AcDbDictionary
280
     1
281
     1
  3
ACAD_LAYERSTATES
360
822F
  0
DICTIONARY
  5
81D8
330
8172
100
AcDbDictionary
280
     1
281
     1
  3
ADSK_XREC_LAYER_RECONCILED
360
81D9
  0
DICTIONARY
  5
81DA
330
8191
100
AcDbDictionary
280
     1
281
     1
  3
ADSK_XREC_LAYER_RECONCILED
360
81DB
  0
DICTIONARY
  5
81DC
330
8194
100
AcDbDictionary
280
     1
281
     1
  3
ADSK_XREC_LAYER_RECONCILED
360
81DD
  0
DICTIONARY
  5
81DE
330
8195
100
AcDbDictionary
280
     1
281
     1
  3
ADSK_XREC_LAYER_RECONCILED
360
81DF
  0
DICTIONARY
  5
81E0
330
8196
100
AcDbDictionary
280
     1
281
     1
  3
ADSK_XREC_LAYER_RECONCILED
360
81E1
  0
XRECORD
  5
81D7
102
{ACAD_REACTORS
330
812A
102
}
330
812A
100
AcDbXrecord
280
     1
300
ACDLT
300
2015
300
INVLTS_F_S
  0
DICTIONARY
  5
8180
102
{ACAD_REACTORS
330
812A
102
}
330
812A
100
AcDbDictionary
281
     1
  0
DICTIONARY
  5
8187
102
{ACAD_REACTORS
330
812A
102
}
330
812A
100
AcDbDictionary
281
     1
  3
Imperial24
350
8188
  0
DICTIONARY
  5
812B
102
{ACAD_REACTORS
330
812A
102
}
330
812A
100
AcDbDictionary
281
     1
  0
DICTIONARY
  5
817F
102
{ACAD_REACTORS
330
812A
102
}
330
812A
100
AcDbDictionary
281
     1
  3
Model
350
8190
  3
レイアウト1
350
818C
  0
DICTIONARY
  5
812E
102
{ACAD_REACTORS
330
812A
102
}
330
812A
100
AcDbDictionary
281
     1
  3
ByBlock
350
8137
  3
ByLayer
350
812F
  3
Global
350
813F
  0
DICTIONARY
  5
8183
102
{ACAD_REACTORS
330
812A
102
}
330
812A
100
AcDbDictionary
281
     1
  3
Standard
350
8184
  0
DICTIONARY
  5
817C
102
{ACAD_REACTORS
330
812A
102
}
330
812A
100
AcDbDictionary
281
     1
  3
Standard
350
817D
  0
DICTIONARY
  5
817E
102
{ACAD_REACTORS
330
812A
102
}
330
812A
100
AcDbDictionary
281
     1
  0
ACDBDICTIONARYWDFLT
  5
812C
102
{ACAD_REACTORS
330
812A
102
}
330
812A
100
AcDbDictionary
281
     1
  3
Normal
350
812D
100
AcDbDictionaryWithDefault
340
812D
  0
DICTIONARY
  5
8160
102
{ACAD_REACTORS
330
812A
102
}
330
812A
100
AcDbDictionary
281
     1
  3
A0
350
8161
  3
A1
350
8162
  3
A2
350
8163
  3
A3
350
8164
  3
A4
350
8165
  3
A5
350
8166
  3
A6
350
8167
  3
A7
350
8168
  3
A8
350
8169
  3
A9
350
816A
  3
B0
350
816B
  3
B1
350
816C
  3
B2
350
816D
  3
B3
350
816E
  3
B4
350
816F
  3
B5
350
8170
  3
B6
350
8171
  0
DICTIONARY
  5
8185
102
{ACAD_REACTORS
330
812A
102
}
330
812A
100
AcDbDictionary
281
     1
  3
Imperial24
350
8186
  0
DICTIONARY
  5
8181
102
{ACAD_REACTORS
330
812A
102
}
330
812A
100
AcDbDictionary
281
     1
  3
Standard
350
8182
  0
DICTIONARY
  5
8147
102
{ACAD_REACTORS
330
812A
102
}
330
812A
100
AcDbDictionary
281
     1
  3
2dWireframe
350
814D
  3
Basic
350
814C
  3
Brighten
350
8153
  3
ColorChange
350
8157
  3
Conceptual
350
8150
  3
Dim
350
8152
  3
EdgeColorOff
350
815F
  3
Facepattern
350
8156
  3
Flat
350
8148
  3
FlatWithEdges
350
8149
  3
Gouraud
350
814A
  3
GouraudWithEdges
350
814B
  3
Hidden
350
814F
  3
JitterOff
350
815D
  3
Linepattern
350
8155
  3
OverhangOff
350
815E
  3
Realistic
350
8151
  3
Shaded
350
815C
  3
Shaded with edges
350
815B
  3
Shades of Gray
350
8158
  3
Sketchy
350
8159
  3
Thicken
350
8154
  3
Wireframe
350
814E
  3
X-Ray
350
815A
  0
XRECORD
  5
8576
102
{ACAD_REACTORS
330
812A
102
}
330
812A
100
AcDbXrecord
280
     1
 90
        1
330
8182
  0
DICTIONARY
  5
81E2
102
{ACAD_REACTORS
330
812A
102
}
330
812A
100
AcDbDictionary
281
     1
  3
CANNOSCALE
350
81E7
  3
CMLEADERSTYLE
350
81E4
  3
CTABLESTYLE
350
81E3
  3
CVIEWDETAILSTYLE
350
81E5
  3
CVIEWSECTIONSTYLE
350
81E6
  3
DIMASSOC
350
81EA
  3
INDEXCTL
350
81E9
  3
SORTENTS
350
81E8
  3
XCLIPFRAME
350
81EB
  0
XRECORD
  5
8577
102
{ACAD_REACTORS
330
812A
102
}
330
812A
100
AcDbXrecord
280
     1
  1
DWGPROPS COOKIE
  2

  3

  4

  6

  7

  8
yasukiyo.ogawa
  9

300
=
301
=
302
=
303
=
304
=
305
=
306
=
307
=
308
=
309
=
 40
0.0774258449074074
 41
2451387.581912616
 42
2460263.707616528
  1

 90
        0
  0
DICTIONARY
  5
822F
102
{ACAD_REACTORS
330
822E
102
}
330
822E
100
AcDbDictionary
281
     1
  0
XRECORD
  5
81D9
102
{ACAD_REACTORS
330
81D8
102
}
330
81D8
100
AcDbXrecord
280
     1
290
     1
  0
XRECORD
  5
81DB
102
{ACAD_REACTORS
330
81DA
102
}
330
81DA
100
AcDbXrecord
280
     1
290
     1
  0
XRECORD
  5
81DD
102
{ACAD_REACTORS
330
81DC
102
}
330
81DC
100
AcDbXrecord
280
     1
290
     1
  0
XRECORD
  5
81DF
102
{ACAD_REACTORS
330
81DE
102
}
330
81DE
100
AcDbXrecord
280
     1
290
     1
  0
XRECORD
  5
81E1
102
{ACAD_REACTORS
330
81E0
102
}
330
81E0
100
AcDbXrecord
280
     1
290
     1
  0
ACDBDETAILVIEWSTYLE
  5
8188
102
{ACAD_XDICTIONARY
360
85AF
102
}
102
{ACAD_REACTORS
330
8187
102
}
330
8187
100
AcDbModelDocViewStyle
 70
     0
  3
Imperial24
290
     0
100
AcDbDetailViewStyle
 70
     0
 71
     0
 90
        3
 71
     1
340
8173
 40
0.24
340
0
 40
0.24
300

 40
0.36
280
     3
 71
     2
340
817A
 90
       25
 71
     3
340
8173
 40
0.24
 90
        1
 40
0.75
 90
        1
300
%<\AcVar ViewType \f "%tc1">% %<\AcVar ViewDetailId>%\PSCALE %<\AcVar ViewScale \f "%sn">%
 71
     4
340
817A
 90
       25
340
817A
 90
       25
280
     0
  0
LAYOUT
  5
8190
102
{ACAD_XDICTIONARY
360
85B3
102
}
102
{ACAD_REACTORS
330
817F
102
}
330
817F
100
AcDbPlotSettings
  1

  2
RICOH imagio MP W3600 RPCS
  4

  6

 40
0.0
 41
0.0
 42
0.0
 43
0.0
 44
0.0
 45
0.0
 46
0.0
 47
0.0
 48
0.0
 49
0.0
140
0.0
141
0.0
142
1.0
143
1.0
 70
  1712
 72
     0
 73
     0
 74
     0
  7

 75
     0
147
1.0
148
0.0
149
0.0
100
AcDbLayout
  1
Model
 70
     1
 71
     0
 10
0.0
 20
0.0
 11
12.0
 21
9.0
 12
0.0
 22
0.0
 32
0.0
 14
0.0
 24
0.0
 34
0.0
 15
0.0
 25
0.0
 35
0.0
146
0.0
 13
0.0
 23
0.0
 33
0.0
 16
1.0
 26
0.0
 36
0.0
 17
0.0
 27
1.0
 37
0.0
 76
     0
330
818D
331
8192
  0
LAYOUT
  5
818C
102
{ACAD_XDICTIONARY
360
85B1
102
}
102
{ACAD_REACTORS
330
817F
102
}
330
817F
100
AcDbPlotSettings
  1

  2
RICOH imagio MP W3600 RPCS
  4

  6

 40
0.0
 41
0.0
 42
0.0
 43
0.0
 44
0.0
 45
0.0
 46
0.0
 47
0.0
 48
0.0
 49
0.0
140
0.0
141
0.0
142
1.0
143
1.0
 70
   688
 72
     0
 73
     0
 74
     5
  7

 75
    16
147
1.0
148
0.0
149
0.0
100
AcDbLayout
  1
レイアウト1
 70
     1
 71
     1
 10
0.0
 20
0.0
 11
12.0
 21
9.0
 12
0.0
 22
0.0
 32
0.0
 14
1.000000000000000E+20
 24
1.000000000000000E+20
 34
1.000000000000000E+20
 15
-1.000000000000000E+20
 25
-1.000000000000000E+20
 35
-1.000000000000000E+20
146
0.0
 13
0.0
 23
0.0
 33
0.0
 16
1.0
 26
0.0
 36
0.0
 17
0.0
 27
1.0
 37
0.0
 76
     0
330
8189
  0
MATERIAL
  5
8137
102
{ACAD_XDICTIONARY
360
8138
102
}
102
{ACAD_REACTORS
330
812E
102
}
330
812E
100
AcDbMaterial
  1
ByBlock
 72
     0
 43
0.0208333333333333
 43
0.0
 43
0.0
 43
0.0
 43
0.0
 43
0.0208333333333333
 43
0.0
 43
0.0
 43
0.0
 43
0.0
 43
1.0
 43
0.0
 43
0.0
 43
0.0
 43
0.0
 43
1.0
 77
     0
 47
0.0208333333333333
 47
0.0
 47
0.0
 47
0.0
 47
0.0
 47
0.0208333333333333
 47
0.0
 47
0.0
 47
0.0
 47
0.0
 47
1.0
 47
0.0
 47
0.0
 47
0.0
 47
0.0
 47
1.0
171
     0
 49
0.0208333333333333
 49
0.0
 49
0.0
 49
0.0
 49
0.0
 49
0.0208333333333333
 49
0.0
 49
0.0
 49
0.0
 49
0.0
 49
1.0
 49
0.0
 49
0.0
 49
0.0
 49
0.0
 49
1.0
175
     0
142
0.0208333333333333
142
0.0
142
0.0
142
0.0
142
0.0
142
0.0208333333333333
142
0.0
142
0.0
142
0.0
142
0.0
142
1.0
142
0.0
142
0.0
142
0.0
142
0.0
142
1.0
179
     0
144
0.0208333333333333
144
0.0
144
0.0
144
0.0
144
0.0
144
0.0208333333333333
144
0.0
144
0.0
144
0.0
144
0.0
144
1.0
144
0.0
144
0.0
144
0.0
144
0.0
144
1.0
147
0.0208333333333333
147
0.0
147
0.0
147
0.0
147
0.0
147
0.0208333333333333
147
0.0
147
0.0
147
0.0
147
0.0
147
1.0
147
0.0
147
0.0
147
0.0
147
0.0
147
1.0
  0
MATERIAL
  5
812F
102
{ACAD_XDICTIONARY
360
8130
102
}
102
{ACAD_REACTORS
330
812E
102
}
330
812E
100
AcDbMaterial
  1
ByLayer
 72
     0
 43
0.0208333333333333
 43
0.0
 43
0.0
 43
0.0
 43
0.0
 43
0.0208333333333333
 43
0.0
 43
0.0
 43
0.0
 43
0.0
 43
1.0
 43
0.0
 43
0.0
 43
0.0
 43
0.0
 43
1.0
 77
     0
 47
0.0208333333333333
 47
0.0
 47
0.0
 47
0.0
 47
0.0
 47
0.0208333333333333
 47
0.0
 47
0.0
 47
0.0
 47
0.0
 47
1.0
 47
0.0
 47
0.0
 47
0.0
 47
0.0
 47
1.0
171
     0
 49
0.0208333333333333
 49
0.0
 49
0.0
 49
0.0
 49
0.0
 49
0.0208333333333333
 49
0.0
 49
0.0
 49
0.0
 49
0.0
 49
1.0
 49
0.0
 49
0.0
 49
0.0
 49
0.0
 49
1.0
175
     0
142
0.0208333333333333
142
0.0
142
0.0
142
0.0
142
0.0
142
0.0208333333333333
142
0.0
142
0.0
142
0.0
142
0.0
142
1.0
142
0.0
142
0.0
142
0.0
142
0.0
142
1.0
179
     0
144
0.0208333333333333
144
0.0
144
0.0
144
0.0
144
0.0
144
0.0208333333333333
144
0.0
144
0.0
144
0.0
144
0.0
144
1.0
144
0.0
144
0.0
144
0.0
144
0.0
144
1.0
147
0.0208333333333333
147
0.0
147
0.0
147
0.0
147
0.0
147
0.0208333333333333
147
0.0
147
0.0
147
0.0
147
0.0
147
1.0
147
0.0
147
0.0
147
0.0
147
0.0
147
1.0
  0
MATERIAL
  5
813F
102
{ACAD_XDICTIONARY
360
8140
102
}
102
{ACAD_REACTORS
330
812E
102
}
330
812E
100
AcDbMaterial
  1
Global
 72
     0
 43
0.0208333333333333
 43
0.0
 43
0.0
 43
0.0
 43
0.0
 43
0.0208333333333333
 43
0.0
 43
0.0
 43
0.0
 43
0.0
 43
1.0
 43
0.0
 43
0.0
 43
0.0
 43
0.0
 43
1.0
 77
     0
 47
0.0208333333333333
 47
0.0
 47
0.0
 47
0.0
 47
0.0
 47
0.0208333333333333
 47
0.0
 47
0.0
 47
0.0
 47
0.0
 47
1.0
 47
0.0
 47
0.0
 47
0.0
 47
0.0
 47
1.0
171
     0
 49
0.0208333333333333
 49
0.0
 49
0.0
 49
0.0
 49
0.0
 49
0.0208333333333333
 49
0.0
 49
0.0
 49
0.0
 49
0.0
 49
1.0
 49
0.0
 49
0.0
 49
0.0
 49
0.0
 49
1.0
175
     0
142
0.0208333333333333
142
0.0
142
0.0
142
0.0
142
0.0
142
0.0208333333333333
142
0.0
142
0.0
142
0.0
142
0.0
142
1.0
142
0.0
142
0.0
142
0.0
142
0.0
142
1.0
179
     0
144
0.0208333333333333
144
0.0
144
0.0
144
0.0
144
0.0
144
0.0208333333333333
144
0.0
144
0.0
144
0.0
144
0.0
144
1.0
144
0.0
144
0.0
144
0.0
144
0.0
144
1.0
147
0.0208333333333333
147
0.0
147
0.0
147
0.0
147
0.0
147
0.0208333333333333
147
0.0
147
0.0
147
0.0
147
0.0
147
1.0
147
0.0
147
0.0
147
0.0
147
0.0
147
1.0
  0
MLEADERSTYLE
  5
8184
102
{ACAD_REACTORS
330
8183
102
}
330
8183
100
AcDbMLeaderStyle
170
     2
171
     1
172
     0
 90
        2
 40
0.0
 41
0.0
173
     1
 91
-1056964608
340
8178
 92
       -2
290
     1
 42
0.09
291
     1
 43
0.36
  3
Standard
 44
0.18
300

342
8173
174
     1
178
     6
175
     1
176
     0
 93
-1056964608
 45
0.18
292
     0
297
     0
 46
0.18
 94
-1056964608
 47
1.0
 49
1.0
140
1.0
293
     1
141
0.0
294
     1
177
     0
142
1.0
295
     0
296
     0
143
0.125
1001
ACAD_MLEADERVER
1070
     2
  0
MLINESTYLE
  5
817D
102
{ACAD_REACTORS
330
817C
102
}
330
817C
100
AcDbMlineStyle
  2
STANDARD
 70
     0
  3

 62
   256
 51
90.0
 52
90.0
 71
     2
 49
0.5
 62
   256
  6
BYLAYER
 49
-0.5
 62
   256
  6
BYLAYER
  0
ACDBPLACEHOLDER
  5
812D
102
{ACAD_REACTORS
330
812C
102
}
330
812C
  0
SCALE
  5
8161
102
{ACAD_REACTORS
330
8160
102
}
330
8160
100
AcDbScale
 70
     0
300
1:1
140
1.0
141
1.0
290
     1
  0
SCALE
  5
8162
102
{ACAD_REACTORS
330
8160
102
}
330
8160
100
AcDbScale
 70
     0
300
1/128" = 1'-0"
140
0.0078125
141
12.0
290
     0
  0
SCALE
  5
8163
102
{ACAD_REACTORS
330
8160
102
}
330
8160
100
AcDbScale
 70
     0
300
1/64" = 1'-0"
140
0.015625
141
12.0
290
     0
  0
SCALE
  5
8164
102
{ACAD_REACTORS
330
8160
102
}
330
8160
100
AcDbScale
 70
     0
300
1/32" = 1'-0"
140
0.03125
141
12.0
290
     0
  0
SCALE
  5
8165
102
{ACAD_REACTORS
330
8160
102
}
330
8160
100
AcDbScale
 70
     0
300
1/16" = 1'-0"
140
0.0625
141
12.0
290
     0
  0
SCALE
  5
8166
102
{ACAD_REACTORS
330
8160
102
}
330
8160
100
AcDbScale
 70
     0
300
3/32" = 1'-0"
140
0.09375
141
12.0
290
     0
  0
SCALE
  5
8167
102
{ACAD_REACTORS
330
8160
102
}
330
8160
100
AcDbScale
 70
     0
300
1/8" = 1'-0"
140
0.125
141
12.0
290
     0
  0
SCALE
  5
8168
102
{ACAD_REACTORS
330
8160
102
}
330
8160
100
AcDbScale
 70
     0
300
3/16" = 1'-0"
140
0.1875
141
12.0
290
     0
  0
SCALE
  5
8169
102
{ACAD_REACTORS
330
8160
102
}
330
8160
100
AcDbScale
 70
     0
300
1/4" = 1'-0"
140
0.25
141
12.0
290
     0
  0
SCALE
  5
816A
102
{ACAD_REACTORS
330
8160
102
}
330
8160
100
AcDbScale
 70
     0
300
3/8" = 1'-0"
140
0.375
141
12.0
290
     0
  0
SCALE
  5
816B
102
{ACAD_REACTORS
330
8160
102
}
330
8160
100
AcDbScale
 70
     0
300
1/2" = 1'-0"
140
0.5
141
12.0
290
     0
  0
SCALE
  5
816C
102
{ACAD_REACTORS
330
8160
102
}
330
8160
100
AcDbScale
 70
     0
300
3/4" = 1'-0"
140
0.75
141
12.0
290
     0
  0
SCALE
  5
816D
102
{ACAD_REACTORS
330
8160
102
}
330
8160
100
AcDbScale
 70
     0
300
1" = 1'-0"
140
1.0
141
12.0
290
     0
  0
SCALE
  5
816E
102
{ACAD_REACTORS
330
8160
102
}
330
8160
100
AcDbScale
 70
     0
300
1-1/2" = 1'-0"
140
1.5
141
12.0
290
     0
  0
SCALE
  5
816F
102
{ACAD_REACTORS
330
8160
102
}
330
8160
100
AcDbScale
 70
     0
300
3" = 1'-0"
140
3.0
141
12.0
290
     0
  0
SCALE
  5
8170
102
{ACAD_REACTORS
330
8160
102
}
330
8160
100
AcDbScale
 70
     0
300
6" = 1'-0"
140
6.0
141
12.0
290
     0
  0
SCALE
  5
8171
102
{ACAD_REACTORS
330
8160
102
}
330
8160
100
AcDbScale
 70
     0
300
1'-0" = 1'-0"
140
12.0
141
12.0
290
     0
  0
ACDBSECTIONVIEWSTYLE
  5
8186
102
{ACAD_XDICTIONARY
360
85AD
102
}
102
{ACAD_REACTORS
330
8185
102
}
330
8185
100
AcDbModelDocViewStyle
 70
     0
  3
Imperial24
290
     0
100
AcDbSectionViewStyle
 70
     0
 71
     0
 90
       78
 71
     1
340
8173
 40
0.24
340
0
340
0
 40
0.24
300
I, O, Q, S, X, Z
 40
0.48
 90
        3
 40
0.18
 90
        1
 71
     2
340
817A
 90
       25
340
817A
 90
       50
 40
0.24
 40
0.0
 40
0.24
 71
     3
340
8173
 40
0.24
 90
        1
 40
0.75
 90
        1
300
%<\AcVar ViewType \f "%tc1">% %<\AcVar ViewSectionStartId>%-%<\AcVar ViewSectionEndId>%\PSCALE %<\AcVar ViewScale \f "%sn">%
 71
     4
300
ANSI31
 40
1.0
 90
        0
290
     0
290
     0
 90
        6
 40
0.0
 40
1.570796326794896
 40
0.2617993877991494
 40
1.308996938995747
 40
-0.2617993877991494
 40
1.832595714594046
  0
TABLESTYLE
  5
8182
102
{ACAD_XDICTIONARY
360
8574
102
}
102
{ACAD_REACTORS
330
8181
102
}
330
8181
100
AcDbTableStyle
  3
Standard
 70
     0
 71
     0
 40
0.06
 41
0.06
280
     0
281
     0
  7
STANDARD
140
0.18
170
     2
 62
     0
 63
     7
283
     0
274
    -2
284
     1
 64
     0
275
    -2
285
     1
 65
     0
276
    -2
286
     1
 66
     0
277
    -2
287
     1
 67
     0
278
    -2
288
     1
 68
     0
279
    -2
289
     1
 69
     0
  7
STANDARD
140
0.25
170
     5
 62
     0
 63
     7
283
     0
274
    -2
284
     1
 64
     0
275
    -2
285
     1
 65
     0
276
    -2
286
     1
 66
     0
277
    -2
287
     1
 67
     0
278
    -2
288
     1
 68
     0
279
    -2
289
     1
 69
     0
  7
STANDARD
140
0.18
170
     5
 62
     0
 63
     7
283
     0
274
    -2
284
     1
 64
     0
275
    -2
285
     1
 65
     0
276
    -2
286
     1
 66
     0
277
    -2
287
     1
 67
     0
278
    -2
288
     1
 68
     0
279
    -2
289
     1
 69
     0
  0
VISUALSTYLE
  5
814D
102
{ACAD_XDICTIONARY
360
8585
102
}
102
{ACAD_REACTORS
330
8147
102
}
330
8147
100
AcDbVisualStyle
  2
2dWireframe
 70
     4
 71
     0
 72
     2
 73
     0
 90
        0
 40
-0.6
 41
-30.0
 62
     5
 63
     7
 74
     1
 91
        4
 64
     7
 65
   257
 75
     1
175
     1
 42
1.0
 92
        0
 66
   257
 43
1.0
 76
     1
 77
     6
 78
     2
 67
     7
 79
     5
170
     0
171
     0
290
     0
174
     0
 93
        1
 44
0.0
173
     0
291
     0
 45
0.0
1001
ACAD
1000
AcDbSavedByObjectVersion
1070
     0
  0
VISUALSTYLE
  5
814C
102
{ACAD_XDICTIONARY
360
8583
102
}
102
{ACAD_REACTORS
330
8147
102
}
330
8147
100
AcDbVisualStyle
  2
Basic
 70
     7
 71
     1
 72
     0
 73
     1
 90
        0
 40
-0.6
 41
-30.0
 62
     5
 63
     7
 74
     0
 91
        4
 64
     7
 65
   257
 75
     1
175
     1
 42
1.0
 92
        8
 66
     7
 43
1.0
 76
     1
 77
     6
 78
     2
 67
     7
 79
     5
170
     0
171
     0
290
     0
174
     0
 93
        1
 44
0.0
173
     0
291
     1
 45
0.0
1001
ACAD
1000
AcDbSavedByObjectVersion
1070
     0
  0
VISUALSTYLE
  5
8153
102
{ACAD_XDICTIONARY
360
8591
102
}
102
{ACAD_REACTORS
330
8147
102
}
330
8147
100
AcDbVisualStyle
  2
Brighten
 70
    12
 71
     2
 72
     2
 73
     0
 90
        0
 40
-0.6
 41
-30.0
 62
     5
 63
     7
 74
     1
 91
        4
 64
     7
 65
   257
 75
     1
175
     1
 42
1.0
 92
        8
 66
     7
 43
1.0
 76
     1
 77
     6
 78
     2
 67
     7
 79
     5
170
     0
171
     0
290
     0
174
     0
 93
        1
 44
50.0
173
     0
291
     1
 45
0.0
1001
ACAD
1000
AcDbSavedByObjectVersion
1070
     0
  0
VISUALSTYLE
  5
8157
102
{ACAD_XDICTIONARY
360
8599
102
}
102
{ACAD_REACTORS
330
8147
102
}
330
8147
100
AcDbVisualStyle
  2
ColorChange
 70
    16
 71
     2
 72
     2
 73
     3
 90
        0
 40
-0.6
 41
-30.0
 62
     5
 63
     8
 74
     1
 91
        4
 64
     7
 65
   257
 75
     1
175
     1
 42
1.0
 92
        8
 66
     8
 43
1.0
 76
     1
 77
     6
 78
     2
 67
     7
 79
     5
170
     0
171
     0
290
     0
174
     0
 93
        1
 44
0.0
173
     0
291
     1
 45
0.0
1001
ACAD
1000
AcDbSavedByObjectVersion
1070
     0
  0
VISUALSTYLE
  5
8150
102
{ACAD_XDICTIONARY
360
858B
102
}
102
{ACAD_REACTORS
330
8147
102
}
330
8147
100
AcDbVisualStyle
  2
Conceptual
 70
     9
 71
     3
 72
     2
 73
     0
 90
        0
 40
-0.6
 41
-30.0
 62
     5
 63
     7
 74
     2
 91
        2
 64
     7
 65
   257
 75
     1
175
     1
 42
179.0
 92
        8
 66
     7
 43
1.0
 76
     1
 77
     6
 78
     2
 67
     7
 79
     3
170
     0
171
     0
290
     0
174
     0
 93
        1
 44
0.0
173
     0
291
     0
 45
0.0
1001
ACAD
1000
AcDbSavedByObjectVersion
1070
     0
  0
VISUALSTYLE
  5
8152
102
{ACAD_XDICTIONARY
360
858F
102
}
102
{ACAD_REACTORS
330
8147
102
}
330
8147
100
AcDbVisualStyle
  2
Dim
 70
    11
 71
     2
 72
     2
 73
     0
 90
        0
 40
-0.6
 41
-30.0
 62
     5
 63
     7
 74
     1
 91
        4
 64
     7
 65
   257
 75
     1
175
     1
 42
1.0
 92
        8
 66
     7
 43
1.0
 76
     1
 77
     6
 78
     2
 67
     7
 79
     5
170
     0
171
     0
290
     0
174
     0
 93
        1
 44
-50.0
173
     0
291
     1
 45
0.0
1001
ACAD
1000
AcDbSavedByObjectVersion
1070
     0
  0
VISUALSTYLE
  5
815F
102
{ACAD_XDICTIONARY
360
85A9
102
}
102
{ACAD_REACTORS
330
8147
102
}
330
8147
100
AcDbVisualStyle
  2
EdgeColorOff
 70
    22
 71
     2
 72
     2
 73
     0
 90
        0
 40
-0.6
 41
-30.0
 62
     5
 63
     7
 74
     1
 91
        4
 64
     7
 65
   257
 75
     1
175
     1
 42
1.0
 92
        8
 66
     7
 43
1.0
 76
     1
 77
     6
 78
     2
 67
     7
 79
     5
170
     0
171
     0
290
     0
174
     0
 93
        1
 44
0.0
173
     0
291
     1
 45
0.0
1001
ACAD
1000
AcDbSavedByObjectVersion
1070
     0
  0
VISUALSTYLE
  5
8156
102
{ACAD_XDICTIONARY
360
8597
102
}
102
{ACAD_REACTORS
330
8147
102
}
330
8147
100
AcDbVisualStyle
  2
Facepattern
 70
    15
 71
     2
 72
     2
 73
     0
 90
        0
 40
-0.6
 41
-30.0
 62
     5
 63
     7
 74
     1
 91
        4
 64
     7
 65
   257
 75
     1
175
     1
 42
1.0
 92
        8
 66
     7
 43
1.0
 76
     1
 77
     6
 78
     2
 67
     7
 79
     5
170
     0
171
     0
290
     0
174
     0
 93
        1
 44
0.0
173
     0
291
     1
 45
0.0
1001
ACAD
1000
AcDbSavedByObjectVersion
1070
     0
  0
VISUALSTYLE
  5
8148
102
{ACAD_XDICTIONARY
360
857B
102
}
102
{ACAD_REACTORS
330
8147
102
}
330
8147
100
AcDbVisualStyle
  2
Flat
 70
     0
 71
     2
 72
     1
 73
     1
 90
        2
 40
-0.6
 41
30.0
 62
     5
 63
     7
 74
     0
 91
        0
 64
     7
 65
   257
 75
     1
175
     1
 42
1.0
 92
        8
 66
     7
 43
1.0
 76
     1
 77
     6
 78
     2
 67
     7
 79
     5
170
     0
171
     0
290
     0
174
     0
 93
       13
 44
0.0
173
     0
291
     1
 45
0.0
1001
ACAD
1000
AcDbSavedByObjectVersion
1070
     0
  0
VISUALSTYLE
  5
8149
102
{ACAD_XDICTIONARY
360
857D
102
}
102
{ACAD_REACTORS
330
8147
102
}
330
8147
100
AcDbVisualStyle
  2
FlatWithEdges
 70
     1
 71
     2
 72
     1
 73
     1
 90
        2
 40
-0.6
 41
30.0
 62
     5
 63
     7
 74
     1
 91
        0
 64
     7
 65
   257
 75
     1
175
     1
 42
1.0
 92
        0
 66
   257
 43
1.0
 76
     1
 77
     6
 78
     2
 67
     7
 79
     5
170
     0
171
     0
290
     0
174
     0
 93
       13
 44
0.0
173
     0
291
     1
 45
0.0
1001
ACAD
1000
AcDbSavedByObjectVersion
1070
     0
  0
VISUALSTYLE
  5
814A
102
{ACAD_XDICTIONARY
360
857F
102
}
102
{ACAD_REACTORS
330
8147
102
}
330
8147
100
AcDbVisualStyle
  2
Gouraud
 70
     2
 71
     2
 72
     2
 73
     1
 90
        2
 40
-0.6
 41
30.0
 62
     5
 63
     7
 74
     0
 91
        0
 64
     7
 65
   257
 75
     1
175
     1
 42
1.0
 92
        0
 66
     7
 43
1.0
 76
     1
 77
     6
 78
     2
 67
     7
 79
     5
170
     0
171
     0
290
     0
174
     0
 93
       13
 44
0.0
173
     0
291
     1
 45
0.0
1001
ACAD
1000
AcDbSavedByObjectVersion
1070
     0
  0
VISUALSTYLE
  5
814B
102
{ACAD_XDICTIONARY
360
8581
102
}
102
{ACAD_REACTORS
330
8147
102
}
330
8147
100
AcDbVisualStyle
  2
GouraudWithEdges
 70
     3
 71
     2
 72
     2
 73
     1
 90
        2
 40
-0.6
 41
30.0
 62
     5
 63
     7
 74
     1
 91
        0
 64
     7
 65
   257
 75
     1
175
     1
 42
1.0
 92
        0
 66
   257
 43
1.0
 76
     1
 77
     6
 78
     2
 67
     7
 79
     5
170
     0
171
     0
290
     0
174
     0
 93
       13
 44
0.0
173
     0
291
     1
 45
0.0
1001
ACAD
1000
AcDbSavedByObjectVersion
1070
     0
  0
VISUALSTYLE
  5
814F
102
{ACAD_XDICTIONARY
360
8589
102
}
102
{ACAD_REACTORS
330
8147
102
}
330
8147
100
AcDbVisualStyle
  2
Hidden
 70
     6
 71
     1
 72
     2
 73
     2
 90
        0
 40
-0.6
 41
-30.0
 62
     5
 63
     7
 74
     2
 91
        2
 64
     7
 65
   257
 75
     2
175
     1
 42
40.0
 92
        0
 66
   257
 43
1.0
 76
     1
 77
     6
 78
     2
 67
     7
 79
     3
170
     0
171
     0
290
     0
174
     0
 93
        1
 44
0.0
173
     0
291
     0
 45
0.0
1001
ACAD
1000
AcDbSavedByObjectVersion
1070
     0
  0
VISUALSTYLE
  5
815D
102
{ACAD_XDICTIONARY
360
85A5
102
}
102
{ACAD_REACTORS
330
8147
102
}
330
8147
100
AcDbVisualStyle
  2
JitterOff
 70
    20
 71
     2
 72
     2
 73
     0
 90
        0
 40
-0.6
 41
-30.0
 62
     5
 63
     7
 74
     1
 91
        4
 64
     7
 65
   257
 75
     1
175
     1
 42
1.0
 92
       10
 66
     7
 43
1.0
 76
     1
 77
     6
 78
     2
 67
     7
 79
     5
170
     0
171
     0
290
     0
174
     0
 93
        1
 44
0.0
173
     0
291
     1
 45
0.0
1001
ACAD
1000
AcDbSavedByObjectVersion
1070
     0
  0
VISUALSTYLE
  5
8155
102
{ACAD_XDICTIONARY
360
8595
102
}
102
{ACAD_REACTORS
330
8147
102
}
330
8147
100
AcDbVisualStyle
  2
Linepattern
 70
    14
 71
     2
 72
     2
 73
     0
 90
        0
 40
-0.6
 41
-30.0
 62
     5
 63
     7
 74
     1
 91
        4
 64
     7
 65
   257
 75
     7
175
     7
 42
1.0
 92
        8
 66
     7
 43
1.0
 76
     1
 77
     6
 78
     2
 67
     7
 79
     5
170
     0
171
     0
290
     0
174
     0
 93
        1
 44
0.0
173
     0
291
     1
 45
0.0
1001
ACAD
1000
AcDbSavedByObjectVersion
1070
     0
  0
VISUALSTYLE
  5
815E
102
{ACAD_XDICTIONARY
360
85A7
102
}
102
{ACAD_REACTORS
330
8147
102
}
330
8147
100
AcDbVisualStyle
  2
OverhangOff
 70
    21
 71
     2
 72
     2
 73
     0
 90
        0
 40
-0.6
 41
-30.0
 62
     5
 63
     7
 74
     1
 91
        4
 64
     7
 65
   257
 75
     1
175
     1
 42
1.0
 92
        9
 66
     7
 43
1.0
 76
     1
 77
     6
 78
     2
 67
     7
 79
     5
170
     0
171
     0
290
     0
174
     0
 93
        1
 44
0.0
173
     0
291
     1
 45
0.0
1001
ACAD
1000
AcDbSavedByObjectVersion
1070
     0
  0
VISUALSTYLE
  5
8151
102
{ACAD_XDICTIONARY
360
858D
102
}
102
{ACAD_REACTORS
330
8147
102
}
330
8147
100
AcDbVisualStyle
  2
Realistic
 70
     8
 71
     2
 72
     3
 73
     0
 90
        2
 40
-0.6
 41
30.0
 62
     5
 63
     7
 74
     0
 91
        0
 64
     7
 65
   257
 75
     1
175
     1
 42
1.0
 92
        8
 66
   257
 43
1.0
 76
     1
 77
     6
 78
     2
 67
     7
 79
     3
170
     0
171
     0
290
     0
174
     0
 93
       13
 44
0.0
173
     0
291
     0
 45
0.0
1001
ACAD
1000
AcDbSavedByObjectVersion
1070
     0
  0
VISUALSTYLE
  5
815C
102
{ACAD_XDICTIONARY
360
85A3
102
}
102
{ACAD_REACTORS
330
8147
102
}
330
8147
100
AcDbVisualStyle
  2
Shaded
 70
    27
 71
     2
 72
     2
 73
     1
 90
        2
 40
-0.6
 41
30.0
 62
     5
 63
     7
 74
     0
 91
        4
 64
     7
 65
   257
 75
     1
175
     1
 42
1.0
 92
        8
 66
   257
 43
1.0
 76
     1
 77
     6
 78
     2
 67
     8
 79
     3
170
     0
171
     0
290
     0
174
     0
 93
        5
 44
0.0
173
     0
291
     0
 45
0.0
1001
ACAD
1000
AcDbSavedByObjectVersion
1070
     0
  0
VISUALSTYLE
  5
815B
102
{ACAD_XDICTIONARY
360
85A1
102
}
102
{ACAD_REACTORS
330
8147
102
}
330
8147
100
AcDbVisualStyle
  2
Shaded with edges
 70
    26
 71
     2
 72
     2
 73
     1
 90
        2
 40
-0.6
 41
30.0
 62
     5
 63
     7
 74
     1
 91
       10
 64
     7
 65
   257
 75
     2
175
     1
 42
1.0
 92
        8
 66
   257
 43
1.0
 76
     1
 77
     6
 78
     2
 67
     7
 79
     3
170
     0
171
     0
290
     0
174
     0
 93
        5
 44
0.0
173
     0
291
     0
 45
0.0
1001
ACAD
1000
AcDbSavedByObjectVersion
1070
     0
  0
VISUALSTYLE
  5
8158
102
{ACAD_XDICTIONARY
360
859B
102
}
102
{ACAD_REACTORS
330
8147
102
}
330
8147
100
AcDbVisualStyle
  2
Shades of Gray
 70
    23
 71
     2
 72
     2
 73
     3
 90
        0
 40
-0.6
 41
-30.0
 62
     5
 63
     7
 74
     2
 91
        2
 64
     7
 65
     7
 75
     1
175
     1
 42
40.0
 92
        8
 66
     7
 43
1.0
 76
     1
 77
     6
 78
     2
 67
     7
 79
     3
170
     0
171
     0
290
     0
174
     0
 93
        1
 44
0.0
173
     0
291
     0
 45
0.0
1001
ACAD
1000
AcDbSavedByObjectVersion
1070
     0
  0
VISUALSTYLE
  5
8159
102
{ACAD_XDICTIONARY
360
859D
102
}
102
{ACAD_REACTORS
330
8147
102
}
330
8147
100
AcDbVisualStyle
  2
Sketchy
 70
    24
 71
     1
 72
     2
 73
     2
 90
        0
 40
-0.6
 41
-30.0
 62
     5
 63
     7
 74
     2
 91
        2
 64
     7
 65
     7
 75
     1
175
     1
 42
40.0
 92
       11
 66
     7
 43
1.0
 76
     1
 77
     6
 78
     2
 67
     7
 79
     6
170
     0
171
     0
290
     0
174
     0
 93
        1
 44
0.0
173
     0
291
     0
 45
0.0
1001
ACAD
1000
AcDbSavedByObjectVersion
1070
     0
  0
VISUALSTYLE
  5
8154
102
{ACAD_XDICTIONARY
360
8593
102
}
102
{ACAD_REACTORS
330
8147
102
}
330
8147
100
AcDbVisualStyle
  2
Thicken
 70
    13
 71
     2
 72
     2
 73
     0
 90
        0
 40
-0.6
 41
-30.0
 62
     5
 63
     7
 74
     1
 91
        4
 64
     7
 65
   257
 75
     1
175
     1
 42
1.0
 92
       12
 66
     7
 43
1.0
 76
     1
 77
     6
 78
     2
 67
     7
 79
     5
170
     0
171
     0
290
     0
174
     0
 93
        1
 44
0.0
173
     0
291
     1
 45
0.0
1001
ACAD
1000
AcDbSavedByObjectVersion
1070
     0
  0
VISUALSTYLE
  5
814E
102
{ACAD_XDICTIONARY
360
8587
102
}
102
{ACAD_REACTORS
330
8147
102
}
330
8147
100
AcDbVisualStyle
  2
Wireframe
 70
     5
 71
     0
 72
     2
 73
     0
 90
        0
 40
-0.6
 41
-30.0
 62
     5
 63
     7
 74
     1
 91
        4
 64
     7
 65
   257
 75
     1
175
     1
 42
1.0
 92
        0
 66
   257
 43
1.0
 76
     1
 77
     6
 78
     2
 67
     7
 79
     3
170
     0
171
     0
290
     0
174
     0
 93
        1
 44
0.0
173
     0
291
     0
 45
0.0
1001
ACAD
1000
AcDbSavedByObjectVersion
1070
     0
  0
VISUALSTYLE
  5
815A
102
{ACAD_XDICTIONARY
360
859F
102
}
102
{ACAD_REACTORS
330
8147
102
}
330
8147
100
AcDbVisualStyle
  2
X-Ray
 70
    25
 71
     2
 72
     2
 73
     1
 90
        1
 40
0.5
 41
-30.0
 62
     5
 63
     7
 74
     1
 91
        0
 64
     7
 65
   257
 75
     1
175
     1
 42
1.0
 92
        8
 66
     7
 43
1.0
 76
     1
 77
     6
 78
     2
 67
     7
 79
     3
170
     0
171
     0
290
     0
174
     0
 93
       13
 44
0.0
173
     0
291
     0
 45
0.0
1001
ACAD
1000
AcDbSavedByObjectVersion
1070
     0
  0
DICTIONARYVAR
  5
81E7
102
{ACAD_REACTORS
330
81E2
102
}
330
81E2
100
DictionaryVariables
280
     0
  1
1:1
  0
DICTIONARYVAR
  5
81E4
102
{ACAD_REACTORS
330
81E2
102
}
330
81E2
100
DictionaryVariables
280
     0
  1
STANDARD
  0
DICTIONARYVAR
  5
81E3
102
{ACAD_REACTORS
330
81E2
102
}
330
81E2
100
DictionaryVariables
280
     0
  1
STANDARD
  0
DICTIONARYVAR
  5
81E5
102
{ACAD_REACTORS
330
81E2
102
}
330
81E2
100
DictionaryVariables
280
     0
  1
Imperial24
  0
DICTIONARYVAR
  5
81E6
102
{ACAD_REACTORS
330
81E2
102
}
330
81E2
100
DictionaryVariables
280
     0
  1
Imperial24
  0
DICTIONARYVAR
  5
81EA
102
{ACAD_REACTORS
330
81E2
102
}
330
81E2
100
DictionaryVariables
280
     0
  1
1
  0
DICTIONARYVAR
  5
81E9
102
{ACAD_REACTORS
330
81E2
102
}
330
81E2
100
DictionaryVariables
280
     0
  1
0
  0
DICTIONARYVAR
  5
81E8
102
{ACAD_REACTORS
330
81E2
102
}
330
81E2
100
DictionaryVariables
280
     0
  1
127
  0
DICTIONARYVAR
  5
81EB
102
{ACAD_REACTORS
330
81E2
102
}
330
81E2
100
DictionaryVariables
280
     0
  1
2
  0
DICTIONARY
  5
85AF
330
8188
100
AcDbDictionary
280
     1
281
     1
  3
ACAD_XREC_ROUNDTRIP
360
85B0
  0
DICTIONARY
  5
85B3
330
8190
100
AcDbDictionary
280
     1
281
     1
  3
ACAD_XREC_ROUNDTRIP
360
85B4
  0
DICTIONARY
  5
85B1
330
818C
100
AcDbDictionary
280
     1
281
     1
  3
ACAD_XREC_ROUNDTRIP
360
85B2
  0
DICTIONARY
  5
8138
330
8137
100
AcDbDictionary
280
     1
281
     1
  3
ACAD_XREC_ROUNDTRIP
360
8579
  3
BUMPTILE
360
813A
  3
DIFFUSETILE
360
8139
  3
OPACITYTILE
360
813D
  3
REFLECTIONTILE
360
813C
  3
REFRACTIONTILE
360
813E
  3
SPECULARTILE
360
813B
  0
DICTIONARY
  5
8130
330
812F
100
AcDbDictionary
280
     1
281
     1
  3
ACAD_XREC_ROUNDTRIP
360
8578
  3
BUMPTILE
360
8132
  3
DIFFUSETILE
360
8131
  3
OPACITYTILE
360
8135
  3
REFLECTIONTILE
360
8134
  3
REFRACTIONTILE
360
8136
  3
SPECULARTILE
360
8133
  0
DICTIONARY
  5
8140
330
813F
100
AcDbDictionary
280
     1
281
     1
  3
ACAD_XREC_ROUNDTRIP
360
857A
  3
BUMPTILE
360
8142
  3
DIFFUSETILE
360
8141
  3
FBXASSET
360
8298
  3
OPACITYTILE
360
8145
  3
REFLECTIONTILE
360
8144
  3
REFRACTIONTILE
360
8146
  3
SPECULARTILE
360
8143
  0
DICTIONARY
  5
85AD
330
8186
100
AcDbDictionary
280
     1
281
     1
  3
ACAD_XREC_ROUNDTRIP
360
85AE
  0
DICTIONARY
  5
8574
330
8182
100
AcDbDictionary
280
     1
281
     1
  3
ACAD_ROUNDTRIP_2008_TABLESTYLE_CELLSTYLEMAP
360
8575
  3
ACAD_XREC_ROUNDTRIP
360
85AB
  0
DICTIONARY
  5
8585
330
814D
100
AcDbDictionary
280
     1
281
     1
  3
ACAD_XREC_ROUNDTRIP
360
8586
  0
DICTIONARY
  5
8583
330
814C
100
AcDbDictionary
280
     1
281
     1
  3
ACAD_XREC_ROUNDTRIP
360
8584
  0
DICTIONARY
  5
8591
330
8153
100
AcDbDictionary
280
     1
281
     1
  3
ACAD_XREC_ROUNDTRIP
360
8592
  0
DICTIONARY
  5
8599
330
8157
100
AcDbDictionary
280
     1
281
     1
  3
ACAD_XREC_ROUNDTRIP
360
859A
  0
DICTIONARY
  5
858B
330
8150
100
AcDbDictionary
280
     1
281
     1
  3
ACAD_XREC_ROUNDTRIP
360
858C
  0
DICTIONARY
  5
858F
330
8152
100
AcDbDictionary
280
     1
281
     1
  3
ACAD_XREC_ROUNDTRIP
360
8590
  0
DICTIONARY
  5
85A9
330
815F
100
AcDbDictionary
280
     1
281
     1
  3
ACAD_XREC_ROUNDTRIP
360
85AA
  0
DICTIONARY
  5
8597
330
8156
100
AcDbDictionary
280
     1
281
     1
  3
ACAD_XREC_ROUNDTRIP
360
8598
  0
DICTIONARY
  5
857B
330
8148
100
AcDbDictionary
280
     1
281
     1
  3
ACAD_XREC_ROUNDTRIP
360
857C
  0
DICTIONARY
  5
857D
330
8149
100
AcDbDictionary
280
     1
281
     1
  3
ACAD_XREC_ROUNDTRIP
360
857E
  0
DICTIONARY
  5
857F
330
814A
100
AcDbDictionary
280
     1
281
     1
  3
ACAD_XREC_ROUNDTRIP
360
8580
  0
DICTIONARY
  5
8581
330
814B
100
AcDbDictionary
280
     1
281
     1
  3
ACAD_XREC_ROUNDTRIP
360
8582
  0
DICTIONARY
  5
8589
330
814F
100
AcDbDictionary
280
     1
281
     1
  3
ACAD_XREC_ROUNDTRIP
360
858A
  0
DICTIONARY
  5
85A5
330
815D
100
AcDbDictionary
280
     1
281
     1
  3
ACAD_XREC_ROUNDTRIP
360
85A6
  0
DICTIONARY
  5
8595
330
8155
100
AcDbDictionary
280
     1
281
     1
  3
ACAD_XREC_ROUNDTRIP
360
8596
  0
DICTIONARY
  5
85A7
330
815E
100
AcDbDictionary
280
     1
281
     1
  3
ACAD_XREC_ROUNDTRIP
360
85A8
  0
DICTIONARY
  5
858D
330
8151
100
AcDbDictionary
280
     1
281
     1
  3
ACAD_XREC_ROUNDTRIP
360
858E
  0
DICTIONARY
  5
85A3
330
815C
100
AcDbDictionary
280
     1
281
     1
  3
ACAD_XREC_ROUNDTRIP
360
85A4
  0
DICTIONARY
  5
85A1
330
815B
100
AcDbDictionary
280
     1
281
     1
  3
ACAD_XREC_ROUNDTRIP
360
85A2
  0
DICTIONARY
  5
859B
330
8158
100
AcDbDictionary
280
     1
281
     1
  3
ACAD_XREC_ROUNDTRIP
360
859C
  0
DICTIONARY
  5
859D
330
8159
100
AcDbDictionary
280
     1
281
     1
  3
ACAD_XREC_ROUNDTRIP
360
859E
  0
DICTIONARY
  5
8593
330
8154
100
AcDbDictionary
280
     1
281
     1
  3
ACAD_XREC_ROUNDTRIP
360
8594
  0
DICTIONARY
  5
8587
330
814E
100
AcDbDictionary
280
     1
281
     1
  3
ACAD_XREC_ROUNDTRIP
360
8588
  0
DICTIONARY
  5
859F
330
815A
100
AcDbDictionary
280
     1
281
     1
  3
ACAD_XREC_ROUNDTRIP
360
85A0
  0
XRECORD
  5
85B0
102
{ACAD_REACTORS
330
85AF
102
}
330
85AF
100
AcDbXrecord
280
     1
102
DISPLAYNAME
  1
Imperial24
102
FLAGS
 90
        0
  0
XRECORD
  5
85B4
102
{ACAD_REACTORS
330
85B3
102
}
330
85B3
100
AcDbXrecord
280
     1
102
SHADEPLOT
 70
     0
102
SHADEPLOTRESLEVEL
 70
     2
102
SHADEPLOTCUSTOMDPI
 70
   300
  0
XRECORD
  5
85B2
102
{ACAD_REACTORS
330
85B1
102
}
330
85B1
100
AcDbXrecord
280
     1
102
SHADEPLOT
 70
     0
102
SHADEPLOTRESLEVEL
 70
     2
102
SHADEPLOTCUSTOMDPI
 70
   300
  0
XRECORD
  5
8579
102
{ACAD_REACTORS
330
8138
102
}
330
8138
100
AcDbXrecord
280
     1
102
MATERIAL
148
0.0
149
0.0
149
0.0
 93
        0
 94
      127
282
     0
 72
     0
 77
     0
171
     0
175
     0
179
     0
273
     0
  0
XRECORD
  5
813A
102
{ACAD_REACTORS
330
8138
102
}
330
8138
100
AcDbXrecord
280
     1
270
     1
271
     1
  0
XRECORD
  5
8139
102
{ACAD_REACTORS
330
8138
102
}
330
8138
100
AcDbXrecord
280
     1
270
     1
271
     1
  0
XRECORD
  5
813D
102
{ACAD_REACTORS
330
8138
102
}
330
8138
100
AcDbXrecord
280
     1
270
     1
271
     1
  0
XRECORD
  5
813C
102
{ACAD_REACTORS
330
8138
102
}
330
8138
100
AcDbXrecord
280
     1
270
     1
271
     1
  0
XRECORD
  5
813E
102
{ACAD_REACTORS
330
8138
102
}
330
8138
100
AcDbXrecord
280
     1
270
     1
271
     1
  0
XRECORD
  5
813B
102
{ACAD_REACTORS
330
8138
102
}
330
8138
100
AcDbXrecord
280
     1
270
     1
271
     1
  0
XRECORD
  5
8578
102
{ACAD_REACTORS
330
8130
102
}
330
8130
100
AcDbXrecord
280
     1
102
MATERIAL
148
0.0
149
0.0
149
0.0
 93
        0
 94
      127
282
     0
 72
     0
 77
     0
171
     0
175
     0
179
     0
273
     0
  0
XRECORD
  5
8132
102
{ACAD_REACTORS
330
8130
102
}
330
8130
100
AcDbXrecord
280
     1
270
     1
271
     1
  0
XRECORD
  5
8131
102
{ACAD_REACTORS
330
8130
102
}
330
8130
100
AcDbXrecord
280
     1
270
     1
271
     1
  0
XRECORD
  5
8135
102
{ACAD_REACTORS
330
8130
102
}
330
8130
100
AcDbXrecord
280
     1
270
     1
271
     1
  0
XRECORD
  5
8134
102
{ACAD_REACTORS
330
8130
102
}
330
8130
100
AcDbXrecord
280
     1
270
     1
271
     1
  0
XRECORD
  5
8136
102
{ACAD_REACTORS
330
8130
102
}
330
8130
100
AcDbXrecord
280
     1
270
     1
271
     1
  0
XRECORD
  5
8133
102
{ACAD_REACTORS
330
8130
102
}
330
8130
100
AcDbXrecord
280
     1
270
     1
271
     1
  0
XRECORD
  5
857A
102
{ACAD_REACTORS
330
8140
102
}
330
8140
100
AcDbXrecord
280
     1
102
MATERIAL
148
0.0
149
0.0
149
0.0
 93
        0
 94
      127
282
     0
 72
     0
 77
     0
171
     0
175
     0
179
     0
273
     0
  0
XRECORD
  5
8142
102
{ACAD_REACTORS
330
8140
102
}
330
8140
100
AcDbXrecord
280
     1
270
     1
271
     1
  0
XRECORD
  5
8141
102
{ACAD_REACTORS
330
8140
102
}
330
8140
100
AcDbXrecord
280
     1
270
     1
271
     1
  0
XRECORD
  5
8298
102
{ACAD_REACTORS
330
8140
102
}
330
8140
100
AcDbXrecord
280
     1
 70
     1
 90
1959938040
 71
     1
  1
05286ED1-9480-4700-8911-D4538E636FC9
311
504B0304140006080800E2836E57EAFB4BB8C0000000200100004F00000031394434354231422D324545302D343839442D393135332D3439314243453542374544332F4173736574446174612F446566696E6974696F6E4974657261746F7250726F706572746965732E62696EEB606060F80F0540260323103700495E20ED
311
9E9A975A94991C9C9C919A9BC8C00612C9C94F4ACC6147C831019920AE4B6A5A62694E0948976F6671726A4E4E625E6A7E69B12042A9426E6209D0B8C41C3D90264E20860914834C48875806B2DF0F88414E02D189290556F689C5C5A925B6FA694915FA4EAEE666AECEC696BAC62E4E96BA26E6962EBA4EE64666BA06162E
311
2E4EAE26CE9646E64EFA45A9C5F9A545C9A9C5FA46FA06F15093E30BF2D2191856BC5EAB701D6809C80D204C080000504B0304140006080800E2836E578C9271D2F0000000300200004500000031394434354231422D324545302D343839442D393135332D3439314243453542374544332F4173736574446174612F496E73
311
74616E636550726F706572746965732E62696EEB606060F80F0540260323103700495E20ED9E9A975A94991C9C9C919A9BA80214303035B230737531D4B534B130D035313730D0B5B03434D475313135B6703533367373B6644768046931363471713532B5D435353131D635313332D475727372D13534373670367376B674
311
74B5042A03DBCBA019D37FE8ABC6157B20CD04146B0062181F4C03F940F0C11EA29A8141C08141002C0426541C106CAC2CA046088033B02A030AC2157C6006F21A8018AAF50194E6010A610250382264E08660284CD9E98021862280A91564B406929A0FF62C401E28B6F88038B83CB1243943D7A928312F25350524131B1B
311
FB9F161800504B0304140006080800E2836E5728BB58AF800100009E0500003D00000031394434354231422D324545302D343839442D393135332D3439314243453542374544332F536368656D61732F436F6D6D6F6E536368656D612E786D6CBD544D4FC23018BEFB2B96DE15493C78601010A34B880709DEDFB52FD0D8B5
311
4BD70DF6EFED3AC0B12E6442E2716BFB3CEFF3D18E26FB440405EA8C2B1992E1C323095052C5B8DC842437EBFB673219DF8DA659866649B798C078B48AE6410122242F2A4994AC7F93815DF85C049C8564CA0A901499DD886B2EB9B1E02448F358701A9235880C49A0119892A20C89D1B9FD768815CAD268CB5E0355B40B1E
311
47F3E37A2020464BED06AA57CE8FCC20C3C3446D46761A2632A8C1283D07031EFF2AE7CCB1BFEEE916E406DFAC8E36FFD99A9D60A6944090EEDC3B670C7DC13DE86B6B2C5C240D6E503BB85ACD579D513F1B9F9A69DC9CC22AFA80C426D40AF0B21EA168559156B6276F0F726A6BFF04DCD513A87A62CAD41FB24FCB2858B3
311
952E3D852084DA25B9303C15687973CC8E8AAE11DF2836C38C6A9E765E8C1BA1BFB1DC29CDFE518C8B5A7655A4ED7E77291ABEB80DBD82EC866ADE1B8D05AF9E35CF09D7A061F38A986D9EC412B8F0F65E5D81534D9B231D1E5A8FE577A241F3A5FD01504B0304140006080800E2836E572CCEBD668A040000E01200003E00
311
000031394434354231422D324545302D343839442D393135332D3439314243453542374544332F536368656D61732F47656E65726963536368656D612E786D6CD5586D6FDB380CFE7EBF42F0F7A649B70E1B90744856B4970F450FCD7A5F05459613EDE4174872DADCAF3F522F8ED3B88D2F1D06AC4050DBA2493EE4438AF2
311
F8EB73AEC8466823CB62928C06C384888297A92C5693A4B6D9D9E7E4EBD51FE3A931C22EF85AE4EC6AFC38BF261BA626C9AD288496DC3F4FCEAFC63366845F7A10452AF41DB320C0D44EC26EAB20918735565582695670811A6A49643A49A6E9069FA4604A64B29016DC4B48552F95E4932463CA888468C1D2B250DB496275
311
0DF7CE273069CE8363F1FF4EDB00E0A21999574AE4A2B00C353B93F3BD4777B8A61ED8F604ABFEDD79CE56A2B7BDFBDBC50996E0ADDE16FED26223C5D30956C29BDF4A55EA686E5E58B112DA45CE67F76F4FA27EFA3FB672FD7372FC388FAECDCA5209E693CAD167BADCD272F943701B3812F8A3D852008B1D2E32DB927B2F
311
833C6EA95879925356D254582695095A3CE982924720BE5774A3CB9CDCDB350427D2DF20DA1B5532EBE2D5D6288D75D4F7E4FD9890A0EF8E3D93EBB8F8BA4758158EF6FB90A6F9520281C93DE7AAC6D24607DA296BB96018123F821A7D6A5C5884050C475DA4865442732C8B95684A50165CBB3A32F25F783A4A480ED59AD7
311
F924B968AEA50131F46303223E6A397B0E52976030DC1DCA81D7E7C1EDEEA42C19FF27635C505E2BD5198A599020DF50A2330FCB3AAF28CB0124108429553EF1B228802E2265D8F7CC2401042B155BCC7070F1E5C55F13B4A9577362CCCE46C32174E010C3C378C44841A4BDA00FE3A12006CE11EE6AEC59894D3526DDE1CD
311
59D503ECC324017F8061B7F162162FA62EDD81AE3308617770796DCBDAD2B2625C5AE8A63DE20B2C8AA5E95E76E5730823955956E33E705425A2187C185D36489A1B44D3DCEC2172F6BA2105C3546287A7194B2331768EBBE64F6E70A9930ABE0ADEA89E9E2C38523B810287AD67A54A039C1606EAFE68F8304610BB9093DB
311
DDABC0B2AE4E290DCDA15376D7E39F72B556F0B32EAB5D3D498B4C41ABADEC3A1434C422D87E8025A84BDCB2B1417ED750FAE4DA8976863974C577C7F902D3F156AD354DEA3540DE6BEAE2BEA52F7A2EB4CA43802ECE5BF2CE2EDC9347179FFB023CE412E60BE16DA0BE29B374988A553F561DC04615DD35F7D2C8979F60E5
311
955CE93DF29DED8AFA1EE6642D53418086C03C47C377910F75F7E8F5EF665F70B60FFB22AEDF897D119E8423C773E819A3C1E55E550599EE6EDCA34D0C86FD72057DF2CD46F16A470682471C164E4346D5306BF12D7D12D82CFF673D41636C347443FEB51B50D72EA171A8E4A58623A4A16E0FA2B8B10A0D23268D87C33896
311
EE8FB73305A74BF224EDBADFA0BD674AB354D63DB7BD5D83426761C077DE767728235446A552754EB93B755891C3C4CC6CADE37CF0E912A7BB38DBA010F9DE1282EDF470CA69A9CDA482E334C4A6EA4107987980B17E72F31730EBF88BBD39E7C629F56797A3C0009C2C5AE7951D9A05A02773440F02EEB4DE396A3B6A570C
311
72CCFBCD823B0B8ED3F1D5CEDDFED772FA70236C83FB7D86C385D570B87107535572A60A96035F8F7C6A7192F13007246BBE0521855E6AC46F3E27689CEE7D186A6FD679D98CDCAD13333E04EBE7ED6F55FF01504B0304140006080800E2836E576180134D5F0100006B0300004500000031394434354231422D324545302D
311
343839442D393135332D3439314243453542374544332F536368656D61732F52656E6465724D6174657269616C536368656D612E786D6CA5934D6FC2300C86EFFB1551EEE343DBA41D1A103009551ADAD40EAE28A4A68D9426284961FCFBE5A340113B2071746D3F765EBF4DC6BFB5407BD0862B49F0B037C0082453059725
311
C18DDD3EBFE3F1E829991803366715D474942CD30FB4A782E00C64017A412D684E454CE3FE28995203B162A6EA5AC94B66997D225E109CD63B0135484BAD1B3C07E9080CA35DB3119C11BCA5C200461A68A1A438126C75E3E230D40FF81FB3F03C91D1E3A3A0AF79FE28E25BC39EC3E17E4C2A2D94A0833A51AF55BCCA7D88
311
572FCBAC529C4140B020FC3AAFA886621DCED7EAD7664CC86024E806DC297DA1BB393E4156543457A4537DB8817349A70F8ACBF09B3EEE2CB2F33E91B65D60786E4E3B39B77E3FEEEF5650424525DA657FB8B46BE6BF064646F0A0F7327C0BC1BC1B4CBBC1C419FA3CCB23500007872A2580CAAE5461865565294E4EDB4617
311
B62FF579DF9A5B2F54E834076A597573A020912FED777F9B3F504B0304140006080800E2836E570BFD25CF51000000570000004700000031394434354231422D324545302D343839442D393135332D3439314243453542374544332F4173736574446174612F41737365745461626C654F66436F6E74656E74732E62696E53
311
616060303035B230737531D4B534B130D035313730D0B5B03434D475313135B6703533367373B61402AACB4D2C492DCA4CCC492C28484D2C4ACC4B4E050A82012F90744FCD03CA26072767A4E6260200504B0304140006080800E2836E57F865834058000000680000004500000031394434354231422D324545302D343839
311
442D393135332D3439314243453542374544332F4173736574446174612F53747265616D56657273696F6E5461626C652E696E66558CBD0A80300C06F73E4B117FB66E451741D041DC5BF98480A492E4FDD18EAEC7DD4555D89EF28DF51A0B1BD8340C4DE7DD848B988C0ACF0649566493F2408C508DDEBB99D5129FF8F1AF
311
8CF5B9503E20FAE5A16B5AF702504B0304140006080800E2836E5796732AAA340100009A0400003600000031394434354231422D324545302D343839442D393135332D3439314243453542374544332F4173736574446174612F636E782E786D6CCD94314FC3301085FF4AE43D76DC5608558E2B044B2790A818D8AECEA558
311
75ECC8BE20F8F7D86D061088A943D7F3BBF3F327BF539B8FC155EF18930DBE659237AC426F4267FDA16513F5F52DAB365AC510E89B8C551E066C592933AD0E314CE35CEAB087C995AAB3FE3817EF5242DAC1DEE1637F1F3CA1A7C42AE320A59625F3860370982874988EBC03022E79C414A668304F223BE03CC94404C28EE9
311
45B358D652D672B59337EBA55C37AB57258A52AB7D086ED6DB7C590C6365CEB732DD28518EB59AA29D35E52D4CFFE591EFAD57222BB54A143393B9833EC7DC01E3E8AC01CAE8443084546711C2A0C459AC95280C7E9078C0DE7A5B5AB6D91850884FD91E46B2787544FEF37A79325B9F08BCC1EBE5F1DBE1E5293C9F7ED0CB
311
3990A7C45C5B4E7E3BE4D6F717488938AD911C9AB255F417504B0304140006080800E2836E57C4119A73080100004F0300003400000031394434354231422D324545302D343839442D393135332D3439314243453542374544332F536368656D61732F636E782E786D6CCD933F4F432114C5BFCA0B7BE1D136C6343C3A3838
311
B9A8931BC26D4B0ADC17FE18FDF6C293A14DDC74E806875FC839878BD87F7A377C404C16C344381DC90041A3B1E13891920FAB7B32ECA58888F9022343501E26D26422C5316299BB64E0A08A6BAAB3E1DCC507F41EC38B3E815764D04EA53491B46CA92A190DA433352A2BCA698484256AA83764EBA1DFA023A80C86C8F5B8
311
DEAC385FF1ED2BBFDB6DF86EDCBE09D64829DE115DE76DC810711E34D645A87646C1DAB11425DACEB40C445E7AA3B50DC12A2145CAB176D0C9FC355752CDB3B35AE55A155BC01F460AD6A25E057E8400D1EADB4C7C65EEDF223F4330109FEA2B45ABDC6D26FFCDE3DF0A60CBECD711685F417E03504B0304140006080800E2
311
836E57410A3D5871000000A40000002C00000031394434354231422D324545302D343839442D393135332D3439314243453542374544332F636E782E786D6C55CC4D0E82301086E1AB34B31774E7A22D31F1069E60020334B633A63FC6E34B0909B07DDE2F9FEE7EC1AB2FC5E4840DDC9A2B28E25E06C7938192C7CB1D5467
311
7514C9871928C640062A83D55394F2D968A0118BAFEA1DBF377CA444F98919176EAB9FEAAB9F2960DA5BBB1E2ED3FA6FFF504B0304140006080800E2836E57510857D47D000000A300000007000000636E782E786D6C4D8CD10AC22018465F45FE7B6B36A509EAC0F441467343721A36A3C74F63175D7D70F8CE11E3670BE8
311
EDF2CBA728819C3A402EDED3ECE32AA1EC0B1E008D4AE494F6BF1BA0386D4E42C3A0C49A53791E6876CB5442A3C1C7C70109379469A2F1C5DA0ED3811BCC09EB31E544DF2CD3576BFA6A9C9B52E7D7ABDBF2EA0B504B0304140006080800E2836E5716E99B5DA600000035010000130000005B436F6E74656E745F54797065
311
735D2E786D6C9590410E82301045AFD2740F4517C6180A0BF5065E60AC53688469D30E066F6F91AD9AB89CF9FFFD3F99BA9DC7413C3026E749CB4D59498164FCCD51A7E5C4B6D84BD136F5E5193089ECA5A465CF1C0E4A25D3E308A9F401292BD6C711388FB15301CC1D3A54DBAADA29E38991B8E0254336F5092D4C038BF3
311
9CD76B6FC6A538AEBEA54A4B08617006389FA516557DE4AE8E7E70DE30729138228C5F021CD93F02D4FB0DCD0B504B0304140006080800E2836E573DEE336E64000000790000001B0000006175746F6465736B2D64657369676E2D7061636B6167652E786D6C35CBC10E83200C00D05F21DCA56CA76D41FC96062B120735B6
311
9A7DBE268BB7777961F8D5AF396893C2ADB70FE7ADA196782C2DF776D7A97B5933C430F15651E5469C55D70F80A4992A3ADC954792C525AE70A1E4D6AD9816CC044FEFDF01FE3FDE907802504B0304140006080800E2836E57D3944A69F9000000960100003700000031394434354231422D324545302D343839442D393135
311
332D3439314243453542374544332F4173736574446174612F636F72652E786D6C8550CB6E833010FC15B47703064368641C91D07C414FBD59C6A156828DFCA8FAF9B50395DA534FBB9A9D99DD1D7AFA5A1ED9A7B44E19DD03CE4BC8A41666527AEE21F81BEA203B316A8DF1BF689069BEC81E120C8CCED684758784D15EEA
311
846A33C91DE4CE490F9978C4A607273EE4C2731E7C64B87BBE7271E7B3CC71BEF1180D414DBB544DD14DDD94B4C09AA62D87F330A243472A44C815A397EE7C40E5882FAFCD40F0F5D2D2228919F56AF9D92EACE45E4EC0AAB2AA11C6089337DC1E6B7C2CC93B2D129351E76DFC795F9ABE0336A4AB47EE392DB6E91FD7B04E
311
FFBB06A57D5DEDAE9BC201C3F1C8E780D122A514CB33C25853A2EC1B504B0304140006080800E2836E5778C0B23FF8000000940100003500000031394434354231422D324545302D343839442D393135332D3439314243453542374544332F536368656D61732F636F72652E786D6C8550CB6E833010FC15B477030643D2C8
311
382249F303EDA9370B3BC44AB0911F553FBF3650A93DF5B4ABD999D9DDA1C7AFE9997D4AEB94D11DE0BC844CEAC108A5C70E82BFA13D644746AD31FE170D32CD27D9418281D1D19A306FD060B4973AA1DA08B981DC39E9211B9EB1E9C00D7739F19C071F19EE91CF7C78F051E6385F798C86A0C4265522BAA99B921658D3B4
311
657FEA2F68B7271522E48AD1CBFEB443E5059F5F9B9EE0EBB9A5451233EAD5F4B37DB0927B2980556555238C1126EFB83DD4F850920F5A2426A3CEDBF8F3B6347D07EC6DB9D3D1629DFDF10CB3F8DF3328EDEB6AF35C150E188E272E03468B94512C4B80B1A63CD937504B0304140006080800E2836E5739E7301F00010000
311
D70100002D00000031394434354231422D324545302D343839442D393135332D3439314243453542374544332F636F72652E786D6C9591CB6EC32010457F05B1C7367EB4718489E4C67FD0557714260E4A0C168FAA9F5FA85DB5DDB52BD0E5DC19EE0C3BBD2F77F406CE6B6B064C8B0A2330D22A6DE601C77021078C4E9C39
311
6BC30F0C2323161870963167B3B371DD25694D0093556315ECA2F01E0246F29E2E03F6F20A8B28440C89F0B76215F226662868B1719C05BD7C59A5031140615E5775432825B47DA60FC7861EABF6859599E42C6A139A7A6F06CB2B2864D7902261DEB1727B4D54D46A67B44A7FD4170D0E73DA9FDB6EA423A9A7A922EDA13F
311
939E760D697B3A3E4DDDF8389D9B54249939F3C1A5C9EC45F20CFE6ADF8CBF92C555FD33D9E6F0A9E777A8328F99B3F27307E9CC2BE11F504B0304140006080800E2836E57C362FA7D08010000B201000008000000636F72652E786D6C8D50C172832014FC15E6DD5151343683644CD27C414FBD5121868982239869FFBE10
311
ED4C7BEBE931BBFBDE2ECB0E9FE3801E6A76DA9A0648920152A6B3529BBE81C55F710DE8C0D96CADFF250364C4A81A883070D6CF769936A8B3C62B135163A5DA40E19CF280BA213C1A70DD4D8D22118B0F0A774F26D1DD45AF1292AC3ACEBC1E7F56BB5909AF24F03CCB0B4C0826F48D54FB82EC33FACED2A8E46C59B4DCAC
311
B40CEEFAAAD50CBC2CABAC3DB667BCAB698E29BD10FC521F77383B93D36BD9527239552C8DCB9C393F873F6F47424E8F9C78445F96AE14671FD60E9B208492C89AE10B78C6D248FC09BD4CF21FA1B5F145BE1D5C371C7012023D89601C1B0CE3596F98B16DFE0D504B01021400140006080800E2836E57EAFB4BB8C0000000
311
200100004F000000000000000000000000000000000031394434354231422D324545302D343839442D393135332D3439314243453542374544332F4173736574446174612F446566696E6974696F6E4974657261746F7250726F706572746965732E62696E504B01021400140006080800E2836E578C9271D2F00000003002
311
000045000000000000000000000000002D01000031394434354231422D324545302D343839442D393135332D3439314243453542374544332F4173736574446174612F496E7374616E636550726F706572746965732E62696E504B01021400140006080800E2836E5728BB58AF800100009E0500003D000000000000000000
311
000000008002000031394434354231422D324545302D343839442D393135332D3439314243453542374544332F536368656D61732F436F6D6D6F6E536368656D612E786D6C504B01021400140006080800E2836E572CCEBD668A040000E01200003E000000000000000000000000005B04000031394434354231422D324545
311
302D343839442D393135332D3439314243453542374544332F536368656D61732F47656E65726963536368656D612E786D6C504B01021400140006080800E2836E576180134D5F0100006B03000045000000000000000000000000004109000031394434354231422D324545302D343839442D393135332D34393142434535
311
42374544332F536368656D61732F52656E6465724D6174657269616C536368656D612E786D6C504B01021400140006080800E2836E570BFD25CF51000000570000004700000000000000000000000000030B000031394434354231422D324545302D343839442D393135332D3439314243453542374544332F417373657444
311
6174612F41737365745461626C654F66436F6E74656E74732E62696E504B01021400140006080800E2836E57F865834058000000680000004500000000000000000000000000B90B000031394434354231422D324545302D343839442D393135332D3439314243453542374544332F4173736574446174612F53747265616D
311
56657273696F6E5461626C652E696E66504B01021400140006080800E2836E5796732AAA340100009A0400003600000000000000000000000000740C000031394434354231422D324545302D343839442D393135332D3439314243453542374544332F4173736574446174612F636E782E786D6C504B010214001400060808
311
00E2836E57C4119A73080100004F0300003400000000000000000000000000FC0D000031394434354231422D324545302D343839442D393135332D3439314243453542374544332F536368656D61732F636E782E786D6C504B01021400140006080800E2836E57410A3D5871000000A40000002C0000000000000000000000
311
0000560F000031394434354231422D324545302D343839442D393135332D3439314243453542374544332F636E782E786D6C504B01021400140006080800E2836E57510857D47D000000A3000000070000000000000000000000000011100000636E782E786D6C504B01021400140006080800E2836E5716E99B5DA6000000
311
350100001300000000000000000000000000B31000005B436F6E74656E745F54797065735D2E786D6C504B01021400140006080800E2836E573DEE336E64000000790000001B000000000000000000000000008A1100006175746F6465736B2D64657369676E2D7061636B6167652E786D6C504B01021400140006080800E2
311
836E57D3944A69F90000009601000037000000000000000000000000002712000031394434354231422D324545302D343839442D393135332D3439314243453542374544332F4173736574446174612F636F72652E786D6C504B01021400140006080800E2836E5778C0B23FF8000000940100003500000000000000000000
311
0000007513000031394434354231422D324545302D343839442D393135332D3439314243453542374544332F536368656D61732F636F72652E786D6C504B01021400140006080800E2836E5739E7301F00010000D70100002D00000000000000000000000000C014000031394434354231422D324545302D343839442D3931
311
35332D3439314243453542374544332F636F72652E786D6C504B01021400140006080800E2836E57C362FA7D08010000B201000008000000000000000000000000000B160000636F72652E786D6C504B050600000000110011005A060000391700000000
310
504B0304140006080800E2836E57000000000000000000000000370000006662782F30443132373734462D383445322D343442352D394433312D4545463443393134463231342F617474726962757465732E62696E504B0304140006080800E2836E57000000000000000000000000350000006662782F3044313237373446
310
2D383445322D343442352D394433312D4545463443393134463231342F76657274696365732E62696E504B0304140006080800E2836E57F270F1330600000004000000360000006662782F30443132373734462D383445322D343442352D394433312D4545463443393134463231342F747269616E676C65732E62696E6366
310
60600000504B0304140006080800E2836E5751464CB48900000043010000360000006662782F30443132373734462D383445322D343442352D394433312D4545463443393134463231342F6469726563746F72792E786D6C9D8F310EC2300C45AF127987122606C71DD918B841D4B851A43646695A717C52A85029031293A5
310
A76FBF6FACEF7DA7264E43906840EF0FA03836E242F406C6DCEE4EA06AC22492573150D1F66C60C640E8938CB705396EEDD86DE9B5042FE27813D640EA63BB001C722AF6E55CB61E4863F58284D5D3F53DD715CE1C3985E63FD7F1B7EBDD617E9F1E504B0304140006080800E2836E579EDD4B0A3A070000201C0000340000
310
006662782F30443132373734462D383445322D343442352D394433312D4545463443393134463231342F6F626A656374732E786D6CDD59DB6EDB3810FD1542FBB2FBA09B6FB10BC5456C278551A40D6A74B16F022DD30E37BA81941267BF7E8714294BB26C2BD9162836011287A186336766CE0C47DEC77D14A267C2384DE2
310
6BC3B51C039138483634DE5D1B79B635C706FA38451E4B92ACB2CF40318EC8B521968DA9B763499EAAA50DD9E23C6CAEDECDFE423C203131501062CEAF0D1E3C92085B38CF920DE14FD60667D8DA6DF7966B151BEB62770CA78F8DA352CC489C81AAB01E8314A5815BFF134CB2A79E2D36D4B6F5BA6DEB9FD9664BC3EB8AD2
310
9867380E8EB46AC8E975D3AAEF0E16B7BDE1C41C0E067D7330EAB9E6EC6EB630DDABBE331FCDE7939BDB8981A6DE3A49C2D201298937E0C55763EA7AB6F84F69BE42A14DEF208963122834DB366C88924B096F625203D695A6551C52D85A59E87734FEC4B64EA0D454AAA1AD8DD3BFABD19BACFF0610789728659C8828E719
310
035F2BEC8B7C703CBB58ADF9857214E18C308A4314D235C30C1C045B0B07D5C4886C11A290C04C7A51CBABEA0A817D3997DAB4DCE66128F2D798CA4CF3211F49C6A566F41FC20EDA574F039DC0DA9CC6D958199BBDA62062E2D972B1F85FBFA7FE590089B621DE41B480996253BFD7C06B2EB860B930A69FEFD6FB95E087F6
310
C35396A4846522F26432ABBCD31EAC8416045F07500A5CEBBE3BA0F20DA0FF02C897BA200F3CC7E87EB01F68DB198EF9366111780739C874E08783C4C7A34F9E5D3E3C45A8C695A73085B4FD4198D6CCA89D5D8174EA3D43D027ACAF8C5B05388498BEA7B1C87308141426B0047CBF5DEF8DE912C81416E1291C82F5F0EDD9
310
E223825F851CE09B8687DAE8B783A374C234F3ECE0AB4F10338C06A5AB6A369EC277F843F0BD59AC3EAF72B6C501B95789BD205B1AD30C8A69BB4235D06B29FF7DF94566E4913DB55D019CB34B0471B4F865A5FC82A463401551870BD7C8957B0AE91E86382649CED57A1B51054998307FFDEA1739DC7AD69F3A088AC320BF
310
4504B4921954F780D15480624C957925135A079C040FAA00DC154EF5D7387812F0FA0130D67BF480A8C5AC29348F521F47491E0BFA3E0EEFA66956DF915FAE3BE93993DE7832D2C672295E678FA6865279714E84D31387CC6BDE52ACA12517793400B66CB320809E29CFFC24C501CDDA63A16184CA5000FBACCA1BBADDE61C
310
48BD159686C656DF1D22A7F2B33CE4BCF6EA109F467847FC2D1615AEF5BC1A40A5706D412B32BB30E19CC684CB0EE588B91AA83816104111B75A6A4B1052EE4724C3EF893F59F21AE1C7C836F4A197CA44377B39FAB482AA7A9E92283AB724F6A5FDAF3EC7511A165DDA250CDC5EE384565C85D2E2886788371F67BEB321B2
310
E9BE24BDE4058D6F27E993778B3F010FC33F1D1E7D0485D61B6AE465CFBAD6D09D88AF3190CA68E8F6AFB4232E61A58FCA440F12E6D03505AFFE0BA1BBC76E84D6E91C4EC2AD4FC3308FFCA21E642482160C6739EB94AFA3A173E47CC50B8D84A89CB4A52134C89D4953F61EBAFB00AB64F3718A342BC7805134863B5A2743
310
8EAC680D61E90B791F15D7AECBDE7FBBD4FFCC97D57BCA13797D49D8A655D37A1BA13B30DD3008BA5415AE8C232979EA55932F921797CB380CB410C56FC52D41450823CF540C26E40DA8F5FEC05F70160091AEE46F730619B1219B434F5113A7C61CC6140ED5D2749F5ABDE900D989F2516BBC96825023983660C1B3F7E243
310
F80D83ABA1F3E3B6EA6AEC627D290A9B058395831E67647DFDB46A488195CE4F3F088CC84B43825A9D8B46EE8CA8EFCB43BFDA90A02CFABE3CF378F69847EB185351194558E04DFAE1A3BC4B5EDB7051B067B757A3DB797F62F617B38939B89A2CCCD9556F643AE3C562763B984F7A57339B119EE42C20DCEED98EAF7BA734
310
DEE9C028A0EB72A380A9C2E5AB9F8EE7A683FFC7378A3059E353B1F8AB5E28CA764F34648D5CEC7AA16825EAF5DBBA7FF788A8DB8BD89B3AE76256A003FC7CD90232D2F5BE7B6BA145EB4EA25DE74A457C63E13D795BF9E935A646E8ADF5A1B6A38DF2EB5C0CB3A7962AA56FB792D79C616F3CBA5DB8E664307680C71CC71C
310
4F5CD75C0C86FDF1EDA83FBA9BC3104CDD23542DEC5A577E090ED5CA56C668300DE6494861284F36684712B801C1D4A103BFB2887079B38106409571FD46A0C3D3CFC54C35C3EB503F1D3C62184C87AA22E7010C45E1D6716DA875F41B8C41C524520EA7AC27283C2ADA0D94337A6D40086414EA8BB58671961C1E4AE98D71
310
25B80DC73B71672A9E2AFF3E3C26D0815839D855EEE9828BB2AC169D301C48E57B02603BDD90BCDF74AD0EC2197C5CE75969CC61E1608D0241BF10288C83A9DF9382770FC473DE2ED7927B6A90749ACC9F8D8342AA9961B693E3F50ADE378B075B4CC6975F511AE63BE1CE73F5BE26C9147D46981743280F0243999962710F
310
9F7FB01F5802AF982274472108D0EFFBF1E80F7B9E445112174BF68D7A5185568FF0DA6963EB911F342E8E3BB465DFA3C6FA30B7E2C4C21BFE040BE05A46C56CB480B81600253D5502407B44F8021EABED5F2E902A029516B6DABA0A78E44C1F4122897739226DAA1B2A0348C805D0AA98D3961FF482673318824FFF05504B
310
0304140006080800E2836E576F3CB5D93E01000046050000300000006662782F30443132373734462D383445322D343442352D394433312D4545463443393134463231342F636E782E786D6CCD94C14EC3300C865FA5CABD69B34D084D692671E00938206E69EA95B034AE1217B1B72719DD00A1210E93C62D727E4BFF67FF
310
B2DCBC0DAE7885102DFA86095EB302BCC1CEFABE61136DCB5B566C940C88F445C60AAF0768582E3325FB80D338973AD8EAC9E5AAB37E37173551B0ED441059619C8EB161D13CC3A0B99E083B883BDE69D25CF00011A76020F5931D60EE37013441C7D4A25E2C4B214AB17A1037EBA558D7AB275965A5922DA29BF5D613041C
310
0B83E9E193995A56F95BC929D859930998FA74C65BEB6595FE958CC9ADEF671DEDC7AC1B47678DA634A60A0D019549047A90D58758C92AF37EA3BEBF7B3C3A283A1BC01086FD950620CE0DE0648CA724FC8DFF20FC1D1BDB97847BAD6D9F859D6D5D0CF598D698E2FA73FF2945DAF7EEFF85FE64ECF2994FA784ACF97FC847
310
5F1722AE0E272F2D3D5F40F50E504B0304140006080800E2836E574E9097947E000000A30000000B0000006662782F636E782E786D6C4D8CD10A832018465F45FE7BB774FFA8200DB6F43D6259C84CC3E5D8E34F4717BBFAE0F09DD3F59FD591B7892F1BBC0076AA8018FF0893F58B80B4CFB401D2CB2E86B0FFDD80F87135
310
020A06D92D31A4ED409399C7E40A75D63F0F580D8CD7356ADAA0E214F176A5ED706154298DF796A1E60CB3712E4A9E5F2F6FC9CB2F504B0304140006080800E2836E57A6D797065F0000008200000007000000636E782E786D6C4DCB3B0E80201045D1AD90E9FD7516806B51190811670C8A61F982B1B0BAC9C97B72CA7B10
310
37C6D3332918DA1E04D2CAC69353902EDB8C20262D23F3F59B81A079470595414B17391D1F19B4730A5583A7ED43BBE4025D9592775E5ADFFA01504B0304140006080800E2836E574FEB6A7CA0000000F4000000130000005B436F6E74656E745F54797065735D2E786D6C7D8F4B0EC2300C44AF1279DFA6B0400835ED02B8
310
011730C16D239A8F121795DB93D02D6269CFBC19BBED573B8B17C564BC53B0AB1B10E4B47F18372A5878A88E20FAAEBDBD032591BD2E299898C349CAA427B2986A1FC86565F0D122E7318E32A07EE24872DF3407A9BD63725C71C980AEBDD080CBCCE2BAE6F5D69B7110E7CD57AA146008B3D1C8F92C5954F993BB1BF787F3
310
9A89ABC491D09600F9FDA2FB00504B0304140006080800E2836E573DEE336E64000000790000001B0000006175746F6465736B2D64657369676E2D7061636B6167652E786D6C35CBC10E83200C00D05F21DCA56CA76D41FC96062B120735B69A7DBE268BB7777961F8D5AF396893C2ADB70FE7ADA196782C2DF776D7A97B59
310
33C430F15651E5469C55D70F80A4992A3ADC954792C525AE70A1E4D6AD9816CC044FEFDF01FE3FDE907802504B0304140006080800E2836E57D5F84FC8F8000000960100003B0000006662782F30443132373734462D383445322D343442352D394433312D4545463443393134463231342F7265736F75726365732F636F72
310
652E786D6C8550CB6E833010FC15B47703C6B481C838A289FA053DF566990DB5126CE447D5CFAF1DA8D49E7ADAD5ECCCECEEF0D3D7722F3ED1796DCD00B4ACA140A3ECA4CD3C400C57D2417112DC591B7ED1A03072C101320C82CFCEC675879435014D468D9D7007A5F718A050F7D40CE0D5072EB294312486BF95AB543739
310
6349CB8D27788C7ADAA57A4A6EFAAAD181E8CFFDE55CD391B4ACA1A47D622D19DBFA40BABEA31D652FAFE3E5C0AB2C163CE8E567BB7228034E209ABA61845242DB37FA7C64F458B7EFBCCA4CC17D70E9E77D69FE0E84436FA353E879B54DFFB8C675FADF356A1358B3BB6E0A0F82A6231F03C1AB9C522A8F0853CD898A6F50
310
4B0304140006080800E2836E57249D7E41F1000000B1010000310000006662782F30443132373734462D383445322D343442352D394433312D4545463443393134463231342F636F72652E786D6C8D50CB6EC32010FC158B3BB617D3E6214CA436F617F4D41B02E2A0C460F1A8FAF985D895DA5B4E8B666798D961A7EFF95E
310
7D691F8CB33D82BA4595B6D22963A71EA578C17B549D38F3CEC53F34545931EB1E151871367997960D92CE466D0B6A9DD21B2842D01155F29E1F3D0AF2AA67518B143323DCEA45C89B98740DF5CAE32C9AF9572ABD16512BC4494B3A0C80817EC0EBB183634B3F5953989CA564D4666554763717A33DE2ED19C86E4747BCA7
310
03C194BEBDE0C3B9033C0C237D3F001D0950D614316721FA7CF3F649B9EE59F92AFC97392DEA89CCC6C68E6C86AB22200E39CF63C159530ACCE3D16E9EA56CFE03504B0304140006080800E2836E5753BE1ED053010000DD0200000C0000006662782F636F72652E786D6C8D525D6F832014FD2B86775494ADB6419AAECD7E
310
C19EF646913A52058360FAF3077EC4F9B06E314172EEBDE7DC7302393EDA261A84E9A5562540710A22A1B8AEA4AA4BE0EC0D16203A5262B4B63FDA40A4582B4A106040496DB4EB66886B65850AA8D2959841D6F7C2828837FE52829E7F8996C5CC59DFD1DFE38EF13BAB458CE2A98F12E764358FCACAB3C99B1406D0FD797F
310
39A7E804719E21885F720C4F38DDC1625FA002E56FEFA7CB8E246198122BDB459D1BC1ACA800CDD22C870841843FD0EB214787147F92247452D25BE33DCFA2C11DA0B7EB832413BEE1735DF5379F93CAE6D9CC374DF48022BFDE58A02409F9F8DF18DE36432FECF3B3ECDA2C16EE1E1A04B7DA605FA9B45B4B036B9CF0D469
310
347E2499AA9E7924F88D277BC2F39CC307C554ED5763D65FAFCE06F5ED4E9D3070B08F4869D3B2665D6E5A713D57A18DA5659CEB469BFF4C2F56973093F030E937504B0304140006080800E2836E57E6CB334E07010000B201000008000000636F72652E786D6C8D50416EC32010FC0ADA3B3618B771224CE426EA0B7AEA8D
310
1AE2A0D860191CB5BF2FC4546A6F3D2D9A99DD19861F3FA711DDF5E28DB32DD08200D2B677CAD8A185355C7003E828F8E25CF8250364E5A45B4830083E2C6E9D33D43B1BB44DA8754A67507AAF03A07E8C8F167C7FD5932CE41AA2C2DF8A59F63739E882169B4EF060A69FD57ED1326805A22215C394625ABFD1E703A30752
310
BFF33229055F57A3B29551D1DD5C8C5E40EC4FFBF389D00ED7ACA2B87E6235EE6AB2C3CDBEA10D652FAFDD79C7CBB42CB80F4BFC733E127306E4E53DF9F272A304FF706ECC82184A2167C72F10849789F8137A9DD53F421B1B58950F6E1B1E048D811E44344E0DC6F1A837CED4B6F806504B01021400140006080800E2836E
310
570000000000000000000000003700000000000000000000000000000000006662782F30443132373734462D383445322D343442352D394433312D4545463443393134463231342F617474726962757465732E62696E504B01021400140006080800E2836E5700000000000000000000000035000000000000000000000000
310
00550000006662782F30443132373734462D383445322D343442352D394433312D4545463443393134463231342F76657274696365732E62696E504B01021400140006080800E2836E57F270F13306000000040000003600000000000000000000000000A80000006662782F30443132373734462D383445322D343442352D
310
394433312D4545463443393134463231342F747269616E676C65732E62696E504B01021400140006080800E2836E5751464CB489000000430100003600000000000000000000000000020100006662782F30443132373734462D383445322D343442352D394433312D4545463443393134463231342F6469726563746F7279
310
2E786D6C504B01021400140006080800E2836E579EDD4B0A3A070000201C00003400000000000000000000000000DF0100006662782F30443132373734462D383445322D343442352D394433312D4545463443393134463231342F6F626A656374732E786D6C504B01021400140006080800E2836E576F3CB5D93E01000046
310
05000030000000000000000000000000006B0900006662782F30443132373734462D383445322D343442352D394433312D4545463443393134463231342F636E782E786D6C504B01021400140006080800E2836E574E9097947E000000A30000000B00000000000000000000000000F70A00006662782F636E782E786D6C50
310
4B01021400140006080800E2836E57A6D797065F0000008200000007000000000000000000000000009E0B0000636E782E786D6C504B01021400140006080800E2836E574FEB6A7CA0000000F40000001300000000000000000000000000220C00005B436F6E74656E745F54797065735D2E786D6C504B0102140014000608
310
0800E2836E573DEE336E64000000790000001B00000000000000000000000000F30C00006175746F6465736B2D64657369676E2D7061636B6167652E786D6C504B01021400140006080800E2836E57D5F84FC8F8000000960100003B00000000000000000000000000900D00006662782F30443132373734462D383445322D
310
343442352D394433312D4545463443393134463231342F7265736F75726365732F636F72652E786D6C504B01021400140006080800E2836E57249D7E41F1000000B10100003100000000000000000000000000E10E00006662782F30443132373734462D383445322D343442352D394433312D454546344339313446323134
310
2F636F72652E786D6C504B01021400140006080800E2836E5753BE1ED053010000DD0200000C00000000000000000000000000211000006662782F636F72652E786D6C504B01021400140006080800E2836E57E6CB334E07010000B201000008000000000000000000000000009E110000636F72652E786D6C504B05060000
310
00000E000E0080040000CB1200000000
  0
XRECORD
  5
8145
102
{ACAD_REACTORS
330
8140
102
}
330
8140
100
AcDbXrecord
280
     1
270
     1
271
     1
  0
XRECORD
  5
8144
102
{ACAD_REACTORS
330
8140
102
}
330
8140
100
AcDbXrecord
280
     1
270
     1
271
     1
  0
XRECORD
  5
8146
102
{ACAD_REACTORS
330
8140
102
}
330
8140
100
AcDbXrecord
280
     1
270
     1
271
     1
  0
XRECORD
  5
8143
102
{ACAD_REACTORS
330
8140
102
}
330
8140
100
AcDbXrecord
280
     1
270
     1
271
     1
  0
XRECORD
  5
85AE
102
{ACAD_REACTORS
330
85AD
102
}
330
85AD
100
AcDbXrecord
280
     1
102
DISPLAYNAME
  1
Imperial24
102
FLAGS
 90
        0
  0
CELLSTYLEMAP
  5
8575
102
{ACAD_REACTORS
330
8574
102
}
330
8574
100
AcDbCellStyleMap
 90
        3
300
CELLSTYLE
  1
TABLEFORMAT_BEGIN
 90
        5
170
     1
 91
        0
 92
    32768
 62
   257
 93
        1
300
CONTENTFORMAT
  1
CONTENTFORMAT_BEGIN
 90
        0
 91
        0
 92
      512
 93
        0
300

 40
0.0
140
1.0
 94
        5
 62
     0
340
8173
144
0.25
309
CONTENTFORMAT_END
171
     0
 94
        0
309
TABLEFORMAT_END
  1
CELLSTYLE_BEGIN
 90
        1
 91
        1
300
_TITLE
309
CELLSTYLE_END
300
CELLSTYLE
  1
TABLEFORMAT_BEGIN
 90
        5
170
     1
 91
        0
 92
        0
 62
   257
 93
        1
300
CONTENTFORMAT
  1
CONTENTFORMAT_BEGIN
 90
        0
 91
        0
 92
      512
 93
        0
300

 40
0.0
140
1.0
 94
        5
 62
     0
340
8173
144
0.18
309
CONTENTFORMAT_END
171
     0
 94
        0
309
TABLEFORMAT_END
  1
CELLSTYLE_BEGIN
 90
        2
 91
        1
300
_HEADER
309
CELLSTYLE_END
300
CELLSTYLE
  1
TABLEFORMAT_BEGIN
 90
        5
170
     1
 91
        0
 92
        0
 62
   257
 93
        1
300
CONTENTFORMAT
  1
CONTENTFORMAT_BEGIN
 90
        0
 91
        0
 92
      512
 93
        0
300

 40
0.0
140
1.0
 94
        2
 62
     0
340
8173
144
0.18
309
CONTENTFORMAT_END
171
     0
 94
        0
309
TABLEFORMAT_END
  1
CELLSTYLE_BEGIN
 90
        3
 91
        2
300
_DATA
309
CELLSTYLE_END
  0
XRECORD
  5
85AB
102
{ACAD_REACTORS
330
8574
102
}
330
8574
100
AcDbXrecord
280
     1
102
ACAD_ROUNDTRIP_PRE2007_TABLESTYLE
 90
      512
 91
        0
  1

 92
      512
 93
        0
  2

 94
      512
 95
        0
  3

  0
XRECORD
  5
8586
102
{ACAD_REACTORS
330
8585
102
}
330
8585
100
AcDbXrecord
280
     1
102
RTVSPost2010Prop28
280
     1
102
RTVSPost2010PropOp28
 70
     1
102
RTVSPost2010Prop29
280
     1
102
RTVSPost2010PropOp29
 70
     1
102
RTVSPost2010Prop30
280
     0
102
RTVSPost2010PropOp30
 70
     1
102
RTVSPost2010Prop31
280
     0
102
RTVSPost2010PropOp31
 70
     1
102
RTVSPost2010Prop32
280
     0
102
RTVSPost2010PropOp32
 70
     1
102
RTVSPost2010Prop33
280
     0
102
RTVSPost2010PropOp33
 70
     1
102
RTVSPost2010Prop34
280
     0
102
RTVSPost2010PropOp34
 70
     1
102
RTVSPost2010Prop35
280
     0
102
RTVSPost2010PropOp35
 70
     1
102
RTVSPost2010Prop36
280
     0
102
RTVSPost2010PropOp36
 70
     1
102
RTVSPost2010Prop37
 90
       50
102
RTVSPost2010PropOp37
 70
     1
102
RTVSPost2010Prop38
140
0.0
102
RTVSPost2010PropOp38
 70
     1
102
RTVSPost2010Prop39
140
1.0
102
RTVSPost2010PropOp39
 70
     1
102
RTVSPost2010Prop40
 90
        0
102
RTVSPost2010PropOp40
 70
     1
102
RTVSPost2010Prop41ColorIndex
 90
       18
102
RTVSPost2010Prop41ColorRGB
 90
        0
102
RTVSPost2010PropOp41
 70
     1
102
RTVSPost2010Prop42
 90
       50
102
RTVSPost2010PropOp42
 70
     1
102
RTVSPost2010Prop43
 90
        3
102
RTVSPost2010PropOp43
 70
     1
102
RTVSPost2010Prop44ColorIndex
 90
        5
102
RTVSPost2010Prop44ColorRGB
 90
      255
102
RTVSPost2010PropOp44
 70
     1
102
RTVSPost2010Prop45
280
     0
102
RTVSPost2010PropOp45
 70
     1
102
RTVSPost2010Prop46
 90
       50
102
RTVSPost2010PropOp46
 70
     1
102
RTVSPost2010Prop47
 90
       50
102
RTVSPost2010PropOp47
 70
     1
102
RTVSPost2010Prop48
 90
       50
102
RTVSPost2010PropOp48
 70
     1
102
RTVSPost2010Prop49
280
     0
102
RTVSPost2010PropOp49
 70
     1
102
RTVSPost2010Prop50
 90
       50
102
RTVSPost2010PropOp50
 70
     1
102
RTVSPost2010Prop51ColorIndex
 90
      256
102
RTVSPost2010Prop51ColorRGB
 90
-16777216
102
RTVSPost2010PropOp51
 70
     0
102
RTVSPost2010Prop52
140
1.0
102
RTVSPost2010PropOp52
 70
     0
102
RTVSPost2010Prop53
 90
        2
102
RTVSPost2010PropOp53
 70
     1
102
RTVSPost2010Prop54
  1
strokes_ogs.tif
102
RTVSPost2010PropOp54
 70
     1
102
RTVSPost2010Prop55
280
     0
102
RTVSPost2010PropOp55
 70
     1
102
RTVSPost2010Prop56
140
1.0
102
RTVSPost2010PropOp56
 70
     1
102
RTVSPost2010Prop57
140
1.0
102
RTVSPost2010PropOp57
 70
     1
102
RTVSPropertyOp0
 70
     1
102
RTVSPropertyOp1
 70
     1
102
RTVSPropertyOp2
 70
     1
102
RTVSPropertyOp3
 70
     1
102
RTVSPropertyOp4
 70
     1
102
RTVSPropertyOp5
 70
     1
102
RTVSPropertyOp6
 70
     1
102
RTVSPropertyOp7
 70
     1
102
RTVSPropertyOp8
 70
     1
102
RTVSPropertyOp9
 70
     1
102
RTVSPropertyOp10
 70
     1
102
RTVSPropertyOp11
 70
     1
102
RTVSPropertyOp12
 70
     1
102
RTVSPropertyOp13
 70
     1
102
RTVSPropertyOp14
 70
     1
102
RTVSPropertyOp15
 70
     1
102
RTVSPropertyOp16
 70
     1
102
RTVSPropertyOp17
 70
     1
102
RTVSPropertyOp18
 70
     1
102
RTVSPropertyOp19
 70
     1
102
RTVSPropertyOp20
 70
     1
102
RTVSPropertyOp21
 70
     1
102
RTVSPropertyOp22
 70
     1
102
RTVSPropertyOp23
 70
     1
102
RTVSPropertyOp24
 70
     1
102
RTVSPropertyOp25
 70
     1
102
RTVSPropertyOp26
 70
     1
102
RTVSPropertyOp27
 70
     1
102
RTVSPropertyOp28
 70
     1
102
RTVSPropertyOp29
 70
     1
102
RTVSPropertyOp30
 70
     1
102
RTVSPropertyOp31
 70
     1
102
RTVSPropertyOp32
 70
     1
102
RTVSPropertyOp33
 70
     1
102
RTVSPropertyOp34
 70
     1
102
RTVSPropertyOp35
 70
     1
102
RTVSPropertyOp36
 70
     1
102
RTVSPropertyOp37
 70
     1
102
RTVSPropertyOp38
 70
     1
102
RTVSPropertyOp39
 70
     1
102
RTVSPropertyOp40
 70
     1
102
RTVSPropertyOp41
 70
     1
102
RTVSPropertyOp42
 70
     1
102
RTVSPropertyOp43
 70
     1
102
RTVSPropertyOp44
 70
     1
102
RTVSPropertyOp45
 70
     1
102
RTVSPropertyOp46
 70
     1
102
RTVSPropertyOp47
 70
     1
102
RTVSPropertyOp48
 70
     1
102
RTVSPropertyOp49
 70
     1
102
RTVSPropertyOp50
 70
     1
102
RTVSPropertyOp51
 70
     0
102
RTVSPropertyOp52
 70
     0
102
RTVSPropertyOp53
 70
     1
102
RTVSPropertyOp54
 70
     1
102
RTVSPropertyOp55
 70
     1
102
RTVSPropertyOp56
 70
     1
102
RTVSPropertyOp57
 70
     1
102
RTVSPropertyOp58
 70
     1
102
RTVSPropertyOp59
 70
     1
102
RTVSPropertyOp60
 70
     1
102
RTVSPropertyOp61
 70
     1
102
RTVSPropertyOp62
 70
     1
  0
XRECORD
  5
8584
102
{ACAD_REACTORS
330
8583
102
}
330
8583
100
AcDbXrecord
280
     1
102
RTVSPost2010Prop28
280
     0
102
RTVSPost2010PropOp28
 70
     1
102
RTVSPost2010Prop29
280
     1
102
RTVSPost2010PropOp29
 70
     1
102
RTVSPost2010Prop30
280
     1
102
RTVSPost2010PropOp30
 70
     1
102
RTVSPost2010Prop31
280
     0
102
RTVSPost2010PropOp31
 70
     1
102
RTVSPost2010Prop32
280
     0
102
RTVSPost2010PropOp32
 70
     1
102
RTVSPost2010Prop33
280
     0
102
RTVSPost2010PropOp33
 70
     1
102
RTVSPost2010Prop34
280
     0
102
RTVSPost2010PropOp34
 70
     1
102
RTVSPost2010Prop35
280
     0
102
RTVSPost2010PropOp35
 70
     1
102
RTVSPost2010Prop36
280
     0
102
RTVSPost2010PropOp36
 70
     1
102
RTVSPost2010Prop37
 90
       50
102
RTVSPost2010PropOp37
 70
     1
102
RTVSPost2010Prop38
140
0.0
102
RTVSPost2010PropOp38
 70
     1
102
RTVSPost2010Prop39
140
1.0
102
RTVSPost2010PropOp39
 70
     1
102
RTVSPost2010Prop40
 90
        0
102
RTVSPost2010PropOp40
 70
     1
102
RTVSPost2010Prop41ColorIndex
 90
       18
102
RTVSPost2010Prop41ColorRGB
 90
        0
102
RTVSPost2010PropOp41
 70
     1
102
RTVSPost2010Prop42
 90
       50
102
RTVSPost2010PropOp42
 70
     1
102
RTVSPost2010Prop43
 90
        3
102
RTVSPost2010PropOp43
 70
     1
102
RTVSPost2010Prop44ColorIndex
 90
        5
102
RTVSPost2010Prop44ColorRGB
 90
      255
102
RTVSPost2010PropOp44
 70
     1
102
RTVSPost2010Prop45
280
     0
102
RTVSPost2010PropOp45
 70
     1
102
RTVSPost2010Prop46
 90
       50
102
RTVSPost2010PropOp46
 70
     1
102
RTVSPost2010Prop47
 90
       50
102
RTVSPost2010PropOp47
 70
     1
102
RTVSPost2010Prop48
 90
       50
102
RTVSPost2010PropOp48
 70
     1
102
RTVSPost2010Prop49
280
     0
102
RTVSPost2010PropOp49
 70
     1
102
RTVSPost2010Prop50
 90
       50
102
RTVSPost2010PropOp50
 70
     1
102
RTVSPost2010Prop51ColorIndex
 90
      256
102
RTVSPost2010Prop51ColorRGB
 90
-16777216
102
RTVSPost2010PropOp51
 70
     0
102
RTVSPost2010Prop52
140
1.0
102
RTVSPost2010PropOp52
 70
     0
102
RTVSPost2010Prop53
 90
        2
102
RTVSPost2010PropOp53
 70
     1
102
RTVSPost2010Prop54
  1
strokes_ogs.tif
102
RTVSPost2010PropOp54
 70
     1
102
RTVSPost2010Prop55
280
     0
102
RTVSPost2010PropOp55
 70
     1
102
RTVSPost2010Prop56
140
1.0
102
RTVSPost2010PropOp56
 70
     1
102
RTVSPost2010Prop57
140
1.0
102
RTVSPost2010PropOp57
 70
     1
102
RTVSPropertyOp0
 70
     1
102
RTVSPropertyOp1
 70
     1
102
RTVSPropertyOp2
 70
     1
102
RTVSPropertyOp3
 70
     1
102
RTVSPropertyOp4
 70
     1
102
RTVSPropertyOp5
 70
     1
102
RTVSPropertyOp6
 70
     1
102
RTVSPropertyOp7
 70
     1
102
RTVSPropertyOp8
 70
     1
102
RTVSPropertyOp9
 70
     1
102
RTVSPropertyOp10
 70
     1
102
RTVSPropertyOp11
 70
     1
102
RTVSPropertyOp12
 70
     1
102
RTVSPropertyOp13
 70
     1
102
RTVSPropertyOp14
 70
     1
102
RTVSPropertyOp15
 70
     1
102
RTVSPropertyOp16
 70
     1
102
RTVSPropertyOp17
 70
     1
102
RTVSPropertyOp18
 70
     1
102
RTVSPropertyOp19
 70
     1
102
RTVSPropertyOp20
 70
     1
102
RTVSPropertyOp21
 70
     1
102
RTVSPropertyOp22
 70
     1
102
RTVSPropertyOp23
 70
     1
102
RTVSPropertyOp24
 70
     1
102
RTVSPropertyOp25
 70
     1
102
RTVSPropertyOp26
 70
     1
102
RTVSPropertyOp27
 70
     1
102
RTVSPropertyOp28
 70
     1
102
RTVSPropertyOp29
 70
     1
102
RTVSPropertyOp30
 70
     1
102
RTVSPropertyOp31
 70
     1
102
RTVSPropertyOp32
 70
     1
102
RTVSPropertyOp33
 70
     1
102
RTVSPropertyOp34
 70
     1
102
RTVSPropertyOp35
 70
     1
102
RTVSPropertyOp36
 70
     1
102
RTVSPropertyOp37
 70
     1
102
RTVSPropertyOp38
 70
     1
102
RTVSPropertyOp39
 70
     1
102
RTVSPropertyOp40
 70
     1
102
RTVSPropertyOp41
 70
     1
102
RTVSPropertyOp42
 70
     1
102
RTVSPropertyOp43
 70
     1
102
RTVSPropertyOp44
 70
     1
102
RTVSPropertyOp45
 70
     1
102
RTVSPropertyOp46
 70
     1
102
RTVSPropertyOp47
 70
     1
102
RTVSPropertyOp48
 70
     1
102
RTVSPropertyOp49
 70
     1
102
RTVSPropertyOp50
 70
     1
102
RTVSPropertyOp51
 70
     0
102
RTVSPropertyOp52
 70
     0
102
RTVSPropertyOp53
 70
     1
102
RTVSPropertyOp54
 70
     1
102
RTVSPropertyOp55
 70
     1
102
RTVSPropertyOp56
 70
     1
102
RTVSPropertyOp57
 70
     1
102
RTVSPropertyOp58
 70
     1
102
RTVSPropertyOp59
 70
     1
102
RTVSPropertyOp60
 70
     1
102
RTVSPropertyOp61
 70
     1
102
RTVSPropertyOp62
 70
     1
  0
XRECORD
  5
8592
102
{ACAD_REACTORS
330
8591
102
}
330
8591
100
AcDbXrecord
280
     1
102
RTVSPost2010Prop28
280
     0
102
RTVSPost2010PropOp28
 70
     1
102
RTVSPost2010Prop29
280
     1
102
RTVSPost2010PropOp29
 70
     1
102
RTVSPost2010Prop30
280
     1
102
RTVSPost2010PropOp30
 70
     1
102
RTVSPost2010Prop31
280
     0
102
RTVSPost2010PropOp31
 70
     1
102
RTVSPost2010Prop32
280
     0
102
RTVSPost2010PropOp32
 70
     1
102
RTVSPost2010Prop33
280
     0
102
RTVSPost2010PropOp33
 70
     1
102
RTVSPost2010Prop34
280
     0
102
RTVSPost2010PropOp34
 70
     1
102
RTVSPost2010Prop35
280
     0
102
RTVSPost2010PropOp35
 70
     1
102
RTVSPost2010Prop36
280
     0
102
RTVSPost2010PropOp36
 70
     1
102
RTVSPost2010Prop37
 90
       50
102
RTVSPost2010PropOp37
 70
     1
102
RTVSPost2010Prop38
140
0.0
102
RTVSPost2010PropOp38
 70
     1
102
RTVSPost2010Prop39
140
1.0
102
RTVSPost2010PropOp39
 70
     1
102
RTVSPost2010Prop40
 90
        0
102
RTVSPost2010PropOp40
 70
     1
102
RTVSPost2010Prop41ColorIndex
 90
       18
102
RTVSPost2010Prop41ColorRGB
 90
        0
102
RTVSPost2010PropOp41
 70
     1
102
RTVSPost2010Prop42
 90
       50
102
RTVSPost2010PropOp42
 70
     1
102
RTVSPost2010Prop43
 90
        3
102
RTVSPost2010PropOp43
 70
     1
102
RTVSPost2010Prop44ColorIndex
 90
        5
102
RTVSPost2010Prop44ColorRGB
 90
      255
102
RTVSPost2010PropOp44
 70
     1
102
RTVSPost2010Prop45
280
     0
102
RTVSPost2010PropOp45
 70
     1
102
RTVSPost2010Prop46
 90
       50
102
RTVSPost2010PropOp46
 70
     1
102
RTVSPost2010Prop47
 90
       50
102
RTVSPost2010PropOp47
 70
     1
102
RTVSPost2010Prop48
 90
       50
102
RTVSPost2010PropOp48
 70
     1
102
RTVSPost2010Prop49
280
     0
102
RTVSPost2010PropOp49
 70
     1
102
RTVSPost2010Prop50
 90
       50
102
RTVSPost2010PropOp50
 70
     1
102
RTVSPost2010Prop51ColorIndex
 90
      256
102
RTVSPost2010Prop51ColorRGB
 90
-16777216
102
RTVSPost2010PropOp51
 70
     0
102
RTVSPost2010Prop52
140
1.0
102
RTVSPost2010PropOp52
 70
     0
102
RTVSPost2010Prop53
 90
        2
102
RTVSPost2010PropOp53
 70
     1
102
RTVSPost2010Prop54
  1
strokes_ogs.tif
102
RTVSPost2010PropOp54
 70
     1
102
RTVSPost2010Prop55
280
     0
102
RTVSPost2010PropOp55
 70
     1
102
RTVSPost2010Prop56
140
1.0
102
RTVSPost2010PropOp56
 70
     1
102
RTVSPost2010Prop57
140
1.0
102
RTVSPost2010PropOp57
 70
     1
102
RTVSPropertyOp0
 70
     1
102
RTVSPropertyOp1
 70
     1
102
RTVSPropertyOp2
 70
     1
102
RTVSPropertyOp3
 70
     1
102
RTVSPropertyOp4
 70
     1
102
RTVSPropertyOp5
 70
     1
102
RTVSPropertyOp6
 70
     1
102
RTVSPropertyOp7
 70
     1
102
RTVSPropertyOp8
 70
     1
102
RTVSPropertyOp9
 70
     1
102
RTVSPropertyOp10
 70
     1
102
RTVSPropertyOp11
 70
     1
102
RTVSPropertyOp12
 70
     1
102
RTVSPropertyOp13
 70
     1
102
RTVSPropertyOp14
 70
     1
102
RTVSPropertyOp15
 70
     1
102
RTVSPropertyOp16
 70
     1
102
RTVSPropertyOp17
 70
     1
102
RTVSPropertyOp18
 70
     1
102
RTVSPropertyOp19
 70
     1
102
RTVSPropertyOp20
 70
     1
102
RTVSPropertyOp21
 70
     1
102
RTVSPropertyOp22
 70
     1
102
RTVSPropertyOp23
 70
     1
102
RTVSPropertyOp24
 70
     1
102
RTVSPropertyOp25
 70
     1
102
RTVSPropertyOp26
 70
     1
102
RTVSPropertyOp27
 70
     1
102
RTVSPropertyOp28
 70
     1
102
RTVSPropertyOp29
 70
     1
102
RTVSPropertyOp30
 70
     1
102
RTVSPropertyOp31
 70
     1
102
RTVSPropertyOp32
 70
     1
102
RTVSPropertyOp33
 70
     1
102
RTVSPropertyOp34
 70
     1
102
RTVSPropertyOp35
 70
     1
102
RTVSPropertyOp36
 70
     1
102
RTVSPropertyOp37
 70
     1
102
RTVSPropertyOp38
 70
     1
102
RTVSPropertyOp39
 70
     1
102
RTVSPropertyOp40
 70
     1
102
RTVSPropertyOp41
 70
     1
102
RTVSPropertyOp42
 70
     1
102
RTVSPropertyOp43
 70
     1
102
RTVSPropertyOp44
 70
     1
102
RTVSPropertyOp45
 70
     1
102
RTVSPropertyOp46
 70
     1
102
RTVSPropertyOp47
 70
     1
102
RTVSPropertyOp48
 70
     1
102
RTVSPropertyOp49
 70
     1
102
RTVSPropertyOp50
 70
     1
102
RTVSPropertyOp51
 70
     0
102
RTVSPropertyOp52
 70
     0
102
RTVSPropertyOp53
 70
     1
102
RTVSPropertyOp54
 70
     1
102
RTVSPropertyOp55
 70
     1
102
RTVSPropertyOp56
 70
     1
102
RTVSPropertyOp57
 70
     1
102
RTVSPropertyOp58
 70
     1
102
RTVSPropertyOp59
 70
     1
102
RTVSPropertyOp60
 70
     1
102
RTVSPropertyOp61
 70
     1
102
RTVSPropertyOp62
 70
     1
  0
XRECORD
  5
859A
102
{ACAD_REACTORS
330
8599
102
}
330
8599
100
AcDbXrecord
280
     1
102
RTVSPost2010Prop28
280
     0
102
RTVSPost2010PropOp28
 70
     1
102
RTVSPost2010Prop29
280
     1
102
RTVSPost2010PropOp29
 70
     1
102
RTVSPost2010Prop30
280
     1
102
RTVSPost2010PropOp30
 70
     1
102
RTVSPost2010Prop31
280
     0
102
RTVSPost2010PropOp31
 70
     1
102
RTVSPost2010Prop32
280
     0
102
RTVSPost2010PropOp32
 70
     1
102
RTVSPost2010Prop33
280
     0
102
RTVSPost2010PropOp33
 70
     1
102
RTVSPost2010Prop34
280
     0
102
RTVSPost2010PropOp34
 70
     1
102
RTVSPost2010Prop35
280
     0
102
RTVSPost2010PropOp35
 70
     1
102
RTVSPost2010Prop36
280
     0
102
RTVSPost2010PropOp36
 70
     1
102
RTVSPost2010Prop37
 90
       50
102
RTVSPost2010PropOp37
 70
     1
102
RTVSPost2010Prop38
140
0.0
102
RTVSPost2010PropOp38
 70
     1
102
RTVSPost2010Prop39
140
1.0
102
RTVSPost2010PropOp39
 70
     1
102
RTVSPost2010Prop40
 90
        0
102
RTVSPost2010PropOp40
 70
     1
102
RTVSPost2010Prop41ColorIndex
 90
       18
102
RTVSPost2010Prop41ColorRGB
 90
        0
102
RTVSPost2010PropOp41
 70
     1
102
RTVSPost2010Prop42
 90
       50
102
RTVSPost2010PropOp42
 70
     1
102
RTVSPost2010Prop43
 90
        3
102
RTVSPost2010PropOp43
 70
     1
102
RTVSPost2010Prop44ColorIndex
 90
        5
102
RTVSPost2010Prop44ColorRGB
 90
      255
102
RTVSPost2010PropOp44
 70
     1
102
RTVSPost2010Prop45
280
     0
102
RTVSPost2010PropOp45
 70
     1
102
RTVSPost2010Prop46
 90
       50
102
RTVSPost2010PropOp46
 70
     1
102
RTVSPost2010Prop47
 90
       50
102
RTVSPost2010PropOp47
 70
     1
102
RTVSPost2010Prop48
 90
       50
102
RTVSPost2010PropOp48
 70
     1
102
RTVSPost2010Prop49
280
     0
102
RTVSPost2010PropOp49
 70
     1
102
RTVSPost2010Prop50
 90
       50
102
RTVSPost2010PropOp50
 70
     1
102
RTVSPost2010Prop51ColorIndex
 90
      256
102
RTVSPost2010Prop51ColorRGB
 90
-16777216
102
RTVSPost2010PropOp51
 70
     0
102
RTVSPost2010Prop52
140
1.0
102
RTVSPost2010PropOp52
 70
     0
102
RTVSPost2010Prop53
 90
        2
102
RTVSPost2010PropOp53
 70
     1
102
RTVSPost2010Prop54
  1
strokes_ogs.tif
102
RTVSPost2010PropOp54
 70
     1
102
RTVSPost2010Prop55
280
     0
102
RTVSPost2010PropOp55
 70
     1
102
RTVSPost2010Prop56
140
1.0
102
RTVSPost2010PropOp56
 70
     1
102
RTVSPost2010Prop57
140
1.0
102
RTVSPost2010PropOp57
 70
     1
102
RTVSPropertyOp0
 70
     1
102
RTVSPropertyOp1
 70
     1
102
RTVSPropertyOp2
 70
     1
102
RTVSPropertyOp3
 70
     1
102
RTVSPropertyOp4
 70
     1
102
RTVSPropertyOp5
 70
     1
102
RTVSPropertyOp6
 70
     1
102
RTVSPropertyOp7
 70
     1
102
RTVSPropertyOp8
 70
     1
102
RTVSPropertyOp9
 70
     1
102
RTVSPropertyOp10
 70
     1
102
RTVSPropertyOp11
 70
     1
102
RTVSPropertyOp12
 70
     1
102
RTVSPropertyOp13
 70
     1
102
RTVSPropertyOp14
 70
     1
102
RTVSPropertyOp15
 70
     1
102
RTVSPropertyOp16
 70
     1
102
RTVSPropertyOp17
 70
     1
102
RTVSPropertyOp18
 70
     1
102
RTVSPropertyOp19
 70
     1
102
RTVSPropertyOp20
 70
     1
102
RTVSPropertyOp21
 70
     1
102
RTVSPropertyOp22
 70
     1
102
RTVSPropertyOp23
 70
     1
102
RTVSPropertyOp24
 70
     1
102
RTVSPropertyOp25
 70
     1
102
RTVSPropertyOp26
 70
     1
102
RTVSPropertyOp27
 70
     1
102
RTVSPropertyOp28
 70
     1
102
RTVSPropertyOp29
 70
     1
102
RTVSPropertyOp30
 70
     1
102
RTVSPropertyOp31
 70
     1
102
RTVSPropertyOp32
 70
     1
102
RTVSPropertyOp33
 70
     1
102
RTVSPropertyOp34
 70
     1
102
RTVSPropertyOp35
 70
     1
102
RTVSPropertyOp36
 70
     1
102
RTVSPropertyOp37
 70
     1
102
RTVSPropertyOp38
 70
     1
102
RTVSPropertyOp39
 70
     1
102
RTVSPropertyOp40
 70
     1
102
RTVSPropertyOp41
 70
     1
102
RTVSPropertyOp42
 70
     1
102
RTVSPropertyOp43
 70
     1
102
RTVSPropertyOp44
 70
     1
102
RTVSPropertyOp45
 70
     1
102
RTVSPropertyOp46
 70
     1
102
RTVSPropertyOp47
 70
     1
102
RTVSPropertyOp48
 70
     1
102
RTVSPropertyOp49
 70
     1
102
RTVSPropertyOp50
 70
     1
102
RTVSPropertyOp51
 70
     0
102
RTVSPropertyOp52
 70
     0
102
RTVSPropertyOp53
 70
     1
102
RTVSPropertyOp54
 70
     1
102
RTVSPropertyOp55
 70
     1
102
RTVSPropertyOp56
 70
     1
102
RTVSPropertyOp57
 70
     1
102
RTVSPropertyOp58
 70
     1
102
RTVSPropertyOp59
 70
     1
102
RTVSPropertyOp60
 70
     1
102
RTVSPropertyOp61
 70
     1
102
RTVSPropertyOp62
 70
     1
  0
XRECORD
  5
858C
102
{ACAD_REACTORS
330
858B
102
}
330
858B
100
AcDbXrecord
280
     1
102
RTVSPost2010Prop28
280
     0
102
RTVSPost2010PropOp28
 70
     1
102
RTVSPost2010Prop29
280
     1
102
RTVSPost2010PropOp29
 70
     1
102
RTVSPost2010Prop30
280
     1
102
RTVSPost2010PropOp30
 70
     1
102
RTVSPost2010Prop31
280
     0
102
RTVSPost2010PropOp31
 70
     1
102
RTVSPost2010Prop32
280
     0
102
RTVSPost2010PropOp32
 70
     1
102
RTVSPost2010Prop33
280
     0
102
RTVSPost2010PropOp33
 70
     1
102
RTVSPost2010Prop34
280
     0
102
RTVSPost2010PropOp34
 70
     1
102
RTVSPost2010Prop35
280
     0
102
RTVSPost2010PropOp35
 70
     1
102
RTVSPost2010Prop36
280
     0
102
RTVSPost2010PropOp36
 70
     1
102
RTVSPost2010Prop37
 90
       50
102
RTVSPost2010PropOp37
 70
     1
102
RTVSPost2010Prop38
140
0.0
102
RTVSPost2010PropOp38
 70
     1
102
RTVSPost2010Prop39
140
1.0
102
RTVSPost2010PropOp39
 70
     1
102
RTVSPost2010Prop40
 90
        0
102
RTVSPost2010PropOp40
 70
     1
102
RTVSPost2010Prop41ColorIndex
 90
       18
102
RTVSPost2010Prop41ColorRGB
 90
        0
102
RTVSPost2010PropOp41
 70
     1
102
RTVSPost2010Prop42
 90
       50
102
RTVSPost2010PropOp42
 70
     1
102
RTVSPost2010Prop43
 90
        3
102
RTVSPost2010PropOp43
 70
     1
102
RTVSPost2010Prop44ColorIndex
 90
        5
102
RTVSPost2010Prop44ColorRGB
 90
      255
102
RTVSPost2010PropOp44
 70
     1
102
RTVSPost2010Prop45
280
     0
102
RTVSPost2010PropOp45
 70
     1
102
RTVSPost2010Prop46
 90
       50
102
RTVSPost2010PropOp46
 70
     1
102
RTVSPost2010Prop47
 90
       50
102
RTVSPost2010PropOp47
 70
     1
102
RTVSPost2010Prop48
 90
       50
102
RTVSPost2010PropOp48
 70
     1
102
RTVSPost2010Prop49
280
     0
102
RTVSPost2010PropOp49
 70
     1
102
RTVSPost2010Prop50
 90
       50
102
RTVSPost2010PropOp50
 70
     1
102
RTVSPost2010Prop51ColorIndex
 90
      256
102
RTVSPost2010Prop51ColorRGB
 90
-16777216
102
RTVSPost2010PropOp51
 70
     0
102
RTVSPost2010Prop52
140
1.0
102
RTVSPost2010PropOp52
 70
     0
102
RTVSPost2010Prop53
 90
        2
102
RTVSPost2010PropOp53
 70
     1
102
RTVSPost2010Prop54
  1
strokes_ogs.tif
102
RTVSPost2010PropOp54
 70
     1
102
RTVSPost2010Prop55
280
     0
102
RTVSPost2010PropOp55
 70
     1
102
RTVSPost2010Prop56
140
1.0
102
RTVSPost2010PropOp56
 70
     1
102
RTVSPost2010Prop57
140
1.0
102
RTVSPost2010PropOp57
 70
     1
102
RTVSPropertyOp0
 70
     1
102
RTVSPropertyOp1
 70
     1
102
RTVSPropertyOp2
 70
     1
102
RTVSPropertyOp3
 70
     1
102
RTVSPropertyOp4
 70
     1
102
RTVSPropertyOp5
 70
     1
102
RTVSPropertyOp6
 70
     1
102
RTVSPropertyOp7
 70
     1
102
RTVSPropertyOp8
 70
     1
102
RTVSPropertyOp9
 70
     1
102
RTVSPropertyOp10
 70
     1
102
RTVSPropertyOp11
 70
     1
102
RTVSPropertyOp12
 70
     1
102
RTVSPropertyOp13
 70
     1
102
RTVSPropertyOp14
 70
     1
102
RTVSPropertyOp15
 70
     1
102
RTVSPropertyOp16
 70
     1
102
RTVSPropertyOp17
 70
     1
102
RTVSPropertyOp18
 70
     1
102
RTVSPropertyOp19
 70
     1
102
RTVSPropertyOp20
 70
     1
102
RTVSPropertyOp21
 70
     1
102
RTVSPropertyOp22
 70
     1
102
RTVSPropertyOp23
 70
     1
102
RTVSPropertyOp24
 70
     1
102
RTVSPropertyOp25
 70
     1
102
RTVSPropertyOp26
 70
     1
102
RTVSPropertyOp27
 70
     1
102
RTVSPropertyOp28
 70
     1
102
RTVSPropertyOp29
 70
     1
102
RTVSPropertyOp30
 70
     1
102
RTVSPropertyOp31
 70
     1
102
RTVSPropertyOp32
 70
     1
102
RTVSPropertyOp33
 70
     1
102
RTVSPropertyOp34
 70
     1
102
RTVSPropertyOp35
 70
     1
102
RTVSPropertyOp36
 70
     1
102
RTVSPropertyOp37
 70
     1
102
RTVSPropertyOp38
 70
     1
102
RTVSPropertyOp39
 70
     1
102
RTVSPropertyOp40
 70
     1
102
RTVSPropertyOp41
 70
     1
102
RTVSPropertyOp42
 70
     1
102
RTVSPropertyOp43
 70
     1
102
RTVSPropertyOp44
 70
     1
102
RTVSPropertyOp45
 70
     1
102
RTVSPropertyOp46
 70
     1
102
RTVSPropertyOp47
 70
     1
102
RTVSPropertyOp48
 70
     1
102
RTVSPropertyOp49
 70
     1
102
RTVSPropertyOp50
 70
     1
102
RTVSPropertyOp51
 70
     0
102
RTVSPropertyOp52
 70
     0
102
RTVSPropertyOp53
 70
     1
102
RTVSPropertyOp54
 70
     1
102
RTVSPropertyOp55
 70
     1
102
RTVSPropertyOp56
 70
     1
102
RTVSPropertyOp57
 70
     1
102
RTVSPropertyOp58
 70
     1
102
RTVSPropertyOp59
 70
     1
102
RTVSPropertyOp60
 70
     1
102
RTVSPropertyOp61
 70
     1
102
RTVSPropertyOp62
 70
     1
  0
XRECORD
  5
8590
102
{ACAD_REACTORS
330
858F
102
}
330
858F
100
AcDbXrecord
280
     1
102
RTVSPost2010Prop28
280
     0
102
RTVSPost2010PropOp28
 70
     1
102
RTVSPost2010Prop29
280
     1
102
RTVSPost2010PropOp29
 70
     1
102
RTVSPost2010Prop30
280
     1
102
RTVSPost2010PropOp30
 70
     1
102
RTVSPost2010Prop31
280
     0
102
RTVSPost2010PropOp31
 70
     1
102
RTVSPost2010Prop32
280
     0
102
RTVSPost2010PropOp32
 70
     1
102
RTVSPost2010Prop33
280
     0
102
RTVSPost2010PropOp33
 70
     1
102
RTVSPost2010Prop34
280
     0
102
RTVSPost2010PropOp34
 70
     1
102
RTVSPost2010Prop35
280
     0
102
RTVSPost2010PropOp35
 70
     1
102
RTVSPost2010Prop36
280
     0
102
RTVSPost2010PropOp36
 70
     1
102
RTVSPost2010Prop37
 90
       50
102
RTVSPost2010PropOp37
 70
     1
102
RTVSPost2010Prop38
140
0.0
102
RTVSPost2010PropOp38
 70
     1
102
RTVSPost2010Prop39
140
1.0
102
RTVSPost2010PropOp39
 70
     1
102
RTVSPost2010Prop40
 90
        0
102
RTVSPost2010PropOp40
 70
     1
102
RTVSPost2010Prop41ColorIndex
 90
       18
102
RTVSPost2010Prop41ColorRGB
 90
        0
102
RTVSPost2010PropOp41
 70
     1
102
RTVSPost2010Prop42
 90
       50
102
RTVSPost2010PropOp42
 70
     1
102
RTVSPost2010Prop43
 90
        3
102
RTVSPost2010PropOp43
 70
     1
102
RTVSPost2010Prop44ColorIndex
 90
        5
102
RTVSPost2010Prop44ColorRGB
 90
      255
102
RTVSPost2010PropOp44
 70
     1
102
RTVSPost2010Prop45
280
     0
102
RTVSPost2010PropOp45
 70
     1
102
RTVSPost2010Prop46
 90
       50
102
RTVSPost2010PropOp46
 70
     1
102
RTVSPost2010Prop47
 90
       50
102
RTVSPost2010PropOp47
 70
     1
102
RTVSPost2010Prop48
 90
       50
102
RTVSPost2010PropOp48
 70
     1
102
RTVSPost2010Prop49
280
     0
102
RTVSPost2010PropOp49
 70
     1
102
RTVSPost2010Prop50
 90
       50
102
RTVSPost2010PropOp50
 70
     1
102
RTVSPost2010Prop51ColorIndex
 90
      256
102
RTVSPost2010Prop51ColorRGB
 90
-16777216
102
RTVSPost2010PropOp51
 70
     0
102
RTVSPost2010Prop52
140
1.0
102
RTVSPost2010PropOp52
 70
     0
102
RTVSPost2010Prop53
 90
        2
102
RTVSPost2010PropOp53
 70
     1
102
RTVSPost2010Prop54
  1
strokes_ogs.tif
102
RTVSPost2010PropOp54
 70
     1
102
RTVSPost2010Prop55
280
     0
102
RTVSPost2010PropOp55
 70
     1
102
RTVSPost2010Prop56
140
1.0
102
RTVSPost2010PropOp56
 70
     1
102
RTVSPost2010Prop57
140
1.0
102
RTVSPost2010PropOp57
 70
     1
102
RTVSPropertyOp0
 70
     1
102
RTVSPropertyOp1
 70
     1
102
RTVSPropertyOp2
 70
     1
102
RTVSPropertyOp3
 70
     1
102
RTVSPropertyOp4
 70
     1
102
RTVSPropertyOp5
 70
     1
102
RTVSPropertyOp6
 70
     1
102
RTVSPropertyOp7
 70
     1
102
RTVSPropertyOp8
 70
     1
102
RTVSPropertyOp9
 70
     1
102
RTVSPropertyOp10
 70
     1
102
RTVSPropertyOp11
 70
     1
102
RTVSPropertyOp12
 70
     1
102
RTVSPropertyOp13
 70
     1
102
RTVSPropertyOp14
 70
     1
102
RTVSPropertyOp15
 70
     1
102
RTVSPropertyOp16
 70
     1
102
RTVSPropertyOp17
 70
     1
102
RTVSPropertyOp18
 70
     1
102
RTVSPropertyOp19
 70
     1
102
RTVSPropertyOp20
 70
     1
102
RTVSPropertyOp21
 70
     1
102
RTVSPropertyOp22
 70
     1
102
RTVSPropertyOp23
 70
     1
102
RTVSPropertyOp24
 70
     1
102
RTVSPropertyOp25
 70
     1
102
RTVSPropertyOp26
 70
     1
102
RTVSPropertyOp27
 70
     1
102
RTVSPropertyOp28
 70
     1
102
RTVSPropertyOp29
 70
     1
102
RTVSPropertyOp30
 70
     1
102
RTVSPropertyOp31
 70
     1
102
RTVSPropertyOp32
 70
     1
102
RTVSPropertyOp33
 70
     1
102
RTVSPropertyOp34
 70
     1
102
RTVSPropertyOp35
 70
     1
102
RTVSPropertyOp36
 70
     1
102
RTVSPropertyOp37
 70
     1
102
RTVSPropertyOp38
 70
     1
102
RTVSPropertyOp39
 70
     1
102
RTVSPropertyOp40
 70
     1
102
RTVSPropertyOp41
 70
     1
102
RTVSPropertyOp42
 70
     1
102
RTVSPropertyOp43
 70
     1
102
RTVSPropertyOp44
 70
     1
102
RTVSPropertyOp45
 70
     1
102
RTVSPropertyOp46
 70
     1
102
RTVSPropertyOp47
 70
     1
102
RTVSPropertyOp48
 70
     1
102
RTVSPropertyOp49
 70
     1
102
RTVSPropertyOp50
 70
     1
102
RTVSPropertyOp51
 70
     0
102
RTVSPropertyOp52
 70
     0
102
RTVSPropertyOp53
 70
     1
102
RTVSPropertyOp54
 70
     1
102
RTVSPropertyOp55
 70
     1
102
RTVSPropertyOp56
 70
     1
102
RTVSPropertyOp57
 70
     1
102
RTVSPropertyOp58
 70
     1
102
RTVSPropertyOp59
 70
     1
102
RTVSPropertyOp60
 70
     1
102
RTVSPropertyOp61
 70
     1
102
RTVSPropertyOp62
 70
     1
  0
XRECORD
  5
85AA
102
{ACAD_REACTORS
330
85A9
102
}
330
85A9
100
AcDbXrecord
280
     1
102
RTVSPost2010Prop28
280
     0
102
RTVSPost2010PropOp28
 70
     1
102
RTVSPost2010Prop29
280
     1
102
RTVSPost2010PropOp29
 70
     1
102
RTVSPost2010Prop30
280
     1
102
RTVSPost2010PropOp30
 70
     1
102
RTVSPost2010Prop31
280
     0
102
RTVSPost2010PropOp31
 70
     1
102
RTVSPost2010Prop32
280
     0
102
RTVSPost2010PropOp32
 70
     1
102
RTVSPost2010Prop33
280
     0
102
RTVSPost2010PropOp33
 70
     1
102
RTVSPost2010Prop34
280
     0
102
RTVSPost2010PropOp34
 70
     1
102
RTVSPost2010Prop35
280
     0
102
RTVSPost2010PropOp35
 70
     1
102
RTVSPost2010Prop36
280
     0
102
RTVSPost2010PropOp36
 70
     1
102
RTVSPost2010Prop37
 90
       50
102
RTVSPost2010PropOp37
 70
     0
102
RTVSPost2010Prop38
140
0.0
102
RTVSPost2010PropOp38
 70
     0
102
RTVSPost2010Prop39
140
1.0
102
RTVSPost2010PropOp39
 70
     0
102
RTVSPost2010Prop40
 90
        0
102
RTVSPost2010PropOp40
 70
     0
102
RTVSPost2010Prop41ColorIndex
 90
       18
102
RTVSPost2010Prop41ColorRGB
 90
        0
102
RTVSPost2010PropOp41
 70
     0
102
RTVSPost2010Prop42
 90
       50
102
RTVSPost2010PropOp42
 70
     0
102
RTVSPost2010Prop43
 90
        3
102
RTVSPost2010PropOp43
 70
     0
102
RTVSPost2010Prop44ColorIndex
 90
        5
102
RTVSPost2010Prop44ColorRGB
 90
      255
102
RTVSPost2010PropOp44
 70
     0
102
RTVSPost2010Prop45
280
     0
102
RTVSPost2010PropOp45
 70
     1
102
RTVSPost2010Prop46
 90
       50
102
RTVSPost2010PropOp46
 70
     0
102
RTVSPost2010Prop47
 90
       50
102
RTVSPost2010PropOp47
 70
     0
102
RTVSPost2010Prop48
 90
       50
102
RTVSPost2010PropOp48
 70
     0
102
RTVSPost2010Prop49
280
     0
102
RTVSPost2010PropOp49
 70
     1
102
RTVSPost2010Prop50
 90
       50
102
RTVSPost2010PropOp50
 70
     0
102
RTVSPost2010Prop51ColorIndex
 90
      256
102
RTVSPost2010Prop51ColorRGB
 90
-16777216
102
RTVSPost2010PropOp51
 70
     0
102
RTVSPost2010Prop52
140
1.0
102
RTVSPost2010PropOp52
 70
     0
102
RTVSPost2010Prop53
 90
        2
102
RTVSPost2010PropOp53
 70
     0
102
RTVSPost2010Prop54
  1
strokes_ogs.tif
102
RTVSPost2010PropOp54
 70
     0
102
RTVSPost2010Prop55
280
     0
102
RTVSPost2010PropOp55
 70
     1
102
RTVSPost2010Prop56
140
1.0
102
RTVSPost2010PropOp56
 70
     0
102
RTVSPost2010Prop57
140
1.0
102
RTVSPost2010PropOp57
 70
     0
102
RTVSPropertyOp0
 70
     0
102
RTVSPropertyOp1
 70
     0
102
RTVSPropertyOp2
 70
     0
102
RTVSPropertyOp3
 70
     0
102
RTVSPropertyOp4
 70
     0
102
RTVSPropertyOp5
 70
     0
102
RTVSPropertyOp6
 70
     0
102
RTVSPropertyOp7
 70
     0
102
RTVSPropertyOp8
 70
     0
102
RTVSPropertyOp9
 70
     0
102
RTVSPropertyOp10
 70
     0
102
RTVSPropertyOp11
 70
     0
102
RTVSPropertyOp12
 70
     0
102
RTVSPropertyOp13
 70
     0
102
RTVSPropertyOp14
 70
     2
102
RTVSPropertyOp15
 70
     0
102
RTVSPropertyOp16
 70
     0
102
RTVSPropertyOp17
 70
     0
102
RTVSPropertyOp18
 70
     0
102
RTVSPropertyOp19
 70
     0
102
RTVSPropertyOp20
 70
     0
102
RTVSPropertyOp21
 70
     0
102
RTVSPropertyOp22
 70
     0
102
RTVSPropertyOp23
 70
     0
102
RTVSPropertyOp24
 70
     0
102
RTVSPropertyOp25
 70
     0
102
RTVSPropertyOp26
 70
     0
102
RTVSPropertyOp27
 70
     0
102
RTVSPropertyOp28
 70
     1
102
RTVSPropertyOp29
 70
     1
102
RTVSPropertyOp30
 70
     1
102
RTVSPropertyOp31
 70
     1
102
RTVSPropertyOp32
 70
     1
102
RTVSPropertyOp33
 70
     1
102
RTVSPropertyOp34
 70
     1
102
RTVSPropertyOp35
 70
     1
102
RTVSPropertyOp36
 70
     1
102
RTVSPropertyOp37
 70
     0
102
RTVSPropertyOp38
 70
     0
102
RTVSPropertyOp39
 70
     0
102
RTVSPropertyOp40
 70
     0
102
RTVSPropertyOp41
 70
     0
102
RTVSPropertyOp42
 70
     0
102
RTVSPropertyOp43
 70
     0
102
RTVSPropertyOp44
 70
     0
102
RTVSPropertyOp45
 70
     1
102
RTVSPropertyOp46
 70
     0
102
RTVSPropertyOp47
 70
     0
102
RTVSPropertyOp48
 70
     0
102
RTVSPropertyOp49
 70
     1
102
RTVSPropertyOp50
 70
     0
102
RTVSPropertyOp51
 70
     0
102
RTVSPropertyOp52
 70
     0
102
RTVSPropertyOp53
 70
     0
102
RTVSPropertyOp54
 70
     0
102
RTVSPropertyOp55
 70
     1
102
RTVSPropertyOp56
 70
     0
102
RTVSPropertyOp57
 70
     0
102
RTVSPropertyOp58
 70
     0
102
RTVSPropertyOp59
 70
     0
102
RTVSPropertyOp60
 70
     0
102
RTVSPropertyOp61
 70
     0
102
RTVSPropertyOp62
 70
     0
  0
XRECORD
  5
8598
102
{ACAD_REACTORS
330
8597
102
}
330
8597
100
AcDbXrecord
280
     1
102
RTVSPost2010Prop28
280
     0
102
RTVSPost2010PropOp28
 70
     1
102
RTVSPost2010Prop29
280
     1
102
RTVSPost2010PropOp29
 70
     1
102
RTVSPost2010Prop30
280
     1
102
RTVSPost2010PropOp30
 70
     1
102
RTVSPost2010Prop31
280
     0
102
RTVSPost2010PropOp31
 70
     1
102
RTVSPost2010Prop32
280
     0
102
RTVSPost2010PropOp32
 70
     1
102
RTVSPost2010Prop33
280
     0
102
RTVSPost2010PropOp33
 70
     1
102
RTVSPost2010Prop34
280
     0
102
RTVSPost2010PropOp34
 70
     1
102
RTVSPost2010Prop35
280
     0
102
RTVSPost2010PropOp35
 70
     1
102
RTVSPost2010Prop36
280
     0
102
RTVSPost2010PropOp36
 70
     1
102
RTVSPost2010Prop37
 90
       50
102
RTVSPost2010PropOp37
 70
     1
102
RTVSPost2010Prop38
140
0.0
102
RTVSPost2010PropOp38
 70
     1
102
RTVSPost2010Prop39
140
1.0
102
RTVSPost2010PropOp39
 70
     1
102
RTVSPost2010Prop40
 90
        0
102
RTVSPost2010PropOp40
 70
     1
102
RTVSPost2010Prop41ColorIndex
 90
       18
102
RTVSPost2010Prop41ColorRGB
 90
        0
102
RTVSPost2010PropOp41
 70
     1
102
RTVSPost2010Prop42
 90
       50
102
RTVSPost2010PropOp42
 70
     1
102
RTVSPost2010Prop43
 90
        3
102
RTVSPost2010PropOp43
 70
     1
102
RTVSPost2010Prop44ColorIndex
 90
        5
102
RTVSPost2010Prop44ColorRGB
 90
      255
102
RTVSPost2010PropOp44
 70
     1
102
RTVSPost2010Prop45
280
     0
102
RTVSPost2010PropOp45
 70
     1
102
RTVSPost2010Prop46
 90
       50
102
RTVSPost2010PropOp46
 70
     1
102
RTVSPost2010Prop47
 90
       50
102
RTVSPost2010PropOp47
 70
     1
102
RTVSPost2010Prop48
 90
       50
102
RTVSPost2010PropOp48
 70
     1
102
RTVSPost2010Prop49
280
     0
102
RTVSPost2010PropOp49
 70
     1
102
RTVSPost2010Prop50
 90
       50
102
RTVSPost2010PropOp50
 70
     1
102
RTVSPost2010Prop51ColorIndex
 90
      256
102
RTVSPost2010Prop51ColorRGB
 90
-16777216
102
RTVSPost2010PropOp51
 70
     0
102
RTVSPost2010Prop52
140
1.0
102
RTVSPost2010PropOp52
 70
     0
102
RTVSPost2010Prop53
 90
        2
102
RTVSPost2010PropOp53
 70
     1
102
RTVSPost2010Prop54
  1
strokes_ogs.tif
102
RTVSPost2010PropOp54
 70
     1
102
RTVSPost2010Prop55
280
     0
102
RTVSPost2010PropOp55
 70
     1
102
RTVSPost2010Prop56
140
1.0
102
RTVSPost2010PropOp56
 70
     1
102
RTVSPost2010Prop57
140
1.0
102
RTVSPost2010PropOp57
 70
     1
102
RTVSPropertyOp0
 70
     1
102
RTVSPropertyOp1
 70
     1
102
RTVSPropertyOp2
 70
     1
102
RTVSPropertyOp3
 70
     1
102
RTVSPropertyOp4
 70
     1
102
RTVSPropertyOp5
 70
     1
102
RTVSPropertyOp6
 70
     1
102
RTVSPropertyOp7
 70
     1
102
RTVSPropertyOp8
 70
     1
102
RTVSPropertyOp9
 70
     1
102
RTVSPropertyOp10
 70
     1
102
RTVSPropertyOp11
 70
     1
102
RTVSPropertyOp12
 70
     1
102
RTVSPropertyOp13
 70
     1
102
RTVSPropertyOp14
 70
     1
102
RTVSPropertyOp15
 70
     1
102
RTVSPropertyOp16
 70
     1
102
RTVSPropertyOp17
 70
     1
102
RTVSPropertyOp18
 70
     1
102
RTVSPropertyOp19
 70
     1
102
RTVSPropertyOp20
 70
     1
102
RTVSPropertyOp21
 70
     1
102
RTVSPropertyOp22
 70
     1
102
RTVSPropertyOp23
 70
     1
102
RTVSPropertyOp24
 70
     1
102
RTVSPropertyOp25
 70
     1
102
RTVSPropertyOp26
 70
     1
102
RTVSPropertyOp27
 70
     1
102
RTVSPropertyOp28
 70
     1
102
RTVSPropertyOp29
 70
     1
102
RTVSPropertyOp30
 70
     1
102
RTVSPropertyOp31
 70
     1
102
RTVSPropertyOp32
 70
     1
102
RTVSPropertyOp33
 70
     1
102
RTVSPropertyOp34
 70
     1
102
RTVSPropertyOp35
 70
     1
102
RTVSPropertyOp36
 70
     1
102
RTVSPropertyOp37
 70
     1
102
RTVSPropertyOp38
 70
     1
102
RTVSPropertyOp39
 70
     1
102
RTVSPropertyOp40
 70
     1
102
RTVSPropertyOp41
 70
     1
102
RTVSPropertyOp42
 70
     1
102
RTVSPropertyOp43
 70
     1
102
RTVSPropertyOp44
 70
     1
102
RTVSPropertyOp45
 70
     1
102
RTVSPropertyOp46
 70
     1
102
RTVSPropertyOp47
 70
     1
102
RTVSPropertyOp48
 70
     1
102
RTVSPropertyOp49
 70
     1
102
RTVSPropertyOp50
 70
     1
102
RTVSPropertyOp51
 70
     0
102
RTVSPropertyOp52
 70
     0
102
RTVSPropertyOp53
 70
     1
102
RTVSPropertyOp54
 70
     1
102
RTVSPropertyOp55
 70
     1
102
RTVSPropertyOp56
 70
     1
102
RTVSPropertyOp57
 70
     1
102
RTVSPropertyOp58
 70
     1
102
RTVSPropertyOp59
 70
     1
102
RTVSPropertyOp60
 70
     1
102
RTVSPropertyOp61
 70
     1
102
RTVSPropertyOp62
 70
     1
  0
XRECORD
  5
857C
102
{ACAD_REACTORS
330
857B
102
}
330
857B
100
AcDbXrecord
280
     1
102
RTVSPost2010Prop28
280
     0
102
RTVSPost2010PropOp28
 70
     1
102
RTVSPost2010Prop29
280
     1
102
RTVSPost2010PropOp29
 70
     1
102
RTVSPost2010Prop30
280
     1
102
RTVSPost2010PropOp30
 70
     1
102
RTVSPost2010Prop31
280
     0
102
RTVSPost2010PropOp31
 70
     1
102
RTVSPost2010Prop32
280
     0
102
RTVSPost2010PropOp32
 70
     1
102
RTVSPost2010Prop33
280
     0
102
RTVSPost2010PropOp33
 70
     1
102
RTVSPost2010Prop34
280
     0
102
RTVSPost2010PropOp34
 70
     1
102
RTVSPost2010Prop35
280
     0
102
RTVSPost2010PropOp35
 70
     1
102
RTVSPost2010Prop36
280
     0
102
RTVSPost2010PropOp36
 70
     1
102
RTVSPost2010Prop37
 90
       50
102
RTVSPost2010PropOp37
 70
     1
102
RTVSPost2010Prop38
140
0.0
102
RTVSPost2010PropOp38
 70
     1
102
RTVSPost2010Prop39
140
1.0
102
RTVSPost2010PropOp39
 70
     1
102
RTVSPost2010Prop40
 90
        0
102
RTVSPost2010PropOp40
 70
     1
102
RTVSPost2010Prop41ColorIndex
 90
       18
102
RTVSPost2010Prop41ColorRGB
 90
        0
102
RTVSPost2010PropOp41
 70
     1
102
RTVSPost2010Prop42
 90
       50
102
RTVSPost2010PropOp42
 70
     1
102
RTVSPost2010Prop43
 90
        3
102
RTVSPost2010PropOp43
 70
     1
102
RTVSPost2010Prop44ColorIndex
 90
        5
102
RTVSPost2010Prop44ColorRGB
 90
      255
102
RTVSPost2010PropOp44
 70
     1
102
RTVSPost2010Prop45
280
     0
102
RTVSPost2010PropOp45
 70
     1
102
RTVSPost2010Prop46
 90
       50
102
RTVSPost2010PropOp46
 70
     1
102
RTVSPost2010Prop47
 90
       50
102
RTVSPost2010PropOp47
 70
     1
102
RTVSPost2010Prop48
 90
       50
102
RTVSPost2010PropOp48
 70
     1
102
RTVSPost2010Prop49
280
     0
102
RTVSPost2010PropOp49
 70
     1
102
RTVSPost2010Prop50
 90
       50
102
RTVSPost2010PropOp50
 70
     1
102
RTVSPost2010Prop51ColorIndex
 90
      256
102
RTVSPost2010Prop51ColorRGB
 90
-16777216
102
RTVSPost2010PropOp51
 70
     0
102
RTVSPost2010Prop52
140
1.0
102
RTVSPost2010PropOp52
 70
     0
102
RTVSPost2010Prop53
 90
        2
102
RTVSPost2010PropOp53
 70
     1
102
RTVSPost2010Prop54
  1
strokes_ogs.tif
102
RTVSPost2010PropOp54
 70
     1
102
RTVSPost2010Prop55
280
     0
102
RTVSPost2010PropOp55
 70
     1
102
RTVSPost2010Prop56
140
1.0
102
RTVSPost2010PropOp56
 70
     1
102
RTVSPost2010Prop57
140
1.0
102
RTVSPost2010PropOp57
 70
     1
102
RTVSPropertyOp0
 70
     1
102
RTVSPropertyOp1
 70
     1
102
RTVSPropertyOp2
 70
     1
102
RTVSPropertyOp3
 70
     1
102
RTVSPropertyOp4
 70
     1
102
RTVSPropertyOp5
 70
     1
102
RTVSPropertyOp6
 70
     1
102
RTVSPropertyOp7
 70
     1
102
RTVSPropertyOp8
 70
     1
102
RTVSPropertyOp9
 70
     1
102
RTVSPropertyOp10
 70
     1
102
RTVSPropertyOp11
 70
     1
102
RTVSPropertyOp12
 70
     1
102
RTVSPropertyOp13
 70
     1
102
RTVSPropertyOp14
 70
     1
102
RTVSPropertyOp15
 70
     1
102
RTVSPropertyOp16
 70
     1
102
RTVSPropertyOp17
 70
     1
102
RTVSPropertyOp18
 70
     1
102
RTVSPropertyOp19
 70
     1
102
RTVSPropertyOp20
 70
     1
102
RTVSPropertyOp21
 70
     1
102
RTVSPropertyOp22
 70
     1
102
RTVSPropertyOp23
 70
     1
102
RTVSPropertyOp24
 70
     1
102
RTVSPropertyOp25
 70
     1
102
RTVSPropertyOp26
 70
     1
102
RTVSPropertyOp27
 70
     1
102
RTVSPropertyOp28
 70
     1
102
RTVSPropertyOp29
 70
     1
102
RTVSPropertyOp30
 70
     1
102
RTVSPropertyOp31
 70
     1
102
RTVSPropertyOp32
 70
     1
102
RTVSPropertyOp33
 70
     1
102
RTVSPropertyOp34
 70
     1
102
RTVSPropertyOp35
 70
     1
102
RTVSPropertyOp36
 70
     1
102
RTVSPropertyOp37
 70
     1
102
RTVSPropertyOp38
 70
     1
102
RTVSPropertyOp39
 70
     1
102
RTVSPropertyOp40
 70
     1
102
RTVSPropertyOp41
 70
     1
102
RTVSPropertyOp42
 70
     1
102
RTVSPropertyOp43
 70
     1
102
RTVSPropertyOp44
 70
     1
102
RTVSPropertyOp45
 70
     1
102
RTVSPropertyOp46
 70
     1
102
RTVSPropertyOp47
 70
     1
102
RTVSPropertyOp48
 70
     1
102
RTVSPropertyOp49
 70
     1
102
RTVSPropertyOp50
 70
     1
102
RTVSPropertyOp51
 70
     0
102
RTVSPropertyOp52
 70
     0
102
RTVSPropertyOp53
 70
     1
102
RTVSPropertyOp54
 70
     1
102
RTVSPropertyOp55
 70
     1
102
RTVSPropertyOp56
 70
     1
102
RTVSPropertyOp57
 70
     1
102
RTVSPropertyOp58
 70
     1
102
RTVSPropertyOp59
 70
     1
102
RTVSPropertyOp60
 70
     1
102
RTVSPropertyOp61
 70
     1
102
RTVSPropertyOp62
 70
     1
  0
XRECORD
  5
857E
102
{ACAD_REACTORS
330
857D
102
}
330
857D
100
AcDbXrecord
280
     1
102
RTVSPost2010Prop28
280
     0
102
RTVSPost2010PropOp28
 70
     1
102
RTVSPost2010Prop29
280
     1
102
RTVSPost2010PropOp29
 70
     1
102
RTVSPost2010Prop30
280
     1
102
RTVSPost2010PropOp30
 70
     1
102
RTVSPost2010Prop31
280
     0
102
RTVSPost2010PropOp31
 70
     1
102
RTVSPost2010Prop32
280
     0
102
RTVSPost2010PropOp32
 70
     1
102
RTVSPost2010Prop33
280
     0
102
RTVSPost2010PropOp33
 70
     1
102
RTVSPost2010Prop34
280
     0
102
RTVSPost2010PropOp34
 70
     1
102
RTVSPost2010Prop35
280
     0
102
RTVSPost2010PropOp35
 70
     1
102
RTVSPost2010Prop36
280
     0
102
RTVSPost2010PropOp36
 70
     1
102
RTVSPost2010Prop37
 90
       50
102
RTVSPost2010PropOp37
 70
     1
102
RTVSPost2010Prop38
140
0.0
102
RTVSPost2010PropOp38
 70
     1
102
RTVSPost2010Prop39
140
1.0
102
RTVSPost2010PropOp39
 70
     1
102
RTVSPost2010Prop40
 90
        0
102
RTVSPost2010PropOp40
 70
     1
102
RTVSPost2010Prop41ColorIndex
 90
       18
102
RTVSPost2010Prop41ColorRGB
 90
        0
102
RTVSPost2010PropOp41
 70
     1
102
RTVSPost2010Prop42
 90
       50
102
RTVSPost2010PropOp42
 70
     1
102
RTVSPost2010Prop43
 90
        3
102
RTVSPost2010PropOp43
 70
     1
102
RTVSPost2010Prop44ColorIndex
 90
        5
102
RTVSPost2010Prop44ColorRGB
 90
      255
102
RTVSPost2010PropOp44
 70
     1
102
RTVSPost2010Prop45
280
     0
102
RTVSPost2010PropOp45
 70
     1
102
RTVSPost2010Prop46
 90
       50
102
RTVSPost2010PropOp46
 70
     1
102
RTVSPost2010Prop47
 90
       50
102
RTVSPost2010PropOp47
 70
     1
102
RTVSPost2010Prop48
 90
       50
102
RTVSPost2010PropOp48
 70
     1
102
RTVSPost2010Prop49
280
     0
102
RTVSPost2010PropOp49
 70
     1
102
RTVSPost2010Prop50
 90
       50
102
RTVSPost2010PropOp50
 70
     1
102
RTVSPost2010Prop51ColorIndex
 90
      256
102
RTVSPost2010Prop51ColorRGB
 90
-16777216
102
RTVSPost2010PropOp51
 70
     0
102
RTVSPost2010Prop52
140
1.0
102
RTVSPost2010PropOp52
 70
     0
102
RTVSPost2010Prop53
 90
        2
102
RTVSPost2010PropOp53
 70
     1
102
RTVSPost2010Prop54
  1
strokes_ogs.tif
102
RTVSPost2010PropOp54
 70
     1
102
RTVSPost2010Prop55
280
     0
102
RTVSPost2010PropOp55
 70
     1
102
RTVSPost2010Prop56
140
1.0
102
RTVSPost2010PropOp56
 70
     1
102
RTVSPost2010Prop57
140
1.0
102
RTVSPost2010PropOp57
 70
     1
102
RTVSPropertyOp0
 70
     1
102
RTVSPropertyOp1
 70
     1
102
RTVSPropertyOp2
 70
     1
102
RTVSPropertyOp3
 70
     1
102
RTVSPropertyOp4
 70
     1
102
RTVSPropertyOp5
 70
     1
102
RTVSPropertyOp6
 70
     1
102
RTVSPropertyOp7
 70
     1
102
RTVSPropertyOp8
 70
     1
102
RTVSPropertyOp9
 70
     1
102
RTVSPropertyOp10
 70
     1
102
RTVSPropertyOp11
 70
     1
102
RTVSPropertyOp12
 70
     1
102
RTVSPropertyOp13
 70
     1
102
RTVSPropertyOp14
 70
     1
102
RTVSPropertyOp15
 70
     1
102
RTVSPropertyOp16
 70
     1
102
RTVSPropertyOp17
 70
     1
102
RTVSPropertyOp18
 70
     1
102
RTVSPropertyOp19
 70
     1
102
RTVSPropertyOp20
 70
     1
102
RTVSPropertyOp21
 70
     1
102
RTVSPropertyOp22
 70
     1
102
RTVSPropertyOp23
 70
     1
102
RTVSPropertyOp24
 70
     1
102
RTVSPropertyOp25
 70
     1
102
RTVSPropertyOp26
 70
     1
102
RTVSPropertyOp27
 70
     1
102
RTVSPropertyOp28
 70
     1
102
RTVSPropertyOp29
 70
     1
102
RTVSPropertyOp30
 70
     1
102
RTVSPropertyOp31
 70
     1
102
RTVSPropertyOp32
 70
     1
102
RTVSPropertyOp33
 70
     1
102
RTVSPropertyOp34
 70
     1
102
RTVSPropertyOp35
 70
     1
102
RTVSPropertyOp36
 70
     1
102
RTVSPropertyOp37
 70
     1
102
RTVSPropertyOp38
 70
     1
102
RTVSPropertyOp39
 70
     1
102
RTVSPropertyOp40
 70
     1
102
RTVSPropertyOp41
 70
     1
102
RTVSPropertyOp42
 70
     1
102
RTVSPropertyOp43
 70
     1
102
RTVSPropertyOp44
 70
     1
102
RTVSPropertyOp45
 70
     1
102
RTVSPropertyOp46
 70
     1
102
RTVSPropertyOp47
 70
     1
102
RTVSPropertyOp48
 70
     1
102
RTVSPropertyOp49
 70
     1
102
RTVSPropertyOp50
 70
     1
102
RTVSPropertyOp51
 70
     0
102
RTVSPropertyOp52
 70
     0
102
RTVSPropertyOp53
 70
     1
102
RTVSPropertyOp54
 70
     1
102
RTVSPropertyOp55
 70
     1
102
RTVSPropertyOp56
 70
     1
102
RTVSPropertyOp57
 70
     1
102
RTVSPropertyOp58
 70
     1
102
RTVSPropertyOp59
 70
     1
102
RTVSPropertyOp60
 70
     1
102
RTVSPropertyOp61
 70
     1
102
RTVSPropertyOp62
 70
     1
  0
XRECORD
  5
8580
102
{ACAD_REACTORS
330
857F
102
}
330
857F
100
AcDbXrecord
280
     1
102
RTVSPost2010Prop28
280
     0
102
RTVSPost2010PropOp28
 70
     1
102
RTVSPost2010Prop29
280
     1
102
RTVSPost2010PropOp29
 70
     1
102
RTVSPost2010Prop30
280
     1
102
RTVSPost2010PropOp30
 70
     1
102
RTVSPost2010Prop31
280
     0
102
RTVSPost2010PropOp31
 70
     1
102
RTVSPost2010Prop32
280
     0
102
RTVSPost2010PropOp32
 70
     1
102
RTVSPost2010Prop33
280
     0
102
RTVSPost2010PropOp33
 70
     1
102
RTVSPost2010Prop34
280
     0
102
RTVSPost2010PropOp34
 70
     1
102
RTVSPost2010Prop35
280
     0
102
RTVSPost2010PropOp35
 70
     1
102
RTVSPost2010Prop36
280
     0
102
RTVSPost2010PropOp36
 70
     1
102
RTVSPost2010Prop37
 90
       50
102
RTVSPost2010PropOp37
 70
     1
102
RTVSPost2010Prop38
140
0.0
102
RTVSPost2010PropOp38
 70
     1
102
RTVSPost2010Prop39
140
1.0
102
RTVSPost2010PropOp39
 70
     1
102
RTVSPost2010Prop40
 90
        0
102
RTVSPost2010PropOp40
 70
     1
102
RTVSPost2010Prop41ColorIndex
 90
       18
102
RTVSPost2010Prop41ColorRGB
 90
        0
102
RTVSPost2010PropOp41
 70
     1
102
RTVSPost2010Prop42
 90
       50
102
RTVSPost2010PropOp42
 70
     1
102
RTVSPost2010Prop43
 90
        3
102
RTVSPost2010PropOp43
 70
     1
102
RTVSPost2010Prop44ColorIndex
 90
        5
102
RTVSPost2010Prop44ColorRGB
 90
      255
102
RTVSPost2010PropOp44
 70
     1
102
RTVSPost2010Prop45
280
     0
102
RTVSPost2010PropOp45
 70
     1
102
RTVSPost2010Prop46
 90
       50
102
RTVSPost2010PropOp46
 70
     1
102
RTVSPost2010Prop47
 90
       50
102
RTVSPost2010PropOp47
 70
     1
102
RTVSPost2010Prop48
 90
       50
102
RTVSPost2010PropOp48
 70
     1
102
RTVSPost2010Prop49
280
     0
102
RTVSPost2010PropOp49
 70
     1
102
RTVSPost2010Prop50
 90
       50
102
RTVSPost2010PropOp50
 70
     1
102
RTVSPost2010Prop51ColorIndex
 90
      256
102
RTVSPost2010Prop51ColorRGB
 90
-16777216
102
RTVSPost2010PropOp51
 70
     0
102
RTVSPost2010Prop52
140
1.0
102
RTVSPost2010PropOp52
 70
     0
102
RTVSPost2010Prop53
 90
        2
102
RTVSPost2010PropOp53
 70
     1
102
RTVSPost2010Prop54
  1
strokes_ogs.tif
102
RTVSPost2010PropOp54
 70
     1
102
RTVSPost2010Prop55
280
     0
102
RTVSPost2010PropOp55
 70
     1
102
RTVSPost2010Prop56
140
1.0
102
RTVSPost2010PropOp56
 70
     1
102
RTVSPost2010Prop57
140
1.0
102
RTVSPost2010PropOp57
 70
     1
102
RTVSPropertyOp0
 70
     1
102
RTVSPropertyOp1
 70
     1
102
RTVSPropertyOp2
 70
     1
102
RTVSPropertyOp3
 70
     1
102
RTVSPropertyOp4
 70
     1
102
RTVSPropertyOp5
 70
     1
102
RTVSPropertyOp6
 70
     1
102
RTVSPropertyOp7
 70
     1
102
RTVSPropertyOp8
 70
     1
102
RTVSPropertyOp9
 70
     1
102
RTVSPropertyOp10
 70
     1
102
RTVSPropertyOp11
 70
     1
102
RTVSPropertyOp12
 70
     1
102
RTVSPropertyOp13
 70
     1
102
RTVSPropertyOp14
 70
     1
102
RTVSPropertyOp15
 70
     1
102
RTVSPropertyOp16
 70
     1
102
RTVSPropertyOp17
 70
     1
102
RTVSPropertyOp18
 70
     1
102
RTVSPropertyOp19
 70
     1
102
RTVSPropertyOp20
 70
     1
102
RTVSPropertyOp21
 70
     1
102
RTVSPropertyOp22
 70
     1
102
RTVSPropertyOp23
 70
     1
102
RTVSPropertyOp24
 70
     1
102
RTVSPropertyOp25
 70
     1
102
RTVSPropertyOp26
 70
     1
102
RTVSPropertyOp27
 70
     1
102
RTVSPropertyOp28
 70
     1
102
RTVSPropertyOp29
 70
     1
102
RTVSPropertyOp30
 70
     1
102
RTVSPropertyOp31
 70
     1
102
RTVSPropertyOp32
 70
     1
102
RTVSPropertyOp33
 70
     1
102
RTVSPropertyOp34
 70
     1
102
RTVSPropertyOp35
 70
     1
102
RTVSPropertyOp36
 70
     1
102
RTVSPropertyOp37
 70
     1
102
RTVSPropertyOp38
 70
     1
102
RTVSPropertyOp39
 70
     1
102
RTVSPropertyOp40
 70
     1
102
RTVSPropertyOp41
 70
     1
102
RTVSPropertyOp42
 70
     1
102
RTVSPropertyOp43
 70
     1
102
RTVSPropertyOp44
 70
     1
102
RTVSPropertyOp45
 70
     1
102
RTVSPropertyOp46
 70
     1
102
RTVSPropertyOp47
 70
     1
102
RTVSPropertyOp48
 70
     1
102
RTVSPropertyOp49
 70
     1
102
RTVSPropertyOp50
 70
     1
102
RTVSPropertyOp51
 70
     0
102
RTVSPropertyOp52
 70
     0
102
RTVSPropertyOp53
 70
     1
102
RTVSPropertyOp54
 70
     1
102
RTVSPropertyOp55
 70
     1
102
RTVSPropertyOp56
 70
     1
102
RTVSPropertyOp57
 70
     1
102
RTVSPropertyOp58
 70
     1
102
RTVSPropertyOp59
 70
     1
102
RTVSPropertyOp60
 70
     1
102
RTVSPropertyOp61
 70
     1
102
RTVSPropertyOp62
 70
     1
  0
XRECORD
  5
8582
102
{ACAD_REACTORS
330
8581
102
}
330
8581
100
AcDbXrecord
280
     1
102
RTVSPost2010Prop28
280
     0
102
RTVSPost2010PropOp28
 70
     1
102
RTVSPost2010Prop29
280
     1
102
RTVSPost2010PropOp29
 70
     1
102
RTVSPost2010Prop30
280
     1
102
RTVSPost2010PropOp30
 70
     1
102
RTVSPost2010Prop31
280
     0
102
RTVSPost2010PropOp31
 70
     1
102
RTVSPost2010Prop32
280
     0
102
RTVSPost2010PropOp32
 70
     1
102
RTVSPost2010Prop33
280
     0
102
RTVSPost2010PropOp33
 70
     1
102
RTVSPost2010Prop34
280
     0
102
RTVSPost2010PropOp34
 70
     1
102
RTVSPost2010Prop35
280
     0
102
RTVSPost2010PropOp35
 70
     1
102
RTVSPost2010Prop36
280
     0
102
RTVSPost2010PropOp36
 70
     1
102
RTVSPost2010Prop37
 90
       50
102
RTVSPost2010PropOp37
 70
     1
102
RTVSPost2010Prop38
140
0.0
102
RTVSPost2010PropOp38
 70
     1
102
RTVSPost2010Prop39
140
1.0
102
RTVSPost2010PropOp39
 70
     1
102
RTVSPost2010Prop40
 90
        0
102
RTVSPost2010PropOp40
 70
     1
102
RTVSPost2010Prop41ColorIndex
 90
       18
102
RTVSPost2010Prop41ColorRGB
 90
        0
102
RTVSPost2010PropOp41
 70
     1
102
RTVSPost2010Prop42
 90
       50
102
RTVSPost2010PropOp42
 70
     1
102
RTVSPost2010Prop43
 90
        3
102
RTVSPost2010PropOp43
 70
     1
102
RTVSPost2010Prop44ColorIndex
 90
        5
102
RTVSPost2010Prop44ColorRGB
 90
      255
102
RTVSPost2010PropOp44
 70
     1
102
RTVSPost2010Prop45
280
     0
102
RTVSPost2010PropOp45
 70
     1
102
RTVSPost2010Prop46
 90
       50
102
RTVSPost2010PropOp46
 70
     1
102
RTVSPost2010Prop47
 90
       50
102
RTVSPost2010PropOp47
 70
     1
102
RTVSPost2010Prop48
 90
       50
102
RTVSPost2010PropOp48
 70
     1
102
RTVSPost2010Prop49
280
     0
102
RTVSPost2010PropOp49
 70
     1
102
RTVSPost2010Prop50
 90
       50
102
RTVSPost2010PropOp50
 70
     1
102
RTVSPost2010Prop51ColorIndex
 90
      256
102
RTVSPost2010Prop51ColorRGB
 90
-16777216
102
RTVSPost2010PropOp51
 70
     0
102
RTVSPost2010Prop52
140
1.0
102
RTVSPost2010PropOp52
 70
     0
102
RTVSPost2010Prop53
 90
        2
102
RTVSPost2010PropOp53
 70
     1
102
RTVSPost2010Prop54
  1
strokes_ogs.tif
102
RTVSPost2010PropOp54
 70
     1
102
RTVSPost2010Prop55
280
     0
102
RTVSPost2010PropOp55
 70
     1
102
RTVSPost2010Prop56
140
1.0
102
RTVSPost2010PropOp56
 70
     1
102
RTVSPost2010Prop57
140
1.0
102
RTVSPost2010PropOp57
 70
     1
102
RTVSPropertyOp0
 70
     1
102
RTVSPropertyOp1
 70
     1
102
RTVSPropertyOp2
 70
     1
102
RTVSPropertyOp3
 70
     1
102
RTVSPropertyOp4
 70
     1
102
RTVSPropertyOp5
 70
     1
102
RTVSPropertyOp6
 70
     1
102
RTVSPropertyOp7
 70
     1
102
RTVSPropertyOp8
 70
     1
102
RTVSPropertyOp9
 70
     1
102
RTVSPropertyOp10
 70
     1
102
RTVSPropertyOp11
 70
     1
102
RTVSPropertyOp12
 70
     1
102
RTVSPropertyOp13
 70
     1
102
RTVSPropertyOp14
 70
     1
102
RTVSPropertyOp15
 70
     1
102
RTVSPropertyOp16
 70
     1
102
RTVSPropertyOp17
 70
     1
102
RTVSPropertyOp18
 70
     1
102
RTVSPropertyOp19
 70
     1
102
RTVSPropertyOp20
 70
     1
102
RTVSPropertyOp21
 70
     1
102
RTVSPropertyOp22
 70
     1
102
RTVSPropertyOp23
 70
     1
102
RTVSPropertyOp24
 70
     1
102
RTVSPropertyOp25
 70
     1
102
RTVSPropertyOp26
 70
     1
102
RTVSPropertyOp27
 70
     1
102
RTVSPropertyOp28
 70
     1
102
RTVSPropertyOp29
 70
     1
102
RTVSPropertyOp30
 70
     1
102
RTVSPropertyOp31
 70
     1
102
RTVSPropertyOp32
 70
     1
102
RTVSPropertyOp33
 70
     1
102
RTVSPropertyOp34
 70
     1
102
RTVSPropertyOp35
 70
     1
102
RTVSPropertyOp36
 70
     1
102
RTVSPropertyOp37
 70
     1
102
RTVSPropertyOp38
 70
     1
102
RTVSPropertyOp39
 70
     1
102
RTVSPropertyOp40
 70
     1
102
RTVSPropertyOp41
 70
     1
102
RTVSPropertyOp42
 70
     1
102
RTVSPropertyOp43
 70
     1
102
RTVSPropertyOp44
 70
     1
102
RTVSPropertyOp45
 70
     1
102
RTVSPropertyOp46
 70
     1
102
RTVSPropertyOp47
 70
     1
102
RTVSPropertyOp48
 70
     1
102
RTVSPropertyOp49
 70
     1
102
RTVSPropertyOp50
 70
     1
102
RTVSPropertyOp51
 70
     0
102
RTVSPropertyOp52
 70
     0
102
RTVSPropertyOp53
 70
     1
102
RTVSPropertyOp54
 70
     1
102
RTVSPropertyOp55
 70
     1
102
RTVSPropertyOp56
 70
     1
102
RTVSPropertyOp57
 70
     1
102
RTVSPropertyOp58
 70
     1
102
RTVSPropertyOp59
 70
     1
102
RTVSPropertyOp60
 70
     1
102
RTVSPropertyOp61
 70
     1
102
RTVSPropertyOp62
 70
     1
  0
XRECORD
  5
858A
102
{ACAD_REACTORS
330
8589
102
}
330
8589
100
AcDbXrecord
280
     1
102
RTVSPost2010Prop28
280
     0
102
RTVSPost2010PropOp28
 70
     1
102
RTVSPost2010Prop29
280
     1
102
RTVSPost2010PropOp29
 70
     1
102
RTVSPost2010Prop30
280
     1
102
RTVSPost2010PropOp30
 70
     1
102
RTVSPost2010Prop31
280
     0
102
RTVSPost2010PropOp31
 70
     1
102
RTVSPost2010Prop32
280
     0
102
RTVSPost2010PropOp32
 70
     1
102
RTVSPost2010Prop33
280
     0
102
RTVSPost2010PropOp33
 70
     1
102
RTVSPost2010Prop34
280
     0
102
RTVSPost2010PropOp34
 70
     1
102
RTVSPost2010Prop35
280
     0
102
RTVSPost2010PropOp35
 70
     1
102
RTVSPost2010Prop36
280
     0
102
RTVSPost2010PropOp36
 70
     1
102
RTVSPost2010Prop37
 90
       50
102
RTVSPost2010PropOp37
 70
     1
102
RTVSPost2010Prop38
140
0.0
102
RTVSPost2010PropOp38
 70
     1
102
RTVSPost2010Prop39
140
1.0
102
RTVSPost2010PropOp39
 70
     1
102
RTVSPost2010Prop40
 90
        0
102
RTVSPost2010PropOp40
 70
     1
102
RTVSPost2010Prop41ColorIndex
 90
       18
102
RTVSPost2010Prop41ColorRGB
 90
        0
102
RTVSPost2010PropOp41
 70
     1
102
RTVSPost2010Prop42
 90
       50
102
RTVSPost2010PropOp42
 70
     1
102
RTVSPost2010Prop43
 90
        3
102
RTVSPost2010PropOp43
 70
     1
102
RTVSPost2010Prop44ColorIndex
 90
        5
102
RTVSPost2010Prop44ColorRGB
 90
      255
102
RTVSPost2010PropOp44
 70
     1
102
RTVSPost2010Prop45
280
     0
102
RTVSPost2010PropOp45
 70
     1
102
RTVSPost2010Prop46
 90
       50
102
RTVSPost2010PropOp46
 70
     1
102
RTVSPost2010Prop47
 90
       50
102
RTVSPost2010PropOp47
 70
     1
102
RTVSPost2010Prop48
 90
       50
102
RTVSPost2010PropOp48
 70
     1
102
RTVSPost2010Prop49
280
     0
102
RTVSPost2010PropOp49
 70
     1
102
RTVSPost2010Prop50
 90
       50
102
RTVSPost2010PropOp50
 70
     1
102
RTVSPost2010Prop51ColorIndex
 90
      256
102
RTVSPost2010Prop51ColorRGB
 90
-16777216
102
RTVSPost2010PropOp51
 70
     0
102
RTVSPost2010Prop52
140
1.0
102
RTVSPost2010PropOp52
 70
     0
102
RTVSPost2010Prop53
 90
        2
102
RTVSPost2010PropOp53
 70
     1
102
RTVSPost2010Prop54
  1
strokes_ogs.tif
102
RTVSPost2010PropOp54
 70
     1
102
RTVSPost2010Prop55
280
     0
102
RTVSPost2010PropOp55
 70
     1
102
RTVSPost2010Prop56
140
1.0
102
RTVSPost2010PropOp56
 70
     1
102
RTVSPost2010Prop57
140
1.0
102
RTVSPost2010PropOp57
 70
     1
102
RTVSPropertyOp0
 70
     1
102
RTVSPropertyOp1
 70
     1
102
RTVSPropertyOp2
 70
     1
102
RTVSPropertyOp3
 70
     1
102
RTVSPropertyOp4
 70
     1
102
RTVSPropertyOp5
 70
     1
102
RTVSPropertyOp6
 70
     1
102
RTVSPropertyOp7
 70
     1
102
RTVSPropertyOp8
 70
     1
102
RTVSPropertyOp9
 70
     1
102
RTVSPropertyOp10
 70
     1
102
RTVSPropertyOp11
 70
     1
102
RTVSPropertyOp12
 70
     1
102
RTVSPropertyOp13
 70
     1
102
RTVSPropertyOp14
 70
     1
102
RTVSPropertyOp15
 70
     1
102
RTVSPropertyOp16
 70
     1
102
RTVSPropertyOp17
 70
     1
102
RTVSPropertyOp18
 70
     1
102
RTVSPropertyOp19
 70
     1
102
RTVSPropertyOp20
 70
     1
102
RTVSPropertyOp21
 70
     1
102
RTVSPropertyOp22
 70
     1
102
RTVSPropertyOp23
 70
     1
102
RTVSPropertyOp24
 70
     1
102
RTVSPropertyOp25
 70
     1
102
RTVSPropertyOp26
 70
     1
102
RTVSPropertyOp27
 70
     1
102
RTVSPropertyOp28
 70
     1
102
RTVSPropertyOp29
 70
     1
102
RTVSPropertyOp30
 70
     1
102
RTVSPropertyOp31
 70
     1
102
RTVSPropertyOp32
 70
     1
102
RTVSPropertyOp33
 70
     1
102
RTVSPropertyOp34
 70
     1
102
RTVSPropertyOp35
 70
     1
102
RTVSPropertyOp36
 70
     1
102
RTVSPropertyOp37
 70
     1
102
RTVSPropertyOp38
 70
     1
102
RTVSPropertyOp39
 70
     1
102
RTVSPropertyOp40
 70
     1
102
RTVSPropertyOp41
 70
     1
102
RTVSPropertyOp42
 70
     1
102
RTVSPropertyOp43
 70
     1
102
RTVSPropertyOp44
 70
     1
102
RTVSPropertyOp45
 70
     1
102
RTVSPropertyOp46
 70
     1
102
RTVSPropertyOp47
 70
     1
102
RTVSPropertyOp48
 70
     1
102
RTVSPropertyOp49
 70
     1
102
RTVSPropertyOp50
 70
     1
102
RTVSPropertyOp51
 70
     0
102
RTVSPropertyOp52
 70
     0
102
RTVSPropertyOp53
 70
     1
102
RTVSPropertyOp54
 70
     1
102
RTVSPropertyOp55
 70
     1
102
RTVSPropertyOp56
 70
     1
102
RTVSPropertyOp57
 70
     1
102
RTVSPropertyOp58
 70
     1
102
RTVSPropertyOp59
 70
     1
102
RTVSPropertyOp60
 70
     1
102
RTVSPropertyOp61
 70
     1
102
RTVSPropertyOp62
 70
     1
  0
XRECORD
  5
85A6
102
{ACAD_REACTORS
330
85A5
102
}
330
85A5
100
AcDbXrecord
280
     1
102
RTVSPost2010Prop28
280
     0
102
RTVSPost2010PropOp28
 70
     1
102
RTVSPost2010Prop29
280
     1
102
RTVSPost2010PropOp29
 70
     1
102
RTVSPost2010Prop30
280
     1
102
RTVSPost2010PropOp30
 70
     1
102
RTVSPost2010Prop31
280
     0
102
RTVSPost2010PropOp31
 70
     1
102
RTVSPost2010Prop32
280
     0
102
RTVSPost2010PropOp32
 70
     1
102
RTVSPost2010Prop33
280
     0
102
RTVSPost2010PropOp33
 70
     1
102
RTVSPost2010Prop34
280
     0
102
RTVSPost2010PropOp34
 70
     1
102
RTVSPost2010Prop35
280
     0
102
RTVSPost2010PropOp35
 70
     1
102
RTVSPost2010Prop36
280
     0
102
RTVSPost2010PropOp36
 70
     1
102
RTVSPost2010Prop37
 90
       50
102
RTVSPost2010PropOp37
 70
     0
102
RTVSPost2010Prop38
140
0.0
102
RTVSPost2010PropOp38
 70
     0
102
RTVSPost2010Prop39
140
1.0
102
RTVSPost2010PropOp39
 70
     0
102
RTVSPost2010Prop40
 90
        0
102
RTVSPost2010PropOp40
 70
     0
102
RTVSPost2010Prop41ColorIndex
 90
       18
102
RTVSPost2010Prop41ColorRGB
 90
        0
102
RTVSPost2010PropOp41
 70
     0
102
RTVSPost2010Prop42
 90
       50
102
RTVSPost2010PropOp42
 70
     0
102
RTVSPost2010Prop43
 90
        3
102
RTVSPost2010PropOp43
 70
     0
102
RTVSPost2010Prop44ColorIndex
 90
        5
102
RTVSPost2010Prop44ColorRGB
 90
      255
102
RTVSPost2010PropOp44
 70
     0
102
RTVSPost2010Prop45
280
     0
102
RTVSPost2010PropOp45
 70
     1
102
RTVSPost2010Prop46
 90
       50
102
RTVSPost2010PropOp46
 70
     0
102
RTVSPost2010Prop47
 90
       50
102
RTVSPost2010PropOp47
 70
     0
102
RTVSPost2010Prop48
 90
       50
102
RTVSPost2010PropOp48
 70
     0
102
RTVSPost2010Prop49
280
     0
102
RTVSPost2010PropOp49
 70
     1
102
RTVSPost2010Prop50
 90
       50
102
RTVSPost2010PropOp50
 70
     0
102
RTVSPost2010Prop51ColorIndex
 90
      256
102
RTVSPost2010Prop51ColorRGB
 90
-16777216
102
RTVSPost2010PropOp51
 70
     0
102
RTVSPost2010Prop52
140
1.0
102
RTVSPost2010PropOp52
 70
     0
102
RTVSPost2010Prop53
 90
        2
102
RTVSPost2010PropOp53
 70
     0
102
RTVSPost2010Prop54
  1
strokes_ogs.tif
102
RTVSPost2010PropOp54
 70
     0
102
RTVSPost2010Prop55
280
     0
102
RTVSPost2010PropOp55
 70
     1
102
RTVSPost2010Prop56
140
1.0
102
RTVSPost2010PropOp56
 70
     0
102
RTVSPost2010Prop57
140
1.0
102
RTVSPost2010PropOp57
 70
     0
102
RTVSPropertyOp0
 70
     0
102
RTVSPropertyOp1
 70
     0
102
RTVSPropertyOp2
 70
     0
102
RTVSPropertyOp3
 70
     0
102
RTVSPropertyOp4
 70
     0
102
RTVSPropertyOp5
 70
     0
102
RTVSPropertyOp6
 70
     0
102
RTVSPropertyOp7
 70
     0
102
RTVSPropertyOp8
 70
     0
102
RTVSPropertyOp9
 70
     0
102
RTVSPropertyOp10
 70
     0
102
RTVSPropertyOp11
 70
     0
102
RTVSPropertyOp12
 70
     0
102
RTVSPropertyOp13
 70
     0
102
RTVSPropertyOp14
 70
     2
102
RTVSPropertyOp15
 70
     0
102
RTVSPropertyOp16
 70
     0
102
RTVSPropertyOp17
 70
     0
102
RTVSPropertyOp18
 70
     0
102
RTVSPropertyOp19
 70
     0
102
RTVSPropertyOp20
 70
     0
102
RTVSPropertyOp21
 70
     0
102
RTVSPropertyOp22
 70
     0
102
RTVSPropertyOp23
 70
     0
102
RTVSPropertyOp24
 70
     0
102
RTVSPropertyOp25
 70
     0
102
RTVSPropertyOp26
 70
     0
102
RTVSPropertyOp27
 70
     0
102
RTVSPropertyOp28
 70
     1
102
RTVSPropertyOp29
 70
     1
102
RTVSPropertyOp30
 70
     1
102
RTVSPropertyOp31
 70
     1
102
RTVSPropertyOp32
 70
     1
102
RTVSPropertyOp33
 70
     1
102
RTVSPropertyOp34
 70
     1
102
RTVSPropertyOp35
 70
     1
102
RTVSPropertyOp36
 70
     1
102
RTVSPropertyOp37
 70
     0
102
RTVSPropertyOp38
 70
     0
102
RTVSPropertyOp39
 70
     0
102
RTVSPropertyOp40
 70
     0
102
RTVSPropertyOp41
 70
     0
102
RTVSPropertyOp42
 70
     0
102
RTVSPropertyOp43
 70
     0
102
RTVSPropertyOp44
 70
     0
102
RTVSPropertyOp45
 70
     1
102
RTVSPropertyOp46
 70
     0
102
RTVSPropertyOp47
 70
     0
102
RTVSPropertyOp48
 70
     0
102
RTVSPropertyOp49
 70
     1
102
RTVSPropertyOp50
 70
     0
102
RTVSPropertyOp51
 70
     0
102
RTVSPropertyOp52
 70
     0
102
RTVSPropertyOp53
 70
     0
102
RTVSPropertyOp54
 70
     0
102
RTVSPropertyOp55
 70
     1
102
RTVSPropertyOp56
 70
     0
102
RTVSPropertyOp57
 70
     0
102
RTVSPropertyOp58
 70
     0
102
RTVSPropertyOp59
 70
     0
102
RTVSPropertyOp60
 70
     0
102
RTVSPropertyOp61
 70
     0
102
RTVSPropertyOp62
 70
     0
  0
XRECORD
  5
8596
102
{ACAD_REACTORS
330
8595
102
}
330
8595
100
AcDbXrecord
280
     1
102
RTVSPost2010Prop28
280
     0
102
RTVSPost2010PropOp28
 70
     1
102
RTVSPost2010Prop29
280
     1
102
RTVSPost2010PropOp29
 70
     1
102
RTVSPost2010Prop30
280
     1
102
RTVSPost2010PropOp30
 70
     1
102
RTVSPost2010Prop31
280
     0
102
RTVSPost2010PropOp31
 70
     1
102
RTVSPost2010Prop32
280
     0
102
RTVSPost2010PropOp32
 70
     1
102
RTVSPost2010Prop33
280
     0
102
RTVSPost2010PropOp33
 70
     1
102
RTVSPost2010Prop34
280
     0
102
RTVSPost2010PropOp34
 70
     1
102
RTVSPost2010Prop35
280
     0
102
RTVSPost2010PropOp35
 70
     1
102
RTVSPost2010Prop36
280
     0
102
RTVSPost2010PropOp36
 70
     1
102
RTVSPost2010Prop37
 90
       50
102
RTVSPost2010PropOp37
 70
     1
102
RTVSPost2010Prop38
140
0.0
102
RTVSPost2010PropOp38
 70
     1
102
RTVSPost2010Prop39
140
1.0
102
RTVSPost2010PropOp39
 70
     1
102
RTVSPost2010Prop40
 90
        0
102
RTVSPost2010PropOp40
 70
     1
102
RTVSPost2010Prop41ColorIndex
 90
       18
102
RTVSPost2010Prop41ColorRGB
 90
        0
102
RTVSPost2010PropOp41
 70
     1
102
RTVSPost2010Prop42
 90
       50
102
RTVSPost2010PropOp42
 70
     1
102
RTVSPost2010Prop43
 90
        3
102
RTVSPost2010PropOp43
 70
     1
102
RTVSPost2010Prop44ColorIndex
 90
        5
102
RTVSPost2010Prop44ColorRGB
 90
      255
102
RTVSPost2010PropOp44
 70
     1
102
RTVSPost2010Prop45
280
     0
102
RTVSPost2010PropOp45
 70
     1
102
RTVSPost2010Prop46
 90
       50
102
RTVSPost2010PropOp46
 70
     1
102
RTVSPost2010Prop47
 90
       50
102
RTVSPost2010PropOp47
 70
     1
102
RTVSPost2010Prop48
 90
       50
102
RTVSPost2010PropOp48
 70
     1
102
RTVSPost2010Prop49
280
     0
102
RTVSPost2010PropOp49
 70
     1
102
RTVSPost2010Prop50
 90
       50
102
RTVSPost2010PropOp50
 70
     1
102
RTVSPost2010Prop51ColorIndex
 90
      256
102
RTVSPost2010Prop51ColorRGB
 90
-16777216
102
RTVSPost2010PropOp51
 70
     0
102
RTVSPost2010Prop52
140
1.0
102
RTVSPost2010PropOp52
 70
     0
102
RTVSPost2010Prop53
 90
        2
102
RTVSPost2010PropOp53
 70
     1
102
RTVSPost2010Prop54
  1
strokes_ogs.tif
102
RTVSPost2010PropOp54
 70
     1
102
RTVSPost2010Prop55
280
     0
102
RTVSPost2010PropOp55
 70
     1
102
RTVSPost2010Prop56
140
1.0
102
RTVSPost2010PropOp56
 70
     1
102
RTVSPost2010Prop57
140
1.0
102
RTVSPost2010PropOp57
 70
     1
102
RTVSPropertyOp0
 70
     1
102
RTVSPropertyOp1
 70
     1
102
RTVSPropertyOp2
 70
     1
102
RTVSPropertyOp3
 70
     1
102
RTVSPropertyOp4
 70
     1
102
RTVSPropertyOp5
 70
     1
102
RTVSPropertyOp6
 70
     1
102
RTVSPropertyOp7
 70
     1
102
RTVSPropertyOp8
 70
     1
102
RTVSPropertyOp9
 70
     1
102
RTVSPropertyOp10
 70
     1
102
RTVSPropertyOp11
 70
     1
102
RTVSPropertyOp12
 70
     1
102
RTVSPropertyOp13
 70
     1
102
RTVSPropertyOp14
 70
     1
102
RTVSPropertyOp15
 70
     1
102
RTVSPropertyOp16
 70
     1
102
RTVSPropertyOp17
 70
     1
102
RTVSPropertyOp18
 70
     1
102
RTVSPropertyOp19
 70
     1
102
RTVSPropertyOp20
 70
     1
102
RTVSPropertyOp21
 70
     1
102
RTVSPropertyOp22
 70
     1
102
RTVSPropertyOp23
 70
     1
102
RTVSPropertyOp24
 70
     1
102
RTVSPropertyOp25
 70
     1
102
RTVSPropertyOp26
 70
     1
102
RTVSPropertyOp27
 70
     1
102
RTVSPropertyOp28
 70
     1
102
RTVSPropertyOp29
 70
     1
102
RTVSPropertyOp30
 70
     1
102
RTVSPropertyOp31
 70
     1
102
RTVSPropertyOp32
 70
     1
102
RTVSPropertyOp33
 70
     1
102
RTVSPropertyOp34
 70
     1
102
RTVSPropertyOp35
 70
     1
102
RTVSPropertyOp36
 70
     1
102
RTVSPropertyOp37
 70
     1
102
RTVSPropertyOp38
 70
     1
102
RTVSPropertyOp39
 70
     1
102
RTVSPropertyOp40
 70
     1
102
RTVSPropertyOp41
 70
     1
102
RTVSPropertyOp42
 70
     1
102
RTVSPropertyOp43
 70
     1
102
RTVSPropertyOp44
 70
     1
102
RTVSPropertyOp45
 70
     1
102
RTVSPropertyOp46
 70
     1
102
RTVSPropertyOp47
 70
     1
102
RTVSPropertyOp48
 70
     1
102
RTVSPropertyOp49
 70
     1
102
RTVSPropertyOp50
 70
     1
102
RTVSPropertyOp51
 70
     0
102
RTVSPropertyOp52
 70
     0
102
RTVSPropertyOp53
 70
     1
102
RTVSPropertyOp54
 70
     1
102
RTVSPropertyOp55
 70
     1
102
RTVSPropertyOp56
 70
     1
102
RTVSPropertyOp57
 70
     1
102
RTVSPropertyOp58
 70
     1
102
RTVSPropertyOp59
 70
     1
102
RTVSPropertyOp60
 70
     1
102
RTVSPropertyOp61
 70
     1
102
RTVSPropertyOp62
 70
     1
  0
XRECORD
  5
85A8
102
{ACAD_REACTORS
330
85A7
102
}
330
85A7
100
AcDbXrecord
280
     1
102
RTVSPost2010Prop28
280
     0
102
RTVSPost2010PropOp28
 70
     1
102
RTVSPost2010Prop29
280
     1
102
RTVSPost2010PropOp29
 70
     1
102
RTVSPost2010Prop30
280
     1
102
RTVSPost2010PropOp30
 70
     1
102
RTVSPost2010Prop31
280
     0
102
RTVSPost2010PropOp31
 70
     1
102
RTVSPost2010Prop32
280
     0
102
RTVSPost2010PropOp32
 70
     1
102
RTVSPost2010Prop33
280
     0
102
RTVSPost2010PropOp33
 70
     1
102
RTVSPost2010Prop34
280
     0
102
RTVSPost2010PropOp34
 70
     1
102
RTVSPost2010Prop35
280
     0
102
RTVSPost2010PropOp35
 70
     1
102
RTVSPost2010Prop36
280
     0
102
RTVSPost2010PropOp36
 70
     1
102
RTVSPost2010Prop37
 90
       50
102
RTVSPost2010PropOp37
 70
     0
102
RTVSPost2010Prop38
140
0.0
102
RTVSPost2010PropOp38
 70
     0
102
RTVSPost2010Prop39
140
1.0
102
RTVSPost2010PropOp39
 70
     0
102
RTVSPost2010Prop40
 90
        0
102
RTVSPost2010PropOp40
 70
     0
102
RTVSPost2010Prop41ColorIndex
 90
       18
102
RTVSPost2010Prop41ColorRGB
 90
        0
102
RTVSPost2010PropOp41
 70
     0
102
RTVSPost2010Prop42
 90
       50
102
RTVSPost2010PropOp42
 70
     0
102
RTVSPost2010Prop43
 90
        3
102
RTVSPost2010PropOp43
 70
     0
102
RTVSPost2010Prop44ColorIndex
 90
        5
102
RTVSPost2010Prop44ColorRGB
 90
      255
102
RTVSPost2010PropOp44
 70
     0
102
RTVSPost2010Prop45
280
     0
102
RTVSPost2010PropOp45
 70
     1
102
RTVSPost2010Prop46
 90
       50
102
RTVSPost2010PropOp46
 70
     0
102
RTVSPost2010Prop47
 90
       50
102
RTVSPost2010PropOp47
 70
     0
102
RTVSPost2010Prop48
 90
       50
102
RTVSPost2010PropOp48
 70
     0
102
RTVSPost2010Prop49
280
     0
102
RTVSPost2010PropOp49
 70
     1
102
RTVSPost2010Prop50
 90
       50
102
RTVSPost2010PropOp50
 70
     0
102
RTVSPost2010Prop51ColorIndex
 90
      256
102
RTVSPost2010Prop51ColorRGB
 90
-16777216
102
RTVSPost2010PropOp51
 70
     0
102
RTVSPost2010Prop52
140
1.0
102
RTVSPost2010PropOp52
 70
     0
102
RTVSPost2010Prop53
 90
        2
102
RTVSPost2010PropOp53
 70
     0
102
RTVSPost2010Prop54
  1
strokes_ogs.tif
102
RTVSPost2010PropOp54
 70
     0
102
RTVSPost2010Prop55
280
     0
102
RTVSPost2010PropOp55
 70
     1
102
RTVSPost2010Prop56
140
1.0
102
RTVSPost2010PropOp56
 70
     0
102
RTVSPost2010Prop57
140
1.0
102
RTVSPost2010PropOp57
 70
     0
102
RTVSPropertyOp0
 70
     0
102
RTVSPropertyOp1
 70
     0
102
RTVSPropertyOp2
 70
     0
102
RTVSPropertyOp3
 70
     0
102
RTVSPropertyOp4
 70
     0
102
RTVSPropertyOp5
 70
     0
102
RTVSPropertyOp6
 70
     0
102
RTVSPropertyOp7
 70
     0
102
RTVSPropertyOp8
 70
     0
102
RTVSPropertyOp9
 70
     0
102
RTVSPropertyOp10
 70
     0
102
RTVSPropertyOp11
 70
     0
102
RTVSPropertyOp12
 70
     0
102
RTVSPropertyOp13
 70
     0
102
RTVSPropertyOp14
 70
     2
102
RTVSPropertyOp15
 70
     0
102
RTVSPropertyOp16
 70
     0
102
RTVSPropertyOp17
 70
     0
102
RTVSPropertyOp18
 70
     0
102
RTVSPropertyOp19
 70
     0
102
RTVSPropertyOp20
 70
     0
102
RTVSPropertyOp21
 70
     0
102
RTVSPropertyOp22
 70
     0
102
RTVSPropertyOp23
 70
     0
102
RTVSPropertyOp24
 70
     0
102
RTVSPropertyOp25
 70
     0
102
RTVSPropertyOp26
 70
     0
102
RTVSPropertyOp27
 70
     0
102
RTVSPropertyOp28
 70
     1
102
RTVSPropertyOp29
 70
     1
102
RTVSPropertyOp30
 70
     1
102
RTVSPropertyOp31
 70
     1
102
RTVSPropertyOp32
 70
     1
102
RTVSPropertyOp33
 70
     1
102
RTVSPropertyOp34
 70
     1
102
RTVSPropertyOp35
 70
     1
102
RTVSPropertyOp36
 70
     1
102
RTVSPropertyOp37
 70
     0
102
RTVSPropertyOp38
 70
     0
102
RTVSPropertyOp39
 70
     0
102
RTVSPropertyOp40
 70
     0
102
RTVSPropertyOp41
 70
     0
102
RTVSPropertyOp42
 70
     0
102
RTVSPropertyOp43
 70
     0
102
RTVSPropertyOp44
 70
     0
102
RTVSPropertyOp45
 70
     1
102
RTVSPropertyOp46
 70
     0
102
RTVSPropertyOp47
 70
     0
102
RTVSPropertyOp48
 70
     0
102
RTVSPropertyOp49
 70
     1
102
RTVSPropertyOp50
 70
     0
102
RTVSPropertyOp51
 70
     0
102
RTVSPropertyOp52
 70
     0
102
RTVSPropertyOp53
 70
     0
102
RTVSPropertyOp54
 70
     0
102
RTVSPropertyOp55
 70
     1
102
RTVSPropertyOp56
 70
     0
102
RTVSPropertyOp57
 70
     0
102
RTVSPropertyOp58
 70
     0
102
RTVSPropertyOp59
 70
     0
102
RTVSPropertyOp60
 70
     0
102
RTVSPropertyOp61
 70
     0
102
RTVSPropertyOp62
 70
     0
  0
XRECORD
  5
858E
102
{ACAD_REACTORS
330
858D
102
}
330
858D
100
AcDbXrecord
280
     1
102
RTVSPost2010Prop28
280
     0
102
RTVSPost2010PropOp28
 70
     1
102
RTVSPost2010Prop29
280
     1
102
RTVSPost2010PropOp29
 70
     1
102
RTVSPost2010Prop30
280
     1
102
RTVSPost2010PropOp30
 70
     1
102
RTVSPost2010Prop31
280
     0
102
RTVSPost2010PropOp31
 70
     1
102
RTVSPost2010Prop32
280
     0
102
RTVSPost2010PropOp32
 70
     1
102
RTVSPost2010Prop33
280
     0
102
RTVSPost2010PropOp33
 70
     1
102
RTVSPost2010Prop34
280
     0
102
RTVSPost2010PropOp34
 70
     1
102
RTVSPost2010Prop35
280
     0
102
RTVSPost2010PropOp35
 70
     1
102
RTVSPost2010Prop36
280
     0
102
RTVSPost2010PropOp36
 70
     1
102
RTVSPost2010Prop37
 90
       50
102
RTVSPost2010PropOp37
 70
     1
102
RTVSPost2010Prop38
140
0.0
102
RTVSPost2010PropOp38
 70
     1
102
RTVSPost2010Prop39
140
1.0
102
RTVSPost2010PropOp39
 70
     1
102
RTVSPost2010Prop40
 90
        0
102
RTVSPost2010PropOp40
 70
     1
102
RTVSPost2010Prop41ColorIndex
 90
       18
102
RTVSPost2010Prop41ColorRGB
 90
        0
102
RTVSPost2010PropOp41
 70
     1
102
RTVSPost2010Prop42
 90
       50
102
RTVSPost2010PropOp42
 70
     1
102
RTVSPost2010Prop43
 90
        3
102
RTVSPost2010PropOp43
 70
     1
102
RTVSPost2010Prop44ColorIndex
 90
        5
102
RTVSPost2010Prop44ColorRGB
 90
      255
102
RTVSPost2010PropOp44
 70
     1
102
RTVSPost2010Prop45
280
     0
102
RTVSPost2010PropOp45
 70
     1
102
RTVSPost2010Prop46
 90
       50
102
RTVSPost2010PropOp46
 70
     1
102
RTVSPost2010Prop47
 90
       50
102
RTVSPost2010PropOp47
 70
     1
102
RTVSPost2010Prop48
 90
       50
102
RTVSPost2010PropOp48
 70
     1
102
RTVSPost2010Prop49
280
     0
102
RTVSPost2010PropOp49
 70
     1
102
RTVSPost2010Prop50
 90
       50
102
RTVSPost2010PropOp50
 70
     1
102
RTVSPost2010Prop51ColorIndex
 90
      256
102
RTVSPost2010Prop51ColorRGB
 90
-16777216
102
RTVSPost2010PropOp51
 70
     0
102
RTVSPost2010Prop52
140
1.0
102
RTVSPost2010PropOp52
 70
     0
102
RTVSPost2010Prop53
 90
        2
102
RTVSPost2010PropOp53
 70
     1
102
RTVSPost2010Prop54
  1
strokes_ogs.tif
102
RTVSPost2010PropOp54
 70
     1
102
RTVSPost2010Prop55
280
     0
102
RTVSPost2010PropOp55
 70
     1
102
RTVSPost2010Prop56
140
1.0
102
RTVSPost2010PropOp56
 70
     1
102
RTVSPost2010Prop57
140
1.0
102
RTVSPost2010PropOp57
 70
     1
102
RTVSPropertyOp0
 70
     1
102
RTVSPropertyOp1
 70
     1
102
RTVSPropertyOp2
 70
     1
102
RTVSPropertyOp3
 70
     1
102
RTVSPropertyOp4
 70
     1
102
RTVSPropertyOp5
 70
     1
102
RTVSPropertyOp6
 70
     1
102
RTVSPropertyOp7
 70
     1
102
RTVSPropertyOp8
 70
     1
102
RTVSPropertyOp9
 70
     1
102
RTVSPropertyOp10
 70
     1
102
RTVSPropertyOp11
 70
     1
102
RTVSPropertyOp12
 70
     1
102
RTVSPropertyOp13
 70
     1
102
RTVSPropertyOp14
 70
     1
102
RTVSPropertyOp15
 70
     1
102
RTVSPropertyOp16
 70
     1
102
RTVSPropertyOp17
 70
     1
102
RTVSPropertyOp18
 70
     1
102
RTVSPropertyOp19
 70
     1
102
RTVSPropertyOp20
 70
     1
102
RTVSPropertyOp21
 70
     1
102
RTVSPropertyOp22
 70
     1
102
RTVSPropertyOp23
 70
     1
102
RTVSPropertyOp24
 70
     1
102
RTVSPropertyOp25
 70
     1
102
RTVSPropertyOp26
 70
     1
102
RTVSPropertyOp27
 70
     1
102
RTVSPropertyOp28
 70
     1
102
RTVSPropertyOp29
 70
     1
102
RTVSPropertyOp30
 70
     1
102
RTVSPropertyOp31
 70
     1
102
RTVSPropertyOp32
 70
     1
102
RTVSPropertyOp33
 70
     1
102
RTVSPropertyOp34
 70
     1
102
RTVSPropertyOp35
 70
     1
102
RTVSPropertyOp36
 70
     1
102
RTVSPropertyOp37
 70
     1
102
RTVSPropertyOp38
 70
     1
102
RTVSPropertyOp39
 70
     1
102
RTVSPropertyOp40
 70
     1
102
RTVSPropertyOp41
 70
     1
102
RTVSPropertyOp42
 70
     1
102
RTVSPropertyOp43
 70
     1
102
RTVSPropertyOp44
 70
     1
102
RTVSPropertyOp45
 70
     1
102
RTVSPropertyOp46
 70
     1
102
RTVSPropertyOp47
 70
     1
102
RTVSPropertyOp48
 70
     1
102
RTVSPropertyOp49
 70
     1
102
RTVSPropertyOp50
 70
     1
102
RTVSPropertyOp51
 70
     0
102
RTVSPropertyOp52
 70
     0
102
RTVSPropertyOp53
 70
     1
102
RTVSPropertyOp54
 70
     1
102
RTVSPropertyOp55
 70
     1
102
RTVSPropertyOp56
 70
     1
102
RTVSPropertyOp57
 70
     1
102
RTVSPropertyOp58
 70
     1
102
RTVSPropertyOp59
 70
     1
102
RTVSPropertyOp60
 70
     1
102
RTVSPropertyOp61
 70
     1
102
RTVSPropertyOp62
 70
     1
  0
XRECORD
  5
85A4
102
{ACAD_REACTORS
330
85A3
102
}
330
85A3
100
AcDbXrecord
280
     1
102
RTVSPost2010Prop28
280
     0
102
RTVSPost2010PropOp28
 70
     1
102
RTVSPost2010Prop29
280
     1
102
RTVSPost2010PropOp29
 70
     1
102
RTVSPost2010Prop30
280
     1
102
RTVSPost2010PropOp30
 70
     1
102
RTVSPost2010Prop31
280
     0
102
RTVSPost2010PropOp31
 70
     1
102
RTVSPost2010Prop32
280
     0
102
RTVSPost2010PropOp32
 70
     1
102
RTVSPost2010Prop33
280
     0
102
RTVSPost2010PropOp33
 70
     1
102
RTVSPost2010Prop34
280
     0
102
RTVSPost2010PropOp34
 70
     1
102
RTVSPost2010Prop35
280
     0
102
RTVSPost2010PropOp35
 70
     1
102
RTVSPost2010Prop36
280
     0
102
RTVSPost2010PropOp36
 70
     1
102
RTVSPost2010Prop37
 90
       50
102
RTVSPost2010PropOp37
 70
     1
102
RTVSPost2010Prop38
140
0.0
102
RTVSPost2010PropOp38
 70
     1
102
RTVSPost2010Prop39
140
1.0
102
RTVSPost2010PropOp39
 70
     1
102
RTVSPost2010Prop40
 90
        0
102
RTVSPost2010PropOp40
 70
     1
102
RTVSPost2010Prop41ColorIndex
 90
       18
102
RTVSPost2010Prop41ColorRGB
 90
        0
102
RTVSPost2010PropOp41
 70
     1
102
RTVSPost2010Prop42
 90
       50
102
RTVSPost2010PropOp42
 70
     1
102
RTVSPost2010Prop43
 90
        3
102
RTVSPost2010PropOp43
 70
     1
102
RTVSPost2010Prop44ColorIndex
 90
        5
102
RTVSPost2010Prop44ColorRGB
 90
      255
102
RTVSPost2010PropOp44
 70
     1
102
RTVSPost2010Prop45
280
     0
102
RTVSPost2010PropOp45
 70
     1
102
RTVSPost2010Prop46
 90
       50
102
RTVSPost2010PropOp46
 70
     1
102
RTVSPost2010Prop47
 90
       50
102
RTVSPost2010PropOp47
 70
     1
102
RTVSPost2010Prop48
 90
       50
102
RTVSPost2010PropOp48
 70
     1
102
RTVSPost2010Prop49
280
     0
102
RTVSPost2010PropOp49
 70
     1
102
RTVSPost2010Prop50
 90
       50
102
RTVSPost2010PropOp50
 70
     1
102
RTVSPost2010Prop51ColorIndex
 90
      256
102
RTVSPost2010Prop51ColorRGB
 90
-16777216
102
RTVSPost2010PropOp51
 70
     0
102
RTVSPost2010Prop52
140
1.0
102
RTVSPost2010PropOp52
 70
     0
102
RTVSPost2010Prop53
 90
        2
102
RTVSPost2010PropOp53
 70
     1
102
RTVSPost2010Prop54
  1
strokes_ogs.tif
102
RTVSPost2010PropOp54
 70
     1
102
RTVSPost2010Prop55
280
     0
102
RTVSPost2010PropOp55
 70
     1
102
RTVSPost2010Prop56
140
1.0
102
RTVSPost2010PropOp56
 70
     1
102
RTVSPost2010Prop57
140
1.0
102
RTVSPost2010PropOp57
 70
     1
102
RTVSPropertyOp0
 70
     1
102
RTVSPropertyOp1
 70
     1
102
RTVSPropertyOp2
 70
     1
102
RTVSPropertyOp3
 70
     1
102
RTVSPropertyOp4
 70
     1
102
RTVSPropertyOp5
 70
     1
102
RTVSPropertyOp6
 70
     1
102
RTVSPropertyOp7
 70
     1
102
RTVSPropertyOp8
 70
     1
102
RTVSPropertyOp9
 70
     1
102
RTVSPropertyOp10
 70
     1
102
RTVSPropertyOp11
 70
     1
102
RTVSPropertyOp12
 70
     1
102
RTVSPropertyOp13
 70
     1
102
RTVSPropertyOp14
 70
     1
102
RTVSPropertyOp15
 70
     1
102
RTVSPropertyOp16
 70
     1
102
RTVSPropertyOp17
 70
     1
102
RTVSPropertyOp18
 70
     1
102
RTVSPropertyOp19
 70
     1
102
RTVSPropertyOp20
 70
     1
102
RTVSPropertyOp21
 70
     1
102
RTVSPropertyOp22
 70
     1
102
RTVSPropertyOp23
 70
     1
102
RTVSPropertyOp24
 70
     1
102
RTVSPropertyOp25
 70
     1
102
RTVSPropertyOp26
 70
     1
102
RTVSPropertyOp27
 70
     1
102
RTVSPropertyOp28
 70
     1
102
RTVSPropertyOp29
 70
     1
102
RTVSPropertyOp30
 70
     1
102
RTVSPropertyOp31
 70
     1
102
RTVSPropertyOp32
 70
     1
102
RTVSPropertyOp33
 70
     1
102
RTVSPropertyOp34
 70
     1
102
RTVSPropertyOp35
 70
     1
102
RTVSPropertyOp36
 70
     1
102
RTVSPropertyOp37
 70
     1
102
RTVSPropertyOp38
 70
     1
102
RTVSPropertyOp39
 70
     1
102
RTVSPropertyOp40
 70
     1
102
RTVSPropertyOp41
 70
     1
102
RTVSPropertyOp42
 70
     1
102
RTVSPropertyOp43
 70
     1
102
RTVSPropertyOp44
 70
     1
102
RTVSPropertyOp45
 70
     1
102
RTVSPropertyOp46
 70
     1
102
RTVSPropertyOp47
 70
     1
102
RTVSPropertyOp48
 70
     1
102
RTVSPropertyOp49
 70
     1
102
RTVSPropertyOp50
 70
     1
102
RTVSPropertyOp51
 70
     0
102
RTVSPropertyOp52
 70
     0
102
RTVSPropertyOp53
 70
     1
102
RTVSPropertyOp54
 70
     1
102
RTVSPropertyOp55
 70
     1
102
RTVSPropertyOp56
 70
     1
102
RTVSPropertyOp57
 70
     1
102
RTVSPropertyOp58
 70
     1
102
RTVSPropertyOp59
 70
     1
102
RTVSPropertyOp60
 70
     1
102
RTVSPropertyOp61
 70
     1
102
RTVSPropertyOp62
 70
     1
  0
XRECORD
  5
85A2
102
{ACAD_REACTORS
330
85A1
102
}
330
85A1
100
AcDbXrecord
280
     1
102
RTVSPost2010Prop28
280
     0
102
RTVSPost2010PropOp28
 70
     1
102
RTVSPost2010Prop29
280
     1
102
RTVSPost2010PropOp29
 70
     1
102
RTVSPost2010Prop30
280
     1
102
RTVSPost2010PropOp30
 70
     1
102
RTVSPost2010Prop31
280
     0
102
RTVSPost2010PropOp31
 70
     1
102
RTVSPost2010Prop32
280
     0
102
RTVSPost2010PropOp32
 70
     1
102
RTVSPost2010Prop33
280
     0
102
RTVSPost2010PropOp33
 70
     1
102
RTVSPost2010Prop34
280
     0
102
RTVSPost2010PropOp34
 70
     1
102
RTVSPost2010Prop35
280
     0
102
RTVSPost2010PropOp35
 70
     1
102
RTVSPost2010Prop36
280
     0
102
RTVSPost2010PropOp36
 70
     1
102
RTVSPost2010Prop37
 90
       50
102
RTVSPost2010PropOp37
 70
     1
102
RTVSPost2010Prop38
140
0.0
102
RTVSPost2010PropOp38
 70
     1
102
RTVSPost2010Prop39
140
1.0
102
RTVSPost2010PropOp39
 70
     1
102
RTVSPost2010Prop40
 90
        0
102
RTVSPost2010PropOp40
 70
     1
102
RTVSPost2010Prop41ColorIndex
 90
       18
102
RTVSPost2010Prop41ColorRGB
 90
        0
102
RTVSPost2010PropOp41
 70
     1
102
RTVSPost2010Prop42
 90
       50
102
RTVSPost2010PropOp42
 70
     1
102
RTVSPost2010Prop43
 90
        3
102
RTVSPost2010PropOp43
 70
     1
102
RTVSPost2010Prop44ColorIndex
 90
        5
102
RTVSPost2010Prop44ColorRGB
 90
      255
102
RTVSPost2010PropOp44
 70
     1
102
RTVSPost2010Prop45
280
     0
102
RTVSPost2010PropOp45
 70
     1
102
RTVSPost2010Prop46
 90
       50
102
RTVSPost2010PropOp46
 70
     1
102
RTVSPost2010Prop47
 90
       50
102
RTVSPost2010PropOp47
 70
     1
102
RTVSPost2010Prop48
 90
       50
102
RTVSPost2010PropOp48
 70
     1
102
RTVSPost2010Prop49
280
     0
102
RTVSPost2010PropOp49
 70
     1
102
RTVSPost2010Prop50
 90
       50
102
RTVSPost2010PropOp50
 70
     1
102
RTVSPost2010Prop51ColorIndex
 90
      256
102
RTVSPost2010Prop51ColorRGB
 90
-16777216
102
RTVSPost2010PropOp51
 70
     0
102
RTVSPost2010Prop52
140
1.0
102
RTVSPost2010PropOp52
 70
     0
102
RTVSPost2010Prop53
 90
        2
102
RTVSPost2010PropOp53
 70
     1
102
RTVSPost2010Prop54
  1
strokes_ogs.tif
102
RTVSPost2010PropOp54
 70
     1
102
RTVSPost2010Prop55
280
     0
102
RTVSPost2010PropOp55
 70
     1
102
RTVSPost2010Prop56
140
1.0
102
RTVSPost2010PropOp56
 70
     1
102
RTVSPost2010Prop57
140
1.0
102
RTVSPost2010PropOp57
 70
     1
102
RTVSPropertyOp0
 70
     1
102
RTVSPropertyOp1
 70
     1
102
RTVSPropertyOp2
 70
     1
102
RTVSPropertyOp3
 70
     1
102
RTVSPropertyOp4
 70
     1
102
RTVSPropertyOp5
 70
     1
102
RTVSPropertyOp6
 70
     1
102
RTVSPropertyOp7
 70
     1
102
RTVSPropertyOp8
 70
     1
102
RTVSPropertyOp9
 70
     1
102
RTVSPropertyOp10
 70
     1
102
RTVSPropertyOp11
 70
     1
102
RTVSPropertyOp12
 70
     1
102
RTVSPropertyOp13
 70
     1
102
RTVSPropertyOp14
 70
     1
102
RTVSPropertyOp15
 70
     1
102
RTVSPropertyOp16
 70
     1
102
RTVSPropertyOp17
 70
     1
102
RTVSPropertyOp18
 70
     1
102
RTVSPropertyOp19
 70
     1
102
RTVSPropertyOp20
 70
     1
102
RTVSPropertyOp21
 70
     1
102
RTVSPropertyOp22
 70
     1
102
RTVSPropertyOp23
 70
     1
102
RTVSPropertyOp24
 70
     1
102
RTVSPropertyOp25
 70
     1
102
RTVSPropertyOp26
 70
     1
102
RTVSPropertyOp27
 70
     1
102
RTVSPropertyOp28
 70
     1
102
RTVSPropertyOp29
 70
     1
102
RTVSPropertyOp30
 70
     1
102
RTVSPropertyOp31
 70
     1
102
RTVSPropertyOp32
 70
     1
102
RTVSPropertyOp33
 70
     1
102
RTVSPropertyOp34
 70
     1
102
RTVSPropertyOp35
 70
     1
102
RTVSPropertyOp36
 70
     1
102
RTVSPropertyOp37
 70
     1
102
RTVSPropertyOp38
 70
     1
102
RTVSPropertyOp39
 70
     1
102
RTVSPropertyOp40
 70
     1
102
RTVSPropertyOp41
 70
     1
102
RTVSPropertyOp42
 70
     1
102
RTVSPropertyOp43
 70
     1
102
RTVSPropertyOp44
 70
     1
102
RTVSPropertyOp45
 70
     1
102
RTVSPropertyOp46
 70
     1
102
RTVSPropertyOp47
 70
     1
102
RTVSPropertyOp48
 70
     1
102
RTVSPropertyOp49
 70
     1
102
RTVSPropertyOp50
 70
     1
102
RTVSPropertyOp51
 70
     0
102
RTVSPropertyOp52
 70
     0
102
RTVSPropertyOp53
 70
     1
102
RTVSPropertyOp54
 70
     1
102
RTVSPropertyOp55
 70
     1
102
RTVSPropertyOp56
 70
     1
102
RTVSPropertyOp57
 70
     1
102
RTVSPropertyOp58
 70
     1
102
RTVSPropertyOp59
 70
     1
102
RTVSPropertyOp60
 70
     1
102
RTVSPropertyOp61
 70
     1
102
RTVSPropertyOp62
 70
     1
  0
XRECORD
  5
859C
102
{ACAD_REACTORS
330
859B
102
}
330
859B
100
AcDbXrecord
280
     1
102
RTVSPost2010Prop28
280
     0
102
RTVSPost2010PropOp28
 70
     1
102
RTVSPost2010Prop29
280
     1
102
RTVSPost2010PropOp29
 70
     1
102
RTVSPost2010Prop30
280
     1
102
RTVSPost2010PropOp30
 70
     1
102
RTVSPost2010Prop31
280
     0
102
RTVSPost2010PropOp31
 70
     1
102
RTVSPost2010Prop32
280
     0
102
RTVSPost2010PropOp32
 70
     1
102
RTVSPost2010Prop33
280
     0
102
RTVSPost2010PropOp33
 70
     1
102
RTVSPost2010Prop34
280
     0
102
RTVSPost2010PropOp34
 70
     1
102
RTVSPost2010Prop35
280
     0
102
RTVSPost2010PropOp35
 70
     1
102
RTVSPost2010Prop36
280
     0
102
RTVSPost2010PropOp36
 70
     1
102
RTVSPost2010Prop37
 90
       50
102
RTVSPost2010PropOp37
 70
     1
102
RTVSPost2010Prop38
140
0.0
102
RTVSPost2010PropOp38
 70
     1
102
RTVSPost2010Prop39
140
1.0
102
RTVSPost2010PropOp39
 70
     1
102
RTVSPost2010Prop40
 90
        0
102
RTVSPost2010PropOp40
 70
     1
102
RTVSPost2010Prop41ColorIndex
 90
       18
102
RTVSPost2010Prop41ColorRGB
 90
        0
102
RTVSPost2010PropOp41
 70
     1
102
RTVSPost2010Prop42
 90
       50
102
RTVSPost2010PropOp42
 70
     1
102
RTVSPost2010Prop43
 90
        3
102
RTVSPost2010PropOp43
 70
     1
102
RTVSPost2010Prop44ColorIndex
 90
        5
102
RTVSPost2010Prop44ColorRGB
 90
      255
102
RTVSPost2010PropOp44
 70
     1
102
RTVSPost2010Prop45
280
     0
102
RTVSPost2010PropOp45
 70
     1
102
RTVSPost2010Prop46
 90
       50
102
RTVSPost2010PropOp46
 70
     1
102
RTVSPost2010Prop47
 90
       50
102
RTVSPost2010PropOp47
 70
     1
102
RTVSPost2010Prop48
 90
       50
102
RTVSPost2010PropOp48
 70
     1
102
RTVSPost2010Prop49
280
     0
102
RTVSPost2010PropOp49
 70
     1
102
RTVSPost2010Prop50
 90
       50
102
RTVSPost2010PropOp50
 70
     1
102
RTVSPost2010Prop51ColorIndex
 90
      256
102
RTVSPost2010Prop51ColorRGB
 90
-16777216
102
RTVSPost2010PropOp51
 70
     0
102
RTVSPost2010Prop52
140
1.0
102
RTVSPost2010PropOp52
 70
     0
102
RTVSPost2010Prop53
 90
        2
102
RTVSPost2010PropOp53
 70
     1
102
RTVSPost2010Prop54
  1
strokes_ogs.tif
102
RTVSPost2010PropOp54
 70
     1
102
RTVSPost2010Prop55
280
     0
102
RTVSPost2010PropOp55
 70
     1
102
RTVSPost2010Prop56
140
1.0
102
RTVSPost2010PropOp56
 70
     1
102
RTVSPost2010Prop57
140
1.0
102
RTVSPost2010PropOp57
 70
     1
102
RTVSPropertyOp0
 70
     1
102
RTVSPropertyOp1
 70
     1
102
RTVSPropertyOp2
 70
     1
102
RTVSPropertyOp3
 70
     1
102
RTVSPropertyOp4
 70
     1
102
RTVSPropertyOp5
 70
     1
102
RTVSPropertyOp6
 70
     1
102
RTVSPropertyOp7
 70
     1
102
RTVSPropertyOp8
 70
     1
102
RTVSPropertyOp9
 70
     1
102
RTVSPropertyOp10
 70
     1
102
RTVSPropertyOp11
 70
     1
102
RTVSPropertyOp12
 70
     1
102
RTVSPropertyOp13
 70
     1
102
RTVSPropertyOp14
 70
     1
102
RTVSPropertyOp15
 70
     1
102
RTVSPropertyOp16
 70
     1
102
RTVSPropertyOp17
 70
     1
102
RTVSPropertyOp18
 70
     1
102
RTVSPropertyOp19
 70
     1
102
RTVSPropertyOp20
 70
     1
102
RTVSPropertyOp21
 70
     1
102
RTVSPropertyOp22
 70
     1
102
RTVSPropertyOp23
 70
     1
102
RTVSPropertyOp24
 70
     1
102
RTVSPropertyOp25
 70
     1
102
RTVSPropertyOp26
 70
     1
102
RTVSPropertyOp27
 70
     1
102
RTVSPropertyOp28
 70
     1
102
RTVSPropertyOp29
 70
     1
102
RTVSPropertyOp30
 70
     1
102
RTVSPropertyOp31
 70
     1
102
RTVSPropertyOp32
 70
     1
102
RTVSPropertyOp33
 70
     1
102
RTVSPropertyOp34
 70
     1
102
RTVSPropertyOp35
 70
     1
102
RTVSPropertyOp36
 70
     1
102
RTVSPropertyOp37
 70
     1
102
RTVSPropertyOp38
 70
     1
102
RTVSPropertyOp39
 70
     1
102
RTVSPropertyOp40
 70
     1
102
RTVSPropertyOp41
 70
     1
102
RTVSPropertyOp42
 70
     1
102
RTVSPropertyOp43
 70
     1
102
RTVSPropertyOp44
 70
     1
102
RTVSPropertyOp45
 70
     1
102
RTVSPropertyOp46
 70
     1
102
RTVSPropertyOp47
 70
     1
102
RTVSPropertyOp48
 70
     1
102
RTVSPropertyOp49
 70
     1
102
RTVSPropertyOp50
 70
     1
102
RTVSPropertyOp51
 70
     0
102
RTVSPropertyOp52
 70
     0
102
RTVSPropertyOp53
 70
     1
102
RTVSPropertyOp54
 70
     1
102
RTVSPropertyOp55
 70
     1
102
RTVSPropertyOp56
 70
     1
102
RTVSPropertyOp57
 70
     1
102
RTVSPropertyOp58
 70
     1
102
RTVSPropertyOp59
 70
     1
102
RTVSPropertyOp60
 70
     1
102
RTVSPropertyOp61
 70
     1
102
RTVSPropertyOp62
 70
     1
  0
XRECORD
  5
859E
102
{ACAD_REACTORS
330
859D
102
}
330
859D
100
AcDbXrecord
280
     1
102
RTVSPost2010Prop28
280
     0
102
RTVSPost2010PropOp28
 70
     1
102
RTVSPost2010Prop29
280
     1
102
RTVSPost2010PropOp29
 70
     1
102
RTVSPost2010Prop30
280
     1
102
RTVSPost2010PropOp30
 70
     1
102
RTVSPost2010Prop31
280
     0
102
RTVSPost2010PropOp31
 70
     1
102
RTVSPost2010Prop32
280
     0
102
RTVSPost2010PropOp32
 70
     1
102
RTVSPost2010Prop33
280
     0
102
RTVSPost2010PropOp33
 70
     1
102
RTVSPost2010Prop34
280
     0
102
RTVSPost2010PropOp34
 70
     1
102
RTVSPost2010Prop35
280
     0
102
RTVSPost2010PropOp35
 70
     1
102
RTVSPost2010Prop36
280
     0
102
RTVSPost2010PropOp36
 70
     1
102
RTVSPost2010Prop37
 90
       50
102
RTVSPost2010PropOp37
 70
     1
102
RTVSPost2010Prop38
140
0.0
102
RTVSPost2010PropOp38
 70
     1
102
RTVSPost2010Prop39
140
1.0
102
RTVSPost2010PropOp39
 70
     1
102
RTVSPost2010Prop40
 90
        0
102
RTVSPost2010PropOp40
 70
     1
102
RTVSPost2010Prop41ColorIndex
 90
       18
102
RTVSPost2010Prop41ColorRGB
 90
        0
102
RTVSPost2010PropOp41
 70
     1
102
RTVSPost2010Prop42
 90
       50
102
RTVSPost2010PropOp42
 70
     1
102
RTVSPost2010Prop43
 90
        3
102
RTVSPost2010PropOp43
 70
     1
102
RTVSPost2010Prop44ColorIndex
 90
        5
102
RTVSPost2010Prop44ColorRGB
 90
      255
102
RTVSPost2010PropOp44
 70
     1
102
RTVSPost2010Prop45
280
     0
102
RTVSPost2010PropOp45
 70
     1
102
RTVSPost2010Prop46
 90
       50
102
RTVSPost2010PropOp46
 70
     1
102
RTVSPost2010Prop47
 90
       50
102
RTVSPost2010PropOp47
 70
     1
102
RTVSPost2010Prop48
 90
       50
102
RTVSPost2010PropOp48
 70
     1
102
RTVSPost2010Prop49
280
     0
102
RTVSPost2010PropOp49
 70
     1
102
RTVSPost2010Prop50
 90
       50
102
RTVSPost2010PropOp50
 70
     1
102
RTVSPost2010Prop51ColorIndex
 90
      256
102
RTVSPost2010Prop51ColorRGB
 90
-16777216
102
RTVSPost2010PropOp51
 70
     0
102
RTVSPost2010Prop52
140
1.0
102
RTVSPost2010PropOp52
 70
     0
102
RTVSPost2010Prop53
 90
        2
102
RTVSPost2010PropOp53
 70
     1
102
RTVSPost2010Prop54
  1
strokes_ogs.tif
102
RTVSPost2010PropOp54
 70
     1
102
RTVSPost2010Prop55
280
     0
102
RTVSPost2010PropOp55
 70
     1
102
RTVSPost2010Prop56
140
1.0
102
RTVSPost2010PropOp56
 70
     1
102
RTVSPost2010Prop57
140
1.0
102
RTVSPost2010PropOp57
 70
     1
102
RTVSPropertyOp0
 70
     1
102
RTVSPropertyOp1
 70
     1
102
RTVSPropertyOp2
 70
     1
102
RTVSPropertyOp3
 70
     1
102
RTVSPropertyOp4
 70
     1
102
RTVSPropertyOp5
 70
     1
102
RTVSPropertyOp6
 70
     1
102
RTVSPropertyOp7
 70
     1
102
RTVSPropertyOp8
 70
     1
102
RTVSPropertyOp9
 70
     1
102
RTVSPropertyOp10
 70
     1
102
RTVSPropertyOp11
 70
     1
102
RTVSPropertyOp12
 70
     1
102
RTVSPropertyOp13
 70
     1
102
RTVSPropertyOp14
 70
     1
102
RTVSPropertyOp15
 70
     1
102
RTVSPropertyOp16
 70
     1
102
RTVSPropertyOp17
 70
     1
102
RTVSPropertyOp18
 70
     1
102
RTVSPropertyOp19
 70
     1
102
RTVSPropertyOp20
 70
     1
102
RTVSPropertyOp21
 70
     1
102
RTVSPropertyOp22
 70
     1
102
RTVSPropertyOp23
 70
     1
102
RTVSPropertyOp24
 70
     1
102
RTVSPropertyOp25
 70
     1
102
RTVSPropertyOp26
 70
     1
102
RTVSPropertyOp27
 70
     1
102
RTVSPropertyOp28
 70
     1
102
RTVSPropertyOp29
 70
     1
102
RTVSPropertyOp30
 70
     1
102
RTVSPropertyOp31
 70
     1
102
RTVSPropertyOp32
 70
     1
102
RTVSPropertyOp33
 70
     1
102
RTVSPropertyOp34
 70
     1
102
RTVSPropertyOp35
 70
     1
102
RTVSPropertyOp36
 70
     1
102
RTVSPropertyOp37
 70
     1
102
RTVSPropertyOp38
 70
     1
102
RTVSPropertyOp39
 70
     1
102
RTVSPropertyOp40
 70
     1
102
RTVSPropertyOp41
 70
     1
102
RTVSPropertyOp42
 70
     1
102
RTVSPropertyOp43
 70
     1
102
RTVSPropertyOp44
 70
     1
102
RTVSPropertyOp45
 70
     1
102
RTVSPropertyOp46
 70
     1
102
RTVSPropertyOp47
 70
     1
102
RTVSPropertyOp48
 70
     1
102
RTVSPropertyOp49
 70
     1
102
RTVSPropertyOp50
 70
     1
102
RTVSPropertyOp51
 70
     0
102
RTVSPropertyOp52
 70
     0
102
RTVSPropertyOp53
 70
     1
102
RTVSPropertyOp54
 70
     1
102
RTVSPropertyOp55
 70
     1
102
RTVSPropertyOp56
 70
     1
102
RTVSPropertyOp57
 70
     1
102
RTVSPropertyOp58
 70
     1
102
RTVSPropertyOp59
 70
     1
102
RTVSPropertyOp60
 70
     1
102
RTVSPropertyOp61
 70
     1
102
RTVSPropertyOp62
 70
     1
  0
XRECORD
  5
8594
102
{ACAD_REACTORS
330
8593
102
}
330
8593
100
AcDbXrecord
280
     1
102
RTVSPost2010Prop28
280
     0
102
RTVSPost2010PropOp28
 70
     1
102
RTVSPost2010Prop29
280
     1
102
RTVSPost2010PropOp29
 70
     1
102
RTVSPost2010Prop30
280
     1
102
RTVSPost2010PropOp30
 70
     1
102
RTVSPost2010Prop31
280
     0
102
RTVSPost2010PropOp31
 70
     1
102
RTVSPost2010Prop32
280
     0
102
RTVSPost2010PropOp32
 70
     1
102
RTVSPost2010Prop33
280
     0
102
RTVSPost2010PropOp33
 70
     1
102
RTVSPost2010Prop34
280
     0
102
RTVSPost2010PropOp34
 70
     1
102
RTVSPost2010Prop35
280
     0
102
RTVSPost2010PropOp35
 70
     1
102
RTVSPost2010Prop36
280
     0
102
RTVSPost2010PropOp36
 70
     1
102
RTVSPost2010Prop37
 90
       50
102
RTVSPost2010PropOp37
 70
     1
102
RTVSPost2010Prop38
140
0.0
102
RTVSPost2010PropOp38
 70
     1
102
RTVSPost2010Prop39
140
1.0
102
RTVSPost2010PropOp39
 70
     1
102
RTVSPost2010Prop40
 90
        0
102
RTVSPost2010PropOp40
 70
     1
102
RTVSPost2010Prop41ColorIndex
 90
       18
102
RTVSPost2010Prop41ColorRGB
 90
        0
102
RTVSPost2010PropOp41
 70
     1
102
RTVSPost2010Prop42
 90
       50
102
RTVSPost2010PropOp42
 70
     1
102
RTVSPost2010Prop43
 90
        3
102
RTVSPost2010PropOp43
 70
     1
102
RTVSPost2010Prop44ColorIndex
 90
        5
102
RTVSPost2010Prop44ColorRGB
 90
      255
102
RTVSPost2010PropOp44
 70
     1
102
RTVSPost2010Prop45
280
     0
102
RTVSPost2010PropOp45
 70
     1
102
RTVSPost2010Prop46
 90
       50
102
RTVSPost2010PropOp46
 70
     1
102
RTVSPost2010Prop47
 90
       50
102
RTVSPost2010PropOp47
 70
     1
102
RTVSPost2010Prop48
 90
       50
102
RTVSPost2010PropOp48
 70
     1
102
RTVSPost2010Prop49
280
     0
102
RTVSPost2010PropOp49
 70
     1
102
RTVSPost2010Prop50
 90
       50
102
RTVSPost2010PropOp50
 70
     1
102
RTVSPost2010Prop51ColorIndex
 90
      256
102
RTVSPost2010Prop51ColorRGB
 90
-16777216
102
RTVSPost2010PropOp51
 70
     0
102
RTVSPost2010Prop52
140
1.0
102
RTVSPost2010PropOp52
 70
     0
102
RTVSPost2010Prop53
 90
        2
102
RTVSPost2010PropOp53
 70
     1
102
RTVSPost2010Prop54
  1
strokes_ogs.tif
102
RTVSPost2010PropOp54
 70
     1
102
RTVSPost2010Prop55
280
     0
102
RTVSPost2010PropOp55
 70
     1
102
RTVSPost2010Prop56
140
1.0
102
RTVSPost2010PropOp56
 70
     1
102
RTVSPost2010Prop57
140
1.0
102
RTVSPost2010PropOp57
 70
     1
102
RTVSPropertyOp0
 70
     1
102
RTVSPropertyOp1
 70
     1
102
RTVSPropertyOp2
 70
     1
102
RTVSPropertyOp3
 70
     1
102
RTVSPropertyOp4
 70
     1
102
RTVSPropertyOp5
 70
     1
102
RTVSPropertyOp6
 70
     1
102
RTVSPropertyOp7
 70
     1
102
RTVSPropertyOp8
 70
     1
102
RTVSPropertyOp9
 70
     1
102
RTVSPropertyOp10
 70
     1
102
RTVSPropertyOp11
 70
     1
102
RTVSPropertyOp12
 70
     1
102
RTVSPropertyOp13
 70
     1
102
RTVSPropertyOp14
 70
     1
102
RTVSPropertyOp15
 70
     1
102
RTVSPropertyOp16
 70
     1
102
RTVSPropertyOp17
 70
     1
102
RTVSPropertyOp18
 70
     1
102
RTVSPropertyOp19
 70
     1
102
RTVSPropertyOp20
 70
     1
102
RTVSPropertyOp21
 70
     1
102
RTVSPropertyOp22
 70
     1
102
RTVSPropertyOp23
 70
     1
102
RTVSPropertyOp24
 70
     1
102
RTVSPropertyOp25
 70
     1
102
RTVSPropertyOp26
 70
     1
102
RTVSPropertyOp27
 70
     1
102
RTVSPropertyOp28
 70
     1
102
RTVSPropertyOp29
 70
     1
102
RTVSPropertyOp30
 70
     1
102
RTVSPropertyOp31
 70
     1
102
RTVSPropertyOp32
 70
     1
102
RTVSPropertyOp33
 70
     1
102
RTVSPropertyOp34
 70
     1
102
RTVSPropertyOp35
 70
     1
102
RTVSPropertyOp36
 70
     1
102
RTVSPropertyOp37
 70
     1
102
RTVSPropertyOp38
 70
     1
102
RTVSPropertyOp39
 70
     1
102
RTVSPropertyOp40
 70
     1
102
RTVSPropertyOp41
 70
     1
102
RTVSPropertyOp42
 70
     1
102
RTVSPropertyOp43
 70
     1
102
RTVSPropertyOp44
 70
     1
102
RTVSPropertyOp45
 70
     1
102
RTVSPropertyOp46
 70
     1
102
RTVSPropertyOp47
 70
     1
102
RTVSPropertyOp48
 70
     1
102
RTVSPropertyOp49
 70
     1
102
RTVSPropertyOp50
 70
     1
102
RTVSPropertyOp51
 70
     0
102
RTVSPropertyOp52
 70
     0
102
RTVSPropertyOp53
 70
     1
102
RTVSPropertyOp54
 70
     1
102
RTVSPropertyOp55
 70
     1
102
RTVSPropertyOp56
 70
     1
102
RTVSPropertyOp57
 70
     1
102
RTVSPropertyOp58
 70
     1
102
RTVSPropertyOp59
 70
     1
102
RTVSPropertyOp60
 70
     1
102
RTVSPropertyOp61
 70
     1
102
RTVSPropertyOp62
 70
     1
  0
XRECORD
  5
8588
102
{ACAD_REACTORS
330
8587
102
}
330
8587
100
AcDbXrecord
280
     1
102
RTVSPost2010Prop28
280
     0
102
RTVSPost2010PropOp28
 70
     1
102
RTVSPost2010Prop29
280
     1
102
RTVSPost2010PropOp29
 70
     1
102
RTVSPost2010Prop30
280
     1
102
RTVSPost2010PropOp30
 70
     1
102
RTVSPost2010Prop31
280
     0
102
RTVSPost2010PropOp31
 70
     1
102
RTVSPost2010Prop32
280
     0
102
RTVSPost2010PropOp32
 70
     1
102
RTVSPost2010Prop33
280
     0
102
RTVSPost2010PropOp33
 70
     1
102
RTVSPost2010Prop34
280
     0
102
RTVSPost2010PropOp34
 70
     1
102
RTVSPost2010Prop35
280
     0
102
RTVSPost2010PropOp35
 70
     1
102
RTVSPost2010Prop36
280
     0
102
RTVSPost2010PropOp36
 70
     1
102
RTVSPost2010Prop37
 90
       50
102
RTVSPost2010PropOp37
 70
     1
102
RTVSPost2010Prop38
140
0.0
102
RTVSPost2010PropOp38
 70
     1
102
RTVSPost2010Prop39
140
1.0
102
RTVSPost2010PropOp39
 70
     1
102
RTVSPost2010Prop40
 90
        0
102
RTVSPost2010PropOp40
 70
     1
102
RTVSPost2010Prop41ColorIndex
 90
       18
102
RTVSPost2010Prop41ColorRGB
 90
        0
102
RTVSPost2010PropOp41
 70
     1
102
RTVSPost2010Prop42
 90
       50
102
RTVSPost2010PropOp42
 70
     1
102
RTVSPost2010Prop43
 90
        3
102
RTVSPost2010PropOp43
 70
     1
102
RTVSPost2010Prop44ColorIndex
 90
        5
102
RTVSPost2010Prop44ColorRGB
 90
      255
102
RTVSPost2010PropOp44
 70
     1
102
RTVSPost2010Prop45
280
     0
102
RTVSPost2010PropOp45
 70
     1
102
RTVSPost2010Prop46
 90
       50
102
RTVSPost2010PropOp46
 70
     1
102
RTVSPost2010Prop47
 90
       50
102
RTVSPost2010PropOp47
 70
     1
102
RTVSPost2010Prop48
 90
       50
102
RTVSPost2010PropOp48
 70
     1
102
RTVSPost2010Prop49
280
     0
102
RTVSPost2010PropOp49
 70
     1
102
RTVSPost2010Prop50
 90
       50
102
RTVSPost2010PropOp50
 70
     1
102
RTVSPost2010Prop51ColorIndex
 90
      256
102
RTVSPost2010Prop51ColorRGB
 90
-16777216
102
RTVSPost2010PropOp51
 70
     0
102
RTVSPost2010Prop52
140
1.0
102
RTVSPost2010PropOp52
 70
     0
102
RTVSPost2010Prop53
 90
        2
102
RTVSPost2010PropOp53
 70
     1
102
RTVSPost2010Prop54
  1
strokes_ogs.tif
102
RTVSPost2010PropOp54
 70
     1
102
RTVSPost2010Prop55
280
     0
102
RTVSPost2010PropOp55
 70
     1
102
RTVSPost2010Prop56
140
1.0
102
RTVSPost2010PropOp56
 70
     1
102
RTVSPost2010Prop57
140
1.0
102
RTVSPost2010PropOp57
 70
     1
102
RTVSPropertyOp0
 70
     1
102
RTVSPropertyOp1
 70
     1
102
RTVSPropertyOp2
 70
     1
102
RTVSPropertyOp3
 70
     1
102
RTVSPropertyOp4
 70
     1
102
RTVSPropertyOp5
 70
     1
102
RTVSPropertyOp6
 70
     1
102
RTVSPropertyOp7
 70
     1
102
RTVSPropertyOp8
 70
     1
102
RTVSPropertyOp9
 70
     1
102
RTVSPropertyOp10
 70
     1
102
RTVSPropertyOp11
 70
     1
102
RTVSPropertyOp12
 70
     1
102
RTVSPropertyOp13
 70
     1
102
RTVSPropertyOp14
 70
     1
102
RTVSPropertyOp15
 70
     1
102
RTVSPropertyOp16
 70
     1
102
RTVSPropertyOp17
 70
     1
102
RTVSPropertyOp18
 70
     1
102
RTVSPropertyOp19
 70
     1
102
RTVSPropertyOp20
 70
     1
102
RTVSPropertyOp21
 70
     1
102
RTVSPropertyOp22
 70
     1
102
RTVSPropertyOp23
 70
     1
102
RTVSPropertyOp24
 70
     1
102
RTVSPropertyOp25
 70
     1
102
RTVSPropertyOp26
 70
     1
102
RTVSPropertyOp27
 70
     1
102
RTVSPropertyOp28
 70
     1
102
RTVSPropertyOp29
 70
     1
102
RTVSPropertyOp30
 70
     1
102
RTVSPropertyOp31
 70
     1
102
RTVSPropertyOp32
 70
     1
102
RTVSPropertyOp33
 70
     1
102
RTVSPropertyOp34
 70
     1
102
RTVSPropertyOp35
 70
     1
102
RTVSPropertyOp36
 70
     1
102
RTVSPropertyOp37
 70
     1
102
RTVSPropertyOp38
 70
     1
102
RTVSPropertyOp39
 70
     1
102
RTVSPropertyOp40
 70
     1
102
RTVSPropertyOp41
 70
     1
102
RTVSPropertyOp42
 70
     1
102
RTVSPropertyOp43
 70
     1
102
RTVSPropertyOp44
 70
     1
102
RTVSPropertyOp45
 70
     1
102
RTVSPropertyOp46
 70
     1
102
RTVSPropertyOp47
 70
     1
102
RTVSPropertyOp48
 70
     1
102
RTVSPropertyOp49
 70
     1
102
RTVSPropertyOp50
 70
     1
102
RTVSPropertyOp51
 70
     0
102
RTVSPropertyOp52
 70
     0
102
RTVSPropertyOp53
 70
     1
102
RTVSPropertyOp54
 70
     1
102
RTVSPropertyOp55
 70
     1
102
RTVSPropertyOp56
 70
     1
102
RTVSPropertyOp57
 70
     1
102
RTVSPropertyOp58
 70
     1
102
RTVSPropertyOp59
 70
     1
102
RTVSPropertyOp60
 70
     1
102
RTVSPropertyOp61
 70
     1
102
RTVSPropertyOp62
 70
     1
  0
XRECORD
  5
85A0
102
{ACAD_REACTORS
330
859F
102
}
330
859F
100
AcDbXrecord
280
     1
102
RTVSPost2010Prop28
280
     0
102
RTVSPost2010PropOp28
 70
     1
102
RTVSPost2010Prop29
280
     1
102
RTVSPost2010PropOp29
 70
     1
102
RTVSPost2010Prop30
280
     1
102
RTVSPost2010PropOp30
 70
     1
102
RTVSPost2010Prop31
280
     0
102
RTVSPost2010PropOp31
 70
     1
102
RTVSPost2010Prop32
280
     0
102
RTVSPost2010PropOp32
 70
     1
102
RTVSPost2010Prop33
280
     0
102
RTVSPost2010PropOp33
 70
     1
102
RTVSPost2010Prop34
280
     0
102
RTVSPost2010PropOp34
 70
     1
102
RTVSPost2010Prop35
280
     0
102
RTVSPost2010PropOp35
 70
     1
102
RTVSPost2010Prop36
280
     0
102
RTVSPost2010PropOp36
 70
     1
102
RTVSPost2010Prop37
 90
       50
102
RTVSPost2010PropOp37
 70
     1
102
RTVSPost2010Prop38
140
0.0
102
RTVSPost2010PropOp38
 70
     1
102
RTVSPost2010Prop39
140
1.0
102
RTVSPost2010PropOp39
 70
     1
102
RTVSPost2010Prop40
 90
        0
102
RTVSPost2010PropOp40
 70
     1
102
RTVSPost2010Prop41ColorIndex
 90
       18
102
RTVSPost2010Prop41ColorRGB
 90
        0
102
RTVSPost2010PropOp41
 70
     1
102
RTVSPost2010Prop42
 90
       50
102
RTVSPost2010PropOp42
 70
     1
102
RTVSPost2010Prop43
 90
        3
102
RTVSPost2010PropOp43
 70
     1
102
RTVSPost2010Prop44ColorIndex
 90
        5
102
RTVSPost2010Prop44ColorRGB
 90
      255
102
RTVSPost2010PropOp44
 70
     1
102
RTVSPost2010Prop45
280
     0
102
RTVSPost2010PropOp45
 70
     1
102
RTVSPost2010Prop46
 90
       50
102
RTVSPost2010PropOp46
 70
     1
102
RTVSPost2010Prop47
 90
       50
102
RTVSPost2010PropOp47
 70
     1
102
RTVSPost2010Prop48
 90
       50
102
RTVSPost2010PropOp48
 70
     1
102
RTVSPost2010Prop49
280
     0
102
RTVSPost2010PropOp49
 70
     1
102
RTVSPost2010Prop50
 90
       50
102
RTVSPost2010PropOp50
 70
     1
102
RTVSPost2010Prop51ColorIndex
 90
      256
102
RTVSPost2010Prop51ColorRGB
 90
-16777216
102
RTVSPost2010PropOp51
 70
     0
102
RTVSPost2010Prop52
140
1.0
102
RTVSPost2010PropOp52
 70
     0
102
RTVSPost2010Prop53
 90
        2
102
RTVSPost2010PropOp53
 70
     1
102
RTVSPost2010Prop54
  1
strokes_ogs.tif
102
RTVSPost2010PropOp54
 70
     1
102
RTVSPost2010Prop55
280
     0
102
RTVSPost2010PropOp55
 70
     1
102
RTVSPost2010Prop56
140
1.0
102
RTVSPost2010PropOp56
 70
     1
102
RTVSPost2010Prop57
140
1.0
102
RTVSPost2010PropOp57
 70
     1
102
RTVSPropertyOp0
 70
     1
102
RTVSPropertyOp1
 70
     1
102
RTVSPropertyOp2
 70
     1
102
RTVSPropertyOp3
 70
     1
102
RTVSPropertyOp4
 70
     1
102
RTVSPropertyOp5
 70
     1
102
RTVSPropertyOp6
 70
     1
102
RTVSPropertyOp7
 70
     1
102
RTVSPropertyOp8
 70
     1
102
RTVSPropertyOp9
 70
     1
102
RTVSPropertyOp10
 70
     1
102
RTVSPropertyOp11
 70
     1
102
RTVSPropertyOp12
 70
     1
102
RTVSPropertyOp13
 70
     1
102
RTVSPropertyOp14
 70
     1
102
RTVSPropertyOp15
 70
     1
102
RTVSPropertyOp16
 70
     1
102
RTVSPropertyOp17
 70
     1
102
RTVSPropertyOp18
 70
     1
102
RTVSPropertyOp19
 70
     1
102
RTVSPropertyOp20
 70
     1
102
RTVSPropertyOp21
 70
     1
102
RTVSPropertyOp22
 70
     1
102
RTVSPropertyOp23
 70
     1
102
RTVSPropertyOp24
 70
     1
102
RTVSPropertyOp25
 70
     1
102
RTVSPropertyOp26
 70
     1
102
RTVSPropertyOp27
 70
     1
102
RTVSPropertyOp28
 70
     1
102
RTVSPropertyOp29
 70
     1
102
RTVSPropertyOp30
 70
     1
102
RTVSPropertyOp31
 70
     1
102
RTVSPropertyOp32
 70
     1
102
RTVSPropertyOp33
 70
     1
102
RTVSPropertyOp34
 70
     1
102
RTVSPropertyOp35
 70
     1
102
RTVSPropertyOp36
 70
     1
102
RTVSPropertyOp37
 70
     1
102
RTVSPropertyOp38
 70
     1
102
RTVSPropertyOp39
 70
     1
102
RTVSPropertyOp40
 70
     1
102
RTVSPropertyOp41
 70
     1
102
RTVSPropertyOp42
 70
     1
102
RTVSPropertyOp43
 70
     1
102
RTVSPropertyOp44
 70
     1
102
RTVSPropertyOp45
 70
     1
102
RTVSPropertyOp46
 70
     1
102
RTVSPropertyOp47
 70
     1
102
RTVSPropertyOp48
 70
     1
102
RTVSPropertyOp49
 70
     1
102
RTVSPropertyOp50
 70
     1
102
RTVSPropertyOp51
 70
     0
102
RTVSPropertyOp52
 70
     0
102
RTVSPropertyOp53
 70
     1
102
RTVSPropertyOp54
 70
     1
102
RTVSPropertyOp55
 70
     1
102
RTVSPropertyOp56
 70
     1
102
RTVSPropertyOp57
 70
     1
102
RTVSPropertyOp58
 70
     1
102
RTVSPropertyOp59
 70
     1
102
RTVSPropertyOp60
 70
     1
102
RTVSPropertyOp61
 70
     1
102
RTVSPropertyOp62
 70
     1
  0
ENDSEC
  0
EOF
