  0
SECTION
  2
HEADER
  9
$ACADVER
  1
AC1015
  9
$ACADMAINTVER
 70
    20
  9
$DWGCODEPAGE
  3
ANSI_932
  9
$INSBASE
 10
0.0
 20
0.0
 30
0.0
  9
$EXTMIN
 10
-0.1602050617329951
 20
-0.22504996767384
 30
-0.0015258207003583
  9
$EXTMAX
 10
5250.160229508953
 20
7375.225084310193
 30
0.0000000349246037
  9
$LIMMIN
 10
0.0
 20
0.0
  9
$LIMMAX
 10
297.0
 20
210.0
  9
$ORTHOMODE
 70
     1
  9
$REGENMODE
 70
     1
  9
$FILLMODE
 70
     0
  9
$QTEXTMODE
 70
     0
  9
$MIRRTEXT
 70
     1
  9
$LTSCALE
 40
100.0
  9
$ATTMODE
 70
     1
  9
$TEXTSIZE
 40
180.0
  9
$TRACEWID
 40
0.05
  9
$TEXTSTYLE
  7
STANDARD
  9
$CLAYER
  8
3
  9
$CELTYPE
  6
ByLayer
  9
$CECOLOR
 62
   256
  9
$CELTSCALE
 40
1.0
  9
$DISPSILH
 70
     0
  9
$DIMSCALE
 40
25.0
  9
$DIMASZ
 40
2.0
  9
$DIMEXO
 40
1.0
  9
$DIMDLI
 40
10.0
  9
$DIMRND
 40
0.0
  9
$DIMDLE
 40
0.0
  9
$DIMEXE
 40
1.0
  9
$DIMTP
 40
1.0
  9
$DIMTM
 40
1.0
  9
$DIMTXT
 40
3.0
  9
$DIMCEN
 40
0.0
  9
$DIMTSZ
 40
0.0
  9
$DIMTOL
 70
     0
  9
$DIMLIM
 70
     0
  9
$DIMTIH
 70
     0
  9
$DIMTOH
 70
     0
  9
$DIMSE1
 70
     0
  9
$DIMSE2
 70
     0
  9
$DIMTAD
 70
     1
  9
$DIMZIN
 70
     8
  9
$DIMBLK
  1

  9
$DIMASO
 70
     1
  9
$DIMSHO
 70
     1
  9
$DIMPOST
  1

  9
$DIMAPOST
  1

  9
$DIMALT
 70
     0
  9
$DIMALTD
 70
     2
  9
$DIMALTF
 40
0.039
  9
$DIMLFAC
 40
1.0
  9
$DIMTOFL
 70
     1
  9
$DIMTVP
 40
0.0
  9
$DIMTIX
 70
     0
  9
$DIMSOXD
 70
     0
  9
$DIMSAH
 70
     1
  9
$DIMBLK1
  1
OPEN
  9
$DIMBLK2
  1
OPEN
  9
$DIMSTYLE
  2
IGA
  9
$DIMCLRD
 70
     0
  9
$DIMCLRE
 70
     0
  9
$DIMCLRT
 70
     0
  9
$DIMTFAC
 40
10.0
  9
$DIMGAP
 40
1.0
  9
$DIMJUST
 70
     0
  9
$DIMSD1
 70
     0
  9
$DIMSD2
 70
     0
  9
$DIMTOLJ
 70
     1
  9
$DIMTZIN
 70
     0
  9
$DIMALTZ
 70
     0
  9
$DIMALTTZ
 70
     0
  9
$DIMUPT
 70
     0
  9
$DIMDEC
 70
     4
  9
$DIMTDEC
 70
     4
  9
$DIMALTU
 70
     2
  9
$DIMALTTD
 70
     2
  9
$DIMTXSTY
  7
STANDARD
  9
$DIMAUNIT
 70
     0
  9
$DIMADEC
 70
     0
  9
$DIMALTRND
 40
0.0
  9
$DIMAZIN
 70
     0
  9
$DIMDSEP
 70
    46
  9
$DIMATFIT
 70
     3
  9
$DIMFRAC
 70
     0
  9
$DIMLDRBLK
  1
OPEN
  9
$DIMLUNIT
 70
     2
  9
$DIMLWD
 70
    -2
  9
$DIMLWE
 70
    -2
  9
$DIMTMOVE
 70
     0
  9
$LUNITS
 70
     2
  9
$LUPREC
 70
     3
  9
$SKETCHINC
 40
0.1
  9
$FILLETRAD
 40
50.0
  9
$AUNITS
 70
     0
  9
$AUPREC
 70
     0
  9
$MENU
  1
acad
  9
$ELEVATION
 40
0.0
  9
$PELEVATION
 40
0.0
  9
$THICKNESS
 40
0.0
  9
$LIMCHECK
 70
     0
  9
$CHAMFERA
 40
0.5
  9
$CHAMFERB
 40
0.5
  9
$CHAMFERC
 40
0.0
  9
$CHAMFERD
 40
0.0
  9
$SKPOLY
 70
     0
  9
$TDCREATE
 40
2451387.620289931
  9
$TDUCREATE
 40
2451387.245289931
  9
$TDUPDATE
 40
2460263.707439676
  9
$TDUUPDATE
 40
2460263.332439676
  9
$TDINDWG
 40
0.0365343056
  9
$TDUSRTIMER
 40
0.0365340741
  9
$USRTIMER
 70
     1
  9
$ANGBASE
 50
0.0
  9
$ANGDIR
 70
     0
  9
$PDMODE
 70
     0
  9
$PDSIZE
 40
0.0
  9
$PLINEWID
 40
0.0
  9
$SPLFRAME
 70
     0
  9
$SPLINETYPE
 70
     6
  9
$SPLINESEGS
 70
     8
  9
$HANDSEED
  5
8545
  9
$SURFTAB1
 70
     6
  9
$SURFTAB2
 70
     6
  9
$SURFTYPE
 70
     6
  9
$SURFU
 70
     6
  9
$SURFV
 70
     6
  9
$UCSBASE
  2

  9
$UCSNAME
  2

  9
$UCSORG
 10
0.0
 20
0.0
 30
0.0
  9
$UCSXDIR
 10
1.0
 20
0.0
 30
0.0
  9
$UCSYDIR
 10
0.0
 20
1.0
 30
0.0
  9
$UCSORTHOREF
  2

  9
$UCSORTHOVIEW
 70
     0
  9
$UCSORGTOP
 10
0.0
 20
0.0
 30
0.0
  9
$UCSORGBOTTOM
 10
0.0
 20
0.0
 30
0.0
  9
$UCSORGLEFT
 10
0.0
 20
0.0
 30
0.0
  9
$UCSORGRIGHT
 10
0.0
 20
0.0
 30
0.0
  9
$UCSORGFRONT
 10
0.0
 20
0.0
 30
0.0
  9
$UCSORGBACK
 10
0.0
 20
0.0
 30
0.0
  9
$PUCSBASE
  2

  9
$PUCSNAME
  2

  9
$PUCSORG
 10
0.0
 20
0.0
 30
0.0
  9
$PUCSXDIR
 10
1.0
 20
0.0
 30
0.0
  9
$PUCSYDIR
 10
0.0
 20
1.0
 30
0.0
  9
$PUCSORTHOREF
  2

  9
$PUCSORTHOVIEW
 70
     0
  9
$PUCSORGTOP
 10
0.0
 20
0.0
 30
0.0
  9
$PUCSORGBOTTOM
 10
0.0
 20
0.0
 30
0.0
  9
$PUCSORGLEFT
 10
0.0
 20
0.0
 30
0.0
  9
$PUCSORGRIGHT
 10
0.0
 20
0.0
 30
0.0
  9
$PUCSORGFRONT
 10
0.0
 20
0.0
 30
0.0
  9
$PUCSORGBACK
 10
0.0
 20
0.0
 30
0.0
  9
$USERI1
 70
     0
  9
$USERI2
 70
     0
  9
$USERI3
 70
     0
  9
$USERI4
 70
     0
  9
$USERI5
 70
     0
  9
$USERR1
 40
0.0
  9
$USERR2
 40
0.0
  9
$USERR3
 40
0.0
  9
$USERR4
 40
0.0
  9
$USERR5
 40
0.0
  9
$WORLDVIEW
 70
     1
  9
$SHADEDGE
 70
     3
  9
$SHADEDIF
 70
    70
  9
$TILEMODE
 70
     1
  9
$MAXACTVP
 70
    16
  9
$PINSBASE
 10
0.0
 20
0.0
 30
0.0
  9
$PLIMCHECK
 70
     0
  9
$PEXTMIN
 10
1.000000000000000E+20
 20
1.000000000000000E+20
 30
1.000000000000000E+20
  9
$PEXTMAX
 10
-1.000000000000000E+20
 20
-1.000000000000000E+20
 30
-1.000000000000000E+20
  9
$PLIMMIN
 10
0.0
 20
0.0
  9
$PLIMMAX
 10
12.0
 20
9.0
  9
$UNITMODE
 70
     0
  9
$VISRETAIN
 70
     0
  9
$PLINEGEN
 70
     0
  9
$PSLTSCALE
 70
     1
  9
$TREEDEPTH
 70
  3020
  9
$CMLSTYLE
  2
Standard
  9
$CMLJUST
 70
     0
  9
$CMLSCALE
 40
1.0
  9
$PROXYGRAPHICS
 70
     1
  9
$MEASUREMENT
 70
     0
  9
$CELWEIGHT
370
    -1
  9
$ENDCAPS
280
     0
  9
$JOINSTYLE
280
     0
  9
$LWDISPLAY
290
     0
  9
$INSUNITS
 70
     0
  9
$HYPERLINKBASE
  1

  9
$STYLESHEET
  1

  9
$XEDIT
290
     1
  9
$CEPSNTYPE
380
     0
  9
$PSTYLEMODE
290
     1
  9
$FINGERPRINTGUID
  2
{D2543464-6637-4CBD-B2D1-072DC50EC5E3}
  9
$VERSIONGUID
  2
{CFE10807-1622-4F36-9607-D3B14083E8DC}
  9
$EXTNAMES
290
     1
  9
$PSVPSCALE
 40
0.0
  9
$OLESTARTUP
290
     0
  0
ENDSEC
  0
SECTION
  2
CLASSES
  0
CLASS
  1
ACDBDICTIONARYWDFLT
  2
AcDbDictionaryWithDefault
  3
ObjectDBX Classes
 90
        0
280
     0
281
     0
  0
CLASS
  1
MATERIAL
  2
AcDbMaterial
  3
ObjectDBX Classes
 90
     1153
280
     0
281
     0
  0
CLASS
  1
VISUALSTYLE
  2
AcDbVisualStyle
  3
ObjectDBX Classes
 90
     4095
280
     0
281
     0
  0
CLASS
  1
SCALE
  2
AcDbScale
  3
ObjectDBX Classes
 90
     1153
280
     0
281
     0
  0
CLASS
  1
TABLESTYLE
  2
AcDbTableStyle
  3
ObjectDBX Classes
 90
     4095
280
     0
281
     0
  0
CLASS
  1
MLEADERSTYLE
  2
AcDbMLeaderStyle
  3
ACDB_MLEADERSTYLE_CLASS
 90
     4095
280
     0
281
     0
  0
CLASS
  1
ACDBSECTIONVIEWSTYLE
  2
AcDbSectionViewStyle
  3
ObjectDBX Classes
 90
     1025
280
     0
281
     0
  0
CLASS
  1
ACDBDETAILVIEWSTYLE
  2
AcDbDetailViewStyle
  3
ObjectDBX Classes
 90
     1025
280
     0
281
     0
  0
CLASS
  1
SORTENTSTABLE
  2
AcDbSortentsTable
  3
ObjectDBX Classes
 90
        0
280
     0
281
     0
  0
CLASS
  1
DICTIONARYVAR
  2
AcDbDictionaryVar
  3
ObjectDBX Classes
 90
        0
280
     0
281
     0
  0
CLASS
  1
CELLSTYLEMAP
  2
AcDbCellStyleMap
  3
ObjectDBX Classes
 90
     1152
280
     0
281
     0
  0
CLASS
  1
ACDBPLACEHOLDER
  2
AcDbPlaceHolder
  3
ObjectDBX Classes
 90
        0
280
     0
281
     0
  0
CLASS
  1
LAYOUT
  2
AcDbLayout
  3
ObjectDBX Classes
 90
        0
280
     0
281
     0
  0
ENDSEC
  0
SECTION
  2
TABLES
  0
TABLE
  2
VPORT
  5
813C
330
0
100
AcDbSymbolTable
 70
     1
  0
VPORT
  5
81A8
330
813C
100
AcDbSymbolTableRecord
100
AcDbViewportTableRecord
  2
*ACTIVE
 70
     0
 10
0.0
 20
0.0
 11
1.0
 21
1.0
 12
2625.00001222361
 22
3687.500017171259
 13
0.0
 23
0.0
 14
10.0
 24
10.0
 15
10.0
 25
10.0
 16
0.0
 26
0.0
 36
1.0
 17
0.0
 27
0.0
 37
0.0
 40
7422.678203440799
 41
2.050213675213675
 42
50.0
 43
0.0
 44
0.0
 50
0.0
 51
0.0
 71
     0
 72
   100
 73
     1
 74
     0
 75
     0
 76
     0
 77
     0
 78
     0
281
     0
 65
     1
110
0.0
120
0.0
130
0.0
111
1.0
121
0.0
131
0.0
112
0.0
122
1.0
132
0.0
 79
     0
146
0.0
1001
ACAD_NAV_VCDISPLAY
1070
     3
  0
ENDTAB
  0
TABLE
  2
LTYPE
  5
8139
330
0
100
AcDbSymbolTable
 70
     3
  0
LTYPE
  5
818E
330
8139
100
AcDbSymbolTableRecord
100
AcDbLinetypeTableRecord
  2
ByBlock
 70
     0
  3

 72
    65
 73
     0
 40
0.0
  0
LTYPE
  5
818F
330
8139
100
AcDbSymbolTableRecord
100
AcDbLinetypeTableRecord
  2
ByLayer
 70
     0
  3

 72
    65
 73
     0
 40
0.0
  0
LTYPE
  5
8190
330
8139
100
AcDbSymbolTableRecord
100
AcDbLinetypeTableRecord
  2
CONTINUOUS
 70
     0
  3
Solid line
 72
    65
 73
     0
 40
0.0
  0
LTYPE
  5
81A9
330
8139
100
AcDbSymbolTableRecord
100
AcDbLinetypeTableRecord
  2
CENTER
 70
     0
  3
____ _ ____ _ ____ _ ____ _ ____ _ ____ _ ____ 
 72
    65
 73
     4
 40
2.0
 49
1.25
 74
     0
 49
-0.25
 74
     0
 49
0.25
 74
     0
 49
-0.25
 74
     0
  0
ENDTAB
  0
TABLE
  2
LAYER
  5
8136
102
{ACAD_XDICTIONARY
360
81F1
102
}
330
0
100
AcDbSymbolTable
 70
     6
  0
LAYER
  5
8188
102
{ACAD_XDICTIONARY
360
84A6
102
}
330
8136
100
AcDbSymbolTableRecord
100
AcDbLayerTableRecord
  2
0
 70
     0
 62
     7
  6
CONTINUOUS
370
    -3
390
8143
  0
LAYER
  5
81A7
102
{ACAD_XDICTIONARY
360
84A8
102
}
330
8136
100
AcDbSymbolTableRecord
100
AcDbLayerTableRecord
  2
3
 70
     0
 62
     2
  6
CONTINUOUS
370
    -3
390
8143
  0
LAYER
  5
81AA
102
{ACAD_XDICTIONARY
360
84AA
102
}
330
8136
100
AcDbSymbolTableRecord
100
AcDbLayerTableRecord
  2
2
 70
     0
 62
     3
  6
CENTER
370
    -3
390
8143
  0
LAYER
  5
81AB
102
{ACAD_XDICTIONARY
360
84AC
102
}
330
8136
100
AcDbSymbolTableRecord
100
AcDbLayerTableRecord
  2
1
 70
     0
 62
     4
  6
CONTINUOUS
370
    -3
390
8143
  0
LAYER
  5
81AC
102
{ACAD_XDICTIONARY
360
84AE
102
}
330
8136
100
AcDbSymbolTableRecord
100
AcDbLayerTableRecord
  2
4
 70
     0
 62
     7
  6
CONTINUOUS
370
    -3
390
8143
  0
LAYER
  5
81AD
330
8136
100
AcDbSymbolTableRecord
100
AcDbLayerTableRecord
  2
DEFPOINTS
 70
     0
 62
     7
  6
CONTINUOUS
290
     0
370
    -3
390
8143
  0
ENDTAB
  0
TABLE
  2
STYLE
  5
8137
330
0
100
AcDbSymbolTable
 70
     2
  0
STYLE
  5
8189
330
8137
100
AcDbSymbolTableRecord
100
AcDbTextStyleTableRecord
  2
STANDARD
 70
     0
 40
0.0
 41
1.0
 50
0.0
 71
     0
 42
180.0
  3
simplex.shx
  4
extfont.shx
  0
STYLE
  5
818D
330
8137
100
AcDbSymbolTableRecord
100
AcDbTextStyleTableRecord
  2
Annotative
 70
     0
 40
0.0
 41
1.0
 50
0.0
 71
     0
 42
0.2
  3
txt
  4

1001
AcadAnnotative
1000
AnnotativeData
1002
{
1070
     1
1070
     1
1002
}
  0
ENDTAB
  0
TABLE
  2
VIEW
  5
813A
330
0
100
AcDbSymbolTable
 70
     0
  0
ENDTAB
  0
TABLE
  2
UCS
  5
813B
330
0
100
AcDbSymbolTable
 70
     0
  0
ENDTAB
  0
TABLE
  2
APPID
  5
813D
330
0
100
AcDbSymbolTable
 70
     8
  0
APPID
  5
818A
330
813D
100
AcDbSymbolTableRecord
100
AcDbRegAppTableRecord
  2
ACAD
 70
     0
  0
APPID
  5
8191
330
813D
100
AcDbSymbolTableRecord
100
AcDbRegAppTableRecord
  2
AcadAnnotative
 70
     0
  0
APPID
  5
81F0
330
813D
100
AcDbSymbolTableRecord
100
AcDbRegAppTableRecord
  2
ACAD_NAV_VCDISPLAY
 70
     0
  0
APPID
  5
8265
330
813D
100
AcDbSymbolTableRecord
100
AcDbRegAppTableRecord
  2
ACAD_DSTYLE_DIMJAG
 70
     0
  0
APPID
  5
8266
330
813D
100
AcDbSymbolTableRecord
100
AcDbRegAppTableRecord
  2
ACAD_DSTYLE_DIMTALN
 70
     0
  0
APPID
  5
834C
330
813D
100
AcDbSymbolTableRecord
100
AcDbRegAppTableRecord
  2
AcadAnnoMonitorAlertIconDisabled
 70
     0
  0
APPID
  5
834D
330
813D
100
AcDbSymbolTableRecord
100
AcDbRegAppTableRecord
  2
ACAD_EXEMPT_FROM_CAD_STANDARDS
 70
     0
  0
APPID
  5
853C
330
813D
100
AcDbSymbolTableRecord
100
AcDbRegAppTableRecord
  2
ACAD_MLEADERVER
 70
     0
  0
ENDTAB
  0
TABLE
  2
DIMSTYLE
  5
813E
330
0
100
AcDbSymbolTable
 70
     4
100
AcDbDimStyleTable
 71
     1
340
81AE
  0
DIMSTYLE
105
818B
102
{ACAD_REACTORS
330
7C97
330
7C98
330
7CF7
330
7CFB
330
7CFD
330
7CFE
330
7CFF
330
7D00
330
7D02
330
7D2C
102
}
330
813E
100
AcDbSymbolTableRecord
100
AcDbDimStyleTableRecord
  2
Standard
 70
     0
340
8189
  0
DIMSTYLE
105
818C
330
813E
100
AcDbSymbolTableRecord
100
AcDbDimStyleTableRecord
  2
Annotative
 70
     0
340
8189
1001
AcadAnnotative
1000
AnnotativeData
1002
{
1070
     1
1070
     1
1002
}
  0
DIMSTYLE
105
81AE
102
{ACAD_REACTORS
330
8241
330
824E
330
8267
330
82DF
330
82EC
330
82F9
330
8306
330
8313
330
8329
330
8336
330
836A
330
8377
330
8389
102
}
330
813E
100
AcDbSymbolTableRecord
100
AcDbDimStyleTableRecord
  2
IGA
 70
     0
 40
2.0
 41
2.0
 42
0.5
 43
10.0
 44
1.0
 47
1.0
 48
1.0
 73
     0
 74
     0
 77
     1
 78
     8
140
3.0
141
0.0
143
0.03937
146
10.0
147
1.0
173
     1
271
     3
272
     3
279
     2
284
     8
285
     8
286
     8
340
8189
  0
DIMSTYLE
105
81AF
330
813E
100
AcDbSymbolTableRecord
100
AcDbDimStyleTableRecord
  2
MATSU
 70
     0
 41
2.0
 42
1.0
 43
10.0
 44
1.0
 73
     0
 74
     0
 77
     1
 78
     8
140
3.0
141
0.0
143
0.03937
147
0.5
172
     1
173
     1
176
   256
177
   256
178
   256
271
     3
272
     3
279
     2
284
     8
285
     8
286
     8
340
8189
  0
ENDTAB
  0
TABLE
  2
BLOCK_RECORD
  5
8135
330
0
100
AcDbSymbolTable
 70
    52
  0
BLOCK_RECORD
  5
81A3
330
8135
100
AcDbSymbolTableRecord
100
AcDbBlockTableRecord
  2
*Model_Space
340
81A6
  0
BLOCK_RECORD
  5
819F
330
8135
100
AcDbSymbolTableRecord
100
AcDbBlockTableRecord
  2
*Paper_Space
340
81A2
  0
BLOCK_RECORD
  5
81B3
330
8135
100
AcDbSymbolTableRecord
100
AcDbBlockTableRecord
  2
$MODEL_SPACE
340
0
  0
BLOCK_RECORD
  5
81B5
330
8135
100
AcDbSymbolTableRecord
100
AcDbBlockTableRecord
  2
$PAPER_SPACE
340
0
  0
BLOCK_RECORD
  5
81B7
330
8135
100
AcDbSymbolTableRecord
100
AcDbBlockTableRecord
  2
_OPEN
340
0
102
{BLKREFS
331
826E
331
826F
331
8277
331
8278
331
7E74
331
7E75
331
7E7F
331
7E80
331
7EC1
331
7EC2
331
801A
331
801B
331
8030
331
8031
331
8111
331
8112
331
805F
331
8060
331
806C
331
806D
331
80A0
331
80A1
331
7EE2
331
7EE3
331
7EED
331
7EEE
331
8009
331
800A
331
7F03
331
7F04
331
7F0E
331
7F0F
331
7F19
331
7F1A
331
7F24
331
7F25
331
7F2F
331
7F30
331
7F44
331
7F45
331
8119
331
811A
331
8125
331
8045
331
8046
331
8052
331
8053
331
82E6
331
82E7
331
82F3
331
82F4
331
8300
331
8301
331
830D
331
830E
331
8323
331
8324
331
8346
331
8347
331
8364
331
8365
331
8371
331
8372
331
84FE
331
84FF
331
8478
331
84A1
102
}
  0
BLOCK_RECORD
  5
81B9
330
8135
100
AcDbSymbolTableRecord
100
AcDbBlockTableRecord
  2
YA_N
340
0
102
{BLKREFS
331
7C41
331
7C60
331
7C9E
331
7CD6
102
}
  0
BLOCK_RECORD
  5
81BB
330
8135
100
AcDbSymbolTableRecord
100
AcDbBlockTableRecord
  2
*D4
340
0
  0
BLOCK_RECORD
  5
81BD
330
8135
100
AcDbSymbolTableRecord
100
AcDbBlockTableRecord
  2
*D5
340
0
  0
BLOCK_RECORD
  5
81BF
330
8135
100
AcDbSymbolTableRecord
100
AcDbBlockTableRecord
  2
*D6
340
0
  0
BLOCK_RECORD
  5
81C1
330
8135
100
AcDbSymbolTableRecord
100
AcDbBlockTableRecord
  2
*D7
340
0
  0
BLOCK_RECORD
  5
81C3
330
8135
100
AcDbSymbolTableRecord
100
AcDbBlockTableRecord
  2
*U8
340
0
102
{BLKREFS
331
801C
102
}
  0
BLOCK_RECORD
  5
81C4
330
8135
100
AcDbSymbolTableRecord
100
AcDbBlockTableRecord
  2
*D9
340
0
  0
BLOCK_RECORD
  5
81C6
330
8135
100
AcDbSymbolTableRecord
100
AcDbBlockTableRecord
  2
*D10
340
0
  0
BLOCK_RECORD
  5
81C8
330
8135
100
AcDbSymbolTableRecord
100
AcDbBlockTableRecord
  2
*D11
340
0
  0
BLOCK_RECORD
  5
81CA
330
8135
100
AcDbSymbolTableRecord
100
AcDbBlockTableRecord
  2
*D12
340
0
  0
BLOCK_RECORD
  5
81CC
330
8135
100
AcDbSymbolTableRecord
100
AcDbBlockTableRecord
  2
*D13
340
0
  0
BLOCK_RECORD
  5
81CE
330
8135
100
AcDbSymbolTableRecord
100
AcDbBlockTableRecord
  2
*D14
340
0
  0
BLOCK_RECORD
  5
81D0
330
8135
100
AcDbSymbolTableRecord
100
AcDbBlockTableRecord
  2
*D15
340
0
  0
BLOCK_RECORD
  5
81D2
330
8135
100
AcDbSymbolTableRecord
100
AcDbBlockTableRecord
  2
*D16
340
0
  0
BLOCK_RECORD
  5
81D4
330
8135
100
AcDbSymbolTableRecord
100
AcDbBlockTableRecord
  2
*D17
340
0
  0
BLOCK_RECORD
  5
81D6
330
8135
100
AcDbSymbolTableRecord
100
AcDbBlockTableRecord
  2
*D18
340
0
  0
BLOCK_RECORD
  5
81D8
330
8135
100
AcDbSymbolTableRecord
100
AcDbBlockTableRecord
  2
*D19
340
0
  0
BLOCK_RECORD
  5
81DA
330
8135
100
AcDbSymbolTableRecord
100
AcDbBlockTableRecord
  2
*D20
340
0
  0
BLOCK_RECORD
  5
81DC
330
8135
100
AcDbSymbolTableRecord
100
AcDbBlockTableRecord
  2
*D21
340
0
  0
BLOCK_RECORD
  5
81DE
330
8135
100
AcDbSymbolTableRecord
100
AcDbBlockTableRecord
  2
_DOT
340
0
102
{BLKREFS
331
8124
102
}
  0
BLOCK_RECORD
  5
81E0
330
8135
100
AcDbSymbolTableRecord
100
AcDbBlockTableRecord
  2
*D23
340
0
  0
BLOCK_RECORD
  5
81E2
330
8135
100
AcDbSymbolTableRecord
100
AcDbBlockTableRecord
  2
*D24
340
0
  0
BLOCK_RECORD
  5
81E4
330
8135
100
AcDbSymbolTableRecord
100
AcDbBlockTableRecord
  2
*D25
340
0
  0
BLOCK_RECORD
  5
81E6
330
8135
100
AcDbSymbolTableRecord
100
AcDbBlockTableRecord
  2
*D26
340
0
  0
BLOCK_RECORD
  5
81E8
330
8135
100
AcDbSymbolTableRecord
100
AcDbBlockTableRecord
  2
_NONE
340
0
  0
BLOCK_RECORD
  5
81EA
330
8135
100
AcDbSymbolTableRecord
100
AcDbBlockTableRecord
  2
*D28
340
0
  0
BLOCK_RECORD
  5
81EC
330
8135
100
AcDbSymbolTableRecord
100
AcDbBlockTableRecord
  2
*D29
340
0
  0
BLOCK_RECORD
  5
8242
330
8135
100
AcDbSymbolTableRecord
100
AcDbBlockTableRecord
  2
*D31
340
0
  0
BLOCK_RECORD
  5
824F
330
8135
100
AcDbSymbolTableRecord
100
AcDbBlockTableRecord
  2
*D32
340
0
  0
BLOCK_RECORD
  5
8268
330
8135
100
AcDbSymbolTableRecord
100
AcDbBlockTableRecord
  2
*D33
340
0
  0
BLOCK_RECORD
  5
8286
330
8135
100
AcDbSymbolTableRecord
100
AcDbBlockTableRecord
  2
*D34
340
0
  0
BLOCK_RECORD
  5
8293
330
8135
100
AcDbSymbolTableRecord
100
AcDbBlockTableRecord
  2
*D35
340
0
  0
BLOCK_RECORD
  5
82A0
330
8135
100
AcDbSymbolTableRecord
100
AcDbBlockTableRecord
  2
*D36
340
0
  0
BLOCK_RECORD
  5
82AD
330
8135
100
AcDbSymbolTableRecord
100
AcDbBlockTableRecord
  2
*D37
340
0
  0
BLOCK_RECORD
  5
82B8
330
8135
100
AcDbSymbolTableRecord
100
AcDbBlockTableRecord
  2
*D38
340
0
  0
BLOCK_RECORD
  5
82C5
330
8135
100
AcDbSymbolTableRecord
100
AcDbBlockTableRecord
  2
*D39
340
0
  0
BLOCK_RECORD
  5
82D2
330
8135
100
AcDbSymbolTableRecord
100
AcDbBlockTableRecord
  2
*D40
340
0
  0
BLOCK_RECORD
  5
82E0
330
8135
100
AcDbSymbolTableRecord
100
AcDbBlockTableRecord
  2
*D41
340
0
  0
BLOCK_RECORD
  5
82ED
330
8135
100
AcDbSymbolTableRecord
100
AcDbBlockTableRecord
  2
*D42
340
0
  0
BLOCK_RECORD
  5
82FA
330
8135
100
AcDbSymbolTableRecord
100
AcDbBlockTableRecord
  2
*D43
340
0
  0
BLOCK_RECORD
  5
8307
330
8135
100
AcDbSymbolTableRecord
100
AcDbBlockTableRecord
  2
*D44
340
0
  0
BLOCK_RECORD
  5
8314
330
8135
100
AcDbSymbolTableRecord
100
AcDbBlockTableRecord
  2
*D45
340
0
  0
BLOCK_RECORD
  5
832A
330
8135
100
AcDbSymbolTableRecord
100
AcDbBlockTableRecord
  2
*D46
340
0
  0
BLOCK_RECORD
  5
8337
330
8135
100
AcDbSymbolTableRecord
100
AcDbBlockTableRecord
  2
*D47
340
0
  0
BLOCK_RECORD
  5
836B
330
8135
100
AcDbSymbolTableRecord
100
AcDbBlockTableRecord
  2
*D48
340
0
  0
BLOCK_RECORD
  5
8378
330
8135
100
AcDbSymbolTableRecord
100
AcDbBlockTableRecord
  2
*D49
340
0
  0
BLOCK_RECORD
  5
838A
330
8135
100
AcDbSymbolTableRecord
100
AcDbBlockTableRecord
  2
*D50
340
0
  0
BLOCK_RECORD
  5
83FC
330
8135
100
AcDbSymbolTableRecord
100
AcDbBlockTableRecord
  2
_DotSmall
340
0
102
{BLKREFS
331
8477
331
84A2
102
}
  0
ENDTAB
  0
ENDSEC
  0
SECTION
  2
BLOCKS
  0
BLOCK
  5
81A4
330
81A3
100
AcDbEntity
  8
0
100
AcDbBlockBegin
  2
*Model_Space
 70
     0
 10
0.0
 20
0.0
 30
0.0
  3
*Model_Space
  1

  0
ENDBLK
  5
81A5
330
81A3
100
AcDbEntity
  8
0
100
AcDbBlockEnd
  0
BLOCK
  5
81A0
330
819F
100
AcDbEntity
 67
     1
  8
0
100
AcDbBlockBegin
  2
*Paper_Space
 70
     0
 10
0.0
 20
0.0
 30
0.0
  3
*Paper_Space
  1

  0
ENDBLK
  5
81A1
330
819F
100
AcDbEntity
 67
     1
  8
0
100
AcDbBlockEnd
  0
BLOCK
  5
81B4
330
81B3
100
AcDbEntity
  8
0
100
AcDbBlockBegin
  2
$MODEL_SPACE
 70
     0
 10
0.0
 20
0.0
 30
0.0
  3
$MODEL_SPACE
  1

  0
ENDBLK
  5
1B
330
81B3
100
AcDbEntity
  8
0
100
AcDbBlockEnd
  0
BLOCK
  5
81B6
330
81B5
100
AcDbEntity
  8
0
100
AcDbBlockBegin
  2
$PAPER_SPACE
 70
     0
 10
0.0
 20
0.0
 30
0.0
  3
$PAPER_SPACE
  1

  0
ENDBLK
  5
18
330
81B5
100
AcDbEntity
  8
0
100
AcDbBlockEnd
  0
BLOCK
  5
81B8
330
81B7
100
AcDbEntity
  8
0
100
AcDbBlockBegin
  2
_OPEN
 70
     0
 10
0.0
 20
0.0
 30
0.0
  3
_OPEN
  1

  0
LINE
  5
79FD
330
81B7
100
AcDbEntity
  8
0
  6
ByBlock
 62
     0
100
AcDbLine
 10
-1.0
 20
0.1666666666666666
 30
0.0
 11
0.0
 21
0.0
 31
0.0
  0
LINE
  5
79FE
330
81B7
100
AcDbEntity
  8
0
  6
ByBlock
 62
     0
100
AcDbLine
 10
0.0
 20
0.0
 30
0.0
 11
-1.0
 21
-0.1666666666666666
 31
0.0
  0
LINE
  5
79FF
330
81B7
100
AcDbEntity
  8
0
  6
ByBlock
 62
     0
100
AcDbLine
 10
0.0
 20
0.0
 30
0.0
 11
-1.0
 21
0.0
 31
0.0
  0
ENDBLK
  5
7A01
330
81B7
100
AcDbEntity
  8
0
100
AcDbBlockEnd
  0
BLOCK
  5
81BA
330
81B9
100
AcDbEntity
  8
0
100
AcDbBlockBegin
  2
YA_N
 70
     0
 10
0.0
 20
0.0
 30
0.0
  3
YA_N
  1

  0
ENDBLK
  5
7A0C
330
81B9
100
AcDbEntity
  8
0
100
AcDbBlockEnd
  0
BLOCK
  5
81BC
330
81BB
100
AcDbEntity
  8
0
100
AcDbBlockBegin
  2
*D4
 70
     1
 10
0.0
 20
0.0
 30
0.0
  3
*D4
  1

  0
LINE
  5
7E71
330
81BB
100
AcDbEntity
  8
0
  6
ByBlock
100
AcDbLine
 10
1750.57214721576
 20
-250.406521778601
 30
0.0
 11
1899.579530994986
 21
-250.406521778601
 31
0.0
  0
LINE
  5
7E72
330
81BB
100
AcDbEntity
  8
0
  6
ByBlock
100
AcDbLine
 10
1750.572147215761
 20
479.5934782213988
 30
0.0
 11
1899.579530994986
 21
479.5934782213988
 31
0.0
  0
LINE
  5
7E73
330
81BB
100
AcDbEntity
  8
0
  6
ByBlock
100
AcDbLine
 10
1874.579530994986
 20
-200.4065217786009
 30
0.0
 11
1874.579530994986
 21
429.5934782213988
 31
0.0
  0
INSERT
  5
7E74
330
81BB
100
AcDbEntity
  8
0
  6
ByBlock
100
AcDbBlockReference
  2
_OPEN
 10
1874.579530994986
 20
-250.406521778601
 30
0.0
 41
50.0
 42
50.0
 43
50.0
 50
270.0
  0
INSERT
  5
7E75
330
81BB
100
AcDbEntity
  8
0
  6
ByBlock
100
AcDbBlockReference
  2
_OPEN
 10
1874.579530994986
 20
479.5934782213988
 30
0.0
 41
50.0
 42
50.0
 43
50.0
 50
90.0
  0
TEXT
  5
7E76
330
81BB
100
AcDbEntity
  8
3
100
AcDbText
 10
1862.079530994986
 20
18.16490679282755
 30
0.0
 40
75.0
  1
730
 50
90.0
100
AcDbText
  0
POINT
  5
7E77
330
81BB
100
AcDbEntity
  8
DEFPOINTS
  6
ByBlock
 62
     0
100
AcDbPoint
 10
1725.57214721576
 20
-250.406521778601
 30
0.0
  0
POINT
  5
7E78
330
81BB
100
AcDbEntity
  8
DEFPOINTS
  6
ByBlock
 62
     0
100
AcDbPoint
 10
1725.572147215761
 20
479.5934782213988
 30
0.0
  0
POINT
  5
7E79
330
81BB
100
AcDbEntity
  8
DEFPOINTS
  6
ByBlock
 62
     0
100
AcDbPoint
 10
1874.579530994986
 20
479.5934782213988
 30
0.0
  0
ENDBLK
  5
7E7A
330
81BB
100
AcDbEntity
  8
0
100
AcDbBlockEnd
  0
BLOCK
  5
81BE
330
81BD
100
AcDbEntity
  8
0
100
AcDbBlockBegin
  2
*D5
 70
     1
 10
0.0
 20
0.0
 30
0.0
  3
*D5
  1

  0
LINE
  5
7E7C
330
81BD
100
AcDbEntity
  8
0
  6
ByBlock
100
AcDbLine
 10
1750.57214721576
 20
-250.406521778601
 30
0.0
 11
2052.388304468651
 21
-250.406521778601
 31
0.0
  0
LINE
  5
7E7D
330
81BD
100
AcDbEntity
  8
0
  6
ByBlock
100
AcDbLine
 10
1872.837986021189
 20
508.5934782213988
 30
0.0
 11
2052.388304468651
 21
508.5934782213988
 31
0.0
  0
LINE
  5
7E7E
330
81BD
100
AcDbEntity
  8
0
  6
ByBlock
100
AcDbLine
 10
2027.388304468651
 20
-200.4065217786009
 30
0.0
 11
2027.388304468651
 21
458.5934782213988
 31
0.0
  0
INSERT
  5
7E7F
330
81BD
100
AcDbEntity
  8
0
  6
ByBlock
100
AcDbBlockReference
  2
_OPEN
 10
2027.388304468651
 20
-250.406521778601
 30
0.0
 41
50.0
 42
50.0
 43
50.0
 50
270.0
  0
INSERT
  5
7E80
330
81BD
100
AcDbEntity
  8
0
  6
ByBlock
100
AcDbBlockReference
  2
_OPEN
 10
2027.388304468651
 20
508.5934782213988
 30
0.0
 41
50.0
 42
50.0
 43
50.0
 50
90.0
  0
TEXT
  5
7E81
330
81BD
100
AcDbEntity
  8
3
100
AcDbText
 10
2014.888304468651
 20
34.45062107854186
 30
0.0
 40
75.0
  1
759
 50
90.0
100
AcDbText
  0
POINT
  5
7E82
330
81BD
100
AcDbEntity
  8
DEFPOINTS
  6
ByBlock
 62
     0
100
AcDbPoint
 10
1725.57214721576
 20
-250.406521778601
 30
0.0
  0
POINT
  5
7E83
330
81BD
100
AcDbEntity
  8
DEFPOINTS
  6
ByBlock
 62
     0
100
AcDbPoint
 10
1847.83798602119
 20
508.5934782213988
 30
0.0
  0
POINT
  5
7E84
330
81BD
100
AcDbEntity
  8
DEFPOINTS
  6
ByBlock
 62
     0
100
AcDbPoint
 10
2027.388304468651
 20
508.5934782213988
 30
0.0
  0
ENDBLK
  5
7E85
330
81BD
100
AcDbEntity
  8
0
100
AcDbBlockEnd
  0
BLOCK
  5
81C0
330
81BF
100
AcDbEntity
  8
0
100
AcDbBlockBegin
  2
*D6
 70
     1
 10
0.0
 20
0.0
 30
0.0
  3
*D6
  1

  0
LINE
  5
7EBE
330
81BF
100
AcDbEntity
  8
0
  6
ByBlock
100
AcDbLine
 10
3394.272073930469
 20
1034.935589762506
 30
0.0
 11
3394.272073930469
 21
1226.540262895163
 31
0.0
  0
LINE
  5
7EBF
330
81BF
100
AcDbEntity
  8
0
  6
ByBlock
100
AcDbLine
 10
4294.27207393047
 20
1034.935576025498
 30
0.0
 11
4294.27207393047
 21
1226.540262895163
 31
0.0
  0
LINE
  5
7EC0
330
81BF
100
AcDbEntity
  8
0
  6
ByBlock
100
AcDbLine
 10
3444.272073930469
 20
1201.540262895163
 30
0.0
 11
4244.27207393047
 21
1201.540262895163
 31
0.0
  0
INSERT
  5
7EC1
330
81BF
100
AcDbEntity
  8
0
  6
ByBlock
100
AcDbBlockReference
  2
_OPEN
 10
3394.272073930469
 20
1201.540262895163
 30
0.0
 41
50.0
 42
50.0
 43
50.0
 50
180.0
  0
INSERT
  5
7EC2
330
81BF
100
AcDbEntity
  8
0
  6
ByBlock
100
AcDbBlockReference
  2
_OPEN
 10
4294.27207393047
 20
1201.540262895163
 30
0.0
 41
50.0
 42
50.0
 43
50.0
  0
TEXT
  5
7EC3
330
81BF
100
AcDbEntity
  8
3
100
AcDbText
 10
3747.843502501898
 20
1214.040262895163
 30
0.0
 40
75.0
  1
900
100
AcDbText
  0
POINT
  5
7EC4
330
81BF
100
AcDbEntity
  8
DEFPOINTS
  6
ByBlock
 62
     0
100
AcDbPoint
 10
3394.272073930469
 20
1009.935589762506
 30
0.0
  0
POINT
  5
7EC5
330
81BF
100
AcDbEntity
  8
DEFPOINTS
  6
ByBlock
 62
     0
100
AcDbPoint
 10
4294.27207393047
 20
1009.935576025498
 30
0.0
  0
POINT
  5
7EC6
330
81BF
100
AcDbEntity
  8
DEFPOINTS
  6
ByBlock
 62
     0
100
AcDbPoint
 10
4294.27207393047
 20
1201.540262895163
 30
0.0
  0
ENDBLK
  5
7EC7
330
81BF
100
AcDbEntity
  8
0
100
AcDbBlockEnd
  0
BLOCK
  5
81C2
330
81C1
100
AcDbEntity
  8
0
100
AcDbBlockBegin
  2
*D7
 70
     1
 10
0.0
 20
0.0
 30
0.0
  3
*D7
  1

  0
LINE
  5
8017
330
81C1
100
AcDbEntity
  8
0
  6
ByBlock
100
AcDbLine
 10
3308.454511818551
 20
3015.416563417292
 30
0.0
 11
3308.454511818551
 21
3578.617014698353
 31
0.0
  0
LINE
  5
8018
330
81C1
100
AcDbEntity
  8
0
  6
ByBlock
100
AcDbLine
 10
4063.454511818547
 20
3563.321581601269
 30
0.0
 11
4063.454511818547
 21
3578.617014698353
 31
0.0
  0
LINE
  5
8019
330
81C1
100
AcDbEntity
  8
0
  6
ByBlock
100
AcDbLine
 10
3358.454511818551
 20
3553.617014698353
 30
0.0
 11
4013.454511818546
 21
3553.617014698353
 31
0.0
  0
INSERT
  5
801A
330
81C1
100
AcDbEntity
  8
0
  6
ByBlock
100
AcDbBlockReference
  2
_OPEN
 10
3308.454511818551
 20
3553.617014698353
 30
0.0
 41
50.0
 42
50.0
 43
50.0
 50
180.0
  0
INSERT
  5
801B
330
81C1
100
AcDbEntity
  8
0
  6
ByBlock
100
AcDbBlockReference
  2
_OPEN
 10
4063.454511818547
 20
3553.617014698353
 30
0.0
 41
50.0
 42
50.0
 43
50.0
  0
INSERT
  5
801C
330
81C1
100
AcDbEntity
  8
3
100
AcDbBlockReference
  2
*U8
 10
0.0
 20
0.0
 30
0.0
  0
POINT
  5
801D
330
81C1
100
AcDbEntity
  8
DEFPOINTS
  6
ByBlock
 62
     0
100
AcDbPoint
 10
3308.454511818551
 20
2990.416563417292
 30
0.0
  0
POINT
  5
801E
330
81C1
100
AcDbEntity
  8
DEFPOINTS
  6
ByBlock
 62
     0
100
AcDbPoint
 10
4063.454511818547
 20
3538.32158160127
 30
0.0
  0
POINT
  5
801F
330
81C1
100
AcDbEntity
  8
DEFPOINTS
  6
ByBlock
 62
     0
100
AcDbPoint
 10
4063.454511818547
 20
3553.617014698353
 30
0.0
  0
ENDBLK
  5
8020
330
81C1
100
AcDbEntity
  8
0
100
AcDbBlockEnd
  0
BLOCK
  5
81EE
330
81C3
100
AcDbEntity
  8
0
100
AcDbBlockBegin
  2
*U8
 70
     1
 10
0.0
 20
0.0
 30
0.0
  3
*U8
  1

  0
TEXT
  5
812E
330
81C3
100
AcDbEntity
  8
3
100
AcDbText
 10
3578.811654675691
 20
3691.117014698352
 30
0.0
 40
75.0
  1
MAX
100
AcDbText
  0
TEXT
  5
812F
330
81C3
100
AcDbEntity
  8
3
100
AcDbText
 10
3589.525940389977
 20
3566.117014698352
 30
0.0
 40
75.0
  1
780
100
AcDbText
  0
ENDBLK
  5
8131
330
81C3
100
AcDbEntity
  8
0
100
AcDbBlockEnd
  0
BLOCK
  5
81C5
330
81C4
100
AcDbEntity
  8
0
100
AcDbBlockBegin
  2
*D9
 70
     1
 10
0.0
 20
0.0
 30
0.0
  3
*D9
  1

  0
LINE
  5
802D
330
81C4
100
AcDbEntity
  8
0
  6
ByBlock
100
AcDbLine
 10
4063.454511818547
 20
3533.476332681931
 30
0.0
 11
4063.454511818547
 21
3578.617014698353
 31
0.0
  0
LINE
  5
802E
330
81C4
100
AcDbEntity
  8
0
  6
ByBlock
100
AcDbLine
 10
4615.954511818546
 20
2710.216563417291
 30
0.0
 11
4615.954511818546
 21
3578.617014698353
 31
0.0
  0
LINE
  5
802F
330
81C4
100
AcDbEntity
  8
0
  6
ByBlock
100
AcDbLine
 10
4113.454511818547
 20
3553.617014698353
 30
0.0
 11
4565.954511818548
 21
3553.617014698353
 31
0.0
  0
INSERT
  5
8030
330
81C4
100
AcDbEntity
  8
0
  6
ByBlock
100
AcDbBlockReference
  2
_OPEN
 10
4063.454511818547
 20
3553.617014698353
 30
0.0
 41
50.0
 42
50.0
 43
50.0
 50
180.0
  0
INSERT
  5
8031
330
81C4
100
AcDbEntity
  8
0
  6
ByBlock
100
AcDbBlockReference
  2
_OPEN
 10
4615.954511818546
 20
3553.617014698353
 30
0.0
 41
50.0
 42
50.0
 43
50.0
  0
TEXT
  5
8032
330
81C4
100
AcDbEntity
  8
3
100
AcDbText
 10
4195.06165467569
 20
3598.259871841211
 30
0.0
 40
75.0
  1
(560)
100
AcDbText
  0
POINT
  5
8033
330
81C4
100
AcDbEntity
  8
DEFPOINTS
  6
ByBlock
 62
     0
100
AcDbPoint
 10
4063.454511818547
 20
3508.476332681931
 30
0.0
  0
POINT
  5
8034
330
81C4
100
AcDbEntity
  8
DEFPOINTS
  6
ByBlock
 62
     0
100
AcDbPoint
 10
4615.954511818546
 20
2685.216563417291
 30
0.0
  0
POINT
  5
8035
330
81C4
100
AcDbEntity
  8
DEFPOINTS
  6
ByBlock
 62
     0
100
AcDbPoint
 10
4615.954511818546
 20
3553.617014698353
 30
0.0
  0
ENDBLK
  5
8036
330
81C4
100
AcDbEntity
  8
0
100
AcDbBlockEnd
  0
BLOCK
  5
81C7
330
81C6
100
AcDbEntity
  8
0
100
AcDbBlockBegin
  2
*D10
 70
     1
 10
0.0
 20
0.0
 30
0.0
  3
*D10
  1

  0
LINE
  5
7EDF
330
81C6
100
AcDbEntity
  8
0
  6
ByBlock
100
AcDbLine
 10
4321.57207393047
 20
133.5934782213989
 30
0.0
 11
4597.054208885889
 21
133.5934782213989
 31
0.0
  0
LINE
  5
7EE0
330
81C6
100
AcDbEntity
  8
0
  6
ByBlock
100
AcDbLine
 10
4321.57207393047
 20
883.5934782213987
 30
0.0
 11
4597.054208885889
 21
883.5934782213987
 31
0.0
  0
LINE
  5
7EE1
330
81C6
100
AcDbEntity
  8
0
  6
ByBlock
100
AcDbLine
 10
4572.054208885889
 20
183.5934782213989
 30
0.0
 11
4572.054208885889
 21
833.5934782213987
 31
0.0
  0
INSERT
  5
7EE2
330
81C6
100
AcDbEntity
  8
0
  6
ByBlock
100
AcDbBlockReference
  2
_OPEN
 10
4572.054208885889
 20
133.5934782213989
 30
0.0
 41
50.0
 42
50.0
 43
50.0
 50
270.0
  0
INSERT
  5
7EE3
330
81C6
100
AcDbEntity
  8
0
  6
ByBlock
100
AcDbBlockReference
  2
_OPEN
 10
4572.054208885889
 20
883.5934782213987
 30
0.0
 41
50.0
 42
50.0
 43
50.0
 50
90.0
  0
TEXT
  5
7EE4
330
81C6
100
AcDbEntity
  8
3
100
AcDbText
 10
4559.554208885889
 20
374.6649067928275
 30
0.0
 40
75.0
  1
\U+03C6750
 50
90.0
100
AcDbText
  0
POINT
  5
7EE5
330
81C6
100
AcDbEntity
  8
DEFPOINTS
  6
ByBlock
 62
     0
100
AcDbPoint
 10
4296.57207393047
 20
133.5934782213989
 30
0.0
  0
POINT
  5
7EE6
330
81C6
100
AcDbEntity
  8
DEFPOINTS
  6
ByBlock
 62
     0
100
AcDbPoint
 10
4296.57207393047
 20
883.5934782213987
 30
0.0
  0
POINT
  5
7EE7
330
81C6
100
AcDbEntity
  8
DEFPOINTS
  6
ByBlock
 62
     0
100
AcDbPoint
 10
4572.054208885889
 20
883.5934782213987
 30
0.0
  0
ENDBLK
  5
7EE8
330
81C6
100
AcDbEntity
  8
0
100
AcDbBlockEnd
  0
BLOCK
  5
81C9
330
81C8
100
AcDbEntity
  8
0
100
AcDbBlockBegin
  2
*D11
 70
     1
 10
0.0
 20
0.0
 30
0.0
  3
*D11
  1

  0
LINE
  5
7EEA
330
81C8
100
AcDbEntity
  8
0
  6
ByBlock
100
AcDbLine
 10
75.57214721576018
 20
2748.533310535339
 30
0.0
 11
75.57214721576018
 21
2485.350850711191
 31
0.0
  0
LINE
  5
7EEB
330
81C8
100
AcDbEntity
  8
0
  6
ByBlock
100
AcDbLine
 10
1675.57214721576
 20
2748.533310535338
 30
0.0
 11
1675.57214721576
 21
2485.350850711191
 31
0.0
  0
LINE
  5
7EEC
330
81C8
100
AcDbEntity
  8
0
  6
ByBlock
100
AcDbLine
 10
125.5721472157601
 20
2510.350850711191
 30
0.0
 11
1625.57214721576
 21
2510.350850711191
 31
0.0
  0
INSERT
  5
7EED
330
81C8
100
AcDbEntity
  8
0
  6
ByBlock
100
AcDbBlockReference
  2
_OPEN
 10
75.57214721576018
 20
2510.350850711191
 30
0.0
 41
50.0
 42
50.0
 43
50.0
 50
180.0
  0
INSERT
  5
7EEE
330
81C8
100
AcDbEntity
  8
0
  6
ByBlock
100
AcDbBlockReference
  2
_OPEN
 10
1675.57214721576
 20
2510.350850711191
 30
0.0
 41
50.0
 42
50.0
 43
50.0
  0
TEXT
  5
7EEF
330
81C8
100
AcDbEntity
  8
3
100
AcDbText
 10
750.5721472157602
 20
2522.850850711191
 30
0.0
 40
75.0
  1
1600
100
AcDbText
  0
POINT
  5
7EF0
330
81C8
100
AcDbEntity
  8
DEFPOINTS
  6
ByBlock
 62
     0
100
AcDbPoint
 10
75.57214721576018
 20
2773.533310535339
 30
0.0
  0
POINT
  5
7EF1
330
81C8
100
AcDbEntity
  8
DEFPOINTS
  6
ByBlock
 62
     0
100
AcDbPoint
 10
1675.57214721576
 20
2773.533310535337
 30
0.0
  0
POINT
  5
7EF2
330
81C8
100
AcDbEntity
  8
DEFPOINTS
  6
ByBlock
 62
     0
100
AcDbPoint
 10
1675.57214721576
 20
2510.350850711191
 30
0.0
  0
ENDBLK
  5
7EF3
330
81C8
100
AcDbEntity
  8
0
100
AcDbBlockEnd
  0
BLOCK
  5
81CB
330
81CA
100
AcDbEntity
  8
0
100
AcDbBlockBegin
  2
*D12
 70
     1
 10
0.0
 20
0.0
 30
0.0
  3
*D12
  1

  0
LINE
  5
8006
330
81CA
100
AcDbEntity
  8
0
  6
ByBlock
100
AcDbLine
 10
520.5753457462015
 20
4170.571064741897
 30
0.0
 11
351.7157809545969
 21
4170.571064741897
 31
0.0
  0
LINE
  5
8007
330
81CA
100
AcDbEntity
  8
0
  6
ByBlock
100
AcDbLine
 10
520.5753457462015
 20
4840.5710647419
 30
0.0
 11
351.7157809545969
 21
4840.5710647419
 31
0.0
  0
LINE
  5
8008
330
81CA
100
AcDbEntity
  8
0
  6
ByBlock
100
AcDbLine
 10
376.7157809545969
 20
4220.571064741897
 30
0.0
 11
376.7157809545969
 21
4790.571064741899
 31
0.0
  0
INSERT
  5
8009
330
81CA
100
AcDbEntity
  8
0
  6
ByBlock
100
AcDbBlockReference
  2
_OPEN
 10
376.7157809545969
 20
4170.571064741897
 30
0.0
 41
50.0
 42
50.0
 43
50.0
 50
270.0
  0
INSERT
  5
800A
330
81CA
100
AcDbEntity
  8
0
  6
ByBlock
100
AcDbBlockReference
  2
_OPEN
 10
376.7157809545969
 20
4840.5710647419
 30
0.0
 41
50.0
 42
50.0
 43
50.0
 50
90.0
  0
TEXT
  5
800B
330
81CA
100
AcDbEntity
  8
3
100
AcDbText
 10
364.2157809545969
 20
4409.142493313328
 30
0.0
 40
75.0
  1
670
 50
90.0
100
AcDbText
  0
POINT
  5
800C
330
81CA
100
AcDbEntity
  8
DEFPOINTS
  6
ByBlock
 62
     0
100
AcDbPoint
 10
545.5753457462015
 20
4170.571064741897
 30
0.0
  0
POINT
  5
800D
330
81CA
100
AcDbEntity
  8
DEFPOINTS
  6
ByBlock
 62
     0
100
AcDbPoint
 10
545.5753457462015
 20
4840.5710647419
 30
0.0
  0
POINT
  5
800E
330
81CA
100
AcDbEntity
  8
DEFPOINTS
  6
ByBlock
 62
     0
100
AcDbPoint
 10
376.7157809545969
 20
4840.5710647419
 30
0.0
  0
ENDBLK
  5
800F
330
81CA
100
AcDbEntity
  8
0
100
AcDbBlockEnd
  0
BLOCK
  5
81CD
330
81CC
100
AcDbEntity
  8
0
100
AcDbBlockBegin
  2
*D13
 70
     1
 10
0.0
 20
0.0
 30
0.0
  3
*D13
  1

  0
LINE
  5
7F00
330
81CC
100
AcDbEntity
  8
0
  6
ByBlock
100
AcDbLine
 10
775.5721472157602
 20
3953.533310535338
 30
0.0
 11
775.5721472157602
 21
4255.16536493951
 31
0.0
  0
LINE
  5
7F01
330
81CC
100
AcDbEntity
  8
0
  6
ByBlock
100
AcDbLine
 10
1675.57214721576
 20
3953.533310535338
 30
0.0
 11
1675.57214721576
 21
4255.16536493951
 31
0.0
  0
LINE
  5
7F02
330
81CC
100
AcDbEntity
  8
0
  6
ByBlock
100
AcDbLine
 10
825.5721472157601
 20
4230.165364939511
 30
0.0
 11
1625.57214721576
 21
4230.165364939511
 31
0.0
  0
INSERT
  5
7F03
330
81CC
100
AcDbEntity
  8
0
  6
ByBlock
100
AcDbBlockReference
  2
_OPEN
 10
775.5721472157602
 20
4230.165364939511
 30
0.0
 41
50.0
 42
50.0
 43
50.0
 50
180.0
  0
INSERT
  5
7F04
330
81CC
100
AcDbEntity
  8
0
  6
ByBlock
100
AcDbBlockReference
  2
_OPEN
 10
1675.57214721576
 20
4230.165364939511
 30
0.0
 41
50.0
 42
50.0
 43
50.0
  0
TEXT
  5
7F05
330
81CC
100
AcDbEntity
  8
3
100
AcDbText
 10
1129.143575787189
 20
4242.665364939511
 30
0.0
 40
75.0
  1
900
100
AcDbText
  0
POINT
  5
7F06
330
81CC
100
AcDbEntity
  8
DEFPOINTS
  6
ByBlock
 62
     0
100
AcDbPoint
 10
775.5721472157602
 20
3928.533310535339
 30
0.0
  0
POINT
  5
7F07
330
81CC
100
AcDbEntity
  8
DEFPOINTS
  6
ByBlock
 62
     0
100
AcDbPoint
 10
1675.57214721576
 20
3928.533310535338
 30
0.0
  0
POINT
  5
7F08
330
81CC
100
AcDbEntity
  8
DEFPOINTS
  6
ByBlock
 62
     0
100
AcDbPoint
 10
1675.57214721576
 20
4230.165364939511
 30
0.0
  0
ENDBLK
  5
7F09
330
81CC
100
AcDbEntity
  8
0
100
AcDbBlockEnd
  0
BLOCK
  5
81CF
330
81CE
100
AcDbEntity
  8
0
100
AcDbBlockBegin
  2
*D14
 70
     1
 10
0.0
 20
0.0
 30
0.0
  3
*D14
  1

  0
LINE
  5
7F0B
330
81CE
100
AcDbEntity
  8
0
  6
ByBlock
100
AcDbLine
 10
75.57214721576018
 20
3468.53331053534
 30
0.0
 11
75.57214721576018
 21
4255.16536493951
 31
0.0
  0
LINE
  5
7F0C
330
81CE
100
AcDbEntity
  8
0
  6
ByBlock
100
AcDbLine
 10
775.5721472157602
 20
3953.533310535338
 30
0.0
 11
775.5721472157602
 21
4255.16536493951
 31
0.0
  0
LINE
  5
7F0D
330
81CE
100
AcDbEntity
  8
0
  6
ByBlock
100
AcDbLine
 10
125.5721472157601
 20
4230.165364939511
 30
0.0
 11
725.5721472157602
 21
4230.165364939511
 31
0.0
  0
INSERT
  5
7F0E
330
81CE
100
AcDbEntity
  8
0
  6
ByBlock
100
AcDbBlockReference
  2
_OPEN
 10
75.57214721576018
 20
4230.165364939511
 30
0.0
 41
50.0
 42
50.0
 43
50.0
 50
180.0
  0
INSERT
  5
7F0F
330
81CE
100
AcDbEntity
  8
0
  6
ByBlock
100
AcDbBlockReference
  2
_OPEN
 10
775.5721472157602
 20
4230.165364939511
 30
0.0
 41
50.0
 42
50.0
 43
50.0
  0
TEXT
  5
7F10
330
81CE
100
AcDbEntity
  8
3
100
AcDbText
 10
329.1435757871887
 20
4242.665364939511
 30
0.0
 40
75.0
  1
700
100
AcDbText
  0
POINT
  5
7F11
330
81CE
100
AcDbEntity
  8
DEFPOINTS
  6
ByBlock
 62
     0
100
AcDbPoint
 10
75.57214721576018
 20
3443.53331053534
 30
0.0
  0
POINT
  5
7F12
330
81CE
100
AcDbEntity
  8
DEFPOINTS
  6
ByBlock
 62
     0
100
AcDbPoint
 10
775.5721472157602
 20
3928.533310535339
 30
0.0
  0
POINT
  5
7F13
330
81CE
100
AcDbEntity
  8
DEFPOINTS
  6
ByBlock
 62
     0
100
AcDbPoint
 10
775.5721472157602
 20
4230.165364939511
 30
0.0
  0
ENDBLK
  5
7F14
330
81CE
100
AcDbEntity
  8
0
100
AcDbBlockEnd
  0
BLOCK
  5
81D1
330
81D0
100
AcDbEntity
  8
0
100
AcDbBlockBegin
  2
*D15
 70
     1
 10
0.0
 20
0.0
 30
0.0
  3
*D15
  1

  0
LINE
  5
7F16
330
81D0
100
AcDbEntity
  8
0
  6
ByBlock
100
AcDbLine
 10
1700.57214721576
 20
2773.533310535337
 30
0.0
 11
2001.969355357017
 21
2773.533310535337
 31
0.0
  0
LINE
  5
7F17
330
81D0
100
AcDbEntity
  8
0
  6
ByBlock
100
AcDbLine
 10
1700.57214721576
 20
3928.533310535338
 30
0.0
 11
2001.969355357017
 21
3928.533310535338
 31
0.0
  0
LINE
  5
7F18
330
81D0
100
AcDbEntity
  8
0
  6
ByBlock
100
AcDbLine
 10
1976.969355357018
 20
2823.533310535337
 30
0.0
 11
1976.969355357018
 21
3878.533310535337
 31
0.0
  0
INSERT
  5
7F19
330
81D0
100
AcDbEntity
  8
0
  6
ByBlock
100
AcDbBlockReference
  2
_OPEN
 10
1976.969355357018
 20
2773.533310535337
 30
0.0
 41
50.0
 42
50.0
 43
50.0
 50
270.0
  0
INSERT
  5
7F1A
330
81D0
100
AcDbEntity
  8
0
  6
ByBlock
100
AcDbBlockReference
  2
_OPEN
 10
1976.969355357018
 20
3928.533310535338
 30
0.0
 41
50.0
 42
50.0
 43
50.0
 50
90.0
  0
TEXT
  5
7F1B
330
81D0
100
AcDbEntity
  8
3
100
AcDbText
 10
1964.469355357017
 20
3233.176167678195
 30
0.0
 40
75.0
  1
1155
 50
90.0
100
AcDbText
  0
POINT
  5
7F1C
330
81D0
100
AcDbEntity
  8
DEFPOINTS
  6
ByBlock
 62
     0
100
AcDbPoint
 10
1675.57214721576
 20
2773.533310535337
 30
0.0
  0
POINT
  5
7F1D
330
81D0
100
AcDbEntity
  8
DEFPOINTS
  6
ByBlock
 62
     0
100
AcDbPoint
 10
1675.57214721576
 20
3928.533310535338
 30
0.0
  0
POINT
  5
7F1E
330
81D0
100
AcDbEntity
  8
DEFPOINTS
  6
ByBlock
 62
     0
100
AcDbPoint
 10
1976.969355357018
 20
3928.533310535338
 30
0.0
  0
ENDBLK
  5
7F1F
330
81D0
100
AcDbEntity
  8
0
100
AcDbBlockEnd
  0
BLOCK
  5
81D3
330
81D2
100
AcDbEntity
  8
0
100
AcDbBlockBegin
  2
*D16
 70
     1
 10
0.0
 20
0.0
 30
0.0
  3
*D16
  1

  0
LINE
  5
7F21
330
81D2
100
AcDbEntity
  8
0
  6
ByBlock
100
AcDbLine
 10
1725.57214721576
 20
533.7669540473683
 30
0.0
 11
1725.57214721576
 21
1391.903743581282
 31
0.0
  0
LINE
  5
7F22
330
81D2
100
AcDbEntity
  8
0
  6
ByBlock
100
AcDbLine
 10
75.57214721576018
 20
-236.406521778601
 30
0.0
 11
75.57214721576018
 21
1391.903743581282
 31
0.0
  0
LINE
  5
7F23
330
81D2
100
AcDbEntity
  8
0
  6
ByBlock
100
AcDbLine
 10
1675.57214721576
 20
1366.903743581282
 30
0.0
 11
125.5721472157601
 21
1366.903743581282
 31
0.0
  0
INSERT
  5
7F24
330
81D2
100
AcDbEntity
  8
0
  6
ByBlock
100
AcDbBlockReference
  2
_OPEN
 10
1725.57214721576
 20
1366.903743581282
 30
0.0
 41
50.0
 42
50.0
 43
50.0
  0
INSERT
  5
7F25
330
81D2
100
AcDbEntity
  8
0
  6
ByBlock
100
AcDbBlockReference
  2
_OPEN
 10
75.57214721576018
 20
1366.903743581282
 30
0.0
 41
50.0
 42
50.0
 43
50.0
 50
180.0
  0
TEXT
  5
7F26
330
81D2
100
AcDbEntity
  8
3
100
AcDbText
 10
775.5721472157602
 20
1379.403743581282
 30
0.0
 40
75.0
  1
1650
100
AcDbText
  0
POINT
  5
7F27
330
81D2
100
AcDbEntity
  8
DEFPOINTS
  6
ByBlock
 62
     0
100
AcDbPoint
 10
1725.57214721576
 20
508.7669540473684
 30
0.0
  0
POINT
  5
7F28
330
81D2
100
AcDbEntity
  8
DEFPOINTS
  6
ByBlock
 62
     0
100
AcDbPoint
 10
75.57214721576018
 20
-261.406521778601
 30
0.0
  0
POINT
  5
7F29
330
81D2
100
AcDbEntity
  8
DEFPOINTS
  6
ByBlock
 62
     0
100
AcDbPoint
 10
75.57214721576018
 20
1366.903743581282
 30
0.0
  0
ENDBLK
  5
7F2A
330
81D2
100
AcDbEntity
  8
0
100
AcDbBlockEnd
  0
BLOCK
  5
81D5
330
81D4
100
AcDbEntity
  8
0
100
AcDbBlockBegin
  2
*D17
 70
     1
 10
0.0
 20
0.0
 30
0.0
  3
*D17
  1

  0
LINE
  5
7F2C
330
81D4
100
AcDbEntity
  8
0
  6
ByBlock
100
AcDbLine
 10
1725.572147215761
 20
546.593478221399
 30
0.0
 11
1725.572147215761
 21
1193.481924814399
 31
0.0
  0
LINE
  5
7F2D
330
81D4
100
AcDbEntity
  8
0
  6
ByBlock
100
AcDbLine
 10
1225.57214721576
 20
1101.189008982398
 30
0.0
 11
1225.57214721576
 21
1193.481924814399
 31
0.0
  0
LINE
  5
7F2E
330
81D4
100
AcDbEntity
  8
0
  6
ByBlock
100
AcDbLine
 10
1675.572147215761
 20
1168.481924814399
 30
0.0
 11
1275.57214721576
 21
1168.481924814399
 31
0.0
  0
INSERT
  5
7F2F
330
81D4
100
AcDbEntity
  8
0
  6
ByBlock
100
AcDbBlockReference
  2
_OPEN
 10
1725.572147215761
 20
1168.481924814399
 30
0.0
 41
50.0
 42
50.0
 43
50.0
  0
INSERT
  5
7F30
330
81D4
100
AcDbEntity
  8
0
  6
ByBlock
100
AcDbBlockReference
  2
_OPEN
 10
1225.57214721576
 20
1168.481924814399
 30
0.0
 41
50.0
 42
50.0
 43
50.0
 50
180.0
  0
TEXT
  5
7F31
330
81D4
100
AcDbEntity
  8
3
100
AcDbText
 10
1379.143575787189
 20
1180.981924814399
 30
0.0
 40
75.0
  1
500
100
AcDbText
  0
POINT
  5
7F32
330
81D4
100
AcDbEntity
  8
DEFPOINTS
  6
ByBlock
 62
     0
100
AcDbPoint
 10
1725.572147215761
 20
521.593478221399
 30
0.0
  0
POINT
  5
7F33
330
81D4
100
AcDbEntity
  8
DEFPOINTS
  6
ByBlock
 62
     0
100
AcDbPoint
 10
1225.57214721576
 20
1076.189008982398
 30
0.0
  0
POINT
  5
7F34
330
81D4
100
AcDbEntity
  8
DEFPOINTS
  6
ByBlock
 62
     0
100
AcDbPoint
 10
1225.57214721576
 20
1168.481924814399
 30
0.0
  0
ENDBLK
  5
7F35
330
81D4
100
AcDbEntity
  8
0
100
AcDbBlockEnd
  0
BLOCK
  5
81D7
330
81D6
100
AcDbEntity
  8
0
100
AcDbBlockBegin
  2
*D18
 70
     1
 10
0.0
 20
0.0
 30
0.0
  3
*D18
  1

  0
LINE
  5
810F
330
81D6
100
AcDbEntity
  8
3
100
AcDbLine
 10
1360.798291471092
 20
2682.416563417291
 30
0.0
 11
1360.798291471092
 21
3395.305010010292
 31
0.0
  0
LINE
  5
8110
330
81D6
100
AcDbEntity
  8
3
100
AcDbLine
 10
1922.798291471092
 20
3370.305010010292
 30
0.0
 11
1410.798291471092
 21
3370.305010010292
 31
0.0
  0
INSERT
  5
8111
330
81D6
100
AcDbEntity
  8
3
100
AcDbBlockReference
  2
_OPEN
 10
1972.798291471092
 20
3370.305010010292
 30
0.0
 41
50.0
 42
50.0
 43
50.0
  0
INSERT
  5
8112
330
81D6
100
AcDbEntity
  8
3
100
AcDbBlockReference
  2
_OPEN
 10
1360.798291471092
 20
3370.305010010292
 30
0.0
 41
50.0
 42
50.0
 43
50.0
 50
180.0
  0
TEXT
  5
8132
330
81D6
100
AcDbEntity
  8
3
100
AcDbText
 10
1516.8
 20
3287.56
 30
0.0
 40
75.0
  1
612
100
AcDbText
  0
POINT
  5
8114
330
81D6
100
AcDbEntity
  8
DEFPOINTS
 62
     0
100
AcDbPoint
 10
1972.798291471092
 20
3278.012094178292
 30
0.0
  0
POINT
  5
8115
330
81D6
100
AcDbEntity
  8
DEFPOINTS
 62
     0
100
AcDbPoint
 10
1360.798291471092
 20
2657.416563417291
 30
0.0
  0
POINT
  5
8116
330
81D6
100
AcDbEntity
  8
DEFPOINTS
 62
     0
100
AcDbPoint
 10
1360.798291471092
 20
3370.305010010292
 30
0.0
  0
ENDBLK
  5
7F3F
330
81D6
100
AcDbEntity
  8
0
100
AcDbBlockEnd
  0
BLOCK
  5
81D9
330
81D8
100
AcDbEntity
  8
0
100
AcDbBlockBegin
  2
*D19
 70
     1
 10
0.0
 20
0.0
 30
0.0
  3
*D19
  1

  0
LINE
  5
7F41
330
81D8
100
AcDbEntity
  8
0
  6
ByBlock
100
AcDbLine
 10
1197.57214721576
 20
1014.593478221399
 30
0.0
 11
2217.032376355673
 21
1014.593478221399
 31
0.0
  0
LINE
  5
7F42
330
81D8
100
AcDbEntity
  8
0
  6
ByBlock
100
AcDbLine
 10
1872.837986021189
 20
508.5934782213988
 30
0.0
 11
2217.032376355673
 21
508.5934782213988
 31
0.0
  0
LINE
  5
7F43
330
81D8
100
AcDbEntity
  8
0
  6
ByBlock
100
AcDbLine
 10
2192.032376355673
 20
964.5934782213988
 30
0.0
 11
2192.032376355673
 21
558.5934782213988
 31
0.0
  0
INSERT
  5
7F44
330
81D8
100
AcDbEntity
  8
0
  6
ByBlock
100
AcDbBlockReference
  2
_OPEN
 10
2192.032376355673
 20
1014.593478221399
 30
0.0
 41
50.0
 42
50.0
 43
50.0
 50
90.0
  0
INSERT
  5
7F45
330
81D8
100
AcDbEntity
  8
0
  6
ByBlock
100
AcDbBlockReference
  2
_OPEN
 10
2192.032376355673
 20
508.5934782213988
 30
0.0
 41
50.0
 42
50.0
 43
50.0
 50
270.0
  0
TEXT
  5
7F46
330
81D8
100
AcDbEntity
  8
3
100
AcDbText
 10
2179.532376355673
 20
666.9506210785417
 30
0.0
 40
75.0
  1
506
 50
90.0
100
AcDbText
  0
POINT
  5
7F47
330
81D8
100
AcDbEntity
  8
DEFPOINTS
  6
ByBlock
 62
     0
100
AcDbPoint
 10
1172.57214721576
 20
1014.593478221399
 30
0.0
  0
POINT
  5
7F48
330
81D8
100
AcDbEntity
  8
DEFPOINTS
  6
ByBlock
 62
     0
100
AcDbPoint
 10
1847.83798602119
 20
508.5934782213988
 30
0.0
  0
POINT
  5
7F49
330
81D8
100
AcDbEntity
  8
DEFPOINTS
  6
ByBlock
 62
     0
100
AcDbPoint
 10
2192.032376355673
 20
508.5934782213988
 30
0.0
  0
ENDBLK
  5
7F4A
330
81D8
100
AcDbEntity
  8
0
100
AcDbBlockEnd
  0
BLOCK
  5
81DB
330
81DA
100
AcDbEntity
  8
0
100
AcDbBlockBegin
  2
*D20
 70
     1
 10
0.0
 20
0.0
 30
0.0
  3
*D20
  1

  0
LINE
  5
8117
330
81DA
100
AcDbEntity
  8
3
100
AcDbLine
 10
2447.798291471092
 20
1840.416563417291
 30
0.0
 11
2964.258520611005
 21
1840.416563417291
 31
0.0
  0
LINE
  5
8118
330
81DA
100
AcDbEntity
  8
3
100
AcDbLine
 10
2939.258520611005
 20
2660.416563417291
 30
0.0
 11
2939.258520611005
 21
1890.416563417291
 31
0.0
  0
INSERT
  5
8119
330
81DA
100
AcDbEntity
  8
3
100
AcDbBlockReference
  2
_OPEN
 10
2939.258520611005
 20
2710.416563417291
 30
0.0
 41
50.0
 42
50.0
 43
50.0
 50
90.0
  0
INSERT
  5
811A
330
81DA
100
AcDbEntity
  8
3
100
AcDbBlockReference
  2
_OPEN
 10
2939.258520611005
 20
1840.416563417291
 30
0.0
 41
50.0
 42
50.0
 43
50.0
 50
270.0
  0
TEXT
  5
8133
330
81DA
100
AcDbEntity
  8
3
100
AcDbText
 10
2739.26
 20
2142.67
 30
0.0
 40
75.0
  1
870
100
AcDbText
  0
POINT
  5
811C
330
81DA
100
AcDbEntity
  8
DEFPOINTS
 62
     0
100
AcDbPoint
 10
2595.064130276521
 20
2710.416563417291
 30
0.0
  0
POINT
  5
811D
330
81DA
100
AcDbEntity
  8
DEFPOINTS
 62
     0
100
AcDbPoint
 10
2422.798291471092
 20
1840.416563417291
 30
0.0
  0
POINT
  5
811E
330
81DA
100
AcDbEntity
  8
DEFPOINTS
 62
     0
100
AcDbPoint
 10
2939.258520611005
 20
1840.416563417291
 30
0.0
  0
ENDBLK
  5
7F54
330
81DA
100
AcDbEntity
  8
0
100
AcDbBlockEnd
  0
BLOCK
  5
81DD
330
81DC
100
AcDbEntity
  8
0
100
AcDbBlockBegin
  2
*D21
 70
     1
 10
0.0
 20
0.0
 30
0.0
  3
*D21
  1

  0
LINE
  5
811F
330
81DC
100
AcDbEntity
  8
3
 62
     0
100
AcDbLine
 10
2435.298291471092
 20
1745.41656341729
 30
0.0
 11
2964.258520611005
 21
1745.41656341729
 31
0.0
  0
LINE
  5
8120
330
81DC
100
AcDbEntity
  8
3
 62
     0
100
AcDbLine
 10
2435.298291471092
 20
1645.41656341729
 30
0.0
 11
2964.258520611005
 21
1645.41656341729
 31
0.0
  0
LINE
  5
8121
330
81DC
100
AcDbEntity
  8
3
 62
     0
100
AcDbLine
 10
2939.258520611005
 20
1795.41656341729
 30
0.0
 11
2939.258520611005
 21
1845.41656341729
 31
0.0
  0
LINE
  5
8122
330
81DC
100
AcDbEntity
  8
3
 62
     0
100
AcDbLine
 10
2939.258520611005
 20
1595.41656341729
 30
0.0
 11
2939.258520611005
 21
1316.845134845862
 31
0.0
  0
LINE
  5
8123
330
81DC
100
AcDbEntity
  8
3
 62
     0
100
AcDbLine
 10
2939.258520611005
 20
1745.41656341729
 30
0.0
 11
2939.258520611005
 21
1645.41656341729
 31
0.0
  0
INSERT
  5
8124
330
81DC
100
AcDbEntity
  8
3
 62
     0
100
AcDbBlockReference
  2
_DOT
 10
2939.258520611005
 20
1745.41656341729
 30
0.0
 41
50.0
 42
50.0
 43
50.0
 50
270.0
  0
INSERT
  5
8125
330
81DC
100
AcDbEntity
  8
3
 62
     0
100
AcDbBlockReference
  2
_OPEN
 10
2939.258520611005
 20
1645.41656341729
 30
0.0
 41
50.0
 42
50.0
 43
50.0
 50
90.0
  0
TEXT
  5
8134
330
81DC
100
AcDbEntity
  8
3
 62
     0
100
AcDbText
 10
2726.76
 20
1298.38
 30
0.0
 40
75.0
  1
100
100
AcDbText
  0
POINT
  5
8127
330
81DC
100
AcDbEntity
  8
DEFPOINTS
 62
     0
100
AcDbPoint
 10
2422.798291471092
 20
1745.41656341729
 30
0.0
  0
POINT
  5
8128
330
81DC
100
AcDbEntity
  8
DEFPOINTS
 62
     0
100
AcDbPoint
 10
2422.798291471092
 20
1645.41656341729
 30
0.0
  0
POINT
  5
8129
330
81DC
100
AcDbEntity
  8
DEFPOINTS
 62
     0
100
AcDbPoint
 10
2939.258520611005
 20
1645.41656341729
 30
0.0
  0
ENDBLK
  5
7FE8
330
81DC
100
AcDbEntity
  8
0
100
AcDbBlockEnd
  0
BLOCK
  5
81DF
330
81DE
100
AcDbEntity
  8
0
100
AcDbBlockBegin
  2
_DOT
 70
     0
 10
0.0
 20
0.0
 30
0.0
  3
_DOT
  1

  0
LWPOLYLINE
  5
7FF8
330
81DE
100
AcDbEntity
  8
0
  6
ByBlock
 62
     0
100
AcDbPolyline
 90
        2
 70
     1
 43
0.25
 10
-0.125
 20
0.0
 42
1.0
 10
0.125
 20
0.0
 42
1.0
  0
LINE
  5
7FFC
330
81DE
100
AcDbEntity
  8
0
  6
ByBlock
 62
     0
100
AcDbLine
 10
-0.25
 20
0.0
 30
0.0
 11
-1.0
 21
0.0
 31
0.0
  0
ENDBLK
  5
7FDB
330
81DE
100
AcDbEntity
  8
0
100
AcDbBlockEnd
  0
BLOCK
  5
81E1
330
81E0
100
AcDbEntity
  8
0
100
AcDbBlockBegin
  2
*D23
 70
     1
 10
0.0
 20
0.0
 30
0.0
  3
*D23
  1

  0
LINE
  5
8042
330
81E0
100
AcDbEntity
  8
0
  6
ByBlock
 62
     0
100
AcDbLine
 10
822.7982914710919
 20
1688.416563417291
 30
0.0
 11
822.7982914710919
 21
1525.63069887168
 31
0.0
  0
LINE
  5
8043
330
81E0
100
AcDbEntity
  8
0
  6
ByBlock
 62
     0
100
AcDbLine
 10
1972.798291471092
 20
1688.416563417291
 30
0.0
 11
1972.798291471092
 21
1525.63069887168
 31
0.0
  0
LINE
  5
8044
330
81E0
100
AcDbEntity
  8
0
  6
ByBlock
 62
     0
100
AcDbLine
 10
872.7982914710919
 20
1550.63069887168
 30
0.0
 11
1922.798291471092
 21
1550.63069887168
 31
0.0
  0
INSERT
  5
8045
330
81E0
100
AcDbEntity
  8
0
  6
ByBlock
 62
     0
100
AcDbBlockReference
  2
_OPEN
 10
822.7982914710919
 20
1550.63069887168
 30
0.0
 41
50.0
 42
50.0
 43
50.0
 50
180.0
  0
INSERT
  5
8046
330
81E0
100
AcDbEntity
  8
0
  6
ByBlock
 62
     0
100
AcDbBlockReference
  2
_OPEN
 10
1972.798291471092
 20
1550.63069887168
 30
0.0
 41
50.0
 42
50.0
 43
50.0
  0
TEXT
  5
8047
330
81E0
100
AcDbEntity
  8
3
 62
     0
100
AcDbText
 10
1279.941148613949
 20
1575.63069887168
 30
0.0
 40
75.0
  1
1150
100
AcDbText
  0
POINT
  5
8048
330
81E0
100
AcDbEntity
  8
DEFPOINTS
  6
ByBlock
 62
     0
100
AcDbPoint
 10
822.7982914710919
 20
1713.416563417291
 30
0.0
  0
POINT
  5
8049
330
81E0
100
AcDbEntity
  8
DEFPOINTS
  6
ByBlock
 62
     0
100
AcDbPoint
 10
1972.798291471092
 20
1713.416563417291
 30
0.0
  0
POINT
  5
804A
330
81E0
100
AcDbEntity
  8
DEFPOINTS
  6
ByBlock
 62
     0
100
AcDbPoint
 10
1972.798291471092
 20
1550.63069887168
 30
0.0
  0
ENDBLK
  5
804B
330
81E0
100
AcDbEntity
  8
0
100
AcDbBlockEnd
  0
BLOCK
  5
81E3
330
81E2
100
AcDbEntity
  8
0
100
AcDbBlockBegin
  2
*D24
 70
     1
 10
0.0
 20
0.0
 30
0.0
  3
*D24
  1

  0
LINE
  5
804F
330
81E2
100
AcDbEntity
  8
0
  6
ByBlock
 62
     0
100
AcDbLine
 10
1972.798291471092
 20
1688.416563417291
 30
0.0
 11
1972.798291471092
 21
1525.63069887168
 31
0.0
  0
LINE
  5
8050
330
81E2
100
AcDbEntity
  8
0
  6
ByBlock
 62
     0
100
AcDbLine
 10
2422.798291471092
 20
1688.416563417291
 30
0.0
 11
2422.798291471092
 21
1525.63069887168
 31
0.0
  0
LINE
  5
8051
330
81E2
100
AcDbEntity
  8
0
  6
ByBlock
 62
     0
100
AcDbLine
 10
2022.798291471092
 20
1550.63069887168
 30
0.0
 11
2372.798291471092
 21
1550.63069887168
 31
0.0
  0
INSERT
  5
8052
330
81E2
100
AcDbEntity
  8
0
  6
ByBlock
 62
     0
100
AcDbBlockReference
  2
_OPEN
 10
1972.798291471092
 20
1550.63069887168
 30
0.0
 41
50.0
 42
50.0
 43
50.0
 50
180.0
  0
INSERT
  5
8053
330
81E2
100
AcDbEntity
  8
0
  6
ByBlock
 62
     0
100
AcDbBlockReference
  2
_OPEN
 10
2422.798291471092
 20
1550.63069887168
 30
0.0
 41
50.0
 42
50.0
 43
50.0
  0
TEXT
  5
8054
330
81E2
100
AcDbEntity
  8
3
 62
     0
100
AcDbText
 10
2101.36972004252
 20
1575.63069887168
 30
0.0
 40
75.0
  1
450
100
AcDbText
  0
POINT
  5
8055
330
81E2
100
AcDbEntity
  8
DEFPOINTS
  6
ByBlock
 62
     0
100
AcDbPoint
 10
1972.798291471092
 20
1713.416563417291
 30
0.0
  0
POINT
  5
8056
330
81E2
100
AcDbEntity
  8
DEFPOINTS
  6
ByBlock
 62
     0
100
AcDbPoint
 10
2422.798291471092
 20
1713.416563417291
 30
0.0
  0
POINT
  5
8057
330
81E2
100
AcDbEntity
  8
DEFPOINTS
  6
ByBlock
 62
     0
100
AcDbPoint
 10
2422.798291471092
 20
1550.63069887168
 30
0.0
  0
ENDBLK
  5
8058
330
81E2
100
AcDbEntity
  8
0
100
AcDbBlockEnd
  0
BLOCK
  5
81E5
330
81E4
100
AcDbEntity
  8
0
100
AcDbBlockBegin
  2
*D25
 70
     1
 10
0.0
 20
0.0
 30
0.0
  3
*D25
  1

  0
LINE
  5
805C
330
81E4
100
AcDbEntity
  8
0
  6
ByBlock
 62
     0
100
AcDbLine
 10
3411.454511818547
 20
1688.416563417291
 30
0.0
 11
3411.454511818547
 21
1525.63069887168
 31
0.0
  0
LINE
  5
805D
330
81E4
100
AcDbEntity
  8
0
  6
ByBlock
 62
     0
100
AcDbLine
 10
4063.454511818547
 20
1688.416563417291
 30
0.0
 11
4063.454511818547
 21
1525.63069887168
 31
0.0
  0
LINE
  5
805E
330
81E4
100
AcDbEntity
  8
0
  6
ByBlock
 62
     0
100
AcDbLine
 10
3461.454511818546
 20
1550.63069887168
 30
0.0
 11
4013.454511818546
 21
1550.63069887168
 31
0.0
  0
INSERT
  5
805F
330
81E4
100
AcDbEntity
  8
0
  6
ByBlock
 62
     0
100
AcDbBlockReference
  2
_OPEN
 10
3411.454511818547
 20
1550.63069887168
 30
0.0
 41
50.0
 42
50.0
 43
50.0
 50
180.0
  0
INSERT
  5
8060
330
81E4
100
AcDbEntity
  8
0
  6
ByBlock
 62
     0
100
AcDbBlockReference
  2
_OPEN
 10
4063.454511818547
 20
1550.63069887168
 30
0.0
 41
50.0
 42
50.0
 43
50.0
  0
TEXT
  5
8061
330
81E4
100
AcDbEntity
  8
3
 62
     0
100
AcDbText
 10
3641.025940389976
 20
1575.63069887168
 30
0.0
 40
75.0
  1
652
100
AcDbText
  0
POINT
  5
8062
330
81E4
100
AcDbEntity
  8
DEFPOINTS
  6
ByBlock
 62
     0
100
AcDbPoint
 10
3411.454511818547
 20
1713.416563417291
 30
0.0
  0
POINT
  5
8063
330
81E4
100
AcDbEntity
  8
DEFPOINTS
  6
ByBlock
 62
     0
100
AcDbPoint
 10
4063.454511818547
 20
1713.416563417291
 30
0.0
  0
POINT
  5
8064
330
81E4
100
AcDbEntity
  8
DEFPOINTS
  6
ByBlock
 62
     0
100
AcDbPoint
 10
4063.454511818547
 20
1550.63069887168
 30
0.0
  0
ENDBLK
  5
8065
330
81E4
100
AcDbEntity
  8
0
100
AcDbBlockEnd
  0
BLOCK
  5
81E7
330
81E6
100
AcDbEntity
  8
0
100
AcDbBlockBegin
  2
*D26
 70
     1
 10
0.0
 20
0.0
 30
0.0
  3
*D26
  1

  0
LINE
  5
8069
330
81E6
100
AcDbEntity
  8
0
  6
ByBlock
 62
     0
100
AcDbLine
 10
4063.454511818547
 20
1688.416563417291
 30
0.0
 11
4063.454511818547
 21
1525.63069887168
 31
0.0
  0
LINE
  5
806A
330
81E6
100
AcDbEntity
  8
0
  6
ByBlock
 62
     0
100
AcDbLine
 10
4566.454511818547
 20
1688.416563417291
 30
0.0
 11
4566.454511818547
 21
1525.63069887168
 31
0.0
  0
LINE
  5
806B
330
81E6
100
AcDbEntity
  8
0
  6
ByBlock
 62
     0
100
AcDbLine
 10
4113.454511818547
 20
1550.63069887168
 30
0.0
 11
4516.454511818547
 21
1550.63069887168
 31
0.0
  0
INSERT
  5
806C
330
81E6
100
AcDbEntity
  8
0
  6
ByBlock
 62
     0
100
AcDbBlockReference
  2
_OPEN
 10
4063.454511818547
 20
1550.63069887168
 30
0.0
 41
50.0
 42
50.0
 43
50.0
 50
180.0
  0
INSERT
  5
806D
330
81E6
100
AcDbEntity
  8
0
  6
ByBlock
 62
     0
100
AcDbBlockReference
  2
_OPEN
 10
4566.454511818547
 20
1550.63069887168
 30
0.0
 41
50.0
 42
50.0
 43
50.0
  0
TEXT
  5
806E
330
81E6
100
AcDbEntity
  8
3
 62
     0
100
AcDbText
 10
4218.525940389976
 20
1575.63069887168
 30
0.0
 40
75.0
  1
503
100
AcDbText
  0
POINT
  5
806F
330
81E6
100
AcDbEntity
  8
DEFPOINTS
  6
ByBlock
 62
     0
100
AcDbPoint
 10
4063.454511818547
 20
1713.416563417291
 30
0.0
  0
POINT
  5
8070
330
81E6
100
AcDbEntity
  8
DEFPOINTS
  6
ByBlock
 62
     0
100
AcDbPoint
 10
4566.454511818547
 20
1713.416563417291
 30
0.0
  0
POINT
  5
8071
330
81E6
100
AcDbEntity
  8
DEFPOINTS
  6
ByBlock
 62
     0
100
AcDbPoint
 10
4566.454511818547
 20
1550.63069887168
 30
0.0
  0
ENDBLK
  5
8072
330
81E6
100
AcDbEntity
  8
0
100
AcDbBlockEnd
  0
BLOCK
  5
81E9
330
81E8
100
AcDbEntity
  8
0
100
AcDbBlockBegin
  2
_NONE
 70
     0
 10
0.0
 20
0.0
 30
0.0
  3
_NONE
  1

  0
CIRCLE
  5
8076
330
81E8
100
AcDbEntity
  8
0
  6
ByBlock
 62
     0
100
AcDbCircle
 10
0.0
 20
0.0
 30
0.0
 40
0.25
  0
ENDBLK
  5
8077
330
81E8
100
AcDbEntity
  8
0
100
AcDbBlockEnd
  0
BLOCK
  5
81EB
330
81EA
100
AcDbEntity
  8
0
100
AcDbBlockBegin
  2
*D28
 70
     1
 10
0.0
 20
0.0
 30
0.0
  3
*D28
  1

  0
LINE
  5
8094
330
81EA
100
AcDbEntity
  8
0
  6
ByBlock
 62
     0
100
AcDbLine
 10
2941.495656330815
 20
1745.41656341729
 30
0.0
 11
2941.495656330815
 21
1840.416563417291
 31
0.0
  0
TEXT
  5
8095
330
81EA
100
AcDbEntity
  8
3
 62
     0
100
AcDbText
 10
3086.138513473672
 20
1683.98799198872
 30
0.0
 40
75.0
  1
(95)
 50
90.0
100
AcDbText
  0
POINT
  5
8096
330
81EA
100
AcDbEntity
  8
DEFPOINTS
  6
ByBlock
 62
     0
100
AcDbPoint
 10
2422.798291471092
 20
1745.41656341729
 30
0.0
  0
POINT
  5
8097
330
81EA
100
AcDbEntity
  8
DEFPOINTS
  6
ByBlock
 62
     0
100
AcDbPoint
 10
2422.798291471092
 20
1840.416563417291
 30
0.0
  0
POINT
  5
8098
330
81EA
100
AcDbEntity
  8
DEFPOINTS
  6
ByBlock
 62
     0
100
AcDbPoint
 10
2941.495656330815
 20
1840.416563417291
 30
0.0
  0
ENDBLK
  5
8099
330
81EA
100
AcDbEntity
  8
0
100
AcDbBlockEnd
  0
BLOCK
  5
81ED
330
81EC
100
AcDbEntity
  8
0
100
AcDbBlockBegin
  2
*D29
 70
     1
 10
0.0
 20
0.0
 30
0.0
  3
*D29
  1

  0
LINE
  5
809D
330
81EC
100
AcDbEntity
  8
0
  6
ByBlock
 62
     0
100
AcDbLine
 10
2447.798291471092
 20
1645.41656341729
 30
0.0
 11
3155.430748183105
 21
1645.41656341729
 31
0.0
  0
LINE
  5
809E
330
81EC
100
AcDbEntity
  8
0
  6
ByBlock
 62
     0
100
AcDbLine
 10
1969.798291471091
 20
3216.416563417292
 30
0.0
 11
3155.430748183105
 21
3216.416563417292
 31
0.0
  0
LINE
  5
809F
330
81EC
100
AcDbEntity
  8
0
  6
ByBlock
 62
     0
100
AcDbLine
 10
3130.430748183105
 20
1695.41656341729
 30
0.0
 11
3130.430748183105
 21
3166.416563417291
 31
0.0
  0
INSERT
  5
80A0
330
81EC
100
AcDbEntity
  8
0
  6
ByBlock
 62
     0
100
AcDbBlockReference
  2
_OPEN
 10
3130.430748183105
 20
1645.41656341729
 30
0.0
 41
50.0
 42
50.0
 43
50.0
 50
270.0
  0
INSERT
  5
80A1
330
81EC
100
AcDbEntity
  8
0
  6
ByBlock
 62
     0
100
AcDbBlockReference
  2
_OPEN
 10
3130.430748183105
 20
3216.416563417292
 30
0.0
 41
50.0
 42
50.0
 43
50.0
 50
90.0
  0
TEXT
  5
80A2
330
81EC
100
AcDbEntity
  8
3
 62
     0
100
AcDbText
 10
3073.287891040248
 20
2264.845134845863
 30
0.0
 40
75.0
  1
(1571)
 50
90.0
100
AcDbText
  0
POINT
  5
80A3
330
81EC
100
AcDbEntity
  8
DEFPOINTS
  6
ByBlock
 62
     0
100
AcDbPoint
 10
2422.798291471092
 20
1645.41656341729
 30
0.0
  0
POINT
  5
80A4
330
81EC
100
AcDbEntity
  8
DEFPOINTS
  6
ByBlock
 62
     0
100
AcDbPoint
 10
1944.798291471092
 20
3216.416563417292
 30
0.0
  0
POINT
  5
80A5
330
81EC
100
AcDbEntity
  8
DEFPOINTS
  6
ByBlock
 62
     0
100
AcDbPoint
 10
3130.430748183105
 20
3216.416563417292
 30
0.0
  0
ENDBLK
  5
80A6
330
81EC
100
AcDbEntity
  8
0
100
AcDbBlockEnd
  0
BLOCK
  5
8243
330
8242
100
AcDbEntity
  8
0
100
AcDbBlockBegin
  2
*D31
 70
     1
 10
0.0
 20
0.0
 30
0.0
  3
*D31
  1

  0
LINE
  5
8274
330
8242
100
AcDbEntity
  8
3
 62
     0
370
    -2
100
AcDbLine
 10
3223.454511818551
 20
3015.416563417292
 30
0.0
 11
3223.454511818551
 21
3597.83979130178
 31
0.0
  0
LINE
  5
8275
330
8242
100
AcDbEntity
  8
3
 62
     0
370
    -2
100
AcDbLine
 10
4063.454511818547
 20
3515.863348091055
 30
0.0
 11
4063.454511818547
 21
3597.83979130178
 31
0.0
  0
LINE
  5
8276
330
8242
100
AcDbEntity
  8
3
 62
     0
370
    -2
100
AcDbLine
 10
3273.454511818551
 20
3572.83979130178
 30
0.0
 11
4013.454511818546
 21
3572.83979130178
 31
0.0
  0
INSERT
  5
8277
330
8242
100
AcDbEntity
  8
3
 62
     0
370
    -2
100
AcDbBlockReference
  2
_OPEN
 10
3223.454511818551
 20
3572.83979130178
 30
0.0
 41
50.0
 42
50.0
 43
50.0
 50
180.0
  0
INSERT
  5
8278
330
8242
100
AcDbEntity
  8
3
 62
     0
370
    -2
100
AcDbBlockReference
  2
_OPEN
 10
4063.454511818547
 20
3572.83979130178
 30
0.0
 41
50.0
 42
50.0
 43
50.0
  0
MTEXT
  5
8279
330
8242
100
AcDbEntity
  8
3
 62
     0
100
AcDbMText
 10
3643.454511818549
 20
3654.982648444637
 30
0.0
 40
75.0
 41
0.0
 71
     5
 72
     1
  1
\A1;(840)
 73
     1
 44
1.0
1001
ACAD
1000
MTEXTBEGIN
1070
    73
1070
     1
1070
    44
1040
1.0
1070
    74
1070
     0
1000
MTEXTEND
  0
POINT
  5
827A
330
8242
100
AcDbEntity
  8
DEFPOINTS
 62
     0
100
AcDbPoint
 10
3223.454511818551
 20
2990.416563417292
 30
0.0
  0
POINT
  5
827B
330
8242
100
AcDbEntity
  8
DEFPOINTS
 62
     0
100
AcDbPoint
 10
4063.454511818547
 20
3490.863348091056
 30
0.0
  0
POINT
  5
827C
330
8242
100
AcDbEntity
  8
DEFPOINTS
 62
     0
100
AcDbPoint
 10
4063.454511818547
 20
3572.83979130178
 30
0.0
  0
ENDBLK
  5
8244
330
8242
100
AcDbEntity
  8
0
100
AcDbBlockEnd
  0
BLOCK
  5
8250
330
824F
100
AcDbEntity
  8
0
100
AcDbBlockBegin
  2
*D32
 70
     1
 10
0.0
 20
0.0
 30
0.0
  3
*D32
  1

  0
LINE
  5
84FB
330
824F
100
AcDbEntity
  8
3
 62
     0
370
    -2
100
AcDbLine
 10
4063.454511818547
 20
3515.863348091055
 30
0.0
 11
4063.454511818547
 21
3597.83979130178
 31
0.0
  0
LINE
  5
84FC
330
824F
100
AcDbEntity
  8
3
 62
     0
370
    -2
100
AcDbLine
 10
4623.454511818548
 20
2710.216563417291
 30
0.0
 11
4623.454511818548
 21
3597.83979130178
 31
0.0
  0
LINE
  5
84FD
330
824F
100
AcDbEntity
  8
3
 62
     0
370
    -2
100
AcDbLine
 10
4113.454511818547
 20
3572.83979130178
 30
0.0
 11
4573.454511818548
 21
3572.83979130178
 31
0.0
  0
INSERT
  5
84FE
330
824F
100
AcDbEntity
  8
3
 62
     0
370
    -2
100
AcDbBlockReference
  2
_OPEN
 10
4063.454511818547
 20
3572.83979130178
 30
0.0
 41
50.0
 42
50.0
 43
50.0
 50
180.0
  0
INSERT
  5
84FF
330
824F
100
AcDbEntity
  8
3
 62
     0
370
    -2
100
AcDbBlockReference
  2
_OPEN
 10
4623.454511818548
 20
3572.83979130178
 30
0.0
 41
50.0
 42
50.0
 43
50.0
  0
MTEXT
  5
8500
330
824F
100
AcDbEntity
  8
3
 62
     0
100
AcDbMText
 10
4343.454511818547
 20
3654.982648444637
 30
0.0
 40
75.0
 41
0.0
 71
     5
 72
     1
  1
\A1;(560)
 73
     1
 44
1.0
1001
ACAD
1000
MTEXTBEGIN
1070
    73
1070
     1
1070
    44
1040
1.0
1070
    74
1070
     0
1000
MTEXTEND
  0
POINT
  5
8501
330
824F
100
AcDbEntity
  8
DEFPOINTS
 62
     0
100
AcDbPoint
 10
4063.454511818547
 20
3490.863348091056
 30
0.0
  0
POINT
  5
8502
330
824F
100
AcDbEntity
  8
DEFPOINTS
 62
     0
100
AcDbPoint
 10
4623.454511818548
 20
2685.216563417291
 30
0.0
  0
POINT
  5
8503
330
824F
100
AcDbEntity
  8
DEFPOINTS
 62
     0
100
AcDbPoint
 10
4623.454511818548
 20
3572.83979130178
 30
0.0
  0
ENDBLK
  5
8251
330
824F
100
AcDbEntity
  8
0
100
AcDbBlockEnd
  0
BLOCK
  5
8269
330
8268
100
AcDbEntity
  8
0
100
AcDbBlockBegin
  2
*D33
 70
     1
 10
0.0
 20
0.0
 30
0.0
  3
*D33
  1

  0
LINE
  5
826B
330
8268
100
AcDbEntity
  8
3
 62
     0
370
    -2
100
AcDbLine
 10
822.7982914710919
 20
4145.571064741897
 30
0.0
 11
822.7982914710919
 21
3794.065342086323
 31
0.0
  0
LINE
  5
826C
330
8268
100
AcDbEntity
  8
3
 62
     0
370
    -2
100
AcDbLine
 10
2422.798291471092
 20
4145.571064741897
 30
0.0
 11
2422.798291471092
 21
3794.065342086323
 31
0.0
  0
LINE
  5
826D
330
8268
100
AcDbEntity
  8
3
 62
     0
370
    -2
100
AcDbLine
 10
872.7982914710919
 20
3819.065342086324
 30
0.0
 11
2372.798291471092
 21
3819.065342086324
 31
0.0
  0
INSERT
  5
826E
330
8268
100
AcDbEntity
  8
3
 62
     0
370
    -2
100
AcDbBlockReference
  2
_OPEN
 10
822.7982914710919
 20
3819.065342086324
 30
0.0
 41
50.0
 42
50.0
 43
50.0
 50
180.0
  0
INSERT
  5
826F
330
8268
100
AcDbEntity
  8
3
 62
     0
370
    -2
100
AcDbBlockReference
  2
_OPEN
 10
2422.798291471092
 20
3819.065342086324
 30
0.0
 41
50.0
 42
50.0
 43
50.0
  0
MTEXT
  5
8270
330
8268
100
AcDbEntity
  8
3
 62
     0
100
AcDbMText
 10
1622.798291471092
 20
3881.565342086324
 30
0.0
 40
75.0
 41
0.0
 71
     5
 72
     1
  1
\A1;1600
 73
     1
 44
1.0
1001
ACAD
1000
MTEXTBEGIN
1070
    73
1070
     1
1070
    44
1040
1.0
1070
    74
1070
     0
1000
MTEXTEND
  0
POINT
  5
8271
330
8268
100
AcDbEntity
  8
DEFPOINTS
 62
     0
100
AcDbPoint
 10
822.7982914710919
 20
4170.571064741897
 30
0.0
  0
POINT
  5
8272
330
8268
100
AcDbEntity
  8
DEFPOINTS
 62
     0
100
AcDbPoint
 10
2422.798291471092
 20
4170.571064741897
 30
0.0
  0
POINT
  5
8273
330
8268
100
AcDbEntity
  8
DEFPOINTS
 62
     0
100
AcDbPoint
 10
2422.798291471092
 20
3819.065342086324
 30
0.0
  0
ENDBLK
  5
826A
330
8268
100
AcDbEntity
  8
0
100
AcDbBlockEnd
  0
BLOCK
  5
8287
330
8286
100
AcDbEntity
  8
0
100
AcDbBlockBegin
  2
*D34
 70
     1
 10
0.0
 20
0.0
 30
0.0
  3
*D34
  1

  0
LINE
  5
8289
330
8286
100
AcDbEntity
  8
3
 62
     0
370
    -2
100
AcDbLine
 10
1972.798291471092
 20
1635.41656341729
 30
0.0
 11
1972.798291471092
 21
1493.13069887168
 31
0.0
  0
LINE
  5
828A
330
8286
100
AcDbEntity
  8
3
 62
     0
370
    -2
100
AcDbLine
 10
2422.798291471092
 20
1635.41656341729
 30
0.0
 11
2422.798291471092
 21
1493.13069887168
 31
0.0
  0
LINE
  5
828B
330
8286
100
AcDbEntity
  8
3
 62
     0
370
    -2
100
AcDbLine
 10
1977.298291471092
 20
1497.63069887168
 30
0.0
 11
2189.762577185378
 21
1497.63069887168
 31
0.0
  0
LINE
  5
828C
330
8286
100
AcDbEntity
  8
3
 62
     0
370
    -2
100
AcDbLine
 10
2418.298291471092
 20
1497.63069887168
 30
0.0
 11
2205.834005756806
 21
1497.63069887168
 31
0.0
  0
SOLID
  5
828D
330
8286
100
AcDbEntity
  8
3
 62
     0
100
AcDbTrace
 10
1977.298291471092
 20
1498.38069887168
 30
0.0
 11
1977.298291471092
 21
1496.88069887168
 31
0.0
 12
1972.798291471092
 22
1497.63069887168
 32
0.0
 13
1972.798291471092
 23
1497.63069887168
 33
0.0
  0
SOLID
  5
828E
330
8286
100
AcDbEntity
  8
3
 62
     0
100
AcDbTrace
 10
2418.298291471092
 20
1498.38069887168
 30
0.0
 11
2418.298291471092
 21
1496.88069887168
 31
0.0
 12
2422.798291471092
 22
1497.63069887168
 32
0.0
 13
2422.798291471092
 23
1497.63069887168
 33
0.0
  0
MTEXT
  5
828F
330
8286
100
AcDbEntity
  8
3
 62
     0
100
AcDbMText
 10
2197.798291471092
 20
1497.63069887168
 30
0.0
 40
4.5
 41
0.0
 71
     5
 72
     1
  1
\A1;450
 73
     1
 44
1.0
1001
ACAD
1000
MTEXTBEGIN
1070
    73
1070
     1
1070
    44
1040
1.0
1070
    74
1070
     0
1000
MTEXTEND
  0
POINT
  5
8290
330
8286
100
AcDbEntity
  8
DEFPOINTS
 62
     0
100
AcDbPoint
 10
1972.798291471092
 20
1660.416563417291
 30
0.0
  0
POINT
  5
8291
330
8286
100
AcDbEntity
  8
DEFPOINTS
 62
     0
100
AcDbPoint
 10
2422.798291471092
 20
1660.416563417291
 30
0.0
  0
POINT
  5
8292
330
8286
100
AcDbEntity
  8
DEFPOINTS
 62
     0
100
AcDbPoint
 10
2422.798291471092
 20
1497.63069887168
 30
0.0
  0
ENDBLK
  5
8288
330
8286
100
AcDbEntity
  8
0
100
AcDbBlockEnd
  0
BLOCK
  5
8294
330
8293
100
AcDbEntity
  8
0
100
AcDbBlockBegin
  2
*D35
 70
     1
 10
0.0
 20
0.0
 30
0.0
  3
*D35
  1

  0
LINE
  5
8296
330
8293
100
AcDbEntity
  8
3
 62
     0
370
    -2
100
AcDbLine
 10
3411.454511818547
 20
1635.41656341729
 30
0.0
 11
3411.454511818547
 21
1493.13069887168
 31
0.0
  0
LINE
  5
8297
330
8293
100
AcDbEntity
  8
3
 62
     0
370
    -2
100
AcDbLine
 10
4063.454511818547
 20
1635.41656341729
 30
0.0
 11
4063.454511818547
 21
1493.13069887168
 31
0.0
  0
LINE
  5
8298
330
8293
100
AcDbEntity
  8
3
 62
     0
370
    -2
100
AcDbLine
 10
3415.954511818547
 20
1497.63069887168
 30
0.0
 11
3729.418797532833
 21
1497.63069887168
 31
0.0
  0
LINE
  5
8299
330
8293
100
AcDbEntity
  8
3
 62
     0
370
    -2
100
AcDbLine
 10
4058.954511818547
 20
1497.63069887168
 30
0.0
 11
3745.490226104261
 21
1497.63069887168
 31
0.0
  0
SOLID
  5
829A
330
8293
100
AcDbEntity
  8
3
 62
     0
100
AcDbTrace
 10
3415.954511818547
 20
1498.38069887168
 30
0.0
 11
3415.954511818547
 21
1496.88069887168
 31
0.0
 12
3411.454511818547
 22
1497.63069887168
 32
0.0
 13
3411.454511818547
 23
1497.63069887168
 33
0.0
  0
SOLID
  5
829B
330
8293
100
AcDbEntity
  8
3
 62
     0
100
AcDbTrace
 10
4058.954511818547
 20
1498.38069887168
 30
0.0
 11
4058.954511818547
 21
1496.88069887168
 31
0.0
 12
4063.454511818547
 22
1497.63069887168
 32
0.0
 13
4063.454511818547
 23
1497.63069887168
 33
0.0
  0
MTEXT
  5
829C
330
8293
100
AcDbEntity
  8
3
 62
     0
100
AcDbMText
 10
3737.454511818548
 20
1497.63069887168
 30
0.0
 40
4.5
 41
0.0
 71
     5
 72
     1
  1
\A1;652
 73
     1
 44
1.0
1001
ACAD
1000
MTEXTBEGIN
1070
    73
1070
     1
1070
    44
1040
1.0
1070
    74
1070
     0
1000
MTEXTEND
  0
POINT
  5
829D
330
8293
100
AcDbEntity
  8
DEFPOINTS
 62
     0
100
AcDbPoint
 10
3411.454511818547
 20
1660.416563417291
 30
0.0
  0
POINT
  5
829E
330
8293
100
AcDbEntity
  8
DEFPOINTS
 62
     0
100
AcDbPoint
 10
4063.454511818547
 20
1660.416563417291
 30
0.0
  0
POINT
  5
829F
330
8293
100
AcDbEntity
  8
DEFPOINTS
 62
     0
100
AcDbPoint
 10
4063.454511818547
 20
1497.63069887168
 30
0.0
  0
ENDBLK
  5
8295
330
8293
100
AcDbEntity
  8
0
100
AcDbBlockEnd
  0
BLOCK
  5
82A1
330
82A0
100
AcDbEntity
  8
0
100
AcDbBlockBegin
  2
*D36
 70
     1
 10
0.0
 20
0.0
 30
0.0
  3
*D36
  1

  0
LINE
  5
82A3
330
82A0
100
AcDbEntity
  8
3
 62
     0
370
    -2
100
AcDbLine
 10
4063.454511818547
 20
1635.41656341729
 30
0.0
 11
4063.454511818547
 21
1493.13069887168
 31
0.0
  0
LINE
  5
82A4
330
82A0
100
AcDbEntity
  8
3
 62
     0
370
    -2
100
AcDbLine
 10
4566.454511818547
 20
1635.41656341729
 30
0.0
 11
4566.454511818547
 21
1493.13069887168
 31
0.0
  0
LINE
  5
82A5
330
82A0
100
AcDbEntity
  8
3
 62
     0
370
    -2
100
AcDbLine
 10
4067.954511818547
 20
1497.63069887168
 30
0.0
 11
4306.918797532833
 21
1497.63069887168
 31
0.0
  0
LINE
  5
82A6
330
82A0
100
AcDbEntity
  8
3
 62
     0
370
    -2
100
AcDbLine
 10
4561.954511818547
 20
1497.63069887168
 30
0.0
 11
4322.990226104262
 21
1497.63069887168
 31
0.0
  0
SOLID
  5
82A7
330
82A0
100
AcDbEntity
  8
3
 62
     0
100
AcDbTrace
 10
4067.954511818547
 20
1498.38069887168
 30
0.0
 11
4067.954511818547
 21
1496.88069887168
 31
0.0
 12
4063.454511818547
 22
1497.63069887168
 32
0.0
 13
4063.454511818547
 23
1497.63069887168
 33
0.0
  0
SOLID
  5
82A8
330
82A0
100
AcDbEntity
  8
3
 62
     0
100
AcDbTrace
 10
4561.954511818547
 20
1498.38069887168
 30
0.0
 11
4561.954511818547
 21
1496.88069887168
 31
0.0
 12
4566.454511818547
 22
1497.63069887168
 32
0.0
 13
4566.454511818547
 23
1497.63069887168
 33
0.0
  0
MTEXT
  5
82A9
330
82A0
100
AcDbEntity
  8
3
 62
     0
100
AcDbMText
 10
4314.954511818547
 20
1497.63069887168
 30
0.0
 40
4.5
 41
0.0
 71
     5
 72
     1
  1
\A1;503
 73
     1
 44
1.0
1001
ACAD
1000
MTEXTBEGIN
1070
    73
1070
     1
1070
    44
1040
1.0
1070
    74
1070
     0
1000
MTEXTEND
  0
POINT
  5
82AA
330
82A0
100
AcDbEntity
  8
DEFPOINTS
 62
     0
100
AcDbPoint
 10
4063.454511818547
 20
1660.416563417291
 30
0.0
  0
POINT
  5
82AB
330
82A0
100
AcDbEntity
  8
DEFPOINTS
 62
     0
100
AcDbPoint
 10
4566.454511818547
 20
1660.416563417291
 30
0.0
  0
POINT
  5
82AC
330
82A0
100
AcDbEntity
  8
DEFPOINTS
 62
     0
100
AcDbPoint
 10
4566.454511818547
 20
1497.63069887168
 30
0.0
  0
ENDBLK
  5
82A2
330
82A0
100
AcDbEntity
  8
0
100
AcDbBlockEnd
  0
BLOCK
  5
82AE
330
82AD
100
AcDbEntity
  8
0
100
AcDbBlockBegin
  2
*D37
 70
     1
 10
0.0
 20
0.0
 30
0.0
  3
*D37
  1

  0
LINE
  5
82B0
330
82AD
100
AcDbEntity
  8
3
 62
     0
370
    -2
100
AcDbLine
 10
2941.495656330815
 20
1764.91656341729
 30
0.0
 11
2941.495656330815
 21
1794.737991988719
 31
0.0
  0
LINE
  5
82B1
330
82AD
100
AcDbEntity
  8
3
 62
     0
370
    -2
100
AcDbLine
 10
2941.495656330815
 20
1835.91656341729
 30
0.0
 11
2941.495656330815
 21
1806.095134845862
 31
0.0
  0
SOLID
  5
82B2
330
82AD
100
AcDbEntity
  8
3
 62
     0
100
AcDbTrace
 10
2940.745656330815
 20
1764.91656341729
 30
0.0
 11
2942.245656330815
 21
1764.91656341729
 31
0.0
 12
2941.495656330815
 22
1760.41656341729
 32
0.0
 13
2941.495656330815
 23
1760.41656341729
 33
0.0
  0
SOLID
  5
82B3
330
82AD
100
AcDbEntity
  8
3
 62
     0
100
AcDbTrace
 10
2940.745656330815
 20
1835.91656341729
 30
0.0
 11
2942.245656330815
 21
1835.91656341729
 31
0.0
 12
2941.495656330815
 22
1840.41656341729
 32
0.0
 13
2941.495656330815
 23
1840.41656341729
 33
0.0
  0
MTEXT
  5
82B4
330
82AD
100
AcDbEntity
  8
3
 62
     0
100
AcDbMText
 10
2941.495656330814
 20
1800.416563417291
 30
0.0
 40
4.5
 41
0.0
 71
     5
 72
     1
  1
\A1;(80)
 73
     1
 44
1.0
1001
ACAD
1000
MTEXTBEGIN
1070
    73
1070
     1
1070
    44
1040
1.0
1070
    74
1070
     0
1000
MTEXTEND
  0
POINT
  5
82B5
330
82AD
100
AcDbEntity
  8
DEFPOINTS
 62
     0
100
AcDbPoint
 10
2422.798291471092
 20
1760.41656341729
 30
0.0
  0
POINT
  5
82B6
330
82AD
100
AcDbEntity
  8
DEFPOINTS
 62
     0
100
AcDbPoint
 10
2422.798291471092
 20
1840.416563417291
 30
0.0
  0
POINT
  5
82B7
330
82AD
100
AcDbEntity
  8
DEFPOINTS
 62
     0
100
AcDbPoint
 10
2941.495656330815
 20
1840.41656341729
 30
0.0
  0
ENDBLK
  5
82AF
330
82AD
100
AcDbEntity
  8
0
100
AcDbBlockEnd
  0
BLOCK
  5
82B9
330
82B8
100
AcDbEntity
  8
0
100
AcDbBlockBegin
  2
*D38
 70
     1
 10
0.0
 20
0.0
 30
0.0
  3
*D38
  1

  0
LINE
  5
82BB
330
82B8
100
AcDbEntity
  8
3
 62
     0
370
    -2
100
AcDbLine
 10
2447.798291471092
 20
1660.416563417291
 30
0.0
 11
3134.930748183105
 21
1660.41656341729
 31
0.0
  0
LINE
  5
82BC
330
82B8
100
AcDbEntity
  8
3
 62
     0
370
    -2
100
AcDbLine
 10
1969.798291471092
 20
3216.416563417292
 30
0.0
 11
3134.930748183105
 21
3216.416563417292
 31
0.0
  0
LINE
  5
82BD
330
82B8
100
AcDbEntity
  8
3
 62
     0
370
    -2
100
AcDbLine
 10
3130.430748183104
 20
1664.91656341729
 30
0.0
 11
3130.430748183104
 21
2432.737991988719
 31
0.0
  0
LINE
  5
82BE
330
82B8
100
AcDbEntity
  8
3
 62
     0
370
    -2
100
AcDbLine
 10
3130.430748183105
 20
3211.916563417292
 30
0.0
 11
3130.430748183104
 21
2444.095134845863
 31
0.0
  0
SOLID
  5
82BF
330
82B8
100
AcDbEntity
  8
3
 62
     0
100
AcDbTrace
 10
3129.680748183104
 20
1664.91656341729
 30
0.0
 11
3131.180748183104
 21
1664.91656341729
 31
0.0
 12
3130.430748183104
 22
1660.41656341729
 32
0.0
 13
3130.430748183104
 23
1660.41656341729
 33
0.0
  0
SOLID
  5
82C0
330
82B8
100
AcDbEntity
  8
3
 62
     0
100
AcDbTrace
 10
3129.680748183105
 20
3211.916563417292
 30
0.0
 11
3131.180748183105
 21
3211.916563417292
 31
0.0
 12
3130.430748183105
 22
3216.416563417292
 32
0.0
 13
3130.430748183105
 23
3216.416563417292
 33
0.0
  0
MTEXT
  5
82C1
330
82B8
100
AcDbEntity
  8
3
 62
     0
100
AcDbMText
 10
3130.430748183104
 20
2438.416563417292
 30
0.0
 40
4.5
 41
0.0
 71
     5
 72
     1
  1
\A1;(1556)
 73
     1
 44
1.0
1001
ACAD
1000
MTEXTBEGIN
1070
    73
1070
     1
1070
    44
1040
1.0
1070
    74
1070
     0
1000
MTEXTEND
  0
POINT
  5
82C2
330
82B8
100
AcDbEntity
  8
DEFPOINTS
 62
     0
100
AcDbPoint
 10
2422.798291471092
 20
1660.416563417291
 30
0.0
  0
POINT
  5
82C3
330
82B8
100
AcDbEntity
  8
DEFPOINTS
 62
     0
100
AcDbPoint
 10
1944.798291471092
 20
3216.416563417292
 30
0.0
  0
POINT
  5
82C4
330
82B8
100
AcDbEntity
  8
DEFPOINTS
 62
     0
100
AcDbPoint
 10
3130.430748183105
 20
3216.416563417292
 30
0.0
  0
ENDBLK
  5
82BA
330
82B8
100
AcDbEntity
  8
0
100
AcDbBlockEnd
  0
BLOCK
  5
82C6
330
82C5
100
AcDbEntity
  8
0
100
AcDbBlockBegin
  2
*D39
 70
     1
 10
0.0
 20
0.0
 30
0.0
  3
*D39
  1

  0
LINE
  5
82C8
330
82C5
100
AcDbEntity
  8
3
 62
     0
370
    -2
100
AcDbLine
 10
822.7982914710919
 20
1635.41656341729
 30
0.0
 11
822.7982914710919
 21
1493.13069887168
 31
0.0
  0
LINE
  5
82C9
330
82C5
100
AcDbEntity
  8
3
 62
     0
370
    -2
100
AcDbLine
 10
1972.798291471092
 20
1635.41656341729
 30
0.0
 11
1972.798291471092
 21
1493.13069887168
 31
0.0
  0
LINE
  5
82CA
330
82C5
100
AcDbEntity
  8
3
 62
     0
370
    -2
100
AcDbLine
 10
827.2982914710919
 20
1497.63069887168
 30
0.0
 11
1388.476862899663
 21
1497.63069887168
 31
0.0
  0
LINE
  5
82CB
330
82C5
100
AcDbEntity
  8
3
 62
     0
370
    -2
100
AcDbLine
 10
1968.298291471092
 20
1497.63069887168
 30
0.0
 11
1407.11972004252
 21
1497.63069887168
 31
0.0
  0
SOLID
  5
82CC
330
82C5
100
AcDbEntity
  8
3
 62
     0
100
AcDbTrace
 10
827.2982914710919
 20
1498.38069887168
 30
0.0
 11
827.2982914710919
 21
1496.88069887168
 31
0.0
 12
822.7982914710919
 22
1497.63069887168
 32
0.0
 13
822.7982914710919
 23
1497.63069887168
 33
0.0
  0
SOLID
  5
82CD
330
82C5
100
AcDbEntity
  8
3
 62
     0
100
AcDbTrace
 10
1968.298291471092
 20
1498.38069887168
 30
0.0
 11
1968.298291471092
 21
1496.88069887168
 31
0.0
 12
1972.798291471092
 22
1497.63069887168
 32
0.0
 13
1972.798291471092
 23
1497.63069887168
 33
0.0
  0
MTEXT
  5
82CE
330
82C5
100
AcDbEntity
  8
3
 62
     0
100
AcDbMText
 10
1397.798291471092
 20
1497.63069887168
 30
0.0
 40
4.5
 41
0.0
 71
     5
 72
     1
  1
\A1;1150
 73
     1
 44
1.0
1001
ACAD
1000
MTEXTBEGIN
1070
    73
1070
     1
1070
    44
1040
1.0
1070
    74
1070
     0
1000
MTEXTEND
  0
POINT
  5
82CF
330
82C5
100
AcDbEntity
  8
DEFPOINTS
 62
     0
100
AcDbPoint
 10
822.7982914710919
 20
1660.416563417291
 30
0.0
  0
POINT
  5
82D0
330
82C5
100
AcDbEntity
  8
DEFPOINTS
 62
     0
100
AcDbPoint
 10
1972.798291471092
 20
1660.416563417291
 30
0.0
  0
POINT
  5
82D1
330
82C5
100
AcDbEntity
  8
DEFPOINTS
 62
     0
100
AcDbPoint
 10
1972.798291471092
 20
1497.63069887168
 30
0.0
  0
ENDBLK
  5
82C7
330
82C5
100
AcDbEntity
  8
0
100
AcDbBlockEnd
  0
BLOCK
  5
82D3
330
82D2
100
AcDbEntity
  8
0
100
AcDbBlockBegin
  2
*D40
 70
     1
 10
0.0
 20
0.0
 30
0.0
  3
*D40
  1

  0
LINE
  5
82D5
330
82D2
100
AcDbEntity
  8
3
 62
     0
370
    -2
100
AcDbLine
 10
2424.360791471092
 20
1760.41656341729
 30
0.0
 11
2943.758520611006
 21
1760.41656341729
 31
0.0
  0
LINE
  5
82D6
330
82D2
100
AcDbEntity
  8
3
 62
     0
370
    -2
100
AcDbLine
 10
2424.360791471092
 20
1660.416563417291
 30
0.0
 11
2943.758520611006
 21
1660.41656341729
 31
0.0
  0
LINE
  5
82D7
330
82D2
100
AcDbEntity
  8
3
 62
     0
370
    -2
100
AcDbLine
 10
2939.258520611005
 20
1755.91656341729
 30
0.0
 11
2939.258520611005
 21
1714.91656341729
 31
0.0
  0
LINE
  5
82D8
330
82D2
100
AcDbEntity
  8
3
 62
     0
370
    -2
100
AcDbLine
 10
2939.258520611005
 20
1664.91656341729
 30
0.0
 11
2939.258520611005
 21
1705.91656341729
 31
0.0
  0
SOLID
  5
82D9
330
82D2
100
AcDbEntity
  8
3
 62
     0
100
AcDbTrace
 10
2938.508520611005
 20
1755.91656341729
 30
0.0
 11
2940.008520611005
 21
1755.91656341729
 31
0.0
 12
2939.258520611005
 22
1760.41656341729
 32
0.0
 13
2939.258520611005
 23
1760.41656341729
 33
0.0
  0
SOLID
  5
82DA
330
82D2
100
AcDbEntity
  8
3
 62
     0
100
AcDbTrace
 10
2938.508520611005
 20
1664.91656341729
 30
0.0
 11
2940.008520611005
 21
1664.91656341729
 31
0.0
 12
2939.258520611005
 22
1660.41656341729
 32
0.0
 13
2939.258520611005
 23
1660.41656341729
 33
0.0
  0
MTEXT
  5
82DB
330
82D2
100
AcDbEntity
  8
3
 62
     0
100
AcDbMText
 10
2939.258520611005
 20
1710.416563417291
 30
0.0
 40
4.5
 41
0.0
 71
     5
 72
     1
  1
\A1;100
 73
     1
 44
1.0
1001
ACAD
1000
MTEXTBEGIN
1070
    73
1070
     1
1070
    44
1040
1.0
1070
    74
1070
     0
1000
MTEXTEND
  0
POINT
  5
82DC
330
82D2
100
AcDbEntity
  8
DEFPOINTS
 62
     0
100
AcDbPoint
 10
2422.798291471092
 20
1760.41656341729
 30
0.0
  0
POINT
  5
82DD
330
82D2
100
AcDbEntity
  8
DEFPOINTS
 62
     0
100
AcDbPoint
 10
2422.798291471092
 20
1660.416563417291
 30
0.0
  0
POINT
  5
82DE
330
82D2
100
AcDbEntity
  8
DEFPOINTS
 62
     0
100
AcDbPoint
 10
2939.258520611005
 20
1660.41656341729
 30
0.0
  0
ENDBLK
  5
82D4
330
82D2
100
AcDbEntity
  8
0
100
AcDbBlockEnd
  0
BLOCK
  5
82E1
330
82E0
100
AcDbEntity
  8
0
100
AcDbBlockBegin
  2
*D41
 70
     1
 10
0.0
 20
0.0
 30
0.0
  3
*D41
  1

  0
LINE
  5
82E3
330
82E0
100
AcDbEntity
  8
3
 62
     0
370
    -2
100
AcDbLine
 10
3411.454511818547
 20
1635.41656341729
 30
0.0
 11
3411.454511818547
 21
1481.156197842127
 31
0.0
  0
LINE
  5
82E4
330
82E0
100
AcDbEntity
  8
3
 62
     0
370
    -2
100
AcDbLine
 10
4063.454511818547
 20
1635.41656341729
 30
0.0
 11
4063.454511818547
 21
1481.156197842127
 31
0.0
  0
LINE
  5
82E5
330
82E0
100
AcDbEntity
  8
3
 62
     0
370
    -2
100
AcDbLine
 10
3461.454511818547
 20
1506.156197842127
 30
0.0
 11
4013.454511818546
 21
1506.156197842127
 31
0.0
  0
INSERT
  5
82E6
330
82E0
100
AcDbEntity
  8
3
 62
     0
370
    -2
100
AcDbBlockReference
  2
_OPEN
 10
3411.454511818547
 20
1506.156197842127
 30
0.0
 41
50.0
 42
50.0
 43
50.0
 50
180.0
  0
INSERT
  5
82E7
330
82E0
100
AcDbEntity
  8
3
 62
     0
370
    -2
100
AcDbBlockReference
  2
_OPEN
 10
4063.454511818547
 20
1506.156197842127
 30
0.0
 41
50.0
 42
50.0
 43
50.0
  0
MTEXT
  5
82E8
330
82E0
100
AcDbEntity
  8
3
 62
     0
100
AcDbMText
 10
3737.454511818548
 20
1568.656197842127
 30
0.0
 40
75.0
 41
0.0
 71
     5
 72
     1
  1
\A1;652
 73
     1
 44
1.0
1001
ACAD
1000
MTEXTBEGIN
1070
    73
1070
     1
1070
    44
1040
1.0
1070
    74
1070
     0
1000
MTEXTEND
  0
POINT
  5
82E9
330
82E0
100
AcDbEntity
  8
DEFPOINTS
 62
     0
100
AcDbPoint
 10
3411.454511818547
 20
1660.416563417291
 30
0.0
  0
POINT
  5
82EA
330
82E0
100
AcDbEntity
  8
DEFPOINTS
 62
     0
100
AcDbPoint
 10
4063.454511818547
 20
1660.416563417291
 30
0.0
  0
POINT
  5
82EB
330
82E0
100
AcDbEntity
  8
DEFPOINTS
 62
     0
100
AcDbPoint
 10
4063.454511818547
 20
1506.156197842127
 30
0.0
  0
ENDBLK
  5
82E2
330
82E0
100
AcDbEntity
  8
0
100
AcDbBlockEnd
  0
BLOCK
  5
82EE
330
82ED
100
AcDbEntity
  8
0
100
AcDbBlockBegin
  2
*D42
 70
     1
 10
0.0
 20
0.0
 30
0.0
  3
*D42
  1

  0
LINE
  5
82F0
330
82ED
100
AcDbEntity
  8
3
 62
     0
370
    -2
100
AcDbLine
 10
4063.454511818547
 20
1635.41656341729
 30
0.0
 11
4063.454511818547
 21
1481.156197842127
 31
0.0
  0
LINE
  5
82F1
330
82ED
100
AcDbEntity
  8
3
 62
     0
370
    -2
100
AcDbLine
 10
4566.454511818547
 20
1635.41656341729
 30
0.0
 11
4566.454511818547
 21
1481.156197842127
 31
0.0
  0
LINE
  5
82F2
330
82ED
100
AcDbEntity
  8
3
 62
     0
370
    -2
100
AcDbLine
 10
4113.454511818547
 20
1506.156197842127
 30
0.0
 11
4516.454511818547
 21
1506.156197842127
 31
0.0
  0
INSERT
  5
82F3
330
82ED
100
AcDbEntity
  8
3
 62
     0
370
    -2
100
AcDbBlockReference
  2
_OPEN
 10
4063.454511818547
 20
1506.156197842127
 30
0.0
 41
50.0
 42
50.0
 43
50.0
 50
180.0
  0
INSERT
  5
82F4
330
82ED
100
AcDbEntity
  8
3
 62
     0
370
    -2
100
AcDbBlockReference
  2
_OPEN
 10
4566.454511818547
 20
1506.156197842127
 30
0.0
 41
50.0
 42
50.0
 43
50.0
  0
MTEXT
  5
82F5
330
82ED
100
AcDbEntity
  8
3
 62
     0
100
AcDbMText
 10
4314.954511818547
 20
1568.656197842127
 30
0.0
 40
75.0
 41
0.0
 71
     5
 72
     1
  1
\A1;503
 73
     1
 44
1.0
1001
ACAD
1000
MTEXTBEGIN
1070
    73
1070
     1
1070
    44
1040
1.0
1070
    74
1070
     0
1000
MTEXTEND
  0
POINT
  5
82F6
330
82ED
100
AcDbEntity
  8
DEFPOINTS
 62
     0
100
AcDbPoint
 10
4063.454511818547
 20
1660.416563417291
 30
0.0
  0
POINT
  5
82F7
330
82ED
100
AcDbEntity
  8
DEFPOINTS
 62
     0
100
AcDbPoint
 10
4566.454511818547
 20
1660.416563417291
 30
0.0
  0
POINT
  5
82F8
330
82ED
100
AcDbEntity
  8
DEFPOINTS
 62
     0
100
AcDbPoint
 10
4566.454511818547
 20
1506.156197842127
 30
0.0
  0
ENDBLK
  5
82EF
330
82ED
100
AcDbEntity
  8
0
100
AcDbBlockEnd
  0
BLOCK
  5
82FB
330
82FA
100
AcDbEntity
  8
0
100
AcDbBlockBegin
  2
*D43
 70
     1
 10
0.0
 20
0.0
 30
0.0
  3
*D43
  1

  0
LINE
  5
82FD
330
82FA
100
AcDbEntity
  8
3
 62
     0
370
    -2
100
AcDbLine
 10
822.7982914710919
 20
1635.41656341729
 30
0.0
 11
822.7982914710919
 21
1479.86533385533
 31
0.0
  0
LINE
  5
82FE
330
82FA
100
AcDbEntity
  8
3
 62
     0
370
    -2
100
AcDbLine
 10
1972.798291471092
 20
1635.41656341729
 30
0.0
 11
1972.798291471092
 21
1479.86533385533
 31
0.0
  0
LINE
  5
82FF
330
82FA
100
AcDbEntity
  8
3
 62
     0
370
    -2
100
AcDbLine
 10
872.7982914710919
 20
1504.86533385533
 30
0.0
 11
1922.798291471092
 21
1504.86533385533
 31
0.0
  0
INSERT
  5
8300
330
82FA
100
AcDbEntity
  8
3
 62
     0
370
    -2
100
AcDbBlockReference
  2
_OPEN
 10
822.7982914710919
 20
1504.86533385533
 30
0.0
 41
50.0
 42
50.0
 43
50.0
 50
180.0
  0
INSERT
  5
8301
330
82FA
100
AcDbEntity
  8
3
 62
     0
370
    -2
100
AcDbBlockReference
  2
_OPEN
 10
1972.798291471092
 20
1504.86533385533
 30
0.0
 41
50.0
 42
50.0
 43
50.0
  0
MTEXT
  5
8302
330
82FA
100
AcDbEntity
  8
3
 62
     0
100
AcDbMText
 10
1397.798291471092
 20
1567.36533385533
 30
0.0
 40
75.0
 41
0.0
 71
     5
 72
     1
  1
\A1;1150
 73
     1
 44
1.0
1001
ACAD
1000
MTEXTBEGIN
1070
    73
1070
     1
1070
    44
1040
1.0
1070
    74
1070
     0
1000
MTEXTEND
  0
POINT
  5
8303
330
82FA
100
AcDbEntity
  8
DEFPOINTS
 62
     0
100
AcDbPoint
 10
822.7982914710919
 20
1660.416563417291
 30
0.0
  0
POINT
  5
8304
330
82FA
100
AcDbEntity
  8
DEFPOINTS
 62
     0
100
AcDbPoint
 10
1972.798291471092
 20
1660.416563417291
 30
0.0
  0
POINT
  5
8305
330
82FA
100
AcDbEntity
  8
DEFPOINTS
 62
     0
100
AcDbPoint
 10
1972.798291471092
 20
1504.86533385533
 30
0.0
  0
ENDBLK
  5
82FC
330
82FA
100
AcDbEntity
  8
0
100
AcDbBlockEnd
  0
BLOCK
  5
8308
330
8307
100
AcDbEntity
  8
0
100
AcDbBlockBegin
  2
*D44
 70
     1
 10
0.0
 20
0.0
 30
0.0
  3
*D44
  1

  0
LINE
  5
830A
330
8307
100
AcDbEntity
  8
3
 62
     0
370
    -2
100
AcDbLine
 10
1972.798291471092
 20
1635.41656341729
 30
0.0
 11
1972.798291471092
 21
1479.86533385533
 31
0.0
  0
LINE
  5
830B
330
8307
100
AcDbEntity
  8
3
 62
     0
370
    -2
100
AcDbLine
 10
2422.798291471092
 20
1635.41656341729
 30
0.0
 11
2422.798291471092
 21
1479.86533385533
 31
0.0
  0
LINE
  5
830C
330
8307
100
AcDbEntity
  8
3
 62
     0
370
    -2
100
AcDbLine
 10
2022.798291471092
 20
1504.86533385533
 30
0.0
 11
2372.798291471092
 21
1504.86533385533
 31
0.0
  0
INSERT
  5
830D
330
8307
100
AcDbEntity
  8
3
 62
     0
370
    -2
100
AcDbBlockReference
  2
_OPEN
 10
1972.798291471092
 20
1504.86533385533
 30
0.0
 41
50.0
 42
50.0
 43
50.0
 50
180.0
  0
INSERT
  5
830E
330
8307
100
AcDbEntity
  8
3
 62
     0
370
    -2
100
AcDbBlockReference
  2
_OPEN
 10
2422.798291471092
 20
1504.86533385533
 30
0.0
 41
50.0
 42
50.0
 43
50.0
  0
MTEXT
  5
830F
330
8307
100
AcDbEntity
  8
3
 62
     0
100
AcDbMText
 10
2197.798291471092
 20
1567.36533385533
 30
0.0
 40
75.0
 41
0.0
 71
     5
 72
     1
  1
\A1;450
 73
     1
 44
1.0
1001
ACAD
1000
MTEXTBEGIN
1070
    73
1070
     1
1070
    44
1040
1.0
1070
    74
1070
     0
1000
MTEXTEND
  0
POINT
  5
8310
330
8307
100
AcDbEntity
  8
DEFPOINTS
 62
     0
100
AcDbPoint
 10
1972.798291471092
 20
1660.416563417291
 30
0.0
  0
POINT
  5
8311
330
8307
100
AcDbEntity
  8
DEFPOINTS
 62
     0
100
AcDbPoint
 10
2422.798291471092
 20
1660.416563417291
 30
0.0
  0
POINT
  5
8312
330
8307
100
AcDbEntity
  8
DEFPOINTS
 62
     0
100
AcDbPoint
 10
2422.798291471092
 20
1504.86533385533
 30
0.0
  0
ENDBLK
  5
8309
330
8307
100
AcDbEntity
  8
0
100
AcDbBlockEnd
  0
BLOCK
  5
8315
330
8314
100
AcDbEntity
  8
0
100
AcDbBlockBegin
  2
*D45
 70
     1
 10
0.0
 20
0.0
 30
0.0
  3
*D45
  1

  0
LINE
  5
8320
330
8314
100
AcDbEntity
  8
3
 62
     0
370
    -2
100
AcDbLine
 10
2620.064130276521
 20
2710.416563417291
 30
0.0
 11
2964.258520611005
 21
2710.416563417291
 31
0.0
  0
LINE
  5
8321
330
8314
100
AcDbEntity
  8
3
 62
     0
370
    -2
100
AcDbLine
 10
1944.798291471094
 20
3199.416563417291
 30
0.0
 11
2964.258520611005
 21
3199.416563417291
 31
0.0
  0
LINE
  5
8322
330
8314
100
AcDbEntity
  8
3
 62
     0
370
    -2
100
AcDbLine
 10
2939.258520611005
 20
2760.416563417291
 30
0.0
 11
2939.258520611005
 21
3149.416563417291
 31
0.0
  0
INSERT
  5
8323
330
8314
100
AcDbEntity
  8
3
 62
     0
370
    -2
100
AcDbBlockReference
  2
_OPEN
 10
2939.258520611005
 20
2710.416563417291
 30
0.0
 41
50.0
 42
50.0
 43
50.0
 50
270.0
  0
INSERT
  5
8324
330
8314
100
AcDbEntity
  8
3
 62
     0
370
    -2
100
AcDbBlockReference
  2
_OPEN
 10
2939.258520611005
 20
3199.416563417291
 30
0.0
 41
50.0
 42
50.0
 43
50.0
 50
90.0
  0
MTEXT
  5
8325
330
8314
100
AcDbEntity
  8
3
 62
     0
100
AcDbMText
 10
2876.758520611005
 20
2954.916563417292
 30
0.0
 40
75.0
 41
0.0
 71
     5
 72
     1
  1
\A1;489
 11
0.0000000000000001
 21
1.0
 31
0.0
 73
     1
 44
1.0
1001
ACAD
1000
MTEXTBEGIN
1070
    73
1070
     1
1070
    44
1040
1.0
1070
    74
1070
     0
1000
MTEXTEND
  0
POINT
  5
8326
330
8314
100
AcDbEntity
  8
DEFPOINTS
 62
     0
100
AcDbPoint
 10
2595.064130276521
 20
2710.416563417291
 30
0.0
  0
POINT
  5
8327
330
8314
100
AcDbEntity
  8
DEFPOINTS
 62
     0
100
AcDbPoint
 10
1919.798291471094
 20
3199.416563417291
 30
0.0
  0
POINT
  5
8328
330
8314
100
AcDbEntity
  8
DEFPOINTS
 62
     0
100
AcDbPoint
 10
2939.258520611005
 20
3199.416563417291
 30
0.0
  0
ENDBLK
  5
8316
330
8314
100
AcDbEntity
  8
0
100
AcDbBlockEnd
  0
BLOCK
  5
832B
330
832A
100
AcDbEntity
  8
0
100
AcDbBlockBegin
  2
*D46
 70
     1
 10
0.0
 20
0.0
 30
0.0
  3
*D46
  1

  0
LINE
  5
8361
330
832A
100
AcDbEntity
  8
3
 62
     0
370
    -2
100
AcDbLine
 10
2447.798291471092
 20
1660.416563417291
 30
0.0
 11
3197.395669946512
 21
1660.41656341729
 31
0.0
  0
LINE
  5
8362
330
832A
100
AcDbEntity
  8
3
 62
     0
370
    -2
100
AcDbLine
 10
1944.798291471094
 20
3199.416563417291
 30
0.0
 11
3197.395669946513
 21
3199.41656341729
 31
0.0
  0
LINE
  5
8363
330
832A
100
AcDbEntity
  8
3
 62
     0
370
    -2
100
AcDbLine
 10
3172.395669946512
 20
1710.41656341729
 30
0.0
 11
3172.395669946513
 21
3149.41656341729
 31
0.0
  0
INSERT
  5
8364
330
832A
100
AcDbEntity
  8
3
 62
     0
370
    -2
100
AcDbBlockReference
  2
_OPEN
 10
3172.395669946512
 20
1660.41656341729
 30
0.0
 41
50.0
 42
50.0
 43
50.0
 50
270.0
  0
INSERT
  5
8365
330
832A
100
AcDbEntity
  8
3
 62
     0
370
    -2
100
AcDbBlockReference
  2
_OPEN
 10
3172.395669946513
 20
3199.41656341729
 30
0.0
 41
50.0
 42
50.0
 43
50.0
 50
90.0
  0
MTEXT
  5
8366
330
832A
100
AcDbEntity
  8
3
 62
     0
100
AcDbMText
 10
3090.252812803655
 20
2429.916563417291
 30
0.0
 40
75.0
 41
0.0
 71
     5
 72
     1
  1
\A1;(1539)
 11
0.0000000000000001
 21
1.0
 31
0.0
 73
     1
 44
1.0
1001
ACAD
1000
MTEXTBEGIN
1070
    73
1070
     1
1070
    44
1040
1.0
1070
    74
1070
     0
1000
MTEXTEND
  0
POINT
  5
8367
330
832A
100
AcDbEntity
  8
DEFPOINTS
 62
     0
100
AcDbPoint
 10
2422.798291471092
 20
1660.416563417291
 30
0.0
  0
POINT
  5
8368
330
832A
100
AcDbEntity
  8
DEFPOINTS
 62
     0
100
AcDbPoint
 10
1919.798291471094
 20
3199.416563417291
 30
0.0
  0
POINT
  5
8369
330
832A
100
AcDbEntity
  8
DEFPOINTS
 62
     0
100
AcDbPoint
 10
3172.395669946513
 20
3199.41656341729
 30
0.0
  0
ENDBLK
  5
832C
330
832A
100
AcDbEntity
  8
0
100
AcDbBlockEnd
  0
BLOCK
  5
8338
330
8337
100
AcDbEntity
  8
0
100
AcDbBlockBegin
  2
*D47
 70
     1
 10
0.0
 20
0.0
 30
0.0
  3
*D47
  1

  0
LINE
  5
8343
330
8337
100
AcDbEntity
  8
3
 62
     0
370
    -2
100
AcDbLine
 10
1972.798291471092
 20
3303.012094178292
 30
0.0
 11
1972.798291471092
 21
3395.305010010292
 31
0.0
  0
LINE
  5
8344
330
8337
100
AcDbEntity
  8
3
 62
     0
370
    -2
100
AcDbLine
 10
1377.798291471094
 20
2682.416563417291
 30
0.0
 11
1377.798291471094
 21
3395.305010010292
 31
0.0
  0
LINE
  5
8345
330
8337
100
AcDbEntity
  8
3
 62
     0
370
    -2
100
AcDbLine
 10
1922.798291471092
 20
3370.305010010291
 30
0.0
 11
1427.798291471094
 21
3370.305010010291
 31
0.0
  0
INSERT
  5
8346
330
8337
100
AcDbEntity
  8
3
 62
     0
370
    -2
100
AcDbBlockReference
  2
_OPEN
 10
1972.798291471092
 20
3370.305010010291
 30
0.0
 41
50.0
 42
50.0
 43
50.0
  0
INSERT
  5
8347
330
8337
100
AcDbEntity
  8
3
 62
     0
370
    -2
100
AcDbBlockReference
  2
_OPEN
 10
1377.798291471094
 20
3370.305010010291
 30
0.0
 41
50.0
 42
50.0
 43
50.0
 50
180.0
  0
MTEXT
  5
8348
330
8337
100
AcDbEntity
  8
3
 62
     0
100
AcDbMText
 10
1675.298291471093
 20
3432.805010010291
 30
0.0
 40
75.0
 41
0.0
 71
     5
 72
     1
  1
\A1;595
 73
     1
 44
1.0
1001
ACAD
1000
MTEXTBEGIN
1070
    73
1070
     1
1070
    44
1040
1.0
1070
    74
1070
     0
1000
MTEXTEND
  0
POINT
  5
8349
330
8337
100
AcDbEntity
  8
DEFPOINTS
 62
     0
100
AcDbPoint
 10
1972.798291471092
 20
3278.012094178292
 30
0.0
  0
POINT
  5
834A
330
8337
100
AcDbEntity
  8
DEFPOINTS
 62
     0
100
AcDbPoint
 10
1377.798291471094
 20
2657.416563417291
 30
0.0
  0
POINT
  5
834B
330
8337
100
AcDbEntity
  8
DEFPOINTS
 62
     0
100
AcDbPoint
 10
1377.798291471094
 20
3370.305010010291
 30
0.0
  0
ENDBLK
  5
8339
330
8337
100
AcDbEntity
  8
0
100
AcDbBlockEnd
  0
BLOCK
  5
836C
330
836B
100
AcDbEntity
  8
0
100
AcDbBlockBegin
  2
*D48
 70
     1
 10
0.0
 20
0.0
 30
0.0
  3
*D48
  1

  0
LINE
  5
836E
330
836B
100
AcDbEntity
  8
3
 62
     0
370
    -2
100
AcDbLine
 10
2620.064130276521
 20
2710.416563417291
 30
0.0
 11
2947.640934579343
 21
2710.416563417291
 31
0.0
  0
LINE
  5
836F
330
836B
100
AcDbEntity
  8
3
 62
     0
370
    -2
100
AcDbLine
 10
2447.798291471092
 20
1840.416563417291
 30
0.0
 11
2947.640934579343
 21
1840.41656341729
 31
0.0
  0
LINE
  5
8370
330
836B
100
AcDbEntity
  8
3
 62
     0
370
    -2
100
AcDbLine
 10
2922.640934579344
 20
2660.416563417291
 30
0.0
 11
2922.640934579344
 21
1890.41656341729
 31
0.0
  0
INSERT
  5
8371
330
836B
100
AcDbEntity
  8
3
 62
     0
370
    -2
100
AcDbBlockReference
  2
_OPEN
 10
2922.640934579344
 20
2710.416563417291
 30
0.0
 41
50.0
 42
50.0
 43
50.0
 50
90.0
  0
INSERT
  5
8372
330
836B
100
AcDbEntity
  8
3
 62
     0
370
    -2
100
AcDbBlockReference
  2
_OPEN
 10
2922.640934579344
 20
1840.41656341729
 30
0.0
 41
50.0
 42
50.0
 43
50.0
 50
270.0
  0
MTEXT
  5
8373
330
836B
100
AcDbEntity
  8
3
 62
     0
100
AcDbMText
 10
2860.140934579343
 20
2275.416563417291
 30
0.0
 40
75.0
 41
0.0
 71
     5
 72
     1
  1
\A1;870
 11
0.0000000000000001
 21
1.0
 31
0.0
 73
     1
 44
1.0
1001
ACAD
1000
MTEXTBEGIN
1070
    73
1070
     1
1070
    44
1040
1.0
1070
    74
1070
     0
1000
MTEXTEND
  0
POINT
  5
8374
330
836B
100
AcDbEntity
  8
DEFPOINTS
 62
     0
100
AcDbPoint
 10
2595.064130276521
 20
2710.416563417291
 30
0.0
  0
POINT
  5
8375
330
836B
100
AcDbEntity
  8
DEFPOINTS
 62
     0
100
AcDbPoint
 10
2422.798291471092
 20
1840.416563417291
 30
0.0
  0
POINT
  5
8376
330
836B
100
AcDbEntity
  8
DEFPOINTS
 62
     0
100
AcDbPoint
 10
2922.640934579344
 20
1840.41656341729
 30
0.0
  0
ENDBLK
  5
836D
330
836B
100
AcDbEntity
  8
0
100
AcDbBlockEnd
  0
BLOCK
  5
8379
330
8378
100
AcDbEntity
  8
0
100
AcDbBlockBegin
  2
*D49
 70
     1
 10
0.0
 20
0.0
 30
0.0
  3
*D49
  1

  0
LINE
  5
8498
330
8378
100
AcDbEntity
  8
3
 62
     0
370
    -2
100
AcDbLine
 10
2447.798291471092
 20
1840.416563417291
 30
0.0
 11
2947.640934579343
 21
1840.41656341729
 31
0.0
  0
LINE
  5
8499
330
8378
100
AcDbEntity
  8
3
 62
     0
370
    -2
100
AcDbLine
 10
2447.798291471092
 20
1760.41656341729
 30
0.0
 11
2947.640934579343
 21
1760.41656341729
 31
0.0
  0
LINE
  5
849A
330
8378
100
AcDbEntity
  8
3
 62
     0
370
    -2
100
AcDbLine
 10
2922.640934579344
 20
1890.41656341729
 30
0.0
 11
2922.640934579344
 21
1940.41656341729
 31
0.0
  0
LINE
  5
849B
330
8378
100
AcDbEntity
  8
3
 62
     0
370
    -2
100
AcDbLine
 10
2922.640934579344
 20
1760.41656341729
 30
0.0
 11
2922.640934579344
 21
1710.41656341729
 31
0.0
  0
LINE
  5
849C
330
8378
100
AcDbEntity
  8
3
 62
     0
370
    -2
100
AcDbLine
 10
2922.640934579344
 20
1800.416563417291
 30
0.0
 11
3092.975983873018
 21
1870.595134845862
 31
0.0
  0
LINE
  5
849D
330
8378
100
AcDbEntity
  8
3
 62
     0
370
    -2
100
AcDbLine
 10
3092.975983873018
 20
1870.595134845862
 30
0.0
 11
3092.975983873018
 21
2138.452277703004
 31
0.0
  0
MTEXT
  5
849E
330
8378
100
AcDbEntity
  8
3
 62
     0
100
AcDbMText
 10
3010.83312673016
 20
2004.523706274434
 30
0.0
 40
75.0
 41
0.0
 71
     5
 72
     1
  1
\A1;(80)
 11
0.0000000000000001
 21
1.0
 31
0.0
 73
     1
 44
1.0
1001
ACAD
1000
MTEXTBEGIN
1070
    73
1070
     1
1070
    44
1040
1.0
1070
    74
1070
     0
1000
MTEXTEND
  0
LINE
  5
849F
330
8378
100
AcDbEntity
  8
3
 62
     0
370
    -2
100
AcDbLine
 10
2922.640934579344
 20
1840.41656341729
 30
0.0
 11
2922.640934579344
 21
1760.41656341729
 31
0.0
  0
LINE
  5
84A0
330
8378
100
AcDbEntity
  8
3
 62
     0
370
    -2
100
AcDbLine
 10
2922.640934579344
 20
1840.41656341729
 30
0.0
 11
2922.640934579344
 21
1760.41656341729
 31
0.0
  0
INSERT
  5
84A1
330
8378
100
AcDbEntity
  8
3
 62
     0
370
    -2
100
AcDbBlockReference
  2
_OPEN
 10
2922.640934579344
 20
1840.41656341729
 30
0.0
 41
50.0
 42
50.0
 43
50.0
 50
270.0
  0
INSERT
  5
84A2
330
8378
100
AcDbEntity
  8
3
 62
     0
370
    -2
100
AcDbBlockReference
  2
_DotSmall
 10
2922.640934579344
 20
1760.41656341729
 30
0.0
 41
50.0
 42
50.0
 43
50.0
 50
90.0
  0
POINT
  5
84A3
330
8378
100
AcDbEntity
  8
DEFPOINTS
 62
     0
100
AcDbPoint
 10
2422.798291471092
 20
1840.416563417291
 30
0.0
  0
POINT
  5
84A4
330
8378
100
AcDbEntity
  8
DEFPOINTS
 62
     0
100
AcDbPoint
 10
2422.798291471092
 20
1760.41656341729
 30
0.0
  0
POINT
  5
84A5
330
8378
100
AcDbEntity
  8
DEFPOINTS
 62
     0
100
AcDbPoint
 10
2922.640934579344
 20
1760.41656341729
 30
0.0
  0
ENDBLK
  5
837A
330
8378
100
AcDbEntity
  8
0
100
AcDbBlockEnd
  0
BLOCK
  5
838B
330
838A
100
AcDbEntity
  8
0
100
AcDbBlockBegin
  2
*D50
 70
     1
 10
0.0
 20
0.0
 30
0.0
  3
*D50
  1

  0
LINE
  5
8473
330
838A
100
AcDbEntity
  8
3
 62
     0
370
    -2
100
AcDbLine
 10
2447.798291471092
 20
1760.41656341729
 30
0.0
 11
2947.640934579343
 21
1760.41656341729
 31
0.0
  0
LINE
  5
8474
330
838A
100
AcDbEntity
  8
3
 62
     0
370
    -2
100
AcDbLine
 10
2447.798291471092
 20
1660.416563417291
 30
0.0
 11
2947.640934579343
 21
1660.41656341729
 31
0.0
  0
LINE
  5
8475
330
838A
100
AcDbEntity
  8
3
 62
     0
370
    -2
100
AcDbLine
 10
2922.640934579344
 20
1760.41656341729
 30
0.0
 11
2922.640934579344
 21
1710.41656341729
 31
0.0
  0
MTEXT
  5
8476
330
838A
100
AcDbEntity
  8
3
 62
     0
100
AcDbMText
 10
2868.474267912677
 20
1545.068754563024
 30
0.0
 40
75.0
 41
0.0
 71
     5
 72
     1
  1
\A1;100
 11
0.0000000000000001
 21
1.0
 31
0.0
 73
     1
 44
1.0
1001
ACAD
1000
MTEXTBEGIN
1070
    73
1070
     1
1070
    44
1040
1.0
1070
    74
1070
     0
1000
MTEXTEND
  0
INSERT
  5
8477
330
838A
100
AcDbEntity
  8
3
 62
     0
370
    -2
100
AcDbBlockReference
  2
_DotSmall
 10
2922.640934579344
 20
1760.41656341729
 30
0.0
 41
50.0
 42
50.0
 43
50.0
 50
90.0
  0
INSERT
  5
8478
330
838A
100
AcDbEntity
  8
3
 62
     0
370
    -2
100
AcDbBlockReference
  2
_OPEN
 10
2922.640934579344
 20
1660.41656341729
 30
0.0
 41
50.0
 42
50.0
 43
50.0
 50
270.0
  0
POINT
  5
8479
330
838A
100
AcDbEntity
  8
DEFPOINTS
 62
     0
100
AcDbPoint
 10
2422.798291471092
 20
1760.41656341729
 30
0.0
  0
POINT
  5
847A
330
838A
100
AcDbEntity
  8
DEFPOINTS
 62
     0
100
AcDbPoint
 10
2422.798291471092
 20
1660.416563417291
 30
0.0
  0
POINT
  5
847B
330
838A
100
AcDbEntity
  8
DEFPOINTS
 62
     0
100
AcDbPoint
 10
2922.640934579344
 20
1660.41656341729
 30
0.0
  0
ENDBLK
  5
838C
330
838A
100
AcDbEntity
  8
0
100
AcDbBlockEnd
  0
BLOCK
  5
83FE
330
83FC
100
AcDbEntity
  8
0
100
AcDbBlockBegin
  2
_DotSmall
 70
     0
 10
0.0
 20
0.0
 30
0.0
  3
_DotSmall
  1

  0
LWPOLYLINE
  5
83FD
330
83FC
100
AcDbEntity
  8
0
  6
ByBlock
 62
     0
100
AcDbPolyline
 90
        2
 70
     1
 43
0.5
 10
-0.0625
 20
0.0
 42
1.0
 10
0.0625
 20
0.0
 42
1.0
  0
ENDBLK
  5
83FF
330
83FC
100
AcDbEntity
  8
0
100
AcDbBlockEnd
  0
ENDSEC
  0
SECTION
  2
ENTITIES
  0
INSERT
  5
7C41
330
81A3
100
AcDbEntity
  8
0
100
AcDbBlockReference
  2
YA_N
 10
6.0
 20
5.0
 30
0.0
  0
LINE
  5
7C4D
330
81A3
100
AcDbEntity
  8
2
100
AcDbLine
 10
1972.798291471092
 20
1660.416563417291
 30
0.0
 11
1972.798291471092
 21
3278.012094178292
 31
0.0
  0
LINE
  5
7C4E
330
81A3
100
AcDbEntity
  8
2
100
AcDbLine
 10
2595.064130276521
 20
2710.416563417291
 30
0.0
 11
1297.771813968487
 21
2710.416563417291
 31
0.0
  0
LINE
  5
7C4F
330
81A3
100
AcDbEntity
  8
1
100
AcDbLine
 10
1275.798291471092
 20
1980.416563417291
 30
0.0
 11
869.7982914710919
 21
1980.416563417291
 31
0.0
  0
LINE
  5
7C50
330
81A3
100
AcDbEntity
  8
1
100
AcDbLine
 10
1272.798291471092
 20
1940.416563417291
 30
0.0
 11
1272.798291471092
 21
1980.416563417291
 31
0.0
  0
LINE
  5
7C51
330
81A3
100
AcDbEntity
  8
1
100
AcDbLine
 10
2422.798291471092
 20
1660.416563417291
 30
0.0
 11
822.7982914710919
 21
1660.416563417291
 31
0.0
  0
LINE
  5
7C52
330
81A3
100
AcDbEntity
  8
1
100
AcDbLine
 10
2422.798291471092
 20
1760.41656341729
 30
0.0
 11
2422.798291471092
 21
1660.416563417291
 31
0.0
  0
LINE
  5
7C53
330
81A3
100
AcDbEntity
  8
1
100
AcDbLine
 10
822.7982914710919
 20
1760.41656341729
 30
0.0
 11
822.7982914710919
 21
1660.416563417291
 31
0.0
  0
LINE
  5
7C54
330
81A3
100
AcDbEntity
  8
1
100
AcDbLine
 10
2422.798291471092
 20
1760.41656341729
 30
0.0
 11
822.7982914710919
 21
1760.41656341729
 31
0.0
1001
ACAD
1000
ASC_BOUNDS
1002
{
1070
    19
1005
0
1002
}
  0
LINE
  5
7C55
330
81A3
100
AcDbEntity
  8
2
100
AcDbLine
 10
4063.454511818547
 20
1660.416563417291
 30
0.0
 11
4063.454511818547
 21
3387.916491952244
 31
0.0
  0
LINE
  5
7C56
330
81A3
100
AcDbEntity
  8
2
100
AcDbLine
 10
3211.044058455743
 20
2710.416563417291
 30
0.0
 11
4649.736870213859
 21
2710.416563417291
 31
0.0
  0
LINE
  5
7C57
330
81A3
100
AcDbEntity
  8
1
100
AcDbLine
 10
3411.454511818547
 20
1660.416563417291
 30
0.0
 11
4541.454511818545
 21
1660.416563417291
 31
0.0
  0
LINE
  5
7C58
330
81A3
100
AcDbEntity
  8
1
100
AcDbLine
 10
3411.454511818547
 20
1760.41656341729
 30
0.0
 11
4566.454511818547
 21
1760.41656341729
 31
0.0
1001
ACAD
1000
ASC_BOUNDS
1002
{
1070
    19
1002
}
  0
LINE
  5
7C59
330
81A3
100
AcDbEntity
  8
2
100
AcDbLine
 10
1972.798291471092
 20
5407.461068356417
 30
0.0
 11
1972.798291471092
 21
3951.67986449193
 31
0.0
  0
LINE
  5
7C5A
330
81A3
100
AcDbEntity
  8
2
100
AcDbLine
 10
1072.798291471092
 20
4793.481996741134
 30
0.0
 11
1072.798291471092
 21
3951.67986449193
 31
0.0
  0
LINE
  5
7C5B
330
81A3
100
AcDbEntity
  8
2
100
AcDbLine
 10
2569.996488499171
 20
4822.571064741897
 30
0.0
 11
762.2827625697063
 21
4822.5710647419
 31
0.0
  0
LINE
  5
7C5C
330
81A3
100
AcDbEntity
  8
2
100
AcDbLine
 10
3341.487412620637
 20
2190.41656341729
 30
0.0
 11
3760.295821154301
 21
2190.41656341729
 31
0.0
  0
LINE
  5
7C5D
330
81A3
100
AcDbEntity
  8
1
100
AcDbLine
 10
4513.454511818546
 20
1951.416563417291
 30
0.0
 11
4513.454511818546
 21
2710.416563417291
 31
0.0
  0
POINT
  5
7C5E
330
81A3
100
AcDbEntity
  8
1
100
AcDbPoint
 10
2422.798291471092
 20
1660.416563417291
 30
0.0
  0
INSERT
  5
7C60
330
81A3
100
AcDbEntity
  8
0
100
AcDbBlockReference
  2
YA_N
 10
-1092.024831295133
 20
-1095.319682135705
 30
0.0
 41
20.0
 42
20.0
 43
20.0
  0
LINE
  5
7C62
330
81A3
100
AcDbEntity
  8
1
100
AcDbLine
 10
918.798291471092
 20
2046.416563417291
 30
0.0
 11
938.2307914710921
 21
2099.806563417291
 31
0.0
  0
LINE
  5
7C63
330
81A3
100
AcDbEntity
  8
1
100
AcDbLine
 10
1226.798291471092
 20
2046.416563417291
 30
0.0
 11
1207.365691471091
 21
2099.806563417291
 31
0.0
  0
ARC
  5
7C64
330
81A3
100
AcDbEntity
  8
1
100
AcDbCircle
 10
1072.798291471092
 20
2190.41656341729
 30
0.0
 40
162.0
100
AcDbArc
 50
180.0
 51
254.3518999999999
  0
ARC
  5
7C65
330
81A3
100
AcDbEntity
  8
1
100
AcDbCircle
 10
1072.798291471092
 20
2190.41656341729
 30
0.0
 40
162.0
100
AcDbArc
 50
285.4573
 51
180.0
  0
LINE
  5
7C66
330
81A3
100
AcDbEntity
  8
2
100
AcDbLine
 10
1072.798291471092
 20
2439.652563417291
 30
0.0
 11
1072.798291471092
 21
1660.416563417291
 31
0.0
  0
LINE
  5
7C67
330
81A3
100
AcDbEntity
  8
1
100
AcDbLine
 10
1116.478891471092
 20
2034.416563417291
 30
0.0
 11
1029.117591471092
 21
2034.416563417291
 31
0.0
  0
LINE
  5
7C68
330
81A3
100
AcDbEntity
  8
1
100
AcDbLine
 10
1157.742191471092
 20
2052.472563417291
 30
0.0
 11
1165.919591471091
 21
2044.294563417292
 31
0.0
  0
LINE
  5
7C69
330
81A3
100
AcDbEntity
  8
1
100
AcDbLine
 10
1180.011491471092
 20
2048.416563417291
 30
0.0
 11
1224.798291471091
 21
2048.416563417291
 31
0.0
  0
ARC
  5
7C6B
330
81A3
100
AcDbEntity
  8
1
100
AcDbCircle
 10
1224.798291471091
 20
2046.416563417291
 30
0.0
 40
2.0
100
AcDbArc
 50
0.0
 51
90.0
  0
LINE
  5
7C6D
330
81A3
100
AcDbEntity
  8
1
100
AcDbLine
 10
1226.798291471092
 20
2030.416563417291
 30
0.0
 11
1226.798291471092
 21
2046.416563417291
 31
0.0
  0
ARC
  5
7C6F
330
81A3
100
AcDbEntity
  8
1
100
AcDbCircle
 10
1163.798291471092
 20
2042.173563417291
 30
0.0
 40
3.0
100
AcDbArc
 50
0.0
 51
45.0
  0
LINE
  5
7C70
330
81A3
100
AcDbEntity
  8
1
100
AcDbLine
 10
1166.798291471091
 20
2030.416563417291
 30
0.0
 11
1166.798291471091
 21
2042.173563417291
 31
0.0
  0
ARC
  5
7C75
330
81A3
100
AcDbEntity
  8
1
100
AcDbCircle
 10
1180.011491471092
 20
2051.416563417291
 30
0.0
 40
3.0
100
AcDbArc
 50
225.0
 51
270.0
  0
LINE
  5
7C76
330
81A3
100
AcDbEntity
  8
1
100
AcDbLine
 10
1167.909491471092
 20
2059.275563417291
 30
0.0
 11
1177.890091471092
 21
2049.294563417291
 31
0.0
  0
LINE
  5
7C78
330
81A3
100
AcDbEntity
  8
1
100
AcDbLine
 10
965.5850914710915
 20
2048.416563417291
 30
0.0
 11
920.7982914710921
 21
2048.416563417291
 31
0.0
  0
LINE
  5
7C79
330
81A3
100
AcDbEntity
  8
1
100
AcDbLine
 10
987.8543914710915
 20
2052.472563417291
 30
0.0
 11
979.676891471092
 21
2044.294563417292
 31
0.0
  0
ARC
  5
7C7A
330
81A3
100
AcDbEntity
  8
1
100
AcDbCircle
 10
981.798291471092
 20
2042.173563417291
 30
0.0
 40
3.0
100
AcDbArc
 50
135.0
 51
180.0
  0
LINE
  5
7C7B
330
81A3
100
AcDbEntity
  8
1
100
AcDbLine
 10
978.7982914710921
 20
2030.416563417291
 30
0.0
 11
978.7982914710921
 21
2042.173563417291
 31
0.0
  0
ARC
  5
7C7C
330
81A3
100
AcDbEntity
  8
1
100
AcDbCircle
 10
965.5850914710915
 20
2051.416563417291
 30
0.0
 40
3.0
100
AcDbArc
 50
270.0
 51
315.0
  0
LINE
  5
7C7D
330
81A3
100
AcDbEntity
  8
1
100
AcDbLine
 10
967.5960914710922
 20
2049.184563417291
 30
0.0
 11
977.687091471092
 21
2059.275563417291
 31
0.0
  0
ARC
  5
7C84
330
81A3
100
AcDbEntity
  8
1
100
AcDbCircle
 10
920.7982914710921
 20
2046.416563417291
 30
0.0
 40
2.0
100
AcDbArc
 50
90.0
 51
180.0
  0
LINE
  5
7C85
330
81A3
100
AcDbEntity
  8
1
100
AcDbLine
 10
918.798291471092
 20
2030.416563417291
 30
0.0
 11
918.798291471092
 21
2046.416563417291
 31
0.0
  0
LINE
  5
7C86
330
81A3
100
AcDbEntity
  8
2
100
AcDbLine
 10
1265.655166370615
 20
2190.41656341729
 30
0.0
 11
875.0393642524212
 21
2190.41656341729
 31
0.0
  0
LINE
  5
7C87
330
81A3
100
AcDbEntity
  8
1
100
AcDbLine
 10
1262.75775884135
 20
2030.416563417291
 30
0.0
 11
1132.798291471091
 21
2030.416563417291
 31
0.0
  0
LINE
  5
7C88
330
81A3
100
AcDbEntity
  8
1
100
AcDbLine
 10
1275.798291471092
 20
1980.416563417291
 30
0.0
 11
1262.75775884135
 21
2030.416563417291
 31
0.0
  0
LINE
  5
7C89
330
81A3
100
AcDbEntity
  8
1
100
AcDbLine
 10
869.7982914710919
 20
1980.416563417291
 30
0.0
 11
883.1797323800255
 21
2030.416563417291
 31
0.0
  0
LINE
  5
7C8A
330
81A3
100
AcDbEntity
  8
1
100
AcDbLine
 10
1012.798291471092
 20
2030.416563417291
 30
0.0
 11
1012.798291471092
 21
2025.416563417291
 31
0.0
  0
LINE
  5
7C8B
330
81A3
100
AcDbEntity
  8
1
100
AcDbLine
 10
1132.798291471091
 20
2030.416563417291
 30
0.0
 11
1132.798291471091
 21
2025.416563417291
 31
0.0
  0
LINE
  5
7C8C
330
81A3
100
AcDbEntity
  8
1
100
AcDbLine
 10
1132.798291471091
 20
2025.416563417291
 30
0.0
 11
1012.798291471092
 21
2025.416563417291
 31
0.0
  0
LINE
  5
7C8E
330
81A3
100
AcDbEntity
  8
1
100
AcDbLine
 10
1012.798291471092
 20
2030.416563417291
 30
0.0
 11
883.1797323800252
 21
2030.416563417291
 31
0.0
  0
POINT
  5
7C92
330
81A3
100
AcDbEntity
  8
1
100
AcDbPoint
 10
2422.798291471092
 20
1665.416563417291
 30
0.0
  0
POINT
  5
7C93
330
81A3
100
AcDbEntity
  8
1
100
AcDbPoint
 10
2422.798291471092
 20
1660.416563417291
 30
0.0
  0
POINT
  5
7C94
330
81A3
100
AcDbEntity
  8
1
100
AcDbPoint
 10
2422.798291471092
 20
1665.416563417291
 30
0.0
  0
POINT
  5
7C95
330
81A3
100
AcDbEntity
  8
1
100
AcDbPoint
 10
2422.798291471092
 20
1700.416563417291
 30
0.0
  0
DIMENSION
  5
7C97
330
81A3
100
AcDbEntity
  8
3
100
AcDbDimension
  2
*D4
 10
2621.805675250318
 20
2681.416563417291
 30
0.0
 11
2571.805675250318
 21
2316.416563417291
 31
0.0
 12
747.2261442553315
 22
2201.823085195892
 32
0.0
 71
     5
 42
-1.0
  3
Standard
100
AcDbAlignedDimension
 13
2472.798291471092
 23
1951.416563417291
 33
0.0
 14
2472.798291471093
 24
2681.416563417291
 34
0.0
 50
270.0
100
AcDbRotatedDimension
1001
ACAD
1000
DSTYLE
1002
{
1070
    40
1040
25.0
1002
}
  0
DIMENSION
  5
7C98
330
81A3
100
AcDbEntity
  8
3
100
AcDbDimension
  2
*D5
 10
2774.614448723983
 20
2710.416563417291
 30
0.0
 11
2724.614448723983
 21
2330.916563417291
 31
0.0
 12
747.2261442553315
 22
2201.823085195892
 32
0.0
 71
     5
 42
-1.0
  3
Standard
100
AcDbAlignedDimension
 13
2472.798291471092
 23
1951.416563417291
 33
0.0
 14
2595.064130276521
 24
2710.416563417291
 34
0.0
 50
270.0
100
AcDbRotatedDimension
1001
ACAD
1000
DSTYLE
1002
{
1070
    40
1040
25.0
1002
}
  0
LINE
  5
7C99
330
81A3
100
AcDbEntity
  8
1
100
AcDbLine
 10
4516.454511818547
 20
1660.416563417291
 30
0.0
 11
4566.454511818547
 21
1660.416563417291
 31
0.0
  0
POINT
  5
7C9A
330
81A3
100
AcDbEntity
  8
1
100
AcDbPoint
 10
2422.798291471092
 20
1665.416563417291
 30
0.0
  0
POINT
  5
7C9B
330
81A3
100
AcDbEntity
  8
1
100
AcDbPoint
 10
2422.798291471092
 20
1660.416563417291
 30
0.0
  0
POINT
  5
7C9C
330
81A3
100
AcDbEntity
  8
1
100
AcDbPoint
 10
2422.798291471092
 20
1665.416563417291
 30
0.0
  0
POINT
  5
7C9D
330
81A3
100
AcDbEntity
  8
1
100
AcDbPoint
 10
2422.798291471092
 20
1700.416563417291
 30
0.0
  0
INSERT
  5
7C9E
330
81A3
100
AcDbEntity
  8
0
100
AcDbBlockReference
  2
YA_N
 10
-1018.773193578214
 20
-860.9217325598891
 30
0.0
 41
20.0
 42
20.0
 43
20.0
  0
POINT
  5
7CA0
330
81A3
100
AcDbEntity
  8
1
100
AcDbPoint
 10
2422.798291471092
 20
1760.41656341729
 30
0.0
  0
POINT
  5
7CA1
330
81A3
100
AcDbEntity
  8
1
100
AcDbPoint
 10
2422.798291471092
 20
1660.416563417291
 30
0.0
  0
POINT
  5
7CA2
330
81A3
100
AcDbEntity
  8
1
100
AcDbPoint
 10
2422.798291471092
 20
1760.41656341729
 30
0.0
  0
LINE
  5
7CA3
330
81A3
100
AcDbEntity
  8
1
100
AcDbLine
 10
4513.454511818546
 20
2710.416563417291
 30
0.0
 11
4513.454511818546
 21
3216.416563417292
 31
0.0
  0
LINE
  5
7CA5
330
81A3
100
AcDbEntity
  8
1
100
AcDbLine
 10
3613.454511818547
 20
2710.416563417291
 30
0.0
 11
3613.454511818547
 21
3216.416563417292
 31
0.0
  0
LINE
  5
7CA6
330
81A3
100
AcDbEntity
  8
1
100
AcDbLine
 10
3613.454511818547
 20
1951.416563417291
 30
0.0
 11
3613.454511818546
 21
2710.416563417291
 31
0.0
  0
LINE
  5
7CA8
330
81A3
100
AcDbEntity
  8
1
100
AcDbLine
 10
4525.954511818546
 20
2575.216563417291
 30
0.0
 11
4525.954511818548
 21
2695.216563417291
 31
0.0
  0
LINE
  5
7CA9
330
81A3
100
AcDbEntity
  8
1
100
AcDbLine
 10
4623.454511818546
 20
2585.216563417291
 30
0.0
 11
4623.454511818547
 21
2685.216563417291
 31
0.0
  0
LINE
  5
7CAA
330
81A3
100
AcDbEntity
  8
1
100
AcDbLine
 10
4525.954511818548
 20
2695.216563417291
 30
0.0
 11
4565.754511818548
 21
2695.216563417291
 31
0.0
  0
LINE
  5
7CAB
330
81A3
100
AcDbEntity
  8
1
100
AcDbLine
 10
4525.954511818546
 20
2575.216563417291
 30
0.0
 11
4565.754511818548
 21
2575.216563417291
 31
0.0
  0
ARC
  5
7CAC
330
81A3
100
AcDbEntity
  8
1
100
AcDbCircle
 10
4613.454511818548
 20
2685.216563417291
 30
0.0
 40
10.0
100
AcDbArc
 50
359.9999999999982
 51
90.0
  0
ARC
  5
7CAD
330
81A3
100
AcDbEntity
  8
1
100
AcDbCircle
 10
4613.454511818546
 20
2585.216563417291
 30
0.0
 40
10.0
100
AcDbArc
 50
270.0
 51
359.9999999999982
  0
LINE
  5
7CAE
330
81A3
100
AcDbEntity
  8
1
100
AcDbLine
 10
4565.754511818548
 20
2575.216563417291
 30
0.0
 11
4613.454511818546
 21
2575.216563417291
 31
0.0
  0
LINE
  5
7CAF
330
81A3
100
AcDbEntity
  8
1
100
AcDbLine
 10
4565.754511818548
 20
2695.216563417291
 30
0.0
 11
4613.454511818548
 21
2695.216563417291
 31
0.0
  0
LINE
  5
7CB0
330
81A3
100
AcDbEntity
  8
1
100
AcDbLine
 10
872.7982914710919
 20
1940.416563417291
 30
0.0
 11
872.7982914710915
 21
1980.416563417291
 31
0.0
  0
POINT
  5
7CB1
330
81A3
100
AcDbEntity
  8
1
100
AcDbPoint
 10
4623.454511818547
 20
2685.216563417291
 30
0.0
  0
LINE
  5
7CB2
330
81A3
100
AcDbEntity
  8
1
100
AcDbLine
 10
2422.798291471092
 20
5325.571064741897
 30
0.0
 11
1522.798291471092
 21
5325.571064741899
 31
0.0
  0
LINE
  5
7CB3
330
81A3
100
AcDbEntity
  8
1
100
AcDbLine
 10
2422.798291471092
 20
4170.571064741897
 30
0.0
 11
822.7982914710919
 21
4170.571064741897
 31
0.0
  0
LINE
  5
7CB4
330
81A3
100
AcDbEntity
  8
1
100
AcDbLine
 10
2422.798291471092
 20
5325.571064741899
 30
0.0
 11
2422.798291471092
 21
5272.571064741897
 31
0.0
  0
LINE
  5
7CB5
330
81A3
100
AcDbEntity
  8
1
100
AcDbLine
 10
1522.798291471092
 20
5325.571064741899
 30
0.0
 11
1522.798291471092
 21
5272.571064741899
 31
0.0
  0
LINE
  5
7CB6
330
81A3
100
AcDbEntity
  8
1
100
AcDbLine
 10
822.7982914710919
 20
4840.5710647419
 30
0.0
 11
822.7982914710919
 21
4170.571064741897
 31
0.0
  0
LINE
  5
7CB7
330
81A3
100
AcDbEntity
  8
1
100
AcDbLine
 10
1360.798291471092
 20
4840.571064741898
 30
0.0
 11
822.7982914710919
 21
4840.5710647419
 31
0.0
  0
POINT
  5
7CB8
330
81A3
100
AcDbEntity
  8
1
100
AcDbPoint
 10
2422.798291471092
 20
1760.41656341729
 30
0.0
  0
POINT
  5
7CB9
330
81A3
100
AcDbEntity
  8
1
100
AcDbPoint
 10
2422.798291471092
 20
1660.416563417291
 30
0.0
  0
POINT
  5
7CBA
330
81A3
100
AcDbEntity
  8
1
100
AcDbPoint
 10
2422.798291471092
 20
1760.41656341729
 30
0.0
  0
LINE
  5
7CBB
330
81A3
100
AcDbEntity
  8
1
100
AcDbLine
 10
2422.798291471092
 20
1840.416563417291
 30
0.0
 11
822.7982914710919
 21
1840.416563417291
 31
0.0
1001
ACAD
1000
ASC_BOUNDS
1002
{
1070
    19
1002
}
  0
LINE
  5
7CBC
330
81A3
100
AcDbEntity
  8
1
100
AcDbLine
 10
2422.798291471092
 20
1940.416563417291
 30
0.0
 11
822.7982914710919
 21
1940.416563417291
 31
0.0
1001
ACAD
1000
ASC_BOUNDS
1002
{
1070
    19
1005
0
1002
}
  0
LINE
  5
7CBD
330
81A3
100
AcDbEntity
  8
1
100
AcDbLine
 10
822.7982914710919
 20
1940.416563417291
 30
0.0
 11
822.7982914710919
 21
1840.416563417291
 31
0.0
  0
LINE
  5
7CBE
330
81A3
100
AcDbEntity
  8
1
100
AcDbLine
 10
2422.798291471092
 20
1940.416563417291
 30
0.0
 11
2422.798291471092
 21
1840.416563417291
 31
0.0
  0
POINT
  5
7CBF
330
81A3
100
AcDbEntity
  8
1
100
AcDbPoint
 10
2422.798291471092
 20
1940.416563417291
 30
0.0
  0
POINT
  5
7CC0
330
81A3
100
AcDbEntity
  8
1
100
AcDbPoint
 10
2422.798291471092
 20
1940.416563417291
 30
0.0
  0
POINT
  5
7CC1
330
81A3
100
AcDbEntity
  8
1
100
AcDbPoint
 10
2422.798291471092
 20
1940.416563417291
 30
0.0
  0
POINT
  5
7CC2
330
81A3
100
AcDbEntity
  8
1
100
AcDbPoint
 10
2422.798291471092
 20
1940.416563417291
 30
0.0
  0
POINT
  5
7CC5
330
81A3
100
AcDbEntity
  8
1
100
AcDbPoint
 10
2422.798291471092
 20
1760.41656341729
 30
0.0
  0
POINT
  5
7CC6
330
81A3
100
AcDbEntity
  8
1
100
AcDbPoint
 10
2422.798291471092
 20
1660.416563417291
 30
0.0
  0
POINT
  5
7CC7
330
81A3
100
AcDbEntity
  8
1
100
AcDbPoint
 10
2422.798291471092
 20
1760.41656341729
 30
0.0
  0
POINT
  5
7CC8
330
81A3
100
AcDbEntity
  8
1
100
AcDbPoint
 10
2422.798291471092
 20
1840.416563417291
 30
0.0
  0
CIRCLE
  5
7CCE
330
81A3
100
AcDbEntity
  8
1
100
AcDbCircle
 10
1072.798291471092
 20
2190.41656341729
 30
0.0
 40
79.0
  0
CIRCLE
  5
7CCF
330
81A3
100
AcDbEntity
  8
1
100
AcDbCircle
 10
1972.798291471092
 20
2710.416563417291
 30
0.0
 40
203.2
  0
LINE
  5
7CD0
330
81A3
100
AcDbEntity
  8
1
100
AcDbLine
 10
1903.378922000038
 20
2901.390884052924
 30
0.0
 11
1045.809461804688
 21
2264.663469569924
 31
0.0
  0
LINE
  5
7CD1
330
81A3
100
AcDbEntity
  8
1
100
AcDbLine
 10
1988.649202465096
 20
2507.835743444965
 30
0.0
 11
1078.960801158721
 21
2111.657287935924
 31
0.0
  0
ARC
  5
7CD2
330
81A3
100
AcDbEntity
  8
1
100
AcDbCircle
 10
1972.798291471092
 20
2710.416563417291
 30
0.0
 40
280.0
100
AcDbArc
 50
274.1096317013021
 51
110.3406136501693
  0
ARC
  5
7CD3
330
81A3
100
AcDbEntity
  8
1
100
AcDbCircle
 10
1072.798291471092
 20
2190.41656341729
 30
0.0
 40
150.0
100
AcDbArc
 50
110.3406136501693
 51
274.1096317013021
  0
LINE
  5
7CD4
330
81A3
100
AcDbEntity
  8
1
100
AcDbLine
 10
1875.470185253776
 20
2972.956540830543
 30
0.0
 11
1020.658234568958
 21
2331.062979888676
 31
0.0
  0
LINE
  5
7CD5
330
81A3
100
AcDbEntity
  8
1
100
AcDbLine
 10
1992.864524512499
 20
2431.136513482592
 30
0.0
 11
1083.548059171845
 21
2040.802250952274
 31
0.0
  0
INSERT
  5
7CD6
330
81A3
100
AcDbEntity
  8
0
100
AcDbBlockReference
  2
YA_N
 10
2545.878788900856
 20
-1567.120050791241
 30
0.0
  0
LINE
  5
7CD8
330
81A3
100
AcDbEntity
  8
1
100
AcDbLine
 10
3411.454511818547
 20
1940.416563417291
 30
0.0
 11
4566.454511818547
 21
1940.416563417291
 31
0.0
1001
ACAD
1000
ASC_BOUNDS
1002
{
1070
    19
1002
}
  0
LINE
  5
7CD9
330
81A3
100
AcDbEntity
  8
1
100
AcDbLine
 10
3411.454511818547
 20
1660.416563417291
 30
0.0
 11
3411.454511818547
 21
1760.41656341729
 31
0.0
  0
LINE
  5
7CDA
330
81A3
100
AcDbEntity
  8
1
100
AcDbLine
 10
3411.454511818547
 20
1840.416563417291
 30
0.0
 11
4566.454511818547
 21
1840.416563417291
 31
0.0
  0
LINE
  5
7CDB
330
81A3
100
AcDbEntity
  8
1
100
AcDbLine
 10
4566.454511818547
 20
1660.416563417291
 30
0.0
 11
4566.454511818547
 21
1760.41656341729
 31
0.0
  0
LINE
  5
7CDE
330
81A3
100
AcDbEntity
  8
1
100
AcDbLine
 10
3561.154511818545
 20
2687.216563417291
 30
0.0
 11
3520.954511818545
 21
2687.216563417291
 31
0.0
  0
LINE
  5
7CDF
330
81A3
100
AcDbEntity
  8
1
100
AcDbLine
 10
3561.154511818545
 20
2567.216563417292
 30
0.0
 11
3520.954511818546
 21
2567.216563417292
 31
0.0
  0
LINE
  5
7CE0
330
81A3
100
AcDbEntity
  8
1
100
AcDbLine
 10
3600.954511818547
 20
2567.216563417292
 30
0.0
 11
3600.954511818544
 21
2687.216563417291
 31
0.0
  0
LINE
  5
7CE1
330
81A3
100
AcDbEntity
  8
1
100
AcDbLine
 10
3600.954511818547
 20
2567.216563417292
 30
0.0
 11
3561.154511818545
 21
2567.216563417292
 31
0.0
  0
LINE
  5
7CE2
330
81A3
100
AcDbEntity
  8
1
100
AcDbLine
 10
3600.954511818544
 20
2687.216563417291
 30
0.0
 11
3561.154511818545
 21
2687.216563417291
 31
0.0
  0
LINE
  5
7CE3
330
81A3
100
AcDbEntity
  8
1
100
AcDbLine
 10
3510.954511818548
 20
2577.216563417291
 30
0.0
 11
3510.954511818545
 21
2677.216563417291
 31
0.0
  0
ARC
  5
7CE4
330
81A3
100
AcDbEntity
  8
1
100
AcDbCircle
 10
3520.954511818546
 20
2577.216563417291
 30
0.0
 40
10.0
100
AcDbArc
 50
180.0000000000016
 51
270.0
  0
ARC
  5
7CE5
330
81A3
100
AcDbEntity
  8
1
100
AcDbCircle
 10
3520.954511818545
 20
2677.216563417291
 30
0.0
 40
10.0
100
AcDbArc
 50
90.0
 51
180.0000000000016
  0
POINT
  5
7CE6
330
81A3
100
AcDbEntity
  8
1
100
AcDbPoint
 10
3510.954511818545
 20
2677.216563417291
 30
0.0
  0
LINE
  5
7CE7
330
81A3
100
AcDbEntity
  8
1
100
AcDbLine
 10
3483.454511818546
 20
2685.416563417291
 30
0.0
 11
3483.454511818546
 21
2735.416563417291
 31
0.0
  0
LINE
  5
7CE8
330
81A3
100
AcDbEntity
  8
1
100
AcDbLine
 10
3483.454511818546
 20
2735.416563417291
 30
0.0
 11
3613.454511818547
 21
2735.416563417291
 31
0.0
  0
LINE
  5
7CE9
330
81A3
100
AcDbEntity
  8
1
100
AcDbLine
 10
3483.454511818546
 20
2685.416563417291
 30
0.0
 11
3515.354511818546
 21
2685.416563417291
 31
0.0
  0
LINE
  5
7CEA
330
81A3
100
AcDbEntity
  8
1
100
AcDbLine
 10
3459.454511818548
 20
2731.416563417291
 30
0.0
 11
3483.454511818546
 21
2731.416563417291
 31
0.0
  0
LINE
  5
7CEB
330
81A3
100
AcDbEntity
  8
1
100
AcDbLine
 10
3459.454511818545
 20
2689.416563417291
 30
0.0
 11
3483.454511818546
 21
2689.416563417291
 31
0.0
  0
LINE
  5
7CEC
330
81A3
100
AcDbEntity
  8
1
100
AcDbLine
 10
3459.454511818537
 20
2111.416563417291
 30
0.0
 11
3459.454511818548
 21
2913.616563417291
 31
0.0
  0
LINE
  5
7CED
330
81A3
100
AcDbEntity
  8
1
100
AcDbLine
 10
3358.454511818548
 20
2913.616563417291
 30
0.0
 11
3459.45451181855
 21
2913.616563417291
 31
0.0
  0
LINE
  5
7CEE
330
81A3
100
AcDbEntity
  8
1
100
AcDbLine
 10
3358.454511818543
 20
2507.216563417291
 30
0.0
 11
3459.454511818544
 21
2507.216563417291
 31
0.0
  0
LINE
  5
7CEF
330
81A3
100
AcDbEntity
  8
1
100
AcDbLine
 10
3358.454511818538
 20
2111.416563417291
 30
0.0
 11
3358.454511818548
 21
2913.616563417292
 31
0.0
  0
LINE
  5
7CF0
330
81A3
100
AcDbEntity
  8
1
100
AcDbLine
 10
3358.454511818544
 20
2269.416563417291
 30
0.0
 11
3459.454511818545
 21
2269.416563417291
 31
0.0
  0
LINE
  5
7CF1
330
81A3
100
AcDbEntity
  8
1
100
AcDbLine
 10
3358.454511818543
 20
2111.416563417291
 30
0.0
 11
3459.454511818543
 21
2111.416563417291
 31
0.0
  0
LINE
  5
7CF2
330
81A3
100
AcDbEntity
  8
1
100
AcDbLine
 10
3223.454511818551
 20
2990.416563417292
 30
0.0
 11
3509.45451181855
 21
2990.416563417292
 31
0.0
  0
LINE
  5
7CF3
330
81A3
100
AcDbEntity
  8
1
100
AcDbLine
 10
3223.454511818542
 20
2040.416563417291
 30
0.0
 11
3509.454511818541
 21
2040.416563417291
 31
0.0
  0
LINE
  5
7CF4
330
81A3
100
AcDbEntity
  8
1
100
AcDbLine
 10
3509.454511818541
 20
2040.416563417291
 30
0.0
 11
3509.454511818541
 21
2060.416563417291
 31
0.0
  0
LINE
  5
7CF5
330
81A3
100
AcDbEntity
  8
1
100
AcDbLine
 10
3223.454511818538
 20
2040.416563417291
 30
0.0
 11
3223.454511818551
 21
2990.416563417292
 31
0.0
  0
LINE
  5
7CF6
330
81A3
100
AcDbEntity
  8
1
100
AcDbLine
 10
3509.45451181855
 20
2970.416563417292
 30
0.0
 11
3509.45451181855
 21
2990.416563417292
 31
0.0
  0
DIMENSION
  5
7CF7
330
81A3
100
AcDbEntity
  8
3
100
AcDbDimension
  2
*D6
 10
4513.454511818546
 20
3403.363348091056
 30
0.0
 11
4063.454511818547
 21
3453.363348091055
 31
0.0
 12
219.1824378880773
 22
2201.823085195892
 32
0.0
 71
     5
 42
-1.0
  3
Standard
100
AcDbAlignedDimension
 13
3613.454511818547
 23
3211.758674958399
 33
0.0
 14
4513.454511818546
 24
3211.758661221391
 34
0.0
100
AcDbRotatedDimension
1001
ACAD
1000
DSTYLE
1002
{
1070
    40
1040
25.0
1002
}
  0
DIMENSION
  5
7CFB
330
81A3
100
AcDbEntity
  8
3
100
AcDbDimension
  2
*D10
 10
4791.236646773966
 20
3085.416563417292
 30
0.0
 11
4741.236646773965
 21
2710.416563417291
 31
0.0
 12
219.1824378880773
 22
2201.823085195892
 32
0.0
  1
\U+03C6<>
 71
     5
 42
-1.0
  3
Standard
100
AcDbAlignedDimension
 13
4515.754511818547
 23
2335.416563417291
 33
0.0
 14
4515.754511818547
 24
3085.416563417292
 34
0.0
 50
90.0
100
AcDbRotatedDimension
1001
ACAD
1000
DSTYLE
1002
{
1070
    40
1040
25.0
1002
}
  0
DIMENSION
  5
7CFD
330
81A3
100
AcDbEntity
  8
3
100
AcDbDimension
  2
*D12
 10
653.9387266794873
 20
4840.5710647419
 30
0.0
 11
603.9387266794873
 21
4505.571064741899
 31
0.0
 12
277.2229457248904
 22
0.0
 32
0.0
 71
     5
 42
-1.0
  3
Standard
100
AcDbAlignedDimension
 13
822.7982914710919
 23
4170.571064741897
 33
0.0
 14
822.7982914710919
 24
4840.5710647419
 34
0.0
 50
90.0
100
AcDbRotatedDimension
1001
ACAD
1000
DSTYLE
1002
{
1070
    40
1040
25.0
1002
}
  0
DIMENSION
  5
7CFE
330
81A3
100
AcDbEntity
  8
3
100
AcDbDimension
  2
*D13
 10
2422.798291471092
 20
5627.203119146071
 30
0.0
 11
1972.798291471092
 21
5677.203119146071
 31
0.0
 12
747.2261442553315
 22
1397.037754206559
 32
0.0
 71
     5
 42
-1.0
  3
Standard
100
AcDbAlignedDimension
 13
1522.798291471092
 23
5325.571064741899
 33
0.0
 14
2422.798291471092
 24
5325.571064741899
 34
0.0
100
AcDbRotatedDimension
1001
ACAD
1000
DSTYLE
1002
{
1070
    40
1040
25.0
1002
}
  0
DIMENSION
  5
7CFF
330
81A3
100
AcDbEntity
  8
3
100
AcDbDimension
  2
*D14
 10
1522.798291471092
 20
5627.203119146071
 30
0.0
 11
1172.798291471091
 21
5677.203119146071
 31
0.0
 12
747.2261442553315
 22
1397.037754206559
 32
0.0
 71
     5
 42
-1.0
  3
Standard
100
AcDbAlignedDimension
 13
822.7982914710919
 23
4840.5710647419
 33
0.0
 14
1522.798291471092
 24
5325.571064741899
 34
0.0
100
AcDbRotatedDimension
1001
ACAD
1000
DSTYLE
1002
{
1070
    40
1040
25.0
1002
}
  0
DIMENSION
  5
7D00
330
81A3
100
AcDbEntity
  8
3
100
AcDbDimension
  2
*D15
 10
2724.19549961235
 20
5325.571064741899
 30
0.0
 11
2674.195499612349
 21
4748.071064741897
 31
0.0
 12
747.2261442553315
 22
1397.037754206559
 32
0.0
 71
     5
 42
-1.0
  3
Standard
100
AcDbAlignedDimension
 13
2422.798291471092
 23
4170.571064741897
 33
0.0
 14
2422.798291471092
 24
5325.571064741899
 34
0.0
 50
90.0
100
AcDbRotatedDimension
1001
ACAD
1000
DSTYLE
1002
{
1070
    40
1040
25.0
1002
}
  0
LINE
  5
7D01
330
81A3
100
AcDbEntity
  8
1
100
AcDbLine
 10
3411.454511818547
 20
1840.416563417291
 30
0.0
 11
3411.454511818547
 21
1940.416563417291
 31
0.0
  0
DIMENSION
  5
7D02
330
81A3
100
AcDbEntity
  8
3
100
AcDbDimension
  2
*D16
 10
822.7982914710919
 20
3568.726828777175
 30
0.0
 11
1647.798291471092
 21
3618.726828777175
 31
0.0
 12
747.2261442553315
 22
2201.823085195892
 32
0.0
 71
     5
 42
-1.0
  3
Standard
100
AcDbAlignedDimension
 13
2472.798291471092
 23
2710.59003924326
 33
0.0
 14
822.7982914710919
 24
1940.416563417291
 34
0.0
100
AcDbRotatedDimension
1001
ACAD
1000
DSTYLE
1002
{
1070
    40
1040
25.0
1002
}
  0
LINE
  5
7D03
330
81A3
100
AcDbEntity
  8
1
100
AcDbLine
 10
2252.798291471092
 20
3982.571064741898
 30
0.0
 11
2252.798291471092
 21
4267.571064741897
 31
0.0
  0
LINE
  5
7D04
330
81A3
100
AcDbEntity
  8
1
100
AcDbLine
 10
922.7982914710921
 20
3982.571064741898
 30
0.0
 11
922.7982914710921
 21
4267.571064741897
 31
0.0
  0
LINE
  5
7D05
330
81A3
100
AcDbEntity
  8
1
100
AcDbLine
 10
2175.998291471092
 20
4117.571064741897
 30
0.0
 11
2175.998291471092
 21
4217.571064741897
 31
0.0
  0
LINE
  5
7D06
330
81A3
100
AcDbEntity
  8
1
100
AcDbLine
 10
1769.598291471092
 20
4117.571064741897
 30
0.0
 11
1769.598291471092
 21
4217.571064741897
 31
0.0
  0
LINE
  5
7D07
330
81A3
100
AcDbEntity
  8
1
100
AcDbLine
 10
1151.798291471092
 20
4117.571064741897
 30
0.0
 11
1151.798291471092
 21
4217.571064741897
 31
0.0
  0
LINE
  5
7D08
330
81A3
100
AcDbEntity
  8
1
100
AcDbLine
 10
993.798291471092
 20
4117.571064741897
 30
0.0
 11
993.798291471092
 21
4217.571064741899
 31
0.0
  0
LINE
  5
7D09
330
81A3
100
AcDbEntity
  8
1
100
AcDbLine
 10
2252.798291471092
 20
3982.571064741898
 30
0.0
 11
922.7982914710921
 21
3982.571064741898
 31
0.0
  0
LINE
  5
7D0A
330
81A3
100
AcDbEntity
  8
1
100
AcDbLine
 10
2252.798291471092
 20
4267.571064741897
 30
0.0
 11
922.7982914710921
 21
4267.571064741897
 31
0.0
  0
LINE
  5
7D0B
330
81A3
100
AcDbEntity
  8
1
100
AcDbLine
 10
2175.998291471092
 20
4217.571064741897
 30
0.0
 11
1769.598291471092
 21
4217.571064741897
 31
0.0
  0
LINE
  5
7D0C
330
81A3
100
AcDbEntity
  8
1
100
AcDbLine
 10
2175.998291471092
 20
4117.571064741897
 30
0.0
 11
1769.598291471092
 21
4117.571064741897
 31
0.0
  0
LINE
  5
7D0D
330
81A3
100
AcDbEntity
  8
1
100
AcDbLine
 10
1151.798291471092
 20
4217.571064741897
 30
0.0
 11
993.798291471092
 21
4217.571064741897
 31
0.0
  0
LINE
  5
7D0E
330
81A3
100
AcDbEntity
  8
1
100
AcDbLine
 10
1151.798291471092
 20
4117.571064741897
 30
0.0
 11
993.798291471092
 21
4117.571064741897
 31
0.0
  0
LINE
  5
7D0F
330
81A3
100
AcDbEntity
  8
1
100
AcDbLine
 10
2472.798291471092
 20
4372.571064741896
 30
0.0
 11
1360.798291471092
 21
4372.571064741896
 31
0.0
  0
LINE
  5
7D10
330
81A3
100
AcDbEntity
  8
1
100
AcDbLine
 10
2472.798291471092
 20
5272.571064741897
 30
0.0
 11
1360.798291471092
 21
5272.571064741899
 31
0.0
  0
LINE
  5
7D11
330
81A3
100
AcDbEntity
  8
1
100
AcDbLine
 10
2472.798291471092
 20
5312.571064741899
 30
0.0
 11
2472.798291471092
 21
4332.571064741896
 31
0.0
  0
LINE
  5
7D12
330
81A3
100
AcDbEntity
  8
1
100
AcDbLine
 10
1360.798291471092
 20
5272.571064741899
 30
0.0
 11
1360.798291471092
 21
4372.571064741896
 31
0.0
  0
LINE
  5
7D13
330
81A3
100
AcDbEntity
  8
1
100
AcDbLine
 10
2472.798291471092
 20
5312.571064741899
 30
0.0
 11
2469.798291471092
 21
5312.571064741899
 31
0.0
  0
LINE
  5
7D14
330
81A3
100
AcDbEntity
  8
1
100
AcDbLine
 10
2472.798291471092
 20
4332.571064741896
 30
0.0
 11
2469.798291471092
 21
4332.571064741897
 31
0.0
  0
LINE
  5
7D15
330
81A3
100
AcDbEntity
  8
1
100
AcDbLine
 10
2469.798291471092
 20
5312.571064741899
 30
0.0
 11
2469.798291471092
 21
4332.571064741896
 31
0.0
  0
LINE
  5
7D16
330
81A3
100
AcDbEntity
  8
1
100
AcDbLine
 10
1997.798291471092
 20
4372.571064741896
 30
0.0
 11
1997.798291471092
 21
4217.571064741897
 31
0.0
  0
LINE
  5
7D17
330
81A3
100
AcDbEntity
  8
1
100
AcDbLine
 10
1947.798291471092
 20
4372.571064741896
 30
0.0
 11
1947.798291471092
 21
4217.571064741897
 31
0.0
  0
LINE
  5
7D18
330
81A3
100
AcDbEntity
  8
1
100
AcDbLine
 10
1234.798291471092
 20
4235.571064741897
 30
0.0
 11
1234.798291471092
 21
4720.571064741898
 31
0.0
  0
LINE
  5
7D19
330
81A3
100
AcDbEntity
  8
1
100
AcDbLine
 10
910.798291471092
 20
4235.571064741897
 30
0.0
 11
910.798291471092
 21
4720.571064741898
 31
0.0
  0
LINE
  5
7D1A
330
81A3
100
AcDbEntity
  8
1
100
AcDbLine
 10
1234.798291471092
 20
4720.571064741898
 30
0.0
 11
910.798291471092
 21
4720.571064741898
 31
0.0
  0
LINE
  5
7D1B
330
81A3
100
AcDbEntity
  8
1
100
AcDbLine
 10
1234.798291471092
 20
4235.571064741897
 30
0.0
 11
910.798291471092
 21
4235.571064741897
 31
0.0
  0
LINE
  5
7D1C
330
81A3
100
AcDbEntity
  8
1
100
AcDbLine
 10
1093.798291471091
 20
4235.571064741897
 30
0.0
 11
1093.798291471091
 21
4217.571064741897
 31
0.0
  0
LINE
  5
7D1D
330
81A3
100
AcDbEntity
  8
1
100
AcDbLine
 10
1051.798291471092
 20
4235.571064741897
 30
0.0
 11
1051.798291471092
 21
4217.571064741897
 31
0.0
  0
LINE
  5
7D1E
330
81A3
100
AcDbEntity
  8
1
100
AcDbLine
 10
3477.454511818543
 20
2352.416563417294
 30
0.0
 11
3613.454511818546
 21
2352.416563417294
 31
0.0
  0
LINE
  5
7D1F
330
81A3
100
AcDbEntity
  8
1
100
AcDbLine
 10
3477.454511818543
 20
2028.416563417294
 30
0.0
 11
3613.454511818546
 21
2028.416563417294
 31
0.0
  0
LINE
  5
7D20
330
81A3
100
AcDbEntity
  8
1
100
AcDbLine
 10
3477.454511818543
 20
2028.416563417294
 30
0.0
 11
3477.454511818543
 21
2352.416563417294
 31
0.0
  0
LINE
  5
7D21
330
81A3
100
AcDbEntity
  8
1
100
AcDbLine
 10
3477.454511818543
 20
2169.416563417295
 30
0.0
 11
3459.454511818544
 21
2169.416563417295
 31
0.0
  0
LINE
  5
7D22
330
81A3
100
AcDbEntity
  8
1
100
AcDbLine
 10
3477.454511818543
 20
2211.416563417294
 30
0.0
 11
3459.454511818544
 21
2211.416563417294
 31
0.0
  0
LINE
  5
7D23
330
81A3
100
AcDbEntity
  8
1
100
AcDbLine
 10
3600.954511818545
 20
2352.416563417294
 30
0.0
 11
3613.454511818546
 21
2352.416563417294
 31
0.0
  0
LINE
  5
7D2A
330
81A3
100
AcDbEntity
  8
1
100
AcDbLine
 10
4566.454511818547
 20
1840.416563417291
 30
0.0
 11
4566.454511818547
 21
1940.416563417291
 31
0.0
  0
LINE
  5
7D2B
330
81A3
100
AcDbEntity
  8
1
100
AcDbLine
 10
2422.798291471092
 20
4372.571064741896
 30
0.0
 11
2422.798291471092
 21
4170.571064741897
 31
0.0
  0
DIMENSION
  5
7D2C
330
81A3
100
AcDbEntity
  8
3
100
AcDbDimension
  2
*D17
 10
1972.798291471092
 20
3370.305010010292
 30
0.0
 11
2222.798291471092
 21
3420.305010010292
 31
0.0
 12
747.2261442553315
 22
2201.823085195892
 32
0.0
 71
     5
 42
-1.0
  3
Standard
100
AcDbAlignedDimension
 13
2472.798291471093
 23
2723.416563417291
 33
0.0
 14
1972.798291471092
 24
3278.012094178292
 34
0.0
100
AcDbRotatedDimension
1001
ACAD
1000
DSTYLE
1002
{
1070
    40
1040
25.0
1002
}
  0
LINE
  5
7D2E
330
81A3
100
AcDbEntity
  8
1
100
AcDbLine
 10
3613.454511818546
 20
1951.416563417291
 30
0.0
 11
4513.454511818546
 21
1951.416563417291
 31
0.0
  0
LINE
  5
7D2F
330
81A3
100
AcDbEntity
  8
1
100
AcDbLine
 10
3613.454511818547
 20
3216.416563417292
 30
0.0
 11
4513.454511818546
 21
3216.416563417292
 31
0.0
  0
LINE
  5
7D30
330
81A3
100
AcDbEntity
  8
1
100
AcDbLine
 10
3613.454511818546
 20
2681.416563417291
 30
0.0
 11
4513.454511818546
 21
2681.416563417291
 31
0.0
  0
LINE
  5
7D31
330
81A3
100
AcDbEntity
  8
1
100
AcDbLine
 10
3613.454511818547
 20
1951.416563417291
 30
0.0
 11
4513.454511818546
 21
2681.416563417291
 31
0.0
  0
LINE
  5
7D32
330
81A3
100
AcDbEntity
  8
1
100
AcDbLine
 10
3613.454511818546
 20
2681.416563417291
 30
0.0
 11
4513.454511818546
 21
1951.416563417291
 31
0.0
  0
LINE
  5
7F79
330
81A3
100
AcDbEntity
  8
4
100
AcDbLine
 10
4625.0
 20
1250.0
 30
0.0
 11
4625.0
 21
750.0
 31
0.0
  0
LINE
  5
7F7A
330
81A3
100
AcDbEntity
  8
4
100
AcDbLine
 10
2875.0
 20
1250.0
 30
0.0
 11
2875.0
 21
750.0
 31
0.0
  0
LINE
  5
7F7B
330
81A3
100
AcDbEntity
  8
4
100
AcDbLine
 10
1625.0
 20
1250.0
 30
0.0
 11
1625.0
 21
750.0
 31
0.0
  0
LINE
  5
7F7E
330
81A3
100
AcDbEntity
  8
4
100
AcDbLine
 10
1625.0
 20
750.0
 30
0.0
 11
4625.0
 21
750.0
 31
0.0
  0
LINE
  5
7F7F
330
81A3
100
AcDbEntity
  8
4
100
AcDbLine
 10
1625.0
 20
1000.0
 30
0.0
 11
4625.0
 21
1000.0
 31
0.0
  0
TEXT
  5
7F80
330
81A3
100
AcDbEntity
  8
4
100
AcDbText
 10
1721.255202117253
 20
1078.857564666532
 30
0.0
 40
125.0
  1
機器名称
100
AcDbText
  0
TEXT
  5
7F81
330
81A3
100
AcDbEntity
  8
4
100
AcDbText
 10
1715.645265061993
 20
804.1128918300273
 30
0.0
 40
125.0
  1
機器型番
100
AcDbText
  0
TEXT
  5
7F82
330
81A3
100
AcDbEntity
  8
4
100
AcDbText
 10
2944.196863719162
 20
1056.429422393921
 30
0.0
 40
125.0
  1
ミツヤ多翼送風機
100
AcDbText
  0
TEXT
  5
7F83
330
81A3
100
AcDbEntity
  8
4
100
AcDbText
 10
2966.636238963701
 20
792.8989606998584
 30
0.0
 40
125.0
  1
MF#4 1/2-5
100
AcDbText
  0
TEXT
  5
7F85
330
81A3
100
AcDbEntity
  8
4
100
AcDbText
 10
2024.344745688027
 20
5958.572103331289
 30
0.0
 40
135.0
  1
床置防振ベット
100
AcDbText
  0
TEXT
  5
7F86
330
81A3
100
AcDbEntity
  8
4
100
AcDbText
 10
790.4189833236158
 20
6334.702440498245
 30
0.0
 40
180.0
  1
遠心式両吸込両持多翼ファン
100
AcDbText
  0
LINE
  5
7F87
330
81A3
100
AcDbEntity
  8
4
100
AcDbLine
 10
625.0
 20
6173.521885662012
 30
0.0
 11
4625.0
 21
6173.521885662012
 31
0.0
  0
LINE
  5
7F88
330
81A3
100
AcDbEntity
  8
4
100
AcDbLine
 10
625.0
 20
6673.521885662011
 30
0.0
 11
4625.0
 21
6673.521885662011
 31
0.0
  0
LINE
  5
7F89
330
81A3
100
AcDbEntity
  8
4
100
AcDbLine
 10
1625.0
 20
1250.0
 30
0.0
 11
4625.0
 21
1250.0
 31
0.0
  0
LINE
  5
7F8A
330
81A3
100
AcDbEntity
  8
4
100
AcDbLine
 10
625.0
 20
6673.521885662011
 30
0.0
 11
625.0
 21
6173.521885662012
 31
0.0
  0
TEXT
  5
7F8B
330
81A3
100
AcDbEntity
  8
4
100
AcDbText
 10
934.697665081272
 20
5955.798693865858
 30
0.0
 40
135.0
  1
左回転右横向
100
AcDbText
  0
TEXT
  5
7F8C
330
81A3
100
AcDbEntity
  8
4
100
AcDbText
 10
3672.423898123224
 20
6765.15270373827
 30
0.0
 40
140.0
  1
No.
100
AcDbText
  0
TEXT
  5
7F8D
330
81A3
100
AcDbEntity
  8
4
100
AcDbText
 10
3278.240156500032
 20
5958.572103331289
 30
0.0
 40
135.0
  1
縮尺：1/25
100
AcDbText
  0
LINE
  5
7F8E
330
81A3
100
AcDbEntity
  8
4
100
AcDbLine
 10
4625.0
 20
6673.521885662011
 30
0.0
 11
4625.0
 21
6173.521885662012
 31
0.0
  0
LINE
  5
7F8F
330
81A3
100
AcDbEntity
  8
4
100
AcDbLine
 10
5250.0
 20
7375.0
 30
0.0
 11
5250.0
 21
7375.0
 31
0.0
  0
LINE
  5
7F90
330
81A3
100
AcDbEntity
  8
4
100
AcDbLine
 10
3601.543555899662
 20
6703.158957813504
 30
0.0
 11
3601.543555899662
 21
6966.630653874381
 31
0.0
  0
LINE
  5
7F91
330
81A3
100
AcDbEntity
  8
4
100
AcDbLine
 10
3601.543555899662
 20
6966.630653874381
 30
0.0
 11
4625.0
 21
6966.630653874381
 31
0.0
  0
LINE
  5
7F92
330
81A3
100
AcDbEntity
  8
4
100
AcDbLine
 10
4625.0
 20
6966.630653874381
 30
0.0
 11
4625.0
 21
6703.158957813504
 31
0.0
  0
LINE
  5
7F93
330
81A3
100
AcDbEntity
  8
4
100
AcDbLine
 10
4625.0
 20
6703.158957813504
 30
0.0
 11
3601.543555899662
 21
6703.158957813504
 31
0.0
  0
LINE
  5
7F94
330
81A3
100
AcDbEntity
  8
4
100
AcDbLine
 10
0.0
 20
0.0
 30
0.0
 11
0.0
 21
7375.0
 31
0.0
  0
LINE
  5
7F95
330
81A3
100
AcDbEntity
  8
4
100
AcDbLine
 10
0.0
 20
7375.0
 30
0.0
 11
5250.0
 21
7375.0
 31
0.0
  0
LINE
  5
7F96
330
81A3
100
AcDbEntity
  8
4
100
AcDbLine
 10
5250.0
 20
7375.0
 30
0.0
 11
5250.0
 21
0.0
 31
0.0
  0
LINE
  5
7F97
330
81A3
100
AcDbEntity
  8
4
100
AcDbLine
 10
5250.0
 20
0.0
 30
0.0
 11
0.0
 21
0.0
 31
0.0
  0
LINE
  5
8232
330
81A3
100
AcDbEntity
  8
1
100
AcDbLine
 10
2469.798291471092
 20
1951.775073040471
 30
0.0
 11
1942.88905431515
 21
2014.742417061442
 31
0.0
  0
ARC
  5
8233
330
81A3
100
AcDbEntity
  8
1
100
AcDbCircle
 10
2025.798291471094
 20
2657.416563417291
 30
0.0
 40
648.0
100
AcDbArc
 50
180.0
 51
262.6490639824698
  0
ARC
  5
8234
330
81A3
100
AcDbEntity
  8
1
100
AcDbCircle
 10
1919.798291471094
 20
2657.416563417291
 30
0.0
 40
541.9999999999998
100
AcDbArc
 50
84.38830856686889
 51
180.0
  0
ARC
  5
8235
330
81A3
100
AcDbEntity
  8
1
100
AcDbCircle
 10
1931.798291471094
 20
2751.416563417291
 30
0.0
 40
448.0
100
AcDbArc
 50
0.0
 51
84.74906568347616
  0
ARC
  5
8236
330
81A3
100
AcDbEntity
  8
1
100
AcDbCircle
 10
2013.798291471094
 20
2751.416563417291
 30
0.0
 40
366.0
100
AcDbArc
 50
348.973859518714
 51
0.0
  0
LINE
  5
8237
330
81A3
100
AcDbEntity
  8
1
100
AcDbLine
 10
2472.798291471094
 20
2681.416563417291
 30
0.0
 11
2373.041941380177
 21
2681.416563417291
 31
0.0
  0
LINE
  5
8238
330
81A3
100
AcDbEntity
  8
1
100
AcDbLine
 10
2472.798291471092
 20
1909.416563417291
 30
0.0
 11
2472.798291471094
 21
2723.416563417291
 31
0.0
  0
LINE
  5
8239
330
81A3
100
AcDbEntity
  8
1
100
AcDbLine
 10
2472.798291471092
 20
1909.416563417291
 30
0.0
 11
2469.798291471092
 21
1909.416563417291
 31
0.0
  0
LINE
  5
823A
330
81A3
100
AcDbEntity
  8
1
100
AcDbLine
 10
2472.798291471094
 20
2723.416563417291
 30
0.0
 11
2469.798291471092
 21
2723.416563417291
 31
0.0
  0
LINE
  5
823B
330
81A3
100
AcDbEntity
  8
1
100
AcDbLine
 10
2432.798291471092
 20
1954.865794989895
 30
0.0
 11
2432.798291471092
 21
2681.416563417291
 31
0.0
  0
LINE
  5
823C
330
81A3
100
AcDbEntity
  8
1
100
AcDbLine
 10
2469.798291471092
 20
1909.416563417291
 30
0.0
 11
2469.798291471092
 21
2723.416563417291
 31
0.0
  0
POINT
  5
823D
330
81A3
100
AcDbEntity
  8
1
100
AcDbPoint
 10
2432.980863935544
 20
2710.416563417291
 30
0.0
 50
180.0
  0
LINE
  5
823E
330
81A3
100
AcDbEntity
  8
1
100
AcDbLine
 10
2476.280097103585
 20
2710.416563417291
 30
0.0
 11
2491.953402519901
 21
2710.416563417291
 31
0.0
  0
CIRCLE
  5
823F
330
81A3
100
AcDbEntity
  8
1
100
AcDbCircle
 10
1972.798291471092
 20
2710.416563417291
 30
0.0
 40
375.0
  0
CIRCLE
  5
8240
330
81A3
100
AcDbEntity
  8
1
100
AcDbCircle
 10
1972.798291471092
 20
2710.416563417291
 30
0.0
 40
415.0
  0
DIMENSION
  5
8241
330
81A3
100
AcDbEntity
  8
3
100
AcDbDimension
  2
*D31
 10
4063.454511818547
 20
3572.83979130178
 30
0.0
 11
3643.454511818549
 21
3654.982648444637
 31
0.0
 70
    32
 71
     5
 42
839.9999999999959
  3
IGA
100
AcDbAlignedDimension
 13
3223.454511818551
 23
2990.416563417292
 33
0.0
 14
4063.454511818547
 24
3490.863348091056
 34
0.0
100
AcDbRotatedDimension
1001
ACAD
1000
DSTYLE
1002
{
1070
     3
1000
(<>)
1070
    40
1040
25.0
1070
    42
1040
1.0
1070
   143
1040
0.039
1070
   172
1070
     1
1070
   271
1070
     4
1070
   272
1070
     4
1070
   279
1070
     0
1070
   284
1070
     0
1070
   285
1070
     0
1070
   286
1070
     0
1070
   341
1005
81B7
1070
   343
1005
81B7
1070
   344
1005
81B7
1002
}
  0
DIMENSION
  5
824E
330
81A3
100
AcDbEntity
  8
3
100
AcDbDimension
  2
*D32
 10
4623.454511818548
 20
3572.83979130178
 30
0.0
 11
4343.454511818547
 21
3654.982648444637
 31
0.0
 70
    32
 71
     5
 42
560.0000000000009
  3
IGA
100
AcDbAlignedDimension
 13
4063.454511818547
 23
3490.863348091056
 33
0.0
 14
4623.454511818548
 24
2685.216563417291
 34
0.0
100
AcDbRotatedDimension
1001
ACAD
1000
DSTYLE
1002
{
1070
     3
1000
(<>)
1070
    40
1040
25.0
1070
    42
1040
1.0
1070
   143
1040
0.039
1070
   172
1070
     1
1070
   271
1070
     4
1070
   272
1070
     4
1070
   279
1070
     1
1070
   284
1070
     0
1070
   285
1070
     0
1070
   286
1070
     0
1070
   341
1005
81B7
1070
   343
1005
81B7
1070
   344
1005
81B7
1002
}
  0
DIMENSION
  5
8267
330
81A3
100
AcDbEntity
  8
3
100
AcDbDimension
  2
*D33
 10
2422.798291471092
 20
3819.065342086324
 30
0.0
 11
1622.798291471092
 21
3881.565342086324
 31
0.0
 70
    32
 71
     5
 42
1600.0
  3
IGA
100
AcDbAlignedDimension
 13
822.7982914710919
 23
4170.571064741897
 33
0.0
 14
2422.798291471092
 24
4170.571064741897
 34
0.0
100
AcDbRotatedDimension
1001
ACAD
1000
DSTYLE
1002
{
1070
    40
1040
25.0
1070
    42
1040
1.0
1070
   143
1040
0.039
1070
   172
1070
     1
1070
   271
1070
     4
1070
   272
1070
     4
1070
   279
1070
     0
1070
   284
1070
     0
1070
   285
1070
     0
1070
   286
1070
     0
1070
   341
1005
81B7
1070
   343
1005
81B7
1070
   344
1005
81B7
1002
}
  0
DIMENSION
  5
82DF
330
81A3
100
AcDbEntity
  8
3
100
AcDbDimension
  2
*D41
 10
4063.454511818547
 20
1506.156197842127
 30
0.0
 11
3737.454511818548
 21
1568.656197842127
 31
0.0
 70
    32
 71
     5
 42
652.0
  3
IGA
100
AcDbAlignedDimension
 13
3411.454511818547
 23
1660.416563417291
 33
0.0
 14
4063.454511818547
 24
1660.416563417291
 34
0.0
100
AcDbRotatedDimension
1001
ACAD
1000
DSTYLE
1002
{
1070
    40
1040
25.0
1070
    42
1040
1.0
1070
   143
1040
0.039
1070
   172
1070
     1
1070
   271
1070
     4
1070
   272
1070
     4
1070
   279
1070
     0
1070
   284
1070
     0
1070
   285
1070
     0
1070
   286
1070
     0
1070
   341
1005
81B7
1070
   343
1005
81B7
1070
   344
1005
81B7
1002
}
  0
DIMENSION
  5
82EC
330
81A3
100
AcDbEntity
  8
3
100
AcDbDimension
  2
*D42
 10
4566.454511818547
 20
1506.156197842127
 30
0.0
 11
4314.954511818547
 21
1568.656197842127
 31
0.0
 70
    32
 71
     5
 42
503.0
  3
IGA
100
AcDbAlignedDimension
 13
4063.454511818547
 23
1660.416563417291
 33
0.0
 14
4566.454511818547
 24
1660.416563417291
 34
0.0
100
AcDbRotatedDimension
1001
ACAD
1000
DSTYLE
1002
{
1070
    40
1040
25.0
1070
    42
1040
1.0
1070
   143
1040
0.039
1070
   172
1070
     1
1070
   271
1070
     4
1070
   272
1070
     4
1070
   279
1070
     1
1070
   284
1070
     0
1070
   285
1070
     0
1070
   286
1070
     0
1070
   341
1005
81B7
1070
   343
1005
81B7
1070
   344
1005
81B7
1002
}
  0
DIMENSION
  5
82F9
330
81A3
100
AcDbEntity
  8
3
100
AcDbDimension
  2
*D43
 10
1972.798291471092
 20
1504.86533385533
 30
0.0
 11
1397.798291471092
 21
1567.36533385533
 31
0.0
 70
    32
 71
     5
 42
1150.0
  3
IGA
100
AcDbAlignedDimension
 13
822.7982914710919
 23
1660.416563417291
 33
0.0
 14
1972.798291471092
 24
1660.416563417291
 34
0.0
100
AcDbRotatedDimension
1001
ACAD
1000
DSTYLE
1002
{
1070
    40
1040
25.0
1070
    42
1040
1.0
1070
   143
1040
0.039
1070
   172
1070
     1
1070
   271
1070
     4
1070
   272
1070
     4
1070
   279
1070
     0
1070
   284
1070
     0
1070
   285
1070
     0
1070
   286
1070
     0
1070
   341
1005
81B7
1070
   343
1005
81B7
1070
   344
1005
81B7
1002
}
  0
DIMENSION
  5
8306
330
81A3
100
AcDbEntity
  8
3
100
AcDbDimension
  2
*D44
 10
2422.798291471092
 20
1504.86533385533
 30
0.0
 11
2197.798291471092
 21
1567.36533385533
 31
0.0
 70
    32
 71
     5
 42
450.0
  3
IGA
100
AcDbAlignedDimension
 13
1972.798291471092
 23
1660.416563417291
 33
0.0
 14
2422.798291471092
 24
1660.416563417291
 34
0.0
100
AcDbRotatedDimension
1001
ACAD
1000
DSTYLE
1002
{
1070
    40
1040
25.0
1070
    42
1040
1.0
1070
   143
1040
0.039
1070
   172
1070
     1
1070
   271
1070
     4
1070
   272
1070
     4
1070
   279
1070
     1
1070
   284
1070
     0
1070
   285
1070
     0
1070
   286
1070
     0
1070
   341
1005
81B7
1070
   343
1005
81B7
1070
   344
1005
81B7
1002
}
  0
DIMENSION
  5
8313
330
81A3
100
AcDbEntity
  8
3
100
AcDbDimension
  2
*D45
 10
2939.258520611005
 20
3199.416563417291
 30
0.0
 11
2876.758520611005
 21
2954.916563417292
 31
0.0
 70
    32
 71
     5
 42
488.9999999999995
  3
IGA
100
AcDbAlignedDimension
 13
2595.064130276521
 23
2710.416563417291
 33
0.0
 14
1919.798291471094
 24
3199.416563417291
 34
0.0
 50
90.0
100
AcDbRotatedDimension
1001
ACAD
1000
DSTYLE
1002
{
1070
    40
1040
25.0
1070
    42
1040
1.0
1070
   143
1040
0.039
1070
   172
1070
     1
1070
   271
1070
     4
1070
   272
1070
     4
1070
   279
1070
     0
1070
   284
1070
     0
1070
   285
1070
     0
1070
   286
1070
     0
1070
   341
1005
81B7
1070
   343
1005
81B7
1070
   344
1005
81B7
1002
}
  0
DIMENSION
  5
8329
330
81A3
100
AcDbEntity
  8
3
100
AcDbDimension
  2
*D46
 10
3172.395669946513
 20
3199.41656341729
 30
0.0
 11
3090.252812803655
 21
2429.916563417291
 31
0.0
 70
    32
  1
(<>)
 71
     5
 42
1539.0
  3
IGA
100
AcDbAlignedDimension
 13
2422.798291471092
 23
1660.416563417291
 33
0.0
 14
1919.798291471094
 24
3199.416563417291
 34
0.0
 50
90.0
100
AcDbRotatedDimension
1001
ACAD
1000
DSTYLE
1002
{
1070
    40
1040
25.0
1070
    42
1040
1.0
1070
   143
1040
0.039
1070
   172
1070
     1
1070
   271
1070
     4
1070
   272
1070
     4
1070
   279
1070
     0
1070
   284
1070
     0
1070
   285
1070
     0
1070
   286
1070
     0
1070
   341
1005
81B7
1070
   343
1005
81B7
1070
   344
1005
81B7
1002
}
  0
DIMENSION
  5
8336
330
81A3
100
AcDbEntity
  8
3
100
AcDbDimension
  2
*D47
 10
1377.798291471094
 20
3370.305010010291
 30
0.0
 11
1675.298291471093
 21
3432.805010010291
 31
0.0
 70
    32
 71
     5
 42
594.9999999999979
  3
IGA
100
AcDbAlignedDimension
 13
1972.798291471092
 23
3278.012094178292
 33
0.0
 14
1377.798291471094
 24
2657.416563417291
 34
0.0
100
AcDbRotatedDimension
1001
ACAD
1000
DSTYLE
1002
{
1070
    40
1040
25.0
1070
    42
1040
1.0
1070
   143
1040
0.039
1070
   172
1070
     1
1070
   271
1070
     4
1070
   272
1070
     4
1070
   279
1070
     0
1070
   284
1070
     0
1070
   285
1070
     0
1070
   286
1070
     0
1070
   341
1005
81B7
1070
   343
1005
81B7
1070
   344
1005
81B7
1002
}
  0
DIMENSION
  5
836A
330
81A3
100
AcDbEntity
  8
3
100
AcDbDimension
  2
*D48
 10
2922.640934579344
 20
1840.41656341729
 30
0.0
 11
2860.140934579343
 21
2275.416563417291
 31
0.0
 70
    32
 71
     5
 42
870.0000000000002
  3
IGA
100
AcDbAlignedDimension
 13
2595.064130276521
 23
2710.416563417291
 33
0.0
 14
2422.798291471092
 24
1840.416563417291
 34
0.0
 50
90.0
100
AcDbRotatedDimension
1001
ACAD
1000
DSTYLE
1002
{
1070
    40
1040
25.0
1070
    42
1040
1.0
1070
   143
1040
0.039
1070
   172
1070
     1
1070
   271
1070
     4
1070
   272
1070
     4
1070
   279
1070
     0
1070
   284
1070
     0
1070
   285
1070
     0
1070
   286
1070
     0
1070
   341
1005
81B7
1070
   343
1005
81B7
1070
   344
1005
81B7
1002
}
  0
DIMENSION
  5
8377
330
81A3
100
AcDbEntity
  8
3
100
AcDbDimension
  2
*D49
 10
2922.640934579344
 20
1760.41656341729
 30
0.0
 11
3092.975983873017
 21
1895.595134845862
 31
0.0
 70
   160
  1
(<>)
 71
     5
 42
80.0
  3
IGA
100
AcDbAlignedDimension
 13
2422.798291471092
 23
1840.416563417291
 33
0.0
 14
2422.798291471092
 24
1760.41656341729
 34
0.0
 50
90.0
100
AcDbRotatedDimension
1001
ACAD
1000
DSTYLE
1002
{
1070
    40
1040
25.0
1070
    42
1040
1.0
1070
   143
1040
0.039
1070
   172
1070
     1
1070
   271
1070
     4
1070
   272
1070
     4
1070
   279
1070
     1
1070
   284
1070
     0
1070
   285
1070
     0
1070
   286
1070
     0
1070
   341
1005
81B7
1070
   343
1005
81B7
1070
   344
1005
83FC
1002
}
  0
DIMENSION
  5
8389
330
81A3
100
AcDbEntity
  8
3
100
AcDbDimension
  2
*D50
 10
2922.640934579344
 20
1660.41656341729
 30
0.0
 11
2930.974267912677
 21
1545.068754563024
 31
0.0
 70
   160
 71
     5
 42
100.0
  3
IGA
100
AcDbAlignedDimension
 13
2422.798291471092
 23
1760.41656341729
 33
0.0
 14
2422.798291471092
 24
1660.416563417291
 34
0.0
 50
90.0
100
AcDbRotatedDimension
1001
ACAD
1000
DSTYLE
1002
{
1070
    40
1040
25.0
1070
    42
1040
1.0
1070
   143
1040
0.039
1070
   172
1070
     1
1070
   271
1070
     4
1070
   272
1070
     4
1070
   279
1070
     1
1070
   284
1070
     0
1070
   285
1070
     0
1070
   286
1070
     0
1070
   341
1005
81B7
1070
   343
1005
83FC
1070
   344
1005
81B7
1002
}
  0
ENDSEC
  0
SECTION
  2
OBJECTS
  0
DICTIONARY
  5
8140
330
0
100
AcDbDictionary
281
     1
  3
ACAD_CIP_PREVIOUS_PRODUCT_INFO
350
81EF
  3
ACAD_COLOR
350
8196
  3
ACAD_DETAILVIEWSTYLE
350
819D
  3
ACAD_GROUP
350
8141
  3
ACAD_LAYOUT
350
8195
  3
ACAD_MATERIAL
350
8144
  3
ACAD_MLEADERSTYLE
350
8199
  3
ACAD_MLINESTYLE
350
8192
  3
ACAD_PLOTSETTINGS
350
8194
  3
ACAD_PLOTSTYLENAME
350
8142
  3
ACAD_SCALELIST
350
8176
  3
ACAD_SECTIONVIEWSTYLE
350
819B
  3
ACAD_TABLESTYLE
350
8197
  3
ACAD_VISUALSTYLE
350
815D
  3
ACDB_RECOMPOSE_DATA
350
8506
  3
AcDbVariableDictionary
350
84B0
  3
DWGPROPS
350
8507
  0
DICTIONARY
  5
81F1
330
8136
100
AcDbDictionary
280
     1
281
     1
  3
ACAD_LAYERSTATES
360
81F2
  0
DICTIONARY
  5
84A6
330
8188
100
AcDbDictionary
280
     1
281
     1
  3
ADSK_XREC_LAYER_RECONCILED
360
84A7
  0
DICTIONARY
  5
84A8
330
81A7
100
AcDbDictionary
280
     1
281
     1
  3
ADSK_XREC_LAYER_RECONCILED
360
84A9
  0
DICTIONARY
  5
84AA
330
81AA
100
AcDbDictionary
280
     1
281
     1
  3
ADSK_XREC_LAYER_RECONCILED
360
84AB
  0
DICTIONARY
  5
84AC
330
81AB
100
AcDbDictionary
280
     1
281
     1
  3
ADSK_XREC_LAYER_RECONCILED
360
84AD
  0
DICTIONARY
  5
84AE
330
81AC
100
AcDbDictionary
280
     1
281
     1
  3
ADSK_XREC_LAYER_RECONCILED
360
84AF
  0
XRECORD
  5
81EF
102
{ACAD_REACTORS
330
8140
102
}
330
8140
100
AcDbXrecord
280
     1
300
ACDLT
300
2015
300
INVLTS_F_S
  0
DICTIONARY
  5
8196
102
{ACAD_REACTORS
330
8140
102
}
330
8140
100
AcDbDictionary
281
     1
  0
DICTIONARY
  5
819D
102
{ACAD_REACTORS
330
8140
102
}
330
8140
100
AcDbDictionary
281
     1
  3
Imperial24
350
819E
  0
DICTIONARY
  5
8141
102
{ACAD_REACTORS
330
8140
102
}
330
8140
100
AcDbDictionary
281
     1
  0
DICTIONARY
  5
8195
102
{ACAD_REACTORS
330
8140
102
}
330
8140
100
AcDbDictionary
281
     1
  3
Model
350
81A6
  3
レイアウト1
350
81A2
  0
DICTIONARY
  5
8144
102
{ACAD_REACTORS
330
8140
102
}
330
8140
100
AcDbDictionary
281
     1
  3
ByBlock
350
814D
  3
ByLayer
350
8145
  3
Global
350
8155
  0
DICTIONARY
  5
8199
102
{ACAD_REACTORS
330
8140
102
}
330
8140
100
AcDbDictionary
281
     1
  3
Standard
350
819A
  0
DICTIONARY
  5
8192
102
{ACAD_REACTORS
330
8140
102
}
330
8140
100
AcDbDictionary
281
     1
  3
Standard
350
8193
  0
DICTIONARY
  5
8194
102
{ACAD_REACTORS
330
8140
102
}
330
8140
100
AcDbDictionary
281
     1
  0
ACDBDICTIONARYWDFLT
  5
8142
102
{ACAD_REACTORS
330
8140
102
}
330
8140
100
AcDbDictionary
281
     1
  3
Normal
350
8143
100
AcDbDictionaryWithDefault
340
8143
  0
DICTIONARY
  5
8176
102
{ACAD_REACTORS
330
8140
102
}
330
8140
100
AcDbDictionary
281
     1
  3
A0
350
8177
  3
A1
350
8178
  3
A2
350
8179
  3
A3
350
817A
  3
A4
350
817B
  3
A5
350
817C
  3
A6
350
817D
  3
A7
350
817E
  3
A8
350
817F
  3
A9
350
8180
  3
B0
350
8181
  3
B1
350
8182
  3
B2
350
8183
  3
B3
350
8184
  3
B4
350
8185
  3
B5
350
8186
  3
B6
350
8187
  0
DICTIONARY
  5
819B
102
{ACAD_REACTORS
330
8140
102
}
330
8140
100
AcDbDictionary
281
     1
  3
Imperial24
350
819C
  0
DICTIONARY
  5
8197
102
{ACAD_REACTORS
330
8140
102
}
330
8140
100
AcDbDictionary
281
     1
  3
Standard
350
8198
  0
DICTIONARY
  5
815D
102
{ACAD_REACTORS
330
8140
102
}
330
8140
100
AcDbDictionary
281
     1
  3
2dWireframe
350
8163
  3
Basic
350
8162
  3
Brighten
350
8169
  3
ColorChange
350
816D
  3
Conceptual
350
8166
  3
Dim
350
8168
  3
EdgeColorOff
350
8175
  3
Facepattern
350
816C
  3
Flat
350
815E
  3
FlatWithEdges
350
815F
  3
Gouraud
350
8160
  3
GouraudWithEdges
350
8161
  3
Hidden
350
8165
  3
JitterOff
350
8173
  3
Linepattern
350
816B
  3
OverhangOff
350
8174
  3
Realistic
350
8167
  3
Shaded
350
8172
  3
Shaded with edges
350
8171
  3
Shades of Gray
350
816E
  3
Sketchy
350
816F
  3
Thicken
350
816A
  3
Wireframe
350
8164
  3
X-Ray
350
8170
  0
XRECORD
  5
8506
102
{ACAD_REACTORS
330
8140
102
}
330
8140
100
AcDbXrecord
280
     1
 90
        1
330
8198
  0
DICTIONARY
  5
84B0
102
{ACAD_REACTORS
330
8140
102
}
330
8140
100
AcDbDictionary
281
     1
  3
CANNOSCALE
350
84B5
  3
CMLEADERSTYLE
350
84B2
  3
CTABLESTYLE
350
84B1
  3
CVIEWDETAILSTYLE
350
84B3
  3
CVIEWSECTIONSTYLE
350
84B4
  3
DIMASSOC
350
84B8
  3
INDEXCTL
350
84B7
  3
SORTENTS
350
84B6
  3
XCLIPFRAME
350
84B9
  0
XRECORD
  5
8507
102
{ACAD_REACTORS
330
8140
102
}
330
8140
100
AcDbXrecord
280
     1
  1
DWGPROPS COOKIE
  2

  3

  4

  6

  7

  8
yasukiyo.ogawa
  9

300
=
301
=
302
=
303
=
304
=
305
=
306
=
307
=
308
=
309
=
 40
0.0365334490740741
 41
2451387.620289931
 42
2460263.707439676
  1

 90
        0
  0
DICTIONARY
  5
81F2
102
{ACAD_REACTORS
330
81F1
102
}
330
81F1
100
AcDbDictionary
281
     1
  0
XRECORD
  5
84A7
102
{ACAD_REACTORS
330
84A6
102
}
330
84A6
100
AcDbXrecord
280
     1
290
     1
  0
XRECORD
  5
84A9
102
{ACAD_REACTORS
330
84A8
102
}
330
84A8
100
AcDbXrecord
280
     1
290
     1
  0
XRECORD
  5
84AB
102
{ACAD_REACTORS
330
84AA
102
}
330
84AA
100
AcDbXrecord
280
     1
290
     1
  0
XRECORD
  5
84AD
102
{ACAD_REACTORS
330
84AC
102
}
330
84AC
100
AcDbXrecord
280
     1
290
     1
  0
XRECORD
  5
84AF
102
{ACAD_REACTORS
330
84AE
102
}
330
84AE
100
AcDbXrecord
280
     1
290
     1
  0
ACDBDETAILVIEWSTYLE
  5
819E
102
{ACAD_XDICTIONARY
360
853F
102
}
102
{ACAD_REACTORS
330
819D
102
}
330
819D
100
AcDbModelDocViewStyle
 70
     0
  3
Imperial24
290
     0
100
AcDbDetailViewStyle
 70
     0
 71
     0
 90
        3
 71
     1
340
8189
 40
0.24
340
0
 40
0.24
300

 40
0.36
280
     3
 71
     2
340
8190
 90
       25
 71
     3
340
8189
 40
0.24
 90
        1
 40
0.75
 90
        1
300
%<\AcVar ViewType \f "%tc1">% %<\AcVar ViewDetailId>%\PSCALE %<\AcVar ViewScale \f "%sn">%
 71
     4
340
8190
 90
       25
340
8190
 90
       25
280
     0
  0
LAYOUT
  5
81A6
102
{ACAD_XDICTIONARY
360
8543
102
}
102
{ACAD_REACTORS
330
8195
102
}
330
8195
100
AcDbPlotSettings
  1

  2
RICOH imagio MP W3600 RPCS
  4

  6

 40
0.0
 41
0.0
 42
0.0
 43
0.0
 44
0.0
 45
0.0
 46
0.0
 47
0.0
 48
0.0
 49
0.0
140
0.0
141
0.0
142
1.0
143
1.0
 70
  1712
 72
     0
 73
     0
 74
     0
  7

 75
     0
147
1.0
148
0.0
149
0.0
100
AcDbLayout
  1
Model
 70
     1
 71
     0
 10
0.0
 20
0.0
 11
12.0
 21
9.0
 12
0.0
 22
0.0
 32
0.0
 14
0.0
 24
0.0
 34
0.0
 15
0.0
 25
0.0
 35
0.0
146
0.0
 13
0.0
 23
0.0
 33
0.0
 16
1.0
 26
0.0
 36
0.0
 17
0.0
 27
1.0
 37
0.0
 76
     0
330
81A3
331
81A8
  0
LAYOUT
  5
81A2
102
{ACAD_XDICTIONARY
360
8541
102
}
102
{ACAD_REACTORS
330
8195
102
}
330
8195
100
AcDbPlotSettings
  1

  2
RICOH imagio MP W3600 RPCS
  4

  6

 40
0.0
 41
0.0
 42
0.0
 43
0.0
 44
0.0
 45
0.0
 46
0.0
 47
0.0
 48
0.0
 49
0.0
140
0.0
141
0.0
142
1.0
143
1.0
 70
   688
 72
     0
 73
     0
 74
     5
  7

 75
    16
147
1.0
148
0.0
149
0.0
100
AcDbLayout
  1
レイアウト1
 70
     1
 71
     1
 10
0.0
 20
0.0
 11
12.0
 21
9.0
 12
0.0
 22
0.0
 32
0.0
 14
1.000000000000000E+20
 24
1.000000000000000E+20
 34
1.000000000000000E+20
 15
-1.000000000000000E+20
 25
-1.000000000000000E+20
 35
-1.000000000000000E+20
146
0.0
 13
0.0
 23
0.0
 33
0.0
 16
1.0
 26
0.0
 36
0.0
 17
0.0
 27
1.0
 37
0.0
 76
     0
330
819F
  0
MATERIAL
  5
814D
102
{ACAD_XDICTIONARY
360
814E
102
}
102
{ACAD_REACTORS
330
8144
102
}
330
8144
100
AcDbMaterial
  1
ByBlock
 72
     0
 43
0.0208333333333333
 43
0.0
 43
0.0
 43
0.0
 43
0.0
 43
0.0208333333333333
 43
0.0
 43
0.0
 43
0.0
 43
0.0
 43
1.0
 43
0.0
 43
0.0
 43
0.0
 43
0.0
 43
1.0
 77
     0
 47
0.0208333333333333
 47
0.0
 47
0.0
 47
0.0
 47
0.0
 47
0.0208333333333333
 47
0.0
 47
0.0
 47
0.0
 47
0.0
 47
1.0
 47
0.0
 47
0.0
 47
0.0
 47
0.0
 47
1.0
171
     0
 49
0.0208333333333333
 49
0.0
 49
0.0
 49
0.0
 49
0.0
 49
0.0208333333333333
 49
0.0
 49
0.0
 49
0.0
 49
0.0
 49
1.0
 49
0.0
 49
0.0
 49
0.0
 49
0.0
 49
1.0
175
     0
142
0.0208333333333333
142
0.0
142
0.0
142
0.0
142
0.0
142
0.0208333333333333
142
0.0
142
0.0
142
0.0
142
0.0
142
1.0
142
0.0
142
0.0
142
0.0
142
0.0
142
1.0
179
     0
144
0.0208333333333333
144
0.0
144
0.0
144
0.0
144
0.0
144
0.0208333333333333
144
0.0
144
0.0
144
0.0
144
0.0
144
1.0
144
0.0
144
0.0
144
0.0
144
0.0
144
1.0
147
0.0208333333333333
147
0.0
147
0.0
147
0.0
147
0.0
147
0.0208333333333333
147
0.0
147
0.0
147
0.0
147
0.0
147
1.0
147
0.0
147
0.0
147
0.0
147
0.0
147
1.0
  0
MATERIAL
  5
8145
102
{ACAD_XDICTIONARY
360
8146
102
}
102
{ACAD_REACTORS
330
8144
102
}
330
8144
100
AcDbMaterial
  1
ByLayer
 72
     0
 43
0.0208333333333333
 43
0.0
 43
0.0
 43
0.0
 43
0.0
 43
0.0208333333333333
 43
0.0
 43
0.0
 43
0.0
 43
0.0
 43
1.0
 43
0.0
 43
0.0
 43
0.0
 43
0.0
 43
1.0
 77
     0
 47
0.0208333333333333
 47
0.0
 47
0.0
 47
0.0
 47
0.0
 47
0.0208333333333333
 47
0.0
 47
0.0
 47
0.0
 47
0.0
 47
1.0
 47
0.0
 47
0.0
 47
0.0
 47
0.0
 47
1.0
171
     0
 49
0.0208333333333333
 49
0.0
 49
0.0
 49
0.0
 49
0.0
 49
0.0208333333333333
 49
0.0
 49
0.0
 49
0.0
 49
0.0
 49
1.0
 49
0.0
 49
0.0
 49
0.0
 49
0.0
 49
1.0
175
     0
142
0.0208333333333333
142
0.0
142
0.0
142
0.0
142
0.0
142
0.0208333333333333
142
0.0
142
0.0
142
0.0
142
0.0
142
1.0
142
0.0
142
0.0
142
0.0
142
0.0
142
1.0
179
     0
144
0.0208333333333333
144
0.0
144
0.0
144
0.0
144
0.0
144
0.0208333333333333
144
0.0
144
0.0
144
0.0
144
0.0
144
1.0
144
0.0
144
0.0
144
0.0
144
0.0
144
1.0
147
0.0208333333333333
147
0.0
147
0.0
147
0.0
147
0.0
147
0.0208333333333333
147
0.0
147
0.0
147
0.0
147
0.0
147
1.0
147
0.0
147
0.0
147
0.0
147
0.0
147
1.0
  0
MATERIAL
  5
8155
102
{ACAD_XDICTIONARY
360
8156
102
}
102
{ACAD_REACTORS
330
8144
102
}
330
8144
100
AcDbMaterial
  1
Global
 72
     0
 43
0.0208333333333333
 43
0.0
 43
0.0
 43
0.0
 43
0.0
 43
0.0208333333333333
 43
0.0
 43
0.0
 43
0.0
 43
0.0
 43
1.0
 43
0.0
 43
0.0
 43
0.0
 43
0.0
 43
1.0
 77
     0
 47
0.0208333333333333
 47
0.0
 47
0.0
 47
0.0
 47
0.0
 47
0.0208333333333333
 47
0.0
 47
0.0
 47
0.0
 47
0.0
 47
1.0
 47
0.0
 47
0.0
 47
0.0
 47
0.0
 47
1.0
171
     0
 49
0.0208333333333333
 49
0.0
 49
0.0
 49
0.0
 49
0.0
 49
0.0208333333333333
 49
0.0
 49
0.0
 49
0.0
 49
0.0
 49
1.0
 49
0.0
 49
0.0
 49
0.0
 49
0.0
 49
1.0
175
     0
142
0.0208333333333333
142
0.0
142
0.0
142
0.0
142
0.0
142
0.0208333333333333
142
0.0
142
0.0
142
0.0
142
0.0
142
1.0
142
0.0
142
0.0
142
0.0
142
0.0
142
1.0
179
     0
144
0.0208333333333333
144
0.0
144
0.0
144
0.0
144
0.0
144
0.0208333333333333
144
0.0
144
0.0
144
0.0
144
0.0
144
1.0
144
0.0
144
0.0
144
0.0
144
0.0
144
1.0
147
0.0208333333333333
147
0.0
147
0.0
147
0.0
147
0.0
147
0.0208333333333333
147
0.0
147
0.0
147
0.0
147
0.0
147
1.0
147
0.0
147
0.0
147
0.0
147
0.0
147
1.0
  0
MLEADERSTYLE
  5
819A
102
{ACAD_REACTORS
330
8199
102
}
330
8199
100
AcDbMLeaderStyle
170
     2
171
     1
172
     0
 90
        2
 40
0.0
 41
0.0
173
     1
 91
-1056964608
340
818E
 92
       -2
290
     1
 42
0.09
291
     1
 43
0.36
  3
Standard
 44
0.18
300

342
8189
174
     1
178
     6
175
     1
176
     0
 93
-1056964608
 45
0.18
292
     0
297
     0
 46
0.18
 94
-1056964608
 47
1.0
 49
1.0
140
1.0
293
     1
141
0.0
294
     1
177
     0
142
1.0
295
     0
296
     0
143
0.125
1001
ACAD_MLEADERVER
1070
     2
  0
MLINESTYLE
  5
8193
102
{ACAD_REACTORS
330
8192
102
}
330
8192
100
AcDbMlineStyle
  2
STANDARD
 70
     0
  3

 62
   256
 51
90.0
 52
90.0
 71
     2
 49
0.5
 62
   256
  6
BYLAYER
 49
-0.5
 62
   256
  6
BYLAYER
  0
ACDBPLACEHOLDER
  5
8143
102
{ACAD_REACTORS
330
8142
102
}
330
8142
  0
SCALE
  5
8177
102
{ACAD_REACTORS
330
8176
102
}
330
8176
100
AcDbScale
 70
     0
300
1:1
140
1.0
141
1.0
290
     1
  0
SCALE
  5
8178
102
{ACAD_REACTORS
330
8176
102
}
330
8176
100
AcDbScale
 70
     0
300
1/128" = 1'-0"
140
0.0078125
141
12.0
290
     0
  0
SCALE
  5
8179
102
{ACAD_REACTORS
330
8176
102
}
330
8176
100
AcDbScale
 70
     0
300
1/64" = 1'-0"
140
0.015625
141
12.0
290
     0
  0
SCALE
  5
817A
102
{ACAD_REACTORS
330
8176
102
}
330
8176
100
AcDbScale
 70
     0
300
1/32" = 1'-0"
140
0.03125
141
12.0
290
     0
  0
SCALE
  5
817B
102
{ACAD_REACTORS
330
8176
102
}
330
8176
100
AcDbScale
 70
     0
300
1/16" = 1'-0"
140
0.0625
141
12.0
290
     0
  0
SCALE
  5
817C
102
{ACAD_REACTORS
330
8176
102
}
330
8176
100
AcDbScale
 70
     0
300
3/32" = 1'-0"
140
0.09375
141
12.0
290
     0
  0
SCALE
  5
817D
102
{ACAD_REACTORS
330
8176
102
}
330
8176
100
AcDbScale
 70
     0
300
1/8" = 1'-0"
140
0.125
141
12.0
290
     0
  0
SCALE
  5
817E
102
{ACAD_REACTORS
330
8176
102
}
330
8176
100
AcDbScale
 70
     0
300
3/16" = 1'-0"
140
0.1875
141
12.0
290
     0
  0
SCALE
  5
817F
102
{ACAD_REACTORS
330
8176
102
}
330
8176
100
AcDbScale
 70
     0
300
1/4" = 1'-0"
140
0.25
141
12.0
290
     0
  0
SCALE
  5
8180
102
{ACAD_REACTORS
330
8176
102
}
330
8176
100
AcDbScale
 70
     0
300
3/8" = 1'-0"
140
0.375
141
12.0
290
     0
  0
SCALE
  5
8181
102
{ACAD_REACTORS
330
8176
102
}
330
8176
100
AcDbScale
 70
     0
300
1/2" = 1'-0"
140
0.5
141
12.0
290
     0
  0
SCALE
  5
8182
102
{ACAD_REACTORS
330
8176
102
}
330
8176
100
AcDbScale
 70
     0
300
3/4" = 1'-0"
140
0.75
141
12.0
290
     0
  0
SCALE
  5
8183
102
{ACAD_REACTORS
330
8176
102
}
330
8176
100
AcDbScale
 70
     0
300
1" = 1'-0"
140
1.0
141
12.0
290
     0
  0
SCALE
  5
8184
102
{ACAD_REACTORS
330
8176
102
}
330
8176
100
AcDbScale
 70
     0
300
1-1/2" = 1'-0"
140
1.5
141
12.0
290
     0
  0
SCALE
  5
8185
102
{ACAD_REACTORS
330
8176
102
}
330
8176
100
AcDbScale
 70
     0
300
3" = 1'-0"
140
3.0
141
12.0
290
     0
  0
SCALE
  5
8186
102
{ACAD_REACTORS
330
8176
102
}
330
8176
100
AcDbScale
 70
     0
300
6" = 1'-0"
140
6.0
141
12.0
290
     0
  0
SCALE
  5
8187
102
{ACAD_REACTORS
330
8176
102
}
330
8176
100
AcDbScale
 70
     0
300
1'-0" = 1'-0"
140
12.0
141
12.0
290
     0
  0
ACDBSECTIONVIEWSTYLE
  5
819C
102
{ACAD_XDICTIONARY
360
853D
102
}
102
{ACAD_REACTORS
330
819B
102
}
330
819B
100
AcDbModelDocViewStyle
 70
     0
  3
Imperial24
290
     0
100
AcDbSectionViewStyle
 70
     0
 71
     0
 90
       78
 71
     1
340
8189
 40
0.24
340
0
340
0
 40
0.24
300
I, O, Q, S, X, Z
 40
0.48
 90
        3
 40
0.18
 90
        1
 71
     2
340
8190
 90
       25
340
8190
 90
       50
 40
0.24
 40
0.0
 40
0.24
 71
     3
340
8189
 40
0.24
 90
        1
 40
0.75
 90
        1
300
%<\AcVar ViewType \f "%tc1">% %<\AcVar ViewSectionStartId>%-%<\AcVar ViewSectionEndId>%\PSCALE %<\AcVar ViewScale \f "%sn">%
 71
     4
300
ANSI31
 40
1.0
 90
        0
290
     0
290
     0
 90
        6
 40
0.0
 40
1.570796326794896
 40
0.2617993877991494
 40
1.308996938995747
 40
-0.2617993877991494
 40
1.832595714594046
  0
TABLESTYLE
  5
8198
102
{ACAD_XDICTIONARY
360
8504
102
}
102
{ACAD_REACTORS
330
8197
102
}
330
8197
100
AcDbTableStyle
  3
Standard
 70
     0
 71
     0
 40
0.06
 41
0.06
280
     0
281
     0
  7
STANDARD
140
0.18
170
     2
 62
     0
 63
     7
283
     0
274
    -2
284
     1
 64
     0
275
    -2
285
     1
 65
     0
276
    -2
286
     1
 66
     0
277
    -2
287
     1
 67
     0
278
    -2
288
     1
 68
     0
279
    -2
289
     1
 69
     0
  7
STANDARD
140
0.25
170
     5
 62
     0
 63
     7
283
     0
274
    -2
284
     1
 64
     0
275
    -2
285
     1
 65
     0
276
    -2
286
     1
 66
     0
277
    -2
287
     1
 67
     0
278
    -2
288
     1
 68
     0
279
    -2
289
     1
 69
     0
  7
STANDARD
140
0.18
170
     5
 62
     0
 63
     7
283
     0
274
    -2
284
     1
 64
     0
275
    -2
285
     1
 65
     0
276
    -2
286
     1
 66
     0
277
    -2
287
     1
 67
     0
278
    -2
288
     1
 68
     0
279
    -2
289
     1
 69
     0
  0
VISUALSTYLE
  5
8163
102
{ACAD_XDICTIONARY
360
8515
102
}
102
{ACAD_REACTORS
330
815D
102
}
330
815D
100
AcDbVisualStyle
  2
2dWireframe
 70
     4
 71
     0
 72
     2
 73
     0
 90
        0
 40
-0.6
 41
-30.0
 62
     5
 63
     7
 74
     1
 91
        4
 64
     7
 65
   257
 75
     1
175
     1
 42
1.0
 92
        0
 66
   257
 43
1.0
 76
     1
 77
     6
 78
     2
 67
     7
 79
     5
170
     0
171
     0
290
     0
174
     0
 93
        1
 44
0.0
173
     0
291
     0
 45
0.0
1001
ACAD
1000
AcDbSavedByObjectVersion
1070
     0
  0
VISUALSTYLE
  5
8162
102
{ACAD_XDICTIONARY
360
8513
102
}
102
{ACAD_REACTORS
330
815D
102
}
330
815D
100
AcDbVisualStyle
  2
Basic
 70
     7
 71
     1
 72
     0
 73
     1
 90
        0
 40
-0.6
 41
-30.0
 62
     5
 63
     7
 74
     0
 91
        4
 64
     7
 65
   257
 75
     1
175
     1
 42
1.0
 92
        8
 66
     7
 43
1.0
 76
     1
 77
     6
 78
     2
 67
     7
 79
     5
170
     0
171
     0
290
     0
174
     0
 93
        1
 44
0.0
173
     0
291
     1
 45
0.0
1001
ACAD
1000
AcDbSavedByObjectVersion
1070
     0
  0
VISUALSTYLE
  5
8169
102
{ACAD_XDICTIONARY
360
8521
102
}
102
{ACAD_REACTORS
330
815D
102
}
330
815D
100
AcDbVisualStyle
  2
Brighten
 70
    12
 71
     2
 72
     2
 73
     0
 90
        0
 40
-0.6
 41
-30.0
 62
     5
 63
     7
 74
     1
 91
        4
 64
     7
 65
   257
 75
     1
175
     1
 42
1.0
 92
        8
 66
     7
 43
1.0
 76
     1
 77
     6
 78
     2
 67
     7
 79
     5
170
     0
171
     0
290
     0
174
     0
 93
        1
 44
50.0
173
     0
291
     1
 45
0.0
1001
ACAD
1000
AcDbSavedByObjectVersion
1070
     0
  0
VISUALSTYLE
  5
816D
102
{ACAD_XDICTIONARY
360
8529
102
}
102
{ACAD_REACTORS
330
815D
102
}
330
815D
100
AcDbVisualStyle
  2
ColorChange
 70
    16
 71
     2
 72
     2
 73
     3
 90
        0
 40
-0.6
 41
-30.0
 62
     5
 63
     8
 74
     1
 91
        4
 64
     7
 65
   257
 75
     1
175
     1
 42
1.0
 92
        8
 66
     8
 43
1.0
 76
     1
 77
     6
 78
     2
 67
     7
 79
     5
170
     0
171
     0
290
     0
174
     0
 93
        1
 44
0.0
173
     0
291
     1
 45
0.0
1001
ACAD
1000
AcDbSavedByObjectVersion
1070
     0
  0
VISUALSTYLE
  5
8166
102
{ACAD_XDICTIONARY
360
851B
102
}
102
{ACAD_REACTORS
330
815D
102
}
330
815D
100
AcDbVisualStyle
  2
Conceptual
 70
     9
 71
     3
 72
     2
 73
     0
 90
        0
 40
-0.6
 41
-30.0
 62
     5
 63
     7
 74
     2
 91
        2
 64
     7
 65
   257
 75
     1
175
     1
 42
179.0
 92
        8
 66
     7
 43
1.0
 76
     1
 77
     6
 78
     2
 67
     7
 79
     3
170
     0
171
     0
290
     0
174
     0
 93
        1
 44
0.0
173
     0
291
     0
 45
0.0
1001
ACAD
1000
AcDbSavedByObjectVersion
1070
     0
  0
VISUALSTYLE
  5
8168
102
{ACAD_XDICTIONARY
360
851F
102
}
102
{ACAD_REACTORS
330
815D
102
}
330
815D
100
AcDbVisualStyle
  2
Dim
 70
    11
 71
     2
 72
     2
 73
     0
 90
        0
 40
-0.6
 41
-30.0
 62
     5
 63
     7
 74
     1
 91
        4
 64
     7
 65
   257
 75
     1
175
     1
 42
1.0
 92
        8
 66
     7
 43
1.0
 76
     1
 77
     6
 78
     2
 67
     7
 79
     5
170
     0
171
     0
290
     0
174
     0
 93
        1
 44
-50.0
173
     0
291
     1
 45
0.0
1001
ACAD
1000
AcDbSavedByObjectVersion
1070
     0
  0
VISUALSTYLE
  5
8175
102
{ACAD_XDICTIONARY
360
8539
102
}
102
{ACAD_REACTORS
330
815D
102
}
330
815D
100
AcDbVisualStyle
  2
EdgeColorOff
 70
    22
 71
     2
 72
     2
 73
     0
 90
        0
 40
-0.6
 41
-30.0
 62
     5
 63
     7
 74
     1
 91
        4
 64
     7
 65
   257
 75
     1
175
     1
 42
1.0
 92
        8
 66
     7
 43
1.0
 76
     1
 77
     6
 78
     2
 67
     7
 79
     5
170
     0
171
     0
290
     0
174
     0
 93
        1
 44
0.0
173
     0
291
     1
 45
0.0
1001
ACAD
1000
AcDbSavedByObjectVersion
1070
     0
  0
VISUALSTYLE
  5
816C
102
{ACAD_XDICTIONARY
360
8527
102
}
102
{ACAD_REACTORS
330
815D
102
}
330
815D
100
AcDbVisualStyle
  2
Facepattern
 70
    15
 71
     2
 72
     2
 73
     0
 90
        0
 40
-0.6
 41
-30.0
 62
     5
 63
     7
 74
     1
 91
        4
 64
     7
 65
   257
 75
     1
175
     1
 42
1.0
 92
        8
 66
     7
 43
1.0
 76
     1
 77
     6
 78
     2
 67
     7
 79
     5
170
     0
171
     0
290
     0
174
     0
 93
        1
 44
0.0
173
     0
291
     1
 45
0.0
1001
ACAD
1000
AcDbSavedByObjectVersion
1070
     0
  0
VISUALSTYLE
  5
815E
102
{ACAD_XDICTIONARY
360
850B
102
}
102
{ACAD_REACTORS
330
815D
102
}
330
815D
100
AcDbVisualStyle
  2
Flat
 70
     0
 71
     2
 72
     1
 73
     1
 90
        2
 40
-0.6
 41
30.0
 62
     5
 63
     7
 74
     0
 91
        0
 64
     7
 65
   257
 75
     1
175
     1
 42
1.0
 92
        8
 66
     7
 43
1.0
 76
     1
 77
     6
 78
     2
 67
     7
 79
     5
170
     0
171
     0
290
     0
174
     0
 93
       13
 44
0.0
173
     0
291
     1
 45
0.0
1001
ACAD
1000
AcDbSavedByObjectVersion
1070
     0
  0
VISUALSTYLE
  5
815F
102
{ACAD_XDICTIONARY
360
850D
102
}
102
{ACAD_REACTORS
330
815D
102
}
330
815D
100
AcDbVisualStyle
  2
FlatWithEdges
 70
     1
 71
     2
 72
     1
 73
     1
 90
        2
 40
-0.6
 41
30.0
 62
     5
 63
     7
 74
     1
 91
        0
 64
     7
 65
   257
 75
     1
175
     1
 42
1.0
 92
        0
 66
   257
 43
1.0
 76
     1
 77
     6
 78
     2
 67
     7
 79
     5
170
     0
171
     0
290
     0
174
     0
 93
       13
 44
0.0
173
     0
291
     1
 45
0.0
1001
ACAD
1000
AcDbSavedByObjectVersion
1070
     0
  0
VISUALSTYLE
  5
8160
102
{ACAD_XDICTIONARY
360
850F
102
}
102
{ACAD_REACTORS
330
815D
102
}
330
815D
100
AcDbVisualStyle
  2
Gouraud
 70
     2
 71
     2
 72
     2
 73
     1
 90
        2
 40
-0.6
 41
30.0
 62
     5
 63
     7
 74
     0
 91
        0
 64
     7
 65
   257
 75
     1
175
     1
 42
1.0
 92
        0
 66
     7
 43
1.0
 76
     1
 77
     6
 78
     2
 67
     7
 79
     5
170
     0
171
     0
290
     0
174
     0
 93
       13
 44
0.0
173
     0
291
     1
 45
0.0
1001
ACAD
1000
AcDbSavedByObjectVersion
1070
     0
  0
VISUALSTYLE
  5
8161
102
{ACAD_XDICTIONARY
360
8511
102
}
102
{ACAD_REACTORS
330
815D
102
}
330
815D
100
AcDbVisualStyle
  2
GouraudWithEdges
 70
     3
 71
     2
 72
     2
 73
     1
 90
        2
 40
-0.6
 41
30.0
 62
     5
 63
     7
 74
     1
 91
        0
 64
     7
 65
   257
 75
     1
175
     1
 42
1.0
 92
        0
 66
   257
 43
1.0
 76
     1
 77
     6
 78
     2
 67
     7
 79
     5
170
     0
171
     0
290
     0
174
     0
 93
       13
 44
0.0
173
     0
291
     1
 45
0.0
1001
ACAD
1000
AcDbSavedByObjectVersion
1070
     0
  0
VISUALSTYLE
  5
8165
102
{ACAD_XDICTIONARY
360
8519
102
}
102
{ACAD_REACTORS
330
815D
102
}
330
815D
100
AcDbVisualStyle
  2
Hidden
 70
     6
 71
     1
 72
     2
 73
     2
 90
        0
 40
-0.6
 41
-30.0
 62
     5
 63
     7
 74
     2
 91
        2
 64
     7
 65
   257
 75
     2
175
     1
 42
40.0
 92
        0
 66
   257
 43
1.0
 76
     1
 77
     6
 78
     2
 67
     7
 79
     3
170
     0
171
     0
290
     0
174
     0
 93
        1
 44
0.0
173
     0
291
     0
 45
0.0
1001
ACAD
1000
AcDbSavedByObjectVersion
1070
     0
  0
VISUALSTYLE
  5
8173
102
{ACAD_XDICTIONARY
360
8535
102
}
102
{ACAD_REACTORS
330
815D
102
}
330
815D
100
AcDbVisualStyle
  2
JitterOff
 70
    20
 71
     2
 72
     2
 73
     0
 90
        0
 40
-0.6
 41
-30.0
 62
     5
 63
     7
 74
     1
 91
        4
 64
     7
 65
   257
 75
     1
175
     1
 42
1.0
 92
       10
 66
     7
 43
1.0
 76
     1
 77
     6
 78
     2
 67
     7
 79
     5
170
     0
171
     0
290
     0
174
     0
 93
        1
 44
0.0
173
     0
291
     1
 45
0.0
1001
ACAD
1000
AcDbSavedByObjectVersion
1070
     0
  0
VISUALSTYLE
  5
816B
102
{ACAD_XDICTIONARY
360
8525
102
}
102
{ACAD_REACTORS
330
815D
102
}
330
815D
100
AcDbVisualStyle
  2
Linepattern
 70
    14
 71
     2
 72
     2
 73
     0
 90
        0
 40
-0.6
 41
-30.0
 62
     5
 63
     7
 74
     1
 91
        4
 64
     7
 65
   257
 75
     7
175
     7
 42
1.0
 92
        8
 66
     7
 43
1.0
 76
     1
 77
     6
 78
     2
 67
     7
 79
     5
170
     0
171
     0
290
     0
174
     0
 93
        1
 44
0.0
173
     0
291
     1
 45
0.0
1001
ACAD
1000
AcDbSavedByObjectVersion
1070
     0
  0
VISUALSTYLE
  5
8174
102
{ACAD_XDICTIONARY
360
8537
102
}
102
{ACAD_REACTORS
330
815D
102
}
330
815D
100
AcDbVisualStyle
  2
OverhangOff
 70
    21
 71
     2
 72
     2
 73
     0
 90
        0
 40
-0.6
 41
-30.0
 62
     5
 63
     7
 74
     1
 91
        4
 64
     7
 65
   257
 75
     1
175
     1
 42
1.0
 92
        9
 66
     7
 43
1.0
 76
     1
 77
     6
 78
     2
 67
     7
 79
     5
170
     0
171
     0
290
     0
174
     0
 93
        1
 44
0.0
173
     0
291
     1
 45
0.0
1001
ACAD
1000
AcDbSavedByObjectVersion
1070
     0
  0
VISUALSTYLE
  5
8167
102
{ACAD_XDICTIONARY
360
851D
102
}
102
{ACAD_REACTORS
330
815D
102
}
330
815D
100
AcDbVisualStyle
  2
Realistic
 70
     8
 71
     2
 72
     3
 73
     0
 90
        2
 40
-0.6
 41
30.0
 62
     5
 63
     7
 74
     0
 91
        0
 64
     7
 65
   257
 75
     1
175
     1
 42
1.0
 92
        8
 66
   257
 43
1.0
 76
     1
 77
     6
 78
     2
 67
     7
 79
     3
170
     0
171
     0
290
     0
174
     0
 93
       13
 44
0.0
173
     0
291
     0
 45
0.0
1001
ACAD
1000
AcDbSavedByObjectVersion
1070
     0
  0
VISUALSTYLE
  5
8172
102
{ACAD_XDICTIONARY
360
8533
102
}
102
{ACAD_REACTORS
330
815D
102
}
330
815D
100
AcDbVisualStyle
  2
Shaded
 70
    27
 71
     2
 72
     2
 73
     1
 90
        2
 40
-0.6
 41
30.0
 62
     5
 63
     7
 74
     0
 91
        4
 64
     7
 65
   257
 75
     1
175
     1
 42
1.0
 92
        8
 66
   257
 43
1.0
 76
     1
 77
     6
 78
     2
 67
     8
 79
     3
170
     0
171
     0
290
     0
174
     0
 93
        5
 44
0.0
173
     0
291
     0
 45
0.0
1001
ACAD
1000
AcDbSavedByObjectVersion
1070
     0
  0
VISUALSTYLE
  5
8171
102
{ACAD_XDICTIONARY
360
8531
102
}
102
{ACAD_REACTORS
330
815D
102
}
330
815D
100
AcDbVisualStyle
  2
Shaded with edges
 70
    26
 71
     2
 72
     2
 73
     1
 90
        2
 40
-0.6
 41
30.0
 62
     5
 63
     7
 74
     1
 91
       10
 64
     7
 65
   257
 75
     2
175
     1
 42
1.0
 92
        8
 66
   257
 43
1.0
 76
     1
 77
     6
 78
     2
 67
     7
 79
     3
170
     0
171
     0
290
     0
174
     0
 93
        5
 44
0.0
173
     0
291
     0
 45
0.0
1001
ACAD
1000
AcDbSavedByObjectVersion
1070
     0
  0
VISUALSTYLE
  5
816E
102
{ACAD_XDICTIONARY
360
852B
102
}
102
{ACAD_REACTORS
330
815D
102
}
330
815D
100
AcDbVisualStyle
  2
Shades of Gray
 70
    23
 71
     2
 72
     2
 73
     3
 90
        0
 40
-0.6
 41
-30.0
 62
     5
 63
     7
 74
     2
 91
        2
 64
     7
 65
     7
 75
     1
175
     1
 42
40.0
 92
        8
 66
     7
 43
1.0
 76
     1
 77
     6
 78
     2
 67
     7
 79
     3
170
     0
171
     0
290
     0
174
     0
 93
        1
 44
0.0
173
     0
291
     0
 45
0.0
1001
ACAD
1000
AcDbSavedByObjectVersion
1070
     0
  0
VISUALSTYLE
  5
816F
102
{ACAD_XDICTIONARY
360
852D
102
}
102
{ACAD_REACTORS
330
815D
102
}
330
815D
100
AcDbVisualStyle
  2
Sketchy
 70
    24
 71
     1
 72
     2
 73
     2
 90
        0
 40
-0.6
 41
-30.0
 62
     5
 63
     7
 74
     2
 91
        2
 64
     7
 65
     7
 75
     1
175
     1
 42
40.0
 92
       11
 66
     7
 43
1.0
 76
     1
 77
     6
 78
     2
 67
     7
 79
     6
170
     0
171
     0
290
     0
174
     0
 93
        1
 44
0.0
173
     0
291
     0
 45
0.0
1001
ACAD
1000
AcDbSavedByObjectVersion
1070
     0
  0
VISUALSTYLE
  5
816A
102
{ACAD_XDICTIONARY
360
8523
102
}
102
{ACAD_REACTORS
330
815D
102
}
330
815D
100
AcDbVisualStyle
  2
Thicken
 70
    13
 71
     2
 72
     2
 73
     0
 90
        0
 40
-0.6
 41
-30.0
 62
     5
 63
     7
 74
     1
 91
        4
 64
     7
 65
   257
 75
     1
175
     1
 42
1.0
 92
       12
 66
     7
 43
1.0
 76
     1
 77
     6
 78
     2
 67
     7
 79
     5
170
     0
171
     0
290
     0
174
     0
 93
        1
 44
0.0
173
     0
291
     1
 45
0.0
1001
ACAD
1000
AcDbSavedByObjectVersion
1070
     0
  0
VISUALSTYLE
  5
8164
102
{ACAD_XDICTIONARY
360
8517
102
}
102
{ACAD_REACTORS
330
815D
102
}
330
815D
100
AcDbVisualStyle
  2
Wireframe
 70
     5
 71
     0
 72
     2
 73
     0
 90
        0
 40
-0.6
 41
-30.0
 62
     5
 63
     7
 74
     1
 91
        4
 64
     7
 65
   257
 75
     1
175
     1
 42
1.0
 92
        0
 66
   257
 43
1.0
 76
     1
 77
     6
 78
     2
 67
     7
 79
     3
170
     0
171
     0
290
     0
174
     0
 93
        1
 44
0.0
173
     0
291
     0
 45
0.0
1001
ACAD
1000
AcDbSavedByObjectVersion
1070
     0
  0
VISUALSTYLE
  5
8170
102
{ACAD_XDICTIONARY
360
852F
102
}
102
{ACAD_REACTORS
330
815D
102
}
330
815D
100
AcDbVisualStyle
  2
X-Ray
 70
    25
 71
     2
 72
     2
 73
     1
 90
        1
 40
0.5
 41
-30.0
 62
     5
 63
     7
 74
     1
 91
        0
 64
     7
 65
   257
 75
     1
175
     1
 42
1.0
 92
        8
 66
     7
 43
1.0
 76
     1
 77
     6
 78
     2
 67
     7
 79
     3
170
     0
171
     0
290
     0
174
     0
 93
       13
 44
0.0
173
     0
291
     0
 45
0.0
1001
ACAD
1000
AcDbSavedByObjectVersion
1070
     0
  0
DICTIONARYVAR
  5
84B5
102
{ACAD_REACTORS
330
84B0
102
}
330
84B0
100
DictionaryVariables
280
     0
  1
1:1
  0
DICTIONARYVAR
  5
84B2
102
{ACAD_REACTORS
330
84B0
102
}
330
84B0
100
DictionaryVariables
280
     0
  1
STANDARD
  0
DICTIONARYVAR
  5
84B1
102
{ACAD_REACTORS
330
84B0
102
}
330
84B0
100
DictionaryVariables
280
     0
  1
STANDARD
  0
DICTIONARYVAR
  5
84B3
102
{ACAD_REACTORS
330
84B0
102
}
330
84B0
100
DictionaryVariables
280
     0
  1
Imperial24
  0
DICTIONARYVAR
  5
84B4
102
{ACAD_REACTORS
330
84B0
102
}
330
84B0
100
DictionaryVariables
280
     0
  1
Imperial24
  0
DICTIONARYVAR
  5
84B8
102
{ACAD_REACTORS
330
84B0
102
}
330
84B0
100
DictionaryVariables
280
     0
  1
1
  0
DICTIONARYVAR
  5
84B7
102
{ACAD_REACTORS
330
84B0
102
}
330
84B0
100
DictionaryVariables
280
     0
  1
0
  0
DICTIONARYVAR
  5
84B6
102
{ACAD_REACTORS
330
84B0
102
}
330
84B0
100
DictionaryVariables
280
     0
  1
127
  0
DICTIONARYVAR
  5
84B9
102
{ACAD_REACTORS
330
84B0
102
}
330
84B0
100
DictionaryVariables
280
     0
  1
2
  0
DICTIONARY
  5
853F
330
819E
100
AcDbDictionary
280
     1
281
     1
  3
ACAD_XREC_ROUNDTRIP
360
8540
  0
DICTIONARY
  5
8543
330
81A6
100
AcDbDictionary
280
     1
281
     1
  3
ACAD_XREC_ROUNDTRIP
360
8544
  0
DICTIONARY
  5
8541
330
81A2
100
AcDbDictionary
280
     1
281
     1
  3
ACAD_XREC_ROUNDTRIP
360
8542
  0
DICTIONARY
  5
814E
330
814D
100
AcDbDictionary
280
     1
281
     1
  3
ACAD_XREC_ROUNDTRIP
360
8509
  3
BUMPTILE
360
8150
  3
DIFFUSETILE
360
814F
  3
OPACITYTILE
360
8153
  3
REFLECTIONTILE
360
8152
  3
REFRACTIONTILE
360
8154
  3
SPECULARTILE
360
8151
  0
DICTIONARY
  5
8146
330
8145
100
AcDbDictionary
280
     1
281
     1
  3
ACAD_XREC_ROUNDTRIP
360
8508
  3
BUMPTILE
360
8148
  3
DIFFUSETILE
360
8147
  3
OPACITYTILE
360
814B
  3
REFLECTIONTILE
360
814A
  3
REFRACTIONTILE
360
814C
  3
SPECULARTILE
360
8149
  0
DICTIONARY
  5
8156
330
8155
100
AcDbDictionary
280
     1
281
     1
  3
ACAD_XREC_ROUNDTRIP
360
850A
  3
BUMPTILE
360
8158
  3
DIFFUSETILE
360
8157
  3
FBXASSET
360
8264
  3
OPACITYTILE
360
815B
  3
REFLECTIONTILE
360
815A
  3
REFRACTIONTILE
360
815C
  3
SPECULARTILE
360
8159
  0
DICTIONARY
  5
853D
330
819C
100
AcDbDictionary
280
     1
281
     1
  3
ACAD_XREC_ROUNDTRIP
360
853E
  0
DICTIONARY
  5
8504
330
8198
100
AcDbDictionary
280
     1
281
     1
  3
ACAD_ROUNDTRIP_2008_TABLESTYLE_CELLSTYLEMAP
360
8505
  3
ACAD_XREC_ROUNDTRIP
360
853B
  0
DICTIONARY
  5
8515
330
8163
100
AcDbDictionary
280
     1
281
     1
  3
ACAD_XREC_ROUNDTRIP
360
8516
  0
DICTIONARY
  5
8513
330
8162
100
AcDbDictionary
280
     1
281
     1
  3
ACAD_XREC_ROUNDTRIP
360
8514
  0
DICTIONARY
  5
8521
330
8169
100
AcDbDictionary
280
     1
281
     1
  3
ACAD_XREC_ROUNDTRIP
360
8522
  0
DICTIONARY
  5
8529
330
816D
100
AcDbDictionary
280
     1
281
     1
  3
ACAD_XREC_ROUNDTRIP
360
852A
  0
DICTIONARY
  5
851B
330
8166
100
AcDbDictionary
280
     1
281
     1
  3
ACAD_XREC_ROUNDTRIP
360
851C
  0
DICTIONARY
  5
851F
330
8168
100
AcDbDictionary
280
     1
281
     1
  3
ACAD_XREC_ROUNDTRIP
360
8520
  0
DICTIONARY
  5
8539
330
8175
100
AcDbDictionary
280
     1
281
     1
  3
ACAD_XREC_ROUNDTRIP
360
853A
  0
DICTIONARY
  5
8527
330
816C
100
AcDbDictionary
280
     1
281
     1
  3
ACAD_XREC_ROUNDTRIP
360
8528
  0
DICTIONARY
  5
850B
330
815E
100
AcDbDictionary
280
     1
281
     1
  3
ACAD_XREC_ROUNDTRIP
360
850C
  0
DICTIONARY
  5
850D
330
815F
100
AcDbDictionary
280
     1
281
     1
  3
ACAD_XREC_ROUNDTRIP
360
850E
  0
DICTIONARY
  5
850F
330
8160
100
AcDbDictionary
280
     1
281
     1
  3
ACAD_XREC_ROUNDTRIP
360
8510
  0
DICTIONARY
  5
8511
330
8161
100
AcDbDictionary
280
     1
281
     1
  3
ACAD_XREC_ROUNDTRIP
360
8512
  0
DICTIONARY
  5
8519
330
8165
100
AcDbDictionary
280
     1
281
     1
  3
ACAD_XREC_ROUNDTRIP
360
851A
  0
DICTIONARY
  5
8535
330
8173
100
AcDbDictionary
280
     1
281
     1
  3
ACAD_XREC_ROUNDTRIP
360
8536
  0
DICTIONARY
  5
8525
330
816B
100
AcDbDictionary
280
     1
281
     1
  3
ACAD_XREC_ROUNDTRIP
360
8526
  0
DICTIONARY
  5
8537
330
8174
100
AcDbDictionary
280
     1
281
     1
  3
ACAD_XREC_ROUNDTRIP
360
8538
  0
DICTIONARY
  5
851D
330
8167
100
AcDbDictionary
280
     1
281
     1
  3
ACAD_XREC_ROUNDTRIP
360
851E
  0
DICTIONARY
  5
8533
330
8172
100
AcDbDictionary
280
     1
281
     1
  3
ACAD_XREC_ROUNDTRIP
360
8534
  0
DICTIONARY
  5
8531
330
8171
100
AcDbDictionary
280
     1
281
     1
  3
ACAD_XREC_ROUNDTRIP
360
8532
  0
DICTIONARY
  5
852B
330
816E
100
AcDbDictionary
280
     1
281
     1
  3
ACAD_XREC_ROUNDTRIP
360
852C
  0
DICTIONARY
  5
852D
330
816F
100
AcDbDictionary
280
     1
281
     1
  3
ACAD_XREC_ROUNDTRIP
360
852E
  0
DICTIONARY
  5
8523
330
816A
100
AcDbDictionary
280
     1
281
     1
  3
ACAD_XREC_ROUNDTRIP
360
8524
  0
DICTIONARY
  5
8517
330
8164
100
AcDbDictionary
280
     1
281
     1
  3
ACAD_XREC_ROUNDTRIP
360
8518
  0
DICTIONARY
  5
852F
330
8170
100
AcDbDictionary
280
     1
281
     1
  3
ACAD_XREC_ROUNDTRIP
360
8530
  0
XRECORD
  5
8540
102
{ACAD_REACTORS
330
853F
102
}
330
853F
100
AcDbXrecord
280
     1
102
DISPLAYNAME
  1
Imperial24
102
FLAGS
 90
        0
  0
XRECORD
  5
8544
102
{ACAD_REACTORS
330
8543
102
}
330
8543
100
AcDbXrecord
280
     1
102
SHADEPLOT
 70
     0
102
SHADEPLOTRESLEVEL
 70
     2
102
SHADEPLOTCUSTOMDPI
 70
   300
  0
XRECORD
  5
8542
102
{ACAD_REACTORS
330
8541
102
}
330
8541
100
AcDbXrecord
280
     1
102
SHADEPLOT
 70
     0
102
SHADEPLOTRESLEVEL
 70
     2
102
SHADEPLOTCUSTOMDPI
 70
   300
  0
XRECORD
  5
8509
102
{ACAD_REACTORS
330
814E
102
}
330
814E
100
AcDbXrecord
280
     1
102
MATERIAL
148
0.0
149
0.0
149
0.0
 93
        0
 94
      127
282
     0
 72
     0
 77
     0
171
     0
175
     0
179
     0
273
     0
  0
XRECORD
  5
8150
102
{ACAD_REACTORS
330
814E
102
}
330
814E
100
AcDbXrecord
280
     1
270
     1
271
     1
  0
XRECORD
  5
814F
102
{ACAD_REACTORS
330
814E
102
}
330
814E
100
AcDbXrecord
280
     1
270
     1
271
     1
  0
XRECORD
  5
8153
102
{ACAD_REACTORS
330
814E
102
}
330
814E
100
AcDbXrecord
280
     1
270
     1
271
     1
  0
XRECORD
  5
8152
102
{ACAD_REACTORS
330
814E
102
}
330
814E
100
AcDbXrecord
280
     1
270
     1
271
     1
  0
XRECORD
  5
8154
102
{ACAD_REACTORS
330
814E
102
}
330
814E
100
AcDbXrecord
280
     1
270
     1
271
     1
  0
XRECORD
  5
8151
102
{ACAD_REACTORS
330
814E
102
}
330
814E
100
AcDbXrecord
280
     1
270
     1
271
     1
  0
XRECORD
  5
8508
102
{ACAD_REACTORS
330
8146
102
}
330
8146
100
AcDbXrecord
280
     1
102
MATERIAL
148
0.0
149
0.0
149
0.0
 93
        0
 94
      127
282
     0
 72
     0
 77
     0
171
     0
175
     0
179
     0
273
     0
  0
XRECORD
  5
8148
102
{ACAD_REACTORS
330
8146
102
}
330
8146
100
AcDbXrecord
280
     1
270
     1
271
     1
  0
XRECORD
  5
8147
102
{ACAD_REACTORS
330
8146
102
}
330
8146
100
AcDbXrecord
280
     1
270
     1
271
     1
  0
XRECORD
  5
814B
102
{ACAD_REACTORS
330
8146
102
}
330
8146
100
AcDbXrecord
280
     1
270
     1
271
     1
  0
XRECORD
  5
814A
102
{ACAD_REACTORS
330
8146
102
}
330
8146
100
AcDbXrecord
280
     1
270
     1
271
     1
  0
XRECORD
  5
814C
102
{ACAD_REACTORS
330
8146
102
}
330
8146
100
AcDbXrecord
280
     1
270
     1
271
     1
  0
XRECORD
  5
8149
102
{ACAD_REACTORS
330
8146
102
}
330
8146
100
AcDbXrecord
280
     1
270
     1
271
     1
  0
XRECORD
  5
850A
102
{ACAD_REACTORS
330
8156
102
}
330
8156
100
AcDbXrecord
280
     1
102
MATERIAL
148
0.0
149
0.0
149
0.0
 93
        0
 94
      127
282
     0
 72
     0
 77
     0
171
     0
175
     0
179
     0
273
     0
  0
XRECORD
  5
8158
102
{ACAD_REACTORS
330
8156
102
}
330
8156
100
AcDbXrecord
280
     1
270
     1
271
     1
  0
XRECORD
  5
8157
102
{ACAD_REACTORS
330
8156
102
}
330
8156
100
AcDbXrecord
280
     1
270
     1
271
     1
  0
XRECORD
  5
8264
102
{ACAD_REACTORS
330
8156
102
}
330
8156
100
AcDbXrecord
280
     1
 70
     1
 90
1959938040
 71
     1
  1
BBB3CA42-C650-40C6-B7C0-A7B2F665CF9F
311
504B0304140006080800EA826E5778CF7C3BBF000000200100004F00000045354631383745452D464243462D344331322D393745382D4345343243354642424632302F4173736574446174612F446566696E6974696F6E4974657261746F7250726F706572746965732E62696EEB606060F80F0540260323103700495E20ED
311
9E9A975A94991C9C9C919A9BC8C00612C9C94F4ACC6147C831019920AE4B6A5A62694E0948976F6671726A4E4E625E6A7E69B12042A9426E6209D0B8C41C3D90264E20860914834C48875806B2DF0F88414E02D189290556F689C5C5A925B6FA694915FA4EAEE666AECEC696BAC62E4E96BA26E6962EBA4EE64666BA06162E
311
2E4EAE26CE9646E64EFA45A9C5F9A545C9A9C5FA46FA06F15093E30BF2D2191856F0AD53B80EB404E40610260400504B0304140006080800EA826E57A3738B2816010000300200004500000045354631383745452D464243462D344331322D393745382D4345343243354642424632302F4173736574446174612F496E7374
311
616E636550726F706572746965732E62696EEB606060F80F0540260323103700495E20ED9E9A975A94991C9C9C919A9BA802147072723276763431D275363335D035317036D375327736D075347732723333337576B374634768046931363471713532B5D435353131D635313332D475727372D1353437066A7776B67474B5
311
042A03DBCBA019D37FE8ABC6157B20CD04146B0062181F4C03F940F0C11EA29A8141C08141002C0426541C106CAC2CA046088033B02A030AC2157C6006F21A8018AAF50194E6010A610250382264E08660284CD9E98021862280A91564B406929A0FF62C401E28B6F88038B83CB1243943D7A928312F2535052493F08DF1E2
311
35A074C82708EDF10E42DBBC82D006CF20B4CA23082D710F42F3DC82D00CD720F4978B10FAC559080D00504B0304140006080800EA826E5728BB58AF800100009E0500003D00000045354631383745452D464243462D344331322D393745382D4345343243354642424632302F536368656D61732F436F6D6D6F6E53636865
311
6D612E786D6CBD544D4FC23018BEFB2B96DE15493C78601010A34B880709DEDFB52FD0D8B54BD70DF6EFED3AC0B12E6442E2716BFB3CEFF3D18E26FB440405EA8C2B1992E1C323095052C5B8DC842437EBFB673219DF8DA659866649B798C078B48AE6410122242F2A4994AC7F93815DF85C049C8564CA0A901499DD886B2E
311
B9B1E02448F358701A9235880C49A0119892A20C89D1B9FD768815CAD268CB5E0355B40B1E47F3E37A2020464BED06AA57CE8FCC20C3C3446D46761A2632A8C1283D07031EFF2AE7CCB1BFEEE916E406DFAC8E36FFD99A9D60A6944090EEDC3B670C7DC13DE86B6B2C5C240D6E503BB85ACD579D513F1B9F9A69DC9CC22AFA
311
80C426D40AF0B21EA168559156B6276F0F726A6BFF04DCD513A87A62CAD41FB24FCB2858B3952E3D852084DA25B9303C15687973CC8E8AAE11DF2836C38C6A9E765E8C1BA1BFB1DC29CDFE518C8B5A7655A4ED7E77291ABEB80DBD82EC866ADE1B8D05AF9E35CF09D7A061F38A986D9EC412B8F0F65E5D81534D9B231D1E5A
311
8FE577A241F3A5FD01504B0304140006080800EA826E572CCEBD668A040000E01200003E00000045354631383745452D464243462D344331322D393745382D4345343243354642424632302F536368656D61732F47656E65726963536368656D612E786D6CD5586D6FDB380CFE7EBF42F0F7A649B70E1B90744856B4970F45
311
0FCD7A5F05459613EDE4174872DADCAF3F522F8ED3B88D2F1D06AC4050DBA2493EE4438AF2F8EB73AEC8466823CB62928C06C384888297A92C5693A4B6D9D9E7E4EBD51FE3A931C22EF85AE4EC6AFC38BF261BA626C9AD288496DC3F4FCEAFC63366845F7A10452AF41DB320C0D44EC26EAB20918735565582695670811A6A
311
49643A49A6E9069FA4604A64B29016DC4B48552F95E4932463CA888468C1D2B250DB4962750DF7CE273069CE8363F1FF4EDB00E0A21999574AE4A2B00C353B93F3BD4777B8A61ED8F604ABFEDD79CE56A2B7BDFBDBC50996E0ADDE16FED26223C5D30956C29BDF4A55EA686E5E58B112DA45CE67F76F4FA27EFA3FB672FD73
311
72FC388FAECDCA5209E693CAD167BADCD272F943701B3812F8A3D852008B1D2E32DB927B2F833C6EA95879925356D254582695095A3CE982924720BE5774A3CB9CDCDB350427D2DF20DA1B5532EBE2D5D6288D75D4F7E4FD9890A0EF8E3D93EBB8F8BA4758158EF6FB90A6F9520281C93DE7AAC6D24607DA296BB96018123F
311
821A7D6A5C5884050C475DA4865442732C8B95684A50165CBB3A32F25F783A4A480ED59AD7F924B968AEA50131F46303223E6A397B0E52976030DC1DCA81D7E7C1EDEEA42C19FF27635C505E2BD5198A599020DF50A2330FCB3AAF28CB0124108429553EF1B228802E2265D8F7CC2401042B155BCC7070F1E5C55F13B4A957
311
7362CCCE46C32174E010C3C378C44841A4BDA00FE3A12006CE11EE6AEC59894D3526DDE1CD59D503ECC324017F8061B7F162162FA62EDD81AE3308617770796DCBDAD2B2625C5AE8A63DE20B2C8AA5E95E76E5730823955956E33E705425A2187C185D36489A1B44D3DCEC2172F6BA2105C3546287A7194B2331768EBBE64F
311
6E70A9930ABE0ADEA89E9E2C38523B810287AD67A54A039C1606EAFE68F8304610BB9093DBDDABC0B2AE4E290DCDA15376D7E39F72B556F0B32EAB5D3D498B4C41ABADEC3A1434C422D87E8025A84BDCB2B1417ED750FAE4DA8976863974C577C7F902D3F156AD354DEA3540DE6BEAE2BEA52F7A2EB4CA43802ECE5BF2CE2E
311
DC9347179FFB023CE412E60BE16DA0BE29B374988A553F561DC04615DD35F7D2C8979F60E5955CE93DF29DED8AFA1EE6642D53418086C03C47C377910F75F7E8F5EF665F70B60FFB22AEDF897D119E8423C773E819A3C1E55E550599EE6EDCA34D0C86FD72057DF2CD46F16A470682471C164E4346D5306BF12D7D12D82CFF
311
673D41636C347443FEB51B50D72EA171A8E4A58623A4A16E0FA2B8B10A0D23268D87C33896EE8FB73305A74BF224EDBADFA0BD674AB354D63DB7BD5D83426761C077DE767728235446A552754EB93B755891C3C4CC6CADE37CF0E912A7BB38DBA010F9DE1282EDF470CA69A9CDA482E334C4A6EA4107987980B17E72F31730
311
EBF88BBD39E7C629F56797A3C0009C2C5AE7951D9A05A02773440F02EEB4DE396A3B6A570C72CCFBCD823B0B8ED3F1D5CEDDFED772FA70236C83FB7D86C385D570B87107535572A60A96035F8F7C6A7192F13007246BBE0521855E6AC46F3E27689CEE7D186A6FD679D98CDCAD13333E04EBE7ED6F55FF01504B0304140006
311
080800EA826E576180134D5F0100006B0300004500000045354631383745452D464243462D344331322D393745382D4345343243354642424632302F536368656D61732F52656E6465724D6174657269616C536368656D612E786D6CA5934D6FC2300C86EFFB1551EEE343DBA41D1A103009551ADAD40EAE28A4A68D942628
311
4961FCFBE5A340113B2071746D3F765EBF4DC6BFB5407BD0862B49F0B037C0082453059725C18DDD3EBFE3F1E829991803366715D474942CD30FB4A782E00C64017A412D684E454CE3FE28995203B162A6EA5AC94B66997D225E109CD63B0135484BAD1B3C07E9080CA35DB3119C11BCA5C200461A68A1A438126C75E3E230
311
D40FF81FB3F03C91D1E3A3A0AF79FE28E25BC39EC3E17E4C2A2D94A0833A51AF55BCCA7D88572FCBAC529C4140B020FC3AAFA886621DCED7EAD7664CC86024E806DC297DA1BB393E4156543457A4537DB8817349A70F8ACBF09B3EEE2CB2F33E91B65D60786E4E3B39B77E3FEEEF5650424525DA657FB8B46BE6BF064646F0
311
A0F7327C0BC1BC1B4CBBC1C419FA3CCB23500007872A2580CAAE5461865565294E4EDB4617B62FF579DF9A5B2F54E834076A597573A020912FED777F9B3F504B0304140006080800EA826E576A686B6B51000000570000004700000045354631383745452D464243462D344331322D393745382D4345343243354642424632
311
302F4173736574446174612F41737365745461626C654F66436F6E74656E74732E62696E536160607072723276763431D275363335D035317036D375327736D075347732723333337576B3741302AACB4D2C492DCA4CCC492C28484D2C4ACC4B4E050A82012F90744FCD03CA26072767A4E6260200504B0304140006080800
311
EA826E57F865834058000000680000004500000045354631383745452D464243462D344331322D393745382D4345343243354642424632302F4173736574446174612F53747265616D56657273696F6E5461626C652E696E66558CBD0A80300C06F73E4B117FB66E451741D041DC5BF98480A492E4FDD18EAEC7DD4555D89E
311
F28DF51A0B1BD8340C4DE7DD848B988C0ACF0649566493F2408C508DDEBB99D5129FF8F1AF8CF5B9503E20FAE5A16B5AF702504B0304140006080800EA826E57F8E87D28340100009A0400003600000045354631383745452D464243462D344331322D393745382D4345343243354642424632302F4173736574446174612F
311
636E782E786D6CCD94314FC3301085FF4AE43D769222842AC71582A51348540C6C57E752AC3A76645F10FC7BEC3403A888A943D7F3BBF3F327BF939BCFC1161F18A2F1AE6535AF58814EFBCEB843CB26EACB3B566C940CDED30F192B1C0CD8B25C664A1E829FC6A5D4610F93CD556BDC7129DEC788B483BDC5A7FEC13B4247
311
9115DA428C2D8BFA1D07E03091EF301E790704BCE601A39F82C63489CC80CB241D10083BA69AAA5995755DD637BBFA76DDACD64DF52645562AB9F7DE2E7A932E0B7E2CF4E956A62A29F2B19253308B26BF85A9BF3CF2BD715224A592914262B274D0D7983A601CADD140099DF09A90CA244218A43889951499C12F128FD81B
311
6772CB361903F2E139D9C34006AF8EC87F5E2F4F66EB2281D378BD3CCE1D5E9EC2CBFC835E4F819C13736D393977C88DEB2F901231AF91149ABC55D437504B0304140006080800EA826E57F7D8BBE1080100004F0300003400000045354631383745452D464243462D344331322D393745382D434534324335464242463230
311
2F536368656D61732F636E782E786D6CCD93BD4E042114855F85D02F0CB3C6980DC3161656366A6587707725CB7027FC187D7B61A4D84DECB4D80E0E5FC839878BDC7FCE9E7C404C0EC344051B288160D0BA709C68C987CD1D257B2523623EC328097A868936992A798C58962E5938E8E29BEA5D3875F11EE719C3B3798759
311
5362BC4E69A269DD325D325A48276675D64CB008094B34506FC86E867E8389A03358AAC661DC6E84D8889B1771BB1BB7BB717895BC914ABE21FACEBB9021E2420CD645A87606C9DBB19225BACEB40C549D7B63B50DC92BA164CAB176D0C9FCB554522F8B7746E75A155FC11F4649DEA25E047E8000D199EB4C7C61EEDF223F
311
41B0101FEB2B45A7FD7526FFCDE3DF0AE0EBECD711685F417D03504B0304140006080800EA826E57410A3D5871000000A40000002C00000045354631383745452D464243462D344331322D393745382D4345343243354642424632302F636E782E786D6C55CC4D0E82301086E1AB34B31774E7A22D31F1069E60020334B633
311
A63FC6E34B0909B07DDE2F9FEE7EC1AB2FC5E4840DDC9A2B28E25E06C7938192C7CB1D54677514C9871928C640062A83D55394F2D968A0118BAFEA1DBF377CA444F98919176EAB9FEAAB9F2960DA5BBB1E2ED3FA6FFF504B0304140006080800EA826E57EE6F8B157D000000A300000007000000636E782E786D6C4D8C410A
311
C3201405AF227F6F1B252116D480A2F7088D0952A3C5C6D2E3574B165D3D18DE0C9F3E7B406F975F3E4501E4D20172F19E161F3701E558310334499E533AFE6E80E2BC3B010D83E45B4EE579A2C5AD73098D061F1F273483256C34065BA52DEE35A1F8361A86B5E9A91EAC529676D5B836A5CEAF57B7E5E517504B03041400
311
06080800EA826E5716E99B5DA600000035010000130000005B436F6E74656E745F54797065735D2E786D6C9590410E82301045AFD2740F4517C6180A0BF5065E60AC53688469D30E066F6F91AD9AB89CF9FFFD3F99BA9DC7413C3026E749CB4D59498164FCCD51A7E5C4B6D84BD136F5E5193089ECA5A465CF1C0E4A25D3E3
311
08A9F401292BD6C711388FB15301CC1D3A54DBAADA29E38991B8E0254336F5092D4C038BF39CD76B6FC6A538AEBEA54A4B08617006389FA516557DE4AE8E7E70DE30729138228C5F021CD93F02D4FB0DCD0B504B0304140006080800EA826E573DEE336E64000000790000001B0000006175746F6465736B2D64657369676E
311
2D7061636B6167652E786D6C35CBC10E83200C00D05F21DCA56CA76D41FC96062B120735B69A7DBE268BB7777961F8D5AF396893C2ADB70FE7ADA196782C2DF776D7A97B5933C430F15651E5469C55D70F80A4992A3ADC954792C525AE70A1E4D6AD9816CC044FEFDF01FE3FDE907802504B0304140006080800EA826E577F
311
B73F2CF8000000960100003700000045354631383745452D464243462D344331322D393745382D4345343243354642424632302F4173736574446174612F636F72652E786D6C8550CB6E833010FC15B477836D1EA5917104A47FD0536F1638C44AB0911F553FBF76A0527BEA6957B333B3BBC3CE5FEB23FB94D629A33B2039
311
864CEAC9CC4A2F1D047F452D6467CEAC31FE170D322D56D9418281B3C59AB01DD064B4973AA1DACCF2008573D243363D62D3819B6E7215B9083E32DC3DDFC474178BCC49BEF3380B41CD8754CDD14D5D95B4C007DCBF90113768A47D832A5AB7E8B51D6B54BD3535BEE0AA1D869A1549CC9957EBCFF6C94AE1E50C9C625A22
311
4210A9DE4973A2E589E20F56242667CEDBF8F3B1347D07BC4F575F8417ACD8A77F5CC336FFEF1A94F6253D5C7785034EE291CF0167454A29966784B1A644F937504B0304140006080800EA826E57F6ABDCE2F7000000940100003500000045354631383745452D464243462D344331322D393745382D434534324335464242
311
4632302F536368656D61732F636F72652E786D6C8550CB6E833010FC15B477836D1EA591711468BFA03DF5668143AC041BF951F5F36B0395DA534FBB9A9D99DD1D76FE5A1ED9A7B44E19DD01C93164528F66527AEE20F82B6A213B73668DF1BF689069B1C80E120C9CCDD684F58046A3BDD409D5669207289C931EB2F1119B
311
0EDC78938BC845F091E1EEF92AC6BB98654EF29DC759086A3AA46A8A6EEAAAA405DEE3CB13197083067A695045EB163DB7438DAAD7A6C62FB86AFBBE66451273E6D5F2B37DB452783901A79896881044AA77D29C6879A2F8831589C999F336FE7C2C4DDF017FDBEE74ACD8677F3CC33AFDEF1994F6253D3C7785034EE289DB
311
80B3226514CB1660AC294FFE0D504B0304140006080800EA826E571DECC52101010000D70100002D00000045354631383745452D464243462D344331322D393745382D4345343243354642424632302F636F72652E786D6C9591C16E842010865FC5CC1D15D4AEDD209B68F4097AEA8DCAAC25BB82116CFAF8856AD3F6D69E
311
203FDF3FC33FC32FEFF33D79C3D5696B1AA0690E099AD12A6DA606367F25352417C1576BFD0F0C1223676C20CA20F8B4DA6D39A4D11A8F26AAC62A3C44E91C7A48C67BB834E0C6579C652A371F08774B1739DEE484294D774E70AFE72FEBB8A2F4A840B09C15845242CB27FA7066C599E5CF3C8BA4E09B36BE6047339C5F50
311
2576F12112888A67FB6BA036AD0E46ABF0477DD5B882E8AB81D6A7BE2743DB0DA4EC28238FA7BE265D5FB2AE1ADA7660792812CC823BBF86C91C45E20CFE6ADF8DBF926D8BFA67B2DDE140D0EF50591CB3E0D9E70EC21957223E00504B0304140006080800EA826E572507D17407010000B201000008000000636F72652E78
311
6D6C8D50CB6EC32010FC15B4776CC08FBA11268ADDFE414FBD51431C141B2C83A3F6EF0B892BB5B79E16CDCCEE0CC38F9FF3846E7AF5C6D916684600693B3865ECD8C216CEB80174147C752EFC9201B272D62D2418041F57B72D3B34381BB44DA8754AEFA0F45E0740C3141F2DF8E1A26799C92D4485BF668B1CAE72D419CD
311
1E3AC183997F568755CBA0150846588129C5B47CA3F581150746DE799E94826F9B51BB9551D1DD9C8D5E4174E4F4447B52E39E9D6A5CB2AAC1CF4D5FE1F2B5AEC80B299BAEAB789E9605F7618D7FDE8FC49C0179794BBE3C7F50827F3837ED82184A2167A72F1084E789F8137A5BD43F421B1B0AB61F7C6C78103406BA13D1
311
383518C7BDDE3853DBE21B504B01021400140006080800EA826E5778CF7C3BBF000000200100004F000000000000000000000000000000000045354631383745452D464243462D344331322D393745382D4345343243354642424632302F4173736574446174612F446566696E6974696F6E4974657261746F7250726F7065
311
72746965732E62696E504B01021400140006080800EA826E57A3738B28160100003002000045000000000000000000000000002C01000045354631383745452D464243462D344331322D393745382D4345343243354642424632302F4173736574446174612F496E7374616E636550726F706572746965732E62696E504B01
311
021400140006080800EA826E5728BB58AF800100009E0500003D00000000000000000000000000A502000045354631383745452D464243462D344331322D393745382D4345343243354642424632302F536368656D61732F436F6D6D6F6E536368656D612E786D6C504B01021400140006080800EA826E572CCEBD668A0400
311
00E01200003E000000000000000000000000008004000045354631383745452D464243462D344331322D393745382D4345343243354642424632302F536368656D61732F47656E65726963536368656D612E786D6C504B01021400140006080800EA826E576180134D5F0100006B0300004500000000000000000000000000
311
6609000045354631383745452D464243462D344331322D393745382D4345343243354642424632302F536368656D61732F52656E6465724D6174657269616C536368656D612E786D6C504B01021400140006080800EA826E576A686B6B51000000570000004700000000000000000000000000280B00004535463138374545
311
2D464243462D344331322D393745382D4345343243354642424632302F4173736574446174612F41737365745461626C654F66436F6E74656E74732E62696E504B01021400140006080800EA826E57F865834058000000680000004500000000000000000000000000DE0B000045354631383745452D464243462D34433132
311
2D393745382D4345343243354642424632302F4173736574446174612F53747265616D56657273696F6E5461626C652E696E66504B01021400140006080800EA826E57F8E87D28340100009A0400003600000000000000000000000000990C000045354631383745452D464243462D344331322D393745382D434534324335
311
4642424632302F4173736574446174612F636E782E786D6C504B01021400140006080800EA826E57F7D8BBE1080100004F0300003400000000000000000000000000210E000045354631383745452D464243462D344331322D393745382D4345343243354642424632302F536368656D61732F636E782E786D6C504B010214
311
00140006080800EA826E57410A3D5871000000A40000002C000000000000000000000000007B0F000045354631383745452D464243462D344331322D393745382D4345343243354642424632302F636E782E786D6C504B01021400140006080800EA826E57EE6F8B157D000000A30000000700000000000000000000000000
311
36100000636E782E786D6C504B01021400140006080800EA826E5716E99B5DA6000000350100001300000000000000000000000000D81000005B436F6E74656E745F54797065735D2E786D6C504B01021400140006080800EA826E573DEE336E64000000790000001B00000000000000000000000000AF1100006175746F64
311
65736B2D64657369676E2D7061636B6167652E786D6C504B01021400140006080800EA826E577FB73F2CF80000009601000037000000000000000000000000004C12000045354631383745452D464243462D344331322D393745382D4345343243354642424632302F4173736574446174612F636F72652E786D6C504B0102
311
1400140006080800EA826E57F6ABDCE2F70000009401000035000000000000000000000000009913000045354631383745452D464243462D344331322D393745382D4345343243354642424632302F536368656D61732F636F72652E786D6C504B01021400140006080800EA826E571DECC52101010000D70100002D000000
311
00000000000000000000E314000045354631383745452D464243462D344331322D393745382D4345343243354642424632302F636F72652E786D6C504B01021400140006080800EA826E572507D17407010000B201000008000000000000000000000000002F160000636F72652E786D6C504B050600000000110011005A06
311
00005C1700000000
310
504B0304140006080800EA826E57000000000000000000000000370000006662782F43393834383033372D364344362D344544352D393731362D3743394233304244444544312F617474726962757465732E62696E504B0304140006080800EA826E57000000000000000000000000350000006662782F4339383438303337
310
2D364344362D344544352D393731362D3743394233304244444544312F76657274696365732E62696E504B0304140006080800EA826E57F270F1330600000004000000360000006662782F43393834383033372D364344362D344544352D393731362D3743394233304244444544312F747269616E676C65732E62696E6366
310
60600000504B0304140006080800EA826E5751464CB48900000043010000360000006662782F43393834383033372D364344362D344544352D393731362D3743394233304244444544312F6469726563746F72792E786D6C9D8F310EC2300C45AF127987122606C71DD918B841D4B851A43646695A717C52A85029031293A5
310
A76FBF6FACEF7DA7264E43906840EF0FA03836E242F406C6DCEE4EA06AC22492573150D1F66C60C640E8938CB705396EEDD86DE9B5042FE27813D640EA63BB001C722AF6E55CB61E4863F58284D5D3F53DD715CE1C3985E63FD7F1B7EBDD617E9F1E504B0304140006080800EA826E57A1698C013D070000201C0000340000
310
006662782F43393834383033372D364344362D344544352D393731362D3743394233304244444544312F6F626A656374732E786D6CDD59596FDB3810FE2B84F665F74197AFC485E322B693C028D21635BAD837819669871BEA0025254E7FFD0E29521615D9567A00C52640EC50E470E69B7B3479BF8F187A223CA3497C65F9
310
8E67211287C986C6BB2BABC8B7F6A585DE4FD18427495EDB67A11847E4CA12CBD674B2E34991AAA50DD9E28235576F67FFA02C2431B150C870965D5959F84022ECE0224F36247B743638C7CE6EBB777CA7DC6892DD719C3E34AE4A3127710EACC27A0C541407BEF92F88E44E27AED8606CEB77DBD63BB1CD95829B8CD238CB
310
711CBEE2AA715DEF08578DEBFAFE6071D31B8EEDE160D0B707A39E6FCF6E670BDBBFE87BF3D17C3EBEBE195B683A592709AB14909278035A7CB1A6FEC4154F2AF1150A6D7C87491C9350A1D9B66143145D4AB2262606B0BE14ADA69052D6DA42BFA3F047B67502C560C9405B0BA73FEBD69BACFF0510B22E56CA3322AC3CCB
310
39E85A615FFA833771CB55432F344311CE09A7982146D71C7350106C2D15649011DE2248218199D4A2A657E7150CFBBC2FB571B92D1813FE6B4DA5A705E08F24CF2467F41BE107EEEBB7014F206D41E3FC52099BBFA440623C71E562F9ACDF530F4B20D196E11D580B882936F57B0DBCE622162C17D6F4C3ED7ABF12F1A1FD
310
F2942729E1B9B03CE9CCCAEFB4066BA605C6D70194125753770754BE00F41F01F98A173401CD71BA1FEC075A768EE36C9BF008B4833C647BF0C743E2EBAB6F13B73A3C45C88895C73005B7FD49981A621877D7209D4E9EC0E813DE57C2AD42CCC0A6EF692CFC1C0C05B1049620DE6FD77B6BBA84600A8B700A33901E7E27AE
310
F88AE0A3A403F1A6A1A1B6F0DB4151DA619A7E76D0D51DD80CA761A52A43C663F80E7F0ABED78BD58755C1B73824F7CAB117644B639A43326D67C800DD70F9AFCB8FD223EF58B2C6EC70DAD814C235BB44C48D16B5AC945A90D40B7022D270A919B9724FC1DB19C331498A4CADB7C5A93061090FD62F41E9C2AD77FDAD6DA0
310
BC4C19406B2C83E41E729A0A4CACA9D25615089D9AA06061982B0BDC955A0DD6459406384A8A5884DAD7A6D8E403E28CB044A02AA969C3D65EABC96EE8765B6410BC5A49CE0D20953F6BC2A5850F208EB5F1CBC9966348A2491C50C8C1E02CAD37181754E09DE639236C1B50C68A28D85206792488707A847E4709EA99EB91
310
BC3C277CD34AD0B42CED93DA8604E00A580D92CE5665CC573AE5E4898A3253E6339D0D8C1DAA0EB5A68323E942648A1640B5314A339FCD66FDF9F5A067CF4743CF1E409564CF2EE69E7D7D31EBDD8E46C3F9EDF8B6C9A78E56F57C07AA14658EE17FF94311AD634C193C1062E34DFAEEBDCC9E572E844677767331BA99F7C7
310
767F311BDB838BF102EEEE8D6CEF72B198DD0CE6E3DEC5CCE5244B0A1E92CCEDB95EA04D328D77C7B8D2DCBD8EA150D69C4F765A5F4D61FEC731B499130C25FEAE41B48A5D2D0561D7202A8E3643280E1F458A0A42A8FA5ADDA711449B7CB4C5B937C665CFE97BF2C7F7C73D6FDCBB1C8F2A633F19A8E53D3F1CE7DA2408A1
310
EF2CF220497148F3F684DAC0A5639C7E536E71FAFE10013AD5DFEA92D379465D12D008EF48B0C5A24B68098CE72468CD613B9664198D4926BBBC57D55F83A6E7403165E6DC1623A45910911C7F8FFDC9B6A161D3109B5900FD682E260267AB82CAA05507728CA2E87E21714BF95F820C47292B3BDD7318F83D0D81EE71DA2C
310
4E302DAE78027B0B701E781B220717E7A857ECEBFAA0556B4DEAE3EF267F041E5DD7FC4278F415DD4B2767E88FC5CF250495D1D0EF5F68459CC34A5F958B3E8E15D079862FC133A1BB874E8566379DD44AB6B2A8CE49046D2CCE0BDEC95FA1807975918A0B0D87A8DDF4C6E250F66FBA8303F4640377ACBCAD5D0375288D61
310
CED549905752B49AB0D4859CE989D1D51BFCFAA4B2EB547F385EFEF28AB9EE7C911CFE9CC701AAE53200ABE863D4D4AD55B7510F65CF380F2190AEE4A73D038FD890CDA13133C8B595E8BA3E3D573D2F45408D60628B459CBD175FD8170CAA86EE3973EFCAA2CD2DD79722B139309C3EF061306DD2FA74B76A508195CEA73F
310
0B8CC87383825A9D8B6EF804A9AFCB43CFDFA0A024FABA3C71FCB7E828B4026B633498066709A33094271BB42309646F183B74E8367844329995C1785590D26F043A9C7E2A67AA395E337D3A7CC0309866AA172B42188A42C6BCB2D43AFA03C6A06212298753CE23B4612A8659A8E0F4CA028BCD29745BCE1AC659727828A9
310
37C695E0D838DE897C5F9EAAFE3F1C13E840543AC855EDE9828B92CC7026286C53F99E00AABEF2C174F2FDA26B7610CEE1EBBAC82B610E0B07691408FA8540291C4CFD1E15BC7B28284ECBE53B728F0149A7C9FC493B28A9DA39E63B395EAFE17DBDF8EC8AC9F8F2134A59B113EA3CD5FD1A946CD175B3A29C424DC0309498
310
291635E4FC9DFB9927F08A2942B7148C00FDB9BF1CFDE5CE93284AE272C9BD562FAAD0EA015E3B6D5C3DF28336DEF387AE9C02A8B17EB0C61971F0267B8405502DA762365A426C1840154D6B06A035227401C78CFDCB0552B5516D42520FBB021E39D347E048E25D8E709BFA86DA00127C01B8920F0F5FF4C2C4E530049FFE
310
07504B0304140006080800EA826E572FD2741F3E01000046050000300000006662782F43393834383033372D364344362D344544352D393731362D3743394233304244444544312F636E782E786D6CCD944D4EC3301085AF12791FE7A708A1CA7125169C800562E738D360EA78227B82E8EDB14B5240A88845A576678DDF48
310
EF9B791AB1791F6CF6063E18740DAB78C932701A3BE3FA864DB4CDEF58B691C223D23719CB9C1AA061A9CCA4E83D4EE35CEA60AB269BAAD6B8DD5C5444DEB413416099B62A848605FD0283E26A22EC20EC78A748F18A7B0838790DB19FCC0073BFF6A0083A26EBB25EE5559557378FD5EDBA5EADEBF259144929458B6867BD
310
71041EC74C637CB868A61445FA9662F266D6240226BF9CF1D63851C47F294274EBFA5947FB31E9C6D11AAD288EA9404D407914811A44F12996A248BC3FA81FEE9F160759673C6842BFBFD000AA5303381AE33109FFE33F08FFC6C6F635E25E6ADB2761675B67435DD21A625C7FEF3FA648B9DE5E5FE88FC6CE9FF9784AC8E8
310
EB435E7C9D89B8389CBCB8F47401E507504B0304140006080800EA826E576404ABCC7E000000A30000000B0000006662782F636E782E786D6C4D8CD10A832018465F45FE7BB7A4660A6A90F620B12C64A6C3E5D8E34F4717BBFAE0F09D2386CFEED1DBA6978B4102B934806CB8C7C5854D423E56CC000D4AA4188FBF1BA030
310
EF5642C5A0C496627E9E68B1EB9C7DA5DE85C70935671D6BDA1E536D28EE2673C3BC2714F79A8F6D331A3319528C6B55CAFC7A656B5E7D01504B0304140006080800EA826E57A6D797065F0000008200000007000000636E782E786D6C4DCB3B0E80201045D1AD90E9FD7516806B51190811670C8A61F982B1B0BAC9C97B72
310
CA7B1037C6D3332918DA1E04D2CAC69353902EDB8C20262D23F3F59B81A079470595414B17391D1F19B4730A5583A7ED43BBE4025D9592775E5ADFFA01504B0304140006080800EA826E574FEB6A7CA0000000F4000000130000005B436F6E74656E745F54797065735D2E786D6C7D8F4B0EC2300C44AF1279DFA6B0400835
310
ED02B8011730C16D239A8F121795DB93D02D6269CFBC19BBED573B8B17C564BC53B0AB1B10E4B47F18372A5878A88E20FAAEBDBD032591BD2E299898C349CAA427B2986A1FC86565F0D122E7318E32A07EE24872DF3407A9BD63725C71C980AEBDD080CBCCE2BAE6F5D69B7110E7CD57AA146008B3D1C8F92C5954F993BB1B
310
F787F39A89ABC491D09600F9FDA2FB00504B0304140006080800EA826E573DEE336E64000000790000001B0000006175746F6465736B2D64657369676E2D7061636B6167652E786D6C35CBC10E83200C00D05F21DCA56CA76D41FC96062B120735B69A7DBE268BB7777961F8D5AF396893C2ADB70FE7ADA196782C2DF776D7
310
A97B5933C430F15651E5469C55D70F80A4992A3ADC954792C525AE70A1E4D6AD9816CC044FEFDF01FE3FDE907802504B0304140006080800EA826E57405B5C75FA000000960100003B0000006662782F43393834383033372D364344362D344544352D393731362D3743394233304244444544312F7265736F75726365732F
310
636F72652E786D6C8550CB6E833010FC15B47703E6119AC83802DA7E414FBD596643AD041BF951F5F36B27546A4F3DED6A76667677D8F96BBD659F689D32BA079A9790A19666567AE921F80B7982ECCC9935C6FFA241A6C58A3D2418385BAC09DB0E49A33DEA846A33E30E0AE7D043266FB1E9C1C90F5C452E828F0C77CD37
310
21AF62C19CE60F1E6721A87997AA39BAA98B420BFCF5E5D84DD374206D3B3C93E6D8B564E89A8A94B469DBB119A7B11C5891C49C79B5FE6C971685C71978555635A194D0E68D1E4E557DAACA7756242667CEDBF8F3BE347D07DCA233C14A74AC784CFFB8866DFEDF3528EDEB6A777D281C701A8FBC0F382B524AB1DC238C35
310
25CABF01504B0304140006080800EA826E57F51B7CD6F1000000B1010000310000006662782F43393834383033372D364344362D344544352D393731362D3743394233304244444544312F636F72652E786D6C8D50CB6E833010FC15B4770306CA23328E14C81FF4D49B653BD44AB0911F553FBF76A0527BCB69ADD919CFEC
310
90F3F7FAC8BEA475CAE811705E4226353742E96584E06FA887EC4C8935C6FFA141A6D92A47483050B25813B603E2467BA913AA8D9007C89C931E32FE888F111CFF942BCB59F091E1EEF9C6F89D2D32C7F9CEA3C4ABF557CAAD645E0AA05559D50863849B77DC9EAAFA54951FA4484C4A4250E2B05222BAAB9B9216E834F44D
310
5FD61D6AA7B945CD757E4343875BD44DC3A52E2FF37C9D3129929812E76DBCF9F8245DF7AA7C17FECB1C36F14266A57D5D1D86BBC2014D799E0B4A8A54601CCF76E34C65D31F504B0304140006080800EA826E57F500EE2D55010000DD0200000C0000006662782F636F72652E786D6C8D525D6F832014FD2B867754ACB66B
310
8334ADDB7EC19EF646111DA9824130FDF9033FE27C58B7982039F7DE73EE39019F1F6D130C5CF742C91CA0300601974C9542D639B0A6822F203813AC95323FDA402069CB73E0614070AD95ED66882969B8F4A854259F41DAF7DC808035EE92839E7DF19686D41AD7D1DFC38EB23BAD7988C2A98F606B45398F8AD2B1894A70
310
0DC8FBDBF15014C51E66D9E515A6C743062F873481314AB3EC9A5E8B6B7CC1911F26D8887651679A53C34B409238D94184204A3FD0FE94EC4E49FC8923DF49706FB4F33C8B7A778054B7078E267CC367BBF26F3E2BA4D92533DF34D10382DC7A6381E0C8E7E37E6378DB0C9DB0CBCFD05BB358B83B68E0CC289DBA4AA9EC5A
310
1A6863B9A38E83F1C3D15475CC23C16F3CC9139EE71C2E282A6BB71A35EE7AB3C6AB6F77EAB88683790452E99636EB72D38AEBB90A6D2C2DE34C354AFF677AB1BA8419F98749BE01504B0304140006080800EA826E5759199E3208010000B201000008000000636F72652E786D6C8D50C16E842014FC15F2EEA8A0AEDD0DB2
310
51DB7E414FBD51615DB20A4670D3FE7D61B5497BEBE99199796F8661E7CF694477B5386D4D0D24C90029D35BA9CD50C3EA2FF809D099B3C55AFF4B06C88849D51061E06C58EC3AEF506F8D5726A2C64AB583C239E501F56378D4E0FAAB9A4422561F14EE96CCA2BF89412524D9749C793DFDACF68B125E49E034A339260493
310
E28D1C4E343FD1EC9DA551C9D9BA6AB95B6919DCF545AB05F8EBCBB1EABAEE80CBB279C6C5B12A7153151467A428CBB668BB366B581A9739737E097FDE8F849C1E39718FBE2CDD28CE3EAC1D774108259135E317F08CA591F8137A9DE53F426BE373BA1FDC361C7012023D88601C1B0CE3516F98B16DFE0D504B0102140014
310
0006080800EA826E570000000000000000000000003700000000000000000000000000000000006662782F43393834383033372D364344362D344544352D393731362D3743394233304244444544312F617474726962757465732E62696E504B01021400140006080800EA826E570000000000000000000000003500000000
310
000000000000000000550000006662782F43393834383033372D364344362D344544352D393731362D3743394233304244444544312F76657274696365732E62696E504B01021400140006080800EA826E57F270F13306000000040000003600000000000000000000000000A80000006662782F43393834383033372D3643
310
44362D344544352D393731362D3743394233304244444544312F747269616E676C65732E62696E504B01021400140006080800EA826E5751464CB489000000430100003600000000000000000000000000020100006662782F43393834383033372D364344362D344544352D393731362D3743394233304244444544312F64
310
69726563746F72792E786D6C504B01021400140006080800EA826E57A1698C013D070000201C00003400000000000000000000000000DF0100006662782F43393834383033372D364344362D344544352D393731362D3743394233304244444544312F6F626A656374732E786D6C504B01021400140006080800EA826E572F
310
D2741F3E0100004605000030000000000000000000000000006E0900006662782F43393834383033372D364344362D344544352D393731362D3743394233304244444544312F636E782E786D6C504B01021400140006080800EA826E576404ABCC7E000000A30000000B00000000000000000000000000FA0A00006662782F
310
636E782E786D6C504B01021400140006080800EA826E57A6D797065F000000820000000700000000000000000000000000A10B0000636E782E786D6C504B01021400140006080800EA826E574FEB6A7CA0000000F40000001300000000000000000000000000250C00005B436F6E74656E745F54797065735D2E786D6C504B
310
01021400140006080800EA826E573DEE336E64000000790000001B00000000000000000000000000F60C00006175746F6465736B2D64657369676E2D7061636B6167652E786D6C504B01021400140006080800EA826E57405B5C75FA000000960100003B00000000000000000000000000930D00006662782F433938343830
310
33372D364344362D344544352D393731362D3743394233304244444544312F7265736F75726365732F636F72652E786D6C504B01021400140006080800EA826E57F51B7CD6F1000000B10100003100000000000000000000000000E60E00006662782F43393834383033372D364344362D344544352D393731362D37433942
310
33304244444544312F636F72652E786D6C504B01021400140006080800EA826E57F500EE2D55010000DD0200000C00000000000000000000000000261000006662782F636F72652E786D6C504B01021400140006080800EA826E5759199E3208010000B20100000800000000000000000000000000A5110000636F72652E78
310
6D6C504B0506000000000E000E0080040000D31200000000
  0
XRECORD
  5
815B
102
{ACAD_REACTORS
330
8156
102
}
330
8156
100
AcDbXrecord
280
     1
270
     1
271
     1
  0
XRECORD
  5
815A
102
{ACAD_REACTORS
330
8156
102
}
330
8156
100
AcDbXrecord
280
     1
270
     1
271
     1
  0
XRECORD
  5
815C
102
{ACAD_REACTORS
330
8156
102
}
330
8156
100
AcDbXrecord
280
     1
270
     1
271
     1
  0
XRECORD
  5
8159
102
{ACAD_REACTORS
330
8156
102
}
330
8156
100
AcDbXrecord
280
     1
270
     1
271
     1
  0
XRECORD
  5
853E
102
{ACAD_REACTORS
330
853D
102
}
330
853D
100
AcDbXrecord
280
     1
102
DISPLAYNAME
  1
Imperial24
102
FLAGS
 90
        0
  0
CELLSTYLEMAP
  5
8505
102
{ACAD_REACTORS
330
8504
102
}
330
8504
100
AcDbCellStyleMap
 90
        3
300
CELLSTYLE
  1
TABLEFORMAT_BEGIN
 90
        5
170
     1
 91
        0
 92
    32768
 62
   257
 93
        1
300
CONTENTFORMAT
  1
CONTENTFORMAT_BEGIN
 90
        0
 91
        0
 92
      512
 93
        0
300

 40
0.0
140
1.0
 94
        5
 62
     0
340
8189
144
0.25
309
CONTENTFORMAT_END
171
     0
 94
        0
309
TABLEFORMAT_END
  1
CELLSTYLE_BEGIN
 90
        1
 91
        1
300
_TITLE
309
CELLSTYLE_END
300
CELLSTYLE
  1
TABLEFORMAT_BEGIN
 90
        5
170
     1
 91
        0
 92
        0
 62
   257
 93
        1
300
CONTENTFORMAT
  1
CONTENTFORMAT_BEGIN
 90
        0
 91
        0
 92
      512
 93
        0
300

 40
0.0
140
1.0
 94
        5
 62
     0
340
8189
144
0.18
309
CONTENTFORMAT_END
171
     0
 94
        0
309
TABLEFORMAT_END
  1
CELLSTYLE_BEGIN
 90
        2
 91
        1
300
_HEADER
309
CELLSTYLE_END
300
CELLSTYLE
  1
TABLEFORMAT_BEGIN
 90
        5
170
     1
 91
        0
 92
        0
 62
   257
 93
        1
300
CONTENTFORMAT
  1
CONTENTFORMAT_BEGIN
 90
        0
 91
        0
 92
      512
 93
        0
300

 40
0.0
140
1.0
 94
        2
 62
     0
340
8189
144
0.18
309
CONTENTFORMAT_END
171
     0
 94
        0
309
TABLEFORMAT_END
  1
CELLSTYLE_BEGIN
 90
        3
 91
        2
300
_DATA
309
CELLSTYLE_END
  0
XRECORD
  5
853B
102
{ACAD_REACTORS
330
8504
102
}
330
8504
100
AcDbXrecord
280
     1
102
ACAD_ROUNDTRIP_PRE2007_TABLESTYLE
 90
      512
 91
        0
  1

 92
      512
 93
        0
  2

 94
      512
 95
        0
  3

  0
XRECORD
  5
8516
102
{ACAD_REACTORS
330
8515
102
}
330
8515
100
AcDbXrecord
280
     1
102
RTVSPost2010Prop28
280
     1
102
RTVSPost2010PropOp28
 70
     1
102
RTVSPost2010Prop29
280
     1
102
RTVSPost2010PropOp29
 70
     1
102
RTVSPost2010Prop30
280
     0
102
RTVSPost2010PropOp30
 70
     1
102
RTVSPost2010Prop31
280
     0
102
RTVSPost2010PropOp31
 70
     1
102
RTVSPost2010Prop32
280
     0
102
RTVSPost2010PropOp32
 70
     1
102
RTVSPost2010Prop33
280
     0
102
RTVSPost2010PropOp33
 70
     1
102
RTVSPost2010Prop34
280
     0
102
RTVSPost2010PropOp34
 70
     1
102
RTVSPost2010Prop35
280
     0
102
RTVSPost2010PropOp35
 70
     1
102
RTVSPost2010Prop36
280
     0
102
RTVSPost2010PropOp36
 70
     1
102
RTVSPost2010Prop37
 90
       50
102
RTVSPost2010PropOp37
 70
     1
102
RTVSPost2010Prop38
140
0.0
102
RTVSPost2010PropOp38
 70
     1
102
RTVSPost2010Prop39
140
1.0
102
RTVSPost2010PropOp39
 70
     1
102
RTVSPost2010Prop40
 90
        0
102
RTVSPost2010PropOp40
 70
     1
102
RTVSPost2010Prop41ColorIndex
 90
       18
102
RTVSPost2010Prop41ColorRGB
 90
        0
102
RTVSPost2010PropOp41
 70
     1
102
RTVSPost2010Prop42
 90
       50
102
RTVSPost2010PropOp42
 70
     1
102
RTVSPost2010Prop43
 90
        3
102
RTVSPost2010PropOp43
 70
     1
102
RTVSPost2010Prop44ColorIndex
 90
        5
102
RTVSPost2010Prop44ColorRGB
 90
      255
102
RTVSPost2010PropOp44
 70
     1
102
RTVSPost2010Prop45
280
     0
102
RTVSPost2010PropOp45
 70
     1
102
RTVSPost2010Prop46
 90
       50
102
RTVSPost2010PropOp46
 70
     1
102
RTVSPost2010Prop47
 90
       50
102
RTVSPost2010PropOp47
 70
     1
102
RTVSPost2010Prop48
 90
       50
102
RTVSPost2010PropOp48
 70
     1
102
RTVSPost2010Prop49
280
     0
102
RTVSPost2010PropOp49
 70
     1
102
RTVSPost2010Prop50
 90
       50
102
RTVSPost2010PropOp50
 70
     1
102
RTVSPost2010Prop51ColorIndex
 90
      256
102
RTVSPost2010Prop51ColorRGB
 90
-16777216
102
RTVSPost2010PropOp51
 70
     0
102
RTVSPost2010Prop52
140
1.0
102
RTVSPost2010PropOp52
 70
     0
102
RTVSPost2010Prop53
 90
        2
102
RTVSPost2010PropOp53
 70
     1
102
RTVSPost2010Prop54
  1
strokes_ogs.tif
102
RTVSPost2010PropOp54
 70
     1
102
RTVSPost2010Prop55
280
     0
102
RTVSPost2010PropOp55
 70
     1
102
RTVSPost2010Prop56
140
1.0
102
RTVSPost2010PropOp56
 70
     1
102
RTVSPost2010Prop57
140
1.0
102
RTVSPost2010PropOp57
 70
     1
102
RTVSPropertyOp0
 70
     1
102
RTVSPropertyOp1
 70
     1
102
RTVSPropertyOp2
 70
     1
102
RTVSPropertyOp3
 70
     1
102
RTVSPropertyOp4
 70
     1
102
RTVSPropertyOp5
 70
     1
102
RTVSPropertyOp6
 70
     1
102
RTVSPropertyOp7
 70
     1
102
RTVSPropertyOp8
 70
     1
102
RTVSPropertyOp9
 70
     1
102
RTVSPropertyOp10
 70
     1
102
RTVSPropertyOp11
 70
     1
102
RTVSPropertyOp12
 70
     1
102
RTVSPropertyOp13
 70
     1
102
RTVSPropertyOp14
 70
     1
102
RTVSPropertyOp15
 70
     1
102
RTVSPropertyOp16
 70
     1
102
RTVSPropertyOp17
 70
     1
102
RTVSPropertyOp18
 70
     1
102
RTVSPropertyOp19
 70
     1
102
RTVSPropertyOp20
 70
     1
102
RTVSPropertyOp21
 70
     1
102
RTVSPropertyOp22
 70
     1
102
RTVSPropertyOp23
 70
     1
102
RTVSPropertyOp24
 70
     1
102
RTVSPropertyOp25
 70
     1
102
RTVSPropertyOp26
 70
     1
102
RTVSPropertyOp27
 70
     1
102
RTVSPropertyOp28
 70
     1
102
RTVSPropertyOp29
 70
     1
102
RTVSPropertyOp30
 70
     1
102
RTVSPropertyOp31
 70
     1
102
RTVSPropertyOp32
 70
     1
102
RTVSPropertyOp33
 70
     1
102
RTVSPropertyOp34
 70
     1
102
RTVSPropertyOp35
 70
     1
102
RTVSPropertyOp36
 70
     1
102
RTVSPropertyOp37
 70
     1
102
RTVSPropertyOp38
 70
     1
102
RTVSPropertyOp39
 70
     1
102
RTVSPropertyOp40
 70
     1
102
RTVSPropertyOp41
 70
     1
102
RTVSPropertyOp42
 70
     1
102
RTVSPropertyOp43
 70
     1
102
RTVSPropertyOp44
 70
     1
102
RTVSPropertyOp45
 70
     1
102
RTVSPropertyOp46
 70
     1
102
RTVSPropertyOp47
 70
     1
102
RTVSPropertyOp48
 70
     1
102
RTVSPropertyOp49
 70
     1
102
RTVSPropertyOp50
 70
     1
102
RTVSPropertyOp51
 70
     0
102
RTVSPropertyOp52
 70
     0
102
RTVSPropertyOp53
 70
     1
102
RTVSPropertyOp54
 70
     1
102
RTVSPropertyOp55
 70
     1
102
RTVSPropertyOp56
 70
     1
102
RTVSPropertyOp57
 70
     1
102
RTVSPropertyOp58
 70
     1
102
RTVSPropertyOp59
 70
     1
102
RTVSPropertyOp60
 70
     1
102
RTVSPropertyOp61
 70
     1
102
RTVSPropertyOp62
 70
     1
  0
XRECORD
  5
8514
102
{ACAD_REACTORS
330
8513
102
}
330
8513
100
AcDbXrecord
280
     1
102
RTVSPost2010Prop28
280
     0
102
RTVSPost2010PropOp28
 70
     1
102
RTVSPost2010Prop29
280
     1
102
RTVSPost2010PropOp29
 70
     1
102
RTVSPost2010Prop30
280
     1
102
RTVSPost2010PropOp30
 70
     1
102
RTVSPost2010Prop31
280
     0
102
RTVSPost2010PropOp31
 70
     1
102
RTVSPost2010Prop32
280
     0
102
RTVSPost2010PropOp32
 70
     1
102
RTVSPost2010Prop33
280
     0
102
RTVSPost2010PropOp33
 70
     1
102
RTVSPost2010Prop34
280
     0
102
RTVSPost2010PropOp34
 70
     1
102
RTVSPost2010Prop35
280
     0
102
RTVSPost2010PropOp35
 70
     1
102
RTVSPost2010Prop36
280
     0
102
RTVSPost2010PropOp36
 70
     1
102
RTVSPost2010Prop37
 90
       50
102
RTVSPost2010PropOp37
 70
     1
102
RTVSPost2010Prop38
140
0.0
102
RTVSPost2010PropOp38
 70
     1
102
RTVSPost2010Prop39
140
1.0
102
RTVSPost2010PropOp39
 70
     1
102
RTVSPost2010Prop40
 90
        0
102
RTVSPost2010PropOp40
 70
     1
102
RTVSPost2010Prop41ColorIndex
 90
       18
102
RTVSPost2010Prop41ColorRGB
 90
        0
102
RTVSPost2010PropOp41
 70
     1
102
RTVSPost2010Prop42
 90
       50
102
RTVSPost2010PropOp42
 70
     1
102
RTVSPost2010Prop43
 90
        3
102
RTVSPost2010PropOp43
 70
     1
102
RTVSPost2010Prop44ColorIndex
 90
        5
102
RTVSPost2010Prop44ColorRGB
 90
      255
102
RTVSPost2010PropOp44
 70
     1
102
RTVSPost2010Prop45
280
     0
102
RTVSPost2010PropOp45
 70
     1
102
RTVSPost2010Prop46
 90
       50
102
RTVSPost2010PropOp46
 70
     1
102
RTVSPost2010Prop47
 90
       50
102
RTVSPost2010PropOp47
 70
     1
102
RTVSPost2010Prop48
 90
       50
102
RTVSPost2010PropOp48
 70
     1
102
RTVSPost2010Prop49
280
     0
102
RTVSPost2010PropOp49
 70
     1
102
RTVSPost2010Prop50
 90
       50
102
RTVSPost2010PropOp50
 70
     1
102
RTVSPost2010Prop51ColorIndex
 90
      256
102
RTVSPost2010Prop51ColorRGB
 90
-16777216
102
RTVSPost2010PropOp51
 70
     0
102
RTVSPost2010Prop52
140
1.0
102
RTVSPost2010PropOp52
 70
     0
102
RTVSPost2010Prop53
 90
        2
102
RTVSPost2010PropOp53
 70
     1
102
RTVSPost2010Prop54
  1
strokes_ogs.tif
102
RTVSPost2010PropOp54
 70
     1
102
RTVSPost2010Prop55
280
     0
102
RTVSPost2010PropOp55
 70
     1
102
RTVSPost2010Prop56
140
1.0
102
RTVSPost2010PropOp56
 70
     1
102
RTVSPost2010Prop57
140
1.0
102
RTVSPost2010PropOp57
 70
     1
102
RTVSPropertyOp0
 70
     1
102
RTVSPropertyOp1
 70
     1
102
RTVSPropertyOp2
 70
     1
102
RTVSPropertyOp3
 70
     1
102
RTVSPropertyOp4
 70
     1
102
RTVSPropertyOp5
 70
     1
102
RTVSPropertyOp6
 70
     1
102
RTVSPropertyOp7
 70
     1
102
RTVSPropertyOp8
 70
     1
102
RTVSPropertyOp9
 70
     1
102
RTVSPropertyOp10
 70
     1
102
RTVSPropertyOp11
 70
     1
102
RTVSPropertyOp12
 70
     1
102
RTVSPropertyOp13
 70
     1
102
RTVSPropertyOp14
 70
     1
102
RTVSPropertyOp15
 70
     1
102
RTVSPropertyOp16
 70
     1
102
RTVSPropertyOp17
 70
     1
102
RTVSPropertyOp18
 70
     1
102
RTVSPropertyOp19
 70
     1
102
RTVSPropertyOp20
 70
     1
102
RTVSPropertyOp21
 70
     1
102
RTVSPropertyOp22
 70
     1
102
RTVSPropertyOp23
 70
     1
102
RTVSPropertyOp24
 70
     1
102
RTVSPropertyOp25
 70
     1
102
RTVSPropertyOp26
 70
     1
102
RTVSPropertyOp27
 70
     1
102
RTVSPropertyOp28
 70
     1
102
RTVSPropertyOp29
 70
     1
102
RTVSPropertyOp30
 70
     1
102
RTVSPropertyOp31
 70
     1
102
RTVSPropertyOp32
 70
     1
102
RTVSPropertyOp33
 70
     1
102
RTVSPropertyOp34
 70
     1
102
RTVSPropertyOp35
 70
     1
102
RTVSPropertyOp36
 70
     1
102
RTVSPropertyOp37
 70
     1
102
RTVSPropertyOp38
 70
     1
102
RTVSPropertyOp39
 70
     1
102
RTVSPropertyOp40
 70
     1
102
RTVSPropertyOp41
 70
     1
102
RTVSPropertyOp42
 70
     1
102
RTVSPropertyOp43
 70
     1
102
RTVSPropertyOp44
 70
     1
102
RTVSPropertyOp45
 70
     1
102
RTVSPropertyOp46
 70
     1
102
RTVSPropertyOp47
 70
     1
102
RTVSPropertyOp48
 70
     1
102
RTVSPropertyOp49
 70
     1
102
RTVSPropertyOp50
 70
     1
102
RTVSPropertyOp51
 70
     0
102
RTVSPropertyOp52
 70
     0
102
RTVSPropertyOp53
 70
     1
102
RTVSPropertyOp54
 70
     1
102
RTVSPropertyOp55
 70
     1
102
RTVSPropertyOp56
 70
     1
102
RTVSPropertyOp57
 70
     1
102
RTVSPropertyOp58
 70
     1
102
RTVSPropertyOp59
 70
     1
102
RTVSPropertyOp60
 70
     1
102
RTVSPropertyOp61
 70
     1
102
RTVSPropertyOp62
 70
     1
  0
XRECORD
  5
8522
102
{ACAD_REACTORS
330
8521
102
}
330
8521
100
AcDbXrecord
280
     1
102
RTVSPost2010Prop28
280
     0
102
RTVSPost2010PropOp28
 70
     1
102
RTVSPost2010Prop29
280
     1
102
RTVSPost2010PropOp29
 70
     1
102
RTVSPost2010Prop30
280
     1
102
RTVSPost2010PropOp30
 70
     1
102
RTVSPost2010Prop31
280
     0
102
RTVSPost2010PropOp31
 70
     1
102
RTVSPost2010Prop32
280
     0
102
RTVSPost2010PropOp32
 70
     1
102
RTVSPost2010Prop33
280
     0
102
RTVSPost2010PropOp33
 70
     1
102
RTVSPost2010Prop34
280
     0
102
RTVSPost2010PropOp34
 70
     1
102
RTVSPost2010Prop35
280
     0
102
RTVSPost2010PropOp35
 70
     1
102
RTVSPost2010Prop36
280
     0
102
RTVSPost2010PropOp36
 70
     1
102
RTVSPost2010Prop37
 90
       50
102
RTVSPost2010PropOp37
 70
     1
102
RTVSPost2010Prop38
140
0.0
102
RTVSPost2010PropOp38
 70
     1
102
RTVSPost2010Prop39
140
1.0
102
RTVSPost2010PropOp39
 70
     1
102
RTVSPost2010Prop40
 90
        0
102
RTVSPost2010PropOp40
 70
     1
102
RTVSPost2010Prop41ColorIndex
 90
       18
102
RTVSPost2010Prop41ColorRGB
 90
        0
102
RTVSPost2010PropOp41
 70
     1
102
RTVSPost2010Prop42
 90
       50
102
RTVSPost2010PropOp42
 70
     1
102
RTVSPost2010Prop43
 90
        3
102
RTVSPost2010PropOp43
 70
     1
102
RTVSPost2010Prop44ColorIndex
 90
        5
102
RTVSPost2010Prop44ColorRGB
 90
      255
102
RTVSPost2010PropOp44
 70
     1
102
RTVSPost2010Prop45
280
     0
102
RTVSPost2010PropOp45
 70
     1
102
RTVSPost2010Prop46
 90
       50
102
RTVSPost2010PropOp46
 70
     1
102
RTVSPost2010Prop47
 90
       50
102
RTVSPost2010PropOp47
 70
     1
102
RTVSPost2010Prop48
 90
       50
102
RTVSPost2010PropOp48
 70
     1
102
RTVSPost2010Prop49
280
     0
102
RTVSPost2010PropOp49
 70
     1
102
RTVSPost2010Prop50
 90
       50
102
RTVSPost2010PropOp50
 70
     1
102
RTVSPost2010Prop51ColorIndex
 90
      256
102
RTVSPost2010Prop51ColorRGB
 90
-16777216
102
RTVSPost2010PropOp51
 70
     0
102
RTVSPost2010Prop52
140
1.0
102
RTVSPost2010PropOp52
 70
     0
102
RTVSPost2010Prop53
 90
        2
102
RTVSPost2010PropOp53
 70
     1
102
RTVSPost2010Prop54
  1
strokes_ogs.tif
102
RTVSPost2010PropOp54
 70
     1
102
RTVSPost2010Prop55
280
     0
102
RTVSPost2010PropOp55
 70
     1
102
RTVSPost2010Prop56
140
1.0
102
RTVSPost2010PropOp56
 70
     1
102
RTVSPost2010Prop57
140
1.0
102
RTVSPost2010PropOp57
 70
     1
102
RTVSPropertyOp0
 70
     1
102
RTVSPropertyOp1
 70
     1
102
RTVSPropertyOp2
 70
     1
102
RTVSPropertyOp3
 70
     1
102
RTVSPropertyOp4
 70
     1
102
RTVSPropertyOp5
 70
     1
102
RTVSPropertyOp6
 70
     1
102
RTVSPropertyOp7
 70
     1
102
RTVSPropertyOp8
 70
     1
102
RTVSPropertyOp9
 70
     1
102
RTVSPropertyOp10
 70
     1
102
RTVSPropertyOp11
 70
     1
102
RTVSPropertyOp12
 70
     1
102
RTVSPropertyOp13
 70
     1
102
RTVSPropertyOp14
 70
     1
102
RTVSPropertyOp15
 70
     1
102
RTVSPropertyOp16
 70
     1
102
RTVSPropertyOp17
 70
     1
102
RTVSPropertyOp18
 70
     1
102
RTVSPropertyOp19
 70
     1
102
RTVSPropertyOp20
 70
     1
102
RTVSPropertyOp21
 70
     1
102
RTVSPropertyOp22
 70
     1
102
RTVSPropertyOp23
 70
     1
102
RTVSPropertyOp24
 70
     1
102
RTVSPropertyOp25
 70
     1
102
RTVSPropertyOp26
 70
     1
102
RTVSPropertyOp27
 70
     1
102
RTVSPropertyOp28
 70
     1
102
RTVSPropertyOp29
 70
     1
102
RTVSPropertyOp30
 70
     1
102
RTVSPropertyOp31
 70
     1
102
RTVSPropertyOp32
 70
     1
102
RTVSPropertyOp33
 70
     1
102
RTVSPropertyOp34
 70
     1
102
RTVSPropertyOp35
 70
     1
102
RTVSPropertyOp36
 70
     1
102
RTVSPropertyOp37
 70
     1
102
RTVSPropertyOp38
 70
     1
102
RTVSPropertyOp39
 70
     1
102
RTVSPropertyOp40
 70
     1
102
RTVSPropertyOp41
 70
     1
102
RTVSPropertyOp42
 70
     1
102
RTVSPropertyOp43
 70
     1
102
RTVSPropertyOp44
 70
     1
102
RTVSPropertyOp45
 70
     1
102
RTVSPropertyOp46
 70
     1
102
RTVSPropertyOp47
 70
     1
102
RTVSPropertyOp48
 70
     1
102
RTVSPropertyOp49
 70
     1
102
RTVSPropertyOp50
 70
     1
102
RTVSPropertyOp51
 70
     0
102
RTVSPropertyOp52
 70
     0
102
RTVSPropertyOp53
 70
     1
102
RTVSPropertyOp54
 70
     1
102
RTVSPropertyOp55
 70
     1
102
RTVSPropertyOp56
 70
     1
102
RTVSPropertyOp57
 70
     1
102
RTVSPropertyOp58
 70
     1
102
RTVSPropertyOp59
 70
     1
102
RTVSPropertyOp60
 70
     1
102
RTVSPropertyOp61
 70
     1
102
RTVSPropertyOp62
 70
     1
  0
XRECORD
  5
852A
102
{ACAD_REACTORS
330
8529
102
}
330
8529
100
AcDbXrecord
280
     1
102
RTVSPost2010Prop28
280
     0
102
RTVSPost2010PropOp28
 70
     1
102
RTVSPost2010Prop29
280
     1
102
RTVSPost2010PropOp29
 70
     1
102
RTVSPost2010Prop30
280
     1
102
RTVSPost2010PropOp30
 70
     1
102
RTVSPost2010Prop31
280
     0
102
RTVSPost2010PropOp31
 70
     1
102
RTVSPost2010Prop32
280
     0
102
RTVSPost2010PropOp32
 70
     1
102
RTVSPost2010Prop33
280
     0
102
RTVSPost2010PropOp33
 70
     1
102
RTVSPost2010Prop34
280
     0
102
RTVSPost2010PropOp34
 70
     1
102
RTVSPost2010Prop35
280
     0
102
RTVSPost2010PropOp35
 70
     1
102
RTVSPost2010Prop36
280
     0
102
RTVSPost2010PropOp36
 70
     1
102
RTVSPost2010Prop37
 90
       50
102
RTVSPost2010PropOp37
 70
     1
102
RTVSPost2010Prop38
140
0.0
102
RTVSPost2010PropOp38
 70
     1
102
RTVSPost2010Prop39
140
1.0
102
RTVSPost2010PropOp39
 70
     1
102
RTVSPost2010Prop40
 90
        0
102
RTVSPost2010PropOp40
 70
     1
102
RTVSPost2010Prop41ColorIndex
 90
       18
102
RTVSPost2010Prop41ColorRGB
 90
        0
102
RTVSPost2010PropOp41
 70
     1
102
RTVSPost2010Prop42
 90
       50
102
RTVSPost2010PropOp42
 70
     1
102
RTVSPost2010Prop43
 90
        3
102
RTVSPost2010PropOp43
 70
     1
102
RTVSPost2010Prop44ColorIndex
 90
        5
102
RTVSPost2010Prop44ColorRGB
 90
      255
102
RTVSPost2010PropOp44
 70
     1
102
RTVSPost2010Prop45
280
     0
102
RTVSPost2010PropOp45
 70
     1
102
RTVSPost2010Prop46
 90
       50
102
RTVSPost2010PropOp46
 70
     1
102
RTVSPost2010Prop47
 90
       50
102
RTVSPost2010PropOp47
 70
     1
102
RTVSPost2010Prop48
 90
       50
102
RTVSPost2010PropOp48
 70
     1
102
RTVSPost2010Prop49
280
     0
102
RTVSPost2010PropOp49
 70
     1
102
RTVSPost2010Prop50
 90
       50
102
RTVSPost2010PropOp50
 70
     1
102
RTVSPost2010Prop51ColorIndex
 90
      256
102
RTVSPost2010Prop51ColorRGB
 90
-16777216
102
RTVSPost2010PropOp51
 70
     0
102
RTVSPost2010Prop52
140
1.0
102
RTVSPost2010PropOp52
 70
     0
102
RTVSPost2010Prop53
 90
        2
102
RTVSPost2010PropOp53
 70
     1
102
RTVSPost2010Prop54
  1
strokes_ogs.tif
102
RTVSPost2010PropOp54
 70
     1
102
RTVSPost2010Prop55
280
     0
102
RTVSPost2010PropOp55
 70
     1
102
RTVSPost2010Prop56
140
1.0
102
RTVSPost2010PropOp56
 70
     1
102
RTVSPost2010Prop57
140
1.0
102
RTVSPost2010PropOp57
 70
     1
102
RTVSPropertyOp0
 70
     1
102
RTVSPropertyOp1
 70
     1
102
RTVSPropertyOp2
 70
     1
102
RTVSPropertyOp3
 70
     1
102
RTVSPropertyOp4
 70
     1
102
RTVSPropertyOp5
 70
     1
102
RTVSPropertyOp6
 70
     1
102
RTVSPropertyOp7
 70
     1
102
RTVSPropertyOp8
 70
     1
102
RTVSPropertyOp9
 70
     1
102
RTVSPropertyOp10
 70
     1
102
RTVSPropertyOp11
 70
     1
102
RTVSPropertyOp12
 70
     1
102
RTVSPropertyOp13
 70
     1
102
RTVSPropertyOp14
 70
     1
102
RTVSPropertyOp15
 70
     1
102
RTVSPropertyOp16
 70
     1
102
RTVSPropertyOp17
 70
     1
102
RTVSPropertyOp18
 70
     1
102
RTVSPropertyOp19
 70
     1
102
RTVSPropertyOp20
 70
     1
102
RTVSPropertyOp21
 70
     1
102
RTVSPropertyOp22
 70
     1
102
RTVSPropertyOp23
 70
     1
102
RTVSPropertyOp24
 70
     1
102
RTVSPropertyOp25
 70
     1
102
RTVSPropertyOp26
 70
     1
102
RTVSPropertyOp27
 70
     1
102
RTVSPropertyOp28
 70
     1
102
RTVSPropertyOp29
 70
     1
102
RTVSPropertyOp30
 70
     1
102
RTVSPropertyOp31
 70
     1
102
RTVSPropertyOp32
 70
     1
102
RTVSPropertyOp33
 70
     1
102
RTVSPropertyOp34
 70
     1
102
RTVSPropertyOp35
 70
     1
102
RTVSPropertyOp36
 70
     1
102
RTVSPropertyOp37
 70
     1
102
RTVSPropertyOp38
 70
     1
102
RTVSPropertyOp39
 70
     1
102
RTVSPropertyOp40
 70
     1
102
RTVSPropertyOp41
 70
     1
102
RTVSPropertyOp42
 70
     1
102
RTVSPropertyOp43
 70
     1
102
RTVSPropertyOp44
 70
     1
102
RTVSPropertyOp45
 70
     1
102
RTVSPropertyOp46
 70
     1
102
RTVSPropertyOp47
 70
     1
102
RTVSPropertyOp48
 70
     1
102
RTVSPropertyOp49
 70
     1
102
RTVSPropertyOp50
 70
     1
102
RTVSPropertyOp51
 70
     0
102
RTVSPropertyOp52
 70
     0
102
RTVSPropertyOp53
 70
     1
102
RTVSPropertyOp54
 70
     1
102
RTVSPropertyOp55
 70
     1
102
RTVSPropertyOp56
 70
     1
102
RTVSPropertyOp57
 70
     1
102
RTVSPropertyOp58
 70
     1
102
RTVSPropertyOp59
 70
     1
102
RTVSPropertyOp60
 70
     1
102
RTVSPropertyOp61
 70
     1
102
RTVSPropertyOp62
 70
     1
  0
XRECORD
  5
851C
102
{ACAD_REACTORS
330
851B
102
}
330
851B
100
AcDbXrecord
280
     1
102
RTVSPost2010Prop28
280
     0
102
RTVSPost2010PropOp28
 70
     1
102
RTVSPost2010Prop29
280
     1
102
RTVSPost2010PropOp29
 70
     1
102
RTVSPost2010Prop30
280
     1
102
RTVSPost2010PropOp30
 70
     1
102
RTVSPost2010Prop31
280
     0
102
RTVSPost2010PropOp31
 70
     1
102
RTVSPost2010Prop32
280
     0
102
RTVSPost2010PropOp32
 70
     1
102
RTVSPost2010Prop33
280
     0
102
RTVSPost2010PropOp33
 70
     1
102
RTVSPost2010Prop34
280
     0
102
RTVSPost2010PropOp34
 70
     1
102
RTVSPost2010Prop35
280
     0
102
RTVSPost2010PropOp35
 70
     1
102
RTVSPost2010Prop36
280
     0
102
RTVSPost2010PropOp36
 70
     1
102
RTVSPost2010Prop37
 90
       50
102
RTVSPost2010PropOp37
 70
     1
102
RTVSPost2010Prop38
140
0.0
102
RTVSPost2010PropOp38
 70
     1
102
RTVSPost2010Prop39
140
1.0
102
RTVSPost2010PropOp39
 70
     1
102
RTVSPost2010Prop40
 90
        0
102
RTVSPost2010PropOp40
 70
     1
102
RTVSPost2010Prop41ColorIndex
 90
       18
102
RTVSPost2010Prop41ColorRGB
 90
        0
102
RTVSPost2010PropOp41
 70
     1
102
RTVSPost2010Prop42
 90
       50
102
RTVSPost2010PropOp42
 70
     1
102
RTVSPost2010Prop43
 90
        3
102
RTVSPost2010PropOp43
 70
     1
102
RTVSPost2010Prop44ColorIndex
 90
        5
102
RTVSPost2010Prop44ColorRGB
 90
      255
102
RTVSPost2010PropOp44
 70
     1
102
RTVSPost2010Prop45
280
     0
102
RTVSPost2010PropOp45
 70
     1
102
RTVSPost2010Prop46
 90
       50
102
RTVSPost2010PropOp46
 70
     1
102
RTVSPost2010Prop47
 90
       50
102
RTVSPost2010PropOp47
 70
     1
102
RTVSPost2010Prop48
 90
       50
102
RTVSPost2010PropOp48
 70
     1
102
RTVSPost2010Prop49
280
     0
102
RTVSPost2010PropOp49
 70
     1
102
RTVSPost2010Prop50
 90
       50
102
RTVSPost2010PropOp50
 70
     1
102
RTVSPost2010Prop51ColorIndex
 90
      256
102
RTVSPost2010Prop51ColorRGB
 90
-16777216
102
RTVSPost2010PropOp51
 70
     0
102
RTVSPost2010Prop52
140
1.0
102
RTVSPost2010PropOp52
 70
     0
102
RTVSPost2010Prop53
 90
        2
102
RTVSPost2010PropOp53
 70
     1
102
RTVSPost2010Prop54
  1
strokes_ogs.tif
102
RTVSPost2010PropOp54
 70
     1
102
RTVSPost2010Prop55
280
     0
102
RTVSPost2010PropOp55
 70
     1
102
RTVSPost2010Prop56
140
1.0
102
RTVSPost2010PropOp56
 70
     1
102
RTVSPost2010Prop57
140
1.0
102
RTVSPost2010PropOp57
 70
     1
102
RTVSPropertyOp0
 70
     1
102
RTVSPropertyOp1
 70
     1
102
RTVSPropertyOp2
 70
     1
102
RTVSPropertyOp3
 70
     1
102
RTVSPropertyOp4
 70
     1
102
RTVSPropertyOp5
 70
     1
102
RTVSPropertyOp6
 70
     1
102
RTVSPropertyOp7
 70
     1
102
RTVSPropertyOp8
 70
     1
102
RTVSPropertyOp9
 70
     1
102
RTVSPropertyOp10
 70
     1
102
RTVSPropertyOp11
 70
     1
102
RTVSPropertyOp12
 70
     1
102
RTVSPropertyOp13
 70
     1
102
RTVSPropertyOp14
 70
     1
102
RTVSPropertyOp15
 70
     1
102
RTVSPropertyOp16
 70
     1
102
RTVSPropertyOp17
 70
     1
102
RTVSPropertyOp18
 70
     1
102
RTVSPropertyOp19
 70
     1
102
RTVSPropertyOp20
 70
     1
102
RTVSPropertyOp21
 70
     1
102
RTVSPropertyOp22
 70
     1
102
RTVSPropertyOp23
 70
     1
102
RTVSPropertyOp24
 70
     1
102
RTVSPropertyOp25
 70
     1
102
RTVSPropertyOp26
 70
     1
102
RTVSPropertyOp27
 70
     1
102
RTVSPropertyOp28
 70
     1
102
RTVSPropertyOp29
 70
     1
102
RTVSPropertyOp30
 70
     1
102
RTVSPropertyOp31
 70
     1
102
RTVSPropertyOp32
 70
     1
102
RTVSPropertyOp33
 70
     1
102
RTVSPropertyOp34
 70
     1
102
RTVSPropertyOp35
 70
     1
102
RTVSPropertyOp36
 70
     1
102
RTVSPropertyOp37
 70
     1
102
RTVSPropertyOp38
 70
     1
102
RTVSPropertyOp39
 70
     1
102
RTVSPropertyOp40
 70
     1
102
RTVSPropertyOp41
 70
     1
102
RTVSPropertyOp42
 70
     1
102
RTVSPropertyOp43
 70
     1
102
RTVSPropertyOp44
 70
     1
102
RTVSPropertyOp45
 70
     1
102
RTVSPropertyOp46
 70
     1
102
RTVSPropertyOp47
 70
     1
102
RTVSPropertyOp48
 70
     1
102
RTVSPropertyOp49
 70
     1
102
RTVSPropertyOp50
 70
     1
102
RTVSPropertyOp51
 70
     0
102
RTVSPropertyOp52
 70
     0
102
RTVSPropertyOp53
 70
     1
102
RTVSPropertyOp54
 70
     1
102
RTVSPropertyOp55
 70
     1
102
RTVSPropertyOp56
 70
     1
102
RTVSPropertyOp57
 70
     1
102
RTVSPropertyOp58
 70
     1
102
RTVSPropertyOp59
 70
     1
102
RTVSPropertyOp60
 70
     1
102
RTVSPropertyOp61
 70
     1
102
RTVSPropertyOp62
 70
     1
  0
XRECORD
  5
8520
102
{ACAD_REACTORS
330
851F
102
}
330
851F
100
AcDbXrecord
280
     1
102
RTVSPost2010Prop28
280
     0
102
RTVSPost2010PropOp28
 70
     1
102
RTVSPost2010Prop29
280
     1
102
RTVSPost2010PropOp29
 70
     1
102
RTVSPost2010Prop30
280
     1
102
RTVSPost2010PropOp30
 70
     1
102
RTVSPost2010Prop31
280
     0
102
RTVSPost2010PropOp31
 70
     1
102
RTVSPost2010Prop32
280
     0
102
RTVSPost2010PropOp32
 70
     1
102
RTVSPost2010Prop33
280
     0
102
RTVSPost2010PropOp33
 70
     1
102
RTVSPost2010Prop34
280
     0
102
RTVSPost2010PropOp34
 70
     1
102
RTVSPost2010Prop35
280
     0
102
RTVSPost2010PropOp35
 70
     1
102
RTVSPost2010Prop36
280
     0
102
RTVSPost2010PropOp36
 70
     1
102
RTVSPost2010Prop37
 90
       50
102
RTVSPost2010PropOp37
 70
     1
102
RTVSPost2010Prop38
140
0.0
102
RTVSPost2010PropOp38
 70
     1
102
RTVSPost2010Prop39
140
1.0
102
RTVSPost2010PropOp39
 70
     1
102
RTVSPost2010Prop40
 90
        0
102
RTVSPost2010PropOp40
 70
     1
102
RTVSPost2010Prop41ColorIndex
 90
       18
102
RTVSPost2010Prop41ColorRGB
 90
        0
102
RTVSPost2010PropOp41
 70
     1
102
RTVSPost2010Prop42
 90
       50
102
RTVSPost2010PropOp42
 70
     1
102
RTVSPost2010Prop43
 90
        3
102
RTVSPost2010PropOp43
 70
     1
102
RTVSPost2010Prop44ColorIndex
 90
        5
102
RTVSPost2010Prop44ColorRGB
 90
      255
102
RTVSPost2010PropOp44
 70
     1
102
RTVSPost2010Prop45
280
     0
102
RTVSPost2010PropOp45
 70
     1
102
RTVSPost2010Prop46
 90
       50
102
RTVSPost2010PropOp46
 70
     1
102
RTVSPost2010Prop47
 90
       50
102
RTVSPost2010PropOp47
 70
     1
102
RTVSPost2010Prop48
 90
       50
102
RTVSPost2010PropOp48
 70
     1
102
RTVSPost2010Prop49
280
     0
102
RTVSPost2010PropOp49
 70
     1
102
RTVSPost2010Prop50
 90
       50
102
RTVSPost2010PropOp50
 70
     1
102
RTVSPost2010Prop51ColorIndex
 90
      256
102
RTVSPost2010Prop51ColorRGB
 90
-16777216
102
RTVSPost2010PropOp51
 70
     0
102
RTVSPost2010Prop52
140
1.0
102
RTVSPost2010PropOp52
 70
     0
102
RTVSPost2010Prop53
 90
        2
102
RTVSPost2010PropOp53
 70
     1
102
RTVSPost2010Prop54
  1
strokes_ogs.tif
102
RTVSPost2010PropOp54
 70
     1
102
RTVSPost2010Prop55
280
     0
102
RTVSPost2010PropOp55
 70
     1
102
RTVSPost2010Prop56
140
1.0
102
RTVSPost2010PropOp56
 70
     1
102
RTVSPost2010Prop57
140
1.0
102
RTVSPost2010PropOp57
 70
     1
102
RTVSPropertyOp0
 70
     1
102
RTVSPropertyOp1
 70
     1
102
RTVSPropertyOp2
 70
     1
102
RTVSPropertyOp3
 70
     1
102
RTVSPropertyOp4
 70
     1
102
RTVSPropertyOp5
 70
     1
102
RTVSPropertyOp6
 70
     1
102
RTVSPropertyOp7
 70
     1
102
RTVSPropertyOp8
 70
     1
102
RTVSPropertyOp9
 70
     1
102
RTVSPropertyOp10
 70
     1
102
RTVSPropertyOp11
 70
     1
102
RTVSPropertyOp12
 70
     1
102
RTVSPropertyOp13
 70
     1
102
RTVSPropertyOp14
 70
     1
102
RTVSPropertyOp15
 70
     1
102
RTVSPropertyOp16
 70
     1
102
RTVSPropertyOp17
 70
     1
102
RTVSPropertyOp18
 70
     1
102
RTVSPropertyOp19
 70
     1
102
RTVSPropertyOp20
 70
     1
102
RTVSPropertyOp21
 70
     1
102
RTVSPropertyOp22
 70
     1
102
RTVSPropertyOp23
 70
     1
102
RTVSPropertyOp24
 70
     1
102
RTVSPropertyOp25
 70
     1
102
RTVSPropertyOp26
 70
     1
102
RTVSPropertyOp27
 70
     1
102
RTVSPropertyOp28
 70
     1
102
RTVSPropertyOp29
 70
     1
102
RTVSPropertyOp30
 70
     1
102
RTVSPropertyOp31
 70
     1
102
RTVSPropertyOp32
 70
     1
102
RTVSPropertyOp33
 70
     1
102
RTVSPropertyOp34
 70
     1
102
RTVSPropertyOp35
 70
     1
102
RTVSPropertyOp36
 70
     1
102
RTVSPropertyOp37
 70
     1
102
RTVSPropertyOp38
 70
     1
102
RTVSPropertyOp39
 70
     1
102
RTVSPropertyOp40
 70
     1
102
RTVSPropertyOp41
 70
     1
102
RTVSPropertyOp42
 70
     1
102
RTVSPropertyOp43
 70
     1
102
RTVSPropertyOp44
 70
     1
102
RTVSPropertyOp45
 70
     1
102
RTVSPropertyOp46
 70
     1
102
RTVSPropertyOp47
 70
     1
102
RTVSPropertyOp48
 70
     1
102
RTVSPropertyOp49
 70
     1
102
RTVSPropertyOp50
 70
     1
102
RTVSPropertyOp51
 70
     0
102
RTVSPropertyOp52
 70
     0
102
RTVSPropertyOp53
 70
     1
102
RTVSPropertyOp54
 70
     1
102
RTVSPropertyOp55
 70
     1
102
RTVSPropertyOp56
 70
     1
102
RTVSPropertyOp57
 70
     1
102
RTVSPropertyOp58
 70
     1
102
RTVSPropertyOp59
 70
     1
102
RTVSPropertyOp60
 70
     1
102
RTVSPropertyOp61
 70
     1
102
RTVSPropertyOp62
 70
     1
  0
XRECORD
  5
853A
102
{ACAD_REACTORS
330
8539
102
}
330
8539
100
AcDbXrecord
280
     1
102
RTVSPost2010Prop28
280
     0
102
RTVSPost2010PropOp28
 70
     1
102
RTVSPost2010Prop29
280
     1
102
RTVSPost2010PropOp29
 70
     1
102
RTVSPost2010Prop30
280
     1
102
RTVSPost2010PropOp30
 70
     1
102
RTVSPost2010Prop31
280
     0
102
RTVSPost2010PropOp31
 70
     1
102
RTVSPost2010Prop32
280
     0
102
RTVSPost2010PropOp32
 70
     1
102
RTVSPost2010Prop33
280
     0
102
RTVSPost2010PropOp33
 70
     1
102
RTVSPost2010Prop34
280
     0
102
RTVSPost2010PropOp34
 70
     1
102
RTVSPost2010Prop35
280
     0
102
RTVSPost2010PropOp35
 70
     1
102
RTVSPost2010Prop36
280
     0
102
RTVSPost2010PropOp36
 70
     1
102
RTVSPost2010Prop37
 90
       50
102
RTVSPost2010PropOp37
 70
     0
102
RTVSPost2010Prop38
140
0.0
102
RTVSPost2010PropOp38
 70
     0
102
RTVSPost2010Prop39
140
1.0
102
RTVSPost2010PropOp39
 70
     0
102
RTVSPost2010Prop40
 90
        0
102
RTVSPost2010PropOp40
 70
     0
102
RTVSPost2010Prop41ColorIndex
 90
       18
102
RTVSPost2010Prop41ColorRGB
 90
        0
102
RTVSPost2010PropOp41
 70
     0
102
RTVSPost2010Prop42
 90
       50
102
RTVSPost2010PropOp42
 70
     0
102
RTVSPost2010Prop43
 90
        3
102
RTVSPost2010PropOp43
 70
     0
102
RTVSPost2010Prop44ColorIndex
 90
        5
102
RTVSPost2010Prop44ColorRGB
 90
      255
102
RTVSPost2010PropOp44
 70
     0
102
RTVSPost2010Prop45
280
     0
102
RTVSPost2010PropOp45
 70
     1
102
RTVSPost2010Prop46
 90
       50
102
RTVSPost2010PropOp46
 70
     0
102
RTVSPost2010Prop47
 90
       50
102
RTVSPost2010PropOp47
 70
     0
102
RTVSPost2010Prop48
 90
       50
102
RTVSPost2010PropOp48
 70
     0
102
RTVSPost2010Prop49
280
     0
102
RTVSPost2010PropOp49
 70
     1
102
RTVSPost2010Prop50
 90
       50
102
RTVSPost2010PropOp50
 70
     0
102
RTVSPost2010Prop51ColorIndex
 90
      256
102
RTVSPost2010Prop51ColorRGB
 90
-16777216
102
RTVSPost2010PropOp51
 70
     0
102
RTVSPost2010Prop52
140
1.0
102
RTVSPost2010PropOp52
 70
     0
102
RTVSPost2010Prop53
 90
        2
102
RTVSPost2010PropOp53
 70
     0
102
RTVSPost2010Prop54
  1
strokes_ogs.tif
102
RTVSPost2010PropOp54
 70
     0
102
RTVSPost2010Prop55
280
     0
102
RTVSPost2010PropOp55
 70
     1
102
RTVSPost2010Prop56
140
1.0
102
RTVSPost2010PropOp56
 70
     0
102
RTVSPost2010Prop57
140
1.0
102
RTVSPost2010PropOp57
 70
     0
102
RTVSPropertyOp0
 70
     0
102
RTVSPropertyOp1
 70
     0
102
RTVSPropertyOp2
 70
     0
102
RTVSPropertyOp3
 70
     0
102
RTVSPropertyOp4
 70
     0
102
RTVSPropertyOp5
 70
     0
102
RTVSPropertyOp6
 70
     0
102
RTVSPropertyOp7
 70
     0
102
RTVSPropertyOp8
 70
     0
102
RTVSPropertyOp9
 70
     0
102
RTVSPropertyOp10
 70
     0
102
RTVSPropertyOp11
 70
     0
102
RTVSPropertyOp12
 70
     0
102
RTVSPropertyOp13
 70
     0
102
RTVSPropertyOp14
 70
     2
102
RTVSPropertyOp15
 70
     0
102
RTVSPropertyOp16
 70
     0
102
RTVSPropertyOp17
 70
     0
102
RTVSPropertyOp18
 70
     0
102
RTVSPropertyOp19
 70
     0
102
RTVSPropertyOp20
 70
     0
102
RTVSPropertyOp21
 70
     0
102
RTVSPropertyOp22
 70
     0
102
RTVSPropertyOp23
 70
     0
102
RTVSPropertyOp24
 70
     0
102
RTVSPropertyOp25
 70
     0
102
RTVSPropertyOp26
 70
     0
102
RTVSPropertyOp27
 70
     0
102
RTVSPropertyOp28
 70
     1
102
RTVSPropertyOp29
 70
     1
102
RTVSPropertyOp30
 70
     1
102
RTVSPropertyOp31
 70
     1
102
RTVSPropertyOp32
 70
     1
102
RTVSPropertyOp33
 70
     1
102
RTVSPropertyOp34
 70
     1
102
RTVSPropertyOp35
 70
     1
102
RTVSPropertyOp36
 70
     1
102
RTVSPropertyOp37
 70
     0
102
RTVSPropertyOp38
 70
     0
102
RTVSPropertyOp39
 70
     0
102
RTVSPropertyOp40
 70
     0
102
RTVSPropertyOp41
 70
     0
102
RTVSPropertyOp42
 70
     0
102
RTVSPropertyOp43
 70
     0
102
RTVSPropertyOp44
 70
     0
102
RTVSPropertyOp45
 70
     1
102
RTVSPropertyOp46
 70
     0
102
RTVSPropertyOp47
 70
     0
102
RTVSPropertyOp48
 70
     0
102
RTVSPropertyOp49
 70
     1
102
RTVSPropertyOp50
 70
     0
102
RTVSPropertyOp51
 70
     0
102
RTVSPropertyOp52
 70
     0
102
RTVSPropertyOp53
 70
     0
102
RTVSPropertyOp54
 70
     0
102
RTVSPropertyOp55
 70
     1
102
RTVSPropertyOp56
 70
     0
102
RTVSPropertyOp57
 70
     0
102
RTVSPropertyOp58
 70
     0
102
RTVSPropertyOp59
 70
     0
102
RTVSPropertyOp60
 70
     0
102
RTVSPropertyOp61
 70
     0
102
RTVSPropertyOp62
 70
     0
  0
XRECORD
  5
8528
102
{ACAD_REACTORS
330
8527
102
}
330
8527
100
AcDbXrecord
280
     1
102
RTVSPost2010Prop28
280
     0
102
RTVSPost2010PropOp28
 70
     1
102
RTVSPost2010Prop29
280
     1
102
RTVSPost2010PropOp29
 70
     1
102
RTVSPost2010Prop30
280
     1
102
RTVSPost2010PropOp30
 70
     1
102
RTVSPost2010Prop31
280
     0
102
RTVSPost2010PropOp31
 70
     1
102
RTVSPost2010Prop32
280
     0
102
RTVSPost2010PropOp32
 70
     1
102
RTVSPost2010Prop33
280
     0
102
RTVSPost2010PropOp33
 70
     1
102
RTVSPost2010Prop34
280
     0
102
RTVSPost2010PropOp34
 70
     1
102
RTVSPost2010Prop35
280
     0
102
RTVSPost2010PropOp35
 70
     1
102
RTVSPost2010Prop36
280
     0
102
RTVSPost2010PropOp36
 70
     1
102
RTVSPost2010Prop37
 90
       50
102
RTVSPost2010PropOp37
 70
     1
102
RTVSPost2010Prop38
140
0.0
102
RTVSPost2010PropOp38
 70
     1
102
RTVSPost2010Prop39
140
1.0
102
RTVSPost2010PropOp39
 70
     1
102
RTVSPost2010Prop40
 90
        0
102
RTVSPost2010PropOp40
 70
     1
102
RTVSPost2010Prop41ColorIndex
 90
       18
102
RTVSPost2010Prop41ColorRGB
 90
        0
102
RTVSPost2010PropOp41
 70
     1
102
RTVSPost2010Prop42
 90
       50
102
RTVSPost2010PropOp42
 70
     1
102
RTVSPost2010Prop43
 90
        3
102
RTVSPost2010PropOp43
 70
     1
102
RTVSPost2010Prop44ColorIndex
 90
        5
102
RTVSPost2010Prop44ColorRGB
 90
      255
102
RTVSPost2010PropOp44
 70
     1
102
RTVSPost2010Prop45
280
     0
102
RTVSPost2010PropOp45
 70
     1
102
RTVSPost2010Prop46
 90
       50
102
RTVSPost2010PropOp46
 70
     1
102
RTVSPost2010Prop47
 90
       50
102
RTVSPost2010PropOp47
 70
     1
102
RTVSPost2010Prop48
 90
       50
102
RTVSPost2010PropOp48
 70
     1
102
RTVSPost2010Prop49
280
     0
102
RTVSPost2010PropOp49
 70
     1
102
RTVSPost2010Prop50
 90
       50
102
RTVSPost2010PropOp50
 70
     1
102
RTVSPost2010Prop51ColorIndex
 90
      256
102
RTVSPost2010Prop51ColorRGB
 90
-16777216
102
RTVSPost2010PropOp51
 70
     0
102
RTVSPost2010Prop52
140
1.0
102
RTVSPost2010PropOp52
 70
     0
102
RTVSPost2010Prop53
 90
        2
102
RTVSPost2010PropOp53
 70
     1
102
RTVSPost2010Prop54
  1
strokes_ogs.tif
102
RTVSPost2010PropOp54
 70
     1
102
RTVSPost2010Prop55
280
     0
102
RTVSPost2010PropOp55
 70
     1
102
RTVSPost2010Prop56
140
1.0
102
RTVSPost2010PropOp56
 70
     1
102
RTVSPost2010Prop57
140
1.0
102
RTVSPost2010PropOp57
 70
     1
102
RTVSPropertyOp0
 70
     1
102
RTVSPropertyOp1
 70
     1
102
RTVSPropertyOp2
 70
     1
102
RTVSPropertyOp3
 70
     1
102
RTVSPropertyOp4
 70
     1
102
RTVSPropertyOp5
 70
     1
102
RTVSPropertyOp6
 70
     1
102
RTVSPropertyOp7
 70
     1
102
RTVSPropertyOp8
 70
     1
102
RTVSPropertyOp9
 70
     1
102
RTVSPropertyOp10
 70
     1
102
RTVSPropertyOp11
 70
     1
102
RTVSPropertyOp12
 70
     1
102
RTVSPropertyOp13
 70
     1
102
RTVSPropertyOp14
 70
     1
102
RTVSPropertyOp15
 70
     1
102
RTVSPropertyOp16
 70
     1
102
RTVSPropertyOp17
 70
     1
102
RTVSPropertyOp18
 70
     1
102
RTVSPropertyOp19
 70
     1
102
RTVSPropertyOp20
 70
     1
102
RTVSPropertyOp21
 70
     1
102
RTVSPropertyOp22
 70
     1
102
RTVSPropertyOp23
 70
     1
102
RTVSPropertyOp24
 70
     1
102
RTVSPropertyOp25
 70
     1
102
RTVSPropertyOp26
 70
     1
102
RTVSPropertyOp27
 70
     1
102
RTVSPropertyOp28
 70
     1
102
RTVSPropertyOp29
 70
     1
102
RTVSPropertyOp30
 70
     1
102
RTVSPropertyOp31
 70
     1
102
RTVSPropertyOp32
 70
     1
102
RTVSPropertyOp33
 70
     1
102
RTVSPropertyOp34
 70
     1
102
RTVSPropertyOp35
 70
     1
102
RTVSPropertyOp36
 70
     1
102
RTVSPropertyOp37
 70
     1
102
RTVSPropertyOp38
 70
     1
102
RTVSPropertyOp39
 70
     1
102
RTVSPropertyOp40
 70
     1
102
RTVSPropertyOp41
 70
     1
102
RTVSPropertyOp42
 70
     1
102
RTVSPropertyOp43
 70
     1
102
RTVSPropertyOp44
 70
     1
102
RTVSPropertyOp45
 70
     1
102
RTVSPropertyOp46
 70
     1
102
RTVSPropertyOp47
 70
     1
102
RTVSPropertyOp48
 70
     1
102
RTVSPropertyOp49
 70
     1
102
RTVSPropertyOp50
 70
     1
102
RTVSPropertyOp51
 70
     0
102
RTVSPropertyOp52
 70
     0
102
RTVSPropertyOp53
 70
     1
102
RTVSPropertyOp54
 70
     1
102
RTVSPropertyOp55
 70
     1
102
RTVSPropertyOp56
 70
     1
102
RTVSPropertyOp57
 70
     1
102
RTVSPropertyOp58
 70
     1
102
RTVSPropertyOp59
 70
     1
102
RTVSPropertyOp60
 70
     1
102
RTVSPropertyOp61
 70
     1
102
RTVSPropertyOp62
 70
     1
  0
XRECORD
  5
850C
102
{ACAD_REACTORS
330
850B
102
}
330
850B
100
AcDbXrecord
280
     1
102
RTVSPost2010Prop28
280
     0
102
RTVSPost2010PropOp28
 70
     1
102
RTVSPost2010Prop29
280
     1
102
RTVSPost2010PropOp29
 70
     1
102
RTVSPost2010Prop30
280
     1
102
RTVSPost2010PropOp30
 70
     1
102
RTVSPost2010Prop31
280
     0
102
RTVSPost2010PropOp31
 70
     1
102
RTVSPost2010Prop32
280
     0
102
RTVSPost2010PropOp32
 70
     1
102
RTVSPost2010Prop33
280
     0
102
RTVSPost2010PropOp33
 70
     1
102
RTVSPost2010Prop34
280
     0
102
RTVSPost2010PropOp34
 70
     1
102
RTVSPost2010Prop35
280
     0
102
RTVSPost2010PropOp35
 70
     1
102
RTVSPost2010Prop36
280
     0
102
RTVSPost2010PropOp36
 70
     1
102
RTVSPost2010Prop37
 90
       50
102
RTVSPost2010PropOp37
 70
     1
102
RTVSPost2010Prop38
140
0.0
102
RTVSPost2010PropOp38
 70
     1
102
RTVSPost2010Prop39
140
1.0
102
RTVSPost2010PropOp39
 70
     1
102
RTVSPost2010Prop40
 90
        0
102
RTVSPost2010PropOp40
 70
     1
102
RTVSPost2010Prop41ColorIndex
 90
       18
102
RTVSPost2010Prop41ColorRGB
 90
        0
102
RTVSPost2010PropOp41
 70
     1
102
RTVSPost2010Prop42
 90
       50
102
RTVSPost2010PropOp42
 70
     1
102
RTVSPost2010Prop43
 90
        3
102
RTVSPost2010PropOp43
 70
     1
102
RTVSPost2010Prop44ColorIndex
 90
        5
102
RTVSPost2010Prop44ColorRGB
 90
      255
102
RTVSPost2010PropOp44
 70
     1
102
RTVSPost2010Prop45
280
     0
102
RTVSPost2010PropOp45
 70
     1
102
RTVSPost2010Prop46
 90
       50
102
RTVSPost2010PropOp46
 70
     1
102
RTVSPost2010Prop47
 90
       50
102
RTVSPost2010PropOp47
 70
     1
102
RTVSPost2010Prop48
 90
       50
102
RTVSPost2010PropOp48
 70
     1
102
RTVSPost2010Prop49
280
     0
102
RTVSPost2010PropOp49
 70
     1
102
RTVSPost2010Prop50
 90
       50
102
RTVSPost2010PropOp50
 70
     1
102
RTVSPost2010Prop51ColorIndex
 90
      256
102
RTVSPost2010Prop51ColorRGB
 90
-16777216
102
RTVSPost2010PropOp51
 70
     0
102
RTVSPost2010Prop52
140
1.0
102
RTVSPost2010PropOp52
 70
     0
102
RTVSPost2010Prop53
 90
        2
102
RTVSPost2010PropOp53
 70
     1
102
RTVSPost2010Prop54
  1
strokes_ogs.tif
102
RTVSPost2010PropOp54
 70
     1
102
RTVSPost2010Prop55
280
     0
102
RTVSPost2010PropOp55
 70
     1
102
RTVSPost2010Prop56
140
1.0
102
RTVSPost2010PropOp56
 70
     1
102
RTVSPost2010Prop57
140
1.0
102
RTVSPost2010PropOp57
 70
     1
102
RTVSPropertyOp0
 70
     1
102
RTVSPropertyOp1
 70
     1
102
RTVSPropertyOp2
 70
     1
102
RTVSPropertyOp3
 70
     1
102
RTVSPropertyOp4
 70
     1
102
RTVSPropertyOp5
 70
     1
102
RTVSPropertyOp6
 70
     1
102
RTVSPropertyOp7
 70
     1
102
RTVSPropertyOp8
 70
     1
102
RTVSPropertyOp9
 70
     1
102
RTVSPropertyOp10
 70
     1
102
RTVSPropertyOp11
 70
     1
102
RTVSPropertyOp12
 70
     1
102
RTVSPropertyOp13
 70
     1
102
RTVSPropertyOp14
 70
     1
102
RTVSPropertyOp15
 70
     1
102
RTVSPropertyOp16
 70
     1
102
RTVSPropertyOp17
 70
     1
102
RTVSPropertyOp18
 70
     1
102
RTVSPropertyOp19
 70
     1
102
RTVSPropertyOp20
 70
     1
102
RTVSPropertyOp21
 70
     1
102
RTVSPropertyOp22
 70
     1
102
RTVSPropertyOp23
 70
     1
102
RTVSPropertyOp24
 70
     1
102
RTVSPropertyOp25
 70
     1
102
RTVSPropertyOp26
 70
     1
102
RTVSPropertyOp27
 70
     1
102
RTVSPropertyOp28
 70
     1
102
RTVSPropertyOp29
 70
     1
102
RTVSPropertyOp30
 70
     1
102
RTVSPropertyOp31
 70
     1
102
RTVSPropertyOp32
 70
     1
102
RTVSPropertyOp33
 70
     1
102
RTVSPropertyOp34
 70
     1
102
RTVSPropertyOp35
 70
     1
102
RTVSPropertyOp36
 70
     1
102
RTVSPropertyOp37
 70
     1
102
RTVSPropertyOp38
 70
     1
102
RTVSPropertyOp39
 70
     1
102
RTVSPropertyOp40
 70
     1
102
RTVSPropertyOp41
 70
     1
102
RTVSPropertyOp42
 70
     1
102
RTVSPropertyOp43
 70
     1
102
RTVSPropertyOp44
 70
     1
102
RTVSPropertyOp45
 70
     1
102
RTVSPropertyOp46
 70
     1
102
RTVSPropertyOp47
 70
     1
102
RTVSPropertyOp48
 70
     1
102
RTVSPropertyOp49
 70
     1
102
RTVSPropertyOp50
 70
     1
102
RTVSPropertyOp51
 70
     0
102
RTVSPropertyOp52
 70
     0
102
RTVSPropertyOp53
 70
     1
102
RTVSPropertyOp54
 70
     1
102
RTVSPropertyOp55
 70
     1
102
RTVSPropertyOp56
 70
     1
102
RTVSPropertyOp57
 70
     1
102
RTVSPropertyOp58
 70
     1
102
RTVSPropertyOp59
 70
     1
102
RTVSPropertyOp60
 70
     1
102
RTVSPropertyOp61
 70
     1
102
RTVSPropertyOp62
 70
     1
  0
XRECORD
  5
850E
102
{ACAD_REACTORS
330
850D
102
}
330
850D
100
AcDbXrecord
280
     1
102
RTVSPost2010Prop28
280
     0
102
RTVSPost2010PropOp28
 70
     1
102
RTVSPost2010Prop29
280
     1
102
RTVSPost2010PropOp29
 70
     1
102
RTVSPost2010Prop30
280
     1
102
RTVSPost2010PropOp30
 70
     1
102
RTVSPost2010Prop31
280
     0
102
RTVSPost2010PropOp31
 70
     1
102
RTVSPost2010Prop32
280
     0
102
RTVSPost2010PropOp32
 70
     1
102
RTVSPost2010Prop33
280
     0
102
RTVSPost2010PropOp33
 70
     1
102
RTVSPost2010Prop34
280
     0
102
RTVSPost2010PropOp34
 70
     1
102
RTVSPost2010Prop35
280
     0
102
RTVSPost2010PropOp35
 70
     1
102
RTVSPost2010Prop36
280
     0
102
RTVSPost2010PropOp36
 70
     1
102
RTVSPost2010Prop37
 90
       50
102
RTVSPost2010PropOp37
 70
     1
102
RTVSPost2010Prop38
140
0.0
102
RTVSPost2010PropOp38
 70
     1
102
RTVSPost2010Prop39
140
1.0
102
RTVSPost2010PropOp39
 70
     1
102
RTVSPost2010Prop40
 90
        0
102
RTVSPost2010PropOp40
 70
     1
102
RTVSPost2010Prop41ColorIndex
 90
       18
102
RTVSPost2010Prop41ColorRGB
 90
        0
102
RTVSPost2010PropOp41
 70
     1
102
RTVSPost2010Prop42
 90
       50
102
RTVSPost2010PropOp42
 70
     1
102
RTVSPost2010Prop43
 90
        3
102
RTVSPost2010PropOp43
 70
     1
102
RTVSPost2010Prop44ColorIndex
 90
        5
102
RTVSPost2010Prop44ColorRGB
 90
      255
102
RTVSPost2010PropOp44
 70
     1
102
RTVSPost2010Prop45
280
     0
102
RTVSPost2010PropOp45
 70
     1
102
RTVSPost2010Prop46
 90
       50
102
RTVSPost2010PropOp46
 70
     1
102
RTVSPost2010Prop47
 90
       50
102
RTVSPost2010PropOp47
 70
     1
102
RTVSPost2010Prop48
 90
       50
102
RTVSPost2010PropOp48
 70
     1
102
RTVSPost2010Prop49
280
     0
102
RTVSPost2010PropOp49
 70
     1
102
RTVSPost2010Prop50
 90
       50
102
RTVSPost2010PropOp50
 70
     1
102
RTVSPost2010Prop51ColorIndex
 90
      256
102
RTVSPost2010Prop51ColorRGB
 90
-16777216
102
RTVSPost2010PropOp51
 70
     0
102
RTVSPost2010Prop52
140
1.0
102
RTVSPost2010PropOp52
 70
     0
102
RTVSPost2010Prop53
 90
        2
102
RTVSPost2010PropOp53
 70
     1
102
RTVSPost2010Prop54
  1
strokes_ogs.tif
102
RTVSPost2010PropOp54
 70
     1
102
RTVSPost2010Prop55
280
     0
102
RTVSPost2010PropOp55
 70
     1
102
RTVSPost2010Prop56
140
1.0
102
RTVSPost2010PropOp56
 70
     1
102
RTVSPost2010Prop57
140
1.0
102
RTVSPost2010PropOp57
 70
     1
102
RTVSPropertyOp0
 70
     1
102
RTVSPropertyOp1
 70
     1
102
RTVSPropertyOp2
 70
     1
102
RTVSPropertyOp3
 70
     1
102
RTVSPropertyOp4
 70
     1
102
RTVSPropertyOp5
 70
     1
102
RTVSPropertyOp6
 70
     1
102
RTVSPropertyOp7
 70
     1
102
RTVSPropertyOp8
 70
     1
102
RTVSPropertyOp9
 70
     1
102
RTVSPropertyOp10
 70
     1
102
RTVSPropertyOp11
 70
     1
102
RTVSPropertyOp12
 70
     1
102
RTVSPropertyOp13
 70
     1
102
RTVSPropertyOp14
 70
     1
102
RTVSPropertyOp15
 70
     1
102
RTVSPropertyOp16
 70
     1
102
RTVSPropertyOp17
 70
     1
102
RTVSPropertyOp18
 70
     1
102
RTVSPropertyOp19
 70
     1
102
RTVSPropertyOp20
 70
     1
102
RTVSPropertyOp21
 70
     1
102
RTVSPropertyOp22
 70
     1
102
RTVSPropertyOp23
 70
     1
102
RTVSPropertyOp24
 70
     1
102
RTVSPropertyOp25
 70
     1
102
RTVSPropertyOp26
 70
     1
102
RTVSPropertyOp27
 70
     1
102
RTVSPropertyOp28
 70
     1
102
RTVSPropertyOp29
 70
     1
102
RTVSPropertyOp30
 70
     1
102
RTVSPropertyOp31
 70
     1
102
RTVSPropertyOp32
 70
     1
102
RTVSPropertyOp33
 70
     1
102
RTVSPropertyOp34
 70
     1
102
RTVSPropertyOp35
 70
     1
102
RTVSPropertyOp36
 70
     1
102
RTVSPropertyOp37
 70
     1
102
RTVSPropertyOp38
 70
     1
102
RTVSPropertyOp39
 70
     1
102
RTVSPropertyOp40
 70
     1
102
RTVSPropertyOp41
 70
     1
102
RTVSPropertyOp42
 70
     1
102
RTVSPropertyOp43
 70
     1
102
RTVSPropertyOp44
 70
     1
102
RTVSPropertyOp45
 70
     1
102
RTVSPropertyOp46
 70
     1
102
RTVSPropertyOp47
 70
     1
102
RTVSPropertyOp48
 70
     1
102
RTVSPropertyOp49
 70
     1
102
RTVSPropertyOp50
 70
     1
102
RTVSPropertyOp51
 70
     0
102
RTVSPropertyOp52
 70
     0
102
RTVSPropertyOp53
 70
     1
102
RTVSPropertyOp54
 70
     1
102
RTVSPropertyOp55
 70
     1
102
RTVSPropertyOp56
 70
     1
102
RTVSPropertyOp57
 70
     1
102
RTVSPropertyOp58
 70
     1
102
RTVSPropertyOp59
 70
     1
102
RTVSPropertyOp60
 70
     1
102
RTVSPropertyOp61
 70
     1
102
RTVSPropertyOp62
 70
     1
  0
XRECORD
  5
8510
102
{ACAD_REACTORS
330
850F
102
}
330
850F
100
AcDbXrecord
280
     1
102
RTVSPost2010Prop28
280
     0
102
RTVSPost2010PropOp28
 70
     1
102
RTVSPost2010Prop29
280
     1
102
RTVSPost2010PropOp29
 70
     1
102
RTVSPost2010Prop30
280
     1
102
RTVSPost2010PropOp30
 70
     1
102
RTVSPost2010Prop31
280
     0
102
RTVSPost2010PropOp31
 70
     1
102
RTVSPost2010Prop32
280
     0
102
RTVSPost2010PropOp32
 70
     1
102
RTVSPost2010Prop33
280
     0
102
RTVSPost2010PropOp33
 70
     1
102
RTVSPost2010Prop34
280
     0
102
RTVSPost2010PropOp34
 70
     1
102
RTVSPost2010Prop35
280
     0
102
RTVSPost2010PropOp35
 70
     1
102
RTVSPost2010Prop36
280
     0
102
RTVSPost2010PropOp36
 70
     1
102
RTVSPost2010Prop37
 90
       50
102
RTVSPost2010PropOp37
 70
     1
102
RTVSPost2010Prop38
140
0.0
102
RTVSPost2010PropOp38
 70
     1
102
RTVSPost2010Prop39
140
1.0
102
RTVSPost2010PropOp39
 70
     1
102
RTVSPost2010Prop40
 90
        0
102
RTVSPost2010PropOp40
 70
     1
102
RTVSPost2010Prop41ColorIndex
 90
       18
102
RTVSPost2010Prop41ColorRGB
 90
        0
102
RTVSPost2010PropOp41
 70
     1
102
RTVSPost2010Prop42
 90
       50
102
RTVSPost2010PropOp42
 70
     1
102
RTVSPost2010Prop43
 90
        3
102
RTVSPost2010PropOp43
 70
     1
102
RTVSPost2010Prop44ColorIndex
 90
        5
102
RTVSPost2010Prop44ColorRGB
 90
      255
102
RTVSPost2010PropOp44
 70
     1
102
RTVSPost2010Prop45
280
     0
102
RTVSPost2010PropOp45
 70
     1
102
RTVSPost2010Prop46
 90
       50
102
RTVSPost2010PropOp46
 70
     1
102
RTVSPost2010Prop47
 90
       50
102
RTVSPost2010PropOp47
 70
     1
102
RTVSPost2010Prop48
 90
       50
102
RTVSPost2010PropOp48
 70
     1
102
RTVSPost2010Prop49
280
     0
102
RTVSPost2010PropOp49
 70
     1
102
RTVSPost2010Prop50
 90
       50
102
RTVSPost2010PropOp50
 70
     1
102
RTVSPost2010Prop51ColorIndex
 90
      256
102
RTVSPost2010Prop51ColorRGB
 90
-16777216
102
RTVSPost2010PropOp51
 70
     0
102
RTVSPost2010Prop52
140
1.0
102
RTVSPost2010PropOp52
 70
     0
102
RTVSPost2010Prop53
 90
        2
102
RTVSPost2010PropOp53
 70
     1
102
RTVSPost2010Prop54
  1
strokes_ogs.tif
102
RTVSPost2010PropOp54
 70
     1
102
RTVSPost2010Prop55
280
     0
102
RTVSPost2010PropOp55
 70
     1
102
RTVSPost2010Prop56
140
1.0
102
RTVSPost2010PropOp56
 70
     1
102
RTVSPost2010Prop57
140
1.0
102
RTVSPost2010PropOp57
 70
     1
102
RTVSPropertyOp0
 70
     1
102
RTVSPropertyOp1
 70
     1
102
RTVSPropertyOp2
 70
     1
102
RTVSPropertyOp3
 70
     1
102
RTVSPropertyOp4
 70
     1
102
RTVSPropertyOp5
 70
     1
102
RTVSPropertyOp6
 70
     1
102
RTVSPropertyOp7
 70
     1
102
RTVSPropertyOp8
 70
     1
102
RTVSPropertyOp9
 70
     1
102
RTVSPropertyOp10
 70
     1
102
RTVSPropertyOp11
 70
     1
102
RTVSPropertyOp12
 70
     1
102
RTVSPropertyOp13
 70
     1
102
RTVSPropertyOp14
 70
     1
102
RTVSPropertyOp15
 70
     1
102
RTVSPropertyOp16
 70
     1
102
RTVSPropertyOp17
 70
     1
102
RTVSPropertyOp18
 70
     1
102
RTVSPropertyOp19
 70
     1
102
RTVSPropertyOp20
 70
     1
102
RTVSPropertyOp21
 70
     1
102
RTVSPropertyOp22
 70
     1
102
RTVSPropertyOp23
 70
     1
102
RTVSPropertyOp24
 70
     1
102
RTVSPropertyOp25
 70
     1
102
RTVSPropertyOp26
 70
     1
102
RTVSPropertyOp27
 70
     1
102
RTVSPropertyOp28
 70
     1
102
RTVSPropertyOp29
 70
     1
102
RTVSPropertyOp30
 70
     1
102
RTVSPropertyOp31
 70
     1
102
RTVSPropertyOp32
 70
     1
102
RTVSPropertyOp33
 70
     1
102
RTVSPropertyOp34
 70
     1
102
RTVSPropertyOp35
 70
     1
102
RTVSPropertyOp36
 70
     1
102
RTVSPropertyOp37
 70
     1
102
RTVSPropertyOp38
 70
     1
102
RTVSPropertyOp39
 70
     1
102
RTVSPropertyOp40
 70
     1
102
RTVSPropertyOp41
 70
     1
102
RTVSPropertyOp42
 70
     1
102
RTVSPropertyOp43
 70
     1
102
RTVSPropertyOp44
 70
     1
102
RTVSPropertyOp45
 70
     1
102
RTVSPropertyOp46
 70
     1
102
RTVSPropertyOp47
 70
     1
102
RTVSPropertyOp48
 70
     1
102
RTVSPropertyOp49
 70
     1
102
RTVSPropertyOp50
 70
     1
102
RTVSPropertyOp51
 70
     0
102
RTVSPropertyOp52
 70
     0
102
RTVSPropertyOp53
 70
     1
102
RTVSPropertyOp54
 70
     1
102
RTVSPropertyOp55
 70
     1
102
RTVSPropertyOp56
 70
     1
102
RTVSPropertyOp57
 70
     1
102
RTVSPropertyOp58
 70
     1
102
RTVSPropertyOp59
 70
     1
102
RTVSPropertyOp60
 70
     1
102
RTVSPropertyOp61
 70
     1
102
RTVSPropertyOp62
 70
     1
  0
XRECORD
  5
8512
102
{ACAD_REACTORS
330
8511
102
}
330
8511
100
AcDbXrecord
280
     1
102
RTVSPost2010Prop28
280
     0
102
RTVSPost2010PropOp28
 70
     1
102
RTVSPost2010Prop29
280
     1
102
RTVSPost2010PropOp29
 70
     1
102
RTVSPost2010Prop30
280
     1
102
RTVSPost2010PropOp30
 70
     1
102
RTVSPost2010Prop31
280
     0
102
RTVSPost2010PropOp31
 70
     1
102
RTVSPost2010Prop32
280
     0
102
RTVSPost2010PropOp32
 70
     1
102
RTVSPost2010Prop33
280
     0
102
RTVSPost2010PropOp33
 70
     1
102
RTVSPost2010Prop34
280
     0
102
RTVSPost2010PropOp34
 70
     1
102
RTVSPost2010Prop35
280
     0
102
RTVSPost2010PropOp35
 70
     1
102
RTVSPost2010Prop36
280
     0
102
RTVSPost2010PropOp36
 70
     1
102
RTVSPost2010Prop37
 90
       50
102
RTVSPost2010PropOp37
 70
     1
102
RTVSPost2010Prop38
140
0.0
102
RTVSPost2010PropOp38
 70
     1
102
RTVSPost2010Prop39
140
1.0
102
RTVSPost2010PropOp39
 70
     1
102
RTVSPost2010Prop40
 90
        0
102
RTVSPost2010PropOp40
 70
     1
102
RTVSPost2010Prop41ColorIndex
 90
       18
102
RTVSPost2010Prop41ColorRGB
 90
        0
102
RTVSPost2010PropOp41
 70
     1
102
RTVSPost2010Prop42
 90
       50
102
RTVSPost2010PropOp42
 70
     1
102
RTVSPost2010Prop43
 90
        3
102
RTVSPost2010PropOp43
 70
     1
102
RTVSPost2010Prop44ColorIndex
 90
        5
102
RTVSPost2010Prop44ColorRGB
 90
      255
102
RTVSPost2010PropOp44
 70
     1
102
RTVSPost2010Prop45
280
     0
102
RTVSPost2010PropOp45
 70
     1
102
RTVSPost2010Prop46
 90
       50
102
RTVSPost2010PropOp46
 70
     1
102
RTVSPost2010Prop47
 90
       50
102
RTVSPost2010PropOp47
 70
     1
102
RTVSPost2010Prop48
 90
       50
102
RTVSPost2010PropOp48
 70
     1
102
RTVSPost2010Prop49
280
     0
102
RTVSPost2010PropOp49
 70
     1
102
RTVSPost2010Prop50
 90
       50
102
RTVSPost2010PropOp50
 70
     1
102
RTVSPost2010Prop51ColorIndex
 90
      256
102
RTVSPost2010Prop51ColorRGB
 90
-16777216
102
RTVSPost2010PropOp51
 70
     0
102
RTVSPost2010Prop52
140
1.0
102
RTVSPost2010PropOp52
 70
     0
102
RTVSPost2010Prop53
 90
        2
102
RTVSPost2010PropOp53
 70
     1
102
RTVSPost2010Prop54
  1
strokes_ogs.tif
102
RTVSPost2010PropOp54
 70
     1
102
RTVSPost2010Prop55
280
     0
102
RTVSPost2010PropOp55
 70
     1
102
RTVSPost2010Prop56
140
1.0
102
RTVSPost2010PropOp56
 70
     1
102
RTVSPost2010Prop57
140
1.0
102
RTVSPost2010PropOp57
 70
     1
102
RTVSPropertyOp0
 70
     1
102
RTVSPropertyOp1
 70
     1
102
RTVSPropertyOp2
 70
     1
102
RTVSPropertyOp3
 70
     1
102
RTVSPropertyOp4
 70
     1
102
RTVSPropertyOp5
 70
     1
102
RTVSPropertyOp6
 70
     1
102
RTVSPropertyOp7
 70
     1
102
RTVSPropertyOp8
 70
     1
102
RTVSPropertyOp9
 70
     1
102
RTVSPropertyOp10
 70
     1
102
RTVSPropertyOp11
 70
     1
102
RTVSPropertyOp12
 70
     1
102
RTVSPropertyOp13
 70
     1
102
RTVSPropertyOp14
 70
     1
102
RTVSPropertyOp15
 70
     1
102
RTVSPropertyOp16
 70
     1
102
RTVSPropertyOp17
 70
     1
102
RTVSPropertyOp18
 70
     1
102
RTVSPropertyOp19
 70
     1
102
RTVSPropertyOp20
 70
     1
102
RTVSPropertyOp21
 70
     1
102
RTVSPropertyOp22
 70
     1
102
RTVSPropertyOp23
 70
     1
102
RTVSPropertyOp24
 70
     1
102
RTVSPropertyOp25
 70
     1
102
RTVSPropertyOp26
 70
     1
102
RTVSPropertyOp27
 70
     1
102
RTVSPropertyOp28
 70
     1
102
RTVSPropertyOp29
 70
     1
102
RTVSPropertyOp30
 70
     1
102
RTVSPropertyOp31
 70
     1
102
RTVSPropertyOp32
 70
     1
102
RTVSPropertyOp33
 70
     1
102
RTVSPropertyOp34
 70
     1
102
RTVSPropertyOp35
 70
     1
102
RTVSPropertyOp36
 70
     1
102
RTVSPropertyOp37
 70
     1
102
RTVSPropertyOp38
 70
     1
102
RTVSPropertyOp39
 70
     1
102
RTVSPropertyOp40
 70
     1
102
RTVSPropertyOp41
 70
     1
102
RTVSPropertyOp42
 70
     1
102
RTVSPropertyOp43
 70
     1
102
RTVSPropertyOp44
 70
     1
102
RTVSPropertyOp45
 70
     1
102
RTVSPropertyOp46
 70
     1
102
RTVSPropertyOp47
 70
     1
102
RTVSPropertyOp48
 70
     1
102
RTVSPropertyOp49
 70
     1
102
RTVSPropertyOp50
 70
     1
102
RTVSPropertyOp51
 70
     0
102
RTVSPropertyOp52
 70
     0
102
RTVSPropertyOp53
 70
     1
102
RTVSPropertyOp54
 70
     1
102
RTVSPropertyOp55
 70
     1
102
RTVSPropertyOp56
 70
     1
102
RTVSPropertyOp57
 70
     1
102
RTVSPropertyOp58
 70
     1
102
RTVSPropertyOp59
 70
     1
102
RTVSPropertyOp60
 70
     1
102
RTVSPropertyOp61
 70
     1
102
RTVSPropertyOp62
 70
     1
  0
XRECORD
  5
851A
102
{ACAD_REACTORS
330
8519
102
}
330
8519
100
AcDbXrecord
280
     1
102
RTVSPost2010Prop28
280
     0
102
RTVSPost2010PropOp28
 70
     1
102
RTVSPost2010Prop29
280
     1
102
RTVSPost2010PropOp29
 70
     1
102
RTVSPost2010Prop30
280
     1
102
RTVSPost2010PropOp30
 70
     1
102
RTVSPost2010Prop31
280
     0
102
RTVSPost2010PropOp31
 70
     1
102
RTVSPost2010Prop32
280
     0
102
RTVSPost2010PropOp32
 70
     1
102
RTVSPost2010Prop33
280
     0
102
RTVSPost2010PropOp33
 70
     1
102
RTVSPost2010Prop34
280
     0
102
RTVSPost2010PropOp34
 70
     1
102
RTVSPost2010Prop35
280
     0
102
RTVSPost2010PropOp35
 70
     1
102
RTVSPost2010Prop36
280
     0
102
RTVSPost2010PropOp36
 70
     1
102
RTVSPost2010Prop37
 90
       50
102
RTVSPost2010PropOp37
 70
     1
102
RTVSPost2010Prop38
140
0.0
102
RTVSPost2010PropOp38
 70
     1
102
RTVSPost2010Prop39
140
1.0
102
RTVSPost2010PropOp39
 70
     1
102
RTVSPost2010Prop40
 90
        0
102
RTVSPost2010PropOp40
 70
     1
102
RTVSPost2010Prop41ColorIndex
 90
       18
102
RTVSPost2010Prop41ColorRGB
 90
        0
102
RTVSPost2010PropOp41
 70
     1
102
RTVSPost2010Prop42
 90
       50
102
RTVSPost2010PropOp42
 70
     1
102
RTVSPost2010Prop43
 90
        3
102
RTVSPost2010PropOp43
 70
     1
102
RTVSPost2010Prop44ColorIndex
 90
        5
102
RTVSPost2010Prop44ColorRGB
 90
      255
102
RTVSPost2010PropOp44
 70
     1
102
RTVSPost2010Prop45
280
     0
102
RTVSPost2010PropOp45
 70
     1
102
RTVSPost2010Prop46
 90
       50
102
RTVSPost2010PropOp46
 70
     1
102
RTVSPost2010Prop47
 90
       50
102
RTVSPost2010PropOp47
 70
     1
102
RTVSPost2010Prop48
 90
       50
102
RTVSPost2010PropOp48
 70
     1
102
RTVSPost2010Prop49
280
     0
102
RTVSPost2010PropOp49
 70
     1
102
RTVSPost2010Prop50
 90
       50
102
RTVSPost2010PropOp50
 70
     1
102
RTVSPost2010Prop51ColorIndex
 90
      256
102
RTVSPost2010Prop51ColorRGB
 90
-16777216
102
RTVSPost2010PropOp51
 70
     0
102
RTVSPost2010Prop52
140
1.0
102
RTVSPost2010PropOp52
 70
     0
102
RTVSPost2010Prop53
 90
        2
102
RTVSPost2010PropOp53
 70
     1
102
RTVSPost2010Prop54
  1
strokes_ogs.tif
102
RTVSPost2010PropOp54
 70
     1
102
RTVSPost2010Prop55
280
     0
102
RTVSPost2010PropOp55
 70
     1
102
RTVSPost2010Prop56
140
1.0
102
RTVSPost2010PropOp56
 70
     1
102
RTVSPost2010Prop57
140
1.0
102
RTVSPost2010PropOp57
 70
     1
102
RTVSPropertyOp0
 70
     1
102
RTVSPropertyOp1
 70
     1
102
RTVSPropertyOp2
 70
     1
102
RTVSPropertyOp3
 70
     1
102
RTVSPropertyOp4
 70
     1
102
RTVSPropertyOp5
 70
     1
102
RTVSPropertyOp6
 70
     1
102
RTVSPropertyOp7
 70
     1
102
RTVSPropertyOp8
 70
     1
102
RTVSPropertyOp9
 70
     1
102
RTVSPropertyOp10
 70
     1
102
RTVSPropertyOp11
 70
     1
102
RTVSPropertyOp12
 70
     1
102
RTVSPropertyOp13
 70
     1
102
RTVSPropertyOp14
 70
     1
102
RTVSPropertyOp15
 70
     1
102
RTVSPropertyOp16
 70
     1
102
RTVSPropertyOp17
 70
     1
102
RTVSPropertyOp18
 70
     1
102
RTVSPropertyOp19
 70
     1
102
RTVSPropertyOp20
 70
     1
102
RTVSPropertyOp21
 70
     1
102
RTVSPropertyOp22
 70
     1
102
RTVSPropertyOp23
 70
     1
102
RTVSPropertyOp24
 70
     1
102
RTVSPropertyOp25
 70
     1
102
RTVSPropertyOp26
 70
     1
102
RTVSPropertyOp27
 70
     1
102
RTVSPropertyOp28
 70
     1
102
RTVSPropertyOp29
 70
     1
102
RTVSPropertyOp30
 70
     1
102
RTVSPropertyOp31
 70
     1
102
RTVSPropertyOp32
 70
     1
102
RTVSPropertyOp33
 70
     1
102
RTVSPropertyOp34
 70
     1
102
RTVSPropertyOp35
 70
     1
102
RTVSPropertyOp36
 70
     1
102
RTVSPropertyOp37
 70
     1
102
RTVSPropertyOp38
 70
     1
102
RTVSPropertyOp39
 70
     1
102
RTVSPropertyOp40
 70
     1
102
RTVSPropertyOp41
 70
     1
102
RTVSPropertyOp42
 70
     1
102
RTVSPropertyOp43
 70
     1
102
RTVSPropertyOp44
 70
     1
102
RTVSPropertyOp45
 70
     1
102
RTVSPropertyOp46
 70
     1
102
RTVSPropertyOp47
 70
     1
102
RTVSPropertyOp48
 70
     1
102
RTVSPropertyOp49
 70
     1
102
RTVSPropertyOp50
 70
     1
102
RTVSPropertyOp51
 70
     0
102
RTVSPropertyOp52
 70
     0
102
RTVSPropertyOp53
 70
     1
102
RTVSPropertyOp54
 70
     1
102
RTVSPropertyOp55
 70
     1
102
RTVSPropertyOp56
 70
     1
102
RTVSPropertyOp57
 70
     1
102
RTVSPropertyOp58
 70
     1
102
RTVSPropertyOp59
 70
     1
102
RTVSPropertyOp60
 70
     1
102
RTVSPropertyOp61
 70
     1
102
RTVSPropertyOp62
 70
     1
  0
XRECORD
  5
8536
102
{ACAD_REACTORS
330
8535
102
}
330
8535
100
AcDbXrecord
280
     1
102
RTVSPost2010Prop28
280
     0
102
RTVSPost2010PropOp28
 70
     1
102
RTVSPost2010Prop29
280
     1
102
RTVSPost2010PropOp29
 70
     1
102
RTVSPost2010Prop30
280
     1
102
RTVSPost2010PropOp30
 70
     1
102
RTVSPost2010Prop31
280
     0
102
RTVSPost2010PropOp31
 70
     1
102
RTVSPost2010Prop32
280
     0
102
RTVSPost2010PropOp32
 70
     1
102
RTVSPost2010Prop33
280
     0
102
RTVSPost2010PropOp33
 70
     1
102
RTVSPost2010Prop34
280
     0
102
RTVSPost2010PropOp34
 70
     1
102
RTVSPost2010Prop35
280
     0
102
RTVSPost2010PropOp35
 70
     1
102
RTVSPost2010Prop36
280
     0
102
RTVSPost2010PropOp36
 70
     1
102
RTVSPost2010Prop37
 90
       50
102
RTVSPost2010PropOp37
 70
     0
102
RTVSPost2010Prop38
140
0.0
102
RTVSPost2010PropOp38
 70
     0
102
RTVSPost2010Prop39
140
1.0
102
RTVSPost2010PropOp39
 70
     0
102
RTVSPost2010Prop40
 90
        0
102
RTVSPost2010PropOp40
 70
     0
102
RTVSPost2010Prop41ColorIndex
 90
       18
102
RTVSPost2010Prop41ColorRGB
 90
        0
102
RTVSPost2010PropOp41
 70
     0
102
RTVSPost2010Prop42
 90
       50
102
RTVSPost2010PropOp42
 70
     0
102
RTVSPost2010Prop43
 90
        3
102
RTVSPost2010PropOp43
 70
     0
102
RTVSPost2010Prop44ColorIndex
 90
        5
102
RTVSPost2010Prop44ColorRGB
 90
      255
102
RTVSPost2010PropOp44
 70
     0
102
RTVSPost2010Prop45
280
     0
102
RTVSPost2010PropOp45
 70
     1
102
RTVSPost2010Prop46
 90
       50
102
RTVSPost2010PropOp46
 70
     0
102
RTVSPost2010Prop47
 90
       50
102
RTVSPost2010PropOp47
 70
     0
102
RTVSPost2010Prop48
 90
       50
102
RTVSPost2010PropOp48
 70
     0
102
RTVSPost2010Prop49
280
     0
102
RTVSPost2010PropOp49
 70
     1
102
RTVSPost2010Prop50
 90
       50
102
RTVSPost2010PropOp50
 70
     0
102
RTVSPost2010Prop51ColorIndex
 90
      256
102
RTVSPost2010Prop51ColorRGB
 90
-16777216
102
RTVSPost2010PropOp51
 70
     0
102
RTVSPost2010Prop52
140
1.0
102
RTVSPost2010PropOp52
 70
     0
102
RTVSPost2010Prop53
 90
        2
102
RTVSPost2010PropOp53
 70
     0
102
RTVSPost2010Prop54
  1
strokes_ogs.tif
102
RTVSPost2010PropOp54
 70
     0
102
RTVSPost2010Prop55
280
     0
102
RTVSPost2010PropOp55
 70
     1
102
RTVSPost2010Prop56
140
1.0
102
RTVSPost2010PropOp56
 70
     0
102
RTVSPost2010Prop57
140
1.0
102
RTVSPost2010PropOp57
 70
     0
102
RTVSPropertyOp0
 70
     0
102
RTVSPropertyOp1
 70
     0
102
RTVSPropertyOp2
 70
     0
102
RTVSPropertyOp3
 70
     0
102
RTVSPropertyOp4
 70
     0
102
RTVSPropertyOp5
 70
     0
102
RTVSPropertyOp6
 70
     0
102
RTVSPropertyOp7
 70
     0
102
RTVSPropertyOp8
 70
     0
102
RTVSPropertyOp9
 70
     0
102
RTVSPropertyOp10
 70
     0
102
RTVSPropertyOp11
 70
     0
102
RTVSPropertyOp12
 70
     0
102
RTVSPropertyOp13
 70
     0
102
RTVSPropertyOp14
 70
     2
102
RTVSPropertyOp15
 70
     0
102
RTVSPropertyOp16
 70
     0
102
RTVSPropertyOp17
 70
     0
102
RTVSPropertyOp18
 70
     0
102
RTVSPropertyOp19
 70
     0
102
RTVSPropertyOp20
 70
     0
102
RTVSPropertyOp21
 70
     0
102
RTVSPropertyOp22
 70
     0
102
RTVSPropertyOp23
 70
     0
102
RTVSPropertyOp24
 70
     0
102
RTVSPropertyOp25
 70
     0
102
RTVSPropertyOp26
 70
     0
102
RTVSPropertyOp27
 70
     0
102
RTVSPropertyOp28
 70
     1
102
RTVSPropertyOp29
 70
     1
102
RTVSPropertyOp30
 70
     1
102
RTVSPropertyOp31
 70
     1
102
RTVSPropertyOp32
 70
     1
102
RTVSPropertyOp33
 70
     1
102
RTVSPropertyOp34
 70
     1
102
RTVSPropertyOp35
 70
     1
102
RTVSPropertyOp36
 70
     1
102
RTVSPropertyOp37
 70
     0
102
RTVSPropertyOp38
 70
     0
102
RTVSPropertyOp39
 70
     0
102
RTVSPropertyOp40
 70
     0
102
RTVSPropertyOp41
 70
     0
102
RTVSPropertyOp42
 70
     0
102
RTVSPropertyOp43
 70
     0
102
RTVSPropertyOp44
 70
     0
102
RTVSPropertyOp45
 70
     1
102
RTVSPropertyOp46
 70
     0
102
RTVSPropertyOp47
 70
     0
102
RTVSPropertyOp48
 70
     0
102
RTVSPropertyOp49
 70
     1
102
RTVSPropertyOp50
 70
     0
102
RTVSPropertyOp51
 70
     0
102
RTVSPropertyOp52
 70
     0
102
RTVSPropertyOp53
 70
     0
102
RTVSPropertyOp54
 70
     0
102
RTVSPropertyOp55
 70
     1
102
RTVSPropertyOp56
 70
     0
102
RTVSPropertyOp57
 70
     0
102
RTVSPropertyOp58
 70
     0
102
RTVSPropertyOp59
 70
     0
102
RTVSPropertyOp60
 70
     0
102
RTVSPropertyOp61
 70
     0
102
RTVSPropertyOp62
 70
     0
  0
XRECORD
  5
8526
102
{ACAD_REACTORS
330
8525
102
}
330
8525
100
AcDbXrecord
280
     1
102
RTVSPost2010Prop28
280
     0
102
RTVSPost2010PropOp28
 70
     1
102
RTVSPost2010Prop29
280
     1
102
RTVSPost2010PropOp29
 70
     1
102
RTVSPost2010Prop30
280
     1
102
RTVSPost2010PropOp30
 70
     1
102
RTVSPost2010Prop31
280
     0
102
RTVSPost2010PropOp31
 70
     1
102
RTVSPost2010Prop32
280
     0
102
RTVSPost2010PropOp32
 70
     1
102
RTVSPost2010Prop33
280
     0
102
RTVSPost2010PropOp33
 70
     1
102
RTVSPost2010Prop34
280
     0
102
RTVSPost2010PropOp34
 70
     1
102
RTVSPost2010Prop35
280
     0
102
RTVSPost2010PropOp35
 70
     1
102
RTVSPost2010Prop36
280
     0
102
RTVSPost2010PropOp36
 70
     1
102
RTVSPost2010Prop37
 90
       50
102
RTVSPost2010PropOp37
 70
     1
102
RTVSPost2010Prop38
140
0.0
102
RTVSPost2010PropOp38
 70
     1
102
RTVSPost2010Prop39
140
1.0
102
RTVSPost2010PropOp39
 70
     1
102
RTVSPost2010Prop40
 90
        0
102
RTVSPost2010PropOp40
 70
     1
102
RTVSPost2010Prop41ColorIndex
 90
       18
102
RTVSPost2010Prop41ColorRGB
 90
        0
102
RTVSPost2010PropOp41
 70
     1
102
RTVSPost2010Prop42
 90
       50
102
RTVSPost2010PropOp42
 70
     1
102
RTVSPost2010Prop43
 90
        3
102
RTVSPost2010PropOp43
 70
     1
102
RTVSPost2010Prop44ColorIndex
 90
        5
102
RTVSPost2010Prop44ColorRGB
 90
      255
102
RTVSPost2010PropOp44
 70
     1
102
RTVSPost2010Prop45
280
     0
102
RTVSPost2010PropOp45
 70
     1
102
RTVSPost2010Prop46
 90
       50
102
RTVSPost2010PropOp46
 70
     1
102
RTVSPost2010Prop47
 90
       50
102
RTVSPost2010PropOp47
 70
     1
102
RTVSPost2010Prop48
 90
       50
102
RTVSPost2010PropOp48
 70
     1
102
RTVSPost2010Prop49
280
     0
102
RTVSPost2010PropOp49
 70
     1
102
RTVSPost2010Prop50
 90
       50
102
RTVSPost2010PropOp50
 70
     1
102
RTVSPost2010Prop51ColorIndex
 90
      256
102
RTVSPost2010Prop51ColorRGB
 90
-16777216
102
RTVSPost2010PropOp51
 70
     0
102
RTVSPost2010Prop52
140
1.0
102
RTVSPost2010PropOp52
 70
     0
102
RTVSPost2010Prop53
 90
        2
102
RTVSPost2010PropOp53
 70
     1
102
RTVSPost2010Prop54
  1
strokes_ogs.tif
102
RTVSPost2010PropOp54
 70
     1
102
RTVSPost2010Prop55
280
     0
102
RTVSPost2010PropOp55
 70
     1
102
RTVSPost2010Prop56
140
1.0
102
RTVSPost2010PropOp56
 70
     1
102
RTVSPost2010Prop57
140
1.0
102
RTVSPost2010PropOp57
 70
     1
102
RTVSPropertyOp0
 70
     1
102
RTVSPropertyOp1
 70
     1
102
RTVSPropertyOp2
 70
     1
102
RTVSPropertyOp3
 70
     1
102
RTVSPropertyOp4
 70
     1
102
RTVSPropertyOp5
 70
     1
102
RTVSPropertyOp6
 70
     1
102
RTVSPropertyOp7
 70
     1
102
RTVSPropertyOp8
 70
     1
102
RTVSPropertyOp9
 70
     1
102
RTVSPropertyOp10
 70
     1
102
RTVSPropertyOp11
 70
     1
102
RTVSPropertyOp12
 70
     1
102
RTVSPropertyOp13
 70
     1
102
RTVSPropertyOp14
 70
     1
102
RTVSPropertyOp15
 70
     1
102
RTVSPropertyOp16
 70
     1
102
RTVSPropertyOp17
 70
     1
102
RTVSPropertyOp18
 70
     1
102
RTVSPropertyOp19
 70
     1
102
RTVSPropertyOp20
 70
     1
102
RTVSPropertyOp21
 70
     1
102
RTVSPropertyOp22
 70
     1
102
RTVSPropertyOp23
 70
     1
102
RTVSPropertyOp24
 70
     1
102
RTVSPropertyOp25
 70
     1
102
RTVSPropertyOp26
 70
     1
102
RTVSPropertyOp27
 70
     1
102
RTVSPropertyOp28
 70
     1
102
RTVSPropertyOp29
 70
     1
102
RTVSPropertyOp30
 70
     1
102
RTVSPropertyOp31
 70
     1
102
RTVSPropertyOp32
 70
     1
102
RTVSPropertyOp33
 70
     1
102
RTVSPropertyOp34
 70
     1
102
RTVSPropertyOp35
 70
     1
102
RTVSPropertyOp36
 70
     1
102
RTVSPropertyOp37
 70
     1
102
RTVSPropertyOp38
 70
     1
102
RTVSPropertyOp39
 70
     1
102
RTVSPropertyOp40
 70
     1
102
RTVSPropertyOp41
 70
     1
102
RTVSPropertyOp42
 70
     1
102
RTVSPropertyOp43
 70
     1
102
RTVSPropertyOp44
 70
     1
102
RTVSPropertyOp45
 70
     1
102
RTVSPropertyOp46
 70
     1
102
RTVSPropertyOp47
 70
     1
102
RTVSPropertyOp48
 70
     1
102
RTVSPropertyOp49
 70
     1
102
RTVSPropertyOp50
 70
     1
102
RTVSPropertyOp51
 70
     0
102
RTVSPropertyOp52
 70
     0
102
RTVSPropertyOp53
 70
     1
102
RTVSPropertyOp54
 70
     1
102
RTVSPropertyOp55
 70
     1
102
RTVSPropertyOp56
 70
     1
102
RTVSPropertyOp57
 70
     1
102
RTVSPropertyOp58
 70
     1
102
RTVSPropertyOp59
 70
     1
102
RTVSPropertyOp60
 70
     1
102
RTVSPropertyOp61
 70
     1
102
RTVSPropertyOp62
 70
     1
  0
XRECORD
  5
8538
102
{ACAD_REACTORS
330
8537
102
}
330
8537
100
AcDbXrecord
280
     1
102
RTVSPost2010Prop28
280
     0
102
RTVSPost2010PropOp28
 70
     1
102
RTVSPost2010Prop29
280
     1
102
RTVSPost2010PropOp29
 70
     1
102
RTVSPost2010Prop30
280
     1
102
RTVSPost2010PropOp30
 70
     1
102
RTVSPost2010Prop31
280
     0
102
RTVSPost2010PropOp31
 70
     1
102
RTVSPost2010Prop32
280
     0
102
RTVSPost2010PropOp32
 70
     1
102
RTVSPost2010Prop33
280
     0
102
RTVSPost2010PropOp33
 70
     1
102
RTVSPost2010Prop34
280
     0
102
RTVSPost2010PropOp34
 70
     1
102
RTVSPost2010Prop35
280
     0
102
RTVSPost2010PropOp35
 70
     1
102
RTVSPost2010Prop36
280
     0
102
RTVSPost2010PropOp36
 70
     1
102
RTVSPost2010Prop37
 90
       50
102
RTVSPost2010PropOp37
 70
     0
102
RTVSPost2010Prop38
140
0.0
102
RTVSPost2010PropOp38
 70
     0
102
RTVSPost2010Prop39
140
1.0
102
RTVSPost2010PropOp39
 70
     0
102
RTVSPost2010Prop40
 90
        0
102
RTVSPost2010PropOp40
 70
     0
102
RTVSPost2010Prop41ColorIndex
 90
       18
102
RTVSPost2010Prop41ColorRGB
 90
        0
102
RTVSPost2010PropOp41
 70
     0
102
RTVSPost2010Prop42
 90
       50
102
RTVSPost2010PropOp42
 70
     0
102
RTVSPost2010Prop43
 90
        3
102
RTVSPost2010PropOp43
 70
     0
102
RTVSPost2010Prop44ColorIndex
 90
        5
102
RTVSPost2010Prop44ColorRGB
 90
      255
102
RTVSPost2010PropOp44
 70
     0
102
RTVSPost2010Prop45
280
     0
102
RTVSPost2010PropOp45
 70
     1
102
RTVSPost2010Prop46
 90
       50
102
RTVSPost2010PropOp46
 70
     0
102
RTVSPost2010Prop47
 90
       50
102
RTVSPost2010PropOp47
 70
     0
102
RTVSPost2010Prop48
 90
       50
102
RTVSPost2010PropOp48
 70
     0
102
RTVSPost2010Prop49
280
     0
102
RTVSPost2010PropOp49
 70
     1
102
RTVSPost2010Prop50
 90
       50
102
RTVSPost2010PropOp50
 70
     0
102
RTVSPost2010Prop51ColorIndex
 90
      256
102
RTVSPost2010Prop51ColorRGB
 90
-16777216
102
RTVSPost2010PropOp51
 70
     0
102
RTVSPost2010Prop52
140
1.0
102
RTVSPost2010PropOp52
 70
     0
102
RTVSPost2010Prop53
 90
        2
102
RTVSPost2010PropOp53
 70
     0
102
RTVSPost2010Prop54
  1
strokes_ogs.tif
102
RTVSPost2010PropOp54
 70
     0
102
RTVSPost2010Prop55
280
     0
102
RTVSPost2010PropOp55
 70
     1
102
RTVSPost2010Prop56
140
1.0
102
RTVSPost2010PropOp56
 70
     0
102
RTVSPost2010Prop57
140
1.0
102
RTVSPost2010PropOp57
 70
     0
102
RTVSPropertyOp0
 70
     0
102
RTVSPropertyOp1
 70
     0
102
RTVSPropertyOp2
 70
     0
102
RTVSPropertyOp3
 70
     0
102
RTVSPropertyOp4
 70
     0
102
RTVSPropertyOp5
 70
     0
102
RTVSPropertyOp6
 70
     0
102
RTVSPropertyOp7
 70
     0
102
RTVSPropertyOp8
 70
     0
102
RTVSPropertyOp9
 70
     0
102
RTVSPropertyOp10
 70
     0
102
RTVSPropertyOp11
 70
     0
102
RTVSPropertyOp12
 70
     0
102
RTVSPropertyOp13
 70
     0
102
RTVSPropertyOp14
 70
     2
102
RTVSPropertyOp15
 70
     0
102
RTVSPropertyOp16
 70
     0
102
RTVSPropertyOp17
 70
     0
102
RTVSPropertyOp18
 70
     0
102
RTVSPropertyOp19
 70
     0
102
RTVSPropertyOp20
 70
     0
102
RTVSPropertyOp21
 70
     0
102
RTVSPropertyOp22
 70
     0
102
RTVSPropertyOp23
 70
     0
102
RTVSPropertyOp24
 70
     0
102
RTVSPropertyOp25
 70
     0
102
RTVSPropertyOp26
 70
     0
102
RTVSPropertyOp27
 70
     0
102
RTVSPropertyOp28
 70
     1
102
RTVSPropertyOp29
 70
     1
102
RTVSPropertyOp30
 70
     1
102
RTVSPropertyOp31
 70
     1
102
RTVSPropertyOp32
 70
     1
102
RTVSPropertyOp33
 70
     1
102
RTVSPropertyOp34
 70
     1
102
RTVSPropertyOp35
 70
     1
102
RTVSPropertyOp36
 70
     1
102
RTVSPropertyOp37
 70
     0
102
RTVSPropertyOp38
 70
     0
102
RTVSPropertyOp39
 70
     0
102
RTVSPropertyOp40
 70
     0
102
RTVSPropertyOp41
 70
     0
102
RTVSPropertyOp42
 70
     0
102
RTVSPropertyOp43
 70
     0
102
RTVSPropertyOp44
 70
     0
102
RTVSPropertyOp45
 70
     1
102
RTVSPropertyOp46
 70
     0
102
RTVSPropertyOp47
 70
     0
102
RTVSPropertyOp48
 70
     0
102
RTVSPropertyOp49
 70
     1
102
RTVSPropertyOp50
 70
     0
102
RTVSPropertyOp51
 70
     0
102
RTVSPropertyOp52
 70
     0
102
RTVSPropertyOp53
 70
     0
102
RTVSPropertyOp54
 70
     0
102
RTVSPropertyOp55
 70
     1
102
RTVSPropertyOp56
 70
     0
102
RTVSPropertyOp57
 70
     0
102
RTVSPropertyOp58
 70
     0
102
RTVSPropertyOp59
 70
     0
102
RTVSPropertyOp60
 70
     0
102
RTVSPropertyOp61
 70
     0
102
RTVSPropertyOp62
 70
     0
  0
XRECORD
  5
851E
102
{ACAD_REACTORS
330
851D
102
}
330
851D
100
AcDbXrecord
280
     1
102
RTVSPost2010Prop28
280
     0
102
RTVSPost2010PropOp28
 70
     1
102
RTVSPost2010Prop29
280
     1
102
RTVSPost2010PropOp29
 70
     1
102
RTVSPost2010Prop30
280
     1
102
RTVSPost2010PropOp30
 70
     1
102
RTVSPost2010Prop31
280
     0
102
RTVSPost2010PropOp31
 70
     1
102
RTVSPost2010Prop32
280
     0
102
RTVSPost2010PropOp32
 70
     1
102
RTVSPost2010Prop33
280
     0
102
RTVSPost2010PropOp33
 70
     1
102
RTVSPost2010Prop34
280
     0
102
RTVSPost2010PropOp34
 70
     1
102
RTVSPost2010Prop35
280
     0
102
RTVSPost2010PropOp35
 70
     1
102
RTVSPost2010Prop36
280
     0
102
RTVSPost2010PropOp36
 70
     1
102
RTVSPost2010Prop37
 90
       50
102
RTVSPost2010PropOp37
 70
     1
102
RTVSPost2010Prop38
140
0.0
102
RTVSPost2010PropOp38
 70
     1
102
RTVSPost2010Prop39
140
1.0
102
RTVSPost2010PropOp39
 70
     1
102
RTVSPost2010Prop40
 90
        0
102
RTVSPost2010PropOp40
 70
     1
102
RTVSPost2010Prop41ColorIndex
 90
       18
102
RTVSPost2010Prop41ColorRGB
 90
        0
102
RTVSPost2010PropOp41
 70
     1
102
RTVSPost2010Prop42
 90
       50
102
RTVSPost2010PropOp42
 70
     1
102
RTVSPost2010Prop43
 90
        3
102
RTVSPost2010PropOp43
 70
     1
102
RTVSPost2010Prop44ColorIndex
 90
        5
102
RTVSPost2010Prop44ColorRGB
 90
      255
102
RTVSPost2010PropOp44
 70
     1
102
RTVSPost2010Prop45
280
     0
102
RTVSPost2010PropOp45
 70
     1
102
RTVSPost2010Prop46
 90
       50
102
RTVSPost2010PropOp46
 70
     1
102
RTVSPost2010Prop47
 90
       50
102
RTVSPost2010PropOp47
 70
     1
102
RTVSPost2010Prop48
 90
       50
102
RTVSPost2010PropOp48
 70
     1
102
RTVSPost2010Prop49
280
     0
102
RTVSPost2010PropOp49
 70
     1
102
RTVSPost2010Prop50
 90
       50
102
RTVSPost2010PropOp50
 70
     1
102
RTVSPost2010Prop51ColorIndex
 90
      256
102
RTVSPost2010Prop51ColorRGB
 90
-16777216
102
RTVSPost2010PropOp51
 70
     0
102
RTVSPost2010Prop52
140
1.0
102
RTVSPost2010PropOp52
 70
     0
102
RTVSPost2010Prop53
 90
        2
102
RTVSPost2010PropOp53
 70
     1
102
RTVSPost2010Prop54
  1
strokes_ogs.tif
102
RTVSPost2010PropOp54
 70
     1
102
RTVSPost2010Prop55
280
     0
102
RTVSPost2010PropOp55
 70
     1
102
RTVSPost2010Prop56
140
1.0
102
RTVSPost2010PropOp56
 70
     1
102
RTVSPost2010Prop57
140
1.0
102
RTVSPost2010PropOp57
 70
     1
102
RTVSPropertyOp0
 70
     1
102
RTVSPropertyOp1
 70
     1
102
RTVSPropertyOp2
 70
     1
102
RTVSPropertyOp3
 70
     1
102
RTVSPropertyOp4
 70
     1
102
RTVSPropertyOp5
 70
     1
102
RTVSPropertyOp6
 70
     1
102
RTVSPropertyOp7
 70
     1
102
RTVSPropertyOp8
 70
     1
102
RTVSPropertyOp9
 70
     1
102
RTVSPropertyOp10
 70
     1
102
RTVSPropertyOp11
 70
     1
102
RTVSPropertyOp12
 70
     1
102
RTVSPropertyOp13
 70
     1
102
RTVSPropertyOp14
 70
     1
102
RTVSPropertyOp15
 70
     1
102
RTVSPropertyOp16
 70
     1
102
RTVSPropertyOp17
 70
     1
102
RTVSPropertyOp18
 70
     1
102
RTVSPropertyOp19
 70
     1
102
RTVSPropertyOp20
 70
     1
102
RTVSPropertyOp21
 70
     1
102
RTVSPropertyOp22
 70
     1
102
RTVSPropertyOp23
 70
     1
102
RTVSPropertyOp24
 70
     1
102
RTVSPropertyOp25
 70
     1
102
RTVSPropertyOp26
 70
     1
102
RTVSPropertyOp27
 70
     1
102
RTVSPropertyOp28
 70
     1
102
RTVSPropertyOp29
 70
     1
102
RTVSPropertyOp30
 70
     1
102
RTVSPropertyOp31
 70
     1
102
RTVSPropertyOp32
 70
     1
102
RTVSPropertyOp33
 70
     1
102
RTVSPropertyOp34
 70
     1
102
RTVSPropertyOp35
 70
     1
102
RTVSPropertyOp36
 70
     1
102
RTVSPropertyOp37
 70
     1
102
RTVSPropertyOp38
 70
     1
102
RTVSPropertyOp39
 70
     1
102
RTVSPropertyOp40
 70
     1
102
RTVSPropertyOp41
 70
     1
102
RTVSPropertyOp42
 70
     1
102
RTVSPropertyOp43
 70
     1
102
RTVSPropertyOp44
 70
     1
102
RTVSPropertyOp45
 70
     1
102
RTVSPropertyOp46
 70
     1
102
RTVSPropertyOp47
 70
     1
102
RTVSPropertyOp48
 70
     1
102
RTVSPropertyOp49
 70
     1
102
RTVSPropertyOp50
 70
     1
102
RTVSPropertyOp51
 70
     0
102
RTVSPropertyOp52
 70
     0
102
RTVSPropertyOp53
 70
     1
102
RTVSPropertyOp54
 70
     1
102
RTVSPropertyOp55
 70
     1
102
RTVSPropertyOp56
 70
     1
102
RTVSPropertyOp57
 70
     1
102
RTVSPropertyOp58
 70
     1
102
RTVSPropertyOp59
 70
     1
102
RTVSPropertyOp60
 70
     1
102
RTVSPropertyOp61
 70
     1
102
RTVSPropertyOp62
 70
     1
  0
XRECORD
  5
8534
102
{ACAD_REACTORS
330
8533
102
}
330
8533
100
AcDbXrecord
280
     1
102
RTVSPost2010Prop28
280
     0
102
RTVSPost2010PropOp28
 70
     1
102
RTVSPost2010Prop29
280
     1
102
RTVSPost2010PropOp29
 70
     1
102
RTVSPost2010Prop30
280
     1
102
RTVSPost2010PropOp30
 70
     1
102
RTVSPost2010Prop31
280
     0
102
RTVSPost2010PropOp31
 70
     1
102
RTVSPost2010Prop32
280
     0
102
RTVSPost2010PropOp32
 70
     1
102
RTVSPost2010Prop33
280
     0
102
RTVSPost2010PropOp33
 70
     1
102
RTVSPost2010Prop34
280
     0
102
RTVSPost2010PropOp34
 70
     1
102
RTVSPost2010Prop35
280
     0
102
RTVSPost2010PropOp35
 70
     1
102
RTVSPost2010Prop36
280
     0
102
RTVSPost2010PropOp36
 70
     1
102
RTVSPost2010Prop37
 90
       50
102
RTVSPost2010PropOp37
 70
     1
102
RTVSPost2010Prop38
140
0.0
102
RTVSPost2010PropOp38
 70
     1
102
RTVSPost2010Prop39
140
1.0
102
RTVSPost2010PropOp39
 70
     1
102
RTVSPost2010Prop40
 90
        0
102
RTVSPost2010PropOp40
 70
     1
102
RTVSPost2010Prop41ColorIndex
 90
       18
102
RTVSPost2010Prop41ColorRGB
 90
        0
102
RTVSPost2010PropOp41
 70
     1
102
RTVSPost2010Prop42
 90
       50
102
RTVSPost2010PropOp42
 70
     1
102
RTVSPost2010Prop43
 90
        3
102
RTVSPost2010PropOp43
 70
     1
102
RTVSPost2010Prop44ColorIndex
 90
        5
102
RTVSPost2010Prop44ColorRGB
 90
      255
102
RTVSPost2010PropOp44
 70
     1
102
RTVSPost2010Prop45
280
     0
102
RTVSPost2010PropOp45
 70
     1
102
RTVSPost2010Prop46
 90
       50
102
RTVSPost2010PropOp46
 70
     1
102
RTVSPost2010Prop47
 90
       50
102
RTVSPost2010PropOp47
 70
     1
102
RTVSPost2010Prop48
 90
       50
102
RTVSPost2010PropOp48
 70
     1
102
RTVSPost2010Prop49
280
     0
102
RTVSPost2010PropOp49
 70
     1
102
RTVSPost2010Prop50
 90
       50
102
RTVSPost2010PropOp50
 70
     1
102
RTVSPost2010Prop51ColorIndex
 90
      256
102
RTVSPost2010Prop51ColorRGB
 90
-16777216
102
RTVSPost2010PropOp51
 70
     0
102
RTVSPost2010Prop52
140
1.0
102
RTVSPost2010PropOp52
 70
     0
102
RTVSPost2010Prop53
 90
        2
102
RTVSPost2010PropOp53
 70
     1
102
RTVSPost2010Prop54
  1
strokes_ogs.tif
102
RTVSPost2010PropOp54
 70
     1
102
RTVSPost2010Prop55
280
     0
102
RTVSPost2010PropOp55
 70
     1
102
RTVSPost2010Prop56
140
1.0
102
RTVSPost2010PropOp56
 70
     1
102
RTVSPost2010Prop57
140
1.0
102
RTVSPost2010PropOp57
 70
     1
102
RTVSPropertyOp0
 70
     1
102
RTVSPropertyOp1
 70
     1
102
RTVSPropertyOp2
 70
     1
102
RTVSPropertyOp3
 70
     1
102
RTVSPropertyOp4
 70
     1
102
RTVSPropertyOp5
 70
     1
102
RTVSPropertyOp6
 70
     1
102
RTVSPropertyOp7
 70
     1
102
RTVSPropertyOp8
 70
     1
102
RTVSPropertyOp9
 70
     1
102
RTVSPropertyOp10
 70
     1
102
RTVSPropertyOp11
 70
     1
102
RTVSPropertyOp12
 70
     1
102
RTVSPropertyOp13
 70
     1
102
RTVSPropertyOp14
 70
     1
102
RTVSPropertyOp15
 70
     1
102
RTVSPropertyOp16
 70
     1
102
RTVSPropertyOp17
 70
     1
102
RTVSPropertyOp18
 70
     1
102
RTVSPropertyOp19
 70
     1
102
RTVSPropertyOp20
 70
     1
102
RTVSPropertyOp21
 70
     1
102
RTVSPropertyOp22
 70
     1
102
RTVSPropertyOp23
 70
     1
102
RTVSPropertyOp24
 70
     1
102
RTVSPropertyOp25
 70
     1
102
RTVSPropertyOp26
 70
     1
102
RTVSPropertyOp27
 70
     1
102
RTVSPropertyOp28
 70
     1
102
RTVSPropertyOp29
 70
     1
102
RTVSPropertyOp30
 70
     1
102
RTVSPropertyOp31
 70
     1
102
RTVSPropertyOp32
 70
     1
102
RTVSPropertyOp33
 70
     1
102
RTVSPropertyOp34
 70
     1
102
RTVSPropertyOp35
 70
     1
102
RTVSPropertyOp36
 70
     1
102
RTVSPropertyOp37
 70
     1
102
RTVSPropertyOp38
 70
     1
102
RTVSPropertyOp39
 70
     1
102
RTVSPropertyOp40
 70
     1
102
RTVSPropertyOp41
 70
     1
102
RTVSPropertyOp42
 70
     1
102
RTVSPropertyOp43
 70
     1
102
RTVSPropertyOp44
 70
     1
102
RTVSPropertyOp45
 70
     1
102
RTVSPropertyOp46
 70
     1
102
RTVSPropertyOp47
 70
     1
102
RTVSPropertyOp48
 70
     1
102
RTVSPropertyOp49
 70
     1
102
RTVSPropertyOp50
 70
     1
102
RTVSPropertyOp51
 70
     0
102
RTVSPropertyOp52
 70
     0
102
RTVSPropertyOp53
 70
     1
102
RTVSPropertyOp54
 70
     1
102
RTVSPropertyOp55
 70
     1
102
RTVSPropertyOp56
 70
     1
102
RTVSPropertyOp57
 70
     1
102
RTVSPropertyOp58
 70
     1
102
RTVSPropertyOp59
 70
     1
102
RTVSPropertyOp60
 70
     1
102
RTVSPropertyOp61
 70
     1
102
RTVSPropertyOp62
 70
     1
  0
XRECORD
  5
8532
102
{ACAD_REACTORS
330
8531
102
}
330
8531
100
AcDbXrecord
280
     1
102
RTVSPost2010Prop28
280
     0
102
RTVSPost2010PropOp28
 70
     1
102
RTVSPost2010Prop29
280
     1
102
RTVSPost2010PropOp29
 70
     1
102
RTVSPost2010Prop30
280
     1
102
RTVSPost2010PropOp30
 70
     1
102
RTVSPost2010Prop31
280
     0
102
RTVSPost2010PropOp31
 70
     1
102
RTVSPost2010Prop32
280
     0
102
RTVSPost2010PropOp32
 70
     1
102
RTVSPost2010Prop33
280
     0
102
RTVSPost2010PropOp33
 70
     1
102
RTVSPost2010Prop34
280
     0
102
RTVSPost2010PropOp34
 70
     1
102
RTVSPost2010Prop35
280
     0
102
RTVSPost2010PropOp35
 70
     1
102
RTVSPost2010Prop36
280
     0
102
RTVSPost2010PropOp36
 70
     1
102
RTVSPost2010Prop37
 90
       50
102
RTVSPost2010PropOp37
 70
     1
102
RTVSPost2010Prop38
140
0.0
102
RTVSPost2010PropOp38
 70
     1
102
RTVSPost2010Prop39
140
1.0
102
RTVSPost2010PropOp39
 70
     1
102
RTVSPost2010Prop40
 90
        0
102
RTVSPost2010PropOp40
 70
     1
102
RTVSPost2010Prop41ColorIndex
 90
       18
102
RTVSPost2010Prop41ColorRGB
 90
        0
102
RTVSPost2010PropOp41
 70
     1
102
RTVSPost2010Prop42
 90
       50
102
RTVSPost2010PropOp42
 70
     1
102
RTVSPost2010Prop43
 90
        3
102
RTVSPost2010PropOp43
 70
     1
102
RTVSPost2010Prop44ColorIndex
 90
        5
102
RTVSPost2010Prop44ColorRGB
 90
      255
102
RTVSPost2010PropOp44
 70
     1
102
RTVSPost2010Prop45
280
     0
102
RTVSPost2010PropOp45
 70
     1
102
RTVSPost2010Prop46
 90
       50
102
RTVSPost2010PropOp46
 70
     1
102
RTVSPost2010Prop47
 90
       50
102
RTVSPost2010PropOp47
 70
     1
102
RTVSPost2010Prop48
 90
       50
102
RTVSPost2010PropOp48
 70
     1
102
RTVSPost2010Prop49
280
     0
102
RTVSPost2010PropOp49
 70
     1
102
RTVSPost2010Prop50
 90
       50
102
RTVSPost2010PropOp50
 70
     1
102
RTVSPost2010Prop51ColorIndex
 90
      256
102
RTVSPost2010Prop51ColorRGB
 90
-16777216
102
RTVSPost2010PropOp51
 70
     0
102
RTVSPost2010Prop52
140
1.0
102
RTVSPost2010PropOp52
 70
     0
102
RTVSPost2010Prop53
 90
        2
102
RTVSPost2010PropOp53
 70
     1
102
RTVSPost2010Prop54
  1
strokes_ogs.tif
102
RTVSPost2010PropOp54
 70
     1
102
RTVSPost2010Prop55
280
     0
102
RTVSPost2010PropOp55
 70
     1
102
RTVSPost2010Prop56
140
1.0
102
RTVSPost2010PropOp56
 70
     1
102
RTVSPost2010Prop57
140
1.0
102
RTVSPost2010PropOp57
 70
     1
102
RTVSPropertyOp0
 70
     1
102
RTVSPropertyOp1
 70
     1
102
RTVSPropertyOp2
 70
     1
102
RTVSPropertyOp3
 70
     1
102
RTVSPropertyOp4
 70
     1
102
RTVSPropertyOp5
 70
     1
102
RTVSPropertyOp6
 70
     1
102
RTVSPropertyOp7
 70
     1
102
RTVSPropertyOp8
 70
     1
102
RTVSPropertyOp9
 70
     1
102
RTVSPropertyOp10
 70
     1
102
RTVSPropertyOp11
 70
     1
102
RTVSPropertyOp12
 70
     1
102
RTVSPropertyOp13
 70
     1
102
RTVSPropertyOp14
 70
     1
102
RTVSPropertyOp15
 70
     1
102
RTVSPropertyOp16
 70
     1
102
RTVSPropertyOp17
 70
     1
102
RTVSPropertyOp18
 70
     1
102
RTVSPropertyOp19
 70
     1
102
RTVSPropertyOp20
 70
     1
102
RTVSPropertyOp21
 70
     1
102
RTVSPropertyOp22
 70
     1
102
RTVSPropertyOp23
 70
     1
102
RTVSPropertyOp24
 70
     1
102
RTVSPropertyOp25
 70
     1
102
RTVSPropertyOp26
 70
     1
102
RTVSPropertyOp27
 70
     1
102
RTVSPropertyOp28
 70
     1
102
RTVSPropertyOp29
 70
     1
102
RTVSPropertyOp30
 70
     1
102
RTVSPropertyOp31
 70
     1
102
RTVSPropertyOp32
 70
     1
102
RTVSPropertyOp33
 70
     1
102
RTVSPropertyOp34
 70
     1
102
RTVSPropertyOp35
 70
     1
102
RTVSPropertyOp36
 70
     1
102
RTVSPropertyOp37
 70
     1
102
RTVSPropertyOp38
 70
     1
102
RTVSPropertyOp39
 70
     1
102
RTVSPropertyOp40
 70
     1
102
RTVSPropertyOp41
 70
     1
102
RTVSPropertyOp42
 70
     1
102
RTVSPropertyOp43
 70
     1
102
RTVSPropertyOp44
 70
     1
102
RTVSPropertyOp45
 70
     1
102
RTVSPropertyOp46
 70
     1
102
RTVSPropertyOp47
 70
     1
102
RTVSPropertyOp48
 70
     1
102
RTVSPropertyOp49
 70
     1
102
RTVSPropertyOp50
 70
     1
102
RTVSPropertyOp51
 70
     0
102
RTVSPropertyOp52
 70
     0
102
RTVSPropertyOp53
 70
     1
102
RTVSPropertyOp54
 70
     1
102
RTVSPropertyOp55
 70
     1
102
RTVSPropertyOp56
 70
     1
102
RTVSPropertyOp57
 70
     1
102
RTVSPropertyOp58
 70
     1
102
RTVSPropertyOp59
 70
     1
102
RTVSPropertyOp60
 70
     1
102
RTVSPropertyOp61
 70
     1
102
RTVSPropertyOp62
 70
     1
  0
XRECORD
  5
852C
102
{ACAD_REACTORS
330
852B
102
}
330
852B
100
AcDbXrecord
280
     1
102
RTVSPost2010Prop28
280
     0
102
RTVSPost2010PropOp28
 70
     1
102
RTVSPost2010Prop29
280
     1
102
RTVSPost2010PropOp29
 70
     1
102
RTVSPost2010Prop30
280
     1
102
RTVSPost2010PropOp30
 70
     1
102
RTVSPost2010Prop31
280
     0
102
RTVSPost2010PropOp31
 70
     1
102
RTVSPost2010Prop32
280
     0
102
RTVSPost2010PropOp32
 70
     1
102
RTVSPost2010Prop33
280
     0
102
RTVSPost2010PropOp33
 70
     1
102
RTVSPost2010Prop34
280
     0
102
RTVSPost2010PropOp34
 70
     1
102
RTVSPost2010Prop35
280
     0
102
RTVSPost2010PropOp35
 70
     1
102
RTVSPost2010Prop36
280
     0
102
RTVSPost2010PropOp36
 70
     1
102
RTVSPost2010Prop37
 90
       50
102
RTVSPost2010PropOp37
 70
     1
102
RTVSPost2010Prop38
140
0.0
102
RTVSPost2010PropOp38
 70
     1
102
RTVSPost2010Prop39
140
1.0
102
RTVSPost2010PropOp39
 70
     1
102
RTVSPost2010Prop40
 90
        0
102
RTVSPost2010PropOp40
 70
     1
102
RTVSPost2010Prop41ColorIndex
 90
       18
102
RTVSPost2010Prop41ColorRGB
 90
        0
102
RTVSPost2010PropOp41
 70
     1
102
RTVSPost2010Prop42
 90
       50
102
RTVSPost2010PropOp42
 70
     1
102
RTVSPost2010Prop43
 90
        3
102
RTVSPost2010PropOp43
 70
     1
102
RTVSPost2010Prop44ColorIndex
 90
        5
102
RTVSPost2010Prop44ColorRGB
 90
      255
102
RTVSPost2010PropOp44
 70
     1
102
RTVSPost2010Prop45
280
     0
102
RTVSPost2010PropOp45
 70
     1
102
RTVSPost2010Prop46
 90
       50
102
RTVSPost2010PropOp46
 70
     1
102
RTVSPost2010Prop47
 90
       50
102
RTVSPost2010PropOp47
 70
     1
102
RTVSPost2010Prop48
 90
       50
102
RTVSPost2010PropOp48
 70
     1
102
RTVSPost2010Prop49
280
     0
102
RTVSPost2010PropOp49
 70
     1
102
RTVSPost2010Prop50
 90
       50
102
RTVSPost2010PropOp50
 70
     1
102
RTVSPost2010Prop51ColorIndex
 90
      256
102
RTVSPost2010Prop51ColorRGB
 90
-16777216
102
RTVSPost2010PropOp51
 70
     0
102
RTVSPost2010Prop52
140
1.0
102
RTVSPost2010PropOp52
 70
     0
102
RTVSPost2010Prop53
 90
        2
102
RTVSPost2010PropOp53
 70
     1
102
RTVSPost2010Prop54
  1
strokes_ogs.tif
102
RTVSPost2010PropOp54
 70
     1
102
RTVSPost2010Prop55
280
     0
102
RTVSPost2010PropOp55
 70
     1
102
RTVSPost2010Prop56
140
1.0
102
RTVSPost2010PropOp56
 70
     1
102
RTVSPost2010Prop57
140
1.0
102
RTVSPost2010PropOp57
 70
     1
102
RTVSPropertyOp0
 70
     1
102
RTVSPropertyOp1
 70
     1
102
RTVSPropertyOp2
 70
     1
102
RTVSPropertyOp3
 70
     1
102
RTVSPropertyOp4
 70
     1
102
RTVSPropertyOp5
 70
     1
102
RTVSPropertyOp6
 70
     1
102
RTVSPropertyOp7
 70
     1
102
RTVSPropertyOp8
 70
     1
102
RTVSPropertyOp9
 70
     1
102
RTVSPropertyOp10
 70
     1
102
RTVSPropertyOp11
 70
     1
102
RTVSPropertyOp12
 70
     1
102
RTVSPropertyOp13
 70
     1
102
RTVSPropertyOp14
 70
     1
102
RTVSPropertyOp15
 70
     1
102
RTVSPropertyOp16
 70
     1
102
RTVSPropertyOp17
 70
     1
102
RTVSPropertyOp18
 70
     1
102
RTVSPropertyOp19
 70
     1
102
RTVSPropertyOp20
 70
     1
102
RTVSPropertyOp21
 70
     1
102
RTVSPropertyOp22
 70
     1
102
RTVSPropertyOp23
 70
     1
102
RTVSPropertyOp24
 70
     1
102
RTVSPropertyOp25
 70
     1
102
RTVSPropertyOp26
 70
     1
102
RTVSPropertyOp27
 70
     1
102
RTVSPropertyOp28
 70
     1
102
RTVSPropertyOp29
 70
     1
102
RTVSPropertyOp30
 70
     1
102
RTVSPropertyOp31
 70
     1
102
RTVSPropertyOp32
 70
     1
102
RTVSPropertyOp33
 70
     1
102
RTVSPropertyOp34
 70
     1
102
RTVSPropertyOp35
 70
     1
102
RTVSPropertyOp36
 70
     1
102
RTVSPropertyOp37
 70
     1
102
RTVSPropertyOp38
 70
     1
102
RTVSPropertyOp39
 70
     1
102
RTVSPropertyOp40
 70
     1
102
RTVSPropertyOp41
 70
     1
102
RTVSPropertyOp42
 70
     1
102
RTVSPropertyOp43
 70
     1
102
RTVSPropertyOp44
 70
     1
102
RTVSPropertyOp45
 70
     1
102
RTVSPropertyOp46
 70
     1
102
RTVSPropertyOp47
 70
     1
102
RTVSPropertyOp48
 70
     1
102
RTVSPropertyOp49
 70
     1
102
RTVSPropertyOp50
 70
     1
102
RTVSPropertyOp51
 70
     0
102
RTVSPropertyOp52
 70
     0
102
RTVSPropertyOp53
 70
     1
102
RTVSPropertyOp54
 70
     1
102
RTVSPropertyOp55
 70
     1
102
RTVSPropertyOp56
 70
     1
102
RTVSPropertyOp57
 70
     1
102
RTVSPropertyOp58
 70
     1
102
RTVSPropertyOp59
 70
     1
102
RTVSPropertyOp60
 70
     1
102
RTVSPropertyOp61
 70
     1
102
RTVSPropertyOp62
 70
     1
  0
XRECORD
  5
852E
102
{ACAD_REACTORS
330
852D
102
}
330
852D
100
AcDbXrecord
280
     1
102
RTVSPost2010Prop28
280
     0
102
RTVSPost2010PropOp28
 70
     1
102
RTVSPost2010Prop29
280
     1
102
RTVSPost2010PropOp29
 70
     1
102
RTVSPost2010Prop30
280
     1
102
RTVSPost2010PropOp30
 70
     1
102
RTVSPost2010Prop31
280
     0
102
RTVSPost2010PropOp31
 70
     1
102
RTVSPost2010Prop32
280
     0
102
RTVSPost2010PropOp32
 70
     1
102
RTVSPost2010Prop33
280
     0
102
RTVSPost2010PropOp33
 70
     1
102
RTVSPost2010Prop34
280
     0
102
RTVSPost2010PropOp34
 70
     1
102
RTVSPost2010Prop35
280
     0
102
RTVSPost2010PropOp35
 70
     1
102
RTVSPost2010Prop36
280
     0
102
RTVSPost2010PropOp36
 70
     1
102
RTVSPost2010Prop37
 90
       50
102
RTVSPost2010PropOp37
 70
     1
102
RTVSPost2010Prop38
140
0.0
102
RTVSPost2010PropOp38
 70
     1
102
RTVSPost2010Prop39
140
1.0
102
RTVSPost2010PropOp39
 70
     1
102
RTVSPost2010Prop40
 90
        0
102
RTVSPost2010PropOp40
 70
     1
102
RTVSPost2010Prop41ColorIndex
 90
       18
102
RTVSPost2010Prop41ColorRGB
 90
        0
102
RTVSPost2010PropOp41
 70
     1
102
RTVSPost2010Prop42
 90
       50
102
RTVSPost2010PropOp42
 70
     1
102
RTVSPost2010Prop43
 90
        3
102
RTVSPost2010PropOp43
 70
     1
102
RTVSPost2010Prop44ColorIndex
 90
        5
102
RTVSPost2010Prop44ColorRGB
 90
      255
102
RTVSPost2010PropOp44
 70
     1
102
RTVSPost2010Prop45
280
     0
102
RTVSPost2010PropOp45
 70
     1
102
RTVSPost2010Prop46
 90
       50
102
RTVSPost2010PropOp46
 70
     1
102
RTVSPost2010Prop47
 90
       50
102
RTVSPost2010PropOp47
 70
     1
102
RTVSPost2010Prop48
 90
       50
102
RTVSPost2010PropOp48
 70
     1
102
RTVSPost2010Prop49
280
     0
102
RTVSPost2010PropOp49
 70
     1
102
RTVSPost2010Prop50
 90
       50
102
RTVSPost2010PropOp50
 70
     1
102
RTVSPost2010Prop51ColorIndex
 90
      256
102
RTVSPost2010Prop51ColorRGB
 90
-16777216
102
RTVSPost2010PropOp51
 70
     0
102
RTVSPost2010Prop52
140
1.0
102
RTVSPost2010PropOp52
 70
     0
102
RTVSPost2010Prop53
 90
        2
102
RTVSPost2010PropOp53
 70
     1
102
RTVSPost2010Prop54
  1
strokes_ogs.tif
102
RTVSPost2010PropOp54
 70
     1
102
RTVSPost2010Prop55
280
     0
102
RTVSPost2010PropOp55
 70
     1
102
RTVSPost2010Prop56
140
1.0
102
RTVSPost2010PropOp56
 70
     1
102
RTVSPost2010Prop57
140
1.0
102
RTVSPost2010PropOp57
 70
     1
102
RTVSPropertyOp0
 70
     1
102
RTVSPropertyOp1
 70
     1
102
RTVSPropertyOp2
 70
     1
102
RTVSPropertyOp3
 70
     1
102
RTVSPropertyOp4
 70
     1
102
RTVSPropertyOp5
 70
     1
102
RTVSPropertyOp6
 70
     1
102
RTVSPropertyOp7
 70
     1
102
RTVSPropertyOp8
 70
     1
102
RTVSPropertyOp9
 70
     1
102
RTVSPropertyOp10
 70
     1
102
RTVSPropertyOp11
 70
     1
102
RTVSPropertyOp12
 70
     1
102
RTVSPropertyOp13
 70
     1
102
RTVSPropertyOp14
 70
     1
102
RTVSPropertyOp15
 70
     1
102
RTVSPropertyOp16
 70
     1
102
RTVSPropertyOp17
 70
     1
102
RTVSPropertyOp18
 70
     1
102
RTVSPropertyOp19
 70
     1
102
RTVSPropertyOp20
 70
     1
102
RTVSPropertyOp21
 70
     1
102
RTVSPropertyOp22
 70
     1
102
RTVSPropertyOp23
 70
     1
102
RTVSPropertyOp24
 70
     1
102
RTVSPropertyOp25
 70
     1
102
RTVSPropertyOp26
 70
     1
102
RTVSPropertyOp27
 70
     1
102
RTVSPropertyOp28
 70
     1
102
RTVSPropertyOp29
 70
     1
102
RTVSPropertyOp30
 70
     1
102
RTVSPropertyOp31
 70
     1
102
RTVSPropertyOp32
 70
     1
102
RTVSPropertyOp33
 70
     1
102
RTVSPropertyOp34
 70
     1
102
RTVSPropertyOp35
 70
     1
102
RTVSPropertyOp36
 70
     1
102
RTVSPropertyOp37
 70
     1
102
RTVSPropertyOp38
 70
     1
102
RTVSPropertyOp39
 70
     1
102
RTVSPropertyOp40
 70
     1
102
RTVSPropertyOp41
 70
     1
102
RTVSPropertyOp42
 70
     1
102
RTVSPropertyOp43
 70
     1
102
RTVSPropertyOp44
 70
     1
102
RTVSPropertyOp45
 70
     1
102
RTVSPropertyOp46
 70
     1
102
RTVSPropertyOp47
 70
     1
102
RTVSPropertyOp48
 70
     1
102
RTVSPropertyOp49
 70
     1
102
RTVSPropertyOp50
 70
     1
102
RTVSPropertyOp51
 70
     0
102
RTVSPropertyOp52
 70
     0
102
RTVSPropertyOp53
 70
     1
102
RTVSPropertyOp54
 70
     1
102
RTVSPropertyOp55
 70
     1
102
RTVSPropertyOp56
 70
     1
102
RTVSPropertyOp57
 70
     1
102
RTVSPropertyOp58
 70
     1
102
RTVSPropertyOp59
 70
     1
102
RTVSPropertyOp60
 70
     1
102
RTVSPropertyOp61
 70
     1
102
RTVSPropertyOp62
 70
     1
  0
XRECORD
  5
8524
102
{ACAD_REACTORS
330
8523
102
}
330
8523
100
AcDbXrecord
280
     1
102
RTVSPost2010Prop28
280
     0
102
RTVSPost2010PropOp28
 70
     1
102
RTVSPost2010Prop29
280
     1
102
RTVSPost2010PropOp29
 70
     1
102
RTVSPost2010Prop30
280
     1
102
RTVSPost2010PropOp30
 70
     1
102
RTVSPost2010Prop31
280
     0
102
RTVSPost2010PropOp31
 70
     1
102
RTVSPost2010Prop32
280
     0
102
RTVSPost2010PropOp32
 70
     1
102
RTVSPost2010Prop33
280
     0
102
RTVSPost2010PropOp33
 70
     1
102
RTVSPost2010Prop34
280
     0
102
RTVSPost2010PropOp34
 70
     1
102
RTVSPost2010Prop35
280
     0
102
RTVSPost2010PropOp35
 70
     1
102
RTVSPost2010Prop36
280
     0
102
RTVSPost2010PropOp36
 70
     1
102
RTVSPost2010Prop37
 90
       50
102
RTVSPost2010PropOp37
 70
     1
102
RTVSPost2010Prop38
140
0.0
102
RTVSPost2010PropOp38
 70
     1
102
RTVSPost2010Prop39
140
1.0
102
RTVSPost2010PropOp39
 70
     1
102
RTVSPost2010Prop40
 90
        0
102
RTVSPost2010PropOp40
 70
     1
102
RTVSPost2010Prop41ColorIndex
 90
       18
102
RTVSPost2010Prop41ColorRGB
 90
        0
102
RTVSPost2010PropOp41
 70
     1
102
RTVSPost2010Prop42
 90
       50
102
RTVSPost2010PropOp42
 70
     1
102
RTVSPost2010Prop43
 90
        3
102
RTVSPost2010PropOp43
 70
     1
102
RTVSPost2010Prop44ColorIndex
 90
        5
102
RTVSPost2010Prop44ColorRGB
 90
      255
102
RTVSPost2010PropOp44
 70
     1
102
RTVSPost2010Prop45
280
     0
102
RTVSPost2010PropOp45
 70
     1
102
RTVSPost2010Prop46
 90
       50
102
RTVSPost2010PropOp46
 70
     1
102
RTVSPost2010Prop47
 90
       50
102
RTVSPost2010PropOp47
 70
     1
102
RTVSPost2010Prop48
 90
       50
102
RTVSPost2010PropOp48
 70
     1
102
RTVSPost2010Prop49
280
     0
102
RTVSPost2010PropOp49
 70
     1
102
RTVSPost2010Prop50
 90
       50
102
RTVSPost2010PropOp50
 70
     1
102
RTVSPost2010Prop51ColorIndex
 90
      256
102
RTVSPost2010Prop51ColorRGB
 90
-16777216
102
RTVSPost2010PropOp51
 70
     0
102
RTVSPost2010Prop52
140
1.0
102
RTVSPost2010PropOp52
 70
     0
102
RTVSPost2010Prop53
 90
        2
102
RTVSPost2010PropOp53
 70
     1
102
RTVSPost2010Prop54
  1
strokes_ogs.tif
102
RTVSPost2010PropOp54
 70
     1
102
RTVSPost2010Prop55
280
     0
102
RTVSPost2010PropOp55
 70
     1
102
RTVSPost2010Prop56
140
1.0
102
RTVSPost2010PropOp56
 70
     1
102
RTVSPost2010Prop57
140
1.0
102
RTVSPost2010PropOp57
 70
     1
102
RTVSPropertyOp0
 70
     1
102
RTVSPropertyOp1
 70
     1
102
RTVSPropertyOp2
 70
     1
102
RTVSPropertyOp3
 70
     1
102
RTVSPropertyOp4
 70
     1
102
RTVSPropertyOp5
 70
     1
102
RTVSPropertyOp6
 70
     1
102
RTVSPropertyOp7
 70
     1
102
RTVSPropertyOp8
 70
     1
102
RTVSPropertyOp9
 70
     1
102
RTVSPropertyOp10
 70
     1
102
RTVSPropertyOp11
 70
     1
102
RTVSPropertyOp12
 70
     1
102
RTVSPropertyOp13
 70
     1
102
RTVSPropertyOp14
 70
     1
102
RTVSPropertyOp15
 70
     1
102
RTVSPropertyOp16
 70
     1
102
RTVSPropertyOp17
 70
     1
102
RTVSPropertyOp18
 70
     1
102
RTVSPropertyOp19
 70
     1
102
RTVSPropertyOp20
 70
     1
102
RTVSPropertyOp21
 70
     1
102
RTVSPropertyOp22
 70
     1
102
RTVSPropertyOp23
 70
     1
102
RTVSPropertyOp24
 70
     1
102
RTVSPropertyOp25
 70
     1
102
RTVSPropertyOp26
 70
     1
102
RTVSPropertyOp27
 70
     1
102
RTVSPropertyOp28
 70
     1
102
RTVSPropertyOp29
 70
     1
102
RTVSPropertyOp30
 70
     1
102
RTVSPropertyOp31
 70
     1
102
RTVSPropertyOp32
 70
     1
102
RTVSPropertyOp33
 70
     1
102
RTVSPropertyOp34
 70
     1
102
RTVSPropertyOp35
 70
     1
102
RTVSPropertyOp36
 70
     1
102
RTVSPropertyOp37
 70
     1
102
RTVSPropertyOp38
 70
     1
102
RTVSPropertyOp39
 70
     1
102
RTVSPropertyOp40
 70
     1
102
RTVSPropertyOp41
 70
     1
102
RTVSPropertyOp42
 70
     1
102
RTVSPropertyOp43
 70
     1
102
RTVSPropertyOp44
 70
     1
102
RTVSPropertyOp45
 70
     1
102
RTVSPropertyOp46
 70
     1
102
RTVSPropertyOp47
 70
     1
102
RTVSPropertyOp48
 70
     1
102
RTVSPropertyOp49
 70
     1
102
RTVSPropertyOp50
 70
     1
102
RTVSPropertyOp51
 70
     0
102
RTVSPropertyOp52
 70
     0
102
RTVSPropertyOp53
 70
     1
102
RTVSPropertyOp54
 70
     1
102
RTVSPropertyOp55
 70
     1
102
RTVSPropertyOp56
 70
     1
102
RTVSPropertyOp57
 70
     1
102
RTVSPropertyOp58
 70
     1
102
RTVSPropertyOp59
 70
     1
102
RTVSPropertyOp60
 70
     1
102
RTVSPropertyOp61
 70
     1
102
RTVSPropertyOp62
 70
     1
  0
XRECORD
  5
8518
102
{ACAD_REACTORS
330
8517
102
}
330
8517
100
AcDbXrecord
280
     1
102
RTVSPost2010Prop28
280
     0
102
RTVSPost2010PropOp28
 70
     1
102
RTVSPost2010Prop29
280
     1
102
RTVSPost2010PropOp29
 70
     1
102
RTVSPost2010Prop30
280
     1
102
RTVSPost2010PropOp30
 70
     1
102
RTVSPost2010Prop31
280
     0
102
RTVSPost2010PropOp31
 70
     1
102
RTVSPost2010Prop32
280
     0
102
RTVSPost2010PropOp32
 70
     1
102
RTVSPost2010Prop33
280
     0
102
RTVSPost2010PropOp33
 70
     1
102
RTVSPost2010Prop34
280
     0
102
RTVSPost2010PropOp34
 70
     1
102
RTVSPost2010Prop35
280
     0
102
RTVSPost2010PropOp35
 70
     1
102
RTVSPost2010Prop36
280
     0
102
RTVSPost2010PropOp36
 70
     1
102
RTVSPost2010Prop37
 90
       50
102
RTVSPost2010PropOp37
 70
     1
102
RTVSPost2010Prop38
140
0.0
102
RTVSPost2010PropOp38
 70
     1
102
RTVSPost2010Prop39
140
1.0
102
RTVSPost2010PropOp39
 70
     1
102
RTVSPost2010Prop40
 90
        0
102
RTVSPost2010PropOp40
 70
     1
102
RTVSPost2010Prop41ColorIndex
 90
       18
102
RTVSPost2010Prop41ColorRGB
 90
        0
102
RTVSPost2010PropOp41
 70
     1
102
RTVSPost2010Prop42
 90
       50
102
RTVSPost2010PropOp42
 70
     1
102
RTVSPost2010Prop43
 90
        3
102
RTVSPost2010PropOp43
 70
     1
102
RTVSPost2010Prop44ColorIndex
 90
        5
102
RTVSPost2010Prop44ColorRGB
 90
      255
102
RTVSPost2010PropOp44
 70
     1
102
RTVSPost2010Prop45
280
     0
102
RTVSPost2010PropOp45
 70
     1
102
RTVSPost2010Prop46
 90
       50
102
RTVSPost2010PropOp46
 70
     1
102
RTVSPost2010Prop47
 90
       50
102
RTVSPost2010PropOp47
 70
     1
102
RTVSPost2010Prop48
 90
       50
102
RTVSPost2010PropOp48
 70
     1
102
RTVSPost2010Prop49
280
     0
102
RTVSPost2010PropOp49
 70
     1
102
RTVSPost2010Prop50
 90
       50
102
RTVSPost2010PropOp50
 70
     1
102
RTVSPost2010Prop51ColorIndex
 90
      256
102
RTVSPost2010Prop51ColorRGB
 90
-16777216
102
RTVSPost2010PropOp51
 70
     0
102
RTVSPost2010Prop52
140
1.0
102
RTVSPost2010PropOp52
 70
     0
102
RTVSPost2010Prop53
 90
        2
102
RTVSPost2010PropOp53
 70
     1
102
RTVSPost2010Prop54
  1
strokes_ogs.tif
102
RTVSPost2010PropOp54
 70
     1
102
RTVSPost2010Prop55
280
     0
102
RTVSPost2010PropOp55
 70
     1
102
RTVSPost2010Prop56
140
1.0
102
RTVSPost2010PropOp56
 70
     1
102
RTVSPost2010Prop57
140
1.0
102
RTVSPost2010PropOp57
 70
     1
102
RTVSPropertyOp0
 70
     1
102
RTVSPropertyOp1
 70
     1
102
RTVSPropertyOp2
 70
     1
102
RTVSPropertyOp3
 70
     1
102
RTVSPropertyOp4
 70
     1
102
RTVSPropertyOp5
 70
     1
102
RTVSPropertyOp6
 70
     1
102
RTVSPropertyOp7
 70
     1
102
RTVSPropertyOp8
 70
     1
102
RTVSPropertyOp9
 70
     1
102
RTVSPropertyOp10
 70
     1
102
RTVSPropertyOp11
 70
     1
102
RTVSPropertyOp12
 70
     1
102
RTVSPropertyOp13
 70
     1
102
RTVSPropertyOp14
 70
     1
102
RTVSPropertyOp15
 70
     1
102
RTVSPropertyOp16
 70
     1
102
RTVSPropertyOp17
 70
     1
102
RTVSPropertyOp18
 70
     1
102
RTVSPropertyOp19
 70
     1
102
RTVSPropertyOp20
 70
     1
102
RTVSPropertyOp21
 70
     1
102
RTVSPropertyOp22
 70
     1
102
RTVSPropertyOp23
 70
     1
102
RTVSPropertyOp24
 70
     1
102
RTVSPropertyOp25
 70
     1
102
RTVSPropertyOp26
 70
     1
102
RTVSPropertyOp27
 70
     1
102
RTVSPropertyOp28
 70
     1
102
RTVSPropertyOp29
 70
     1
102
RTVSPropertyOp30
 70
     1
102
RTVSPropertyOp31
 70
     1
102
RTVSPropertyOp32
 70
     1
102
RTVSPropertyOp33
 70
     1
102
RTVSPropertyOp34
 70
     1
102
RTVSPropertyOp35
 70
     1
102
RTVSPropertyOp36
 70
     1
102
RTVSPropertyOp37
 70
     1
102
RTVSPropertyOp38
 70
     1
102
RTVSPropertyOp39
 70
     1
102
RTVSPropertyOp40
 70
     1
102
RTVSPropertyOp41
 70
     1
102
RTVSPropertyOp42
 70
     1
102
RTVSPropertyOp43
 70
     1
102
RTVSPropertyOp44
 70
     1
102
RTVSPropertyOp45
 70
     1
102
RTVSPropertyOp46
 70
     1
102
RTVSPropertyOp47
 70
     1
102
RTVSPropertyOp48
 70
     1
102
RTVSPropertyOp49
 70
     1
102
RTVSPropertyOp50
 70
     1
102
RTVSPropertyOp51
 70
     0
102
RTVSPropertyOp52
 70
     0
102
RTVSPropertyOp53
 70
     1
102
RTVSPropertyOp54
 70
     1
102
RTVSPropertyOp55
 70
     1
102
RTVSPropertyOp56
 70
     1
102
RTVSPropertyOp57
 70
     1
102
RTVSPropertyOp58
 70
     1
102
RTVSPropertyOp59
 70
     1
102
RTVSPropertyOp60
 70
     1
102
RTVSPropertyOp61
 70
     1
102
RTVSPropertyOp62
 70
     1
  0
XRECORD
  5
8530
102
{ACAD_REACTORS
330
852F
102
}
330
852F
100
AcDbXrecord
280
     1
102
RTVSPost2010Prop28
280
     0
102
RTVSPost2010PropOp28
 70
     1
102
RTVSPost2010Prop29
280
     1
102
RTVSPost2010PropOp29
 70
     1
102
RTVSPost2010Prop30
280
     1
102
RTVSPost2010PropOp30
 70
     1
102
RTVSPost2010Prop31
280
     0
102
RTVSPost2010PropOp31
 70
     1
102
RTVSPost2010Prop32
280
     0
102
RTVSPost2010PropOp32
 70
     1
102
RTVSPost2010Prop33
280
     0
102
RTVSPost2010PropOp33
 70
     1
102
RTVSPost2010Prop34
280
     0
102
RTVSPost2010PropOp34
 70
     1
102
RTVSPost2010Prop35
280
     0
102
RTVSPost2010PropOp35
 70
     1
102
RTVSPost2010Prop36
280
     0
102
RTVSPost2010PropOp36
 70
     1
102
RTVSPost2010Prop37
 90
       50
102
RTVSPost2010PropOp37
 70
     1
102
RTVSPost2010Prop38
140
0.0
102
RTVSPost2010PropOp38
 70
     1
102
RTVSPost2010Prop39
140
1.0
102
RTVSPost2010PropOp39
 70
     1
102
RTVSPost2010Prop40
 90
        0
102
RTVSPost2010PropOp40
 70
     1
102
RTVSPost2010Prop41ColorIndex
 90
       18
102
RTVSPost2010Prop41ColorRGB
 90
        0
102
RTVSPost2010PropOp41
 70
     1
102
RTVSPost2010Prop42
 90
       50
102
RTVSPost2010PropOp42
 70
     1
102
RTVSPost2010Prop43
 90
        3
102
RTVSPost2010PropOp43
 70
     1
102
RTVSPost2010Prop44ColorIndex
 90
        5
102
RTVSPost2010Prop44ColorRGB
 90
      255
102
RTVSPost2010PropOp44
 70
     1
102
RTVSPost2010Prop45
280
     0
102
RTVSPost2010PropOp45
 70
     1
102
RTVSPost2010Prop46
 90
       50
102
RTVSPost2010PropOp46
 70
     1
102
RTVSPost2010Prop47
 90
       50
102
RTVSPost2010PropOp47
 70
     1
102
RTVSPost2010Prop48
 90
       50
102
RTVSPost2010PropOp48
 70
     1
102
RTVSPost2010Prop49
280
     0
102
RTVSPost2010PropOp49
 70
     1
102
RTVSPost2010Prop50
 90
       50
102
RTVSPost2010PropOp50
 70
     1
102
RTVSPost2010Prop51ColorIndex
 90
      256
102
RTVSPost2010Prop51ColorRGB
 90
-16777216
102
RTVSPost2010PropOp51
 70
     0
102
RTVSPost2010Prop52
140
1.0
102
RTVSPost2010PropOp52
 70
     0
102
RTVSPost2010Prop53
 90
        2
102
RTVSPost2010PropOp53
 70
     1
102
RTVSPost2010Prop54
  1
strokes_ogs.tif
102
RTVSPost2010PropOp54
 70
     1
102
RTVSPost2010Prop55
280
     0
102
RTVSPost2010PropOp55
 70
     1
102
RTVSPost2010Prop56
140
1.0
102
RTVSPost2010PropOp56
 70
     1
102
RTVSPost2010Prop57
140
1.0
102
RTVSPost2010PropOp57
 70
     1
102
RTVSPropertyOp0
 70
     1
102
RTVSPropertyOp1
 70
     1
102
RTVSPropertyOp2
 70
     1
102
RTVSPropertyOp3
 70
     1
102
RTVSPropertyOp4
 70
     1
102
RTVSPropertyOp5
 70
     1
102
RTVSPropertyOp6
 70
     1
102
RTVSPropertyOp7
 70
     1
102
RTVSPropertyOp8
 70
     1
102
RTVSPropertyOp9
 70
     1
102
RTVSPropertyOp10
 70
     1
102
RTVSPropertyOp11
 70
     1
102
RTVSPropertyOp12
 70
     1
102
RTVSPropertyOp13
 70
     1
102
RTVSPropertyOp14
 70
     1
102
RTVSPropertyOp15
 70
     1
102
RTVSPropertyOp16
 70
     1
102
RTVSPropertyOp17
 70
     1
102
RTVSPropertyOp18
 70
     1
102
RTVSPropertyOp19
 70
     1
102
RTVSPropertyOp20
 70
     1
102
RTVSPropertyOp21
 70
     1
102
RTVSPropertyOp22
 70
     1
102
RTVSPropertyOp23
 70
     1
102
RTVSPropertyOp24
 70
     1
102
RTVSPropertyOp25
 70
     1
102
RTVSPropertyOp26
 70
     1
102
RTVSPropertyOp27
 70
     1
102
RTVSPropertyOp28
 70
     1
102
RTVSPropertyOp29
 70
     1
102
RTVSPropertyOp30
 70
     1
102
RTVSPropertyOp31
 70
     1
102
RTVSPropertyOp32
 70
     1
102
RTVSPropertyOp33
 70
     1
102
RTVSPropertyOp34
 70
     1
102
RTVSPropertyOp35
 70
     1
102
RTVSPropertyOp36
 70
     1
102
RTVSPropertyOp37
 70
     1
102
RTVSPropertyOp38
 70
     1
102
RTVSPropertyOp39
 70
     1
102
RTVSPropertyOp40
 70
     1
102
RTVSPropertyOp41
 70
     1
102
RTVSPropertyOp42
 70
     1
102
RTVSPropertyOp43
 70
     1
102
RTVSPropertyOp44
 70
     1
102
RTVSPropertyOp45
 70
     1
102
RTVSPropertyOp46
 70
     1
102
RTVSPropertyOp47
 70
     1
102
RTVSPropertyOp48
 70
     1
102
RTVSPropertyOp49
 70
     1
102
RTVSPropertyOp50
 70
     1
102
RTVSPropertyOp51
 70
     0
102
RTVSPropertyOp52
 70
     0
102
RTVSPropertyOp53
 70
     1
102
RTVSPropertyOp54
 70
     1
102
RTVSPropertyOp55
 70
     1
102
RTVSPropertyOp56
 70
     1
102
RTVSPropertyOp57
 70
     1
102
RTVSPropertyOp58
 70
     1
102
RTVSPropertyOp59
 70
     1
102
RTVSPropertyOp60
 70
     1
102
RTVSPropertyOp61
 70
     1
102
RTVSPropertyOp62
 70
     1
  0
ENDSEC
  0
EOF
