  0
SECTION
  2
HEADER
  9
$ACADVER
  1
AC1015
  9
$ACADMAINTVER
 70
    20
  9
$DWGCODEPAGE
  3
ANSI_932
  9
$INSBASE
 10
0.0
 20
0.0
 30
0.0
  9
$EXTMIN
 10
-0.3493520585689112
 20
-0.22504996767384
 30
-0.0015258207003583
  9
$EXTMAX
 10
5250.25361041108
 20
7375.225084310193
 30
0.0000000349246037
  9
$LIMMIN
 10
0.0
 20
0.0
  9
$LIMMAX
 10
297.0
 20
210.0
  9
$ORTHOMODE
 70
     1
  9
$REGENMODE
 70
     1
  9
$FILLMODE
 70
     0
  9
$QTEXTMODE
 70
     0
  9
$MIRRTEXT
 70
     1
  9
$LTSCALE
 40
100.0
  9
$ATTMODE
 70
     1
  9
$TEXTSIZE
 40
180.0
  9
$TRACEWID
 40
0.05
  9
$TEXTSTYLE
  7
STANDARD
  9
$CLAYER
  8
3
  9
$CELTYPE
  6
ByLayer
  9
$CECOLOR
 62
   256
  9
$CELTSCALE
 40
1.0
  9
$DISPSILH
 70
     0
  9
$DIMSCALE
 40
25.0
  9
$DIMASZ
 40
2.0
  9
$DIMEXO
 40
1.0
  9
$DIMDLI
 40
10.0
  9
$DIMRND
 40
0.0
  9
$DIMDLE
 40
0.0
  9
$DIMEXE
 40
1.0
  9
$DIMTP
 40
1.0
  9
$DIMTM
 40
1.0
  9
$DIMTXT
 40
3.0
  9
$DIMCEN
 40
0.0
  9
$DIMTSZ
 40
0.0
  9
$DIMTOL
 70
     0
  9
$DIMLIM
 70
     0
  9
$DIMTIH
 70
     0
  9
$DIMTOH
 70
     0
  9
$DIMSE1
 70
     0
  9
$DIMSE2
 70
     0
  9
$DIMTAD
 70
     1
  9
$DIMZIN
 70
     8
  9
$DIMBLK
  1

  9
$DIMASO
 70
     1
  9
$DIMSHO
 70
     1
  9
$DIMPOST
  1

  9
$DIMAPOST
  1

  9
$DIMALT
 70
     0
  9
$DIMALTD
 70
     2
  9
$DIMALTF
 40
0.039
  9
$DIMLFAC
 40
1.0
  9
$DIMTOFL
 70
     1
  9
$DIMTVP
 40
0.0
  9
$DIMTIX
 70
     0
  9
$DIMSOXD
 70
     0
  9
$DIMSAH
 70
     1
  9
$DIMBLK1
  1
OPEN
  9
$DIMBLK2
  1
OPEN
  9
$DIMSTYLE
  2
IGA
  9
$DIMCLRD
 70
     0
  9
$DIMCLRE
 70
     0
  9
$DIMCLRT
 70
     0
  9
$DIMTFAC
 40
10.0
  9
$DIMGAP
 40
1.0
  9
$DIMJUST
 70
     0
  9
$DIMSD1
 70
     0
  9
$DIMSD2
 70
     0
  9
$DIMTOLJ
 70
     1
  9
$DIMTZIN
 70
     0
  9
$DIMALTZ
 70
     0
  9
$DIMALTTZ
 70
     0
  9
$DIMUPT
 70
     0
  9
$DIMDEC
 70
     4
  9
$DIMTDEC
 70
     4
  9
$DIMALTU
 70
     2
  9
$DIMALTTD
 70
     2
  9
$DIMTXSTY
  7
STANDARD
  9
$DIMAUNIT
 70
     0
  9
$DIMADEC
 70
     0
  9
$DIMALTRND
 40
0.0
  9
$DIMAZIN
 70
     0
  9
$DIMDSEP
 70
    46
  9
$DIMATFIT
 70
     3
  9
$DIMFRAC
 70
     0
  9
$DIMLDRBLK
  1
OPEN
  9
$DIMLUNIT
 70
     2
  9
$DIMLWD
 70
    -2
  9
$DIMLWE
 70
    -2
  9
$DIMTMOVE
 70
     0
  9
$LUNITS
 70
     2
  9
$LUPREC
 70
     3
  9
$SKETCHINC
 40
0.1
  9
$FILLETRAD
 40
50.0
  9
$AUNITS
 70
     0
  9
$AUPREC
 70
     0
  9
$MENU
  1
acad
  9
$ELEVATION
 40
0.0
  9
$PELEVATION
 40
0.0
  9
$THICKNESS
 40
0.0
  9
$LIMCHECK
 70
     0
  9
$CHAMFERA
 40
0.5
  9
$CHAMFERB
 40
0.5
  9
$CHAMFERC
 40
0.0
  9
$CHAMFERD
 40
0.0
  9
$SKPOLY
 70
     0
  9
$TDCREATE
 40
2451387.612503704
  9
$TDUCREATE
 40
2451387.237503704
  9
$TDUPDATE
 40
2460263.707066458
  9
$TDUUPDATE
 40
2460263.332066458
  9
$TDINDWG
 40
0.0451704977
  9
$TDUSRTIMER
 40
0.0451703125
  9
$USRTIMER
 70
     1
  9
$ANGBASE
 50
0.0
  9
$ANGDIR
 70
     0
  9
$PDMODE
 70
     0
  9
$PDSIZE
 40
0.0
  9
$PLINEWID
 40
0.0
  9
$SPLFRAME
 70
     0
  9
$SPLINETYPE
 70
     6
  9
$SPLINESEGS
 70
     8
  9
$HANDSEED
  5
85BA
  9
$SURFTAB1
 70
     6
  9
$SURFTAB2
 70
     6
  9
$SURFTYPE
 70
     6
  9
$SURFU
 70
     6
  9
$SURFV
 70
     6
  9
$UCSBASE
  2

  9
$UCSNAME
  2

  9
$UCSORG
 10
0.0
 20
0.0
 30
0.0
  9
$UCSXDIR
 10
1.0
 20
0.0
 30
0.0
  9
$UCSYDIR
 10
0.0
 20
1.0
 30
0.0
  9
$UCSORTHOREF
  2

  9
$UCSORTHOVIEW
 70
     0
  9
$UCSORGTOP
 10
0.0
 20
0.0
 30
0.0
  9
$UCSORGBOTTOM
 10
0.0
 20
0.0
 30
0.0
  9
$UCSORGLEFT
 10
0.0
 20
0.0
 30
0.0
  9
$UCSORGRIGHT
 10
0.0
 20
0.0
 30
0.0
  9
$UCSORGFRONT
 10
0.0
 20
0.0
 30
0.0
  9
$UCSORGBACK
 10
0.0
 20
0.0
 30
0.0
  9
$PUCSBASE
  2

  9
$PUCSNAME
  2

  9
$PUCSORG
 10
0.0
 20
0.0
 30
0.0
  9
$PUCSXDIR
 10
1.0
 20
0.0
 30
0.0
  9
$PUCSYDIR
 10
0.0
 20
1.0
 30
0.0
  9
$PUCSORTHOREF
  2

  9
$PUCSORTHOVIEW
 70
     0
  9
$PUCSORGTOP
 10
0.0
 20
0.0
 30
0.0
  9
$PUCSORGBOTTOM
 10
0.0
 20
0.0
 30
0.0
  9
$PUCSORGLEFT
 10
0.0
 20
0.0
 30
0.0
  9
$PUCSORGRIGHT
 10
0.0
 20
0.0
 30
0.0
  9
$PUCSORGFRONT
 10
0.0
 20
0.0
 30
0.0
  9
$PUCSORGBACK
 10
0.0
 20
0.0
 30
0.0
  9
$USERI1
 70
     0
  9
$USERI2
 70
     0
  9
$USERI3
 70
     0
  9
$USERI4
 70
     0
  9
$USERI5
 70
     0
  9
$USERR1
 40
0.0
  9
$USERR2
 40
0.0
  9
$USERR3
 40
0.0
  9
$USERR4
 40
0.0
  9
$USERR5
 40
0.0
  9
$WORLDVIEW
 70
     1
  9
$SHADEDGE
 70
     3
  9
$SHADEDIF
 70
    70
  9
$TILEMODE
 70
     1
  9
$MAXACTVP
 70
    16
  9
$PINSBASE
 10
0.0
 20
0.0
 30
0.0
  9
$PLIMCHECK
 70
     0
  9
$PEXTMIN
 10
1.000000000000000E+20
 20
1.000000000000000E+20
 30
1.000000000000000E+20
  9
$PEXTMAX
 10
-1.000000000000000E+20
 20
-1.000000000000000E+20
 30
-1.000000000000000E+20
  9
$PLIMMIN
 10
0.0
 20
0.0
  9
$PLIMMAX
 10
12.0
 20
9.0
  9
$UNITMODE
 70
     0
  9
$VISRETAIN
 70
     0
  9
$PLINEGEN
 70
     0
  9
$PSLTSCALE
 70
     1
  9
$TREEDEPTH
 70
  3020
  9
$CMLSTYLE
  2
Standard
  9
$CMLJUST
 70
     0
  9
$CMLSCALE
 40
1.0
  9
$PROXYGRAPHICS
 70
     1
  9
$MEASUREMENT
 70
     0
  9
$CELWEIGHT
370
    -1
  9
$ENDCAPS
280
     0
  9
$JOINSTYLE
280
     0
  9
$LWDISPLAY
290
     0
  9
$INSUNITS
 70
     0
  9
$HYPERLINKBASE
  1

  9
$STYLESHEET
  1

  9
$XEDIT
290
     1
  9
$CEPSNTYPE
380
     0
  9
$PSTYLEMODE
290
     1
  9
$FINGERPRINTGUID
  2
{410F5D8B-754A-4EEF-8557-6186F3152A49}
  9
$VERSIONGUID
  2
{04FA32AB-64F3-4E23-BDA1-624107ADD3A4}
  9
$EXTNAMES
290
     1
  9
$PSVPSCALE
 40
0.0
  9
$OLESTARTUP
290
     0
  0
ENDSEC
  0
SECTION
  2
CLASSES
  0
CLASS
  1
ACDBDICTIONARYWDFLT
  2
AcDbDictionaryWithDefault
  3
ObjectDBX Classes
 90
        0
280
     0
281
     0
  0
CLASS
  1
MATERIAL
  2
AcDbMaterial
  3
ObjectDBX Classes
 90
     1153
280
     0
281
     0
  0
CLASS
  1
VISUALSTYLE
  2
AcDbVisualStyle
  3
ObjectDBX Classes
 90
     4095
280
     0
281
     0
  0
CLASS
  1
SCALE
  2
AcDbScale
  3
ObjectDBX Classes
 90
     1153
280
     0
281
     0
  0
CLASS
  1
TABLESTYLE
  2
AcDbTableStyle
  3
ObjectDBX Classes
 90
     4095
280
     0
281
     0
  0
CLASS
  1
MLEADERSTYLE
  2
AcDbMLeaderStyle
  3
ACDB_MLEADERSTYLE_CLASS
 90
     4095
280
     0
281
     0
  0
CLASS
  1
ACDBSECTIONVIEWSTYLE
  2
AcDbSectionViewStyle
  3
ObjectDBX Classes
 90
     1025
280
     0
281
     0
  0
CLASS
  1
ACDBDETAILVIEWSTYLE
  2
AcDbDetailViewStyle
  3
ObjectDBX Classes
 90
     1025
280
     0
281
     0
  0
CLASS
  1
SORTENTSTABLE
  2
AcDbSortentsTable
  3
ObjectDBX Classes
 90
        0
280
     0
281
     0
  0
CLASS
  1
DICTIONARYVAR
  2
AcDbDictionaryVar
  3
ObjectDBX Classes
 90
        0
280
     0
281
     0
  0
CLASS
  1
CELLSTYLEMAP
  2
AcDbCellStyleMap
  3
ObjectDBX Classes
 90
     1152
280
     0
281
     0
  0
CLASS
  1
ACDBPLACEHOLDER
  2
AcDbPlaceHolder
  3
ObjectDBX Classes
 90
        0
280
     0
281
     0
  0
CLASS
  1
LAYOUT
  2
AcDbLayout
  3
ObjectDBX Classes
 90
        0
280
     0
281
     0
  0
ENDSEC
  0
SECTION
  2
TABLES
  0
TABLE
  2
VPORT
  5
8151
330
0
100
AcDbSymbolTable
 70
     1
  0
VPORT
  5
81BD
330
8151
100
AcDbSymbolTableRecord
100
AcDbViewportTableRecord
  2
*ACTIVE
 70
     0
 10
0.0
 20
0.0
 11
1.0
 21
1.0
 12
2624.952129176256
 22
3687.500017171259
 13
0.0
 23
0.0
 14
10.0
 24
10.0
 15
10.0
 25
10.0
 16
0.0
 26
0.0
 36
1.0
 17
0.0
 27
0.0
 37
0.0
 40
7422.678203440799
 41
2.050213675213675
 42
50.0
 43
0.0
 44
0.0
 50
0.0
 51
0.0
 71
     0
 72
   100
 73
     1
 74
     0
 75
     0
 76
     0
 77
     0
 78
     0
281
     0
 65
     1
110
0.0
120
0.0
130
0.0
111
1.0
121
0.0
131
0.0
112
0.0
122
1.0
132
0.0
 79
     0
146
0.0
1001
ACAD_NAV_VCDISPLAY
1070
     3
  0
ENDTAB
  0
TABLE
  2
LTYPE
  5
814E
330
0
100
AcDbSymbolTable
 70
     4
  0
LTYPE
  5
81A3
330
814E
100
AcDbSymbolTableRecord
100
AcDbLinetypeTableRecord
  2
ByBlock
 70
     0
  3

 72
    65
 73
     0
 40
0.0
  0
LTYPE
  5
81A4
330
814E
100
AcDbSymbolTableRecord
100
AcDbLinetypeTableRecord
  2
ByLayer
 70
     0
  3

 72
    65
 73
     0
 40
0.0
  0
LTYPE
  5
81A5
330
814E
100
AcDbSymbolTableRecord
100
AcDbLinetypeTableRecord
  2
CONTINUOUS
 70
     0
  3
Solid line
 72
    65
 73
     0
 40
0.0
  0
LTYPE
  5
81BE
330
814E
100
AcDbSymbolTableRecord
100
AcDbLinetypeTableRecord
  2
CENTER
 70
     0
  3
____ _ ____ _ ____ _ ____ _ ____ _ ____ _ ____ 
 72
    65
 73
     4
 40
2.0
 49
1.25
 74
     0
 49
-0.25
 74
     0
 49
0.25
 74
     0
 49
-0.25
 74
     0
  0
ENDTAB
  0
TABLE
  2
LAYER
  5
814B
102
{ACAD_XDICTIONARY
360
8204
102
}
330
0
100
AcDbSymbolTable
 70
     6
  0
LAYER
  5
819D
102
{ACAD_XDICTIONARY
360
8230
102
}
330
814B
100
AcDbSymbolTableRecord
100
AcDbLayerTableRecord
  2
0
 70
     0
 62
     7
  6
CONTINUOUS
370
    -3
390
8158
  0
LAYER
  5
81BC
102
{ACAD_XDICTIONARY
360
8232
102
}
330
814B
100
AcDbSymbolTableRecord
100
AcDbLayerTableRecord
  2
3
 70
     0
 62
     2
  6
CONTINUOUS
370
    -3
390
8158
  0
LAYER
  5
81BF
102
{ACAD_XDICTIONARY
360
8234
102
}
330
814B
100
AcDbSymbolTableRecord
100
AcDbLayerTableRecord
  2
2
 70
     0
 62
     3
  6
CENTER
370
    -3
390
8158
  0
LAYER
  5
81C0
102
{ACAD_XDICTIONARY
360
8236
102
}
330
814B
100
AcDbSymbolTableRecord
100
AcDbLayerTableRecord
  2
1
 70
     0
 62
     4
  6
CONTINUOUS
370
    -3
390
8158
  0
LAYER
  5
81C1
102
{ACAD_XDICTIONARY
360
8238
102
}
330
814B
100
AcDbSymbolTableRecord
100
AcDbLayerTableRecord
  2
4
 70
     0
 62
     7
  6
CONTINUOUS
370
    -3
390
8158
  0
LAYER
  5
81C2
330
814B
100
AcDbSymbolTableRecord
100
AcDbLayerTableRecord
  2
DEFPOINTS
 70
     0
 62
     7
  6
CONTINUOUS
290
     0
370
    -3
390
8158
  0
ENDTAB
  0
TABLE
  2
STYLE
  5
814C
330
0
100
AcDbSymbolTable
 70
     2
  0
STYLE
  5
819E
330
814C
100
AcDbSymbolTableRecord
100
AcDbTextStyleTableRecord
  2
STANDARD
 70
     0
 40
0.0
 41
1.0
 50
0.0
 71
     0
 42
180.0
  3
simplex.shx
  4
extfont.shx
  0
STYLE
  5
81A2
330
814C
100
AcDbSymbolTableRecord
100
AcDbTextStyleTableRecord
  2
Annotative
 70
     0
 40
0.0
 41
1.0
 50
0.0
 71
     0
 42
0.2
  3
txt
  4

1001
AcadAnnotative
1000
AnnotativeData
1002
{
1070
     1
1070
     1
1002
}
  0
ENDTAB
  0
TABLE
  2
VIEW
  5
814F
330
0
100
AcDbSymbolTable
 70
     0
  0
ENDTAB
  0
TABLE
  2
UCS
  5
8150
330
0
100
AcDbSymbolTable
 70
     0
  0
ENDTAB
  0
TABLE
  2
APPID
  5
8152
330
0
100
AcDbSymbolTable
 70
     8
  0
APPID
  5
819F
330
8152
100
AcDbSymbolTableRecord
100
AcDbRegAppTableRecord
  2
ACAD
 70
     0
  0
APPID
  5
81A6
330
8152
100
AcDbSymbolTableRecord
100
AcDbRegAppTableRecord
  2
AcadAnnotative
 70
     0
  0
APPID
  5
8203
330
8152
100
AcDbSymbolTableRecord
100
AcDbRegAppTableRecord
  2
ACAD_NAV_VCDISPLAY
 70
     0
  0
APPID
  5
831D
330
8152
100
AcDbSymbolTableRecord
100
AcDbRegAppTableRecord
  2
ACAD_DSTYLE_DIMJAG
 70
     0
  0
APPID
  5
831E
330
8152
100
AcDbSymbolTableRecord
100
AcDbRegAppTableRecord
  2
ACAD_DSTYLE_DIMTALN
 70
     0
  0
APPID
  5
8360
330
8152
100
AcDbSymbolTableRecord
100
AcDbRegAppTableRecord
  2
ACAD_EXEMPT_FROM_CAD_STANDARDS
 70
     0
  0
APPID
  5
8397
330
8152
100
AcDbSymbolTableRecord
100
AcDbRegAppTableRecord
  2
AcadAnnoMonitorAlertIconDisabled
 70
     0
  0
APPID
  5
85B1
330
8152
100
AcDbSymbolTableRecord
100
AcDbRegAppTableRecord
  2
ACAD_MLEADERVER
 70
     0
  0
ENDTAB
  0
TABLE
  2
DIMSTYLE
  5
8153
330
0
100
AcDbSymbolTable
 70
     5
100
AcDbDimStyleTable
 71
     1
340
81C3
  0
DIMSTYLE
105
81A0
102
{ACAD_REACTORS
330
7C8C
330
7C8D
330
7CE9
330
7CED
330
7CEF
330
7CF0
330
7CF1
330
7CF2
330
7D19
102
}
330
8153
100
AcDbSymbolTableRecord
100
AcDbDimStyleTableRecord
  2
Standard
 70
     0
340
819E
  0
DIMSTYLE
105
81A1
330
8153
100
AcDbSymbolTableRecord
100
AcDbDimStyleTableRecord
  2
Annotative
 70
     0
340
819E
1001
AcadAnnotative
1000
AnnotativeData
1002
{
1070
     1
1070
     1
1002
}
  0
DIMSTYLE
105
81C3
102
{ACAD_REACTORS
330
8285
330
8292
330
831F
330
832C
330
8339
330
8346
330
8353
330
8367
330
837D
330
838A
330
83DC
330
83E9
330
83FB
102
}
330
8153
100
AcDbSymbolTableRecord
100
AcDbDimStyleTableRecord
  2
IGA
 70
     0
 40
2.0
 41
2.0
 42
0.5
 43
10.0
 44
1.0
 47
1.0
 48
1.0
 73
     0
 74
     0
 77
     1
 78
     8
140
3.0
141
0.0
143
0.03937
146
10.0
147
1.0
173
     1
271
     3
272
     3
279
     2
284
     8
285
     8
286
     8
340
819E
  0
DIMSTYLE
105
81C4
330
8153
100
AcDbSymbolTableRecord
100
AcDbDimStyleTableRecord
  2
MATSU
 70
     0
 41
2.0
 42
1.0
 43
10.0
 44
1.0
 73
     0
 74
     0
 77
     1
 78
     8
140
3.0
141
0.0
143
0.03937
147
0.5
172
     1
173
     1
176
   256
177
   256
178
   256
271
     3
272
     3
279
     2
284
     8
285
     8
286
     8
340
819E
  0
ENDTAB
  0
TABLE
  2
BLOCK_RECORD
  5
814A
330
0
100
AcDbSymbolTable
 70
    52
  0
BLOCK_RECORD
  5
81B8
330
814A
100
AcDbSymbolTableRecord
100
AcDbBlockTableRecord
  2
*Model_Space
340
81BB
  0
BLOCK_RECORD
  5
81B4
330
814A
100
AcDbSymbolTableRecord
100
AcDbBlockTableRecord
  2
*Paper_Space
340
81B7
  0
BLOCK_RECORD
  5
81C8
330
814A
100
AcDbSymbolTableRecord
100
AcDbBlockTableRecord
  2
$MODEL_SPACE
340
0
  0
BLOCK_RECORD
  5
81CA
330
814A
100
AcDbSymbolTableRecord
100
AcDbBlockTableRecord
  2
$PAPER_SPACE
340
0
  0
BLOCK_RECORD
  5
81CC
330
814A
100
AcDbSymbolTableRecord
100
AcDbBlockTableRecord
  2
_OPEN
340
0
102
{BLKREFS
331
82B4
331
82B5
331
82BD
331
82BE
331
7E5E
331
7E5F
331
7E69
331
7E6A
331
7EAB
331
7EAC
331
802B
331
802C
331
8041
331
8042
331
7ECC
331
7ECD
331
7ED7
331
7ED8
331
7EE2
331
7EE3
331
7EED
331
7EEE
331
7EF8
331
7EF9
331
7F03
331
7F04
331
7F0E
331
7F0F
331
8126
331
8127
331
8132
331
8139
331
813A
331
7F51
331
7F52
331
8055
331
8056
331
8062
331
8063
331
806F
331
8070
331
807C
331
807D
331
80B0
331
80B1
331
8326
331
8327
331
8333
331
8334
331
8340
331
8341
331
834D
331
834E
331
835A
331
835B
331
8377
331
8378
331
8384
331
8385
331
850F
331
852A
331
8532
331
8533
331
8410
331
8411
102
}
  0
BLOCK_RECORD
  5
81CE
330
814A
100
AcDbSymbolTableRecord
100
AcDbBlockTableRecord
  2
YA_N
340
0
102
{BLKREFS
331
7CCB
331
7C36
331
7C55
331
7C93
102
}
  0
BLOCK_RECORD
  5
81D0
330
814A
100
AcDbSymbolTableRecord
100
AcDbBlockTableRecord
  2
*D4
340
0
  0
BLOCK_RECORD
  5
81D2
330
814A
100
AcDbSymbolTableRecord
100
AcDbBlockTableRecord
  2
*D5
340
0
  0
BLOCK_RECORD
  5
81D4
330
814A
100
AcDbSymbolTableRecord
100
AcDbBlockTableRecord
  2
*D6
340
0
  0
BLOCK_RECORD
  5
81D6
330
814A
100
AcDbSymbolTableRecord
100
AcDbBlockTableRecord
  2
*D7
340
0
  0
BLOCK_RECORD
  5
81D8
330
814A
100
AcDbSymbolTableRecord
100
AcDbBlockTableRecord
  2
*U8
340
0
102
{BLKREFS
331
802D
102
}
  0
BLOCK_RECORD
  5
81D9
330
814A
100
AcDbSymbolTableRecord
100
AcDbBlockTableRecord
  2
*D9
340
0
  0
BLOCK_RECORD
  5
81DB
330
814A
100
AcDbSymbolTableRecord
100
AcDbBlockTableRecord
  2
*D10
340
0
  0
BLOCK_RECORD
  5
81DD
330
814A
100
AcDbSymbolTableRecord
100
AcDbBlockTableRecord
  2
*D11
340
0
  0
BLOCK_RECORD
  5
81DF
330
814A
100
AcDbSymbolTableRecord
100
AcDbBlockTableRecord
  2
*D12
340
0
  0
BLOCK_RECORD
  5
81E1
330
814A
100
AcDbSymbolTableRecord
100
AcDbBlockTableRecord
  2
*D13
340
0
  0
BLOCK_RECORD
  5
81E3
330
814A
100
AcDbSymbolTableRecord
100
AcDbBlockTableRecord
  2
*D14
340
0
  0
BLOCK_RECORD
  5
81E5
330
814A
100
AcDbSymbolTableRecord
100
AcDbBlockTableRecord
  2
*D15
340
0
  0
BLOCK_RECORD
  5
81E7
330
814A
100
AcDbSymbolTableRecord
100
AcDbBlockTableRecord
  2
*D16
340
0
  0
BLOCK_RECORD
  5
81E9
330
814A
100
AcDbSymbolTableRecord
100
AcDbBlockTableRecord
  2
*D17
340
0
  0
BLOCK_RECORD
  5
81EB
330
814A
100
AcDbSymbolTableRecord
100
AcDbBlockTableRecord
  2
*D18
340
0
  0
BLOCK_RECORD
  5
81ED
330
814A
100
AcDbSymbolTableRecord
100
AcDbBlockTableRecord
  2
_DOT
340
0
102
{BLKREFS
331
8131
102
}
  0
BLOCK_RECORD
  5
81EE
330
814A
100
AcDbSymbolTableRecord
100
AcDbBlockTableRecord
  2
*D20
340
0
  0
BLOCK_RECORD
  5
81F0
330
814A
100
AcDbSymbolTableRecord
100
AcDbBlockTableRecord
  2
*D21
340
0
  0
BLOCK_RECORD
  5
81F3
330
814A
100
AcDbSymbolTableRecord
100
AcDbBlockTableRecord
  2
*D22
340
0
  0
BLOCK_RECORD
  5
81F5
330
814A
100
AcDbSymbolTableRecord
100
AcDbBlockTableRecord
  2
*D23
340
0
  0
BLOCK_RECORD
  5
81F7
330
814A
100
AcDbSymbolTableRecord
100
AcDbBlockTableRecord
  2
*D24
340
0
  0
BLOCK_RECORD
  5
81F9
330
814A
100
AcDbSymbolTableRecord
100
AcDbBlockTableRecord
  2
*D25
340
0
  0
BLOCK_RECORD
  5
81FB
330
814A
100
AcDbSymbolTableRecord
100
AcDbBlockTableRecord
  2
_NONE
340
0
  0
BLOCK_RECORD
  5
81FD
330
814A
100
AcDbSymbolTableRecord
100
AcDbBlockTableRecord
  2
*D27
340
0
  0
BLOCK_RECORD
  5
81FF
330
814A
100
AcDbSymbolTableRecord
100
AcDbBlockTableRecord
  2
*D28
340
0
  0
BLOCK_RECORD
  5
8286
330
814A
100
AcDbSymbolTableRecord
100
AcDbBlockTableRecord
  2
*D30
340
0
  0
BLOCK_RECORD
  5
8293
330
814A
100
AcDbSymbolTableRecord
100
AcDbBlockTableRecord
  2
*D31
340
0
  0
BLOCK_RECORD
  5
82C3
330
814A
100
AcDbSymbolTableRecord
100
AcDbBlockTableRecord
  2
*D32
340
0
  0
BLOCK_RECORD
  5
82D0
330
814A
100
AcDbSymbolTableRecord
100
AcDbBlockTableRecord
  2
*D33
340
0
  0
BLOCK_RECORD
  5
82DD
330
814A
100
AcDbSymbolTableRecord
100
AcDbBlockTableRecord
  2
*D34
340
0
  0
BLOCK_RECORD
  5
82EA
330
814A
100
AcDbSymbolTableRecord
100
AcDbBlockTableRecord
  2
*D35
340
0
  0
BLOCK_RECORD
  5
82F7
330
814A
100
AcDbSymbolTableRecord
100
AcDbBlockTableRecord
  2
*D36
340
0
  0
BLOCK_RECORD
  5
8304
330
814A
100
AcDbSymbolTableRecord
100
AcDbBlockTableRecord
  2
*D37
340
0
  0
BLOCK_RECORD
  5
830F
330
814A
100
AcDbSymbolTableRecord
100
AcDbBlockTableRecord
  2
*D38
340
0
  0
BLOCK_RECORD
  5
8320
330
814A
100
AcDbSymbolTableRecord
100
AcDbBlockTableRecord
  2
*D39
340
0
  0
BLOCK_RECORD
  5
832D
330
814A
100
AcDbSymbolTableRecord
100
AcDbBlockTableRecord
  2
*D40
340
0
  0
BLOCK_RECORD
  5
833A
330
814A
100
AcDbSymbolTableRecord
100
AcDbBlockTableRecord
  2
*D41
340
0
  0
BLOCK_RECORD
  5
8347
330
814A
100
AcDbSymbolTableRecord
100
AcDbBlockTableRecord
  2
*D42
340
0
  0
BLOCK_RECORD
  5
8354
330
814A
100
AcDbSymbolTableRecord
100
AcDbBlockTableRecord
  2
*D43
340
0
  0
BLOCK_RECORD
  5
8368
330
814A
100
AcDbSymbolTableRecord
100
AcDbBlockTableRecord
  2
*D45
340
0
  0
BLOCK_RECORD
  5
837E
330
814A
100
AcDbSymbolTableRecord
100
AcDbBlockTableRecord
  2
*D46
340
0
  0
BLOCK_RECORD
  5
838B
330
814A
100
AcDbSymbolTableRecord
100
AcDbBlockTableRecord
  2
*D47
340
0
  0
BLOCK_RECORD
  5
83DD
330
814A
100
AcDbSymbolTableRecord
100
AcDbBlockTableRecord
  2
*D48
340
0
  0
BLOCK_RECORD
  5
83EA
330
814A
100
AcDbSymbolTableRecord
100
AcDbBlockTableRecord
  2
*D49
340
0
  0
BLOCK_RECORD
  5
83FC
330
814A
100
AcDbSymbolTableRecord
100
AcDbBlockTableRecord
  2
*D50
340
0
  0
BLOCK_RECORD
  5
8493
330
814A
100
AcDbSymbolTableRecord
100
AcDbBlockTableRecord
  2
_DotSmall
340
0
102
{BLKREFS
331
850E
331
852B
102
}
  0
ENDTAB
  0
ENDSEC
  0
SECTION
  2
BLOCKS
  0
BLOCK
  5
81B9
330
81B8
100
AcDbEntity
  8
0
100
AcDbBlockBegin
  2
*Model_Space
 70
     0
 10
0.0
 20
0.0
 30
0.0
  3
*Model_Space
  1

  0
ENDBLK
  5
81BA
330
81B8
100
AcDbEntity
  8
0
100
AcDbBlockEnd
  0
BLOCK
  5
81B5
330
81B4
100
AcDbEntity
 67
     1
  8
0
100
AcDbBlockBegin
  2
*Paper_Space
 70
     0
 10
0.0
 20
0.0
 30
0.0
  3
*Paper_Space
  1

  0
ENDBLK
  5
81B6
330
81B4
100
AcDbEntity
 67
     1
  8
0
100
AcDbBlockEnd
  0
BLOCK
  5
81C9
330
81C8
100
AcDbEntity
  8
0
100
AcDbBlockBegin
  2
$MODEL_SPACE
 70
     0
 10
0.0
 20
0.0
 30
0.0
  3
$MODEL_SPACE
  1

  0
ENDBLK
  5
1B
330
81C8
100
AcDbEntity
  8
0
100
AcDbBlockEnd
  0
BLOCK
  5
81CB
330
81CA
100
AcDbEntity
  8
0
100
AcDbBlockBegin
  2
$PAPER_SPACE
 70
     0
 10
0.0
 20
0.0
 30
0.0
  3
$PAPER_SPACE
  1

  0
ENDBLK
  5
18
330
81CA
100
AcDbEntity
  8
0
100
AcDbBlockEnd
  0
BLOCK
  5
81CD
330
81CC
100
AcDbEntity
  8
0
100
AcDbBlockBegin
  2
_OPEN
 70
     0
 10
0.0
 20
0.0
 30
0.0
  3
_OPEN
  1

  0
LINE
  5
79FD
330
81CC
100
AcDbEntity
  8
0
  6
ByBlock
 62
     0
100
AcDbLine
 10
-1.0
 20
0.1666666666666666
 30
0.0
 11
0.0
 21
0.0
 31
0.0
  0
LINE
  5
79FE
330
81CC
100
AcDbEntity
  8
0
  6
ByBlock
 62
     0
100
AcDbLine
 10
0.0
 20
0.0
 30
0.0
 11
-1.0
 21
-0.1666666666666666
 31
0.0
  0
LINE
  5
79FF
330
81CC
100
AcDbEntity
  8
0
  6
ByBlock
 62
     0
100
AcDbLine
 10
0.0
 20
0.0
 30
0.0
 11
-1.0
 21
0.0
 31
0.0
  0
ENDBLK
  5
7A01
330
81CC
100
AcDbEntity
  8
0
100
AcDbBlockEnd
  0
BLOCK
  5
81CF
330
81CE
100
AcDbEntity
  8
0
100
AcDbBlockBegin
  2
YA_N
 70
     0
 10
0.0
 20
0.0
 30
0.0
  3
YA_N
  1

  0
ENDBLK
  5
7A0C
330
81CE
100
AcDbEntity
  8
0
100
AcDbBlockEnd
  0
BLOCK
  5
81D1
330
81D0
100
AcDbEntity
  8
0
100
AcDbBlockBegin
  2
*D4
 70
     1
 10
0.0
 20
0.0
 30
0.0
  3
*D4
  1

  0
LINE
  5
7E5B
330
81D0
100
AcDbEntity
  8
0
  6
ByBlock
100
AcDbLine
 10
1439.711976298494
 20
1033.593478221398
 30
0.0
 11
1439.711976298494
 21
1182.600862000624
 31
0.0
  0
LINE
  5
7E5C
330
81D0
100
AcDbEntity
  8
0
  6
ByBlock
100
AcDbLine
 10
709.7119762984948
 20
1033.593478221399
 30
0.0
 11
709.7119762984948
 21
1182.600862000624
 31
0.0
  0
LINE
  5
7E5D
330
81D0
100
AcDbEntity
  8
0
  6
ByBlock
100
AcDbLine
 10
1389.711976298494
 20
1157.600862000624
 30
0.0
 11
759.7119762984947
 21
1157.600862000624
 31
0.0
  0
INSERT
  5
7E5E
330
81D0
100
AcDbEntity
  8
0
  6
ByBlock
100
AcDbBlockReference
  2
_OPEN
 10
1439.711976298494
 20
1157.600862000624
 30
0.0
 41
50.0
 42
50.0
 43
50.0
  0
INSERT
  5
7E5F
330
81D0
100
AcDbEntity
  8
0
  6
ByBlock
100
AcDbBlockReference
  2
_OPEN
 10
709.7119762984948
 20
1157.600862000624
 30
0.0
 41
50.0
 42
50.0
 43
50.0
 50
180.0
  0
TEXT
  5
7E60
330
81D0
100
AcDbEntity
  8
3
100
AcDbText
 10
978.2834048699234
 20
1170.100862000625
 30
0.0
 40
75.0
  1
730
100
AcDbText
  0
POINT
  5
7E61
330
81D0
100
AcDbEntity
  8
DEFPOINTS
  6
ByBlock
 62
     0
100
AcDbPoint
 10
1439.711976298494
 20
1008.593478221398
 30
0.0
  0
POINT
  5
7E62
330
81D0
100
AcDbEntity
  8
DEFPOINTS
  6
ByBlock
 62
     0
100
AcDbPoint
 10
709.7119762984948
 20
1008.593478221399
 30
0.0
  0
POINT
  5
7E63
330
81D0
100
AcDbEntity
  8
DEFPOINTS
  6
ByBlock
 62
     0
100
AcDbPoint
 10
709.7119762984948
 20
1157.600862000624
 30
0.0
  0
ENDBLK
  5
7E64
330
81D0
100
AcDbEntity
  8
0
100
AcDbBlockEnd
  0
BLOCK
  5
81D3
330
81D2
100
AcDbEntity
  8
0
100
AcDbBlockBegin
  2
*D5
 70
     1
 10
0.0
 20
0.0
 30
0.0
  3
*D5
  1

  0
LINE
  5
7E66
330
81D2
100
AcDbEntity
  8
0
  6
ByBlock
100
AcDbLine
 10
1439.711976298494
 20
1033.593478221398
 30
0.0
 11
1439.711976298494
 21
1335.40963547429
 31
0.0
  0
LINE
  5
7E67
330
81D2
100
AcDbEntity
  8
0
  6
ByBlock
100
AcDbLine
 10
680.7119762984948
 20
1155.859317026828
 30
0.0
 11
680.7119762984948
 21
1335.40963547429
 31
0.0
  0
LINE
  5
7E68
330
81D2
100
AcDbEntity
  8
0
  6
ByBlock
100
AcDbLine
 10
1389.711976298494
 20
1310.40963547429
 30
0.0
 11
730.7119762984947
 21
1310.40963547429
 31
0.0
  0
INSERT
  5
7E69
330
81D2
100
AcDbEntity
  8
0
  6
ByBlock
100
AcDbBlockReference
  2
_OPEN
 10
1439.711976298494
 20
1310.40963547429
 30
0.0
 41
50.0
 42
50.0
 43
50.0
  0
INSERT
  5
7E6A
330
81D2
100
AcDbEntity
  8
0
  6
ByBlock
100
AcDbBlockReference
  2
_OPEN
 10
680.7119762984948
 20
1310.40963547429
 30
0.0
 41
50.0
 42
50.0
 43
50.0
 50
180.0
  0
TEXT
  5
7E6B
330
81D2
100
AcDbEntity
  8
3
100
AcDbText
 10
965.5691191556377
 20
1322.90963547429
 30
0.0
 40
75.0
  1
759
100
AcDbText
  0
POINT
  5
7E6C
330
81D2
100
AcDbEntity
  8
DEFPOINTS
  6
ByBlock
 62
     0
100
AcDbPoint
 10
1439.711976298494
 20
1008.593478221398
 30
0.0
  0
POINT
  5
7E6D
330
81D2
100
AcDbEntity
  8
DEFPOINTS
  6
ByBlock
 62
     0
100
AcDbPoint
 10
680.7119762984948
 20
1130.859317026828
 30
0.0
  0
POINT
  5
7E6E
330
81D2
100
AcDbEntity
  8
DEFPOINTS
  6
ByBlock
 62
     0
100
AcDbPoint
 10
680.7119762984948
 20
1310.40963547429
 30
0.0
  0
ENDBLK
  5
7E6F
330
81D2
100
AcDbEntity
  8
0
100
AcDbBlockEnd
  0
BLOCK
  5
81D5
330
81D4
100
AcDbEntity
  8
0
100
AcDbBlockBegin
  2
*D6
 70
     1
 10
0.0
 20
0.0
 30
0.0
  3
*D6
  1

  0
LINE
  5
7EA8
330
81D4
100
AcDbEntity
  8
0
  6
ByBlock
100
AcDbLine
 10
3394.272073930469
 20
1033.802367882948
 30
0.0
 11
3394.272073930469
 21
1219.111446642817
 31
0.0
  0
LINE
  5
7EA9
330
81D4
100
AcDbEntity
  8
0
  6
ByBlock
100
AcDbLine
 10
4294.27207393047
 20
1033.80235414594
 30
0.0
 11
4294.27207393047
 21
1219.111446642817
 31
0.0
  0
LINE
  5
7EAA
330
81D4
100
AcDbEntity
  8
0
  6
ByBlock
100
AcDbLine
 10
3444.272073930469
 20
1194.111446642817
 30
0.0
 11
4244.27207393047
 21
1194.111446642817
 31
0.0
  0
INSERT
  5
7EAB
330
81D4
100
AcDbEntity
  8
0
  6
ByBlock
100
AcDbBlockReference
  2
_OPEN
 10
3394.272073930469
 20
1194.111446642817
 30
0.0
 41
50.0
 42
50.0
 43
50.0
 50
180.0
  0
INSERT
  5
7EAC
330
81D4
100
AcDbEntity
  8
0
  6
ByBlock
100
AcDbBlockReference
  2
_OPEN
 10
4294.27207393047
 20
1194.111446642817
 30
0.0
 41
50.0
 42
50.0
 43
50.0
  0
TEXT
  5
7EAD
330
81D4
100
AcDbEntity
  8
3
100
AcDbText
 10
3747.843502501898
 20
1206.611446642817
 30
0.0
 40
75.0
  1
900
100
AcDbText
  0
POINT
  5
7EAE
330
81D4
100
AcDbEntity
  8
DEFPOINTS
  6
ByBlock
 62
     0
100
AcDbPoint
 10
3394.272073930469
 20
1008.802367882948
 30
0.0
  0
POINT
  5
7EAF
330
81D4
100
AcDbEntity
  8
DEFPOINTS
  6
ByBlock
 62
     0
100
AcDbPoint
 10
4294.27207393047
 20
1008.80235414594
 30
0.0
  0
POINT
  5
7EB0
330
81D4
100
AcDbEntity
  8
DEFPOINTS
  6
ByBlock
 62
     0
100
AcDbPoint
 10
4294.27207393047
 20
1194.111446642817
 30
0.0
  0
ENDBLK
  5
7EB1
330
81D4
100
AcDbEntity
  8
0
100
AcDbBlockEnd
  0
BLOCK
  5
81D7
330
81D6
100
AcDbEntity
  8
0
100
AcDbBlockBegin
  2
*D7
 70
     1
 10
0.0
 20
0.0
 30
0.0
  3
*D7
  1

  0
LINE
  5
8028
330
81D6
100
AcDbEntity
  8
0
  6
ByBlock
100
AcDbLine
 10
3011.305087276285
 20
2839.560251978061
 30
0.0
 11
3011.305087276285
 21
3395.331887006776
 31
0.0
  0
LINE
  5
8029
330
81D6
100
AcDbEntity
  8
0
  6
ByBlock
100
AcDbLine
 10
3766.305087276281
 20
3380.036453909694
 30
0.0
 11
3766.305087276281
 21
3395.331887006776
 31
0.0
  0
LINE
  5
802A
330
81D6
100
AcDbEntity
  8
0
  6
ByBlock
100
AcDbLine
 10
3061.305087276285
 20
3370.331887006776
 30
0.0
 11
3716.305087276281
 21
3370.331887006776
 31
0.0
  0
INSERT
  5
802B
330
81D6
100
AcDbEntity
  8
0
  6
ByBlock
100
AcDbBlockReference
  2
_OPEN
 10
3011.305087276285
 20
3370.331887006776
 30
0.0
 41
50.0
 42
50.0
 43
50.0
 50
180.0
  0
INSERT
  5
802C
330
81D6
100
AcDbEntity
  8
0
  6
ByBlock
100
AcDbBlockReference
  2
_OPEN
 10
3766.305087276281
 20
3370.331887006776
 30
0.0
 41
50.0
 42
50.0
 43
50.0
  0
INSERT
  5
802D
330
81D6
100
AcDbEntity
  8
3
100
AcDbBlockReference
  2
*U8
 10
0.0
 20
0.0
 30
0.0
  0
POINT
  5
802E
330
81D6
100
AcDbEntity
  8
DEFPOINTS
  6
ByBlock
 62
     0
100
AcDbPoint
 10
3011.305087276285
 20
2814.560251978061
 30
0.0
  0
POINT
  5
802F
330
81D6
100
AcDbEntity
  8
DEFPOINTS
  6
ByBlock
 62
     0
100
AcDbPoint
 10
3766.305087276281
 20
3355.036453909693
 30
0.0
  0
POINT
  5
8030
330
81D6
100
AcDbEntity
  8
DEFPOINTS
  6
ByBlock
 62
     0
100
AcDbPoint
 10
3766.305087276281
 20
3370.331887006776
 30
0.0
  0
ENDBLK
  5
8031
330
81D6
100
AcDbEntity
  8
0
100
AcDbBlockEnd
  0
BLOCK
  5
8201
330
81D8
100
AcDbEntity
  8
0
100
AcDbBlockBegin
  2
*U8
 70
     1
 10
0.0
 20
0.0
 30
0.0
  3
*U8
  1

  0
TEXT
  5
8143
330
81D8
100
AcDbEntity
  8
3
100
AcDbText
 10
3281.662230133426
 20
3507.831887006776
 30
0.0
 40
75.0
  1
MAX
100
AcDbText
  0
TEXT
  5
8144
330
81D8
100
AcDbEntity
  8
3
100
AcDbText
 10
3292.376515847712
 20
3382.831887006776
 30
0.0
 40
75.0
  1
780
100
AcDbText
  0
ENDBLK
  5
8146
330
81D8
100
AcDbEntity
  8
0
100
AcDbBlockEnd
  0
BLOCK
  5
81DA
330
81D9
100
AcDbEntity
  8
0
100
AcDbBlockBegin
  2
*D9
 70
     1
 10
0.0
 20
0.0
 30
0.0
  3
*D9
  1

  0
LINE
  5
803E
330
81D9
100
AcDbEntity
  8
0
  6
ByBlock
100
AcDbLine
 10
3766.305087276281
 20
3342.859360400224
 30
0.0
 11
3766.305087276281
 21
3395.331887006776
 31
0.0
  0
LINE
  5
803F
330
81D9
100
AcDbEntity
  8
0
  6
ByBlock
100
AcDbLine
 10
4318.805087276281
 20
2534.360251978061
 30
0.0
 11
4318.805087276281
 21
3395.331887006776
 31
0.0
  0
LINE
  5
8040
330
81D9
100
AcDbEntity
  8
0
  6
ByBlock
100
AcDbLine
 10
3816.305087276282
 20
3370.331887006776
 30
0.0
 11
4268.805087276281
 21
3370.331887006776
 31
0.0
  0
INSERT
  5
8041
330
81D9
100
AcDbEntity
  8
0
  6
ByBlock
100
AcDbBlockReference
  2
_OPEN
 10
3766.305087276281
 20
3370.331887006776
 30
0.0
 41
50.0
 42
50.0
 43
50.0
 50
180.0
  0
INSERT
  5
8042
330
81D9
100
AcDbEntity
  8
0
  6
ByBlock
100
AcDbBlockReference
  2
_OPEN
 10
4318.805087276281
 20
3370.331887006776
 30
0.0
 41
50.0
 42
50.0
 43
50.0
  0
TEXT
  5
8043
330
81D9
100
AcDbEntity
  8
3
100
AcDbText
 10
3897.912230133426
 20
3414.974744149634
 30
0.0
 40
75.0
  1
(560)
100
AcDbText
  0
POINT
  5
8044
330
81D9
100
AcDbEntity
  8
DEFPOINTS
  6
ByBlock
 62
     0
100
AcDbPoint
 10
3766.305087276281
 20
3317.859360400222
 30
0.0
  0
POINT
  5
8045
330
81D9
100
AcDbEntity
  8
DEFPOINTS
  6
ByBlock
 62
     0
100
AcDbPoint
 10
4318.805087276281
 20
2509.360251978061
 30
0.0
  0
POINT
  5
8046
330
81D9
100
AcDbEntity
  8
DEFPOINTS
  6
ByBlock
 62
     0
100
AcDbPoint
 10
4318.805087276281
 20
3370.331887006776
 30
0.0
  0
ENDBLK
  5
8047
330
81D9
100
AcDbEntity
  8
0
100
AcDbBlockEnd
  0
BLOCK
  5
81DC
330
81DB
100
AcDbEntity
  8
0
100
AcDbBlockBegin
  2
*D10
 70
     1
 10
0.0
 20
0.0
 30
0.0
  3
*D10
  1

  0
LINE
  5
7EC9
330
81DB
100
AcDbEntity
  8
0
  6
ByBlock
100
AcDbLine
 10
4321.57207393047
 20
133.5934782213989
 30
0.0
 11
4597.054208885889
 21
133.5934782213989
 31
0.0
  0
LINE
  5
7ECA
330
81DB
100
AcDbEntity
  8
0
  6
ByBlock
100
AcDbLine
 10
4321.57207393047
 20
883.5934782213987
 30
0.0
 11
4597.054208885889
 21
883.5934782213987
 31
0.0
  0
LINE
  5
7ECB
330
81DB
100
AcDbEntity
  8
0
  6
ByBlock
100
AcDbLine
 10
4572.054208885889
 20
183.5934782213989
 30
0.0
 11
4572.054208885889
 21
833.5934782213987
 31
0.0
  0
INSERT
  5
7ECC
330
81DB
100
AcDbEntity
  8
0
  6
ByBlock
100
AcDbBlockReference
  2
_OPEN
 10
4572.054208885889
 20
133.5934782213989
 30
0.0
 41
50.0
 42
50.0
 43
50.0
 50
270.0
  0
INSERT
  5
7ECD
330
81DB
100
AcDbEntity
  8
0
  6
ByBlock
100
AcDbBlockReference
  2
_OPEN
 10
4572.054208885889
 20
883.5934782213987
 30
0.0
 41
50.0
 42
50.0
 43
50.0
 50
90.0
  0
TEXT
  5
7ECE
330
81DB
100
AcDbEntity
  8
3
100
AcDbText
 10
4559.554208885889
 20
374.6649067928275
 30
0.0
 40
75.0
  1
\U+03C6750
 50
90.0
100
AcDbText
  0
POINT
  5
7ECF
330
81DB
100
AcDbEntity
  8
DEFPOINTS
  6
ByBlock
 62
     0
100
AcDbPoint
 10
4296.57207393047
 20
133.5934782213989
 30
0.0
  0
POINT
  5
7ED0
330
81DB
100
AcDbEntity
  8
DEFPOINTS
  6
ByBlock
 62
     0
100
AcDbPoint
 10
4296.57207393047
 20
883.5934782213987
 30
0.0
  0
POINT
  5
7ED1
330
81DB
100
AcDbEntity
  8
DEFPOINTS
  6
ByBlock
 62
     0
100
AcDbPoint
 10
4572.054208885889
 20
883.5934782213987
 30
0.0
  0
ENDBLK
  5
7ED2
330
81DB
100
AcDbEntity
  8
0
100
AcDbBlockEnd
  0
BLOCK
  5
81DE
330
81DD
100
AcDbEntity
  8
0
100
AcDbBlockBegin
  2
*D11
 70
     1
 10
0.0
 20
0.0
 30
0.0
  3
*D11
  1

  0
LINE
  5
7ED4
330
81DD
100
AcDbEntity
  8
0
  6
ByBlock
100
AcDbLine
 10
1830.711976298495
 20
2748.533310535339
 30
0.0
 11
1830.711976298495
 21
2485.350850711191
 31
0.0
  0
LINE
  5
7ED5
330
81DD
100
AcDbEntity
  8
0
  6
ByBlock
100
AcDbLine
 10
230.7119762984948
 20
2748.533310535338
 30
0.0
 11
230.7119762984948
 21
2485.350850711191
 31
0.0
  0
LINE
  5
7ED6
330
81DD
100
AcDbEntity
  8
0
  6
ByBlock
100
AcDbLine
 10
1780.711976298495
 20
2510.350850711191
 30
0.0
 11
280.7119762984948
 21
2510.350850711191
 31
0.0
  0
INSERT
  5
7ED7
330
81DD
100
AcDbEntity
  8
0
  6
ByBlock
100
AcDbBlockReference
  2
_OPEN
 10
1830.711976298495
 20
2510.350850711191
 30
0.0
 41
50.0
 42
50.0
 43
50.0
  0
INSERT
  5
7ED8
330
81DD
100
AcDbEntity
  8
0
  6
ByBlock
100
AcDbBlockReference
  2
_OPEN
 10
230.7119762984948
 20
2510.350850711191
 30
0.0
 41
50.0
 42
50.0
 43
50.0
 50
180.0
  0
TEXT
  5
7ED9
330
81DD
100
AcDbEntity
  8
3
100
AcDbText
 10
905.7119762984948
 20
2522.850850711191
 30
0.0
 40
75.0
  1
1600
100
AcDbText
  0
POINT
  5
7EDA
330
81DD
100
AcDbEntity
  8
DEFPOINTS
  6
ByBlock
 62
     0
100
AcDbPoint
 10
1830.711976298495
 20
2773.533310535339
 30
0.0
  0
POINT
  5
7EDB
330
81DD
100
AcDbEntity
  8
DEFPOINTS
  6
ByBlock
 62
     0
100
AcDbPoint
 10
230.7119762984948
 20
2773.533310535337
 30
0.0
  0
POINT
  5
7EDC
330
81DD
100
AcDbEntity
  8
DEFPOINTS
  6
ByBlock
 62
     0
100
AcDbPoint
 10
230.7119762984948
 20
2510.350850711191
 30
0.0
  0
ENDBLK
  5
7EDD
330
81DD
100
AcDbEntity
  8
0
100
AcDbBlockEnd
  0
BLOCK
  5
81E0
330
81DF
100
AcDbEntity
  8
0
100
AcDbBlockBegin
  2
*D12
 70
     1
 10
0.0
 20
0.0
 30
0.0
  3
*D12
  1

  0
LINE
  5
7EDF
330
81DF
100
AcDbEntity
  8
0
  6
ByBlock
100
AcDbLine
 10
1855.711976298495
 20
2773.533310535339
 30
0.0
 11
2156.582481133584
 21
2773.533310535339
 31
0.0
  0
LINE
  5
7EE0
330
81DF
100
AcDbEntity
  8
0
  6
ByBlock
100
AcDbLine
 10
1855.711976298495
 20
3443.53331053534
 30
0.0
 11
2156.582481133584
 21
3443.53331053534
 31
0.0
  0
LINE
  5
7EE1
330
81DF
100
AcDbEntity
  8
0
  6
ByBlock
100
AcDbLine
 10
2131.582481133584
 20
2823.533310535339
 30
0.0
 11
2131.582481133584
 21
3393.53331053534
 31
0.0
  0
INSERT
  5
7EE2
330
81DF
100
AcDbEntity
  8
0
  6
ByBlock
100
AcDbBlockReference
  2
_OPEN
 10
2131.582481133584
 20
2773.533310535339
 30
0.0
 41
50.0
 42
50.0
 43
50.0
 50
270.0
  0
INSERT
  5
7EE3
330
81DF
100
AcDbEntity
  8
0
  6
ByBlock
100
AcDbBlockReference
  2
_OPEN
 10
2131.582481133584
 20
3443.53331053534
 30
0.0
 41
50.0
 42
50.0
 43
50.0
 50
90.0
  0
TEXT
  5
7EE4
330
81DF
100
AcDbEntity
  8
3
100
AcDbText
 10
2119.082481133584
 20
3012.104739106767
 30
0.0
 40
75.0
  1
670
 50
90.0
100
AcDbText
  0
POINT
  5
7EE5
330
81DF
100
AcDbEntity
  8
DEFPOINTS
  6
ByBlock
 62
     0
100
AcDbPoint
 10
1830.711976298495
 20
2773.533310535339
 30
0.0
  0
POINT
  5
7EE6
330
81DF
100
AcDbEntity
  8
DEFPOINTS
  6
ByBlock
 62
     0
100
AcDbPoint
 10
1830.711976298495
 20
3443.53331053534
 30
0.0
  0
POINT
  5
7EE7
330
81DF
100
AcDbEntity
  8
DEFPOINTS
  6
ByBlock
 62
     0
100
AcDbPoint
 10
2131.582481133584
 20
3443.53331053534
 30
0.0
  0
ENDBLK
  5
7EE8
330
81DF
100
AcDbEntity
  8
0
100
AcDbBlockEnd
  0
BLOCK
  5
81E2
330
81E1
100
AcDbEntity
  8
0
100
AcDbBlockBegin
  2
*D13
 70
     1
 10
0.0
 20
0.0
 30
0.0
  3
*D13
  1

  0
LINE
  5
7EEA
330
81E1
100
AcDbEntity
  8
0
  6
ByBlock
100
AcDbLine
 10
1130.711976298494
 20
3953.533310535338
 30
0.0
 11
1130.711976298494
 21
4255.16536493951
 31
0.0
  0
LINE
  5
7EEB
330
81E1
100
AcDbEntity
  8
0
  6
ByBlock
100
AcDbLine
 10
230.7119762984948
 20
3953.533310535338
 30
0.0
 11
230.7119762984948
 21
4255.16536493951
 31
0.0
  0
LINE
  5
7EEC
330
81E1
100
AcDbEntity
  8
0
  6
ByBlock
100
AcDbLine
 10
1080.711976298494
 20
4230.165364939511
 30
0.0
 11
280.7119762984948
 21
4230.165364939511
 31
0.0
  0
INSERT
  5
7EED
330
81E1
100
AcDbEntity
  8
0
  6
ByBlock
100
AcDbBlockReference
  2
_OPEN
 10
1130.711976298494
 20
4230.165364939511
 30
0.0
 41
50.0
 42
50.0
 43
50.0
  0
INSERT
  5
7EEE
330
81E1
100
AcDbEntity
  8
0
  6
ByBlock
100
AcDbBlockReference
  2
_OPEN
 10
230.7119762984948
 20
4230.165364939511
 30
0.0
 41
50.0
 42
50.0
 43
50.0
 50
180.0
  0
TEXT
  5
7EEF
330
81E1
100
AcDbEntity
  8
3
100
AcDbText
 10
584.2834048699232
 20
4242.665364939511
 30
0.0
 40
75.0
  1
900
100
AcDbText
  0
POINT
  5
7EF0
330
81E1
100
AcDbEntity
  8
DEFPOINTS
  6
ByBlock
 62
     0
100
AcDbPoint
 10
1130.711976298494
 20
3928.533310535339
 30
0.0
  0
POINT
  5
7EF1
330
81E1
100
AcDbEntity
  8
DEFPOINTS
  6
ByBlock
 62
     0
100
AcDbPoint
 10
230.7119762984948
 20
3928.533310535338
 30
0.0
  0
POINT
  5
7EF2
330
81E1
100
AcDbEntity
  8
DEFPOINTS
  6
ByBlock
 62
     0
100
AcDbPoint
 10
230.7119762984948
 20
4230.165364939511
 30
0.0
  0
ENDBLK
  5
7EF3
330
81E1
100
AcDbEntity
  8
0
100
AcDbBlockEnd
  0
BLOCK
  5
81E4
330
81E3
100
AcDbEntity
  8
0
100
AcDbBlockBegin
  2
*D14
 70
     1
 10
0.0
 20
0.0
 30
0.0
  3
*D14
  1

  0
LINE
  5
7EF5
330
81E3
100
AcDbEntity
  8
0
  6
ByBlock
100
AcDbLine
 10
1830.711976298495
 20
3468.53331053534
 30
0.0
 11
1830.711976298495
 21
4255.16536493951
 31
0.0
  0
LINE
  5
7EF6
330
81E3
100
AcDbEntity
  8
0
  6
ByBlock
100
AcDbLine
 10
1130.711976298494
 20
3953.533310535338
 30
0.0
 11
1130.711976298494
 21
4255.16536493951
 31
0.0
  0
LINE
  5
7EF7
330
81E3
100
AcDbEntity
  8
0
  6
ByBlock
100
AcDbLine
 10
1780.711976298495
 20
4230.165364939511
 30
0.0
 11
1180.711976298494
 21
4230.165364939511
 31
0.0
  0
INSERT
  5
7EF8
330
81E3
100
AcDbEntity
  8
0
  6
ByBlock
100
AcDbBlockReference
  2
_OPEN
 10
1830.711976298495
 20
4230.165364939511
 30
0.0
 41
50.0
 42
50.0
 43
50.0
  0
INSERT
  5
7EF9
330
81E3
100
AcDbEntity
  8
0
  6
ByBlock
100
AcDbBlockReference
  2
_OPEN
 10
1130.711976298494
 20
4230.165364939511
 30
0.0
 41
50.0
 42
50.0
 43
50.0
 50
180.0
  0
TEXT
  5
7EFA
330
81E3
100
AcDbEntity
  8
3
100
AcDbText
 10
1384.283404869923
 20
4242.665364939511
 30
0.0
 40
75.0
  1
700
100
AcDbText
  0
POINT
  5
7EFB
330
81E3
100
AcDbEntity
  8
DEFPOINTS
  6
ByBlock
 62
     0
100
AcDbPoint
 10
1830.711976298495
 20
3443.53331053534
 30
0.0
  0
POINT
  5
7EFC
330
81E3
100
AcDbEntity
  8
DEFPOINTS
  6
ByBlock
 62
     0
100
AcDbPoint
 10
1130.711976298494
 20
3928.533310535339
 30
0.0
  0
POINT
  5
7EFD
330
81E3
100
AcDbEntity
  8
DEFPOINTS
  6
ByBlock
 62
     0
100
AcDbPoint
 10
1130.711976298494
 20
4230.165364939511
 30
0.0
  0
ENDBLK
  5
7EFE
330
81E3
100
AcDbEntity
  8
0
100
AcDbBlockEnd
  0
BLOCK
  5
81E6
330
81E5
100
AcDbEntity
  8
0
100
AcDbBlockBegin
  2
*D15
 70
     1
 10
0.0
 20
0.0
 30
0.0
  3
*D15
  1

  0
LINE
  5
7F00
330
81E5
100
AcDbEntity
  8
0
  6
ByBlock
100
AcDbLine
 10
205.7119762984948
 20
2773.533310535337
 30
0.0
 11
-95.68523184276271
 21
2773.533310535337
 31
0.0
  0
LINE
  5
7F01
330
81E5
100
AcDbEntity
  8
0
  6
ByBlock
100
AcDbLine
 10
205.7119762984948
 20
3928.533310535338
 30
0.0
 11
-95.68523184276271
 21
3928.533310535338
 31
0.0
  0
LINE
  5
7F02
330
81E5
100
AcDbEntity
  8
0
  6
ByBlock
100
AcDbLine
 10
-70.68523184276273
 20
2823.533310535337
 30
0.0
 11
-70.68523184276273
 21
3878.533310535337
 31
0.0
  0
INSERT
  5
7F03
330
81E5
100
AcDbEntity
  8
0
  6
ByBlock
100
AcDbBlockReference
  2
_OPEN
 10
-70.68523184276273
 20
2773.533310535337
 30
0.0
 41
50.0
 42
50.0
 43
50.0
 50
270.0
  0
INSERT
  5
7F04
330
81E5
100
AcDbEntity
  8
0
  6
ByBlock
100
AcDbBlockReference
  2
_OPEN
 10
-70.68523184276273
 20
3928.533310535338
 30
0.0
 41
50.0
 42
50.0
 43
50.0
 50
90.0
  0
TEXT
  5
7F05
330
81E5
100
AcDbEntity
  8
3
100
AcDbText
 10
-83.18523184276273
 20
3233.176167678195
 30
0.0
 40
75.0
  1
1155
 50
90.0
100
AcDbText
  0
POINT
  5
7F06
330
81E5
100
AcDbEntity
  8
DEFPOINTS
  6
ByBlock
 62
     0
100
AcDbPoint
 10
230.7119762984948
 20
2773.533310535337
 30
0.0
  0
POINT
  5
7F07
330
81E5
100
AcDbEntity
  8
DEFPOINTS
  6
ByBlock
 62
     0
100
AcDbPoint
 10
230.7119762984948
 20
3928.533310535338
 30
0.0
  0
POINT
  5
7F08
330
81E5
100
AcDbEntity
  8
DEFPOINTS
  6
ByBlock
 62
     0
100
AcDbPoint
 10
-70.68523184276273
 20
3928.533310535338
 30
0.0
  0
ENDBLK
  5
7F09
330
81E5
100
AcDbEntity
  8
0
100
AcDbBlockEnd
  0
BLOCK
  5
81E8
330
81E7
100
AcDbEntity
  8
0
100
AcDbBlockBegin
  2
*D16
 70
     1
 10
0.0
 20
0.0
 30
0.0
  3
*D16
  1

  0
LINE
  5
7F0B
330
81E7
100
AcDbEntity
  8
0
  6
ByBlock
100
AcDbLine
 10
642.7119762984948
 20
1008.593478221399
 30
0.0
 11
-72.37300687087918
 21
1008.593478221399
 31
0.0
  0
LINE
  5
7F0C
330
81E7
100
AcDbEntity
  8
0
  6
ByBlock
100
AcDbLine
 10
33.44613749306518
 20
508.5934782213988
 30
0.0
 11
-72.37300687087918
 21
508.5934782213988
 31
0.0
  0
LINE
  5
7F0D
330
81E7
100
AcDbEntity
  8
0
  6
ByBlock
100
AcDbLine
 10
-47.37300687087918
 20
958.5934782213996
 30
0.0
 11
-47.37300687087918
 21
558.5934782213988
 31
0.0
  0
INSERT
  5
7F0E
330
81E7
100
AcDbEntity
  8
0
  6
ByBlock
100
AcDbBlockReference
  2
_OPEN
 10
-47.37300687087918
 20
1008.593478221399
 30
0.0
 41
50.0
 42
50.0
 43
50.0
 50
90.0
  0
INSERT
  5
7F0F
330
81E7
100
AcDbEntity
  8
0
  6
ByBlock
100
AcDbBlockReference
  2
_OPEN
 10
-47.37300687087918
 20
508.5934782213988
 30
0.0
 41
50.0
 42
50.0
 43
50.0
 50
270.0
  0
TEXT
  5
7F10
330
81E7
100
AcDbEntity
  8
3
100
AcDbText
 10
-59.87300687087918
 20
662.1649067928277
 30
0.0
 40
75.0
  1
500
 50
90.0
100
AcDbText
  0
POINT
  5
7F11
330
81E7
100
AcDbEntity
  8
DEFPOINTS
  6
ByBlock
 62
     0
100
AcDbPoint
 10
667.7119762984948
 20
1008.593478221399
 30
0.0
  0
POINT
  5
7F12
330
81E7
100
AcDbEntity
  8
DEFPOINTS
  6
ByBlock
 62
     0
100
AcDbPoint
 10
58.44613749306518
 20
508.5934782213988
 30
0.0
  0
POINT
  5
7F13
330
81E7
100
AcDbEntity
  8
DEFPOINTS
  6
ByBlock
 62
     0
100
AcDbPoint
 10
-47.37300687087918
 20
508.5934782213988
 30
0.0
  0
ENDBLK
  5
7F14
330
81E7
100
AcDbEntity
  8
0
100
AcDbBlockEnd
  0
BLOCK
  5
81EA
330
81E9
100
AcDbEntity
  8
0
100
AcDbBlockBegin
  2
*D17
 70
     1
 10
0.0
 20
0.0
 30
0.0
  3
*D17
  1

  0
LINE
  5
8124
330
81E9
100
AcDbEntity
  8
3
100
AcDbLine
 10
1078.22368732464
 20
1894.56025197806
 30
0.0
 11
800.1387041552657
 21
1894.56025197806
 31
0.0
  0
LINE
  5
8125
330
81E9
100
AcDbEntity
  8
3
100
AcDbLine
 10
825.1387041552661
 20
2484.560251978061
 30
0.0
 11
825.1387041552657
 21
1944.56025197806
 31
0.0
  0
INSERT
  5
8126
330
81E9
100
AcDbEntity
  8
3
100
AcDbBlockReference
  2
_OPEN
 10
825.1387041552661
 20
2534.560251978061
 30
0.0
 41
50.0
 42
50.0
 43
50.0
 50
90.0
  0
INSERT
  5
8127
330
81E9
100
AcDbEntity
  8
3
100
AcDbBlockReference
  2
_OPEN
 10
825.1387041552657
 20
1894.56025197806
 30
0.0
 41
50.0
 42
50.0
 43
50.0
 50
270.0
  0
TEXT
  5
8147
330
81E9
100
AcDbEntity
  8
3
100
AcDbText
 10
625.139
 20
2081.81
 30
0.0
 40
75.0
  1
640
100
AcDbText
  0
POINT
  5
8129
330
81E9
100
AcDbEntity
  8
DEFPOINTS
 62
     0
100
AcDbPoint
 10
930.9578485192103
 20
2534.560251978061
 30
0.0
  0
POINT
  5
812A
330
81E9
100
AcDbEntity
  8
DEFPOINTS
 62
     0
100
AcDbPoint
 10
1103.22368732464
 20
1894.56025197806
 30
0.0
  0
POINT
  5
812B
330
81E9
100
AcDbEntity
  8
DEFPOINTS
 62
     0
100
AcDbPoint
 10
825.1387041552657
 20
1894.56025197806
 30
0.0
  0
ENDBLK
  5
7F1E
330
81E9
100
AcDbEntity
  8
0
100
AcDbBlockEnd
  0
BLOCK
  5
81EC
330
81EB
100
AcDbEntity
  8
0
100
AcDbBlockBegin
  2
*D18
 70
     1
 10
0.0
 20
0.0
 30
0.0
  3
*D18
  1

  0
LINE
  5
812C
330
81EB
100
AcDbEntity
  8
3
 62
     0
100
AcDbLine
 10
1090.72368732464
 20
1799.56025197806
 30
0.0
 11
800.1387041552661
 21
1799.56025197806
 31
0.0
  0
LINE
  5
812D
330
81EB
100
AcDbEntity
  8
3
 62
     0
100
AcDbLine
 10
1090.72368732464
 20
1699.56025197806
 30
0.0
 11
800.1387041552657
 21
1699.56025197806
 31
0.0
  0
LINE
  5
812E
330
81EB
100
AcDbEntity
  8
3
 62
     0
100
AcDbLine
 10
825.1387041552661
 20
1849.56025197806
 30
0.0
 11
825.1387041552661
 21
1899.56025197806
 31
0.0
  0
LINE
  5
812F
330
81EB
100
AcDbEntity
  8
3
 62
     0
100
AcDbLine
 10
825.1387041552657
 20
1649.56025197806
 30
0.0
 11
825.1387041552657
 21
1370.988823406632
 31
0.0
  0
LINE
  5
8130
330
81EB
100
AcDbEntity
  8
3
 62
     0
100
AcDbLine
 10
825.1387041552661
 20
1799.56025197806
 30
0.0
 11
825.1387041552657
 21
1699.56025197806
 31
0.0
  0
INSERT
  5
8131
330
81EB
100
AcDbEntity
  8
3
 62
     0
100
AcDbBlockReference
  2
_DOT
 10
825.1387041552661
 20
1799.56025197806
 30
0.0
 41
50.0
 42
50.0
 43
50.0
 50
270.0
  0
INSERT
  5
8132
330
81EB
100
AcDbEntity
  8
3
 62
     0
100
AcDbBlockReference
  2
_OPEN
 10
825.1387041552657
 20
1699.56025197806
 30
0.0
 41
50.0
 42
50.0
 43
50.0
 50
90.0
  0
TEXT
  5
8148
330
81EB
100
AcDbEntity
  8
3
 62
     0
100
AcDbText
 10
612.639
 20
1352.52
 30
0.0
 40
75.0
  1
100
100
AcDbText
  0
POINT
  5
8134
330
81EB
100
AcDbEntity
  8
DEFPOINTS
 62
     0
100
AcDbPoint
 10
1103.22368732464
 20
1799.56025197806
 30
0.0
  0
POINT
  5
8135
330
81EB
100
AcDbEntity
  8
DEFPOINTS
 62
     0
100
AcDbPoint
 10
1103.22368732464
 20
1699.56025197806
 30
0.0
  0
POINT
  5
8136
330
81EB
100
AcDbEntity
  8
DEFPOINTS
 62
     0
100
AcDbPoint
 10
825.1387041552657
 20
1699.56025197806
 30
0.0
  0
ENDBLK
  5
8013
330
81EB
100
AcDbEntity
  8
0
100
AcDbBlockEnd
  0
BLOCK
  5
81F2
330
81ED
100
AcDbEntity
  8
0
100
AcDbBlockBegin
  2
_DOT
 70
     0
 10
0.0
 20
0.0
 30
0.0
  3
_DOT
  1

  0
LWPOLYLINE
  5
8016
330
81ED
100
AcDbEntity
  8
0
  6
ByBlock
 62
     0
100
AcDbPolyline
 90
        2
 70
     1
 43
0.25
 10
-0.125
 20
0.0
 42
1.0
 10
0.125
 20
0.0
 42
1.0
  0
LINE
  5
801A
330
81ED
100
AcDbEntity
  8
0
  6
ByBlock
 62
     0
100
AcDbLine
 10
-0.25
 20
0.0
 30
0.0
 11
-1.0
 21
0.0
 31
0.0
  0
ENDBLK
  5
7FDF
330
81ED
100
AcDbEntity
  8
0
100
AcDbBlockEnd
  0
BLOCK
  5
81EF
330
81EE
100
AcDbEntity
  8
0
100
AcDbBlockBegin
  2
*D20
 70
     1
 10
0.0
 20
0.0
 30
0.0
  3
*D20
  1

  0
LINE
  5
8137
330
81EE
100
AcDbEntity
  8
3
100
AcDbLine
 10
1047.22368732464
 20
2506.56025197806
 30
0.0
 11
1047.22368732464
 21
3361.376409230953
 31
0.0
  0
LINE
  5
8138
330
81EE
100
AcDbEntity
  8
3
100
AcDbLine
 10
1503.22368732464
 20
3336.376409230953
 30
0.0
 11
1097.22368732464
 21
3336.376409230953
 31
0.0
  0
INSERT
  5
8139
330
81EE
100
AcDbEntity
  8
3
100
AcDbBlockReference
  2
_OPEN
 10
1553.22368732464
 20
3336.376409230953
 30
0.0
 41
50.0
 42
50.0
 43
50.0
  0
INSERT
  5
813A
330
81EE
100
AcDbEntity
  8
3
100
AcDbBlockReference
  2
_OPEN
 10
1047.22368732464
 20
3336.376409230953
 30
0.0
 41
50.0
 42
50.0
 43
50.0
 50
180.0
  0
TEXT
  5
8149
330
81EE
100
AcDbEntity
  8
3
100
AcDbText
 10
1150.22
 20
3253.630000000001
 30
0.0
 40
75.0
  1
506
100
AcDbText
  0
POINT
  5
813C
330
81EE
100
AcDbEntity
  8
DEFPOINTS
 62
     0
100
AcDbPoint
 10
1553.22368732464
 20
3156.82609078349
 30
0.0
  0
POINT
  5
813D
330
81EE
100
AcDbEntity
  8
DEFPOINTS
 62
     0
100
AcDbPoint
 10
1047.22368732464
 20
2481.560251978061
 30
0.0
  0
POINT
  5
813E
330
81EE
100
AcDbEntity
  8
DEFPOINTS
 62
     0
100
AcDbPoint
 10
1047.22368732464
 20
3336.376409230953
 30
0.0
  0
ENDBLK
  5
7F41
330
81EE
100
AcDbEntity
  8
0
100
AcDbBlockEnd
  0
BLOCK
  5
81F1
330
81F0
100
AcDbEntity
  8
0
100
AcDbBlockBegin
  2
*D21
 70
     1
 10
0.0
 20
0.0
 30
0.0
  3
*D21
  1

  0
LINE
  5
7F4E
330
81F0
100
AcDbEntity
  8
0
  6
ByBlock
100
AcDbLine
 10
174.7119762984948
 20
480.5934782213987
 30
0.0
 11
174.7119762984948
 21
1467.082603555343
 31
0.0
  0
LINE
  5
7F4F
330
81F0
100
AcDbEntity
  8
0
  6
ByBlock
100
AcDbLine
 10
1830.711976298495
 20
-6.406521778601017
 30
0.0
 11
1830.711976298495
 21
1467.082603555343
 31
0.0
  0
LINE
  5
7F50
330
81F0
100
AcDbEntity
  8
0
  6
ByBlock
100
AcDbLine
 10
224.7119762984948
 20
1442.082603555343
 30
0.0
 11
1780.711976298495
 21
1442.082603555343
 31
0.0
  0
INSERT
  5
7F51
330
81F0
100
AcDbEntity
  8
0
  6
ByBlock
100
AcDbBlockReference
  2
_OPEN
 10
174.7119762984948
 20
1442.082603555343
 30
0.0
 41
50.0
 42
50.0
 43
50.0
 50
180.0
  0
INSERT
  5
7F52
330
81F0
100
AcDbEntity
  8
0
  6
ByBlock
100
AcDbBlockReference
  2
_OPEN
 10
1830.711976298495
 20
1442.082603555343
 30
0.0
 41
50.0
 42
50.0
 43
50.0
  0
TEXT
  5
7F53
330
81F0
100
AcDbEntity
  8
3
100
AcDbText
 10
879.4976905842089
 20
1454.582603555343
 30
0.0
 40
75.0
  1
1656
100
AcDbText
  0
POINT
  5
7F54
330
81F0
100
AcDbEntity
  8
DEFPOINTS
  6
ByBlock
 62
     0
100
AcDbPoint
 10
174.7119762984948
 20
455.5934782213987
 30
0.0
  0
POINT
  5
7F55
330
81F0
100
AcDbEntity
  8
DEFPOINTS
  6
ByBlock
 62
     0
100
AcDbPoint
 10
1830.711976298495
 20
-31.40652177860101
 30
0.0
  0
POINT
  5
7F56
330
81F0
100
AcDbEntity
  8
DEFPOINTS
  6
ByBlock
 62
     0
100
AcDbPoint
 10
1830.711976298495
 20
1442.082603555343
 30
0.0
  0
ENDBLK
  5
7F57
330
81F0
100
AcDbEntity
  8
0
100
AcDbBlockEnd
  0
BLOCK
  5
81F4
330
81F3
100
AcDbEntity
  8
0
100
AcDbBlockBegin
  2
*D22
 70
     1
 10
0.0
 20
0.0
 30
0.0
  3
*D22
  1

  0
LINE
  5
8052
330
81F3
100
AcDbEntity
  8
0
  6
ByBlock
 62
     0
100
AcDbLine
 10
1103.22368732464
 20
1742.56025197806
 30
0.0
 11
1103.22368732464
 21
1584.209078611294
 31
0.0
  0
LINE
  5
8053
330
81F3
100
AcDbEntity
  8
0
  6
ByBlock
 62
     0
100
AcDbLine
 10
1553.22368732464
 20
1742.56025197806
 30
0.0
 11
1553.22368732464
 21
1584.209078611294
 31
0.0
  0
LINE
  5
8054
330
81F3
100
AcDbEntity
  8
0
  6
ByBlock
 62
     0
100
AcDbLine
 10
1153.22368732464
 20
1609.209078611294
 30
0.0
 11
1503.22368732464
 21
1609.209078611294
 31
0.0
  0
INSERT
  5
8055
330
81F3
100
AcDbEntity
  8
0
  6
ByBlock
 62
     0
100
AcDbBlockReference
  2
_OPEN
 10
1103.22368732464
 20
1609.209078611294
 30
0.0
 41
50.0
 42
50.0
 43
50.0
 50
180.0
  0
INSERT
  5
8056
330
81F3
100
AcDbEntity
  8
0
  6
ByBlock
 62
     0
100
AcDbBlockReference
  2
_OPEN
 10
1553.22368732464
 20
1609.209078611294
 30
0.0
 41
50.0
 42
50.0
 43
50.0
  0
TEXT
  5
8057
330
81F3
100
AcDbEntity
  8
3
 62
     0
100
AcDbText
 10
1231.795115896068
 20
1634.209078611294
 30
0.0
 40
75.0
  1
450
100
AcDbText
  0
POINT
  5
8058
330
81F3
100
AcDbEntity
  8
DEFPOINTS
  6
ByBlock
 62
     0
100
AcDbPoint
 10
1103.22368732464
 20
1767.56025197806
 30
0.0
  0
POINT
  5
8059
330
81F3
100
AcDbEntity
  8
DEFPOINTS
  6
ByBlock
 62
     0
100
AcDbPoint
 10
1553.22368732464
 20
1767.56025197806
 30
0.0
  0
POINT
  5
805A
330
81F3
100
AcDbEntity
  8
DEFPOINTS
  6
ByBlock
 62
     0
100
AcDbPoint
 10
1553.22368732464
 20
1609.209078611294
 30
0.0
  0
ENDBLK
  5
805B
330
81F3
100
AcDbEntity
  8
0
100
AcDbBlockEnd
  0
BLOCK
  5
81F6
330
81F5
100
AcDbEntity
  8
0
100
AcDbBlockBegin
  2
*D23
 70
     1
 10
0.0
 20
0.0
 30
0.0
  3
*D23
  1

  0
LINE
  5
805F
330
81F5
100
AcDbEntity
  8
0
  6
ByBlock
 62
     0
100
AcDbLine
 10
1553.22368732464
 20
1742.56025197806
 30
0.0
 11
1553.22368732464
 21
1584.209078611294
 31
0.0
  0
LINE
  5
8060
330
81F5
100
AcDbEntity
  8
0
  6
ByBlock
 62
     0
100
AcDbLine
 10
2703.22368732464
 20
1742.56025197806
 30
0.0
 11
2703.22368732464
 21
1584.209078611294
 31
0.0
  0
LINE
  5
8061
330
81F5
100
AcDbEntity
  8
0
  6
ByBlock
 62
     0
100
AcDbLine
 10
1603.22368732464
 20
1609.209078611294
 30
0.0
 11
2653.22368732464
 21
1609.209078611294
 31
0.0
  0
INSERT
  5
8062
330
81F5
100
AcDbEntity
  8
0
  6
ByBlock
 62
     0
100
AcDbBlockReference
  2
_OPEN
 10
1553.22368732464
 20
1609.209078611294
 30
0.0
 41
50.0
 42
50.0
 43
50.0
 50
180.0
  0
INSERT
  5
8063
330
81F5
100
AcDbEntity
  8
0
  6
ByBlock
 62
     0
100
AcDbBlockReference
  2
_OPEN
 10
2703.22368732464
 20
1609.209078611294
 30
0.0
 41
50.0
 42
50.0
 43
50.0
  0
TEXT
  5
8064
330
81F5
100
AcDbEntity
  8
3
 62
     0
100
AcDbText
 10
2010.366544467497
 20
1634.209078611294
 30
0.0
 40
75.0
  1
1150
100
AcDbText
  0
POINT
  5
8065
330
81F5
100
AcDbEntity
  8
DEFPOINTS
  6
ByBlock
 62
     0
100
AcDbPoint
 10
1553.22368732464
 20
1767.56025197806
 30
0.0
  0
POINT
  5
8066
330
81F5
100
AcDbEntity
  8
DEFPOINTS
  6
ByBlock
 62
     0
100
AcDbPoint
 10
2703.22368732464
 20
1767.56025197806
 30
0.0
  0
POINT
  5
8067
330
81F5
100
AcDbEntity
  8
DEFPOINTS
  6
ByBlock
 62
     0
100
AcDbPoint
 10
2703.22368732464
 20
1609.209078611294
 30
0.0
  0
ENDBLK
  5
8068
330
81F5
100
AcDbEntity
  8
0
100
AcDbBlockEnd
  0
BLOCK
  5
81F8
330
81F7
100
AcDbEntity
  8
0
100
AcDbBlockBegin
  2
*D24
 70
     1
 10
0.0
 20
0.0
 30
0.0
  3
*D24
  1

  0
LINE
  5
806C
330
81F7
100
AcDbEntity
  8
0
  6
ByBlock
 62
     0
100
AcDbLine
 10
3114.305087276282
 20
1742.56025197806
 30
0.0
 11
3114.305087276282
 21
1584.209078611294
 31
0.0
  0
LINE
  5
806D
330
81F7
100
AcDbEntity
  8
0
  6
ByBlock
 62
     0
100
AcDbLine
 10
3766.305087276281
 20
1742.56025197806
 30
0.0
 11
3766.305087276281
 21
1584.209078611294
 31
0.0
  0
LINE
  5
806E
330
81F7
100
AcDbEntity
  8
0
  6
ByBlock
 62
     0
100
AcDbLine
 10
3164.305087276281
 20
1609.209078611294
 30
0.0
 11
3716.305087276281
 21
1609.209078611294
 31
0.0
  0
INSERT
  5
806F
330
81F7
100
AcDbEntity
  8
0
  6
ByBlock
 62
     0
100
AcDbBlockReference
  2
_OPEN
 10
3114.305087276282
 20
1609.209078611294
 30
0.0
 41
50.0
 42
50.0
 43
50.0
 50
180.0
  0
INSERT
  5
8070
330
81F7
100
AcDbEntity
  8
0
  6
ByBlock
 62
     0
100
AcDbBlockReference
  2
_OPEN
 10
3766.305087276281
 20
1609.209078611294
 30
0.0
 41
50.0
 42
50.0
 43
50.0
  0
TEXT
  5
8071
330
81F7
100
AcDbEntity
  8
3
 62
     0
100
AcDbText
 10
3343.876515847709
 20
1634.209078611294
 30
0.0
 40
75.0
  1
652
100
AcDbText
  0
POINT
  5
8072
330
81F7
100
AcDbEntity
  8
DEFPOINTS
  6
ByBlock
 62
     0
100
AcDbPoint
 10
3114.305087276282
 20
1767.56025197806
 30
0.0
  0
POINT
  5
8073
330
81F7
100
AcDbEntity
  8
DEFPOINTS
  6
ByBlock
 62
     0
100
AcDbPoint
 10
3766.305087276281
 20
1767.56025197806
 30
0.0
  0
POINT
  5
8074
330
81F7
100
AcDbEntity
  8
DEFPOINTS
  6
ByBlock
 62
     0
100
AcDbPoint
 10
3766.305087276281
 20
1609.209078611294
 30
0.0
  0
ENDBLK
  5
8075
330
81F7
100
AcDbEntity
  8
0
100
AcDbBlockEnd
  0
BLOCK
  5
81FA
330
81F9
100
AcDbEntity
  8
0
100
AcDbBlockBegin
  2
*D25
 70
     1
 10
0.0
 20
0.0
 30
0.0
  3
*D25
  1

  0
LINE
  5
8079
330
81F9
100
AcDbEntity
  8
0
  6
ByBlock
 62
     0
100
AcDbLine
 10
3766.305087276281
 20
1742.56025197806
 30
0.0
 11
3766.305087276281
 21
1584.209078611294
 31
0.0
  0
LINE
  5
807A
330
81F9
100
AcDbEntity
  8
0
  6
ByBlock
 62
     0
100
AcDbLine
 10
4269.305087276282
 20
1742.56025197806
 30
0.0
 11
4269.305087276282
 21
1584.209078611294
 31
0.0
  0
LINE
  5
807B
330
81F9
100
AcDbEntity
  8
0
  6
ByBlock
 62
     0
100
AcDbLine
 10
3816.305087276282
 20
1609.209078611294
 30
0.0
 11
4219.305087276281
 21
1609.209078611294
 31
0.0
  0
INSERT
  5
807C
330
81F9
100
AcDbEntity
  8
0
  6
ByBlock
 62
     0
100
AcDbBlockReference
  2
_OPEN
 10
3766.305087276281
 20
1609.209078611294
 30
0.0
 41
50.0
 42
50.0
 43
50.0
 50
180.0
  0
INSERT
  5
807D
330
81F9
100
AcDbEntity
  8
0
  6
ByBlock
 62
     0
100
AcDbBlockReference
  2
_OPEN
 10
4269.305087276282
 20
1609.209078611294
 30
0.0
 41
50.0
 42
50.0
 43
50.0
  0
TEXT
  5
807E
330
81F9
100
AcDbEntity
  8
3
 62
     0
100
AcDbText
 10
3921.37651584771
 20
1634.209078611294
 30
0.0
 40
75.0
  1
503
100
AcDbText
  0
POINT
  5
807F
330
81F9
100
AcDbEntity
  8
DEFPOINTS
  6
ByBlock
 62
     0
100
AcDbPoint
 10
3766.305087276281
 20
1767.56025197806
 30
0.0
  0
POINT
  5
8080
330
81F9
100
AcDbEntity
  8
DEFPOINTS
  6
ByBlock
 62
     0
100
AcDbPoint
 10
4269.305087276282
 20
1767.56025197806
 30
0.0
  0
POINT
  5
8081
330
81F9
100
AcDbEntity
  8
DEFPOINTS
  6
ByBlock
 62
     0
100
AcDbPoint
 10
4269.305087276282
 20
1609.209078611294
 30
0.0
  0
ENDBLK
  5
8082
330
81F9
100
AcDbEntity
  8
0
100
AcDbBlockEnd
  0
BLOCK
  5
81FC
330
81FB
100
AcDbEntity
  8
0
100
AcDbBlockBegin
  2
_NONE
 70
     0
 10
0.0
 20
0.0
 30
0.0
  3
_NONE
  1

  0
CIRCLE
  5
8086
330
81FB
100
AcDbEntity
  8
0
  6
ByBlock
 62
     0
100
AcDbCircle
 10
0.0
 20
0.0
 30
0.0
 40
0.25
  0
ENDBLK
  5
8087
330
81FB
100
AcDbEntity
  8
0
100
AcDbBlockEnd
  0
BLOCK
  5
81FE
330
81FD
100
AcDbEntity
  8
0
100
AcDbBlockBegin
  2
*D27
 70
     1
 10
0.0
 20
0.0
 30
0.0
  3
*D27
  1

  0
LINE
  5
80A4
330
81FD
100
AcDbEntity
  8
0
  6
ByBlock
 62
     0
100
AcDbLine
 10
824.9748635777358
 20
1799.56025197806
 30
0.0
 11
824.9748635777358
 21
1894.56025197806
 31
0.0
  0
TEXT
  5
80A5
330
81FD
100
AcDbEntity
  8
3
 62
     0
100
AcDbText
 10
730.3320064348787
 20
1738.131680549489
 30
0.0
 40
75.0
  1
(95)
 50
90.0
100
AcDbText
  0
POINT
  5
80A6
330
81FD
100
AcDbEntity
  8
DEFPOINTS
  6
ByBlock
 62
     0
100
AcDbPoint
 10
1103.22368732464
 20
1799.56025197806
 30
0.0
  0
POINT
  5
80A7
330
81FD
100
AcDbEntity
  8
DEFPOINTS
  6
ByBlock
 62
     0
100
AcDbPoint
 10
1103.22368732464
 20
1894.56025197806
 30
0.0
  0
POINT
  5
80A8
330
81FD
100
AcDbEntity
  8
DEFPOINTS
  6
ByBlock
 62
     0
100
AcDbPoint
 10
824.9748635777358
 20
1894.56025197806
 30
0.0
  0
ENDBLK
  5
80A9
330
81FD
100
AcDbEntity
  8
0
100
AcDbBlockEnd
  0
BLOCK
  5
8200
330
81FF
100
AcDbEntity
  8
0
100
AcDbBlockBegin
  2
*D28
 70
     1
 10
0.0
 20
0.0
 30
0.0
  3
*D28
  1

  0
LINE
  5
80AD
330
81FF
100
AcDbEntity
  8
0
  6
ByBlock
 62
     0
100
AcDbLine
 10
1078.22368732464
 20
1699.56025197806
 30
0.0
 11
594.2964789420948
 21
1699.56025197806
 31
0.0
  0
LINE
  5
80AE
330
81FF
100
AcDbEntity
  8
0
  6
ByBlock
 62
     0
100
AcDbLine
 10
1515.22368732464
 20
3034.560251978061
 30
0.0
 11
594.2964789420948
 21
3034.560251978061
 31
0.0
  0
LINE
  5
80AF
330
81FF
100
AcDbEntity
  8
0
  6
ByBlock
 62
     0
100
AcDbLine
 10
619.2964789420948
 20
1749.56025197806
 30
0.0
 11
619.2964789420948
 21
2984.560251978061
 31
0.0
  0
INSERT
  5
80B0
330
81FF
100
AcDbEntity
  8
0
  6
ByBlock
 62
     0
100
AcDbBlockReference
  2
_OPEN
 10
619.2964789420948
 20
1699.56025197806
 30
0.0
 41
50.0
 42
50.0
 43
50.0
 50
270.0
  0
INSERT
  5
80B1
330
81FF
100
AcDbEntity
  8
0
  6
ByBlock
 62
     0
100
AcDbBlockReference
  2
_OPEN
 10
619.2964789420948
 20
3034.560251978061
 30
0.0
 41
50.0
 42
50.0
 43
50.0
 50
90.0
  0
TEXT
  5
80B2
330
81FF
100
AcDbEntity
  8
3
 62
     0
100
AcDbText
 10
562.1536217992377
 20
2193.845966263775
 30
0.0
 40
75.0
  1
(1335)
 50
90.0
100
AcDbText
  0
POINT
  5
80B3
330
81FF
100
AcDbEntity
  8
DEFPOINTS
  6
ByBlock
 62
     0
100
AcDbPoint
 10
1103.22368732464
 20
1699.56025197806
 30
0.0
  0
POINT
  5
80B4
330
81FF
100
AcDbEntity
  8
DEFPOINTS
  6
ByBlock
 62
     0
100
AcDbPoint
 10
1540.22368732464
 20
3034.560251978061
 30
0.0
  0
POINT
  5
80B5
330
81FF
100
AcDbEntity
  8
DEFPOINTS
  6
ByBlock
 62
     0
100
AcDbPoint
 10
619.2964789420948
 20
3034.560251978061
 30
0.0
  0
ENDBLK
  5
80B6
330
81FF
100
AcDbEntity
  8
0
100
AcDbBlockEnd
  0
BLOCK
  5
8287
330
8286
100
AcDbEntity
  8
0
100
AcDbBlockBegin
  2
*D30
 70
     1
 10
0.0
 20
0.0
 30
0.0
  3
*D30
  1

  0
LINE
  5
82B1
330
8286
100
AcDbEntity
  8
3
 62
     0
370
    -2
100
AcDbLine
 10
2926.305087276285
 20
2839.560251978061
 30
0.0
 11
2926.305087276285
 21
3492.514353745173
 31
0.0
  0
LINE
  5
82B2
330
8286
100
AcDbEntity
  8
3
 62
     0
370
    -2
100
AcDbLine
 10
3766.305087276282
 20
3354.433962286385
 30
0.0
 11
3766.305087276282
 21
3492.514353745173
 31
0.0
  0
LINE
  5
82B3
330
8286
100
AcDbEntity
  8
3
 62
     0
370
    -2
100
AcDbLine
 10
2976.305087276285
 20
3467.514353745173
 30
0.0
 11
3716.305087276282
 21
3467.514353745173
 31
0.0
  0
INSERT
  5
82B4
330
8286
100
AcDbEntity
  8
3
 62
     0
370
    -2
100
AcDbBlockReference
  2
_OPEN
 10
2926.305087276285
 20
3467.514353745173
 30
0.0
 41
50.0
 42
50.0
 43
50.0
 50
180.0
  0
INSERT
  5
82B5
330
8286
100
AcDbEntity
  8
3
 62
     0
370
    -2
100
AcDbBlockReference
  2
_OPEN
 10
3766.305087276282
 20
3467.514353745173
 30
0.0
 41
50.0
 42
50.0
 43
50.0
  0
MTEXT
  5
82B6
330
8286
100
AcDbEntity
  8
3
 62
     0
100
AcDbMText
 10
3346.305087276284
 20
3549.657210888031
 30
0.0
 40
75.0
 41
0.0
 71
     5
 72
     1
  1
\A1;(840)
 73
     1
 44
1.0
1001
ACAD
1000
MTEXTBEGIN
1070
    73
1070
     1
1070
    44
1040
1.0
1070
    74
1070
     0
1000
MTEXTEND
  0
POINT
  5
82B7
330
8286
100
AcDbEntity
  8
DEFPOINTS
 62
     0
100
AcDbPoint
 10
2926.305087276285
 20
2814.560251978061
 30
0.0
  0
POINT
  5
82B8
330
8286
100
AcDbEntity
  8
DEFPOINTS
 62
     0
100
AcDbPoint
 10
3766.305087276282
 20
3329.433962286385
 30
0.0
  0
POINT
  5
82B9
330
8286
100
AcDbEntity
  8
DEFPOINTS
 62
     0
100
AcDbPoint
 10
3766.305087276282
 20
3467.514353745173
 30
0.0
  0
ENDBLK
  5
8288
330
8286
100
AcDbEntity
  8
0
100
AcDbBlockEnd
  0
BLOCK
  5
8294
330
8293
100
AcDbEntity
  8
0
100
AcDbBlockBegin
  2
*D31
 70
     1
 10
0.0
 20
0.0
 30
0.0
  3
*D31
  1

  0
LINE
  5
82BA
330
8293
100
AcDbEntity
  8
3
 62
     0
370
    -2
100
AcDbLine
 10
3766.305087276282
 20
3354.433962286385
 30
0.0
 11
3766.305087276282
 21
3492.514353745173
 31
0.0
  0
LINE
  5
82BB
330
8293
100
AcDbEntity
  8
3
 62
     0
370
    -2
100
AcDbLine
 10
4326.305087276281
 20
2534.36025197806
 30
0.0
 11
4326.305087276281
 21
3492.514353745173
 31
0.0
  0
LINE
  5
82BC
330
8293
100
AcDbEntity
  8
3
 62
     0
370
    -2
100
AcDbLine
 10
3816.305087276282
 20
3467.514353745173
 30
0.0
 11
4276.305087276282
 21
3467.514353745173
 31
0.0
  0
INSERT
  5
82BD
330
8293
100
AcDbEntity
  8
3
 62
     0
370
    -2
100
AcDbBlockReference
  2
_OPEN
 10
3766.305087276282
 20
3467.514353745173
 30
0.0
 41
50.0
 42
50.0
 43
50.0
 50
180.0
  0
INSERT
  5
82BE
330
8293
100
AcDbEntity
  8
3
 62
     0
370
    -2
100
AcDbBlockReference
  2
_OPEN
 10
4326.305087276281
 20
3467.514353745173
 30
0.0
 41
50.0
 42
50.0
 43
50.0
  0
MTEXT
  5
82BF
330
8293
100
AcDbEntity
  8
3
 62
     0
100
AcDbMText
 10
4046.305087276281
 20
3549.657210888031
 30
0.0
 40
75.0
 41
0.0
 71
     5
 72
     1
  1
\A1;(560)
 73
     1
 44
1.0
1001
ACAD
1000
MTEXTBEGIN
1070
    73
1070
     1
1070
    44
1040
1.0
1070
    74
1070
     0
1000
MTEXTEND
  0
POINT
  5
82C0
330
8293
100
AcDbEntity
  8
DEFPOINTS
 62
     0
100
AcDbPoint
 10
3766.305087276282
 20
3329.433962286385
 30
0.0
  0
POINT
  5
82C1
330
8293
100
AcDbEntity
  8
DEFPOINTS
 62
     0
100
AcDbPoint
 10
4326.305087276281
 20
2509.36025197806
 30
0.0
  0
POINT
  5
82C2
330
8293
100
AcDbEntity
  8
DEFPOINTS
 62
     0
100
AcDbPoint
 10
4326.305087276281
 20
3467.514353745173
 30
0.0
  0
ENDBLK
  5
8295
330
8293
100
AcDbEntity
  8
0
100
AcDbBlockEnd
  0
BLOCK
  5
82C4
330
82C3
100
AcDbEntity
  8
0
100
AcDbBlockBegin
  2
*D32
 70
     1
 10
0.0
 20
0.0
 30
0.0
  3
*D32
  1

  0
LINE
  5
82C6
330
82C3
100
AcDbEntity
  8
3
 62
     0
370
    -2
100
AcDbLine
 10
1101.66118732464
 20
1814.56025197806
 30
0.0
 11
820.6387041552659
 21
1814.56025197806
 31
0.0
  0
LINE
  5
82C7
330
82C3
100
AcDbEntity
  8
3
 62
     0
370
    -2
100
AcDbLine
 10
1101.66118732464
 20
1714.56025197806
 30
0.0
 11
820.6387041552657
 21
1714.56025197806
 31
0.0
  0
LINE
  5
82C8
330
82C3
100
AcDbEntity
  8
3
 62
     0
370
    -2
100
AcDbLine
 10
825.1387041552659
 20
1810.06025197806
 30
0.0
 11
825.1387041552657
 21
1769.06025197806
 31
0.0
  0
LINE
  5
82C9
330
82C3
100
AcDbEntity
  8
3
 62
     0
370
    -2
100
AcDbLine
 10
825.1387041552657
 20
1719.06025197806
 30
0.0
 11
825.1387041552657
 21
1760.06025197806
 31
0.0
  0
SOLID
  5
82CA
330
82C3
100
AcDbEntity
  8
3
 62
     0
100
AcDbTrace
 10
824.3887041552659
 20
1810.06025197806
 30
0.0
 11
825.8887041552659
 21
1810.06025197806
 31
0.0
 12
825.1387041552659
 22
1814.56025197806
 32
0.0
 13
825.1387041552659
 23
1814.56025197806
 33
0.0
  0
SOLID
  5
82CB
330
82C3
100
AcDbEntity
  8
3
 62
     0
100
AcDbTrace
 10
824.3887041552659
 20
1719.06025197806
 30
0.0
 11
825.8887041552657
 21
1719.06025197806
 31
0.0
 12
825.1387041552657
 22
1714.56025197806
 32
0.0
 13
825.1387041552657
 23
1714.56025197806
 33
0.0
  0
MTEXT
  5
82CC
330
82C3
100
AcDbEntity
  8
3
 62
     0
100
AcDbMText
 10
825.1387041552655
 20
1764.56025197806
 30
0.0
 40
4.5
 41
0.0
 71
     5
 72
     1
  1
\A1;100
 73
     1
 44
1.0
1001
ACAD
1000
MTEXTBEGIN
1070
    73
1070
     1
1070
    44
1040
1.0
1070
    74
1070
     0
1000
MTEXTEND
  0
POINT
  5
82CD
330
82C3
100
AcDbEntity
  8
DEFPOINTS
 62
     0
100
AcDbPoint
 10
1103.22368732464
 20
1814.56025197806
 30
0.0
  0
POINT
  5
82CE
330
82C3
100
AcDbEntity
  8
DEFPOINTS
 62
     0
100
AcDbPoint
 10
1103.22368732464
 20
1714.56025197806
 30
0.0
  0
POINT
  5
82CF
330
82C3
100
AcDbEntity
  8
DEFPOINTS
 62
     0
100
AcDbPoint
 10
825.1387041552657
 20
1714.56025197806
 30
0.0
  0
ENDBLK
  5
82C5
330
82C3
100
AcDbEntity
  8
0
100
AcDbBlockEnd
  0
BLOCK
  5
82D1
330
82D0
100
AcDbEntity
  8
0
100
AcDbBlockBegin
  2
*D33
 70
     1
 10
0.0
 20
0.0
 30
0.0
  3
*D33
  1

  0
LINE
  5
82D3
330
82D0
100
AcDbEntity
  8
3
 62
     0
370
    -2
100
AcDbLine
 10
1103.22368732464
 20
1689.56025197806
 30
0.0
 11
1103.22368732464
 21
1551.709078611295
 31
0.0
  0
LINE
  5
82D4
330
82D0
100
AcDbEntity
  8
3
 62
     0
370
    -2
100
AcDbLine
 10
1553.22368732464
 20
1689.56025197806
 30
0.0
 11
1553.22368732464
 21
1551.709078611295
 31
0.0
  0
LINE
  5
82D5
330
82D0
100
AcDbEntity
  8
3
 62
     0
370
    -2
100
AcDbLine
 10
1107.72368732464
 20
1556.209078611295
 30
0.0
 11
1320.187973038926
 21
1556.209078611295
 31
0.0
  0
LINE
  5
82D6
330
82D0
100
AcDbEntity
  8
3
 62
     0
370
    -2
100
AcDbLine
 10
1548.72368732464
 20
1556.209078611295
 30
0.0
 11
1336.259401610354
 21
1556.209078611295
 31
0.0
  0
SOLID
  5
82D7
330
82D0
100
AcDbEntity
  8
3
 62
     0
100
AcDbTrace
 10
1107.72368732464
 20
1556.959078611295
 30
0.0
 11
1107.72368732464
 21
1555.459078611295
 31
0.0
 12
1103.22368732464
 22
1556.209078611295
 32
0.0
 13
1103.22368732464
 23
1556.209078611295
 33
0.0
  0
SOLID
  5
82D8
330
82D0
100
AcDbEntity
  8
3
 62
     0
100
AcDbTrace
 10
1548.72368732464
 20
1556.959078611295
 30
0.0
 11
1548.72368732464
 21
1555.459078611295
 31
0.0
 12
1553.22368732464
 22
1556.209078611295
 32
0.0
 13
1553.22368732464
 23
1556.209078611295
 33
0.0
  0
MTEXT
  5
82D9
330
82D0
100
AcDbEntity
  8
3
 62
     0
100
AcDbMText
 10
1328.22368732464
 20
1556.209078611295
 30
0.0
 40
4.5
 41
0.0
 71
     5
 72
     1
  1
\A1;450
 73
     1
 44
1.0
1001
ACAD
1000
MTEXTBEGIN
1070
    73
1070
     1
1070
    44
1040
1.0
1070
    74
1070
     0
1000
MTEXTEND
  0
POINT
  5
82DA
330
82D0
100
AcDbEntity
  8
DEFPOINTS
 62
     0
100
AcDbPoint
 10
1103.22368732464
 20
1714.56025197806
 30
0.0
  0
POINT
  5
82DB
330
82D0
100
AcDbEntity
  8
DEFPOINTS
 62
     0
100
AcDbPoint
 10
1553.22368732464
 20
1714.56025197806
 30
0.0
  0
POINT
  5
82DC
330
82D0
100
AcDbEntity
  8
DEFPOINTS
 62
     0
100
AcDbPoint
 10
1553.22368732464
 20
1556.209078611295
 30
0.0
  0
ENDBLK
  5
82D2
330
82D0
100
AcDbEntity
  8
0
100
AcDbBlockEnd
  0
BLOCK
  5
82DE
330
82DD
100
AcDbEntity
  8
0
100
AcDbBlockBegin
  2
*D34
 70
     1
 10
0.0
 20
0.0
 30
0.0
  3
*D34
  1

  0
LINE
  5
82E0
330
82DD
100
AcDbEntity
  8
3
 62
     0
370
    -2
100
AcDbLine
 10
1553.22368732464
 20
1689.56025197806
 30
0.0
 11
1553.22368732464
 21
1551.709078611295
 31
0.0
  0
LINE
  5
82E1
330
82DD
100
AcDbEntity
  8
3
 62
     0
370
    -2
100
AcDbLine
 10
2703.22368732464
 20
1689.56025197806
 30
0.0
 11
2703.22368732464
 21
1551.709078611295
 31
0.0
  0
LINE
  5
82E2
330
82DD
100
AcDbEntity
  8
3
 62
     0
370
    -2
100
AcDbLine
 10
1557.72368732464
 20
1556.209078611295
 30
0.0
 11
2118.902258753212
 21
1556.209078611295
 31
0.0
  0
LINE
  5
82E3
330
82DD
100
AcDbEntity
  8
3
 62
     0
370
    -2
100
AcDbLine
 10
2698.72368732464
 20
1556.209078611295
 30
0.0
 11
2137.545115896068
 21
1556.209078611295
 31
0.0
  0
SOLID
  5
82E4
330
82DD
100
AcDbEntity
  8
3
 62
     0
100
AcDbTrace
 10
1557.72368732464
 20
1556.959078611295
 30
0.0
 11
1557.72368732464
 21
1555.459078611295
 31
0.0
 12
1553.22368732464
 22
1556.209078611295
 32
0.0
 13
1553.22368732464
 23
1556.209078611295
 33
0.0
  0
SOLID
  5
82E5
330
82DD
100
AcDbEntity
  8
3
 62
     0
100
AcDbTrace
 10
2698.72368732464
 20
1556.959078611295
 30
0.0
 11
2698.72368732464
 21
1555.459078611295
 31
0.0
 12
2703.22368732464
 22
1556.209078611295
 32
0.0
 13
2703.22368732464
 23
1556.209078611295
 33
0.0
  0
MTEXT
  5
82E6
330
82DD
100
AcDbEntity
  8
3
 62
     0
100
AcDbMText
 10
2128.22368732464
 20
1556.209078611295
 30
0.0
 40
4.5
 41
0.0
 71
     5
 72
     1
  1
\A1;1150
 73
     1
 44
1.0
1001
ACAD
1000
MTEXTBEGIN
1070
    73
1070
     1
1070
    44
1040
1.0
1070
    74
1070
     0
1000
MTEXTEND
  0
POINT
  5
82E7
330
82DD
100
AcDbEntity
  8
DEFPOINTS
 62
     0
100
AcDbPoint
 10
1553.22368732464
 20
1714.56025197806
 30
0.0
  0
POINT
  5
82E8
330
82DD
100
AcDbEntity
  8
DEFPOINTS
 62
     0
100
AcDbPoint
 10
2703.22368732464
 20
1714.56025197806
 30
0.0
  0
POINT
  5
82E9
330
82DD
100
AcDbEntity
  8
DEFPOINTS
 62
     0
100
AcDbPoint
 10
2703.22368732464
 20
1556.209078611295
 30
0.0
  0
ENDBLK
  5
82DF
330
82DD
100
AcDbEntity
  8
0
100
AcDbBlockEnd
  0
BLOCK
  5
82EB
330
82EA
100
AcDbEntity
  8
0
100
AcDbBlockBegin
  2
*D35
 70
     1
 10
0.0
 20
0.0
 30
0.0
  3
*D35
  1

  0
LINE
  5
82ED
330
82EA
100
AcDbEntity
  8
3
 62
     0
370
    -2
100
AcDbLine
 10
3114.305087276282
 20
1689.56025197806
 30
0.0
 11
3114.305087276282
 21
1551.709078611295
 31
0.0
  0
LINE
  5
82EE
330
82EA
100
AcDbEntity
  8
3
 62
     0
370
    -2
100
AcDbLine
 10
3766.305087276281
 20
1689.56025197806
 30
0.0
 11
3766.305087276281
 21
1551.709078611295
 31
0.0
  0
LINE
  5
82EF
330
82EA
100
AcDbEntity
  8
3
 62
     0
370
    -2
100
AcDbLine
 10
3118.805087276282
 20
1556.209078611295
 30
0.0
 11
3432.269372990568
 21
1556.209078611295
 31
0.0
  0
LINE
  5
82F0
330
82EA
100
AcDbEntity
  8
3
 62
     0
370
    -2
100
AcDbLine
 10
3761.805087276281
 20
1556.209078611295
 30
0.0
 11
3448.340801561996
 21
1556.209078611295
 31
0.0
  0
SOLID
  5
82F1
330
82EA
100
AcDbEntity
  8
3
 62
     0
100
AcDbTrace
 10
3118.805087276282
 20
1556.959078611295
 30
0.0
 11
3118.805087276282
 21
1555.459078611295
 31
0.0
 12
3114.305087276282
 22
1556.209078611295
 32
0.0
 13
3114.305087276282
 23
1556.209078611295
 33
0.0
  0
SOLID
  5
82F2
330
82EA
100
AcDbEntity
  8
3
 62
     0
100
AcDbTrace
 10
3761.805087276281
 20
1556.959078611295
 30
0.0
 11
3761.805087276281
 21
1555.459078611295
 31
0.0
 12
3766.305087276281
 22
1556.209078611295
 32
0.0
 13
3766.305087276281
 23
1556.209078611295
 33
0.0
  0
MTEXT
  5
82F3
330
82EA
100
AcDbEntity
  8
3
 62
     0
100
AcDbMText
 10
3440.305087276282
 20
1556.209078611295
 30
0.0
 40
4.5
 41
0.0
 71
     5
 72
     1
  1
\A1;652
 73
     1
 44
1.0
1001
ACAD
1000
MTEXTBEGIN
1070
    73
1070
     1
1070
    44
1040
1.0
1070
    74
1070
     0
1000
MTEXTEND
  0
POINT
  5
82F4
330
82EA
100
AcDbEntity
  8
DEFPOINTS
 62
     0
100
AcDbPoint
 10
3114.305087276282
 20
1714.56025197806
 30
0.0
  0
POINT
  5
82F5
330
82EA
100
AcDbEntity
  8
DEFPOINTS
 62
     0
100
AcDbPoint
 10
3766.305087276281
 20
1714.56025197806
 30
0.0
  0
POINT
  5
82F6
330
82EA
100
AcDbEntity
  8
DEFPOINTS
 62
     0
100
AcDbPoint
 10
3766.305087276281
 20
1556.209078611295
 30
0.0
  0
ENDBLK
  5
82EC
330
82EA
100
AcDbEntity
  8
0
100
AcDbBlockEnd
  0
BLOCK
  5
82F8
330
82F7
100
AcDbEntity
  8
0
100
AcDbBlockBegin
  2
*D36
 70
     1
 10
0.0
 20
0.0
 30
0.0
  3
*D36
  1

  0
LINE
  5
82FA
330
82F7
100
AcDbEntity
  8
3
 62
     0
370
    -2
100
AcDbLine
 10
3766.305087276281
 20
1689.56025197806
 30
0.0
 11
3766.305087276281
 21
1551.709078611295
 31
0.0
  0
LINE
  5
82FB
330
82F7
100
AcDbEntity
  8
3
 62
     0
370
    -2
100
AcDbLine
 10
4269.305087276282
 20
1689.56025197806
 30
0.0
 11
4269.305087276282
 21
1551.709078611295
 31
0.0
  0
LINE
  5
82FC
330
82F7
100
AcDbEntity
  8
3
 62
     0
370
    -2
100
AcDbLine
 10
3770.805087276281
 20
1556.209078611295
 30
0.0
 11
4009.769372990567
 21
1556.209078611295
 31
0.0
  0
LINE
  5
82FD
330
82F7
100
AcDbEntity
  8
3
 62
     0
370
    -2
100
AcDbLine
 10
4264.805087276282
 20
1556.209078611295
 30
0.0
 11
4025.840801561995
 21
1556.209078611295
 31
0.0
  0
SOLID
  5
82FE
330
82F7
100
AcDbEntity
  8
3
 62
     0
100
AcDbTrace
 10
3770.805087276281
 20
1556.959078611295
 30
0.0
 11
3770.805087276281
 21
1555.459078611295
 31
0.0
 12
3766.305087276281
 22
1556.209078611295
 32
0.0
 13
3766.305087276281
 23
1556.209078611295
 33
0.0
  0
SOLID
  5
82FF
330
82F7
100
AcDbEntity
  8
3
 62
     0
100
AcDbTrace
 10
4264.805087276282
 20
1556.959078611295
 30
0.0
 11
4264.805087276282
 21
1555.459078611295
 31
0.0
 12
4269.305087276282
 22
1556.209078611295
 32
0.0
 13
4269.305087276282
 23
1556.209078611295
 33
0.0
  0
MTEXT
  5
8300
330
82F7
100
AcDbEntity
  8
3
 62
     0
100
AcDbMText
 10
4017.805087276282
 20
1556.209078611295
 30
0.0
 40
4.5
 41
0.0
 71
     5
 72
     1
  1
\A1;503
 73
     1
 44
1.0
1001
ACAD
1000
MTEXTBEGIN
1070
    73
1070
     1
1070
    44
1040
1.0
1070
    74
1070
     0
1000
MTEXTEND
  0
POINT
  5
8301
330
82F7
100
AcDbEntity
  8
DEFPOINTS
 62
     0
100
AcDbPoint
 10
3766.305087276281
 20
1714.56025197806
 30
0.0
  0
POINT
  5
8302
330
82F7
100
AcDbEntity
  8
DEFPOINTS
 62
     0
100
AcDbPoint
 10
4269.305087276282
 20
1714.56025197806
 30
0.0
  0
POINT
  5
8303
330
82F7
100
AcDbEntity
  8
DEFPOINTS
 62
     0
100
AcDbPoint
 10
4269.305087276282
 20
1556.209078611295
 30
0.0
  0
ENDBLK
  5
82F9
330
82F7
100
AcDbEntity
  8
0
100
AcDbBlockEnd
  0
BLOCK
  5
8305
330
8304
100
AcDbEntity
  8
0
100
AcDbBlockBegin
  2
*D37
 70
     1
 10
0.0
 20
0.0
 30
0.0
  3
*D37
  1

  0
LINE
  5
8307
330
8304
100
AcDbEntity
  8
3
 62
     0
370
    -2
100
AcDbLine
 10
824.9748635777358
 20
1819.06025197806
 30
0.0
 11
824.9748635777358
 21
1848.881680549489
 31
0.0
  0
LINE
  5
8308
330
8304
100
AcDbEntity
  8
3
 62
     0
370
    -2
100
AcDbLine
 10
824.9748635777358
 20
1890.06025197806
 30
0.0
 11
824.9748635777358
 21
1860.238823406632
 31
0.0
  0
SOLID
  5
8309
330
8304
100
AcDbEntity
  8
3
 62
     0
100
AcDbTrace
 10
824.2248635777357
 20
1819.06025197806
 30
0.0
 11
825.7248635777358
 21
1819.06025197806
 31
0.0
 12
824.9748635777358
 22
1814.56025197806
 32
0.0
 13
824.9748635777358
 23
1814.56025197806
 33
0.0
  0
SOLID
  5
830A
330
8304
100
AcDbEntity
  8
3
 62
     0
100
AcDbTrace
 10
824.2248635777357
 20
1890.06025197806
 30
0.0
 11
825.7248635777358
 21
1890.06025197806
 31
0.0
 12
824.9748635777358
 22
1894.56025197806
 32
0.0
 13
824.9748635777358
 23
1894.56025197806
 33
0.0
  0
MTEXT
  5
830B
330
8304
100
AcDbEntity
  8
3
 62
     0
100
AcDbMText
 10
824.9748635777354
 20
1854.56025197806
 30
0.0
 40
4.5
 41
0.0
 71
     5
 72
     1
  1
\A1;(80)
 73
     1
 44
1.0
1001
ACAD
1000
MTEXTBEGIN
1070
    73
1070
     1
1070
    44
1040
1.0
1070
    74
1070
     0
1000
MTEXTEND
  0
POINT
  5
830C
330
8304
100
AcDbEntity
  8
DEFPOINTS
 62
     0
100
AcDbPoint
 10
1103.22368732464
 20
1814.56025197806
 30
0.0
  0
POINT
  5
830D
330
8304
100
AcDbEntity
  8
DEFPOINTS
 62
     0
100
AcDbPoint
 10
1103.22368732464
 20
1894.56025197806
 30
0.0
  0
POINT
  5
830E
330
8304
100
AcDbEntity
  8
DEFPOINTS
 62
     0
100
AcDbPoint
 10
824.9748635777358
 20
1894.56025197806
 30
0.0
  0
ENDBLK
  5
8306
330
8304
100
AcDbEntity
  8
0
100
AcDbBlockEnd
  0
BLOCK
  5
8310
330
830F
100
AcDbEntity
  8
0
100
AcDbBlockBegin
  2
*D38
 70
     1
 10
0.0
 20
0.0
 30
0.0
  3
*D38
  1

  0
LINE
  5
8312
330
830F
100
AcDbEntity
  8
3
 62
     0
370
    -2
100
AcDbLine
 10
1078.22368732464
 20
1714.56025197806
 30
0.0
 11
614.7964789420945
 21
1714.56025197806
 31
0.0
  0
LINE
  5
8313
330
830F
100
AcDbEntity
  8
3
 62
     0
370
    -2
100
AcDbLine
 10
1515.22368732464
 20
3034.560251978061
 30
0.0
 11
614.7964789420948
 21
3034.560251978061
 31
0.0
  0
LINE
  5
8314
330
830F
100
AcDbEntity
  8
3
 62
     0
370
    -2
100
AcDbLine
 10
619.2964789420945
 20
1719.06025197806
 30
0.0
 11
619.2964789420947
 21
2368.88168054949
 31
0.0
  0
LINE
  5
8315
330
830F
100
AcDbEntity
  8
3
 62
     0
370
    -2
100
AcDbLine
 10
619.2964789420948
 20
3030.060251978062
 30
0.0
 11
619.2964789420947
 21
2380.238823406632
 31
0.0
  0
SOLID
  5
8316
330
830F
100
AcDbEntity
  8
3
 62
     0
100
AcDbTrace
 10
618.5464789420945
 20
1719.06025197806
 30
0.0
 11
620.0464789420944
 21
1719.06025197806
 31
0.0
 12
619.2964789420945
 22
1714.56025197806
 32
0.0
 13
619.2964789420945
 23
1714.56025197806
 33
0.0
  0
SOLID
  5
8317
330
830F
100
AcDbEntity
  8
3
 62
     0
100
AcDbTrace
 10
618.5464789420948
 20
3030.060251978062
 30
0.0
 11
620.0464789420948
 21
3030.060251978062
 31
0.0
 12
619.2964789420948
 22
3034.560251978061
 32
0.0
 13
619.2964789420948
 23
3034.560251978061
 33
0.0
  0
MTEXT
  5
8318
330
830F
100
AcDbEntity
  8
3
 62
     0
100
AcDbMText
 10
619.2964789420942
 20
2374.560251978061
 30
0.0
 40
4.5
 41
0.0
 71
     5
 72
     1
  1
\A1;(1320)
 73
     1
 44
1.0
1001
ACAD
1000
MTEXTBEGIN
1070
    73
1070
     1
1070
    44
1040
1.0
1070
    74
1070
     0
1000
MTEXTEND
  0
POINT
  5
8319
330
830F
100
AcDbEntity
  8
DEFPOINTS
 62
     0
100
AcDbPoint
 10
1103.22368732464
 20
1714.56025197806
 30
0.0
  0
POINT
  5
831A
330
830F
100
AcDbEntity
  8
DEFPOINTS
 62
     0
100
AcDbPoint
 10
1540.22368732464
 20
3034.560251978061
 30
0.0
  0
POINT
  5
831B
330
830F
100
AcDbEntity
  8
DEFPOINTS
 62
     0
100
AcDbPoint
 10
619.2964789420948
 20
3034.560251978061
 30
0.0
  0
ENDBLK
  5
8311
330
830F
100
AcDbEntity
  8
0
100
AcDbBlockEnd
  0
BLOCK
  5
8321
330
8320
100
AcDbEntity
  8
0
100
AcDbBlockBegin
  2
*D39
 70
     1
 10
0.0
 20
0.0
 30
0.0
  3
*D39
  1

  0
LINE
  5
8323
330
8320
100
AcDbEntity
  8
3
 62
     0
370
    -2
100
AcDbLine
 10
1103.22368732464
 20
4193.999187184334
 30
0.0
 11
1103.22368732464
 21
3833.183115712134
 31
0.0
  0
LINE
  5
8324
330
8320
100
AcDbEntity
  8
3
 62
     0
370
    -2
100
AcDbLine
 10
2703.22368732464
 20
4193.999187184336
 30
0.0
 11
2703.22368732464
 21
3833.183115712134
 31
0.0
  0
LINE
  5
8325
330
8320
100
AcDbEntity
  8
3
 62
     0
370
    -2
100
AcDbLine
 10
1153.22368732464
 20
3858.183115712134
 30
0.0
 11
2653.22368732464
 21
3858.183115712134
 31
0.0
  0
INSERT
  5
8326
330
8320
100
AcDbEntity
  8
3
 62
     0
370
    -2
100
AcDbBlockReference
  2
_OPEN
 10
1103.22368732464
 20
3858.183115712134
 30
0.0
 41
50.0
 42
50.0
 43
50.0
 50
180.0
  0
INSERT
  5
8327
330
8320
100
AcDbEntity
  8
3
 62
     0
370
    -2
100
AcDbBlockReference
  2
_OPEN
 10
2703.22368732464
 20
3858.183115712134
 30
0.0
 41
50.0
 42
50.0
 43
50.0
  0
MTEXT
  5
8328
330
8320
100
AcDbEntity
  8
3
 62
     0
100
AcDbMText
 10
1903.22368732464
 20
3920.683115712134
 30
0.0
 40
75.0
 41
0.0
 71
     5
 72
     1
  1
\A1;1600
 73
     1
 44
1.0
1001
ACAD
1000
MTEXTBEGIN
1070
    73
1070
     1
1070
    44
1040
1.0
1070
    74
1070
     0
1000
MTEXTEND
  0
POINT
  5
8329
330
8320
100
AcDbEntity
  8
DEFPOINTS
 62
     0
100
AcDbPoint
 10
1103.22368732464
 20
4218.999187184333
 30
0.0
  0
POINT
  5
832A
330
8320
100
AcDbEntity
  8
DEFPOINTS
 62
     0
100
AcDbPoint
 10
2703.22368732464
 20
4218.999187184336
 30
0.0
  0
POINT
  5
832B
330
8320
100
AcDbEntity
  8
DEFPOINTS
 62
     0
100
AcDbPoint
 10
2703.22368732464
 20
3858.183115712134
 30
0.0
  0
ENDBLK
  5
8322
330
8320
100
AcDbEntity
  8
0
100
AcDbBlockEnd
  0
BLOCK
  5
832E
330
832D
100
AcDbEntity
  8
0
100
AcDbBlockBegin
  2
*D40
 70
     1
 10
0.0
 20
0.0
 30
0.0
  3
*D40
  1

  0
LINE
  5
8330
330
832D
100
AcDbEntity
  8
3
 62
     0
370
    -2
100
AcDbLine
 10
3114.305087276282
 20
1689.56025197806
 30
0.0
 11
3114.305087276282
 21
1523.407471970546
 31
0.0
  0
LINE
  5
8331
330
832D
100
AcDbEntity
  8
3
 62
     0
370
    -2
100
AcDbLine
 10
3766.305087276281
 20
1689.56025197806
 30
0.0
 11
3766.305087276281
 21
1523.407471970546
 31
0.0
  0
LINE
  5
8332
330
832D
100
AcDbEntity
  8
3
 62
     0
370
    -2
100
AcDbLine
 10
3164.305087276282
 20
1548.407471970546
 30
0.0
 11
3716.305087276281
 21
1548.407471970546
 31
0.0
  0
INSERT
  5
8333
330
832D
100
AcDbEntity
  8
3
 62
     0
370
    -2
100
AcDbBlockReference
  2
_OPEN
 10
3114.305087276282
 20
1548.407471970546
 30
0.0
 41
50.0
 42
50.0
 43
50.0
 50
180.0
  0
INSERT
  5
8334
330
832D
100
AcDbEntity
  8
3
 62
     0
370
    -2
100
AcDbBlockReference
  2
_OPEN
 10
3766.305087276281
 20
1548.407471970546
 30
0.0
 41
50.0
 42
50.0
 43
50.0
  0
MTEXT
  5
8335
330
832D
100
AcDbEntity
  8
3
 62
     0
100
AcDbMText
 10
3440.305087276282
 20
1610.907471970546
 30
0.0
 40
75.0
 41
0.0
 71
     5
 72
     1
  1
\A1;652
 73
     1
 44
1.0
1001
ACAD
1000
MTEXTBEGIN
1070
    73
1070
     1
1070
    44
1040
1.0
1070
    74
1070
     0
1000
MTEXTEND
  0
POINT
  5
8336
330
832D
100
AcDbEntity
  8
DEFPOINTS
 62
     0
100
AcDbPoint
 10
3114.305087276282
 20
1714.56025197806
 30
0.0
  0
POINT
  5
8337
330
832D
100
AcDbEntity
  8
DEFPOINTS
 62
     0
100
AcDbPoint
 10
3766.305087276281
 20
1714.56025197806
 30
0.0
  0
POINT
  5
8338
330
832D
100
AcDbEntity
  8
DEFPOINTS
 62
     0
100
AcDbPoint
 10
3766.305087276281
 20
1548.407471970546
 30
0.0
  0
ENDBLK
  5
832F
330
832D
100
AcDbEntity
  8
0
100
AcDbBlockEnd
  0
BLOCK
  5
833B
330
833A
100
AcDbEntity
  8
0
100
AcDbBlockBegin
  2
*D41
 70
     1
 10
0.0
 20
0.0
 30
0.0
  3
*D41
  1

  0
LINE
  5
833D
330
833A
100
AcDbEntity
  8
3
 62
     0
370
    -2
100
AcDbLine
 10
3766.305087276281
 20
1689.56025197806
 30
0.0
 11
3766.305087276281
 21
1523.407471970546
 31
0.0
  0
LINE
  5
833E
330
833A
100
AcDbEntity
  8
3
 62
     0
370
    -2
100
AcDbLine
 10
4269.305087276282
 20
1689.56025197806
 30
0.0
 11
4269.305087276282
 21
1523.407471970546
 31
0.0
  0
LINE
  5
833F
330
833A
100
AcDbEntity
  8
3
 62
     0
370
    -2
100
AcDbLine
 10
3816.305087276281
 20
1548.407471970546
 30
0.0
 11
4219.305087276281
 21
1548.407471970546
 31
0.0
  0
INSERT
  5
8340
330
833A
100
AcDbEntity
  8
3
 62
     0
370
    -2
100
AcDbBlockReference
  2
_OPEN
 10
3766.305087276281
 20
1548.407471970546
 30
0.0
 41
50.0
 42
50.0
 43
50.0
 50
180.0
  0
INSERT
  5
8341
330
833A
100
AcDbEntity
  8
3
 62
     0
370
    -2
100
AcDbBlockReference
  2
_OPEN
 10
4269.305087276282
 20
1548.407471970546
 30
0.0
 41
50.0
 42
50.0
 43
50.0
  0
MTEXT
  5
8342
330
833A
100
AcDbEntity
  8
3
 62
     0
100
AcDbMText
 10
4017.805087276282
 20
1610.907471970546
 30
0.0
 40
75.0
 41
0.0
 71
     5
 72
     1
  1
\A1;503
 73
     1
 44
1.0
1001
ACAD
1000
MTEXTBEGIN
1070
    73
1070
     1
1070
    44
1040
1.0
1070
    74
1070
     0
1000
MTEXTEND
  0
POINT
  5
8343
330
833A
100
AcDbEntity
  8
DEFPOINTS
 62
     0
100
AcDbPoint
 10
3766.305087276281
 20
1714.56025197806
 30
0.0
  0
POINT
  5
8344
330
833A
100
AcDbEntity
  8
DEFPOINTS
 62
     0
100
AcDbPoint
 10
4269.305087276282
 20
1714.56025197806
 30
0.0
  0
POINT
  5
8345
330
833A
100
AcDbEntity
  8
DEFPOINTS
 62
     0
100
AcDbPoint
 10
4269.305087276282
 20
1548.407471970546
 30
0.0
  0
ENDBLK
  5
833C
330
833A
100
AcDbEntity
  8
0
100
AcDbBlockEnd
  0
BLOCK
  5
8348
330
8347
100
AcDbEntity
  8
0
100
AcDbBlockBegin
  2
*D42
 70
     1
 10
0.0
 20
0.0
 30
0.0
  3
*D42
  1

  0
LINE
  5
834A
330
8347
100
AcDbEntity
  8
3
 62
     0
370
    -2
100
AcDbLine
 10
1103.22368732464
 20
1689.56025197806
 30
0.0
 11
1103.22368732464
 21
1512.841425894287
 31
0.0
  0
LINE
  5
834B
330
8347
100
AcDbEntity
  8
3
 62
     0
370
    -2
100
AcDbLine
 10
1553.22368732464
 20
1689.56025197806
 30
0.0
 11
1553.22368732464
 21
1512.841425894287
 31
0.0
  0
LINE
  5
834C
330
8347
100
AcDbEntity
  8
3
 62
     0
370
    -2
100
AcDbLine
 10
1153.22368732464
 20
1537.841425894287
 30
0.0
 11
1503.22368732464
 21
1537.841425894287
 31
0.0
  0
INSERT
  5
834D
330
8347
100
AcDbEntity
  8
3
 62
     0
370
    -2
100
AcDbBlockReference
  2
_OPEN
 10
1103.22368732464
 20
1537.841425894287
 30
0.0
 41
50.0
 42
50.0
 43
50.0
 50
180.0
  0
INSERT
  5
834E
330
8347
100
AcDbEntity
  8
3
 62
     0
370
    -2
100
AcDbBlockReference
  2
_OPEN
 10
1553.22368732464
 20
1537.841425894287
 30
0.0
 41
50.0
 42
50.0
 43
50.0
  0
MTEXT
  5
834F
330
8347
100
AcDbEntity
  8
3
 62
     0
100
AcDbMText
 10
1328.22368732464
 20
1600.341425894287
 30
0.0
 40
75.0
 41
0.0
 71
     5
 72
     1
  1
\A1;450
 73
     1
 44
1.0
1001
ACAD
1000
MTEXTBEGIN
1070
    73
1070
     1
1070
    44
1040
1.0
1070
    74
1070
     0
1000
MTEXTEND
  0
POINT
  5
8350
330
8347
100
AcDbEntity
  8
DEFPOINTS
 62
     0
100
AcDbPoint
 10
1103.22368732464
 20
1714.56025197806
 30
0.0
  0
POINT
  5
8351
330
8347
100
AcDbEntity
  8
DEFPOINTS
 62
     0
100
AcDbPoint
 10
1553.22368732464
 20
1714.56025197806
 30
0.0
  0
POINT
  5
8352
330
8347
100
AcDbEntity
  8
DEFPOINTS
 62
     0
100
AcDbPoint
 10
1553.22368732464
 20
1537.841425894287
 30
0.0
  0
ENDBLK
  5
8349
330
8347
100
AcDbEntity
  8
0
100
AcDbBlockEnd
  0
BLOCK
  5
8355
330
8354
100
AcDbEntity
  8
0
100
AcDbBlockBegin
  2
*D43
 70
     1
 10
0.0
 20
0.0
 30
0.0
  3
*D43
  1

  0
LINE
  5
8357
330
8354
100
AcDbEntity
  8
3
 62
     0
370
    -2
100
AcDbLine
 10
1553.22368732464
 20
1689.56025197806
 30
0.0
 11
1553.22368732464
 21
1512.841425894287
 31
0.0
  0
LINE
  5
8358
330
8354
100
AcDbEntity
  8
3
 62
     0
370
    -2
100
AcDbLine
 10
2703.22368732464
 20
1689.56025197806
 30
0.0
 11
2703.22368732464
 21
1512.841425894287
 31
0.0
  0
LINE
  5
8359
330
8354
100
AcDbEntity
  8
3
 62
     0
370
    -2
100
AcDbLine
 10
1603.22368732464
 20
1537.841425894287
 30
0.0
 11
2653.22368732464
 21
1537.841425894287
 31
0.0
  0
INSERT
  5
835A
330
8354
100
AcDbEntity
  8
3
 62
     0
370
    -2
100
AcDbBlockReference
  2
_OPEN
 10
1553.22368732464
 20
1537.841425894287
 30
0.0
 41
50.0
 42
50.0
 43
50.0
 50
180.0
  0
INSERT
  5
835B
330
8354
100
AcDbEntity
  8
3
 62
     0
370
    -2
100
AcDbBlockReference
  2
_OPEN
 10
2703.22368732464
 20
1537.841425894287
 30
0.0
 41
50.0
 42
50.0
 43
50.0
  0
MTEXT
  5
835C
330
8354
100
AcDbEntity
  8
3
 62
     0
100
AcDbMText
 10
2128.22368732464
 20
1600.341425894287
 30
0.0
 40
75.0
 41
0.0
 71
     5
 72
     1
  1
\A1;1150
 73
     1
 44
1.0
1001
ACAD
1000
MTEXTBEGIN
1070
    73
1070
     1
1070
    44
1040
1.0
1070
    74
1070
     0
1000
MTEXTEND
  0
POINT
  5
835D
330
8354
100
AcDbEntity
  8
DEFPOINTS
 62
     0
100
AcDbPoint
 10
1553.22368732464
 20
1714.56025197806
 30
0.0
  0
POINT
  5
835E
330
8354
100
AcDbEntity
  8
DEFPOINTS
 62
     0
100
AcDbPoint
 10
2703.22368732464
 20
1714.56025197806
 30
0.0
  0
POINT
  5
835F
330
8354
100
AcDbEntity
  8
DEFPOINTS
 62
     0
100
AcDbPoint
 10
2703.22368732464
 20
1537.841425894287
 30
0.0
  0
ENDBLK
  5
8356
330
8354
100
AcDbEntity
  8
0
100
AcDbBlockEnd
  0
BLOCK
  5
8369
330
8368
100
AcDbEntity
  8
0
100
AcDbBlockBegin
  2
*D45
 70
     1
 10
0.0
 20
0.0
 30
0.0
  3
*D45
  1

  0
LINE
  5
8374
330
8368
100
AcDbEntity
  8
3
 62
     0
370
    -2
100
AcDbLine
 10
1553.22368732464
 20
3185.450678047153
 30
0.0
 11
1553.22368732464
 21
3361.376409230951
 31
0.0
  0
LINE
  5
8375
330
8368
100
AcDbEntity
  8
3
 62
     0
370
    -2
100
AcDbLine
 10
1064.22368732464
 20
2506.560251978062
 30
0.0
 11
1064.22368732464
 21
3361.376409230951
 31
0.0
  0
LINE
  5
8376
330
8368
100
AcDbEntity
  8
3
 62
     0
370
    -2
100
AcDbLine
 10
1503.22368732464
 20
3336.376409230951
 30
0.0
 11
1114.22368732464
 21
3336.376409230951
 31
0.0
  0
INSERT
  5
8377
330
8368
100
AcDbEntity
  8
3
 62
     0
370
    -2
100
AcDbBlockReference
  2
_OPEN
 10
1553.22368732464
 20
3336.376409230951
 30
0.0
 41
50.0
 42
50.0
 43
50.0
  0
INSERT
  5
8378
330
8368
100
AcDbEntity
  8
3
 62
     0
370
    -2
100
AcDbBlockReference
  2
_OPEN
 10
1064.22368732464
 20
3336.376409230951
 30
0.0
 41
50.0
 42
50.0
 43
50.0
 50
180.0
  0
MTEXT
  5
8379
330
8368
100
AcDbEntity
  8
3
 62
     0
100
AcDbMText
 10
1308.72368732464
 20
3398.876409230951
 30
0.0
 40
75.0
 41
0.0
 71
     5
 72
     1
  1
\A1;489
 73
     1
 44
1.0
1001
ACAD
1000
MTEXTBEGIN
1070
    73
1070
     1
1070
    44
1040
1.0
1070
    74
1070
     0
1000
MTEXTEND
  0
POINT
  5
837A
330
8368
100
AcDbEntity
  8
DEFPOINTS
 62
     0
100
AcDbPoint
 10
1553.22368732464
 20
3160.450678047153
 30
0.0
  0
POINT
  5
837B
330
8368
100
AcDbEntity
  8
DEFPOINTS
 62
     0
100
AcDbPoint
 10
1064.22368732464
 20
2481.560251978062
 30
0.0
  0
POINT
  5
837C
330
8368
100
AcDbEntity
  8
DEFPOINTS
 62
     0
100
AcDbPoint
 10
1064.22368732464
 20
3336.376409230951
 30
0.0
  0
ENDBLK
  5
836A
330
8368
100
AcDbEntity
  8
0
100
AcDbBlockEnd
  0
BLOCK
  5
837F
330
837E
100
AcDbEntity
  8
0
100
AcDbBlockBegin
  2
*D46
 70
     1
 10
0.0
 20
0.0
 30
0.0
  3
*D46
  1

  0
LINE
  5
8381
330
837E
100
AcDbEntity
  8
3
 62
     0
370
    -2
100
AcDbLine
 10
2703.22368732464
 20
2019.56025197806
 30
0.0
 11
2703.22368732464
 21
3512.257678958446
 31
0.0
  0
LINE
  5
8382
330
837E
100
AcDbEntity
  8
3
 62
     0
370
    -2
100
AcDbLine
 10
1064.22368732464
 20
2506.560251978062
 30
0.0
 11
1064.22368732464
 21
3512.257678958446
 31
0.0
  0
LINE
  5
8383
330
837E
100
AcDbEntity
  8
3
 62
     0
370
    -2
100
AcDbLine
 10
2653.22368732464
 20
3487.257678958446
 30
0.0
 11
1114.22368732464
 21
3487.257678958446
 31
0.0
  0
INSERT
  5
8384
330
837E
100
AcDbEntity
  8
3
 62
     0
370
    -2
100
AcDbBlockReference
  2
_OPEN
 10
2703.22368732464
 20
3487.257678958446
 30
0.0
 41
50.0
 42
50.0
 43
50.0
  0
INSERT
  5
8385
330
837E
100
AcDbEntity
  8
3
 62
     0
370
    -2
100
AcDbBlockReference
  2
_OPEN
 10
1064.22368732464
 20
3487.257678958446
 30
0.0
 41
50.0
 42
50.0
 43
50.0
 50
180.0
  0
MTEXT
  5
8386
330
837E
100
AcDbEntity
  8
3
 62
     0
100
AcDbMText
 10
1883.723687324639
 20
3549.757678958446
 30
0.0
 40
75.0
 41
0.0
 71
     5
 72
     1
  1
\A1;1639
 73
     1
 44
1.0
1001
ACAD
1000
MTEXTBEGIN
1070
    73
1070
     1
1070
    44
1040
1.0
1070
    74
1070
     0
1000
MTEXTEND
  0
POINT
  5
8387
330
837E
100
AcDbEntity
  8
DEFPOINTS
 62
     0
100
AcDbPoint
 10
2703.22368732464
 20
1994.56025197806
 30
0.0
  0
POINT
  5
8388
330
837E
100
AcDbEntity
  8
DEFPOINTS
 62
     0
100
AcDbPoint
 10
1064.22368732464
 20
2481.560251978062
 30
0.0
  0
POINT
  5
8389
330
837E
100
AcDbEntity
  8
DEFPOINTS
 62
     0
100
AcDbPoint
 10
1064.22368732464
 20
3487.257678958446
 30
0.0
  0
ENDBLK
  5
8380
330
837E
100
AcDbEntity
  8
0
100
AcDbBlockEnd
  0
BLOCK
  5
838C
330
838B
100
AcDbEntity
  8
0
100
AcDbBlockBegin
  2
*D47
 70
     1
 10
0.0
 20
0.0
 30
0.0
  3
*D47
  1

  0
LINE
  5
852F
330
838B
100
AcDbEntity
  8
3
 62
     0
370
    -2
100
AcDbLine
 10
1078.22368732464
 20
1714.56025197806
 30
0.0
 11
512.4211211775107
 21
1714.56025197806
 31
0.0
  0
LINE
  5
8530
330
838B
100
AcDbEntity
  8
3
 62
     0
370
    -2
100
AcDbLine
 10
1515.22368732464
 20
3034.560251978062
 30
0.0
 11
512.4211211775109
 21
3034.560251978063
 31
0.0
  0
LINE
  5
8531
330
838B
100
AcDbEntity
  8
3
 62
     0
370
    -2
100
AcDbLine
 10
537.4211211775107
 20
1764.56025197806
 30
0.0
 11
537.4211211775111
 21
2984.560251978063
 31
0.0
  0
INSERT
  5
8532
330
838B
100
AcDbEntity
  8
3
 62
     0
370
    -2
100
AcDbBlockReference
  2
_OPEN
 10
537.4211211775107
 20
1714.56025197806
 30
0.0
 41
50.0
 42
50.0
 43
50.0
 50
270.0
  0
INSERT
  5
8533
330
838B
100
AcDbEntity
  8
3
 62
     0
370
    -2
100
AcDbBlockReference
  2
_OPEN
 10
537.4211211775111
 20
3034.560251978063
 30
0.0
 41
50.0
 42
50.0
 43
50.0
 50
90.0
  0
MTEXT
  5
8534
330
838B
100
AcDbEntity
  8
3
 62
     0
100
AcDbMText
 10
455.2782640346534
 20
2374.560251978062
 30
0.0
 40
75.0
 41
0.0
 71
     5
 72
     1
  1
\A1;(1320)
 11
0.0000000000000001
 21
1.0
 31
0.0
 73
     1
 44
1.0
1001
ACAD
1000
MTEXTBEGIN
1070
    73
1070
     1
1070
    44
1040
1.0
1070
    74
1070
     0
1000
MTEXTEND
  0
POINT
  5
8535
330
838B
100
AcDbEntity
  8
DEFPOINTS
 62
     0
100
AcDbPoint
 10
1103.22368732464
 20
1714.56025197806
 30
0.0
  0
POINT
  5
8536
330
838B
100
AcDbEntity
  8
DEFPOINTS
 62
     0
100
AcDbPoint
 10
1540.22368732464
 20
3034.560251978062
 30
0.0
  0
POINT
  5
8537
330
838B
100
AcDbEntity
  8
DEFPOINTS
 62
     0
100
AcDbPoint
 10
537.4211211775111
 20
3034.560251978063
 30
0.0
  0
ENDBLK
  5
838D
330
838B
100
AcDbEntity
  8
0
100
AcDbBlockEnd
  0
BLOCK
  5
83DE
330
83DD
100
AcDbEntity
  8
0
100
AcDbBlockBegin
  2
*D48
 70
     1
 10
0.0
 20
0.0
 30
0.0
  3
*D48
  1

  0
LINE
  5
840D
330
83DD
100
AcDbEntity
  8
3
 62
     0
370
    -2
100
AcDbLine
 10
905.9578485192103
 20
2534.560251978061
 30
0.0
 11
800.1387041552661
 21
2534.560251978061
 31
0.0
  0
LINE
  5
840E
330
83DD
100
AcDbEntity
  8
3
 62
     0
370
    -2
100
AcDbLine
 10
1078.22368732464
 20
1894.56025197806
 30
0.0
 11
800.1387041552661
 21
1894.56025197806
 31
0.0
  0
LINE
  5
840F
330
83DD
100
AcDbEntity
  8
3
 62
     0
370
    -2
100
AcDbLine
 10
825.1387041552661
 20
2484.560251978061
 30
0.0
 11
825.1387041552661
 21
1944.56025197806
 31
0.0
  0
INSERT
  5
8410
330
83DD
100
AcDbEntity
  8
3
 62
     0
370
    -2
100
AcDbBlockReference
  2
_OPEN
 10
825.1387041552661
 20
2534.560251978061
 30
0.0
 41
50.0
 42
50.0
 43
50.0
 50
90.0
  0
INSERT
  5
8411
330
83DD
100
AcDbEntity
  8
3
 62
     0
370
    -2
100
AcDbBlockReference
  2
_OPEN
 10
825.1387041552661
 20
1894.56025197806
 30
0.0
 41
50.0
 42
50.0
 43
50.0
 50
270.0
  0
MTEXT
  5
8412
330
83DD
100
AcDbEntity
  8
3
 62
     0
100
AcDbMText
 10
762.6387041552657
 20
2214.560251978061
 30
0.0
 40
75.0
 41
0.0
 71
     5
 72
     1
  1
\A1;640
 11
0.0000000000000001
 21
1.0
 31
0.0
 73
     1
 44
1.0
1001
ACAD
1000
MTEXTBEGIN
1070
    73
1070
     1
1070
    44
1040
1.0
1070
    74
1070
     0
1000
MTEXTEND
  0
POINT
  5
8413
330
83DD
100
AcDbEntity
  8
DEFPOINTS
 62
     0
100
AcDbPoint
 10
930.9578485192103
 20
2534.560251978061
 30
0.0
  0
POINT
  5
8414
330
83DD
100
AcDbEntity
  8
DEFPOINTS
 62
     0
100
AcDbPoint
 10
1103.22368732464
 20
1894.56025197806
 30
0.0
  0
POINT
  5
8415
330
83DD
100
AcDbEntity
  8
DEFPOINTS
 62
     0
100
AcDbPoint
 10
825.1387041552661
 20
1894.56025197806
 30
0.0
  0
ENDBLK
  5
83DF
330
83DD
100
AcDbEntity
  8
0
100
AcDbBlockEnd
  0
BLOCK
  5
83EB
330
83EA
100
AcDbEntity
  8
0
100
AcDbBlockBegin
  2
*D49
 70
     1
 10
0.0
 20
0.0
 30
0.0
  3
*D49
  1

  0
LINE
  5
8521
330
83EA
100
AcDbEntity
  8
3
 62
     0
370
    -2
100
AcDbLine
 10
1078.22368732464
 20
1894.56025197806
 30
0.0
 11
800.1387041552661
 21
1894.56025197806
 31
0.0
  0
LINE
  5
8522
330
83EA
100
AcDbEntity
  8
3
 62
     0
370
    -2
100
AcDbLine
 10
1078.22368732464
 20
1814.56025197806
 30
0.0
 11
800.1387041552661
 21
1814.56025197806
 31
0.0
  0
LINE
  5
8523
330
83EA
100
AcDbEntity
  8
3
 62
     0
370
    -2
100
AcDbLine
 10
825.1387041552661
 20
1944.56025197806
 30
0.0
 11
825.1387041552661
 21
1994.56025197806
 31
0.0
  0
LINE
  5
8524
330
83EA
100
AcDbEntity
  8
3
 62
     0
370
    -2
100
AcDbLine
 10
825.1387041552661
 20
1814.56025197806
 30
0.0
 11
825.1387041552659
 21
1764.56025197806
 31
0.0
  0
LINE
  5
8525
330
83EA
100
AcDbEntity
  8
3
 62
     0
370
    -2
100
AcDbLine
 10
825.1387041552661
 20
1854.56025197806
 30
0.0
 11
705.4958470124089
 21
1890.453109120917
 31
0.0
  0
LINE
  5
8526
330
83EA
100
AcDbEntity
  8
3
 62
     0
370
    -2
100
AcDbLine
 10
705.4958470124089
 20
1890.453109120917
 30
0.0
 11
705.4958470124089
 21
2158.310251978061
 31
0.0
  0
MTEXT
  5
8527
330
83EA
100
AcDbEntity
  8
3
 62
     0
100
AcDbMText
 10
623.3529898695515
 20
2024.381680549489
 30
0.0
 40
75.0
 41
0.0
 71
     5
 72
     1
  1
\A1;(80)
 11
0.0000000000000001
 21
1.0
 31
0.0
 73
     1
 44
1.0
1001
ACAD
1000
MTEXTBEGIN
1070
    73
1070
     1
1070
    44
1040
1.0
1070
    74
1070
     0
1000
MTEXTEND
  0
LINE
  5
8528
330
83EA
100
AcDbEntity
  8
3
 62
     0
370
    -2
100
AcDbLine
 10
825.1387041552661
 20
1894.56025197806
 30
0.0
 11
825.1387041552661
 21
1814.56025197806
 31
0.0
  0
LINE
  5
8529
330
83EA
100
AcDbEntity
  8
3
 62
     0
370
    -2
100
AcDbLine
 10
825.1387041552661
 20
1894.56025197806
 30
0.0
 11
825.1387041552661
 21
1814.56025197806
 31
0.0
  0
INSERT
  5
852A
330
83EA
100
AcDbEntity
  8
3
 62
     0
370
    -2
100
AcDbBlockReference
  2
_OPEN
 10
825.1387041552661
 20
1894.56025197806
 30
0.0
 41
50.0
 42
50.0
 43
50.0
 50
270.0
  0
INSERT
  5
852B
330
83EA
100
AcDbEntity
  8
3
 62
     0
370
    -2
100
AcDbBlockReference
  2
_DotSmall
 10
825.1387041552661
 20
1814.56025197806
 30
0.0
 41
50.0
 42
50.0
 43
50.0
 50
90.0
  0
POINT
  5
852C
330
83EA
100
AcDbEntity
  8
DEFPOINTS
 62
     0
100
AcDbPoint
 10
1103.22368732464
 20
1894.56025197806
 30
0.0
  0
POINT
  5
852D
330
83EA
100
AcDbEntity
  8
DEFPOINTS
 62
     0
100
AcDbPoint
 10
1103.22368732464
 20
1814.56025197806
 30
0.0
  0
POINT
  5
852E
330
83EA
100
AcDbEntity
  8
DEFPOINTS
 62
     0
100
AcDbPoint
 10
825.1387041552661
 20
1814.56025197806
 30
0.0
  0
ENDBLK
  5
83EC
330
83EA
100
AcDbEntity
  8
0
100
AcDbBlockEnd
  0
BLOCK
  5
83FD
330
83FC
100
AcDbEntity
  8
0
100
AcDbBlockBegin
  2
*D50
 70
     1
 10
0.0
 20
0.0
 30
0.0
  3
*D50
  1

  0
LINE
  5
850A
330
83FC
100
AcDbEntity
  8
3
 62
     0
370
    -2
100
AcDbLine
 10
1078.22368732464
 20
1814.56025197806
 30
0.0
 11
800.1387041552661
 21
1814.56025197806
 31
0.0
  0
LINE
  5
850B
330
83FC
100
AcDbEntity
  8
3
 62
     0
370
    -2
100
AcDbLine
 10
1078.22368732464
 20
1714.56025197806
 30
0.0
 11
800.1387041552661
 21
1714.56025197806
 31
0.0
  0
LINE
  5
850C
330
83FC
100
AcDbEntity
  8
3
 62
     0
370
    -2
100
AcDbLine
 10
825.1387041552661
 20
1814.56025197806
 30
0.0
 11
825.1387041552661
 21
1764.56025197806
 31
0.0
  0
MTEXT
  5
850D
330
83FC
100
AcDbEntity
  8
3
 62
     0
100
AcDbMText
 10
775.7357588328013
 20
1607.665493632987
 30
0.0
 40
75.0
 41
0.0
 71
     5
 72
     1
  1
\A1;100
 11
0.0000000000000001
 21
1.0
 31
0.0
 73
     1
 44
1.0
1001
ACAD
1000
MTEXTBEGIN
1070
    73
1070
     1
1070
    44
1040
1.0
1070
    74
1070
     0
1000
MTEXTEND
  0
INSERT
  5
850E
330
83FC
100
AcDbEntity
  8
3
 62
     0
370
    -2
100
AcDbBlockReference
  2
_DotSmall
 10
825.1387041552661
 20
1814.56025197806
 30
0.0
 41
50.0
 42
50.0
 43
50.0
 50
90.0
  0
INSERT
  5
850F
330
83FC
100
AcDbEntity
  8
3
 62
     0
370
    -2
100
AcDbBlockReference
  2
_OPEN
 10
825.1387041552661
 20
1714.56025197806
 30
0.0
 41
50.0
 42
50.0
 43
50.0
 50
270.0
  0
POINT
  5
8510
330
83FC
100
AcDbEntity
  8
DEFPOINTS
 62
     0
100
AcDbPoint
 10
1103.22368732464
 20
1814.56025197806
 30
0.0
  0
POINT
  5
8511
330
83FC
100
AcDbEntity
  8
DEFPOINTS
 62
     0
100
AcDbPoint
 10
1103.22368732464
 20
1714.56025197806
 30
0.0
  0
POINT
  5
8512
330
83FC
100
AcDbEntity
  8
DEFPOINTS
 62
     0
100
AcDbPoint
 10
825.1387041552661
 20
1714.56025197806
 30
0.0
  0
ENDBLK
  5
83FE
330
83FC
100
AcDbEntity
  8
0
100
AcDbBlockEnd
  0
BLOCK
  5
8495
330
8493
100
AcDbEntity
  8
0
100
AcDbBlockBegin
  2
_DotSmall
 70
     0
 10
0.0
 20
0.0
 30
0.0
  3
_DotSmall
  1

  0
LWPOLYLINE
  5
8494
330
8493
100
AcDbEntity
  8
0
  6
ByBlock
 62
     0
100
AcDbPolyline
 90
        2
 70
     1
 43
0.5
 10
-0.0625
 20
0.0
 42
1.0
 10
0.0625
 20
0.0
 42
1.0
  0
ENDBLK
  5
8496
330
8493
100
AcDbEntity
  8
0
100
AcDbBlockEnd
  0
ENDSEC
  0
SECTION
  2
ENTITIES
  0
INSERT
  5
7C36
330
81B8
100
AcDbEntity
  8
0
100
AcDbBlockReference
  2
YA_N
 10
6.0
 20
5.0
 30
0.0
  0
LINE
  5
7C42
330
81B8
100
AcDbEntity
  8
2
100
AcDbLine
 10
1553.22368732464
 20
1714.56025197806
 30
0.0
 11
1553.22368732464
 21
3160.450678047153
 31
0.0
  0
LINE
  5
7C43
330
81B8
100
AcDbEntity
  8
2
100
AcDbLine
 10
930.9578485192103
 20
2534.560251978061
 30
0.0
 11
2363.079419075114
 21
2534.560251978061
 31
0.0
  0
LINE
  5
7C44
330
81B8
100
AcDbEntity
  8
1
100
AcDbLine
 10
2250.223687324639
 20
2034.56025197806
 30
0.0
 11
2656.22368732464
 21
2034.56025197806
 31
0.0
  0
LINE
  5
7C45
330
81B8
100
AcDbEntity
  8
1
100
AcDbLine
 10
2253.22368732464
 20
1994.56025197806
 30
0.0
 11
2253.223687324639
 21
2034.56025197806
 31
0.0
  0
LINE
  5
7C46
330
81B8
100
AcDbEntity
  8
1
100
AcDbLine
 10
1103.22368732464
 20
1714.56025197806
 30
0.0
 11
2703.22368732464
 21
1714.56025197806
 31
0.0
  0
LINE
  5
7C47
330
81B8
100
AcDbEntity
  8
1
100
AcDbLine
 10
1103.22368732464
 20
1814.56025197806
 30
0.0
 11
1103.22368732464
 21
1714.56025197806
 31
0.0
  0
LINE
  5
7C48
330
81B8
100
AcDbEntity
  8
1
100
AcDbLine
 10
2703.22368732464
 20
1814.56025197806
 30
0.0
 11
2703.22368732464
 21
1714.56025197806
 31
0.0
  0
LINE
  5
7C49
330
81B8
100
AcDbEntity
  8
1
100
AcDbLine
 10
1103.22368732464
 20
1814.56025197806
 30
0.0
 11
2703.22368732464
 21
1814.56025197806
 31
0.0
1001
ACAD
1000
ASC_BOUNDS
1002
{
1070
    19
1005
0
1002
}
  0
LINE
  5
7C4A
330
81B8
100
AcDbEntity
  8
2
100
AcDbLine
 10
3766.305087276281
 20
1714.56025197806
 30
0.0
 11
3766.305087276282
 21
3204.631364260667
 31
0.0
  0
LINE
  5
7C4B
330
81B8
100
AcDbEntity
  8
2
100
AcDbLine
 10
2913.894633913479
 20
2534.560251978061
 30
0.0
 11
4352.587445671594
 21
2534.560251978061
 31
0.0
  0
LINE
  5
7C4C
330
81B8
100
AcDbEntity
  8
1
100
AcDbLine
 10
3114.305087276282
 20
1714.56025197806
 30
0.0
 11
4244.30508727628
 21
1714.56025197806
 31
0.0
  0
LINE
  5
7C4D
330
81B8
100
AcDbEntity
  8
1
100
AcDbLine
 10
3114.305087276282
 20
1814.56025197806
 30
0.0
 11
4269.305087276282
 21
1814.56025197806
 31
0.0
1001
ACAD
1000
ASC_BOUNDS
1002
{
1070
    19
1002
}
  0
LINE
  5
7C4E
330
81B8
100
AcDbEntity
  8
2
100
AcDbLine
 10
1553.22368732464
 20
5455.889190798854
 30
0.0
 11
1553.22368732464
 21
4000.107986934368
 31
0.0
  0
LINE
  5
7C4F
330
81B8
100
AcDbEntity
  8
2
100
AcDbLine
 10
2453.22368732464
 20
4841.910119183573
 30
0.0
 11
2453.223687324639
 21
4000.107986934368
 31
0.0
  0
LINE
  5
7C50
330
81B8
100
AcDbEntity
  8
2
100
AcDbLine
 10
956.0254902965608
 20
4870.999187184334
 30
0.0
 11
2895.750156269511
 21
4870.999187184338
 31
0.0
  0
LINE
  5
7C51
330
81B8
100
AcDbEntity
  8
2
100
AcDbLine
 10
3044.337988078371
 20
2244.56025197806
 30
0.0
 11
3739.25037509537
 21
2244.56025197806
 31
0.0
  0
LINE
  5
7C52
330
81B8
100
AcDbEntity
  8
1
100
AcDbLine
 10
4216.305087276281
 20
1994.56025197806
 30
0.0
 11
4216.305087276281
 21
2534.560251978061
 31
0.0
  0
POINT
  5
7C53
330
81B8
100
AcDbEntity
  8
1
100
AcDbPoint
 10
1103.22368732464
 20
1714.56025197806
 30
0.0
  0
INSERT
  5
7C55
330
81B8
100
AcDbEntity
  8
0
100
AcDbBlockReference
  2
YA_N
 10
-1092.024831295133
 20
-1095.319682135705
 30
0.0
 41
20.0
 42
20.0
 43
20.0
  0
LINE
  5
7C57
330
81B8
100
AcDbEntity
  8
1
100
AcDbLine
 10
2607.22368732464
 20
2100.560251978061
 30
0.0
 11
2587.79118732464
 21
2153.950251978061
 31
0.0
  0
LINE
  5
7C58
330
81B8
100
AcDbEntity
  8
1
100
AcDbLine
 10
2299.22368732464
 20
2100.560251978061
 30
0.0
 11
2318.65628732464
 21
2153.950251978061
 31
0.0
  0
ARC
  5
7C59
330
81B8
100
AcDbEntity
  8
1
100
AcDbCircle
 10
2453.22368732464
 20
2244.56025197806
 30
0.0
 40
162.0
100
AcDbArc
 50
285.6481
 51
0.0
  0
ARC
  5
7C5A
330
81B8
100
AcDbEntity
  8
1
100
AcDbCircle
 10
2453.22368732464
 20
2244.56025197806
 30
0.0
 40
162.0
100
AcDbArc
 50
0.0
 51
254.5427
  0
LINE
  5
7C5B
330
81B8
100
AcDbEntity
  8
2
100
AcDbLine
 10
2453.22368732464
 20
2493.79625197806
 30
0.0
 11
2453.223687324639
 21
1714.56025197806
 31
0.0
  0
LINE
  5
7C5C
330
81B8
100
AcDbEntity
  8
1
100
AcDbLine
 10
2409.54308732464
 20
2088.56025197806
 30
0.0
 11
2496.904387324641
 21
2088.56025197806
 31
0.0
  0
LINE
  5
7C5D
330
81B8
100
AcDbEntity
  8
1
100
AcDbLine
 10
2368.279787324639
 20
2106.61625197806
 30
0.0
 11
2360.10238732464
 21
2098.43825197806
 31
0.0
  0
LINE
  5
7C5E
330
81B8
100
AcDbEntity
  8
1
100
AcDbLine
 10
2346.01048732464
 20
2102.560251978061
 30
0.0
 11
2301.22368732464
 21
2102.560251978061
 31
0.0
  0
ARC
  5
7C60
330
81B8
100
AcDbEntity
  8
1
100
AcDbCircle
 10
2301.22368732464
 20
2100.560251978061
 30
0.0
 40
2.0
100
AcDbArc
 50
90.0
 51
180.0
  0
LINE
  5
7C62
330
81B8
100
AcDbEntity
  8
1
100
AcDbLine
 10
2299.22368732464
 20
2084.560251978061
 30
0.0
 11
2299.22368732464
 21
2100.560251978061
 31
0.0
  0
ARC
  5
7C64
330
81B8
100
AcDbEntity
  8
1
100
AcDbCircle
 10
2362.22368732464
 20
2096.31725197806
 30
0.0
 40
3.0
100
AcDbArc
 50
135.0
 51
180.0
  0
LINE
  5
7C65
330
81B8
100
AcDbEntity
  8
1
100
AcDbLine
 10
2359.22368732464
 20
2084.560251978061
 30
0.0
 11
2359.22368732464
 21
2096.31725197806
 31
0.0
  0
ARC
  5
7C6A
330
81B8
100
AcDbEntity
  8
1
100
AcDbCircle
 10
2346.01048732464
 20
2105.560251978061
 30
0.0
 40
3.0
100
AcDbArc
 50
270.0
 51
315.0
  0
LINE
  5
7C6B
330
81B8
100
AcDbEntity
  8
1
100
AcDbLine
 10
2358.112487324639
 20
2113.41925197806
 30
0.0
 11
2348.13188732464
 21
2103.43825197806
 31
0.0
  0
LINE
  5
7C6D
330
81B8
100
AcDbEntity
  8
1
100
AcDbLine
 10
2560.43688732464
 20
2102.560251978061
 30
0.0
 11
2605.22368732464
 21
2102.560251978061
 31
0.0
  0
LINE
  5
7C6E
330
81B8
100
AcDbEntity
  8
1
100
AcDbLine
 10
2538.16758732464
 20
2106.61625197806
 30
0.0
 11
2546.34508732464
 21
2098.43825197806
 31
0.0
  0
ARC
  5
7C6F
330
81B8
100
AcDbEntity
  8
1
100
AcDbCircle
 10
2544.22368732464
 20
2096.31725197806
 30
0.0
 40
3.0
100
AcDbArc
 50
0.0
 51
45.0
  0
LINE
  5
7C70
330
81B8
100
AcDbEntity
  8
1
100
AcDbLine
 10
2547.22368732464
 20
2084.560251978061
 30
0.0
 11
2547.22368732464
 21
2096.31725197806
 31
0.0
  0
ARC
  5
7C71
330
81B8
100
AcDbEntity
  8
1
100
AcDbCircle
 10
2560.43688732464
 20
2105.560251978061
 30
0.0
 40
3.0
100
AcDbArc
 50
225.0
 51
270.0
  0
LINE
  5
7C72
330
81B8
100
AcDbEntity
  8
1
100
AcDbLine
 10
2558.42588732464
 20
2103.32825197806
 30
0.0
 11
2548.33488732464
 21
2113.41925197806
 31
0.0
  0
ARC
  5
7C79
330
81B8
100
AcDbEntity
  8
1
100
AcDbCircle
 10
2605.22368732464
 20
2100.560251978061
 30
0.0
 40
2.0
100
AcDbArc
 50
0.0
 51
90.0
  0
LINE
  5
7C7A
330
81B8
100
AcDbEntity
  8
1
100
AcDbLine
 10
2607.22368732464
 20
2084.560251978061
 30
0.0
 11
2607.22368732464
 21
2100.560251978061
 31
0.0
  0
LINE
  5
7C7B
330
81B8
100
AcDbEntity
  8
2
100
AcDbLine
 10
2260.366812425116
 20
2244.56025197806
 30
0.0
 11
2650.982614543311
 21
2244.56025197806
 31
0.0
  0
LINE
  5
7C7C
330
81B8
100
AcDbEntity
  8
1
100
AcDbLine
 10
2263.264219954381
 20
2084.560251978061
 30
0.0
 11
2393.22368732464
 21
2084.560251978061
 31
0.0
  0
LINE
  5
7C7D
330
81B8
100
AcDbEntity
  8
1
100
AcDbLine
 10
2250.223687324639
 20
2034.56025197806
 30
0.0
 11
2263.264219954381
 21
2084.560251978061
 31
0.0
  0
LINE
  5
7C7E
330
81B8
100
AcDbEntity
  8
1
100
AcDbLine
 10
2656.22368732464
 20
2034.56025197806
 30
0.0
 11
2642.842246415706
 21
2084.560251978061
 31
0.0
  0
LINE
  5
7C7F
330
81B8
100
AcDbEntity
  8
1
100
AcDbLine
 10
2513.22368732464
 20
2084.560251978061
 30
0.0
 11
2513.22368732464
 21
2079.56025197806
 31
0.0
  0
LINE
  5
7C80
330
81B8
100
AcDbEntity
  8
1
100
AcDbLine
 10
2393.22368732464
 20
2084.560251978061
 30
0.0
 11
2393.22368732464
 21
2079.56025197806
 31
0.0
  0
LINE
  5
7C81
330
81B8
100
AcDbEntity
  8
1
100
AcDbLine
 10
2393.22368732464
 20
2079.56025197806
 30
0.0
 11
2513.22368732464
 21
2079.56025197806
 31
0.0
  0
LINE
  5
7C83
330
81B8
100
AcDbEntity
  8
1
100
AcDbLine
 10
2513.22368732464
 20
2084.560251978061
 30
0.0
 11
2642.842246415707
 21
2084.560251978061
 31
0.0
  0
POINT
  5
7C87
330
81B8
100
AcDbEntity
  8
1
100
AcDbPoint
 10
1103.22368732464
 20
1719.56025197806
 30
0.0
  0
POINT
  5
7C88
330
81B8
100
AcDbEntity
  8
1
100
AcDbPoint
 10
1103.22368732464
 20
1714.56025197806
 30
0.0
  0
POINT
  5
7C89
330
81B8
100
AcDbEntity
  8
1
100
AcDbPoint
 10
1103.22368732464
 20
1719.56025197806
 30
0.0
  0
POINT
  5
7C8A
330
81B8
100
AcDbEntity
  8
1
100
AcDbPoint
 10
1103.22368732464
 20
1754.56025197806
 30
0.0
  0
DIMENSION
  5
7C8C
330
81B8
100
AcDbEntity
  8
3
100
AcDbDimension
  2
*D4
 10
1582.22368732464
 20
3183.567635757286
 30
0.0
 11
1947.22368732464
 21
3233.567635757286
 31
0.0
 12
872.5117110261454
 22
2025.966773756661
 32
0.0
 71
     5
 42
-1.0
  3
Standard
100
AcDbAlignedDimension
 13
2312.22368732464
 23
3034.560251978061
 33
0.0
 14
1582.22368732464
 24
3034.560251978061
 34
0.0
100
AcDbRotatedDimension
1001
ACAD
1000
DSTYLE
1002
{
1070
    40
1040
25.0
1002
}
  0
DIMENSION
  5
7C8D
330
81B8
100
AcDbEntity
  8
3
100
AcDbDimension
  2
*D5
 10
1553.22368732464
 20
3336.376409230953
 30
0.0
 11
1932.72368732464
 21
3386.376409230952
 31
0.0
 12
872.5117110261454
 22
2025.966773756661
 32
0.0
 71
     5
 42
-1.0
  3
Standard
100
AcDbAlignedDimension
 13
2312.22368732464
 23
3034.560251978061
 33
0.0
 14
1553.22368732464
 24
3156.82609078349
 34
0.0
100
AcDbRotatedDimension
1001
ACAD
1000
DSTYLE
1002
{
1070
    40
1040
25.0
1002
}
  0
LINE
  5
7C8E
330
81B8
100
AcDbEntity
  8
1
100
AcDbLine
 10
4219.305087276281
 20
1714.56025197806
 30
0.0
 11
4269.305087276282
 21
1714.56025197806
 31
0.0
  0
POINT
  5
7C8F
330
81B8
100
AcDbEntity
  8
1
100
AcDbPoint
 10
1103.22368732464
 20
1719.56025197806
 30
0.0
  0
POINT
  5
7C90
330
81B8
100
AcDbEntity
  8
1
100
AcDbPoint
 10
1103.22368732464
 20
1714.56025197806
 30
0.0
  0
POINT
  5
7C91
330
81B8
100
AcDbEntity
  8
1
100
AcDbPoint
 10
1103.22368732464
 20
1719.56025197806
 30
0.0
  0
POINT
  5
7C92
330
81B8
100
AcDbEntity
  8
1
100
AcDbPoint
 10
1103.22368732464
 20
1754.56025197806
 30
0.0
  0
INSERT
  5
7C93
330
81B8
100
AcDbEntity
  8
0
100
AcDbBlockReference
  2
YA_N
 10
-1018.773193578214
 20
-860.9217325598891
 30
0.0
 41
20.0
 42
20.0
 43
20.0
  0
POINT
  5
7C95
330
81B8
100
AcDbEntity
  8
1
100
AcDbPoint
 10
1103.22368732464
 20
1814.56025197806
 30
0.0
  0
POINT
  5
7C96
330
81B8
100
AcDbEntity
  8
1
100
AcDbPoint
 10
1103.22368732464
 20
1714.56025197806
 30
0.0
  0
POINT
  5
7C97
330
81B8
100
AcDbEntity
  8
1
100
AcDbPoint
 10
1103.22368732464
 20
1814.56025197806
 30
0.0
  0
LINE
  5
7C98
330
81B8
100
AcDbEntity
  8
1
100
AcDbLine
 10
3276.305087276282
 20
3034.560251978061
 30
0.0
 11
4256.305087276281
 21
3034.560251978061
 31
0.0
  0
LINE
  5
7C99
330
81B8
100
AcDbEntity
  8
1
100
AcDbLine
 10
4216.305087276281
 20
2534.560251978061
 30
0.0
 11
4216.305087276281
 21
3034.560251978061
 31
0.0
  0
LINE
  5
7C9B
330
81B8
100
AcDbEntity
  8
1
100
AcDbLine
 10
3316.305087276282
 20
2534.560251978061
 30
0.0
 11
3316.305087276282
 21
3034.560251978061
 31
0.0
  0
LINE
  5
7C9D
330
81B8
100
AcDbEntity
  8
1
100
AcDbLine
 10
4228.805087276279
 20
2399.36025197806
 30
0.0
 11
4228.805087276283
 21
2519.36025197806
 31
0.0
  0
LINE
  5
7C9E
330
81B8
100
AcDbEntity
  8
1
100
AcDbLine
 10
4326.30508727628
 20
2409.360251978061
 30
0.0
 11
4326.305087276281
 21
2509.360251978061
 31
0.0
  0
LINE
  5
7C9F
330
81B8
100
AcDbEntity
  8
1
100
AcDbLine
 10
4228.805087276283
 20
2519.36025197806
 30
0.0
 11
4268.605087276283
 21
2519.36025197806
 31
0.0
  0
LINE
  5
7CA0
330
81B8
100
AcDbEntity
  8
1
100
AcDbLine
 10
4228.805087276279
 20
2399.36025197806
 30
0.0
 11
4268.605087276283
 21
2399.36025197806
 31
0.0
  0
ARC
  5
7CA1
330
81B8
100
AcDbEntity
  8
1
100
AcDbCircle
 10
4316.305087276282
 20
2509.360251978061
 30
0.0
 40
10.0
100
AcDbArc
 50
359.9999999999982
 51
90.0
  0
ARC
  5
7CA2
330
81B8
100
AcDbEntity
  8
1
100
AcDbCircle
 10
4316.305087276279
 20
2409.360251978061
 30
0.0
 40
10.0
100
AcDbArc
 50
270.0
 51
359.9999999999982
  0
LINE
  5
7CA3
330
81B8
100
AcDbEntity
  8
1
100
AcDbLine
 10
4268.605087276283
 20
2399.36025197806
 30
0.0
 11
4316.305087276279
 21
2399.36025197806
 31
0.0
  0
LINE
  5
7CA4
330
81B8
100
AcDbEntity
  8
1
100
AcDbLine
 10
4268.605087276283
 20
2519.36025197806
 30
0.0
 11
4316.305087276282
 21
2519.36025197806
 31
0.0
  0
LINE
  5
7CA5
330
81B8
100
AcDbEntity
  8
1
100
AcDbLine
 10
2653.22368732464
 20
1994.56025197806
 30
0.0
 11
2653.22368732464
 21
2034.56025197806
 31
0.0
  0
POINT
  5
7CA6
330
81B8
100
AcDbEntity
  8
1
100
AcDbPoint
 10
4326.305087276281
 20
2509.360251978061
 30
0.0
  0
LINE
  5
7CA7
330
81B8
100
AcDbEntity
  8
1
100
AcDbLine
 10
1103.22368732464
 20
5373.999187184335
 30
0.0
 11
2003.22368732464
 21
5373.999187184336
 31
0.0
  0
LINE
  5
7CA8
330
81B8
100
AcDbEntity
  8
1
100
AcDbLine
 10
1103.22368732464
 20
4218.999187184333
 30
0.0
 11
2703.22368732464
 21
4218.999187184336
 31
0.0
  0
LINE
  5
7CA9
330
81B8
100
AcDbEntity
  8
1
100
AcDbLine
 10
1103.22368732464
 20
5373.999187184336
 30
0.0
 11
1103.22368732464
 21
5320.999187184336
 31
0.0
  0
LINE
  5
7CAA
330
81B8
100
AcDbEntity
  8
1
100
AcDbLine
 10
2003.22368732464
 20
5373.999187184336
 30
0.0
 11
2003.22368732464
 21
5320.999187184336
 31
0.0
  0
LINE
  5
7CAB
330
81B8
100
AcDbEntity
  8
1
100
AcDbLine
 10
2703.22368732464
 20
4888.999187184338
 30
0.0
 11
2703.22368732464
 21
4218.999187184336
 31
0.0
  0
LINE
  5
7CAC
330
81B8
100
AcDbEntity
  8
1
100
AcDbLine
 10
2312.22368732464
 20
4888.999187184335
 30
0.0
 11
2703.22368732464
 21
4888.999187184338
 31
0.0
  0
POINT
  5
7CAD
330
81B8
100
AcDbEntity
  8
1
100
AcDbPoint
 10
1103.22368732464
 20
1814.56025197806
 30
0.0
  0
POINT
  5
7CAE
330
81B8
100
AcDbEntity
  8
1
100
AcDbPoint
 10
1103.22368732464
 20
1714.56025197806
 30
0.0
  0
POINT
  5
7CAF
330
81B8
100
AcDbEntity
  8
1
100
AcDbPoint
 10
1103.22368732464
 20
1814.56025197806
 30
0.0
  0
LINE
  5
7CB0
330
81B8
100
AcDbEntity
  8
1
100
AcDbLine
 10
1103.22368732464
 20
1894.56025197806
 30
0.0
 11
2703.22368732464
 21
1894.56025197806
 31
0.0
1001
ACAD
1000
ASC_BOUNDS
1002
{
1070
    19
1002
}
  0
LINE
  5
7CB1
330
81B8
100
AcDbEntity
  8
1
100
AcDbLine
 10
1103.22368732464
 20
1994.56025197806
 30
0.0
 11
2703.22368732464
 21
1994.56025197806
 31
0.0
1001
ACAD
1000
ASC_BOUNDS
1002
{
1070
    19
1005
0
1002
}
  0
LINE
  5
7CB2
330
81B8
100
AcDbEntity
  8
1
100
AcDbLine
 10
2703.22368732464
 20
1994.56025197806
 30
0.0
 11
2703.22368732464
 21
1894.56025197806
 31
0.0
  0
LINE
  5
7CB3
330
81B8
100
AcDbEntity
  8
1
100
AcDbLine
 10
1103.22368732464
 20
1994.56025197806
 30
0.0
 11
1103.22368732464
 21
1894.56025197806
 31
0.0
  0
POINT
  5
7CB4
330
81B8
100
AcDbEntity
  8
1
100
AcDbPoint
 10
1103.22368732464
 20
1994.56025197806
 30
0.0
  0
POINT
  5
7CB5
330
81B8
100
AcDbEntity
  8
1
100
AcDbPoint
 10
1103.22368732464
 20
1994.56025197806
 30
0.0
  0
POINT
  5
7CB6
330
81B8
100
AcDbEntity
  8
1
100
AcDbPoint
 10
1103.22368732464
 20
1994.56025197806
 30
0.0
  0
POINT
  5
7CB7
330
81B8
100
AcDbEntity
  8
1
100
AcDbPoint
 10
1103.22368732464
 20
1994.56025197806
 30
0.0
  0
POINT
  5
7CBA
330
81B8
100
AcDbEntity
  8
1
100
AcDbPoint
 10
1103.22368732464
 20
1814.56025197806
 30
0.0
  0
POINT
  5
7CBB
330
81B8
100
AcDbEntity
  8
1
100
AcDbPoint
 10
1103.22368732464
 20
1714.56025197806
 30
0.0
  0
POINT
  5
7CBC
330
81B8
100
AcDbEntity
  8
1
100
AcDbPoint
 10
1103.22368732464
 20
1814.56025197806
 30
0.0
  0
POINT
  5
7CBD
330
81B8
100
AcDbEntity
  8
1
100
AcDbPoint
 10
1103.22368732464
 20
1894.56025197806
 30
0.0
  0
CIRCLE
  5
7CC3
330
81B8
100
AcDbEntity
  8
1
100
AcDbCircle
 10
2453.22368732464
 20
2244.56025197806
 30
0.0
 40
79.0
  0
CIRCLE
  5
7CC4
330
81B8
100
AcDbEntity
  8
1
100
AcDbCircle
 10
1553.22368732464
 20
2534.560251978061
 30
0.0
 40
203.2
  0
LINE
  5
7CC5
330
81B8
100
AcDbEntity
  8
1
100
AcDbLine
 10
1622.643056795693
 20
2725.534572613693
 30
0.0
 11
2480.212516991044
 21
2318.807158130693
 31
0.0
  0
LINE
  5
7CC6
330
81B8
100
AcDbEntity
  8
1
100
AcDbLine
 10
1537.372776330636
 20
2331.979432005734
 30
0.0
 11
2447.06117763701
 21
2165.800976496693
 31
0.0
  0
ARC
  5
7CC7
330
81B8
100
AcDbEntity
  8
1
100
AcDbCircle
 10
1553.22368732464
 20
2534.560251978061
 30
0.0
 40
280.0
100
AcDbArc
 50
69.65938634983065
 51
265.8903682986978
  0
ARC
  5
7CC8
330
81B8
100
AcDbEntity
  8
1
100
AcDbCircle
 10
2453.22368732464
 20
2244.56025197806
 30
0.0
 40
150.0
100
AcDbArc
 50
265.8903682986978
 51
69.65938634983065
  0
LINE
  5
7CC9
330
81B8
100
AcDbEntity
  8
1
100
AcDbLine
 10
1650.551793541955
 20
2797.100229391312
 30
0.0
 11
2505.363744226773
 21
2385.206668449445
 31
0.0
  0
LINE
  5
7CCA
330
81B8
100
AcDbEntity
  8
1
100
AcDbLine
 10
1533.157454283233
 20
2255.280202043361
 30
0.0
 11
2442.473919623886
 21
2094.945939513043
 31
0.0
  0
INSERT
  5
7CCB
330
81B8
100
AcDbEntity
  8
0
100
AcDbBlockReference
  2
YA_N
 10
2545.878788900856
 20
-1567.120050791241
 30
0.0
  0
LINE
  5
7CCD
330
81B8
100
AcDbEntity
  8
1
100
AcDbLine
 10
3114.305087276282
 20
1994.56025197806
 30
0.0
 11
4269.305087276282
 21
1994.56025197806
 31
0.0
1001
ACAD
1000
ASC_BOUNDS
1002
{
1070
    19
1002
}
  0
LINE
  5
7CCE
330
81B8
100
AcDbEntity
  8
1
100
AcDbLine
 10
3114.305087276282
 20
1714.56025197806
 30
0.0
 11
3114.305087276282
 21
1814.56025197806
 31
0.0
  0
LINE
  5
7CCF
330
81B8
100
AcDbEntity
  8
1
100
AcDbLine
 10
3114.305087276282
 20
1894.56025197806
 30
0.0
 11
4269.305087276282
 21
1894.56025197806
 31
0.0
  0
LINE
  5
7CD0
330
81B8
100
AcDbEntity
  8
1
100
AcDbLine
 10
4269.305087276282
 20
1714.56025197806
 30
0.0
 11
4269.305087276282
 21
1814.56025197806
 31
0.0
  0
LINE
  5
7CD3
330
81B8
100
AcDbEntity
  8
1
100
AcDbLine
 10
3264.00508727628
 20
2511.36025197806
 30
0.0
 11
3223.80508727628
 21
2511.36025197806
 31
0.0
  0
LINE
  5
7CD4
330
81B8
100
AcDbEntity
  8
1
100
AcDbLine
 10
3303.805087276281
 20
2406.560251978064
 30
0.0
 11
3303.80508727628
 21
2511.36025197806
 31
0.0
  0
LINE
  5
7CD5
330
81B8
100
AcDbEntity
  8
1
100
AcDbLine
 10
3303.80508727628
 20
2511.36025197806
 30
0.0
 11
3264.00508727628
 21
2511.36025197806
 31
0.0
  0
LINE
  5
7CD6
330
81B8
100
AcDbEntity
  8
1
100
AcDbLine
 10
3213.805087276282
 20
2406.560251978064
 30
0.0
 11
3213.805087276279
 21
2501.36025197806
 31
0.0
  0
ARC
  5
7CD7
330
81B8
100
AcDbEntity
  8
1
100
AcDbCircle
 10
3223.80508727628
 20
2501.360251978061
 30
0.0
 40
10.0
100
AcDbArc
 50
90.0
 51
180.0000000000016
  0
POINT
  5
7CD8
330
81B8
100
AcDbEntity
  8
1
100
AcDbPoint
 10
3213.805087276279
 20
2501.36025197806
 30
0.0
  0
LINE
  5
7CD9
330
81B8
100
AcDbEntity
  8
1
100
AcDbLine
 10
3186.305087276281
 20
2509.560251978061
 30
0.0
 11
3186.305087276281
 21
2559.560251978061
 31
0.0
  0
LINE
  5
7CDA
330
81B8
100
AcDbEntity
  8
1
100
AcDbLine
 10
3186.305087276281
 20
2559.560251978061
 30
0.0
 11
3316.305087276282
 21
2559.560251978061
 31
0.0
  0
LINE
  5
7CDB
330
81B8
100
AcDbEntity
  8
1
100
AcDbLine
 10
3186.305087276281
 20
2509.560251978061
 30
0.0
 11
3218.205087276281
 21
2509.560251978061
 31
0.0
  0
LINE
  5
7CDC
330
81B8
100
AcDbEntity
  8
1
100
AcDbLine
 10
3162.305087276281
 20
2555.560251978061
 30
0.0
 11
3186.305087276281
 21
2555.560251978061
 31
0.0
  0
LINE
  5
7CDD
330
81B8
100
AcDbEntity
  8
1
100
AcDbLine
 10
3162.30508727628
 20
2513.560251978061
 30
0.0
 11
3186.30508727628
 21
2513.560251978061
 31
0.0
  0
LINE
  5
7CDE
330
81B8
100
AcDbEntity
  8
1
100
AcDbLine
 10
3162.305087276276
 20
2165.56025197806
 30
0.0
 11
3162.305087276283
 21
2737.76025197806
 31
0.0
  0
LINE
  5
7CDF
330
81B8
100
AcDbEntity
  8
1
100
AcDbLine
 10
3061.305087276283
 20
2737.76025197806
 30
0.0
 11
3162.305087276284
 21
2737.76025197806
 31
0.0
  0
LINE
  5
7CE0
330
81B8
100
AcDbEntity
  8
1
100
AcDbLine
 10
3061.305087276278
 20
2331.36025197806
 30
0.0
 11
3162.305087276278
 21
2331.36025197806
 31
0.0
  0
LINE
  5
7CE1
330
81B8
100
AcDbEntity
  8
1
100
AcDbLine
 10
3061.305087276275
 20
2165.56025197806
 30
0.0
 11
3061.305087276283
 21
2737.760251978063
 31
0.0
  0
LINE
  5
7CE2
330
81B8
100
AcDbEntity
  8
1
100
AcDbLine
 10
3061.305087276279
 20
2323.560251978061
 30
0.0
 11
3162.305087276279
 21
2323.560251978061
 31
0.0
  0
LINE
  5
7CE3
330
81B8
100
AcDbEntity
  8
1
100
AcDbLine
 10
3061.305087276278
 20
2165.56025197806
 30
0.0
 11
3162.305087276278
 21
2165.56025197806
 31
0.0
  0
LINE
  5
7CE4
330
81B8
100
AcDbEntity
  8
1
100
AcDbLine
 10
2926.305087276285
 20
2814.560251978061
 30
0.0
 11
3212.305087276285
 21
2814.560251978061
 31
0.0
  0
LINE
  5
7CE5
330
81B8
100
AcDbEntity
  8
1
100
AcDbLine
 10
2926.305087276276
 20
2094.560251978061
 30
0.0
 11
3212.305087276276
 21
2094.560251978061
 31
0.0
  0
LINE
  5
7CE6
330
81B8
100
AcDbEntity
  8
1
100
AcDbLine
 10
3212.305087276276
 20
2094.560251978061
 30
0.0
 11
3212.305087276276
 21
2114.560251978061
 31
0.0
  0
LINE
  5
7CE7
330
81B8
100
AcDbEntity
  8
1
100
AcDbLine
 10
2926.305087276276
 20
2094.560251978061
 30
0.0
 11
2926.305087276285
 21
2814.560251978061
 31
0.0
  0
LINE
  5
7CE8
330
81B8
100
AcDbEntity
  8
1
100
AcDbLine
 10
3212.305087276285
 20
2794.560251978061
 30
0.0
 11
3212.305087276285
 21
2814.560251978061
 31
0.0
  0
DIMENSION
  5
7CE9
330
81B8
100
AcDbEntity
  8
3
100
AcDbDimension
  2
*D6
 10
4216.305087276281
 20
3220.078220399479
 30
0.0
 11
3766.305087276281
 21
3270.078220399478
 31
0.0
 12
-77.96698665418806
 22
2025.966773756661
 32
0.0
 71
     5
 42
-1.0
  3
Standard
100
AcDbAlignedDimension
 13
3316.305087276282
 23
3034.76914163961
 33
0.0
 14
4216.305087276281
 24
3034.769127902603
 34
0.0
100
AcDbRotatedDimension
1001
ACAD
1000
DSTYLE
1002
{
1070
    40
1040
25.0
1002
}
  0
DIMENSION
  5
7CED
330
81B8
100
AcDbEntity
  8
3
100
AcDbDimension
  2
*D10
 10
4494.0872222317
 20
2909.56025197806
 30
0.0
 11
4444.087222231701
 21
2534.560251978061
 31
0.0
 12
-77.96698665418806
 22
2025.966773756661
 32
0.0
  1
\U+03C6<>
 71
     5
 42
-1.0
  3
Standard
100
AcDbAlignedDimension
 13
4218.605087276282
 23
2159.560251978061
 33
0.0
 14
4218.605087276282
 24
2909.56025197806
 34
0.0
 50
90.0
100
AcDbRotatedDimension
1001
ACAD
1000
DSTYLE
1002
{
1070
    40
1040
25.0
1002
}
  0
DIMENSION
  5
7CEF
330
81B8
100
AcDbEntity
  8
3
100
AcDbDimension
  2
*D12
 10
3004.094192159729
 20
4888.999187184338
 30
0.0
 11
2954.094192159729
 21
4553.999187184337
 31
0.0
 12
872.5117110261454
 22
1445.465876648997
 32
0.0
 71
     5
 42
-1.0
  3
Standard
100
AcDbAlignedDimension
 13
2703.22368732464
 23
4218.999187184336
 33
0.0
 14
2703.22368732464
 24
4888.999187184338
 34
0.0
 50
270.0
100
AcDbRotatedDimension
1001
ACAD
1000
DSTYLE
1002
{
1070
    40
1040
25.0
1002
}
  0
DIMENSION
  5
7CF0
330
81B8
100
AcDbEntity
  8
3
100
AcDbDimension
  2
*D13
 10
1103.22368732464
 20
5675.631241588508
 30
0.0
 11
1553.22368732464
 21
5725.631241588509
 31
0.0
 12
872.5117110261454
 22
1445.465876648997
 32
0.0
 71
     5
 42
-1.0
  3
Standard
100
AcDbAlignedDimension
 13
2003.22368732464
 23
5373.999187184336
 33
0.0
 14
1103.22368732464
 24
5373.999187184336
 34
0.0
100
AcDbRotatedDimension
1001
ACAD
1000
DSTYLE
1002
{
1070
    40
1040
25.0
1002
}
  0
DIMENSION
  5
7CF1
330
81B8
100
AcDbEntity
  8
3
100
AcDbDimension
  2
*D14
 10
2003.22368732464
 20
5675.631241588508
 30
0.0
 11
2353.22368732464
 21
5725.631241588509
 31
0.0
 12
872.5117110261454
 22
1445.465876648997
 32
0.0
 71
     5
 42
-1.0
  3
Standard
100
AcDbAlignedDimension
 13
2703.22368732464
 23
4888.999187184338
 33
0.0
 14
2003.22368732464
 24
5373.999187184336
 34
0.0
100
AcDbRotatedDimension
1001
ACAD
1000
DSTYLE
1002
{
1070
    40
1040
25.0
1002
}
  0
DIMENSION
  5
7CF2
330
81B8
100
AcDbEntity
  8
3
100
AcDbDimension
  2
*D15
 10
801.8264791833825
 20
5373.999187184336
 30
0.0
 11
751.8264791833826
 21
4796.499187184335
 31
0.0
 12
872.5117110261454
 22
1445.465876648997
 32
0.0
 71
     5
 42
-1.0
  3
Standard
100
AcDbAlignedDimension
 13
1103.22368732464
 23
4218.999187184333
 33
0.0
 14
1103.22368732464
 24
5373.999187184336
 34
0.0
 50
270.0
100
AcDbRotatedDimension
1001
ACAD
1000
DSTYLE
1002
{
1070
    40
1040
25.0
1002
}
  0
LINE
  5
7CF3
330
81B8
100
AcDbEntity
  8
1
100
AcDbLine
 10
3114.305087276282
 20
1894.56025197806
 30
0.0
 11
3114.305087276282
 21
1994.56025197806
 31
0.0
  0
LINE
  5
7CF4
330
81B8
100
AcDbEntity
  8
1
100
AcDbLine
 10
1273.22368732464
 20
4030.999187184335
 30
0.0
 11
1273.22368732464
 21
4315.999187184336
 31
0.0
  0
LINE
  5
7CF5
330
81B8
100
AcDbEntity
  8
1
100
AcDbLine
 10
2603.22368732464
 20
4030.999187184335
 30
0.0
 11
2603.22368732464
 21
4315.999187184336
 31
0.0
  0
LINE
  5
7CF6
330
81B8
100
AcDbEntity
  8
1
100
AcDbLine
 10
1350.023687324639
 20
4165.999187184335
 30
0.0
 11
1350.023687324639
 21
4265.999187184336
 31
0.0
  0
LINE
  5
7CF7
330
81B8
100
AcDbEntity
  8
1
100
AcDbLine
 10
1756.423687324639
 20
4165.999187184335
 30
0.0
 11
1756.423687324639
 21
4265.999187184336
 31
0.0
  0
LINE
  5
7CF8
330
81B8
100
AcDbEntity
  8
1
100
AcDbLine
 10
2374.22368732464
 20
4165.999187184335
 30
0.0
 11
2374.22368732464
 21
4265.999187184336
 31
0.0
  0
LINE
  5
7CF9
330
81B8
100
AcDbEntity
  8
1
100
AcDbLine
 10
2532.22368732464
 20
4165.999187184335
 30
0.0
 11
2532.22368732464
 21
4265.999187184337
 31
0.0
  0
LINE
  5
7CFA
330
81B8
100
AcDbEntity
  8
1
100
AcDbLine
 10
1273.22368732464
 20
4030.999187184335
 30
0.0
 11
2603.22368732464
 21
4030.999187184335
 31
0.0
  0
LINE
  5
7CFB
330
81B8
100
AcDbEntity
  8
1
100
AcDbLine
 10
1273.223687324639
 20
4315.999187184336
 30
0.0
 11
2603.22368732464
 21
4315.999187184336
 31
0.0
  0
LINE
  5
7CFC
330
81B8
100
AcDbEntity
  8
1
100
AcDbLine
 10
1350.023687324639
 20
4265.999187184336
 30
0.0
 11
1756.423687324639
 21
4265.999187184336
 31
0.0
  0
LINE
  5
7CFD
330
81B8
100
AcDbEntity
  8
1
100
AcDbLine
 10
1350.023687324639
 20
4165.999187184335
 30
0.0
 11
1756.423687324639
 21
4165.999187184335
 31
0.0
  0
LINE
  5
7CFE
330
81B8
100
AcDbEntity
  8
1
100
AcDbLine
 10
2374.22368732464
 20
4265.999187184336
 30
0.0
 11
2532.22368732464
 21
4265.999187184336
 31
0.0
  0
LINE
  5
7CFF
330
81B8
100
AcDbEntity
  8
1
100
AcDbLine
 10
2374.22368732464
 20
4165.999187184335
 30
0.0
 11
2532.22368732464
 21
4165.999187184335
 31
0.0
  0
LINE
  5
7D00
330
81B8
100
AcDbEntity
  8
1
100
AcDbLine
 10
1047.22368732464
 20
4420.999187184334
 30
0.0
 11
2312.22368732464
 21
4420.999187184334
 31
0.0
  0
LINE
  5
7D01
330
81B8
100
AcDbEntity
  8
1
100
AcDbLine
 10
1047.22368732464
 20
5320.999187184336
 30
0.0
 11
2312.22368732464
 21
5320.999187184336
 31
0.0
  0
LINE
  5
7D02
330
81B8
100
AcDbEntity
  8
1
100
AcDbLine
 10
1053.22368732464
 20
5360.999187184335
 30
0.0
 11
1056.22368732464
 21
5360.999187184335
 31
0.0
  0
LINE
  5
7D03
330
81B8
100
AcDbEntity
  8
1
100
AcDbLine
 10
1053.22368732464
 20
4380.999187184334
 30
0.0
 11
1056.22368732464
 21
4380.999187184335
 31
0.0
  0
LINE
  5
7D04
330
81B8
100
AcDbEntity
  8
1
100
AcDbLine
 10
1528.22368732464
 20
4420.999187184334
 30
0.0
 11
1528.22368732464
 21
4265.999187184336
 31
0.0
  0
LINE
  5
7D05
330
81B8
100
AcDbEntity
  8
1
100
AcDbLine
 10
1578.22368732464
 20
4420.999187184334
 30
0.0
 11
1578.22368732464
 21
4265.999187184336
 31
0.0
  0
LINE
  5
7D06
330
81B8
100
AcDbEntity
  8
1
100
AcDbLine
 10
2291.22368732464
 20
4283.999187184336
 30
0.0
 11
2291.22368732464
 21
4420.999187184334
 31
0.0
  0
LINE
  5
7D07
330
81B8
100
AcDbEntity
  8
1
100
AcDbLine
 10
2615.22368732464
 20
4283.999187184336
 30
0.0
 11
2615.22368732464
 21
4768.999187184336
 31
0.0
  0
LINE
  5
7D08
330
81B8
100
AcDbEntity
  8
1
100
AcDbLine
 10
2312.22368732464
 20
4768.999187184336
 30
0.0
 11
2615.22368732464
 21
4768.999187184336
 31
0.0
  0
LINE
  5
7D09
330
81B8
100
AcDbEntity
  8
1
100
AcDbLine
 10
2291.22368732464
 20
4283.999187184336
 30
0.0
 11
2615.22368732464
 21
4283.999187184336
 31
0.0
  0
LINE
  5
7D0A
330
81B8
100
AcDbEntity
  8
1
100
AcDbLine
 10
2432.22368732464
 20
4283.999187184336
 30
0.0
 11
2432.22368732464
 21
4265.999187184336
 31
0.0
  0
LINE
  5
7D0B
330
81B8
100
AcDbEntity
  8
1
100
AcDbLine
 10
2474.22368732464
 20
4283.999187184336
 30
0.0
 11
2474.22368732464
 21
4265.999187184336
 31
0.0
  0
LINE
  5
7D0C
330
81B8
100
AcDbEntity
  8
1
100
AcDbLine
 10
3180.305087276277
 20
2406.560251978064
 30
0.0
 11
3665.305087276279
 21
2406.560251978064
 31
0.0
  0
LINE
  5
7D0D
330
81B8
100
AcDbEntity
  8
1
100
AcDbLine
 10
3180.305087276277
 20
2082.560251978063
 30
0.0
 11
3665.305087276277
 21
2082.560251978063
 31
0.0
  0
LINE
  5
7D0E
330
81B8
100
AcDbEntity
  8
1
100
AcDbLine
 10
3180.305087276277
 20
2082.560251978063
 30
0.0
 11
3180.305087276277
 21
2406.560251978064
 31
0.0
  0
LINE
  5
7D0F
330
81B8
100
AcDbEntity
  8
1
100
AcDbLine
 10
3180.305087276277
 20
2223.560251978063
 30
0.0
 11
3162.305087276278
 21
2223.560251978063
 31
0.0
  0
LINE
  5
7D10
330
81B8
100
AcDbEntity
  8
1
100
AcDbLine
 10
3180.305087276277
 20
2265.560251978063
 30
0.0
 11
3162.305087276278
 21
2265.560251978063
 31
0.0
  0
LINE
  5
7D11
330
81B8
100
AcDbEntity
  8
1
100
AcDbLine
 10
3303.80508727628
 20
2406.560251978064
 30
0.0
 11
3316.305087276281
 21
2406.560251978064
 31
0.0
  0
LINE
  5
7D18
330
81B8
100
AcDbEntity
  8
1
100
AcDbLine
 10
4269.305087276282
 20
1894.56025197806
 30
0.0
 11
4269.305087276282
 21
1994.56025197806
 31
0.0
  0
DIMENSION
  5
7D19
330
81B8
100
AcDbEntity
  8
3
100
AcDbDimension
  2
*D16
 10
825.1387041552657
 20
2534.560251978061
 30
0.0
 11
775.1387041552662
 21
2784.560251978061
 31
0.0
 12
872.5117110261454
 22
2025.966773756661
 32
0.0
 71
     5
 42
-1.0
  3
Standard
100
AcDbAlignedDimension
 13
1540.22368732464
 23
3034.560251978061
 33
0.0
 14
930.9578485192103
 24
2534.560251978061
 34
0.0
 50
270.0
100
AcDbRotatedDimension
1001
ACAD
1000
DSTYLE
1002
{
1070
    40
1040
25.0
1002
}
  0
LINE
  5
7D20
330
81B8
100
AcDbEntity
  8
1
100
AcDbLine
 10
2312.22368732464
 20
5320.999187184336
 30
0.0
 11
2312.22368732464
 21
4420.999187184334
 31
0.0
  0
LINE
  5
7D21
330
81B8
100
AcDbEntity
  8
1
100
AcDbLine
 10
1047.22368732464
 20
5320.999187184336
 30
0.0
 11
1047.22368732464
 21
4420.999187184334
 31
0.0
  0
LINE
  5
7D22
330
81B8
100
AcDbEntity
  8
1
100
AcDbLine
 10
1582.22368732464
 20
5320.999187184336
 30
0.0
 11
1582.22368732464
 21
4420.999187184334
 31
0.0
  0
LINE
  5
7D23
330
81B8
100
AcDbEntity
  8
1
100
AcDbLine
 10
1582.22368732464
 20
5320.999187184336
 30
0.0
 11
2312.22368732464
 21
4420.999187184334
 31
0.0
  0
LINE
  5
7D24
330
81B8
100
AcDbEntity
  8
1
100
AcDbLine
 10
2312.22368732464
 20
5320.999187184336
 30
0.0
 11
1582.22368732464
 21
4420.999187184334
 31
0.0
  0
LINE
  5
7D25
330
81B8
100
AcDbEntity
  8
1
100
AcDbLine
 10
1103.22368732464
 20
4420.999187184334
 30
0.0
 11
1103.22368732464
 21
4218.999187184336
 31
0.0
  0
LINE
  5
7D26
330
81B8
100
AcDbEntity
  8
1
100
AcDbLine
 10
3276.305087276282
 20
3031.56025197806
 30
0.0
 11
4256.305087276281
 21
3031.56025197806
 31
0.0
  0
LINE
  5
7D27
330
81B8
100
AcDbEntity
  8
1
100
AcDbLine
 10
3276.305087276282
 20
3031.56025197806
 30
0.0
 11
3276.305087276282
 21
3034.560251978061
 31
0.0
  0
LINE
  5
7D28
330
81B8
100
AcDbEntity
  8
1
100
AcDbLine
 10
4256.305087276281
 20
3031.56025197806
 30
0.0
 11
4256.305087276281
 21
3034.560251978061
 31
0.0
  0
LINE
  5
7D29
330
81B8
100
AcDbEntity
  8
1
100
AcDbLine
 10
3665.305087276277
 20
2082.560251978063
 30
0.0
 11
3665.305087276277
 21
2406.560251978064
 31
0.0
  0
LINE
  5
7D2A
330
81B8
100
AcDbEntity
  8
1
100
AcDbLine
 10
3316.305087276282
 20
2406.560251978064
 30
0.0
 11
3316.305087276282
 21
2534.560251978061
 31
0.0
  0
LINE
  5
7D2B
330
81B8
100
AcDbEntity
  8
1
100
AcDbLine
 10
3596.310149353246
 20
2082.560251978063
 30
0.0
 11
3596.310149353246
 21
1994.56025197806
 31
0.0
  0
LINE
  5
7D2C
330
81B8
100
AcDbEntity
  8
1
100
AcDbLine
 10
3235.530131645973
 20
2082.560251978063
 30
0.0
 11
3235.530131645973
 21
1994.56025197806
 31
0.0
  0
LINE
  5
7D2D
330
81B8
100
AcDbEntity
  8
1
100
AcDbLine
 10
3235.530131645973
 20
2034.56025197806
 30
0.0
 11
3596.310149353246
 21
2034.56025197806
 31
0.0
  0
LINE
  5
7F58
330
81B8
100
AcDbEntity
  8
4
100
AcDbLine
 10
4625.0
 20
1250.0
 30
0.0
 11
4625.0
 21
750.0
 31
0.0
  0
LINE
  5
7F59
330
81B8
100
AcDbEntity
  8
4
100
AcDbLine
 10
2875.0
 20
1250.0
 30
0.0
 11
2875.0
 21
750.0
 31
0.0
  0
LINE
  5
7F5A
330
81B8
100
AcDbEntity
  8
4
100
AcDbLine
 10
1625.0
 20
1250.0
 30
0.0
 11
1625.0
 21
750.0
 31
0.0
  0
LINE
  5
7F5D
330
81B8
100
AcDbEntity
  8
4
100
AcDbLine
 10
1625.0
 20
750.0
 30
0.0
 11
4625.0
 21
750.0
 31
0.0
  0
LINE
  5
7F5E
330
81B8
100
AcDbEntity
  8
4
100
AcDbLine
 10
1625.0
 20
1000.0
 30
0.0
 11
4625.0
 21
1000.0
 31
0.0
  0
TEXT
  5
7F5F
330
81B8
100
AcDbEntity
  8
4
100
AcDbText
 10
1721.255202117253
 20
1078.857564666532
 30
0.0
 40
125.0
  1
機器名称
100
AcDbText
  0
TEXT
  5
7F60
330
81B8
100
AcDbEntity
  8
4
100
AcDbText
 10
1715.645265061993
 20
804.1128918300273
 30
0.0
 40
125.0
  1
機器型番
100
AcDbText
  0
TEXT
  5
7F61
330
81B8
100
AcDbEntity
  8
4
100
AcDbText
 10
2944.196863719162
 20
1056.429422393921
 30
0.0
 40
125.0
  1
ミツヤ多翼送風機
100
AcDbText
  0
TEXT
  5
7F62
330
81B8
100
AcDbEntity
  8
4
100
AcDbText
 10
2966.636238963701
 20
792.8989606998584
 30
0.0
 40
125.0
  1
MF#4 1/2-5
100
AcDbText
  0
TEXT
  5
7F64
330
81B8
100
AcDbEntity
  8
4
100
AcDbText
 10
2011.143643803508
 20
5958.572103331289
 30
0.0
 40
135.0
  1
床置防振ベット
100
AcDbText
  0
TEXT
  5
7F65
330
81B8
100
AcDbEntity
  8
4
100
AcDbText
 10
790.4189833236158
 20
6334.702440498245
 30
0.0
 40
180.0
  1
遠心式両吸込両持多翼ファン
100
AcDbText
  0
LINE
  5
7F66
330
81B8
100
AcDbEntity
  8
4
100
AcDbLine
 10
625.0
 20
6173.521885662012
 30
0.0
 11
4625.0
 21
6173.521885662012
 31
0.0
  0
LINE
  5
7F67
330
81B8
100
AcDbEntity
  8
4
100
AcDbLine
 10
625.0
 20
6673.521885662011
 30
0.0
 11
4625.0
 21
6673.521885662011
 31
0.0
  0
LINE
  5
7F68
330
81B8
100
AcDbEntity
  8
4
100
AcDbLine
 10
1625.0
 20
1250.0
 30
0.0
 11
4625.0
 21
1250.0
 31
0.0
  0
LINE
  5
7F69
330
81B8
100
AcDbEntity
  8
4
100
AcDbLine
 10
625.0
 20
6673.521885662011
 30
0.0
 11
625.0
 21
6173.521885662012
 31
0.0
  0
TEXT
  5
7F6A
330
81B8
100
AcDbEntity
  8
4
100
AcDbText
 10
921.4965631967531
 20
5955.798693865858
 30
0.0
 40
135.0
  1
左回転上向
100
AcDbText
  0
TEXT
  5
7F6B
330
81B8
100
AcDbEntity
  8
4
100
AcDbText
 10
3672.423898123224
 20
6765.15270373827
 30
0.0
 40
140.0
  1
No.
100
AcDbText
  0
TEXT
  5
7F6C
330
81B8
100
AcDbEntity
  8
4
100
AcDbText
 10
3278.240156500032
 20
5958.572103331289
 30
0.0
 40
135.0
  1
縮尺：1/25
100
AcDbText
  0
LINE
  5
7F6D
330
81B8
100
AcDbEntity
  8
4
100
AcDbLine
 10
4625.0
 20
6673.521885662011
 30
0.0
 11
4625.0
 21
6173.521885662012
 31
0.0
  0
LINE
  5
7F6E
330
81B8
100
AcDbEntity
  8
4
100
AcDbLine
 10
5250.0
 20
7375.0
 30
0.0
 11
5250.0
 21
7375.0
 31
0.0
  0
LINE
  5
7F6F
330
81B8
100
AcDbEntity
  8
4
100
AcDbLine
 10
3601.543555899662
 20
6703.158957813504
 30
0.0
 11
3601.543555899662
 21
6966.630653874381
 31
0.0
  0
LINE
  5
7F70
330
81B8
100
AcDbEntity
  8
4
100
AcDbLine
 10
3601.543555899662
 20
6966.630653874381
 30
0.0
 11
4625.0
 21
6966.630653874381
 31
0.0
  0
LINE
  5
7F71
330
81B8
100
AcDbEntity
  8
4
100
AcDbLine
 10
4625.0
 20
6966.630653874381
 30
0.0
 11
4625.0
 21
6703.158957813504
 31
0.0
  0
LINE
  5
7F72
330
81B8
100
AcDbEntity
  8
4
100
AcDbLine
 10
4625.0
 20
6703.158957813504
 30
0.0
 11
3601.543555899662
 21
6703.158957813504
 31
0.0
  0
LINE
  5
7F73
330
81B8
100
AcDbEntity
  8
4
100
AcDbLine
 10
0.0
 20
0.0
 30
0.0
 11
0.0
 21
7375.0
 31
0.0
  0
LINE
  5
7F74
330
81B8
100
AcDbEntity
  8
4
100
AcDbLine
 10
0.0
 20
7375.0
 30
0.0
 11
5250.0
 21
7375.0
 31
0.0
  0
LINE
  5
7F75
330
81B8
100
AcDbEntity
  8
4
100
AcDbLine
 10
5250.0
 20
7375.0
 30
0.0
 11
5250.0
 21
0.0
 31
0.0
  0
LINE
  5
7F76
330
81B8
100
AcDbEntity
  8
4
100
AcDbLine
 10
5250.0
 20
0.0
 30
0.0
 11
0.0
 21
0.0
 31
0.0
  0
LINE
  5
8221
330
81B8
100
AcDbEntity
  8
1
100
AcDbLine
 10
2311.86517770146
 20
3031.56025197806
 30
0.0
 11
2248.897833680489
 21
2504.651014822119
 31
0.0
  0
ARC
  5
8222
330
81B8
100
AcDbEntity
  8
1
100
AcDbCircle
 10
1606.22368732464
 20
2587.560251978063
 30
0.0
 40
648.0
100
AcDbArc
 50
293.7767343658895
 51
352.6490639824706
  0
ARC
  5
8223
330
81B8
100
AcDbEntity
  8
1
100
AcDbCircle
 10
1606.22368732464
 20
2481.560251978062
 30
0.0
 40
541.9999999999998
100
AcDbArc
 50
174.3883085668942
 51
243.9647248681592
  0
ARC
  5
8224
330
81B8
100
AcDbEntity
  8
1
100
AcDbCircle
 10
1512.223687324639
 20
2493.560251978062
 30
0.0
 40
448.0
100
AcDbArc
 50
90.0
 51
174.7490656834496
  0
ARC
  5
8225
330
81B8
100
AcDbEntity
  8
1
100
AcDbCircle
 10
1512.22368732464
 20
2575.560251978063
 30
0.0
 40
366.0
100
AcDbArc
 50
78.97385951871155
 51
90.0
  0
LINE
  5
8226
330
81B8
100
AcDbEntity
  8
1
100
AcDbLine
 10
1582.22368732464
 20
3034.560251978062
 30
0.0
 11
1582.22368732464
 21
2934.803901887146
 31
0.0
  0
LINE
  5
8227
330
81B8
100
AcDbEntity
  8
1
100
AcDbLine
 10
2354.22368732464
 20
3034.560251978061
 30
0.0
 11
1540.22368732464
 21
3034.560251978062
 31
0.0
  0
LINE
  5
8228
330
81B8
100
AcDbEntity
  8
1
100
AcDbLine
 10
2354.22368732464
 20
3034.560251978061
 30
0.0
 11
2354.22368732464
 21
3031.56025197806
 31
0.0
  0
LINE
  5
8229
330
81B8
100
AcDbEntity
  8
1
100
AcDbLine
 10
1540.22368732464
 20
3034.560251978062
 30
0.0
 11
1540.22368732464
 21
3031.56025197806
 31
0.0
  0
LINE
  5
822A
330
81B8
100
AcDbEntity
  8
1
100
AcDbLine
 10
2308.774455752036
 20
2994.560251978061
 30
0.0
 11
1582.22368732464
 21
2994.560251978061
 31
0.0
  0
LINE
  5
822B
330
81B8
100
AcDbEntity
  8
1
100
AcDbLine
 10
2354.22368732464
 20
3031.56025197806
 30
0.0
 11
1540.22368732464
 21
3031.56025197806
 31
0.0
  0
POINT
  5
822C
330
81B8
100
AcDbEntity
  8
1
100
AcDbPoint
 10
1553.22368732464
 20
2994.742824442512
 30
0.0
 50
270.0
  0
LINE
  5
822D
330
81B8
100
AcDbEntity
  8
1
100
AcDbLine
 10
1553.22368732464
 20
3038.042057610554
 30
0.0
 11
1553.22368732464
 21
3053.715363026869
 31
0.0
  0
CIRCLE
  5
822E
330
81B8
100
AcDbEntity
  8
1
100
AcDbCircle
 10
1553.22368732464
 20
2534.560251978061
 30
0.0
 40
375.0
  0
CIRCLE
  5
822F
330
81B8
100
AcDbEntity
  8
1
100
AcDbCircle
 10
1553.22368732464
 20
2534.560251978061
 30
0.0
 40
415.0
  0
DIMENSION
  5
8285
330
81B8
100
AcDbEntity
  8
3
100
AcDbDimension
  2
*D30
 10
3766.305087276282
 20
3467.514353745173
 30
0.0
 11
3346.305087276284
 21
3549.657210888031
 31
0.0
 70
    32
 71
     5
 42
839.9999999999973
  3
IGA
100
AcDbAlignedDimension
 13
2926.305087276285
 23
2814.560251978061
 33
0.0
 14
3766.305087276282
 24
3329.433962286385
 34
0.0
100
AcDbRotatedDimension
1001
ACAD
1000
DSTYLE
1002
{
1070
     3
1000
(<>)
1070
    40
1040
25.0
1070
    42
1040
1.0
1070
   143
1040
0.039
1070
   172
1070
     1
1070
   271
1070
     4
1070
   272
1070
     4
1070
   279
1070
     0
1070
   284
1070
     0
1070
   285
1070
     0
1070
   286
1070
     0
1070
   341
1005
81CC
1070
   343
1005
81CC
1070
   344
1005
81CC
1002
}
  0
DIMENSION
  5
8292
330
81B8
100
AcDbEntity
  8
3
100
AcDbDimension
  2
*D31
 10
4326.305087276281
 20
3467.514353745173
 30
0.0
 11
4046.305087276281
 21
3549.657210888031
 31
0.0
 70
    32
 71
     5
 42
559.9999999999995
  3
IGA
100
AcDbAlignedDimension
 13
3766.305087276282
 23
3329.433962286385
 33
0.0
 14
4326.305087276281
 24
2509.36025197806
 34
0.0
100
AcDbRotatedDimension
1001
ACAD
1000
DSTYLE
1002
{
1070
     3
1000
(<>)
1070
    40
1040
25.0
1070
    42
1040
1.0
1070
   143
1040
0.039
1070
   172
1070
     1
1070
   271
1070
     4
1070
   272
1070
     4
1070
   279
1070
     1
1070
   284
1070
     0
1070
   285
1070
     0
1070
   286
1070
     0
1070
   341
1005
81CC
1070
   343
1005
81CC
1070
   344
1005
81CC
1002
}
  0
DIMENSION
  5
831F
330
81B8
100
AcDbEntity
  8
3
100
AcDbDimension
  2
*D39
 10
2703.22368732464
 20
3858.183115712134
 30
0.0
 11
1903.22368732464
 21
3920.683115712134
 31
0.0
 70
    32
 71
     5
 42
1600.0
  3
IGA
100
AcDbAlignedDimension
 13
1103.22368732464
 23
4218.999187184333
 33
0.0
 14
2703.22368732464
 24
4218.999187184336
 34
0.0
100
AcDbRotatedDimension
1001
ACAD
1000
DSTYLE
1002
{
1070
    40
1040
25.0
1070
    42
1040
1.0
1070
   143
1040
0.039
1070
   172
1070
     1
1070
   271
1070
     4
1070
   272
1070
     4
1070
   279
1070
     0
1070
   284
1070
     0
1070
   285
1070
     0
1070
   286
1070
     0
1070
   341
1005
81CC
1070
   343
1005
81CC
1070
   344
1005
81CC
1002
}
  0
DIMENSION
  5
832C
330
81B8
100
AcDbEntity
  8
3
100
AcDbDimension
  2
*D40
 10
3766.305087276281
 20
1548.407471970546
 30
0.0
 11
3440.305087276282
 21
1610.907471970546
 31
0.0
 70
    32
 71
     5
 42
651.999999999999
  3
IGA
100
AcDbAlignedDimension
 13
3114.305087276282
 23
1714.56025197806
 33
0.0
 14
3766.305087276281
 24
1714.56025197806
 34
0.0
100
AcDbRotatedDimension
1001
ACAD
1000
DSTYLE
1002
{
1070
    40
1040
25.0
1070
    42
1040
1.0
1070
   143
1040
0.039
1070
   172
1070
     1
1070
   271
1070
     4
1070
   272
1070
     4
1070
   279
1070
     0
1070
   284
1070
     0
1070
   285
1070
     0
1070
   286
1070
     0
1070
   341
1005
81CC
1070
   343
1005
81CC
1070
   344
1005
81CC
1002
}
  0
DIMENSION
  5
8339
330
81B8
100
AcDbEntity
  8
3
100
AcDbDimension
  2
*D41
 10
4269.305087276282
 20
1548.407471970546
 30
0.0
 11
4017.805087276282
 21
1610.907471970546
 31
0.0
 70
    32
 71
     5
 42
503.0000000000004
  3
IGA
100
AcDbAlignedDimension
 13
3766.305087276281
 23
1714.56025197806
 33
0.0
 14
4269.305087276282
 24
1714.56025197806
 34
0.0
100
AcDbRotatedDimension
1001
ACAD
1000
DSTYLE
1002
{
1070
    40
1040
25.0
1070
    42
1040
1.0
1070
   143
1040
0.039
1070
   172
1070
     1
1070
   271
1070
     4
1070
   272
1070
     4
1070
   279
1070
     1
1070
   284
1070
     0
1070
   285
1070
     0
1070
   286
1070
     0
1070
   341
1005
81CC
1070
   343
1005
81CC
1070
   344
1005
81CC
1002
}
  0
DIMENSION
  5
8346
330
81B8
100
AcDbEntity
  8
3
100
AcDbDimension
  2
*D42
 10
1553.22368732464
 20
1537.841425894287
 30
0.0
 11
1328.22368732464
 21
1600.341425894287
 31
0.0
 70
    32
 71
     5
 42
450.0
  3
IGA
100
AcDbAlignedDimension
 13
1103.22368732464
 23
1714.56025197806
 33
0.0
 14
1553.22368732464
 24
1714.56025197806
 34
0.0
100
AcDbRotatedDimension
1001
ACAD
1000
DSTYLE
1002
{
1070
    40
1040
25.0
1070
    42
1040
1.0
1070
   143
1040
0.039
1070
   172
1070
     1
1070
   271
1070
     4
1070
   272
1070
     4
1070
   279
1070
     0
1070
   284
1070
     0
1070
   285
1070
     0
1070
   286
1070
     0
1070
   341
1005
81CC
1070
   343
1005
81CC
1070
   344
1005
81CC
1002
}
  0
DIMENSION
  5
8353
330
81B8
100
AcDbEntity
  8
3
100
AcDbDimension
  2
*D43
 10
2703.22368732464
 20
1537.841425894287
 30
0.0
 11
2128.22368732464
 21
1600.341425894287
 31
0.0
 70
    32
 71
     5
 42
1150.0
  3
IGA
100
AcDbAlignedDimension
 13
1553.22368732464
 23
1714.56025197806
 33
0.0
 14
2703.22368732464
 24
1714.56025197806
 34
0.0
100
AcDbRotatedDimension
1001
ACAD
1000
DSTYLE
1002
{
1070
    40
1040
25.0
1070
    42
1040
1.0
1070
   143
1040
0.039
1070
   172
1070
     1
1070
   271
1070
     4
1070
   272
1070
     4
1070
   279
1070
     1
1070
   284
1070
     0
1070
   285
1070
     0
1070
   286
1070
     0
1070
   341
1005
81CC
1070
   343
1005
81CC
1070
   344
1005
81CC
1002
}
  0
DIMENSION
  5
8367
330
81B8
100
AcDbEntity
  8
3
100
AcDbDimension
  2
*D45
 10
1064.22368732464
 20
3336.376409230951
 30
0.0
 11
1308.72368732464
 21
3398.876409230951
 31
0.0
 70
    32
 71
     5
 42
489.0
  3
IGA
100
AcDbAlignedDimension
 13
1553.22368732464
 23
3160.450678047153
 33
0.0
 14
1064.22368732464
 24
2481.560251978062
 34
0.0
100
AcDbRotatedDimension
1001
ACAD
1000
DSTYLE
1002
{
1070
    40
1040
25.0
1070
    42
1040
1.0
1070
   143
1040
0.039
1070
   172
1070
     1
1070
   271
1070
     4
1070
   272
1070
     4
1070
   279
1070
     0
1070
   284
1070
     0
1070
   285
1070
     0
1070
   286
1070
     0
1070
   341
1005
81CC
1070
   343
1005
81CC
1070
   344
1005
81CC
1002
}
  0
DIMENSION
  5
837D
330
81B8
100
AcDbEntity
  8
3
100
AcDbDimension
  2
*D46
 10
1064.22368732464
 20
3487.257678958446
 30
0.0
 11
1883.723687324639
 21
3549.757678958446
 31
0.0
 70
    32
 71
     5
 42
1639.0
  3
IGA
100
AcDbAlignedDimension
 13
2703.22368732464
 23
1994.56025197806
 33
0.0
 14
1064.22368732464
 24
2481.560251978062
 34
0.0
100
AcDbRotatedDimension
1001
ACAD
1000
DSTYLE
1002
{
1070
    40
1040
25.0
1070
    42
1040
1.0
1070
   143
1040
0.039
1070
   172
1070
     1
1070
   271
1070
     4
1070
   272
1070
     4
1070
   279
1070
     0
1070
   284
1070
     0
1070
   285
1070
     0
1070
   286
1070
     0
1070
   341
1005
81CC
1070
   343
1005
81CC
1070
   344
1005
81CC
1002
}
  0
DIMENSION
  5
838A
330
81B8
100
AcDbEntity
  8
3
100
AcDbDimension
  2
*D47
 10
537.4211211775111
 20
3034.560251978063
 30
0.0
 11
455.2782640346534
 21
2374.560251978062
 31
0.0
 70
    32
  1
(<>)
 71
     5
 42
1320.000000000002
  3
IGA
100
AcDbAlignedDimension
 13
1103.22368732464
 23
1714.56025197806
 33
0.0
 14
1540.22368732464
 24
3034.560251978062
 34
0.0
 50
90.0
100
AcDbRotatedDimension
1001
ACAD
1000
DSTYLE
1002
{
1070
    40
1040
25.0
1070
    42
1040
1.0
1070
   143
1040
0.039
1070
   172
1070
     1
1070
   271
1070
     4
1070
   272
1070
     4
1070
   279
1070
     0
1070
   284
1070
     0
1070
   285
1070
     0
1070
   286
1070
     0
1070
   341
1005
81CC
1070
   343
1005
81CC
1070
   344
1005
81CC
1002
}
  0
DIMENSION
  5
83DC
330
81B8
100
AcDbEntity
  8
3
100
AcDbDimension
  2
*D48
 10
825.1387041552661
 20
1894.56025197806
 30
0.0
 11
762.6387041552657
 21
2214.560251978061
 31
0.0
 70
    32
 71
     5
 42
640.0
  3
IGA
100
AcDbAlignedDimension
 13
930.9578485192103
 23
2534.560251978061
 33
0.0
 14
1103.22368732464
 24
1894.56025197806
 34
0.0
 50
90.0
100
AcDbRotatedDimension
1001
ACAD
1000
DSTYLE
1002
{
1070
    40
1040
25.0
1070
    42
1040
1.0
1070
   143
1040
0.039
1070
   172
1070
     1
1070
   271
1070
     4
1070
   272
1070
     4
1070
   279
1070
     0
1070
   284
1070
     0
1070
   285
1070
     0
1070
   286
1070
     0
1070
   341
1005
81CC
1070
   343
1005
81CC
1070
   344
1005
81CC
1002
}
  0
DIMENSION
  5
83E9
330
81B8
100
AcDbEntity
  8
3
100
AcDbDimension
  2
*D49
 10
825.1387041552661
 20
1814.56025197806
 30
0.0
 11
623.3529898695515
 21
1915.453109120917
 31
0.0
 70
    32
  1
(<>)
 71
     5
 42
80.0
  3
IGA
100
AcDbAlignedDimension
 13
1103.22368732464
 23
1894.56025197806
 33
0.0
 14
1103.22368732464
 24
1814.56025197806
 34
0.0
 50
90.0
100
AcDbRotatedDimension
1001
ACAD
1000
DSTYLE
1002
{
1070
    40
1040
25.0
1070
    42
1040
1.0
1070
   143
1040
0.039
1070
   172
1070
     1
1070
   271
1070
     4
1070
   272
1070
     4
1070
   279
1070
     1
1070
   284
1070
     0
1070
   285
1070
     0
1070
   286
1070
     0
1070
   341
1005
81CC
1070
   343
1005
81CC
1070
   344
1005
8493
1002
}
  0
DIMENSION
  5
83FB
330
81B8
100
AcDbEntity
  8
3
100
AcDbDimension
  2
*D50
 10
825.1387041552661
 20
1714.56025197806
 30
0.0
 11
838.2357588328014
 21
1607.665493632987
 31
0.0
 70
   160
 71
     5
 42
100.0000000000002
  3
IGA
100
AcDbAlignedDimension
 13
1103.22368732464
 23
1814.56025197806
 33
0.0
 14
1103.22368732464
 24
1714.56025197806
 34
0.0
 50
90.0
100
AcDbRotatedDimension
1001
ACAD
1000
DSTYLE
1002
{
1070
    40
1040
25.0
1070
    42
1040
1.0
1070
   143
1040
0.039
1070
   172
1070
     1
1070
   271
1070
     4
1070
   272
1070
     4
1070
   279
1070
     1
1070
   284
1070
     0
1070
   285
1070
     0
1070
   286
1070
     0
1070
   341
1005
81CC
1070
   343
1005
8493
1070
   344
1005
81CC
1002
}
  0
ENDSEC
  0
SECTION
  2
OBJECTS
  0
DICTIONARY
  5
8155
330
0
100
AcDbDictionary
281
     1
  3
ACAD_CIP_PREVIOUS_PRODUCT_INFO
350
8202
  3
ACAD_COLOR
350
81AB
  3
ACAD_DETAILVIEWSTYLE
350
81B2
  3
ACAD_GROUP
350
8156
  3
ACAD_LAYOUT
350
81AA
  3
ACAD_MATERIAL
350
8159
  3
ACAD_MLEADERSTYLE
350
81AE
  3
ACAD_MLINESTYLE
350
81A7
  3
ACAD_PLOTSETTINGS
350
81A9
  3
ACAD_PLOTSTYLENAME
350
8157
  3
ACAD_SCALELIST
350
818B
  3
ACAD_SECTIONVIEWSTYLE
350
81B0
  3
ACAD_TABLESTYLE
350
81AC
  3
ACAD_VISUALSTYLE
350
8172
  3
ACDB_RECOMPOSE_DATA
350
857B
  3
AcDbVariableDictionary
350
823A
  3
DWGPROPS
350
857C
  0
DICTIONARY
  5
8204
330
814B
100
AcDbDictionary
280
     1
281
     1
  3
ACAD_LAYERSTATES
360
8205
  0
DICTIONARY
  5
8230
330
819D
100
AcDbDictionary
280
     1
281
     1
  3
ADSK_XREC_LAYER_RECONCILED
360
8231
  0
DICTIONARY
  5
8232
330
81BC
100
AcDbDictionary
280
     1
281
     1
  3
ADSK_XREC_LAYER_RECONCILED
360
8233
  0
DICTIONARY
  5
8234
330
81BF
100
AcDbDictionary
280
     1
281
     1
  3
ADSK_XREC_LAYER_RECONCILED
360
8235
  0
DICTIONARY
  5
8236
330
81C0
100
AcDbDictionary
280
     1
281
     1
  3
ADSK_XREC_LAYER_RECONCILED
360
8237
  0
DICTIONARY
  5
8238
330
81C1
100
AcDbDictionary
280
     1
281
     1
  3
ADSK_XREC_LAYER_RECONCILED
360
8239
  0
XRECORD
  5
8202
102
{ACAD_REACTORS
330
8155
102
}
330
8155
100
AcDbXrecord
280
     1
300
ACDLT
300
2015
300
INVLTS_F_S
  0
DICTIONARY
  5
81AB
102
{ACAD_REACTORS
330
8155
102
}
330
8155
100
AcDbDictionary
281
     1
  0
DICTIONARY
  5
81B2
102
{ACAD_REACTORS
330
8155
102
}
330
8155
100
AcDbDictionary
281
     1
  3
Imperial24
350
81B3
  0
DICTIONARY
  5
8156
102
{ACAD_REACTORS
330
8155
102
}
330
8155
100
AcDbDictionary
281
     1
  0
DICTIONARY
  5
81AA
102
{ACAD_REACTORS
330
8155
102
}
330
8155
100
AcDbDictionary
281
     1
  3
Model
350
81BB
  3
レイアウト1
350
81B7
  0
DICTIONARY
  5
8159
102
{ACAD_REACTORS
330
8155
102
}
330
8155
100
AcDbDictionary
281
     1
  3
ByBlock
350
8162
  3
ByLayer
350
815A
  3
Global
350
816A
  0
DICTIONARY
  5
81AE
102
{ACAD_REACTORS
330
8155
102
}
330
8155
100
AcDbDictionary
281
     1
  3
Standard
350
81AF
  0
DICTIONARY
  5
81A7
102
{ACAD_REACTORS
330
8155
102
}
330
8155
100
AcDbDictionary
281
     1
  3
Standard
350
81A8
  0
DICTIONARY
  5
81A9
102
{ACAD_REACTORS
330
8155
102
}
330
8155
100
AcDbDictionary
281
     1
  0
ACDBDICTIONARYWDFLT
  5
8157
102
{ACAD_REACTORS
330
8155
102
}
330
8155
100
AcDbDictionary
281
     1
  3
Normal
350
8158
100
AcDbDictionaryWithDefault
340
8158
  0
DICTIONARY
  5
818B
102
{ACAD_REACTORS
330
8155
102
}
330
8155
100
AcDbDictionary
281
     1
  3
A0
350
818C
  3
A1
350
818D
  3
A2
350
818E
  3
A3
350
818F
  3
A4
350
8190
  3
A5
350
8191
  3
A6
350
8192
  3
A7
350
8193
  3
A8
350
8194
  3
A9
350
8195
  3
B0
350
8196
  3
B1
350
8197
  3
B2
350
8198
  3
B3
350
8199
  3
B4
350
819A
  3
B5
350
819B
  3
B6
350
819C
  0
DICTIONARY
  5
81B0
102
{ACAD_REACTORS
330
8155
102
}
330
8155
100
AcDbDictionary
281
     1
  3
Imperial24
350
81B1
  0
DICTIONARY
  5
81AC
102
{ACAD_REACTORS
330
8155
102
}
330
8155
100
AcDbDictionary
281
     1
  3
Standard
350
81AD
  0
DICTIONARY
  5
8172
102
{ACAD_REACTORS
330
8155
102
}
330
8155
100
AcDbDictionary
281
     1
  3
2dWireframe
350
8178
  3
Basic
350
8177
  3
Brighten
350
817E
  3
ColorChange
350
8182
  3
Conceptual
350
817B
  3
Dim
350
817D
  3
EdgeColorOff
350
818A
  3
Facepattern
350
8181
  3
Flat
350
8173
  3
FlatWithEdges
350
8174
  3
Gouraud
350
8175
  3
GouraudWithEdges
350
8176
  3
Hidden
350
817A
  3
JitterOff
350
8188
  3
Linepattern
350
8180
  3
OverhangOff
350
8189
  3
Realistic
350
817C
  3
Shaded
350
8187
  3
Shaded with edges
350
8186
  3
Shades of Gray
350
8183
  3
Sketchy
350
8184
  3
Thicken
350
817F
  3
Wireframe
350
8179
  3
X-Ray
350
8185
  0
XRECORD
  5
857B
102
{ACAD_REACTORS
330
8155
102
}
330
8155
100
AcDbXrecord
280
     1
 90
        1
330
81AD
  0
DICTIONARY
  5
823A
102
{ACAD_REACTORS
330
8155
102
}
330
8155
100
AcDbDictionary
281
     1
  3
CANNOSCALE
350
823F
  3
CMLEADERSTYLE
350
823C
  3
CTABLESTYLE
350
823B
  3
CVIEWDETAILSTYLE
350
823D
  3
CVIEWSECTIONSTYLE
350
823E
  3
DIMASSOC
350
8242
  3
INDEXCTL
350
8241
  3
SORTENTS
350
8240
  3
XCLIPFRAME
350
8243
  0
XRECORD
  5
857C
102
{ACAD_REACTORS
330
8155
102
}
330
8155
100
AcDbXrecord
280
     1
  1
DWGPROPS COOKIE
  2

  3

  4

  6

  7

  8
yasukiyo.ogawa
  9

300
=
301
=
302
=
303
=
304
=
305
=
306
=
307
=
308
=
309
=
 40
0.0451696990740741
 41
2451387.612503704
 42
2460263.707066458
  1

 90
        0
  0
DICTIONARY
  5
8205
102
{ACAD_REACTORS
330
8204
102
}
330
8204
100
AcDbDictionary
281
     1
  0
XRECORD
  5
8231
102
{ACAD_REACTORS
330
8230
102
}
330
8230
100
AcDbXrecord
280
     1
290
     1
  0
XRECORD
  5
8233
102
{ACAD_REACTORS
330
8232
102
}
330
8232
100
AcDbXrecord
280
     1
290
     1
  0
XRECORD
  5
8235
102
{ACAD_REACTORS
330
8234
102
}
330
8234
100
AcDbXrecord
280
     1
290
     1
  0
XRECORD
  5
8237
102
{ACAD_REACTORS
330
8236
102
}
330
8236
100
AcDbXrecord
280
     1
290
     1
  0
XRECORD
  5
8239
102
{ACAD_REACTORS
330
8238
102
}
330
8238
100
AcDbXrecord
280
     1
290
     1
  0
ACDBDETAILVIEWSTYLE
  5
81B3
102
{ACAD_XDICTIONARY
360
85B4
102
}
102
{ACAD_REACTORS
330
81B2
102
}
330
81B2
100
AcDbModelDocViewStyle
 70
     0
  3
Imperial24
290
     0
100
AcDbDetailViewStyle
 70
     0
 71
     0
 90
        3
 71
     1
340
819E
 40
0.24
340
0
 40
0.24
300

 40
0.36
280
     3
 71
     2
340
81A5
 90
       25
 71
     3
340
819E
 40
0.24
 90
        1
 40
0.75
 90
        1
300
%<\AcVar ViewType \f "%tc1">% %<\AcVar ViewDetailId>%\PSCALE %<\AcVar ViewScale \f "%sn">%
 71
     4
340
81A5
 90
       25
340
81A5
 90
       25
280
     0
  0
LAYOUT
  5
81BB
102
{ACAD_XDICTIONARY
360
85B8
102
}
102
{ACAD_REACTORS
330
81AA
102
}
330
81AA
100
AcDbPlotSettings
  1

  2
RICOH imagio MP W3600 RPCS
  4

  6

 40
0.0
 41
0.0
 42
0.0
 43
0.0
 44
0.0
 45
0.0
 46
0.0
 47
0.0
 48
0.0
 49
0.0
140
0.0
141
0.0
142
1.0
143
1.0
 70
  1712
 72
     0
 73
     0
 74
     0
  7

 75
     0
147
1.0
148
0.0
149
0.0
100
AcDbLayout
  1
Model
 70
     1
 71
     0
 10
0.0
 20
0.0
 11
12.0
 21
9.0
 12
0.0
 22
0.0
 32
0.0
 14
0.0
 24
0.0
 34
0.0
 15
0.0
 25
0.0
 35
0.0
146
0.0
 13
0.0
 23
0.0
 33
0.0
 16
1.0
 26
0.0
 36
0.0
 17
0.0
 27
1.0
 37
0.0
 76
     0
330
81B8
331
81BD
  0
LAYOUT
  5
81B7
102
{ACAD_XDICTIONARY
360
85B6
102
}
102
{ACAD_REACTORS
330
81AA
102
}
330
81AA
100
AcDbPlotSettings
  1

  2
RICOH imagio MP W3600 RPCS
  4

  6

 40
0.0
 41
0.0
 42
0.0
 43
0.0
 44
0.0
 45
0.0
 46
0.0
 47
0.0
 48
0.0
 49
0.0
140
0.0
141
0.0
142
1.0
143
1.0
 70
   688
 72
     0
 73
     0
 74
     5
  7

 75
    16
147
1.0
148
0.0
149
0.0
100
AcDbLayout
  1
レイアウト1
 70
     1
 71
     1
 10
0.0
 20
0.0
 11
12.0
 21
9.0
 12
0.0
 22
0.0
 32
0.0
 14
1.000000000000000E+20
 24
1.000000000000000E+20
 34
1.000000000000000E+20
 15
-1.000000000000000E+20
 25
-1.000000000000000E+20
 35
-1.000000000000000E+20
146
0.0
 13
0.0
 23
0.0
 33
0.0
 16
1.0
 26
0.0
 36
0.0
 17
0.0
 27
1.0
 37
0.0
 76
     0
330
81B4
  0
MATERIAL
  5
8162
102
{ACAD_XDICTIONARY
360
8163
102
}
102
{ACAD_REACTORS
330
8159
102
}
330
8159
100
AcDbMaterial
  1
ByBlock
 72
     0
 43
0.0208333333333333
 43
0.0
 43
0.0
 43
0.0
 43
0.0
 43
0.0208333333333333
 43
0.0
 43
0.0
 43
0.0
 43
0.0
 43
1.0
 43
0.0
 43
0.0
 43
0.0
 43
0.0
 43
1.0
 77
     0
 47
0.0208333333333333
 47
0.0
 47
0.0
 47
0.0
 47
0.0
 47
0.0208333333333333
 47
0.0
 47
0.0
 47
0.0
 47
0.0
 47
1.0
 47
0.0
 47
0.0
 47
0.0
 47
0.0
 47
1.0
171
     0
 49
0.0208333333333333
 49
0.0
 49
0.0
 49
0.0
 49
0.0
 49
0.0208333333333333
 49
0.0
 49
0.0
 49
0.0
 49
0.0
 49
1.0
 49
0.0
 49
0.0
 49
0.0
 49
0.0
 49
1.0
175
     0
142
0.0208333333333333
142
0.0
142
0.0
142
0.0
142
0.0
142
0.0208333333333333
142
0.0
142
0.0
142
0.0
142
0.0
142
1.0
142
0.0
142
0.0
142
0.0
142
0.0
142
1.0
179
     0
144
0.0208333333333333
144
0.0
144
0.0
144
0.0
144
0.0
144
0.0208333333333333
144
0.0
144
0.0
144
0.0
144
0.0
144
1.0
144
0.0
144
0.0
144
0.0
144
0.0
144
1.0
147
0.0208333333333333
147
0.0
147
0.0
147
0.0
147
0.0
147
0.0208333333333333
147
0.0
147
0.0
147
0.0
147
0.0
147
1.0
147
0.0
147
0.0
147
0.0
147
0.0
147
1.0
  0
MATERIAL
  5
815A
102
{ACAD_XDICTIONARY
360
815B
102
}
102
{ACAD_REACTORS
330
8159
102
}
330
8159
100
AcDbMaterial
  1
ByLayer
 72
     0
 43
0.0208333333333333
 43
0.0
 43
0.0
 43
0.0
 43
0.0
 43
0.0208333333333333
 43
0.0
 43
0.0
 43
0.0
 43
0.0
 43
1.0
 43
0.0
 43
0.0
 43
0.0
 43
0.0
 43
1.0
 77
     0
 47
0.0208333333333333
 47
0.0
 47
0.0
 47
0.0
 47
0.0
 47
0.0208333333333333
 47
0.0
 47
0.0
 47
0.0
 47
0.0
 47
1.0
 47
0.0
 47
0.0
 47
0.0
 47
0.0
 47
1.0
171
     0
 49
0.0208333333333333
 49
0.0
 49
0.0
 49
0.0
 49
0.0
 49
0.0208333333333333
 49
0.0
 49
0.0
 49
0.0
 49
0.0
 49
1.0
 49
0.0
 49
0.0
 49
0.0
 49
0.0
 49
1.0
175
     0
142
0.0208333333333333
142
0.0
142
0.0
142
0.0
142
0.0
142
0.0208333333333333
142
0.0
142
0.0
142
0.0
142
0.0
142
1.0
142
0.0
142
0.0
142
0.0
142
0.0
142
1.0
179
     0
144
0.0208333333333333
144
0.0
144
0.0
144
0.0
144
0.0
144
0.0208333333333333
144
0.0
144
0.0
144
0.0
144
0.0
144
1.0
144
0.0
144
0.0
144
0.0
144
0.0
144
1.0
147
0.0208333333333333
147
0.0
147
0.0
147
0.0
147
0.0
147
0.0208333333333333
147
0.0
147
0.0
147
0.0
147
0.0
147
1.0
147
0.0
147
0.0
147
0.0
147
0.0
147
1.0
  0
MATERIAL
  5
816A
102
{ACAD_XDICTIONARY
360
816B
102
}
102
{ACAD_REACTORS
330
8159
102
}
330
8159
100
AcDbMaterial
  1
Global
 72
     0
 43
0.0208333333333333
 43
0.0
 43
0.0
 43
0.0
 43
0.0
 43
0.0208333333333333
 43
0.0
 43
0.0
 43
0.0
 43
0.0
 43
1.0
 43
0.0
 43
0.0
 43
0.0
 43
0.0
 43
1.0
 77
     0
 47
0.0208333333333333
 47
0.0
 47
0.0
 47
0.0
 47
0.0
 47
0.0208333333333333
 47
0.0
 47
0.0
 47
0.0
 47
0.0
 47
1.0
 47
0.0
 47
0.0
 47
0.0
 47
0.0
 47
1.0
171
     0
 49
0.0208333333333333
 49
0.0
 49
0.0
 49
0.0
 49
0.0
 49
0.0208333333333333
 49
0.0
 49
0.0
 49
0.0
 49
0.0
 49
1.0
 49
0.0
 49
0.0
 49
0.0
 49
0.0
 49
1.0
175
     0
142
0.0208333333333333
142
0.0
142
0.0
142
0.0
142
0.0
142
0.0208333333333333
142
0.0
142
0.0
142
0.0
142
0.0
142
1.0
142
0.0
142
0.0
142
0.0
142
0.0
142
1.0
179
     0
144
0.0208333333333333
144
0.0
144
0.0
144
0.0
144
0.0
144
0.0208333333333333
144
0.0
144
0.0
144
0.0
144
0.0
144
1.0
144
0.0
144
0.0
144
0.0
144
0.0
144
1.0
147
0.0208333333333333
147
0.0
147
0.0
147
0.0
147
0.0
147
0.0208333333333333
147
0.0
147
0.0
147
0.0
147
0.0
147
1.0
147
0.0
147
0.0
147
0.0
147
0.0
147
1.0
  0
MLEADERSTYLE
  5
81AF
102
{ACAD_REACTORS
330
81AE
102
}
330
81AE
100
AcDbMLeaderStyle
170
     2
171
     1
172
     0
 90
        2
 40
0.0
 41
0.0
173
     1
 91
-1056964608
340
81A3
 92
       -2
290
     1
 42
0.09
291
     1
 43
0.36
  3
Standard
 44
0.18
300

342
819E
174
     1
178
     6
175
     1
176
     0
 93
-1056964608
 45
0.18
292
     0
297
     0
 46
0.18
 94
-1056964608
 47
1.0
 49
1.0
140
1.0
293
     1
141
0.0
294
     1
177
     0
142
1.0
295
     0
296
     0
143
0.125
1001
ACAD_MLEADERVER
1070
     2
  0
MLINESTYLE
  5
81A8
102
{ACAD_REACTORS
330
81A7
102
}
330
81A7
100
AcDbMlineStyle
  2
STANDARD
 70
     0
  3

 62
   256
 51
90.0
 52
90.0
 71
     2
 49
0.5
 62
   256
  6
BYLAYER
 49
-0.5
 62
   256
  6
BYLAYER
  0
ACDBPLACEHOLDER
  5
8158
102
{ACAD_REACTORS
330
8157
102
}
330
8157
  0
SCALE
  5
818C
102
{ACAD_REACTORS
330
818B
102
}
330
818B
100
AcDbScale
 70
     0
300
1:1
140
1.0
141
1.0
290
     1
  0
SCALE
  5
818D
102
{ACAD_REACTORS
330
818B
102
}
330
818B
100
AcDbScale
 70
     0
300
1/128" = 1'-0"
140
0.0078125
141
12.0
290
     0
  0
SCALE
  5
818E
102
{ACAD_REACTORS
330
818B
102
}
330
818B
100
AcDbScale
 70
     0
300
1/64" = 1'-0"
140
0.015625
141
12.0
290
     0
  0
SCALE
  5
818F
102
{ACAD_REACTORS
330
818B
102
}
330
818B
100
AcDbScale
 70
     0
300
1/32" = 1'-0"
140
0.03125
141
12.0
290
     0
  0
SCALE
  5
8190
102
{ACAD_REACTORS
330
818B
102
}
330
818B
100
AcDbScale
 70
     0
300
1/16" = 1'-0"
140
0.0625
141
12.0
290
     0
  0
SCALE
  5
8191
102
{ACAD_REACTORS
330
818B
102
}
330
818B
100
AcDbScale
 70
     0
300
3/32" = 1'-0"
140
0.09375
141
12.0
290
     0
  0
SCALE
  5
8192
102
{ACAD_REACTORS
330
818B
102
}
330
818B
100
AcDbScale
 70
     0
300
1/8" = 1'-0"
140
0.125
141
12.0
290
     0
  0
SCALE
  5
8193
102
{ACAD_REACTORS
330
818B
102
}
330
818B
100
AcDbScale
 70
     0
300
3/16" = 1'-0"
140
0.1875
141
12.0
290
     0
  0
SCALE
  5
8194
102
{ACAD_REACTORS
330
818B
102
}
330
818B
100
AcDbScale
 70
     0
300
1/4" = 1'-0"
140
0.25
141
12.0
290
     0
  0
SCALE
  5
8195
102
{ACAD_REACTORS
330
818B
102
}
330
818B
100
AcDbScale
 70
     0
300
3/8" = 1'-0"
140
0.375
141
12.0
290
     0
  0
SCALE
  5
8196
102
{ACAD_REACTORS
330
818B
102
}
330
818B
100
AcDbScale
 70
     0
300
1/2" = 1'-0"
140
0.5
141
12.0
290
     0
  0
SCALE
  5
8197
102
{ACAD_REACTORS
330
818B
102
}
330
818B
100
AcDbScale
 70
     0
300
3/4" = 1'-0"
140
0.75
141
12.0
290
     0
  0
SCALE
  5
8198
102
{ACAD_REACTORS
330
818B
102
}
330
818B
100
AcDbScale
 70
     0
300
1" = 1'-0"
140
1.0
141
12.0
290
     0
  0
SCALE
  5
8199
102
{ACAD_REACTORS
330
818B
102
}
330
818B
100
AcDbScale
 70
     0
300
1-1/2" = 1'-0"
140
1.5
141
12.0
290
     0
  0
SCALE
  5
819A
102
{ACAD_REACTORS
330
818B
102
}
330
818B
100
AcDbScale
 70
     0
300
3" = 1'-0"
140
3.0
141
12.0
290
     0
  0
SCALE
  5
819B
102
{ACAD_REACTORS
330
818B
102
}
330
818B
100
AcDbScale
 70
     0
300
6" = 1'-0"
140
6.0
141
12.0
290
     0
  0
SCALE
  5
819C
102
{ACAD_REACTORS
330
818B
102
}
330
818B
100
AcDbScale
 70
     0
300
1'-0" = 1'-0"
140
12.0
141
12.0
290
     0
  0
ACDBSECTIONVIEWSTYLE
  5
81B1
102
{ACAD_XDICTIONARY
360
85B2
102
}
102
{ACAD_REACTORS
330
81B0
102
}
330
81B0
100
AcDbModelDocViewStyle
 70
     0
  3
Imperial24
290
     0
100
AcDbSectionViewStyle
 70
     0
 71
     0
 90
       78
 71
     1
340
819E
 40
0.24
340
0
340
0
 40
0.24
300
I, O, Q, S, X, Z
 40
0.48
 90
        3
 40
0.18
 90
        1
 71
     2
340
81A5
 90
       25
340
81A5
 90
       50
 40
0.24
 40
0.0
 40
0.24
 71
     3
340
819E
 40
0.24
 90
        1
 40
0.75
 90
        1
300
%<\AcVar ViewType \f "%tc1">% %<\AcVar ViewSectionStartId>%-%<\AcVar ViewSectionEndId>%\PSCALE %<\AcVar ViewScale \f "%sn">%
 71
     4
300
ANSI31
 40
1.0
 90
        0
290
     0
290
     0
 90
        6
 40
0.0
 40
1.570796326794896
 40
0.2617993877991494
 40
1.308996938995747
 40
-0.2617993877991494
 40
1.832595714594046
  0
TABLESTYLE
  5
81AD
102
{ACAD_XDICTIONARY
360
8579
102
}
102
{ACAD_REACTORS
330
81AC
102
}
330
81AC
100
AcDbTableStyle
  3
Standard
 70
     0
 71
     0
 40
0.06
 41
0.06
280
     0
281
     0
  7
STANDARD
140
0.18
170
     2
 62
     0
 63
     7
283
     0
274
    -2
284
     1
 64
     0
275
    -2
285
     1
 65
     0
276
    -2
286
     1
 66
     0
277
    -2
287
     1
 67
     0
278
    -2
288
     1
 68
     0
279
    -2
289
     1
 69
     0
  7
STANDARD
140
0.25
170
     5
 62
     0
 63
     7
283
     0
274
    -2
284
     1
 64
     0
275
    -2
285
     1
 65
     0
276
    -2
286
     1
 66
     0
277
    -2
287
     1
 67
     0
278
    -2
288
     1
 68
     0
279
    -2
289
     1
 69
     0
  7
STANDARD
140
0.18
170
     5
 62
     0
 63
     7
283
     0
274
    -2
284
     1
 64
     0
275
    -2
285
     1
 65
     0
276
    -2
286
     1
 66
     0
277
    -2
287
     1
 67
     0
278
    -2
288
     1
 68
     0
279
    -2
289
     1
 69
     0
  0
VISUALSTYLE
  5
8178
102
{ACAD_XDICTIONARY
360
858A
102
}
102
{ACAD_REACTORS
330
8172
102
}
330
8172
100
AcDbVisualStyle
  2
2dWireframe
 70
     4
 71
     0
 72
     2
 73
     0
 90
        0
 40
-0.6
 41
-30.0
 62
     5
 63
     7
 74
     1
 91
        4
 64
     7
 65
   257
 75
     1
175
     1
 42
1.0
 92
        0
 66
   257
 43
1.0
 76
     1
 77
     6
 78
     2
 67
     7
 79
     5
170
     0
171
     0
290
     0
174
     0
 93
        1
 44
0.0
173
     0
291
     0
 45
0.0
1001
ACAD
1000
AcDbSavedByObjectVersion
1070
     0
  0
VISUALSTYLE
  5
8177
102
{ACAD_XDICTIONARY
360
8588
102
}
102
{ACAD_REACTORS
330
8172
102
}
330
8172
100
AcDbVisualStyle
  2
Basic
 70
     7
 71
     1
 72
     0
 73
     1
 90
        0
 40
-0.6
 41
-30.0
 62
     5
 63
     7
 74
     0
 91
        4
 64
     7
 65
   257
 75
     1
175
     1
 42
1.0
 92
        8
 66
     7
 43
1.0
 76
     1
 77
     6
 78
     2
 67
     7
 79
     5
170
     0
171
     0
290
     0
174
     0
 93
        1
 44
0.0
173
     0
291
     1
 45
0.0
1001
ACAD
1000
AcDbSavedByObjectVersion
1070
     0
  0
VISUALSTYLE
  5
817E
102
{ACAD_XDICTIONARY
360
8596
102
}
102
{ACAD_REACTORS
330
8172
102
}
330
8172
100
AcDbVisualStyle
  2
Brighten
 70
    12
 71
     2
 72
     2
 73
     0
 90
        0
 40
-0.6
 41
-30.0
 62
     5
 63
     7
 74
     1
 91
        4
 64
     7
 65
   257
 75
     1
175
     1
 42
1.0
 92
        8
 66
     7
 43
1.0
 76
     1
 77
     6
 78
     2
 67
     7
 79
     5
170
     0
171
     0
290
     0
174
     0
 93
        1
 44
50.0
173
     0
291
     1
 45
0.0
1001
ACAD
1000
AcDbSavedByObjectVersion
1070
     0
  0
VISUALSTYLE
  5
8182
102
{ACAD_XDICTIONARY
360
859E
102
}
102
{ACAD_REACTORS
330
8172
102
}
330
8172
100
AcDbVisualStyle
  2
ColorChange
 70
    16
 71
     2
 72
     2
 73
     3
 90
        0
 40
-0.6
 41
-30.0
 62
     5
 63
     8
 74
     1
 91
        4
 64
     7
 65
   257
 75
     1
175
     1
 42
1.0
 92
        8
 66
     8
 43
1.0
 76
     1
 77
     6
 78
     2
 67
     7
 79
     5
170
     0
171
     0
290
     0
174
     0
 93
        1
 44
0.0
173
     0
291
     1
 45
0.0
1001
ACAD
1000
AcDbSavedByObjectVersion
1070
     0
  0
VISUALSTYLE
  5
817B
102
{ACAD_XDICTIONARY
360
8590
102
}
102
{ACAD_REACTORS
330
8172
102
}
330
8172
100
AcDbVisualStyle
  2
Conceptual
 70
     9
 71
     3
 72
     2
 73
     0
 90
        0
 40
-0.6
 41
-30.0
 62
     5
 63
     7
 74
     2
 91
        2
 64
     7
 65
   257
 75
     1
175
     1
 42
179.0
 92
        8
 66
     7
 43
1.0
 76
     1
 77
     6
 78
     2
 67
     7
 79
     3
170
     0
171
     0
290
     0
174
     0
 93
        1
 44
0.0
173
     0
291
     0
 45
0.0
1001
ACAD
1000
AcDbSavedByObjectVersion
1070
     0
  0
VISUALSTYLE
  5
817D
102
{ACAD_XDICTIONARY
360
8594
102
}
102
{ACAD_REACTORS
330
8172
102
}
330
8172
100
AcDbVisualStyle
  2
Dim
 70
    11
 71
     2
 72
     2
 73
     0
 90
        0
 40
-0.6
 41
-30.0
 62
     5
 63
     7
 74
     1
 91
        4
 64
     7
 65
   257
 75
     1
175
     1
 42
1.0
 92
        8
 66
     7
 43
1.0
 76
     1
 77
     6
 78
     2
 67
     7
 79
     5
170
     0
171
     0
290
     0
174
     0
 93
        1
 44
-50.0
173
     0
291
     1
 45
0.0
1001
ACAD
1000
AcDbSavedByObjectVersion
1070
     0
  0
VISUALSTYLE
  5
818A
102
{ACAD_XDICTIONARY
360
85AE
102
}
102
{ACAD_REACTORS
330
8172
102
}
330
8172
100
AcDbVisualStyle
  2
EdgeColorOff
 70
    22
 71
     2
 72
     2
 73
     0
 90
        0
 40
-0.6
 41
-30.0
 62
     5
 63
     7
 74
     1
 91
        4
 64
     7
 65
   257
 75
     1
175
     1
 42
1.0
 92
        8
 66
     7
 43
1.0
 76
     1
 77
     6
 78
     2
 67
     7
 79
     5
170
     0
171
     0
290
     0
174
     0
 93
        1
 44
0.0
173
     0
291
     1
 45
0.0
1001
ACAD
1000
AcDbSavedByObjectVersion
1070
     0
  0
VISUALSTYLE
  5
8181
102
{ACAD_XDICTIONARY
360
859C
102
}
102
{ACAD_REACTORS
330
8172
102
}
330
8172
100
AcDbVisualStyle
  2
Facepattern
 70
    15
 71
     2
 72
     2
 73
     0
 90
        0
 40
-0.6
 41
-30.0
 62
     5
 63
     7
 74
     1
 91
        4
 64
     7
 65
   257
 75
     1
175
     1
 42
1.0
 92
        8
 66
     7
 43
1.0
 76
     1
 77
     6
 78
     2
 67
     7
 79
     5
170
     0
171
     0
290
     0
174
     0
 93
        1
 44
0.0
173
     0
291
     1
 45
0.0
1001
ACAD
1000
AcDbSavedByObjectVersion
1070
     0
  0
VISUALSTYLE
  5
8173
102
{ACAD_XDICTIONARY
360
8580
102
}
102
{ACAD_REACTORS
330
8172
102
}
330
8172
100
AcDbVisualStyle
  2
Flat
 70
     0
 71
     2
 72
     1
 73
     1
 90
        2
 40
-0.6
 41
30.0
 62
     5
 63
     7
 74
     0
 91
        0
 64
     7
 65
   257
 75
     1
175
     1
 42
1.0
 92
        8
 66
     7
 43
1.0
 76
     1
 77
     6
 78
     2
 67
     7
 79
     5
170
     0
171
     0
290
     0
174
     0
 93
       13
 44
0.0
173
     0
291
     1
 45
0.0
1001
ACAD
1000
AcDbSavedByObjectVersion
1070
     0
  0
VISUALSTYLE
  5
8174
102
{ACAD_XDICTIONARY
360
8582
102
}
102
{ACAD_REACTORS
330
8172
102
}
330
8172
100
AcDbVisualStyle
  2
FlatWithEdges
 70
     1
 71
     2
 72
     1
 73
     1
 90
        2
 40
-0.6
 41
30.0
 62
     5
 63
     7
 74
     1
 91
        0
 64
     7
 65
   257
 75
     1
175
     1
 42
1.0
 92
        0
 66
   257
 43
1.0
 76
     1
 77
     6
 78
     2
 67
     7
 79
     5
170
     0
171
     0
290
     0
174
     0
 93
       13
 44
0.0
173
     0
291
     1
 45
0.0
1001
ACAD
1000
AcDbSavedByObjectVersion
1070
     0
  0
VISUALSTYLE
  5
8175
102
{ACAD_XDICTIONARY
360
8584
102
}
102
{ACAD_REACTORS
330
8172
102
}
330
8172
100
AcDbVisualStyle
  2
Gouraud
 70
     2
 71
     2
 72
     2
 73
     1
 90
        2
 40
-0.6
 41
30.0
 62
     5
 63
     7
 74
     0
 91
        0
 64
     7
 65
   257
 75
     1
175
     1
 42
1.0
 92
        0
 66
     7
 43
1.0
 76
     1
 77
     6
 78
     2
 67
     7
 79
     5
170
     0
171
     0
290
     0
174
     0
 93
       13
 44
0.0
173
     0
291
     1
 45
0.0
1001
ACAD
1000
AcDbSavedByObjectVersion
1070
     0
  0
VISUALSTYLE
  5
8176
102
{ACAD_XDICTIONARY
360
8586
102
}
102
{ACAD_REACTORS
330
8172
102
}
330
8172
100
AcDbVisualStyle
  2
GouraudWithEdges
 70
     3
 71
     2
 72
     2
 73
     1
 90
        2
 40
-0.6
 41
30.0
 62
     5
 63
     7
 74
     1
 91
        0
 64
     7
 65
   257
 75
     1
175
     1
 42
1.0
 92
        0
 66
   257
 43
1.0
 76
     1
 77
     6
 78
     2
 67
     7
 79
     5
170
     0
171
     0
290
     0
174
     0
 93
       13
 44
0.0
173
     0
291
     1
 45
0.0
1001
ACAD
1000
AcDbSavedByObjectVersion
1070
     0
  0
VISUALSTYLE
  5
817A
102
{ACAD_XDICTIONARY
360
858E
102
}
102
{ACAD_REACTORS
330
8172
102
}
330
8172
100
AcDbVisualStyle
  2
Hidden
 70
     6
 71
     1
 72
     2
 73
     2
 90
        0
 40
-0.6
 41
-30.0
 62
     5
 63
     7
 74
     2
 91
        2
 64
     7
 65
   257
 75
     2
175
     1
 42
40.0
 92
        0
 66
   257
 43
1.0
 76
     1
 77
     6
 78
     2
 67
     7
 79
     3
170
     0
171
     0
290
     0
174
     0
 93
        1
 44
0.0
173
     0
291
     0
 45
0.0
1001
ACAD
1000
AcDbSavedByObjectVersion
1070
     0
  0
VISUALSTYLE
  5
8188
102
{ACAD_XDICTIONARY
360
85AA
102
}
102
{ACAD_REACTORS
330
8172
102
}
330
8172
100
AcDbVisualStyle
  2
JitterOff
 70
    20
 71
     2
 72
     2
 73
     0
 90
        0
 40
-0.6
 41
-30.0
 62
     5
 63
     7
 74
     1
 91
        4
 64
     7
 65
   257
 75
     1
175
     1
 42
1.0
 92
       10
 66
     7
 43
1.0
 76
     1
 77
     6
 78
     2
 67
     7
 79
     5
170
     0
171
     0
290
     0
174
     0
 93
        1
 44
0.0
173
     0
291
     1
 45
0.0
1001
ACAD
1000
AcDbSavedByObjectVersion
1070
     0
  0
VISUALSTYLE
  5
8180
102
{ACAD_XDICTIONARY
360
859A
102
}
102
{ACAD_REACTORS
330
8172
102
}
330
8172
100
AcDbVisualStyle
  2
Linepattern
 70
    14
 71
     2
 72
     2
 73
     0
 90
        0
 40
-0.6
 41
-30.0
 62
     5
 63
     7
 74
     1
 91
        4
 64
     7
 65
   257
 75
     7
175
     7
 42
1.0
 92
        8
 66
     7
 43
1.0
 76
     1
 77
     6
 78
     2
 67
     7
 79
     5
170
     0
171
     0
290
     0
174
     0
 93
        1
 44
0.0
173
     0
291
     1
 45
0.0
1001
ACAD
1000
AcDbSavedByObjectVersion
1070
     0
  0
VISUALSTYLE
  5
8189
102
{ACAD_XDICTIONARY
360
85AC
102
}
102
{ACAD_REACTORS
330
8172
102
}
330
8172
100
AcDbVisualStyle
  2
OverhangOff
 70
    21
 71
     2
 72
     2
 73
     0
 90
        0
 40
-0.6
 41
-30.0
 62
     5
 63
     7
 74
     1
 91
        4
 64
     7
 65
   257
 75
     1
175
     1
 42
1.0
 92
        9
 66
     7
 43
1.0
 76
     1
 77
     6
 78
     2
 67
     7
 79
     5
170
     0
171
     0
290
     0
174
     0
 93
        1
 44
0.0
173
     0
291
     1
 45
0.0
1001
ACAD
1000
AcDbSavedByObjectVersion
1070
     0
  0
VISUALSTYLE
  5
817C
102
{ACAD_XDICTIONARY
360
8592
102
}
102
{ACAD_REACTORS
330
8172
102
}
330
8172
100
AcDbVisualStyle
  2
Realistic
 70
     8
 71
     2
 72
     3
 73
     0
 90
        2
 40
-0.6
 41
30.0
 62
     5
 63
     7
 74
     0
 91
        0
 64
     7
 65
   257
 75
     1
175
     1
 42
1.0
 92
        8
 66
   257
 43
1.0
 76
     1
 77
     6
 78
     2
 67
     7
 79
     3
170
     0
171
     0
290
     0
174
     0
 93
       13
 44
0.0
173
     0
291
     0
 45
0.0
1001
ACAD
1000
AcDbSavedByObjectVersion
1070
     0
  0
VISUALSTYLE
  5
8187
102
{ACAD_XDICTIONARY
360
85A8
102
}
102
{ACAD_REACTORS
330
8172
102
}
330
8172
100
AcDbVisualStyle
  2
Shaded
 70
    27
 71
     2
 72
     2
 73
     1
 90
        2
 40
-0.6
 41
30.0
 62
     5
 63
     7
 74
     0
 91
        4
 64
     7
 65
   257
 75
     1
175
     1
 42
1.0
 92
        8
 66
   257
 43
1.0
 76
     1
 77
     6
 78
     2
 67
     8
 79
     3
170
     0
171
     0
290
     0
174
     0
 93
        5
 44
0.0
173
     0
291
     0
 45
0.0
1001
ACAD
1000
AcDbSavedByObjectVersion
1070
     0
  0
VISUALSTYLE
  5
8186
102
{ACAD_XDICTIONARY
360
85A6
102
}
102
{ACAD_REACTORS
330
8172
102
}
330
8172
100
AcDbVisualStyle
  2
Shaded with edges
 70
    26
 71
     2
 72
     2
 73
     1
 90
        2
 40
-0.6
 41
30.0
 62
     5
 63
     7
 74
     1
 91
       10
 64
     7
 65
   257
 75
     2
175
     1
 42
1.0
 92
        8
 66
   257
 43
1.0
 76
     1
 77
     6
 78
     2
 67
     7
 79
     3
170
     0
171
     0
290
     0
174
     0
 93
        5
 44
0.0
173
     0
291
     0
 45
0.0
1001
ACAD
1000
AcDbSavedByObjectVersion
1070
     0
  0
VISUALSTYLE
  5
8183
102
{ACAD_XDICTIONARY
360
85A0
102
}
102
{ACAD_REACTORS
330
8172
102
}
330
8172
100
AcDbVisualStyle
  2
Shades of Gray
 70
    23
 71
     2
 72
     2
 73
     3
 90
        0
 40
-0.6
 41
-30.0
 62
     5
 63
     7
 74
     2
 91
        2
 64
     7
 65
     7
 75
     1
175
     1
 42
40.0
 92
        8
 66
     7
 43
1.0
 76
     1
 77
     6
 78
     2
 67
     7
 79
     3
170
     0
171
     0
290
     0
174
     0
 93
        1
 44
0.0
173
     0
291
     0
 45
0.0
1001
ACAD
1000
AcDbSavedByObjectVersion
1070
     0
  0
VISUALSTYLE
  5
8184
102
{ACAD_XDICTIONARY
360
85A2
102
}
102
{ACAD_REACTORS
330
8172
102
}
330
8172
100
AcDbVisualStyle
  2
Sketchy
 70
    24
 71
     1
 72
     2
 73
     2
 90
        0
 40
-0.6
 41
-30.0
 62
     5
 63
     7
 74
     2
 91
        2
 64
     7
 65
     7
 75
     1
175
     1
 42
40.0
 92
       11
 66
     7
 43
1.0
 76
     1
 77
     6
 78
     2
 67
     7
 79
     6
170
     0
171
     0
290
     0
174
     0
 93
        1
 44
0.0
173
     0
291
     0
 45
0.0
1001
ACAD
1000
AcDbSavedByObjectVersion
1070
     0
  0
VISUALSTYLE
  5
817F
102
{ACAD_XDICTIONARY
360
8598
102
}
102
{ACAD_REACTORS
330
8172
102
}
330
8172
100
AcDbVisualStyle
  2
Thicken
 70
    13
 71
     2
 72
     2
 73
     0
 90
        0
 40
-0.6
 41
-30.0
 62
     5
 63
     7
 74
     1
 91
        4
 64
     7
 65
   257
 75
     1
175
     1
 42
1.0
 92
       12
 66
     7
 43
1.0
 76
     1
 77
     6
 78
     2
 67
     7
 79
     5
170
     0
171
     0
290
     0
174
     0
 93
        1
 44
0.0
173
     0
291
     1
 45
0.0
1001
ACAD
1000
AcDbSavedByObjectVersion
1070
     0
  0
VISUALSTYLE
  5
8179
102
{ACAD_XDICTIONARY
360
858C
102
}
102
{ACAD_REACTORS
330
8172
102
}
330
8172
100
AcDbVisualStyle
  2
Wireframe
 70
     5
 71
     0
 72
     2
 73
     0
 90
        0
 40
-0.6
 41
-30.0
 62
     5
 63
     7
 74
     1
 91
        4
 64
     7
 65
   257
 75
     1
175
     1
 42
1.0
 92
        0
 66
   257
 43
1.0
 76
     1
 77
     6
 78
     2
 67
     7
 79
     3
170
     0
171
     0
290
     0
174
     0
 93
        1
 44
0.0
173
     0
291
     0
 45
0.0
1001
ACAD
1000
AcDbSavedByObjectVersion
1070
     0
  0
VISUALSTYLE
  5
8185
102
{ACAD_XDICTIONARY
360
85A4
102
}
102
{ACAD_REACTORS
330
8172
102
}
330
8172
100
AcDbVisualStyle
  2
X-Ray
 70
    25
 71
     2
 72
     2
 73
     1
 90
        1
 40
0.5
 41
-30.0
 62
     5
 63
     7
 74
     1
 91
        0
 64
     7
 65
   257
 75
     1
175
     1
 42
1.0
 92
        8
 66
     7
 43
1.0
 76
     1
 77
     6
 78
     2
 67
     7
 79
     3
170
     0
171
     0
290
     0
174
     0
 93
       13
 44
0.0
173
     0
291
     0
 45
0.0
1001
ACAD
1000
AcDbSavedByObjectVersion
1070
     0
  0
DICTIONARYVAR
  5
823F
102
{ACAD_REACTORS
330
823A
102
}
330
823A
100
DictionaryVariables
280
     0
  1
1:1
  0
DICTIONARYVAR
  5
823C
102
{ACAD_REACTORS
330
823A
102
}
330
823A
100
DictionaryVariables
280
     0
  1
STANDARD
  0
DICTIONARYVAR
  5
823B
102
{ACAD_REACTORS
330
823A
102
}
330
823A
100
DictionaryVariables
280
     0
  1
STANDARD
  0
DICTIONARYVAR
  5
823D
102
{ACAD_REACTORS
330
823A
102
}
330
823A
100
DictionaryVariables
280
     0
  1
Imperial24
  0
DICTIONARYVAR
  5
823E
102
{ACAD_REACTORS
330
823A
102
}
330
823A
100
DictionaryVariables
280
     0
  1
Imperial24
  0
DICTIONARYVAR
  5
8242
102
{ACAD_REACTORS
330
823A
102
}
330
823A
100
DictionaryVariables
280
     0
  1
1
  0
DICTIONARYVAR
  5
8241
102
{ACAD_REACTORS
330
823A
102
}
330
823A
100
DictionaryVariables
280
     0
  1
0
  0
DICTIONARYVAR
  5
8240
102
{ACAD_REACTORS
330
823A
102
}
330
823A
100
DictionaryVariables
280
     0
  1
127
  0
DICTIONARYVAR
  5
8243
102
{ACAD_REACTORS
330
823A
102
}
330
823A
100
DictionaryVariables
280
     0
  1
2
  0
DICTIONARY
  5
85B4
330
81B3
100
AcDbDictionary
280
     1
281
     1
  3
ACAD_XREC_ROUNDTRIP
360
85B5
  0
DICTIONARY
  5
85B8
330
81BB
100
AcDbDictionary
280
     1
281
     1
  3
ACAD_XREC_ROUNDTRIP
360
85B9
  0
DICTIONARY
  5
85B6
330
81B7
100
AcDbDictionary
280
     1
281
     1
  3
ACAD_XREC_ROUNDTRIP
360
85B7
  0
DICTIONARY
  5
8163
330
8162
100
AcDbDictionary
280
     1
281
     1
  3
ACAD_XREC_ROUNDTRIP
360
857E
  3
BUMPTILE
360
8165
  3
DIFFUSETILE
360
8164
  3
OPACITYTILE
360
8168
  3
REFLECTIONTILE
360
8167
  3
REFRACTIONTILE
360
8169
  3
SPECULARTILE
360
8166
  0
DICTIONARY
  5
815B
330
815A
100
AcDbDictionary
280
     1
281
     1
  3
ACAD_XREC_ROUNDTRIP
360
857D
  3
BUMPTILE
360
815D
  3
DIFFUSETILE
360
815C
  3
OPACITYTILE
360
8160
  3
REFLECTIONTILE
360
815F
  3
REFRACTIONTILE
360
8161
  3
SPECULARTILE
360
815E
  0
DICTIONARY
  5
816B
330
816A
100
AcDbDictionary
280
     1
281
     1
  3
ACAD_XREC_ROUNDTRIP
360
857F
  3
BUMPTILE
360
816D
  3
DIFFUSETILE
360
816C
  3
FBXASSET
360
831C
  3
OPACITYTILE
360
8170
  3
REFLECTIONTILE
360
816F
  3
REFRACTIONTILE
360
8171
  3
SPECULARTILE
360
816E
  0
DICTIONARY
  5
85B2
330
81B1
100
AcDbDictionary
280
     1
281
     1
  3
ACAD_XREC_ROUNDTRIP
360
85B3
  0
DICTIONARY
  5
8579
330
81AD
100
AcDbDictionary
280
     1
281
     1
  3
ACAD_ROUNDTRIP_2008_TABLESTYLE_CELLSTYLEMAP
360
857A
  3
ACAD_XREC_ROUNDTRIP
360
85B0
  0
DICTIONARY
  5
858A
330
8178
100
AcDbDictionary
280
     1
281
     1
  3
ACAD_XREC_ROUNDTRIP
360
858B
  0
DICTIONARY
  5
8588
330
8177
100
AcDbDictionary
280
     1
281
     1
  3
ACAD_XREC_ROUNDTRIP
360
8589
  0
DICTIONARY
  5
8596
330
817E
100
AcDbDictionary
280
     1
281
     1
  3
ACAD_XREC_ROUNDTRIP
360
8597
  0
DICTIONARY
  5
859E
330
8182
100
AcDbDictionary
280
     1
281
     1
  3
ACAD_XREC_ROUNDTRIP
360
859F
  0
DICTIONARY
  5
8590
330
817B
100
AcDbDictionary
280
     1
281
     1
  3
ACAD_XREC_ROUNDTRIP
360
8591
  0
DICTIONARY
  5
8594
330
817D
100
AcDbDictionary
280
     1
281
     1
  3
ACAD_XREC_ROUNDTRIP
360
8595
  0
DICTIONARY
  5
85AE
330
818A
100
AcDbDictionary
280
     1
281
     1
  3
ACAD_XREC_ROUNDTRIP
360
85AF
  0
DICTIONARY
  5
859C
330
8181
100
AcDbDictionary
280
     1
281
     1
  3
ACAD_XREC_ROUNDTRIP
360
859D
  0
DICTIONARY
  5
8580
330
8173
100
AcDbDictionary
280
     1
281
     1
  3
ACAD_XREC_ROUNDTRIP
360
8581
  0
DICTIONARY
  5
8582
330
8174
100
AcDbDictionary
280
     1
281
     1
  3
ACAD_XREC_ROUNDTRIP
360
8583
  0
DICTIONARY
  5
8584
330
8175
100
AcDbDictionary
280
     1
281
     1
  3
ACAD_XREC_ROUNDTRIP
360
8585
  0
DICTIONARY
  5
8586
330
8176
100
AcDbDictionary
280
     1
281
     1
  3
ACAD_XREC_ROUNDTRIP
360
8587
  0
DICTIONARY
  5
858E
330
817A
100
AcDbDictionary
280
     1
281
     1
  3
ACAD_XREC_ROUNDTRIP
360
858F
  0
DICTIONARY
  5
85AA
330
8188
100
AcDbDictionary
280
     1
281
     1
  3
ACAD_XREC_ROUNDTRIP
360
85AB
  0
DICTIONARY
  5
859A
330
8180
100
AcDbDictionary
280
     1
281
     1
  3
ACAD_XREC_ROUNDTRIP
360
859B
  0
DICTIONARY
  5
85AC
330
8189
100
AcDbDictionary
280
     1
281
     1
  3
ACAD_XREC_ROUNDTRIP
360
85AD
  0
DICTIONARY
  5
8592
330
817C
100
AcDbDictionary
280
     1
281
     1
  3
ACAD_XREC_ROUNDTRIP
360
8593
  0
DICTIONARY
  5
85A8
330
8187
100
AcDbDictionary
280
     1
281
     1
  3
ACAD_XREC_ROUNDTRIP
360
85A9
  0
DICTIONARY
  5
85A6
330
8186
100
AcDbDictionary
280
     1
281
     1
  3
ACAD_XREC_ROUNDTRIP
360
85A7
  0
DICTIONARY
  5
85A0
330
8183
100
AcDbDictionary
280
     1
281
     1
  3
ACAD_XREC_ROUNDTRIP
360
85A1
  0
DICTIONARY
  5
85A2
330
8184
100
AcDbDictionary
280
     1
281
     1
  3
ACAD_XREC_ROUNDTRIP
360
85A3
  0
DICTIONARY
  5
8598
330
817F
100
AcDbDictionary
280
     1
281
     1
  3
ACAD_XREC_ROUNDTRIP
360
8599
  0
DICTIONARY
  5
858C
330
8179
100
AcDbDictionary
280
     1
281
     1
  3
ACAD_XREC_ROUNDTRIP
360
858D
  0
DICTIONARY
  5
85A4
330
8185
100
AcDbDictionary
280
     1
281
     1
  3
ACAD_XREC_ROUNDTRIP
360
85A5
  0
XRECORD
  5
85B5
102
{ACAD_REACTORS
330
85B4
102
}
330
85B4
100
AcDbXrecord
280
     1
102
DISPLAYNAME
  1
Imperial24
102
FLAGS
 90
        0
  0
XRECORD
  5
85B9
102
{ACAD_REACTORS
330
85B8
102
}
330
85B8
100
AcDbXrecord
280
     1
102
SHADEPLOT
 70
     0
102
SHADEPLOTRESLEVEL
 70
     2
102
SHADEPLOTCUSTOMDPI
 70
   300
  0
XRECORD
  5
85B7
102
{ACAD_REACTORS
330
85B6
102
}
330
85B6
100
AcDbXrecord
280
     1
102
SHADEPLOT
 70
     0
102
SHADEPLOTRESLEVEL
 70
     2
102
SHADEPLOTCUSTOMDPI
 70
   300
  0
XRECORD
  5
857E
102
{ACAD_REACTORS
330
8163
102
}
330
8163
100
AcDbXrecord
280
     1
102
MATERIAL
148
0.0
149
0.0
149
0.0
 93
        0
 94
      127
282
     0
 72
     0
 77
     0
171
     0
175
     0
179
     0
273
     0
  0
XRECORD
  5
8165
102
{ACAD_REACTORS
330
8163
102
}
330
8163
100
AcDbXrecord
280
     1
270
     1
271
     1
  0
XRECORD
  5
8164
102
{ACAD_REACTORS
330
8163
102
}
330
8163
100
AcDbXrecord
280
     1
270
     1
271
     1
  0
XRECORD
  5
8168
102
{ACAD_REACTORS
330
8163
102
}
330
8163
100
AcDbXrecord
280
     1
270
     1
271
     1
  0
XRECORD
  5
8167
102
{ACAD_REACTORS
330
8163
102
}
330
8163
100
AcDbXrecord
280
     1
270
     1
271
     1
  0
XRECORD
  5
8169
102
{ACAD_REACTORS
330
8163
102
}
330
8163
100
AcDbXrecord
280
     1
270
     1
271
     1
  0
XRECORD
  5
8166
102
{ACAD_REACTORS
330
8163
102
}
330
8163
100
AcDbXrecord
280
     1
270
     1
271
     1
  0
XRECORD
  5
857D
102
{ACAD_REACTORS
330
815B
102
}
330
815B
100
AcDbXrecord
280
     1
102
MATERIAL
148
0.0
149
0.0
149
0.0
 93
        0
 94
      127
282
     0
 72
     0
 77
     0
171
     0
175
     0
179
     0
273
     0
  0
XRECORD
  5
815D
102
{ACAD_REACTORS
330
815B
102
}
330
815B
100
AcDbXrecord
280
     1
270
     1
271
     1
  0
XRECORD
  5
815C
102
{ACAD_REACTORS
330
815B
102
}
330
815B
100
AcDbXrecord
280
     1
270
     1
271
     1
  0
XRECORD
  5
8160
102
{ACAD_REACTORS
330
815B
102
}
330
815B
100
AcDbXrecord
280
     1
270
     1
271
     1
  0
XRECORD
  5
815F
102
{ACAD_REACTORS
330
815B
102
}
330
815B
100
AcDbXrecord
280
     1
270
     1
271
     1
  0
XRECORD
  5
8161
102
{ACAD_REACTORS
330
815B
102
}
330
815B
100
AcDbXrecord
280
     1
270
     1
271
     1
  0
XRECORD
  5
815E
102
{ACAD_REACTORS
330
815B
102
}
330
815B
100
AcDbXrecord
280
     1
270
     1
271
     1
  0
XRECORD
  5
857F
102
{ACAD_REACTORS
330
816B
102
}
330
816B
100
AcDbXrecord
280
     1
102
MATERIAL
148
0.0
149
0.0
149
0.0
 93
        0
 94
      127
282
     0
 72
     0
 77
     0
171
     0
175
     0
179
     0
273
     0
  0
XRECORD
  5
816D
102
{ACAD_REACTORS
330
816B
102
}
330
816B
100
AcDbXrecord
280
     1
270
     1
271
     1
  0
XRECORD
  5
816C
102
{ACAD_REACTORS
330
816B
102
}
330
816B
100
AcDbXrecord
280
     1
270
     1
271
     1
  0
XRECORD
  5
831C
102
{ACAD_REACTORS
330
816B
102
}
330
816B
100
AcDbXrecord
280
     1
 70
     1
 90
1959938040
 71
     1
  1
6E902B03-C343-47EA-BC11-5EF9CA55B22A
311
504B030414000608080019826E576E447B41BF000000200100004F00000035383739433935392D443133322D343430452D393239442D3439433244334635364437392F4173736574446174612F446566696E6974696F6E4974657261746F7250726F706572746965732E62696EEB606060F80F0540260323103700495E20ED
311
9E9A975A94991C9C9C919A9BC8C00612C9C94F4ACC6147C831019920AE4B6A5A62694E0948976F6671726A4E4E625E6A7E69B12042A9426E6209D0B8C41C3D90264E20860914834C48875806B2DF0F88414E02D189290556F689C5C5A925B6FA694915FA4EAEE666AECEC696BAC62E4E96BA26E6962EBA4EE64666BA06162E
311
2E4EAE26CE9646E64EFA45A9C5F9A545C9A9C5FA46FA06F15093E30BF2D21918322EAE55B80EB404E40610260400504B030414000608080019826E572CC1E35EEE000000300200004500000035383739433935392D443133322D343430452D393239442D3439433244334635364437392F4173736574446174612F496E7374
311
616E636550726F706572746965732E62696EEB606060F80F0540260323103700495E20ED9E9A975A94991C9C9C919A9BA802143073B53430723230D675363631D635317775D475723634D4357575B37476343575323272644768046931363471713532B5D435350169313332D475727372D13534373670367376B67474B504
311
2A03DBCBA019D37FE8ABC6157B20CD04146B0062181F4C03F940F0C11EA29A8141C08141002C0426541C106CAC2CA046088033B02A030AC2157C6006F21A8018AAF50194E6010A610250382264E08660284CD9E98021862280A91564B406929A0FF62C401E28B6F88038B83CB1243943D7A928312F25350524131B1BFB9F16
311
1800504B030414000608080019826E5728BB58AF800100009E0500003D00000035383739433935392D443133322D343430452D393239442D3439433244334635364437392F536368656D61732F436F6D6D6F6E536368656D612E786D6CBD544D4FC23018BEFB2B96DE15493C78601010A34B880709DEDFB52FD0D8B54BD70D
311
F6EFED3AC0B12E6442E2716BFB3CEFF3D18E26FB440405EA8C2B1992E1C323095052C5B8DC842437EBFB673219DF8DA659866649B798C078B48AE6410122242F2A4994AC7F93815DF85C049C8564CA0A901499DD886B2EB9B1E02448F358701A9235880C49A0119892A20C89D1B9FD768815CAD268CB5E0355B40B1E47F3E3
311
7A2020464BED06AA57CE8FCC20C3C3446D46761A2632A8C1283D07031EFF2AE7CCB1BFEEE916E406DFAC8E36FFD99A9D60A6944090EEDC3B670C7DC13DE86B6B2C5C240D6E503BB85ACD579D513F1B9F9A69DC9CC22AFA80C426D40AF0B21EA168559156B6276F0F726A6BFF04DCD513A87A62CAD41FB24FCB2858B3952E3D
311
852084DA25B9303C15687973CC8E8AAE11DF2836C38C6A9E765E8C1BA1BFB1DC29CDFE518C8B5A7655A4ED7E77291ABEB80DBD82EC866ADE1B8D05AF9E35CF09D7A061F38A986D9EC412B8F0F65E5D81534D9B231D1E5A8FE577A241F3A5FD01504B030414000608080019826E572CCEBD668A040000E01200003E00000035
311
383739433935392D443133322D343430452D393239442D3439433244334635364437392F536368656D61732F47656E65726963536368656D612E786D6CD5586D6FDB380CFE7EBF42F0F7A649B70E1B90744856B4970F450FCD7A5F05459613EDE4174872DADCAF3F522F8ED3B88D2F1D06AC4050DBA2493EE4438AF2F8EB73
311
AEC8466823CB62928C06C384888297A92C5693A4B6D9D9E7E4EBD51FE3A931C22EF85AE4EC6AFC38BF261BA626C9AD288496DC3F4FCEAFC63366845F7A10452AF41DB320C0D44EC26EAB20918735565582695670811A6A49643A49A6E9069FA4604A64B29016DC4B48552F95E4932463CA888468C1D2B250DB4962750DF7CE
311
273069CE8363F1FF4EDB00E0A21999574AE4A2B00C353B93F3BD4777B8A61ED8F604ABFEDD79CE56A2B7BDFBDBC50996E0ADDE16FED26223C5D30956C29BDF4A55EA686E5E58B112DA45CE67F76F4FA27EFA3FB672FD7372FC388FAECDCA5209E693CAD167BADCD272F943701B3812F8A3D852008B1D2E32DB927B2F833C6E
311
A95879925356D254582695095A3CE982924720BE5774A3CB9CDCDB350427D2DF20DA1B5532EBE2D5D6288D75D4F7E4FD9890A0EF8E3D93EBB8F8BA4758158EF6FB90A6F9520281C93DE7AAC6D24607DA296BB96018123F821A7D6A5C5884050C475DA4865442732C8B95684A50165CBB3A32F25F783A4A480ED59AD7F924B9
311
68AEA50131F46303223E6A397B0E52976030DC1DCA81D7E7C1EDEEA42C19FF27635C505E2BD5198A599020DF50A2330FCB3AAF28CB0124108429553EF1B228802E2265D8F7CC2401042B155BCC7070F1E5C55F13B4A9577362CCCE46C32174E010C3C378C44841A4BDA00FE3A12006CE11EE6AEC59894D3526DDE1CD59D503
311
ECC324017F8061B7F162162FA62EDD81AE3308617770796DCBDAD2B2625C5AE8A63DE20B2C8AA5E95E76E5730823955956E33E705425A2187C185D36489A1B44D3DCEC2172F6BA2105C3546287A7194B2331768EBBE64F6E70A9930ABE0ADEA89E9E2C38523B810287AD67A54A039C1606EAFE68F8304610BB9093DBDDABC0
311
B2AE4E290DCDA15376D7E39F72B556F0B32EAB5D3D498B4C41ABADEC3A1434C422D87E8025A84BDCB2B1417ED750FAE4DA8976863974C577C7F902D3F156AD354DEA3540DE6BEAE2BEA52F7A2EB4CA43802ECE5BF2CE2EDC9347179FFB023CE412E60BE16DA0BE29B374988A553F561DC04615DD35F7D2C8979F60E5955CE9
311
3DF29DED8AFA1EE6642D53418086C03C47C377910F75F7E8F5EF665F70B60FFB22AEDF897D119E8423C773E819A3C1E55E550599EE6EDCA34D0C86FD72057DF2CD46F16A470682471C164E4346D5306BF12D7D12D82CFF673D41636C347443FEB51B50D72EA171A8E4A58623A4A16E0FA2B8B10A0D23268D87C33896EE8FB7
311
3305A74BF224EDBADFA0BD674AB354D63DB7BD5D83426761C077DE767728235446A552754EB93B755891C3C4CC6CADE37CF0E912A7BB38DBA010F9DE1282EDF470CA69A9CDA482E334C4A6EA4107987980B17E72F31730EBF88BBD39E7C629F56797A3C0009C2C5AE7951D9A05A02773440F02EEB4DE396A3B6A570C72CCFB
311
CD823B0B8ED3F1D5CEDDFED772FA70236C83FB7D86C385D570B87107535572A60A96035F8F7C6A7192F13007246BBE0521855E6AC46F3E27689CEE7D186A6FD679D98CDCAD13333E04EBE7ED6F55FF01504B030414000608080019826E576180134D5F0100006B0300004500000035383739433935392D443133322D343430
311
452D393239442D3439433244334635364437392F536368656D61732F52656E6465724D6174657269616C536368656D612E786D6CA5934D6FC2300C86EFFB1551EEE343DBA41D1A103009551ADAD40EAE28A4A68D9426284961FCFBE5A340113B2071746D3F765EBF4DC6BFB5407BD0862B49F0B037C0082453059725C18DDD
311
3EBFE3F1E829991803366715D474942CD30FB4A782E00C64017A412D684E454CE3FE28995203B162A6EA5AC94B66997D225E109CD63B0135484BAD1B3C07E9080CA35DB3119C11BCA5C200461A68A1A438126C75E3E230D40FF81FB3F03C91D1E3A3A0AF79FE28E25BC39EC3E17E4C2A2D94A0833A51AF55BCCA7D88572FCB
311
AC529C4140B020FC3AAFA886621DCED7EAD7664CC86024E806DC297DA1BB393E4156543457A4537DB8817349A70F8ACBF09B3EEE2CB2F33E91B65D60786E4E3B39B77E3FEEEF5650424525DA657FB8B46BE6BF064646F0A0F7327C0BC1BC1B4CBBC1C419FA3CCB23500007872A2580CAAE5461865565294E4EDB4617B62FF5
311
79DF9A5B2F54E834076A597573A020912FED777F9B3F504B030414000608080019826E57E5041E1051000000570000004700000035383739433935392D443133322D343430452D393239442D3439433244334635364437392F4173736574446174612F41737365745461626C654F66436F6E74656E74732E62696E53616060
311
3073B53430723230D675363631D635317775D475723634D4357575B374763435753232721402AACB4D2C492DCA4CCC492C28484D2C4ACC4B4E050A82012F90744FCD03CA26072767A4E6260200504B030414000608080019826E57F865834058000000680000004500000035383739433935392D443133322D343430452D39
311
3239442D3439433244334635364437392F4173736574446174612F53747265616D56657273696F6E5461626C652E696E66558CBD0A80300C06F73E4B117FB66E451741D041DC5BF98480A492E4FDD18EAEC7DD4555D89EF28DF51A0B1BD8340C4DE7DD848B988C0ACF0649566493F2408C508DDEBB99D5129FF8F1AF8CF5B9
311
503E20FAE5A16B5AF702504B030414000608080019826E57F61D65C6340100009A0400003600000035383739433935392D443133322D343430452D393239442D3439433244334635364437392F4173736574446174612F636E782E786D6CCD543D4FC33010FD2B91F7D875F910428E2B044B2790A818D8AECEA5B5EAD8917D
311
41F0EFB1D30CA022A60E953C3DBFBB7B7EF23BB5FAEC5DF58131D9E01B26F98255E84D68ADDF356CA4AEBE63D54AAB1802FDA0B1CA438F0D2B30D36A17C338CC508B1D8CAEA0CEFAC30C3EA484B481ADC3E7EE3178424F8955C6414A0D4B668F3D701829B4980EBC05022E79C414C668307722DBE3DCC94404C296E9E56279
311
554B59CBEB8DBCBDCFE746BE2B51985A6D437033DFE661310C95394E657AA144B9D66A8C76E694B730FD9746BEB55E89CCD42A51CC9ECC15F435E40A1806670D50B64E044348752621F44A1CC95A89E2C12F279EB0B3DE969275160614E24B9687912C5E9C23FF693DBF336B9F08BCC1CBF5E354E1F95D789D7ED0DB319053
311
622E2D27A70AB9F5DD195222A635924353B68AFE06504B030414000608080019826E57275D576D080100004F0300003400000035383739433935392D443133322D343430452D393239442D3439433244334635364437392F536368656D61732F636E782E786D6CCD933B4F04211485FFCA847E60581F3186610B0B2B1BB5B2
311
43B8BB4B16B8131E46FFBD3052EC26765A6C4201872F37F71C2E62FBE9DDF00131590C33E1742203048DC686FD4C4ADE8D7764D84A1111F3094686A03CCCA4C9448A7DC4B274C9C04E15D75467C3B18B0FE83D86177D00AFC8A09D4A6926693D5255321A48476A545694D308094BD4502B64EBA157D011540643E466DA5C8D
311
9C8FFCFA95DFDED775C3DF046BA414EF88AEF3366488B80C1AEB26D47626C1DAB51425DACE340F449EF6466B1A8255428A9463CDA093F96BA9A45A1667B5CA352AB6823F8C14AC593D33FC0801A2D597E9F8ACB97FB3FC0CC1407CAAAF14AD7297E9FCB71EFF16005B67BF8E40FB0AF21B504B030414000608080019826E57
311
410A3D5871000000A40000002C00000035383739433935392D443133322D343430452D393239442D3439433244334635364437392F636E782E786D6C55CC4D0E82301086E1AB34B31774E7A22D31F1069E60020334B633A63FC6E34B0909B07DDE2F9FEE7EC1AB2FC5E4840DDC9A2B28E25E06C7938192C7CB1D54677514C9
311
871928C640062A83D55394F2D968A0118BAFEA1DBF377CA444F98919176EAB9FEAAB9F2960DA5BBB1E2ED3FA6FFF504B030414000608080019826E57BA6B39767E000000A300000007000000636E782E786D6C4D8C410E83201405AF42FE9E5611AA3F015C487B0F53D1982234549A1EBFD0B8E8EA25933723FBCFE6C8DBC6
311
D71ABC82FA5401B1FE1EA6D52F0AD23ED30E48AF650C61FFBB01F1E36615140C5A2E31A4E781263B8FC915EA56FF38A0E85A1C50203575C328E7D595224343390ECC343771312D66E35C943CBF5EDE92D75F504B030414000608080019826E5716E99B5DA600000035010000130000005B436F6E74656E745F54797065735D
311
2E786D6C9590410E82301045AFD2740F4517C6180A0BF5065E60AC53688469D30E066F6F91AD9AB89CF9FFFD3F99BA9DC7413C3026E749CB4D59498164FCCD51A7E5C4B6D84BD136F5E5193089ECA5A465CF1C0E4A25D3E308A9F401292BD6C711388FB15301CC1D3A54DBAADA29E38991B8E0254336F5092D4C038BF39CD7
311
6B6FC6A538AEBEA54A4B08617006389FA516557DE4AE8E7E70DE30729138228C5F021CD93F02D4FB0DCD0B504B030414000608080019826E573DEE336E64000000790000001B0000006175746F6465736B2D64657369676E2D7061636B6167652E786D6C35CBC10E83200C00D05F21DCA56CA76D41FC96062B120735B69A7D
311
BE268BB7777961F8D5AF396893C2ADB70FE7ADA196782C2DF776D7A97B5933C430F15651E5469C55D70F80A4992A3ADC954792C525AE70A1E4D6AD9816CC044FEFDF01FE3FDE907802504B030414000608080019826E572D04C507F8000000960100003700000035383739433935392D443133322D343430452D393239442D
311
3439433244334635364437392F4173736574446174612F636F72652E786D6C8550CB6EC32010FC156BEFD8C6C6515C61A2C689BFA0A7DE10101725068B47D5CF2FC4AED49E2A212D9A9D99DD1D7AFA5A1EC5A7725E5B33002E6B289411566A330F10C30D1DA13831EAAC0DBF685018BEA801320C8CCECEC67587843541998C
311
1A2BD50E72EF5580423CD267002F3ED4C24B1E4362F87BB97271E7B32A71B9F1188D51CB5DAA6572D337AD1CB0CB197764243522239E10B94E13EA0F134163776D5B329D7B7CEC6995C58C06BDFC4C174EF1A024B0A66E5A8431C2E40D1F5ED2EBF03BAD3293511F5CBA791F9AAF03F69AB7BEF0C069B575FFB8C655FEEF1A
311
B5096DB3BB6E0A0F0CA7259F0D46AB9C522ACF0853CD89B26F504B030414000608080019826E579519D424F7000000940100003500000035383739433935392D443133322D343430452D393239442D3439433244334635364437392F536368656D61732F636F72652E786D6C8550CB6EC32010FC156BEFD8C6C651526122C5
311
8D7FA03DF58680382831583CAA7E7EC176A5F6540969D1ECCCECEED0F3D7FC2C3E95F3DA9A1E705943A18CB0529BA987186EE808C59951676DF84583C2F059F59061607472362E3B24AC09CA64D458A976907BAF0214E2993E3D787157332F790C89E11FE5C2C5834FAAC4E5C66334462D77A996C94DDFB472C05E2FB82303
311
A91119F088C8751CD1E930123474D7B625E3E5848F275A6531A341CF3FD385533C2809ACA99B16618C3079C78797F43AFC41ABCC64D407976EDE87E6EB80BDAD7B7A5A6DBD3F9E7191FF7B466D42DBEC9E9BC203C369C5B5C16895334A650D30D59C27FB06504B030414000608080019826E573D3E06F100010000D7010000
311
2D00000035383739433935392D443133322D343430452D393239442D3439433244334635364437392F636F72652E786D6C95914D6EC3201085AF82D863076C2721C26411B727E8AA3B6A262E4A0C163F558F5FA85DB5DDB51212E8F1BD813723CEEFF31DBD810FC6D91ED36A8711D8D16963A71EA77825478CCE5278E7E20F
311
0C23AB66E87191B114937769D9A4D1D908B6A8D669D8441502448CC67B3EF4388CAF30AB4AA5988970AB1635DED40415AD564E8A68E62FEBE84145D058B21D6B08A584B64F747FCAABA3CFA22EA414C9D8D8B0ED31985F4023B7C41C09CB4ED4EB6DA692D11B6374FEA3B91AF099381EF885779C0CB461A46D770F84333E90
311
965FD8D03C76FBE1C073916C9622449F3BB315293DF8AB7D35FE4A9616FDCF64AB236049BF43D5A5CD52D49F33C87B1989FC00504B030414000608080019826E57F5A8A30F07010000B201000008000000636F72652E786D6C8D50D16E842010FC15B2EFA8285ECE06B9E4ECF9057DEA1B15CE23A760042EEDDF174E9BB46F
311
4D4896CCCCEECC2E3B7DCE137AA8D5696B5A2059014899C14A6DC61682BFE223A01367ABB5FE970C9011B36A21C1C0D9B8DAB0ECD0608D5726A1C64AB583C239E5010D53FCB4E0869B9A4526828F0A77CF1631DCC5A832926D3ACEBC9E7F5A875509AF24F0B2282B4C0826F48D1C5EE2ABC93BCB9392B310B4DCADB48CEEFA
311
AAD50AFCF54C6ADAD102D38EF4985EFA1E37879EE2AEBE5415EDCF0D39362C4FCD9C39BFC69DF72131A7474E3C922FCB378AB30F6BA75D10434964CDF405BC607922FE840E8BFC47686D7C55EE03B70E079CC4404F221AA70BC6F23C6FACE9DAFC1B504B0102140014000608080019826E576E447B41BF000000200100004F
311
000000000000000000000000000000000035383739433935392D443133322D343430452D393239442D3439433244334635364437392F4173736574446174612F446566696E6974696F6E4974657261746F7250726F706572746965732E62696E504B0102140014000608080019826E572CC1E35EEE00000030020000450000
311
00000000000000000000002C01000035383739433935392D443133322D343430452D393239442D3439433244334635364437392F4173736574446174612F496E7374616E636550726F706572746965732E62696E504B0102140014000608080019826E5728BB58AF800100009E0500003D000000000000000000000000007D
311
02000035383739433935392D443133322D343430452D393239442D3439433244334635364437392F536368656D61732F436F6D6D6F6E536368656D612E786D6C504B0102140014000608080019826E572CCEBD668A040000E01200003E000000000000000000000000005804000035383739433935392D443133322D343430
311
452D393239442D3439433244334635364437392F536368656D61732F47656E65726963536368656D612E786D6C504B0102140014000608080019826E576180134D5F0100006B03000045000000000000000000000000003E09000035383739433935392D443133322D343430452D393239442D343943324433463536443739
311
2F536368656D61732F52656E6465724D6174657269616C536368656D612E786D6C504B0102140014000608080019826E57E5041E1051000000570000004700000000000000000000000000000B000035383739433935392D443133322D343430452D393239442D3439433244334635364437392F4173736574446174612F41
311
737365745461626C654F66436F6E74656E74732E62696E504B0102140014000608080019826E57F865834058000000680000004500000000000000000000000000B60B000035383739433935392D443133322D343430452D393239442D3439433244334635364437392F4173736574446174612F53747265616D5665727369
311
6F6E5461626C652E696E66504B0102140014000608080019826E57F61D65C6340100009A0400003600000000000000000000000000710C000035383739433935392D443133322D343430452D393239442D3439433244334635364437392F4173736574446174612F636E782E786D6C504B0102140014000608080019826E57
311
275D576D080100004F0300003400000000000000000000000000F90D000035383739433935392D443133322D343430452D393239442D3439433244334635364437392F536368656D61732F636E782E786D6C504B0102140014000608080019826E57410A3D5871000000A40000002C00000000000000000000000000530F00
311
0035383739433935392D443133322D343430452D393239442D3439433244334635364437392F636E782E786D6C504B0102140014000608080019826E57BA6B39767E000000A300000007000000000000000000000000000E100000636E782E786D6C504B0102140014000608080019826E5716E99B5DA60000003501000013
311
00000000000000000000000000B11000005B436F6E74656E745F54797065735D2E786D6C504B0102140014000608080019826E573DEE336E64000000790000001B00000000000000000000000000881100006175746F6465736B2D64657369676E2D7061636B6167652E786D6C504B0102140014000608080019826E572D04
311
C507F80000009601000037000000000000000000000000002512000035383739433935392D443133322D343430452D393239442D3439433244334635364437392F4173736574446174612F636F72652E786D6C504B0102140014000608080019826E579519D424F70000009401000035000000000000000000000000007213
311
000035383739433935392D443133322D343430452D393239442D3439433244334635364437392F536368656D61732F636F72652E786D6C504B0102140014000608080019826E573D3E06F100010000D70100002D00000000000000000000000000BC14000035383739433935392D443133322D343430452D393239442D3439
311
433244334635364437392F636F72652E786D6C504B0102140014000608080019826E57F5A8A30F07010000B2010000080000000000000000000000000007160000636F72652E786D6C504B050600000000110011005A060000341700000000
310
504B030414000608080019826E57000000000000000000000000370000006662782F31384533394438312D304545382D344137442D414431462D4441363744323139364134392F617474726962757465732E62696E504B030414000608080019826E57000000000000000000000000350000006662782F3138453339443831
310
2D304545382D344137442D414431462D4441363744323139364134392F76657274696365732E62696E504B030414000608080019826E57F270F1330600000004000000360000006662782F31384533394438312D304545382D344137442D414431462D4441363744323139364134392F747269616E676C65732E62696E6366
310
60600000504B030414000608080019826E5751464CB48900000043010000360000006662782F31384533394438312D304545382D344137442D414431462D4441363744323139364134392F6469726563746F72792E786D6C9D8F310EC2300C45AF127987122606C71DD918B841D4B851A43646695A717C52A85029031293A5
310
A76FBF6FACEF7DA7264E43906840EF0FA03836E242F406C6DCEE4EA06AC22492573150D1F66C60C640E8938CB705396EEDD86DE9B5042FE27813D640EA63BB001C722AF6E55CB61E4863F58284D5D3F53DD715CE1C3985E63FD7F1B7EBDD617E9F1E504B030414000608080019826E570A83557638070000201C0000340000
310
006662782F31384533394438312D304545382D344137442D414431462D4441363744323139364134392F6F626A656374732E786D6CDD59DB6EDB3810FD1542FBB2FBA09B6F890BC5457C49611469831A5DEC9B40CBB4C38D6E20A5C4D9AFDF2145CA922CDB4AB6058A4D80C461A8E1CC999933C391F7711F85E899304E93F8
310
C6702DC740240E920D8D7737469E6DCD6B037D9C208F254956D967A01847E4C610CBC6C4DBB1244FD5D2866C711E3657EFA67F211E909818280831E737060F1E49842D9C67C986F0276B83336CEDB67BCBB58A8D75B13B86D3C7C651296624CE4055588F418AD2C0ADFF0926D913CF161B6ADB7ADDB6F5CF6CB3A5E1754569
310
CC331C07475A35E4F4BA69D57707F3456F3836878341DF1C8C7AAE39BD9BCE4DF7AAEFCC46B3D9F8763136D0C45B2749583A2025F106BCF86A4C5CCF16FF29CD5728B4E91D24714C028566DB860D517229E14D4C6AC0BAD2B48A430A5B2B0BFD8EC69FD8D609949A4A35B4B571FA77357A93F5DF0002EF12A58C1311E53C63
310
E06B857D910F8E6717AB35BF508E229C1146718842BA66988183606BE1A09A18912D42141298492F6A79555D21B02FE7529B96DB3C0C45FE1A1399693EE423C9B8D48CFE43D841FBEA69A013589BD338BB56C666AF2988187BB65C2CFED7EFA97F1640A26D8877102D60A6D8D4EF35F09A092E58CE8DC9E7BBF57E25F8A1FD
310
F09425296199883C99CC2AEFB4072BA105C1D7019402D7BAEF0EA87C03E8BF00F2A52EC803CF31BA1FEC07DA768663BE4D5804DE410E321DF8E120F1F1E89367970F4F10AA71E5294C216D7F10A635336A6757209D78CF10F409EB2BE356010E21A6EF692CF21C020585092C01DF6FD77B63B204328545780A87603D7C7BB6
310
F888E0572107F8A6E1A136FAEDE0289D30CD3C3BF8EA13C40CA341E9AA9A8DA7F01DFE107C6FE7ABCFAB9C6D7140EE5562CFC996C6348362DAAE500DF45ACA7F5F7E911979644F6D5700E7EC12411C2D7E5929BF20E9185045D4E1C23572E59E42BA87218E499273B5DE4654411226CC5FBFFA450EB79EF5A70E82E230C86F
310
1101AD6406D53D603415A01813655EC984D60127C1832A00778553FD350E9E04BC7E008CF51E3D206A316B0ACDA3D4C75192C782BE8FC3BB699AD577E497EB8E7BCEB8773D1E6963B914AFB3475343A9BC3827C2E9894366356F29D6D0928B3C1A005BB6591040CF94677E92E28066EDB1D030426528807D56E50DDD6E730E
310
A4DE0A4B4363ABEF0E9153F9591E725E7B75884F23BC23FE168B0AD77A5E0DA052B8B6A015995D98704E63C2658772C45C0D541C0B88A0885B2DB5250829F72392E1F7C49F2C798DF063641BFAD04B65A29BBD1C7D5A41553D4F49149D5B12FBD2FE579FE3280D8B2EED12066EAF71422BAE426971C433C49B8F33DFD910D9
310
745F925EF282C6B793F4F1BBC59F8087E19F0E8F3E8242EB0D35F2B2675D6BE88EC5D73590CA68E8F6AFB4232E61A58FCA440F12E6D03505AFFE0BA1BBC76E84D6E91C4EC2AD4FC3308FFCA21E642482160C6739EB94AFA3A173E47CC50B8D84A89CB4A52134C89D4953F61EBAFB00AB64F3718A342BC7805134863B5A2743
310
8EAC680D61E90B791F15D7AECBDE7FBBD4FFCC97D57BCA13797D49D8A655D37A1BA13B30DD3008BA5415AE8C232979E255932F921797CB380CB410C56FC52D41450823CF540C26E40DA8F5FEC05F70160091AEE46F730A19B1219B434F5113A7C61CC6040ED5D2749F5ABDE900D989F2516BBC96825023983660C1B3F7E243
310
F80D83ABA1F3E3B6EA6AEC627D290A9B058395831E67647DFDB46A488195CE4F3F088CC84B43825A9D8946EE8CA8EFCB43BFDA90A02CFABE3CF378F69847EB185351194558E04DFAE1A3BC4BDED87051B0A78BABD162D61F9BFDF9746C0EAEC673737AD51B99CEF57C3E5D0C66E3DED5D4668427390B08B77BB6E3EBDE298D
310
773A300AE8BADC2860AA70F9EAA7E3B9E9E0FFF18D224CD6F8542CFEAA178AB2DD130D592317BB5E285A897AFDB6EEDF3D22EAF622F6A6CEB99815E8003F5FB6808C74BDEFDE5A68D1BA9368D7B95211DF58784FDE567E7A8DA9117A6B7DA8ED68A3FC3A17C3ECA9A54AE9DBADE4B5D162ECF4A64EDF9CF5C50CF66A716B4E
310
67AE6B0E1777E3D9ED7038EDF56E4BC4552DEC5A577E090ED5CA56C668300DE6494861284F36684712B801C1D4A103BFB2887079B38106409571FD46A0C3D3CFC54C35C3EB503F1D3C62184C87AA22E7010C45E1D67163A875F41B8C41C524520EA7AC27283C2ADA0D94337A6340086414EA8BB58671961C1E4AE98D7125B8
310
0DC73B71672A9E2AFF3E3C26D0815839D855EEE9828BB2AC169D301C48E57B02603BDD90BCDF74AD0EC2197C5CE75969CC61E1608D0241BF10288C83A9DF9382770FC473DE2ED7927B6A90749ACC9F8D8342AA9961B693E3F50ADEB7F3075B4CC6975F511AE63BE1CE73F5BE26C9147D46981743280F0243999962710F9F7D
310
B01F5802AF982274472108D0EFFBEBD11FF62C89A2242E96EC5BF5A20AAD1EE1B5D3C6D6233F685C1C7768CBBE478DF5616EC5898537FC0916C0B58C8AD96801712D004A7AAA0480F688F0053C56DBBF9C2355042A2D6CB57515F0C8993E824412EF7244DA5437540690900BA05531A72D3FE805CF6630049FFC0B504B0304
310
14000608080019826E575AFC121D3D01000046050000300000006662782F31384533394438312D304545382D344137442D414431462D4441363744323139364134392F636E782E786D6CCD94CF4E032110C65F65C37DA1D43F3186A589079FC083F1C6B2D315CBC2060663DF5EA8B46A4C8D872636E140868FE4FBCD7C19B1
310
7A9B6CF30A211AEF3AC2E98234E0B41F8C1B3B9270DDDE90662545F01EBFC848E3D4041D296522C5187C9A6B6980B54AB654AD719B5A5488C1F4092192465B156347A27E86495195D00F10377450A828A701A24F4143FE8F6682FA5F0750080391CBC5F2A2E5BCE5970FFCFA369F2BFE2458514AD17B6FABDE3884E0E746FB
310
7C71D9CC42B0F22C450AA66A0A01919FCE686F9C60F95D8A98DDBAB1EA703B17DD3C5BA315E63631AF11B0CD225093601F622958E1FD467D7FF7B877D00C2680461FB6FFD4007EAC0107633427E16FFC3BE1EFD8BE7FC9B8FF35EDA3B0D5D6C950F7698D39AE3FE79F53A4DC68CF2FF40763A7CF7C5E2568F4F921EF7D9D88
310
98ED565E1E7AD980F21D504B030414000608080019826E57AFCF09B87D000000A30000000B0000006662782F636E782E786D6C4D8CD10A832018465F45FE7B5B6E510A6A08BAF7886521331D2E638F3F1D5DECEA83C3770E1F3F9B47874D6F178300D2B4806C78C4D9855540DE174C018D92A718F7BF1BA0306D5640C520F9
310
9A627E9D68B6CB947DA5DE85E709093537A629C1AD3114776AD0586972C75AF583BE12D6AB8E15E3529532BF5ED99A975F504B030414000608080019826E57A6D797065F0000008200000007000000636E782E786D6C4DCB3B0E80201045D1AD90E9FD7516806B51190811670C8A61F982B1B0BAC9C97B72CA7B1037C6D333
310
2918DA1E04D2CAC69353902EDB8C20262D23F3F59B81A079470595414B17391D1F19B4730A5583A7ED43BBE4025D9592775E5ADFFA01504B030414000608080019826E574FEB6A7CA0000000F4000000130000005B436F6E74656E745F54797065735D2E786D6C7D8F4B0EC2300C44AF1279DFA6B0400835ED02B8011730C1
310
6D239A8F121795DB93D02D6269CFBC19BBED573B8B17C564BC53B0AB1B10E4B47F18372A5878A88E20FAAEBDBD032591BD2E299898C349CAA427B2986A1FC86565F0D122E7318E32A07EE24872DF3407A9BD63725C71C980AEBDD080CBCCE2BAE6F5D69B7110E7CD57AA146008B3D1C8F92C5954F993BB1BF787F39A89ABC4
310
91D09600F9FDA2FB00504B030414000608080019826E573DEE336E64000000790000001B0000006175746F6465736B2D64657369676E2D7061636B6167652E786D6C35CBC10E83200C00D05F21DCA56CA76D41FC96062B120735B69A7DBE268BB7777961F8D5AF396893C2ADB70FE7ADA196782C2DF776D7A97B5933C430F1
310
5651E5469C55D70F80A4992A3ADC954792C525AE70A1E4D6AD9816CC044FEFDF01FE3FDE907802504B030414000608080019826E579FBB8351F9000000960100003B0000006662782F31384533394438312D304545382D344137442D414431462D4441363744323139364134392F7265736F75726365732F636F72652E786D
310
6C8550CB6EC32010FC156BEFD8011337AD30511BD75FD0536F086F5C94182C1E553FBF90B8527BAA84B46876667677C4F16BB9569FE88371B6075AEFA042ABDD64ECDC438A677280EA2885772EFEA24165D5823D1418A498BD4BEB06696723DA825A37E106AA103042A5AFF9D343D01FB8A85AA59819E152AF4A5FD48C35AD
310
EF3C295232D3263553763367831E24671DE7EC75202D1F47C24FE30B797E6C1FC8D00EDDFE701A463674A2296229A2597EA66B8F2AE20492ED584B282594BFD1EE29BF3D7D174D614A11A2CF376F43CB75203D0697BCC6209A7BF78F6B5AA7FF5D93B1B1659BEB5D1140D2BCE4AD21455352CAE51661AE2551F90D504B0304
310
14000608080019826E57ED1A732CF1000000B1010000310000006662782F31384533394438312D304545382D344137442D414431462D4441363744323139364134392F636F72652E786D6C8D50DB6E842014FC1573DE5151EB6A836C4CB45FD0A7BE11602DD9150C97CD7E7E61B549FBB609C921C30C3367C8F9B1DEB2BBB4
310
4E193D00CE4BC8A4E64628BD0C10FC0575909D29B1C6F83F34C8345BE50009064A166BC27640DC682F7542B511F2009973D243C66FF13280E3DF7265390B3E32DC35DF18BFB245E638DF799478B5FE4AB995CC4B01B42AAB1A618C70F389DBF778DEF01729129392109438AC9488EEEAA2A4058ABBB9EEA70EA3729E3BD48C
310
A7098D13FE40D3D89EA60AF7EDD8F4A448624A9CB771E7E393B4DDABF25DF82F73D8C40B9995F6757518EE0A173D639EE70325452A308E67BB71A6B2E90F504B030414000608080019826E57485C511C53010000DD0200000C0000006662782F636F72652E786D6C8D52CB6E833010FC15E43B1003A169651CB5A17C414FBD
310
39C6A156C046C68EF2F95DF310E5D0B402616B766776670439DEBB36B8093348AD0A84A31D0A84E2BA96AA2990B397F080822325466BFBA30D058A75A2401E46943446BB7E86B85656288F2A5D8B1964C3202C0A780B97020DFC4B742C62CE42C7708D7AC6AFAC11118EA63E4A9C93F54C9535A8C98B1406D12CC9B32C792F
310
C334ABAA303B556FE1EB73FA14966999EF0FA7B24ACA9CC49E4C8995DD329D1BC1ACA8114D76491A621CE2EC03E72FF0EEF127897D27258335E0791EEADD217A39DF493CE11B3DD7D77FEB39A96C9ACC7A13634014C37A638192D8E703C718DE3643180CF959766E170B57806E825B6D32A8D4DAADA51B6B9D00E95D303E24
310
9EAAA03C0AFCA6933CD079AC014131D5C06ACCC2F5ECAC9FBEDDA91726BCD97BA0B4E958BB2E37ADB87ED7411B4B0B9DEB569BFFB017AB4B98B1FF31E937504B030414000608080019826E57B484C36808010000B201000008000000636F72652E786D6C8D50416EC32010FC0ADA3BB6C18E9B4698A88DEB17F4D41B35C445
310
B1C13210B5BF2F24546A6F959016CDCCEECC2E3B7E2E33BAAACD696B3A2045054899D14A6DA60E823FE33DA023679BB5FE970C90118BEA20C1C0D9B4D9B06668B4C62B935063A5CAA0704E7940E31C3F1DB8F1432DA210C14785BB14AB182F62520529EE3ACEBC5E7E5AC74D09AF24705AD11A138249F34ADA437C3BF2C6CA
310
A4E42C042DB39596D15D9FB5DA8037B46D1AFAD2E3BA1906DC9C8667FCF4583FE0BEEEDBDDFED40FB46F59999A39737E8B3BE72131A7474E5C932F2BEF1467EFD6CE5910434964CDFC05BC626522FE840EABFC47686D7C4DF3C07B87034E62A01B118DD30563B99D37D6746DFE0D504B0102140014000608080019826E5700
310
00000000000000000000003700000000000000000000000000000000006662782F31384533394438312D304545382D344137442D414431462D4441363744323139364134392F617474726962757465732E62696E504B0102140014000608080019826E57000000000000000000000000350000000000000000000000000055
310
0000006662782F31384533394438312D304545382D344137442D414431462D4441363744323139364134392F76657274696365732E62696E504B0102140014000608080019826E57F270F13306000000040000003600000000000000000000000000A80000006662782F31384533394438312D304545382D344137442D4144
310
31462D4441363744323139364134392F747269616E676C65732E62696E504B0102140014000608080019826E5751464CB489000000430100003600000000000000000000000000020100006662782F31384533394438312D304545382D344137442D414431462D4441363744323139364134392F6469726563746F72792E78
310
6D6C504B0102140014000608080019826E570A83557638070000201C00003400000000000000000000000000DF0100006662782F31384533394438312D304545382D344137442D414431462D4441363744323139364134392F6F626A656374732E786D6C504B0102140014000608080019826E575AFC121D3D010000460500
310
003000000000000000000000000000690900006662782F31384533394438312D304545382D344137442D414431462D4441363744323139364134392F636E782E786D6C504B0102140014000608080019826E57AFCF09B87D000000A30000000B00000000000000000000000000F40A00006662782F636E782E786D6C504B01
310
02140014000608080019826E57A6D797065F0000008200000007000000000000000000000000009A0B0000636E782E786D6C504B0102140014000608080019826E574FEB6A7CA0000000F400000013000000000000000000000000001E0C00005B436F6E74656E745F54797065735D2E786D6C504B01021400140006080800
310
19826E573DEE336E64000000790000001B00000000000000000000000000EF0C00006175746F6465736B2D64657369676E2D7061636B6167652E786D6C504B0102140014000608080019826E579FBB8351F9000000960100003B000000000000000000000000008C0D00006662782F31384533394438312D304545382D3441
310
37442D414431462D4441363744323139364134392F7265736F75726365732F636F72652E786D6C504B0102140014000608080019826E57ED1A732CF1000000B10100003100000000000000000000000000DE0E00006662782F31384533394438312D304545382D344137442D414431462D4441363744323139364134392F63
310
6F72652E786D6C504B0102140014000608080019826E57485C511C53010000DD0200000C000000000000000000000000001E1000006662782F636F72652E786D6C504B0102140014000608080019826E57B484C36808010000B201000008000000000000000000000000009B110000636F72652E786D6C504B050600000000
310
0E000E0080040000C91200000000
  0
XRECORD
  5
8170
102
{ACAD_REACTORS
330
816B
102
}
330
816B
100
AcDbXrecord
280
     1
270
     1
271
     1
  0
XRECORD
  5
816F
102
{ACAD_REACTORS
330
816B
102
}
330
816B
100
AcDbXrecord
280
     1
270
     1
271
     1
  0
XRECORD
  5
8171
102
{ACAD_REACTORS
330
816B
102
}
330
816B
100
AcDbXrecord
280
     1
270
     1
271
     1
  0
XRECORD
  5
816E
102
{ACAD_REACTORS
330
816B
102
}
330
816B
100
AcDbXrecord
280
     1
270
     1
271
     1
  0
XRECORD
  5
85B3
102
{ACAD_REACTORS
330
85B2
102
}
330
85B2
100
AcDbXrecord
280
     1
102
DISPLAYNAME
  1
Imperial24
102
FLAGS
 90
        0
  0
CELLSTYLEMAP
  5
857A
102
{ACAD_REACTORS
330
8579
102
}
330
8579
100
AcDbCellStyleMap
 90
        3
300
CELLSTYLE
  1
TABLEFORMAT_BEGIN
 90
        5
170
     1
 91
        0
 92
    32768
 62
   257
 93
        1
300
CONTENTFORMAT
  1
CONTENTFORMAT_BEGIN
 90
        0
 91
        0
 92
      512
 93
        0
300

 40
0.0
140
1.0
 94
        5
 62
     0
340
819E
144
0.25
309
CONTENTFORMAT_END
171
     0
 94
        0
309
TABLEFORMAT_END
  1
CELLSTYLE_BEGIN
 90
        1
 91
        1
300
_TITLE
309
CELLSTYLE_END
300
CELLSTYLE
  1
TABLEFORMAT_BEGIN
 90
        5
170
     1
 91
        0
 92
        0
 62
   257
 93
        1
300
CONTENTFORMAT
  1
CONTENTFORMAT_BEGIN
 90
        0
 91
        0
 92
      512
 93
        0
300

 40
0.0
140
1.0
 94
        5
 62
     0
340
819E
144
0.18
309
CONTENTFORMAT_END
171
     0
 94
        0
309
TABLEFORMAT_END
  1
CELLSTYLE_BEGIN
 90
        2
 91
        1
300
_HEADER
309
CELLSTYLE_END
300
CELLSTYLE
  1
TABLEFORMAT_BEGIN
 90
        5
170
     1
 91
        0
 92
        0
 62
   257
 93
        1
300
CONTENTFORMAT
  1
CONTENTFORMAT_BEGIN
 90
        0
 91
        0
 92
      512
 93
        0
300

 40
0.0
140
1.0
 94
        2
 62
     0
340
819E
144
0.18
309
CONTENTFORMAT_END
171
     0
 94
        0
309
TABLEFORMAT_END
  1
CELLSTYLE_BEGIN
 90
        3
 91
        2
300
_DATA
309
CELLSTYLE_END
  0
XRECORD
  5
85B0
102
{ACAD_REACTORS
330
8579
102
}
330
8579
100
AcDbXrecord
280
     1
102
ACAD_ROUNDTRIP_PRE2007_TABLESTYLE
 90
      512
 91
        0
  1

 92
      512
 93
        0
  2

 94
      512
 95
        0
  3

  0
XRECORD
  5
858B
102
{ACAD_REACTORS
330
858A
102
}
330
858A
100
AcDbXrecord
280
     1
102
RTVSPost2010Prop28
280
     1
102
RTVSPost2010PropOp28
 70
     1
102
RTVSPost2010Prop29
280
     1
102
RTVSPost2010PropOp29
 70
     1
102
RTVSPost2010Prop30
280
     0
102
RTVSPost2010PropOp30
 70
     1
102
RTVSPost2010Prop31
280
     0
102
RTVSPost2010PropOp31
 70
     1
102
RTVSPost2010Prop32
280
     0
102
RTVSPost2010PropOp32
 70
     1
102
RTVSPost2010Prop33
280
     0
102
RTVSPost2010PropOp33
 70
     1
102
RTVSPost2010Prop34
280
     0
102
RTVSPost2010PropOp34
 70
     1
102
RTVSPost2010Prop35
280
     0
102
RTVSPost2010PropOp35
 70
     1
102
RTVSPost2010Prop36
280
     0
102
RTVSPost2010PropOp36
 70
     1
102
RTVSPost2010Prop37
 90
       50
102
RTVSPost2010PropOp37
 70
     1
102
RTVSPost2010Prop38
140
0.0
102
RTVSPost2010PropOp38
 70
     1
102
RTVSPost2010Prop39
140
1.0
102
RTVSPost2010PropOp39
 70
     1
102
RTVSPost2010Prop40
 90
        0
102
RTVSPost2010PropOp40
 70
     1
102
RTVSPost2010Prop41ColorIndex
 90
       18
102
RTVSPost2010Prop41ColorRGB
 90
        0
102
RTVSPost2010PropOp41
 70
     1
102
RTVSPost2010Prop42
 90
       50
102
RTVSPost2010PropOp42
 70
     1
102
RTVSPost2010Prop43
 90
        3
102
RTVSPost2010PropOp43
 70
     1
102
RTVSPost2010Prop44ColorIndex
 90
        5
102
RTVSPost2010Prop44ColorRGB
 90
      255
102
RTVSPost2010PropOp44
 70
     1
102
RTVSPost2010Prop45
280
     0
102
RTVSPost2010PropOp45
 70
     1
102
RTVSPost2010Prop46
 90
       50
102
RTVSPost2010PropOp46
 70
     1
102
RTVSPost2010Prop47
 90
       50
102
RTVSPost2010PropOp47
 70
     1
102
RTVSPost2010Prop48
 90
       50
102
RTVSPost2010PropOp48
 70
     1
102
RTVSPost2010Prop49
280
     0
102
RTVSPost2010PropOp49
 70
     1
102
RTVSPost2010Prop50
 90
       50
102
RTVSPost2010PropOp50
 70
     1
102
RTVSPost2010Prop51ColorIndex
 90
      256
102
RTVSPost2010Prop51ColorRGB
 90
-16777216
102
RTVSPost2010PropOp51
 70
     0
102
RTVSPost2010Prop52
140
1.0
102
RTVSPost2010PropOp52
 70
     0
102
RTVSPost2010Prop53
 90
        2
102
RTVSPost2010PropOp53
 70
     1
102
RTVSPost2010Prop54
  1
strokes_ogs.tif
102
RTVSPost2010PropOp54
 70
     1
102
RTVSPost2010Prop55
280
     0
102
RTVSPost2010PropOp55
 70
     1
102
RTVSPost2010Prop56
140
1.0
102
RTVSPost2010PropOp56
 70
     1
102
RTVSPost2010Prop57
140
1.0
102
RTVSPost2010PropOp57
 70
     1
102
RTVSPropertyOp0
 70
     1
102
RTVSPropertyOp1
 70
     1
102
RTVSPropertyOp2
 70
     1
102
RTVSPropertyOp3
 70
     1
102
RTVSPropertyOp4
 70
     1
102
RTVSPropertyOp5
 70
     1
102
RTVSPropertyOp6
 70
     1
102
RTVSPropertyOp7
 70
     1
102
RTVSPropertyOp8
 70
     1
102
RTVSPropertyOp9
 70
     1
102
RTVSPropertyOp10
 70
     1
102
RTVSPropertyOp11
 70
     1
102
RTVSPropertyOp12
 70
     1
102
RTVSPropertyOp13
 70
     1
102
RTVSPropertyOp14
 70
     1
102
RTVSPropertyOp15
 70
     1
102
RTVSPropertyOp16
 70
     1
102
RTVSPropertyOp17
 70
     1
102
RTVSPropertyOp18
 70
     1
102
RTVSPropertyOp19
 70
     1
102
RTVSPropertyOp20
 70
     1
102
RTVSPropertyOp21
 70
     1
102
RTVSPropertyOp22
 70
     1
102
RTVSPropertyOp23
 70
     1
102
RTVSPropertyOp24
 70
     1
102
RTVSPropertyOp25
 70
     1
102
RTVSPropertyOp26
 70
     1
102
RTVSPropertyOp27
 70
     1
102
RTVSPropertyOp28
 70
     1
102
RTVSPropertyOp29
 70
     1
102
RTVSPropertyOp30
 70
     1
102
RTVSPropertyOp31
 70
     1
102
RTVSPropertyOp32
 70
     1
102
RTVSPropertyOp33
 70
     1
102
RTVSPropertyOp34
 70
     1
102
RTVSPropertyOp35
 70
     1
102
RTVSPropertyOp36
 70
     1
102
RTVSPropertyOp37
 70
     1
102
RTVSPropertyOp38
 70
     1
102
RTVSPropertyOp39
 70
     1
102
RTVSPropertyOp40
 70
     1
102
RTVSPropertyOp41
 70
     1
102
RTVSPropertyOp42
 70
     1
102
RTVSPropertyOp43
 70
     1
102
RTVSPropertyOp44
 70
     1
102
RTVSPropertyOp45
 70
     1
102
RTVSPropertyOp46
 70
     1
102
RTVSPropertyOp47
 70
     1
102
RTVSPropertyOp48
 70
     1
102
RTVSPropertyOp49
 70
     1
102
RTVSPropertyOp50
 70
     1
102
RTVSPropertyOp51
 70
     0
102
RTVSPropertyOp52
 70
     0
102
RTVSPropertyOp53
 70
     1
102
RTVSPropertyOp54
 70
     1
102
RTVSPropertyOp55
 70
     1
102
RTVSPropertyOp56
 70
     1
102
RTVSPropertyOp57
 70
     1
102
RTVSPropertyOp58
 70
     1
102
RTVSPropertyOp59
 70
     1
102
RTVSPropertyOp60
 70
     1
102
RTVSPropertyOp61
 70
     1
102
RTVSPropertyOp62
 70
     1
  0
XRECORD
  5
8589
102
{ACAD_REACTORS
330
8588
102
}
330
8588
100
AcDbXrecord
280
     1
102
RTVSPost2010Prop28
280
     0
102
RTVSPost2010PropOp28
 70
     1
102
RTVSPost2010Prop29
280
     1
102
RTVSPost2010PropOp29
 70
     1
102
RTVSPost2010Prop30
280
     1
102
RTVSPost2010PropOp30
 70
     1
102
RTVSPost2010Prop31
280
     0
102
RTVSPost2010PropOp31
 70
     1
102
RTVSPost2010Prop32
280
     0
102
RTVSPost2010PropOp32
 70
     1
102
RTVSPost2010Prop33
280
     0
102
RTVSPost2010PropOp33
 70
     1
102
RTVSPost2010Prop34
280
     0
102
RTVSPost2010PropOp34
 70
     1
102
RTVSPost2010Prop35
280
     0
102
RTVSPost2010PropOp35
 70
     1
102
RTVSPost2010Prop36
280
     0
102
RTVSPost2010PropOp36
 70
     1
102
RTVSPost2010Prop37
 90
       50
102
RTVSPost2010PropOp37
 70
     1
102
RTVSPost2010Prop38
140
0.0
102
RTVSPost2010PropOp38
 70
     1
102
RTVSPost2010Prop39
140
1.0
102
RTVSPost2010PropOp39
 70
     1
102
RTVSPost2010Prop40
 90
        0
102
RTVSPost2010PropOp40
 70
     1
102
RTVSPost2010Prop41ColorIndex
 90
       18
102
RTVSPost2010Prop41ColorRGB
 90
        0
102
RTVSPost2010PropOp41
 70
     1
102
RTVSPost2010Prop42
 90
       50
102
RTVSPost2010PropOp42
 70
     1
102
RTVSPost2010Prop43
 90
        3
102
RTVSPost2010PropOp43
 70
     1
102
RTVSPost2010Prop44ColorIndex
 90
        5
102
RTVSPost2010Prop44ColorRGB
 90
      255
102
RTVSPost2010PropOp44
 70
     1
102
RTVSPost2010Prop45
280
     0
102
RTVSPost2010PropOp45
 70
     1
102
RTVSPost2010Prop46
 90
       50
102
RTVSPost2010PropOp46
 70
     1
102
RTVSPost2010Prop47
 90
       50
102
RTVSPost2010PropOp47
 70
     1
102
RTVSPost2010Prop48
 90
       50
102
RTVSPost2010PropOp48
 70
     1
102
RTVSPost2010Prop49
280
     0
102
RTVSPost2010PropOp49
 70
     1
102
RTVSPost2010Prop50
 90
       50
102
RTVSPost2010PropOp50
 70
     1
102
RTVSPost2010Prop51ColorIndex
 90
      256
102
RTVSPost2010Prop51ColorRGB
 90
-16777216
102
RTVSPost2010PropOp51
 70
     0
102
RTVSPost2010Prop52
140
1.0
102
RTVSPost2010PropOp52
 70
     0
102
RTVSPost2010Prop53
 90
        2
102
RTVSPost2010PropOp53
 70
     1
102
RTVSPost2010Prop54
  1
strokes_ogs.tif
102
RTVSPost2010PropOp54
 70
     1
102
RTVSPost2010Prop55
280
     0
102
RTVSPost2010PropOp55
 70
     1
102
RTVSPost2010Prop56
140
1.0
102
RTVSPost2010PropOp56
 70
     1
102
RTVSPost2010Prop57
140
1.0
102
RTVSPost2010PropOp57
 70
     1
102
RTVSPropertyOp0
 70
     1
102
RTVSPropertyOp1
 70
     1
102
RTVSPropertyOp2
 70
     1
102
RTVSPropertyOp3
 70
     1
102
RTVSPropertyOp4
 70
     1
102
RTVSPropertyOp5
 70
     1
102
RTVSPropertyOp6
 70
     1
102
RTVSPropertyOp7
 70
     1
102
RTVSPropertyOp8
 70
     1
102
RTVSPropertyOp9
 70
     1
102
RTVSPropertyOp10
 70
     1
102
RTVSPropertyOp11
 70
     1
102
RTVSPropertyOp12
 70
     1
102
RTVSPropertyOp13
 70
     1
102
RTVSPropertyOp14
 70
     1
102
RTVSPropertyOp15
 70
     1
102
RTVSPropertyOp16
 70
     1
102
RTVSPropertyOp17
 70
     1
102
RTVSPropertyOp18
 70
     1
102
RTVSPropertyOp19
 70
     1
102
RTVSPropertyOp20
 70
     1
102
RTVSPropertyOp21
 70
     1
102
RTVSPropertyOp22
 70
     1
102
RTVSPropertyOp23
 70
     1
102
RTVSPropertyOp24
 70
     1
102
RTVSPropertyOp25
 70
     1
102
RTVSPropertyOp26
 70
     1
102
RTVSPropertyOp27
 70
     1
102
RTVSPropertyOp28
 70
     1
102
RTVSPropertyOp29
 70
     1
102
RTVSPropertyOp30
 70
     1
102
RTVSPropertyOp31
 70
     1
102
RTVSPropertyOp32
 70
     1
102
RTVSPropertyOp33
 70
     1
102
RTVSPropertyOp34
 70
     1
102
RTVSPropertyOp35
 70
     1
102
RTVSPropertyOp36
 70
     1
102
RTVSPropertyOp37
 70
     1
102
RTVSPropertyOp38
 70
     1
102
RTVSPropertyOp39
 70
     1
102
RTVSPropertyOp40
 70
     1
102
RTVSPropertyOp41
 70
     1
102
RTVSPropertyOp42
 70
     1
102
RTVSPropertyOp43
 70
     1
102
RTVSPropertyOp44
 70
     1
102
RTVSPropertyOp45
 70
     1
102
RTVSPropertyOp46
 70
     1
102
RTVSPropertyOp47
 70
     1
102
RTVSPropertyOp48
 70
     1
102
RTVSPropertyOp49
 70
     1
102
RTVSPropertyOp50
 70
     1
102
RTVSPropertyOp51
 70
     0
102
RTVSPropertyOp52
 70
     0
102
RTVSPropertyOp53
 70
     1
102
RTVSPropertyOp54
 70
     1
102
RTVSPropertyOp55
 70
     1
102
RTVSPropertyOp56
 70
     1
102
RTVSPropertyOp57
 70
     1
102
RTVSPropertyOp58
 70
     1
102
RTVSPropertyOp59
 70
     1
102
RTVSPropertyOp60
 70
     1
102
RTVSPropertyOp61
 70
     1
102
RTVSPropertyOp62
 70
     1
  0
XRECORD
  5
8597
102
{ACAD_REACTORS
330
8596
102
}
330
8596
100
AcDbXrecord
280
     1
102
RTVSPost2010Prop28
280
     0
102
RTVSPost2010PropOp28
 70
     1
102
RTVSPost2010Prop29
280
     1
102
RTVSPost2010PropOp29
 70
     1
102
RTVSPost2010Prop30
280
     1
102
RTVSPost2010PropOp30
 70
     1
102
RTVSPost2010Prop31
280
     0
102
RTVSPost2010PropOp31
 70
     1
102
RTVSPost2010Prop32
280
     0
102
RTVSPost2010PropOp32
 70
     1
102
RTVSPost2010Prop33
280
     0
102
RTVSPost2010PropOp33
 70
     1
102
RTVSPost2010Prop34
280
     0
102
RTVSPost2010PropOp34
 70
     1
102
RTVSPost2010Prop35
280
     0
102
RTVSPost2010PropOp35
 70
     1
102
RTVSPost2010Prop36
280
     0
102
RTVSPost2010PropOp36
 70
     1
102
RTVSPost2010Prop37
 90
       50
102
RTVSPost2010PropOp37
 70
     1
102
RTVSPost2010Prop38
140
0.0
102
RTVSPost2010PropOp38
 70
     1
102
RTVSPost2010Prop39
140
1.0
102
RTVSPost2010PropOp39
 70
     1
102
RTVSPost2010Prop40
 90
        0
102
RTVSPost2010PropOp40
 70
     1
102
RTVSPost2010Prop41ColorIndex
 90
       18
102
RTVSPost2010Prop41ColorRGB
 90
        0
102
RTVSPost2010PropOp41
 70
     1
102
RTVSPost2010Prop42
 90
       50
102
RTVSPost2010PropOp42
 70
     1
102
RTVSPost2010Prop43
 90
        3
102
RTVSPost2010PropOp43
 70
     1
102
RTVSPost2010Prop44ColorIndex
 90
        5
102
RTVSPost2010Prop44ColorRGB
 90
      255
102
RTVSPost2010PropOp44
 70
     1
102
RTVSPost2010Prop45
280
     0
102
RTVSPost2010PropOp45
 70
     1
102
RTVSPost2010Prop46
 90
       50
102
RTVSPost2010PropOp46
 70
     1
102
RTVSPost2010Prop47
 90
       50
102
RTVSPost2010PropOp47
 70
     1
102
RTVSPost2010Prop48
 90
       50
102
RTVSPost2010PropOp48
 70
     1
102
RTVSPost2010Prop49
280
     0
102
RTVSPost2010PropOp49
 70
     1
102
RTVSPost2010Prop50
 90
       50
102
RTVSPost2010PropOp50
 70
     1
102
RTVSPost2010Prop51ColorIndex
 90
      256
102
RTVSPost2010Prop51ColorRGB
 90
-16777216
102
RTVSPost2010PropOp51
 70
     0
102
RTVSPost2010Prop52
140
1.0
102
RTVSPost2010PropOp52
 70
     0
102
RTVSPost2010Prop53
 90
        2
102
RTVSPost2010PropOp53
 70
     1
102
RTVSPost2010Prop54
  1
strokes_ogs.tif
102
RTVSPost2010PropOp54
 70
     1
102
RTVSPost2010Prop55
280
     0
102
RTVSPost2010PropOp55
 70
     1
102
RTVSPost2010Prop56
140
1.0
102
RTVSPost2010PropOp56
 70
     1
102
RTVSPost2010Prop57
140
1.0
102
RTVSPost2010PropOp57
 70
     1
102
RTVSPropertyOp0
 70
     1
102
RTVSPropertyOp1
 70
     1
102
RTVSPropertyOp2
 70
     1
102
RTVSPropertyOp3
 70
     1
102
RTVSPropertyOp4
 70
     1
102
RTVSPropertyOp5
 70
     1
102
RTVSPropertyOp6
 70
     1
102
RTVSPropertyOp7
 70
     1
102
RTVSPropertyOp8
 70
     1
102
RTVSPropertyOp9
 70
     1
102
RTVSPropertyOp10
 70
     1
102
RTVSPropertyOp11
 70
     1
102
RTVSPropertyOp12
 70
     1
102
RTVSPropertyOp13
 70
     1
102
RTVSPropertyOp14
 70
     1
102
RTVSPropertyOp15
 70
     1
102
RTVSPropertyOp16
 70
     1
102
RTVSPropertyOp17
 70
     1
102
RTVSPropertyOp18
 70
     1
102
RTVSPropertyOp19
 70
     1
102
RTVSPropertyOp20
 70
     1
102
RTVSPropertyOp21
 70
     1
102
RTVSPropertyOp22
 70
     1
102
RTVSPropertyOp23
 70
     1
102
RTVSPropertyOp24
 70
     1
102
RTVSPropertyOp25
 70
     1
102
RTVSPropertyOp26
 70
     1
102
RTVSPropertyOp27
 70
     1
102
RTVSPropertyOp28
 70
     1
102
RTVSPropertyOp29
 70
     1
102
RTVSPropertyOp30
 70
     1
102
RTVSPropertyOp31
 70
     1
102
RTVSPropertyOp32
 70
     1
102
RTVSPropertyOp33
 70
     1
102
RTVSPropertyOp34
 70
     1
102
RTVSPropertyOp35
 70
     1
102
RTVSPropertyOp36
 70
     1
102
RTVSPropertyOp37
 70
     1
102
RTVSPropertyOp38
 70
     1
102
RTVSPropertyOp39
 70
     1
102
RTVSPropertyOp40
 70
     1
102
RTVSPropertyOp41
 70
     1
102
RTVSPropertyOp42
 70
     1
102
RTVSPropertyOp43
 70
     1
102
RTVSPropertyOp44
 70
     1
102
RTVSPropertyOp45
 70
     1
102
RTVSPropertyOp46
 70
     1
102
RTVSPropertyOp47
 70
     1
102
RTVSPropertyOp48
 70
     1
102
RTVSPropertyOp49
 70
     1
102
RTVSPropertyOp50
 70
     1
102
RTVSPropertyOp51
 70
     0
102
RTVSPropertyOp52
 70
     0
102
RTVSPropertyOp53
 70
     1
102
RTVSPropertyOp54
 70
     1
102
RTVSPropertyOp55
 70
     1
102
RTVSPropertyOp56
 70
     1
102
RTVSPropertyOp57
 70
     1
102
RTVSPropertyOp58
 70
     1
102
RTVSPropertyOp59
 70
     1
102
RTVSPropertyOp60
 70
     1
102
RTVSPropertyOp61
 70
     1
102
RTVSPropertyOp62
 70
     1
  0
XRECORD
  5
859F
102
{ACAD_REACTORS
330
859E
102
}
330
859E
100
AcDbXrecord
280
     1
102
RTVSPost2010Prop28
280
     0
102
RTVSPost2010PropOp28
 70
     1
102
RTVSPost2010Prop29
280
     1
102
RTVSPost2010PropOp29
 70
     1
102
RTVSPost2010Prop30
280
     1
102
RTVSPost2010PropOp30
 70
     1
102
RTVSPost2010Prop31
280
     0
102
RTVSPost2010PropOp31
 70
     1
102
RTVSPost2010Prop32
280
     0
102
RTVSPost2010PropOp32
 70
     1
102
RTVSPost2010Prop33
280
     0
102
RTVSPost2010PropOp33
 70
     1
102
RTVSPost2010Prop34
280
     0
102
RTVSPost2010PropOp34
 70
     1
102
RTVSPost2010Prop35
280
     0
102
RTVSPost2010PropOp35
 70
     1
102
RTVSPost2010Prop36
280
     0
102
RTVSPost2010PropOp36
 70
     1
102
RTVSPost2010Prop37
 90
       50
102
RTVSPost2010PropOp37
 70
     1
102
RTVSPost2010Prop38
140
0.0
102
RTVSPost2010PropOp38
 70
     1
102
RTVSPost2010Prop39
140
1.0
102
RTVSPost2010PropOp39
 70
     1
102
RTVSPost2010Prop40
 90
        0
102
RTVSPost2010PropOp40
 70
     1
102
RTVSPost2010Prop41ColorIndex
 90
       18
102
RTVSPost2010Prop41ColorRGB
 90
        0
102
RTVSPost2010PropOp41
 70
     1
102
RTVSPost2010Prop42
 90
       50
102
RTVSPost2010PropOp42
 70
     1
102
RTVSPost2010Prop43
 90
        3
102
RTVSPost2010PropOp43
 70
     1
102
RTVSPost2010Prop44ColorIndex
 90
        5
102
RTVSPost2010Prop44ColorRGB
 90
      255
102
RTVSPost2010PropOp44
 70
     1
102
RTVSPost2010Prop45
280
     0
102
RTVSPost2010PropOp45
 70
     1
102
RTVSPost2010Prop46
 90
       50
102
RTVSPost2010PropOp46
 70
     1
102
RTVSPost2010Prop47
 90
       50
102
RTVSPost2010PropOp47
 70
     1
102
RTVSPost2010Prop48
 90
       50
102
RTVSPost2010PropOp48
 70
     1
102
RTVSPost2010Prop49
280
     0
102
RTVSPost2010PropOp49
 70
     1
102
RTVSPost2010Prop50
 90
       50
102
RTVSPost2010PropOp50
 70
     1
102
RTVSPost2010Prop51ColorIndex
 90
      256
102
RTVSPost2010Prop51ColorRGB
 90
-16777216
102
RTVSPost2010PropOp51
 70
     0
102
RTVSPost2010Prop52
140
1.0
102
RTVSPost2010PropOp52
 70
     0
102
RTVSPost2010Prop53
 90
        2
102
RTVSPost2010PropOp53
 70
     1
102
RTVSPost2010Prop54
  1
strokes_ogs.tif
102
RTVSPost2010PropOp54
 70
     1
102
RTVSPost2010Prop55
280
     0
102
RTVSPost2010PropOp55
 70
     1
102
RTVSPost2010Prop56
140
1.0
102
RTVSPost2010PropOp56
 70
     1
102
RTVSPost2010Prop57
140
1.0
102
RTVSPost2010PropOp57
 70
     1
102
RTVSPropertyOp0
 70
     1
102
RTVSPropertyOp1
 70
     1
102
RTVSPropertyOp2
 70
     1
102
RTVSPropertyOp3
 70
     1
102
RTVSPropertyOp4
 70
     1
102
RTVSPropertyOp5
 70
     1
102
RTVSPropertyOp6
 70
     1
102
RTVSPropertyOp7
 70
     1
102
RTVSPropertyOp8
 70
     1
102
RTVSPropertyOp9
 70
     1
102
RTVSPropertyOp10
 70
     1
102
RTVSPropertyOp11
 70
     1
102
RTVSPropertyOp12
 70
     1
102
RTVSPropertyOp13
 70
     1
102
RTVSPropertyOp14
 70
     1
102
RTVSPropertyOp15
 70
     1
102
RTVSPropertyOp16
 70
     1
102
RTVSPropertyOp17
 70
     1
102
RTVSPropertyOp18
 70
     1
102
RTVSPropertyOp19
 70
     1
102
RTVSPropertyOp20
 70
     1
102
RTVSPropertyOp21
 70
     1
102
RTVSPropertyOp22
 70
     1
102
RTVSPropertyOp23
 70
     1
102
RTVSPropertyOp24
 70
     1
102
RTVSPropertyOp25
 70
     1
102
RTVSPropertyOp26
 70
     1
102
RTVSPropertyOp27
 70
     1
102
RTVSPropertyOp28
 70
     1
102
RTVSPropertyOp29
 70
     1
102
RTVSPropertyOp30
 70
     1
102
RTVSPropertyOp31
 70
     1
102
RTVSPropertyOp32
 70
     1
102
RTVSPropertyOp33
 70
     1
102
RTVSPropertyOp34
 70
     1
102
RTVSPropertyOp35
 70
     1
102
RTVSPropertyOp36
 70
     1
102
RTVSPropertyOp37
 70
     1
102
RTVSPropertyOp38
 70
     1
102
RTVSPropertyOp39
 70
     1
102
RTVSPropertyOp40
 70
     1
102
RTVSPropertyOp41
 70
     1
102
RTVSPropertyOp42
 70
     1
102
RTVSPropertyOp43
 70
     1
102
RTVSPropertyOp44
 70
     1
102
RTVSPropertyOp45
 70
     1
102
RTVSPropertyOp46
 70
     1
102
RTVSPropertyOp47
 70
     1
102
RTVSPropertyOp48
 70
     1
102
RTVSPropertyOp49
 70
     1
102
RTVSPropertyOp50
 70
     1
102
RTVSPropertyOp51
 70
     0
102
RTVSPropertyOp52
 70
     0
102
RTVSPropertyOp53
 70
     1
102
RTVSPropertyOp54
 70
     1
102
RTVSPropertyOp55
 70
     1
102
RTVSPropertyOp56
 70
     1
102
RTVSPropertyOp57
 70
     1
102
RTVSPropertyOp58
 70
     1
102
RTVSPropertyOp59
 70
     1
102
RTVSPropertyOp60
 70
     1
102
RTVSPropertyOp61
 70
     1
102
RTVSPropertyOp62
 70
     1
  0
XRECORD
  5
8591
102
{ACAD_REACTORS
330
8590
102
}
330
8590
100
AcDbXrecord
280
     1
102
RTVSPost2010Prop28
280
     0
102
RTVSPost2010PropOp28
 70
     1
102
RTVSPost2010Prop29
280
     1
102
RTVSPost2010PropOp29
 70
     1
102
RTVSPost2010Prop30
280
     1
102
RTVSPost2010PropOp30
 70
     1
102
RTVSPost2010Prop31
280
     0
102
RTVSPost2010PropOp31
 70
     1
102
RTVSPost2010Prop32
280
     0
102
RTVSPost2010PropOp32
 70
     1
102
RTVSPost2010Prop33
280
     0
102
RTVSPost2010PropOp33
 70
     1
102
RTVSPost2010Prop34
280
     0
102
RTVSPost2010PropOp34
 70
     1
102
RTVSPost2010Prop35
280
     0
102
RTVSPost2010PropOp35
 70
     1
102
RTVSPost2010Prop36
280
     0
102
RTVSPost2010PropOp36
 70
     1
102
RTVSPost2010Prop37
 90
       50
102
RTVSPost2010PropOp37
 70
     1
102
RTVSPost2010Prop38
140
0.0
102
RTVSPost2010PropOp38
 70
     1
102
RTVSPost2010Prop39
140
1.0
102
RTVSPost2010PropOp39
 70
     1
102
RTVSPost2010Prop40
 90
        0
102
RTVSPost2010PropOp40
 70
     1
102
RTVSPost2010Prop41ColorIndex
 90
       18
102
RTVSPost2010Prop41ColorRGB
 90
        0
102
RTVSPost2010PropOp41
 70
     1
102
RTVSPost2010Prop42
 90
       50
102
RTVSPost2010PropOp42
 70
     1
102
RTVSPost2010Prop43
 90
        3
102
RTVSPost2010PropOp43
 70
     1
102
RTVSPost2010Prop44ColorIndex
 90
        5
102
RTVSPost2010Prop44ColorRGB
 90
      255
102
RTVSPost2010PropOp44
 70
     1
102
RTVSPost2010Prop45
280
     0
102
RTVSPost2010PropOp45
 70
     1
102
RTVSPost2010Prop46
 90
       50
102
RTVSPost2010PropOp46
 70
     1
102
RTVSPost2010Prop47
 90
       50
102
RTVSPost2010PropOp47
 70
     1
102
RTVSPost2010Prop48
 90
       50
102
RTVSPost2010PropOp48
 70
     1
102
RTVSPost2010Prop49
280
     0
102
RTVSPost2010PropOp49
 70
     1
102
RTVSPost2010Prop50
 90
       50
102
RTVSPost2010PropOp50
 70
     1
102
RTVSPost2010Prop51ColorIndex
 90
      256
102
RTVSPost2010Prop51ColorRGB
 90
-16777216
102
RTVSPost2010PropOp51
 70
     0
102
RTVSPost2010Prop52
140
1.0
102
RTVSPost2010PropOp52
 70
     0
102
RTVSPost2010Prop53
 90
        2
102
RTVSPost2010PropOp53
 70
     1
102
RTVSPost2010Prop54
  1
strokes_ogs.tif
102
RTVSPost2010PropOp54
 70
     1
102
RTVSPost2010Prop55
280
     0
102
RTVSPost2010PropOp55
 70
     1
102
RTVSPost2010Prop56
140
1.0
102
RTVSPost2010PropOp56
 70
     1
102
RTVSPost2010Prop57
140
1.0
102
RTVSPost2010PropOp57
 70
     1
102
RTVSPropertyOp0
 70
     1
102
RTVSPropertyOp1
 70
     1
102
RTVSPropertyOp2
 70
     1
102
RTVSPropertyOp3
 70
     1
102
RTVSPropertyOp4
 70
     1
102
RTVSPropertyOp5
 70
     1
102
RTVSPropertyOp6
 70
     1
102
RTVSPropertyOp7
 70
     1
102
RTVSPropertyOp8
 70
     1
102
RTVSPropertyOp9
 70
     1
102
RTVSPropertyOp10
 70
     1
102
RTVSPropertyOp11
 70
     1
102
RTVSPropertyOp12
 70
     1
102
RTVSPropertyOp13
 70
     1
102
RTVSPropertyOp14
 70
     1
102
RTVSPropertyOp15
 70
     1
102
RTVSPropertyOp16
 70
     1
102
RTVSPropertyOp17
 70
     1
102
RTVSPropertyOp18
 70
     1
102
RTVSPropertyOp19
 70
     1
102
RTVSPropertyOp20
 70
     1
102
RTVSPropertyOp21
 70
     1
102
RTVSPropertyOp22
 70
     1
102
RTVSPropertyOp23
 70
     1
102
RTVSPropertyOp24
 70
     1
102
RTVSPropertyOp25
 70
     1
102
RTVSPropertyOp26
 70
     1
102
RTVSPropertyOp27
 70
     1
102
RTVSPropertyOp28
 70
     1
102
RTVSPropertyOp29
 70
     1
102
RTVSPropertyOp30
 70
     1
102
RTVSPropertyOp31
 70
     1
102
RTVSPropertyOp32
 70
     1
102
RTVSPropertyOp33
 70
     1
102
RTVSPropertyOp34
 70
     1
102
RTVSPropertyOp35
 70
     1
102
RTVSPropertyOp36
 70
     1
102
RTVSPropertyOp37
 70
     1
102
RTVSPropertyOp38
 70
     1
102
RTVSPropertyOp39
 70
     1
102
RTVSPropertyOp40
 70
     1
102
RTVSPropertyOp41
 70
     1
102
RTVSPropertyOp42
 70
     1
102
RTVSPropertyOp43
 70
     1
102
RTVSPropertyOp44
 70
     1
102
RTVSPropertyOp45
 70
     1
102
RTVSPropertyOp46
 70
     1
102
RTVSPropertyOp47
 70
     1
102
RTVSPropertyOp48
 70
     1
102
RTVSPropertyOp49
 70
     1
102
RTVSPropertyOp50
 70
     1
102
RTVSPropertyOp51
 70
     0
102
RTVSPropertyOp52
 70
     0
102
RTVSPropertyOp53
 70
     1
102
RTVSPropertyOp54
 70
     1
102
RTVSPropertyOp55
 70
     1
102
RTVSPropertyOp56
 70
     1
102
RTVSPropertyOp57
 70
     1
102
RTVSPropertyOp58
 70
     1
102
RTVSPropertyOp59
 70
     1
102
RTVSPropertyOp60
 70
     1
102
RTVSPropertyOp61
 70
     1
102
RTVSPropertyOp62
 70
     1
  0
XRECORD
  5
8595
102
{ACAD_REACTORS
330
8594
102
}
330
8594
100
AcDbXrecord
280
     1
102
RTVSPost2010Prop28
280
     0
102
RTVSPost2010PropOp28
 70
     1
102
RTVSPost2010Prop29
280
     1
102
RTVSPost2010PropOp29
 70
     1
102
RTVSPost2010Prop30
280
     1
102
RTVSPost2010PropOp30
 70
     1
102
RTVSPost2010Prop31
280
     0
102
RTVSPost2010PropOp31
 70
     1
102
RTVSPost2010Prop32
280
     0
102
RTVSPost2010PropOp32
 70
     1
102
RTVSPost2010Prop33
280
     0
102
RTVSPost2010PropOp33
 70
     1
102
RTVSPost2010Prop34
280
     0
102
RTVSPost2010PropOp34
 70
     1
102
RTVSPost2010Prop35
280
     0
102
RTVSPost2010PropOp35
 70
     1
102
RTVSPost2010Prop36
280
     0
102
RTVSPost2010PropOp36
 70
     1
102
RTVSPost2010Prop37
 90
       50
102
RTVSPost2010PropOp37
 70
     1
102
RTVSPost2010Prop38
140
0.0
102
RTVSPost2010PropOp38
 70
     1
102
RTVSPost2010Prop39
140
1.0
102
RTVSPost2010PropOp39
 70
     1
102
RTVSPost2010Prop40
 90
        0
102
RTVSPost2010PropOp40
 70
     1
102
RTVSPost2010Prop41ColorIndex
 90
       18
102
RTVSPost2010Prop41ColorRGB
 90
        0
102
RTVSPost2010PropOp41
 70
     1
102
RTVSPost2010Prop42
 90
       50
102
RTVSPost2010PropOp42
 70
     1
102
RTVSPost2010Prop43
 90
        3
102
RTVSPost2010PropOp43
 70
     1
102
RTVSPost2010Prop44ColorIndex
 90
        5
102
RTVSPost2010Prop44ColorRGB
 90
      255
102
RTVSPost2010PropOp44
 70
     1
102
RTVSPost2010Prop45
280
     0
102
RTVSPost2010PropOp45
 70
     1
102
RTVSPost2010Prop46
 90
       50
102
RTVSPost2010PropOp46
 70
     1
102
RTVSPost2010Prop47
 90
       50
102
RTVSPost2010PropOp47
 70
     1
102
RTVSPost2010Prop48
 90
       50
102
RTVSPost2010PropOp48
 70
     1
102
RTVSPost2010Prop49
280
     0
102
RTVSPost2010PropOp49
 70
     1
102
RTVSPost2010Prop50
 90
       50
102
RTVSPost2010PropOp50
 70
     1
102
RTVSPost2010Prop51ColorIndex
 90
      256
102
RTVSPost2010Prop51ColorRGB
 90
-16777216
102
RTVSPost2010PropOp51
 70
     0
102
RTVSPost2010Prop52
140
1.0
102
RTVSPost2010PropOp52
 70
     0
102
RTVSPost2010Prop53
 90
        2
102
RTVSPost2010PropOp53
 70
     1
102
RTVSPost2010Prop54
  1
strokes_ogs.tif
102
RTVSPost2010PropOp54
 70
     1
102
RTVSPost2010Prop55
280
     0
102
RTVSPost2010PropOp55
 70
     1
102
RTVSPost2010Prop56
140
1.0
102
RTVSPost2010PropOp56
 70
     1
102
RTVSPost2010Prop57
140
1.0
102
RTVSPost2010PropOp57
 70
     1
102
RTVSPropertyOp0
 70
     1
102
RTVSPropertyOp1
 70
     1
102
RTVSPropertyOp2
 70
     1
102
RTVSPropertyOp3
 70
     1
102
RTVSPropertyOp4
 70
     1
102
RTVSPropertyOp5
 70
     1
102
RTVSPropertyOp6
 70
     1
102
RTVSPropertyOp7
 70
     1
102
RTVSPropertyOp8
 70
     1
102
RTVSPropertyOp9
 70
     1
102
RTVSPropertyOp10
 70
     1
102
RTVSPropertyOp11
 70
     1
102
RTVSPropertyOp12
 70
     1
102
RTVSPropertyOp13
 70
     1
102
RTVSPropertyOp14
 70
     1
102
RTVSPropertyOp15
 70
     1
102
RTVSPropertyOp16
 70
     1
102
RTVSPropertyOp17
 70
     1
102
RTVSPropertyOp18
 70
     1
102
RTVSPropertyOp19
 70
     1
102
RTVSPropertyOp20
 70
     1
102
RTVSPropertyOp21
 70
     1
102
RTVSPropertyOp22
 70
     1
102
RTVSPropertyOp23
 70
     1
102
RTVSPropertyOp24
 70
     1
102
RTVSPropertyOp25
 70
     1
102
RTVSPropertyOp26
 70
     1
102
RTVSPropertyOp27
 70
     1
102
RTVSPropertyOp28
 70
     1
102
RTVSPropertyOp29
 70
     1
102
RTVSPropertyOp30
 70
     1
102
RTVSPropertyOp31
 70
     1
102
RTVSPropertyOp32
 70
     1
102
RTVSPropertyOp33
 70
     1
102
RTVSPropertyOp34
 70
     1
102
RTVSPropertyOp35
 70
     1
102
RTVSPropertyOp36
 70
     1
102
RTVSPropertyOp37
 70
     1
102
RTVSPropertyOp38
 70
     1
102
RTVSPropertyOp39
 70
     1
102
RTVSPropertyOp40
 70
     1
102
RTVSPropertyOp41
 70
     1
102
RTVSPropertyOp42
 70
     1
102
RTVSPropertyOp43
 70
     1
102
RTVSPropertyOp44
 70
     1
102
RTVSPropertyOp45
 70
     1
102
RTVSPropertyOp46
 70
     1
102
RTVSPropertyOp47
 70
     1
102
RTVSPropertyOp48
 70
     1
102
RTVSPropertyOp49
 70
     1
102
RTVSPropertyOp50
 70
     1
102
RTVSPropertyOp51
 70
     0
102
RTVSPropertyOp52
 70
     0
102
RTVSPropertyOp53
 70
     1
102
RTVSPropertyOp54
 70
     1
102
RTVSPropertyOp55
 70
     1
102
RTVSPropertyOp56
 70
     1
102
RTVSPropertyOp57
 70
     1
102
RTVSPropertyOp58
 70
     1
102
RTVSPropertyOp59
 70
     1
102
RTVSPropertyOp60
 70
     1
102
RTVSPropertyOp61
 70
     1
102
RTVSPropertyOp62
 70
     1
  0
XRECORD
  5
85AF
102
{ACAD_REACTORS
330
85AE
102
}
330
85AE
100
AcDbXrecord
280
     1
102
RTVSPost2010Prop28
280
     0
102
RTVSPost2010PropOp28
 70
     1
102
RTVSPost2010Prop29
280
     1
102
RTVSPost2010PropOp29
 70
     1
102
RTVSPost2010Prop30
280
     1
102
RTVSPost2010PropOp30
 70
     1
102
RTVSPost2010Prop31
280
     0
102
RTVSPost2010PropOp31
 70
     1
102
RTVSPost2010Prop32
280
     0
102
RTVSPost2010PropOp32
 70
     1
102
RTVSPost2010Prop33
280
     0
102
RTVSPost2010PropOp33
 70
     1
102
RTVSPost2010Prop34
280
     0
102
RTVSPost2010PropOp34
 70
     1
102
RTVSPost2010Prop35
280
     0
102
RTVSPost2010PropOp35
 70
     1
102
RTVSPost2010Prop36
280
     0
102
RTVSPost2010PropOp36
 70
     1
102
RTVSPost2010Prop37
 90
       50
102
RTVSPost2010PropOp37
 70
     0
102
RTVSPost2010Prop38
140
0.0
102
RTVSPost2010PropOp38
 70
     0
102
RTVSPost2010Prop39
140
1.0
102
RTVSPost2010PropOp39
 70
     0
102
RTVSPost2010Prop40
 90
        0
102
RTVSPost2010PropOp40
 70
     0
102
RTVSPost2010Prop41ColorIndex
 90
       18
102
RTVSPost2010Prop41ColorRGB
 90
        0
102
RTVSPost2010PropOp41
 70
     0
102
RTVSPost2010Prop42
 90
       50
102
RTVSPost2010PropOp42
 70
     0
102
RTVSPost2010Prop43
 90
        3
102
RTVSPost2010PropOp43
 70
     0
102
RTVSPost2010Prop44ColorIndex
 90
        5
102
RTVSPost2010Prop44ColorRGB
 90
      255
102
RTVSPost2010PropOp44
 70
     0
102
RTVSPost2010Prop45
280
     0
102
RTVSPost2010PropOp45
 70
     1
102
RTVSPost2010Prop46
 90
       50
102
RTVSPost2010PropOp46
 70
     0
102
RTVSPost2010Prop47
 90
       50
102
RTVSPost2010PropOp47
 70
     0
102
RTVSPost2010Prop48
 90
       50
102
RTVSPost2010PropOp48
 70
     0
102
RTVSPost2010Prop49
280
     0
102
RTVSPost2010PropOp49
 70
     1
102
RTVSPost2010Prop50
 90
       50
102
RTVSPost2010PropOp50
 70
     0
102
RTVSPost2010Prop51ColorIndex
 90
      256
102
RTVSPost2010Prop51ColorRGB
 90
-16777216
102
RTVSPost2010PropOp51
 70
     0
102
RTVSPost2010Prop52
140
1.0
102
RTVSPost2010PropOp52
 70
     0
102
RTVSPost2010Prop53
 90
        2
102
RTVSPost2010PropOp53
 70
     0
102
RTVSPost2010Prop54
  1
strokes_ogs.tif
102
RTVSPost2010PropOp54
 70
     0
102
RTVSPost2010Prop55
280
     0
102
RTVSPost2010PropOp55
 70
     1
102
RTVSPost2010Prop56
140
1.0
102
RTVSPost2010PropOp56
 70
     0
102
RTVSPost2010Prop57
140
1.0
102
RTVSPost2010PropOp57
 70
     0
102
RTVSPropertyOp0
 70
     0
102
RTVSPropertyOp1
 70
     0
102
RTVSPropertyOp2
 70
     0
102
RTVSPropertyOp3
 70
     0
102
RTVSPropertyOp4
 70
     0
102
RTVSPropertyOp5
 70
     0
102
RTVSPropertyOp6
 70
     0
102
RTVSPropertyOp7
 70
     0
102
RTVSPropertyOp8
 70
     0
102
RTVSPropertyOp9
 70
     0
102
RTVSPropertyOp10
 70
     0
102
RTVSPropertyOp11
 70
     0
102
RTVSPropertyOp12
 70
     0
102
RTVSPropertyOp13
 70
     0
102
RTVSPropertyOp14
 70
     2
102
RTVSPropertyOp15
 70
     0
102
RTVSPropertyOp16
 70
     0
102
RTVSPropertyOp17
 70
     0
102
RTVSPropertyOp18
 70
     0
102
RTVSPropertyOp19
 70
     0
102
RTVSPropertyOp20
 70
     0
102
RTVSPropertyOp21
 70
     0
102
RTVSPropertyOp22
 70
     0
102
RTVSPropertyOp23
 70
     0
102
RTVSPropertyOp24
 70
     0
102
RTVSPropertyOp25
 70
     0
102
RTVSPropertyOp26
 70
     0
102
RTVSPropertyOp27
 70
     0
102
RTVSPropertyOp28
 70
     1
102
RTVSPropertyOp29
 70
     1
102
RTVSPropertyOp30
 70
     1
102
RTVSPropertyOp31
 70
     1
102
RTVSPropertyOp32
 70
     1
102
RTVSPropertyOp33
 70
     1
102
RTVSPropertyOp34
 70
     1
102
RTVSPropertyOp35
 70
     1
102
RTVSPropertyOp36
 70
     1
102
RTVSPropertyOp37
 70
     0
102
RTVSPropertyOp38
 70
     0
102
RTVSPropertyOp39
 70
     0
102
RTVSPropertyOp40
 70
     0
102
RTVSPropertyOp41
 70
     0
102
RTVSPropertyOp42
 70
     0
102
RTVSPropertyOp43
 70
     0
102
RTVSPropertyOp44
 70
     0
102
RTVSPropertyOp45
 70
     1
102
RTVSPropertyOp46
 70
     0
102
RTVSPropertyOp47
 70
     0
102
RTVSPropertyOp48
 70
     0
102
RTVSPropertyOp49
 70
     1
102
RTVSPropertyOp50
 70
     0
102
RTVSPropertyOp51
 70
     0
102
RTVSPropertyOp52
 70
     0
102
RTVSPropertyOp53
 70
     0
102
RTVSPropertyOp54
 70
     0
102
RTVSPropertyOp55
 70
     1
102
RTVSPropertyOp56
 70
     0
102
RTVSPropertyOp57
 70
     0
102
RTVSPropertyOp58
 70
     0
102
RTVSPropertyOp59
 70
     0
102
RTVSPropertyOp60
 70
     0
102
RTVSPropertyOp61
 70
     0
102
RTVSPropertyOp62
 70
     0
  0
XRECORD
  5
859D
102
{ACAD_REACTORS
330
859C
102
}
330
859C
100
AcDbXrecord
280
     1
102
RTVSPost2010Prop28
280
     0
102
RTVSPost2010PropOp28
 70
     1
102
RTVSPost2010Prop29
280
     1
102
RTVSPost2010PropOp29
 70
     1
102
RTVSPost2010Prop30
280
     1
102
RTVSPost2010PropOp30
 70
     1
102
RTVSPost2010Prop31
280
     0
102
RTVSPost2010PropOp31
 70
     1
102
RTVSPost2010Prop32
280
     0
102
RTVSPost2010PropOp32
 70
     1
102
RTVSPost2010Prop33
280
     0
102
RTVSPost2010PropOp33
 70
     1
102
RTVSPost2010Prop34
280
     0
102
RTVSPost2010PropOp34
 70
     1
102
RTVSPost2010Prop35
280
     0
102
RTVSPost2010PropOp35
 70
     1
102
RTVSPost2010Prop36
280
     0
102
RTVSPost2010PropOp36
 70
     1
102
RTVSPost2010Prop37
 90
       50
102
RTVSPost2010PropOp37
 70
     1
102
RTVSPost2010Prop38
140
0.0
102
RTVSPost2010PropOp38
 70
     1
102
RTVSPost2010Prop39
140
1.0
102
RTVSPost2010PropOp39
 70
     1
102
RTVSPost2010Prop40
 90
        0
102
RTVSPost2010PropOp40
 70
     1
102
RTVSPost2010Prop41ColorIndex
 90
       18
102
RTVSPost2010Prop41ColorRGB
 90
        0
102
RTVSPost2010PropOp41
 70
     1
102
RTVSPost2010Prop42
 90
       50
102
RTVSPost2010PropOp42
 70
     1
102
RTVSPost2010Prop43
 90
        3
102
RTVSPost2010PropOp43
 70
     1
102
RTVSPost2010Prop44ColorIndex
 90
        5
102
RTVSPost2010Prop44ColorRGB
 90
      255
102
RTVSPost2010PropOp44
 70
     1
102
RTVSPost2010Prop45
280
     0
102
RTVSPost2010PropOp45
 70
     1
102
RTVSPost2010Prop46
 90
       50
102
RTVSPost2010PropOp46
 70
     1
102
RTVSPost2010Prop47
 90
       50
102
RTVSPost2010PropOp47
 70
     1
102
RTVSPost2010Prop48
 90
       50
102
RTVSPost2010PropOp48
 70
     1
102
RTVSPost2010Prop49
280
     0
102
RTVSPost2010PropOp49
 70
     1
102
RTVSPost2010Prop50
 90
       50
102
RTVSPost2010PropOp50
 70
     1
102
RTVSPost2010Prop51ColorIndex
 90
      256
102
RTVSPost2010Prop51ColorRGB
 90
-16777216
102
RTVSPost2010PropOp51
 70
     0
102
RTVSPost2010Prop52
140
1.0
102
RTVSPost2010PropOp52
 70
     0
102
RTVSPost2010Prop53
 90
        2
102
RTVSPost2010PropOp53
 70
     1
102
RTVSPost2010Prop54
  1
strokes_ogs.tif
102
RTVSPost2010PropOp54
 70
     1
102
RTVSPost2010Prop55
280
     0
102
RTVSPost2010PropOp55
 70
     1
102
RTVSPost2010Prop56
140
1.0
102
RTVSPost2010PropOp56
 70
     1
102
RTVSPost2010Prop57
140
1.0
102
RTVSPost2010PropOp57
 70
     1
102
RTVSPropertyOp0
 70
     1
102
RTVSPropertyOp1
 70
     1
102
RTVSPropertyOp2
 70
     1
102
RTVSPropertyOp3
 70
     1
102
RTVSPropertyOp4
 70
     1
102
RTVSPropertyOp5
 70
     1
102
RTVSPropertyOp6
 70
     1
102
RTVSPropertyOp7
 70
     1
102
RTVSPropertyOp8
 70
     1
102
RTVSPropertyOp9
 70
     1
102
RTVSPropertyOp10
 70
     1
102
RTVSPropertyOp11
 70
     1
102
RTVSPropertyOp12
 70
     1
102
RTVSPropertyOp13
 70
     1
102
RTVSPropertyOp14
 70
     1
102
RTVSPropertyOp15
 70
     1
102
RTVSPropertyOp16
 70
     1
102
RTVSPropertyOp17
 70
     1
102
RTVSPropertyOp18
 70
     1
102
RTVSPropertyOp19
 70
     1
102
RTVSPropertyOp20
 70
     1
102
RTVSPropertyOp21
 70
     1
102
RTVSPropertyOp22
 70
     1
102
RTVSPropertyOp23
 70
     1
102
RTVSPropertyOp24
 70
     1
102
RTVSPropertyOp25
 70
     1
102
RTVSPropertyOp26
 70
     1
102
RTVSPropertyOp27
 70
     1
102
RTVSPropertyOp28
 70
     1
102
RTVSPropertyOp29
 70
     1
102
RTVSPropertyOp30
 70
     1
102
RTVSPropertyOp31
 70
     1
102
RTVSPropertyOp32
 70
     1
102
RTVSPropertyOp33
 70
     1
102
RTVSPropertyOp34
 70
     1
102
RTVSPropertyOp35
 70
     1
102
RTVSPropertyOp36
 70
     1
102
RTVSPropertyOp37
 70
     1
102
RTVSPropertyOp38
 70
     1
102
RTVSPropertyOp39
 70
     1
102
RTVSPropertyOp40
 70
     1
102
RTVSPropertyOp41
 70
     1
102
RTVSPropertyOp42
 70
     1
102
RTVSPropertyOp43
 70
     1
102
RTVSPropertyOp44
 70
     1
102
RTVSPropertyOp45
 70
     1
102
RTVSPropertyOp46
 70
     1
102
RTVSPropertyOp47
 70
     1
102
RTVSPropertyOp48
 70
     1
102
RTVSPropertyOp49
 70
     1
102
RTVSPropertyOp50
 70
     1
102
RTVSPropertyOp51
 70
     0
102
RTVSPropertyOp52
 70
     0
102
RTVSPropertyOp53
 70
     1
102
RTVSPropertyOp54
 70
     1
102
RTVSPropertyOp55
 70
     1
102
RTVSPropertyOp56
 70
     1
102
RTVSPropertyOp57
 70
     1
102
RTVSPropertyOp58
 70
     1
102
RTVSPropertyOp59
 70
     1
102
RTVSPropertyOp60
 70
     1
102
RTVSPropertyOp61
 70
     1
102
RTVSPropertyOp62
 70
     1
  0
XRECORD
  5
8581
102
{ACAD_REACTORS
330
8580
102
}
330
8580
100
AcDbXrecord
280
     1
102
RTVSPost2010Prop28
280
     0
102
RTVSPost2010PropOp28
 70
     1
102
RTVSPost2010Prop29
280
     1
102
RTVSPost2010PropOp29
 70
     1
102
RTVSPost2010Prop30
280
     1
102
RTVSPost2010PropOp30
 70
     1
102
RTVSPost2010Prop31
280
     0
102
RTVSPost2010PropOp31
 70
     1
102
RTVSPost2010Prop32
280
     0
102
RTVSPost2010PropOp32
 70
     1
102
RTVSPost2010Prop33
280
     0
102
RTVSPost2010PropOp33
 70
     1
102
RTVSPost2010Prop34
280
     0
102
RTVSPost2010PropOp34
 70
     1
102
RTVSPost2010Prop35
280
     0
102
RTVSPost2010PropOp35
 70
     1
102
RTVSPost2010Prop36
280
     0
102
RTVSPost2010PropOp36
 70
     1
102
RTVSPost2010Prop37
 90
       50
102
RTVSPost2010PropOp37
 70
     1
102
RTVSPost2010Prop38
140
0.0
102
RTVSPost2010PropOp38
 70
     1
102
RTVSPost2010Prop39
140
1.0
102
RTVSPost2010PropOp39
 70
     1
102
RTVSPost2010Prop40
 90
        0
102
RTVSPost2010PropOp40
 70
     1
102
RTVSPost2010Prop41ColorIndex
 90
       18
102
RTVSPost2010Prop41ColorRGB
 90
        0
102
RTVSPost2010PropOp41
 70
     1
102
RTVSPost2010Prop42
 90
       50
102
RTVSPost2010PropOp42
 70
     1
102
RTVSPost2010Prop43
 90
        3
102
RTVSPost2010PropOp43
 70
     1
102
RTVSPost2010Prop44ColorIndex
 90
        5
102
RTVSPost2010Prop44ColorRGB
 90
      255
102
RTVSPost2010PropOp44
 70
     1
102
RTVSPost2010Prop45
280
     0
102
RTVSPost2010PropOp45
 70
     1
102
RTVSPost2010Prop46
 90
       50
102
RTVSPost2010PropOp46
 70
     1
102
RTVSPost2010Prop47
 90
       50
102
RTVSPost2010PropOp47
 70
     1
102
RTVSPost2010Prop48
 90
       50
102
RTVSPost2010PropOp48
 70
     1
102
RTVSPost2010Prop49
280
     0
102
RTVSPost2010PropOp49
 70
     1
102
RTVSPost2010Prop50
 90
       50
102
RTVSPost2010PropOp50
 70
     1
102
RTVSPost2010Prop51ColorIndex
 90
      256
102
RTVSPost2010Prop51ColorRGB
 90
-16777216
102
RTVSPost2010PropOp51
 70
     0
102
RTVSPost2010Prop52
140
1.0
102
RTVSPost2010PropOp52
 70
     0
102
RTVSPost2010Prop53
 90
        2
102
RTVSPost2010PropOp53
 70
     1
102
RTVSPost2010Prop54
  1
strokes_ogs.tif
102
RTVSPost2010PropOp54
 70
     1
102
RTVSPost2010Prop55
280
     0
102
RTVSPost2010PropOp55
 70
     1
102
RTVSPost2010Prop56
140
1.0
102
RTVSPost2010PropOp56
 70
     1
102
RTVSPost2010Prop57
140
1.0
102
RTVSPost2010PropOp57
 70
     1
102
RTVSPropertyOp0
 70
     1
102
RTVSPropertyOp1
 70
     1
102
RTVSPropertyOp2
 70
     1
102
RTVSPropertyOp3
 70
     1
102
RTVSPropertyOp4
 70
     1
102
RTVSPropertyOp5
 70
     1
102
RTVSPropertyOp6
 70
     1
102
RTVSPropertyOp7
 70
     1
102
RTVSPropertyOp8
 70
     1
102
RTVSPropertyOp9
 70
     1
102
RTVSPropertyOp10
 70
     1
102
RTVSPropertyOp11
 70
     1
102
RTVSPropertyOp12
 70
     1
102
RTVSPropertyOp13
 70
     1
102
RTVSPropertyOp14
 70
     1
102
RTVSPropertyOp15
 70
     1
102
RTVSPropertyOp16
 70
     1
102
RTVSPropertyOp17
 70
     1
102
RTVSPropertyOp18
 70
     1
102
RTVSPropertyOp19
 70
     1
102
RTVSPropertyOp20
 70
     1
102
RTVSPropertyOp21
 70
     1
102
RTVSPropertyOp22
 70
     1
102
RTVSPropertyOp23
 70
     1
102
RTVSPropertyOp24
 70
     1
102
RTVSPropertyOp25
 70
     1
102
RTVSPropertyOp26
 70
     1
102
RTVSPropertyOp27
 70
     1
102
RTVSPropertyOp28
 70
     1
102
RTVSPropertyOp29
 70
     1
102
RTVSPropertyOp30
 70
     1
102
RTVSPropertyOp31
 70
     1
102
RTVSPropertyOp32
 70
     1
102
RTVSPropertyOp33
 70
     1
102
RTVSPropertyOp34
 70
     1
102
RTVSPropertyOp35
 70
     1
102
RTVSPropertyOp36
 70
     1
102
RTVSPropertyOp37
 70
     1
102
RTVSPropertyOp38
 70
     1
102
RTVSPropertyOp39
 70
     1
102
RTVSPropertyOp40
 70
     1
102
RTVSPropertyOp41
 70
     1
102
RTVSPropertyOp42
 70
     1
102
RTVSPropertyOp43
 70
     1
102
RTVSPropertyOp44
 70
     1
102
RTVSPropertyOp45
 70
     1
102
RTVSPropertyOp46
 70
     1
102
RTVSPropertyOp47
 70
     1
102
RTVSPropertyOp48
 70
     1
102
RTVSPropertyOp49
 70
     1
102
RTVSPropertyOp50
 70
     1
102
RTVSPropertyOp51
 70
     0
102
RTVSPropertyOp52
 70
     0
102
RTVSPropertyOp53
 70
     1
102
RTVSPropertyOp54
 70
     1
102
RTVSPropertyOp55
 70
     1
102
RTVSPropertyOp56
 70
     1
102
RTVSPropertyOp57
 70
     1
102
RTVSPropertyOp58
 70
     1
102
RTVSPropertyOp59
 70
     1
102
RTVSPropertyOp60
 70
     1
102
RTVSPropertyOp61
 70
     1
102
RTVSPropertyOp62
 70
     1
  0
XRECORD
  5
8583
102
{ACAD_REACTORS
330
8582
102
}
330
8582
100
AcDbXrecord
280
     1
102
RTVSPost2010Prop28
280
     0
102
RTVSPost2010PropOp28
 70
     1
102
RTVSPost2010Prop29
280
     1
102
RTVSPost2010PropOp29
 70
     1
102
RTVSPost2010Prop30
280
     1
102
RTVSPost2010PropOp30
 70
     1
102
RTVSPost2010Prop31
280
     0
102
RTVSPost2010PropOp31
 70
     1
102
RTVSPost2010Prop32
280
     0
102
RTVSPost2010PropOp32
 70
     1
102
RTVSPost2010Prop33
280
     0
102
RTVSPost2010PropOp33
 70
     1
102
RTVSPost2010Prop34
280
     0
102
RTVSPost2010PropOp34
 70
     1
102
RTVSPost2010Prop35
280
     0
102
RTVSPost2010PropOp35
 70
     1
102
RTVSPost2010Prop36
280
     0
102
RTVSPost2010PropOp36
 70
     1
102
RTVSPost2010Prop37
 90
       50
102
RTVSPost2010PropOp37
 70
     1
102
RTVSPost2010Prop38
140
0.0
102
RTVSPost2010PropOp38
 70
     1
102
RTVSPost2010Prop39
140
1.0
102
RTVSPost2010PropOp39
 70
     1
102
RTVSPost2010Prop40
 90
        0
102
RTVSPost2010PropOp40
 70
     1
102
RTVSPost2010Prop41ColorIndex
 90
       18
102
RTVSPost2010Prop41ColorRGB
 90
        0
102
RTVSPost2010PropOp41
 70
     1
102
RTVSPost2010Prop42
 90
       50
102
RTVSPost2010PropOp42
 70
     1
102
RTVSPost2010Prop43
 90
        3
102
RTVSPost2010PropOp43
 70
     1
102
RTVSPost2010Prop44ColorIndex
 90
        5
102
RTVSPost2010Prop44ColorRGB
 90
      255
102
RTVSPost2010PropOp44
 70
     1
102
RTVSPost2010Prop45
280
     0
102
RTVSPost2010PropOp45
 70
     1
102
RTVSPost2010Prop46
 90
       50
102
RTVSPost2010PropOp46
 70
     1
102
RTVSPost2010Prop47
 90
       50
102
RTVSPost2010PropOp47
 70
     1
102
RTVSPost2010Prop48
 90
       50
102
RTVSPost2010PropOp48
 70
     1
102
RTVSPost2010Prop49
280
     0
102
RTVSPost2010PropOp49
 70
     1
102
RTVSPost2010Prop50
 90
       50
102
RTVSPost2010PropOp50
 70
     1
102
RTVSPost2010Prop51ColorIndex
 90
      256
102
RTVSPost2010Prop51ColorRGB
 90
-16777216
102
RTVSPost2010PropOp51
 70
     0
102
RTVSPost2010Prop52
140
1.0
102
RTVSPost2010PropOp52
 70
     0
102
RTVSPost2010Prop53
 90
        2
102
RTVSPost2010PropOp53
 70
     1
102
RTVSPost2010Prop54
  1
strokes_ogs.tif
102
RTVSPost2010PropOp54
 70
     1
102
RTVSPost2010Prop55
280
     0
102
RTVSPost2010PropOp55
 70
     1
102
RTVSPost2010Prop56
140
1.0
102
RTVSPost2010PropOp56
 70
     1
102
RTVSPost2010Prop57
140
1.0
102
RTVSPost2010PropOp57
 70
     1
102
RTVSPropertyOp0
 70
     1
102
RTVSPropertyOp1
 70
     1
102
RTVSPropertyOp2
 70
     1
102
RTVSPropertyOp3
 70
     1
102
RTVSPropertyOp4
 70
     1
102
RTVSPropertyOp5
 70
     1
102
RTVSPropertyOp6
 70
     1
102
RTVSPropertyOp7
 70
     1
102
RTVSPropertyOp8
 70
     1
102
RTVSPropertyOp9
 70
     1
102
RTVSPropertyOp10
 70
     1
102
RTVSPropertyOp11
 70
     1
102
RTVSPropertyOp12
 70
     1
102
RTVSPropertyOp13
 70
     1
102
RTVSPropertyOp14
 70
     1
102
RTVSPropertyOp15
 70
     1
102
RTVSPropertyOp16
 70
     1
102
RTVSPropertyOp17
 70
     1
102
RTVSPropertyOp18
 70
     1
102
RTVSPropertyOp19
 70
     1
102
RTVSPropertyOp20
 70
     1
102
RTVSPropertyOp21
 70
     1
102
RTVSPropertyOp22
 70
     1
102
RTVSPropertyOp23
 70
     1
102
RTVSPropertyOp24
 70
     1
102
RTVSPropertyOp25
 70
     1
102
RTVSPropertyOp26
 70
     1
102
RTVSPropertyOp27
 70
     1
102
RTVSPropertyOp28
 70
     1
102
RTVSPropertyOp29
 70
     1
102
RTVSPropertyOp30
 70
     1
102
RTVSPropertyOp31
 70
     1
102
RTVSPropertyOp32
 70
     1
102
RTVSPropertyOp33
 70
     1
102
RTVSPropertyOp34
 70
     1
102
RTVSPropertyOp35
 70
     1
102
RTVSPropertyOp36
 70
     1
102
RTVSPropertyOp37
 70
     1
102
RTVSPropertyOp38
 70
     1
102
RTVSPropertyOp39
 70
     1
102
RTVSPropertyOp40
 70
     1
102
RTVSPropertyOp41
 70
     1
102
RTVSPropertyOp42
 70
     1
102
RTVSPropertyOp43
 70
     1
102
RTVSPropertyOp44
 70
     1
102
RTVSPropertyOp45
 70
     1
102
RTVSPropertyOp46
 70
     1
102
RTVSPropertyOp47
 70
     1
102
RTVSPropertyOp48
 70
     1
102
RTVSPropertyOp49
 70
     1
102
RTVSPropertyOp50
 70
     1
102
RTVSPropertyOp51
 70
     0
102
RTVSPropertyOp52
 70
     0
102
RTVSPropertyOp53
 70
     1
102
RTVSPropertyOp54
 70
     1
102
RTVSPropertyOp55
 70
     1
102
RTVSPropertyOp56
 70
     1
102
RTVSPropertyOp57
 70
     1
102
RTVSPropertyOp58
 70
     1
102
RTVSPropertyOp59
 70
     1
102
RTVSPropertyOp60
 70
     1
102
RTVSPropertyOp61
 70
     1
102
RTVSPropertyOp62
 70
     1
  0
XRECORD
  5
8585
102
{ACAD_REACTORS
330
8584
102
}
330
8584
100
AcDbXrecord
280
     1
102
RTVSPost2010Prop28
280
     0
102
RTVSPost2010PropOp28
 70
     1
102
RTVSPost2010Prop29
280
     1
102
RTVSPost2010PropOp29
 70
     1
102
RTVSPost2010Prop30
280
     1
102
RTVSPost2010PropOp30
 70
     1
102
RTVSPost2010Prop31
280
     0
102
RTVSPost2010PropOp31
 70
     1
102
RTVSPost2010Prop32
280
     0
102
RTVSPost2010PropOp32
 70
     1
102
RTVSPost2010Prop33
280
     0
102
RTVSPost2010PropOp33
 70
     1
102
RTVSPost2010Prop34
280
     0
102
RTVSPost2010PropOp34
 70
     1
102
RTVSPost2010Prop35
280
     0
102
RTVSPost2010PropOp35
 70
     1
102
RTVSPost2010Prop36
280
     0
102
RTVSPost2010PropOp36
 70
     1
102
RTVSPost2010Prop37
 90
       50
102
RTVSPost2010PropOp37
 70
     1
102
RTVSPost2010Prop38
140
0.0
102
RTVSPost2010PropOp38
 70
     1
102
RTVSPost2010Prop39
140
1.0
102
RTVSPost2010PropOp39
 70
     1
102
RTVSPost2010Prop40
 90
        0
102
RTVSPost2010PropOp40
 70
     1
102
RTVSPost2010Prop41ColorIndex
 90
       18
102
RTVSPost2010Prop41ColorRGB
 90
        0
102
RTVSPost2010PropOp41
 70
     1
102
RTVSPost2010Prop42
 90
       50
102
RTVSPost2010PropOp42
 70
     1
102
RTVSPost2010Prop43
 90
        3
102
RTVSPost2010PropOp43
 70
     1
102
RTVSPost2010Prop44ColorIndex
 90
        5
102
RTVSPost2010Prop44ColorRGB
 90
      255
102
RTVSPost2010PropOp44
 70
     1
102
RTVSPost2010Prop45
280
     0
102
RTVSPost2010PropOp45
 70
     1
102
RTVSPost2010Prop46
 90
       50
102
RTVSPost2010PropOp46
 70
     1
102
RTVSPost2010Prop47
 90
       50
102
RTVSPost2010PropOp47
 70
     1
102
RTVSPost2010Prop48
 90
       50
102
RTVSPost2010PropOp48
 70
     1
102
RTVSPost2010Prop49
280
     0
102
RTVSPost2010PropOp49
 70
     1
102
RTVSPost2010Prop50
 90
       50
102
RTVSPost2010PropOp50
 70
     1
102
RTVSPost2010Prop51ColorIndex
 90
      256
102
RTVSPost2010Prop51ColorRGB
 90
-16777216
102
RTVSPost2010PropOp51
 70
     0
102
RTVSPost2010Prop52
140
1.0
102
RTVSPost2010PropOp52
 70
     0
102
RTVSPost2010Prop53
 90
        2
102
RTVSPost2010PropOp53
 70
     1
102
RTVSPost2010Prop54
  1
strokes_ogs.tif
102
RTVSPost2010PropOp54
 70
     1
102
RTVSPost2010Prop55
280
     0
102
RTVSPost2010PropOp55
 70
     1
102
RTVSPost2010Prop56
140
1.0
102
RTVSPost2010PropOp56
 70
     1
102
RTVSPost2010Prop57
140
1.0
102
RTVSPost2010PropOp57
 70
     1
102
RTVSPropertyOp0
 70
     1
102
RTVSPropertyOp1
 70
     1
102
RTVSPropertyOp2
 70
     1
102
RTVSPropertyOp3
 70
     1
102
RTVSPropertyOp4
 70
     1
102
RTVSPropertyOp5
 70
     1
102
RTVSPropertyOp6
 70
     1
102
RTVSPropertyOp7
 70
     1
102
RTVSPropertyOp8
 70
     1
102
RTVSPropertyOp9
 70
     1
102
RTVSPropertyOp10
 70
     1
102
RTVSPropertyOp11
 70
     1
102
RTVSPropertyOp12
 70
     1
102
RTVSPropertyOp13
 70
     1
102
RTVSPropertyOp14
 70
     1
102
RTVSPropertyOp15
 70
     1
102
RTVSPropertyOp16
 70
     1
102
RTVSPropertyOp17
 70
     1
102
RTVSPropertyOp18
 70
     1
102
RTVSPropertyOp19
 70
     1
102
RTVSPropertyOp20
 70
     1
102
RTVSPropertyOp21
 70
     1
102
RTVSPropertyOp22
 70
     1
102
RTVSPropertyOp23
 70
     1
102
RTVSPropertyOp24
 70
     1
102
RTVSPropertyOp25
 70
     1
102
RTVSPropertyOp26
 70
     1
102
RTVSPropertyOp27
 70
     1
102
RTVSPropertyOp28
 70
     1
102
RTVSPropertyOp29
 70
     1
102
RTVSPropertyOp30
 70
     1
102
RTVSPropertyOp31
 70
     1
102
RTVSPropertyOp32
 70
     1
102
RTVSPropertyOp33
 70
     1
102
RTVSPropertyOp34
 70
     1
102
RTVSPropertyOp35
 70
     1
102
RTVSPropertyOp36
 70
     1
102
RTVSPropertyOp37
 70
     1
102
RTVSPropertyOp38
 70
     1
102
RTVSPropertyOp39
 70
     1
102
RTVSPropertyOp40
 70
     1
102
RTVSPropertyOp41
 70
     1
102
RTVSPropertyOp42
 70
     1
102
RTVSPropertyOp43
 70
     1
102
RTVSPropertyOp44
 70
     1
102
RTVSPropertyOp45
 70
     1
102
RTVSPropertyOp46
 70
     1
102
RTVSPropertyOp47
 70
     1
102
RTVSPropertyOp48
 70
     1
102
RTVSPropertyOp49
 70
     1
102
RTVSPropertyOp50
 70
     1
102
RTVSPropertyOp51
 70
     0
102
RTVSPropertyOp52
 70
     0
102
RTVSPropertyOp53
 70
     1
102
RTVSPropertyOp54
 70
     1
102
RTVSPropertyOp55
 70
     1
102
RTVSPropertyOp56
 70
     1
102
RTVSPropertyOp57
 70
     1
102
RTVSPropertyOp58
 70
     1
102
RTVSPropertyOp59
 70
     1
102
RTVSPropertyOp60
 70
     1
102
RTVSPropertyOp61
 70
     1
102
RTVSPropertyOp62
 70
     1
  0
XRECORD
  5
8587
102
{ACAD_REACTORS
330
8586
102
}
330
8586
100
AcDbXrecord
280
     1
102
RTVSPost2010Prop28
280
     0
102
RTVSPost2010PropOp28
 70
     1
102
RTVSPost2010Prop29
280
     1
102
RTVSPost2010PropOp29
 70
     1
102
RTVSPost2010Prop30
280
     1
102
RTVSPost2010PropOp30
 70
     1
102
RTVSPost2010Prop31
280
     0
102
RTVSPost2010PropOp31
 70
     1
102
RTVSPost2010Prop32
280
     0
102
RTVSPost2010PropOp32
 70
     1
102
RTVSPost2010Prop33
280
     0
102
RTVSPost2010PropOp33
 70
     1
102
RTVSPost2010Prop34
280
     0
102
RTVSPost2010PropOp34
 70
     1
102
RTVSPost2010Prop35
280
     0
102
RTVSPost2010PropOp35
 70
     1
102
RTVSPost2010Prop36
280
     0
102
RTVSPost2010PropOp36
 70
     1
102
RTVSPost2010Prop37
 90
       50
102
RTVSPost2010PropOp37
 70
     1
102
RTVSPost2010Prop38
140
0.0
102
RTVSPost2010PropOp38
 70
     1
102
RTVSPost2010Prop39
140
1.0
102
RTVSPost2010PropOp39
 70
     1
102
RTVSPost2010Prop40
 90
        0
102
RTVSPost2010PropOp40
 70
     1
102
RTVSPost2010Prop41ColorIndex
 90
       18
102
RTVSPost2010Prop41ColorRGB
 90
        0
102
RTVSPost2010PropOp41
 70
     1
102
RTVSPost2010Prop42
 90
       50
102
RTVSPost2010PropOp42
 70
     1
102
RTVSPost2010Prop43
 90
        3
102
RTVSPost2010PropOp43
 70
     1
102
RTVSPost2010Prop44ColorIndex
 90
        5
102
RTVSPost2010Prop44ColorRGB
 90
      255
102
RTVSPost2010PropOp44
 70
     1
102
RTVSPost2010Prop45
280
     0
102
RTVSPost2010PropOp45
 70
     1
102
RTVSPost2010Prop46
 90
       50
102
RTVSPost2010PropOp46
 70
     1
102
RTVSPost2010Prop47
 90
       50
102
RTVSPost2010PropOp47
 70
     1
102
RTVSPost2010Prop48
 90
       50
102
RTVSPost2010PropOp48
 70
     1
102
RTVSPost2010Prop49
280
     0
102
RTVSPost2010PropOp49
 70
     1
102
RTVSPost2010Prop50
 90
       50
102
RTVSPost2010PropOp50
 70
     1
102
RTVSPost2010Prop51ColorIndex
 90
      256
102
RTVSPost2010Prop51ColorRGB
 90
-16777216
102
RTVSPost2010PropOp51
 70
     0
102
RTVSPost2010Prop52
140
1.0
102
RTVSPost2010PropOp52
 70
     0
102
RTVSPost2010Prop53
 90
        2
102
RTVSPost2010PropOp53
 70
     1
102
RTVSPost2010Prop54
  1
strokes_ogs.tif
102
RTVSPost2010PropOp54
 70
     1
102
RTVSPost2010Prop55
280
     0
102
RTVSPost2010PropOp55
 70
     1
102
RTVSPost2010Prop56
140
1.0
102
RTVSPost2010PropOp56
 70
     1
102
RTVSPost2010Prop57
140
1.0
102
RTVSPost2010PropOp57
 70
     1
102
RTVSPropertyOp0
 70
     1
102
RTVSPropertyOp1
 70
     1
102
RTVSPropertyOp2
 70
     1
102
RTVSPropertyOp3
 70
     1
102
RTVSPropertyOp4
 70
     1
102
RTVSPropertyOp5
 70
     1
102
RTVSPropertyOp6
 70
     1
102
RTVSPropertyOp7
 70
     1
102
RTVSPropertyOp8
 70
     1
102
RTVSPropertyOp9
 70
     1
102
RTVSPropertyOp10
 70
     1
102
RTVSPropertyOp11
 70
     1
102
RTVSPropertyOp12
 70
     1
102
RTVSPropertyOp13
 70
     1
102
RTVSPropertyOp14
 70
     1
102
RTVSPropertyOp15
 70
     1
102
RTVSPropertyOp16
 70
     1
102
RTVSPropertyOp17
 70
     1
102
RTVSPropertyOp18
 70
     1
102
RTVSPropertyOp19
 70
     1
102
RTVSPropertyOp20
 70
     1
102
RTVSPropertyOp21
 70
     1
102
RTVSPropertyOp22
 70
     1
102
RTVSPropertyOp23
 70
     1
102
RTVSPropertyOp24
 70
     1
102
RTVSPropertyOp25
 70
     1
102
RTVSPropertyOp26
 70
     1
102
RTVSPropertyOp27
 70
     1
102
RTVSPropertyOp28
 70
     1
102
RTVSPropertyOp29
 70
     1
102
RTVSPropertyOp30
 70
     1
102
RTVSPropertyOp31
 70
     1
102
RTVSPropertyOp32
 70
     1
102
RTVSPropertyOp33
 70
     1
102
RTVSPropertyOp34
 70
     1
102
RTVSPropertyOp35
 70
     1
102
RTVSPropertyOp36
 70
     1
102
RTVSPropertyOp37
 70
     1
102
RTVSPropertyOp38
 70
     1
102
RTVSPropertyOp39
 70
     1
102
RTVSPropertyOp40
 70
     1
102
RTVSPropertyOp41
 70
     1
102
RTVSPropertyOp42
 70
     1
102
RTVSPropertyOp43
 70
     1
102
RTVSPropertyOp44
 70
     1
102
RTVSPropertyOp45
 70
     1
102
RTVSPropertyOp46
 70
     1
102
RTVSPropertyOp47
 70
     1
102
RTVSPropertyOp48
 70
     1
102
RTVSPropertyOp49
 70
     1
102
RTVSPropertyOp50
 70
     1
102
RTVSPropertyOp51
 70
     0
102
RTVSPropertyOp52
 70
     0
102
RTVSPropertyOp53
 70
     1
102
RTVSPropertyOp54
 70
     1
102
RTVSPropertyOp55
 70
     1
102
RTVSPropertyOp56
 70
     1
102
RTVSPropertyOp57
 70
     1
102
RTVSPropertyOp58
 70
     1
102
RTVSPropertyOp59
 70
     1
102
RTVSPropertyOp60
 70
     1
102
RTVSPropertyOp61
 70
     1
102
RTVSPropertyOp62
 70
     1
  0
XRECORD
  5
858F
102
{ACAD_REACTORS
330
858E
102
}
330
858E
100
AcDbXrecord
280
     1
102
RTVSPost2010Prop28
280
     0
102
RTVSPost2010PropOp28
 70
     1
102
RTVSPost2010Prop29
280
     1
102
RTVSPost2010PropOp29
 70
     1
102
RTVSPost2010Prop30
280
     1
102
RTVSPost2010PropOp30
 70
     1
102
RTVSPost2010Prop31
280
     0
102
RTVSPost2010PropOp31
 70
     1
102
RTVSPost2010Prop32
280
     0
102
RTVSPost2010PropOp32
 70
     1
102
RTVSPost2010Prop33
280
     0
102
RTVSPost2010PropOp33
 70
     1
102
RTVSPost2010Prop34
280
     0
102
RTVSPost2010PropOp34
 70
     1
102
RTVSPost2010Prop35
280
     0
102
RTVSPost2010PropOp35
 70
     1
102
RTVSPost2010Prop36
280
     0
102
RTVSPost2010PropOp36
 70
     1
102
RTVSPost2010Prop37
 90
       50
102
RTVSPost2010PropOp37
 70
     1
102
RTVSPost2010Prop38
140
0.0
102
RTVSPost2010PropOp38
 70
     1
102
RTVSPost2010Prop39
140
1.0
102
RTVSPost2010PropOp39
 70
     1
102
RTVSPost2010Prop40
 90
        0
102
RTVSPost2010PropOp40
 70
     1
102
RTVSPost2010Prop41ColorIndex
 90
       18
102
RTVSPost2010Prop41ColorRGB
 90
        0
102
RTVSPost2010PropOp41
 70
     1
102
RTVSPost2010Prop42
 90
       50
102
RTVSPost2010PropOp42
 70
     1
102
RTVSPost2010Prop43
 90
        3
102
RTVSPost2010PropOp43
 70
     1
102
RTVSPost2010Prop44ColorIndex
 90
        5
102
RTVSPost2010Prop44ColorRGB
 90
      255
102
RTVSPost2010PropOp44
 70
     1
102
RTVSPost2010Prop45
280
     0
102
RTVSPost2010PropOp45
 70
     1
102
RTVSPost2010Prop46
 90
       50
102
RTVSPost2010PropOp46
 70
     1
102
RTVSPost2010Prop47
 90
       50
102
RTVSPost2010PropOp47
 70
     1
102
RTVSPost2010Prop48
 90
       50
102
RTVSPost2010PropOp48
 70
     1
102
RTVSPost2010Prop49
280
     0
102
RTVSPost2010PropOp49
 70
     1
102
RTVSPost2010Prop50
 90
       50
102
RTVSPost2010PropOp50
 70
     1
102
RTVSPost2010Prop51ColorIndex
 90
      256
102
RTVSPost2010Prop51ColorRGB
 90
-16777216
102
RTVSPost2010PropOp51
 70
     0
102
RTVSPost2010Prop52
140
1.0
102
RTVSPost2010PropOp52
 70
     0
102
RTVSPost2010Prop53
 90
        2
102
RTVSPost2010PropOp53
 70
     1
102
RTVSPost2010Prop54
  1
strokes_ogs.tif
102
RTVSPost2010PropOp54
 70
     1
102
RTVSPost2010Prop55
280
     0
102
RTVSPost2010PropOp55
 70
     1
102
RTVSPost2010Prop56
140
1.0
102
RTVSPost2010PropOp56
 70
     1
102
RTVSPost2010Prop57
140
1.0
102
RTVSPost2010PropOp57
 70
     1
102
RTVSPropertyOp0
 70
     1
102
RTVSPropertyOp1
 70
     1
102
RTVSPropertyOp2
 70
     1
102
RTVSPropertyOp3
 70
     1
102
RTVSPropertyOp4
 70
     1
102
RTVSPropertyOp5
 70
     1
102
RTVSPropertyOp6
 70
     1
102
RTVSPropertyOp7
 70
     1
102
RTVSPropertyOp8
 70
     1
102
RTVSPropertyOp9
 70
     1
102
RTVSPropertyOp10
 70
     1
102
RTVSPropertyOp11
 70
     1
102
RTVSPropertyOp12
 70
     1
102
RTVSPropertyOp13
 70
     1
102
RTVSPropertyOp14
 70
     1
102
RTVSPropertyOp15
 70
     1
102
RTVSPropertyOp16
 70
     1
102
RTVSPropertyOp17
 70
     1
102
RTVSPropertyOp18
 70
     1
102
RTVSPropertyOp19
 70
     1
102
RTVSPropertyOp20
 70
     1
102
RTVSPropertyOp21
 70
     1
102
RTVSPropertyOp22
 70
     1
102
RTVSPropertyOp23
 70
     1
102
RTVSPropertyOp24
 70
     1
102
RTVSPropertyOp25
 70
     1
102
RTVSPropertyOp26
 70
     1
102
RTVSPropertyOp27
 70
     1
102
RTVSPropertyOp28
 70
     1
102
RTVSPropertyOp29
 70
     1
102
RTVSPropertyOp30
 70
     1
102
RTVSPropertyOp31
 70
     1
102
RTVSPropertyOp32
 70
     1
102
RTVSPropertyOp33
 70
     1
102
RTVSPropertyOp34
 70
     1
102
RTVSPropertyOp35
 70
     1
102
RTVSPropertyOp36
 70
     1
102
RTVSPropertyOp37
 70
     1
102
RTVSPropertyOp38
 70
     1
102
RTVSPropertyOp39
 70
     1
102
RTVSPropertyOp40
 70
     1
102
RTVSPropertyOp41
 70
     1
102
RTVSPropertyOp42
 70
     1
102
RTVSPropertyOp43
 70
     1
102
RTVSPropertyOp44
 70
     1
102
RTVSPropertyOp45
 70
     1
102
RTVSPropertyOp46
 70
     1
102
RTVSPropertyOp47
 70
     1
102
RTVSPropertyOp48
 70
     1
102
RTVSPropertyOp49
 70
     1
102
RTVSPropertyOp50
 70
     1
102
RTVSPropertyOp51
 70
     0
102
RTVSPropertyOp52
 70
     0
102
RTVSPropertyOp53
 70
     1
102
RTVSPropertyOp54
 70
     1
102
RTVSPropertyOp55
 70
     1
102
RTVSPropertyOp56
 70
     1
102
RTVSPropertyOp57
 70
     1
102
RTVSPropertyOp58
 70
     1
102
RTVSPropertyOp59
 70
     1
102
RTVSPropertyOp60
 70
     1
102
RTVSPropertyOp61
 70
     1
102
RTVSPropertyOp62
 70
     1
  0
XRECORD
  5
85AB
102
{ACAD_REACTORS
330
85AA
102
}
330
85AA
100
AcDbXrecord
280
     1
102
RTVSPost2010Prop28
280
     0
102
RTVSPost2010PropOp28
 70
     1
102
RTVSPost2010Prop29
280
     1
102
RTVSPost2010PropOp29
 70
     1
102
RTVSPost2010Prop30
280
     1
102
RTVSPost2010PropOp30
 70
     1
102
RTVSPost2010Prop31
280
     0
102
RTVSPost2010PropOp31
 70
     1
102
RTVSPost2010Prop32
280
     0
102
RTVSPost2010PropOp32
 70
     1
102
RTVSPost2010Prop33
280
     0
102
RTVSPost2010PropOp33
 70
     1
102
RTVSPost2010Prop34
280
     0
102
RTVSPost2010PropOp34
 70
     1
102
RTVSPost2010Prop35
280
     0
102
RTVSPost2010PropOp35
 70
     1
102
RTVSPost2010Prop36
280
     0
102
RTVSPost2010PropOp36
 70
     1
102
RTVSPost2010Prop37
 90
       50
102
RTVSPost2010PropOp37
 70
     0
102
RTVSPost2010Prop38
140
0.0
102
RTVSPost2010PropOp38
 70
     0
102
RTVSPost2010Prop39
140
1.0
102
RTVSPost2010PropOp39
 70
     0
102
RTVSPost2010Prop40
 90
        0
102
RTVSPost2010PropOp40
 70
     0
102
RTVSPost2010Prop41ColorIndex
 90
       18
102
RTVSPost2010Prop41ColorRGB
 90
        0
102
RTVSPost2010PropOp41
 70
     0
102
RTVSPost2010Prop42
 90
       50
102
RTVSPost2010PropOp42
 70
     0
102
RTVSPost2010Prop43
 90
        3
102
RTVSPost2010PropOp43
 70
     0
102
RTVSPost2010Prop44ColorIndex
 90
        5
102
RTVSPost2010Prop44ColorRGB
 90
      255
102
RTVSPost2010PropOp44
 70
     0
102
RTVSPost2010Prop45
280
     0
102
RTVSPost2010PropOp45
 70
     1
102
RTVSPost2010Prop46
 90
       50
102
RTVSPost2010PropOp46
 70
     0
102
RTVSPost2010Prop47
 90
       50
102
RTVSPost2010PropOp47
 70
     0
102
RTVSPost2010Prop48
 90
       50
102
RTVSPost2010PropOp48
 70
     0
102
RTVSPost2010Prop49
280
     0
102
RTVSPost2010PropOp49
 70
     1
102
RTVSPost2010Prop50
 90
       50
102
RTVSPost2010PropOp50
 70
     0
102
RTVSPost2010Prop51ColorIndex
 90
      256
102
RTVSPost2010Prop51ColorRGB
 90
-16777216
102
RTVSPost2010PropOp51
 70
     0
102
RTVSPost2010Prop52
140
1.0
102
RTVSPost2010PropOp52
 70
     0
102
RTVSPost2010Prop53
 90
        2
102
RTVSPost2010PropOp53
 70
     0
102
RTVSPost2010Prop54
  1
strokes_ogs.tif
102
RTVSPost2010PropOp54
 70
     0
102
RTVSPost2010Prop55
280
     0
102
RTVSPost2010PropOp55
 70
     1
102
RTVSPost2010Prop56
140
1.0
102
RTVSPost2010PropOp56
 70
     0
102
RTVSPost2010Prop57
140
1.0
102
RTVSPost2010PropOp57
 70
     0
102
RTVSPropertyOp0
 70
     0
102
RTVSPropertyOp1
 70
     0
102
RTVSPropertyOp2
 70
     0
102
RTVSPropertyOp3
 70
     0
102
RTVSPropertyOp4
 70
     0
102
RTVSPropertyOp5
 70
     0
102
RTVSPropertyOp6
 70
     0
102
RTVSPropertyOp7
 70
     0
102
RTVSPropertyOp8
 70
     0
102
RTVSPropertyOp9
 70
     0
102
RTVSPropertyOp10
 70
     0
102
RTVSPropertyOp11
 70
     0
102
RTVSPropertyOp12
 70
     0
102
RTVSPropertyOp13
 70
     0
102
RTVSPropertyOp14
 70
     2
102
RTVSPropertyOp15
 70
     0
102
RTVSPropertyOp16
 70
     0
102
RTVSPropertyOp17
 70
     0
102
RTVSPropertyOp18
 70
     0
102
RTVSPropertyOp19
 70
     0
102
RTVSPropertyOp20
 70
     0
102
RTVSPropertyOp21
 70
     0
102
RTVSPropertyOp22
 70
     0
102
RTVSPropertyOp23
 70
     0
102
RTVSPropertyOp24
 70
     0
102
RTVSPropertyOp25
 70
     0
102
RTVSPropertyOp26
 70
     0
102
RTVSPropertyOp27
 70
     0
102
RTVSPropertyOp28
 70
     1
102
RTVSPropertyOp29
 70
     1
102
RTVSPropertyOp30
 70
     1
102
RTVSPropertyOp31
 70
     1
102
RTVSPropertyOp32
 70
     1
102
RTVSPropertyOp33
 70
     1
102
RTVSPropertyOp34
 70
     1
102
RTVSPropertyOp35
 70
     1
102
RTVSPropertyOp36
 70
     1
102
RTVSPropertyOp37
 70
     0
102
RTVSPropertyOp38
 70
     0
102
RTVSPropertyOp39
 70
     0
102
RTVSPropertyOp40
 70
     0
102
RTVSPropertyOp41
 70
     0
102
RTVSPropertyOp42
 70
     0
102
RTVSPropertyOp43
 70
     0
102
RTVSPropertyOp44
 70
     0
102
RTVSPropertyOp45
 70
     1
102
RTVSPropertyOp46
 70
     0
102
RTVSPropertyOp47
 70
     0
102
RTVSPropertyOp48
 70
     0
102
RTVSPropertyOp49
 70
     1
102
RTVSPropertyOp50
 70
     0
102
RTVSPropertyOp51
 70
     0
102
RTVSPropertyOp52
 70
     0
102
RTVSPropertyOp53
 70
     0
102
RTVSPropertyOp54
 70
     0
102
RTVSPropertyOp55
 70
     1
102
RTVSPropertyOp56
 70
     0
102
RTVSPropertyOp57
 70
     0
102
RTVSPropertyOp58
 70
     0
102
RTVSPropertyOp59
 70
     0
102
RTVSPropertyOp60
 70
     0
102
RTVSPropertyOp61
 70
     0
102
RTVSPropertyOp62
 70
     0
  0
XRECORD
  5
859B
102
{ACAD_REACTORS
330
859A
102
}
330
859A
100
AcDbXrecord
280
     1
102
RTVSPost2010Prop28
280
     0
102
RTVSPost2010PropOp28
 70
     1
102
RTVSPost2010Prop29
280
     1
102
RTVSPost2010PropOp29
 70
     1
102
RTVSPost2010Prop30
280
     1
102
RTVSPost2010PropOp30
 70
     1
102
RTVSPost2010Prop31
280
     0
102
RTVSPost2010PropOp31
 70
     1
102
RTVSPost2010Prop32
280
     0
102
RTVSPost2010PropOp32
 70
     1
102
RTVSPost2010Prop33
280
     0
102
RTVSPost2010PropOp33
 70
     1
102
RTVSPost2010Prop34
280
     0
102
RTVSPost2010PropOp34
 70
     1
102
RTVSPost2010Prop35
280
     0
102
RTVSPost2010PropOp35
 70
     1
102
RTVSPost2010Prop36
280
     0
102
RTVSPost2010PropOp36
 70
     1
102
RTVSPost2010Prop37
 90
       50
102
RTVSPost2010PropOp37
 70
     1
102
RTVSPost2010Prop38
140
0.0
102
RTVSPost2010PropOp38
 70
     1
102
RTVSPost2010Prop39
140
1.0
102
RTVSPost2010PropOp39
 70
     1
102
RTVSPost2010Prop40
 90
        0
102
RTVSPost2010PropOp40
 70
     1
102
RTVSPost2010Prop41ColorIndex
 90
       18
102
RTVSPost2010Prop41ColorRGB
 90
        0
102
RTVSPost2010PropOp41
 70
     1
102
RTVSPost2010Prop42
 90
       50
102
RTVSPost2010PropOp42
 70
     1
102
RTVSPost2010Prop43
 90
        3
102
RTVSPost2010PropOp43
 70
     1
102
RTVSPost2010Prop44ColorIndex
 90
        5
102
RTVSPost2010Prop44ColorRGB
 90
      255
102
RTVSPost2010PropOp44
 70
     1
102
RTVSPost2010Prop45
280
     0
102
RTVSPost2010PropOp45
 70
     1
102
RTVSPost2010Prop46
 90
       50
102
RTVSPost2010PropOp46
 70
     1
102
RTVSPost2010Prop47
 90
       50
102
RTVSPost2010PropOp47
 70
     1
102
RTVSPost2010Prop48
 90
       50
102
RTVSPost2010PropOp48
 70
     1
102
RTVSPost2010Prop49
280
     0
102
RTVSPost2010PropOp49
 70
     1
102
RTVSPost2010Prop50
 90
       50
102
RTVSPost2010PropOp50
 70
     1
102
RTVSPost2010Prop51ColorIndex
 90
      256
102
RTVSPost2010Prop51ColorRGB
 90
-16777216
102
RTVSPost2010PropOp51
 70
     0
102
RTVSPost2010Prop52
140
1.0
102
RTVSPost2010PropOp52
 70
     0
102
RTVSPost2010Prop53
 90
        2
102
RTVSPost2010PropOp53
 70
     1
102
RTVSPost2010Prop54
  1
strokes_ogs.tif
102
RTVSPost2010PropOp54
 70
     1
102
RTVSPost2010Prop55
280
     0
102
RTVSPost2010PropOp55
 70
     1
102
RTVSPost2010Prop56
140
1.0
102
RTVSPost2010PropOp56
 70
     1
102
RTVSPost2010Prop57
140
1.0
102
RTVSPost2010PropOp57
 70
     1
102
RTVSPropertyOp0
 70
     1
102
RTVSPropertyOp1
 70
     1
102
RTVSPropertyOp2
 70
     1
102
RTVSPropertyOp3
 70
     1
102
RTVSPropertyOp4
 70
     1
102
RTVSPropertyOp5
 70
     1
102
RTVSPropertyOp6
 70
     1
102
RTVSPropertyOp7
 70
     1
102
RTVSPropertyOp8
 70
     1
102
RTVSPropertyOp9
 70
     1
102
RTVSPropertyOp10
 70
     1
102
RTVSPropertyOp11
 70
     1
102
RTVSPropertyOp12
 70
     1
102
RTVSPropertyOp13
 70
     1
102
RTVSPropertyOp14
 70
     1
102
RTVSPropertyOp15
 70
     1
102
RTVSPropertyOp16
 70
     1
102
RTVSPropertyOp17
 70
     1
102
RTVSPropertyOp18
 70
     1
102
RTVSPropertyOp19
 70
     1
102
RTVSPropertyOp20
 70
     1
102
RTVSPropertyOp21
 70
     1
102
RTVSPropertyOp22
 70
     1
102
RTVSPropertyOp23
 70
     1
102
RTVSPropertyOp24
 70
     1
102
RTVSPropertyOp25
 70
     1
102
RTVSPropertyOp26
 70
     1
102
RTVSPropertyOp27
 70
     1
102
RTVSPropertyOp28
 70
     1
102
RTVSPropertyOp29
 70
     1
102
RTVSPropertyOp30
 70
     1
102
RTVSPropertyOp31
 70
     1
102
RTVSPropertyOp32
 70
     1
102
RTVSPropertyOp33
 70
     1
102
RTVSPropertyOp34
 70
     1
102
RTVSPropertyOp35
 70
     1
102
RTVSPropertyOp36
 70
     1
102
RTVSPropertyOp37
 70
     1
102
RTVSPropertyOp38
 70
     1
102
RTVSPropertyOp39
 70
     1
102
RTVSPropertyOp40
 70
     1
102
RTVSPropertyOp41
 70
     1
102
RTVSPropertyOp42
 70
     1
102
RTVSPropertyOp43
 70
     1
102
RTVSPropertyOp44
 70
     1
102
RTVSPropertyOp45
 70
     1
102
RTVSPropertyOp46
 70
     1
102
RTVSPropertyOp47
 70
     1
102
RTVSPropertyOp48
 70
     1
102
RTVSPropertyOp49
 70
     1
102
RTVSPropertyOp50
 70
     1
102
RTVSPropertyOp51
 70
     0
102
RTVSPropertyOp52
 70
     0
102
RTVSPropertyOp53
 70
     1
102
RTVSPropertyOp54
 70
     1
102
RTVSPropertyOp55
 70
     1
102
RTVSPropertyOp56
 70
     1
102
RTVSPropertyOp57
 70
     1
102
RTVSPropertyOp58
 70
     1
102
RTVSPropertyOp59
 70
     1
102
RTVSPropertyOp60
 70
     1
102
RTVSPropertyOp61
 70
     1
102
RTVSPropertyOp62
 70
     1
  0
XRECORD
  5
85AD
102
{ACAD_REACTORS
330
85AC
102
}
330
85AC
100
AcDbXrecord
280
     1
102
RTVSPost2010Prop28
280
     0
102
RTVSPost2010PropOp28
 70
     1
102
RTVSPost2010Prop29
280
     1
102
RTVSPost2010PropOp29
 70
     1
102
RTVSPost2010Prop30
280
     1
102
RTVSPost2010PropOp30
 70
     1
102
RTVSPost2010Prop31
280
     0
102
RTVSPost2010PropOp31
 70
     1
102
RTVSPost2010Prop32
280
     0
102
RTVSPost2010PropOp32
 70
     1
102
RTVSPost2010Prop33
280
     0
102
RTVSPost2010PropOp33
 70
     1
102
RTVSPost2010Prop34
280
     0
102
RTVSPost2010PropOp34
 70
     1
102
RTVSPost2010Prop35
280
     0
102
RTVSPost2010PropOp35
 70
     1
102
RTVSPost2010Prop36
280
     0
102
RTVSPost2010PropOp36
 70
     1
102
RTVSPost2010Prop37
 90
       50
102
RTVSPost2010PropOp37
 70
     0
102
RTVSPost2010Prop38
140
0.0
102
RTVSPost2010PropOp38
 70
     0
102
RTVSPost2010Prop39
140
1.0
102
RTVSPost2010PropOp39
 70
     0
102
RTVSPost2010Prop40
 90
        0
102
RTVSPost2010PropOp40
 70
     0
102
RTVSPost2010Prop41ColorIndex
 90
       18
102
RTVSPost2010Prop41ColorRGB
 90
        0
102
RTVSPost2010PropOp41
 70
     0
102
RTVSPost2010Prop42
 90
       50
102
RTVSPost2010PropOp42
 70
     0
102
RTVSPost2010Prop43
 90
        3
102
RTVSPost2010PropOp43
 70
     0
102
RTVSPost2010Prop44ColorIndex
 90
        5
102
RTVSPost2010Prop44ColorRGB
 90
      255
102
RTVSPost2010PropOp44
 70
     0
102
RTVSPost2010Prop45
280
     0
102
RTVSPost2010PropOp45
 70
     1
102
RTVSPost2010Prop46
 90
       50
102
RTVSPost2010PropOp46
 70
     0
102
RTVSPost2010Prop47
 90
       50
102
RTVSPost2010PropOp47
 70
     0
102
RTVSPost2010Prop48
 90
       50
102
RTVSPost2010PropOp48
 70
     0
102
RTVSPost2010Prop49
280
     0
102
RTVSPost2010PropOp49
 70
     1
102
RTVSPost2010Prop50
 90
       50
102
RTVSPost2010PropOp50
 70
     0
102
RTVSPost2010Prop51ColorIndex
 90
      256
102
RTVSPost2010Prop51ColorRGB
 90
-16777216
102
RTVSPost2010PropOp51
 70
     0
102
RTVSPost2010Prop52
140
1.0
102
RTVSPost2010PropOp52
 70
     0
102
RTVSPost2010Prop53
 90
        2
102
RTVSPost2010PropOp53
 70
     0
102
RTVSPost2010Prop54
  1
strokes_ogs.tif
102
RTVSPost2010PropOp54
 70
     0
102
RTVSPost2010Prop55
280
     0
102
RTVSPost2010PropOp55
 70
     1
102
RTVSPost2010Prop56
140
1.0
102
RTVSPost2010PropOp56
 70
     0
102
RTVSPost2010Prop57
140
1.0
102
RTVSPost2010PropOp57
 70
     0
102
RTVSPropertyOp0
 70
     0
102
RTVSPropertyOp1
 70
     0
102
RTVSPropertyOp2
 70
     0
102
RTVSPropertyOp3
 70
     0
102
RTVSPropertyOp4
 70
     0
102
RTVSPropertyOp5
 70
     0
102
RTVSPropertyOp6
 70
     0
102
RTVSPropertyOp7
 70
     0
102
RTVSPropertyOp8
 70
     0
102
RTVSPropertyOp9
 70
     0
102
RTVSPropertyOp10
 70
     0
102
RTVSPropertyOp11
 70
     0
102
RTVSPropertyOp12
 70
     0
102
RTVSPropertyOp13
 70
     0
102
RTVSPropertyOp14
 70
     2
102
RTVSPropertyOp15
 70
     0
102
RTVSPropertyOp16
 70
     0
102
RTVSPropertyOp17
 70
     0
102
RTVSPropertyOp18
 70
     0
102
RTVSPropertyOp19
 70
     0
102
RTVSPropertyOp20
 70
     0
102
RTVSPropertyOp21
 70
     0
102
RTVSPropertyOp22
 70
     0
102
RTVSPropertyOp23
 70
     0
102
RTVSPropertyOp24
 70
     0
102
RTVSPropertyOp25
 70
     0
102
RTVSPropertyOp26
 70
     0
102
RTVSPropertyOp27
 70
     0
102
RTVSPropertyOp28
 70
     1
102
RTVSPropertyOp29
 70
     1
102
RTVSPropertyOp30
 70
     1
102
RTVSPropertyOp31
 70
     1
102
RTVSPropertyOp32
 70
     1
102
RTVSPropertyOp33
 70
     1
102
RTVSPropertyOp34
 70
     1
102
RTVSPropertyOp35
 70
     1
102
RTVSPropertyOp36
 70
     1
102
RTVSPropertyOp37
 70
     0
102
RTVSPropertyOp38
 70
     0
102
RTVSPropertyOp39
 70
     0
102
RTVSPropertyOp40
 70
     0
102
RTVSPropertyOp41
 70
     0
102
RTVSPropertyOp42
 70
     0
102
RTVSPropertyOp43
 70
     0
102
RTVSPropertyOp44
 70
     0
102
RTVSPropertyOp45
 70
     1
102
RTVSPropertyOp46
 70
     0
102
RTVSPropertyOp47
 70
     0
102
RTVSPropertyOp48
 70
     0
102
RTVSPropertyOp49
 70
     1
102
RTVSPropertyOp50
 70
     0
102
RTVSPropertyOp51
 70
     0
102
RTVSPropertyOp52
 70
     0
102
RTVSPropertyOp53
 70
     0
102
RTVSPropertyOp54
 70
     0
102
RTVSPropertyOp55
 70
     1
102
RTVSPropertyOp56
 70
     0
102
RTVSPropertyOp57
 70
     0
102
RTVSPropertyOp58
 70
     0
102
RTVSPropertyOp59
 70
     0
102
RTVSPropertyOp60
 70
     0
102
RTVSPropertyOp61
 70
     0
102
RTVSPropertyOp62
 70
     0
  0
XRECORD
  5
8593
102
{ACAD_REACTORS
330
8592
102
}
330
8592
100
AcDbXrecord
280
     1
102
RTVSPost2010Prop28
280
     0
102
RTVSPost2010PropOp28
 70
     1
102
RTVSPost2010Prop29
280
     1
102
RTVSPost2010PropOp29
 70
     1
102
RTVSPost2010Prop30
280
     1
102
RTVSPost2010PropOp30
 70
     1
102
RTVSPost2010Prop31
280
     0
102
RTVSPost2010PropOp31
 70
     1
102
RTVSPost2010Prop32
280
     0
102
RTVSPost2010PropOp32
 70
     1
102
RTVSPost2010Prop33
280
     0
102
RTVSPost2010PropOp33
 70
     1
102
RTVSPost2010Prop34
280
     0
102
RTVSPost2010PropOp34
 70
     1
102
RTVSPost2010Prop35
280
     0
102
RTVSPost2010PropOp35
 70
     1
102
RTVSPost2010Prop36
280
     0
102
RTVSPost2010PropOp36
 70
     1
102
RTVSPost2010Prop37
 90
       50
102
RTVSPost2010PropOp37
 70
     1
102
RTVSPost2010Prop38
140
0.0
102
RTVSPost2010PropOp38
 70
     1
102
RTVSPost2010Prop39
140
1.0
102
RTVSPost2010PropOp39
 70
     1
102
RTVSPost2010Prop40
 90
        0
102
RTVSPost2010PropOp40
 70
     1
102
RTVSPost2010Prop41ColorIndex
 90
       18
102
RTVSPost2010Prop41ColorRGB
 90
        0
102
RTVSPost2010PropOp41
 70
     1
102
RTVSPost2010Prop42
 90
       50
102
RTVSPost2010PropOp42
 70
     1
102
RTVSPost2010Prop43
 90
        3
102
RTVSPost2010PropOp43
 70
     1
102
RTVSPost2010Prop44ColorIndex
 90
        5
102
RTVSPost2010Prop44ColorRGB
 90
      255
102
RTVSPost2010PropOp44
 70
     1
102
RTVSPost2010Prop45
280
     0
102
RTVSPost2010PropOp45
 70
     1
102
RTVSPost2010Prop46
 90
       50
102
RTVSPost2010PropOp46
 70
     1
102
RTVSPost2010Prop47
 90
       50
102
RTVSPost2010PropOp47
 70
     1
102
RTVSPost2010Prop48
 90
       50
102
RTVSPost2010PropOp48
 70
     1
102
RTVSPost2010Prop49
280
     0
102
RTVSPost2010PropOp49
 70
     1
102
RTVSPost2010Prop50
 90
       50
102
RTVSPost2010PropOp50
 70
     1
102
RTVSPost2010Prop51ColorIndex
 90
      256
102
RTVSPost2010Prop51ColorRGB
 90
-16777216
102
RTVSPost2010PropOp51
 70
     0
102
RTVSPost2010Prop52
140
1.0
102
RTVSPost2010PropOp52
 70
     0
102
RTVSPost2010Prop53
 90
        2
102
RTVSPost2010PropOp53
 70
     1
102
RTVSPost2010Prop54
  1
strokes_ogs.tif
102
RTVSPost2010PropOp54
 70
     1
102
RTVSPost2010Prop55
280
     0
102
RTVSPost2010PropOp55
 70
     1
102
RTVSPost2010Prop56
140
1.0
102
RTVSPost2010PropOp56
 70
     1
102
RTVSPost2010Prop57
140
1.0
102
RTVSPost2010PropOp57
 70
     1
102
RTVSPropertyOp0
 70
     1
102
RTVSPropertyOp1
 70
     1
102
RTVSPropertyOp2
 70
     1
102
RTVSPropertyOp3
 70
     1
102
RTVSPropertyOp4
 70
     1
102
RTVSPropertyOp5
 70
     1
102
RTVSPropertyOp6
 70
     1
102
RTVSPropertyOp7
 70
     1
102
RTVSPropertyOp8
 70
     1
102
RTVSPropertyOp9
 70
     1
102
RTVSPropertyOp10
 70
     1
102
RTVSPropertyOp11
 70
     1
102
RTVSPropertyOp12
 70
     1
102
RTVSPropertyOp13
 70
     1
102
RTVSPropertyOp14
 70
     1
102
RTVSPropertyOp15
 70
     1
102
RTVSPropertyOp16
 70
     1
102
RTVSPropertyOp17
 70
     1
102
RTVSPropertyOp18
 70
     1
102
RTVSPropertyOp19
 70
     1
102
RTVSPropertyOp20
 70
     1
102
RTVSPropertyOp21
 70
     1
102
RTVSPropertyOp22
 70
     1
102
RTVSPropertyOp23
 70
     1
102
RTVSPropertyOp24
 70
     1
102
RTVSPropertyOp25
 70
     1
102
RTVSPropertyOp26
 70
     1
102
RTVSPropertyOp27
 70
     1
102
RTVSPropertyOp28
 70
     1
102
RTVSPropertyOp29
 70
     1
102
RTVSPropertyOp30
 70
     1
102
RTVSPropertyOp31
 70
     1
102
RTVSPropertyOp32
 70
     1
102
RTVSPropertyOp33
 70
     1
102
RTVSPropertyOp34
 70
     1
102
RTVSPropertyOp35
 70
     1
102
RTVSPropertyOp36
 70
     1
102
RTVSPropertyOp37
 70
     1
102
RTVSPropertyOp38
 70
     1
102
RTVSPropertyOp39
 70
     1
102
RTVSPropertyOp40
 70
     1
102
RTVSPropertyOp41
 70
     1
102
RTVSPropertyOp42
 70
     1
102
RTVSPropertyOp43
 70
     1
102
RTVSPropertyOp44
 70
     1
102
RTVSPropertyOp45
 70
     1
102
RTVSPropertyOp46
 70
     1
102
RTVSPropertyOp47
 70
     1
102
RTVSPropertyOp48
 70
     1
102
RTVSPropertyOp49
 70
     1
102
RTVSPropertyOp50
 70
     1
102
RTVSPropertyOp51
 70
     0
102
RTVSPropertyOp52
 70
     0
102
RTVSPropertyOp53
 70
     1
102
RTVSPropertyOp54
 70
     1
102
RTVSPropertyOp55
 70
     1
102
RTVSPropertyOp56
 70
     1
102
RTVSPropertyOp57
 70
     1
102
RTVSPropertyOp58
 70
     1
102
RTVSPropertyOp59
 70
     1
102
RTVSPropertyOp60
 70
     1
102
RTVSPropertyOp61
 70
     1
102
RTVSPropertyOp62
 70
     1
  0
XRECORD
  5
85A9
102
{ACAD_REACTORS
330
85A8
102
}
330
85A8
100
AcDbXrecord
280
     1
102
RTVSPost2010Prop28
280
     0
102
RTVSPost2010PropOp28
 70
     1
102
RTVSPost2010Prop29
280
     1
102
RTVSPost2010PropOp29
 70
     1
102
RTVSPost2010Prop30
280
     1
102
RTVSPost2010PropOp30
 70
     1
102
RTVSPost2010Prop31
280
     0
102
RTVSPost2010PropOp31
 70
     1
102
RTVSPost2010Prop32
280
     0
102
RTVSPost2010PropOp32
 70
     1
102
RTVSPost2010Prop33
280
     0
102
RTVSPost2010PropOp33
 70
     1
102
RTVSPost2010Prop34
280
     0
102
RTVSPost2010PropOp34
 70
     1
102
RTVSPost2010Prop35
280
     0
102
RTVSPost2010PropOp35
 70
     1
102
RTVSPost2010Prop36
280
     0
102
RTVSPost2010PropOp36
 70
     1
102
RTVSPost2010Prop37
 90
       50
102
RTVSPost2010PropOp37
 70
     1
102
RTVSPost2010Prop38
140
0.0
102
RTVSPost2010PropOp38
 70
     1
102
RTVSPost2010Prop39
140
1.0
102
RTVSPost2010PropOp39
 70
     1
102
RTVSPost2010Prop40
 90
        0
102
RTVSPost2010PropOp40
 70
     1
102
RTVSPost2010Prop41ColorIndex
 90
       18
102
RTVSPost2010Prop41ColorRGB
 90
        0
102
RTVSPost2010PropOp41
 70
     1
102
RTVSPost2010Prop42
 90
       50
102
RTVSPost2010PropOp42
 70
     1
102
RTVSPost2010Prop43
 90
        3
102
RTVSPost2010PropOp43
 70
     1
102
RTVSPost2010Prop44ColorIndex
 90
        5
102
RTVSPost2010Prop44ColorRGB
 90
      255
102
RTVSPost2010PropOp44
 70
     1
102
RTVSPost2010Prop45
280
     0
102
RTVSPost2010PropOp45
 70
     1
102
RTVSPost2010Prop46
 90
       50
102
RTVSPost2010PropOp46
 70
     1
102
RTVSPost2010Prop47
 90
       50
102
RTVSPost2010PropOp47
 70
     1
102
RTVSPost2010Prop48
 90
       50
102
RTVSPost2010PropOp48
 70
     1
102
RTVSPost2010Prop49
280
     0
102
RTVSPost2010PropOp49
 70
     1
102
RTVSPost2010Prop50
 90
       50
102
RTVSPost2010PropOp50
 70
     1
102
RTVSPost2010Prop51ColorIndex
 90
      256
102
RTVSPost2010Prop51ColorRGB
 90
-16777216
102
RTVSPost2010PropOp51
 70
     0
102
RTVSPost2010Prop52
140
1.0
102
RTVSPost2010PropOp52
 70
     0
102
RTVSPost2010Prop53
 90
        2
102
RTVSPost2010PropOp53
 70
     1
102
RTVSPost2010Prop54
  1
strokes_ogs.tif
102
RTVSPost2010PropOp54
 70
     1
102
RTVSPost2010Prop55
280
     0
102
RTVSPost2010PropOp55
 70
     1
102
RTVSPost2010Prop56
140
1.0
102
RTVSPost2010PropOp56
 70
     1
102
RTVSPost2010Prop57
140
1.0
102
RTVSPost2010PropOp57
 70
     1
102
RTVSPropertyOp0
 70
     1
102
RTVSPropertyOp1
 70
     1
102
RTVSPropertyOp2
 70
     1
102
RTVSPropertyOp3
 70
     1
102
RTVSPropertyOp4
 70
     1
102
RTVSPropertyOp5
 70
     1
102
RTVSPropertyOp6
 70
     1
102
RTVSPropertyOp7
 70
     1
102
RTVSPropertyOp8
 70
     1
102
RTVSPropertyOp9
 70
     1
102
RTVSPropertyOp10
 70
     1
102
RTVSPropertyOp11
 70
     1
102
RTVSPropertyOp12
 70
     1
102
RTVSPropertyOp13
 70
     1
102
RTVSPropertyOp14
 70
     1
102
RTVSPropertyOp15
 70
     1
102
RTVSPropertyOp16
 70
     1
102
RTVSPropertyOp17
 70
     1
102
RTVSPropertyOp18
 70
     1
102
RTVSPropertyOp19
 70
     1
102
RTVSPropertyOp20
 70
     1
102
RTVSPropertyOp21
 70
     1
102
RTVSPropertyOp22
 70
     1
102
RTVSPropertyOp23
 70
     1
102
RTVSPropertyOp24
 70
     1
102
RTVSPropertyOp25
 70
     1
102
RTVSPropertyOp26
 70
     1
102
RTVSPropertyOp27
 70
     1
102
RTVSPropertyOp28
 70
     1
102
RTVSPropertyOp29
 70
     1
102
RTVSPropertyOp30
 70
     1
102
RTVSPropertyOp31
 70
     1
102
RTVSPropertyOp32
 70
     1
102
RTVSPropertyOp33
 70
     1
102
RTVSPropertyOp34
 70
     1
102
RTVSPropertyOp35
 70
     1
102
RTVSPropertyOp36
 70
     1
102
RTVSPropertyOp37
 70
     1
102
RTVSPropertyOp38
 70
     1
102
RTVSPropertyOp39
 70
     1
102
RTVSPropertyOp40
 70
     1
102
RTVSPropertyOp41
 70
     1
102
RTVSPropertyOp42
 70
     1
102
RTVSPropertyOp43
 70
     1
102
RTVSPropertyOp44
 70
     1
102
RTVSPropertyOp45
 70
     1
102
RTVSPropertyOp46
 70
     1
102
RTVSPropertyOp47
 70
     1
102
RTVSPropertyOp48
 70
     1
102
RTVSPropertyOp49
 70
     1
102
RTVSPropertyOp50
 70
     1
102
RTVSPropertyOp51
 70
     0
102
RTVSPropertyOp52
 70
     0
102
RTVSPropertyOp53
 70
     1
102
RTVSPropertyOp54
 70
     1
102
RTVSPropertyOp55
 70
     1
102
RTVSPropertyOp56
 70
     1
102
RTVSPropertyOp57
 70
     1
102
RTVSPropertyOp58
 70
     1
102
RTVSPropertyOp59
 70
     1
102
RTVSPropertyOp60
 70
     1
102
RTVSPropertyOp61
 70
     1
102
RTVSPropertyOp62
 70
     1
  0
XRECORD
  5
85A7
102
{ACAD_REACTORS
330
85A6
102
}
330
85A6
100
AcDbXrecord
280
     1
102
RTVSPost2010Prop28
280
     0
102
RTVSPost2010PropOp28
 70
     1
102
RTVSPost2010Prop29
280
     1
102
RTVSPost2010PropOp29
 70
     1
102
RTVSPost2010Prop30
280
     1
102
RTVSPost2010PropOp30
 70
     1
102
RTVSPost2010Prop31
280
     0
102
RTVSPost2010PropOp31
 70
     1
102
RTVSPost2010Prop32
280
     0
102
RTVSPost2010PropOp32
 70
     1
102
RTVSPost2010Prop33
280
     0
102
RTVSPost2010PropOp33
 70
     1
102
RTVSPost2010Prop34
280
     0
102
RTVSPost2010PropOp34
 70
     1
102
RTVSPost2010Prop35
280
     0
102
RTVSPost2010PropOp35
 70
     1
102
RTVSPost2010Prop36
280
     0
102
RTVSPost2010PropOp36
 70
     1
102
RTVSPost2010Prop37
 90
       50
102
RTVSPost2010PropOp37
 70
     1
102
RTVSPost2010Prop38
140
0.0
102
RTVSPost2010PropOp38
 70
     1
102
RTVSPost2010Prop39
140
1.0
102
RTVSPost2010PropOp39
 70
     1
102
RTVSPost2010Prop40
 90
        0
102
RTVSPost2010PropOp40
 70
     1
102
RTVSPost2010Prop41ColorIndex
 90
       18
102
RTVSPost2010Prop41ColorRGB
 90
        0
102
RTVSPost2010PropOp41
 70
     1
102
RTVSPost2010Prop42
 90
       50
102
RTVSPost2010PropOp42
 70
     1
102
RTVSPost2010Prop43
 90
        3
102
RTVSPost2010PropOp43
 70
     1
102
RTVSPost2010Prop44ColorIndex
 90
        5
102
RTVSPost2010Prop44ColorRGB
 90
      255
102
RTVSPost2010PropOp44
 70
     1
102
RTVSPost2010Prop45
280
     0
102
RTVSPost2010PropOp45
 70
     1
102
RTVSPost2010Prop46
 90
       50
102
RTVSPost2010PropOp46
 70
     1
102
RTVSPost2010Prop47
 90
       50
102
RTVSPost2010PropOp47
 70
     1
102
RTVSPost2010Prop48
 90
       50
102
RTVSPost2010PropOp48
 70
     1
102
RTVSPost2010Prop49
280
     0
102
RTVSPost2010PropOp49
 70
     1
102
RTVSPost2010Prop50
 90
       50
102
RTVSPost2010PropOp50
 70
     1
102
RTVSPost2010Prop51ColorIndex
 90
      256
102
RTVSPost2010Prop51ColorRGB
 90
-16777216
102
RTVSPost2010PropOp51
 70
     0
102
RTVSPost2010Prop52
140
1.0
102
RTVSPost2010PropOp52
 70
     0
102
RTVSPost2010Prop53
 90
        2
102
RTVSPost2010PropOp53
 70
     1
102
RTVSPost2010Prop54
  1
strokes_ogs.tif
102
RTVSPost2010PropOp54
 70
     1
102
RTVSPost2010Prop55
280
     0
102
RTVSPost2010PropOp55
 70
     1
102
RTVSPost2010Prop56
140
1.0
102
RTVSPost2010PropOp56
 70
     1
102
RTVSPost2010Prop57
140
1.0
102
RTVSPost2010PropOp57
 70
     1
102
RTVSPropertyOp0
 70
     1
102
RTVSPropertyOp1
 70
     1
102
RTVSPropertyOp2
 70
     1
102
RTVSPropertyOp3
 70
     1
102
RTVSPropertyOp4
 70
     1
102
RTVSPropertyOp5
 70
     1
102
RTVSPropertyOp6
 70
     1
102
RTVSPropertyOp7
 70
     1
102
RTVSPropertyOp8
 70
     1
102
RTVSPropertyOp9
 70
     1
102
RTVSPropertyOp10
 70
     1
102
RTVSPropertyOp11
 70
     1
102
RTVSPropertyOp12
 70
     1
102
RTVSPropertyOp13
 70
     1
102
RTVSPropertyOp14
 70
     1
102
RTVSPropertyOp15
 70
     1
102
RTVSPropertyOp16
 70
     1
102
RTVSPropertyOp17
 70
     1
102
RTVSPropertyOp18
 70
     1
102
RTVSPropertyOp19
 70
     1
102
RTVSPropertyOp20
 70
     1
102
RTVSPropertyOp21
 70
     1
102
RTVSPropertyOp22
 70
     1
102
RTVSPropertyOp23
 70
     1
102
RTVSPropertyOp24
 70
     1
102
RTVSPropertyOp25
 70
     1
102
RTVSPropertyOp26
 70
     1
102
RTVSPropertyOp27
 70
     1
102
RTVSPropertyOp28
 70
     1
102
RTVSPropertyOp29
 70
     1
102
RTVSPropertyOp30
 70
     1
102
RTVSPropertyOp31
 70
     1
102
RTVSPropertyOp32
 70
     1
102
RTVSPropertyOp33
 70
     1
102
RTVSPropertyOp34
 70
     1
102
RTVSPropertyOp35
 70
     1
102
RTVSPropertyOp36
 70
     1
102
RTVSPropertyOp37
 70
     1
102
RTVSPropertyOp38
 70
     1
102
RTVSPropertyOp39
 70
     1
102
RTVSPropertyOp40
 70
     1
102
RTVSPropertyOp41
 70
     1
102
RTVSPropertyOp42
 70
     1
102
RTVSPropertyOp43
 70
     1
102
RTVSPropertyOp44
 70
     1
102
RTVSPropertyOp45
 70
     1
102
RTVSPropertyOp46
 70
     1
102
RTVSPropertyOp47
 70
     1
102
RTVSPropertyOp48
 70
     1
102
RTVSPropertyOp49
 70
     1
102
RTVSPropertyOp50
 70
     1
102
RTVSPropertyOp51
 70
     0
102
RTVSPropertyOp52
 70
     0
102
RTVSPropertyOp53
 70
     1
102
RTVSPropertyOp54
 70
     1
102
RTVSPropertyOp55
 70
     1
102
RTVSPropertyOp56
 70
     1
102
RTVSPropertyOp57
 70
     1
102
RTVSPropertyOp58
 70
     1
102
RTVSPropertyOp59
 70
     1
102
RTVSPropertyOp60
 70
     1
102
RTVSPropertyOp61
 70
     1
102
RTVSPropertyOp62
 70
     1
  0
XRECORD
  5
85A1
102
{ACAD_REACTORS
330
85A0
102
}
330
85A0
100
AcDbXrecord
280
     1
102
RTVSPost2010Prop28
280
     0
102
RTVSPost2010PropOp28
 70
     1
102
RTVSPost2010Prop29
280
     1
102
RTVSPost2010PropOp29
 70
     1
102
RTVSPost2010Prop30
280
     1
102
RTVSPost2010PropOp30
 70
     1
102
RTVSPost2010Prop31
280
     0
102
RTVSPost2010PropOp31
 70
     1
102
RTVSPost2010Prop32
280
     0
102
RTVSPost2010PropOp32
 70
     1
102
RTVSPost2010Prop33
280
     0
102
RTVSPost2010PropOp33
 70
     1
102
RTVSPost2010Prop34
280
     0
102
RTVSPost2010PropOp34
 70
     1
102
RTVSPost2010Prop35
280
     0
102
RTVSPost2010PropOp35
 70
     1
102
RTVSPost2010Prop36
280
     0
102
RTVSPost2010PropOp36
 70
     1
102
RTVSPost2010Prop37
 90
       50
102
RTVSPost2010PropOp37
 70
     1
102
RTVSPost2010Prop38
140
0.0
102
RTVSPost2010PropOp38
 70
     1
102
RTVSPost2010Prop39
140
1.0
102
RTVSPost2010PropOp39
 70
     1
102
RTVSPost2010Prop40
 90
        0
102
RTVSPost2010PropOp40
 70
     1
102
RTVSPost2010Prop41ColorIndex
 90
       18
102
RTVSPost2010Prop41ColorRGB
 90
        0
102
RTVSPost2010PropOp41
 70
     1
102
RTVSPost2010Prop42
 90
       50
102
RTVSPost2010PropOp42
 70
     1
102
RTVSPost2010Prop43
 90
        3
102
RTVSPost2010PropOp43
 70
     1
102
RTVSPost2010Prop44ColorIndex
 90
        5
102
RTVSPost2010Prop44ColorRGB
 90
      255
102
RTVSPost2010PropOp44
 70
     1
102
RTVSPost2010Prop45
280
     0
102
RTVSPost2010PropOp45
 70
     1
102
RTVSPost2010Prop46
 90
       50
102
RTVSPost2010PropOp46
 70
     1
102
RTVSPost2010Prop47
 90
       50
102
RTVSPost2010PropOp47
 70
     1
102
RTVSPost2010Prop48
 90
       50
102
RTVSPost2010PropOp48
 70
     1
102
RTVSPost2010Prop49
280
     0
102
RTVSPost2010PropOp49
 70
     1
102
RTVSPost2010Prop50
 90
       50
102
RTVSPost2010PropOp50
 70
     1
102
RTVSPost2010Prop51ColorIndex
 90
      256
102
RTVSPost2010Prop51ColorRGB
 90
-16777216
102
RTVSPost2010PropOp51
 70
     0
102
RTVSPost2010Prop52
140
1.0
102
RTVSPost2010PropOp52
 70
     0
102
RTVSPost2010Prop53
 90
        2
102
RTVSPost2010PropOp53
 70
     1
102
RTVSPost2010Prop54
  1
strokes_ogs.tif
102
RTVSPost2010PropOp54
 70
     1
102
RTVSPost2010Prop55
280
     0
102
RTVSPost2010PropOp55
 70
     1
102
RTVSPost2010Prop56
140
1.0
102
RTVSPost2010PropOp56
 70
     1
102
RTVSPost2010Prop57
140
1.0
102
RTVSPost2010PropOp57
 70
     1
102
RTVSPropertyOp0
 70
     1
102
RTVSPropertyOp1
 70
     1
102
RTVSPropertyOp2
 70
     1
102
RTVSPropertyOp3
 70
     1
102
RTVSPropertyOp4
 70
     1
102
RTVSPropertyOp5
 70
     1
102
RTVSPropertyOp6
 70
     1
102
RTVSPropertyOp7
 70
     1
102
RTVSPropertyOp8
 70
     1
102
RTVSPropertyOp9
 70
     1
102
RTVSPropertyOp10
 70
     1
102
RTVSPropertyOp11
 70
     1
102
RTVSPropertyOp12
 70
     1
102
RTVSPropertyOp13
 70
     1
102
RTVSPropertyOp14
 70
     1
102
RTVSPropertyOp15
 70
     1
102
RTVSPropertyOp16
 70
     1
102
RTVSPropertyOp17
 70
     1
102
RTVSPropertyOp18
 70
     1
102
RTVSPropertyOp19
 70
     1
102
RTVSPropertyOp20
 70
     1
102
RTVSPropertyOp21
 70
     1
102
RTVSPropertyOp22
 70
     1
102
RTVSPropertyOp23
 70
     1
102
RTVSPropertyOp24
 70
     1
102
RTVSPropertyOp25
 70
     1
102
RTVSPropertyOp26
 70
     1
102
RTVSPropertyOp27
 70
     1
102
RTVSPropertyOp28
 70
     1
102
RTVSPropertyOp29
 70
     1
102
RTVSPropertyOp30
 70
     1
102
RTVSPropertyOp31
 70
     1
102
RTVSPropertyOp32
 70
     1
102
RTVSPropertyOp33
 70
     1
102
RTVSPropertyOp34
 70
     1
102
RTVSPropertyOp35
 70
     1
102
RTVSPropertyOp36
 70
     1
102
RTVSPropertyOp37
 70
     1
102
RTVSPropertyOp38
 70
     1
102
RTVSPropertyOp39
 70
     1
102
RTVSPropertyOp40
 70
     1
102
RTVSPropertyOp41
 70
     1
102
RTVSPropertyOp42
 70
     1
102
RTVSPropertyOp43
 70
     1
102
RTVSPropertyOp44
 70
     1
102
RTVSPropertyOp45
 70
     1
102
RTVSPropertyOp46
 70
     1
102
RTVSPropertyOp47
 70
     1
102
RTVSPropertyOp48
 70
     1
102
RTVSPropertyOp49
 70
     1
102
RTVSPropertyOp50
 70
     1
102
RTVSPropertyOp51
 70
     0
102
RTVSPropertyOp52
 70
     0
102
RTVSPropertyOp53
 70
     1
102
RTVSPropertyOp54
 70
     1
102
RTVSPropertyOp55
 70
     1
102
RTVSPropertyOp56
 70
     1
102
RTVSPropertyOp57
 70
     1
102
RTVSPropertyOp58
 70
     1
102
RTVSPropertyOp59
 70
     1
102
RTVSPropertyOp60
 70
     1
102
RTVSPropertyOp61
 70
     1
102
RTVSPropertyOp62
 70
     1
  0
XRECORD
  5
85A3
102
{ACAD_REACTORS
330
85A2
102
}
330
85A2
100
AcDbXrecord
280
     1
102
RTVSPost2010Prop28
280
     0
102
RTVSPost2010PropOp28
 70
     1
102
RTVSPost2010Prop29
280
     1
102
RTVSPost2010PropOp29
 70
     1
102
RTVSPost2010Prop30
280
     1
102
RTVSPost2010PropOp30
 70
     1
102
RTVSPost2010Prop31
280
     0
102
RTVSPost2010PropOp31
 70
     1
102
RTVSPost2010Prop32
280
     0
102
RTVSPost2010PropOp32
 70
     1
102
RTVSPost2010Prop33
280
     0
102
RTVSPost2010PropOp33
 70
     1
102
RTVSPost2010Prop34
280
     0
102
RTVSPost2010PropOp34
 70
     1
102
RTVSPost2010Prop35
280
     0
102
RTVSPost2010PropOp35
 70
     1
102
RTVSPost2010Prop36
280
     0
102
RTVSPost2010PropOp36
 70
     1
102
RTVSPost2010Prop37
 90
       50
102
RTVSPost2010PropOp37
 70
     1
102
RTVSPost2010Prop38
140
0.0
102
RTVSPost2010PropOp38
 70
     1
102
RTVSPost2010Prop39
140
1.0
102
RTVSPost2010PropOp39
 70
     1
102
RTVSPost2010Prop40
 90
        0
102
RTVSPost2010PropOp40
 70
     1
102
RTVSPost2010Prop41ColorIndex
 90
       18
102
RTVSPost2010Prop41ColorRGB
 90
        0
102
RTVSPost2010PropOp41
 70
     1
102
RTVSPost2010Prop42
 90
       50
102
RTVSPost2010PropOp42
 70
     1
102
RTVSPost2010Prop43
 90
        3
102
RTVSPost2010PropOp43
 70
     1
102
RTVSPost2010Prop44ColorIndex
 90
        5
102
RTVSPost2010Prop44ColorRGB
 90
      255
102
RTVSPost2010PropOp44
 70
     1
102
RTVSPost2010Prop45
280
     0
102
RTVSPost2010PropOp45
 70
     1
102
RTVSPost2010Prop46
 90
       50
102
RTVSPost2010PropOp46
 70
     1
102
RTVSPost2010Prop47
 90
       50
102
RTVSPost2010PropOp47
 70
     1
102
RTVSPost2010Prop48
 90
       50
102
RTVSPost2010PropOp48
 70
     1
102
RTVSPost2010Prop49
280
     0
102
RTVSPost2010PropOp49
 70
     1
102
RTVSPost2010Prop50
 90
       50
102
RTVSPost2010PropOp50
 70
     1
102
RTVSPost2010Prop51ColorIndex
 90
      256
102
RTVSPost2010Prop51ColorRGB
 90
-16777216
102
RTVSPost2010PropOp51
 70
     0
102
RTVSPost2010Prop52
140
1.0
102
RTVSPost2010PropOp52
 70
     0
102
RTVSPost2010Prop53
 90
        2
102
RTVSPost2010PropOp53
 70
     1
102
RTVSPost2010Prop54
  1
strokes_ogs.tif
102
RTVSPost2010PropOp54
 70
     1
102
RTVSPost2010Prop55
280
     0
102
RTVSPost2010PropOp55
 70
     1
102
RTVSPost2010Prop56
140
1.0
102
RTVSPost2010PropOp56
 70
     1
102
RTVSPost2010Prop57
140
1.0
102
RTVSPost2010PropOp57
 70
     1
102
RTVSPropertyOp0
 70
     1
102
RTVSPropertyOp1
 70
     1
102
RTVSPropertyOp2
 70
     1
102
RTVSPropertyOp3
 70
     1
102
RTVSPropertyOp4
 70
     1
102
RTVSPropertyOp5
 70
     1
102
RTVSPropertyOp6
 70
     1
102
RTVSPropertyOp7
 70
     1
102
RTVSPropertyOp8
 70
     1
102
RTVSPropertyOp9
 70
     1
102
RTVSPropertyOp10
 70
     1
102
RTVSPropertyOp11
 70
     1
102
RTVSPropertyOp12
 70
     1
102
RTVSPropertyOp13
 70
     1
102
RTVSPropertyOp14
 70
     1
102
RTVSPropertyOp15
 70
     1
102
RTVSPropertyOp16
 70
     1
102
RTVSPropertyOp17
 70
     1
102
RTVSPropertyOp18
 70
     1
102
RTVSPropertyOp19
 70
     1
102
RTVSPropertyOp20
 70
     1
102
RTVSPropertyOp21
 70
     1
102
RTVSPropertyOp22
 70
     1
102
RTVSPropertyOp23
 70
     1
102
RTVSPropertyOp24
 70
     1
102
RTVSPropertyOp25
 70
     1
102
RTVSPropertyOp26
 70
     1
102
RTVSPropertyOp27
 70
     1
102
RTVSPropertyOp28
 70
     1
102
RTVSPropertyOp29
 70
     1
102
RTVSPropertyOp30
 70
     1
102
RTVSPropertyOp31
 70
     1
102
RTVSPropertyOp32
 70
     1
102
RTVSPropertyOp33
 70
     1
102
RTVSPropertyOp34
 70
     1
102
RTVSPropertyOp35
 70
     1
102
RTVSPropertyOp36
 70
     1
102
RTVSPropertyOp37
 70
     1
102
RTVSPropertyOp38
 70
     1
102
RTVSPropertyOp39
 70
     1
102
RTVSPropertyOp40
 70
     1
102
RTVSPropertyOp41
 70
     1
102
RTVSPropertyOp42
 70
     1
102
RTVSPropertyOp43
 70
     1
102
RTVSPropertyOp44
 70
     1
102
RTVSPropertyOp45
 70
     1
102
RTVSPropertyOp46
 70
     1
102
RTVSPropertyOp47
 70
     1
102
RTVSPropertyOp48
 70
     1
102
RTVSPropertyOp49
 70
     1
102
RTVSPropertyOp50
 70
     1
102
RTVSPropertyOp51
 70
     0
102
RTVSPropertyOp52
 70
     0
102
RTVSPropertyOp53
 70
     1
102
RTVSPropertyOp54
 70
     1
102
RTVSPropertyOp55
 70
     1
102
RTVSPropertyOp56
 70
     1
102
RTVSPropertyOp57
 70
     1
102
RTVSPropertyOp58
 70
     1
102
RTVSPropertyOp59
 70
     1
102
RTVSPropertyOp60
 70
     1
102
RTVSPropertyOp61
 70
     1
102
RTVSPropertyOp62
 70
     1
  0
XRECORD
  5
8599
102
{ACAD_REACTORS
330
8598
102
}
330
8598
100
AcDbXrecord
280
     1
102
RTVSPost2010Prop28
280
     0
102
RTVSPost2010PropOp28
 70
     1
102
RTVSPost2010Prop29
280
     1
102
RTVSPost2010PropOp29
 70
     1
102
RTVSPost2010Prop30
280
     1
102
RTVSPost2010PropOp30
 70
     1
102
RTVSPost2010Prop31
280
     0
102
RTVSPost2010PropOp31
 70
     1
102
RTVSPost2010Prop32
280
     0
102
RTVSPost2010PropOp32
 70
     1
102
RTVSPost2010Prop33
280
     0
102
RTVSPost2010PropOp33
 70
     1
102
RTVSPost2010Prop34
280
     0
102
RTVSPost2010PropOp34
 70
     1
102
RTVSPost2010Prop35
280
     0
102
RTVSPost2010PropOp35
 70
     1
102
RTVSPost2010Prop36
280
     0
102
RTVSPost2010PropOp36
 70
     1
102
RTVSPost2010Prop37
 90
       50
102
RTVSPost2010PropOp37
 70
     1
102
RTVSPost2010Prop38
140
0.0
102
RTVSPost2010PropOp38
 70
     1
102
RTVSPost2010Prop39
140
1.0
102
RTVSPost2010PropOp39
 70
     1
102
RTVSPost2010Prop40
 90
        0
102
RTVSPost2010PropOp40
 70
     1
102
RTVSPost2010Prop41ColorIndex
 90
       18
102
RTVSPost2010Prop41ColorRGB
 90
        0
102
RTVSPost2010PropOp41
 70
     1
102
RTVSPost2010Prop42
 90
       50
102
RTVSPost2010PropOp42
 70
     1
102
RTVSPost2010Prop43
 90
        3
102
RTVSPost2010PropOp43
 70
     1
102
RTVSPost2010Prop44ColorIndex
 90
        5
102
RTVSPost2010Prop44ColorRGB
 90
      255
102
RTVSPost2010PropOp44
 70
     1
102
RTVSPost2010Prop45
280
     0
102
RTVSPost2010PropOp45
 70
     1
102
RTVSPost2010Prop46
 90
       50
102
RTVSPost2010PropOp46
 70
     1
102
RTVSPost2010Prop47
 90
       50
102
RTVSPost2010PropOp47
 70
     1
102
RTVSPost2010Prop48
 90
       50
102
RTVSPost2010PropOp48
 70
     1
102
RTVSPost2010Prop49
280
     0
102
RTVSPost2010PropOp49
 70
     1
102
RTVSPost2010Prop50
 90
       50
102
RTVSPost2010PropOp50
 70
     1
102
RTVSPost2010Prop51ColorIndex
 90
      256
102
RTVSPost2010Prop51ColorRGB
 90
-16777216
102
RTVSPost2010PropOp51
 70
     0
102
RTVSPost2010Prop52
140
1.0
102
RTVSPost2010PropOp52
 70
     0
102
RTVSPost2010Prop53
 90
        2
102
RTVSPost2010PropOp53
 70
     1
102
RTVSPost2010Prop54
  1
strokes_ogs.tif
102
RTVSPost2010PropOp54
 70
     1
102
RTVSPost2010Prop55
280
     0
102
RTVSPost2010PropOp55
 70
     1
102
RTVSPost2010Prop56
140
1.0
102
RTVSPost2010PropOp56
 70
     1
102
RTVSPost2010Prop57
140
1.0
102
RTVSPost2010PropOp57
 70
     1
102
RTVSPropertyOp0
 70
     1
102
RTVSPropertyOp1
 70
     1
102
RTVSPropertyOp2
 70
     1
102
RTVSPropertyOp3
 70
     1
102
RTVSPropertyOp4
 70
     1
102
RTVSPropertyOp5
 70
     1
102
RTVSPropertyOp6
 70
     1
102
RTVSPropertyOp7
 70
     1
102
RTVSPropertyOp8
 70
     1
102
RTVSPropertyOp9
 70
     1
102
RTVSPropertyOp10
 70
     1
102
RTVSPropertyOp11
 70
     1
102
RTVSPropertyOp12
 70
     1
102
RTVSPropertyOp13
 70
     1
102
RTVSPropertyOp14
 70
     1
102
RTVSPropertyOp15
 70
     1
102
RTVSPropertyOp16
 70
     1
102
RTVSPropertyOp17
 70
     1
102
RTVSPropertyOp18
 70
     1
102
RTVSPropertyOp19
 70
     1
102
RTVSPropertyOp20
 70
     1
102
RTVSPropertyOp21
 70
     1
102
RTVSPropertyOp22
 70
     1
102
RTVSPropertyOp23
 70
     1
102
RTVSPropertyOp24
 70
     1
102
RTVSPropertyOp25
 70
     1
102
RTVSPropertyOp26
 70
     1
102
RTVSPropertyOp27
 70
     1
102
RTVSPropertyOp28
 70
     1
102
RTVSPropertyOp29
 70
     1
102
RTVSPropertyOp30
 70
     1
102
RTVSPropertyOp31
 70
     1
102
RTVSPropertyOp32
 70
     1
102
RTVSPropertyOp33
 70
     1
102
RTVSPropertyOp34
 70
     1
102
RTVSPropertyOp35
 70
     1
102
RTVSPropertyOp36
 70
     1
102
RTVSPropertyOp37
 70
     1
102
RTVSPropertyOp38
 70
     1
102
RTVSPropertyOp39
 70
     1
102
RTVSPropertyOp40
 70
     1
102
RTVSPropertyOp41
 70
     1
102
RTVSPropertyOp42
 70
     1
102
RTVSPropertyOp43
 70
     1
102
RTVSPropertyOp44
 70
     1
102
RTVSPropertyOp45
 70
     1
102
RTVSPropertyOp46
 70
     1
102
RTVSPropertyOp47
 70
     1
102
RTVSPropertyOp48
 70
     1
102
RTVSPropertyOp49
 70
     1
102
RTVSPropertyOp50
 70
     1
102
RTVSPropertyOp51
 70
     0
102
RTVSPropertyOp52
 70
     0
102
RTVSPropertyOp53
 70
     1
102
RTVSPropertyOp54
 70
     1
102
RTVSPropertyOp55
 70
     1
102
RTVSPropertyOp56
 70
     1
102
RTVSPropertyOp57
 70
     1
102
RTVSPropertyOp58
 70
     1
102
RTVSPropertyOp59
 70
     1
102
RTVSPropertyOp60
 70
     1
102
RTVSPropertyOp61
 70
     1
102
RTVSPropertyOp62
 70
     1
  0
XRECORD
  5
858D
102
{ACAD_REACTORS
330
858C
102
}
330
858C
100
AcDbXrecord
280
     1
102
RTVSPost2010Prop28
280
     0
102
RTVSPost2010PropOp28
 70
     1
102
RTVSPost2010Prop29
280
     1
102
RTVSPost2010PropOp29
 70
     1
102
RTVSPost2010Prop30
280
     1
102
RTVSPost2010PropOp30
 70
     1
102
RTVSPost2010Prop31
280
     0
102
RTVSPost2010PropOp31
 70
     1
102
RTVSPost2010Prop32
280
     0
102
RTVSPost2010PropOp32
 70
     1
102
RTVSPost2010Prop33
280
     0
102
RTVSPost2010PropOp33
 70
     1
102
RTVSPost2010Prop34
280
     0
102
RTVSPost2010PropOp34
 70
     1
102
RTVSPost2010Prop35
280
     0
102
RTVSPost2010PropOp35
 70
     1
102
RTVSPost2010Prop36
280
     0
102
RTVSPost2010PropOp36
 70
     1
102
RTVSPost2010Prop37
 90
       50
102
RTVSPost2010PropOp37
 70
     1
102
RTVSPost2010Prop38
140
0.0
102
RTVSPost2010PropOp38
 70
     1
102
RTVSPost2010Prop39
140
1.0
102
RTVSPost2010PropOp39
 70
     1
102
RTVSPost2010Prop40
 90
        0
102
RTVSPost2010PropOp40
 70
     1
102
RTVSPost2010Prop41ColorIndex
 90
       18
102
RTVSPost2010Prop41ColorRGB
 90
        0
102
RTVSPost2010PropOp41
 70
     1
102
RTVSPost2010Prop42
 90
       50
102
RTVSPost2010PropOp42
 70
     1
102
RTVSPost2010Prop43
 90
        3
102
RTVSPost2010PropOp43
 70
     1
102
RTVSPost2010Prop44ColorIndex
 90
        5
102
RTVSPost2010Prop44ColorRGB
 90
      255
102
RTVSPost2010PropOp44
 70
     1
102
RTVSPost2010Prop45
280
     0
102
RTVSPost2010PropOp45
 70
     1
102
RTVSPost2010Prop46
 90
       50
102
RTVSPost2010PropOp46
 70
     1
102
RTVSPost2010Prop47
 90
       50
102
RTVSPost2010PropOp47
 70
     1
102
RTVSPost2010Prop48
 90
       50
102
RTVSPost2010PropOp48
 70
     1
102
RTVSPost2010Prop49
280
     0
102
RTVSPost2010PropOp49
 70
     1
102
RTVSPost2010Prop50
 90
       50
102
RTVSPost2010PropOp50
 70
     1
102
RTVSPost2010Prop51ColorIndex
 90
      256
102
RTVSPost2010Prop51ColorRGB
 90
-16777216
102
RTVSPost2010PropOp51
 70
     0
102
RTVSPost2010Prop52
140
1.0
102
RTVSPost2010PropOp52
 70
     0
102
RTVSPost2010Prop53
 90
        2
102
RTVSPost2010PropOp53
 70
     1
102
RTVSPost2010Prop54
  1
strokes_ogs.tif
102
RTVSPost2010PropOp54
 70
     1
102
RTVSPost2010Prop55
280
     0
102
RTVSPost2010PropOp55
 70
     1
102
RTVSPost2010Prop56
140
1.0
102
RTVSPost2010PropOp56
 70
     1
102
RTVSPost2010Prop57
140
1.0
102
RTVSPost2010PropOp57
 70
     1
102
RTVSPropertyOp0
 70
     1
102
RTVSPropertyOp1
 70
     1
102
RTVSPropertyOp2
 70
     1
102
RTVSPropertyOp3
 70
     1
102
RTVSPropertyOp4
 70
     1
102
RTVSPropertyOp5
 70
     1
102
RTVSPropertyOp6
 70
     1
102
RTVSPropertyOp7
 70
     1
102
RTVSPropertyOp8
 70
     1
102
RTVSPropertyOp9
 70
     1
102
RTVSPropertyOp10
 70
     1
102
RTVSPropertyOp11
 70
     1
102
RTVSPropertyOp12
 70
     1
102
RTVSPropertyOp13
 70
     1
102
RTVSPropertyOp14
 70
     1
102
RTVSPropertyOp15
 70
     1
102
RTVSPropertyOp16
 70
     1
102
RTVSPropertyOp17
 70
     1
102
RTVSPropertyOp18
 70
     1
102
RTVSPropertyOp19
 70
     1
102
RTVSPropertyOp20
 70
     1
102
RTVSPropertyOp21
 70
     1
102
RTVSPropertyOp22
 70
     1
102
RTVSPropertyOp23
 70
     1
102
RTVSPropertyOp24
 70
     1
102
RTVSPropertyOp25
 70
     1
102
RTVSPropertyOp26
 70
     1
102
RTVSPropertyOp27
 70
     1
102
RTVSPropertyOp28
 70
     1
102
RTVSPropertyOp29
 70
     1
102
RTVSPropertyOp30
 70
     1
102
RTVSPropertyOp31
 70
     1
102
RTVSPropertyOp32
 70
     1
102
RTVSPropertyOp33
 70
     1
102
RTVSPropertyOp34
 70
     1
102
RTVSPropertyOp35
 70
     1
102
RTVSPropertyOp36
 70
     1
102
RTVSPropertyOp37
 70
     1
102
RTVSPropertyOp38
 70
     1
102
RTVSPropertyOp39
 70
     1
102
RTVSPropertyOp40
 70
     1
102
RTVSPropertyOp41
 70
     1
102
RTVSPropertyOp42
 70
     1
102
RTVSPropertyOp43
 70
     1
102
RTVSPropertyOp44
 70
     1
102
RTVSPropertyOp45
 70
     1
102
RTVSPropertyOp46
 70
     1
102
RTVSPropertyOp47
 70
     1
102
RTVSPropertyOp48
 70
     1
102
RTVSPropertyOp49
 70
     1
102
RTVSPropertyOp50
 70
     1
102
RTVSPropertyOp51
 70
     0
102
RTVSPropertyOp52
 70
     0
102
RTVSPropertyOp53
 70
     1
102
RTVSPropertyOp54
 70
     1
102
RTVSPropertyOp55
 70
     1
102
RTVSPropertyOp56
 70
     1
102
RTVSPropertyOp57
 70
     1
102
RTVSPropertyOp58
 70
     1
102
RTVSPropertyOp59
 70
     1
102
RTVSPropertyOp60
 70
     1
102
RTVSPropertyOp61
 70
     1
102
RTVSPropertyOp62
 70
     1
  0
XRECORD
  5
85A5
102
{ACAD_REACTORS
330
85A4
102
}
330
85A4
100
AcDbXrecord
280
     1
102
RTVSPost2010Prop28
280
     0
102
RTVSPost2010PropOp28
 70
     1
102
RTVSPost2010Prop29
280
     1
102
RTVSPost2010PropOp29
 70
     1
102
RTVSPost2010Prop30
280
     1
102
RTVSPost2010PropOp30
 70
     1
102
RTVSPost2010Prop31
280
     0
102
RTVSPost2010PropOp31
 70
     1
102
RTVSPost2010Prop32
280
     0
102
RTVSPost2010PropOp32
 70
     1
102
RTVSPost2010Prop33
280
     0
102
RTVSPost2010PropOp33
 70
     1
102
RTVSPost2010Prop34
280
     0
102
RTVSPost2010PropOp34
 70
     1
102
RTVSPost2010Prop35
280
     0
102
RTVSPost2010PropOp35
 70
     1
102
RTVSPost2010Prop36
280
     0
102
RTVSPost2010PropOp36
 70
     1
102
RTVSPost2010Prop37
 90
       50
102
RTVSPost2010PropOp37
 70
     1
102
RTVSPost2010Prop38
140
0.0
102
RTVSPost2010PropOp38
 70
     1
102
RTVSPost2010Prop39
140
1.0
102
RTVSPost2010PropOp39
 70
     1
102
RTVSPost2010Prop40
 90
        0
102
RTVSPost2010PropOp40
 70
     1
102
RTVSPost2010Prop41ColorIndex
 90
       18
102
RTVSPost2010Prop41ColorRGB
 90
        0
102
RTVSPost2010PropOp41
 70
     1
102
RTVSPost2010Prop42
 90
       50
102
RTVSPost2010PropOp42
 70
     1
102
RTVSPost2010Prop43
 90
        3
102
RTVSPost2010PropOp43
 70
     1
102
RTVSPost2010Prop44ColorIndex
 90
        5
102
RTVSPost2010Prop44ColorRGB
 90
      255
102
RTVSPost2010PropOp44
 70
     1
102
RTVSPost2010Prop45
280
     0
102
RTVSPost2010PropOp45
 70
     1
102
RTVSPost2010Prop46
 90
       50
102
RTVSPost2010PropOp46
 70
     1
102
RTVSPost2010Prop47
 90
       50
102
RTVSPost2010PropOp47
 70
     1
102
RTVSPost2010Prop48
 90
       50
102
RTVSPost2010PropOp48
 70
     1
102
RTVSPost2010Prop49
280
     0
102
RTVSPost2010PropOp49
 70
     1
102
RTVSPost2010Prop50
 90
       50
102
RTVSPost2010PropOp50
 70
     1
102
RTVSPost2010Prop51ColorIndex
 90
      256
102
RTVSPost2010Prop51ColorRGB
 90
-16777216
102
RTVSPost2010PropOp51
 70
     0
102
RTVSPost2010Prop52
140
1.0
102
RTVSPost2010PropOp52
 70
     0
102
RTVSPost2010Prop53
 90
        2
102
RTVSPost2010PropOp53
 70
     1
102
RTVSPost2010Prop54
  1
strokes_ogs.tif
102
RTVSPost2010PropOp54
 70
     1
102
RTVSPost2010Prop55
280
     0
102
RTVSPost2010PropOp55
 70
     1
102
RTVSPost2010Prop56
140
1.0
102
RTVSPost2010PropOp56
 70
     1
102
RTVSPost2010Prop57
140
1.0
102
RTVSPost2010PropOp57
 70
     1
102
RTVSPropertyOp0
 70
     1
102
RTVSPropertyOp1
 70
     1
102
RTVSPropertyOp2
 70
     1
102
RTVSPropertyOp3
 70
     1
102
RTVSPropertyOp4
 70
     1
102
RTVSPropertyOp5
 70
     1
102
RTVSPropertyOp6
 70
     1
102
RTVSPropertyOp7
 70
     1
102
RTVSPropertyOp8
 70
     1
102
RTVSPropertyOp9
 70
     1
102
RTVSPropertyOp10
 70
     1
102
RTVSPropertyOp11
 70
     1
102
RTVSPropertyOp12
 70
     1
102
RTVSPropertyOp13
 70
     1
102
RTVSPropertyOp14
 70
     1
102
RTVSPropertyOp15
 70
     1
102
RTVSPropertyOp16
 70
     1
102
RTVSPropertyOp17
 70
     1
102
RTVSPropertyOp18
 70
     1
102
RTVSPropertyOp19
 70
     1
102
RTVSPropertyOp20
 70
     1
102
RTVSPropertyOp21
 70
     1
102
RTVSPropertyOp22
 70
     1
102
RTVSPropertyOp23
 70
     1
102
RTVSPropertyOp24
 70
     1
102
RTVSPropertyOp25
 70
     1
102
RTVSPropertyOp26
 70
     1
102
RTVSPropertyOp27
 70
     1
102
RTVSPropertyOp28
 70
     1
102
RTVSPropertyOp29
 70
     1
102
RTVSPropertyOp30
 70
     1
102
RTVSPropertyOp31
 70
     1
102
RTVSPropertyOp32
 70
     1
102
RTVSPropertyOp33
 70
     1
102
RTVSPropertyOp34
 70
     1
102
RTVSPropertyOp35
 70
     1
102
RTVSPropertyOp36
 70
     1
102
RTVSPropertyOp37
 70
     1
102
RTVSPropertyOp38
 70
     1
102
RTVSPropertyOp39
 70
     1
102
RTVSPropertyOp40
 70
     1
102
RTVSPropertyOp41
 70
     1
102
RTVSPropertyOp42
 70
     1
102
RTVSPropertyOp43
 70
     1
102
RTVSPropertyOp44
 70
     1
102
RTVSPropertyOp45
 70
     1
102
RTVSPropertyOp46
 70
     1
102
RTVSPropertyOp47
 70
     1
102
RTVSPropertyOp48
 70
     1
102
RTVSPropertyOp49
 70
     1
102
RTVSPropertyOp50
 70
     1
102
RTVSPropertyOp51
 70
     0
102
RTVSPropertyOp52
 70
     0
102
RTVSPropertyOp53
 70
     1
102
RTVSPropertyOp54
 70
     1
102
RTVSPropertyOp55
 70
     1
102
RTVSPropertyOp56
 70
     1
102
RTVSPropertyOp57
 70
     1
102
RTVSPropertyOp58
 70
     1
102
RTVSPropertyOp59
 70
     1
102
RTVSPropertyOp60
 70
     1
102
RTVSPropertyOp61
 70
     1
102
RTVSPropertyOp62
 70
     1
  0
ENDSEC
  0
EOF
