  0
SECTION
  2
HEADER
  9
$ACADVER
  1
AC1015
  9
$ACADMAINTVER
 70
    20
  9
$DWGCODEPAGE
  3
ANSI_932
  9
$INSBASE
 10
0.0
 20
0.0
 30
0.0
  9
$EXTMIN
 10
-0.1602050617329951
 20
-0.22504996767384
 30
-0.0015258207003583
  9
$EXTMAX
 10
5250.160229508953
 20
7375.225084310193
 30
0.0000000349246037
  9
$LIMMIN
 10
0.0
 20
0.0
  9
$LIMMAX
 10
297.0
 20
210.0
  9
$ORTHOMODE
 70
     1
  9
$REGENMODE
 70
     1
  9
$FILLMODE
 70
     0
  9
$QTEXTMODE
 70
     0
  9
$MIRRTEXT
 70
     1
  9
$LTSCALE
 40
100.0
  9
$ATTMODE
 70
     1
  9
$TEXTSIZE
 40
180.0
  9
$TRACEWID
 40
0.05
  9
$TEXTSTYLE
  7
STANDARD
  9
$CLAYER
  8
3
  9
$CELTYPE
  6
ByLayer
  9
$CECOLOR
 62
   256
  9
$CELTSCALE
 40
1.0
  9
$DISPSILH
 70
     0
  9
$DIMSCALE
 40
25.0
  9
$DIMASZ
 40
2.0
  9
$DIMEXO
 40
1.0
  9
$DIMDLI
 40
10.0
  9
$DIMRND
 40
0.0
  9
$DIMDLE
 40
0.0
  9
$DIMEXE
 40
1.0
  9
$DIMTP
 40
1.0
  9
$DIMTM
 40
1.0
  9
$DIMTXT
 40
3.0
  9
$DIMCEN
 40
0.0
  9
$DIMTSZ
 40
0.0
  9
$DIMTOL
 70
     0
  9
$DIMLIM
 70
     0
  9
$DIMTIH
 70
     0
  9
$DIMTOH
 70
     0
  9
$DIMSE1
 70
     0
  9
$DIMSE2
 70
     0
  9
$DIMTAD
 70
     1
  9
$DIMZIN
 70
     8
  9
$DIMBLK
  1

  9
$DIMASO
 70
     1
  9
$DIMSHO
 70
     1
  9
$DIMPOST
  1

  9
$DIMAPOST
  1

  9
$DIMALT
 70
     0
  9
$DIMALTD
 70
     2
  9
$DIMALTF
 40
0.039
  9
$DIMLFAC
 40
1.0
  9
$DIMTOFL
 70
     1
  9
$DIMTVP
 40
0.0
  9
$DIMTIX
 70
     0
  9
$DIMSOXD
 70
     0
  9
$DIMSAH
 70
     1
  9
$DIMBLK1
  1
OPEN
  9
$DIMBLK2
  1
OPEN
  9
$DIMSTYLE
  2
IGA
  9
$DIMCLRD
 70
     0
  9
$DIMCLRE
 70
     0
  9
$DIMCLRT
 70
     0
  9
$DIMTFAC
 40
10.0
  9
$DIMGAP
 40
1.0
  9
$DIMJUST
 70
     0
  9
$DIMSD1
 70
     0
  9
$DIMSD2
 70
     0
  9
$DIMTOLJ
 70
     1
  9
$DIMTZIN
 70
     0
  9
$DIMALTZ
 70
     0
  9
$DIMALTTZ
 70
     0
  9
$DIMUPT
 70
     0
  9
$DIMDEC
 70
     4
  9
$DIMTDEC
 70
     4
  9
$DIMALTU
 70
     2
  9
$DIMALTTD
 70
     2
  9
$DIMTXSTY
  7
STANDARD
  9
$DIMAUNIT
 70
     0
  9
$DIMADEC
 70
     0
  9
$DIMALTRND
 40
0.0
  9
$DIMAZIN
 70
     0
  9
$DIMDSEP
 70
    46
  9
$DIMATFIT
 70
     3
  9
$DIMFRAC
 70
     0
  9
$DIMLDRBLK
  1
OPEN
  9
$DIMLUNIT
 70
     2
  9
$DIMLWD
 70
    -2
  9
$DIMLWE
 70
    -2
  9
$DIMTMOVE
 70
     0
  9
$LUNITS
 70
     2
  9
$LUPREC
 70
     3
  9
$SKETCHINC
 40
0.1
  9
$FILLETRAD
 40
50.0
  9
$AUNITS
 70
     0
  9
$AUPREC
 70
     0
  9
$MENU
  1
acad
  9
$ELEVATION
 40
0.0
  9
$PELEVATION
 40
0.0
  9
$THICKNESS
 40
0.0
  9
$LIMCHECK
 70
     0
  9
$CHAMFERA
 40
0.5
  9
$CHAMFERB
 40
0.5
  9
$CHAMFERC
 40
0.0
  9
$CHAMFERD
 40
0.0
  9
$SKPOLY
 70
     0
  9
$TDCREATE
 40
2451387.606533102
  9
$TDUCREATE
 40
2451387.231533102
  9
$TDUPDATE
 40
2460263.706825313
  9
$TDUUPDATE
 40
2460263.331825313
  9
$TDINDWG
 40
0.0458759259
  9
$TDUSRTIMER
 40
0.0458757407
  9
$USRTIMER
 70
     1
  9
$ANGBASE
 50
0.0
  9
$ANGDIR
 70
     0
  9
$PDMODE
 70
     0
  9
$PDSIZE
 40
0.0
  9
$PLINEWID
 40
0.0
  9
$SPLFRAME
 70
     0
  9
$SPLINETYPE
 70
     6
  9
$SPLINESEGS
 70
     8
  9
$HANDSEED
  5
8541
  9
$SURFTAB1
 70
     6
  9
$SURFTAB2
 70
     6
  9
$SURFTYPE
 70
     6
  9
$SURFU
 70
     6
  9
$SURFV
 70
     6
  9
$UCSBASE
  2

  9
$UCSNAME
  2

  9
$UCSORG
 10
0.0
 20
0.0
 30
0.0
  9
$UCSXDIR
 10
1.0
 20
0.0
 30
0.0
  9
$UCSYDIR
 10
0.0
 20
1.0
 30
0.0
  9
$UCSORTHOREF
  2

  9
$UCSORTHOVIEW
 70
     0
  9
$UCSORGTOP
 10
0.0
 20
0.0
 30
0.0
  9
$UCSORGBOTTOM
 10
0.0
 20
0.0
 30
0.0
  9
$UCSORGLEFT
 10
0.0
 20
0.0
 30
0.0
  9
$UCSORGRIGHT
 10
0.0
 20
0.0
 30
0.0
  9
$UCSORGFRONT
 10
0.0
 20
0.0
 30
0.0
  9
$UCSORGBACK
 10
0.0
 20
0.0
 30
0.0
  9
$PUCSBASE
  2

  9
$PUCSNAME
  2

  9
$PUCSORG
 10
0.0
 20
0.0
 30
0.0
  9
$PUCSXDIR
 10
1.0
 20
0.0
 30
0.0
  9
$PUCSYDIR
 10
0.0
 20
1.0
 30
0.0
  9
$PUCSORTHOREF
  2

  9
$PUCSORTHOVIEW
 70
     0
  9
$PUCSORGTOP
 10
0.0
 20
0.0
 30
0.0
  9
$PUCSORGBOTTOM
 10
0.0
 20
0.0
 30
0.0
  9
$PUCSORGLEFT
 10
0.0
 20
0.0
 30
0.0
  9
$PUCSORGRIGHT
 10
0.0
 20
0.0
 30
0.0
  9
$PUCSORGFRONT
 10
0.0
 20
0.0
 30
0.0
  9
$PUCSORGBACK
 10
0.0
 20
0.0
 30
0.0
  9
$USERI1
 70
     0
  9
$USERI2
 70
     0
  9
$USERI3
 70
     0
  9
$USERI4
 70
     0
  9
$USERI5
 70
     0
  9
$USERR1
 40
0.0
  9
$USERR2
 40
0.0
  9
$USERR3
 40
0.0
  9
$USERR4
 40
0.0
  9
$USERR5
 40
0.0
  9
$WORLDVIEW
 70
     1
  9
$SHADEDGE
 70
     3
  9
$SHADEDIF
 70
    70
  9
$TILEMODE
 70
     1
  9
$MAXACTVP
 70
    16
  9
$PINSBASE
 10
0.0
 20
0.0
 30
0.0
  9
$PLIMCHECK
 70
     0
  9
$PEXTMIN
 10
1.000000000000000E+20
 20
1.000000000000000E+20
 30
1.000000000000000E+20
  9
$PEXTMAX
 10
-1.000000000000000E+20
 20
-1.000000000000000E+20
 30
-1.000000000000000E+20
  9
$PLIMMIN
 10
0.0
 20
0.0
  9
$PLIMMAX
 10
12.0
 20
9.0
  9
$UNITMODE
 70
     0
  9
$VISRETAIN
 70
     0
  9
$PLINEGEN
 70
     0
  9
$PSLTSCALE
 70
     1
  9
$TREEDEPTH
 70
  3020
  9
$CMLSTYLE
  2
Standard
  9
$CMLJUST
 70
     0
  9
$CMLSCALE
 40
1.0
  9
$PROXYGRAPHICS
 70
     1
  9
$MEASUREMENT
 70
     0
  9
$CELWEIGHT
370
    -1
  9
$ENDCAPS
280
     0
  9
$JOINSTYLE
280
     0
  9
$LWDISPLAY
290
     0
  9
$INSUNITS
 70
     0
  9
$HYPERLINKBASE
  1

  9
$STYLESHEET
  1

  9
$XEDIT
290
     1
  9
$CEPSNTYPE
380
     0
  9
$PSTYLEMODE
290
     1
  9
$FINGERPRINTGUID
  2
{56F74DB8-37E5-4609-81F3-95969ADA4354}
  9
$VERSIONGUID
  2
{CA3BBDEB-454D-41A4-850B-60217F9888CD}
  9
$EXTNAMES
290
     1
  9
$PSVPSCALE
 40
0.0
  9
$OLESTARTUP
290
     0
  0
ENDSEC
  0
SECTION
  2
CLASSES
  0
CLASS
  1
ACDBDICTIONARYWDFLT
  2
AcDbDictionaryWithDefault
  3
ObjectDBX Classes
 90
        0
280
     0
281
     0
  0
CLASS
  1
MATERIAL
  2
AcDbMaterial
  3
ObjectDBX Classes
 90
     1153
280
     0
281
     0
  0
CLASS
  1
VISUALSTYLE
  2
AcDbVisualStyle
  3
ObjectDBX Classes
 90
     4095
280
     0
281
     0
  0
CLASS
  1
SCALE
  2
AcDbScale
  3
ObjectDBX Classes
 90
     1153
280
     0
281
     0
  0
CLASS
  1
TABLESTYLE
  2
AcDbTableStyle
  3
ObjectDBX Classes
 90
     4095
280
     0
281
     0
  0
CLASS
  1
MLEADERSTYLE
  2
AcDbMLeaderStyle
  3
ACDB_MLEADERSTYLE_CLASS
 90
     4095
280
     0
281
     0
  0
CLASS
  1
ACDBSECTIONVIEWSTYLE
  2
AcDbSectionViewStyle
  3
ObjectDBX Classes
 90
     1025
280
     0
281
     0
  0
CLASS
  1
ACDBDETAILVIEWSTYLE
  2
AcDbDetailViewStyle
  3
ObjectDBX Classes
 90
     1025
280
     0
281
     0
  0
CLASS
  1
SORTENTSTABLE
  2
AcDbSortentsTable
  3
ObjectDBX Classes
 90
        0
280
     0
281
     0
  0
CLASS
  1
DICTIONARYVAR
  2
AcDbDictionaryVar
  3
ObjectDBX Classes
 90
        0
280
     0
281
     0
  0
CLASS
  1
CELLSTYLEMAP
  2
AcDbCellStyleMap
  3
ObjectDBX Classes
 90
     1152
280
     0
281
     0
  0
CLASS
  1
ACDBPLACEHOLDER
  2
AcDbPlaceHolder
  3
ObjectDBX Classes
 90
        0
280
     0
281
     0
  0
CLASS
  1
LAYOUT
  2
AcDbLayout
  3
ObjectDBX Classes
 90
        0
280
     0
281
     0
  0
ENDSEC
  0
SECTION
  2
TABLES
  0
TABLE
  2
VPORT
  5
80EF
330
0
100
AcDbSymbolTable
 70
     1
  0
VPORT
  5
815B
330
80EF
100
AcDbSymbolTableRecord
100
AcDbViewportTableRecord
  2
*ACTIVE
 70
     0
 10
0.0
 20
0.0
 11
1.0
 21
1.0
 12
2625.00001222361
 22
3687.500017171259
 13
0.0
 23
0.0
 14
10.0
 24
10.0
 15
10.0
 25
10.0
 16
0.0
 26
0.0
 36
1.0
 17
0.0
 27
0.0
 37
0.0
 40
7423.198243171609
 41
2.050213675213675
 42
50.0
 43
0.0
 44
0.0
 50
0.0
 51
0.0
 71
     0
 72
   100
 73
     1
 74
     0
 75
     0
 76
     0
 77
     0
 78
     0
281
     0
 65
     1
110
0.0
120
0.0
130
0.0
111
1.0
121
0.0
131
0.0
112
0.0
122
1.0
132
0.0
 79
     0
146
0.0
1001
ACAD_NAV_VCDISPLAY
1070
     3
  0
ENDTAB
  0
TABLE
  2
LTYPE
  5
80EC
330
0
100
AcDbSymbolTable
 70
     3
  0
LTYPE
  5
8141
330
80EC
100
AcDbSymbolTableRecord
100
AcDbLinetypeTableRecord
  2
ByBlock
 70
     0
  3

 72
    65
 73
     0
 40
0.0
  0
LTYPE
  5
8142
330
80EC
100
AcDbSymbolTableRecord
100
AcDbLinetypeTableRecord
  2
ByLayer
 70
     0
  3

 72
    65
 73
     0
 40
0.0
  0
LTYPE
  5
8143
330
80EC
100
AcDbSymbolTableRecord
100
AcDbLinetypeTableRecord
  2
CONTINUOUS
 70
     0
  3
Solid line
 72
    65
 73
     0
 40
0.0
  0
LTYPE
  5
815C
330
80EC
100
AcDbSymbolTableRecord
100
AcDbLinetypeTableRecord
  2
CENTER
 70
     0
  3
____ _ ____ _ ____ _ ____ _ ____ _ ____ _ ____ 
 72
    65
 73
     4
 40
2.0
 49
1.25
 74
     0
 49
-0.25
 74
     0
 49
0.25
 74
     0
 49
-0.25
 74
     0
  0
ENDTAB
  0
TABLE
  2
LAYER
  5
80E9
102
{ACAD_XDICTIONARY
360
81A2
102
}
330
0
100
AcDbSymbolTable
 70
     6
  0
LAYER
  5
813B
102
{ACAD_XDICTIONARY
360
81CE
102
}
330
80E9
100
AcDbSymbolTableRecord
100
AcDbLayerTableRecord
  2
0
 70
     0
 62
     7
  6
CONTINUOUS
370
    -3
390
80F6
  0
LAYER
  5
815A
102
{ACAD_XDICTIONARY
360
81D0
102
}
330
80E9
100
AcDbSymbolTableRecord
100
AcDbLayerTableRecord
  2
3
 70
     0
 62
     2
  6
CONTINUOUS
370
    -3
390
80F6
  0
LAYER
  5
815D
102
{ACAD_XDICTIONARY
360
81D2
102
}
330
80E9
100
AcDbSymbolTableRecord
100
AcDbLayerTableRecord
  2
2
 70
     0
 62
     3
  6
CENTER
370
    -3
390
80F6
  0
LAYER
  5
815E
102
{ACAD_XDICTIONARY
360
81D4
102
}
330
80E9
100
AcDbSymbolTableRecord
100
AcDbLayerTableRecord
  2
1
 70
     0
 62
     4
  6
CONTINUOUS
370
    -3
390
80F6
  0
LAYER
  5
815F
102
{ACAD_XDICTIONARY
360
81D6
102
}
330
80E9
100
AcDbSymbolTableRecord
100
AcDbLayerTableRecord
  2
4
 70
     0
 62
     7
  6
CONTINUOUS
370
    -3
390
80F6
  0
LAYER
  5
8160
330
80E9
100
AcDbSymbolTableRecord
100
AcDbLayerTableRecord
  2
DEFPOINTS
 70
     0
 62
     7
  6
CONTINUOUS
290
     0
370
    -3
390
80F6
  0
ENDTAB
  0
TABLE
  2
STYLE
  5
80EA
330
0
100
AcDbSymbolTable
 70
     2
  0
STYLE
  5
813C
330
80EA
100
AcDbSymbolTableRecord
100
AcDbTextStyleTableRecord
  2
STANDARD
 70
     0
 40
0.0
 41
1.0
 50
0.0
 71
     0
 42
180.0
  3
simplex.shx
  4
extfont.shx
  0
STYLE
  5
8140
330
80EA
100
AcDbSymbolTableRecord
100
AcDbTextStyleTableRecord
  2
Annotative
 70
     0
 40
0.0
 41
1.0
 50
0.0
 71
     0
 42
0.2
  3
txt
  4

1001
AcadAnnotative
1000
AnnotativeData
1002
{
1070
     1
1070
     1
1002
}
  0
ENDTAB
  0
TABLE
  2
VIEW
  5
80ED
330
0
100
AcDbSymbolTable
 70
     0
  0
ENDTAB
  0
TABLE
  2
UCS
  5
80EE
330
0
100
AcDbSymbolTable
 70
     0
  0
ENDTAB
  0
TABLE
  2
APPID
  5
80F0
330
0
100
AcDbSymbolTable
 70
     8
  0
APPID
  5
813D
330
80F0
100
AcDbSymbolTableRecord
100
AcDbRegAppTableRecord
  2
ACAD
 70
     0
  0
APPID
  5
8144
330
80F0
100
AcDbSymbolTableRecord
100
AcDbRegAppTableRecord
  2
AcadAnnotative
 70
     0
  0
APPID
  5
81A1
330
80F0
100
AcDbSymbolTableRecord
100
AcDbRegAppTableRecord
  2
ACAD_NAV_VCDISPLAY
 70
     0
  0
APPID
  5
8224
330
80F0
100
AcDbSymbolTableRecord
100
AcDbRegAppTableRecord
  2
ACAD_DSTYLE_DIMJAG
 70
     0
  0
APPID
  5
8225
330
80F0
100
AcDbSymbolTableRecord
100
AcDbRegAppTableRecord
  2
ACAD_DSTYLE_DIMTALN
 70
     0
  0
APPID
  5
8240
330
80F0
100
AcDbSymbolTableRecord
100
AcDbRegAppTableRecord
  2
AcadAnnoMonitorAlertIconDisabled
 70
     0
  0
APPID
  5
8241
330
80F0
100
AcDbSymbolTableRecord
100
AcDbRegAppTableRecord
  2
ACAD_EXEMPT_FROM_CAD_STANDARDS
 70
     0
  0
APPID
  5
8538
330
80F0
100
AcDbSymbolTableRecord
100
AcDbRegAppTableRecord
  2
ACAD_MLEADERVER
 70
     0
  0
ENDTAB
  0
TABLE
  2
DIMSTYLE
  5
80F1
330
0
100
AcDbSymbolTable
 70
     4
100
AcDbDimStyleTable
 71
     1
340
8161
  0
DIMSTYLE
105
813E
102
{ACAD_REACTORS
330
7C8C
330
7C8D
330
7C9B
330
7CEB
330
7CEF
330
7CF1
330
7CF2
330
7CF3
330
7CF4
330
7CF9
102
}
330
80F1
100
AcDbSymbolTableRecord
100
AcDbDimStyleTableRecord
  2
Standard
 70
     0
340
813C
  0
DIMSTYLE
105
813F
330
80F1
100
AcDbSymbolTableRecord
100
AcDbDimStyleTableRecord
  2
Annotative
 70
     0
340
813C
1001
AcadAnnotative
1000
AnnotativeData
1002
{
1070
     1
1070
     1
1002
}
  0
DIMSTYLE
105
8161
102
{ACAD_REACTORS
330
8226
330
8233
330
8294
330
82A1
330
8310
330
832F
330
833C
330
8349
330
8356
330
8363
330
8370
330
8382
102
}
330
80F1
100
AcDbSymbolTableRecord
100
AcDbDimStyleTableRecord
  2
IGA
 70
     0
 40
2.0
 41
2.0
 42
0.5
 43
10.0
 44
1.0
 47
1.0
 48
1.0
 73
     0
 74
     0
 77
     1
 78
     8
140
3.0
141
0.0
143
0.03937
146
10.0
147
1.0
173
     1
271
     3
272
     3
279
     2
284
     8
285
     8
286
     8
340
813C
  0
DIMSTYLE
105
8162
330
80F1
100
AcDbSymbolTableRecord
100
AcDbDimStyleTableRecord
  2
MATSU
 70
     0
 41
2.0
 42
1.0
 43
10.0
 44
1.0
 73
     0
 74
     0
 77
     1
 78
     8
140
3.0
141
0.0
143
0.03937
147
0.5
172
     1
173
     1
176
   256
177
   256
178
   256
271
     3
272
     3
279
     2
284
     8
285
     8
286
     8
340
813C
  0
ENDTAB
  0
TABLE
  2
BLOCK_RECORD
  5
80E8
330
0
100
AcDbSymbolTable
 70
    50
  0
BLOCK_RECORD
  5
8156
330
80E8
100
AcDbSymbolTableRecord
100
AcDbBlockTableRecord
  2
*Model_Space
340
8159
  0
BLOCK_RECORD
  5
8152
330
80E8
100
AcDbSymbolTableRecord
100
AcDbBlockTableRecord
  2
*Paper_Space
340
8155
  0
BLOCK_RECORD
  5
8166
330
80E8
100
AcDbSymbolTableRecord
100
AcDbBlockTableRecord
  2
$MODEL_SPACE
340
0
  0
BLOCK_RECORD
  5
8168
330
80E8
100
AcDbSymbolTableRecord
100
AcDbBlockTableRecord
  2
$PAPER_SPACE
340
0
  0
BLOCK_RECORD
  5
816A
330
80E8
100
AcDbSymbolTableRecord
100
AcDbBlockTableRecord
  2
_OPEN
340
0
102
{BLKREFS
331
8285
331
8286
331
828E
331
828F
331
7E5E
331
7E5F
331
7F5F
331
7F60
331
7E74
331
7E75
331
7E7F
331
7E80
331
7E95
331
7E96
331
829B
331
829C
331
82B1
331
82B2
331
8336
331
8337
331
8343
331
8344
331
8350
331
8351
331
835D
331
835E
331
7ECC
331
7ECD
331
7FF0
331
7FF1
331
8006
331
8007
331
7EED
331
7EEE
331
7EF8
331
7EF9
331
7F03
331
7F04
331
7F0E
331
7F0F
331
7F19
331
7F1A
331
7F24
331
7F25
331
80DA
331
7F54
331
7F55
331
801A
331
801B
331
8027
331
8028
331
8034
331
8035
331
8041
331
8042
331
8075
331
8076
331
8496
331
84B1
331
84B9
331
84BA
331
8397
331
8398
102
}
  0
BLOCK_RECORD
  5
816C
330
80E8
100
AcDbSymbolTableRecord
100
AcDbBlockTableRecord
  2
YA_N
340
0
102
{BLKREFS
331
7CCE
331
7C36
331
7C55
331
7C93
102
}
  0
BLOCK_RECORD
  5
816E
330
80E8
100
AcDbSymbolTableRecord
100
AcDbBlockTableRecord
  2
*D4
340
0
  0
BLOCK_RECORD
  5
8170
330
80E8
100
AcDbSymbolTableRecord
100
AcDbBlockTableRecord
  2
*D5
340
0
  0
BLOCK_RECORD
  5
8172
330
80E8
100
AcDbSymbolTableRecord
100
AcDbBlockTableRecord
  2
*D6
340
0
  0
BLOCK_RECORD
  5
8174
330
80E8
100
AcDbSymbolTableRecord
100
AcDbBlockTableRecord
  2
*D7
340
0
  0
BLOCK_RECORD
  5
8176
330
80E8
100
AcDbSymbolTableRecord
100
AcDbBlockTableRecord
  2
*D8
340
0
  0
BLOCK_RECORD
  5
8178
330
80E8
100
AcDbSymbolTableRecord
100
AcDbBlockTableRecord
  2
*D9
340
0
  0
BLOCK_RECORD
  5
817A
330
80E8
100
AcDbSymbolTableRecord
100
AcDbBlockTableRecord
  2
*D10
340
0
  0
BLOCK_RECORD
  5
817C
330
80E8
100
AcDbSymbolTableRecord
100
AcDbBlockTableRecord
  2
*U11
340
0
102
{BLKREFS
331
7FF2
102
}
  0
BLOCK_RECORD
  5
817D
330
80E8
100
AcDbSymbolTableRecord
100
AcDbBlockTableRecord
  2
*D12
340
0
  0
BLOCK_RECORD
  5
817F
330
80E8
100
AcDbSymbolTableRecord
100
AcDbBlockTableRecord
  2
*D13
340
0
  0
BLOCK_RECORD
  5
8181
330
80E8
100
AcDbSymbolTableRecord
100
AcDbBlockTableRecord
  2
*D14
340
0
  0
BLOCK_RECORD
  5
8183
330
80E8
100
AcDbSymbolTableRecord
100
AcDbBlockTableRecord
  2
*D15
340
0
  0
BLOCK_RECORD
  5
8185
330
80E8
100
AcDbSymbolTableRecord
100
AcDbBlockTableRecord
  2
*D16
340
0
  0
BLOCK_RECORD
  5
8187
330
80E8
100
AcDbSymbolTableRecord
100
AcDbBlockTableRecord
  2
*D17
340
0
  0
BLOCK_RECORD
  5
8189
330
80E8
100
AcDbSymbolTableRecord
100
AcDbBlockTableRecord
  2
*D18
340
0
  0
BLOCK_RECORD
  5
818B
330
80E8
100
AcDbSymbolTableRecord
100
AcDbBlockTableRecord
  2
*D19
340
0
  0
BLOCK_RECORD
  5
818D
330
80E8
100
AcDbSymbolTableRecord
100
AcDbBlockTableRecord
  2
_DOT
340
0
102
{BLKREFS
331
80D9
102
}
  0
BLOCK_RECORD
  5
818E
330
80E8
100
AcDbSymbolTableRecord
100
AcDbBlockTableRecord
  2
*D21
340
0
  0
BLOCK_RECORD
  5
8191
330
80E8
100
AcDbSymbolTableRecord
100
AcDbBlockTableRecord
  2
*D22
340
0
  0
BLOCK_RECORD
  5
8193
330
80E8
100
AcDbSymbolTableRecord
100
AcDbBlockTableRecord
  2
*D23
340
0
  0
BLOCK_RECORD
  5
8195
330
80E8
100
AcDbSymbolTableRecord
100
AcDbBlockTableRecord
  2
*D24
340
0
  0
BLOCK_RECORD
  5
8197
330
80E8
100
AcDbSymbolTableRecord
100
AcDbBlockTableRecord
  2
*D25
340
0
  0
BLOCK_RECORD
  5
8199
330
80E8
100
AcDbSymbolTableRecord
100
AcDbBlockTableRecord
  2
_NONE
340
0
  0
BLOCK_RECORD
  5
819B
330
80E8
100
AcDbSymbolTableRecord
100
AcDbBlockTableRecord
  2
*D27
340
0
  0
BLOCK_RECORD
  5
819D
330
80E8
100
AcDbSymbolTableRecord
100
AcDbBlockTableRecord
  2
*D28
340
0
  0
BLOCK_RECORD
  5
8227
330
80E8
100
AcDbSymbolTableRecord
100
AcDbBlockTableRecord
  2
*D30
340
0
  0
BLOCK_RECORD
  5
8234
330
80E8
100
AcDbSymbolTableRecord
100
AcDbBlockTableRecord
  2
*D31
340
0
  0
BLOCK_RECORD
  5
8295
330
80E8
100
AcDbSymbolTableRecord
100
AcDbBlockTableRecord
  2
*D32
340
0
  0
BLOCK_RECORD
  5
82A2
330
80E8
100
AcDbSymbolTableRecord
100
AcDbBlockTableRecord
  2
*D33
340
0
  0
BLOCK_RECORD
  5
82B7
330
80E8
100
AcDbSymbolTableRecord
100
AcDbBlockTableRecord
  2
*D34
340
0
  0
BLOCK_RECORD
  5
82C4
330
80E8
100
AcDbSymbolTableRecord
100
AcDbBlockTableRecord
  2
*D35
340
0
  0
BLOCK_RECORD
  5
82D1
330
80E8
100
AcDbSymbolTableRecord
100
AcDbBlockTableRecord
  2
*D36
340
0
  0
BLOCK_RECORD
  5
82DE
330
80E8
100
AcDbSymbolTableRecord
100
AcDbBlockTableRecord
  2
*D37
340
0
  0
BLOCK_RECORD
  5
82EB
330
80E8
100
AcDbSymbolTableRecord
100
AcDbBlockTableRecord
  2
*D38
340
0
  0
BLOCK_RECORD
  5
82F8
330
80E8
100
AcDbSymbolTableRecord
100
AcDbBlockTableRecord
  2
*D39
340
0
  0
BLOCK_RECORD
  5
8303
330
80E8
100
AcDbSymbolTableRecord
100
AcDbBlockTableRecord
  2
*D40
340
0
  0
BLOCK_RECORD
  5
8311
330
80E8
100
AcDbSymbolTableRecord
100
AcDbBlockTableRecord
  2
*D41
340
0
  0
BLOCK_RECORD
  5
8330
330
80E8
100
AcDbSymbolTableRecord
100
AcDbBlockTableRecord
  2
*D42
340
0
  0
BLOCK_RECORD
  5
833D
330
80E8
100
AcDbSymbolTableRecord
100
AcDbBlockTableRecord
  2
*D43
340
0
  0
BLOCK_RECORD
  5
834A
330
80E8
100
AcDbSymbolTableRecord
100
AcDbBlockTableRecord
  2
*D44
340
0
  0
BLOCK_RECORD
  5
8357
330
80E8
100
AcDbSymbolTableRecord
100
AcDbBlockTableRecord
  2
*D45
340
0
  0
BLOCK_RECORD
  5
8364
330
80E8
100
AcDbSymbolTableRecord
100
AcDbBlockTableRecord
  2
*D46
340
0
  0
BLOCK_RECORD
  5
8371
330
80E8
100
AcDbSymbolTableRecord
100
AcDbBlockTableRecord
  2
*D47
340
0
  0
BLOCK_RECORD
  5
8383
330
80E8
100
AcDbSymbolTableRecord
100
AcDbBlockTableRecord
  2
*D48
340
0
  0
BLOCK_RECORD
  5
841A
330
80E8
100
AcDbSymbolTableRecord
100
AcDbBlockTableRecord
  2
_DotSmall
340
0
102
{BLKREFS
331
8495
331
84B2
102
}
  0
ENDTAB
  0
ENDSEC
  0
SECTION
  2
BLOCKS
  0
BLOCK
  5
8157
330
8156
100
AcDbEntity
  8
0
100
AcDbBlockBegin
  2
*Model_Space
 70
     0
 10
0.0
 20
0.0
 30
0.0
  3
*Model_Space
  1

  0
ENDBLK
  5
8158
330
8156
100
AcDbEntity
  8
0
100
AcDbBlockEnd
  0
BLOCK
  5
8153
330
8152
100
AcDbEntity
 67
     1
  8
0
100
AcDbBlockBegin
  2
*Paper_Space
 70
     0
 10
0.0
 20
0.0
 30
0.0
  3
*Paper_Space
  1

  0
ENDBLK
  5
8154
330
8152
100
AcDbEntity
 67
     1
  8
0
100
AcDbBlockEnd
  0
BLOCK
  5
8167
330
8166
100
AcDbEntity
  8
0
100
AcDbBlockBegin
  2
$MODEL_SPACE
 70
     0
 10
0.0
 20
0.0
 30
0.0
  3
$MODEL_SPACE
  1

  0
ENDBLK
  5
1B
330
8166
100
AcDbEntity
  8
0
100
AcDbBlockEnd
  0
BLOCK
  5
8169
330
8168
100
AcDbEntity
  8
0
100
AcDbBlockBegin
  2
$PAPER_SPACE
 70
     0
 10
0.0
 20
0.0
 30
0.0
  3
$PAPER_SPACE
  1

  0
ENDBLK
  5
18
330
8168
100
AcDbEntity
  8
0
100
AcDbBlockEnd
  0
BLOCK
  5
816B
330
816A
100
AcDbEntity
  8
0
100
AcDbBlockBegin
  2
_OPEN
 70
     0
 10
0.0
 20
0.0
 30
0.0
  3
_OPEN
  1

  0
LINE
  5
79FD
330
816A
100
AcDbEntity
  8
0
  6
ByBlock
 62
     0
100
AcDbLine
 10
-1.0
 20
0.1666666666666666
 30
0.0
 11
0.0
 21
0.0
 31
0.0
  0
LINE
  5
79FE
330
816A
100
AcDbEntity
  8
0
  6
ByBlock
 62
     0
100
AcDbLine
 10
0.0
 20
0.0
 30
0.0
 11
-1.0
 21
-0.1666666666666666
 31
0.0
  0
LINE
  5
79FF
330
816A
100
AcDbEntity
  8
0
  6
ByBlock
 62
     0
100
AcDbLine
 10
0.0
 20
0.0
 30
0.0
 11
-1.0
 21
0.0
 31
0.0
  0
ENDBLK
  5
7A01
330
816A
100
AcDbEntity
  8
0
100
AcDbBlockEnd
  0
BLOCK
  5
816D
330
816C
100
AcDbEntity
  8
0
100
AcDbBlockBegin
  2
YA_N
 70
     0
 10
0.0
 20
0.0
 30
0.0
  3
YA_N
  1

  0
ENDBLK
  5
7A0C
330
816C
100
AcDbEntity
  8
0
100
AcDbBlockEnd
  0
BLOCK
  5
816F
330
816E
100
AcDbEntity
  8
0
100
AcDbBlockBegin
  2
*D4
 70
     1
 10
0.0
 20
0.0
 30
0.0
  3
*D4
  1

  0
LINE
  5
7E5B
330
816E
100
AcDbEntity
  8
0
  6
ByBlock
100
AcDbLine
 10
93.06435467549272
 20
1267.593478221399
 30
0.0
 11
-55.94302910373335
 21
1267.593478221399
 31
0.0
  0
LINE
  5
7E5C
330
816E
100
AcDbEntity
  8
0
  6
ByBlock
100
AcDbLine
 10
93.06435467549178
 20
537.5934782213988
 30
0.0
 11
-55.94302910373335
 21
537.5934782213988
 31
0.0
  0
LINE
  5
7E5D
330
816E
100
AcDbEntity
  8
0
  6
ByBlock
100
AcDbLine
 10
-30.94302910373336
 20
1217.593478221399
 30
0.0
 11
-30.94302910373336
 21
587.5934782213988
 31
0.0
  0
INSERT
  5
7E5E
330
816E
100
AcDbEntity
  8
0
  6
ByBlock
100
AcDbBlockReference
  2
_OPEN
 10
-30.94302910373336
 20
1267.593478221399
 30
0.0
 41
50.0
 42
50.0
 43
50.0
 50
90.0
  0
INSERT
  5
7E5F
330
816E
100
AcDbEntity
  8
0
  6
ByBlock
100
AcDbBlockReference
  2
_OPEN
 10
-30.94302910373336
 20
537.5934782213988
 30
0.0
 41
50.0
 42
50.0
 43
50.0
 50
270.0
  0
TEXT
  5
7E60
330
816E
100
AcDbEntity
  8
3
100
AcDbText
 10
-43.44302910373335
 20
806.1649067928273
 30
0.0
 40
75.0
  1
730
 50
90.0
100
AcDbText
  0
POINT
  5
7E61
330
816E
100
AcDbEntity
  8
DEFPOINTS
  6
ByBlock
 62
     0
100
AcDbPoint
 10
118.0643546754926
 20
1267.593478221399
 30
0.0
  0
POINT
  5
7E62
330
816E
100
AcDbEntity
  8
DEFPOINTS
  6
ByBlock
 62
     0
100
AcDbPoint
 10
118.0643546754918
 20
537.5934782213988
 30
0.0
  0
POINT
  5
7E63
330
816E
100
AcDbEntity
  8
DEFPOINTS
  6
ByBlock
 62
     0
100
AcDbPoint
 10
-30.94302910373336
 20
537.5934782213988
 30
0.0
  0
ENDBLK
  5
7E64
330
816E
100
AcDbEntity
  8
0
100
AcDbBlockEnd
  0
BLOCK
  5
8171
330
8170
100
AcDbEntity
  8
0
100
AcDbBlockBegin
  2
*D5
 70
     1
 10
0.0
 20
0.0
 30
0.0
  3
*D5
  1

  0
LINE
  5
7F5C
330
8170
100
AcDbEntity
  8
0
  6
ByBlock
100
AcDbLine
 10
93.06435467549272
 20
1267.593478221399
 30
0.0
 11
-208.7518025773988
 21
1267.593478221399
 31
0.0
  0
LINE
  5
7F5D
330
8170
100
AcDbEntity
  8
0
  6
ByBlock
100
AcDbLine
 10
-29.20148412993695
 20
508.5934782213988
 30
0.0
 11
-208.7518025773988
 21
508.5934782213988
 31
0.0
  0
LINE
  5
7F5E
330
8170
100
AcDbEntity
  8
0
  6
ByBlock
100
AcDbLine
 10
-183.7518025773988
 20
1217.593478221399
 30
0.0
 11
-183.7518025773988
 21
558.5934782213988
 31
0.0
  0
INSERT
  5
7F5F
330
8170
100
AcDbEntity
  8
0
  6
ByBlock
100
AcDbBlockReference
  2
_OPEN
 10
-183.7518025773988
 20
1267.593478221399
 30
0.0
 41
50.0
 42
50.0
 43
50.0
 50
90.0
  0
INSERT
  5
7F60
330
8170
100
AcDbEntity
  8
0
  6
ByBlock
100
AcDbBlockReference
  2
_OPEN
 10
-183.7518025773988
 20
508.5934782213988
 30
0.0
 41
50.0
 42
50.0
 43
50.0
 50
270.0
  0
TEXT
  5
7F61
330
8170
100
AcDbEntity
  8
3
100
AcDbText
 10
-196.2518025773988
 20
793.4506210785417
 30
0.0
 40
75.0
  1
759
 50
90.0
100
AcDbText
  0
POINT
  5
7F62
330
8170
100
AcDbEntity
  8
DEFPOINTS
  6
ByBlock
 62
     0
100
AcDbPoint
 10
118.0643546754926
 20
1267.593478221399
 30
0.0
  0
POINT
  5
7F63
330
8170
100
AcDbEntity
  8
DEFPOINTS
  6
ByBlock
 62
     0
100
AcDbPoint
 10
-4.201484129936942
 20
508.5934782213988
 30
0.0
  0
POINT
  5
7F64
330
8170
100
AcDbEntity
  8
DEFPOINTS
  6
ByBlock
 62
     0
100
AcDbPoint
 10
-183.7518025773988
 20
508.5934782213988
 30
0.0
  0
ENDBLK
  5
7F65
330
8170
100
AcDbEntity
  8
0
100
AcDbBlockEnd
  0
BLOCK
  5
8173
330
8172
100
AcDbEntity
  8
0
100
AcDbBlockBegin
  2
*D6
 70
     1
 10
0.0
 20
0.0
 30
0.0
  3
*D6
  1

  0
LINE
  5
7E71
330
8172
100
AcDbEntity
  8
0
  6
ByBlock
100
AcDbLine
 10
118.0643546754926
 20
1334.593478221398
 30
0.0
 11
118.0643546754926
 21
1485.574010402429
 31
0.0
  0
LINE
  5
7E72
330
8172
100
AcDbEntity
  8
0
  6
ByBlock
100
AcDbLine
 10
618.0643546754928
 20
1363.64476267854
 30
0.0
 11
618.0643546754928
 21
1485.574010402429
 31
0.0
  0
LINE
  5
7E73
330
8172
100
AcDbEntity
  8
0
  6
ByBlock
100
AcDbLine
 10
168.0643546754927
 20
1460.57401040243
 30
0.0
 11
568.0643546754928
 21
1460.57401040243
 31
0.0
  0
INSERT
  5
7E74
330
8172
100
AcDbEntity
  8
0
  6
ByBlock
100
AcDbBlockReference
  2
_OPEN
 10
118.0643546754926
 20
1460.57401040243
 30
0.0
 41
50.0
 42
50.0
 43
50.0
 50
180.0
  0
INSERT
  5
7E75
330
8172
100
AcDbEntity
  8
0
  6
ByBlock
100
AcDbBlockReference
  2
_OPEN
 10
618.0643546754928
 20
1460.57401040243
 30
0.0
 41
50.0
 42
50.0
 43
50.0
  0
TEXT
  5
7E76
330
8172
100
AcDbEntity
  8
3
100
AcDbText
 10
271.6357832469213
 20
1473.07401040243
 30
0.0
 40
75.0
  1
500
100
AcDbText
  0
POINT
  5
7E77
330
8172
100
AcDbEntity
  8
DEFPOINTS
  6
ByBlock
 62
     0
100
AcDbPoint
 10
118.0643546754926
 20
1309.593478221398
 30
0.0
  0
POINT
  5
7E78
330
8172
100
AcDbEntity
  8
DEFPOINTS
  6
ByBlock
 62
     0
100
AcDbPoint
 10
618.0643546754928
 20
1338.64476267854
 30
0.0
  0
POINT
  5
7E79
330
8172
100
AcDbEntity
  8
DEFPOINTS
  6
ByBlock
 62
     0
100
AcDbPoint
 10
618.0643546754928
 20
1460.57401040243
 30
0.0
  0
ENDBLK
  5
7E7A
330
8172
100
AcDbEntity
  8
0
100
AcDbBlockEnd
  0
BLOCK
  5
8175
330
8174
100
AcDbEntity
  8
0
100
AcDbBlockBegin
  2
*D7
 70
     1
 10
0.0
 20
0.0
 30
0.0
  3
*D7
  1

  0
LINE
  5
7E7C
330
8174
100
AcDbEntity
  8
0
  6
ByBlock
100
AcDbLine
 10
618.0643546754928
 20
1363.64476267854
 30
0.0
 11
618.0643546754928
 21
1485.574010402429
 31
0.0
  0
LINE
  5
7E7D
330
8174
100
AcDbEntity
  8
0
  6
ByBlock
100
AcDbLine
 10
1227.94896001793
 20
533.5934782213992
 30
0.0
 11
1227.94896001793
 21
1485.574010402429
 31
0.0
  0
LINE
  5
7E7E
330
8174
100
AcDbEntity
  8
0
  6
ByBlock
100
AcDbLine
 10
668.0643546754928
 20
1460.57401040243
 30
0.0
 11
1177.94896001793
 21
1460.57401040243
 31
0.0
  0
INSERT
  5
7E7F
330
8174
100
AcDbEntity
  8
0
  6
ByBlock
100
AcDbBlockReference
  2
_OPEN
 10
618.0643546754928
 20
1460.57401040243
 30
0.0
 41
50.0
 42
50.0
 43
50.0
 50
180.0
  0
INSERT
  5
7E80
330
8174
100
AcDbEntity
  8
0
  6
ByBlock
100
AcDbBlockReference
  2
_OPEN
 10
1227.94896001793
 20
1460.57401040243
 30
0.0
 41
50.0
 42
50.0
 43
50.0
  0
TEXT
  5
7E81
330
8174
100
AcDbEntity
  8
3
100
AcDbText
 10
833.7209430609973
 20
1473.07401040243
 30
0.0
 40
75.0
  1
612
100
AcDbText
  0
POINT
  5
7E82
330
8174
100
AcDbEntity
  8
DEFPOINTS
  6
ByBlock
 62
     0
100
AcDbPoint
 10
618.0643546754928
 20
1338.64476267854
 30
0.0
  0
POINT
  5
7E83
330
8174
100
AcDbEntity
  8
DEFPOINTS
  6
ByBlock
 62
     0
100
AcDbPoint
 10
1227.94896001793
 20
508.5934782213991
 30
0.0
  0
POINT
  5
7E84
330
8174
100
AcDbEntity
  8
DEFPOINTS
  6
ByBlock
 62
     0
100
AcDbPoint
 10
1227.94896001793
 20
1460.57401040243
 30
0.0
  0
ENDBLK
  5
7E85
330
8174
100
AcDbEntity
  8
0
100
AcDbBlockEnd
  0
BLOCK
  5
8177
330
8176
100
AcDbEntity
  8
0
100
AcDbBlockBegin
  2
*D8
 70
     1
 10
0.0
 20
0.0
 30
0.0
  3
*D8
  1

  0
LINE
  5
7E92
330
8176
100
AcDbEntity
  8
0
  6
ByBlock
100
AcDbLine
 10
-29.20148412993695
 20
508.5934782213988
 30
0.0
 11
-207.6894596098227
 21
508.5934782213988
 31
0.0
  0
LINE
  5
7E93
330
8176
100
AcDbEntity
  8
0
  6
ByBlock
100
AcDbLine
 10
143.0643546754927
 20
-36.40652177860101
 30
0.0
 11
-207.6894596098227
 21
-36.40652177860101
 31
0.0
  0
LINE
  5
7E94
330
8176
100
AcDbEntity
  8
0
  6
ByBlock
100
AcDbLine
 10
-182.6894596098227
 20
458.5934782213988
 30
0.0
 11
-182.6894596098227
 21
13.59347822139898
 31
0.0
  0
INSERT
  5
7E95
330
8176
100
AcDbEntity
  8
0
  6
ByBlock
100
AcDbBlockReference
  2
_OPEN
 10
-182.6894596098227
 20
508.5934782213988
 30
0.0
 41
50.0
 42
50.0
 43
50.0
 50
90.0
  0
INSERT
  5
7E96
330
8176
100
AcDbEntity
  8
0
  6
ByBlock
100
AcDbBlockReference
  2
_OPEN
 10
-182.6894596098227
 20
-36.40652177860101
 30
0.0
 41
50.0
 42
50.0
 43
50.0
 50
270.0
  0
TEXT
  5
7E97
330
8176
100
AcDbEntity
  8
3
100
AcDbText
 10
-195.1894596098227
 20
139.6649067928275
 30
0.0
 40
75.0
  1
545
 50
90.0
100
AcDbText
  0
POINT
  5
7E98
330
8176
100
AcDbEntity
  8
DEFPOINTS
  6
ByBlock
 62
     0
100
AcDbPoint
 10
-4.201484129936942
 20
508.5934782213988
 30
0.0
  0
POINT
  5
7E99
330
8176
100
AcDbEntity
  8
DEFPOINTS
  6
ByBlock
 62
     0
100
AcDbPoint
 10
168.0643546754927
 20
-36.40652177860101
 30
0.0
  0
POINT
  5
7E9A
330
8176
100
AcDbEntity
  8
DEFPOINTS
  6
ByBlock
 62
     0
100
AcDbPoint
 10
-182.6894596098227
 20
-36.40652177860101
 30
0.0
  0
ENDBLK
  5
7E9B
330
8176
100
AcDbEntity
  8
0
100
AcDbBlockEnd
  0
BLOCK
  5
8179
330
8178
100
AcDbEntity
  8
0
100
AcDbBlockBegin
  2
*D9
 70
     1
 10
0.0
 20
0.0
 30
0.0
  3
*D9
  1

  0
LINE
  5
7EC9
330
8178
100
AcDbEntity
  8
0
  6
ByBlock
100
AcDbLine
 10
3394.272073930469
 20
1292.802367882948
 30
0.0
 11
3394.272073930469
 21
1484.407041015605
 31
0.0
  0
LINE
  5
7ECA
330
8178
100
AcDbEntity
  8
0
  6
ByBlock
100
AcDbLine
 10
4294.27207393047
 20
1292.80235414594
 30
0.0
 11
4294.27207393047
 21
1484.407041015605
 31
0.0
  0
LINE
  5
7ECB
330
8178
100
AcDbEntity
  8
0
  6
ByBlock
100
AcDbLine
 10
3444.272073930469
 20
1459.407041015604
 30
0.0
 11
4244.27207393047
 21
1459.407041015604
 31
0.0
  0
INSERT
  5
7ECC
330
8178
100
AcDbEntity
  8
0
  6
ByBlock
100
AcDbBlockReference
  2
_OPEN
 10
3394.272073930469
 20
1459.407041015604
 30
0.0
 41
50.0
 42
50.0
 43
50.0
 50
180.0
  0
INSERT
  5
7ECD
330
8178
100
AcDbEntity
  8
0
  6
ByBlock
100
AcDbBlockReference
  2
_OPEN
 10
4294.27207393047
 20
1459.407041015604
 30
0.0
 41
50.0
 42
50.0
 43
50.0
  0
TEXT
  5
7ECE
330
8178
100
AcDbEntity
  8
3
100
AcDbText
 10
3747.843502501898
 20
1471.907041015605
 30
0.0
 40
75.0
  1
900
100
AcDbText
  0
POINT
  5
7ECF
330
8178
100
AcDbEntity
  8
DEFPOINTS
  6
ByBlock
 62
     0
100
AcDbPoint
 10
3394.272073930469
 20
1267.802367882948
 30
0.0
  0
POINT
  5
7ED0
330
8178
100
AcDbEntity
  8
DEFPOINTS
  6
ByBlock
 62
     0
100
AcDbPoint
 10
4294.27207393047
 20
1267.80235414594
 30
0.0
  0
POINT
  5
7ED1
330
8178
100
AcDbEntity
  8
DEFPOINTS
  6
ByBlock
 62
     0
100
AcDbPoint
 10
4294.27207393047
 20
1459.407041015604
 30
0.0
  0
ENDBLK
  5
7ED2
330
8178
100
AcDbEntity
  8
0
100
AcDbBlockEnd
  0
BLOCK
  5
817B
330
817A
100
AcDbEntity
  8
0
100
AcDbBlockBegin
  2
*D10
 70
     1
 10
0.0
 20
0.0
 30
0.0
  3
*D10
  1

  0
LINE
  5
7FED
330
817A
100
AcDbEntity
  8
0
  6
ByBlock
100
AcDbLine
 10
3178.266996014719
 20
2702.648447497555
 30
0.0
 11
3178.266996014719
 21
3523.715676899058
 31
0.0
  0
LINE
  5
7FEE
330
817A
100
AcDbEntity
  8
0
  6
ByBlock
100
AcDbLine
 10
3933.266996014715
 20
3508.420243801976
 30
0.0
 11
3933.266996014715
 21
3523.715676899058
 31
0.0
  0
LINE
  5
7FEF
330
817A
100
AcDbEntity
  8
0
  6
ByBlock
100
AcDbLine
 10
3228.266996014719
 20
3498.715676899058
 30
0.0
 11
3883.266996014715
 21
3498.715676899058
 31
0.0
  0
INSERT
  5
7FF0
330
817A
100
AcDbEntity
  8
0
  6
ByBlock
100
AcDbBlockReference
  2
_OPEN
 10
3178.266996014719
 20
3498.715676899058
 30
0.0
 41
50.0
 42
50.0
 43
50.0
 50
180.0
  0
INSERT
  5
7FF1
330
817A
100
AcDbEntity
  8
0
  6
ByBlock
100
AcDbBlockReference
  2
_OPEN
 10
3933.266996014715
 20
3498.715676899058
 30
0.0
 41
50.0
 42
50.0
 43
50.0
  0
INSERT
  5
7FF2
330
817A
100
AcDbEntity
  8
3
100
AcDbBlockReference
  2
*U11
 10
0.0
 20
0.0
 30
0.0
  0
POINT
  5
7FF3
330
817A
100
AcDbEntity
  8
DEFPOINTS
  6
ByBlock
 62
     0
100
AcDbPoint
 10
3178.266996014719
 20
2677.648447497555
 30
0.0
  0
POINT
  5
7FF4
330
817A
100
AcDbEntity
  8
DEFPOINTS
  6
ByBlock
 62
     0
100
AcDbPoint
 10
3933.266996014715
 20
3483.420243801976
 30
0.0
  0
POINT
  5
7FF5
330
817A
100
AcDbEntity
  8
DEFPOINTS
  6
ByBlock
 62
     0
100
AcDbPoint
 10
3933.266996014715
 20
3498.715676899058
 30
0.0
  0
ENDBLK
  5
7FF6
330
817A
100
AcDbEntity
  8
0
100
AcDbBlockEnd
  0
BLOCK
  5
819F
330
817C
100
AcDbEntity
  8
0
100
AcDbBlockBegin
  2
*U11
 70
     1
 10
0.0
 20
0.0
 30
0.0
  3
*U11
  1

  0
TEXT
  5
80E3
330
817C
100
AcDbEntity
  8
3
100
AcDbText
 10
3448.624138871861
 20
3636.215676899059
 30
0.0
 40
75.0
  1
MAX
100
AcDbText
  0
TEXT
  5
80E4
330
817C
100
AcDbEntity
  8
3
100
AcDbText
 10
3459.338424586146
 20
3511.215676899059
 30
0.0
 40
75.0
  1
780
100
AcDbText
  0
ENDBLK
  5
80E6
330
817C
100
AcDbEntity
  8
0
100
AcDbBlockEnd
  0
BLOCK
  5
817E
330
817D
100
AcDbEntity
  8
0
100
AcDbBlockBegin
  2
*D12
 70
     1
 10
0.0
 20
0.0
 30
0.0
  3
*D12
  1

  0
LINE
  5
8003
330
817D
100
AcDbEntity
  8
0
  6
ByBlock
100
AcDbLine
 10
3933.266996014715
 20
3470.899470513359
 30
0.0
 11
3933.266996014715
 21
3523.715676899058
 31
0.0
  0
LINE
  5
8004
330
817D
100
AcDbEntity
  8
0
  6
ByBlock
100
AcDbLine
 10
4485.766996014716
 20
2397.448447497553
 30
0.0
 11
4485.766996014716
 21
3523.715676899058
 31
0.0
  0
LINE
  5
8005
330
817D
100
AcDbEntity
  8
0
  6
ByBlock
100
AcDbLine
 10
3983.266996014716
 20
3498.715676899058
 30
0.0
 11
4435.766996014717
 21
3498.715676899058
 31
0.0
  0
INSERT
  5
8006
330
817D
100
AcDbEntity
  8
0
  6
ByBlock
100
AcDbBlockReference
  2
_OPEN
 10
3933.266996014715
 20
3498.715676899058
 30
0.0
 41
50.0
 42
50.0
 43
50.0
 50
180.0
  0
INSERT
  5
8007
330
817D
100
AcDbEntity
  8
0
  6
ByBlock
100
AcDbBlockReference
  2
_OPEN
 10
4485.766996014716
 20
3498.715676899058
 30
0.0
 41
50.0
 42
50.0
 43
50.0
  0
TEXT
  5
8008
330
817D
100
AcDbEntity
  8
3
100
AcDbText
 10
4064.874138871856
 20
3543.358534041916
 30
0.0
 40
75.0
  1
(560)
100
AcDbText
  0
POINT
  5
8009
330
817D
100
AcDbEntity
  8
DEFPOINTS
  6
ByBlock
 62
     0
100
AcDbPoint
 10
3933.266996014715
 20
3445.899470513359
 30
0.0
  0
POINT
  5
800A
330
817D
100
AcDbEntity
  8
DEFPOINTS
  6
ByBlock
 62
     0
100
AcDbPoint
 10
4485.766996014716
 20
2372.448447497554
 30
0.0
  0
POINT
  5
800B
330
817D
100
AcDbEntity
  8
DEFPOINTS
  6
ByBlock
 62
     0
100
AcDbPoint
 10
4485.766996014716
 20
3498.715676899058
 30
0.0
  0
ENDBLK
  5
800C
330
817D
100
AcDbEntity
  8
0
100
AcDbBlockEnd
  0
BLOCK
  5
8180
330
817F
100
AcDbEntity
  8
0
100
AcDbBlockBegin
  2
*D13
 70
     1
 10
0.0
 20
0.0
 30
0.0
  3
*D13
  1

  0
LINE
  5
7EEA
330
817F
100
AcDbEntity
  8
0
  6
ByBlock
100
AcDbLine
 10
4321.57207393047
 20
133.5934782213989
 30
0.0
 11
4597.054208885889
 21
133.5934782213989
 31
0.0
  0
LINE
  5
7EEB
330
817F
100
AcDbEntity
  8
0
  6
ByBlock
100
AcDbLine
 10
4321.57207393047
 20
883.5934782213987
 30
0.0
 11
4597.054208885889
 21
883.5934782213987
 31
0.0
  0
LINE
  5
7EEC
330
817F
100
AcDbEntity
  8
0
  6
ByBlock
100
AcDbLine
 10
4572.054208885889
 20
183.5934782213989
 30
0.0
 11
4572.054208885889
 21
833.5934782213987
 31
0.0
  0
INSERT
  5
7EED
330
817F
100
AcDbEntity
  8
0
  6
ByBlock
100
AcDbBlockReference
  2
_OPEN
 10
4572.054208885889
 20
133.5934782213989
 30
0.0
 41
50.0
 42
50.0
 43
50.0
 50
270.0
  0
INSERT
  5
7EEE
330
817F
100
AcDbEntity
  8
0
  6
ByBlock
100
AcDbBlockReference
  2
_OPEN
 10
4572.054208885889
 20
883.5934782213987
 30
0.0
 41
50.0
 42
50.0
 43
50.0
 50
90.0
  0
TEXT
  5
7EEF
330
817F
100
AcDbEntity
  8
3
100
AcDbText
 10
4559.554208885889
 20
374.6649067928275
 30
0.0
 40
75.0
  1
\U+03C6750
 50
90.0
100
AcDbText
  0
POINT
  5
7EF0
330
817F
100
AcDbEntity
  8
DEFPOINTS
  6
ByBlock
 62
     0
100
AcDbPoint
 10
4296.57207393047
 20
133.5934782213989
 30
0.0
  0
POINT
  5
7EF1
330
817F
100
AcDbEntity
  8
DEFPOINTS
  6
ByBlock
 62
     0
100
AcDbPoint
 10
4296.57207393047
 20
883.5934782213987
 30
0.0
  0
POINT
  5
7EF2
330
817F
100
AcDbEntity
  8
DEFPOINTS
  6
ByBlock
 62
     0
100
AcDbPoint
 10
4572.054208885889
 20
883.5934782213987
 30
0.0
  0
ENDBLK
  5
7EF3
330
817F
100
AcDbEntity
  8
0
100
AcDbBlockEnd
  0
BLOCK
  5
8182
330
8181
100
AcDbEntity
  8
0
100
AcDbBlockBegin
  2
*D14
 70
     1
 10
0.0
 20
0.0
 30
0.0
  3
*D14
  1

  0
LINE
  5
7EF5
330
8181
100
AcDbEntity
  8
0
  6
ByBlock
100
AcDbLine
 10
1768.064354675493
 20
2748.533310535339
 30
0.0
 11
1768.064354675493
 21
2485.350850711191
 31
0.0
  0
LINE
  5
7EF6
330
8181
100
AcDbEntity
  8
0
  6
ByBlock
100
AcDbLine
 10
168.0643546754927
 20
2748.533310535338
 30
0.0
 11
168.0643546754927
 21
2485.350850711191
 31
0.0
  0
LINE
  5
7EF7
330
8181
100
AcDbEntity
  8
0
  6
ByBlock
100
AcDbLine
 10
1718.064354675493
 20
2510.350850711191
 30
0.0
 11
218.0643546754927
 21
2510.350850711191
 31
0.0
  0
INSERT
  5
7EF8
330
8181
100
AcDbEntity
  8
0
  6
ByBlock
100
AcDbBlockReference
  2
_OPEN
 10
1768.064354675493
 20
2510.350850711191
 30
0.0
 41
50.0
 42
50.0
 43
50.0
  0
INSERT
  5
7EF9
330
8181
100
AcDbEntity
  8
0
  6
ByBlock
100
AcDbBlockReference
  2
_OPEN
 10
168.0643546754927
 20
2510.350850711191
 30
0.0
 41
50.0
 42
50.0
 43
50.0
 50
180.0
  0
TEXT
  5
7EFA
330
8181
100
AcDbEntity
  8
3
100
AcDbText
 10
843.0643546754925
 20
2522.850850711191
 30
0.0
 40
75.0
  1
1600
100
AcDbText
  0
POINT
  5
7EFB
330
8181
100
AcDbEntity
  8
DEFPOINTS
  6
ByBlock
 62
     0
100
AcDbPoint
 10
1768.064354675493
 20
2773.533310535339
 30
0.0
  0
POINT
  5
7EFC
330
8181
100
AcDbEntity
  8
DEFPOINTS
  6
ByBlock
 62
     0
100
AcDbPoint
 10
168.0643546754927
 20
2773.533310535337
 30
0.0
  0
POINT
  5
7EFD
330
8181
100
AcDbEntity
  8
DEFPOINTS
  6
ByBlock
 62
     0
100
AcDbPoint
 10
168.0643546754927
 20
2510.350850711191
 30
0.0
  0
ENDBLK
  5
7EFE
330
8181
100
AcDbEntity
  8
0
100
AcDbBlockEnd
  0
BLOCK
  5
8184
330
8183
100
AcDbEntity
  8
0
100
AcDbBlockBegin
  2
*D15
 70
     1
 10
0.0
 20
0.0
 30
0.0
  3
*D15
  1

  0
LINE
  5
7F00
330
8183
100
AcDbEntity
  8
0
  6
ByBlock
100
AcDbLine
 10
1793.064354675492
 20
2773.533310535339
 30
0.0
 11
2093.934859510582
 21
2773.533310535339
 31
0.0
  0
LINE
  5
7F01
330
8183
100
AcDbEntity
  8
0
  6
ByBlock
100
AcDbLine
 10
1793.064354675492
 20
3443.53331053534
 30
0.0
 11
2093.934859510582
 21
3443.53331053534
 31
0.0
  0
LINE
  5
7F02
330
8183
100
AcDbEntity
  8
0
  6
ByBlock
100
AcDbLine
 10
2068.934859510582
 20
2823.533310535339
 30
0.0
 11
2068.934859510582
 21
3393.53331053534
 31
0.0
  0
INSERT
  5
7F03
330
8183
100
AcDbEntity
  8
0
  6
ByBlock
100
AcDbBlockReference
  2
_OPEN
 10
2068.934859510582
 20
2773.533310535339
 30
0.0
 41
50.0
 42
50.0
 43
50.0
 50
270.0
  0
INSERT
  5
7F04
330
8183
100
AcDbEntity
  8
0
  6
ByBlock
100
AcDbBlockReference
  2
_OPEN
 10
2068.934859510582
 20
3443.53331053534
 30
0.0
 41
50.0
 42
50.0
 43
50.0
 50
90.0
  0
TEXT
  5
7F05
330
8183
100
AcDbEntity
  8
3
100
AcDbText
 10
2056.434859510583
 20
3012.104739106767
 30
0.0
 40
75.0
  1
670
 50
90.0
100
AcDbText
  0
POINT
  5
7F06
330
8183
100
AcDbEntity
  8
DEFPOINTS
  6
ByBlock
 62
     0
100
AcDbPoint
 10
1768.064354675493
 20
2773.533310535339
 30
0.0
  0
POINT
  5
7F07
330
8183
100
AcDbEntity
  8
DEFPOINTS
  6
ByBlock
 62
     0
100
AcDbPoint
 10
1768.064354675493
 20
3443.53331053534
 30
0.0
  0
POINT
  5
7F08
330
8183
100
AcDbEntity
  8
DEFPOINTS
  6
ByBlock
 62
     0
100
AcDbPoint
 10
2068.934859510582
 20
3443.53331053534
 30
0.0
  0
ENDBLK
  5
7F09
330
8183
100
AcDbEntity
  8
0
100
AcDbBlockEnd
  0
BLOCK
  5
8186
330
8185
100
AcDbEntity
  8
0
100
AcDbBlockBegin
  2
*D16
 70
     1
 10
0.0
 20
0.0
 30
0.0
  3
*D16
  1

  0
LINE
  5
7F0B
330
8185
100
AcDbEntity
  8
0
  6
ByBlock
100
AcDbLine
 10
1068.064354675492
 20
3953.533310535338
 30
0.0
 11
1068.064354675492
 21
4255.16536493951
 31
0.0
  0
LINE
  5
7F0C
330
8185
100
AcDbEntity
  8
0
  6
ByBlock
100
AcDbLine
 10
168.0643546754927
 20
3953.533310535338
 30
0.0
 11
168.0643546754927
 21
4255.16536493951
 31
0.0
  0
LINE
  5
7F0D
330
8185
100
AcDbEntity
  8
0
  6
ByBlock
100
AcDbLine
 10
1018.064354675492
 20
4230.165364939511
 30
0.0
 11
218.0643546754927
 21
4230.165364939511
 31
0.0
  0
INSERT
  5
7F0E
330
8185
100
AcDbEntity
  8
0
  6
ByBlock
100
AcDbBlockReference
  2
_OPEN
 10
1068.064354675492
 20
4230.165364939511
 30
0.0
 41
50.0
 42
50.0
 43
50.0
  0
INSERT
  5
7F0F
330
8185
100
AcDbEntity
  8
0
  6
ByBlock
100
AcDbBlockReference
  2
_OPEN
 10
168.0643546754927
 20
4230.165364939511
 30
0.0
 41
50.0
 42
50.0
 43
50.0
 50
180.0
  0
TEXT
  5
7F10
330
8185
100
AcDbEntity
  8
3
100
AcDbText
 10
521.6357832469213
 20
4242.665364939511
 30
0.0
 40
75.0
  1
900
100
AcDbText
  0
POINT
  5
7F11
330
8185
100
AcDbEntity
  8
DEFPOINTS
  6
ByBlock
 62
     0
100
AcDbPoint
 10
1068.064354675492
 20
3928.533310535339
 30
0.0
  0
POINT
  5
7F12
330
8185
100
AcDbEntity
  8
DEFPOINTS
  6
ByBlock
 62
     0
100
AcDbPoint
 10
168.0643546754927
 20
3928.533310535338
 30
0.0
  0
POINT
  5
7F13
330
8185
100
AcDbEntity
  8
DEFPOINTS
  6
ByBlock
 62
     0
100
AcDbPoint
 10
168.0643546754927
 20
4230.165364939511
 30
0.0
  0
ENDBLK
  5
7F14
330
8185
100
AcDbEntity
  8
0
100
AcDbBlockEnd
  0
BLOCK
  5
8188
330
8187
100
AcDbEntity
  8
0
100
AcDbBlockBegin
  2
*D17
 70
     1
 10
0.0
 20
0.0
 30
0.0
  3
*D17
  1

  0
LINE
  5
7F16
330
8187
100
AcDbEntity
  8
0
  6
ByBlock
100
AcDbLine
 10
1768.064354675493
 20
3468.53331053534
 30
0.0
 11
1768.064354675493
 21
4255.16536493951
 31
0.0
  0
LINE
  5
7F17
330
8187
100
AcDbEntity
  8
0
  6
ByBlock
100
AcDbLine
 10
1068.064354675492
 20
3953.533310535338
 30
0.0
 11
1068.064354675492
 21
4255.16536493951
 31
0.0
  0
LINE
  5
7F18
330
8187
100
AcDbEntity
  8
0
  6
ByBlock
100
AcDbLine
 10
1718.064354675493
 20
4230.165364939511
 30
0.0
 11
1118.064354675492
 21
4230.165364939511
 31
0.0
  0
INSERT
  5
7F19
330
8187
100
AcDbEntity
  8
0
  6
ByBlock
100
AcDbBlockReference
  2
_OPEN
 10
1768.064354675493
 20
4230.165364939511
 30
0.0
 41
50.0
 42
50.0
 43
50.0
  0
INSERT
  5
7F1A
330
8187
100
AcDbEntity
  8
0
  6
ByBlock
100
AcDbBlockReference
  2
_OPEN
 10
1068.064354675492
 20
4230.165364939511
 30
0.0
 41
50.0
 42
50.0
 43
50.0
 50
180.0
  0
TEXT
  5
7F1B
330
8187
100
AcDbEntity
  8
3
100
AcDbText
 10
1321.63578324692
 20
4242.665364939511
 30
0.0
 40
75.0
  1
700
100
AcDbText
  0
POINT
  5
7F1C
330
8187
100
AcDbEntity
  8
DEFPOINTS
  6
ByBlock
 62
     0
100
AcDbPoint
 10
1768.064354675493
 20
3443.53331053534
 30
0.0
  0
POINT
  5
7F1D
330
8187
100
AcDbEntity
  8
DEFPOINTS
  6
ByBlock
 62
     0
100
AcDbPoint
 10
1068.064354675492
 20
3928.533310535339
 30
0.0
  0
POINT
  5
7F1E
330
8187
100
AcDbEntity
  8
DEFPOINTS
  6
ByBlock
 62
     0
100
AcDbPoint
 10
1068.064354675492
 20
4230.165364939511
 30
0.0
  0
ENDBLK
  5
7F1F
330
8187
100
AcDbEntity
  8
0
100
AcDbBlockEnd
  0
BLOCK
  5
818A
330
8189
100
AcDbEntity
  8
0
100
AcDbBlockBegin
  2
*D18
 70
     1
 10
0.0
 20
0.0
 30
0.0
  3
*D18
  1

  0
LINE
  5
7F21
330
8189
100
AcDbEntity
  8
0
  6
ByBlock
100
AcDbLine
 10
143.0643546754927
 20
2773.533310535337
 30
0.0
 11
-158.3328534657648
 21
2773.533310535337
 31
0.0
  0
LINE
  5
7F22
330
8189
100
AcDbEntity
  8
0
  6
ByBlock
100
AcDbLine
 10
143.0643546754927
 20
3928.533310535338
 30
0.0
 11
-158.3328534657648
 21
3928.533310535338
 31
0.0
  0
LINE
  5
7F23
330
8189
100
AcDbEntity
  8
0
  6
ByBlock
100
AcDbLine
 10
-133.3328534657648
 20
2823.533310535337
 30
0.0
 11
-133.3328534657648
 21
3878.533310535337
 31
0.0
  0
INSERT
  5
7F24
330
8189
100
AcDbEntity
  8
0
  6
ByBlock
100
AcDbBlockReference
  2
_OPEN
 10
-133.3328534657648
 20
2773.533310535337
 30
0.0
 41
50.0
 42
50.0
 43
50.0
 50
270.0
  0
INSERT
  5
7F25
330
8189
100
AcDbEntity
  8
0
  6
ByBlock
100
AcDbBlockReference
  2
_OPEN
 10
-133.3328534657648
 20
3928.533310535338
 30
0.0
 41
50.0
 42
50.0
 43
50.0
 50
90.0
  0
TEXT
  5
7F26
330
8189
100
AcDbEntity
  8
3
100
AcDbText
 10
-145.8328534657648
 20
3233.176167678195
 30
0.0
 40
75.0
  1
1155
 50
90.0
100
AcDbText
  0
POINT
  5
7F27
330
8189
100
AcDbEntity
  8
DEFPOINTS
  6
ByBlock
 62
     0
100
AcDbPoint
 10
168.0643546754927
 20
2773.533310535337
 30
0.0
  0
POINT
  5
7F28
330
8189
100
AcDbEntity
  8
DEFPOINTS
  6
ByBlock
 62
     0
100
AcDbPoint
 10
168.0643546754927
 20
3928.533310535338
 30
0.0
  0
POINT
  5
7F29
330
8189
100
AcDbEntity
  8
DEFPOINTS
  6
ByBlock
 62
     0
100
AcDbPoint
 10
-133.3328534657648
 20
3928.533310535338
 30
0.0
  0
ENDBLK
  5
7F2A
330
8189
100
AcDbEntity
  8
0
100
AcDbBlockEnd
  0
BLOCK
  5
818C
330
818B
100
AcDbEntity
  8
0
100
AcDbBlockBegin
  2
*D19
 70
     1
 10
0.0
 20
0.0
 30
0.0
  3
*D19
  1

  0
LINE
  5
80D4
330
818B
100
AcDbEntity
  8
3
 62
     0
100
AcDbLine
 10
1208.239022619682
 20
1757.648447497555
 30
0.0
 11
844.9852083343667
 21
1757.648447497555
 31
0.0
  0
LINE
  5
80D5
330
818B
100
AcDbEntity
  8
3
 62
     0
100
AcDbLine
 10
1208.239022619682
 20
1657.648447497555
 30
0.0
 11
844.9852083343667
 21
1657.648447497555
 31
0.0
  0
LINE
  5
80D6
330
818B
100
AcDbEntity
  8
3
 62
     0
100
AcDbLine
 10
869.9852083343667
 20
1807.648447497555
 30
0.0
 11
869.9852083343667
 21
1857.648447497555
 31
0.0
  0
LINE
  5
80D7
330
818B
100
AcDbEntity
  8
3
 62
     0
100
AcDbLine
 10
869.9852083343667
 20
1607.648447497555
 30
0.0
 11
869.9852083343667
 21
1329.077018926126
 31
0.0
  0
LINE
  5
80D8
330
818B
100
AcDbEntity
  8
3
 62
     0
100
AcDbLine
 10
869.9852083343667
 20
1757.648447497555
 30
0.0
 11
869.9852083343667
 21
1657.648447497555
 31
0.0
  0
INSERT
  5
80D9
330
818B
100
AcDbEntity
  8
3
 62
     0
100
AcDbBlockReference
  2
_DOT
 10
869.9852083343667
 20
1757.648447497555
 30
0.0
 41
50.0
 42
50.0
 43
50.0
 50
270.0
  0
INSERT
  5
80DA
330
818B
100
AcDbEntity
  8
3
 62
     0
100
AcDbBlockReference
  2
_OPEN
 10
869.9852083343667
 20
1657.648447497555
 30
0.0
 41
50.0
 42
50.0
 43
50.0
 50
90.0
  0
TEXT
  5
80E7
330
818B
100
AcDbEntity
  8
3
 62
     0
100
AcDbText
 10
657.485
 20
1310.61
 30
0.0
 40
75.0
  1
100
100
AcDbText
  0
POINT
  5
80DC
330
818B
100
AcDbEntity
  8
DEFPOINTS
 62
     0
100
AcDbPoint
 10
1220.739022619682
 20
1757.648447497555
 30
0.0
  0
POINT
  5
80DD
330
818B
100
AcDbEntity
  8
DEFPOINTS
 62
     0
100
AcDbPoint
 10
1220.739022619682
 20
1657.648447497555
 30
0.0
  0
POINT
  5
80DE
330
818B
100
AcDbEntity
  8
DEFPOINTS
 62
     0
100
AcDbPoint
 10
869.9852083343667
 20
1657.648447497555
 30
0.0
  0
ENDBLK
  5
7FCB
330
818B
100
AcDbEntity
  8
0
100
AcDbBlockEnd
  0
BLOCK
  5
8190
330
818D
100
AcDbEntity
  8
0
100
AcDbBlockBegin
  2
_DOT
 70
     0
 10
0.0
 20
0.0
 30
0.0
  3
_DOT
  1

  0
LWPOLYLINE
  5
7FDB
330
818D
100
AcDbEntity
  8
0
  6
ByBlock
 62
     0
100
AcDbPolyline
 90
        2
 70
     1
 43
0.25
 10
-0.125
 20
0.0
 42
1.0
 10
0.125
 20
0.0
 42
1.0
  0
LINE
  5
7FDF
330
818D
100
AcDbEntity
  8
0
  6
ByBlock
 62
     0
100
AcDbLine
 10
-0.25
 20
0.0
 30
0.0
 11
-1.0
 21
0.0
 31
0.0
  0
ENDBLK
  5
7FBE
330
818D
100
AcDbEntity
  8
0
100
AcDbBlockEnd
  0
BLOCK
  5
818F
330
818E
100
AcDbEntity
  8
0
100
AcDbBlockBegin
  2
*D21
 70
     1
 10
0.0
 20
0.0
 30
0.0
  3
*D21
  1

  0
LINE
  5
7F51
330
818E
100
AcDbEntity
  8
0
  6
ByBlock
100
AcDbLine
 10
118.0643546754926
 20
1334.593478221398
 30
0.0
 11
118.0643546754926
 21
1654.359497277424
 31
0.0
  0
LINE
  5
7F52
330
818E
100
AcDbEntity
  8
0
  6
ByBlock
100
AcDbLine
 10
1768.064354675493
 20
88.59347822139898
 30
0.0
 11
1768.064354675493
 21
1654.359497277424
 31
0.0
  0
LINE
  5
7F53
330
818E
100
AcDbEntity
  8
0
  6
ByBlock
100
AcDbLine
 10
168.0643546754927
 20
1629.359497277424
 30
0.0
 11
1718.064354675493
 21
1629.359497277424
 31
0.0
  0
INSERT
  5
7F54
330
818E
100
AcDbEntity
  8
0
  6
ByBlock
100
AcDbBlockReference
  2
_OPEN
 10
118.0643546754926
 20
1629.359497277424
 30
0.0
 41
50.0
 42
50.0
 43
50.0
 50
180.0
  0
INSERT
  5
7F55
330
818E
100
AcDbEntity
  8
0
  6
ByBlock
100
AcDbBlockReference
  2
_OPEN
 10
1768.064354675493
 20
1629.359497277424
 30
0.0
 41
50.0
 42
50.0
 43
50.0
  0
TEXT
  5
7F56
330
818E
100
AcDbEntity
  8
3
100
AcDbText
 10
818.0643546754925
 20
1641.859497277424
 30
0.0
 40
75.0
  1
1650
100
AcDbText
  0
POINT
  5
7F57
330
818E
100
AcDbEntity
  8
DEFPOINTS
  6
ByBlock
 62
     0
100
AcDbPoint
 10
118.0643546754926
 20
1309.593478221398
 30
0.0
  0
POINT
  5
7F58
330
818E
100
AcDbEntity
  8
DEFPOINTS
  6
ByBlock
 62
     0
100
AcDbPoint
 10
1768.064354675493
 20
63.59347822139898
 30
0.0
  0
POINT
  5
7F59
330
818E
100
AcDbEntity
  8
DEFPOINTS
  6
ByBlock
 62
     0
100
AcDbPoint
 10
1768.064354675493
 20
1629.359497277424
 30
0.0
  0
ENDBLK
  5
7F5A
330
818E
100
AcDbEntity
  8
0
100
AcDbBlockEnd
  0
BLOCK
  5
8192
330
8191
100
AcDbEntity
  8
0
100
AcDbBlockBegin
  2
*D22
 70
     1
 10
0.0
 20
0.0
 30
0.0
  3
*D22
  1

  0
LINE
  5
8017
330
8191
100
AcDbEntity
  8
0
  6
ByBlock
 62
     0
100
AcDbLine
 10
1220.739022619682
 20
1700.648447497555
 30
0.0
 11
1220.739022619682
 21
1516.992421795832
 31
0.0
  0
LINE
  5
8018
330
8191
100
AcDbEntity
  8
0
  6
ByBlock
 62
     0
100
AcDbLine
 10
1670.739022619682
 20
1700.648447497555
 30
0.0
 11
1670.739022619682
 21
1516.992421795832
 31
0.0
  0
LINE
  5
8019
330
8191
100
AcDbEntity
  8
0
  6
ByBlock
 62
     0
100
AcDbLine
 10
1270.739022619682
 20
1541.992421795832
 30
0.0
 11
1620.739022619682
 21
1541.992421795832
 31
0.0
  0
INSERT
  5
801A
330
8191
100
AcDbEntity
  8
0
  6
ByBlock
 62
     0
100
AcDbBlockReference
  2
_OPEN
 10
1220.739022619682
 20
1541.992421795832
 30
0.0
 41
50.0
 42
50.0
 43
50.0
 50
180.0
  0
INSERT
  5
801B
330
8191
100
AcDbEntity
  8
0
  6
ByBlock
 62
     0
100
AcDbBlockReference
  2
_OPEN
 10
1670.739022619682
 20
1541.992421795832
 30
0.0
 41
50.0
 42
50.0
 43
50.0
  0
TEXT
  5
801C
330
8191
100
AcDbEntity
  8
3
 62
     0
100
AcDbText
 10
1349.31045119111
 20
1566.992421795832
 30
0.0
 40
75.0
  1
450
100
AcDbText
  0
POINT
  5
801D
330
8191
100
AcDbEntity
  8
DEFPOINTS
  6
ByBlock
 62
     0
100
AcDbPoint
 10
1220.739022619682
 20
1725.648447497555
 30
0.0
  0
POINT
  5
801E
330
8191
100
AcDbEntity
  8
DEFPOINTS
  6
ByBlock
 62
     0
100
AcDbPoint
 10
1670.739022619682
 20
1725.648447497555
 30
0.0
  0
POINT
  5
801F
330
8191
100
AcDbEntity
  8
DEFPOINTS
  6
ByBlock
 62
     0
100
AcDbPoint
 10
1670.739022619682
 20
1541.992421795832
 30
0.0
  0
ENDBLK
  5
8020
330
8191
100
AcDbEntity
  8
0
100
AcDbBlockEnd
  0
BLOCK
  5
8194
330
8193
100
AcDbEntity
  8
0
100
AcDbBlockBegin
  2
*D23
 70
     1
 10
0.0
 20
0.0
 30
0.0
  3
*D23
  1

  0
LINE
  5
8024
330
8193
100
AcDbEntity
  8
0
  6
ByBlock
 62
     0
100
AcDbLine
 10
1670.739022619682
 20
1700.648447497555
 30
0.0
 11
1670.739022619682
 21
1516.992421795832
 31
0.0
  0
LINE
  5
8025
330
8193
100
AcDbEntity
  8
0
  6
ByBlock
 62
     0
100
AcDbLine
 10
2820.739022619682
 20
1700.648447497555
 30
0.0
 11
2820.739022619682
 21
1516.992421795832
 31
0.0
  0
LINE
  5
8026
330
8193
100
AcDbEntity
  8
0
  6
ByBlock
 62
     0
100
AcDbLine
 10
1720.739022619682
 20
1541.992421795832
 30
0.0
 11
2770.739022619682
 21
1541.992421795832
 31
0.0
  0
INSERT
  5
8027
330
8193
100
AcDbEntity
  8
0
  6
ByBlock
 62
     0
100
AcDbBlockReference
  2
_OPEN
 10
1670.739022619682
 20
1541.992421795832
 30
0.0
 41
50.0
 42
50.0
 43
50.0
 50
180.0
  0
INSERT
  5
8028
330
8193
100
AcDbEntity
  8
0
  6
ByBlock
 62
     0
100
AcDbBlockReference
  2
_OPEN
 10
2820.739022619682
 20
1541.992421795832
 30
0.0
 41
50.0
 42
50.0
 43
50.0
  0
TEXT
  5
8029
330
8193
100
AcDbEntity
  8
3
 62
     0
100
AcDbText
 10
2127.881879762539
 20
1566.992421795832
 30
0.0
 40
75.0
  1
1150
100
AcDbText
  0
POINT
  5
802A
330
8193
100
AcDbEntity
  8
DEFPOINTS
  6
ByBlock
 62
     0
100
AcDbPoint
 10
1670.739022619682
 20
1725.648447497555
 30
0.0
  0
POINT
  5
802B
330
8193
100
AcDbEntity
  8
DEFPOINTS
  6
ByBlock
 62
     0
100
AcDbPoint
 10
2820.739022619682
 20
1725.648447497555
 30
0.0
  0
POINT
  5
802C
330
8193
100
AcDbEntity
  8
DEFPOINTS
  6
ByBlock
 62
     0
100
AcDbPoint
 10
2820.739022619682
 20
1541.992421795832
 30
0.0
  0
ENDBLK
  5
802D
330
8193
100
AcDbEntity
  8
0
100
AcDbBlockEnd
  0
BLOCK
  5
8196
330
8195
100
AcDbEntity
  8
0
100
AcDbBlockBegin
  2
*D24
 70
     1
 10
0.0
 20
0.0
 30
0.0
  3
*D24
  1

  0
LINE
  5
8031
330
8195
100
AcDbEntity
  8
0
  6
ByBlock
 62
     0
100
AcDbLine
 10
3281.266996014716
 20
1700.648447497555
 30
0.0
 11
3281.266996014716
 21
1516.992421795832
 31
0.0
  0
LINE
  5
8032
330
8195
100
AcDbEntity
  8
0
  6
ByBlock
 62
     0
100
AcDbLine
 10
3933.266996014717
 20
1700.648447497555
 30
0.0
 11
3933.266996014717
 21
1516.992421795832
 31
0.0
  0
LINE
  5
8033
330
8195
100
AcDbEntity
  8
0
  6
ByBlock
 62
     0
100
AcDbLine
 10
3331.266996014716
 20
1541.992421795832
 30
0.0
 11
3883.266996014717
 21
1541.992421795832
 31
0.0
  0
INSERT
  5
8034
330
8195
100
AcDbEntity
  8
0
  6
ByBlock
 62
     0
100
AcDbBlockReference
  2
_OPEN
 10
3281.266996014716
 20
1541.992421795832
 30
0.0
 41
50.0
 42
50.0
 43
50.0
 50
180.0
  0
INSERT
  5
8035
330
8195
100
AcDbEntity
  8
0
  6
ByBlock
 62
     0
100
AcDbBlockReference
  2
_OPEN
 10
3933.266996014717
 20
1541.992421795832
 30
0.0
 41
50.0
 42
50.0
 43
50.0
  0
TEXT
  5
8036
330
8195
100
AcDbEntity
  8
3
 62
     0
100
AcDbText
 10
3510.838424586144
 20
1566.992421795832
 30
0.0
 40
75.0
  1
652
100
AcDbText
  0
POINT
  5
8037
330
8195
100
AcDbEntity
  8
DEFPOINTS
  6
ByBlock
 62
     0
100
AcDbPoint
 10
3281.266996014716
 20
1725.648447497555
 30
0.0
  0
POINT
  5
8038
330
8195
100
AcDbEntity
  8
DEFPOINTS
  6
ByBlock
 62
     0
100
AcDbPoint
 10
3933.266996014717
 20
1725.648447497555
 30
0.0
  0
POINT
  5
8039
330
8195
100
AcDbEntity
  8
DEFPOINTS
  6
ByBlock
 62
     0
100
AcDbPoint
 10
3933.266996014717
 20
1541.992421795832
 30
0.0
  0
ENDBLK
  5
803A
330
8195
100
AcDbEntity
  8
0
100
AcDbBlockEnd
  0
BLOCK
  5
8198
330
8197
100
AcDbEntity
  8
0
100
AcDbBlockBegin
  2
*D25
 70
     1
 10
0.0
 20
0.0
 30
0.0
  3
*D25
  1

  0
LINE
  5
803E
330
8197
100
AcDbEntity
  8
0
  6
ByBlock
 62
     0
100
AcDbLine
 10
3933.266996014717
 20
1700.648447497555
 30
0.0
 11
3933.266996014717
 21
1516.992421795832
 31
0.0
  0
LINE
  5
803F
330
8197
100
AcDbEntity
  8
0
  6
ByBlock
 62
     0
100
AcDbLine
 10
4436.266996014715
 20
1700.648447497555
 30
0.0
 11
4436.266996014715
 21
1516.992421795832
 31
0.0
  0
LINE
  5
8040
330
8197
100
AcDbEntity
  8
0
  6
ByBlock
 62
     0
100
AcDbLine
 10
3983.266996014716
 20
1541.992421795832
 30
0.0
 11
4386.266996014716
 21
1541.992421795832
 31
0.0
  0
INSERT
  5
8041
330
8197
100
AcDbEntity
  8
0
  6
ByBlock
 62
     0
100
AcDbBlockReference
  2
_OPEN
 10
3933.266996014717
 20
1541.992421795832
 30
0.0
 41
50.0
 42
50.0
 43
50.0
 50
180.0
  0
INSERT
  5
8042
330
8197
100
AcDbEntity
  8
0
  6
ByBlock
 62
     0
100
AcDbBlockReference
  2
_OPEN
 10
4436.266996014715
 20
1541.992421795832
 30
0.0
 41
50.0
 42
50.0
 43
50.0
  0
TEXT
  5
8043
330
8197
100
AcDbEntity
  8
3
 62
     0
100
AcDbText
 10
4088.338424586146
 20
1566.992421795832
 30
0.0
 40
75.0
  1
503
100
AcDbText
  0
POINT
  5
8044
330
8197
100
AcDbEntity
  8
DEFPOINTS
  6
ByBlock
 62
     0
100
AcDbPoint
 10
3933.266996014717
 20
1725.648447497555
 30
0.0
  0
POINT
  5
8045
330
8197
100
AcDbEntity
  8
DEFPOINTS
  6
ByBlock
 62
     0
100
AcDbPoint
 10
4436.266996014715
 20
1725.648447497555
 30
0.0
  0
POINT
  5
8046
330
8197
100
AcDbEntity
  8
DEFPOINTS
  6
ByBlock
 62
     0
100
AcDbPoint
 10
4436.266996014715
 20
1541.992421795832
 30
0.0
  0
ENDBLK
  5
8047
330
8197
100
AcDbEntity
  8
0
100
AcDbBlockEnd
  0
BLOCK
  5
819A
330
8199
100
AcDbEntity
  8
0
100
AcDbBlockBegin
  2
_NONE
 70
     0
 10
0.0
 20
0.0
 30
0.0
  3
_NONE
  1

  0
CIRCLE
  5
804B
330
8199
100
AcDbEntity
  8
0
  6
ByBlock
 62
     0
100
AcDbCircle
 10
0.0
 20
0.0
 30
0.0
 40
0.25
  0
ENDBLK
  5
804C
330
8199
100
AcDbEntity
  8
0
100
AcDbBlockEnd
  0
BLOCK
  5
819C
330
819B
100
AcDbEntity
  8
0
100
AcDbBlockBegin
  2
*D27
 70
     1
 10
0.0
 20
0.0
 30
0.0
  3
*D27
  1

  0
LINE
  5
8069
330
819B
100
AcDbEntity
  8
0
  6
ByBlock
 62
     0
100
AcDbLine
 10
870.9234994324724
 20
1757.648447497555
 30
0.0
 11
870.9234994324724
 21
1852.648447497555
 31
0.0
  0
TEXT
  5
806A
330
819B
100
AcDbEntity
  8
3
 62
     0
100
AcDbText
 10
776.2806422896153
 20
1696.219876068983
 30
0.0
 40
75.0
  1
(95)
 50
90.0
100
AcDbText
  0
POINT
  5
806B
330
819B
100
AcDbEntity
  8
DEFPOINTS
  6
ByBlock
 62
     0
100
AcDbPoint
 10
1220.739022619682
 20
1757.648447497555
 30
0.0
  0
POINT
  5
806C
330
819B
100
AcDbEntity
  8
DEFPOINTS
  6
ByBlock
 62
     0
100
AcDbPoint
 10
1220.739022619682
 20
1852.648447497555
 30
0.0
  0
POINT
  5
806D
330
819B
100
AcDbEntity
  8
DEFPOINTS
  6
ByBlock
 62
     0
100
AcDbPoint
 10
870.9234994324724
 20
1852.648447497555
 30
0.0
  0
ENDBLK
  5
806E
330
819B
100
AcDbEntity
  8
0
100
AcDbBlockEnd
  0
BLOCK
  5
819E
330
819D
100
AcDbEntity
  8
0
100
AcDbBlockBegin
  2
*D28
 70
     1
 10
0.0
 20
0.0
 30
0.0
  3
*D28
  1

  0
LINE
  5
8072
330
819D
100
AcDbEntity
  8
0
  6
ByBlock
 62
     0
100
AcDbLine
 10
1195.739022619682
 20
1657.648447497555
 30
0.0
 11
636.9577469510224
 21
1657.648447497555
 31
0.0
  0
LINE
  5
8073
330
819D
100
AcDbEntity
  8
0
  6
ByBlock
 62
     0
100
AcDbLine
 10
1145.739022619682
 20
3156.648447497555
 30
0.0
 11
636.9577469510224
 21
3156.648447497555
 31
0.0
  0
LINE
  5
8074
330
819D
100
AcDbEntity
  8
0
  6
ByBlock
 62
     0
100
AcDbLine
 10
661.9577469510224
 20
1707.648447497555
 30
0.0
 11
661.9577469510224
 21
3106.648447497555
 31
0.0
  0
INSERT
  5
8075
330
819D
100
AcDbEntity
  8
0
  6
ByBlock
 62
     0
100
AcDbBlockReference
  2
_OPEN
 10
661.9577469510224
 20
1657.648447497555
 30
0.0
 41
50.0
 42
50.0
 43
50.0
 50
270.0
  0
INSERT
  5
8076
330
819D
100
AcDbEntity
  8
0
  6
ByBlock
 62
     0
100
AcDbBlockReference
  2
_OPEN
 10
661.9577469510224
 20
3156.648447497555
 30
0.0
 41
50.0
 42
50.0
 43
50.0
 50
90.0
  0
TEXT
  5
8077
330
819D
100
AcDbEntity
  8
3
 62
     0
100
AcDbText
 10
604.8148898081652
 20
2233.934161783269
 30
0.0
 40
75.0
  1
(1499)
 50
90.0
100
AcDbText
  0
POINT
  5
8078
330
819D
100
AcDbEntity
  8
DEFPOINTS
  6
ByBlock
 62
     0
100
AcDbPoint
 10
1220.739022619682
 20
1657.648447497555
 30
0.0
  0
POINT
  5
8079
330
819D
100
AcDbEntity
  8
DEFPOINTS
  6
ByBlock
 62
     0
100
AcDbPoint
 10
1170.739022619682
 20
3156.648447497555
 30
0.0
  0
POINT
  5
807A
330
819D
100
AcDbEntity
  8
DEFPOINTS
  6
ByBlock
 62
     0
100
AcDbPoint
 10
661.9577469510224
 20
3156.648447497555
 30
0.0
  0
ENDBLK
  5
807B
330
819D
100
AcDbEntity
  8
0
100
AcDbBlockEnd
  0
BLOCK
  5
8228
330
8227
100
AcDbEntity
  8
0
100
AcDbBlockBegin
  2
*D30
 70
     1
 10
0.0
 20
0.0
 30
0.0
  3
*D30
  1

  0
LINE
  5
8282
330
8227
100
AcDbEntity
  8
3
 62
     0
370
    -2
100
AcDbLine
 10
3093.266996014719
 20
2702.648447497555
 30
0.0
 11
3093.266996014719
 21
3520.10307755366
 31
0.0
  0
LINE
  5
8283
330
8227
100
AcDbEntity
  8
3
 62
     0
370
    -2
100
AcDbLine
 10
3933.266996014717
 20
3460.962010291761
 30
0.0
 11
3933.266996014717
 21
3520.10307755366
 31
0.0
  0
LINE
  5
8284
330
8227
100
AcDbEntity
  8
3
 62
     0
370
    -2
100
AcDbLine
 10
3143.266996014719
 20
3495.10307755366
 30
0.0
 11
3883.266996014717
 21
3495.10307755366
 31
0.0
  0
INSERT
  5
8285
330
8227
100
AcDbEntity
  8
3
 62
     0
370
    -2
100
AcDbBlockReference
  2
_OPEN
 10
3093.266996014719
 20
3495.10307755366
 30
0.0
 41
50.0
 42
50.0
 43
50.0
 50
180.0
  0
INSERT
  5
8286
330
8227
100
AcDbEntity
  8
3
 62
     0
370
    -2
100
AcDbBlockReference
  2
_OPEN
 10
3933.266996014717
 20
3495.10307755366
 30
0.0
 41
50.0
 42
50.0
 43
50.0
  0
MTEXT
  5
8287
330
8227
100
AcDbEntity
  8
3
 62
     0
100
AcDbMText
 10
3513.266996014718
 20
3577.245934696518
 30
0.0
 40
75.0
 41
0.0
 71
     5
 72
     1
  1
\A1;(840)
 73
     1
 44
1.0
1001
ACAD
1000
MTEXTBEGIN
1070
    73
1070
     1
1070
    44
1040
1.0
1070
    74
1070
     0
1000
MTEXTEND
  0
POINT
  5
8288
330
8227
100
AcDbEntity
  8
DEFPOINTS
 62
     0
100
AcDbPoint
 10
3093.266996014719
 20
2677.648447497555
 30
0.0
  0
POINT
  5
8289
330
8227
100
AcDbEntity
  8
DEFPOINTS
 62
     0
100
AcDbPoint
 10
3933.266996014717
 20
3435.962010291761
 30
0.0
  0
POINT
  5
828A
330
8227
100
AcDbEntity
  8
DEFPOINTS
 62
     0
100
AcDbPoint
 10
3933.266996014717
 20
3495.10307755366
 30
0.0
  0
ENDBLK
  5
8229
330
8227
100
AcDbEntity
  8
0
100
AcDbBlockEnd
  0
BLOCK
  5
8235
330
8234
100
AcDbEntity
  8
0
100
AcDbBlockBegin
  2
*D31
 70
     1
 10
0.0
 20
0.0
 30
0.0
  3
*D31
  1

  0
LINE
  5
828B
330
8234
100
AcDbEntity
  8
3
 62
     0
370
    -2
100
AcDbLine
 10
3933.266996014717
 20
3460.962010291761
 30
0.0
 11
3933.266996014717
 21
3520.10307755366
 31
0.0
  0
LINE
  5
828C
330
8234
100
AcDbEntity
  8
3
 62
     0
370
    -2
100
AcDbLine
 10
4493.266996014716
 20
2397.448447497553
 30
0.0
 11
4493.266996014716
 21
3520.10307755366
 31
0.0
  0
LINE
  5
828D
330
8234
100
AcDbEntity
  8
3
 62
     0
370
    -2
100
AcDbLine
 10
3983.266996014717
 20
3495.10307755366
 30
0.0
 11
4443.266996014716
 21
3495.10307755366
 31
0.0
  0
INSERT
  5
828E
330
8234
100
AcDbEntity
  8
3
 62
     0
370
    -2
100
AcDbBlockReference
  2
_OPEN
 10
3933.266996014717
 20
3495.10307755366
 30
0.0
 41
50.0
 42
50.0
 43
50.0
 50
180.0
  0
INSERT
  5
828F
330
8234
100
AcDbEntity
  8
3
 62
     0
370
    -2
100
AcDbBlockReference
  2
_OPEN
 10
4493.266996014716
 20
3495.10307755366
 30
0.0
 41
50.0
 42
50.0
 43
50.0
  0
MTEXT
  5
8290
330
8234
100
AcDbEntity
  8
3
 62
     0
100
AcDbMText
 10
4213.266996014715
 20
3577.245934696518
 30
0.0
 40
75.0
 41
0.0
 71
     5
 72
     1
  1
\A1;(560)
 73
     1
 44
1.0
1001
ACAD
1000
MTEXTBEGIN
1070
    73
1070
     1
1070
    44
1040
1.0
1070
    74
1070
     0
1000
MTEXTEND
  0
POINT
  5
8291
330
8234
100
AcDbEntity
  8
DEFPOINTS
 62
     0
100
AcDbPoint
 10
3933.266996014717
 20
3435.962010291761
 30
0.0
  0
POINT
  5
8292
330
8234
100
AcDbEntity
  8
DEFPOINTS
 62
     0
100
AcDbPoint
 10
4493.266996014716
 20
2372.448447497554
 30
0.0
  0
POINT
  5
8293
330
8234
100
AcDbEntity
  8
DEFPOINTS
 62
     0
100
AcDbPoint
 10
4493.266996014716
 20
3495.10307755366
 30
0.0
  0
ENDBLK
  5
8236
330
8234
100
AcDbEntity
  8
0
100
AcDbBlockEnd
  0
BLOCK
  5
8296
330
8295
100
AcDbEntity
  8
0
100
AcDbBlockBegin
  2
*D32
 70
     1
 10
0.0
 20
0.0
 30
0.0
  3
*D32
  1

  0
LINE
  5
8298
330
8295
100
AcDbEntity
  8
3
 62
     0
370
    -2
100
AcDbLine
 10
1220.739022619682
 20
4043.894181494283
 30
0.0
 11
1220.739022619682
 21
3698.907594401993
 31
0.0
  0
LINE
  5
8299
330
8295
100
AcDbEntity
  8
3
 62
     0
370
    -2
100
AcDbLine
 10
2820.739022619682
 20
4043.894181494286
 30
0.0
 11
2820.739022619682
 21
3698.907594401993
 31
0.0
  0
LINE
  5
829A
330
8295
100
AcDbEntity
  8
3
 62
     0
370
    -2
100
AcDbLine
 10
1270.739022619682
 20
3723.907594401993
 30
0.0
 11
2770.739022619682
 21
3723.907594401993
 31
0.0
  0
INSERT
  5
829B
330
8295
100
AcDbEntity
  8
3
 62
     0
370
    -2
100
AcDbBlockReference
  2
_OPEN
 10
1220.739022619682
 20
3723.907594401993
 30
0.0
 41
50.0
 42
50.0
 43
50.0
 50
180.0
  0
INSERT
  5
829C
330
8295
100
AcDbEntity
  8
3
 62
     0
370
    -2
100
AcDbBlockReference
  2
_OPEN
 10
2820.739022619682
 20
3723.907594401993
 30
0.0
 41
50.0
 42
50.0
 43
50.0
  0
MTEXT
  5
829D
330
8295
100
AcDbEntity
  8
3
 62
     0
100
AcDbMText
 10
2020.739022619682
 20
3786.407594401993
 30
0.0
 40
75.0
 41
0.0
 71
     5
 72
     1
  1
\A1;1600
 73
     1
 44
1.0
1001
ACAD
1000
MTEXTBEGIN
1070
    73
1070
     1
1070
    44
1040
1.0
1070
    74
1070
     0
1000
MTEXTEND
  0
POINT
  5
829E
330
8295
100
AcDbEntity
  8
DEFPOINTS
 62
     0
100
AcDbPoint
 10
1220.739022619682
 20
4068.894181494282
 30
0.0
  0
POINT
  5
829F
330
8295
100
AcDbEntity
  8
DEFPOINTS
 62
     0
100
AcDbPoint
 10
2820.739022619682
 20
4068.894181494285
 30
0.0
  0
POINT
  5
82A0
330
8295
100
AcDbEntity
  8
DEFPOINTS
 62
     0
100
AcDbPoint
 10
2820.739022619682
 20
3723.907594401993
 30
0.0
  0
ENDBLK
  5
8297
330
8295
100
AcDbEntity
  8
0
100
AcDbBlockEnd
  0
BLOCK
  5
82A3
330
82A2
100
AcDbEntity
  8
0
100
AcDbBlockBegin
  2
*D33
 70
     1
 10
0.0
 20
0.0
 30
0.0
  3
*D33
  1

  0
LINE
  5
82AE
330
82A2
100
AcDbEntity
  8
3
 62
     0
370
    -2
100
AcDbLine
 10
1670.739022619682
 20
3252.699731954696
 30
0.0
 11
1670.739022619682
 21
3374.628979678586
 31
0.0
  0
LINE
  5
82AF
330
82A2
100
AcDbEntity
  8
3
 62
     0
370
    -2
100
AcDbLine
 10
2265.73902261968
 20
2475.648447497555
 30
0.0
 11
2265.73902261968
 21
3374.628979678586
 31
0.0
  0
LINE
  5
82B0
330
82A2
100
AcDbEntity
  8
3
 62
     0
370
    -2
100
AcDbLine
 10
1720.739022619682
 20
3349.628979678586
 30
0.0
 11
2215.73902261968
 21
3349.628979678586
 31
0.0
  0
INSERT
  5
82B1
330
82A2
100
AcDbEntity
  8
3
 62
     0
370
    -2
100
AcDbBlockReference
  2
_OPEN
 10
1670.739022619682
 20
3349.628979678586
 30
0.0
 41
50.0
 42
50.0
 43
50.0
 50
180.0
  0
INSERT
  5
82B2
330
82A2
100
AcDbEntity
  8
3
 62
     0
370
    -2
100
AcDbBlockReference
  2
_OPEN
 10
2265.73902261968
 20
3349.628979678586
 30
0.0
 41
50.0
 42
50.0
 43
50.0
  0
MTEXT
  5
82B3
330
82A2
100
AcDbEntity
  8
3
 62
     0
100
AcDbMText
 10
1968.239022619681
 20
3412.128979678586
 30
0.0
 40
75.0
 41
0.0
 71
     5
 72
     1
  1
\A1;595
 73
     1
 44
1.0
1001
ACAD
1000
MTEXTBEGIN
1070
    73
1070
     1
1070
    44
1040
1.0
1070
    74
1070
     0
1000
MTEXTEND
  0
POINT
  5
82B4
330
82A2
100
AcDbEntity
  8
DEFPOINTS
 62
     0
100
AcDbPoint
 10
1670.739022619682
 20
3227.699731954696
 30
0.0
  0
POINT
  5
82B5
330
82A2
100
AcDbEntity
  8
DEFPOINTS
 62
     0
100
AcDbPoint
 10
2265.73902261968
 20
2450.648447497555
 30
0.0
  0
POINT
  5
82B6
330
82A2
100
AcDbEntity
  8
DEFPOINTS
 62
     0
100
AcDbPoint
 10
2265.73902261968
 20
3349.628979678586
 30
0.0
  0
ENDBLK
  5
82A4
330
82A2
100
AcDbEntity
  8
0
100
AcDbBlockEnd
  0
BLOCK
  5
82B8
330
82B7
100
AcDbEntity
  8
0
100
AcDbBlockBegin
  2
*D34
 70
     1
 10
0.0
 20
0.0
 30
0.0
  3
*D34
  1

  0
LINE
  5
82BA
330
82B7
100
AcDbEntity
  8
3
 62
     0
370
    -2
100
AcDbLine
 10
1219.176522619682
 20
1772.648447497555
 30
0.0
 11
865.4852083343667
 21
1772.648447497555
 31
0.0
  0
LINE
  5
82BB
330
82B7
100
AcDbEntity
  8
3
 62
     0
370
    -2
100
AcDbLine
 10
1219.176522619682
 20
1672.648447497555
 30
0.0
 11
865.4852083343667
 21
1672.648447497555
 31
0.0
  0
LINE
  5
82BC
330
82B7
100
AcDbEntity
  8
3
 62
     0
370
    -2
100
AcDbLine
 10
869.9852083343667
 20
1768.148447497555
 30
0.0
 11
869.9852083343667
 21
1727.148447497555
 31
0.0
  0
LINE
  5
82BD
330
82B7
100
AcDbEntity
  8
3
 62
     0
370
    -2
100
AcDbLine
 10
869.9852083343667
 20
1677.148447497555
 30
0.0
 11
869.9852083343667
 21
1718.148447497555
 31
0.0
  0
SOLID
  5
82BE
330
82B7
100
AcDbEntity
  8
3
 62
     0
100
AcDbTrace
 10
869.2352083343667
 20
1768.148447497555
 30
0.0
 11
870.7352083343668
 21
1768.148447497555
 31
0.0
 12
869.9852083343667
 22
1772.648447497555
 32
0.0
 13
869.9852083343667
 23
1772.648447497555
 33
0.0
  0
SOLID
  5
82BF
330
82B7
100
AcDbEntity
  8
3
 62
     0
100
AcDbTrace
 10
869.2352083343667
 20
1677.148447497555
 30
0.0
 11
870.7352083343668
 21
1677.148447497555
 31
0.0
 12
869.9852083343667
 22
1672.648447497555
 32
0.0
 13
869.9852083343667
 23
1672.648447497555
 33
0.0
  0
MTEXT
  5
82C0
330
82B7
100
AcDbEntity
  8
3
 62
     0
100
AcDbMText
 10
869.9852083343666
 20
1722.648447497555
 30
0.0
 40
4.5
 41
0.0
 71
     5
 72
     1
  1
\A1;100
 73
     1
 44
1.0
1001
ACAD
1000
MTEXTBEGIN
1070
    73
1070
     1
1070
    44
1040
1.0
1070
    74
1070
     0
1000
MTEXTEND
  0
POINT
  5
82C1
330
82B7
100
AcDbEntity
  8
DEFPOINTS
 62
     0
100
AcDbPoint
 10
1220.739022619682
 20
1772.648447497555
 30
0.0
  0
POINT
  5
82C2
330
82B7
100
AcDbEntity
  8
DEFPOINTS
 62
     0
100
AcDbPoint
 10
1220.739022619682
 20
1672.648447497555
 30
0.0
  0
POINT
  5
82C3
330
82B7
100
AcDbEntity
  8
DEFPOINTS
 62
     0
100
AcDbPoint
 10
869.9852083343667
 20
1672.648447497555
 30
0.0
  0
ENDBLK
  5
82B9
330
82B7
100
AcDbEntity
  8
0
100
AcDbBlockEnd
  0
BLOCK
  5
82C5
330
82C4
100
AcDbEntity
  8
0
100
AcDbBlockBegin
  2
*D35
 70
     1
 10
0.0
 20
0.0
 30
0.0
  3
*D35
  1

  0
LINE
  5
82C7
330
82C4
100
AcDbEntity
  8
3
 62
     0
370
    -2
100
AcDbLine
 10
1220.739022619682
 20
1647.648447497555
 30
0.0
 11
1220.739022619682
 21
1484.492421795832
 31
0.0
  0
LINE
  5
82C8
330
82C4
100
AcDbEntity
  8
3
 62
     0
370
    -2
100
AcDbLine
 10
1670.739022619682
 20
1647.648447497555
 30
0.0
 11
1670.739022619682
 21
1484.492421795832
 31
0.0
  0
LINE
  5
82C9
330
82C4
100
AcDbEntity
  8
3
 62
     0
370
    -2
100
AcDbLine
 10
1225.239022619682
 20
1488.992421795832
 30
0.0
 11
1437.703308333968
 21
1488.992421795832
 31
0.0
  0
LINE
  5
82CA
330
82C4
100
AcDbEntity
  8
3
 62
     0
370
    -2
100
AcDbLine
 10
1666.239022619682
 20
1488.992421795832
 30
0.0
 11
1453.774736905396
 21
1488.992421795832
 31
0.0
  0
SOLID
  5
82CB
330
82C4
100
AcDbEntity
  8
3
 62
     0
100
AcDbTrace
 10
1225.239022619682
 20
1489.742421795832
 30
0.0
 11
1225.239022619682
 21
1488.242421795832
 31
0.0
 12
1220.739022619682
 22
1488.992421795832
 32
0.0
 13
1220.739022619682
 23
1488.992421795832
 33
0.0
  0
SOLID
  5
82CC
330
82C4
100
AcDbEntity
  8
3
 62
     0
100
AcDbTrace
 10
1666.239022619682
 20
1489.742421795832
 30
0.0
 11
1666.239022619682
 21
1488.242421795832
 31
0.0
 12
1670.739022619682
 22
1488.992421795832
 32
0.0
 13
1670.739022619682
 23
1488.992421795832
 33
0.0
  0
MTEXT
  5
82CD
330
82C4
100
AcDbEntity
  8
3
 62
     0
100
AcDbMText
 10
1445.739022619682
 20
1488.992421795832
 30
0.0
 40
4.5
 41
0.0
 71
     5
 72
     1
  1
\A1;450
 73
     1
 44
1.0
1001
ACAD
1000
MTEXTBEGIN
1070
    73
1070
     1
1070
    44
1040
1.0
1070
    74
1070
     0
1000
MTEXTEND
  0
POINT
  5
82CE
330
82C4
100
AcDbEntity
  8
DEFPOINTS
 62
     0
100
AcDbPoint
 10
1220.739022619682
 20
1672.648447497555
 30
0.0
  0
POINT
  5
82CF
330
82C4
100
AcDbEntity
  8
DEFPOINTS
 62
     0
100
AcDbPoint
 10
1670.739022619682
 20
1672.648447497555
 30
0.0
  0
POINT
  5
82D0
330
82C4
100
AcDbEntity
  8
DEFPOINTS
 62
     0
100
AcDbPoint
 10
1670.739022619682
 20
1488.992421795832
 30
0.0
  0
ENDBLK
  5
82C6
330
82C4
100
AcDbEntity
  8
0
100
AcDbBlockEnd
  0
BLOCK
  5
82D2
330
82D1
100
AcDbEntity
  8
0
100
AcDbBlockBegin
  2
*D36
 70
     1
 10
0.0
 20
0.0
 30
0.0
  3
*D36
  1

  0
LINE
  5
82D4
330
82D1
100
AcDbEntity
  8
3
 62
     0
370
    -2
100
AcDbLine
 10
1670.739022619682
 20
1647.648447497555
 30
0.0
 11
1670.739022619682
 21
1484.492421795832
 31
0.0
  0
LINE
  5
82D5
330
82D1
100
AcDbEntity
  8
3
 62
     0
370
    -2
100
AcDbLine
 10
2820.739022619682
 20
1647.648447497555
 30
0.0
 11
2820.739022619682
 21
1484.492421795832
 31
0.0
  0
LINE
  5
82D6
330
82D1
100
AcDbEntity
  8
3
 62
     0
370
    -2
100
AcDbLine
 10
1675.239022619682
 20
1488.992421795832
 30
0.0
 11
2236.417594048254
 21
1488.992421795832
 31
0.0
  0
LINE
  5
82D7
330
82D1
100
AcDbEntity
  8
3
 62
     0
370
    -2
100
AcDbLine
 10
2816.239022619683
 20
1488.992421795832
 30
0.0
 11
2255.060451191111
 21
1488.992421795832
 31
0.0
  0
SOLID
  5
82D8
330
82D1
100
AcDbEntity
  8
3
 62
     0
100
AcDbTrace
 10
1675.239022619682
 20
1489.742421795832
 30
0.0
 11
1675.239022619682
 21
1488.242421795832
 31
0.0
 12
1670.739022619682
 22
1488.992421795832
 32
0.0
 13
1670.739022619682
 23
1488.992421795832
 33
0.0
  0
SOLID
  5
82D9
330
82D1
100
AcDbEntity
  8
3
 62
     0
100
AcDbTrace
 10
2816.239022619683
 20
1489.742421795832
 30
0.0
 11
2816.239022619683
 21
1488.242421795832
 31
0.0
 12
2820.739022619682
 22
1488.992421795832
 32
0.0
 13
2820.739022619682
 23
1488.992421795832
 33
0.0
  0
MTEXT
  5
82DA
330
82D1
100
AcDbEntity
  8
3
 62
     0
100
AcDbMText
 10
2245.739022619682
 20
1488.992421795832
 30
0.0
 40
4.5
 41
0.0
 71
     5
 72
     1
  1
\A1;1150
 73
     1
 44
1.0
1001
ACAD
1000
MTEXTBEGIN
1070
    73
1070
     1
1070
    44
1040
1.0
1070
    74
1070
     0
1000
MTEXTEND
  0
POINT
  5
82DB
330
82D1
100
AcDbEntity
  8
DEFPOINTS
 62
     0
100
AcDbPoint
 10
1670.739022619682
 20
1672.648447497555
 30
0.0
  0
POINT
  5
82DC
330
82D1
100
AcDbEntity
  8
DEFPOINTS
 62
     0
100
AcDbPoint
 10
2820.739022619682
 20
1672.648447497555
 30
0.0
  0
POINT
  5
82DD
330
82D1
100
AcDbEntity
  8
DEFPOINTS
 62
     0
100
AcDbPoint
 10
2820.739022619682
 20
1488.992421795832
 30
0.0
  0
ENDBLK
  5
82D3
330
82D1
100
AcDbEntity
  8
0
100
AcDbBlockEnd
  0
BLOCK
  5
82DF
330
82DE
100
AcDbEntity
  8
0
100
AcDbBlockBegin
  2
*D37
 70
     1
 10
0.0
 20
0.0
 30
0.0
  3
*D37
  1

  0
LINE
  5
82E1
330
82DE
100
AcDbEntity
  8
3
 62
     0
370
    -2
100
AcDbLine
 10
3281.266996014716
 20
1647.648447497555
 30
0.0
 11
3281.266996014716
 21
1484.492421795832
 31
0.0
  0
LINE
  5
82E2
330
82DE
100
AcDbEntity
  8
3
 62
     0
370
    -2
100
AcDbLine
 10
3933.266996014717
 20
1647.648447497555
 30
0.0
 11
3933.266996014717
 21
1484.492421795832
 31
0.0
  0
LINE
  5
82E3
330
82DE
100
AcDbEntity
  8
3
 62
     0
370
    -2
100
AcDbLine
 10
3285.766996014717
 20
1488.992421795832
 30
0.0
 11
3599.231281729002
 21
1488.992421795832
 31
0.0
  0
LINE
  5
82E4
330
82DE
100
AcDbEntity
  8
3
 62
     0
370
    -2
100
AcDbLine
 10
3928.766996014716
 20
1488.992421795832
 30
0.0
 11
3615.302710300431
 21
1488.992421795832
 31
0.0
  0
SOLID
  5
82E5
330
82DE
100
AcDbEntity
  8
3
 62
     0
100
AcDbTrace
 10
3285.766996014717
 20
1489.742421795832
 30
0.0
 11
3285.766996014717
 21
1488.242421795832
 31
0.0
 12
3281.266996014716
 22
1488.992421795832
 32
0.0
 13
3281.266996014716
 23
1488.992421795832
 33
0.0
  0
SOLID
  5
82E6
330
82DE
100
AcDbEntity
  8
3
 62
     0
100
AcDbTrace
 10
3928.766996014716
 20
1489.742421795832
 30
0.0
 11
3928.766996014716
 21
1488.242421795832
 31
0.0
 12
3933.266996014717
 22
1488.992421795832
 32
0.0
 13
3933.266996014717
 23
1488.992421795832
 33
0.0
  0
MTEXT
  5
82E7
330
82DE
100
AcDbEntity
  8
3
 62
     0
100
AcDbMText
 10
3607.266996014717
 20
1488.992421795832
 30
0.0
 40
4.5
 41
0.0
 71
     5
 72
     1
  1
\A1;652
 73
     1
 44
1.0
1001
ACAD
1000
MTEXTBEGIN
1070
    73
1070
     1
1070
    44
1040
1.0
1070
    74
1070
     0
1000
MTEXTEND
  0
POINT
  5
82E8
330
82DE
100
AcDbEntity
  8
DEFPOINTS
 62
     0
100
AcDbPoint
 10
3281.266996014716
 20
1672.648447497555
 30
0.0
  0
POINT
  5
82E9
330
82DE
100
AcDbEntity
  8
DEFPOINTS
 62
     0
100
AcDbPoint
 10
3933.266996014717
 20
1672.648447497555
 30
0.0
  0
POINT
  5
82EA
330
82DE
100
AcDbEntity
  8
DEFPOINTS
 62
     0
100
AcDbPoint
 10
3933.266996014717
 20
1488.992421795832
 30
0.0
  0
ENDBLK
  5
82E0
330
82DE
100
AcDbEntity
  8
0
100
AcDbBlockEnd
  0
BLOCK
  5
82EC
330
82EB
100
AcDbEntity
  8
0
100
AcDbBlockBegin
  2
*D38
 70
     1
 10
0.0
 20
0.0
 30
0.0
  3
*D38
  1

  0
LINE
  5
82EE
330
82EB
100
AcDbEntity
  8
3
 62
     0
370
    -2
100
AcDbLine
 10
3933.266996014717
 20
1647.648447497555
 30
0.0
 11
3933.266996014717
 21
1484.492421795832
 31
0.0
  0
LINE
  5
82EF
330
82EB
100
AcDbEntity
  8
3
 62
     0
370
    -2
100
AcDbLine
 10
4436.266996014715
 20
1647.648447497555
 30
0.0
 11
4436.266996014715
 21
1484.492421795832
 31
0.0
  0
LINE
  5
82F0
330
82EB
100
AcDbEntity
  8
3
 62
     0
370
    -2
100
AcDbLine
 10
3937.766996014717
 20
1488.992421795832
 30
0.0
 11
4176.731281729001
 21
1488.992421795832
 31
0.0
  0
LINE
  5
82F1
330
82EB
100
AcDbEntity
  8
3
 62
     0
370
    -2
100
AcDbLine
 10
4431.766996014715
 20
1488.992421795832
 30
0.0
 11
4192.80271030043
 21
1488.992421795832
 31
0.0
  0
SOLID
  5
82F2
330
82EB
100
AcDbEntity
  8
3
 62
     0
100
AcDbTrace
 10
3937.766996014717
 20
1489.742421795832
 30
0.0
 11
3937.766996014717
 21
1488.242421795832
 31
0.0
 12
3933.266996014717
 22
1488.992421795832
 32
0.0
 13
3933.266996014717
 23
1488.992421795832
 33
0.0
  0
SOLID
  5
82F3
330
82EB
100
AcDbEntity
  8
3
 62
     0
100
AcDbTrace
 10
4431.766996014715
 20
1489.742421795832
 30
0.0
 11
4431.766996014715
 21
1488.242421795832
 31
0.0
 12
4436.266996014715
 22
1488.992421795832
 32
0.0
 13
4436.266996014715
 23
1488.992421795832
 33
0.0
  0
MTEXT
  5
82F4
330
82EB
100
AcDbEntity
  8
3
 62
     0
100
AcDbMText
 10
4184.766996014715
 20
1488.992421795832
 30
0.0
 40
4.5
 41
0.0
 71
     5
 72
     1
  1
\A1;503
 73
     1
 44
1.0
1001
ACAD
1000
MTEXTBEGIN
1070
    73
1070
     1
1070
    44
1040
1.0
1070
    74
1070
     0
1000
MTEXTEND
  0
POINT
  5
82F5
330
82EB
100
AcDbEntity
  8
DEFPOINTS
 62
     0
100
AcDbPoint
 10
3933.266996014717
 20
1672.648447497555
 30
0.0
  0
POINT
  5
82F6
330
82EB
100
AcDbEntity
  8
DEFPOINTS
 62
     0
100
AcDbPoint
 10
4436.266996014715
 20
1672.648447497555
 30
0.0
  0
POINT
  5
82F7
330
82EB
100
AcDbEntity
  8
DEFPOINTS
 62
     0
100
AcDbPoint
 10
4436.266996014715
 20
1488.992421795832
 30
0.0
  0
ENDBLK
  5
82ED
330
82EB
100
AcDbEntity
  8
0
100
AcDbBlockEnd
  0
BLOCK
  5
82F9
330
82F8
100
AcDbEntity
  8
0
100
AcDbBlockBegin
  2
*D39
 70
     1
 10
0.0
 20
0.0
 30
0.0
  3
*D39
  1

  0
LINE
  5
82FB
330
82F8
100
AcDbEntity
  8
3
 62
     0
370
    -2
100
AcDbLine
 10
870.9234994324722
 20
1777.148447497555
 30
0.0
 11
870.9234994324724
 21
1806.969876068984
 31
0.0
  0
LINE
  5
82FC
330
82F8
100
AcDbEntity
  8
3
 62
     0
370
    -2
100
AcDbLine
 10
870.9234994324724
 20
1848.148447497555
 30
0.0
 11
870.9234994324724
 21
1818.327018926126
 31
0.0
  0
SOLID
  5
82FD
330
82F8
100
AcDbEntity
  8
3
 62
     0
100
AcDbTrace
 10
870.1734994324722
 20
1777.148447497555
 30
0.0
 11
871.6734994324722
 21
1777.148447497555
 31
0.0
 12
870.9234994324722
 22
1772.648447497555
 32
0.0
 13
870.9234994324722
 23
1772.648447497555
 33
0.0
  0
SOLID
  5
82FE
330
82F8
100
AcDbEntity
  8
3
 62
     0
100
AcDbTrace
 10
870.1734994324723
 20
1848.148447497555
 30
0.0
 11
871.6734994324722
 21
1848.148447497555
 31
0.0
 12
870.9234994324724
 22
1852.648447497555
 32
0.0
 13
870.9234994324724
 23
1852.648447497555
 33
0.0
  0
MTEXT
  5
82FF
330
82F8
100
AcDbEntity
  8
3
 62
     0
100
AcDbMText
 10
870.923499432472
 20
1812.648447497555
 30
0.0
 40
4.5
 41
0.0
 71
     5
 72
     1
  1
\A1;(80)
 73
     1
 44
1.0
1001
ACAD
1000
MTEXTBEGIN
1070
    73
1070
     1
1070
    44
1040
1.0
1070
    74
1070
     0
1000
MTEXTEND
  0
POINT
  5
8300
330
82F8
100
AcDbEntity
  8
DEFPOINTS
 62
     0
100
AcDbPoint
 10
1220.739022619682
 20
1772.648447497555
 30
0.0
  0
POINT
  5
8301
330
82F8
100
AcDbEntity
  8
DEFPOINTS
 62
     0
100
AcDbPoint
 10
1220.739022619682
 20
1852.648447497555
 30
0.0
  0
POINT
  5
8302
330
82F8
100
AcDbEntity
  8
DEFPOINTS
 62
     0
100
AcDbPoint
 10
870.9234994324724
 20
1852.648447497555
 30
0.0
  0
ENDBLK
  5
82FA
330
82F8
100
AcDbEntity
  8
0
100
AcDbBlockEnd
  0
BLOCK
  5
8304
330
8303
100
AcDbEntity
  8
0
100
AcDbBlockBegin
  2
*D40
 70
     1
 10
0.0
 20
0.0
 30
0.0
  3
*D40
  1

  0
LINE
  5
8306
330
8303
100
AcDbEntity
  8
3
 62
     0
370
    -2
100
AcDbLine
 10
1195.739022619682
 20
1672.648447497555
 30
0.0
 11
657.457746951022
 21
1672.648447497555
 31
0.0
  0
LINE
  5
8307
330
8303
100
AcDbEntity
  8
3
 62
     0
370
    -2
100
AcDbLine
 10
1145.739022619682
 20
3156.648447497555
 30
0.0
 11
657.4577469510224
 21
3156.648447497556
 31
0.0
  0
LINE
  5
8308
330
8303
100
AcDbEntity
  8
3
 62
     0
370
    -2
100
AcDbLine
 10
661.957746951022
 20
1677.148447497555
 30
0.0
 11
661.9577469510223
 21
2408.969876068984
 31
0.0
  0
LINE
  5
8309
330
8303
100
AcDbEntity
  8
3
 62
     0
370
    -2
100
AcDbLine
 10
661.9577469510224
 20
3152.148447497556
 30
0.0
 11
661.9577469510223
 21
2420.327018926127
 31
0.0
  0
SOLID
  5
830A
330
8303
100
AcDbEntity
  8
3
 62
     0
100
AcDbTrace
 10
661.207746951022
 20
1677.148447497555
 30
0.0
 11
662.707746951022
 21
1677.148447497555
 31
0.0
 12
661.957746951022
 22
1672.648447497555
 32
0.0
 13
661.957746951022
 23
1672.648447497555
 33
0.0
  0
SOLID
  5
830B
330
8303
100
AcDbEntity
  8
3
 62
     0
100
AcDbTrace
 10
661.2077469510223
 20
3152.148447497556
 30
0.0
 11
662.7077469510224
 21
3152.148447497556
 31
0.0
 12
661.9577469510224
 22
3156.648447497556
 32
0.0
 13
661.9577469510224
 23
3156.648447497556
 33
0.0
  0
MTEXT
  5
830C
330
8303
100
AcDbEntity
  8
3
 62
     0
100
AcDbMText
 10
661.9577469510218
 20
2414.648447497556
 30
0.0
 40
4.5
 41
0.0
 71
     5
 72
     1
  1
\A1;(1484)
 73
     1
 44
1.0
1001
ACAD
1000
MTEXTBEGIN
1070
    73
1070
     1
1070
    44
1040
1.0
1070
    74
1070
     0
1000
MTEXTEND
  0
POINT
  5
830D
330
8303
100
AcDbEntity
  8
DEFPOINTS
 62
     0
100
AcDbPoint
 10
1220.739022619682
 20
1672.648447497555
 30
0.0
  0
POINT
  5
830E
330
8303
100
AcDbEntity
  8
DEFPOINTS
 62
     0
100
AcDbPoint
 10
1170.739022619682
 20
3156.648447497555
 30
0.0
  0
POINT
  5
830F
330
8303
100
AcDbEntity
  8
DEFPOINTS
 62
     0
100
AcDbPoint
 10
661.9577469510224
 20
3156.648447497556
 30
0.0
  0
ENDBLK
  5
8305
330
8303
100
AcDbEntity
  8
0
100
AcDbBlockEnd
  0
BLOCK
  5
8312
330
8311
100
AcDbEntity
  8
0
100
AcDbBlockBegin
  2
*D41
 70
     1
 10
0.0
 20
0.0
 30
0.0
  3
*D41
  1

  0
LINE
  5
84B6
330
8311
100
AcDbEntity
  8
3
 62
     0
370
    -2
100
AcDbLine
 10
1145.739022619682
 20
3156.648447497556
 30
0.0
 11
550.4815720644477
 21
3156.648447497556
 31
0.0
  0
LINE
  5
84B7
330
8311
100
AcDbEntity
  8
3
 62
     0
370
    -2
100
AcDbLine
 10
1195.739022619682
 20
1672.648447497555
 30
0.0
 11
550.4815720644473
 21
1672.648447497555
 31
0.0
  0
LINE
  5
84B8
330
8311
100
AcDbEntity
  8
3
 62
     0
370
    -2
100
AcDbLine
 10
575.4815720644477
 20
3106.648447497556
 30
0.0
 11
575.4815720644473
 21
1722.648447497555
 31
0.0
  0
INSERT
  5
84B9
330
8311
100
AcDbEntity
  8
3
 62
     0
370
    -2
100
AcDbBlockReference
  2
_OPEN
 10
575.4815720644477
 20
3156.648447497556
 30
0.0
 41
50.0
 42
50.0
 43
50.0
 50
90.0
  0
INSERT
  5
84BA
330
8311
100
AcDbEntity
  8
3
 62
     0
370
    -2
100
AcDbBlockReference
  2
_OPEN
 10
575.4815720644473
 20
1672.648447497555
 30
0.0
 41
50.0
 42
50.0
 43
50.0
 50
270.0
  0
MTEXT
  5
84BB
330
8311
100
AcDbEntity
  8
3
 62
     0
100
AcDbMText
 10
493.3387149215901
 20
2414.648447497556
 30
0.0
 40
75.0
 41
0.0
 71
     5
 72
     1
  1
\A1;(1484)
 11
0.0000000000000001
 21
1.0
 31
0.0
 73
     1
 44
1.0
1001
ACAD
1000
MTEXTBEGIN
1070
    73
1070
     1
1070
    44
1040
1.0
1070
    74
1070
     0
1000
MTEXTEND
  0
POINT
  5
84BC
330
8311
100
AcDbEntity
  8
DEFPOINTS
 62
     0
100
AcDbPoint
 10
1170.739022619682
 20
3156.648447497556
 30
0.0
  0
POINT
  5
84BD
330
8311
100
AcDbEntity
  8
DEFPOINTS
 62
     0
100
AcDbPoint
 10
1220.739022619682
 20
1672.648447497555
 30
0.0
  0
POINT
  5
84BE
330
8311
100
AcDbEntity
  8
DEFPOINTS
 62
     0
100
AcDbPoint
 10
575.4815720644473
 20
1672.648447497555
 30
0.0
  0
ENDBLK
  5
8313
330
8311
100
AcDbEntity
  8
0
100
AcDbBlockEnd
  0
BLOCK
  5
8331
330
8330
100
AcDbEntity
  8
0
100
AcDbBlockBegin
  2
*D42
 70
     1
 10
0.0
 20
0.0
 30
0.0
  3
*D42
  1

  0
LINE
  5
8333
330
8330
100
AcDbEntity
  8
3
 62
     0
370
    -2
100
AcDbLine
 10
4436.266996014714
 20
1647.648447497555
 30
0.0
 11
4436.266996014714
 21
1480.562343992784
 31
0.0
  0
LINE
  5
8334
330
8330
100
AcDbEntity
  8
3
 62
     0
370
    -2
100
AcDbLine
 10
3933.266996014717
 20
1647.648447497555
 30
0.0
 11
3933.266996014717
 21
1480.562343992784
 31
0.0
  0
LINE
  5
8335
330
8330
100
AcDbEntity
  8
3
 62
     0
370
    -2
100
AcDbLine
 10
4386.266996014715
 20
1505.562343992784
 30
0.0
 11
3983.266996014716
 21
1505.562343992784
 31
0.0
  0
INSERT
  5
8336
330
8330
100
AcDbEntity
  8
3
 62
     0
370
    -2
100
AcDbBlockReference
  2
_OPEN
 10
4436.266996014714
 20
1505.562343992784
 30
0.0
 41
50.0
 42
50.0
 43
50.0
  0
INSERT
  5
8337
330
8330
100
AcDbEntity
  8
3
 62
     0
370
    -2
100
AcDbBlockReference
  2
_OPEN
 10
3933.266996014717
 20
1505.562343992784
 30
0.0
 41
50.0
 42
50.0
 43
50.0
 50
180.0
  0
MTEXT
  5
8338
330
8330
100
AcDbEntity
  8
3
 62
     0
100
AcDbMText
 10
4184.766996014715
 20
1568.062343992784
 30
0.0
 40
75.0
 41
0.0
 71
     5
 72
     1
  1
\A1;503
 73
     1
 44
1.0
1001
ACAD
1000
MTEXTBEGIN
1070
    73
1070
     1
1070
    44
1040
1.0
1070
    74
1070
     0
1000
MTEXTEND
  0
POINT
  5
8339
330
8330
100
AcDbEntity
  8
DEFPOINTS
 62
     0
100
AcDbPoint
 10
4436.266996014714
 20
1672.648447497555
 30
0.0
  0
POINT
  5
833A
330
8330
100
AcDbEntity
  8
DEFPOINTS
 62
     0
100
AcDbPoint
 10
3933.266996014717
 20
1672.648447497555
 30
0.0
  0
POINT
  5
833B
330
8330
100
AcDbEntity
  8
DEFPOINTS
 62
     0
100
AcDbPoint
 10
3933.266996014717
 20
1505.562343992784
 30
0.0
  0
ENDBLK
  5
8332
330
8330
100
AcDbEntity
  8
0
100
AcDbBlockEnd
  0
BLOCK
  5
833E
330
833D
100
AcDbEntity
  8
0
100
AcDbBlockBegin
  2
*D43
 70
     1
 10
0.0
 20
0.0
 30
0.0
  3
*D43
  1

  0
LINE
  5
8340
330
833D
100
AcDbEntity
  8
3
 62
     0
370
    -2
100
AcDbLine
 10
3933.266996014717
 20
1647.648447497555
 30
0.0
 11
3933.266996014717
 21
1480.562343992784
 31
0.0
  0
LINE
  5
8341
330
833D
100
AcDbEntity
  8
3
 62
     0
370
    -2
100
AcDbLine
 10
3281.266996014716
 20
1647.648447497555
 30
0.0
 11
3281.266996014716
 21
1480.562343992784
 31
0.0
  0
LINE
  5
8342
330
833D
100
AcDbEntity
  8
3
 62
     0
370
    -2
100
AcDbLine
 10
3883.266996014717
 20
1505.562343992784
 30
0.0
 11
3331.266996014716
 21
1505.562343992784
 31
0.0
  0
INSERT
  5
8343
330
833D
100
AcDbEntity
  8
3
 62
     0
370
    -2
100
AcDbBlockReference
  2
_OPEN
 10
3933.266996014717
 20
1505.562343992784
 30
0.0
 41
50.0
 42
50.0
 43
50.0
  0
INSERT
  5
8344
330
833D
100
AcDbEntity
  8
3
 62
     0
370
    -2
100
AcDbBlockReference
  2
_OPEN
 10
3281.266996014716
 20
1505.562343992784
 30
0.0
 41
50.0
 42
50.0
 43
50.0
 50
180.0
  0
MTEXT
  5
8345
330
833D
100
AcDbEntity
  8
3
 62
     0
100
AcDbMText
 10
3607.266996014717
 20
1568.062343992784
 30
0.0
 40
75.0
 41
0.0
 71
     5
 72
     1
  1
\A1;652
 73
     1
 44
1.0
1001
ACAD
1000
MTEXTBEGIN
1070
    73
1070
     1
1070
    44
1040
1.0
1070
    74
1070
     0
1000
MTEXTEND
  0
POINT
  5
8346
330
833D
100
AcDbEntity
  8
DEFPOINTS
 62
     0
100
AcDbPoint
 10
3933.266996014717
 20
1672.648447497555
 30
0.0
  0
POINT
  5
8347
330
833D
100
AcDbEntity
  8
DEFPOINTS
 62
     0
100
AcDbPoint
 10
3281.266996014716
 20
1672.648447497555
 30
0.0
  0
POINT
  5
8348
330
833D
100
AcDbEntity
  8
DEFPOINTS
 62
     0
100
AcDbPoint
 10
3281.266996014716
 20
1505.562343992784
 30
0.0
  0
ENDBLK
  5
833F
330
833D
100
AcDbEntity
  8
0
100
AcDbBlockEnd
  0
BLOCK
  5
834B
330
834A
100
AcDbEntity
  8
0
100
AcDbBlockBegin
  2
*D44
 70
     1
 10
0.0
 20
0.0
 30
0.0
  3
*D44
  1

  0
LINE
  5
834D
330
834A
100
AcDbEntity
  8
3
 62
     0
370
    -2
100
AcDbLine
 10
1220.739022619682
 20
1647.648447497555
 30
0.0
 11
1220.739022619682
 21
1485.237503530759
 31
0.0
  0
LINE
  5
834E
330
834A
100
AcDbEntity
  8
3
 62
     0
370
    -2
100
AcDbLine
 10
1670.739022619682
 20
1647.648447497555
 30
0.0
 11
1670.739022619682
 21
1485.237503530759
 31
0.0
  0
LINE
  5
834F
330
834A
100
AcDbEntity
  8
3
 62
     0
370
    -2
100
AcDbLine
 10
1270.739022619682
 20
1510.237503530759
 30
0.0
 11
1620.739022619682
 21
1510.237503530759
 31
0.0
  0
INSERT
  5
8350
330
834A
100
AcDbEntity
  8
3
 62
     0
370
    -2
100
AcDbBlockReference
  2
_OPEN
 10
1220.739022619682
 20
1510.237503530759
 30
0.0
 41
50.0
 42
50.0
 43
50.0
 50
180.0
  0
INSERT
  5
8351
330
834A
100
AcDbEntity
  8
3
 62
     0
370
    -2
100
AcDbBlockReference
  2
_OPEN
 10
1670.739022619682
 20
1510.237503530759
 30
0.0
 41
50.0
 42
50.0
 43
50.0
  0
MTEXT
  5
8352
330
834A
100
AcDbEntity
  8
3
 62
     0
100
AcDbMText
 10
1445.739022619682
 20
1572.737503530759
 30
0.0
 40
75.0
 41
0.0
 71
     5
 72
     1
  1
\A1;450
 73
     1
 44
1.0
1001
ACAD
1000
MTEXTBEGIN
1070
    73
1070
     1
1070
    44
1040
1.0
1070
    74
1070
     0
1000
MTEXTEND
  0
POINT
  5
8353
330
834A
100
AcDbEntity
  8
DEFPOINTS
 62
     0
100
AcDbPoint
 10
1220.739022619682
 20
1672.648447497555
 30
0.0
  0
POINT
  5
8354
330
834A
100
AcDbEntity
  8
DEFPOINTS
 62
     0
100
AcDbPoint
 10
1670.739022619682
 20
1672.648447497555
 30
0.0
  0
POINT
  5
8355
330
834A
100
AcDbEntity
  8
DEFPOINTS
 62
     0
100
AcDbPoint
 10
1670.739022619682
 20
1510.237503530759
 30
0.0
  0
ENDBLK
  5
834C
330
834A
100
AcDbEntity
  8
0
100
AcDbBlockEnd
  0
BLOCK
  5
8358
330
8357
100
AcDbEntity
  8
0
100
AcDbBlockBegin
  2
*D45
 70
     1
 10
0.0
 20
0.0
 30
0.0
  3
*D45
  1

  0
LINE
  5
835A
330
8357
100
AcDbEntity
  8
3
 62
     0
370
    -2
100
AcDbLine
 10
1670.739022619682
 20
1647.648447497555
 30
0.0
 11
1670.739022619682
 21
1485.237503530759
 31
0.0
  0
LINE
  5
835B
330
8357
100
AcDbEntity
  8
3
 62
     0
370
    -2
100
AcDbLine
 10
2820.739022619682
 20
1647.648447497555
 30
0.0
 11
2820.739022619682
 21
1485.237503530759
 31
0.0
  0
LINE
  5
835C
330
8357
100
AcDbEntity
  8
3
 62
     0
370
    -2
100
AcDbLine
 10
1720.739022619682
 20
1510.237503530759
 30
0.0
 11
2770.739022619682
 21
1510.237503530759
 31
0.0
  0
INSERT
  5
835D
330
8357
100
AcDbEntity
  8
3
 62
     0
370
    -2
100
AcDbBlockReference
  2
_OPEN
 10
1670.739022619682
 20
1510.237503530759
 30
0.0
 41
50.0
 42
50.0
 43
50.0
 50
180.0
  0
INSERT
  5
835E
330
8357
100
AcDbEntity
  8
3
 62
     0
370
    -2
100
AcDbBlockReference
  2
_OPEN
 10
2820.739022619682
 20
1510.237503530759
 30
0.0
 41
50.0
 42
50.0
 43
50.0
  0
MTEXT
  5
835F
330
8357
100
AcDbEntity
  8
3
 62
     0
100
AcDbMText
 10
2245.739022619682
 20
1572.737503530759
 30
0.0
 40
75.0
 41
0.0
 71
     5
 72
     1
  1
\A1;1150
 73
     1
 44
1.0
1001
ACAD
1000
MTEXTBEGIN
1070
    73
1070
     1
1070
    44
1040
1.0
1070
    74
1070
     0
1000
MTEXTEND
  0
POINT
  5
8360
330
8357
100
AcDbEntity
  8
DEFPOINTS
 62
     0
100
AcDbPoint
 10
1670.739022619682
 20
1672.648447497555
 30
0.0
  0
POINT
  5
8361
330
8357
100
AcDbEntity
  8
DEFPOINTS
 62
     0
100
AcDbPoint
 10
2820.739022619682
 20
1672.648447497555
 30
0.0
  0
POINT
  5
8362
330
8357
100
AcDbEntity
  8
DEFPOINTS
 62
     0
100
AcDbPoint
 10
2820.739022619682
 20
1510.237503530759
 30
0.0
  0
ENDBLK
  5
8359
330
8357
100
AcDbEntity
  8
0
100
AcDbBlockEnd
  0
BLOCK
  5
8365
330
8364
100
AcDbEntity
  8
0
100
AcDbBlockBegin
  2
*D46
 70
     1
 10
0.0
 20
0.0
 30
0.0
  3
*D46
  1

  0
LINE
  5
8394
330
8364
100
AcDbEntity
  8
3
 62
     0
370
    -2
100
AcDbLine
 10
1023.473183814252
 20
2397.648447497556
 30
0.0
 11
843.9228653667901
 21
2397.648447497556
 31
0.0
  0
LINE
  5
8395
330
8364
100
AcDbEntity
  8
3
 62
     0
370
    -2
100
AcDbLine
 10
1195.739022619682
 20
1852.648447497555
 30
0.0
 11
843.9228653667901
 21
1852.648447497555
 31
0.0
  0
LINE
  5
8396
330
8364
100
AcDbEntity
  8
3
 62
     0
370
    -2
100
AcDbLine
 10
868.9228653667901
 20
2347.648447497556
 30
0.0
 11
868.9228653667901
 21
1902.648447497555
 31
0.0
  0
INSERT
  5
8397
330
8364
100
AcDbEntity
  8
3
 62
     0
370
    -2
100
AcDbBlockReference
  2
_OPEN
 10
868.9228653667901
 20
2397.648447497556
 30
0.0
 41
50.0
 42
50.0
 43
50.0
 50
90.0
  0
INSERT
  5
8398
330
8364
100
AcDbEntity
  8
3
 62
     0
370
    -2
100
AcDbBlockReference
  2
_OPEN
 10
868.9228653667901
 20
1852.648447497555
 30
0.0
 41
50.0
 42
50.0
 43
50.0
 50
270.0
  0
MTEXT
  5
8399
330
8364
100
AcDbEntity
  8
3
 62
     0
100
AcDbMText
 10
806.4228653667898
 20
2125.148447497556
 30
0.0
 40
75.0
 41
0.0
 71
     5
 72
     1
  1
\A1;545
 11
0.0000000000000001
 21
1.0
 31
0.0
 73
     1
 44
1.0
1001
ACAD
1000
MTEXTBEGIN
1070
    73
1070
     1
1070
    44
1040
1.0
1070
    74
1070
     0
1000
MTEXTEND
  0
POINT
  5
839A
330
8364
100
AcDbEntity
  8
DEFPOINTS
 62
     0
100
AcDbPoint
 10
1048.473183814252
 20
2397.648447497555
 30
0.0
  0
POINT
  5
839B
330
8364
100
AcDbEntity
  8
DEFPOINTS
 62
     0
100
AcDbPoint
 10
1220.739022619682
 20
1852.648447497555
 30
0.0
  0
POINT
  5
839C
330
8364
100
AcDbEntity
  8
DEFPOINTS
 62
     0
100
AcDbPoint
 10
868.9228653667901
 20
1852.648447497555
 30
0.0
  0
ENDBLK
  5
8366
330
8364
100
AcDbEntity
  8
0
100
AcDbBlockEnd
  0
BLOCK
  5
8372
330
8371
100
AcDbEntity
  8
0
100
AcDbBlockBegin
  2
*D47
 70
     1
 10
0.0
 20
0.0
 30
0.0
  3
*D47
  1

  0
LINE
  5
84A8
330
8371
100
AcDbEntity
  8
3
 62
     0
370
    -2
100
AcDbLine
 10
1195.739022619682
 20
1852.648447497555
 30
0.0
 11
843.9228653667901
 21
1852.648447497555
 31
0.0
  0
LINE
  5
84A9
330
8371
100
AcDbEntity
  8
3
 62
     0
370
    -2
100
AcDbLine
 10
1195.739022619682
 20
1772.648447497555
 30
0.0
 11
843.9228653667901
 21
1772.648447497555
 31
0.0
  0
LINE
  5
84AA
330
8371
100
AcDbEntity
  8
3
 62
     0
370
    -2
100
AcDbLine
 10
868.9228653667901
 20
1902.648447497555
 30
0.0
 11
868.9228653667901
 21
1952.648447497555
 31
0.0
  0
LINE
  5
84AB
330
8371
100
AcDbEntity
  8
3
 62
     0
370
    -2
100
AcDbLine
 10
868.9228653667901
 20
1772.648447497555
 30
0.0
 11
868.9228653667901
 21
1722.648447497555
 31
0.0
  0
LINE
  5
84AC
330
8371
100
AcDbEntity
  8
3
 62
     0
370
    -2
100
AcDbLine
 10
868.9228653667901
 20
1812.648447497555
 30
0.0
 11
749.2800082239331
 21
1848.541304640412
 31
0.0
  0
LINE
  5
84AD
330
8371
100
AcDbEntity
  8
3
 62
     0
370
    -2
100
AcDbLine
 10
749.2800082239331
 20
1848.541304640412
 30
0.0
 11
749.2800082239331
 21
2116.398447497555
 31
0.0
  0
MTEXT
  5
84AE
330
8371
100
AcDbEntity
  8
3
 62
     0
100
AcDbMText
 10
667.1371510810756
 20
1982.469876068984
 30
0.0
 40
75.0
 41
0.0
 71
     5
 72
     1
  1
\A1;(80)
 11
0.0000000000000001
 21
1.0
 31
0.0
 73
     1
 44
1.0
1001
ACAD
1000
MTEXTBEGIN
1070
    73
1070
     1
1070
    44
1040
1.0
1070
    74
1070
     0
1000
MTEXTEND
  0
LINE
  5
84AF
330
8371
100
AcDbEntity
  8
3
 62
     0
370
    -2
100
AcDbLine
 10
868.9228653667901
 20
1852.648447497555
 30
0.0
 11
868.9228653667901
 21
1772.648447497555
 31
0.0
  0
LINE
  5
84B0
330
8371
100
AcDbEntity
  8
3
 62
     0
370
    -2
100
AcDbLine
 10
868.9228653667901
 20
1852.648447497555
 30
0.0
 11
868.9228653667901
 21
1772.648447497555
 31
0.0
  0
INSERT
  5
84B1
330
8371
100
AcDbEntity
  8
3
 62
     0
370
    -2
100
AcDbBlockReference
  2
_OPEN
 10
868.9228653667901
 20
1852.648447497555
 30
0.0
 41
50.0
 42
50.0
 43
50.0
 50
270.0
  0
INSERT
  5
84B2
330
8371
100
AcDbEntity
  8
3
 62
     0
370
    -2
100
AcDbBlockReference
  2
_DotSmall
 10
868.9228653667901
 20
1772.648447497555
 30
0.0
 41
50.0
 42
50.0
 43
50.0
 50
90.0
  0
POINT
  5
84B3
330
8371
100
AcDbEntity
  8
DEFPOINTS
 62
     0
100
AcDbPoint
 10
1220.739022619682
 20
1852.648447497555
 30
0.0
  0
POINT
  5
84B4
330
8371
100
AcDbEntity
  8
DEFPOINTS
 62
     0
100
AcDbPoint
 10
1220.739022619682
 20
1772.648447497555
 30
0.0
  0
POINT
  5
84B5
330
8371
100
AcDbEntity
  8
DEFPOINTS
 62
     0
100
AcDbPoint
 10
868.9228653667901
 20
1772.648447497555
 30
0.0
  0
ENDBLK
  5
8373
330
8371
100
AcDbEntity
  8
0
100
AcDbBlockEnd
  0
BLOCK
  5
8384
330
8383
100
AcDbEntity
  8
0
100
AcDbBlockBegin
  2
*D48
 70
     1
 10
0.0
 20
0.0
 30
0.0
  3
*D48
  1

  0
LINE
  5
8491
330
8383
100
AcDbEntity
  8
3
 62
     0
370
    -2
100
AcDbLine
 10
1195.739022619682
 20
1772.648447497555
 30
0.0
 11
843.9228653667901
 21
1772.648447497555
 31
0.0
  0
LINE
  5
8492
330
8383
100
AcDbEntity
  8
3
 62
     0
370
    -2
100
AcDbLine
 10
1195.739022619682
 20
1672.648447497555
 30
0.0
 11
843.9228653667901
 21
1672.648447497555
 31
0.0
  0
LINE
  5
8493
330
8383
100
AcDbEntity
  8
3
 62
     0
370
    -2
100
AcDbLine
 10
868.9228653667901
 20
1772.648447497555
 30
0.0
 11
868.9228653667901
 21
1722.648447497555
 31
0.0
  0
MTEXT
  5
8494
330
8383
100
AcDbEntity
  8
3
 62
     0
100
AcDbMText
 10
809.7693089462264
 20
1560.886098697712
 30
0.0
 40
75.0
 41
0.0
 71
     5
 72
     1
  1
\A1;100
 11
0.0000000000000001
 21
1.0
 31
0.0
 73
     1
 44
1.0
1001
ACAD
1000
MTEXTBEGIN
1070
    73
1070
     1
1070
    44
1040
1.0
1070
    74
1070
     0
1000
MTEXTEND
  0
INSERT
  5
8495
330
8383
100
AcDbEntity
  8
3
 62
     0
370
    -2
100
AcDbBlockReference
  2
_DotSmall
 10
868.9228653667901
 20
1772.648447497555
 30
0.0
 41
50.0
 42
50.0
 43
50.0
 50
90.0
  0
INSERT
  5
8496
330
8383
100
AcDbEntity
  8
3
 62
     0
370
    -2
100
AcDbBlockReference
  2
_OPEN
 10
868.9228653667901
 20
1672.648447497555
 30
0.0
 41
50.0
 42
50.0
 43
50.0
 50
270.0
  0
POINT
  5
8497
330
8383
100
AcDbEntity
  8
DEFPOINTS
 62
     0
100
AcDbPoint
 10
1220.739022619682
 20
1772.648447497555
 30
0.0
  0
POINT
  5
8498
330
8383
100
AcDbEntity
  8
DEFPOINTS
 62
     0
100
AcDbPoint
 10
1220.739022619682
 20
1672.648447497555
 30
0.0
  0
POINT
  5
8499
330
8383
100
AcDbEntity
  8
DEFPOINTS
 62
     0
100
AcDbPoint
 10
868.9228653667901
 20
1672.648447497555
 30
0.0
  0
ENDBLK
  5
8385
330
8383
100
AcDbEntity
  8
0
100
AcDbBlockEnd
  0
BLOCK
  5
841C
330
841A
100
AcDbEntity
  8
0
100
AcDbBlockBegin
  2
_DotSmall
 70
     0
 10
0.0
 20
0.0
 30
0.0
  3
_DotSmall
  1

  0
LWPOLYLINE
  5
841B
330
841A
100
AcDbEntity
  8
0
  6
ByBlock
 62
     0
100
AcDbPolyline
 90
        2
 70
     1
 43
0.5
 10
-0.0625
 20
0.0
 42
1.0
 10
0.0625
 20
0.0
 42
1.0
  0
ENDBLK
  5
841D
330
841A
100
AcDbEntity
  8
0
100
AcDbBlockEnd
  0
ENDSEC
  0
SECTION
  2
ENTITIES
  0
INSERT
  5
7C36
330
8156
100
AcDbEntity
  8
0
100
AcDbBlockReference
  2
YA_N
 10
6.0
 20
5.0
 30
0.0
  0
LINE
  5
7C42
330
8156
100
AcDbEntity
  8
2
100
AcDbLine
 10
1670.739022619682
 20
1672.648447497555
 30
0.0
 11
1670.739022619682
 21
3227.699731954696
 31
0.0
  0
LINE
  5
7C43
330
8156
100
AcDbEntity
  8
2
100
AcDbLine
 10
1048.473183814252
 20
2397.648447497555
 30
0.0
 11
2345.765500122286
 21
2397.648447497555
 31
0.0
  0
LINE
  5
7C44
330
8156
100
AcDbEntity
  8
1
100
AcDbLine
 10
2367.739022619681
 20
1992.648447497553
 30
0.0
 11
2773.739022619682
 21
1992.648447497553
 31
0.0
  0
LINE
  5
7C45
330
8156
100
AcDbEntity
  8
1
100
AcDbLine
 10
2370.739022619682
 20
1952.648447497555
 30
0.0
 11
2370.739022619682
 21
1992.648447497553
 31
0.0
  0
LINE
  5
7C46
330
8156
100
AcDbEntity
  8
1
100
AcDbLine
 10
1220.739022619682
 20
1672.648447497555
 30
0.0
 11
2820.739022619682
 21
1672.648447497555
 31
0.0
  0
LINE
  5
7C47
330
8156
100
AcDbEntity
  8
1
100
AcDbLine
 10
1220.739022619682
 20
1772.648447497555
 30
0.0
 11
1220.739022619682
 21
1672.648447497555
 31
0.0
  0
LINE
  5
7C48
330
8156
100
AcDbEntity
  8
1
100
AcDbLine
 10
2820.739022619682
 20
1772.648447497555
 30
0.0
 11
2820.739022619682
 21
1672.648447497555
 31
0.0
  0
LINE
  5
7C49
330
8156
100
AcDbEntity
  8
1
100
AcDbLine
 10
1220.739022619682
 20
1772.648447497555
 30
0.0
 11
2820.739022619682
 21
1772.648447497555
 31
0.0
1001
ACAD
1000
ASC_BOUNDS
1002
{
1070
    19
1005
0
1002
}
  0
LINE
  5
7C4A
330
8156
100
AcDbEntity
  8
2
100
AcDbLine
 10
3933.266996014717
 20
1672.648447497555
 30
0.0
 11
3933.266996014717
 21
3333.01515415295
 31
0.0
  0
LINE
  5
7C4B
330
8156
100
AcDbEntity
  8
2
100
AcDbLine
 10
3080.856542651913
 20
2397.648447497555
 30
0.0
 11
4519.54935441003
 21
2397.648447497555
 31
0.0
  0
LINE
  5
7C4C
330
8156
100
AcDbEntity
  8
1
100
AcDbLine
 10
3281.266996014716
 20
1672.648447497555
 30
0.0
 11
4411.266996014715
 21
1672.648447497555
 31
0.0
  0
LINE
  5
7C4D
330
8156
100
AcDbEntity
  8
1
100
AcDbLine
 10
3281.266996014716
 20
1772.648447497555
 30
0.0
 11
4436.266996014714
 21
1772.648447497555
 31
0.0
1001
ACAD
1000
ASC_BOUNDS
1002
{
1070
    19
1002
}
  0
LINE
  5
7C4E
330
8156
100
AcDbEntity
  8
2
100
AcDbLine
 10
1670.739022619682
 20
5305.784185108803
 30
0.0
 11
1670.739022619682
 21
3850.002981244318
 31
0.0
  0
LINE
  5
7C4F
330
8156
100
AcDbEntity
  8
2
100
AcDbLine
 10
2570.739022619682
 20
4691.805113493521
 30
0.0
 11
2570.739022619682
 21
3850.002981244318
 31
0.0
  0
LINE
  5
7C50
330
8156
100
AcDbEntity
  8
2
100
AcDbLine
 10
1073.540825591602
 20
4720.894181494282
 30
0.0
 11
3013.265491564553
 21
4720.894181494285
 31
0.0
  0
LINE
  5
7C51
330
8156
100
AcDbEntity
  8
2
100
AcDbLine
 10
3211.299896816806
 20
2202.648447497554
 30
0.0
 11
3852.988804828707
 21
2202.648447497554
 31
0.0
  0
LINE
  5
7C52
330
8156
100
AcDbEntity
  8
1
100
AcDbLine
 10
4383.266996014715
 20
1952.648447497555
 30
0.0
 11
4383.266996014715
 21
2397.648447497555
 31
0.0
  0
POINT
  5
7C53
330
8156
100
AcDbEntity
  8
1
100
AcDbPoint
 10
1220.739022619682
 20
1672.648447497555
 30
0.0
  0
INSERT
  5
7C55
330
8156
100
AcDbEntity
  8
0
100
AcDbBlockReference
  2
YA_N
 10
-1092.024831295133
 20
-1095.319682135705
 30
0.0
 41
20.0
 42
20.0
 43
20.0
  0
LINE
  5
7C57
330
8156
100
AcDbEntity
  8
1
100
AcDbLine
 10
2724.739022619682
 20
2058.648447497554
 30
0.0
 11
2705.306522619681
 21
2112.038447497555
 31
0.0
  0
LINE
  5
7C58
330
8156
100
AcDbEntity
  8
1
100
AcDbLine
 10
2416.739022619682
 20
2058.648447497554
 30
0.0
 11
2436.171622619682
 21
2112.038447497555
 31
0.0
  0
ARC
  5
7C59
330
8156
100
AcDbEntity
  8
1
100
AcDbCircle
 10
2570.739022619682
 20
2202.648447497554
 30
0.0
 40
162.0
100
AcDbArc
 50
285.6481
 51
0.0
  0
ARC
  5
7C5A
330
8156
100
AcDbEntity
  8
1
100
AcDbCircle
 10
2570.739022619682
 20
2202.648447497554
 30
0.0
 40
162.0
100
AcDbArc
 50
0.0
 51
254.5427
  0
LINE
  5
7C5B
330
8156
100
AcDbEntity
  8
2
100
AcDbLine
 10
2570.739022619682
 20
2451.884447497555
 30
0.0
 11
2570.739022619682
 21
1672.648447497555
 31
0.0
  0
LINE
  5
7C5C
330
8156
100
AcDbEntity
  8
1
100
AcDbLine
 10
2527.058422619682
 20
2046.648447497555
 30
0.0
 11
2614.419722619682
 21
2046.648447497555
 31
0.0
  0
LINE
  5
7C5D
330
8156
100
AcDbEntity
  8
1
100
AcDbLine
 10
2485.795122619681
 20
2064.704447497555
 30
0.0
 11
2477.617722619682
 21
2056.526447497553
 31
0.0
  0
LINE
  5
7C5E
330
8156
100
AcDbEntity
  8
1
100
AcDbLine
 10
2463.525822619682
 20
2060.648447497555
 30
0.0
 11
2418.739022619682
 21
2060.648447497555
 31
0.0
  0
ARC
  5
7C60
330
8156
100
AcDbEntity
  8
1
100
AcDbCircle
 10
2418.739022619682
 20
2058.648447497554
 30
0.0
 40
2.0
100
AcDbArc
 50
90.0
 51
180.0
  0
LINE
  5
7C62
330
8156
100
AcDbEntity
  8
1
100
AcDbLine
 10
2416.739022619682
 20
2042.648447497553
 30
0.0
 11
2416.739022619682
 21
2058.648447497554
 31
0.0
  0
ARC
  5
7C64
330
8156
100
AcDbEntity
  8
1
100
AcDbCircle
 10
2479.739022619682
 20
2054.405447497555
 30
0.0
 40
3.0
100
AcDbArc
 50
135.0
 51
180.0
  0
LINE
  5
7C65
330
8156
100
AcDbEntity
  8
1
100
AcDbLine
 10
2476.739022619682
 20
2042.648447497553
 30
0.0
 11
2476.739022619682
 21
2054.405447497555
 31
0.0
  0
ARC
  5
7C6A
330
8156
100
AcDbEntity
  8
1
100
AcDbCircle
 10
2463.525822619682
 20
2063.648447497555
 30
0.0
 40
3.0
100
AcDbArc
 50
270.0
 51
315.0
  0
LINE
  5
7C6B
330
8156
100
AcDbEntity
  8
1
100
AcDbLine
 10
2475.627822619681
 20
2071.507447497554
 30
0.0
 11
2465.647222619682
 21
2061.526447497553
 31
0.0
  0
LINE
  5
7C6D
330
8156
100
AcDbEntity
  8
1
100
AcDbLine
 10
2677.952222619682
 20
2060.648447497555
 30
0.0
 11
2722.739022619682
 21
2060.648447497555
 31
0.0
  0
LINE
  5
7C6E
330
8156
100
AcDbEntity
  8
1
100
AcDbLine
 10
2655.682922619682
 20
2064.704447497555
 30
0.0
 11
2663.860422619682
 21
2056.526447497553
 31
0.0
  0
ARC
  5
7C6F
330
8156
100
AcDbEntity
  8
1
100
AcDbCircle
 10
2661.739022619682
 20
2054.405447497555
 30
0.0
 40
3.0
100
AcDbArc
 50
0.0
 51
45.0
  0
LINE
  5
7C70
330
8156
100
AcDbEntity
  8
1
100
AcDbLine
 10
2664.739022619682
 20
2042.648447497553
 30
0.0
 11
2664.739022619682
 21
2054.405447497555
 31
0.0
  0
ARC
  5
7C71
330
8156
100
AcDbEntity
  8
1
100
AcDbCircle
 10
2677.952222619682
 20
2063.648447497555
 30
0.0
 40
3.0
100
AcDbArc
 50
225.0
 51
270.0
  0
LINE
  5
7C72
330
8156
100
AcDbEntity
  8
1
100
AcDbLine
 10
2675.941222619682
 20
2061.416447497554
 30
0.0
 11
2665.850222619682
 21
2071.507447497554
 31
0.0
  0
ARC
  5
7C79
330
8156
100
AcDbEntity
  8
1
100
AcDbCircle
 10
2722.739022619682
 20
2058.648447497554
 30
0.0
 40
2.0
100
AcDbArc
 50
0.0
 51
90.0
  0
LINE
  5
7C7A
330
8156
100
AcDbEntity
  8
1
100
AcDbLine
 10
2724.739022619682
 20
2042.648447497553
 30
0.0
 11
2724.739022619682
 21
2058.648447497554
 31
0.0
  0
LINE
  5
7C7B
330
8156
100
AcDbEntity
  8
2
100
AcDbLine
 10
2377.882147720158
 20
2202.648447497554
 30
0.0
 11
2768.497949838352
 21
2202.648447497554
 31
0.0
  0
LINE
  5
7C7C
330
8156
100
AcDbEntity
  8
1
100
AcDbLine
 10
2380.779555249423
 20
2042.648447497553
 30
0.0
 11
2510.739022619683
 21
2042.648447497553
 31
0.0
  0
LINE
  5
7C7D
330
8156
100
AcDbEntity
  8
1
100
AcDbLine
 10
2367.739022619681
 20
1992.648447497553
 30
0.0
 11
2380.779555249423
 21
2042.648447497553
 31
0.0
  0
LINE
  5
7C7E
330
8156
100
AcDbEntity
  8
1
100
AcDbLine
 10
2773.739022619682
 20
1992.648447497553
 30
0.0
 11
2760.357581710749
 21
2042.648447497553
 31
0.0
  0
LINE
  5
7C7F
330
8156
100
AcDbEntity
  8
1
100
AcDbLine
 10
2630.739022619682
 20
2042.648447497553
 30
0.0
 11
2630.739022619682
 21
2037.648447497555
 31
0.0
  0
LINE
  5
7C80
330
8156
100
AcDbEntity
  8
1
100
AcDbLine
 10
2510.739022619683
 20
2042.648447497553
 30
0.0
 11
2510.739022619683
 21
2037.648447497555
 31
0.0
  0
LINE
  5
7C81
330
8156
100
AcDbEntity
  8
1
100
AcDbLine
 10
2510.739022619683
 20
2037.648447497555
 30
0.0
 11
2630.739022619682
 21
2037.648447497555
 31
0.0
  0
LINE
  5
7C83
330
8156
100
AcDbEntity
  8
1
100
AcDbLine
 10
2630.739022619682
 20
2042.648447497553
 30
0.0
 11
2760.357581710749
 21
2042.648447497553
 31
0.0
  0
POINT
  5
7C87
330
8156
100
AcDbEntity
  8
1
100
AcDbPoint
 10
1220.739022619682
 20
1677.648447497555
 30
0.0
  0
POINT
  5
7C88
330
8156
100
AcDbEntity
  8
1
100
AcDbPoint
 10
1220.739022619682
 20
1672.648447497555
 30
0.0
  0
POINT
  5
7C89
330
8156
100
AcDbEntity
  8
1
100
AcDbPoint
 10
1220.739022619682
 20
1677.648447497555
 30
0.0
  0
POINT
  5
7C8A
330
8156
100
AcDbEntity
  8
1
100
AcDbPoint
 10
1220.739022619682
 20
1712.648447497555
 30
0.0
  0
DIMENSION
  5
7C8C
330
8156
100
AcDbEntity
  8
3
100
AcDbDimension
  2
*D4
 10
1021.731638840456
 20
2426.648447497556
 30
0.0
 11
971.731638840456
 21
2791.648447497555
 31
0.0
 12
1052.674667944189
 22
1889.054969276156
 32
0.0
 71
     5
 42
-1.0
  3
Standard
100
AcDbAlignedDimension
 13
1170.739022619682
 23
3156.648447497555
 33
0.0
 14
1170.739022619681
 24
2426.648447497556
 34
0.0
 50
90.0
100
AcDbRotatedDimension
1001
ACAD
1000
DSTYLE
1002
{
1070
    40
1040
25.0
1002
}
  0
DIMENSION
  5
7C8D
330
8156
100
AcDbEntity
  8
3
100
AcDbDimension
  2
*D5
 10
868.9228653667903
 20
2397.648447497555
 30
0.0
 11
818.9228653667903
 21
2777.148447497555
 31
0.0
 12
1052.674667944189
 22
1889.054969276156
 32
0.0
 71
     5
 42
-1.0
  3
Standard
100
AcDbAlignedDimension
 13
1170.739022619682
 23
3156.648447497555
 33
0.0
 14
1048.473183814252
 24
2397.648447497555
 34
0.0
 50
90.0
100
AcDbRotatedDimension
1001
ACAD
1000
DSTYLE
1002
{
1070
    40
1040
25.0
1002
}
  0
LINE
  5
7C8E
330
8156
100
AcDbEntity
  8
1
100
AcDbLine
 10
4386.266996014716
 20
1672.648447497555
 30
0.0
 11
4436.266996014714
 21
1672.648447497555
 31
0.0
  0
POINT
  5
7C8F
330
8156
100
AcDbEntity
  8
1
100
AcDbPoint
 10
1220.739022619682
 20
1677.648447497555
 30
0.0
  0
POINT
  5
7C90
330
8156
100
AcDbEntity
  8
1
100
AcDbPoint
 10
1220.739022619682
 20
1672.648447497555
 30
0.0
  0
POINT
  5
7C91
330
8156
100
AcDbEntity
  8
1
100
AcDbPoint
 10
1220.739022619682
 20
1677.648447497555
 30
0.0
  0
POINT
  5
7C92
330
8156
100
AcDbEntity
  8
1
100
AcDbPoint
 10
1220.739022619682
 20
1712.648447497555
 30
0.0
  0
INSERT
  5
7C93
330
8156
100
AcDbEntity
  8
0
100
AcDbBlockReference
  2
YA_N
 10
-1018.773193578214
 20
-860.9217325598891
 30
0.0
 41
20.0
 42
20.0
 43
20.0
  0
POINT
  5
7C95
330
8156
100
AcDbEntity
  8
1
100
AcDbPoint
 10
1220.739022619682
 20
1772.648447497555
 30
0.0
  0
POINT
  5
7C96
330
8156
100
AcDbEntity
  8
1
100
AcDbPoint
 10
1220.739022619682
 20
1672.648447497555
 30
0.0
  0
POINT
  5
7C97
330
8156
100
AcDbEntity
  8
1
100
AcDbPoint
 10
1220.739022619682
 20
1772.648447497555
 30
0.0
  0
LINE
  5
7C98
330
8156
100
AcDbEntity
  8
1
100
AcDbLine
 10
3483.266996014716
 20
3156.648447497555
 30
0.0
 11
4383.266996014715
 21
3156.648447497555
 31
0.0
  0
LINE
  5
7C99
330
8156
100
AcDbEntity
  8
1
100
AcDbLine
 10
4383.266996014715
 20
2397.648447497555
 30
0.0
 11
4383.266996014715
 21
3156.648447497555
 31
0.0
  0
DIMENSION
  5
7C9B
330
8156
100
AcDbEntity
  8
3
100
AcDbDimension
  2
*D6
 10
1670.739022619682
 20
3349.628979678585
 30
0.0
 11
1420.739022619682
 21
3399.628979678585
 31
0.0
 12
1052.674667944189
 22
1889.054969276156
 32
0.0
 71
     5
 42
-1.0
  3
Standard
100
AcDbAlignedDimension
 13
1170.739022619682
 23
3198.648447497554
 33
0.0
 14
1670.739022619682
 24
3227.699731954696
 34
0.0
100
AcDbRotatedDimension
1001
ACAD
1000
DSTYLE
1002
{
1070
    40
1040
25.0
1002
}
  0
LINE
  5
7C9D
330
8156
100
AcDbEntity
  8
1
100
AcDbLine
 10
3483.266996014716
 20
2397.648447497555
 30
0.0
 11
3483.266996014716
 21
3156.648447497555
 31
0.0
  0
LINE
  5
7C9F
330
8156
100
AcDbEntity
  8
1
100
AcDbLine
 10
4395.766996014715
 20
2262.448447497555
 30
0.0
 11
4395.766996014716
 21
2382.448447497555
 31
0.0
  0
LINE
  5
7CA0
330
8156
100
AcDbEntity
  8
1
100
AcDbLine
 10
4493.266996014714
 20
2272.448447497553
 30
0.0
 11
4493.266996014716
 21
2372.448447497554
 31
0.0
  0
LINE
  5
7CA1
330
8156
100
AcDbEntity
  8
1
100
AcDbLine
 10
4395.766996014716
 20
2382.448447497555
 30
0.0
 11
4435.566996014716
 21
2382.448447497555
 31
0.0
  0
LINE
  5
7CA2
330
8156
100
AcDbEntity
  8
1
100
AcDbLine
 10
4395.766996014715
 20
2262.448447497555
 30
0.0
 11
4435.566996014716
 21
2262.448447497555
 31
0.0
  0
ARC
  5
7CA3
330
8156
100
AcDbEntity
  8
1
100
AcDbCircle
 10
4483.266996014717
 20
2372.448447497555
 30
0.0
 40
10.0
100
AcDbArc
 50
359.9999999999982
 51
90.0
  0
ARC
  5
7CA4
330
8156
100
AcDbEntity
  8
1
100
AcDbCircle
 10
4483.266996014715
 20
2272.448447497555
 30
0.0
 40
10.0
100
AcDbArc
 50
270.0
 51
359.9999999999982
  0
LINE
  5
7CA5
330
8156
100
AcDbEntity
  8
1
100
AcDbLine
 10
4435.566996014716
 20
2262.448447497555
 30
0.0
 11
4483.266996014715
 21
2262.448447497555
 31
0.0
  0
LINE
  5
7CA6
330
8156
100
AcDbEntity
  8
1
100
AcDbLine
 10
4435.566996014716
 20
2382.448447497555
 30
0.0
 11
4483.266996014717
 21
2382.448447497555
 31
0.0
  0
LINE
  5
7CA7
330
8156
100
AcDbEntity
  8
1
100
AcDbLine
 10
2770.739022619682
 20
1952.648447497555
 30
0.0
 11
2770.739022619682
 21
1992.648447497553
 31
0.0
  0
POINT
  5
7CA8
330
8156
100
AcDbEntity
  8
1
100
AcDbPoint
 10
4493.266996014716
 20
2372.448447497554
 30
0.0
  0
LINE
  5
7CA9
330
8156
100
AcDbEntity
  8
1
100
AcDbLine
 10
1220.739022619682
 20
5223.894181494284
 30
0.0
 11
2120.739022619682
 21
5223.894181494284
 31
0.0
  0
LINE
  5
7CAA
330
8156
100
AcDbEntity
  8
1
100
AcDbLine
 10
1220.739022619682
 20
4068.894181494282
 30
0.0
 11
2820.739022619682
 21
4068.894181494284
 31
0.0
  0
LINE
  5
7CAB
330
8156
100
AcDbEntity
  8
1
100
AcDbLine
 10
1220.739022619682
 20
5223.894181494284
 30
0.0
 11
1220.739022619682
 21
5170.894181494284
 31
0.0
  0
LINE
  5
7CAC
330
8156
100
AcDbEntity
  8
1
100
AcDbLine
 10
2120.739022619682
 20
5223.894181494284
 30
0.0
 11
2120.739022619682
 21
5170.894181494285
 31
0.0
  0
LINE
  5
7CAD
330
8156
100
AcDbEntity
  8
1
100
AcDbLine
 10
2820.739022619682
 20
4738.894181494287
 30
0.0
 11
2820.739022619682
 21
4068.894181494285
 31
0.0
  0
LINE
  5
7CAE
330
8156
100
AcDbEntity
  8
1
100
AcDbLine
 10
2282.739022619682
 20
4738.894181494283
 30
0.0
 11
2820.739022619682
 21
4738.894181494287
 31
0.0
  0
POINT
  5
7CB0
330
8156
100
AcDbEntity
  8
1
100
AcDbPoint
 10
1220.739022619682
 20
1772.648447497555
 30
0.0
  0
POINT
  5
7CB1
330
8156
100
AcDbEntity
  8
1
100
AcDbPoint
 10
1220.739022619682
 20
1672.648447497555
 30
0.0
  0
POINT
  5
7CB2
330
8156
100
AcDbEntity
  8
1
100
AcDbPoint
 10
1220.739022619682
 20
1772.648447497555
 30
0.0
  0
LINE
  5
7CB3
330
8156
100
AcDbEntity
  8
1
100
AcDbLine
 10
1220.739022619682
 20
1852.648447497555
 30
0.0
 11
2820.739022619682
 21
1852.648447497555
 31
0.0
1001
ACAD
1000
ASC_BOUNDS
1002
{
1070
    19
1002
}
  0
LINE
  5
7CB4
330
8156
100
AcDbEntity
  8
1
100
AcDbLine
 10
1220.739022619682
 20
1952.648447497555
 30
0.0
 11
2820.739022619682
 21
1952.648447497555
 31
0.0
1001
ACAD
1000
ASC_BOUNDS
1002
{
1070
    19
1005
0
1002
}
  0
LINE
  5
7CB5
330
8156
100
AcDbEntity
  8
1
100
AcDbLine
 10
2820.739022619682
 20
1952.648447497555
 30
0.0
 11
2820.739022619682
 21
1852.648447497555
 31
0.0
  0
LINE
  5
7CB6
330
8156
100
AcDbEntity
  8
1
100
AcDbLine
 10
1220.739022619682
 20
1952.648447497555
 30
0.0
 11
1220.739022619682
 21
1852.648447497555
 31
0.0
  0
POINT
  5
7CB7
330
8156
100
AcDbEntity
  8
1
100
AcDbPoint
 10
1220.739022619682
 20
1952.648447497555
 30
0.0
  0
POINT
  5
7CB8
330
8156
100
AcDbEntity
  8
1
100
AcDbPoint
 10
1220.739022619682
 20
1952.648447497555
 30
0.0
  0
POINT
  5
7CB9
330
8156
100
AcDbEntity
  8
1
100
AcDbPoint
 10
1220.739022619682
 20
1952.648447497555
 30
0.0
  0
POINT
  5
7CBA
330
8156
100
AcDbEntity
  8
1
100
AcDbPoint
 10
1220.739022619682
 20
1952.648447497555
 30
0.0
  0
POINT
  5
7CBD
330
8156
100
AcDbEntity
  8
1
100
AcDbPoint
 10
1220.739022619682
 20
1772.648447497555
 30
0.0
  0
POINT
  5
7CBE
330
8156
100
AcDbEntity
  8
1
100
AcDbPoint
 10
1220.739022619682
 20
1672.648447497555
 30
0.0
  0
POINT
  5
7CBF
330
8156
100
AcDbEntity
  8
1
100
AcDbPoint
 10
1220.739022619682
 20
1772.648447497555
 30
0.0
  0
POINT
  5
7CC0
330
8156
100
AcDbEntity
  8
1
100
AcDbPoint
 10
1220.739022619682
 20
1852.648447497555
 30
0.0
  0
CIRCLE
  5
7CC6
330
8156
100
AcDbEntity
  8
1
100
AcDbCircle
 10
2570.739022619682
 20
2202.648447497554
 30
0.0
 40
79.0
  0
CIRCLE
  5
7CC7
330
8156
100
AcDbEntity
  8
1
100
AcDbCircle
 10
1670.739022619682
 20
2397.648447497555
 30
0.0
 40
203.2
  0
LINE
  5
7CC8
330
8156
100
AcDbEntity
  8
1
100
AcDbLine
 10
1740.158392090735
 20
2588.622768133187
 30
0.0
 11
2597.727852286086
 21
2276.895353650187
 31
0.0
  0
LINE
  5
7CC9
330
8156
100
AcDbEntity
  8
1
100
AcDbLine
 10
1654.888111625678
 20
2195.067627525228
 30
0.0
 11
2564.576512932053
 21
2123.889172016188
 31
0.0
  0
ARC
  5
7CCA
330
8156
100
AcDbEntity
  8
1
100
AcDbCircle
 10
1670.739022619682
 20
2397.648447497555
 30
0.0
 40
280.0
100
AcDbArc
 50
69.65938634983065
 51
265.8903682986978
  0
ARC
  5
7CCB
330
8156
100
AcDbEntity
  8
1
100
AcDbCircle
 10
2570.739022619682
 20
2202.648447497554
 30
0.0
 40
150.0
100
AcDbArc
 50
265.8903682986978
 51
69.65938634983065
  0
LINE
  5
7CCC
330
8156
100
AcDbEntity
  8
1
100
AcDbLine
 10
1768.067128836997
 20
2660.188424910807
 30
0.0
 11
2622.879079521815
 21
2343.294863968941
 31
0.0
  0
LINE
  5
7CCD
330
8156
100
AcDbEntity
  8
1
100
AcDbLine
 10
1650.672789578275
 20
2118.368397562856
 30
0.0
 11
2559.989254918928
 21
2053.034135032536
 31
0.0
  0
INSERT
  5
7CCE
330
8156
100
AcDbEntity
  8
0
100
AcDbBlockReference
  2
YA_N
 10
2545.878788900856
 20
-1567.120050791241
 30
0.0
  0
LINE
  5
7CD0
330
8156
100
AcDbEntity
  8
1
100
AcDbLine
 10
3281.266996014716
 20
1952.648447497555
 30
0.0
 11
4436.266996014714
 21
1952.648447497555
 31
0.0
1001
ACAD
1000
ASC_BOUNDS
1002
{
1070
    19
1002
}
  0
LINE
  5
7CD1
330
8156
100
AcDbEntity
  8
1
100
AcDbLine
 10
3281.266996014716
 20
1672.648447497555
 30
0.0
 11
3281.266996014715
 21
1772.648447497555
 31
0.0
  0
LINE
  5
7CD2
330
8156
100
AcDbEntity
  8
1
100
AcDbLine
 10
3281.266996014716
 20
1852.648447497555
 30
0.0
 11
4436.266996014714
 21
1852.648447497555
 31
0.0
  0
LINE
  5
7CD3
330
8156
100
AcDbEntity
  8
1
100
AcDbLine
 10
4436.266996014715
 20
1672.648447497555
 30
0.0
 11
4436.266996014714
 21
1772.648447497555
 31
0.0
  0
LINE
  5
7CD6
330
8156
100
AcDbEntity
  8
1
100
AcDbLine
 10
3430.966996014713
 20
2374.448447497555
 30
0.0
 11
3390.766996014713
 21
2374.448447497555
 31
0.0
  0
LINE
  5
7CD7
330
8156
100
AcDbEntity
  8
1
100
AcDbLine
 10
3470.766996014714
 20
2364.648447497559
 30
0.0
 11
3470.766996014714
 21
2374.448447497555
 31
0.0
  0
LINE
  5
7CD8
330
8156
100
AcDbEntity
  8
1
100
AcDbLine
 10
3470.766996014714
 20
2374.448447497555
 30
0.0
 11
3430.966996014713
 21
2374.448447497555
 31
0.0
  0
ARC
  5
7CD9
330
8156
100
AcDbEntity
  8
1
100
AcDbCircle
 10
3390.766996014713
 20
2364.448447497555
 30
0.0
 40
10.0
100
AcDbArc
 50
90.0
 51
180.0000000000016
  0
POINT
  5
7CDA
330
8156
100
AcDbEntity
  8
1
100
AcDbPoint
 10
3380.766996014714
 20
2364.448447497554
 30
0.0
  0
LINE
  5
7CDB
330
8156
100
AcDbEntity
  8
1
100
AcDbLine
 10
3353.266996014716
 20
2372.648447497554
 30
0.0
 11
3353.266996014717
 21
2422.648447497555
 31
0.0
  0
LINE
  5
7CDC
330
8156
100
AcDbEntity
  8
1
100
AcDbLine
 10
3353.266996014717
 20
2422.648447497555
 30
0.0
 11
3483.266996014716
 21
2422.648447497554
 31
0.0
  0
LINE
  5
7CDD
330
8156
100
AcDbEntity
  8
1
100
AcDbLine
 10
3353.266996014717
 20
2372.648447497554
 30
0.0
 11
3385.166996014715
 21
2372.648447497554
 31
0.0
  0
LINE
  5
7CDE
330
8156
100
AcDbEntity
  8
1
100
AcDbLine
 10
3329.266996014716
 20
2418.648447497555
 30
0.0
 11
3353.266996014716
 21
2418.648447497555
 31
0.0
  0
LINE
  5
7CDF
330
8156
100
AcDbEntity
  8
1
100
AcDbLine
 10
3329.266996014715
 20
2376.648447497555
 30
0.0
 11
3353.266996014716
 21
2376.648447497555
 31
0.0
  0
LINE
  5
7CE0
330
8156
100
AcDbEntity
  8
1
100
AcDbLine
 10
3329.266996014712
 20
2123.648447497555
 30
0.0
 11
3329.266996014719
 21
2600.848447497555
 31
0.0
  0
LINE
  5
7CE1
330
8156
100
AcDbEntity
  8
1
100
AcDbLine
 10
3228.266996014717
 20
2600.848447497555
 30
0.0
 11
3329.266996014719
 21
2600.848447497555
 31
0.0
  0
LINE
  5
7CE2
330
8156
100
AcDbEntity
  8
1
100
AcDbLine
 10
3228.266996014712
 20
2194.448447497555
 30
0.0
 11
3329.266996014712
 21
2194.448447497555
 31
0.0
  0
LINE
  5
7CE3
330
8156
100
AcDbEntity
  8
1
100
AcDbLine
 10
3228.266996014712
 20
2123.648447497555
 30
0.0
 11
3228.266996014717
 21
2600.848447497556
 31
0.0
  0
LINE
  5
7CE4
330
8156
100
AcDbEntity
  8
1
100
AcDbLine
 10
3228.266996014713
 20
2281.648447497555
 30
0.0
 11
3329.266996014714
 21
2281.648447497555
 31
0.0
  0
LINE
  5
7CE5
330
8156
100
AcDbEntity
  8
1
100
AcDbLine
 10
3228.266996014712
 20
2123.648447497555
 30
0.0
 11
3329.266996014712
 21
2123.648447497555
 31
0.0
  0
LINE
  5
7CE6
330
8156
100
AcDbEntity
  8
1
100
AcDbLine
 10
3093.266996014719
 20
2677.648447497555
 30
0.0
 11
3379.266996014719
 21
2677.648447497555
 31
0.0
  0
LINE
  5
7CE7
330
8156
100
AcDbEntity
  8
1
100
AcDbLine
 10
3093.266996014711
 20
2052.648447497555
 30
0.0
 11
3379.26699601471
 21
2052.648447497555
 31
0.0
  0
LINE
  5
7CE8
330
8156
100
AcDbEntity
  8
1
100
AcDbLine
 10
3379.266996014712
 20
2052.648447497555
 30
0.0
 11
3379.266996014712
 21
2072.648447497555
 31
0.0
  0
LINE
  5
7CE9
330
8156
100
AcDbEntity
  8
1
100
AcDbLine
 10
3093.266996014711
 20
2052.648447497555
 30
0.0
 11
3093.266996014719
 21
2677.648447497555
 31
0.0
  0
LINE
  5
7CEA
330
8156
100
AcDbEntity
  8
1
100
AcDbLine
 10
3379.266996014719
 20
2657.648447497555
 30
0.0
 11
3379.266996014719
 21
2677.648447497555
 31
0.0
  0
DIMENSION
  5
7CEB
330
8156
100
AcDbEntity
  8
3
100
AcDbDimension
  2
*D9
 10
4383.266996014715
 20
3348.462010291761
 30
0.0
 11
3933.266996014715
 21
3398.462010291761
 31
0.0
 12
88.99492208424636
 22
1889.054969276156
 32
0.0
 71
     5
 42
-1.0
  3
Standard
100
AcDbAlignedDimension
 13
3483.266996014716
 23
3156.857337159105
 33
0.0
 14
4383.266996014715
 24
3156.857323422096
 34
0.0
100
AcDbRotatedDimension
1001
ACAD
1000
DSTYLE
1002
{
1070
    40
1040
25.0
1002
}
  0
DIMENSION
  5
7CEF
330
8156
100
AcDbEntity
  8
3
100
AcDbDimension
  2
*D13
 10
4661.049130970137
 20
2772.648447497555
 30
0.0
 11
4611.049130970136
 21
2397.648447497555
 31
0.0
 12
88.99492208424636
 22
1889.054969276156
 32
0.0
  1
\U+03C6<>
 71
     5
 42
-1.0
  3
Standard
100
AcDbAlignedDimension
 13
4385.566996014715
 23
2022.648447497555
 33
0.0
 14
4385.566996014715
 24
2772.648447497555
 34
0.0
 50
90.0
100
AcDbRotatedDimension
1001
ACAD
1000
DSTYLE
1002
{
1070
    40
1040
25.0
1002
}
  0
DIMENSION
  5
7CF1
330
8156
100
AcDbEntity
  8
3
100
AcDbDimension
  2
*D15
 10
3121.609527454771
 20
4738.894181494287
 30
0.0
 11
3071.609527454771
 21
4403.894181494285
 31
0.0
 12
1052.674667944189
 22
1295.360870958946
 32
0.0
 71
     5
 42
-1.0
  3
Standard
100
AcDbAlignedDimension
 13
2820.739022619682
 23
4068.894181494284
 33
0.0
 14
2820.739022619682
 24
4738.894181494287
 34
0.0
 50
270.0
100
AcDbRotatedDimension
1001
ACAD
1000
DSTYLE
1002
{
1070
    40
1040
25.0
1002
}
  0
DIMENSION
  5
7CF2
330
8156
100
AcDbEntity
  8
3
100
AcDbDimension
  2
*D16
 10
1220.739022619682
 20
5525.526235898457
 30
0.0
 11
1670.739022619682
 21
5575.526235898458
 31
0.0
 12
1052.674667944189
 22
1295.360870958946
 32
0.0
 71
     5
 42
-1.0
  3
Standard
100
AcDbAlignedDimension
 13
2120.739022619682
 23
5223.894181494284
 33
0.0
 14
1220.739022619682
 24
5223.894181494284
 34
0.0
100
AcDbRotatedDimension
1001
ACAD
1000
DSTYLE
1002
{
1070
    40
1040
25.0
1002
}
  0
DIMENSION
  5
7CF3
330
8156
100
AcDbEntity
  8
3
100
AcDbDimension
  2
*D17
 10
2120.739022619682
 20
5525.526235898457
 30
0.0
 11
2470.739022619682
 21
5575.526235898458
 31
0.0
 12
1052.674667944189
 22
1295.360870958946
 32
0.0
 71
     5
 42
-1.0
  3
Standard
100
AcDbAlignedDimension
 13
2820.739022619682
 23
4738.894181494287
 33
0.0
 14
2120.739022619682
 24
5223.894181494284
 34
0.0
100
AcDbRotatedDimension
1001
ACAD
1000
DSTYLE
1002
{
1070
    40
1040
25.0
1002
}
  0
DIMENSION
  5
7CF4
330
8156
100
AcDbEntity
  8
3
100
AcDbDimension
  2
*D18
 10
919.3418144784244
 20
5223.894181494284
 30
0.0
 11
869.3418144784246
 21
4646.394181494282
 31
0.0
 12
1052.674667944189
 22
1295.360870958946
 32
0.0
 71
     5
 42
-1.0
  3
Standard
100
AcDbAlignedDimension
 13
1220.739022619682
 23
4068.894181494282
 33
0.0
 14
1220.739022619682
 24
5223.894181494284
 34
0.0
 50
270.0
100
AcDbRotatedDimension
1001
ACAD
1000
DSTYLE
1002
{
1070
    40
1040
25.0
1002
}
  0
LINE
  5
7CF5
330
8156
100
AcDbEntity
  8
1
100
AcDbLine
 10
3281.266996014715
 20
1852.648447497555
 30
0.0
 11
3281.266996014716
 21
1952.648447497555
 31
0.0
  0
DIMENSION
  5
7CF9
330
8156
100
AcDbEntity
  8
3
100
AcDbDimension
  2
*D21
 10
2820.739022619682
 20
3518.414466553581
 30
0.0
 11
1995.739022619681
 21
3568.41446655358
 31
0.0
 12
1052.674667944189
 22
1889.054969276156
 32
0.0
 71
     5
 42
-1.0
  3
Standard
100
AcDbAlignedDimension
 13
1170.739022619682
 23
3198.648447497554
 33
0.0
 14
2820.739022619682
 24
1952.648447497555
 34
0.0
100
AcDbRotatedDimension
1001
ACAD
1000
DSTYLE
1002
{
1070
    40
1040
25.0
1002
}
  0
LINE
  5
7CFA
330
8156
100
AcDbEntity
  8
1
100
AcDbLine
 10
1390.739022619682
 20
3880.894181494284
 30
0.0
 11
1390.739022619682
 21
4165.894181494286
 31
0.0
  0
LINE
  5
7CFB
330
8156
100
AcDbEntity
  8
1
100
AcDbLine
 10
2720.739022619682
 20
3880.894181494284
 30
0.0
 11
2720.739022619682
 21
4165.894181494286
 31
0.0
  0
LINE
  5
7CFC
330
8156
100
AcDbEntity
  8
1
100
AcDbLine
 10
1467.539022619681
 20
4015.894181494284
 30
0.0
 11
1467.539022619681
 21
4115.894181494286
 31
0.0
  0
LINE
  5
7CFD
330
8156
100
AcDbEntity
  8
1
100
AcDbLine
 10
1873.939022619682
 20
4015.894181494284
 30
0.0
 11
1873.939022619682
 21
4115.894181494286
 31
0.0
  0
LINE
  5
7CFE
330
8156
100
AcDbEntity
  8
1
100
AcDbLine
 10
2491.739022619682
 20
4015.894181494284
 30
0.0
 11
2491.739022619682
 21
4115.894181494286
 31
0.0
  0
LINE
  5
7CFF
330
8156
100
AcDbEntity
  8
1
100
AcDbLine
 10
2649.739022619682
 20
4015.894181494284
 30
0.0
 11
2649.739022619682
 21
4115.894181494286
 31
0.0
  0
LINE
  5
7D00
330
8156
100
AcDbEntity
  8
1
100
AcDbLine
 10
1390.739022619682
 20
3880.894181494284
 30
0.0
 11
2720.739022619682
 21
3880.894181494284
 31
0.0
  0
LINE
  5
7D01
330
8156
100
AcDbEntity
  8
1
100
AcDbLine
 10
1390.739022619681
 20
4165.894181494286
 30
0.0
 11
2720.739022619682
 21
4165.894181494286
 31
0.0
  0
LINE
  5
7D02
330
8156
100
AcDbEntity
  8
1
100
AcDbLine
 10
1467.539022619681
 20
4115.894181494286
 30
0.0
 11
1873.939022619682
 21
4115.894181494286
 31
0.0
  0
LINE
  5
7D03
330
8156
100
AcDbEntity
  8
1
100
AcDbLine
 10
1467.539022619681
 20
4015.894181494284
 30
0.0
 11
1873.939022619682
 21
4015.894181494284
 31
0.0
  0
LINE
  5
7D04
330
8156
100
AcDbEntity
  8
1
100
AcDbLine
 10
2491.739022619682
 20
4115.894181494286
 30
0.0
 11
2649.739022619682
 21
4115.894181494286
 31
0.0
  0
LINE
  5
7D05
330
8156
100
AcDbEntity
  8
1
100
AcDbLine
 10
2491.739022619682
 20
4015.894181494284
 30
0.0
 11
2649.739022619682
 21
4015.894181494284
 31
0.0
  0
LINE
  5
7D06
330
8156
100
AcDbEntity
  8
1
100
AcDbLine
 10
1170.739022619682
 20
4270.894181494282
 30
0.0
 11
2282.739022619682
 21
4270.894181494283
 31
0.0
  0
LINE
  5
7D07
330
8156
100
AcDbEntity
  8
1
100
AcDbLine
 10
1170.739022619682
 20
5170.894181494284
 30
0.0
 11
2282.739022619682
 21
5170.894181494285
 31
0.0
  0
LINE
  5
7D08
330
8156
100
AcDbEntity
  8
1
100
AcDbLine
 10
1170.739022619682
 20
5210.894181494284
 30
0.0
 11
1170.739022619682
 21
4230.894181494281
 31
0.0
  0
LINE
  5
7D09
330
8156
100
AcDbEntity
  8
1
100
AcDbLine
 10
2282.739022619682
 20
5170.894181494285
 30
0.0
 11
2282.739022619682
 21
4270.894181494283
 31
0.0
  0
LINE
  5
7D0A
330
8156
100
AcDbEntity
  8
1
100
AcDbLine
 10
1170.739022619682
 20
5210.894181494284
 30
0.0
 11
1173.739022619682
 21
5210.894181494284
 31
0.0
  0
LINE
  5
7D0B
330
8156
100
AcDbEntity
  8
1
100
AcDbLine
 10
1170.739022619682
 20
4230.894181494281
 30
0.0
 11
1173.739022619682
 21
4230.894181494281
 31
0.0
  0
LINE
  5
7D0C
330
8156
100
AcDbEntity
  8
1
100
AcDbLine
 10
1173.739022619682
 20
5210.894181494284
 30
0.0
 11
1173.739022619682
 21
4230.894181494281
 31
0.0
  0
LINE
  5
7D0D
330
8156
100
AcDbEntity
  8
1
100
AcDbLine
 10
1645.739022619682
 20
4270.894181494282
 30
0.0
 11
1645.739022619682
 21
4115.894181494286
 31
0.0
  0
LINE
  5
7D0E
330
8156
100
AcDbEntity
  8
1
100
AcDbLine
 10
1695.739022619681
 20
4270.894181494283
 30
0.0
 11
1695.739022619681
 21
4115.894181494286
 31
0.0
  0
LINE
  5
7D12
330
8156
100
AcDbEntity
  8
1
100
AcDbLine
 10
2408.739022619682
 20
4133.894181494286
 30
0.0
 11
2408.739022619682
 21
4618.894181494283
 31
0.0
  0
LINE
  5
7D13
330
8156
100
AcDbEntity
  8
1
100
AcDbLine
 10
2732.739022619683
 20
4133.894181494286
 30
0.0
 11
2732.739022619683
 21
4618.894181494283
 31
0.0
  0
LINE
  5
7D14
330
8156
100
AcDbEntity
  8
1
100
AcDbLine
 10
2408.739022619682
 20
4618.894181494283
 30
0.0
 11
2732.739022619683
 21
4618.894181494283
 31
0.0
  0
LINE
  5
7D15
330
8156
100
AcDbEntity
  8
1
100
AcDbLine
 10
2408.739022619682
 20
4133.894181494286
 30
0.0
 11
2732.739022619683
 21
4133.894181494286
 31
0.0
  0
LINE
  5
7D16
330
8156
100
AcDbEntity
  8
1
100
AcDbLine
 10
2549.739022619682
 20
4133.894181494286
 30
0.0
 11
2549.739022619682
 21
4115.894181494286
 31
0.0
  0
LINE
  5
7D17
330
8156
100
AcDbEntity
  8
1
100
AcDbLine
 10
2591.739022619683
 20
4133.894181494286
 30
0.0
 11
2591.739022619683
 21
4115.894181494286
 31
0.0
  0
LINE
  5
7D18
330
8156
100
AcDbEntity
  8
1
100
AcDbLine
 10
3347.266996014713
 20
2364.648447497559
 30
0.0
 11
3832.266996014713
 21
2364.648447497559
 31
0.0
  0
LINE
  5
7D19
330
8156
100
AcDbEntity
  8
1
100
AcDbLine
 10
3347.266996014713
 20
2040.648447497558
 30
0.0
 11
3832.266996014712
 21
2040.648447497558
 31
0.0
  0
LINE
  5
7D1A
330
8156
100
AcDbEntity
  8
1
100
AcDbLine
 10
3347.266996014713
 20
2040.648447497558
 30
0.0
 11
3347.266996014713
 21
2364.648447497559
 31
0.0
  0
LINE
  5
7D1B
330
8156
100
AcDbEntity
  8
1
100
AcDbLine
 10
3347.266996014712
 20
2181.648447497557
 30
0.0
 11
3329.266996014712
 21
2181.648447497557
 31
0.0
  0
LINE
  5
7D1C
330
8156
100
AcDbEntity
  8
1
100
AcDbLine
 10
3347.266996014712
 20
2223.648447497557
 30
0.0
 11
3329.266996014712
 21
2223.648447497557
 31
0.0
  0
LINE
  5
7D1D
330
8156
100
AcDbEntity
  8
1
100
AcDbLine
 10
3470.766996014714
 20
2364.648447497559
 30
0.0
 11
3483.266996014715
 21
2364.648447497559
 31
0.0
  0
LINE
  5
7D24
330
8156
100
AcDbEntity
  8
1
100
AcDbLine
 10
4436.266996014714
 20
1852.648447497555
 30
0.0
 11
4436.266996014714
 21
1952.648447497555
 31
0.0
  0
LINE
  5
7D25
330
8156
100
AcDbEntity
  8
1
100
AcDbLine
 10
1220.739022619682
 20
4270.894181494282
 30
0.0
 11
1220.739022619682
 21
4068.894181494284
 31
0.0
  0
LINE
  5
7D26
330
8156
100
AcDbEntity
  8
1
100
AcDbLine
 10
3832.266996014712
 20
2040.648447497558
 30
0.0
 11
3832.266996014712
 21
2364.648447497559
 31
0.0
  0
LINE
  5
7D27
330
8156
100
AcDbEntity
  8
1
100
AcDbLine
 10
3483.266996014716
 20
2364.648447497559
 30
0.0
 11
3483.266996014716
 21
2397.648447497555
 31
0.0
  0
LINE
  5
7D28
330
8156
100
AcDbEntity
  8
1
100
AcDbLine
 10
3413.875671079507
 20
1992.648447497553
 30
0.0
 11
3757.863845874028
 21
1992.648447497553
 31
0.0
  0
LINE
  5
7D29
330
8156
100
AcDbEntity
  8
1
100
AcDbLine
 10
3757.863845874028
 20
2040.648447497558
 30
0.0
 11
3757.863845874028
 21
1952.648447497555
 31
0.0
  0
LINE
  5
7D2A
330
8156
100
AcDbEntity
  8
1
100
AcDbLine
 10
3413.875671079505
 20
2040.648447497558
 30
0.0
 11
3413.875671079505
 21
1952.648447497555
 31
0.0
  0
LINE
  5
7F66
330
8156
100
AcDbEntity
  8
4
100
AcDbLine
 10
4625.0
 20
1250.0
 30
0.0
 11
4625.0
 21
750.0
 31
0.0
  0
LINE
  5
7F67
330
8156
100
AcDbEntity
  8
4
100
AcDbLine
 10
2875.0
 20
1250.0
 30
0.0
 11
2875.0
 21
750.0
 31
0.0
  0
LINE
  5
7F68
330
8156
100
AcDbEntity
  8
4
100
AcDbLine
 10
1625.0
 20
1250.0
 30
0.0
 11
1625.0
 21
750.0
 31
0.0
  0
LINE
  5
7F6B
330
8156
100
AcDbEntity
  8
4
100
AcDbLine
 10
1625.0
 20
750.0
 30
0.0
 11
4625.0
 21
750.0
 31
0.0
  0
LINE
  5
7F6C
330
8156
100
AcDbEntity
  8
4
100
AcDbLine
 10
1625.0
 20
1000.0
 30
0.0
 11
4625.0
 21
1000.0
 31
0.0
  0
TEXT
  5
7F6D
330
8156
100
AcDbEntity
  8
4
100
AcDbText
 10
1721.255202117253
 20
1078.857564666532
 30
0.0
 40
125.0
  1
機器名称
100
AcDbText
  0
TEXT
  5
7F6E
330
8156
100
AcDbEntity
  8
4
100
AcDbText
 10
1715.645265061993
 20
804.1128918300273
 30
0.0
 40
125.0
  1
機器型番
100
AcDbText
  0
TEXT
  5
7F6F
330
8156
100
AcDbEntity
  8
4
100
AcDbText
 10
2944.196863719162
 20
1056.429422393921
 30
0.0
 40
125.0
  1
ミツヤ多翼送風機
100
AcDbText
  0
TEXT
  5
7F70
330
8156
100
AcDbEntity
  8
4
100
AcDbText
 10
2966.636238963701
 20
792.8989606998584
 30
0.0
 40
125.0
  1
MF#4 1/2-5
100
AcDbText
  0
TEXT
  5
7F72
330
8156
100
AcDbEntity
  8
4
100
AcDbText
 10
1958.339281192402
 20
5958.572103331289
 30
0.0
 40
135.0
  1
床置防振ベット
100
AcDbText
  0
TEXT
  5
7F73
330
8156
100
AcDbEntity
  8
4
100
AcDbText
 10
790.4189833236158
 20
6334.702440498245
 30
0.0
 40
180.0
  1
遠心式両吸込両持多翼ファン
100
AcDbText
  0
LINE
  5
7F74
330
8156
100
AcDbEntity
  8
4
100
AcDbLine
 10
625.0
 20
6173.521885662012
 30
0.0
 11
4625.0
 21
6173.521885662012
 31
0.0
  0
LINE
  5
7F75
330
8156
100
AcDbEntity
  8
4
100
AcDbLine
 10
625.0
 20
6673.521885662011
 30
0.0
 11
4625.0
 21
6673.521885662011
 31
0.0
  0
LINE
  5
7F76
330
8156
100
AcDbEntity
  8
4
100
AcDbLine
 10
1625.0
 20
1250.0
 30
0.0
 11
4625.0
 21
1250.0
 31
0.0
  0
LINE
  5
7F77
330
8156
100
AcDbEntity
  8
4
100
AcDbLine
 10
625.0
 20
6673.521885662011
 30
0.0
 11
625.0
 21
6173.521885662012
 31
0.0
  0
TEXT
  5
7F78
330
8156
100
AcDbEntity
  8
4
100
AcDbText
 10
868.6922005856468
 20
5955.798693865858
 30
0.0
 40
135.0
  1
左回転左横向
100
AcDbText
  0
TEXT
  5
7F79
330
8156
100
AcDbEntity
  8
4
100
AcDbText
 10
3672.423898123224
 20
6765.15270373827
 30
0.0
 40
140.0
  1
No.
100
AcDbText
  0
TEXT
  5
7F7A
330
8156
100
AcDbEntity
  8
4
100
AcDbText
 10
3278.240156500032
 20
5958.572103331289
 30
0.0
 40
135.0
  1
縮尺：1/25
100
AcDbText
  0
LINE
  5
7F7B
330
8156
100
AcDbEntity
  8
4
100
AcDbLine
 10
4625.0
 20
6673.521885662011
 30
0.0
 11
4625.0
 21
6173.521885662012
 31
0.0
  0
LINE
  5
7F7C
330
8156
100
AcDbEntity
  8
4
100
AcDbLine
 10
5250.0
 20
7375.0
 30
0.0
 11
5250.0
 21
7375.0
 31
0.0
  0
LINE
  5
7F7D
330
8156
100
AcDbEntity
  8
4
100
AcDbLine
 10
3601.543555899662
 20
6703.158957813504
 30
0.0
 11
3601.543555899662
 21
6966.630653874381
 31
0.0
  0
LINE
  5
7F7E
330
8156
100
AcDbEntity
  8
4
100
AcDbLine
 10
3601.543555899662
 20
6966.630653874381
 30
0.0
 11
4625.0
 21
6966.630653874381
 31
0.0
  0
LINE
  5
7F7F
330
8156
100
AcDbEntity
  8
4
100
AcDbLine
 10
4625.0
 20
6966.630653874381
 30
0.0
 11
4625.0
 21
6703.158957813504
 31
0.0
  0
LINE
  5
7F80
330
8156
100
AcDbEntity
  8
4
100
AcDbLine
 10
4625.0
 20
6703.158957813504
 30
0.0
 11
3601.543555899662
 21
6703.158957813504
 31
0.0
  0
LINE
  5
7F81
330
8156
100
AcDbEntity
  8
4
100
AcDbLine
 10
0.0
 20
0.0
 30
0.0
 11
0.0
 21
7375.0
 31
0.0
  0
LINE
  5
7F82
330
8156
100
AcDbEntity
  8
4
100
AcDbLine
 10
0.0
 20
7375.0
 30
0.0
 11
5250.0
 21
7375.0
 31
0.0
  0
LINE
  5
7F83
330
8156
100
AcDbEntity
  8
4
100
AcDbLine
 10
5250.0
 20
7375.0
 30
0.0
 11
5250.0
 21
0.0
 31
0.0
  0
LINE
  5
7F84
330
8156
100
AcDbEntity
  8
4
100
AcDbLine
 10
5250.0
 20
0.0
 30
0.0
 11
0.0
 21
0.0
 31
0.0
  0
LINE
  5
81BF
330
8156
100
AcDbEntity
  8
1
100
AcDbLine
 10
1170.739022619682
 20
3156.648447497556
 30
0.0
 11
1700.648259775624
 21
3093.322593853404
 31
0.0
  0
ARC
  5
81C0
330
8156
100
AcDbEntity
  8
1
100
AcDbCircle
 10
1617.73902261968
 20
2450.648447497555
 30
0.0
 40
648.0
100
AcDbArc
 50
0.0
 51
82.64906398246978
  0
ARC
  5
81C1
330
8156
100
AcDbEntity
  8
1
100
AcDbCircle
 10
1723.73902261968
 20
2450.648447497555
 30
0.0
 40
541.9999999999998
100
AcDbArc
 50
293.245938743557
 51
0.0
  0
ARC
  5
81C2
330
8156
100
AcDbEntity
  8
1
100
AcDbCircle
 10
1711.73902261968
 20
2356.648447497555
 30
0.0
 40
448.0
100
AcDbArc
 50
180.0
 51
244.3937932836091
  0
ARC
  5
81C3
330
8156
100
AcDbEntity
  8
1
100
AcDbCircle
 10
1629.73902261968
 20
2356.648447497555
 30
0.0
 40
366.0
100
AcDbArc
 50
168.973859518714
 51
180.0
  0
LINE
  5
81C4
330
8156
100
AcDbEntity
  8
1
100
AcDbLine
 10
1170.73902261968
 20
2426.648447497556
 30
0.0
 11
1270.495372710597
 21
2426.648447497556
 31
0.0
  0
LINE
  5
81C5
330
8156
100
AcDbEntity
  8
1
100
AcDbLine
 10
1170.739022619682
 20
3198.648447497555
 30
0.0
 11
1170.73902261968
 21
2384.648447497555
 31
0.0
  0
LINE
  5
81C6
330
8156
100
AcDbEntity
  8
1
100
AcDbLine
 10
1170.739022619682
 20
3198.648447497555
 30
0.0
 11
1173.739022619682
 21
3198.648447497555
 31
0.0
  0
LINE
  5
81C7
330
8156
100
AcDbEntity
  8
1
100
AcDbLine
 10
1170.73902261968
 20
2384.648447497555
 30
0.0
 11
1173.739022619682
 21
2384.648447497555
 31
0.0
  0
LINE
  5
81C8
330
8156
100
AcDbEntity
  8
1
100
AcDbLine
 10
1210.739022619682
 20
3153.199215924951
 30
0.0
 11
1210.739022619682
 21
2426.648447497556
 31
0.0
  0
LINE
  5
81C9
330
8156
100
AcDbEntity
  8
1
100
AcDbLine
 10
1173.739022619682
 20
3198.648447497555
 30
0.0
 11
1173.739022619682
 21
2384.648447497555
 31
0.0
  0
POINT
  5
81CA
330
8156
100
AcDbEntity
  8
1
100
AcDbPoint
 10
1210.556450155231
 20
2397.648447497555
 30
0.0
  0
LINE
  5
81CB
330
8156
100
AcDbEntity
  8
1
100
AcDbLine
 10
1167.257216987189
 20
2397.648447497555
 30
0.0
 11
1151.583911570873
 21
2397.648447497555
 31
0.0
  0
CIRCLE
  5
81CC
330
8156
100
AcDbEntity
  8
1
100
AcDbCircle
 10
1670.739022619682
 20
2397.648447497555
 30
0.0
 40
375.0
  0
CIRCLE
  5
81CD
330
8156
100
AcDbEntity
  8
1
100
AcDbCircle
 10
1670.739022619682
 20
2397.648447497555
 30
0.0
 40
415.0
  0
DIMENSION
  5
8226
330
8156
100
AcDbEntity
  8
3
100
AcDbDimension
  2
*D30
 10
3933.266996014717
 20
3495.10307755366
 30
0.0
 11
3513.266996014718
 21
3577.245934696518
 31
0.0
 70
    32
  1
(<>)
 71
     5
 42
839.9999999999977
  3
IGA
100
AcDbAlignedDimension
 13
3093.266996014719
 23
2677.648447497555
 33
0.0
 14
3933.266996014717
 24
3435.962010291761
 34
0.0
100
AcDbRotatedDimension
1001
ACAD
1000
DSTYLE
1002
{
1070
    40
1040
25.0
1070
    42
1040
1.0
1070
   143
1040
0.039
1070
   172
1070
     1
1070
   271
1070
     4
1070
   272
1070
     4
1070
   279
1070
     0
1070
   284
1070
     0
1070
   285
1070
     0
1070
   286
1070
     0
1070
   341
1005
816A
1070
   343
1005
816A
1070
   344
1005
816A
1002
}
  0
DIMENSION
  5
8233
330
8156
100
AcDbEntity
  8
3
100
AcDbDimension
  2
*D31
 10
4493.266996014716
 20
3495.10307755366
 30
0.0
 11
4213.266996014715
 21
3577.245934696518
 31
0.0
 70
    32
  1
(<>)
 71
     5
 42
559.999999999999
  3
IGA
100
AcDbAlignedDimension
 13
3933.266996014717
 23
3435.962010291761
 33
0.0
 14
4493.266996014716
 24
2372.448447497554
 34
0.0
100
AcDbRotatedDimension
1001
ACAD
1000
DSTYLE
1002
{
1070
    40
1040
25.0
1070
    42
1040
1.0
1070
   143
1040
0.039
1070
   172
1070
     1
1070
   271
1070
     4
1070
   272
1070
     4
1070
   279
1070
     1
1070
   284
1070
     0
1070
   285
1070
     0
1070
   286
1070
     0
1070
   341
1005
816A
1070
   343
1005
816A
1070
   344
1005
816A
1002
}
  0
DIMENSION
  5
8294
330
8156
100
AcDbEntity
  8
3
100
AcDbDimension
  2
*D32
 10
2820.739022619682
 20
3723.907594401993
 30
0.0
 11
2020.739022619682
 21
3786.407594401993
 31
0.0
 70
    32
 71
     5
 42
1600.0
  3
IGA
100
AcDbAlignedDimension
 13
1220.739022619682
 23
4068.894181494282
 33
0.0
 14
2820.739022619682
 24
4068.894181494285
 34
0.0
100
AcDbRotatedDimension
1001
ACAD
1000
DSTYLE
1002
{
1070
    40
1040
25.0
1070
    42
1040
1.0
1070
   143
1040
0.039
1070
   172
1070
     1
1070
   271
1070
     4
1070
   272
1070
     4
1070
   279
1070
     0
1070
   284
1070
     0
1070
   285
1070
     0
1070
   286
1070
     0
1070
   341
1005
816A
1070
   343
1005
816A
1070
   344
1005
816A
1002
}
  0
DIMENSION
  5
82A1
330
8156
100
AcDbEntity
  8
3
100
AcDbDimension
  2
*D33
 10
2265.73902261968
 20
3349.628979678586
 30
0.0
 11
1968.239022619681
 21
3412.128979678586
 31
0.0
 70
    32
 71
     5
 42
594.9999999999984
  3
IGA
100
AcDbAlignedDimension
 13
1670.739022619682
 23
3227.699731954696
 33
0.0
 14
2265.73902261968
 24
2450.648447497555
 34
0.0
100
AcDbRotatedDimension
1001
ACAD
1000
DSTYLE
1002
{
1070
    40
1040
25.0
1070
    42
1040
1.0
1070
   143
1040
0.039
1070
   172
1070
     1
1070
   271
1070
     4
1070
   272
1070
     4
1070
   279
1070
     0
1070
   284
1070
     0
1070
   285
1070
     0
1070
   286
1070
     0
1070
   341
1005
816A
1070
   343
1005
816A
1070
   344
1005
816A
1002
}
  0
DIMENSION
  5
8310
330
8156
100
AcDbEntity
  8
3
100
AcDbDimension
  2
*D41
 10
575.4815720644473
 20
1672.648447497555
 30
0.0
 11
493.3387149215901
 21
2414.648447497556
 31
0.0
 70
    32
  1
(<>)
 71
     5
 42
1484.000000000001
  3
IGA
100
AcDbAlignedDimension
 13
1170.739022619682
 23
3156.648447497556
 33
0.0
 14
1220.739022619682
 24
1672.648447497555
 34
0.0
 50
90.0
100
AcDbRotatedDimension
1001
ACAD
1000
DSTYLE
1002
{
1070
    40
1040
25.0
1070
    42
1040
1.0
1070
   143
1040
0.039
1070
   172
1070
     1
1070
   271
1070
     4
1070
   272
1070
     4
1070
   279
1070
     0
1070
   284
1070
     0
1070
   285
1070
     0
1070
   286
1070
     0
1070
   341
1005
816A
1070
   343
1005
816A
1070
   344
1005
816A
1002
}
  0
DIMENSION
  5
832F
330
8156
100
AcDbEntity
  8
3
100
AcDbDimension
  2
*D42
 10
3933.266996014717
 20
1505.562343992784
 30
0.0
 11
4184.766996014715
 21
1568.062343992784
 31
0.0
 70
    32
 71
     5
 42
502.9999999999986
  3
IGA
100
AcDbAlignedDimension
 13
4436.266996014714
 23
1672.648447497555
 33
0.0
 14
3933.266996014717
 24
1672.648447497555
 34
0.0
100
AcDbRotatedDimension
1001
ACAD
1000
DSTYLE
1002
{
1070
    40
1040
25.0
1070
    42
1040
1.0
1070
   143
1040
0.039
1070
   172
1070
     1
1070
   271
1070
     4
1070
   272
1070
     4
1070
   279
1070
     0
1070
   284
1070
     0
1070
   285
1070
     0
1070
   286
1070
     0
1070
   341
1005
816A
1070
   343
1005
816A
1070
   344
1005
816A
1002
}
  0
DIMENSION
  5
833C
330
8156
100
AcDbEntity
  8
3
100
AcDbDimension
  2
*D43
 10
3281.266996014716
 20
1505.562343992784
 30
0.0
 11
3607.266996014717
 21
1568.062343992784
 31
0.0
 70
    32
 71
     5
 42
652.0
  3
IGA
100
AcDbAlignedDimension
 13
3933.266996014717
 23
1672.648447497555
 33
0.0
 14
3281.266996014716
 24
1672.648447497555
 34
0.0
100
AcDbRotatedDimension
1001
ACAD
1000
DSTYLE
1002
{
1070
    40
1040
25.0
1070
    42
1040
1.0
1070
   143
1040
0.039
1070
   172
1070
     1
1070
   271
1070
     4
1070
   272
1070
     4
1070
   279
1070
     1
1070
   284
1070
     0
1070
   285
1070
     0
1070
   286
1070
     0
1070
   341
1005
816A
1070
   343
1005
816A
1070
   344
1005
816A
1002
}
  0
DIMENSION
  5
8349
330
8156
100
AcDbEntity
  8
3
100
AcDbDimension
  2
*D44
 10
1670.739022619682
 20
1510.237503530759
 30
0.0
 11
1445.739022619682
 21
1572.737503530759
 31
0.0
 70
    32
 71
     5
 42
450.0
  3
IGA
100
AcDbAlignedDimension
 13
1220.739022619682
 23
1672.648447497555
 33
0.0
 14
1670.739022619682
 24
1672.648447497555
 34
0.0
100
AcDbRotatedDimension
1001
ACAD
1000
DSTYLE
1002
{
1070
    40
1040
25.0
1070
    42
1040
1.0
1070
   143
1040
0.039
1070
   172
1070
     1
1070
   271
1070
     4
1070
   272
1070
     4
1070
   279
1070
     0
1070
   284
1070
     0
1070
   285
1070
     0
1070
   286
1070
     0
1070
   341
1005
816A
1070
   343
1005
816A
1070
   344
1005
816A
1002
}
  0
DIMENSION
  5
8356
330
8156
100
AcDbEntity
  8
3
100
AcDbDimension
  2
*D45
 10
2820.739022619682
 20
1510.237503530759
 30
0.0
 11
2245.739022619682
 21
1572.737503530759
 31
0.0
 70
    32
 71
     5
 42
1150.0
  3
IGA
100
AcDbAlignedDimension
 13
1670.739022619682
 23
1672.648447497555
 33
0.0
 14
2820.739022619682
 24
1672.648447497555
 34
0.0
100
AcDbRotatedDimension
1001
ACAD
1000
DSTYLE
1002
{
1070
    40
1040
25.0
1070
    42
1040
1.0
1070
   143
1040
0.039
1070
   172
1070
     1
1070
   271
1070
     4
1070
   272
1070
     4
1070
   279
1070
     1
1070
   284
1070
     0
1070
   285
1070
     0
1070
   286
1070
     0
1070
   341
1005
816A
1070
   343
1005
816A
1070
   344
1005
816A
1002
}
  0
DIMENSION
  5
8363
330
8156
100
AcDbEntity
  8
3
100
AcDbDimension
  2
*D46
 10
868.9228653667901
 20
1852.648447497555
 30
0.0
 11
806.4228653667898
 21
2125.148447497556
 31
0.0
 70
    32
 71
     5
 42
545.0000000000001
  3
IGA
100
AcDbAlignedDimension
 13
1048.473183814252
 23
2397.648447497555
 33
0.0
 14
1220.739022619682
 24
1852.648447497555
 34
0.0
 50
90.0
100
AcDbRotatedDimension
1001
ACAD
1000
DSTYLE
1002
{
1070
    40
1040
25.0
1070
    42
1040
1.0
1070
   143
1040
0.039
1070
   172
1070
     1
1070
   271
1070
     4
1070
   272
1070
     4
1070
   279
1070
     0
1070
   284
1070
     0
1070
   285
1070
     0
1070
   286
1070
     0
1070
   341
1005
816A
1070
   343
1005
816A
1070
   344
1005
816A
1002
}
  0
DIMENSION
  5
8370
330
8156
100
AcDbEntity
  8
3
100
AcDbDimension
  2
*D47
 10
868.9228653667901
 20
1772.648447497555
 30
0.0
 11
667.1371510810756
 21
1873.541304640412
 31
0.0
 70
    32
  1
(<>)
 71
     5
 42
80.0
  3
IGA
100
AcDbAlignedDimension
 13
1220.739022619682
 23
1852.648447497555
 33
0.0
 14
1220.739022619682
 24
1772.648447497555
 34
0.0
 50
90.0
100
AcDbRotatedDimension
1001
ACAD
1000
DSTYLE
1002
{
1070
    40
1040
25.0
1070
    42
1040
1.0
1070
   143
1040
0.039
1070
   172
1070
     1
1070
   271
1070
     4
1070
   272
1070
     4
1070
   279
1070
     1
1070
   284
1070
     0
1070
   285
1070
     0
1070
   286
1070
     0
1070
   341
1005
816A
1070
   343
1005
816A
1070
   344
1005
841A
1002
}
  0
DIMENSION
  5
8382
330
8156
100
AcDbEntity
  8
3
100
AcDbDimension
  2
*D48
 10
868.9228653667901
 20
1672.648447497555
 30
0.0
 11
872.2693089462264
 21
1560.886098697712
 31
0.0
 70
   160
 71
     5
 42
100.0
  3
IGA
100
AcDbAlignedDimension
 13
1220.739022619682
 23
1772.648447497555
 33
0.0
 14
1220.739022619682
 24
1672.648447497555
 34
0.0
 50
90.0
100
AcDbRotatedDimension
1001
ACAD
1000
DSTYLE
1002
{
1070
    40
1040
25.0
1070
    42
1040
1.0
1070
   143
1040
0.039
1070
   172
1070
     1
1070
   271
1070
     4
1070
   272
1070
     4
1070
   279
1070
     1
1070
   284
1070
     0
1070
   285
1070
     0
1070
   286
1070
     0
1070
   341
1005
816A
1070
   343
1005
841A
1070
   344
1005
816A
1002
}
  0
ENDSEC
  0
SECTION
  2
OBJECTS
  0
DICTIONARY
  5
80F3
330
0
100
AcDbDictionary
281
     1
  3
ACAD_CIP_PREVIOUS_PRODUCT_INFO
350
81A0
  3
ACAD_COLOR
350
8149
  3
ACAD_DETAILVIEWSTYLE
350
8150
  3
ACAD_GROUP
350
80F4
  3
ACAD_LAYOUT
350
8148
  3
ACAD_MATERIAL
350
80F7
  3
ACAD_MLEADERSTYLE
350
814C
  3
ACAD_MLINESTYLE
350
8145
  3
ACAD_PLOTSETTINGS
350
8147
  3
ACAD_PLOTSTYLENAME
350
80F5
  3
ACAD_SCALELIST
350
8129
  3
ACAD_SECTIONVIEWSTYLE
350
814E
  3
ACAD_TABLESTYLE
350
814A
  3
ACAD_VISUALSTYLE
350
8110
  3
ACDB_RECOMPOSE_DATA
350
8502
  3
AcDbVariableDictionary
350
81D8
  3
DWGPROPS
350
8503
  0
DICTIONARY
  5
81A2
330
80E9
100
AcDbDictionary
280
     1
281
     1
  3
ACAD_LAYERSTATES
360
81A3
  0
DICTIONARY
  5
81CE
330
813B
100
AcDbDictionary
280
     1
281
     1
  3
ADSK_XREC_LAYER_RECONCILED
360
81CF
  0
DICTIONARY
  5
81D0
330
815A
100
AcDbDictionary
280
     1
281
     1
  3
ADSK_XREC_LAYER_RECONCILED
360
81D1
  0
DICTIONARY
  5
81D2
330
815D
100
AcDbDictionary
280
     1
281
     1
  3
ADSK_XREC_LAYER_RECONCILED
360
81D3
  0
DICTIONARY
  5
81D4
330
815E
100
AcDbDictionary
280
     1
281
     1
  3
ADSK_XREC_LAYER_RECONCILED
360
81D5
  0
DICTIONARY
  5
81D6
330
815F
100
AcDbDictionary
280
     1
281
     1
  3
ADSK_XREC_LAYER_RECONCILED
360
81D7
  0
XRECORD
  5
81A0
102
{ACAD_REACTORS
330
80F3
102
}
330
80F3
100
AcDbXrecord
280
     1
300
ACDLT
300
2015
300
INVLTS_F_S
  0
DICTIONARY
  5
8149
102
{ACAD_REACTORS
330
80F3
102
}
330
80F3
100
AcDbDictionary
281
     1
  0
DICTIONARY
  5
8150
102
{ACAD_REACTORS
330
80F3
102
}
330
80F3
100
AcDbDictionary
281
     1
  3
Imperial24
350
8151
  0
DICTIONARY
  5
80F4
102
{ACAD_REACTORS
330
80F3
102
}
330
80F3
100
AcDbDictionary
281
     1
  0
DICTIONARY
  5
8148
102
{ACAD_REACTORS
330
80F3
102
}
330
80F3
100
AcDbDictionary
281
     1
  3
Model
350
8159
  3
レイアウト1
350
8155
  0
DICTIONARY
  5
80F7
102
{ACAD_REACTORS
330
80F3
102
}
330
80F3
100
AcDbDictionary
281
     1
  3
ByBlock
350
8100
  3
ByLayer
350
80F8
  3
Global
350
8108
  0
DICTIONARY
  5
814C
102
{ACAD_REACTORS
330
80F3
102
}
330
80F3
100
AcDbDictionary
281
     1
  3
Standard
350
814D
  0
DICTIONARY
  5
8145
102
{ACAD_REACTORS
330
80F3
102
}
330
80F3
100
AcDbDictionary
281
     1
  3
Standard
350
8146
  0
DICTIONARY
  5
8147
102
{ACAD_REACTORS
330
80F3
102
}
330
80F3
100
AcDbDictionary
281
     1
  0
ACDBDICTIONARYWDFLT
  5
80F5
102
{ACAD_REACTORS
330
80F3
102
}
330
80F3
100
AcDbDictionary
281
     1
  3
Normal
350
80F6
100
AcDbDictionaryWithDefault
340
80F6
  0
DICTIONARY
  5
8129
102
{ACAD_REACTORS
330
80F3
102
}
330
80F3
100
AcDbDictionary
281
     1
  3
A0
350
812A
  3
A1
350
812B
  3
A2
350
812C
  3
A3
350
812D
  3
A4
350
812E
  3
A5
350
812F
  3
A6
350
8130
  3
A7
350
8131
  3
A8
350
8132
  3
A9
350
8133
  3
B0
350
8134
  3
B1
350
8135
  3
B2
350
8136
  3
B3
350
8137
  3
B4
350
8138
  3
B5
350
8139
  3
B6
350
813A
  0
DICTIONARY
  5
814E
102
{ACAD_REACTORS
330
80F3
102
}
330
80F3
100
AcDbDictionary
281
     1
  3
Imperial24
350
814F
  0
DICTIONARY
  5
814A
102
{ACAD_REACTORS
330
80F3
102
}
330
80F3
100
AcDbDictionary
281
     1
  3
Standard
350
814B
  0
DICTIONARY
  5
8110
102
{ACAD_REACTORS
330
80F3
102
}
330
80F3
100
AcDbDictionary
281
     1
  3
2dWireframe
350
8116
  3
Basic
350
8115
  3
Brighten
350
811C
  3
ColorChange
350
8120
  3
Conceptual
350
8119
  3
Dim
350
811B
  3
EdgeColorOff
350
8128
  3
Facepattern
350
811F
  3
Flat
350
8111
  3
FlatWithEdges
350
8112
  3
Gouraud
350
8113
  3
GouraudWithEdges
350
8114
  3
Hidden
350
8118
  3
JitterOff
350
8126
  3
Linepattern
350
811E
  3
OverhangOff
350
8127
  3
Realistic
350
811A
  3
Shaded
350
8125
  3
Shaded with edges
350
8124
  3
Shades of Gray
350
8121
  3
Sketchy
350
8122
  3
Thicken
350
811D
  3
Wireframe
350
8117
  3
X-Ray
350
8123
  0
XRECORD
  5
8502
102
{ACAD_REACTORS
330
80F3
102
}
330
80F3
100
AcDbXrecord
280
     1
 90
        1
330
814B
  0
DICTIONARY
  5
81D8
102
{ACAD_REACTORS
330
80F3
102
}
330
80F3
100
AcDbDictionary
281
     1
  3
CANNOSCALE
350
81DD
  3
CMLEADERSTYLE
350
81DA
  3
CTABLESTYLE
350
81D9
  3
CVIEWDETAILSTYLE
350
81DB
  3
CVIEWSECTIONSTYLE
350
81DC
  3
DIMASSOC
350
81E0
  3
INDEXCTL
350
81DF
  3
SORTENTS
350
81DE
  3
XCLIPFRAME
350
81E1
  0
XRECORD
  5
8503
102
{ACAD_REACTORS
330
80F3
102
}
330
80F3
100
AcDbXrecord
280
     1
  1
DWGPROPS COOKIE
  2

  3

  4

  6

  7

  8
yasukiyo.ogawa
  9

300
=
301
=
302
=
303
=
304
=
305
=
306
=
307
=
308
=
309
=
 40
0.0458751273148148
 41
2451387.606533102
 42
2460263.706825313
  1

 90
        0
  0
DICTIONARY
  5
81A3
102
{ACAD_REACTORS
330
81A2
102
}
330
81A2
100
AcDbDictionary
281
     1
  0
XRECORD
  5
81CF
102
{ACAD_REACTORS
330
81CE
102
}
330
81CE
100
AcDbXrecord
280
     1
290
     1
  0
XRECORD
  5
81D1
102
{ACAD_REACTORS
330
81D0
102
}
330
81D0
100
AcDbXrecord
280
     1
290
     1
  0
XRECORD
  5
81D3
102
{ACAD_REACTORS
330
81D2
102
}
330
81D2
100
AcDbXrecord
280
     1
290
     1
  0
XRECORD
  5
81D5
102
{ACAD_REACTORS
330
81D4
102
}
330
81D4
100
AcDbXrecord
280
     1
290
     1
  0
XRECORD
  5
81D7
102
{ACAD_REACTORS
330
81D6
102
}
330
81D6
100
AcDbXrecord
280
     1
290
     1
  0
ACDBDETAILVIEWSTYLE
  5
8151
102
{ACAD_XDICTIONARY
360
853B
102
}
102
{ACAD_REACTORS
330
8150
102
}
330
8150
100
AcDbModelDocViewStyle
 70
     0
  3
Imperial24
290
     0
100
AcDbDetailViewStyle
 70
     0
 71
     0
 90
        3
 71
     1
340
813C
 40
0.24
340
0
 40
0.24
300

 40
0.36
280
     3
 71
     2
340
8143
 90
       25
 71
     3
340
813C
 40
0.24
 90
        1
 40
0.75
 90
        1
300
%<\AcVar ViewType \f "%tc1">% %<\AcVar ViewDetailId>%\PSCALE %<\AcVar ViewScale \f "%sn">%
 71
     4
340
8143
 90
       25
340
8143
 90
       25
280
     0
  0
LAYOUT
  5
8159
102
{ACAD_XDICTIONARY
360
853F
102
}
102
{ACAD_REACTORS
330
8148
102
}
330
8148
100
AcDbPlotSettings
  1

  2
RICOH imagio MP W3600 RPCS
  4

  6

 40
0.0
 41
0.0
 42
0.0
 43
0.0
 44
0.0
 45
0.0
 46
0.0
 47
0.0
 48
0.0
 49
0.0
140
0.0
141
0.0
142
1.0
143
1.0
 70
  1712
 72
     0
 73
     0
 74
     0
  7

 75
     0
147
1.0
148
0.0
149
0.0
100
AcDbLayout
  1
Model
 70
     1
 71
     0
 10
0.0
 20
0.0
 11
12.0
 21
9.0
 12
0.0
 22
0.0
 32
0.0
 14
0.0
 24
0.0
 34
0.0
 15
0.0
 25
0.0
 35
0.0
146
0.0
 13
0.0
 23
0.0
 33
0.0
 16
1.0
 26
0.0
 36
0.0
 17
0.0
 27
1.0
 37
0.0
 76
     0
330
8156
331
815B
  0
LAYOUT
  5
8155
102
{ACAD_XDICTIONARY
360
853D
102
}
102
{ACAD_REACTORS
330
8148
102
}
330
8148
100
AcDbPlotSettings
  1

  2
RICOH imagio MP W3600 RPCS
  4

  6

 40
0.0
 41
0.0
 42
0.0
 43
0.0
 44
0.0
 45
0.0
 46
0.0
 47
0.0
 48
0.0
 49
0.0
140
0.0
141
0.0
142
1.0
143
1.0
 70
   688
 72
     0
 73
     0
 74
     5
  7

 75
    16
147
1.0
148
0.0
149
0.0
100
AcDbLayout
  1
レイアウト1
 70
     1
 71
     1
 10
0.0
 20
0.0
 11
12.0
 21
9.0
 12
0.0
 22
0.0
 32
0.0
 14
1.000000000000000E+20
 24
1.000000000000000E+20
 34
1.000000000000000E+20
 15
-1.000000000000000E+20
 25
-1.000000000000000E+20
 35
-1.000000000000000E+20
146
0.0
 13
0.0
 23
0.0
 33
0.0
 16
1.0
 26
0.0
 36
0.0
 17
0.0
 27
1.0
 37
0.0
 76
     0
330
8152
  0
MATERIAL
  5
8100
102
{ACAD_XDICTIONARY
360
8101
102
}
102
{ACAD_REACTORS
330
80F7
102
}
330
80F7
100
AcDbMaterial
  1
ByBlock
 72
     0
 43
0.0208333333333333
 43
0.0
 43
0.0
 43
0.0
 43
0.0
 43
0.0208333333333333
 43
0.0
 43
0.0
 43
0.0
 43
0.0
 43
1.0
 43
0.0
 43
0.0
 43
0.0
 43
0.0
 43
1.0
 77
     0
 47
0.0208333333333333
 47
0.0
 47
0.0
 47
0.0
 47
0.0
 47
0.0208333333333333
 47
0.0
 47
0.0
 47
0.0
 47
0.0
 47
1.0
 47
0.0
 47
0.0
 47
0.0
 47
0.0
 47
1.0
171
     0
 49
0.0208333333333333
 49
0.0
 49
0.0
 49
0.0
 49
0.0
 49
0.0208333333333333
 49
0.0
 49
0.0
 49
0.0
 49
0.0
 49
1.0
 49
0.0
 49
0.0
 49
0.0
 49
0.0
 49
1.0
175
     0
142
0.0208333333333333
142
0.0
142
0.0
142
0.0
142
0.0
142
0.0208333333333333
142
0.0
142
0.0
142
0.0
142
0.0
142
1.0
142
0.0
142
0.0
142
0.0
142
0.0
142
1.0
179
     0
144
0.0208333333333333
144
0.0
144
0.0
144
0.0
144
0.0
144
0.0208333333333333
144
0.0
144
0.0
144
0.0
144
0.0
144
1.0
144
0.0
144
0.0
144
0.0
144
0.0
144
1.0
147
0.0208333333333333
147
0.0
147
0.0
147
0.0
147
0.0
147
0.0208333333333333
147
0.0
147
0.0
147
0.0
147
0.0
147
1.0
147
0.0
147
0.0
147
0.0
147
0.0
147
1.0
  0
MATERIAL
  5
80F8
102
{ACAD_XDICTIONARY
360
80F9
102
}
102
{ACAD_REACTORS
330
80F7
102
}
330
80F7
100
AcDbMaterial
  1
ByLayer
 72
     0
 43
0.0208333333333333
 43
0.0
 43
0.0
 43
0.0
 43
0.0
 43
0.0208333333333333
 43
0.0
 43
0.0
 43
0.0
 43
0.0
 43
1.0
 43
0.0
 43
0.0
 43
0.0
 43
0.0
 43
1.0
 77
     0
 47
0.0208333333333333
 47
0.0
 47
0.0
 47
0.0
 47
0.0
 47
0.0208333333333333
 47
0.0
 47
0.0
 47
0.0
 47
0.0
 47
1.0
 47
0.0
 47
0.0
 47
0.0
 47
0.0
 47
1.0
171
     0
 49
0.0208333333333333
 49
0.0
 49
0.0
 49
0.0
 49
0.0
 49
0.0208333333333333
 49
0.0
 49
0.0
 49
0.0
 49
0.0
 49
1.0
 49
0.0
 49
0.0
 49
0.0
 49
0.0
 49
1.0
175
     0
142
0.0208333333333333
142
0.0
142
0.0
142
0.0
142
0.0
142
0.0208333333333333
142
0.0
142
0.0
142
0.0
142
0.0
142
1.0
142
0.0
142
0.0
142
0.0
142
0.0
142
1.0
179
     0
144
0.0208333333333333
144
0.0
144
0.0
144
0.0
144
0.0
144
0.0208333333333333
144
0.0
144
0.0
144
0.0
144
0.0
144
1.0
144
0.0
144
0.0
144
0.0
144
0.0
144
1.0
147
0.0208333333333333
147
0.0
147
0.0
147
0.0
147
0.0
147
0.0208333333333333
147
0.0
147
0.0
147
0.0
147
0.0
147
1.0
147
0.0
147
0.0
147
0.0
147
0.0
147
1.0
  0
MATERIAL
  5
8108
102
{ACAD_XDICTIONARY
360
8109
102
}
102
{ACAD_REACTORS
330
80F7
102
}
330
80F7
100
AcDbMaterial
  1
Global
 72
     0
 43
0.0208333333333333
 43
0.0
 43
0.0
 43
0.0
 43
0.0
 43
0.0208333333333333
 43
0.0
 43
0.0
 43
0.0
 43
0.0
 43
1.0
 43
0.0
 43
0.0
 43
0.0
 43
0.0
 43
1.0
 77
     0
 47
0.0208333333333333
 47
0.0
 47
0.0
 47
0.0
 47
0.0
 47
0.0208333333333333
 47
0.0
 47
0.0
 47
0.0
 47
0.0
 47
1.0
 47
0.0
 47
0.0
 47
0.0
 47
0.0
 47
1.0
171
     0
 49
0.0208333333333333
 49
0.0
 49
0.0
 49
0.0
 49
0.0
 49
0.0208333333333333
 49
0.0
 49
0.0
 49
0.0
 49
0.0
 49
1.0
 49
0.0
 49
0.0
 49
0.0
 49
0.0
 49
1.0
175
     0
142
0.0208333333333333
142
0.0
142
0.0
142
0.0
142
0.0
142
0.0208333333333333
142
0.0
142
0.0
142
0.0
142
0.0
142
1.0
142
0.0
142
0.0
142
0.0
142
0.0
142
1.0
179
     0
144
0.0208333333333333
144
0.0
144
0.0
144
0.0
144
0.0
144
0.0208333333333333
144
0.0
144
0.0
144
0.0
144
0.0
144
1.0
144
0.0
144
0.0
144
0.0
144
0.0
144
1.0
147
0.0208333333333333
147
0.0
147
0.0
147
0.0
147
0.0
147
0.0208333333333333
147
0.0
147
0.0
147
0.0
147
0.0
147
1.0
147
0.0
147
0.0
147
0.0
147
0.0
147
1.0
  0
MLEADERSTYLE
  5
814D
102
{ACAD_REACTORS
330
814C
102
}
330
814C
100
AcDbMLeaderStyle
170
     2
171
     1
172
     0
 90
        2
 40
0.0
 41
0.0
173
     1
 91
-1056964608
340
8141
 92
       -2
290
     1
 42
0.09
291
     1
 43
0.36
  3
Standard
 44
0.18
300

342
813C
174
     1
178
     6
175
     1
176
     0
 93
-1056964608
 45
0.18
292
     0
297
     0
 46
0.18
 94
-1056964608
 47
1.0
 49
1.0
140
1.0
293
     1
141
0.0
294
     1
177
     0
142
1.0
295
     0
296
     0
143
0.125
1001
ACAD_MLEADERVER
1070
     2
  0
MLINESTYLE
  5
8146
102
{ACAD_REACTORS
330
8145
102
}
330
8145
100
AcDbMlineStyle
  2
STANDARD
 70
     0
  3

 62
   256
 51
90.0
 52
90.0
 71
     2
 49
0.5
 62
   256
  6
BYLAYER
 49
-0.5
 62
   256
  6
BYLAYER
  0
ACDBPLACEHOLDER
  5
80F6
102
{ACAD_REACTORS
330
80F5
102
}
330
80F5
  0
SCALE
  5
812A
102
{ACAD_REACTORS
330
8129
102
}
330
8129
100
AcDbScale
 70
     0
300
1:1
140
1.0
141
1.0
290
     1
  0
SCALE
  5
812B
102
{ACAD_REACTORS
330
8129
102
}
330
8129
100
AcDbScale
 70
     0
300
1/128" = 1'-0"
140
0.0078125
141
12.0
290
     0
  0
SCALE
  5
812C
102
{ACAD_REACTORS
330
8129
102
}
330
8129
100
AcDbScale
 70
     0
300
1/64" = 1'-0"
140
0.015625
141
12.0
290
     0
  0
SCALE
  5
812D
102
{ACAD_REACTORS
330
8129
102
}
330
8129
100
AcDbScale
 70
     0
300
1/32" = 1'-0"
140
0.03125
141
12.0
290
     0
  0
SCALE
  5
812E
102
{ACAD_REACTORS
330
8129
102
}
330
8129
100
AcDbScale
 70
     0
300
1/16" = 1'-0"
140
0.0625
141
12.0
290
     0
  0
SCALE
  5
812F
102
{ACAD_REACTORS
330
8129
102
}
330
8129
100
AcDbScale
 70
     0
300
3/32" = 1'-0"
140
0.09375
141
12.0
290
     0
  0
SCALE
  5
8130
102
{ACAD_REACTORS
330
8129
102
}
330
8129
100
AcDbScale
 70
     0
300
1/8" = 1'-0"
140
0.125
141
12.0
290
     0
  0
SCALE
  5
8131
102
{ACAD_REACTORS
330
8129
102
}
330
8129
100
AcDbScale
 70
     0
300
3/16" = 1'-0"
140
0.1875
141
12.0
290
     0
  0
SCALE
  5
8132
102
{ACAD_REACTORS
330
8129
102
}
330
8129
100
AcDbScale
 70
     0
300
1/4" = 1'-0"
140
0.25
141
12.0
290
     0
  0
SCALE
  5
8133
102
{ACAD_REACTORS
330
8129
102
}
330
8129
100
AcDbScale
 70
     0
300
3/8" = 1'-0"
140
0.375
141
12.0
290
     0
  0
SCALE
  5
8134
102
{ACAD_REACTORS
330
8129
102
}
330
8129
100
AcDbScale
 70
     0
300
1/2" = 1'-0"
140
0.5
141
12.0
290
     0
  0
SCALE
  5
8135
102
{ACAD_REACTORS
330
8129
102
}
330
8129
100
AcDbScale
 70
     0
300
3/4" = 1'-0"
140
0.75
141
12.0
290
     0
  0
SCALE
  5
8136
102
{ACAD_REACTORS
330
8129
102
}
330
8129
100
AcDbScale
 70
     0
300
1" = 1'-0"
140
1.0
141
12.0
290
     0
  0
SCALE
  5
8137
102
{ACAD_REACTORS
330
8129
102
}
330
8129
100
AcDbScale
 70
     0
300
1-1/2" = 1'-0"
140
1.5
141
12.0
290
     0
  0
SCALE
  5
8138
102
{ACAD_REACTORS
330
8129
102
}
330
8129
100
AcDbScale
 70
     0
300
3" = 1'-0"
140
3.0
141
12.0
290
     0
  0
SCALE
  5
8139
102
{ACAD_REACTORS
330
8129
102
}
330
8129
100
AcDbScale
 70
     0
300
6" = 1'-0"
140
6.0
141
12.0
290
     0
  0
SCALE
  5
813A
102
{ACAD_REACTORS
330
8129
102
}
330
8129
100
AcDbScale
 70
     0
300
1'-0" = 1'-0"
140
12.0
141
12.0
290
     0
  0
ACDBSECTIONVIEWSTYLE
  5
814F
102
{ACAD_XDICTIONARY
360
8539
102
}
102
{ACAD_REACTORS
330
814E
102
}
330
814E
100
AcDbModelDocViewStyle
 70
     0
  3
Imperial24
290
     0
100
AcDbSectionViewStyle
 70
     0
 71
     0
 90
       78
 71
     1
340
813C
 40
0.24
340
0
340
0
 40
0.24
300
I, O, Q, S, X, Z
 40
0.48
 90
        3
 40
0.18
 90
        1
 71
     2
340
8143
 90
       25
340
8143
 90
       50
 40
0.24
 40
0.0
 40
0.24
 71
     3
340
813C
 40
0.24
 90
        1
 40
0.75
 90
        1
300
%<\AcVar ViewType \f "%tc1">% %<\AcVar ViewSectionStartId>%-%<\AcVar ViewSectionEndId>%\PSCALE %<\AcVar ViewScale \f "%sn">%
 71
     4
300
ANSI31
 40
1.0
 90
        0
290
     0
290
     0
 90
        6
 40
0.0
 40
1.570796326794896
 40
0.2617993877991494
 40
1.308996938995747
 40
-0.2617993877991494
 40
1.832595714594046
  0
TABLESTYLE
  5
814B
102
{ACAD_XDICTIONARY
360
8500
102
}
102
{ACAD_REACTORS
330
814A
102
}
330
814A
100
AcDbTableStyle
  3
Standard
 70
     0
 71
     0
 40
0.06
 41
0.06
280
     0
281
     0
  7
STANDARD
140
0.18
170
     2
 62
     0
 63
     7
283
     0
274
    -2
284
     1
 64
     0
275
    -2
285
     1
 65
     0
276
    -2
286
     1
 66
     0
277
    -2
287
     1
 67
     0
278
    -2
288
     1
 68
     0
279
    -2
289
     1
 69
     0
  7
STANDARD
140
0.25
170
     5
 62
     0
 63
     7
283
     0
274
    -2
284
     1
 64
     0
275
    -2
285
     1
 65
     0
276
    -2
286
     1
 66
     0
277
    -2
287
     1
 67
     0
278
    -2
288
     1
 68
     0
279
    -2
289
     1
 69
     0
  7
STANDARD
140
0.18
170
     5
 62
     0
 63
     7
283
     0
274
    -2
284
     1
 64
     0
275
    -2
285
     1
 65
     0
276
    -2
286
     1
 66
     0
277
    -2
287
     1
 67
     0
278
    -2
288
     1
 68
     0
279
    -2
289
     1
 69
     0
  0
VISUALSTYLE
  5
8116
102
{ACAD_XDICTIONARY
360
8511
102
}
102
{ACAD_REACTORS
330
8110
102
}
330
8110
100
AcDbVisualStyle
  2
2dWireframe
 70
     4
 71
     0
 72
     2
 73
     0
 90
        0
 40
-0.6
 41
-30.0
 62
     5
 63
     7
 74
     1
 91
        4
 64
     7
 65
   257
 75
     1
175
     1
 42
1.0
 92
        0
 66
   257
 43
1.0
 76
     1
 77
     6
 78
     2
 67
     7
 79
     5
170
     0
171
     0
290
     0
174
     0
 93
        1
 44
0.0
173
     0
291
     0
 45
0.0
1001
ACAD
1000
AcDbSavedByObjectVersion
1070
     0
  0
VISUALSTYLE
  5
8115
102
{ACAD_XDICTIONARY
360
850F
102
}
102
{ACAD_REACTORS
330
8110
102
}
330
8110
100
AcDbVisualStyle
  2
Basic
 70
     7
 71
     1
 72
     0
 73
     1
 90
        0
 40
-0.6
 41
-30.0
 62
     5
 63
     7
 74
     0
 91
        4
 64
     7
 65
   257
 75
     1
175
     1
 42
1.0
 92
        8
 66
     7
 43
1.0
 76
     1
 77
     6
 78
     2
 67
     7
 79
     5
170
     0
171
     0
290
     0
174
     0
 93
        1
 44
0.0
173
     0
291
     1
 45
0.0
1001
ACAD
1000
AcDbSavedByObjectVersion
1070
     0
  0
VISUALSTYLE
  5
811C
102
{ACAD_XDICTIONARY
360
851D
102
}
102
{ACAD_REACTORS
330
8110
102
}
330
8110
100
AcDbVisualStyle
  2
Brighten
 70
    12
 71
     2
 72
     2
 73
     0
 90
        0
 40
-0.6
 41
-30.0
 62
     5
 63
     7
 74
     1
 91
        4
 64
     7
 65
   257
 75
     1
175
     1
 42
1.0
 92
        8
 66
     7
 43
1.0
 76
     1
 77
     6
 78
     2
 67
     7
 79
     5
170
     0
171
     0
290
     0
174
     0
 93
        1
 44
50.0
173
     0
291
     1
 45
0.0
1001
ACAD
1000
AcDbSavedByObjectVersion
1070
     0
  0
VISUALSTYLE
  5
8120
102
{ACAD_XDICTIONARY
360
8525
102
}
102
{ACAD_REACTORS
330
8110
102
}
330
8110
100
AcDbVisualStyle
  2
ColorChange
 70
    16
 71
     2
 72
     2
 73
     3
 90
        0
 40
-0.6
 41
-30.0
 62
     5
 63
     8
 74
     1
 91
        4
 64
     7
 65
   257
 75
     1
175
     1
 42
1.0
 92
        8
 66
     8
 43
1.0
 76
     1
 77
     6
 78
     2
 67
     7
 79
     5
170
     0
171
     0
290
     0
174
     0
 93
        1
 44
0.0
173
     0
291
     1
 45
0.0
1001
ACAD
1000
AcDbSavedByObjectVersion
1070
     0
  0
VISUALSTYLE
  5
8119
102
{ACAD_XDICTIONARY
360
8517
102
}
102
{ACAD_REACTORS
330
8110
102
}
330
8110
100
AcDbVisualStyle
  2
Conceptual
 70
     9
 71
     3
 72
     2
 73
     0
 90
        0
 40
-0.6
 41
-30.0
 62
     5
 63
     7
 74
     2
 91
        2
 64
     7
 65
   257
 75
     1
175
     1
 42
179.0
 92
        8
 66
     7
 43
1.0
 76
     1
 77
     6
 78
     2
 67
     7
 79
     3
170
     0
171
     0
290
     0
174
     0
 93
        1
 44
0.0
173
     0
291
     0
 45
0.0
1001
ACAD
1000
AcDbSavedByObjectVersion
1070
     0
  0
VISUALSTYLE
  5
811B
102
{ACAD_XDICTIONARY
360
851B
102
}
102
{ACAD_REACTORS
330
8110
102
}
330
8110
100
AcDbVisualStyle
  2
Dim
 70
    11
 71
     2
 72
     2
 73
     0
 90
        0
 40
-0.6
 41
-30.0
 62
     5
 63
     7
 74
     1
 91
        4
 64
     7
 65
   257
 75
     1
175
     1
 42
1.0
 92
        8
 66
     7
 43
1.0
 76
     1
 77
     6
 78
     2
 67
     7
 79
     5
170
     0
171
     0
290
     0
174
     0
 93
        1
 44
-50.0
173
     0
291
     1
 45
0.0
1001
ACAD
1000
AcDbSavedByObjectVersion
1070
     0
  0
VISUALSTYLE
  5
8128
102
{ACAD_XDICTIONARY
360
8535
102
}
102
{ACAD_REACTORS
330
8110
102
}
330
8110
100
AcDbVisualStyle
  2
EdgeColorOff
 70
    22
 71
     2
 72
     2
 73
     0
 90
        0
 40
-0.6
 41
-30.0
 62
     5
 63
     7
 74
     1
 91
        4
 64
     7
 65
   257
 75
     1
175
     1
 42
1.0
 92
        8
 66
     7
 43
1.0
 76
     1
 77
     6
 78
     2
 67
     7
 79
     5
170
     0
171
     0
290
     0
174
     0
 93
        1
 44
0.0
173
     0
291
     1
 45
0.0
1001
ACAD
1000
AcDbSavedByObjectVersion
1070
     0
  0
VISUALSTYLE
  5
811F
102
{ACAD_XDICTIONARY
360
8523
102
}
102
{ACAD_REACTORS
330
8110
102
}
330
8110
100
AcDbVisualStyle
  2
Facepattern
 70
    15
 71
     2
 72
     2
 73
     0
 90
        0
 40
-0.6
 41
-30.0
 62
     5
 63
     7
 74
     1
 91
        4
 64
     7
 65
   257
 75
     1
175
     1
 42
1.0
 92
        8
 66
     7
 43
1.0
 76
     1
 77
     6
 78
     2
 67
     7
 79
     5
170
     0
171
     0
290
     0
174
     0
 93
        1
 44
0.0
173
     0
291
     1
 45
0.0
1001
ACAD
1000
AcDbSavedByObjectVersion
1070
     0
  0
VISUALSTYLE
  5
8111
102
{ACAD_XDICTIONARY
360
8507
102
}
102
{ACAD_REACTORS
330
8110
102
}
330
8110
100
AcDbVisualStyle
  2
Flat
 70
     0
 71
     2
 72
     1
 73
     1
 90
        2
 40
-0.6
 41
30.0
 62
     5
 63
     7
 74
     0
 91
        0
 64
     7
 65
   257
 75
     1
175
     1
 42
1.0
 92
        8
 66
     7
 43
1.0
 76
     1
 77
     6
 78
     2
 67
     7
 79
     5
170
     0
171
     0
290
     0
174
     0
 93
       13
 44
0.0
173
     0
291
     1
 45
0.0
1001
ACAD
1000
AcDbSavedByObjectVersion
1070
     0
  0
VISUALSTYLE
  5
8112
102
{ACAD_XDICTIONARY
360
8509
102
}
102
{ACAD_REACTORS
330
8110
102
}
330
8110
100
AcDbVisualStyle
  2
FlatWithEdges
 70
     1
 71
     2
 72
     1
 73
     1
 90
        2
 40
-0.6
 41
30.0
 62
     5
 63
     7
 74
     1
 91
        0
 64
     7
 65
   257
 75
     1
175
     1
 42
1.0
 92
        0
 66
   257
 43
1.0
 76
     1
 77
     6
 78
     2
 67
     7
 79
     5
170
     0
171
     0
290
     0
174
     0
 93
       13
 44
0.0
173
     0
291
     1
 45
0.0
1001
ACAD
1000
AcDbSavedByObjectVersion
1070
     0
  0
VISUALSTYLE
  5
8113
102
{ACAD_XDICTIONARY
360
850B
102
}
102
{ACAD_REACTORS
330
8110
102
}
330
8110
100
AcDbVisualStyle
  2
Gouraud
 70
     2
 71
     2
 72
     2
 73
     1
 90
        2
 40
-0.6
 41
30.0
 62
     5
 63
     7
 74
     0
 91
        0
 64
     7
 65
   257
 75
     1
175
     1
 42
1.0
 92
        0
 66
     7
 43
1.0
 76
     1
 77
     6
 78
     2
 67
     7
 79
     5
170
     0
171
     0
290
     0
174
     0
 93
       13
 44
0.0
173
     0
291
     1
 45
0.0
1001
ACAD
1000
AcDbSavedByObjectVersion
1070
     0
  0
VISUALSTYLE
  5
8114
102
{ACAD_XDICTIONARY
360
850D
102
}
102
{ACAD_REACTORS
330
8110
102
}
330
8110
100
AcDbVisualStyle
  2
GouraudWithEdges
 70
     3
 71
     2
 72
     2
 73
     1
 90
        2
 40
-0.6
 41
30.0
 62
     5
 63
     7
 74
     1
 91
        0
 64
     7
 65
   257
 75
     1
175
     1
 42
1.0
 92
        0
 66
   257
 43
1.0
 76
     1
 77
     6
 78
     2
 67
     7
 79
     5
170
     0
171
     0
290
     0
174
     0
 93
       13
 44
0.0
173
     0
291
     1
 45
0.0
1001
ACAD
1000
AcDbSavedByObjectVersion
1070
     0
  0
VISUALSTYLE
  5
8118
102
{ACAD_XDICTIONARY
360
8515
102
}
102
{ACAD_REACTORS
330
8110
102
}
330
8110
100
AcDbVisualStyle
  2
Hidden
 70
     6
 71
     1
 72
     2
 73
     2
 90
        0
 40
-0.6
 41
-30.0
 62
     5
 63
     7
 74
     2
 91
        2
 64
     7
 65
   257
 75
     2
175
     1
 42
40.0
 92
        0
 66
   257
 43
1.0
 76
     1
 77
     6
 78
     2
 67
     7
 79
     3
170
     0
171
     0
290
     0
174
     0
 93
        1
 44
0.0
173
     0
291
     0
 45
0.0
1001
ACAD
1000
AcDbSavedByObjectVersion
1070
     0
  0
VISUALSTYLE
  5
8126
102
{ACAD_XDICTIONARY
360
8531
102
}
102
{ACAD_REACTORS
330
8110
102
}
330
8110
100
AcDbVisualStyle
  2
JitterOff
 70
    20
 71
     2
 72
     2
 73
     0
 90
        0
 40
-0.6
 41
-30.0
 62
     5
 63
     7
 74
     1
 91
        4
 64
     7
 65
   257
 75
     1
175
     1
 42
1.0
 92
       10
 66
     7
 43
1.0
 76
     1
 77
     6
 78
     2
 67
     7
 79
     5
170
     0
171
     0
290
     0
174
     0
 93
        1
 44
0.0
173
     0
291
     1
 45
0.0
1001
ACAD
1000
AcDbSavedByObjectVersion
1070
     0
  0
VISUALSTYLE
  5
811E
102
{ACAD_XDICTIONARY
360
8521
102
}
102
{ACAD_REACTORS
330
8110
102
}
330
8110
100
AcDbVisualStyle
  2
Linepattern
 70
    14
 71
     2
 72
     2
 73
     0
 90
        0
 40
-0.6
 41
-30.0
 62
     5
 63
     7
 74
     1
 91
        4
 64
     7
 65
   257
 75
     7
175
     7
 42
1.0
 92
        8
 66
     7
 43
1.0
 76
     1
 77
     6
 78
     2
 67
     7
 79
     5
170
     0
171
     0
290
     0
174
     0
 93
        1
 44
0.0
173
     0
291
     1
 45
0.0
1001
ACAD
1000
AcDbSavedByObjectVersion
1070
     0
  0
VISUALSTYLE
  5
8127
102
{ACAD_XDICTIONARY
360
8533
102
}
102
{ACAD_REACTORS
330
8110
102
}
330
8110
100
AcDbVisualStyle
  2
OverhangOff
 70
    21
 71
     2
 72
     2
 73
     0
 90
        0
 40
-0.6
 41
-30.0
 62
     5
 63
     7
 74
     1
 91
        4
 64
     7
 65
   257
 75
     1
175
     1
 42
1.0
 92
        9
 66
     7
 43
1.0
 76
     1
 77
     6
 78
     2
 67
     7
 79
     5
170
     0
171
     0
290
     0
174
     0
 93
        1
 44
0.0
173
     0
291
     1
 45
0.0
1001
ACAD
1000
AcDbSavedByObjectVersion
1070
     0
  0
VISUALSTYLE
  5
811A
102
{ACAD_XDICTIONARY
360
8519
102
}
102
{ACAD_REACTORS
330
8110
102
}
330
8110
100
AcDbVisualStyle
  2
Realistic
 70
     8
 71
     2
 72
     3
 73
     0
 90
        2
 40
-0.6
 41
30.0
 62
     5
 63
     7
 74
     0
 91
        0
 64
     7
 65
   257
 75
     1
175
     1
 42
1.0
 92
        8
 66
   257
 43
1.0
 76
     1
 77
     6
 78
     2
 67
     7
 79
     3
170
     0
171
     0
290
     0
174
     0
 93
       13
 44
0.0
173
     0
291
     0
 45
0.0
1001
ACAD
1000
AcDbSavedByObjectVersion
1070
     0
  0
VISUALSTYLE
  5
8125
102
{ACAD_XDICTIONARY
360
852F
102
}
102
{ACAD_REACTORS
330
8110
102
}
330
8110
100
AcDbVisualStyle
  2
Shaded
 70
    27
 71
     2
 72
     2
 73
     1
 90
        2
 40
-0.6
 41
30.0
 62
     5
 63
     7
 74
     0
 91
        4
 64
     7
 65
   257
 75
     1
175
     1
 42
1.0
 92
        8
 66
   257
 43
1.0
 76
     1
 77
     6
 78
     2
 67
     8
 79
     3
170
     0
171
     0
290
     0
174
     0
 93
        5
 44
0.0
173
     0
291
     0
 45
0.0
1001
ACAD
1000
AcDbSavedByObjectVersion
1070
     0
  0
VISUALSTYLE
  5
8124
102
{ACAD_XDICTIONARY
360
852D
102
}
102
{ACAD_REACTORS
330
8110
102
}
330
8110
100
AcDbVisualStyle
  2
Shaded with edges
 70
    26
 71
     2
 72
     2
 73
     1
 90
        2
 40
-0.6
 41
30.0
 62
     5
 63
     7
 74
     1
 91
       10
 64
     7
 65
   257
 75
     2
175
     1
 42
1.0
 92
        8
 66
   257
 43
1.0
 76
     1
 77
     6
 78
     2
 67
     7
 79
     3
170
     0
171
     0
290
     0
174
     0
 93
        5
 44
0.0
173
     0
291
     0
 45
0.0
1001
ACAD
1000
AcDbSavedByObjectVersion
1070
     0
  0
VISUALSTYLE
  5
8121
102
{ACAD_XDICTIONARY
360
8527
102
}
102
{ACAD_REACTORS
330
8110
102
}
330
8110
100
AcDbVisualStyle
  2
Shades of Gray
 70
    23
 71
     2
 72
     2
 73
     3
 90
        0
 40
-0.6
 41
-30.0
 62
     5
 63
     7
 74
     2
 91
        2
 64
     7
 65
     7
 75
     1
175
     1
 42
40.0
 92
        8
 66
     7
 43
1.0
 76
     1
 77
     6
 78
     2
 67
     7
 79
     3
170
     0
171
     0
290
     0
174
     0
 93
        1
 44
0.0
173
     0
291
     0
 45
0.0
1001
ACAD
1000
AcDbSavedByObjectVersion
1070
     0
  0
VISUALSTYLE
  5
8122
102
{ACAD_XDICTIONARY
360
8529
102
}
102
{ACAD_REACTORS
330
8110
102
}
330
8110
100
AcDbVisualStyle
  2
Sketchy
 70
    24
 71
     1
 72
     2
 73
     2
 90
        0
 40
-0.6
 41
-30.0
 62
     5
 63
     7
 74
     2
 91
        2
 64
     7
 65
     7
 75
     1
175
     1
 42
40.0
 92
       11
 66
     7
 43
1.0
 76
     1
 77
     6
 78
     2
 67
     7
 79
     6
170
     0
171
     0
290
     0
174
     0
 93
        1
 44
0.0
173
     0
291
     0
 45
0.0
1001
ACAD
1000
AcDbSavedByObjectVersion
1070
     0
  0
VISUALSTYLE
  5
811D
102
{ACAD_XDICTIONARY
360
851F
102
}
102
{ACAD_REACTORS
330
8110
102
}
330
8110
100
AcDbVisualStyle
  2
Thicken
 70
    13
 71
     2
 72
     2
 73
     0
 90
        0
 40
-0.6
 41
-30.0
 62
     5
 63
     7
 74
     1
 91
        4
 64
     7
 65
   257
 75
     1
175
     1
 42
1.0
 92
       12
 66
     7
 43
1.0
 76
     1
 77
     6
 78
     2
 67
     7
 79
     5
170
     0
171
     0
290
     0
174
     0
 93
        1
 44
0.0
173
     0
291
     1
 45
0.0
1001
ACAD
1000
AcDbSavedByObjectVersion
1070
     0
  0
VISUALSTYLE
  5
8117
102
{ACAD_XDICTIONARY
360
8513
102
}
102
{ACAD_REACTORS
330
8110
102
}
330
8110
100
AcDbVisualStyle
  2
Wireframe
 70
     5
 71
     0
 72
     2
 73
     0
 90
        0
 40
-0.6
 41
-30.0
 62
     5
 63
     7
 74
     1
 91
        4
 64
     7
 65
   257
 75
     1
175
     1
 42
1.0
 92
        0
 66
   257
 43
1.0
 76
     1
 77
     6
 78
     2
 67
     7
 79
     3
170
     0
171
     0
290
     0
174
     0
 93
        1
 44
0.0
173
     0
291
     0
 45
0.0
1001
ACAD
1000
AcDbSavedByObjectVersion
1070
     0
  0
VISUALSTYLE
  5
8123
102
{ACAD_XDICTIONARY
360
852B
102
}
102
{ACAD_REACTORS
330
8110
102
}
330
8110
100
AcDbVisualStyle
  2
X-Ray
 70
    25
 71
     2
 72
     2
 73
     1
 90
        1
 40
0.5
 41
-30.0
 62
     5
 63
     7
 74
     1
 91
        0
 64
     7
 65
   257
 75
     1
175
     1
 42
1.0
 92
        8
 66
     7
 43
1.0
 76
     1
 77
     6
 78
     2
 67
     7
 79
     3
170
     0
171
     0
290
     0
174
     0
 93
       13
 44
0.0
173
     0
291
     0
 45
0.0
1001
ACAD
1000
AcDbSavedByObjectVersion
1070
     0
  0
DICTIONARYVAR
  5
81DD
102
{ACAD_REACTORS
330
81D8
102
}
330
81D8
100
DictionaryVariables
280
     0
  1
1:1
  0
DICTIONARYVAR
  5
81DA
102
{ACAD_REACTORS
330
81D8
102
}
330
81D8
100
DictionaryVariables
280
     0
  1
STANDARD
  0
DICTIONARYVAR
  5
81D9
102
{ACAD_REACTORS
330
81D8
102
}
330
81D8
100
DictionaryVariables
280
     0
  1
STANDARD
  0
DICTIONARYVAR
  5
81DB
102
{ACAD_REACTORS
330
81D8
102
}
330
81D8
100
DictionaryVariables
280
     0
  1
Imperial24
  0
DICTIONARYVAR
  5
81DC
102
{ACAD_REACTORS
330
81D8
102
}
330
81D8
100
DictionaryVariables
280
     0
  1
Imperial24
  0
DICTIONARYVAR
  5
81E0
102
{ACAD_REACTORS
330
81D8
102
}
330
81D8
100
DictionaryVariables
280
     0
  1
1
  0
DICTIONARYVAR
  5
81DF
102
{ACAD_REACTORS
330
81D8
102
}
330
81D8
100
DictionaryVariables
280
     0
  1
0
  0
DICTIONARYVAR
  5
81DE
102
{ACAD_REACTORS
330
81D8
102
}
330
81D8
100
DictionaryVariables
280
     0
  1
127
  0
DICTIONARYVAR
  5
81E1
102
{ACAD_REACTORS
330
81D8
102
}
330
81D8
100
DictionaryVariables
280
     0
  1
2
  0
DICTIONARY
  5
853B
330
8151
100
AcDbDictionary
280
     1
281
     1
  3
ACAD_XREC_ROUNDTRIP
360
853C
  0
DICTIONARY
  5
853F
330
8159
100
AcDbDictionary
280
     1
281
     1
  3
ACAD_XREC_ROUNDTRIP
360
8540
  0
DICTIONARY
  5
853D
330
8155
100
AcDbDictionary
280
     1
281
     1
  3
ACAD_XREC_ROUNDTRIP
360
853E
  0
DICTIONARY
  5
8101
330
8100
100
AcDbDictionary
280
     1
281
     1
  3
ACAD_XREC_ROUNDTRIP
360
8505
  3
BUMPTILE
360
8103
  3
DIFFUSETILE
360
8102
  3
OPACITYTILE
360
8106
  3
REFLECTIONTILE
360
8105
  3
REFRACTIONTILE
360
8107
  3
SPECULARTILE
360
8104
  0
DICTIONARY
  5
80F9
330
80F8
100
AcDbDictionary
280
     1
281
     1
  3
ACAD_XREC_ROUNDTRIP
360
8504
  3
BUMPTILE
360
80FB
  3
DIFFUSETILE
360
80FA
  3
OPACITYTILE
360
80FE
  3
REFLECTIONTILE
360
80FD
  3
REFRACTIONTILE
360
80FF
  3
SPECULARTILE
360
80FC
  0
DICTIONARY
  5
8109
330
8108
100
AcDbDictionary
280
     1
281
     1
  3
ACAD_XREC_ROUNDTRIP
360
8506
  3
BUMPTILE
360
810B
  3
DIFFUSETILE
360
810A
  3
FBXASSET
360
8223
  3
OPACITYTILE
360
810E
  3
REFLECTIONTILE
360
810D
  3
REFRACTIONTILE
360
810F
  3
SPECULARTILE
360
810C
  0
DICTIONARY
  5
8539
330
814F
100
AcDbDictionary
280
     1
281
     1
  3
ACAD_XREC_ROUNDTRIP
360
853A
  0
DICTIONARY
  5
8500
330
814B
100
AcDbDictionary
280
     1
281
     1
  3
ACAD_ROUNDTRIP_2008_TABLESTYLE_CELLSTYLEMAP
360
8501
  3
ACAD_XREC_ROUNDTRIP
360
8537
  0
DICTIONARY
  5
8511
330
8116
100
AcDbDictionary
280
     1
281
     1
  3
ACAD_XREC_ROUNDTRIP
360
8512
  0
DICTIONARY
  5
850F
330
8115
100
AcDbDictionary
280
     1
281
     1
  3
ACAD_XREC_ROUNDTRIP
360
8510
  0
DICTIONARY
  5
851D
330
811C
100
AcDbDictionary
280
     1
281
     1
  3
ACAD_XREC_ROUNDTRIP
360
851E
  0
DICTIONARY
  5
8525
330
8120
100
AcDbDictionary
280
     1
281
     1
  3
ACAD_XREC_ROUNDTRIP
360
8526
  0
DICTIONARY
  5
8517
330
8119
100
AcDbDictionary
280
     1
281
     1
  3
ACAD_XREC_ROUNDTRIP
360
8518
  0
DICTIONARY
  5
851B
330
811B
100
AcDbDictionary
280
     1
281
     1
  3
ACAD_XREC_ROUNDTRIP
360
851C
  0
DICTIONARY
  5
8535
330
8128
100
AcDbDictionary
280
     1
281
     1
  3
ACAD_XREC_ROUNDTRIP
360
8536
  0
DICTIONARY
  5
8523
330
811F
100
AcDbDictionary
280
     1
281
     1
  3
ACAD_XREC_ROUNDTRIP
360
8524
  0
DICTIONARY
  5
8507
330
8111
100
AcDbDictionary
280
     1
281
     1
  3
ACAD_XREC_ROUNDTRIP
360
8508
  0
DICTIONARY
  5
8509
330
8112
100
AcDbDictionary
280
     1
281
     1
  3
ACAD_XREC_ROUNDTRIP
360
850A
  0
DICTIONARY
  5
850B
330
8113
100
AcDbDictionary
280
     1
281
     1
  3
ACAD_XREC_ROUNDTRIP
360
850C
  0
DICTIONARY
  5
850D
330
8114
100
AcDbDictionary
280
     1
281
     1
  3
ACAD_XREC_ROUNDTRIP
360
850E
  0
DICTIONARY
  5
8515
330
8118
100
AcDbDictionary
280
     1
281
     1
  3
ACAD_XREC_ROUNDTRIP
360
8516
  0
DICTIONARY
  5
8531
330
8126
100
AcDbDictionary
280
     1
281
     1
  3
ACAD_XREC_ROUNDTRIP
360
8532
  0
DICTIONARY
  5
8521
330
811E
100
AcDbDictionary
280
     1
281
     1
  3
ACAD_XREC_ROUNDTRIP
360
8522
  0
DICTIONARY
  5
8533
330
8127
100
AcDbDictionary
280
     1
281
     1
  3
ACAD_XREC_ROUNDTRIP
360
8534
  0
DICTIONARY
  5
8519
330
811A
100
AcDbDictionary
280
     1
281
     1
  3
ACAD_XREC_ROUNDTRIP
360
851A
  0
DICTIONARY
  5
852F
330
8125
100
AcDbDictionary
280
     1
281
     1
  3
ACAD_XREC_ROUNDTRIP
360
8530
  0
DICTIONARY
  5
852D
330
8124
100
AcDbDictionary
280
     1
281
     1
  3
ACAD_XREC_ROUNDTRIP
360
852E
  0
DICTIONARY
  5
8527
330
8121
100
AcDbDictionary
280
     1
281
     1
  3
ACAD_XREC_ROUNDTRIP
360
8528
  0
DICTIONARY
  5
8529
330
8122
100
AcDbDictionary
280
     1
281
     1
  3
ACAD_XREC_ROUNDTRIP
360
852A
  0
DICTIONARY
  5
851F
330
811D
100
AcDbDictionary
280
     1
281
     1
  3
ACAD_XREC_ROUNDTRIP
360
8520
  0
DICTIONARY
  5
8513
330
8117
100
AcDbDictionary
280
     1
281
     1
  3
ACAD_XREC_ROUNDTRIP
360
8514
  0
DICTIONARY
  5
852B
330
8123
100
AcDbDictionary
280
     1
281
     1
  3
ACAD_XREC_ROUNDTRIP
360
852C
  0
XRECORD
  5
853C
102
{ACAD_REACTORS
330
853B
102
}
330
853B
100
AcDbXrecord
280
     1
102
DISPLAYNAME
  1
Imperial24
102
FLAGS
 90
        0
  0
XRECORD
  5
8540
102
{ACAD_REACTORS
330
853F
102
}
330
853F
100
AcDbXrecord
280
     1
102
SHADEPLOT
 70
     0
102
SHADEPLOTRESLEVEL
 70
     2
102
SHADEPLOTCUSTOMDPI
 70
   300
  0
XRECORD
  5
853E
102
{ACAD_REACTORS
330
853D
102
}
330
853D
100
AcDbXrecord
280
     1
102
SHADEPLOT
 70
     0
102
SHADEPLOTRESLEVEL
 70
     2
102
SHADEPLOTCUSTOMDPI
 70
   300
  0
XRECORD
  5
8505
102
{ACAD_REACTORS
330
8101
102
}
330
8101
100
AcDbXrecord
280
     1
102
MATERIAL
148
0.0
149
0.0
149
0.0
 93
        0
 94
      127
282
     0
 72
     0
 77
     0
171
     0
175
     0
179
     0
273
     0
  0
XRECORD
  5
8103
102
{ACAD_REACTORS
330
8101
102
}
330
8101
100
AcDbXrecord
280
     1
270
     1
271
     1
  0
XRECORD
  5
8102
102
{ACAD_REACTORS
330
8101
102
}
330
8101
100
AcDbXrecord
280
     1
270
     1
271
     1
  0
XRECORD
  5
8106
102
{ACAD_REACTORS
330
8101
102
}
330
8101
100
AcDbXrecord
280
     1
270
     1
271
     1
  0
XRECORD
  5
8105
102
{ACAD_REACTORS
330
8101
102
}
330
8101
100
AcDbXrecord
280
     1
270
     1
271
     1
  0
XRECORD
  5
8107
102
{ACAD_REACTORS
330
8101
102
}
330
8101
100
AcDbXrecord
280
     1
270
     1
271
     1
  0
XRECORD
  5
8104
102
{ACAD_REACTORS
330
8101
102
}
330
8101
100
AcDbXrecord
280
     1
270
     1
271
     1
  0
XRECORD
  5
8504
102
{ACAD_REACTORS
330
80F9
102
}
330
80F9
100
AcDbXrecord
280
     1
102
MATERIAL
148
0.0
149
0.0
149
0.0
 93
        0
 94
      127
282
     0
 72
     0
 77
     0
171
     0
175
     0
179
     0
273
     0
  0
XRECORD
  5
80FB
102
{ACAD_REACTORS
330
80F9
102
}
330
80F9
100
AcDbXrecord
280
     1
270
     1
271
     1
  0
XRECORD
  5
80FA
102
{ACAD_REACTORS
330
80F9
102
}
330
80F9
100
AcDbXrecord
280
     1
270
     1
271
     1
  0
XRECORD
  5
80FE
102
{ACAD_REACTORS
330
80F9
102
}
330
80F9
100
AcDbXrecord
280
     1
270
     1
271
     1
  0
XRECORD
  5
80FD
102
{ACAD_REACTORS
330
80F9
102
}
330
80F9
100
AcDbXrecord
280
     1
270
     1
271
     1
  0
XRECORD
  5
80FF
102
{ACAD_REACTORS
330
80F9
102
}
330
80F9
100
AcDbXrecord
280
     1
270
     1
271
     1
  0
XRECORD
  5
80FC
102
{ACAD_REACTORS
330
80F9
102
}
330
80F9
100
AcDbXrecord
280
     1
270
     1
271
     1
  0
XRECORD
  5
8506
102
{ACAD_REACTORS
330
8109
102
}
330
8109
100
AcDbXrecord
280
     1
102
MATERIAL
148
0.0
149
0.0
149
0.0
 93
        0
 94
      127
282
     0
 72
     0
 77
     0
171
     0
175
     0
179
     0
273
     0
  0
XRECORD
  5
810B
102
{ACAD_REACTORS
330
8109
102
}
330
8109
100
AcDbXrecord
280
     1
270
     1
271
     1
  0
XRECORD
  5
810A
102
{ACAD_REACTORS
330
8109
102
}
330
8109
100
AcDbXrecord
280
     1
270
     1
271
     1
  0
XRECORD
  5
8223
102
{ACAD_REACTORS
330
8109
102
}
330
8109
100
AcDbXrecord
280
     1
 70
     1
 90
1959938040
 71
     1
  1
8C6323E3-EE80-4789-AB87-BCEA5195D150
311
504B030414000608080011816E5773DC26D7D7000000200100004F00000031424244353832352D463531412D343043352D423439412D3744373342343939353936422F4173736574446174612F446566696E6974696F6E4974657261746F7250726F706572746965732E62696EEB606060F80F0540260323103700495E20ED
311
9E9A975A94991C9C9C919A9BC8C00612C9C94F4ACC6147C831019920AE4B6A5A62694E0948976F6671726A4E4E625E6A7E69B12042A9426E6209D0B8C41C3D90264E20860914834C48875806B2DF0F88414E02D189290556F689C5C5A925B6FA694915FA4EAEE666AECEC696BAC62E4E96BA26E6962EBA4EE64666BA06162E
311
2E4EAE26CE9646E64EFA45A9C5F9A545C9A9C5FA46FA06F15093E30BF2D283221DEB0C19188280D6B330BCDF9715AE15901B2E3B430F68914B7A73CC4E83999B804C24B00F00504B030414000608080011816E576C9EBE3DF0000000300200004500000031424244353832352D463531412D343043352D423439412D374437
311
3342343939353936422F4173736574446174612F496E7374616E636550726F706572746965732E62696EEB606060F80F0540260323103700495E20ED9E9A975A94991C9C9C919A9BA80214B070363336327635D67575B530D03531B7B0D47574B230D7757276753435B43475313435604768046931363471713532B5D43535
311
3131D635313332D475727372D13534373670367376B67474B5042A03DBCBA019D37FE8ABC6157B20CD04146B0062181F4C03F940F0C11EA29A8141C08141002C0426541C106CAC2CA046088033B02A030AC2157C6006F21A8018AAF50194E6010A610250382264E08660284CD9E98021862280A91564B406929A0FF62C401E
311
28B6F88038B83CB1243943D7A928312F25350524131B1BFB9F161800504B030414000608080011816E5728BB58AF800100009E0500003D00000031424244353832352D463531412D343043352D423439412D3744373342343939353936422F536368656D61732F436F6D6D6F6E536368656D612E786D6CBD544D4FC23018BE
311
FB2B96DE15493C78601010A34B880709DEDFB52FD0D8B54BD70DF6EFED3AC0B12E6442E2716BFB3CEFF3D18E26FB440405EA8C2B1992E1C323095052C5B8DC842437EBFB673219DF8DA659866649B798C078B48AE6410122242F2A4994AC7F93815DF85C049C8564CA0A901499DD886B2EB9B1E02448F358701A9235880C49
311
A0119892A20C89D1B9FD768815CAD268CB5E0355B40B1E47F3E37A2020464BED06AA57CE8FCC20C3C3446D46761A2632A8C1283D07031EFF2AE7CCB1BFEEE916E406DFAC8E36FFD99A9D60A6944090EEDC3B670C7DC13DE86B6B2C5C240D6E503BB85ACD579D513F1B9F9A69DC9CC22AFA80C426D40AF0B21EA168559156B6
311
276F0F726A6BFF04DCD513A87A62CAD41FB24FCB2858B3952E3D852084DA25B9303C15687973CC8E8AAE11DF2836C38C6A9E765E8C1BA1BFB1DC29CDFE518C8B5A7655A4ED7E77291ABEB80DBD82EC866ADE1B8D05AF9E35CF09D7A061F38A986D9EC412B8F0F65E5D81534D9B231D1E5A8FE577A241F3A5FD01504B030414
311
000608080011816E572CCEBD668A040000E01200003E00000031424244353832352D463531412D343043352D423439412D3744373342343939353936422F536368656D61732F47656E65726963536368656D612E786D6CD5586D6FDB380CFE7EBF42F0F7A649B70E1B90744856B4970F450FCD7A5F05459613EDE4174872DA
311
DCAF3F522F8ED3B88D2F1D06AC4050DBA2493EE4438AF2F8EB73AEC8466823CB62928C06C384888297A92C5693A4B6D9D9E7E4EBD51FE3A931C22EF85AE4EC6AFC38BF261BA626C9AD288496DC3F4FCEAFC63366845F7A10452AF41DB320C0D44EC26EAB20918735565582695670811A6A49643A49A6E9069FA4604A64B290
311
16DC4B48552F95E4932463CA888468C1D2B250DB4962750DF7CE273069CE8363F1FF4EDB00E0A21999574AE4A2B00C353B93F3BD4777B8A61ED8F604ABFEDD79CE56A2B7BDFBDBC50996E0ADDE16FED26223C5D30956C29BDF4A55EA686E5E58B112DA45CE67F76F4FA27EFA3FB672FD7372FC388FAECDCA5209E693CAD167
311
BADCD272F943701B3812F8A3D852008B1D2E32DB927B2F833C6EA95879925356D254582695095A3CE982924720BE5774A3CB9CDCDB350427D2DF20DA1B5532EBE2D5D6288D75D4F7E4FD9890A0EF8E3D93EBB8F8BA4758158EF6FB90A6F9520281C93DE7AAC6D24607DA296BB96018123F821A7D6A5C5884050C475DA48654
311
42732C8B95684A50165CBB3A32F25F783A4A480ED59AD7F924B968AEA50131F46303223E6A397B0E52976030DC1DCA81D7E7C1EDEEA42C19FF27635C505E2BD5198A599020DF50A2330FCB3AAF28CB0124108429553EF1B228802E2265D8F7CC2401042B155BCC7070F1E5C55F13B4A9577362CCCE46C32174E010C3C378C4
311
4841A4BDA00FE3A12006CE11EE6AEC59894D3526DDE1CD59D503ECC324017F8061B7F162162FA62EDD81AE3308617770796DCBDAD2B2625C5AE8A63DE20B2C8AA5E95E76E5730823955956E33E705425A2187C185D36489A1B44D3DCEC2172F6BA2105C3546287A7194B2331768EBBE64F6E70A9930ABE0ADEA89E9E2C3852
311
3B810287AD67A54A039C1606EAFE68F8304610BB9093DBDDABC0B2AE4E290DCDA15376D7E39F72B556F0B32EAB5D3D498B4C41ABADEC3A1434C422D87E8025A84BDCB2B1417ED750FAE4DA8976863974C577C7F902D3F156AD354DEA3540DE6BEAE2BEA52F7A2EB4CA43802ECE5BF2CE2EDC9347179FFB023CE412E60BE16D
311
A0BE29B374988A553F561DC04615DD35F7D2C8979F60E5955CE93DF29DED8AFA1EE6642D53418086C03C47C377910F75F7E8F5EF665F70B60FFB22AEDF897D119E8423C773E819A3C1E55E550599EE6EDCA34D0C86FD72057DF2CD46F16A470682471C164E4346D5306BF12D7D12D82CFF673D41636C347443FEB51B50D72E
311
A171A8E4A58623A4A16E0FA2B8B10A0D23268D87C33896EE8FB73305A74BF224EDBADFA0BD674AB354D63DB7BD5D83426761C077DE767728235446A552754EB93B755891C3C4CC6CADE37CF0E912A7BB38DBA010F9DE1282EDF470CA69A9CDA482E334C4A6EA4107987980B17E72F31730EBF88BBD39E7C629F56797A3C000
311
9C2C5AE7951D9A05A02773440F02EEB4DE396A3B6A570C72CCFBCD823B0B8ED3F1D5CEDDFED772FA70236C83FB7D86C385D570B87107535572A60A96035F8F7C6A7192F13007246BBE0521855E6AC46F3E27689CEE7D186A6FD679D98CDCAD13333E04EBE7ED6F55FF01504B030414000608080011816E576180134D5F0100
311
006B0300004500000031424244353832352D463531412D343043352D423439412D3744373342343939353936422F536368656D61732F52656E6465724D6174657269616C536368656D612E786D6CA5934D6FC2300C86EFFB1551EEE343DBA41D1A103009551ADAD40EAE28A4A68D9426284961FCFBE5A340113B2071746D3F
311
765EBF4DC6BFB5407BD0862B49F0B037C0082453059725C18DDD3EBFE3F1E829991803366715D474942CD30FB4A782E00C64017A412D684E454CE3FE28995203B162A6EA5AC94B66997D225E109CD63B0135484BAD1B3C07E9080CA35DB3119C11BCA5C200461A68A1A438126C75E3E230D40FF81FB3F03C91D1E3A3A0AF79
311
FE28E25BC39EC3E17E4C2A2D94A0833A51AF55BCCA7D88572FCBAC529C4140B020FC3AAFA886621DCED7EAD7664CC86024E806DC297DA1BB393E4156543457A4537DB8817349A70F8ACBF09B3EEE2CB2F33E91B65D60786E4E3B39B77E3FEEEF5650424525DA657FB8B46BE6BF064646F0A0F7327C0BC1BC1B4CBBC1C419FA
311
3CCB23500007872A2580CAAE5461865565294E4EDB4617B62FF579DF9A5B2F54E834076A597573A020912FED777F9B3F504B030414000608080011816E57259F9C2651000000570000004700000031424244353832352D463531412D343043352D423439412D3744373342343939353936422F4173736574446174612F4173
311
7365745461626C654F66436F6E74656E74732E62696E53616060B070363336327635D67575B530D03531B7B0D47574B230D7757276753435B434753134351002AACB4D2C492DCA4CCC492C28484D2C4ACC4B4E050A82012F90744FCD03CA26072767A4E6260200504B030414000608080011816E57F8658340580000006800
311
00004500000031424244353832352D463531412D343043352D423439412D3744373342343939353936422F4173736574446174612F53747265616D56657273696F6E5461626C652E696E66558CBD0A80300C06F73E4B117FB66E451741D041DC5BF98480A492E4FDD18EAEC7DD4555D89EF28DF51A0B1BD8340C4DE7DD848B
311
988C0ACF0649566493F2408C508DDEBB99D5129FF8F1AF8CF5B9503E20FAE5A16B5AF702504B030414000608080011816E5745DB2437350100009A0400003600000031424244353832352D463531412D343043352D423439412D3744373342343939353936422F4173736574446174612F636E782E786D6CCD94314FC33010
311
85FF4AE43D76D202AA2AC71582A51348540C6C57E752AC3A76645F10FC7BEC3403A888A943D7F3BBF3F327BF939BCFDE161F18A2F1AE6135AF58814EFBD6B843C346EACA152B364A06EFE9878C150E7A6C582E33250FC18FC35C6AB183D1E6AA35EE3817EF6344DAC1DEE253F7E01DA1A3C80A6D21C68645FD8E3D7018C9B7
311
188FBC05025EF380D18F41639A44A6C779920E08842D538B6AB12CEBBAAC6F76F5DDBA5AAD97B76F5264A5927BEFEDAC37E9B2E087429F6E65AA92221F2B3906336BF25B98FACB23DF1B2745522A1929242673077D0DA90386C11A0D94D009AF09A94C22845E8A9358499119FC22F1889D7126B76C9331201F9E933D0C64F0
311
EA88FCE7F5F264B62E12388DD7CBE3DCE1E529BC4C3FE8F514C82931D796937387DCB8EE022911D31A49A1C95B457D03504B030414000608080011816E57168876C9080100004F0300003400000031424244353832352D463531412D343043352D423439412D3744373342343939353936422F536368656D61732F636E782E
311
786D6CCD933F4F432114C5BFCA0B7BE1D1AA691A1E1D1C9C5CD4C90DE1B69202F7853F46BFBDF0646813371DBAC1E11772CEE122F69FDE0D1F1093C530114E473240D0686C384EA4E4C36A4B86BD1411319F616408CAC3449A4CA438462C73970C1C54714D75369CBA788FDE6378D6EFE01519B453294D242D5BAA4A4603E9
311
448DCA8A721A2161891AEA0DD97AE837E8082A8321723DAE372BCE57FCE685DFEDC6ED6E73FB2A5823A57843749DB72143C479D05817A1DA19056BC75294683BD3321079EE8DD63604AB841429C7DA4127F3D75C4935CFCE6A956B556C017F1829588B7A11F8010244ABAF33F185B97F8BFC04C1407CACAF14AD72D799FC37
311
8F7F2B802DB35F47A07D05F90D504B030414000608080011816E57410A3D5871000000A40000002C00000031424244353832352D463531412D343043352D423439412D3744373342343939353936422F636E782E786D6C55CC4D0E82301086E1AB34B31774E7A22D31F1069E60020334B633A63FC6E34B0909B07DDE2F9FEE
311
7EC1AB2FC5E4840DDC9A2B28E25E06C7938192C7CB1D54677514C9871928C640062A83D55394F2D968A0118BAFEA1DBF377CA444F98919176EAB9FEAAB9F2960DA5BBB1E2ED3FA6FFF504B030414000608080011816E576897DEE07F000000A300000007000000636E782E786D6C4D8C410EC2201444AF42FE1E2DDA6F4B02
311
34C5C67B349636440A068BF1F882E9C2D59BBCCC8CE83EAB236F135F367809EC500131FE1E26EB1709699B690BA4532286B0FDD580F87135128A06259618D273579399C7E48A75D63F76C9B41EB03D21BD21EB695D5D91EA9AF7B4199A730E1CF945E7C5B14C327E7F99E55E7D01504B030414000608080011816E5716E99B
311
5DA600000035010000130000005B436F6E74656E745F54797065735D2E786D6C9590410E82301045AFD2740F4517C6180A0BF5065E60AC53688469D30E066F6F91AD9AB89CF9FFFD3F99BA9DC7413C3026E749CB4D59498164FCCD51A7E5C4B6D84BD136F5E5193089ECA5A465CF1C0E4A25D3E308A9F401292BD6C711388F
311
B15301CC1D3A54DBAADA29E38991B8E0254336F5092D4C038BF39CD76B6FC6A538AEBEA54A4B08617006389FA516557DE4AE8E7E70DE30729138228C5F021CD93F02D4FB0DCD0B504B030414000608080011816E573DEE336E64000000790000001B0000006175746F6465736B2D64657369676E2D7061636B6167652E786D
311
6C35CBC10E83200C00D05F21DCA56CA76D41FC96062B120735B69A7DBE268BB7777961F8D5AF396893C2ADB70FE7ADA196782C2DF776D7A97B5933C430F15651E5469C55D70F80A4992A3ADC954792C525AE70A1E4D6AD9816CC044FEFDF01FE3FDE907802504B030414000608080011816E57A4FF3B6AF800000096010000
311
3700000031424244353832352D463531412D343043352D423439412D3744373342343939353936422F4173736574446174612F636F72652E786D6C8550CB6E833010FC15B47703068350641C2540BFA0A7DE2CE3102BC1467E54FDFCDA814AEDA9A75DCDCECCEE0E3D7FADCFEC535AA78CEE01E72564520B332BBDF410FC0D
311
75909D19B5C6F85F34C8345F650F090646176BC27640C2682F7542B599E50172E7A4874C3C63D3831377B9F29C071F19EE916F5C3CF822739CEF3C464350F3215573745337252DB072C0048F5383DEC8D821325C08BAB6A442EDD036D33455E5B5AE6991C48C7AB5FE6C1756722F67605559D5086384C93B6E4F6577AA9B0F
311
5A2426A3CEDBF8F3B1347D07EC92AE1EB9E7B4D8A77F5CC336FFEF1A94F67575B8EE0A070CC7235F03468B94522CAF08634D89B26F504B030414000608080011816E57E0295FE6F7000000940100003500000031424244353832352D463531412D343043352D423439412D3744373342343939353936422F536368656D6173
311
2F636F72652E786D6C8550CB6E833010FC15B47703068350641C3584FE407BEACD320EB1126CE447D5CFAF0D546A4F3DED6A76667677E8F96B79669FD23A65740F382F21935A9849E9B987E06FA883ECCCA835C6FFA241A6F9227B4830303A5B13D60312467BA913AACD240F903B273D64E2199B1E9CB8CB85E73CF8C8708F
311
7CE5E2C16799E37CE7311A829A0EA99AA29BBA296981950326F83A36E8955C3B448617822E2DA9503BB4CD388E5579A96B5A2431A35E2D3FDB8595DCCB0958555635C21861F28EDB53D99DEAE6831689C9A8F336FE7C2C4DDF017BDBEE74B4D8677F3CC33AFDEF1994F6757578EE0A070CC713B701A345CA28962DC058539E
311
EC1B504B030414000608080011816E579E4C438F00010000D70100002D00000031424244353832352D463531412D343043352D423439412D3744373342343939353936422F636F72652E786D6C9551CB6EC32010FC15C41DDBD82671224C1437EA17F4D41B351B1725068B47D5CF2FD4AEDADEDA13AB61667767969FDEE73B
311
7A03E7B5353DA645851198D12A6DA61EC770251D4627C19DB5E1070D232367E87186B1E093B371D9A0D19A0026A3C62AD840E93D048CC67B2A7AECC75798652163480C7F2B1639DEE404052D569EE041CF5FD2D1810CA0B0A8ABBA219412DA3ED1DDB1EA8E0D7BE665660A1EB5094DBD0D83F90514B24B4896B060BC5C7F13
311
2B6AB571B44A3BEAAB0687051D860BEB6A461E193D93B67A6064680F67B2BFEC9B541CD86137A426492CB80F2E25B335C919FC55BE0A7F398B8BFAA7B355E1D3CC6F53658E59F0F2F306E9CD27111F504B030414000608080011816E57E56A3A9A07010000B201000008000000636F72652E786D6C8D504B6EC32014BC0A62
311
8F6D6C6C4511266A1CF7045D754781382836587CA2F6F685D895DA5D570FCDCC7B330C3D7D2E337828E7B5353DC445058132C24A6DA61EC6704507084E8C3A6BC32F1904862FAA8719868C4ECEC67587843541998C1A2BD50E72EF558040CCE9D1432F6E6AE1058F2129FCBD58B9B8F34915B8D8748C06BDFCAC0AA7785012
311
B2BAAA1B8431C2E40D77C7EA706CDA775A6625A3316AB95B6999DCF5552B07593560822F638B5EC9E580C8F042D0B92335EA86AE1DC7B1AECE4D43CBBCCCA80F2EFD793F927206E0F923FBD272A318FDB076DE05299404D6CC5FC9849699F8133AAEF21FA1B5094DBD1FDC363C6438057A12C9383798C6B3DE3473DBEC1B50
311
4B0102140014000608080011816E5773DC26D7D7000000200100004F000000000000000000000000000000000031424244353832352D463531412D343043352D423439412D3744373342343939353936422F4173736574446174612F446566696E6974696F6E4974657261746F7250726F706572746965732E62696E504B01
311
02140014000608080011816E576C9EBE3DF00000003002000045000000000000000000000000004401000031424244353832352D463531412D343043352D423439412D3744373342343939353936422F4173736574446174612F496E7374616E636550726F706572746965732E62696E504B0102140014000608080011816E
311
5728BB58AF800100009E0500003D000000000000000000000000009702000031424244353832352D463531412D343043352D423439412D3744373342343939353936422F536368656D61732F436F6D6D6F6E536368656D612E786D6C504B0102140014000608080011816E572CCEBD668A040000E01200003E000000000000
311
000000000000007204000031424244353832352D463531412D343043352D423439412D3744373342343939353936422F536368656D61732F47656E65726963536368656D612E786D6C504B0102140014000608080011816E576180134D5F0100006B0300004500000000000000000000000000580900003142424435383235
311
2D463531412D343043352D423439412D3744373342343939353936422F536368656D61732F52656E6465724D6174657269616C536368656D612E786D6C504B0102140014000608080011816E57259F9C26510000005700000047000000000000000000000000001A0B000031424244353832352D463531412D343043352D42
311
3439412D3744373342343939353936422F4173736574446174612F41737365745461626C654F66436F6E74656E74732E62696E504B0102140014000608080011816E57F865834058000000680000004500000000000000000000000000D00B000031424244353832352D463531412D343043352D423439412D374437334234
311
3939353936422F4173736574446174612F53747265616D56657273696F6E5461626C652E696E66504B0102140014000608080011816E5745DB2437350100009A04000036000000000000000000000000008B0C000031424244353832352D463531412D343043352D423439412D3744373342343939353936422F4173736574
311
446174612F636E782E786D6C504B0102140014000608080011816E57168876C9080100004F0300003400000000000000000000000000140E000031424244353832352D463531412D343043352D423439412D3744373342343939353936422F536368656D61732F636E782E786D6C504B0102140014000608080011816E5741
311
0A3D5871000000A40000002C000000000000000000000000006E0F000031424244353832352D463531412D343043352D423439412D3744373342343939353936422F636E782E786D6C504B0102140014000608080011816E576897DEE07F000000A3000000070000000000000000000000000029100000636E782E786D6C50
311
4B0102140014000608080011816E5716E99B5DA6000000350100001300000000000000000000000000CD1000005B436F6E74656E745F54797065735D2E786D6C504B0102140014000608080011816E573DEE336E64000000790000001B00000000000000000000000000A41100006175746F6465736B2D64657369676E2D70
311
61636B6167652E786D6C504B0102140014000608080011816E57A4FF3B6AF80000009601000037000000000000000000000000004112000031424244353832352D463531412D343043352D423439412D3744373342343939353936422F4173736574446174612F636F72652E786D6C504B0102140014000608080011816E57
311
E0295FE6F70000009401000035000000000000000000000000008E13000031424244353832352D463531412D343043352D423439412D3744373342343939353936422F536368656D61732F636F72652E786D6C504B0102140014000608080011816E579E4C438F00010000D70100002D00000000000000000000000000D814
311
000031424244353832352D463531412D343043352D423439412D3744373342343939353936422F636F72652E786D6C504B0102140014000608080011816E57E56A3A9A07010000B2010000080000000000000000000000000023160000636F72652E786D6C504B050600000000110011005A060000501700000000
310
504B030414000608080011816E57000000000000000000000000370000006662782F46453131453639392D384631382D343031362D424344422D4530314646444643373534352F617474726962757465732E62696E504B030414000608080011816E57000000000000000000000000350000006662782F4645313145363939
310
2D384631382D343031362D424344422D4530314646444643373534352F76657274696365732E62696E504B030414000608080011816E57F270F1330600000004000000360000006662782F46453131453639392D384631382D343031362D424344422D4530314646444643373534352F747269616E676C65732E62696E6366
310
60600000504B030414000608080011816E5751464CB48900000043010000360000006662782F46453131453639392D384631382D343031362D424344422D4530314646444643373534352F6469726563746F72792E786D6C9D8F310EC2300C45AF127987122606C71DD918B841D4B851A43646695A717C52A85029031293A5
310
A76FBF6FACEF7DA7264E43906840EF0FA03836E242F406C6DCEE4EA06AC22492573150D1F66C60C640E8938CB705396EEDD86DE9B5042FE27813D640EA63BB001C722AF6E55CB61E4863F58284D5D3F53DD715CE1C3985E63FD7F1B7EBDD617E9F1E504B030414000608080011816E579CBF7E3F3E070000201C0000340000
310
006662782F46453131453639392D384631382D343031362D424344422D4530314646444643373534352F6F626A656374732E786D6CDD595B6FE23814FE2B56F665F721242140614419954B4768D499D154B3DAB7C80443BD752E729296EEAFDF63C70E711A209D8BB4DA562AD4B18FCFF9CEFD64FAFE1031F444784693F8DA
310
F27AAE85481C265B1AEFAFAD22DFD9630BBD9FA1294F92BCB6CF42318EC8B52596ADD974CF9322554B5BB2C3056BAEDECEFF4259486262A190E12CBBB6B2F08144B8878B3CD992ECB1B7C539EEED77879ED72B379A64F71CA70F8DAB52CC499C03ABB01E0315C58167FE0B2239B3A9233618DBFC6EDBFA67B639527093511A
310
67398EC3575C35AEEB9FE0AA719DEF0D96ABFE70620F0703DF1E8CFA9E3DBF9D2F6DEFCA7717A3C56272B39A586836DD2409AB149092780B5A7CB166DED4114F2AF1150A6D7C87491C9350A1D9B6614B145D4AB2262606B09E14ADA69052D6DA82DF51F813DB3A8162B064A0AD85D39F75EB4D367F030859172BE51911569E
310
E51C74ADB02FFDC19D3AE5AAA1179AA108E78453CC10A31B8E392808B6960A32C8086F11A490C04C6A51D3ABF30A867DD997DAB8DC158C09FFB566D2D302F04792679233FA0FE147EEEBB7014F206D41E37CAC84CD5F522031993A72B17CE6F7D5C31248B463780FD602628A4D7EBF81D742C482F5D29A7DBCDD1CEE457C68
310
BF3CE5494A782E2C4F3AB3F23BADC19A6981F17500A5C4D5D4DD1195AF00FD2740BEE2054D41739C1E068781969DE338DB253C02ED2017D92EFC7191F8FAEADBD4A90ECF103262E5294CC16D7F12A68618C6DD354867D32730FA84FB4AB8FB1033B0E93B1A0B3F0743412C812588F7BBCDC19AAD2198C2229CC20CA487DFA9
310
23BE22F828E940BC6968A82DFC7650947698A69F1D75F5016C86D3B0529521E3297C873F05DF9BE5FDC7FB82EF7048EE94632FC98EC6348764DACE9001BAE1F2DFD69FA4477E60C906B3E369635308D7EC1311375AD472AFD482A45E801391864BCDC8953B0ADECE188E4952646ABD2D4E85094B78B079094A176EBDEB4F6D
310
03E565CA005A631924F790D3546062CD94B6AA40D8AB090A1686B9B2C07DA9D56053446980A3A48845A87D6D8A4D3E20CE084B04AA929A366CEDB59AEC96EE764506C1AB95E4C20052F9B3265C5AF800E2581BBF9CEC3886249AC401851C0CCED27A83714105DE799E33C2760165AC88821D6590478208A727E87794A09EB9
310
1EC9CB73C2B7AD044DCBD23EA96D4800AE80D520E96C55C67CA5534E9EA82833653ED3D9C0D8A1EA506B3638912E44A66801541BA334F3F162E4F7FD956FAF5663D71E5C8D27F6CD7C7C65CF17AB9BA137192EBDE1D14A2402C76855CF77A04A51E618FE973F14D126C694C1032136DEA6EFDECBEC79ED406874E6ABABD16A
310
E14F6C7F399FC0DD93A53DBFEA8F6C77BC5CCE5783C5A47F357738C99282872473FA8E1B68934CE37D13BDCB3114CA9ACBC94EEBAB29CCFF3886367382A1C4FF6A10ADACB2A520EC1A44C5D16608C5E1A348514108555FABFB348268938FB638F7C6B8ECF67C57FE78DEA4EF4EFAE3C9A832F6B3815ADEF3C371AE4D8210FA
310
CE220F921487346F4FA80D5C3AC6E937E5969EEF0D11A053FDAD2E399F67D425018DF09E043B2CBA8496C0784982D61CB6674996D19864B2CB7B55FD3568BA3D28A6CC9CDB6284340B2292E3EFB13FD936346C1A62330BA01FCDC544E062555019B4EA404E5114DD2F246E29FF4B90E1286565A77B0903AFAF21D03D4E9BC5
310
09A6C5154F606F01CE03774BE4E0E212F58A7D5D1FB46AAD497DF2DDE44FC0A3EB9A5F088FBEA27BE9D4838C2E7EC610544643CFBFD28AB88495BE2A177D1C2BA0F30C5F826742F70F9D0ACD6E3AA9956C65519D9308DA589C17BC93BF8E86EEAB8B545C683844EDA6371687B27FD31D1CA0271BB853E56DED1AA843690C73
310
AE4E82BC92A2D584A52EE44C4F8CAEDEE0D767955DA7FAC3F1F29757CC75E78BE4F0E7320E502D970158451FA3A66EADBA8D7A287BC6790881F45E7EDA73F0882DD91E1B33835C5B89AEEBD44BD5F35A04D40826B658C4D93BF1857DC5A06AE89E33E74359B439E5FA5A24B61E0CA78F7C184C9BB43E7FB86F508195CEA7BF
310
088CC87383825A5D886EF80CA96FEB63CFDFA0A024FAB63E73FC3FD1516805D6C668300DCE124661284FB6684F12C8DE3076E8D06DF08864322B83F1AA20A5DF087438FD54CE5473BC61FA74F8806130CD542F56843014858C796DA975F41B8C41C524520EA77A8FD086A91866A182D36B0B2C36A7D06DF53630CE92C34349
310
BD31AE04C7C6F15EE4FBF254F5FFF1984007A2D251AE6A4F175C9464863341619BCAF70450F5950F66D3EF175DB383700E5F37455E09735C384AA340D02F044AE160EAF7A8E03D4041715E2EAF27F71890749ACC9FB58392AA9D63BE97E3F51ADE37CB2F8E988CAF3FA394157BA1CE73DDAF41C9165D372BCA29D4140C4389
310
996251432EDE395F7802AF9822744BC108D0EF87F1E80F6791445112974BCE8D7A5185EE1FE0B5D3D6D1233F68E35D6FE8C829801AEB071B9C911EDE668FB000AAE554CC464B880D03A8A269CD00B446842EE098B17FBD44AA36AA4D48EA6157C02367FA081C49BCCB116E53DF501B40822F0057F2E1F18B5E983A1C86E0B3
310
7F01504B030414000608080011816E573A4E06453E01000046050000300000006662782F46453131453639392D384631382D343031362D424344422D4530314646444643373534352F636E782E786D6CCD944D4EC3301085AF62799FBF16505539AEC48213B040EC1C671A4C1D4F644F10BD3D76490A0815B1A8D4EEACF11B
310
E97D334F2336EFBD656FE0834157F32A2F3903A7B135AEABF948DB6CC5D9460A8F48DF649C39D543CD53994BD1791C87A9D4C2568D3655AD71BBA9A888BC694682C099B62A849A07FD02BDCAD548D842D8E5AD229557B98780A3D710FBC9F430F56B0F8AA0E572512E96595565D5CD6375B72E57EBE5EDB32892528A06D14E
310
7AE3083C0E4C637CB868A61445FA9662F466D224022EBF9CE58D71A288FF5284E8D675938EF643D20D83355A511C53819A80B22802D58BE2532C4591787F503FDC3FCD0E586B3C6842BFBFD000AA5303381ACB6312FEC77F10FE8D8DCD6BC4BDD4B64FC24EB6CE863AA735C4B8FEDE7F4C91729DBDBED01F8D9D3FF3F19490
310
D1D7873CFB3A137171387971E9E902CA0F504B030414000608080011816E57D29173DC7E000000A30000000B0000006662782F636E782E786D6C4D8CD10A832018465F45FE7B377FA866A00695BE472C0B59E97039F6F8D3D1C5AE3E387CE788EEB36FE46DE3CB052F012F0C88F5F7303BBF4A48C74239904E8918C2F17703
310
E2A7DD4A281894586348CF13CD7699D256E8E6FCE3844623EAA66D2937C869C5B0A1FD30F65433346634C3ADAEEA6C5C8B92E7D7CB5BF2EA0B504B030414000608080011816E57A6D797065F0000008200000007000000636E782E786D6C4DCB3B0E80201045D1AD90E9FD7516806B51190811670C8A61F982B1B0BAC9C97B
310
72CA7B1037C6D3332918DA1E04D2CAC69353902EDB8C20262D23F3F59B81A079470595414B17391D1F19B4730A5583A7ED43BBE4025D9592775E5ADFFA01504B030414000608080011816E574FEB6A7CA0000000F4000000130000005B436F6E74656E745F54797065735D2E786D6C7D8F4B0EC2300C44AF1279DFA6B04008
310
35ED02B8011730C16D239A8F121795DB93D02D6269CFBC19BBED573B8B17C564BC53B0AB1B10E4B47F18372A5878A88E20FAAEBDBD032591BD2E299898C349CAA427B2986A1FC86565F0D122E7318E32A07EE24872DF3407A9BD63725C71C980AEBDD080CBCCE2BAE6F5D69B7110E7CD57AA146008B3D1C8F92C5954F993BB
310
1BF787F39A89ABC491D09600F9FDA2FB00504B030414000608080011816E573DEE336E64000000790000001B0000006175746F6465736B2D64657369676E2D7061636B6167652E786D6C35CBC10E83200C00D05F21DCA56CA76D41FC96062B120735B69A7DBE268BB7777961F8D5AF396893C2ADB70FE7ADA196782C2DF776
310
D7A97B5933C430F15651E5469C55D70F80A4992A3ADC954792C525AE70A1E4D6AD9816CC044FEFDF01FE3FDE907802504B030414000608080011816E577AC1529CF8000000960100003B0000006662782F46453131453639392D384631382D343031362D424344422D4530314646444643373534352F7265736F7572636573
310
2F636F72652E786D6C8550CB4EC33010FC9568EF4EEC3C4AA91C57A5812FE0C4CD72B6A9D5C68EFC407C3E7613243871DAD5ECCCECEEF0E3D77C2F3ED1796D4D0FACA450A05176D466EA21860BD9437114DC591B7ED1A03072C61E320C824FCEC665839435014D468D1D7103A5F718A050F7D4F4E0D5156759CA1812C3DFCA
310
45AA9B9CB064E5CA133C463D6E523D26377DD1E840D4F4D4B2DDD091F3DBEB40DAE1E544F66D3B90AEA6ACA6F4993E9D075E65B1E041CF3FDB95431970CCFABA218C11D6BEB3DD81EE0F4DF7C1ABCC14DC07977EDE96E6EF4038F4363A859E57EBF48F6B5CC6FF5DA336A1A937D755E141B074E463207895534AE51161AA39
310
51F10D504B030414000608080011816E574D79477BF2000000B1010000310000006662782F46453131453639392D384631382D343031362D424344422D4530314646444643373534352F636F72652E786D6C8D50CB6EC32010FC156BEFD8C6AF3A11265212FB0B7AEA0D01715162B07854FDFC42EC4AED2DA745B333CCEC90
310
D3F7F2C8BEA475CAE801705E4226353742E97980E06FA887EC448935C6FFA141A6D92207483050325B13D61DE2467BA913AA8D903BC89C931E32FE888F011CFF940BCB59F091E1EEF9CAF89DCD32C7F9C6A3C4ABE557CAAD645E0AA05559D50863849B77DC1DCBFE58B71FA4484C4A425062B75222BAAB9B9216E834623C76
310
8703EA27DCA3A6C41D3A5FAE673496789AAED3E5AD6D5A52243125CEDB78F3FE49BAEE55F926FC9739ACE285CC4AFBBADA0D3785038A639EE78292221518C7B3DD3853D9F407504B030414000608080011816E57798A6CED53010000DD0200000C0000006662782F636F72652E786D6C8D525D6F832014FD2B867714ACEDBA
310
0669BABAFD823DED8D22B5A40A06C1F4E70FFC88F361DD6282E4DC7BCE3DF704727C3475D40BD349AD7280630422A1B82EA5AA72E0EC15EE4174A4C4686D7FB48148B146E420C08092CA68D74E10D7CA0A1550A54B3181ACEB840511AFFD25071DBF8986C5CC59DFD1DDE396F13BAB448CE3B18F12E764395165E9D5E4550A
310
03688A4E19DE155B78FE782F6056BC9DE03ECB0AB84D114E117A452FE78224814C8995CD3C9D1BC1AC28033FDD408C21CE3EF1EE80F687CDF68B24A19392CE1ABFF334346C07E8F5F220C988AFF45C5BFEADE7A4B29B74D21B191DA0D8DB1B0A9424211FFF1BC25B67E807FBFC2CBBD4F30A770FF5825B6D325F29B55B4A3D
310
AB9DF0D2281A3E928C55AF3C08FCA6933ED179AEE18362AAF2D698F5D78BB361FADA532B0CECED2352DA34AC5ECC8D16977319B45A69A6735D6BF31FF6BCEA1C66121E26FD06504B030414000608080011816E574C4F4EE105010000B201000008000000636F72652E786D6C8D50CB52C32014FD15863D09E4516B87D0A98D
310
7E812B770834324D20C3A3A37F2F3438A33B5797398F7B0E971E3F9719DC94F3DA9A01920A43A08CB0529B6980315CD01E8223A3CEDAF04B0681E18B1A608621A393B3712D90B02628935163A52A20F75E0508C49C1E03F4E2432DBCE2312485BF562B17573EA98A549B8ED1A0971FAB708A0725216B70D3224210E95EC9EE
310
80F787B67FA37556321AA396254ACB94AE2F5AB96C39756437F6E8FCF23CA26E7C3AA17DD78DA86F3069307EC40FE791D6D9CCA80F2EFDB92C493D03F0FC967369BD518CBE5B3B17412A258135F3176498D699F8533AAEF21FA5B5096D53166E0E0F194985EE440ACE174CE37EDE34F3B5D937504B01021400140006080800
310
11816E570000000000000000000000003700000000000000000000000000000000006662782F46453131453639392D384631382D343031362D424344422D4530314646444643373534352F617474726962757465732E62696E504B0102140014000608080011816E5700000000000000000000000035000000000000000000
310
00000000550000006662782F46453131453639392D384631382D343031362D424344422D4530314646444643373534352F76657274696365732E62696E504B0102140014000608080011816E57F270F13306000000040000003600000000000000000000000000A80000006662782F46453131453639392D384631382D3430
310
31362D424344422D4530314646444643373534352F747269616E676C65732E62696E504B0102140014000608080011816E5751464CB489000000430100003600000000000000000000000000020100006662782F46453131453639392D384631382D343031362D424344422D4530314646444643373534352F646972656374
310
6F72792E786D6C504B0102140014000608080011816E579CBF7E3F3E070000201C00003400000000000000000000000000DF0100006662782F46453131453639392D384631382D343031362D424344422D4530314646444643373534352F6F626A656374732E786D6C504B0102140014000608080011816E573A4E06453E01
310
00004605000030000000000000000000000000006F0900006662782F46453131453639392D384631382D343031362D424344422D4530314646444643373534352F636E782E786D6C504B0102140014000608080011816E57D29173DC7E000000A30000000B00000000000000000000000000FB0A00006662782F636E782E78
310
6D6C504B0102140014000608080011816E57A6D797065F000000820000000700000000000000000000000000A20B0000636E782E786D6C504B0102140014000608080011816E574FEB6A7CA0000000F40000001300000000000000000000000000260C00005B436F6E74656E745F54797065735D2E786D6C504B0102140014
310
000608080011816E573DEE336E64000000790000001B00000000000000000000000000F70C00006175746F6465736B2D64657369676E2D7061636B6167652E786D6C504B0102140014000608080011816E577AC1529CF8000000960100003B00000000000000000000000000940D00006662782F46453131453639392D3846
310
31382D343031362D424344422D4530314646444643373534352F7265736F75726365732F636F72652E786D6C504B0102140014000608080011816E574D79477BF2000000B10100003100000000000000000000000000E50E00006662782F46453131453639392D384631382D343031362D424344422D453031464644464337
310
3534352F636F72652E786D6C504B0102140014000608080011816E57798A6CED53010000DD0200000C00000000000000000000000000261000006662782F636F72652E786D6C504B0102140014000608080011816E574C4F4EE105010000B20100000800000000000000000000000000A3110000636F72652E786D6C504B05
310
06000000000E000E0080040000CE1200000000
  0
XRECORD
  5
810E
102
{ACAD_REACTORS
330
8109
102
}
330
8109
100
AcDbXrecord
280
     1
270
     1
271
     1
  0
XRECORD
  5
810D
102
{ACAD_REACTORS
330
8109
102
}
330
8109
100
AcDbXrecord
280
     1
270
     1
271
     1
  0
XRECORD
  5
810F
102
{ACAD_REACTORS
330
8109
102
}
330
8109
100
AcDbXrecord
280
     1
270
     1
271
     1
  0
XRECORD
  5
810C
102
{ACAD_REACTORS
330
8109
102
}
330
8109
100
AcDbXrecord
280
     1
270
     1
271
     1
  0
XRECORD
  5
853A
102
{ACAD_REACTORS
330
8539
102
}
330
8539
100
AcDbXrecord
280
     1
102
DISPLAYNAME
  1
Imperial24
102
FLAGS
 90
        0
  0
CELLSTYLEMAP
  5
8501
102
{ACAD_REACTORS
330
8500
102
}
330
8500
100
AcDbCellStyleMap
 90
        3
300
CELLSTYLE
  1
TABLEFORMAT_BEGIN
 90
        5
170
     1
 91
        0
 92
    32768
 62
   257
 93
        1
300
CONTENTFORMAT
  1
CONTENTFORMAT_BEGIN
 90
        0
 91
        0
 92
      512
 93
        0
300

 40
0.0
140
1.0
 94
        5
 62
     0
340
813C
144
0.25
309
CONTENTFORMAT_END
171
     0
 94
        0
309
TABLEFORMAT_END
  1
CELLSTYLE_BEGIN
 90
        1
 91
        1
300
_TITLE
309
CELLSTYLE_END
300
CELLSTYLE
  1
TABLEFORMAT_BEGIN
 90
        5
170
     1
 91
        0
 92
        0
 62
   257
 93
        1
300
CONTENTFORMAT
  1
CONTENTFORMAT_BEGIN
 90
        0
 91
        0
 92
      512
 93
        0
300

 40
0.0
140
1.0
 94
        5
 62
     0
340
813C
144
0.18
309
CONTENTFORMAT_END
171
     0
 94
        0
309
TABLEFORMAT_END
  1
CELLSTYLE_BEGIN
 90
        2
 91
        1
300
_HEADER
309
CELLSTYLE_END
300
CELLSTYLE
  1
TABLEFORMAT_BEGIN
 90
        5
170
     1
 91
        0
 92
        0
 62
   257
 93
        1
300
CONTENTFORMAT
  1
CONTENTFORMAT_BEGIN
 90
        0
 91
        0
 92
      512
 93
        0
300

 40
0.0
140
1.0
 94
        2
 62
     0
340
813C
144
0.18
309
CONTENTFORMAT_END
171
     0
 94
        0
309
TABLEFORMAT_END
  1
CELLSTYLE_BEGIN
 90
        3
 91
        2
300
_DATA
309
CELLSTYLE_END
  0
XRECORD
  5
8537
102
{ACAD_REACTORS
330
8500
102
}
330
8500
100
AcDbXrecord
280
     1
102
ACAD_ROUNDTRIP_PRE2007_TABLESTYLE
 90
      512
 91
        0
  1

 92
      512
 93
        0
  2

 94
      512
 95
        0
  3

  0
XRECORD
  5
8512
102
{ACAD_REACTORS
330
8511
102
}
330
8511
100
AcDbXrecord
280
     1
102
RTVSPost2010Prop28
280
     1
102
RTVSPost2010PropOp28
 70
     1
102
RTVSPost2010Prop29
280
     1
102
RTVSPost2010PropOp29
 70
     1
102
RTVSPost2010Prop30
280
     0
102
RTVSPost2010PropOp30
 70
     1
102
RTVSPost2010Prop31
280
     0
102
RTVSPost2010PropOp31
 70
     1
102
RTVSPost2010Prop32
280
     0
102
RTVSPost2010PropOp32
 70
     1
102
RTVSPost2010Prop33
280
     0
102
RTVSPost2010PropOp33
 70
     1
102
RTVSPost2010Prop34
280
     0
102
RTVSPost2010PropOp34
 70
     1
102
RTVSPost2010Prop35
280
     0
102
RTVSPost2010PropOp35
 70
     1
102
RTVSPost2010Prop36
280
     0
102
RTVSPost2010PropOp36
 70
     1
102
RTVSPost2010Prop37
 90
       50
102
RTVSPost2010PropOp37
 70
     1
102
RTVSPost2010Prop38
140
0.0
102
RTVSPost2010PropOp38
 70
     1
102
RTVSPost2010Prop39
140
1.0
102
RTVSPost2010PropOp39
 70
     1
102
RTVSPost2010Prop40
 90
        0
102
RTVSPost2010PropOp40
 70
     1
102
RTVSPost2010Prop41ColorIndex
 90
       18
102
RTVSPost2010Prop41ColorRGB
 90
        0
102
RTVSPost2010PropOp41
 70
     1
102
RTVSPost2010Prop42
 90
       50
102
RTVSPost2010PropOp42
 70
     1
102
RTVSPost2010Prop43
 90
        3
102
RTVSPost2010PropOp43
 70
     1
102
RTVSPost2010Prop44ColorIndex
 90
        5
102
RTVSPost2010Prop44ColorRGB
 90
      255
102
RTVSPost2010PropOp44
 70
     1
102
RTVSPost2010Prop45
280
     0
102
RTVSPost2010PropOp45
 70
     1
102
RTVSPost2010Prop46
 90
       50
102
RTVSPost2010PropOp46
 70
     1
102
RTVSPost2010Prop47
 90
       50
102
RTVSPost2010PropOp47
 70
     1
102
RTVSPost2010Prop48
 90
       50
102
RTVSPost2010PropOp48
 70
     1
102
RTVSPost2010Prop49
280
     0
102
RTVSPost2010PropOp49
 70
     1
102
RTVSPost2010Prop50
 90
       50
102
RTVSPost2010PropOp50
 70
     1
102
RTVSPost2010Prop51ColorIndex
 90
      256
102
RTVSPost2010Prop51ColorRGB
 90
-16777216
102
RTVSPost2010PropOp51
 70
     0
102
RTVSPost2010Prop52
140
1.0
102
RTVSPost2010PropOp52
 70
     0
102
RTVSPost2010Prop53
 90
        2
102
RTVSPost2010PropOp53
 70
     1
102
RTVSPost2010Prop54
  1
strokes_ogs.tif
102
RTVSPost2010PropOp54
 70
     1
102
RTVSPost2010Prop55
280
     0
102
RTVSPost2010PropOp55
 70
     1
102
RTVSPost2010Prop56
140
1.0
102
RTVSPost2010PropOp56
 70
     1
102
RTVSPost2010Prop57
140
1.0
102
RTVSPost2010PropOp57
 70
     1
102
RTVSPropertyOp0
 70
     1
102
RTVSPropertyOp1
 70
     1
102
RTVSPropertyOp2
 70
     1
102
RTVSPropertyOp3
 70
     1
102
RTVSPropertyOp4
 70
     1
102
RTVSPropertyOp5
 70
     1
102
RTVSPropertyOp6
 70
     1
102
RTVSPropertyOp7
 70
     1
102
RTVSPropertyOp8
 70
     1
102
RTVSPropertyOp9
 70
     1
102
RTVSPropertyOp10
 70
     1
102
RTVSPropertyOp11
 70
     1
102
RTVSPropertyOp12
 70
     1
102
RTVSPropertyOp13
 70
     1
102
RTVSPropertyOp14
 70
     1
102
RTVSPropertyOp15
 70
     1
102
RTVSPropertyOp16
 70
     1
102
RTVSPropertyOp17
 70
     1
102
RTVSPropertyOp18
 70
     1
102
RTVSPropertyOp19
 70
     1
102
RTVSPropertyOp20
 70
     1
102
RTVSPropertyOp21
 70
     1
102
RTVSPropertyOp22
 70
     1
102
RTVSPropertyOp23
 70
     1
102
RTVSPropertyOp24
 70
     1
102
RTVSPropertyOp25
 70
     1
102
RTVSPropertyOp26
 70
     1
102
RTVSPropertyOp27
 70
     1
102
RTVSPropertyOp28
 70
     1
102
RTVSPropertyOp29
 70
     1
102
RTVSPropertyOp30
 70
     1
102
RTVSPropertyOp31
 70
     1
102
RTVSPropertyOp32
 70
     1
102
RTVSPropertyOp33
 70
     1
102
RTVSPropertyOp34
 70
     1
102
RTVSPropertyOp35
 70
     1
102
RTVSPropertyOp36
 70
     1
102
RTVSPropertyOp37
 70
     1
102
RTVSPropertyOp38
 70
     1
102
RTVSPropertyOp39
 70
     1
102
RTVSPropertyOp40
 70
     1
102
RTVSPropertyOp41
 70
     1
102
RTVSPropertyOp42
 70
     1
102
RTVSPropertyOp43
 70
     1
102
RTVSPropertyOp44
 70
     1
102
RTVSPropertyOp45
 70
     1
102
RTVSPropertyOp46
 70
     1
102
RTVSPropertyOp47
 70
     1
102
RTVSPropertyOp48
 70
     1
102
RTVSPropertyOp49
 70
     1
102
RTVSPropertyOp50
 70
     1
102
RTVSPropertyOp51
 70
     0
102
RTVSPropertyOp52
 70
     0
102
RTVSPropertyOp53
 70
     1
102
RTVSPropertyOp54
 70
     1
102
RTVSPropertyOp55
 70
     1
102
RTVSPropertyOp56
 70
     1
102
RTVSPropertyOp57
 70
     1
102
RTVSPropertyOp58
 70
     1
102
RTVSPropertyOp59
 70
     1
102
RTVSPropertyOp60
 70
     1
102
RTVSPropertyOp61
 70
     1
102
RTVSPropertyOp62
 70
     1
  0
XRECORD
  5
8510
102
{ACAD_REACTORS
330
850F
102
}
330
850F
100
AcDbXrecord
280
     1
102
RTVSPost2010Prop28
280
     0
102
RTVSPost2010PropOp28
 70
     1
102
RTVSPost2010Prop29
280
     1
102
RTVSPost2010PropOp29
 70
     1
102
RTVSPost2010Prop30
280
     1
102
RTVSPost2010PropOp30
 70
     1
102
RTVSPost2010Prop31
280
     0
102
RTVSPost2010PropOp31
 70
     1
102
RTVSPost2010Prop32
280
     0
102
RTVSPost2010PropOp32
 70
     1
102
RTVSPost2010Prop33
280
     0
102
RTVSPost2010PropOp33
 70
     1
102
RTVSPost2010Prop34
280
     0
102
RTVSPost2010PropOp34
 70
     1
102
RTVSPost2010Prop35
280
     0
102
RTVSPost2010PropOp35
 70
     1
102
RTVSPost2010Prop36
280
     0
102
RTVSPost2010PropOp36
 70
     1
102
RTVSPost2010Prop37
 90
       50
102
RTVSPost2010PropOp37
 70
     1
102
RTVSPost2010Prop38
140
0.0
102
RTVSPost2010PropOp38
 70
     1
102
RTVSPost2010Prop39
140
1.0
102
RTVSPost2010PropOp39
 70
     1
102
RTVSPost2010Prop40
 90
        0
102
RTVSPost2010PropOp40
 70
     1
102
RTVSPost2010Prop41ColorIndex
 90
       18
102
RTVSPost2010Prop41ColorRGB
 90
        0
102
RTVSPost2010PropOp41
 70
     1
102
RTVSPost2010Prop42
 90
       50
102
RTVSPost2010PropOp42
 70
     1
102
RTVSPost2010Prop43
 90
        3
102
RTVSPost2010PropOp43
 70
     1
102
RTVSPost2010Prop44ColorIndex
 90
        5
102
RTVSPost2010Prop44ColorRGB
 90
      255
102
RTVSPost2010PropOp44
 70
     1
102
RTVSPost2010Prop45
280
     0
102
RTVSPost2010PropOp45
 70
     1
102
RTVSPost2010Prop46
 90
       50
102
RTVSPost2010PropOp46
 70
     1
102
RTVSPost2010Prop47
 90
       50
102
RTVSPost2010PropOp47
 70
     1
102
RTVSPost2010Prop48
 90
       50
102
RTVSPost2010PropOp48
 70
     1
102
RTVSPost2010Prop49
280
     0
102
RTVSPost2010PropOp49
 70
     1
102
RTVSPost2010Prop50
 90
       50
102
RTVSPost2010PropOp50
 70
     1
102
RTVSPost2010Prop51ColorIndex
 90
      256
102
RTVSPost2010Prop51ColorRGB
 90
-16777216
102
RTVSPost2010PropOp51
 70
     0
102
RTVSPost2010Prop52
140
1.0
102
RTVSPost2010PropOp52
 70
     0
102
RTVSPost2010Prop53
 90
        2
102
RTVSPost2010PropOp53
 70
     1
102
RTVSPost2010Prop54
  1
strokes_ogs.tif
102
RTVSPost2010PropOp54
 70
     1
102
RTVSPost2010Prop55
280
     0
102
RTVSPost2010PropOp55
 70
     1
102
RTVSPost2010Prop56
140
1.0
102
RTVSPost2010PropOp56
 70
     1
102
RTVSPost2010Prop57
140
1.0
102
RTVSPost2010PropOp57
 70
     1
102
RTVSPropertyOp0
 70
     1
102
RTVSPropertyOp1
 70
     1
102
RTVSPropertyOp2
 70
     1
102
RTVSPropertyOp3
 70
     1
102
RTVSPropertyOp4
 70
     1
102
RTVSPropertyOp5
 70
     1
102
RTVSPropertyOp6
 70
     1
102
RTVSPropertyOp7
 70
     1
102
RTVSPropertyOp8
 70
     1
102
RTVSPropertyOp9
 70
     1
102
RTVSPropertyOp10
 70
     1
102
RTVSPropertyOp11
 70
     1
102
RTVSPropertyOp12
 70
     1
102
RTVSPropertyOp13
 70
     1
102
RTVSPropertyOp14
 70
     1
102
RTVSPropertyOp15
 70
     1
102
RTVSPropertyOp16
 70
     1
102
RTVSPropertyOp17
 70
     1
102
RTVSPropertyOp18
 70
     1
102
RTVSPropertyOp19
 70
     1
102
RTVSPropertyOp20
 70
     1
102
RTVSPropertyOp21
 70
     1
102
RTVSPropertyOp22
 70
     1
102
RTVSPropertyOp23
 70
     1
102
RTVSPropertyOp24
 70
     1
102
RTVSPropertyOp25
 70
     1
102
RTVSPropertyOp26
 70
     1
102
RTVSPropertyOp27
 70
     1
102
RTVSPropertyOp28
 70
     1
102
RTVSPropertyOp29
 70
     1
102
RTVSPropertyOp30
 70
     1
102
RTVSPropertyOp31
 70
     1
102
RTVSPropertyOp32
 70
     1
102
RTVSPropertyOp33
 70
     1
102
RTVSPropertyOp34
 70
     1
102
RTVSPropertyOp35
 70
     1
102
RTVSPropertyOp36
 70
     1
102
RTVSPropertyOp37
 70
     1
102
RTVSPropertyOp38
 70
     1
102
RTVSPropertyOp39
 70
     1
102
RTVSPropertyOp40
 70
     1
102
RTVSPropertyOp41
 70
     1
102
RTVSPropertyOp42
 70
     1
102
RTVSPropertyOp43
 70
     1
102
RTVSPropertyOp44
 70
     1
102
RTVSPropertyOp45
 70
     1
102
RTVSPropertyOp46
 70
     1
102
RTVSPropertyOp47
 70
     1
102
RTVSPropertyOp48
 70
     1
102
RTVSPropertyOp49
 70
     1
102
RTVSPropertyOp50
 70
     1
102
RTVSPropertyOp51
 70
     0
102
RTVSPropertyOp52
 70
     0
102
RTVSPropertyOp53
 70
     1
102
RTVSPropertyOp54
 70
     1
102
RTVSPropertyOp55
 70
     1
102
RTVSPropertyOp56
 70
     1
102
RTVSPropertyOp57
 70
     1
102
RTVSPropertyOp58
 70
     1
102
RTVSPropertyOp59
 70
     1
102
RTVSPropertyOp60
 70
     1
102
RTVSPropertyOp61
 70
     1
102
RTVSPropertyOp62
 70
     1
  0
XRECORD
  5
851E
102
{ACAD_REACTORS
330
851D
102
}
330
851D
100
AcDbXrecord
280
     1
102
RTVSPost2010Prop28
280
     0
102
RTVSPost2010PropOp28
 70
     1
102
RTVSPost2010Prop29
280
     1
102
RTVSPost2010PropOp29
 70
     1
102
RTVSPost2010Prop30
280
     1
102
RTVSPost2010PropOp30
 70
     1
102
RTVSPost2010Prop31
280
     0
102
RTVSPost2010PropOp31
 70
     1
102
RTVSPost2010Prop32
280
     0
102
RTVSPost2010PropOp32
 70
     1
102
RTVSPost2010Prop33
280
     0
102
RTVSPost2010PropOp33
 70
     1
102
RTVSPost2010Prop34
280
     0
102
RTVSPost2010PropOp34
 70
     1
102
RTVSPost2010Prop35
280
     0
102
RTVSPost2010PropOp35
 70
     1
102
RTVSPost2010Prop36
280
     0
102
RTVSPost2010PropOp36
 70
     1
102
RTVSPost2010Prop37
 90
       50
102
RTVSPost2010PropOp37
 70
     1
102
RTVSPost2010Prop38
140
0.0
102
RTVSPost2010PropOp38
 70
     1
102
RTVSPost2010Prop39
140
1.0
102
RTVSPost2010PropOp39
 70
     1
102
RTVSPost2010Prop40
 90
        0
102
RTVSPost2010PropOp40
 70
     1
102
RTVSPost2010Prop41ColorIndex
 90
       18
102
RTVSPost2010Prop41ColorRGB
 90
        0
102
RTVSPost2010PropOp41
 70
     1
102
RTVSPost2010Prop42
 90
       50
102
RTVSPost2010PropOp42
 70
     1
102
RTVSPost2010Prop43
 90
        3
102
RTVSPost2010PropOp43
 70
     1
102
RTVSPost2010Prop44ColorIndex
 90
        5
102
RTVSPost2010Prop44ColorRGB
 90
      255
102
RTVSPost2010PropOp44
 70
     1
102
RTVSPost2010Prop45
280
     0
102
RTVSPost2010PropOp45
 70
     1
102
RTVSPost2010Prop46
 90
       50
102
RTVSPost2010PropOp46
 70
     1
102
RTVSPost2010Prop47
 90
       50
102
RTVSPost2010PropOp47
 70
     1
102
RTVSPost2010Prop48
 90
       50
102
RTVSPost2010PropOp48
 70
     1
102
RTVSPost2010Prop49
280
     0
102
RTVSPost2010PropOp49
 70
     1
102
RTVSPost2010Prop50
 90
       50
102
RTVSPost2010PropOp50
 70
     1
102
RTVSPost2010Prop51ColorIndex
 90
      256
102
RTVSPost2010Prop51ColorRGB
 90
-16777216
102
RTVSPost2010PropOp51
 70
     0
102
RTVSPost2010Prop52
140
1.0
102
RTVSPost2010PropOp52
 70
     0
102
RTVSPost2010Prop53
 90
        2
102
RTVSPost2010PropOp53
 70
     1
102
RTVSPost2010Prop54
  1
strokes_ogs.tif
102
RTVSPost2010PropOp54
 70
     1
102
RTVSPost2010Prop55
280
     0
102
RTVSPost2010PropOp55
 70
     1
102
RTVSPost2010Prop56
140
1.0
102
RTVSPost2010PropOp56
 70
     1
102
RTVSPost2010Prop57
140
1.0
102
RTVSPost2010PropOp57
 70
     1
102
RTVSPropertyOp0
 70
     1
102
RTVSPropertyOp1
 70
     1
102
RTVSPropertyOp2
 70
     1
102
RTVSPropertyOp3
 70
     1
102
RTVSPropertyOp4
 70
     1
102
RTVSPropertyOp5
 70
     1
102
RTVSPropertyOp6
 70
     1
102
RTVSPropertyOp7
 70
     1
102
RTVSPropertyOp8
 70
     1
102
RTVSPropertyOp9
 70
     1
102
RTVSPropertyOp10
 70
     1
102
RTVSPropertyOp11
 70
     1
102
RTVSPropertyOp12
 70
     1
102
RTVSPropertyOp13
 70
     1
102
RTVSPropertyOp14
 70
     1
102
RTVSPropertyOp15
 70
     1
102
RTVSPropertyOp16
 70
     1
102
RTVSPropertyOp17
 70
     1
102
RTVSPropertyOp18
 70
     1
102
RTVSPropertyOp19
 70
     1
102
RTVSPropertyOp20
 70
     1
102
RTVSPropertyOp21
 70
     1
102
RTVSPropertyOp22
 70
     1
102
RTVSPropertyOp23
 70
     1
102
RTVSPropertyOp24
 70
     1
102
RTVSPropertyOp25
 70
     1
102
RTVSPropertyOp26
 70
     1
102
RTVSPropertyOp27
 70
     1
102
RTVSPropertyOp28
 70
     1
102
RTVSPropertyOp29
 70
     1
102
RTVSPropertyOp30
 70
     1
102
RTVSPropertyOp31
 70
     1
102
RTVSPropertyOp32
 70
     1
102
RTVSPropertyOp33
 70
     1
102
RTVSPropertyOp34
 70
     1
102
RTVSPropertyOp35
 70
     1
102
RTVSPropertyOp36
 70
     1
102
RTVSPropertyOp37
 70
     1
102
RTVSPropertyOp38
 70
     1
102
RTVSPropertyOp39
 70
     1
102
RTVSPropertyOp40
 70
     1
102
RTVSPropertyOp41
 70
     1
102
RTVSPropertyOp42
 70
     1
102
RTVSPropertyOp43
 70
     1
102
RTVSPropertyOp44
 70
     1
102
RTVSPropertyOp45
 70
     1
102
RTVSPropertyOp46
 70
     1
102
RTVSPropertyOp47
 70
     1
102
RTVSPropertyOp48
 70
     1
102
RTVSPropertyOp49
 70
     1
102
RTVSPropertyOp50
 70
     1
102
RTVSPropertyOp51
 70
     0
102
RTVSPropertyOp52
 70
     0
102
RTVSPropertyOp53
 70
     1
102
RTVSPropertyOp54
 70
     1
102
RTVSPropertyOp55
 70
     1
102
RTVSPropertyOp56
 70
     1
102
RTVSPropertyOp57
 70
     1
102
RTVSPropertyOp58
 70
     1
102
RTVSPropertyOp59
 70
     1
102
RTVSPropertyOp60
 70
     1
102
RTVSPropertyOp61
 70
     1
102
RTVSPropertyOp62
 70
     1
  0
XRECORD
  5
8526
102
{ACAD_REACTORS
330
8525
102
}
330
8525
100
AcDbXrecord
280
     1
102
RTVSPost2010Prop28
280
     0
102
RTVSPost2010PropOp28
 70
     1
102
RTVSPost2010Prop29
280
     1
102
RTVSPost2010PropOp29
 70
     1
102
RTVSPost2010Prop30
280
     1
102
RTVSPost2010PropOp30
 70
     1
102
RTVSPost2010Prop31
280
     0
102
RTVSPost2010PropOp31
 70
     1
102
RTVSPost2010Prop32
280
     0
102
RTVSPost2010PropOp32
 70
     1
102
RTVSPost2010Prop33
280
     0
102
RTVSPost2010PropOp33
 70
     1
102
RTVSPost2010Prop34
280
     0
102
RTVSPost2010PropOp34
 70
     1
102
RTVSPost2010Prop35
280
     0
102
RTVSPost2010PropOp35
 70
     1
102
RTVSPost2010Prop36
280
     0
102
RTVSPost2010PropOp36
 70
     1
102
RTVSPost2010Prop37
 90
       50
102
RTVSPost2010PropOp37
 70
     1
102
RTVSPost2010Prop38
140
0.0
102
RTVSPost2010PropOp38
 70
     1
102
RTVSPost2010Prop39
140
1.0
102
RTVSPost2010PropOp39
 70
     1
102
RTVSPost2010Prop40
 90
        0
102
RTVSPost2010PropOp40
 70
     1
102
RTVSPost2010Prop41ColorIndex
 90
       18
102
RTVSPost2010Prop41ColorRGB
 90
        0
102
RTVSPost2010PropOp41
 70
     1
102
RTVSPost2010Prop42
 90
       50
102
RTVSPost2010PropOp42
 70
     1
102
RTVSPost2010Prop43
 90
        3
102
RTVSPost2010PropOp43
 70
     1
102
RTVSPost2010Prop44ColorIndex
 90
        5
102
RTVSPost2010Prop44ColorRGB
 90
      255
102
RTVSPost2010PropOp44
 70
     1
102
RTVSPost2010Prop45
280
     0
102
RTVSPost2010PropOp45
 70
     1
102
RTVSPost2010Prop46
 90
       50
102
RTVSPost2010PropOp46
 70
     1
102
RTVSPost2010Prop47
 90
       50
102
RTVSPost2010PropOp47
 70
     1
102
RTVSPost2010Prop48
 90
       50
102
RTVSPost2010PropOp48
 70
     1
102
RTVSPost2010Prop49
280
     0
102
RTVSPost2010PropOp49
 70
     1
102
RTVSPost2010Prop50
 90
       50
102
RTVSPost2010PropOp50
 70
     1
102
RTVSPost2010Prop51ColorIndex
 90
      256
102
RTVSPost2010Prop51ColorRGB
 90
-16777216
102
RTVSPost2010PropOp51
 70
     0
102
RTVSPost2010Prop52
140
1.0
102
RTVSPost2010PropOp52
 70
     0
102
RTVSPost2010Prop53
 90
        2
102
RTVSPost2010PropOp53
 70
     1
102
RTVSPost2010Prop54
  1
strokes_ogs.tif
102
RTVSPost2010PropOp54
 70
     1
102
RTVSPost2010Prop55
280
     0
102
RTVSPost2010PropOp55
 70
     1
102
RTVSPost2010Prop56
140
1.0
102
RTVSPost2010PropOp56
 70
     1
102
RTVSPost2010Prop57
140
1.0
102
RTVSPost2010PropOp57
 70
     1
102
RTVSPropertyOp0
 70
     1
102
RTVSPropertyOp1
 70
     1
102
RTVSPropertyOp2
 70
     1
102
RTVSPropertyOp3
 70
     1
102
RTVSPropertyOp4
 70
     1
102
RTVSPropertyOp5
 70
     1
102
RTVSPropertyOp6
 70
     1
102
RTVSPropertyOp7
 70
     1
102
RTVSPropertyOp8
 70
     1
102
RTVSPropertyOp9
 70
     1
102
RTVSPropertyOp10
 70
     1
102
RTVSPropertyOp11
 70
     1
102
RTVSPropertyOp12
 70
     1
102
RTVSPropertyOp13
 70
     1
102
RTVSPropertyOp14
 70
     1
102
RTVSPropertyOp15
 70
     1
102
RTVSPropertyOp16
 70
     1
102
RTVSPropertyOp17
 70
     1
102
RTVSPropertyOp18
 70
     1
102
RTVSPropertyOp19
 70
     1
102
RTVSPropertyOp20
 70
     1
102
RTVSPropertyOp21
 70
     1
102
RTVSPropertyOp22
 70
     1
102
RTVSPropertyOp23
 70
     1
102
RTVSPropertyOp24
 70
     1
102
RTVSPropertyOp25
 70
     1
102
RTVSPropertyOp26
 70
     1
102
RTVSPropertyOp27
 70
     1
102
RTVSPropertyOp28
 70
     1
102
RTVSPropertyOp29
 70
     1
102
RTVSPropertyOp30
 70
     1
102
RTVSPropertyOp31
 70
     1
102
RTVSPropertyOp32
 70
     1
102
RTVSPropertyOp33
 70
     1
102
RTVSPropertyOp34
 70
     1
102
RTVSPropertyOp35
 70
     1
102
RTVSPropertyOp36
 70
     1
102
RTVSPropertyOp37
 70
     1
102
RTVSPropertyOp38
 70
     1
102
RTVSPropertyOp39
 70
     1
102
RTVSPropertyOp40
 70
     1
102
RTVSPropertyOp41
 70
     1
102
RTVSPropertyOp42
 70
     1
102
RTVSPropertyOp43
 70
     1
102
RTVSPropertyOp44
 70
     1
102
RTVSPropertyOp45
 70
     1
102
RTVSPropertyOp46
 70
     1
102
RTVSPropertyOp47
 70
     1
102
RTVSPropertyOp48
 70
     1
102
RTVSPropertyOp49
 70
     1
102
RTVSPropertyOp50
 70
     1
102
RTVSPropertyOp51
 70
     0
102
RTVSPropertyOp52
 70
     0
102
RTVSPropertyOp53
 70
     1
102
RTVSPropertyOp54
 70
     1
102
RTVSPropertyOp55
 70
     1
102
RTVSPropertyOp56
 70
     1
102
RTVSPropertyOp57
 70
     1
102
RTVSPropertyOp58
 70
     1
102
RTVSPropertyOp59
 70
     1
102
RTVSPropertyOp60
 70
     1
102
RTVSPropertyOp61
 70
     1
102
RTVSPropertyOp62
 70
     1
  0
XRECORD
  5
8518
102
{ACAD_REACTORS
330
8517
102
}
330
8517
100
AcDbXrecord
280
     1
102
RTVSPost2010Prop28
280
     0
102
RTVSPost2010PropOp28
 70
     1
102
RTVSPost2010Prop29
280
     1
102
RTVSPost2010PropOp29
 70
     1
102
RTVSPost2010Prop30
280
     1
102
RTVSPost2010PropOp30
 70
     1
102
RTVSPost2010Prop31
280
     0
102
RTVSPost2010PropOp31
 70
     1
102
RTVSPost2010Prop32
280
     0
102
RTVSPost2010PropOp32
 70
     1
102
RTVSPost2010Prop33
280
     0
102
RTVSPost2010PropOp33
 70
     1
102
RTVSPost2010Prop34
280
     0
102
RTVSPost2010PropOp34
 70
     1
102
RTVSPost2010Prop35
280
     0
102
RTVSPost2010PropOp35
 70
     1
102
RTVSPost2010Prop36
280
     0
102
RTVSPost2010PropOp36
 70
     1
102
RTVSPost2010Prop37
 90
       50
102
RTVSPost2010PropOp37
 70
     1
102
RTVSPost2010Prop38
140
0.0
102
RTVSPost2010PropOp38
 70
     1
102
RTVSPost2010Prop39
140
1.0
102
RTVSPost2010PropOp39
 70
     1
102
RTVSPost2010Prop40
 90
        0
102
RTVSPost2010PropOp40
 70
     1
102
RTVSPost2010Prop41ColorIndex
 90
       18
102
RTVSPost2010Prop41ColorRGB
 90
        0
102
RTVSPost2010PropOp41
 70
     1
102
RTVSPost2010Prop42
 90
       50
102
RTVSPost2010PropOp42
 70
     1
102
RTVSPost2010Prop43
 90
        3
102
RTVSPost2010PropOp43
 70
     1
102
RTVSPost2010Prop44ColorIndex
 90
        5
102
RTVSPost2010Prop44ColorRGB
 90
      255
102
RTVSPost2010PropOp44
 70
     1
102
RTVSPost2010Prop45
280
     0
102
RTVSPost2010PropOp45
 70
     1
102
RTVSPost2010Prop46
 90
       50
102
RTVSPost2010PropOp46
 70
     1
102
RTVSPost2010Prop47
 90
       50
102
RTVSPost2010PropOp47
 70
     1
102
RTVSPost2010Prop48
 90
       50
102
RTVSPost2010PropOp48
 70
     1
102
RTVSPost2010Prop49
280
     0
102
RTVSPost2010PropOp49
 70
     1
102
RTVSPost2010Prop50
 90
       50
102
RTVSPost2010PropOp50
 70
     1
102
RTVSPost2010Prop51ColorIndex
 90
      256
102
RTVSPost2010Prop51ColorRGB
 90
-16777216
102
RTVSPost2010PropOp51
 70
     0
102
RTVSPost2010Prop52
140
1.0
102
RTVSPost2010PropOp52
 70
     0
102
RTVSPost2010Prop53
 90
        2
102
RTVSPost2010PropOp53
 70
     1
102
RTVSPost2010Prop54
  1
strokes_ogs.tif
102
RTVSPost2010PropOp54
 70
     1
102
RTVSPost2010Prop55
280
     0
102
RTVSPost2010PropOp55
 70
     1
102
RTVSPost2010Prop56
140
1.0
102
RTVSPost2010PropOp56
 70
     1
102
RTVSPost2010Prop57
140
1.0
102
RTVSPost2010PropOp57
 70
     1
102
RTVSPropertyOp0
 70
     1
102
RTVSPropertyOp1
 70
     1
102
RTVSPropertyOp2
 70
     1
102
RTVSPropertyOp3
 70
     1
102
RTVSPropertyOp4
 70
     1
102
RTVSPropertyOp5
 70
     1
102
RTVSPropertyOp6
 70
     1
102
RTVSPropertyOp7
 70
     1
102
RTVSPropertyOp8
 70
     1
102
RTVSPropertyOp9
 70
     1
102
RTVSPropertyOp10
 70
     1
102
RTVSPropertyOp11
 70
     1
102
RTVSPropertyOp12
 70
     1
102
RTVSPropertyOp13
 70
     1
102
RTVSPropertyOp14
 70
     1
102
RTVSPropertyOp15
 70
     1
102
RTVSPropertyOp16
 70
     1
102
RTVSPropertyOp17
 70
     1
102
RTVSPropertyOp18
 70
     1
102
RTVSPropertyOp19
 70
     1
102
RTVSPropertyOp20
 70
     1
102
RTVSPropertyOp21
 70
     1
102
RTVSPropertyOp22
 70
     1
102
RTVSPropertyOp23
 70
     1
102
RTVSPropertyOp24
 70
     1
102
RTVSPropertyOp25
 70
     1
102
RTVSPropertyOp26
 70
     1
102
RTVSPropertyOp27
 70
     1
102
RTVSPropertyOp28
 70
     1
102
RTVSPropertyOp29
 70
     1
102
RTVSPropertyOp30
 70
     1
102
RTVSPropertyOp31
 70
     1
102
RTVSPropertyOp32
 70
     1
102
RTVSPropertyOp33
 70
     1
102
RTVSPropertyOp34
 70
     1
102
RTVSPropertyOp35
 70
     1
102
RTVSPropertyOp36
 70
     1
102
RTVSPropertyOp37
 70
     1
102
RTVSPropertyOp38
 70
     1
102
RTVSPropertyOp39
 70
     1
102
RTVSPropertyOp40
 70
     1
102
RTVSPropertyOp41
 70
     1
102
RTVSPropertyOp42
 70
     1
102
RTVSPropertyOp43
 70
     1
102
RTVSPropertyOp44
 70
     1
102
RTVSPropertyOp45
 70
     1
102
RTVSPropertyOp46
 70
     1
102
RTVSPropertyOp47
 70
     1
102
RTVSPropertyOp48
 70
     1
102
RTVSPropertyOp49
 70
     1
102
RTVSPropertyOp50
 70
     1
102
RTVSPropertyOp51
 70
     0
102
RTVSPropertyOp52
 70
     0
102
RTVSPropertyOp53
 70
     1
102
RTVSPropertyOp54
 70
     1
102
RTVSPropertyOp55
 70
     1
102
RTVSPropertyOp56
 70
     1
102
RTVSPropertyOp57
 70
     1
102
RTVSPropertyOp58
 70
     1
102
RTVSPropertyOp59
 70
     1
102
RTVSPropertyOp60
 70
     1
102
RTVSPropertyOp61
 70
     1
102
RTVSPropertyOp62
 70
     1
  0
XRECORD
  5
851C
102
{ACAD_REACTORS
330
851B
102
}
330
851B
100
AcDbXrecord
280
     1
102
RTVSPost2010Prop28
280
     0
102
RTVSPost2010PropOp28
 70
     1
102
RTVSPost2010Prop29
280
     1
102
RTVSPost2010PropOp29
 70
     1
102
RTVSPost2010Prop30
280
     1
102
RTVSPost2010PropOp30
 70
     1
102
RTVSPost2010Prop31
280
     0
102
RTVSPost2010PropOp31
 70
     1
102
RTVSPost2010Prop32
280
     0
102
RTVSPost2010PropOp32
 70
     1
102
RTVSPost2010Prop33
280
     0
102
RTVSPost2010PropOp33
 70
     1
102
RTVSPost2010Prop34
280
     0
102
RTVSPost2010PropOp34
 70
     1
102
RTVSPost2010Prop35
280
     0
102
RTVSPost2010PropOp35
 70
     1
102
RTVSPost2010Prop36
280
     0
102
RTVSPost2010PropOp36
 70
     1
102
RTVSPost2010Prop37
 90
       50
102
RTVSPost2010PropOp37
 70
     1
102
RTVSPost2010Prop38
140
0.0
102
RTVSPost2010PropOp38
 70
     1
102
RTVSPost2010Prop39
140
1.0
102
RTVSPost2010PropOp39
 70
     1
102
RTVSPost2010Prop40
 90
        0
102
RTVSPost2010PropOp40
 70
     1
102
RTVSPost2010Prop41ColorIndex
 90
       18
102
RTVSPost2010Prop41ColorRGB
 90
        0
102
RTVSPost2010PropOp41
 70
     1
102
RTVSPost2010Prop42
 90
       50
102
RTVSPost2010PropOp42
 70
     1
102
RTVSPost2010Prop43
 90
        3
102
RTVSPost2010PropOp43
 70
     1
102
RTVSPost2010Prop44ColorIndex
 90
        5
102
RTVSPost2010Prop44ColorRGB
 90
      255
102
RTVSPost2010PropOp44
 70
     1
102
RTVSPost2010Prop45
280
     0
102
RTVSPost2010PropOp45
 70
     1
102
RTVSPost2010Prop46
 90
       50
102
RTVSPost2010PropOp46
 70
     1
102
RTVSPost2010Prop47
 90
       50
102
RTVSPost2010PropOp47
 70
     1
102
RTVSPost2010Prop48
 90
       50
102
RTVSPost2010PropOp48
 70
     1
102
RTVSPost2010Prop49
280
     0
102
RTVSPost2010PropOp49
 70
     1
102
RTVSPost2010Prop50
 90
       50
102
RTVSPost2010PropOp50
 70
     1
102
RTVSPost2010Prop51ColorIndex
 90
      256
102
RTVSPost2010Prop51ColorRGB
 90
-16777216
102
RTVSPost2010PropOp51
 70
     0
102
RTVSPost2010Prop52
140
1.0
102
RTVSPost2010PropOp52
 70
     0
102
RTVSPost2010Prop53
 90
        2
102
RTVSPost2010PropOp53
 70
     1
102
RTVSPost2010Prop54
  1
strokes_ogs.tif
102
RTVSPost2010PropOp54
 70
     1
102
RTVSPost2010Prop55
280
     0
102
RTVSPost2010PropOp55
 70
     1
102
RTVSPost2010Prop56
140
1.0
102
RTVSPost2010PropOp56
 70
     1
102
RTVSPost2010Prop57
140
1.0
102
RTVSPost2010PropOp57
 70
     1
102
RTVSPropertyOp0
 70
     1
102
RTVSPropertyOp1
 70
     1
102
RTVSPropertyOp2
 70
     1
102
RTVSPropertyOp3
 70
     1
102
RTVSPropertyOp4
 70
     1
102
RTVSPropertyOp5
 70
     1
102
RTVSPropertyOp6
 70
     1
102
RTVSPropertyOp7
 70
     1
102
RTVSPropertyOp8
 70
     1
102
RTVSPropertyOp9
 70
     1
102
RTVSPropertyOp10
 70
     1
102
RTVSPropertyOp11
 70
     1
102
RTVSPropertyOp12
 70
     1
102
RTVSPropertyOp13
 70
     1
102
RTVSPropertyOp14
 70
     1
102
RTVSPropertyOp15
 70
     1
102
RTVSPropertyOp16
 70
     1
102
RTVSPropertyOp17
 70
     1
102
RTVSPropertyOp18
 70
     1
102
RTVSPropertyOp19
 70
     1
102
RTVSPropertyOp20
 70
     1
102
RTVSPropertyOp21
 70
     1
102
RTVSPropertyOp22
 70
     1
102
RTVSPropertyOp23
 70
     1
102
RTVSPropertyOp24
 70
     1
102
RTVSPropertyOp25
 70
     1
102
RTVSPropertyOp26
 70
     1
102
RTVSPropertyOp27
 70
     1
102
RTVSPropertyOp28
 70
     1
102
RTVSPropertyOp29
 70
     1
102
RTVSPropertyOp30
 70
     1
102
RTVSPropertyOp31
 70
     1
102
RTVSPropertyOp32
 70
     1
102
RTVSPropertyOp33
 70
     1
102
RTVSPropertyOp34
 70
     1
102
RTVSPropertyOp35
 70
     1
102
RTVSPropertyOp36
 70
     1
102
RTVSPropertyOp37
 70
     1
102
RTVSPropertyOp38
 70
     1
102
RTVSPropertyOp39
 70
     1
102
RTVSPropertyOp40
 70
     1
102
RTVSPropertyOp41
 70
     1
102
RTVSPropertyOp42
 70
     1
102
RTVSPropertyOp43
 70
     1
102
RTVSPropertyOp44
 70
     1
102
RTVSPropertyOp45
 70
     1
102
RTVSPropertyOp46
 70
     1
102
RTVSPropertyOp47
 70
     1
102
RTVSPropertyOp48
 70
     1
102
RTVSPropertyOp49
 70
     1
102
RTVSPropertyOp50
 70
     1
102
RTVSPropertyOp51
 70
     0
102
RTVSPropertyOp52
 70
     0
102
RTVSPropertyOp53
 70
     1
102
RTVSPropertyOp54
 70
     1
102
RTVSPropertyOp55
 70
     1
102
RTVSPropertyOp56
 70
     1
102
RTVSPropertyOp57
 70
     1
102
RTVSPropertyOp58
 70
     1
102
RTVSPropertyOp59
 70
     1
102
RTVSPropertyOp60
 70
     1
102
RTVSPropertyOp61
 70
     1
102
RTVSPropertyOp62
 70
     1
  0
XRECORD
  5
8536
102
{ACAD_REACTORS
330
8535
102
}
330
8535
100
AcDbXrecord
280
     1
102
RTVSPost2010Prop28
280
     0
102
RTVSPost2010PropOp28
 70
     1
102
RTVSPost2010Prop29
280
     1
102
RTVSPost2010PropOp29
 70
     1
102
RTVSPost2010Prop30
280
     1
102
RTVSPost2010PropOp30
 70
     1
102
RTVSPost2010Prop31
280
     0
102
RTVSPost2010PropOp31
 70
     1
102
RTVSPost2010Prop32
280
     0
102
RTVSPost2010PropOp32
 70
     1
102
RTVSPost2010Prop33
280
     0
102
RTVSPost2010PropOp33
 70
     1
102
RTVSPost2010Prop34
280
     0
102
RTVSPost2010PropOp34
 70
     1
102
RTVSPost2010Prop35
280
     0
102
RTVSPost2010PropOp35
 70
     1
102
RTVSPost2010Prop36
280
     0
102
RTVSPost2010PropOp36
 70
     1
102
RTVSPost2010Prop37
 90
       50
102
RTVSPost2010PropOp37
 70
     0
102
RTVSPost2010Prop38
140
0.0
102
RTVSPost2010PropOp38
 70
     0
102
RTVSPost2010Prop39
140
1.0
102
RTVSPost2010PropOp39
 70
     0
102
RTVSPost2010Prop40
 90
        0
102
RTVSPost2010PropOp40
 70
     0
102
RTVSPost2010Prop41ColorIndex
 90
       18
102
RTVSPost2010Prop41ColorRGB
 90
        0
102
RTVSPost2010PropOp41
 70
     0
102
RTVSPost2010Prop42
 90
       50
102
RTVSPost2010PropOp42
 70
     0
102
RTVSPost2010Prop43
 90
        3
102
RTVSPost2010PropOp43
 70
     0
102
RTVSPost2010Prop44ColorIndex
 90
        5
102
RTVSPost2010Prop44ColorRGB
 90
      255
102
RTVSPost2010PropOp44
 70
     0
102
RTVSPost2010Prop45
280
     0
102
RTVSPost2010PropOp45
 70
     1
102
RTVSPost2010Prop46
 90
       50
102
RTVSPost2010PropOp46
 70
     0
102
RTVSPost2010Prop47
 90
       50
102
RTVSPost2010PropOp47
 70
     0
102
RTVSPost2010Prop48
 90
       50
102
RTVSPost2010PropOp48
 70
     0
102
RTVSPost2010Prop49
280
     0
102
RTVSPost2010PropOp49
 70
     1
102
RTVSPost2010Prop50
 90
       50
102
RTVSPost2010PropOp50
 70
     0
102
RTVSPost2010Prop51ColorIndex
 90
      256
102
RTVSPost2010Prop51ColorRGB
 90
-16777216
102
RTVSPost2010PropOp51
 70
     0
102
RTVSPost2010Prop52
140
1.0
102
RTVSPost2010PropOp52
 70
     0
102
RTVSPost2010Prop53
 90
        2
102
RTVSPost2010PropOp53
 70
     0
102
RTVSPost2010Prop54
  1
strokes_ogs.tif
102
RTVSPost2010PropOp54
 70
     0
102
RTVSPost2010Prop55
280
     0
102
RTVSPost2010PropOp55
 70
     1
102
RTVSPost2010Prop56
140
1.0
102
RTVSPost2010PropOp56
 70
     0
102
RTVSPost2010Prop57
140
1.0
102
RTVSPost2010PropOp57
 70
     0
102
RTVSPropertyOp0
 70
     0
102
RTVSPropertyOp1
 70
     0
102
RTVSPropertyOp2
 70
     0
102
RTVSPropertyOp3
 70
     0
102
RTVSPropertyOp4
 70
     0
102
RTVSPropertyOp5
 70
     0
102
RTVSPropertyOp6
 70
     0
102
RTVSPropertyOp7
 70
     0
102
RTVSPropertyOp8
 70
     0
102
RTVSPropertyOp9
 70
     0
102
RTVSPropertyOp10
 70
     0
102
RTVSPropertyOp11
 70
     0
102
RTVSPropertyOp12
 70
     0
102
RTVSPropertyOp13
 70
     0
102
RTVSPropertyOp14
 70
     2
102
RTVSPropertyOp15
 70
     0
102
RTVSPropertyOp16
 70
     0
102
RTVSPropertyOp17
 70
     0
102
RTVSPropertyOp18
 70
     0
102
RTVSPropertyOp19
 70
     0
102
RTVSPropertyOp20
 70
     0
102
RTVSPropertyOp21
 70
     0
102
RTVSPropertyOp22
 70
     0
102
RTVSPropertyOp23
 70
     0
102
RTVSPropertyOp24
 70
     0
102
RTVSPropertyOp25
 70
     0
102
RTVSPropertyOp26
 70
     0
102
RTVSPropertyOp27
 70
     0
102
RTVSPropertyOp28
 70
     1
102
RTVSPropertyOp29
 70
     1
102
RTVSPropertyOp30
 70
     1
102
RTVSPropertyOp31
 70
     1
102
RTVSPropertyOp32
 70
     1
102
RTVSPropertyOp33
 70
     1
102
RTVSPropertyOp34
 70
     1
102
RTVSPropertyOp35
 70
     1
102
RTVSPropertyOp36
 70
     1
102
RTVSPropertyOp37
 70
     0
102
RTVSPropertyOp38
 70
     0
102
RTVSPropertyOp39
 70
     0
102
RTVSPropertyOp40
 70
     0
102
RTVSPropertyOp41
 70
     0
102
RTVSPropertyOp42
 70
     0
102
RTVSPropertyOp43
 70
     0
102
RTVSPropertyOp44
 70
     0
102
RTVSPropertyOp45
 70
     1
102
RTVSPropertyOp46
 70
     0
102
RTVSPropertyOp47
 70
     0
102
RTVSPropertyOp48
 70
     0
102
RTVSPropertyOp49
 70
     1
102
RTVSPropertyOp50
 70
     0
102
RTVSPropertyOp51
 70
     0
102
RTVSPropertyOp52
 70
     0
102
RTVSPropertyOp53
 70
     0
102
RTVSPropertyOp54
 70
     0
102
RTVSPropertyOp55
 70
     1
102
RTVSPropertyOp56
 70
     0
102
RTVSPropertyOp57
 70
     0
102
RTVSPropertyOp58
 70
     0
102
RTVSPropertyOp59
 70
     0
102
RTVSPropertyOp60
 70
     0
102
RTVSPropertyOp61
 70
     0
102
RTVSPropertyOp62
 70
     0
  0
XRECORD
  5
8524
102
{ACAD_REACTORS
330
8523
102
}
330
8523
100
AcDbXrecord
280
     1
102
RTVSPost2010Prop28
280
     0
102
RTVSPost2010PropOp28
 70
     1
102
RTVSPost2010Prop29
280
     1
102
RTVSPost2010PropOp29
 70
     1
102
RTVSPost2010Prop30
280
     1
102
RTVSPost2010PropOp30
 70
     1
102
RTVSPost2010Prop31
280
     0
102
RTVSPost2010PropOp31
 70
     1
102
RTVSPost2010Prop32
280
     0
102
RTVSPost2010PropOp32
 70
     1
102
RTVSPost2010Prop33
280
     0
102
RTVSPost2010PropOp33
 70
     1
102
RTVSPost2010Prop34
280
     0
102
RTVSPost2010PropOp34
 70
     1
102
RTVSPost2010Prop35
280
     0
102
RTVSPost2010PropOp35
 70
     1
102
RTVSPost2010Prop36
280
     0
102
RTVSPost2010PropOp36
 70
     1
102
RTVSPost2010Prop37
 90
       50
102
RTVSPost2010PropOp37
 70
     1
102
RTVSPost2010Prop38
140
0.0
102
RTVSPost2010PropOp38
 70
     1
102
RTVSPost2010Prop39
140
1.0
102
RTVSPost2010PropOp39
 70
     1
102
RTVSPost2010Prop40
 90
        0
102
RTVSPost2010PropOp40
 70
     1
102
RTVSPost2010Prop41ColorIndex
 90
       18
102
RTVSPost2010Prop41ColorRGB
 90
        0
102
RTVSPost2010PropOp41
 70
     1
102
RTVSPost2010Prop42
 90
       50
102
RTVSPost2010PropOp42
 70
     1
102
RTVSPost2010Prop43
 90
        3
102
RTVSPost2010PropOp43
 70
     1
102
RTVSPost2010Prop44ColorIndex
 90
        5
102
RTVSPost2010Prop44ColorRGB
 90
      255
102
RTVSPost2010PropOp44
 70
     1
102
RTVSPost2010Prop45
280
     0
102
RTVSPost2010PropOp45
 70
     1
102
RTVSPost2010Prop46
 90
       50
102
RTVSPost2010PropOp46
 70
     1
102
RTVSPost2010Prop47
 90
       50
102
RTVSPost2010PropOp47
 70
     1
102
RTVSPost2010Prop48
 90
       50
102
RTVSPost2010PropOp48
 70
     1
102
RTVSPost2010Prop49
280
     0
102
RTVSPost2010PropOp49
 70
     1
102
RTVSPost2010Prop50
 90
       50
102
RTVSPost2010PropOp50
 70
     1
102
RTVSPost2010Prop51ColorIndex
 90
      256
102
RTVSPost2010Prop51ColorRGB
 90
-16777216
102
RTVSPost2010PropOp51
 70
     0
102
RTVSPost2010Prop52
140
1.0
102
RTVSPost2010PropOp52
 70
     0
102
RTVSPost2010Prop53
 90
        2
102
RTVSPost2010PropOp53
 70
     1
102
RTVSPost2010Prop54
  1
strokes_ogs.tif
102
RTVSPost2010PropOp54
 70
     1
102
RTVSPost2010Prop55
280
     0
102
RTVSPost2010PropOp55
 70
     1
102
RTVSPost2010Prop56
140
1.0
102
RTVSPost2010PropOp56
 70
     1
102
RTVSPost2010Prop57
140
1.0
102
RTVSPost2010PropOp57
 70
     1
102
RTVSPropertyOp0
 70
     1
102
RTVSPropertyOp1
 70
     1
102
RTVSPropertyOp2
 70
     1
102
RTVSPropertyOp3
 70
     1
102
RTVSPropertyOp4
 70
     1
102
RTVSPropertyOp5
 70
     1
102
RTVSPropertyOp6
 70
     1
102
RTVSPropertyOp7
 70
     1
102
RTVSPropertyOp8
 70
     1
102
RTVSPropertyOp9
 70
     1
102
RTVSPropertyOp10
 70
     1
102
RTVSPropertyOp11
 70
     1
102
RTVSPropertyOp12
 70
     1
102
RTVSPropertyOp13
 70
     1
102
RTVSPropertyOp14
 70
     1
102
RTVSPropertyOp15
 70
     1
102
RTVSPropertyOp16
 70
     1
102
RTVSPropertyOp17
 70
     1
102
RTVSPropertyOp18
 70
     1
102
RTVSPropertyOp19
 70
     1
102
RTVSPropertyOp20
 70
     1
102
RTVSPropertyOp21
 70
     1
102
RTVSPropertyOp22
 70
     1
102
RTVSPropertyOp23
 70
     1
102
RTVSPropertyOp24
 70
     1
102
RTVSPropertyOp25
 70
     1
102
RTVSPropertyOp26
 70
     1
102
RTVSPropertyOp27
 70
     1
102
RTVSPropertyOp28
 70
     1
102
RTVSPropertyOp29
 70
     1
102
RTVSPropertyOp30
 70
     1
102
RTVSPropertyOp31
 70
     1
102
RTVSPropertyOp32
 70
     1
102
RTVSPropertyOp33
 70
     1
102
RTVSPropertyOp34
 70
     1
102
RTVSPropertyOp35
 70
     1
102
RTVSPropertyOp36
 70
     1
102
RTVSPropertyOp37
 70
     1
102
RTVSPropertyOp38
 70
     1
102
RTVSPropertyOp39
 70
     1
102
RTVSPropertyOp40
 70
     1
102
RTVSPropertyOp41
 70
     1
102
RTVSPropertyOp42
 70
     1
102
RTVSPropertyOp43
 70
     1
102
RTVSPropertyOp44
 70
     1
102
RTVSPropertyOp45
 70
     1
102
RTVSPropertyOp46
 70
     1
102
RTVSPropertyOp47
 70
     1
102
RTVSPropertyOp48
 70
     1
102
RTVSPropertyOp49
 70
     1
102
RTVSPropertyOp50
 70
     1
102
RTVSPropertyOp51
 70
     0
102
RTVSPropertyOp52
 70
     0
102
RTVSPropertyOp53
 70
     1
102
RTVSPropertyOp54
 70
     1
102
RTVSPropertyOp55
 70
     1
102
RTVSPropertyOp56
 70
     1
102
RTVSPropertyOp57
 70
     1
102
RTVSPropertyOp58
 70
     1
102
RTVSPropertyOp59
 70
     1
102
RTVSPropertyOp60
 70
     1
102
RTVSPropertyOp61
 70
     1
102
RTVSPropertyOp62
 70
     1
  0
XRECORD
  5
8508
102
{ACAD_REACTORS
330
8507
102
}
330
8507
100
AcDbXrecord
280
     1
102
RTVSPost2010Prop28
280
     0
102
RTVSPost2010PropOp28
 70
     1
102
RTVSPost2010Prop29
280
     1
102
RTVSPost2010PropOp29
 70
     1
102
RTVSPost2010Prop30
280
     1
102
RTVSPost2010PropOp30
 70
     1
102
RTVSPost2010Prop31
280
     0
102
RTVSPost2010PropOp31
 70
     1
102
RTVSPost2010Prop32
280
     0
102
RTVSPost2010PropOp32
 70
     1
102
RTVSPost2010Prop33
280
     0
102
RTVSPost2010PropOp33
 70
     1
102
RTVSPost2010Prop34
280
     0
102
RTVSPost2010PropOp34
 70
     1
102
RTVSPost2010Prop35
280
     0
102
RTVSPost2010PropOp35
 70
     1
102
RTVSPost2010Prop36
280
     0
102
RTVSPost2010PropOp36
 70
     1
102
RTVSPost2010Prop37
 90
       50
102
RTVSPost2010PropOp37
 70
     1
102
RTVSPost2010Prop38
140
0.0
102
RTVSPost2010PropOp38
 70
     1
102
RTVSPost2010Prop39
140
1.0
102
RTVSPost2010PropOp39
 70
     1
102
RTVSPost2010Prop40
 90
        0
102
RTVSPost2010PropOp40
 70
     1
102
RTVSPost2010Prop41ColorIndex
 90
       18
102
RTVSPost2010Prop41ColorRGB
 90
        0
102
RTVSPost2010PropOp41
 70
     1
102
RTVSPost2010Prop42
 90
       50
102
RTVSPost2010PropOp42
 70
     1
102
RTVSPost2010Prop43
 90
        3
102
RTVSPost2010PropOp43
 70
     1
102
RTVSPost2010Prop44ColorIndex
 90
        5
102
RTVSPost2010Prop44ColorRGB
 90
      255
102
RTVSPost2010PropOp44
 70
     1
102
RTVSPost2010Prop45
280
     0
102
RTVSPost2010PropOp45
 70
     1
102
RTVSPost2010Prop46
 90
       50
102
RTVSPost2010PropOp46
 70
     1
102
RTVSPost2010Prop47
 90
       50
102
RTVSPost2010PropOp47
 70
     1
102
RTVSPost2010Prop48
 90
       50
102
RTVSPost2010PropOp48
 70
     1
102
RTVSPost2010Prop49
280
     0
102
RTVSPost2010PropOp49
 70
     1
102
RTVSPost2010Prop50
 90
       50
102
RTVSPost2010PropOp50
 70
     1
102
RTVSPost2010Prop51ColorIndex
 90
      256
102
RTVSPost2010Prop51ColorRGB
 90
-16777216
102
RTVSPost2010PropOp51
 70
     0
102
RTVSPost2010Prop52
140
1.0
102
RTVSPost2010PropOp52
 70
     0
102
RTVSPost2010Prop53
 90
        2
102
RTVSPost2010PropOp53
 70
     1
102
RTVSPost2010Prop54
  1
strokes_ogs.tif
102
RTVSPost2010PropOp54
 70
     1
102
RTVSPost2010Prop55
280
     0
102
RTVSPost2010PropOp55
 70
     1
102
RTVSPost2010Prop56
140
1.0
102
RTVSPost2010PropOp56
 70
     1
102
RTVSPost2010Prop57
140
1.0
102
RTVSPost2010PropOp57
 70
     1
102
RTVSPropertyOp0
 70
     1
102
RTVSPropertyOp1
 70
     1
102
RTVSPropertyOp2
 70
     1
102
RTVSPropertyOp3
 70
     1
102
RTVSPropertyOp4
 70
     1
102
RTVSPropertyOp5
 70
     1
102
RTVSPropertyOp6
 70
     1
102
RTVSPropertyOp7
 70
     1
102
RTVSPropertyOp8
 70
     1
102
RTVSPropertyOp9
 70
     1
102
RTVSPropertyOp10
 70
     1
102
RTVSPropertyOp11
 70
     1
102
RTVSPropertyOp12
 70
     1
102
RTVSPropertyOp13
 70
     1
102
RTVSPropertyOp14
 70
     1
102
RTVSPropertyOp15
 70
     1
102
RTVSPropertyOp16
 70
     1
102
RTVSPropertyOp17
 70
     1
102
RTVSPropertyOp18
 70
     1
102
RTVSPropertyOp19
 70
     1
102
RTVSPropertyOp20
 70
     1
102
RTVSPropertyOp21
 70
     1
102
RTVSPropertyOp22
 70
     1
102
RTVSPropertyOp23
 70
     1
102
RTVSPropertyOp24
 70
     1
102
RTVSPropertyOp25
 70
     1
102
RTVSPropertyOp26
 70
     1
102
RTVSPropertyOp27
 70
     1
102
RTVSPropertyOp28
 70
     1
102
RTVSPropertyOp29
 70
     1
102
RTVSPropertyOp30
 70
     1
102
RTVSPropertyOp31
 70
     1
102
RTVSPropertyOp32
 70
     1
102
RTVSPropertyOp33
 70
     1
102
RTVSPropertyOp34
 70
     1
102
RTVSPropertyOp35
 70
     1
102
RTVSPropertyOp36
 70
     1
102
RTVSPropertyOp37
 70
     1
102
RTVSPropertyOp38
 70
     1
102
RTVSPropertyOp39
 70
     1
102
RTVSPropertyOp40
 70
     1
102
RTVSPropertyOp41
 70
     1
102
RTVSPropertyOp42
 70
     1
102
RTVSPropertyOp43
 70
     1
102
RTVSPropertyOp44
 70
     1
102
RTVSPropertyOp45
 70
     1
102
RTVSPropertyOp46
 70
     1
102
RTVSPropertyOp47
 70
     1
102
RTVSPropertyOp48
 70
     1
102
RTVSPropertyOp49
 70
     1
102
RTVSPropertyOp50
 70
     1
102
RTVSPropertyOp51
 70
     0
102
RTVSPropertyOp52
 70
     0
102
RTVSPropertyOp53
 70
     1
102
RTVSPropertyOp54
 70
     1
102
RTVSPropertyOp55
 70
     1
102
RTVSPropertyOp56
 70
     1
102
RTVSPropertyOp57
 70
     1
102
RTVSPropertyOp58
 70
     1
102
RTVSPropertyOp59
 70
     1
102
RTVSPropertyOp60
 70
     1
102
RTVSPropertyOp61
 70
     1
102
RTVSPropertyOp62
 70
     1
  0
XRECORD
  5
850A
102
{ACAD_REACTORS
330
8509
102
}
330
8509
100
AcDbXrecord
280
     1
102
RTVSPost2010Prop28
280
     0
102
RTVSPost2010PropOp28
 70
     1
102
RTVSPost2010Prop29
280
     1
102
RTVSPost2010PropOp29
 70
     1
102
RTVSPost2010Prop30
280
     1
102
RTVSPost2010PropOp30
 70
     1
102
RTVSPost2010Prop31
280
     0
102
RTVSPost2010PropOp31
 70
     1
102
RTVSPost2010Prop32
280
     0
102
RTVSPost2010PropOp32
 70
     1
102
RTVSPost2010Prop33
280
     0
102
RTVSPost2010PropOp33
 70
     1
102
RTVSPost2010Prop34
280
     0
102
RTVSPost2010PropOp34
 70
     1
102
RTVSPost2010Prop35
280
     0
102
RTVSPost2010PropOp35
 70
     1
102
RTVSPost2010Prop36
280
     0
102
RTVSPost2010PropOp36
 70
     1
102
RTVSPost2010Prop37
 90
       50
102
RTVSPost2010PropOp37
 70
     1
102
RTVSPost2010Prop38
140
0.0
102
RTVSPost2010PropOp38
 70
     1
102
RTVSPost2010Prop39
140
1.0
102
RTVSPost2010PropOp39
 70
     1
102
RTVSPost2010Prop40
 90
        0
102
RTVSPost2010PropOp40
 70
     1
102
RTVSPost2010Prop41ColorIndex
 90
       18
102
RTVSPost2010Prop41ColorRGB
 90
        0
102
RTVSPost2010PropOp41
 70
     1
102
RTVSPost2010Prop42
 90
       50
102
RTVSPost2010PropOp42
 70
     1
102
RTVSPost2010Prop43
 90
        3
102
RTVSPost2010PropOp43
 70
     1
102
RTVSPost2010Prop44ColorIndex
 90
        5
102
RTVSPost2010Prop44ColorRGB
 90
      255
102
RTVSPost2010PropOp44
 70
     1
102
RTVSPost2010Prop45
280
     0
102
RTVSPost2010PropOp45
 70
     1
102
RTVSPost2010Prop46
 90
       50
102
RTVSPost2010PropOp46
 70
     1
102
RTVSPost2010Prop47
 90
       50
102
RTVSPost2010PropOp47
 70
     1
102
RTVSPost2010Prop48
 90
       50
102
RTVSPost2010PropOp48
 70
     1
102
RTVSPost2010Prop49
280
     0
102
RTVSPost2010PropOp49
 70
     1
102
RTVSPost2010Prop50
 90
       50
102
RTVSPost2010PropOp50
 70
     1
102
RTVSPost2010Prop51ColorIndex
 90
      256
102
RTVSPost2010Prop51ColorRGB
 90
-16777216
102
RTVSPost2010PropOp51
 70
     0
102
RTVSPost2010Prop52
140
1.0
102
RTVSPost2010PropOp52
 70
     0
102
RTVSPost2010Prop53
 90
        2
102
RTVSPost2010PropOp53
 70
     1
102
RTVSPost2010Prop54
  1
strokes_ogs.tif
102
RTVSPost2010PropOp54
 70
     1
102
RTVSPost2010Prop55
280
     0
102
RTVSPost2010PropOp55
 70
     1
102
RTVSPost2010Prop56
140
1.0
102
RTVSPost2010PropOp56
 70
     1
102
RTVSPost2010Prop57
140
1.0
102
RTVSPost2010PropOp57
 70
     1
102
RTVSPropertyOp0
 70
     1
102
RTVSPropertyOp1
 70
     1
102
RTVSPropertyOp2
 70
     1
102
RTVSPropertyOp3
 70
     1
102
RTVSPropertyOp4
 70
     1
102
RTVSPropertyOp5
 70
     1
102
RTVSPropertyOp6
 70
     1
102
RTVSPropertyOp7
 70
     1
102
RTVSPropertyOp8
 70
     1
102
RTVSPropertyOp9
 70
     1
102
RTVSPropertyOp10
 70
     1
102
RTVSPropertyOp11
 70
     1
102
RTVSPropertyOp12
 70
     1
102
RTVSPropertyOp13
 70
     1
102
RTVSPropertyOp14
 70
     1
102
RTVSPropertyOp15
 70
     1
102
RTVSPropertyOp16
 70
     1
102
RTVSPropertyOp17
 70
     1
102
RTVSPropertyOp18
 70
     1
102
RTVSPropertyOp19
 70
     1
102
RTVSPropertyOp20
 70
     1
102
RTVSPropertyOp21
 70
     1
102
RTVSPropertyOp22
 70
     1
102
RTVSPropertyOp23
 70
     1
102
RTVSPropertyOp24
 70
     1
102
RTVSPropertyOp25
 70
     1
102
RTVSPropertyOp26
 70
     1
102
RTVSPropertyOp27
 70
     1
102
RTVSPropertyOp28
 70
     1
102
RTVSPropertyOp29
 70
     1
102
RTVSPropertyOp30
 70
     1
102
RTVSPropertyOp31
 70
     1
102
RTVSPropertyOp32
 70
     1
102
RTVSPropertyOp33
 70
     1
102
RTVSPropertyOp34
 70
     1
102
RTVSPropertyOp35
 70
     1
102
RTVSPropertyOp36
 70
     1
102
RTVSPropertyOp37
 70
     1
102
RTVSPropertyOp38
 70
     1
102
RTVSPropertyOp39
 70
     1
102
RTVSPropertyOp40
 70
     1
102
RTVSPropertyOp41
 70
     1
102
RTVSPropertyOp42
 70
     1
102
RTVSPropertyOp43
 70
     1
102
RTVSPropertyOp44
 70
     1
102
RTVSPropertyOp45
 70
     1
102
RTVSPropertyOp46
 70
     1
102
RTVSPropertyOp47
 70
     1
102
RTVSPropertyOp48
 70
     1
102
RTVSPropertyOp49
 70
     1
102
RTVSPropertyOp50
 70
     1
102
RTVSPropertyOp51
 70
     0
102
RTVSPropertyOp52
 70
     0
102
RTVSPropertyOp53
 70
     1
102
RTVSPropertyOp54
 70
     1
102
RTVSPropertyOp55
 70
     1
102
RTVSPropertyOp56
 70
     1
102
RTVSPropertyOp57
 70
     1
102
RTVSPropertyOp58
 70
     1
102
RTVSPropertyOp59
 70
     1
102
RTVSPropertyOp60
 70
     1
102
RTVSPropertyOp61
 70
     1
102
RTVSPropertyOp62
 70
     1
  0
XRECORD
  5
850C
102
{ACAD_REACTORS
330
850B
102
}
330
850B
100
AcDbXrecord
280
     1
102
RTVSPost2010Prop28
280
     0
102
RTVSPost2010PropOp28
 70
     1
102
RTVSPost2010Prop29
280
     1
102
RTVSPost2010PropOp29
 70
     1
102
RTVSPost2010Prop30
280
     1
102
RTVSPost2010PropOp30
 70
     1
102
RTVSPost2010Prop31
280
     0
102
RTVSPost2010PropOp31
 70
     1
102
RTVSPost2010Prop32
280
     0
102
RTVSPost2010PropOp32
 70
     1
102
RTVSPost2010Prop33
280
     0
102
RTVSPost2010PropOp33
 70
     1
102
RTVSPost2010Prop34
280
     0
102
RTVSPost2010PropOp34
 70
     1
102
RTVSPost2010Prop35
280
     0
102
RTVSPost2010PropOp35
 70
     1
102
RTVSPost2010Prop36
280
     0
102
RTVSPost2010PropOp36
 70
     1
102
RTVSPost2010Prop37
 90
       50
102
RTVSPost2010PropOp37
 70
     1
102
RTVSPost2010Prop38
140
0.0
102
RTVSPost2010PropOp38
 70
     1
102
RTVSPost2010Prop39
140
1.0
102
RTVSPost2010PropOp39
 70
     1
102
RTVSPost2010Prop40
 90
        0
102
RTVSPost2010PropOp40
 70
     1
102
RTVSPost2010Prop41ColorIndex
 90
       18
102
RTVSPost2010Prop41ColorRGB
 90
        0
102
RTVSPost2010PropOp41
 70
     1
102
RTVSPost2010Prop42
 90
       50
102
RTVSPost2010PropOp42
 70
     1
102
RTVSPost2010Prop43
 90
        3
102
RTVSPost2010PropOp43
 70
     1
102
RTVSPost2010Prop44ColorIndex
 90
        5
102
RTVSPost2010Prop44ColorRGB
 90
      255
102
RTVSPost2010PropOp44
 70
     1
102
RTVSPost2010Prop45
280
     0
102
RTVSPost2010PropOp45
 70
     1
102
RTVSPost2010Prop46
 90
       50
102
RTVSPost2010PropOp46
 70
     1
102
RTVSPost2010Prop47
 90
       50
102
RTVSPost2010PropOp47
 70
     1
102
RTVSPost2010Prop48
 90
       50
102
RTVSPost2010PropOp48
 70
     1
102
RTVSPost2010Prop49
280
     0
102
RTVSPost2010PropOp49
 70
     1
102
RTVSPost2010Prop50
 90
       50
102
RTVSPost2010PropOp50
 70
     1
102
RTVSPost2010Prop51ColorIndex
 90
      256
102
RTVSPost2010Prop51ColorRGB
 90
-16777216
102
RTVSPost2010PropOp51
 70
     0
102
RTVSPost2010Prop52
140
1.0
102
RTVSPost2010PropOp52
 70
     0
102
RTVSPost2010Prop53
 90
        2
102
RTVSPost2010PropOp53
 70
     1
102
RTVSPost2010Prop54
  1
strokes_ogs.tif
102
RTVSPost2010PropOp54
 70
     1
102
RTVSPost2010Prop55
280
     0
102
RTVSPost2010PropOp55
 70
     1
102
RTVSPost2010Prop56
140
1.0
102
RTVSPost2010PropOp56
 70
     1
102
RTVSPost2010Prop57
140
1.0
102
RTVSPost2010PropOp57
 70
     1
102
RTVSPropertyOp0
 70
     1
102
RTVSPropertyOp1
 70
     1
102
RTVSPropertyOp2
 70
     1
102
RTVSPropertyOp3
 70
     1
102
RTVSPropertyOp4
 70
     1
102
RTVSPropertyOp5
 70
     1
102
RTVSPropertyOp6
 70
     1
102
RTVSPropertyOp7
 70
     1
102
RTVSPropertyOp8
 70
     1
102
RTVSPropertyOp9
 70
     1
102
RTVSPropertyOp10
 70
     1
102
RTVSPropertyOp11
 70
     1
102
RTVSPropertyOp12
 70
     1
102
RTVSPropertyOp13
 70
     1
102
RTVSPropertyOp14
 70
     1
102
RTVSPropertyOp15
 70
     1
102
RTVSPropertyOp16
 70
     1
102
RTVSPropertyOp17
 70
     1
102
RTVSPropertyOp18
 70
     1
102
RTVSPropertyOp19
 70
     1
102
RTVSPropertyOp20
 70
     1
102
RTVSPropertyOp21
 70
     1
102
RTVSPropertyOp22
 70
     1
102
RTVSPropertyOp23
 70
     1
102
RTVSPropertyOp24
 70
     1
102
RTVSPropertyOp25
 70
     1
102
RTVSPropertyOp26
 70
     1
102
RTVSPropertyOp27
 70
     1
102
RTVSPropertyOp28
 70
     1
102
RTVSPropertyOp29
 70
     1
102
RTVSPropertyOp30
 70
     1
102
RTVSPropertyOp31
 70
     1
102
RTVSPropertyOp32
 70
     1
102
RTVSPropertyOp33
 70
     1
102
RTVSPropertyOp34
 70
     1
102
RTVSPropertyOp35
 70
     1
102
RTVSPropertyOp36
 70
     1
102
RTVSPropertyOp37
 70
     1
102
RTVSPropertyOp38
 70
     1
102
RTVSPropertyOp39
 70
     1
102
RTVSPropertyOp40
 70
     1
102
RTVSPropertyOp41
 70
     1
102
RTVSPropertyOp42
 70
     1
102
RTVSPropertyOp43
 70
     1
102
RTVSPropertyOp44
 70
     1
102
RTVSPropertyOp45
 70
     1
102
RTVSPropertyOp46
 70
     1
102
RTVSPropertyOp47
 70
     1
102
RTVSPropertyOp48
 70
     1
102
RTVSPropertyOp49
 70
     1
102
RTVSPropertyOp50
 70
     1
102
RTVSPropertyOp51
 70
     0
102
RTVSPropertyOp52
 70
     0
102
RTVSPropertyOp53
 70
     1
102
RTVSPropertyOp54
 70
     1
102
RTVSPropertyOp55
 70
     1
102
RTVSPropertyOp56
 70
     1
102
RTVSPropertyOp57
 70
     1
102
RTVSPropertyOp58
 70
     1
102
RTVSPropertyOp59
 70
     1
102
RTVSPropertyOp60
 70
     1
102
RTVSPropertyOp61
 70
     1
102
RTVSPropertyOp62
 70
     1
  0
XRECORD
  5
850E
102
{ACAD_REACTORS
330
850D
102
}
330
850D
100
AcDbXrecord
280
     1
102
RTVSPost2010Prop28
280
     0
102
RTVSPost2010PropOp28
 70
     1
102
RTVSPost2010Prop29
280
     1
102
RTVSPost2010PropOp29
 70
     1
102
RTVSPost2010Prop30
280
     1
102
RTVSPost2010PropOp30
 70
     1
102
RTVSPost2010Prop31
280
     0
102
RTVSPost2010PropOp31
 70
     1
102
RTVSPost2010Prop32
280
     0
102
RTVSPost2010PropOp32
 70
     1
102
RTVSPost2010Prop33
280
     0
102
RTVSPost2010PropOp33
 70
     1
102
RTVSPost2010Prop34
280
     0
102
RTVSPost2010PropOp34
 70
     1
102
RTVSPost2010Prop35
280
     0
102
RTVSPost2010PropOp35
 70
     1
102
RTVSPost2010Prop36
280
     0
102
RTVSPost2010PropOp36
 70
     1
102
RTVSPost2010Prop37
 90
       50
102
RTVSPost2010PropOp37
 70
     1
102
RTVSPost2010Prop38
140
0.0
102
RTVSPost2010PropOp38
 70
     1
102
RTVSPost2010Prop39
140
1.0
102
RTVSPost2010PropOp39
 70
     1
102
RTVSPost2010Prop40
 90
        0
102
RTVSPost2010PropOp40
 70
     1
102
RTVSPost2010Prop41ColorIndex
 90
       18
102
RTVSPost2010Prop41ColorRGB
 90
        0
102
RTVSPost2010PropOp41
 70
     1
102
RTVSPost2010Prop42
 90
       50
102
RTVSPost2010PropOp42
 70
     1
102
RTVSPost2010Prop43
 90
        3
102
RTVSPost2010PropOp43
 70
     1
102
RTVSPost2010Prop44ColorIndex
 90
        5
102
RTVSPost2010Prop44ColorRGB
 90
      255
102
RTVSPost2010PropOp44
 70
     1
102
RTVSPost2010Prop45
280
     0
102
RTVSPost2010PropOp45
 70
     1
102
RTVSPost2010Prop46
 90
       50
102
RTVSPost2010PropOp46
 70
     1
102
RTVSPost2010Prop47
 90
       50
102
RTVSPost2010PropOp47
 70
     1
102
RTVSPost2010Prop48
 90
       50
102
RTVSPost2010PropOp48
 70
     1
102
RTVSPost2010Prop49
280
     0
102
RTVSPost2010PropOp49
 70
     1
102
RTVSPost2010Prop50
 90
       50
102
RTVSPost2010PropOp50
 70
     1
102
RTVSPost2010Prop51ColorIndex
 90
      256
102
RTVSPost2010Prop51ColorRGB
 90
-16777216
102
RTVSPost2010PropOp51
 70
     0
102
RTVSPost2010Prop52
140
1.0
102
RTVSPost2010PropOp52
 70
     0
102
RTVSPost2010Prop53
 90
        2
102
RTVSPost2010PropOp53
 70
     1
102
RTVSPost2010Prop54
  1
strokes_ogs.tif
102
RTVSPost2010PropOp54
 70
     1
102
RTVSPost2010Prop55
280
     0
102
RTVSPost2010PropOp55
 70
     1
102
RTVSPost2010Prop56
140
1.0
102
RTVSPost2010PropOp56
 70
     1
102
RTVSPost2010Prop57
140
1.0
102
RTVSPost2010PropOp57
 70
     1
102
RTVSPropertyOp0
 70
     1
102
RTVSPropertyOp1
 70
     1
102
RTVSPropertyOp2
 70
     1
102
RTVSPropertyOp3
 70
     1
102
RTVSPropertyOp4
 70
     1
102
RTVSPropertyOp5
 70
     1
102
RTVSPropertyOp6
 70
     1
102
RTVSPropertyOp7
 70
     1
102
RTVSPropertyOp8
 70
     1
102
RTVSPropertyOp9
 70
     1
102
RTVSPropertyOp10
 70
     1
102
RTVSPropertyOp11
 70
     1
102
RTVSPropertyOp12
 70
     1
102
RTVSPropertyOp13
 70
     1
102
RTVSPropertyOp14
 70
     1
102
RTVSPropertyOp15
 70
     1
102
RTVSPropertyOp16
 70
     1
102
RTVSPropertyOp17
 70
     1
102
RTVSPropertyOp18
 70
     1
102
RTVSPropertyOp19
 70
     1
102
RTVSPropertyOp20
 70
     1
102
RTVSPropertyOp21
 70
     1
102
RTVSPropertyOp22
 70
     1
102
RTVSPropertyOp23
 70
     1
102
RTVSPropertyOp24
 70
     1
102
RTVSPropertyOp25
 70
     1
102
RTVSPropertyOp26
 70
     1
102
RTVSPropertyOp27
 70
     1
102
RTVSPropertyOp28
 70
     1
102
RTVSPropertyOp29
 70
     1
102
RTVSPropertyOp30
 70
     1
102
RTVSPropertyOp31
 70
     1
102
RTVSPropertyOp32
 70
     1
102
RTVSPropertyOp33
 70
     1
102
RTVSPropertyOp34
 70
     1
102
RTVSPropertyOp35
 70
     1
102
RTVSPropertyOp36
 70
     1
102
RTVSPropertyOp37
 70
     1
102
RTVSPropertyOp38
 70
     1
102
RTVSPropertyOp39
 70
     1
102
RTVSPropertyOp40
 70
     1
102
RTVSPropertyOp41
 70
     1
102
RTVSPropertyOp42
 70
     1
102
RTVSPropertyOp43
 70
     1
102
RTVSPropertyOp44
 70
     1
102
RTVSPropertyOp45
 70
     1
102
RTVSPropertyOp46
 70
     1
102
RTVSPropertyOp47
 70
     1
102
RTVSPropertyOp48
 70
     1
102
RTVSPropertyOp49
 70
     1
102
RTVSPropertyOp50
 70
     1
102
RTVSPropertyOp51
 70
     0
102
RTVSPropertyOp52
 70
     0
102
RTVSPropertyOp53
 70
     1
102
RTVSPropertyOp54
 70
     1
102
RTVSPropertyOp55
 70
     1
102
RTVSPropertyOp56
 70
     1
102
RTVSPropertyOp57
 70
     1
102
RTVSPropertyOp58
 70
     1
102
RTVSPropertyOp59
 70
     1
102
RTVSPropertyOp60
 70
     1
102
RTVSPropertyOp61
 70
     1
102
RTVSPropertyOp62
 70
     1
  0
XRECORD
  5
8516
102
{ACAD_REACTORS
330
8515
102
}
330
8515
100
AcDbXrecord
280
     1
102
RTVSPost2010Prop28
280
     0
102
RTVSPost2010PropOp28
 70
     1
102
RTVSPost2010Prop29
280
     1
102
RTVSPost2010PropOp29
 70
     1
102
RTVSPost2010Prop30
280
     1
102
RTVSPost2010PropOp30
 70
     1
102
RTVSPost2010Prop31
280
     0
102
RTVSPost2010PropOp31
 70
     1
102
RTVSPost2010Prop32
280
     0
102
RTVSPost2010PropOp32
 70
     1
102
RTVSPost2010Prop33
280
     0
102
RTVSPost2010PropOp33
 70
     1
102
RTVSPost2010Prop34
280
     0
102
RTVSPost2010PropOp34
 70
     1
102
RTVSPost2010Prop35
280
     0
102
RTVSPost2010PropOp35
 70
     1
102
RTVSPost2010Prop36
280
     0
102
RTVSPost2010PropOp36
 70
     1
102
RTVSPost2010Prop37
 90
       50
102
RTVSPost2010PropOp37
 70
     1
102
RTVSPost2010Prop38
140
0.0
102
RTVSPost2010PropOp38
 70
     1
102
RTVSPost2010Prop39
140
1.0
102
RTVSPost2010PropOp39
 70
     1
102
RTVSPost2010Prop40
 90
        0
102
RTVSPost2010PropOp40
 70
     1
102
RTVSPost2010Prop41ColorIndex
 90
       18
102
RTVSPost2010Prop41ColorRGB
 90
        0
102
RTVSPost2010PropOp41
 70
     1
102
RTVSPost2010Prop42
 90
       50
102
RTVSPost2010PropOp42
 70
     1
102
RTVSPost2010Prop43
 90
        3
102
RTVSPost2010PropOp43
 70
     1
102
RTVSPost2010Prop44ColorIndex
 90
        5
102
RTVSPost2010Prop44ColorRGB
 90
      255
102
RTVSPost2010PropOp44
 70
     1
102
RTVSPost2010Prop45
280
     0
102
RTVSPost2010PropOp45
 70
     1
102
RTVSPost2010Prop46
 90
       50
102
RTVSPost2010PropOp46
 70
     1
102
RTVSPost2010Prop47
 90
       50
102
RTVSPost2010PropOp47
 70
     1
102
RTVSPost2010Prop48
 90
       50
102
RTVSPost2010PropOp48
 70
     1
102
RTVSPost2010Prop49
280
     0
102
RTVSPost2010PropOp49
 70
     1
102
RTVSPost2010Prop50
 90
       50
102
RTVSPost2010PropOp50
 70
     1
102
RTVSPost2010Prop51ColorIndex
 90
      256
102
RTVSPost2010Prop51ColorRGB
 90
-16777216
102
RTVSPost2010PropOp51
 70
     0
102
RTVSPost2010Prop52
140
1.0
102
RTVSPost2010PropOp52
 70
     0
102
RTVSPost2010Prop53
 90
        2
102
RTVSPost2010PropOp53
 70
     1
102
RTVSPost2010Prop54
  1
strokes_ogs.tif
102
RTVSPost2010PropOp54
 70
     1
102
RTVSPost2010Prop55
280
     0
102
RTVSPost2010PropOp55
 70
     1
102
RTVSPost2010Prop56
140
1.0
102
RTVSPost2010PropOp56
 70
     1
102
RTVSPost2010Prop57
140
1.0
102
RTVSPost2010PropOp57
 70
     1
102
RTVSPropertyOp0
 70
     1
102
RTVSPropertyOp1
 70
     1
102
RTVSPropertyOp2
 70
     1
102
RTVSPropertyOp3
 70
     1
102
RTVSPropertyOp4
 70
     1
102
RTVSPropertyOp5
 70
     1
102
RTVSPropertyOp6
 70
     1
102
RTVSPropertyOp7
 70
     1
102
RTVSPropertyOp8
 70
     1
102
RTVSPropertyOp9
 70
     1
102
RTVSPropertyOp10
 70
     1
102
RTVSPropertyOp11
 70
     1
102
RTVSPropertyOp12
 70
     1
102
RTVSPropertyOp13
 70
     1
102
RTVSPropertyOp14
 70
     1
102
RTVSPropertyOp15
 70
     1
102
RTVSPropertyOp16
 70
     1
102
RTVSPropertyOp17
 70
     1
102
RTVSPropertyOp18
 70
     1
102
RTVSPropertyOp19
 70
     1
102
RTVSPropertyOp20
 70
     1
102
RTVSPropertyOp21
 70
     1
102
RTVSPropertyOp22
 70
     1
102
RTVSPropertyOp23
 70
     1
102
RTVSPropertyOp24
 70
     1
102
RTVSPropertyOp25
 70
     1
102
RTVSPropertyOp26
 70
     1
102
RTVSPropertyOp27
 70
     1
102
RTVSPropertyOp28
 70
     1
102
RTVSPropertyOp29
 70
     1
102
RTVSPropertyOp30
 70
     1
102
RTVSPropertyOp31
 70
     1
102
RTVSPropertyOp32
 70
     1
102
RTVSPropertyOp33
 70
     1
102
RTVSPropertyOp34
 70
     1
102
RTVSPropertyOp35
 70
     1
102
RTVSPropertyOp36
 70
     1
102
RTVSPropertyOp37
 70
     1
102
RTVSPropertyOp38
 70
     1
102
RTVSPropertyOp39
 70
     1
102
RTVSPropertyOp40
 70
     1
102
RTVSPropertyOp41
 70
     1
102
RTVSPropertyOp42
 70
     1
102
RTVSPropertyOp43
 70
     1
102
RTVSPropertyOp44
 70
     1
102
RTVSPropertyOp45
 70
     1
102
RTVSPropertyOp46
 70
     1
102
RTVSPropertyOp47
 70
     1
102
RTVSPropertyOp48
 70
     1
102
RTVSPropertyOp49
 70
     1
102
RTVSPropertyOp50
 70
     1
102
RTVSPropertyOp51
 70
     0
102
RTVSPropertyOp52
 70
     0
102
RTVSPropertyOp53
 70
     1
102
RTVSPropertyOp54
 70
     1
102
RTVSPropertyOp55
 70
     1
102
RTVSPropertyOp56
 70
     1
102
RTVSPropertyOp57
 70
     1
102
RTVSPropertyOp58
 70
     1
102
RTVSPropertyOp59
 70
     1
102
RTVSPropertyOp60
 70
     1
102
RTVSPropertyOp61
 70
     1
102
RTVSPropertyOp62
 70
     1
  0
XRECORD
  5
8532
102
{ACAD_REACTORS
330
8531
102
}
330
8531
100
AcDbXrecord
280
     1
102
RTVSPost2010Prop28
280
     0
102
RTVSPost2010PropOp28
 70
     1
102
RTVSPost2010Prop29
280
     1
102
RTVSPost2010PropOp29
 70
     1
102
RTVSPost2010Prop30
280
     1
102
RTVSPost2010PropOp30
 70
     1
102
RTVSPost2010Prop31
280
     0
102
RTVSPost2010PropOp31
 70
     1
102
RTVSPost2010Prop32
280
     0
102
RTVSPost2010PropOp32
 70
     1
102
RTVSPost2010Prop33
280
     0
102
RTVSPost2010PropOp33
 70
     1
102
RTVSPost2010Prop34
280
     0
102
RTVSPost2010PropOp34
 70
     1
102
RTVSPost2010Prop35
280
     0
102
RTVSPost2010PropOp35
 70
     1
102
RTVSPost2010Prop36
280
     0
102
RTVSPost2010PropOp36
 70
     1
102
RTVSPost2010Prop37
 90
       50
102
RTVSPost2010PropOp37
 70
     0
102
RTVSPost2010Prop38
140
0.0
102
RTVSPost2010PropOp38
 70
     0
102
RTVSPost2010Prop39
140
1.0
102
RTVSPost2010PropOp39
 70
     0
102
RTVSPost2010Prop40
 90
        0
102
RTVSPost2010PropOp40
 70
     0
102
RTVSPost2010Prop41ColorIndex
 90
       18
102
RTVSPost2010Prop41ColorRGB
 90
        0
102
RTVSPost2010PropOp41
 70
     0
102
RTVSPost2010Prop42
 90
       50
102
RTVSPost2010PropOp42
 70
     0
102
RTVSPost2010Prop43
 90
        3
102
RTVSPost2010PropOp43
 70
     0
102
RTVSPost2010Prop44ColorIndex
 90
        5
102
RTVSPost2010Prop44ColorRGB
 90
      255
102
RTVSPost2010PropOp44
 70
     0
102
RTVSPost2010Prop45
280
     0
102
RTVSPost2010PropOp45
 70
     1
102
RTVSPost2010Prop46
 90
       50
102
RTVSPost2010PropOp46
 70
     0
102
RTVSPost2010Prop47
 90
       50
102
RTVSPost2010PropOp47
 70
     0
102
RTVSPost2010Prop48
 90
       50
102
RTVSPost2010PropOp48
 70
     0
102
RTVSPost2010Prop49
280
     0
102
RTVSPost2010PropOp49
 70
     1
102
RTVSPost2010Prop50
 90
       50
102
RTVSPost2010PropOp50
 70
     0
102
RTVSPost2010Prop51ColorIndex
 90
      256
102
RTVSPost2010Prop51ColorRGB
 90
-16777216
102
RTVSPost2010PropOp51
 70
     0
102
RTVSPost2010Prop52
140
1.0
102
RTVSPost2010PropOp52
 70
     0
102
RTVSPost2010Prop53
 90
        2
102
RTVSPost2010PropOp53
 70
     0
102
RTVSPost2010Prop54
  1
strokes_ogs.tif
102
RTVSPost2010PropOp54
 70
     0
102
RTVSPost2010Prop55
280
     0
102
RTVSPost2010PropOp55
 70
     1
102
RTVSPost2010Prop56
140
1.0
102
RTVSPost2010PropOp56
 70
     0
102
RTVSPost2010Prop57
140
1.0
102
RTVSPost2010PropOp57
 70
     0
102
RTVSPropertyOp0
 70
     0
102
RTVSPropertyOp1
 70
     0
102
RTVSPropertyOp2
 70
     0
102
RTVSPropertyOp3
 70
     0
102
RTVSPropertyOp4
 70
     0
102
RTVSPropertyOp5
 70
     0
102
RTVSPropertyOp6
 70
     0
102
RTVSPropertyOp7
 70
     0
102
RTVSPropertyOp8
 70
     0
102
RTVSPropertyOp9
 70
     0
102
RTVSPropertyOp10
 70
     0
102
RTVSPropertyOp11
 70
     0
102
RTVSPropertyOp12
 70
     0
102
RTVSPropertyOp13
 70
     0
102
RTVSPropertyOp14
 70
     2
102
RTVSPropertyOp15
 70
     0
102
RTVSPropertyOp16
 70
     0
102
RTVSPropertyOp17
 70
     0
102
RTVSPropertyOp18
 70
     0
102
RTVSPropertyOp19
 70
     0
102
RTVSPropertyOp20
 70
     0
102
RTVSPropertyOp21
 70
     0
102
RTVSPropertyOp22
 70
     0
102
RTVSPropertyOp23
 70
     0
102
RTVSPropertyOp24
 70
     0
102
RTVSPropertyOp25
 70
     0
102
RTVSPropertyOp26
 70
     0
102
RTVSPropertyOp27
 70
     0
102
RTVSPropertyOp28
 70
     1
102
RTVSPropertyOp29
 70
     1
102
RTVSPropertyOp30
 70
     1
102
RTVSPropertyOp31
 70
     1
102
RTVSPropertyOp32
 70
     1
102
RTVSPropertyOp33
 70
     1
102
RTVSPropertyOp34
 70
     1
102
RTVSPropertyOp35
 70
     1
102
RTVSPropertyOp36
 70
     1
102
RTVSPropertyOp37
 70
     0
102
RTVSPropertyOp38
 70
     0
102
RTVSPropertyOp39
 70
     0
102
RTVSPropertyOp40
 70
     0
102
RTVSPropertyOp41
 70
     0
102
RTVSPropertyOp42
 70
     0
102
RTVSPropertyOp43
 70
     0
102
RTVSPropertyOp44
 70
     0
102
RTVSPropertyOp45
 70
     1
102
RTVSPropertyOp46
 70
     0
102
RTVSPropertyOp47
 70
     0
102
RTVSPropertyOp48
 70
     0
102
RTVSPropertyOp49
 70
     1
102
RTVSPropertyOp50
 70
     0
102
RTVSPropertyOp51
 70
     0
102
RTVSPropertyOp52
 70
     0
102
RTVSPropertyOp53
 70
     0
102
RTVSPropertyOp54
 70
     0
102
RTVSPropertyOp55
 70
     1
102
RTVSPropertyOp56
 70
     0
102
RTVSPropertyOp57
 70
     0
102
RTVSPropertyOp58
 70
     0
102
RTVSPropertyOp59
 70
     0
102
RTVSPropertyOp60
 70
     0
102
RTVSPropertyOp61
 70
     0
102
RTVSPropertyOp62
 70
     0
  0
XRECORD
  5
8522
102
{ACAD_REACTORS
330
8521
102
}
330
8521
100
AcDbXrecord
280
     1
102
RTVSPost2010Prop28
280
     0
102
RTVSPost2010PropOp28
 70
     1
102
RTVSPost2010Prop29
280
     1
102
RTVSPost2010PropOp29
 70
     1
102
RTVSPost2010Prop30
280
     1
102
RTVSPost2010PropOp30
 70
     1
102
RTVSPost2010Prop31
280
     0
102
RTVSPost2010PropOp31
 70
     1
102
RTVSPost2010Prop32
280
     0
102
RTVSPost2010PropOp32
 70
     1
102
RTVSPost2010Prop33
280
     0
102
RTVSPost2010PropOp33
 70
     1
102
RTVSPost2010Prop34
280
     0
102
RTVSPost2010PropOp34
 70
     1
102
RTVSPost2010Prop35
280
     0
102
RTVSPost2010PropOp35
 70
     1
102
RTVSPost2010Prop36
280
     0
102
RTVSPost2010PropOp36
 70
     1
102
RTVSPost2010Prop37
 90
       50
102
RTVSPost2010PropOp37
 70
     1
102
RTVSPost2010Prop38
140
0.0
102
RTVSPost2010PropOp38
 70
     1
102
RTVSPost2010Prop39
140
1.0
102
RTVSPost2010PropOp39
 70
     1
102
RTVSPost2010Prop40
 90
        0
102
RTVSPost2010PropOp40
 70
     1
102
RTVSPost2010Prop41ColorIndex
 90
       18
102
RTVSPost2010Prop41ColorRGB
 90
        0
102
RTVSPost2010PropOp41
 70
     1
102
RTVSPost2010Prop42
 90
       50
102
RTVSPost2010PropOp42
 70
     1
102
RTVSPost2010Prop43
 90
        3
102
RTVSPost2010PropOp43
 70
     1
102
RTVSPost2010Prop44ColorIndex
 90
        5
102
RTVSPost2010Prop44ColorRGB
 90
      255
102
RTVSPost2010PropOp44
 70
     1
102
RTVSPost2010Prop45
280
     0
102
RTVSPost2010PropOp45
 70
     1
102
RTVSPost2010Prop46
 90
       50
102
RTVSPost2010PropOp46
 70
     1
102
RTVSPost2010Prop47
 90
       50
102
RTVSPost2010PropOp47
 70
     1
102
RTVSPost2010Prop48
 90
       50
102
RTVSPost2010PropOp48
 70
     1
102
RTVSPost2010Prop49
280
     0
102
RTVSPost2010PropOp49
 70
     1
102
RTVSPost2010Prop50
 90
       50
102
RTVSPost2010PropOp50
 70
     1
102
RTVSPost2010Prop51ColorIndex
 90
      256
102
RTVSPost2010Prop51ColorRGB
 90
-16777216
102
RTVSPost2010PropOp51
 70
     0
102
RTVSPost2010Prop52
140
1.0
102
RTVSPost2010PropOp52
 70
     0
102
RTVSPost2010Prop53
 90
        2
102
RTVSPost2010PropOp53
 70
     1
102
RTVSPost2010Prop54
  1
strokes_ogs.tif
102
RTVSPost2010PropOp54
 70
     1
102
RTVSPost2010Prop55
280
     0
102
RTVSPost2010PropOp55
 70
     1
102
RTVSPost2010Prop56
140
1.0
102
RTVSPost2010PropOp56
 70
     1
102
RTVSPost2010Prop57
140
1.0
102
RTVSPost2010PropOp57
 70
     1
102
RTVSPropertyOp0
 70
     1
102
RTVSPropertyOp1
 70
     1
102
RTVSPropertyOp2
 70
     1
102
RTVSPropertyOp3
 70
     1
102
RTVSPropertyOp4
 70
     1
102
RTVSPropertyOp5
 70
     1
102
RTVSPropertyOp6
 70
     1
102
RTVSPropertyOp7
 70
     1
102
RTVSPropertyOp8
 70
     1
102
RTVSPropertyOp9
 70
     1
102
RTVSPropertyOp10
 70
     1
102
RTVSPropertyOp11
 70
     1
102
RTVSPropertyOp12
 70
     1
102
RTVSPropertyOp13
 70
     1
102
RTVSPropertyOp14
 70
     1
102
RTVSPropertyOp15
 70
     1
102
RTVSPropertyOp16
 70
     1
102
RTVSPropertyOp17
 70
     1
102
RTVSPropertyOp18
 70
     1
102
RTVSPropertyOp19
 70
     1
102
RTVSPropertyOp20
 70
     1
102
RTVSPropertyOp21
 70
     1
102
RTVSPropertyOp22
 70
     1
102
RTVSPropertyOp23
 70
     1
102
RTVSPropertyOp24
 70
     1
102
RTVSPropertyOp25
 70
     1
102
RTVSPropertyOp26
 70
     1
102
RTVSPropertyOp27
 70
     1
102
RTVSPropertyOp28
 70
     1
102
RTVSPropertyOp29
 70
     1
102
RTVSPropertyOp30
 70
     1
102
RTVSPropertyOp31
 70
     1
102
RTVSPropertyOp32
 70
     1
102
RTVSPropertyOp33
 70
     1
102
RTVSPropertyOp34
 70
     1
102
RTVSPropertyOp35
 70
     1
102
RTVSPropertyOp36
 70
     1
102
RTVSPropertyOp37
 70
     1
102
RTVSPropertyOp38
 70
     1
102
RTVSPropertyOp39
 70
     1
102
RTVSPropertyOp40
 70
     1
102
RTVSPropertyOp41
 70
     1
102
RTVSPropertyOp42
 70
     1
102
RTVSPropertyOp43
 70
     1
102
RTVSPropertyOp44
 70
     1
102
RTVSPropertyOp45
 70
     1
102
RTVSPropertyOp46
 70
     1
102
RTVSPropertyOp47
 70
     1
102
RTVSPropertyOp48
 70
     1
102
RTVSPropertyOp49
 70
     1
102
RTVSPropertyOp50
 70
     1
102
RTVSPropertyOp51
 70
     0
102
RTVSPropertyOp52
 70
     0
102
RTVSPropertyOp53
 70
     1
102
RTVSPropertyOp54
 70
     1
102
RTVSPropertyOp55
 70
     1
102
RTVSPropertyOp56
 70
     1
102
RTVSPropertyOp57
 70
     1
102
RTVSPropertyOp58
 70
     1
102
RTVSPropertyOp59
 70
     1
102
RTVSPropertyOp60
 70
     1
102
RTVSPropertyOp61
 70
     1
102
RTVSPropertyOp62
 70
     1
  0
XRECORD
  5
8534
102
{ACAD_REACTORS
330
8533
102
}
330
8533
100
AcDbXrecord
280
     1
102
RTVSPost2010Prop28
280
     0
102
RTVSPost2010PropOp28
 70
     1
102
RTVSPost2010Prop29
280
     1
102
RTVSPost2010PropOp29
 70
     1
102
RTVSPost2010Prop30
280
     1
102
RTVSPost2010PropOp30
 70
     1
102
RTVSPost2010Prop31
280
     0
102
RTVSPost2010PropOp31
 70
     1
102
RTVSPost2010Prop32
280
     0
102
RTVSPost2010PropOp32
 70
     1
102
RTVSPost2010Prop33
280
     0
102
RTVSPost2010PropOp33
 70
     1
102
RTVSPost2010Prop34
280
     0
102
RTVSPost2010PropOp34
 70
     1
102
RTVSPost2010Prop35
280
     0
102
RTVSPost2010PropOp35
 70
     1
102
RTVSPost2010Prop36
280
     0
102
RTVSPost2010PropOp36
 70
     1
102
RTVSPost2010Prop37
 90
       50
102
RTVSPost2010PropOp37
 70
     0
102
RTVSPost2010Prop38
140
0.0
102
RTVSPost2010PropOp38
 70
     0
102
RTVSPost2010Prop39
140
1.0
102
RTVSPost2010PropOp39
 70
     0
102
RTVSPost2010Prop40
 90
        0
102
RTVSPost2010PropOp40
 70
     0
102
RTVSPost2010Prop41ColorIndex
 90
       18
102
RTVSPost2010Prop41ColorRGB
 90
        0
102
RTVSPost2010PropOp41
 70
     0
102
RTVSPost2010Prop42
 90
       50
102
RTVSPost2010PropOp42
 70
     0
102
RTVSPost2010Prop43
 90
        3
102
RTVSPost2010PropOp43
 70
     0
102
RTVSPost2010Prop44ColorIndex
 90
        5
102
RTVSPost2010Prop44ColorRGB
 90
      255
102
RTVSPost2010PropOp44
 70
     0
102
RTVSPost2010Prop45
280
     0
102
RTVSPost2010PropOp45
 70
     1
102
RTVSPost2010Prop46
 90
       50
102
RTVSPost2010PropOp46
 70
     0
102
RTVSPost2010Prop47
 90
       50
102
RTVSPost2010PropOp47
 70
     0
102
RTVSPost2010Prop48
 90
       50
102
RTVSPost2010PropOp48
 70
     0
102
RTVSPost2010Prop49
280
     0
102
RTVSPost2010PropOp49
 70
     1
102
RTVSPost2010Prop50
 90
       50
102
RTVSPost2010PropOp50
 70
     0
102
RTVSPost2010Prop51ColorIndex
 90
      256
102
RTVSPost2010Prop51ColorRGB
 90
-16777216
102
RTVSPost2010PropOp51
 70
     0
102
RTVSPost2010Prop52
140
1.0
102
RTVSPost2010PropOp52
 70
     0
102
RTVSPost2010Prop53
 90
        2
102
RTVSPost2010PropOp53
 70
     0
102
RTVSPost2010Prop54
  1
strokes_ogs.tif
102
RTVSPost2010PropOp54
 70
     0
102
RTVSPost2010Prop55
280
     0
102
RTVSPost2010PropOp55
 70
     1
102
RTVSPost2010Prop56
140
1.0
102
RTVSPost2010PropOp56
 70
     0
102
RTVSPost2010Prop57
140
1.0
102
RTVSPost2010PropOp57
 70
     0
102
RTVSPropertyOp0
 70
     0
102
RTVSPropertyOp1
 70
     0
102
RTVSPropertyOp2
 70
     0
102
RTVSPropertyOp3
 70
     0
102
RTVSPropertyOp4
 70
     0
102
RTVSPropertyOp5
 70
     0
102
RTVSPropertyOp6
 70
     0
102
RTVSPropertyOp7
 70
     0
102
RTVSPropertyOp8
 70
     0
102
RTVSPropertyOp9
 70
     0
102
RTVSPropertyOp10
 70
     0
102
RTVSPropertyOp11
 70
     0
102
RTVSPropertyOp12
 70
     0
102
RTVSPropertyOp13
 70
     0
102
RTVSPropertyOp14
 70
     2
102
RTVSPropertyOp15
 70
     0
102
RTVSPropertyOp16
 70
     0
102
RTVSPropertyOp17
 70
     0
102
RTVSPropertyOp18
 70
     0
102
RTVSPropertyOp19
 70
     0
102
RTVSPropertyOp20
 70
     0
102
RTVSPropertyOp21
 70
     0
102
RTVSPropertyOp22
 70
     0
102
RTVSPropertyOp23
 70
     0
102
RTVSPropertyOp24
 70
     0
102
RTVSPropertyOp25
 70
     0
102
RTVSPropertyOp26
 70
     0
102
RTVSPropertyOp27
 70
     0
102
RTVSPropertyOp28
 70
     1
102
RTVSPropertyOp29
 70
     1
102
RTVSPropertyOp30
 70
     1
102
RTVSPropertyOp31
 70
     1
102
RTVSPropertyOp32
 70
     1
102
RTVSPropertyOp33
 70
     1
102
RTVSPropertyOp34
 70
     1
102
RTVSPropertyOp35
 70
     1
102
RTVSPropertyOp36
 70
     1
102
RTVSPropertyOp37
 70
     0
102
RTVSPropertyOp38
 70
     0
102
RTVSPropertyOp39
 70
     0
102
RTVSPropertyOp40
 70
     0
102
RTVSPropertyOp41
 70
     0
102
RTVSPropertyOp42
 70
     0
102
RTVSPropertyOp43
 70
     0
102
RTVSPropertyOp44
 70
     0
102
RTVSPropertyOp45
 70
     1
102
RTVSPropertyOp46
 70
     0
102
RTVSPropertyOp47
 70
     0
102
RTVSPropertyOp48
 70
     0
102
RTVSPropertyOp49
 70
     1
102
RTVSPropertyOp50
 70
     0
102
RTVSPropertyOp51
 70
     0
102
RTVSPropertyOp52
 70
     0
102
RTVSPropertyOp53
 70
     0
102
RTVSPropertyOp54
 70
     0
102
RTVSPropertyOp55
 70
     1
102
RTVSPropertyOp56
 70
     0
102
RTVSPropertyOp57
 70
     0
102
RTVSPropertyOp58
 70
     0
102
RTVSPropertyOp59
 70
     0
102
RTVSPropertyOp60
 70
     0
102
RTVSPropertyOp61
 70
     0
102
RTVSPropertyOp62
 70
     0
  0
XRECORD
  5
851A
102
{ACAD_REACTORS
330
8519
102
}
330
8519
100
AcDbXrecord
280
     1
102
RTVSPost2010Prop28
280
     0
102
RTVSPost2010PropOp28
 70
     1
102
RTVSPost2010Prop29
280
     1
102
RTVSPost2010PropOp29
 70
     1
102
RTVSPost2010Prop30
280
     1
102
RTVSPost2010PropOp30
 70
     1
102
RTVSPost2010Prop31
280
     0
102
RTVSPost2010PropOp31
 70
     1
102
RTVSPost2010Prop32
280
     0
102
RTVSPost2010PropOp32
 70
     1
102
RTVSPost2010Prop33
280
     0
102
RTVSPost2010PropOp33
 70
     1
102
RTVSPost2010Prop34
280
     0
102
RTVSPost2010PropOp34
 70
     1
102
RTVSPost2010Prop35
280
     0
102
RTVSPost2010PropOp35
 70
     1
102
RTVSPost2010Prop36
280
     0
102
RTVSPost2010PropOp36
 70
     1
102
RTVSPost2010Prop37
 90
       50
102
RTVSPost2010PropOp37
 70
     1
102
RTVSPost2010Prop38
140
0.0
102
RTVSPost2010PropOp38
 70
     1
102
RTVSPost2010Prop39
140
1.0
102
RTVSPost2010PropOp39
 70
     1
102
RTVSPost2010Prop40
 90
        0
102
RTVSPost2010PropOp40
 70
     1
102
RTVSPost2010Prop41ColorIndex
 90
       18
102
RTVSPost2010Prop41ColorRGB
 90
        0
102
RTVSPost2010PropOp41
 70
     1
102
RTVSPost2010Prop42
 90
       50
102
RTVSPost2010PropOp42
 70
     1
102
RTVSPost2010Prop43
 90
        3
102
RTVSPost2010PropOp43
 70
     1
102
RTVSPost2010Prop44ColorIndex
 90
        5
102
RTVSPost2010Prop44ColorRGB
 90
      255
102
RTVSPost2010PropOp44
 70
     1
102
RTVSPost2010Prop45
280
     0
102
RTVSPost2010PropOp45
 70
     1
102
RTVSPost2010Prop46
 90
       50
102
RTVSPost2010PropOp46
 70
     1
102
RTVSPost2010Prop47
 90
       50
102
RTVSPost2010PropOp47
 70
     1
102
RTVSPost2010Prop48
 90
       50
102
RTVSPost2010PropOp48
 70
     1
102
RTVSPost2010Prop49
280
     0
102
RTVSPost2010PropOp49
 70
     1
102
RTVSPost2010Prop50
 90
       50
102
RTVSPost2010PropOp50
 70
     1
102
RTVSPost2010Prop51ColorIndex
 90
      256
102
RTVSPost2010Prop51ColorRGB
 90
-16777216
102
RTVSPost2010PropOp51
 70
     0
102
RTVSPost2010Prop52
140
1.0
102
RTVSPost2010PropOp52
 70
     0
102
RTVSPost2010Prop53
 90
        2
102
RTVSPost2010PropOp53
 70
     1
102
RTVSPost2010Prop54
  1
strokes_ogs.tif
102
RTVSPost2010PropOp54
 70
     1
102
RTVSPost2010Prop55
280
     0
102
RTVSPost2010PropOp55
 70
     1
102
RTVSPost2010Prop56
140
1.0
102
RTVSPost2010PropOp56
 70
     1
102
RTVSPost2010Prop57
140
1.0
102
RTVSPost2010PropOp57
 70
     1
102
RTVSPropertyOp0
 70
     1
102
RTVSPropertyOp1
 70
     1
102
RTVSPropertyOp2
 70
     1
102
RTVSPropertyOp3
 70
     1
102
RTVSPropertyOp4
 70
     1
102
RTVSPropertyOp5
 70
     1
102
RTVSPropertyOp6
 70
     1
102
RTVSPropertyOp7
 70
     1
102
RTVSPropertyOp8
 70
     1
102
RTVSPropertyOp9
 70
     1
102
RTVSPropertyOp10
 70
     1
102
RTVSPropertyOp11
 70
     1
102
RTVSPropertyOp12
 70
     1
102
RTVSPropertyOp13
 70
     1
102
RTVSPropertyOp14
 70
     1
102
RTVSPropertyOp15
 70
     1
102
RTVSPropertyOp16
 70
     1
102
RTVSPropertyOp17
 70
     1
102
RTVSPropertyOp18
 70
     1
102
RTVSPropertyOp19
 70
     1
102
RTVSPropertyOp20
 70
     1
102
RTVSPropertyOp21
 70
     1
102
RTVSPropertyOp22
 70
     1
102
RTVSPropertyOp23
 70
     1
102
RTVSPropertyOp24
 70
     1
102
RTVSPropertyOp25
 70
     1
102
RTVSPropertyOp26
 70
     1
102
RTVSPropertyOp27
 70
     1
102
RTVSPropertyOp28
 70
     1
102
RTVSPropertyOp29
 70
     1
102
RTVSPropertyOp30
 70
     1
102
RTVSPropertyOp31
 70
     1
102
RTVSPropertyOp32
 70
     1
102
RTVSPropertyOp33
 70
     1
102
RTVSPropertyOp34
 70
     1
102
RTVSPropertyOp35
 70
     1
102
RTVSPropertyOp36
 70
     1
102
RTVSPropertyOp37
 70
     1
102
RTVSPropertyOp38
 70
     1
102
RTVSPropertyOp39
 70
     1
102
RTVSPropertyOp40
 70
     1
102
RTVSPropertyOp41
 70
     1
102
RTVSPropertyOp42
 70
     1
102
RTVSPropertyOp43
 70
     1
102
RTVSPropertyOp44
 70
     1
102
RTVSPropertyOp45
 70
     1
102
RTVSPropertyOp46
 70
     1
102
RTVSPropertyOp47
 70
     1
102
RTVSPropertyOp48
 70
     1
102
RTVSPropertyOp49
 70
     1
102
RTVSPropertyOp50
 70
     1
102
RTVSPropertyOp51
 70
     0
102
RTVSPropertyOp52
 70
     0
102
RTVSPropertyOp53
 70
     1
102
RTVSPropertyOp54
 70
     1
102
RTVSPropertyOp55
 70
     1
102
RTVSPropertyOp56
 70
     1
102
RTVSPropertyOp57
 70
     1
102
RTVSPropertyOp58
 70
     1
102
RTVSPropertyOp59
 70
     1
102
RTVSPropertyOp60
 70
     1
102
RTVSPropertyOp61
 70
     1
102
RTVSPropertyOp62
 70
     1
  0
XRECORD
  5
8530
102
{ACAD_REACTORS
330
852F
102
}
330
852F
100
AcDbXrecord
280
     1
102
RTVSPost2010Prop28
280
     0
102
RTVSPost2010PropOp28
 70
     1
102
RTVSPost2010Prop29
280
     1
102
RTVSPost2010PropOp29
 70
     1
102
RTVSPost2010Prop30
280
     1
102
RTVSPost2010PropOp30
 70
     1
102
RTVSPost2010Prop31
280
     0
102
RTVSPost2010PropOp31
 70
     1
102
RTVSPost2010Prop32
280
     0
102
RTVSPost2010PropOp32
 70
     1
102
RTVSPost2010Prop33
280
     0
102
RTVSPost2010PropOp33
 70
     1
102
RTVSPost2010Prop34
280
     0
102
RTVSPost2010PropOp34
 70
     1
102
RTVSPost2010Prop35
280
     0
102
RTVSPost2010PropOp35
 70
     1
102
RTVSPost2010Prop36
280
     0
102
RTVSPost2010PropOp36
 70
     1
102
RTVSPost2010Prop37
 90
       50
102
RTVSPost2010PropOp37
 70
     1
102
RTVSPost2010Prop38
140
0.0
102
RTVSPost2010PropOp38
 70
     1
102
RTVSPost2010Prop39
140
1.0
102
RTVSPost2010PropOp39
 70
     1
102
RTVSPost2010Prop40
 90
        0
102
RTVSPost2010PropOp40
 70
     1
102
RTVSPost2010Prop41ColorIndex
 90
       18
102
RTVSPost2010Prop41ColorRGB
 90
        0
102
RTVSPost2010PropOp41
 70
     1
102
RTVSPost2010Prop42
 90
       50
102
RTVSPost2010PropOp42
 70
     1
102
RTVSPost2010Prop43
 90
        3
102
RTVSPost2010PropOp43
 70
     1
102
RTVSPost2010Prop44ColorIndex
 90
        5
102
RTVSPost2010Prop44ColorRGB
 90
      255
102
RTVSPost2010PropOp44
 70
     1
102
RTVSPost2010Prop45
280
     0
102
RTVSPost2010PropOp45
 70
     1
102
RTVSPost2010Prop46
 90
       50
102
RTVSPost2010PropOp46
 70
     1
102
RTVSPost2010Prop47
 90
       50
102
RTVSPost2010PropOp47
 70
     1
102
RTVSPost2010Prop48
 90
       50
102
RTVSPost2010PropOp48
 70
     1
102
RTVSPost2010Prop49
280
     0
102
RTVSPost2010PropOp49
 70
     1
102
RTVSPost2010Prop50
 90
       50
102
RTVSPost2010PropOp50
 70
     1
102
RTVSPost2010Prop51ColorIndex
 90
      256
102
RTVSPost2010Prop51ColorRGB
 90
-16777216
102
RTVSPost2010PropOp51
 70
     0
102
RTVSPost2010Prop52
140
1.0
102
RTVSPost2010PropOp52
 70
     0
102
RTVSPost2010Prop53
 90
        2
102
RTVSPost2010PropOp53
 70
     1
102
RTVSPost2010Prop54
  1
strokes_ogs.tif
102
RTVSPost2010PropOp54
 70
     1
102
RTVSPost2010Prop55
280
     0
102
RTVSPost2010PropOp55
 70
     1
102
RTVSPost2010Prop56
140
1.0
102
RTVSPost2010PropOp56
 70
     1
102
RTVSPost2010Prop57
140
1.0
102
RTVSPost2010PropOp57
 70
     1
102
RTVSPropertyOp0
 70
     1
102
RTVSPropertyOp1
 70
     1
102
RTVSPropertyOp2
 70
     1
102
RTVSPropertyOp3
 70
     1
102
RTVSPropertyOp4
 70
     1
102
RTVSPropertyOp5
 70
     1
102
RTVSPropertyOp6
 70
     1
102
RTVSPropertyOp7
 70
     1
102
RTVSPropertyOp8
 70
     1
102
RTVSPropertyOp9
 70
     1
102
RTVSPropertyOp10
 70
     1
102
RTVSPropertyOp11
 70
     1
102
RTVSPropertyOp12
 70
     1
102
RTVSPropertyOp13
 70
     1
102
RTVSPropertyOp14
 70
     1
102
RTVSPropertyOp15
 70
     1
102
RTVSPropertyOp16
 70
     1
102
RTVSPropertyOp17
 70
     1
102
RTVSPropertyOp18
 70
     1
102
RTVSPropertyOp19
 70
     1
102
RTVSPropertyOp20
 70
     1
102
RTVSPropertyOp21
 70
     1
102
RTVSPropertyOp22
 70
     1
102
RTVSPropertyOp23
 70
     1
102
RTVSPropertyOp24
 70
     1
102
RTVSPropertyOp25
 70
     1
102
RTVSPropertyOp26
 70
     1
102
RTVSPropertyOp27
 70
     1
102
RTVSPropertyOp28
 70
     1
102
RTVSPropertyOp29
 70
     1
102
RTVSPropertyOp30
 70
     1
102
RTVSPropertyOp31
 70
     1
102
RTVSPropertyOp32
 70
     1
102
RTVSPropertyOp33
 70
     1
102
RTVSPropertyOp34
 70
     1
102
RTVSPropertyOp35
 70
     1
102
RTVSPropertyOp36
 70
     1
102
RTVSPropertyOp37
 70
     1
102
RTVSPropertyOp38
 70
     1
102
RTVSPropertyOp39
 70
     1
102
RTVSPropertyOp40
 70
     1
102
RTVSPropertyOp41
 70
     1
102
RTVSPropertyOp42
 70
     1
102
RTVSPropertyOp43
 70
     1
102
RTVSPropertyOp44
 70
     1
102
RTVSPropertyOp45
 70
     1
102
RTVSPropertyOp46
 70
     1
102
RTVSPropertyOp47
 70
     1
102
RTVSPropertyOp48
 70
     1
102
RTVSPropertyOp49
 70
     1
102
RTVSPropertyOp50
 70
     1
102
RTVSPropertyOp51
 70
     0
102
RTVSPropertyOp52
 70
     0
102
RTVSPropertyOp53
 70
     1
102
RTVSPropertyOp54
 70
     1
102
RTVSPropertyOp55
 70
     1
102
RTVSPropertyOp56
 70
     1
102
RTVSPropertyOp57
 70
     1
102
RTVSPropertyOp58
 70
     1
102
RTVSPropertyOp59
 70
     1
102
RTVSPropertyOp60
 70
     1
102
RTVSPropertyOp61
 70
     1
102
RTVSPropertyOp62
 70
     1
  0
XRECORD
  5
852E
102
{ACAD_REACTORS
330
852D
102
}
330
852D
100
AcDbXrecord
280
     1
102
RTVSPost2010Prop28
280
     0
102
RTVSPost2010PropOp28
 70
     1
102
RTVSPost2010Prop29
280
     1
102
RTVSPost2010PropOp29
 70
     1
102
RTVSPost2010Prop30
280
     1
102
RTVSPost2010PropOp30
 70
     1
102
RTVSPost2010Prop31
280
     0
102
RTVSPost2010PropOp31
 70
     1
102
RTVSPost2010Prop32
280
     0
102
RTVSPost2010PropOp32
 70
     1
102
RTVSPost2010Prop33
280
     0
102
RTVSPost2010PropOp33
 70
     1
102
RTVSPost2010Prop34
280
     0
102
RTVSPost2010PropOp34
 70
     1
102
RTVSPost2010Prop35
280
     0
102
RTVSPost2010PropOp35
 70
     1
102
RTVSPost2010Prop36
280
     0
102
RTVSPost2010PropOp36
 70
     1
102
RTVSPost2010Prop37
 90
       50
102
RTVSPost2010PropOp37
 70
     1
102
RTVSPost2010Prop38
140
0.0
102
RTVSPost2010PropOp38
 70
     1
102
RTVSPost2010Prop39
140
1.0
102
RTVSPost2010PropOp39
 70
     1
102
RTVSPost2010Prop40
 90
        0
102
RTVSPost2010PropOp40
 70
     1
102
RTVSPost2010Prop41ColorIndex
 90
       18
102
RTVSPost2010Prop41ColorRGB
 90
        0
102
RTVSPost2010PropOp41
 70
     1
102
RTVSPost2010Prop42
 90
       50
102
RTVSPost2010PropOp42
 70
     1
102
RTVSPost2010Prop43
 90
        3
102
RTVSPost2010PropOp43
 70
     1
102
RTVSPost2010Prop44ColorIndex
 90
        5
102
RTVSPost2010Prop44ColorRGB
 90
      255
102
RTVSPost2010PropOp44
 70
     1
102
RTVSPost2010Prop45
280
     0
102
RTVSPost2010PropOp45
 70
     1
102
RTVSPost2010Prop46
 90
       50
102
RTVSPost2010PropOp46
 70
     1
102
RTVSPost2010Prop47
 90
       50
102
RTVSPost2010PropOp47
 70
     1
102
RTVSPost2010Prop48
 90
       50
102
RTVSPost2010PropOp48
 70
     1
102
RTVSPost2010Prop49
280
     0
102
RTVSPost2010PropOp49
 70
     1
102
RTVSPost2010Prop50
 90
       50
102
RTVSPost2010PropOp50
 70
     1
102
RTVSPost2010Prop51ColorIndex
 90
      256
102
RTVSPost2010Prop51ColorRGB
 90
-16777216
102
RTVSPost2010PropOp51
 70
     0
102
RTVSPost2010Prop52
140
1.0
102
RTVSPost2010PropOp52
 70
     0
102
RTVSPost2010Prop53
 90
        2
102
RTVSPost2010PropOp53
 70
     1
102
RTVSPost2010Prop54
  1
strokes_ogs.tif
102
RTVSPost2010PropOp54
 70
     1
102
RTVSPost2010Prop55
280
     0
102
RTVSPost2010PropOp55
 70
     1
102
RTVSPost2010Prop56
140
1.0
102
RTVSPost2010PropOp56
 70
     1
102
RTVSPost2010Prop57
140
1.0
102
RTVSPost2010PropOp57
 70
     1
102
RTVSPropertyOp0
 70
     1
102
RTVSPropertyOp1
 70
     1
102
RTVSPropertyOp2
 70
     1
102
RTVSPropertyOp3
 70
     1
102
RTVSPropertyOp4
 70
     1
102
RTVSPropertyOp5
 70
     1
102
RTVSPropertyOp6
 70
     1
102
RTVSPropertyOp7
 70
     1
102
RTVSPropertyOp8
 70
     1
102
RTVSPropertyOp9
 70
     1
102
RTVSPropertyOp10
 70
     1
102
RTVSPropertyOp11
 70
     1
102
RTVSPropertyOp12
 70
     1
102
RTVSPropertyOp13
 70
     1
102
RTVSPropertyOp14
 70
     1
102
RTVSPropertyOp15
 70
     1
102
RTVSPropertyOp16
 70
     1
102
RTVSPropertyOp17
 70
     1
102
RTVSPropertyOp18
 70
     1
102
RTVSPropertyOp19
 70
     1
102
RTVSPropertyOp20
 70
     1
102
RTVSPropertyOp21
 70
     1
102
RTVSPropertyOp22
 70
     1
102
RTVSPropertyOp23
 70
     1
102
RTVSPropertyOp24
 70
     1
102
RTVSPropertyOp25
 70
     1
102
RTVSPropertyOp26
 70
     1
102
RTVSPropertyOp27
 70
     1
102
RTVSPropertyOp28
 70
     1
102
RTVSPropertyOp29
 70
     1
102
RTVSPropertyOp30
 70
     1
102
RTVSPropertyOp31
 70
     1
102
RTVSPropertyOp32
 70
     1
102
RTVSPropertyOp33
 70
     1
102
RTVSPropertyOp34
 70
     1
102
RTVSPropertyOp35
 70
     1
102
RTVSPropertyOp36
 70
     1
102
RTVSPropertyOp37
 70
     1
102
RTVSPropertyOp38
 70
     1
102
RTVSPropertyOp39
 70
     1
102
RTVSPropertyOp40
 70
     1
102
RTVSPropertyOp41
 70
     1
102
RTVSPropertyOp42
 70
     1
102
RTVSPropertyOp43
 70
     1
102
RTVSPropertyOp44
 70
     1
102
RTVSPropertyOp45
 70
     1
102
RTVSPropertyOp46
 70
     1
102
RTVSPropertyOp47
 70
     1
102
RTVSPropertyOp48
 70
     1
102
RTVSPropertyOp49
 70
     1
102
RTVSPropertyOp50
 70
     1
102
RTVSPropertyOp51
 70
     0
102
RTVSPropertyOp52
 70
     0
102
RTVSPropertyOp53
 70
     1
102
RTVSPropertyOp54
 70
     1
102
RTVSPropertyOp55
 70
     1
102
RTVSPropertyOp56
 70
     1
102
RTVSPropertyOp57
 70
     1
102
RTVSPropertyOp58
 70
     1
102
RTVSPropertyOp59
 70
     1
102
RTVSPropertyOp60
 70
     1
102
RTVSPropertyOp61
 70
     1
102
RTVSPropertyOp62
 70
     1
  0
XRECORD
  5
8528
102
{ACAD_REACTORS
330
8527
102
}
330
8527
100
AcDbXrecord
280
     1
102
RTVSPost2010Prop28
280
     0
102
RTVSPost2010PropOp28
 70
     1
102
RTVSPost2010Prop29
280
     1
102
RTVSPost2010PropOp29
 70
     1
102
RTVSPost2010Prop30
280
     1
102
RTVSPost2010PropOp30
 70
     1
102
RTVSPost2010Prop31
280
     0
102
RTVSPost2010PropOp31
 70
     1
102
RTVSPost2010Prop32
280
     0
102
RTVSPost2010PropOp32
 70
     1
102
RTVSPost2010Prop33
280
     0
102
RTVSPost2010PropOp33
 70
     1
102
RTVSPost2010Prop34
280
     0
102
RTVSPost2010PropOp34
 70
     1
102
RTVSPost2010Prop35
280
     0
102
RTVSPost2010PropOp35
 70
     1
102
RTVSPost2010Prop36
280
     0
102
RTVSPost2010PropOp36
 70
     1
102
RTVSPost2010Prop37
 90
       50
102
RTVSPost2010PropOp37
 70
     1
102
RTVSPost2010Prop38
140
0.0
102
RTVSPost2010PropOp38
 70
     1
102
RTVSPost2010Prop39
140
1.0
102
RTVSPost2010PropOp39
 70
     1
102
RTVSPost2010Prop40
 90
        0
102
RTVSPost2010PropOp40
 70
     1
102
RTVSPost2010Prop41ColorIndex
 90
       18
102
RTVSPost2010Prop41ColorRGB
 90
        0
102
RTVSPost2010PropOp41
 70
     1
102
RTVSPost2010Prop42
 90
       50
102
RTVSPost2010PropOp42
 70
     1
102
RTVSPost2010Prop43
 90
        3
102
RTVSPost2010PropOp43
 70
     1
102
RTVSPost2010Prop44ColorIndex
 90
        5
102
RTVSPost2010Prop44ColorRGB
 90
      255
102
RTVSPost2010PropOp44
 70
     1
102
RTVSPost2010Prop45
280
     0
102
RTVSPost2010PropOp45
 70
     1
102
RTVSPost2010Prop46
 90
       50
102
RTVSPost2010PropOp46
 70
     1
102
RTVSPost2010Prop47
 90
       50
102
RTVSPost2010PropOp47
 70
     1
102
RTVSPost2010Prop48
 90
       50
102
RTVSPost2010PropOp48
 70
     1
102
RTVSPost2010Prop49
280
     0
102
RTVSPost2010PropOp49
 70
     1
102
RTVSPost2010Prop50
 90
       50
102
RTVSPost2010PropOp50
 70
     1
102
RTVSPost2010Prop51ColorIndex
 90
      256
102
RTVSPost2010Prop51ColorRGB
 90
-16777216
102
RTVSPost2010PropOp51
 70
     0
102
RTVSPost2010Prop52
140
1.0
102
RTVSPost2010PropOp52
 70
     0
102
RTVSPost2010Prop53
 90
        2
102
RTVSPost2010PropOp53
 70
     1
102
RTVSPost2010Prop54
  1
strokes_ogs.tif
102
RTVSPost2010PropOp54
 70
     1
102
RTVSPost2010Prop55
280
     0
102
RTVSPost2010PropOp55
 70
     1
102
RTVSPost2010Prop56
140
1.0
102
RTVSPost2010PropOp56
 70
     1
102
RTVSPost2010Prop57
140
1.0
102
RTVSPost2010PropOp57
 70
     1
102
RTVSPropertyOp0
 70
     1
102
RTVSPropertyOp1
 70
     1
102
RTVSPropertyOp2
 70
     1
102
RTVSPropertyOp3
 70
     1
102
RTVSPropertyOp4
 70
     1
102
RTVSPropertyOp5
 70
     1
102
RTVSPropertyOp6
 70
     1
102
RTVSPropertyOp7
 70
     1
102
RTVSPropertyOp8
 70
     1
102
RTVSPropertyOp9
 70
     1
102
RTVSPropertyOp10
 70
     1
102
RTVSPropertyOp11
 70
     1
102
RTVSPropertyOp12
 70
     1
102
RTVSPropertyOp13
 70
     1
102
RTVSPropertyOp14
 70
     1
102
RTVSPropertyOp15
 70
     1
102
RTVSPropertyOp16
 70
     1
102
RTVSPropertyOp17
 70
     1
102
RTVSPropertyOp18
 70
     1
102
RTVSPropertyOp19
 70
     1
102
RTVSPropertyOp20
 70
     1
102
RTVSPropertyOp21
 70
     1
102
RTVSPropertyOp22
 70
     1
102
RTVSPropertyOp23
 70
     1
102
RTVSPropertyOp24
 70
     1
102
RTVSPropertyOp25
 70
     1
102
RTVSPropertyOp26
 70
     1
102
RTVSPropertyOp27
 70
     1
102
RTVSPropertyOp28
 70
     1
102
RTVSPropertyOp29
 70
     1
102
RTVSPropertyOp30
 70
     1
102
RTVSPropertyOp31
 70
     1
102
RTVSPropertyOp32
 70
     1
102
RTVSPropertyOp33
 70
     1
102
RTVSPropertyOp34
 70
     1
102
RTVSPropertyOp35
 70
     1
102
RTVSPropertyOp36
 70
     1
102
RTVSPropertyOp37
 70
     1
102
RTVSPropertyOp38
 70
     1
102
RTVSPropertyOp39
 70
     1
102
RTVSPropertyOp40
 70
     1
102
RTVSPropertyOp41
 70
     1
102
RTVSPropertyOp42
 70
     1
102
RTVSPropertyOp43
 70
     1
102
RTVSPropertyOp44
 70
     1
102
RTVSPropertyOp45
 70
     1
102
RTVSPropertyOp46
 70
     1
102
RTVSPropertyOp47
 70
     1
102
RTVSPropertyOp48
 70
     1
102
RTVSPropertyOp49
 70
     1
102
RTVSPropertyOp50
 70
     1
102
RTVSPropertyOp51
 70
     0
102
RTVSPropertyOp52
 70
     0
102
RTVSPropertyOp53
 70
     1
102
RTVSPropertyOp54
 70
     1
102
RTVSPropertyOp55
 70
     1
102
RTVSPropertyOp56
 70
     1
102
RTVSPropertyOp57
 70
     1
102
RTVSPropertyOp58
 70
     1
102
RTVSPropertyOp59
 70
     1
102
RTVSPropertyOp60
 70
     1
102
RTVSPropertyOp61
 70
     1
102
RTVSPropertyOp62
 70
     1
  0
XRECORD
  5
852A
102
{ACAD_REACTORS
330
8529
102
}
330
8529
100
AcDbXrecord
280
     1
102
RTVSPost2010Prop28
280
     0
102
RTVSPost2010PropOp28
 70
     1
102
RTVSPost2010Prop29
280
     1
102
RTVSPost2010PropOp29
 70
     1
102
RTVSPost2010Prop30
280
     1
102
RTVSPost2010PropOp30
 70
     1
102
RTVSPost2010Prop31
280
     0
102
RTVSPost2010PropOp31
 70
     1
102
RTVSPost2010Prop32
280
     0
102
RTVSPost2010PropOp32
 70
     1
102
RTVSPost2010Prop33
280
     0
102
RTVSPost2010PropOp33
 70
     1
102
RTVSPost2010Prop34
280
     0
102
RTVSPost2010PropOp34
 70
     1
102
RTVSPost2010Prop35
280
     0
102
RTVSPost2010PropOp35
 70
     1
102
RTVSPost2010Prop36
280
     0
102
RTVSPost2010PropOp36
 70
     1
102
RTVSPost2010Prop37
 90
       50
102
RTVSPost2010PropOp37
 70
     1
102
RTVSPost2010Prop38
140
0.0
102
RTVSPost2010PropOp38
 70
     1
102
RTVSPost2010Prop39
140
1.0
102
RTVSPost2010PropOp39
 70
     1
102
RTVSPost2010Prop40
 90
        0
102
RTVSPost2010PropOp40
 70
     1
102
RTVSPost2010Prop41ColorIndex
 90
       18
102
RTVSPost2010Prop41ColorRGB
 90
        0
102
RTVSPost2010PropOp41
 70
     1
102
RTVSPost2010Prop42
 90
       50
102
RTVSPost2010PropOp42
 70
     1
102
RTVSPost2010Prop43
 90
        3
102
RTVSPost2010PropOp43
 70
     1
102
RTVSPost2010Prop44ColorIndex
 90
        5
102
RTVSPost2010Prop44ColorRGB
 90
      255
102
RTVSPost2010PropOp44
 70
     1
102
RTVSPost2010Prop45
280
     0
102
RTVSPost2010PropOp45
 70
     1
102
RTVSPost2010Prop46
 90
       50
102
RTVSPost2010PropOp46
 70
     1
102
RTVSPost2010Prop47
 90
       50
102
RTVSPost2010PropOp47
 70
     1
102
RTVSPost2010Prop48
 90
       50
102
RTVSPost2010PropOp48
 70
     1
102
RTVSPost2010Prop49
280
     0
102
RTVSPost2010PropOp49
 70
     1
102
RTVSPost2010Prop50
 90
       50
102
RTVSPost2010PropOp50
 70
     1
102
RTVSPost2010Prop51ColorIndex
 90
      256
102
RTVSPost2010Prop51ColorRGB
 90
-16777216
102
RTVSPost2010PropOp51
 70
     0
102
RTVSPost2010Prop52
140
1.0
102
RTVSPost2010PropOp52
 70
     0
102
RTVSPost2010Prop53
 90
        2
102
RTVSPost2010PropOp53
 70
     1
102
RTVSPost2010Prop54
  1
strokes_ogs.tif
102
RTVSPost2010PropOp54
 70
     1
102
RTVSPost2010Prop55
280
     0
102
RTVSPost2010PropOp55
 70
     1
102
RTVSPost2010Prop56
140
1.0
102
RTVSPost2010PropOp56
 70
     1
102
RTVSPost2010Prop57
140
1.0
102
RTVSPost2010PropOp57
 70
     1
102
RTVSPropertyOp0
 70
     1
102
RTVSPropertyOp1
 70
     1
102
RTVSPropertyOp2
 70
     1
102
RTVSPropertyOp3
 70
     1
102
RTVSPropertyOp4
 70
     1
102
RTVSPropertyOp5
 70
     1
102
RTVSPropertyOp6
 70
     1
102
RTVSPropertyOp7
 70
     1
102
RTVSPropertyOp8
 70
     1
102
RTVSPropertyOp9
 70
     1
102
RTVSPropertyOp10
 70
     1
102
RTVSPropertyOp11
 70
     1
102
RTVSPropertyOp12
 70
     1
102
RTVSPropertyOp13
 70
     1
102
RTVSPropertyOp14
 70
     1
102
RTVSPropertyOp15
 70
     1
102
RTVSPropertyOp16
 70
     1
102
RTVSPropertyOp17
 70
     1
102
RTVSPropertyOp18
 70
     1
102
RTVSPropertyOp19
 70
     1
102
RTVSPropertyOp20
 70
     1
102
RTVSPropertyOp21
 70
     1
102
RTVSPropertyOp22
 70
     1
102
RTVSPropertyOp23
 70
     1
102
RTVSPropertyOp24
 70
     1
102
RTVSPropertyOp25
 70
     1
102
RTVSPropertyOp26
 70
     1
102
RTVSPropertyOp27
 70
     1
102
RTVSPropertyOp28
 70
     1
102
RTVSPropertyOp29
 70
     1
102
RTVSPropertyOp30
 70
     1
102
RTVSPropertyOp31
 70
     1
102
RTVSPropertyOp32
 70
     1
102
RTVSPropertyOp33
 70
     1
102
RTVSPropertyOp34
 70
     1
102
RTVSPropertyOp35
 70
     1
102
RTVSPropertyOp36
 70
     1
102
RTVSPropertyOp37
 70
     1
102
RTVSPropertyOp38
 70
     1
102
RTVSPropertyOp39
 70
     1
102
RTVSPropertyOp40
 70
     1
102
RTVSPropertyOp41
 70
     1
102
RTVSPropertyOp42
 70
     1
102
RTVSPropertyOp43
 70
     1
102
RTVSPropertyOp44
 70
     1
102
RTVSPropertyOp45
 70
     1
102
RTVSPropertyOp46
 70
     1
102
RTVSPropertyOp47
 70
     1
102
RTVSPropertyOp48
 70
     1
102
RTVSPropertyOp49
 70
     1
102
RTVSPropertyOp50
 70
     1
102
RTVSPropertyOp51
 70
     0
102
RTVSPropertyOp52
 70
     0
102
RTVSPropertyOp53
 70
     1
102
RTVSPropertyOp54
 70
     1
102
RTVSPropertyOp55
 70
     1
102
RTVSPropertyOp56
 70
     1
102
RTVSPropertyOp57
 70
     1
102
RTVSPropertyOp58
 70
     1
102
RTVSPropertyOp59
 70
     1
102
RTVSPropertyOp60
 70
     1
102
RTVSPropertyOp61
 70
     1
102
RTVSPropertyOp62
 70
     1
  0
XRECORD
  5
8520
102
{ACAD_REACTORS
330
851F
102
}
330
851F
100
AcDbXrecord
280
     1
102
RTVSPost2010Prop28
280
     0
102
RTVSPost2010PropOp28
 70
     1
102
RTVSPost2010Prop29
280
     1
102
RTVSPost2010PropOp29
 70
     1
102
RTVSPost2010Prop30
280
     1
102
RTVSPost2010PropOp30
 70
     1
102
RTVSPost2010Prop31
280
     0
102
RTVSPost2010PropOp31
 70
     1
102
RTVSPost2010Prop32
280
     0
102
RTVSPost2010PropOp32
 70
     1
102
RTVSPost2010Prop33
280
     0
102
RTVSPost2010PropOp33
 70
     1
102
RTVSPost2010Prop34
280
     0
102
RTVSPost2010PropOp34
 70
     1
102
RTVSPost2010Prop35
280
     0
102
RTVSPost2010PropOp35
 70
     1
102
RTVSPost2010Prop36
280
     0
102
RTVSPost2010PropOp36
 70
     1
102
RTVSPost2010Prop37
 90
       50
102
RTVSPost2010PropOp37
 70
     1
102
RTVSPost2010Prop38
140
0.0
102
RTVSPost2010PropOp38
 70
     1
102
RTVSPost2010Prop39
140
1.0
102
RTVSPost2010PropOp39
 70
     1
102
RTVSPost2010Prop40
 90
        0
102
RTVSPost2010PropOp40
 70
     1
102
RTVSPost2010Prop41ColorIndex
 90
       18
102
RTVSPost2010Prop41ColorRGB
 90
        0
102
RTVSPost2010PropOp41
 70
     1
102
RTVSPost2010Prop42
 90
       50
102
RTVSPost2010PropOp42
 70
     1
102
RTVSPost2010Prop43
 90
        3
102
RTVSPost2010PropOp43
 70
     1
102
RTVSPost2010Prop44ColorIndex
 90
        5
102
RTVSPost2010Prop44ColorRGB
 90
      255
102
RTVSPost2010PropOp44
 70
     1
102
RTVSPost2010Prop45
280
     0
102
RTVSPost2010PropOp45
 70
     1
102
RTVSPost2010Prop46
 90
       50
102
RTVSPost2010PropOp46
 70
     1
102
RTVSPost2010Prop47
 90
       50
102
RTVSPost2010PropOp47
 70
     1
102
RTVSPost2010Prop48
 90
       50
102
RTVSPost2010PropOp48
 70
     1
102
RTVSPost2010Prop49
280
     0
102
RTVSPost2010PropOp49
 70
     1
102
RTVSPost2010Prop50
 90
       50
102
RTVSPost2010PropOp50
 70
     1
102
RTVSPost2010Prop51ColorIndex
 90
      256
102
RTVSPost2010Prop51ColorRGB
 90
-16777216
102
RTVSPost2010PropOp51
 70
     0
102
RTVSPost2010Prop52
140
1.0
102
RTVSPost2010PropOp52
 70
     0
102
RTVSPost2010Prop53
 90
        2
102
RTVSPost2010PropOp53
 70
     1
102
RTVSPost2010Prop54
  1
strokes_ogs.tif
102
RTVSPost2010PropOp54
 70
     1
102
RTVSPost2010Prop55
280
     0
102
RTVSPost2010PropOp55
 70
     1
102
RTVSPost2010Prop56
140
1.0
102
RTVSPost2010PropOp56
 70
     1
102
RTVSPost2010Prop57
140
1.0
102
RTVSPost2010PropOp57
 70
     1
102
RTVSPropertyOp0
 70
     1
102
RTVSPropertyOp1
 70
     1
102
RTVSPropertyOp2
 70
     1
102
RTVSPropertyOp3
 70
     1
102
RTVSPropertyOp4
 70
     1
102
RTVSPropertyOp5
 70
     1
102
RTVSPropertyOp6
 70
     1
102
RTVSPropertyOp7
 70
     1
102
RTVSPropertyOp8
 70
     1
102
RTVSPropertyOp9
 70
     1
102
RTVSPropertyOp10
 70
     1
102
RTVSPropertyOp11
 70
     1
102
RTVSPropertyOp12
 70
     1
102
RTVSPropertyOp13
 70
     1
102
RTVSPropertyOp14
 70
     1
102
RTVSPropertyOp15
 70
     1
102
RTVSPropertyOp16
 70
     1
102
RTVSPropertyOp17
 70
     1
102
RTVSPropertyOp18
 70
     1
102
RTVSPropertyOp19
 70
     1
102
RTVSPropertyOp20
 70
     1
102
RTVSPropertyOp21
 70
     1
102
RTVSPropertyOp22
 70
     1
102
RTVSPropertyOp23
 70
     1
102
RTVSPropertyOp24
 70
     1
102
RTVSPropertyOp25
 70
     1
102
RTVSPropertyOp26
 70
     1
102
RTVSPropertyOp27
 70
     1
102
RTVSPropertyOp28
 70
     1
102
RTVSPropertyOp29
 70
     1
102
RTVSPropertyOp30
 70
     1
102
RTVSPropertyOp31
 70
     1
102
RTVSPropertyOp32
 70
     1
102
RTVSPropertyOp33
 70
     1
102
RTVSPropertyOp34
 70
     1
102
RTVSPropertyOp35
 70
     1
102
RTVSPropertyOp36
 70
     1
102
RTVSPropertyOp37
 70
     1
102
RTVSPropertyOp38
 70
     1
102
RTVSPropertyOp39
 70
     1
102
RTVSPropertyOp40
 70
     1
102
RTVSPropertyOp41
 70
     1
102
RTVSPropertyOp42
 70
     1
102
RTVSPropertyOp43
 70
     1
102
RTVSPropertyOp44
 70
     1
102
RTVSPropertyOp45
 70
     1
102
RTVSPropertyOp46
 70
     1
102
RTVSPropertyOp47
 70
     1
102
RTVSPropertyOp48
 70
     1
102
RTVSPropertyOp49
 70
     1
102
RTVSPropertyOp50
 70
     1
102
RTVSPropertyOp51
 70
     0
102
RTVSPropertyOp52
 70
     0
102
RTVSPropertyOp53
 70
     1
102
RTVSPropertyOp54
 70
     1
102
RTVSPropertyOp55
 70
     1
102
RTVSPropertyOp56
 70
     1
102
RTVSPropertyOp57
 70
     1
102
RTVSPropertyOp58
 70
     1
102
RTVSPropertyOp59
 70
     1
102
RTVSPropertyOp60
 70
     1
102
RTVSPropertyOp61
 70
     1
102
RTVSPropertyOp62
 70
     1
  0
XRECORD
  5
8514
102
{ACAD_REACTORS
330
8513
102
}
330
8513
100
AcDbXrecord
280
     1
102
RTVSPost2010Prop28
280
     0
102
RTVSPost2010PropOp28
 70
     1
102
RTVSPost2010Prop29
280
     1
102
RTVSPost2010PropOp29
 70
     1
102
RTVSPost2010Prop30
280
     1
102
RTVSPost2010PropOp30
 70
     1
102
RTVSPost2010Prop31
280
     0
102
RTVSPost2010PropOp31
 70
     1
102
RTVSPost2010Prop32
280
     0
102
RTVSPost2010PropOp32
 70
     1
102
RTVSPost2010Prop33
280
     0
102
RTVSPost2010PropOp33
 70
     1
102
RTVSPost2010Prop34
280
     0
102
RTVSPost2010PropOp34
 70
     1
102
RTVSPost2010Prop35
280
     0
102
RTVSPost2010PropOp35
 70
     1
102
RTVSPost2010Prop36
280
     0
102
RTVSPost2010PropOp36
 70
     1
102
RTVSPost2010Prop37
 90
       50
102
RTVSPost2010PropOp37
 70
     1
102
RTVSPost2010Prop38
140
0.0
102
RTVSPost2010PropOp38
 70
     1
102
RTVSPost2010Prop39
140
1.0
102
RTVSPost2010PropOp39
 70
     1
102
RTVSPost2010Prop40
 90
        0
102
RTVSPost2010PropOp40
 70
     1
102
RTVSPost2010Prop41ColorIndex
 90
       18
102
RTVSPost2010Prop41ColorRGB
 90
        0
102
RTVSPost2010PropOp41
 70
     1
102
RTVSPost2010Prop42
 90
       50
102
RTVSPost2010PropOp42
 70
     1
102
RTVSPost2010Prop43
 90
        3
102
RTVSPost2010PropOp43
 70
     1
102
RTVSPost2010Prop44ColorIndex
 90
        5
102
RTVSPost2010Prop44ColorRGB
 90
      255
102
RTVSPost2010PropOp44
 70
     1
102
RTVSPost2010Prop45
280
     0
102
RTVSPost2010PropOp45
 70
     1
102
RTVSPost2010Prop46
 90
       50
102
RTVSPost2010PropOp46
 70
     1
102
RTVSPost2010Prop47
 90
       50
102
RTVSPost2010PropOp47
 70
     1
102
RTVSPost2010Prop48
 90
       50
102
RTVSPost2010PropOp48
 70
     1
102
RTVSPost2010Prop49
280
     0
102
RTVSPost2010PropOp49
 70
     1
102
RTVSPost2010Prop50
 90
       50
102
RTVSPost2010PropOp50
 70
     1
102
RTVSPost2010Prop51ColorIndex
 90
      256
102
RTVSPost2010Prop51ColorRGB
 90
-16777216
102
RTVSPost2010PropOp51
 70
     0
102
RTVSPost2010Prop52
140
1.0
102
RTVSPost2010PropOp52
 70
     0
102
RTVSPost2010Prop53
 90
        2
102
RTVSPost2010PropOp53
 70
     1
102
RTVSPost2010Prop54
  1
strokes_ogs.tif
102
RTVSPost2010PropOp54
 70
     1
102
RTVSPost2010Prop55
280
     0
102
RTVSPost2010PropOp55
 70
     1
102
RTVSPost2010Prop56
140
1.0
102
RTVSPost2010PropOp56
 70
     1
102
RTVSPost2010Prop57
140
1.0
102
RTVSPost2010PropOp57
 70
     1
102
RTVSPropertyOp0
 70
     1
102
RTVSPropertyOp1
 70
     1
102
RTVSPropertyOp2
 70
     1
102
RTVSPropertyOp3
 70
     1
102
RTVSPropertyOp4
 70
     1
102
RTVSPropertyOp5
 70
     1
102
RTVSPropertyOp6
 70
     1
102
RTVSPropertyOp7
 70
     1
102
RTVSPropertyOp8
 70
     1
102
RTVSPropertyOp9
 70
     1
102
RTVSPropertyOp10
 70
     1
102
RTVSPropertyOp11
 70
     1
102
RTVSPropertyOp12
 70
     1
102
RTVSPropertyOp13
 70
     1
102
RTVSPropertyOp14
 70
     1
102
RTVSPropertyOp15
 70
     1
102
RTVSPropertyOp16
 70
     1
102
RTVSPropertyOp17
 70
     1
102
RTVSPropertyOp18
 70
     1
102
RTVSPropertyOp19
 70
     1
102
RTVSPropertyOp20
 70
     1
102
RTVSPropertyOp21
 70
     1
102
RTVSPropertyOp22
 70
     1
102
RTVSPropertyOp23
 70
     1
102
RTVSPropertyOp24
 70
     1
102
RTVSPropertyOp25
 70
     1
102
RTVSPropertyOp26
 70
     1
102
RTVSPropertyOp27
 70
     1
102
RTVSPropertyOp28
 70
     1
102
RTVSPropertyOp29
 70
     1
102
RTVSPropertyOp30
 70
     1
102
RTVSPropertyOp31
 70
     1
102
RTVSPropertyOp32
 70
     1
102
RTVSPropertyOp33
 70
     1
102
RTVSPropertyOp34
 70
     1
102
RTVSPropertyOp35
 70
     1
102
RTVSPropertyOp36
 70
     1
102
RTVSPropertyOp37
 70
     1
102
RTVSPropertyOp38
 70
     1
102
RTVSPropertyOp39
 70
     1
102
RTVSPropertyOp40
 70
     1
102
RTVSPropertyOp41
 70
     1
102
RTVSPropertyOp42
 70
     1
102
RTVSPropertyOp43
 70
     1
102
RTVSPropertyOp44
 70
     1
102
RTVSPropertyOp45
 70
     1
102
RTVSPropertyOp46
 70
     1
102
RTVSPropertyOp47
 70
     1
102
RTVSPropertyOp48
 70
     1
102
RTVSPropertyOp49
 70
     1
102
RTVSPropertyOp50
 70
     1
102
RTVSPropertyOp51
 70
     0
102
RTVSPropertyOp52
 70
     0
102
RTVSPropertyOp53
 70
     1
102
RTVSPropertyOp54
 70
     1
102
RTVSPropertyOp55
 70
     1
102
RTVSPropertyOp56
 70
     1
102
RTVSPropertyOp57
 70
     1
102
RTVSPropertyOp58
 70
     1
102
RTVSPropertyOp59
 70
     1
102
RTVSPropertyOp60
 70
     1
102
RTVSPropertyOp61
 70
     1
102
RTVSPropertyOp62
 70
     1
  0
XRECORD
  5
852C
102
{ACAD_REACTORS
330
852B
102
}
330
852B
100
AcDbXrecord
280
     1
102
RTVSPost2010Prop28
280
     0
102
RTVSPost2010PropOp28
 70
     1
102
RTVSPost2010Prop29
280
     1
102
RTVSPost2010PropOp29
 70
     1
102
RTVSPost2010Prop30
280
     1
102
RTVSPost2010PropOp30
 70
     1
102
RTVSPost2010Prop31
280
     0
102
RTVSPost2010PropOp31
 70
     1
102
RTVSPost2010Prop32
280
     0
102
RTVSPost2010PropOp32
 70
     1
102
RTVSPost2010Prop33
280
     0
102
RTVSPost2010PropOp33
 70
     1
102
RTVSPost2010Prop34
280
     0
102
RTVSPost2010PropOp34
 70
     1
102
RTVSPost2010Prop35
280
     0
102
RTVSPost2010PropOp35
 70
     1
102
RTVSPost2010Prop36
280
     0
102
RTVSPost2010PropOp36
 70
     1
102
RTVSPost2010Prop37
 90
       50
102
RTVSPost2010PropOp37
 70
     1
102
RTVSPost2010Prop38
140
0.0
102
RTVSPost2010PropOp38
 70
     1
102
RTVSPost2010Prop39
140
1.0
102
RTVSPost2010PropOp39
 70
     1
102
RTVSPost2010Prop40
 90
        0
102
RTVSPost2010PropOp40
 70
     1
102
RTVSPost2010Prop41ColorIndex
 90
       18
102
RTVSPost2010Prop41ColorRGB
 90
        0
102
RTVSPost2010PropOp41
 70
     1
102
RTVSPost2010Prop42
 90
       50
102
RTVSPost2010PropOp42
 70
     1
102
RTVSPost2010Prop43
 90
        3
102
RTVSPost2010PropOp43
 70
     1
102
RTVSPost2010Prop44ColorIndex
 90
        5
102
RTVSPost2010Prop44ColorRGB
 90
      255
102
RTVSPost2010PropOp44
 70
     1
102
RTVSPost2010Prop45
280
     0
102
RTVSPost2010PropOp45
 70
     1
102
RTVSPost2010Prop46
 90
       50
102
RTVSPost2010PropOp46
 70
     1
102
RTVSPost2010Prop47
 90
       50
102
RTVSPost2010PropOp47
 70
     1
102
RTVSPost2010Prop48
 90
       50
102
RTVSPost2010PropOp48
 70
     1
102
RTVSPost2010Prop49
280
     0
102
RTVSPost2010PropOp49
 70
     1
102
RTVSPost2010Prop50
 90
       50
102
RTVSPost2010PropOp50
 70
     1
102
RTVSPost2010Prop51ColorIndex
 90
      256
102
RTVSPost2010Prop51ColorRGB
 90
-16777216
102
RTVSPost2010PropOp51
 70
     0
102
RTVSPost2010Prop52
140
1.0
102
RTVSPost2010PropOp52
 70
     0
102
RTVSPost2010Prop53
 90
        2
102
RTVSPost2010PropOp53
 70
     1
102
RTVSPost2010Prop54
  1
strokes_ogs.tif
102
RTVSPost2010PropOp54
 70
     1
102
RTVSPost2010Prop55
280
     0
102
RTVSPost2010PropOp55
 70
     1
102
RTVSPost2010Prop56
140
1.0
102
RTVSPost2010PropOp56
 70
     1
102
RTVSPost2010Prop57
140
1.0
102
RTVSPost2010PropOp57
 70
     1
102
RTVSPropertyOp0
 70
     1
102
RTVSPropertyOp1
 70
     1
102
RTVSPropertyOp2
 70
     1
102
RTVSPropertyOp3
 70
     1
102
RTVSPropertyOp4
 70
     1
102
RTVSPropertyOp5
 70
     1
102
RTVSPropertyOp6
 70
     1
102
RTVSPropertyOp7
 70
     1
102
RTVSPropertyOp8
 70
     1
102
RTVSPropertyOp9
 70
     1
102
RTVSPropertyOp10
 70
     1
102
RTVSPropertyOp11
 70
     1
102
RTVSPropertyOp12
 70
     1
102
RTVSPropertyOp13
 70
     1
102
RTVSPropertyOp14
 70
     1
102
RTVSPropertyOp15
 70
     1
102
RTVSPropertyOp16
 70
     1
102
RTVSPropertyOp17
 70
     1
102
RTVSPropertyOp18
 70
     1
102
RTVSPropertyOp19
 70
     1
102
RTVSPropertyOp20
 70
     1
102
RTVSPropertyOp21
 70
     1
102
RTVSPropertyOp22
 70
     1
102
RTVSPropertyOp23
 70
     1
102
RTVSPropertyOp24
 70
     1
102
RTVSPropertyOp25
 70
     1
102
RTVSPropertyOp26
 70
     1
102
RTVSPropertyOp27
 70
     1
102
RTVSPropertyOp28
 70
     1
102
RTVSPropertyOp29
 70
     1
102
RTVSPropertyOp30
 70
     1
102
RTVSPropertyOp31
 70
     1
102
RTVSPropertyOp32
 70
     1
102
RTVSPropertyOp33
 70
     1
102
RTVSPropertyOp34
 70
     1
102
RTVSPropertyOp35
 70
     1
102
RTVSPropertyOp36
 70
     1
102
RTVSPropertyOp37
 70
     1
102
RTVSPropertyOp38
 70
     1
102
RTVSPropertyOp39
 70
     1
102
RTVSPropertyOp40
 70
     1
102
RTVSPropertyOp41
 70
     1
102
RTVSPropertyOp42
 70
     1
102
RTVSPropertyOp43
 70
     1
102
RTVSPropertyOp44
 70
     1
102
RTVSPropertyOp45
 70
     1
102
RTVSPropertyOp46
 70
     1
102
RTVSPropertyOp47
 70
     1
102
RTVSPropertyOp48
 70
     1
102
RTVSPropertyOp49
 70
     1
102
RTVSPropertyOp50
 70
     1
102
RTVSPropertyOp51
 70
     0
102
RTVSPropertyOp52
 70
     0
102
RTVSPropertyOp53
 70
     1
102
RTVSPropertyOp54
 70
     1
102
RTVSPropertyOp55
 70
     1
102
RTVSPropertyOp56
 70
     1
102
RTVSPropertyOp57
 70
     1
102
RTVSPropertyOp58
 70
     1
102
RTVSPropertyOp59
 70
     1
102
RTVSPropertyOp60
 70
     1
102
RTVSPropertyOp61
 70
     1
102
RTVSPropertyOp62
 70
     1
  0
ENDSEC
  0
EOF
