  0
SECTION
  2
HEADER
  9
$ACADVER
  1
AC1015
  9
$ACADMAINTVER
 70
    20
  9
$DWGCODEPAGE
  3
ANSI_932
  9
$INSBASE
 10
0.0
 20
0.0
 30
0.0
  9
$EXTMIN
 10
-0.1602050617329951
 20
-0.22504996767384
 30
-0.0015258207003583
  9
$EXTMAX
 10
5250.160229508953
 20
7375.225084310193
 30
0.0000000349246037
  9
$LIMMIN
 10
0.0
 20
0.0
  9
$LIMMAX
 10
297.0
 20
210.0
  9
$ORTHOMODE
 70
     1
  9
$REGENMODE
 70
     1
  9
$FILLMODE
 70
     0
  9
$QTEXTMODE
 70
     0
  9
$MIRRTEXT
 70
     1
  9
$LTSCALE
 40
100.0
  9
$ATTMODE
 70
     1
  9
$TEXTSIZE
 40
180.0
  9
$TRACEWID
 40
0.05
  9
$TEXTSTYLE
  7
STANDARD
  9
$CLAYER
  8
3
  9
$CELTYPE
  6
ByLayer
  9
$CECOLOR
 62
   256
  9
$CELTSCALE
 40
1.0
  9
$DISPSILH
 70
     0
  9
$DIMSCALE
 40
25.0
  9
$DIMASZ
 40
2.0
  9
$DIMEXO
 40
1.0
  9
$DIMDLI
 40
10.0
  9
$DIMRND
 40
0.0
  9
$DIMDLE
 40
0.0
  9
$DIMEXE
 40
1.0
  9
$DIMTP
 40
1.0
  9
$DIMTM
 40
1.0
  9
$DIMTXT
 40
3.0
  9
$DIMCEN
 40
0.0
  9
$DIMTSZ
 40
0.0
  9
$DIMTOL
 70
     0
  9
$DIMLIM
 70
     0
  9
$DIMTIH
 70
     0
  9
$DIMTOH
 70
     0
  9
$DIMSE1
 70
     0
  9
$DIMSE2
 70
     0
  9
$DIMTAD
 70
     1
  9
$DIMZIN
 70
     8
  9
$DIMBLK
  1

  9
$DIMASO
 70
     1
  9
$DIMSHO
 70
     1
  9
$DIMPOST
  1

  9
$DIMAPOST
  1

  9
$DIMALT
 70
     0
  9
$DIMALTD
 70
     2
  9
$DIMALTF
 40
0.039
  9
$DIMLFAC
 40
1.0
  9
$DIMTOFL
 70
     1
  9
$DIMTVP
 40
0.0
  9
$DIMTIX
 70
     0
  9
$DIMSOXD
 70
     0
  9
$DIMSAH
 70
     1
  9
$DIMBLK1
  1
OPEN
  9
$DIMBLK2
  1
OPEN
  9
$DIMSTYLE
  2
IGA
  9
$DIMCLRD
 70
     0
  9
$DIMCLRE
 70
     0
  9
$DIMCLRT
 70
     0
  9
$DIMTFAC
 40
10.0
  9
$DIMGAP
 40
1.0
  9
$DIMJUST
 70
     0
  9
$DIMSD1
 70
     0
  9
$DIMSD2
 70
     0
  9
$DIMTOLJ
 70
     1
  9
$DIMTZIN
 70
     0
  9
$DIMALTZ
 70
     0
  9
$DIMALTTZ
 70
     0
  9
$DIMUPT
 70
     0
  9
$DIMDEC
 70
     4
  9
$DIMTDEC
 70
     4
  9
$DIMALTU
 70
     2
  9
$DIMALTTD
 70
     2
  9
$DIMTXSTY
  7
STANDARD
  9
$DIMAUNIT
 70
     0
  9
$DIMADEC
 70
     0
  9
$DIMALTRND
 40
0.0
  9
$DIMAZIN
 70
     0
  9
$DIMDSEP
 70
    46
  9
$DIMATFIT
 70
     3
  9
$DIMFRAC
 70
     0
  9
$DIMLDRBLK
  1
OPEN
  9
$DIMLUNIT
 70
     2
  9
$DIMLWD
 70
    -2
  9
$DIMLWE
 70
    -2
  9
$DIMTMOVE
 70
     0
  9
$LUNITS
 70
     2
  9
$LUPREC
 70
     3
  9
$SKETCHINC
 40
0.1
  9
$FILLETRAD
 40
50.0
  9
$AUNITS
 70
     0
  9
$AUPREC
 70
     0
  9
$MENU
  1
acad
  9
$ELEVATION
 40
0.0
  9
$PELEVATION
 40
0.0
  9
$THICKNESS
 40
0.0
  9
$LIMCHECK
 70
     0
  9
$CHAMFERA
 40
0.5
  9
$CHAMFERB
 40
0.5
  9
$CHAMFERC
 40
0.0
  9
$CHAMFERD
 40
0.0
  9
$SKPOLY
 70
     0
  9
$TDCREATE
 40
2451387.599927431
  9
$TDUCREATE
 40
2451387.224927430
  9
$TDUPDATE
 40
2460263.706624236
  9
$TDUUPDATE
 40
2460263.331624236
  9
$TDINDWG
 40
0.0864439699
  9
$TDUSRTIMER
 40
0.0864437847
  9
$USRTIMER
 70
     1
  9
$ANGBASE
 50
0.0
  9
$ANGDIR
 70
     0
  9
$PDMODE
 70
     0
  9
$PDSIZE
 40
0.0
  9
$PLINEWID
 40
0.0
  9
$SPLFRAME
 70
     0
  9
$SPLINETYPE
 70
     6
  9
$SPLINESEGS
 70
     8
  9
$HANDSEED
  5
83EB
  9
$SURFTAB1
 70
     6
  9
$SURFTAB2
 70
     6
  9
$SURFTYPE
 70
     6
  9
$SURFU
 70
     6
  9
$SURFV
 70
     6
  9
$UCSBASE
  2

  9
$UCSNAME
  2

  9
$UCSORG
 10
0.0
 20
0.0
 30
0.0
  9
$UCSXDIR
 10
1.0
 20
0.0
 30
0.0
  9
$UCSYDIR
 10
0.0
 20
1.0
 30
0.0
  9
$UCSORTHOREF
  2

  9
$UCSORTHOVIEW
 70
     0
  9
$UCSORGTOP
 10
0.0
 20
0.0
 30
0.0
  9
$UCSORGBOTTOM
 10
0.0
 20
0.0
 30
0.0
  9
$UCSORGLEFT
 10
0.0
 20
0.0
 30
0.0
  9
$UCSORGRIGHT
 10
0.0
 20
0.0
 30
0.0
  9
$UCSORGFRONT
 10
0.0
 20
0.0
 30
0.0
  9
$UCSORGBACK
 10
0.0
 20
0.0
 30
0.0
  9
$PUCSBASE
  2

  9
$PUCSNAME
  2

  9
$PUCSORG
 10
0.0
 20
0.0
 30
0.0
  9
$PUCSXDIR
 10
1.0
 20
0.0
 30
0.0
  9
$PUCSYDIR
 10
0.0
 20
1.0
 30
0.0
  9
$PUCSORTHOREF
  2

  9
$PUCSORTHOVIEW
 70
     0
  9
$PUCSORGTOP
 10
0.0
 20
0.0
 30
0.0
  9
$PUCSORGBOTTOM
 10
0.0
 20
0.0
 30
0.0
  9
$PUCSORGLEFT
 10
0.0
 20
0.0
 30
0.0
  9
$PUCSORGRIGHT
 10
0.0
 20
0.0
 30
0.0
  9
$PUCSORGFRONT
 10
0.0
 20
0.0
 30
0.0
  9
$PUCSORGBACK
 10
0.0
 20
0.0
 30
0.0
  9
$USERI1
 70
     0
  9
$USERI2
 70
     0
  9
$USERI3
 70
     0
  9
$USERI4
 70
     0
  9
$USERI5
 70
     0
  9
$USERR1
 40
0.0
  9
$USERR2
 40
0.0
  9
$USERR3
 40
0.0
  9
$USERR4
 40
0.0
  9
$USERR5
 40
0.0
  9
$WORLDVIEW
 70
     1
  9
$SHADEDGE
 70
     3
  9
$SHADEDIF
 70
    70
  9
$TILEMODE
 70
     1
  9
$MAXACTVP
 70
    16
  9
$PINSBASE
 10
0.0
 20
0.0
 30
0.0
  9
$PLIMCHECK
 70
     0
  9
$PEXTMIN
 10
1.000000000000000E+20
 20
1.000000000000000E+20
 30
1.000000000000000E+20
  9
$PEXTMAX
 10
-1.000000000000000E+20
 20
-1.000000000000000E+20
 30
-1.000000000000000E+20
  9
$PLIMMIN
 10
0.0
 20
0.0
  9
$PLIMMAX
 10
12.0
 20
9.0
  9
$UNITMODE
 70
     0
  9
$VISRETAIN
 70
     0
  9
$PLINEGEN
 70
     0
  9
$PSLTSCALE
 70
     1
  9
$TREEDEPTH
 70
  3020
  9
$CMLSTYLE
  2
Standard
  9
$CMLJUST
 70
     0
  9
$CMLSCALE
 40
1.0
  9
$PROXYGRAPHICS
 70
     1
  9
$MEASUREMENT
 70
     0
  9
$CELWEIGHT
370
    -1
  9
$ENDCAPS
280
     0
  9
$JOINSTYLE
280
     0
  9
$LWDISPLAY
290
     0
  9
$INSUNITS
 70
     0
  9
$HYPERLINKBASE
  1

  9
$STYLESHEET
  1

  9
$XEDIT
290
     1
  9
$CEPSNTYPE
380
     0
  9
$PSTYLEMODE
290
     1
  9
$FINGERPRINTGUID
  2
{06C1651F-CDE8-4625-8A0E-C9DD6B45CE19}
  9
$VERSIONGUID
  2
{E04CAB21-FBB2-42BE-9941-E890A6DAA8BC}
  9
$EXTNAMES
290
     1
  9
$PSVPSCALE
 40
0.0
  9
$OLESTARTUP
290
     0
  0
ENDSEC
  0
SECTION
  2
CLASSES
  0
CLASS
  1
ACDBDICTIONARYWDFLT
  2
AcDbDictionaryWithDefault
  3
ObjectDBX Classes
 90
        0
280
     0
281
     0
  0
CLASS
  1
MATERIAL
  2
AcDbMaterial
  3
ObjectDBX Classes
 90
     1153
280
     0
281
     0
  0
CLASS
  1
VISUALSTYLE
  2
AcDbVisualStyle
  3
ObjectDBX Classes
 90
     4095
280
     0
281
     0
  0
CLASS
  1
SCALE
  2
AcDbScale
  3
ObjectDBX Classes
 90
     1153
280
     0
281
     0
  0
CLASS
  1
TABLESTYLE
  2
AcDbTableStyle
  3
ObjectDBX Classes
 90
     4095
280
     0
281
     0
  0
CLASS
  1
MLEADERSTYLE
  2
AcDbMLeaderStyle
  3
ACDB_MLEADERSTYLE_CLASS
 90
     4095
280
     0
281
     0
  0
CLASS
  1
ACDBSECTIONVIEWSTYLE
  2
AcDbSectionViewStyle
  3
ObjectDBX Classes
 90
     1025
280
     0
281
     0
  0
CLASS
  1
ACDBDETAILVIEWSTYLE
  2
AcDbDetailViewStyle
  3
ObjectDBX Classes
 90
     1025
280
     0
281
     0
  0
CLASS
  1
SORTENTSTABLE
  2
AcDbSortentsTable
  3
ObjectDBX Classes
 90
        0
280
     0
281
     0
  0
CLASS
  1
DICTIONARYVAR
  2
AcDbDictionaryVar
  3
ObjectDBX Classes
 90
        0
280
     0
281
     0
  0
CLASS
  1
CELLSTYLEMAP
  2
AcDbCellStyleMap
  3
ObjectDBX Classes
 90
     1152
280
     0
281
     0
  0
CLASS
  1
ACDBPLACEHOLDER
  2
AcDbPlaceHolder
  3
ObjectDBX Classes
 90
        0
280
     0
281
     0
  0
CLASS
  1
LAYOUT
  2
AcDbLayout
  3
ObjectDBX Classes
 90
        0
280
     0
281
     0
  0
ENDSEC
  0
SECTION
  2
TABLES
  0
TABLE
  2
VPORT
  5
810A
330
0
100
AcDbSymbolTable
 70
     1
  0
VPORT
  5
8176
330
810A
100
AcDbSymbolTableRecord
100
AcDbViewportTableRecord
  2
*ACTIVE
 70
     0
 10
0.0
 20
0.0
 11
1.0
 21
1.0
 12
2609.138843213048
 22
3687.500022038769
 13
0.0
 23
0.0
 14
10.0
 24
10.0
 15
10.0
 25
10.0
 16
0.0
 26
0.0
 36
1.0
 17
0.0
 27
0.0
 37
0.0
 40
7423.018930192466
 41
2.050213675213675
 42
50.0
 43
0.0
 44
0.0
 50
0.0
 51
0.0
 71
     0
 72
   100
 73
     1
 74
     0
 75
     0
 76
     0
 77
     0
 78
     0
281
     0
 65
     1
110
0.0
120
0.0
130
0.0
111
1.0
121
0.0
131
0.0
112
0.0
122
1.0
132
0.0
 79
     0
146
0.0
1001
ACAD_NAV_VCDISPLAY
1070
     3
  0
ENDTAB
  0
TABLE
  2
LTYPE
  5
8107
330
0
100
AcDbSymbolTable
 70
     3
  0
LTYPE
  5
815C
330
8107
100
AcDbSymbolTableRecord
100
AcDbLinetypeTableRecord
  2
ByBlock
 70
     0
  3

 72
    65
 73
     0
 40
0.0
  0
LTYPE
  5
815D
330
8107
100
AcDbSymbolTableRecord
100
AcDbLinetypeTableRecord
  2
ByLayer
 70
     0
  3

 72
    65
 73
     0
 40
0.0
  0
LTYPE
  5
815E
330
8107
100
AcDbSymbolTableRecord
100
AcDbLinetypeTableRecord
  2
CONTINUOUS
 70
     0
  3
Solid line
 72
    65
 73
     0
 40
0.0
  0
LTYPE
  5
8177
330
8107
100
AcDbSymbolTableRecord
100
AcDbLinetypeTableRecord
  2
CENTER
 70
     0
  3
____ _ ____ _ ____ _ ____ _ ____ _ ____ _ ____ 
 72
    65
 73
     4
 40
2.0
 49
1.25
 74
     0
 49
-0.25
 74
     0
 49
0.25
 74
     0
 49
-0.25
 74
     0
  0
ENDTAB
  0
TABLE
  2
LAYER
  5
8104
102
{ACAD_XDICTIONARY
360
81BF
102
}
330
0
100
AcDbSymbolTable
 70
     6
  0
LAYER
  5
8156
102
{ACAD_XDICTIONARY
360
81EB
102
}
330
8104
100
AcDbSymbolTableRecord
100
AcDbLayerTableRecord
  2
0
 70
     0
 62
     7
  6
CONTINUOUS
370
    -3
390
8111
  0
LAYER
  5
8175
102
{ACAD_XDICTIONARY
360
81ED
102
}
330
8104
100
AcDbSymbolTableRecord
100
AcDbLayerTableRecord
  2
3
 70
     0
 62
     2
  6
CONTINUOUS
370
    -3
390
8111
  0
LAYER
  5
8178
102
{ACAD_XDICTIONARY
360
81EF
102
}
330
8104
100
AcDbSymbolTableRecord
100
AcDbLayerTableRecord
  2
2
 70
     0
 62
     3
  6
CENTER
370
    -3
390
8111
  0
LAYER
  5
8179
102
{ACAD_XDICTIONARY
360
81F1
102
}
330
8104
100
AcDbSymbolTableRecord
100
AcDbLayerTableRecord
  2
1
 70
     0
 62
     4
  6
CONTINUOUS
370
    -3
390
8111
  0
LAYER
  5
817A
102
{ACAD_XDICTIONARY
360
81F3
102
}
330
8104
100
AcDbSymbolTableRecord
100
AcDbLayerTableRecord
  2
4
 70
     0
 62
     7
  6
CONTINUOUS
370
    -3
390
8111
  0
LAYER
  5
817B
330
8104
100
AcDbSymbolTableRecord
100
AcDbLayerTableRecord
  2
DEFPOINTS
 70
     0
 62
     7
  6
CONTINUOUS
290
     0
370
    -3
390
8111
  0
ENDTAB
  0
TABLE
  2
STYLE
  5
8105
330
0
100
AcDbSymbolTable
 70
     2
  0
STYLE
  5
8157
330
8105
100
AcDbSymbolTableRecord
100
AcDbTextStyleTableRecord
  2
STANDARD
 70
     0
 40
0.0
 41
1.0
 50
0.0
 71
     0
 42
180.0
  3
simplex.shx
  4
extfont.shx
  0
STYLE
  5
815B
330
8105
100
AcDbSymbolTableRecord
100
AcDbTextStyleTableRecord
  2
Annotative
 70
     0
 40
0.0
 41
1.0
 50
0.0
 71
     0
 42
0.2
  3
txt
  4

1001
AcadAnnotative
1000
AnnotativeData
1002
{
1070
     1
1070
     1
1002
}
  0
ENDTAB
  0
TABLE
  2
VIEW
  5
8108
330
0
100
AcDbSymbolTable
 70
     0
  0
ENDTAB
  0
TABLE
  2
UCS
  5
8109
330
0
100
AcDbSymbolTable
 70
     0
  0
ENDTAB
  0
TABLE
  2
APPID
  5
810B
330
0
100
AcDbSymbolTable
 70
     8
  0
APPID
  5
8158
330
810B
100
AcDbSymbolTableRecord
100
AcDbRegAppTableRecord
  2
ACAD
 70
     0
  0
APPID
  5
815F
330
810B
100
AcDbSymbolTableRecord
100
AcDbRegAppTableRecord
  2
AcadAnnotative
 70
     0
  0
APPID
  5
81BE
330
810B
100
AcDbSymbolTableRecord
100
AcDbRegAppTableRecord
  2
ACAD_NAV_VCDISPLAY
 70
     0
  0
APPID
  5
8253
330
810B
100
AcDbSymbolTableRecord
100
AcDbRegAppTableRecord
  2
ACAD_DSTYLE_DIMJAG
 70
     0
  0
APPID
  5
8254
330
810B
100
AcDbSymbolTableRecord
100
AcDbRegAppTableRecord
  2
ACAD_DSTYLE_DIMTALN
 70
     0
  0
APPID
  5
8281
330
810B
100
AcDbSymbolTableRecord
100
AcDbRegAppTableRecord
  2
AcadAnnoMonitorAlertIconDisabled
 70
     0
  0
APPID
  5
8282
330
810B
100
AcDbSymbolTableRecord
100
AcDbRegAppTableRecord
  2
ACAD_EXEMPT_FROM_CAD_STANDARDS
 70
     0
  0
APPID
  5
83E2
330
810B
100
AcDbSymbolTableRecord
100
AcDbRegAppTableRecord
  2
ACAD_MLEADERVER
 70
     0
  0
ENDTAB
  0
TABLE
  2
DIMSTYLE
  5
810C
330
0
100
AcDbSymbolTable
 70
     4
100
AcDbDimStyleTable
 71
     1
340
817C
  0
DIMSTYLE
105
8159
102
{ACAD_REACTORS
330
7C9B
330
7C9C
330
7CFA
330
7CFE
330
7D00
330
7D01
330
7D02
330
7D03
330
7D05
330
7D2F
330
7D38
330
8031
330
803E
330
804B
330
8058
330
8067
102
}
330
810C
100
AcDbSymbolTableRecord
100
AcDbDimStyleTableRecord
  2
Standard
 70
     0
340
8157
  0
DIMSTYLE
105
815A
330
810C
100
AcDbSymbolTableRecord
100
AcDbDimStyleTableRecord
  2
Annotative
 70
     0
340
8157
1001
AcadAnnotative
1000
AnnotativeData
1002
{
1070
     1
1070
     1
1002
}
  0
DIMSTYLE
105
817C
102
{ACAD_REACTORS
330
8255
330
8262
330
82BA
330
82C7
330
82DD
330
82F3
330
8312
102
}
330
810C
100
AcDbSymbolTableRecord
100
AcDbDimStyleTableRecord
  2
IGA
 70
     0
 40
2.0
 41
2.0
 42
0.5
 43
10.0
 44
1.0
 47
1.0
 48
1.0
 73
     0
 74
     0
 77
     1
 78
     8
140
3.0
141
0.0
143
0.03937
146
10.0
147
1.0
173
     1
271
     3
272
     3
279
     2
284
     8
285
     8
286
     8
340
8157
  0
DIMSTYLE
105
817D
330
810C
100
AcDbSymbolTableRecord
100
AcDbDimStyleTableRecord
  2
MATSU
 70
     0
 41
2.0
 42
1.0
 43
10.0
 44
1.0
 73
     0
 74
     0
 77
     1
 78
     8
140
3.0
141
0.0
143
0.03937
147
0.5
172
     1
173
     1
176
   256
177
   256
178
   256
271
     3
272
     3
279
     2
284
     8
285
     8
286
     8
340
8157
  0
ENDTAB
  0
TABLE
  2
BLOCK_RECORD
  5
8103
330
0
100
AcDbSymbolTable
 70
    38
  0
BLOCK_RECORD
  5
8171
330
8103
100
AcDbSymbolTableRecord
100
AcDbBlockTableRecord
  2
*Model_Space
340
8174
  0
BLOCK_RECORD
  5
816D
330
8103
100
AcDbSymbolTableRecord
100
AcDbBlockTableRecord
  2
*Paper_Space
340
8170
  0
BLOCK_RECORD
  5
8181
330
8103
100
AcDbSymbolTableRecord
100
AcDbBlockTableRecord
  2
$MODEL_SPACE
340
0
  0
BLOCK_RECORD
  5
8183
330
8103
100
AcDbSymbolTableRecord
100
AcDbBlockTableRecord
  2
$PAPER_SPACE
340
0
  0
BLOCK_RECORD
  5
8185
330
8103
100
AcDbSymbolTableRecord
100
AcDbBlockTableRecord
  2
_OPEN
340
0
102
{BLKREFS
331
7F4C
331
7F4D
331
80E8
331
80F3
331
802A
331
802B
331
8037
331
8038
331
8044
331
8045
331
8051
331
8052
331
806D
331
806E
331
8322
331
8323
331
82B4
331
82B5
331
82C1
331
82C2
331
82D7
331
82D8
331
82ED
331
82EE
331
830C
331
830D
331
7E7C
331
7E7D
331
7E87
331
7E88
331
7EC9
331
7ECA
331
8000
331
8001
331
8016
331
8017
331
7EEA
331
7EEB
331
7EF5
331
7EF6
331
7F00
331
7F01
331
7F0B
331
7F0C
331
7F16
331
7F17
331
7F21
331
7F22
331
7F2C
331
7F2D
331
7F37
331
7F38
331
80DF
331
80E0
331
80E7
331
82AB
331
82AC
102
}
  0
BLOCK_RECORD
  5
8187
330
8103
100
AcDbSymbolTableRecord
100
AcDbBlockTableRecord
  2
YA_N
340
0
102
{BLKREFS
331
7C45
331
7C64
331
7CA2
331
7CD9
102
}
  0
BLOCK_RECORD
  5
8189
330
8103
100
AcDbSymbolTableRecord
100
AcDbBlockTableRecord
  2
*D4
340
0
  0
BLOCK_RECORD
  5
818B
330
8103
100
AcDbSymbolTableRecord
100
AcDbBlockTableRecord
  2
*D5
340
0
  0
BLOCK_RECORD
  5
818D
330
8103
100
AcDbSymbolTableRecord
100
AcDbBlockTableRecord
  2
*D6
340
0
  0
BLOCK_RECORD
  5
818F
330
8103
100
AcDbSymbolTableRecord
100
AcDbBlockTableRecord
  2
*D7
340
0
  0
BLOCK_RECORD
  5
8191
330
8103
100
AcDbSymbolTableRecord
100
AcDbBlockTableRecord
  2
*U8
340
0
102
{BLKREFS
331
8002
102
}
  0
BLOCK_RECORD
  5
8192
330
8103
100
AcDbSymbolTableRecord
100
AcDbBlockTableRecord
  2
*D9
340
0
  0
BLOCK_RECORD
  5
8194
330
8103
100
AcDbSymbolTableRecord
100
AcDbBlockTableRecord
  2
*D10
340
0
  0
BLOCK_RECORD
  5
8196
330
8103
100
AcDbSymbolTableRecord
100
AcDbBlockTableRecord
  2
*D11
340
0
  0
BLOCK_RECORD
  5
8198
330
8103
100
AcDbSymbolTableRecord
100
AcDbBlockTableRecord
  2
*D12
340
0
  0
BLOCK_RECORD
  5
819A
330
8103
100
AcDbSymbolTableRecord
100
AcDbBlockTableRecord
  2
*D13
340
0
  0
BLOCK_RECORD
  5
819C
330
8103
100
AcDbSymbolTableRecord
100
AcDbBlockTableRecord
  2
*D14
340
0
  0
BLOCK_RECORD
  5
819E
330
8103
100
AcDbSymbolTableRecord
100
AcDbBlockTableRecord
  2
*D15
340
0
  0
BLOCK_RECORD
  5
81A0
330
8103
100
AcDbSymbolTableRecord
100
AcDbBlockTableRecord
  2
*D16
340
0
  0
BLOCK_RECORD
  5
81A2
330
8103
100
AcDbSymbolTableRecord
100
AcDbBlockTableRecord
  2
*D17
340
0
  0
BLOCK_RECORD
  5
81A4
330
8103
100
AcDbSymbolTableRecord
100
AcDbBlockTableRecord
  2
*D18
340
0
  0
BLOCK_RECORD
  5
81A6
330
8103
100
AcDbSymbolTableRecord
100
AcDbBlockTableRecord
  2
*D19
340
0
  0
BLOCK_RECORD
  5
81A8
330
8103
100
AcDbSymbolTableRecord
100
AcDbBlockTableRecord
  2
*D20
340
0
  0
BLOCK_RECORD
  5
81AA
330
8103
100
AcDbSymbolTableRecord
100
AcDbBlockTableRecord
  2
*D21
340
0
  0
BLOCK_RECORD
  5
81AC
330
8103
100
AcDbSymbolTableRecord
100
AcDbBlockTableRecord
  2
_DOT
340
0
102
{BLKREFS
331
80F2
102
}
  0
BLOCK_RECORD
  5
81AE
330
8103
100
AcDbSymbolTableRecord
100
AcDbBlockTableRecord
  2
*D23
340
0
  0
BLOCK_RECORD
  5
81B0
330
8103
100
AcDbSymbolTableRecord
100
AcDbBlockTableRecord
  2
*D24
340
0
  0
BLOCK_RECORD
  5
81B2
330
8103
100
AcDbSymbolTableRecord
100
AcDbBlockTableRecord
  2
*D25
340
0
  0
BLOCK_RECORD
  5
81B4
330
8103
100
AcDbSymbolTableRecord
100
AcDbBlockTableRecord
  2
*D26
340
0
  0
BLOCK_RECORD
  5
81B6
330
8103
100
AcDbSymbolTableRecord
100
AcDbBlockTableRecord
  2
_NONE
340
0
  0
BLOCK_RECORD
  5
81B8
330
8103
100
AcDbSymbolTableRecord
100
AcDbBlockTableRecord
  2
*D28
340
0
  0
BLOCK_RECORD
  5
81BA
330
8103
100
AcDbSymbolTableRecord
100
AcDbBlockTableRecord
  2
*D29
340
0
  0
BLOCK_RECORD
  5
8256
330
8103
100
AcDbSymbolTableRecord
100
AcDbBlockTableRecord
  2
*D31
340
0
  0
BLOCK_RECORD
  5
8263
330
8103
100
AcDbSymbolTableRecord
100
AcDbBlockTableRecord
  2
*D32
340
0
  0
BLOCK_RECORD
  5
82BB
330
8103
100
AcDbSymbolTableRecord
100
AcDbBlockTableRecord
  2
*D33
340
0
  0
BLOCK_RECORD
  5
82C8
330
8103
100
AcDbSymbolTableRecord
100
AcDbBlockTableRecord
  2
*D34
340
0
  0
BLOCK_RECORD
  5
82DE
330
8103
100
AcDbSymbolTableRecord
100
AcDbBlockTableRecord
  2
*D35
340
0
  0
BLOCK_RECORD
  5
82F4
330
8103
100
AcDbSymbolTableRecord
100
AcDbBlockTableRecord
  2
*D36
340
0
  0
BLOCK_RECORD
  5
8313
330
8103
100
AcDbSymbolTableRecord
100
AcDbBlockTableRecord
  2
*D37
340
0
  0
ENDTAB
  0
ENDSEC
  0
SECTION
  2
BLOCKS
  0
BLOCK
  5
8172
330
8171
100
AcDbEntity
  8
0
100
AcDbBlockBegin
  2
*Model_Space
 70
     0
 10
0.0
 20
0.0
 30
0.0
  3
*Model_Space
  1

  0
ENDBLK
  5
8173
330
8171
100
AcDbEntity
  8
0
100
AcDbBlockEnd
  0
BLOCK
  5
816E
330
816D
100
AcDbEntity
 67
     1
  8
0
100
AcDbBlockBegin
  2
*Paper_Space
 70
     0
 10
0.0
 20
0.0
 30
0.0
  3
*Paper_Space
  1

  0
ENDBLK
  5
816F
330
816D
100
AcDbEntity
 67
     1
  8
0
100
AcDbBlockEnd
  0
BLOCK
  5
8182
330
8181
100
AcDbEntity
  8
0
100
AcDbBlockBegin
  2
$MODEL_SPACE
 70
     0
 10
0.0
 20
0.0
 30
0.0
  3
$MODEL_SPACE
  1

  0
ENDBLK
  5
1B
330
8181
100
AcDbEntity
  8
0
100
AcDbBlockEnd
  0
BLOCK
  5
8184
330
8183
100
AcDbEntity
  8
0
100
AcDbBlockBegin
  2
$PAPER_SPACE
 70
     0
 10
0.0
 20
0.0
 30
0.0
  3
$PAPER_SPACE
  1

  0
ENDBLK
  5
18
330
8183
100
AcDbEntity
  8
0
100
AcDbBlockEnd
  0
BLOCK
  5
8186
330
8185
100
AcDbEntity
  8
0
100
AcDbBlockBegin
  2
_OPEN
 70
     0
 10
0.0
 20
0.0
 30
0.0
  3
_OPEN
  1

  0
LINE
  5
79FD
330
8185
100
AcDbEntity
  8
0
  6
ByBlock
 62
     0
100
AcDbLine
 10
-1.0
 20
0.1666666666666666
 30
0.0
 11
0.0
 21
0.0
 31
0.0
  0
LINE
  5
79FE
330
8185
100
AcDbEntity
  8
0
  6
ByBlock
 62
     0
100
AcDbLine
 10
0.0
 20
0.0
 30
0.0
 11
-1.0
 21
-0.1666666666666666
 31
0.0
  0
LINE
  5
79FF
330
8185
100
AcDbEntity
  8
0
  6
ByBlock
 62
     0
100
AcDbLine
 10
0.0
 20
0.0
 30
0.0
 11
-1.0
 21
0.0
 31
0.0
  0
ENDBLK
  5
7A01
330
8185
100
AcDbEntity
  8
0
100
AcDbBlockEnd
  0
BLOCK
  5
8188
330
8187
100
AcDbEntity
  8
0
100
AcDbBlockBegin
  2
YA_N
 70
     0
 10
0.0
 20
0.0
 30
0.0
  3
YA_N
  1

  0
ENDBLK
  5
7A0C
330
8187
100
AcDbEntity
  8
0
100
AcDbBlockEnd
  0
BLOCK
  5
818A
330
8189
100
AcDbEntity
  8
0
100
AcDbBlockBegin
  2
*D4
 70
     1
 10
0.0
 20
0.0
 30
0.0
  3
*D4
  1

  0
LINE
  5
7E79
330
8189
100
AcDbEntity
  8
0
  6
ByBlock
100
AcDbLine
 10
222.5885676443849
 20
-250.406521778601
 30
0.0
 11
73.5811838651589
 21
-250.406521778601
 31
0.0
  0
LINE
  5
7E7A
330
8189
100
AcDbEntity
  8
0
  6
ByBlock
100
AcDbLine
 10
222.588567644384
 20
479.5934782213988
 30
0.0
 11
73.5811838651589
 21
479.5934782213988
 31
0.0
  0
LINE
  5
7E7B
330
8189
100
AcDbEntity
  8
0
  6
ByBlock
100
AcDbLine
 10
98.5811838651589
 20
-200.4065217786009
 30
0.0
 11
98.5811838651589
 21
429.5934782213988
 31
0.0
  0
INSERT
  5
7E7C
330
8189
100
AcDbEntity
  8
0
  6
ByBlock
100
AcDbBlockReference
  2
_OPEN
 10
98.5811838651589
 20
-250.406521778601
 30
0.0
 41
50.0
 42
50.0
 43
50.0
 50
270.0
  0
INSERT
  5
7E7D
330
8189
100
AcDbEntity
  8
0
  6
ByBlock
100
AcDbBlockReference
  2
_OPEN
 10
98.5811838651589
 20
479.5934782213988
 30
0.0
 41
50.0
 42
50.0
 43
50.0
 50
90.0
  0
TEXT
  5
7E7E
330
8189
100
AcDbEntity
  8
3
100
AcDbText
 10
86.08118386515887
 20
18.16490679282755
 30
0.0
 40
75.0
  1
730
 50
90.0
100
AcDbText
  0
POINT
  5
7E7F
330
8189
100
AcDbEntity
  8
DEFPOINTS
  6
ByBlock
 62
     0
100
AcDbPoint
 10
247.5885676443849
 20
-250.406521778601
 30
0.0
  0
POINT
  5
7E80
330
8189
100
AcDbEntity
  8
DEFPOINTS
  6
ByBlock
 62
     0
100
AcDbPoint
 10
247.588567644384
 20
479.5934782213988
 30
0.0
  0
POINT
  5
7E81
330
8189
100
AcDbEntity
  8
DEFPOINTS
  6
ByBlock
 62
     0
100
AcDbPoint
 10
98.5811838651589
 20
479.5934782213988
 30
0.0
  0
ENDBLK
  5
7E82
330
8189
100
AcDbEntity
  8
0
100
AcDbBlockEnd
  0
BLOCK
  5
818C
330
818B
100
AcDbEntity
  8
0
100
AcDbBlockBegin
  2
*D5
 70
     1
 10
0.0
 20
0.0
 30
0.0
  3
*D5
  1

  0
LINE
  5
7E84
330
818B
100
AcDbEntity
  8
0
  6
ByBlock
100
AcDbLine
 10
222.5885676443849
 20
-250.406521778601
 30
0.0
 11
-79.22758960850659
 21
-250.406521778601
 31
0.0
  0
LINE
  5
7E85
330
818B
100
AcDbEntity
  8
0
  6
ByBlock
100
AcDbLine
 10
100.3227288389552
 20
508.5934782213988
 30
0.0
 11
-79.22758960850659
 21
508.5934782213988
 31
0.0
  0
LINE
  5
7E86
330
818B
100
AcDbEntity
  8
0
  6
ByBlock
100
AcDbLine
 10
-54.22758960850661
 20
-200.4065217786009
 30
0.0
 11
-54.22758960850661
 21
458.5934782213988
 31
0.0
  0
INSERT
  5
7E87
330
818B
100
AcDbEntity
  8
0
  6
ByBlock
100
AcDbBlockReference
  2
_OPEN
 10
-54.22758960850661
 20
-250.406521778601
 30
0.0
 41
50.0
 42
50.0
 43
50.0
 50
270.0
  0
INSERT
  5
7E88
330
818B
100
AcDbEntity
  8
0
  6
ByBlock
100
AcDbBlockReference
  2
_OPEN
 10
-54.22758960850661
 20
508.5934782213988
 30
0.0
 41
50.0
 42
50.0
 43
50.0
 50
90.0
  0
TEXT
  5
7E89
330
818B
100
AcDbEntity
  8
3
100
AcDbText
 10
-66.72758960850662
 20
34.45062107854186
 30
0.0
 40
75.0
  1
759
 50
90.0
100
AcDbText
  0
POINT
  5
7E8A
330
818B
100
AcDbEntity
  8
DEFPOINTS
  6
ByBlock
 62
     0
100
AcDbPoint
 10
247.5885676443849
 20
-250.406521778601
 30
0.0
  0
POINT
  5
7E8B
330
818B
100
AcDbEntity
  8
DEFPOINTS
  6
ByBlock
 62
     0
100
AcDbPoint
 10
125.3227288389552
 20
508.5934782213988
 30
0.0
  0
POINT
  5
7E8C
330
818B
100
AcDbEntity
  8
DEFPOINTS
  6
ByBlock
 62
     0
100
AcDbPoint
 10
-54.22758960850661
 20
508.5934782213988
 30
0.0
  0
ENDBLK
  5
7E8D
330
818B
100
AcDbEntity
  8
0
100
AcDbBlockEnd
  0
BLOCK
  5
818E
330
818D
100
AcDbEntity
  8
0
100
AcDbBlockBegin
  2
*D6
 70
     1
 10
0.0
 20
0.0
 30
0.0
  3
*D6
  1

  0
LINE
  5
7EC6
330
818D
100
AcDbEntity
  8
0
  6
ByBlock
100
AcDbLine
 10
3394.272073930469
 20
1034.935589762506
 30
0.0
 11
3394.272073930469
 21
1226.540262895163
 31
0.0
  0
LINE
  5
7EC7
330
818D
100
AcDbEntity
  8
0
  6
ByBlock
100
AcDbLine
 10
4294.27207393047
 20
1034.935576025498
 30
0.0
 11
4294.27207393047
 21
1226.540262895163
 31
0.0
  0
LINE
  5
7EC8
330
818D
100
AcDbEntity
  8
0
  6
ByBlock
100
AcDbLine
 10
3444.272073930469
 20
1201.540262895163
 30
0.0
 11
4244.27207393047
 21
1201.540262895163
 31
0.0
  0
INSERT
  5
7EC9
330
818D
100
AcDbEntity
  8
0
  6
ByBlock
100
AcDbBlockReference
  2
_OPEN
 10
3394.272073930469
 20
1201.540262895163
 30
0.0
 41
50.0
 42
50.0
 43
50.0
 50
180.0
  0
INSERT
  5
7ECA
330
818D
100
AcDbEntity
  8
0
  6
ByBlock
100
AcDbBlockReference
  2
_OPEN
 10
4294.27207393047
 20
1201.540262895163
 30
0.0
 41
50.0
 42
50.0
 43
50.0
  0
TEXT
  5
7ECB
330
818D
100
AcDbEntity
  8
3
100
AcDbText
 10
3747.843502501898
 20
1214.040262895163
 30
0.0
 40
75.0
  1
900
100
AcDbText
  0
POINT
  5
7ECC
330
818D
100
AcDbEntity
  8
DEFPOINTS
  6
ByBlock
 62
     0
100
AcDbPoint
 10
3394.272073930469
 20
1009.935589762506
 30
0.0
  0
POINT
  5
7ECD
330
818D
100
AcDbEntity
  8
DEFPOINTS
  6
ByBlock
 62
     0
100
AcDbPoint
 10
4294.27207393047
 20
1009.935576025498
 30
0.0
  0
POINT
  5
7ECE
330
818D
100
AcDbEntity
  8
DEFPOINTS
  6
ByBlock
 62
     0
100
AcDbPoint
 10
4294.27207393047
 20
1201.540262895163
 30
0.0
  0
ENDBLK
  5
7ECF
330
818D
100
AcDbEntity
  8
0
100
AcDbBlockEnd
  0
BLOCK
  5
8190
330
818F
100
AcDbEntity
  8
0
100
AcDbBlockBegin
  2
*D7
 70
     1
 10
0.0
 20
0.0
 30
0.0
  3
*D7
  1

  0
LINE
  5
7FFD
330
818F
100
AcDbEntity
  8
0
  6
ByBlock
100
AcDbLine
 10
3313.091456407333
 20
3015.416563417289
 30
0.0
 11
3313.091456407333
 21
3578.617014698351
 31
0.0
  0
LINE
  5
7FFE
330
818F
100
AcDbEntity
  8
0
  6
ByBlock
100
AcDbLine
 10
4068.091456407329
 20
3563.321581601268
 30
0.0
 11
4068.091456407329
 21
3578.617014698351
 31
0.0
  0
LINE
  5
7FFF
330
818F
100
AcDbEntity
  8
0
  6
ByBlock
100
AcDbLine
 10
3363.091456407333
 20
3553.617014698351
 30
0.0
 11
4018.091456407328
 21
3553.617014698351
 31
0.0
  0
INSERT
  5
8000
330
818F
100
AcDbEntity
  8
0
  6
ByBlock
100
AcDbBlockReference
  2
_OPEN
 10
3313.091456407333
 20
3553.617014698351
 30
0.0
 41
50.0
 42
50.0
 43
50.0
 50
180.0
  0
INSERT
  5
8001
330
818F
100
AcDbEntity
  8
0
  6
ByBlock
100
AcDbBlockReference
  2
_OPEN
 10
4068.091456407329
 20
3553.617014698351
 30
0.0
 41
50.0
 42
50.0
 43
50.0
  0
INSERT
  5
8002
330
818F
100
AcDbEntity
  8
3
100
AcDbBlockReference
  2
*U8
 10
0.0
 20
0.0
 30
0.0
  0
POINT
  5
8003
330
818F
100
AcDbEntity
  8
DEFPOINTS
  6
ByBlock
 62
     0
100
AcDbPoint
 10
3313.091456407333
 20
2990.416563417289
 30
0.0
  0
POINT
  5
8004
330
818F
100
AcDbEntity
  8
DEFPOINTS
  6
ByBlock
 62
     0
100
AcDbPoint
 10
4068.091456407329
 20
3538.321581601268
 30
0.0
  0
POINT
  5
8005
330
818F
100
AcDbEntity
  8
DEFPOINTS
  6
ByBlock
 62
     0
100
AcDbPoint
 10
4068.091456407329
 20
3553.617014698351
 30
0.0
  0
ENDBLK
  5
8006
330
818F
100
AcDbEntity
  8
0
100
AcDbBlockEnd
  0
BLOCK
  5
81BC
330
8191
100
AcDbEntity
  8
0
100
AcDbBlockBegin
  2
*U8
 70
     1
 10
0.0
 20
0.0
 30
0.0
  3
*U8
  1

  0
TEXT
  5
80FC
330
8191
100
AcDbEntity
  8
3
100
AcDbText
 10
3583.448599264475
 20
3691.117014698351
 30
0.0
 40
75.0
  1
MAX
100
AcDbText
  0
TEXT
  5
80FD
330
8191
100
AcDbEntity
  8
3
100
AcDbText
 10
3594.16288497876
 20
3566.117014698351
 30
0.0
 40
75.0
  1
780
100
AcDbText
  0
ENDBLK
  5
80FF
330
8191
100
AcDbEntity
  8
0
100
AcDbBlockEnd
  0
BLOCK
  5
8193
330
8192
100
AcDbEntity
  8
0
100
AcDbBlockBegin
  2
*D9
 70
     1
 10
0.0
 20
0.0
 30
0.0
  3
*D9
  1

  0
LINE
  5
8013
330
8192
100
AcDbEntity
  8
0
  6
ByBlock
100
AcDbLine
 10
4068.091456407329
 20
3527.342449532441
 30
0.0
 11
4068.091456407329
 21
3578.617014698351
 31
0.0
  0
LINE
  5
8014
330
8192
100
AcDbEntity
  8
0
  6
ByBlock
100
AcDbLine
 10
4620.591456407331
 20
2710.21656341729
 30
0.0
 11
4620.591456407331
 21
3578.617014698351
 31
0.0
  0
LINE
  5
8015
330
8192
100
AcDbEntity
  8
0
  6
ByBlock
100
AcDbLine
 10
4118.09145640733
 20
3553.617014698351
 30
0.0
 11
4570.59145640733
 21
3553.617014698351
 31
0.0
  0
INSERT
  5
8016
330
8192
100
AcDbEntity
  8
0
  6
ByBlock
100
AcDbBlockReference
  2
_OPEN
 10
4068.091456407329
 20
3553.617014698351
 30
0.0
 41
50.0
 42
50.0
 43
50.0
 50
180.0
  0
INSERT
  5
8017
330
8192
100
AcDbEntity
  8
0
  6
ByBlock
100
AcDbBlockReference
  2
_OPEN
 10
4620.591456407331
 20
3553.617014698351
 30
0.0
 41
50.0
 42
50.0
 43
50.0
  0
TEXT
  5
8018
330
8192
100
AcDbEntity
  8
3
100
AcDbText
 10
4199.698599264473
 20
3598.259871841208
 30
0.0
 40
75.0
  1
(560)
100
AcDbText
  0
POINT
  5
8019
330
8192
100
AcDbEntity
  8
DEFPOINTS
  6
ByBlock
 62
     0
100
AcDbPoint
 10
4068.091456407329
 20
3502.342449532441
 30
0.0
  0
POINT
  5
801A
330
8192
100
AcDbEntity
  8
DEFPOINTS
  6
ByBlock
 62
     0
100
AcDbPoint
 10
4620.591456407331
 20
2685.21656341729
 30
0.0
  0
POINT
  5
801B
330
8192
100
AcDbEntity
  8
DEFPOINTS
  6
ByBlock
 62
     0
100
AcDbPoint
 10
4620.591456407331
 20
3553.617014698351
 30
0.0
  0
ENDBLK
  5
801C
330
8192
100
AcDbEntity
  8
0
100
AcDbBlockEnd
  0
BLOCK
  5
8195
330
8194
100
AcDbEntity
  8
0
100
AcDbBlockBegin
  2
*D10
 70
     1
 10
0.0
 20
0.0
 30
0.0
  3
*D10
  1

  0
LINE
  5
7EE7
330
8194
100
AcDbEntity
  8
0
  6
ByBlock
100
AcDbLine
 10
4321.57207393047
 20
133.5934782213989
 30
0.0
 11
4597.054208885889
 21
133.5934782213989
 31
0.0
  0
LINE
  5
7EE8
330
8194
100
AcDbEntity
  8
0
  6
ByBlock
100
AcDbLine
 10
4321.57207393047
 20
883.5934782213987
 30
0.0
 11
4597.054208885889
 21
883.5934782213987
 31
0.0
  0
LINE
  5
7EE9
330
8194
100
AcDbEntity
  8
0
  6
ByBlock
100
AcDbLine
 10
4572.054208885889
 20
183.5934782213989
 30
0.0
 11
4572.054208885889
 21
833.5934782213987
 31
0.0
  0
INSERT
  5
7EEA
330
8194
100
AcDbEntity
  8
0
  6
ByBlock
100
AcDbBlockReference
  2
_OPEN
 10
4572.054208885889
 20
133.5934782213989
 30
0.0
 41
50.0
 42
50.0
 43
50.0
 50
270.0
  0
INSERT
  5
7EEB
330
8194
100
AcDbEntity
  8
0
  6
ByBlock
100
AcDbBlockReference
  2
_OPEN
 10
4572.054208885889
 20
883.5934782213987
 30
0.0
 41
50.0
 42
50.0
 43
50.0
 50
90.0
  0
TEXT
  5
7EEC
330
8194
100
AcDbEntity
  8
3
100
AcDbText
 10
4559.554208885889
 20
374.6649067928275
 30
0.0
 40
75.0
  1
\U+03C6750
 50
90.0
100
AcDbText
  0
POINT
  5
7EED
330
8194
100
AcDbEntity
  8
DEFPOINTS
  6
ByBlock
 62
     0
100
AcDbPoint
 10
4296.57207393047
 20
133.5934782213989
 30
0.0
  0
POINT
  5
7EEE
330
8194
100
AcDbEntity
  8
DEFPOINTS
  6
ByBlock
 62
     0
100
AcDbPoint
 10
4296.57207393047
 20
883.5934782213987
 30
0.0
  0
POINT
  5
7EEF
330
8194
100
AcDbEntity
  8
DEFPOINTS
  6
ByBlock
 62
     0
100
AcDbPoint
 10
4572.054208885889
 20
883.5934782213987
 30
0.0
  0
ENDBLK
  5
7EF0
330
8194
100
AcDbEntity
  8
0
100
AcDbBlockEnd
  0
BLOCK
  5
8197
330
8196
100
AcDbEntity
  8
0
100
AcDbBlockBegin
  2
*D11
 70
     1
 10
0.0
 20
0.0
 30
0.0
  3
*D11
  1

  0
LINE
  5
7EF2
330
8196
100
AcDbEntity
  8
0
  6
ByBlock
100
AcDbLine
 10
1897.588567644383
 20
2193.346048433019
 30
0.0
 11
1897.588567644383
 21
1930.163588608871
 31
0.0
  0
LINE
  5
7EF3
330
8196
100
AcDbEntity
  8
0
  6
ByBlock
100
AcDbLine
 10
297.5885676443848
 20
2193.346048433018
 30
0.0
 11
297.5885676443848
 21
1930.163588608871
 31
0.0
  0
LINE
  5
7EF4
330
8196
100
AcDbEntity
  8
0
  6
ByBlock
100
AcDbLine
 10
1847.588567644384
 20
1955.163588608871
 30
0.0
 11
347.5885676443848
 21
1955.163588608871
 31
0.0
  0
INSERT
  5
7EF5
330
8196
100
AcDbEntity
  8
0
  6
ByBlock
100
AcDbBlockReference
  2
_OPEN
 10
1897.588567644383
 20
1955.163588608871
 30
0.0
 41
50.0
 42
50.0
 43
50.0
  0
INSERT
  5
7EF6
330
8196
100
AcDbEntity
  8
0
  6
ByBlock
100
AcDbBlockReference
  2
_OPEN
 10
297.5885676443848
 20
1955.163588608871
 30
0.0
 41
50.0
 42
50.0
 43
50.0
 50
180.0
  0
TEXT
  5
7EF7
330
8196
100
AcDbEntity
  8
3
100
AcDbText
 10
972.5885676443848
 20
1967.663588608871
 30
0.0
 40
75.0
  1
1600
100
AcDbText
  0
POINT
  5
7EF8
330
8196
100
AcDbEntity
  8
DEFPOINTS
  6
ByBlock
 62
     0
100
AcDbPoint
 10
1897.588567644383
 20
2218.346048433019
 30
0.0
  0
POINT
  5
7EF9
330
8196
100
AcDbEntity
  8
DEFPOINTS
  6
ByBlock
 62
     0
100
AcDbPoint
 10
297.5885676443848
 20
2218.346048433017
 30
0.0
  0
POINT
  5
7EFA
330
8196
100
AcDbEntity
  8
DEFPOINTS
  6
ByBlock
 62
     0
100
AcDbPoint
 10
297.5885676443848
 20
1955.163588608871
 30
0.0
  0
ENDBLK
  5
7EFB
330
8196
100
AcDbEntity
  8
0
100
AcDbBlockEnd
  0
BLOCK
  5
8199
330
8198
100
AcDbEntity
  8
0
100
AcDbBlockBegin
  2
*D12
 70
     1
 10
0.0
 20
0.0
 30
0.0
  3
*D12
  1

  0
LINE
  5
7EFD
330
8198
100
AcDbEntity
  8
0
  6
ByBlock
100
AcDbLine
 10
1922.588567644385
 20
2218.346048433019
 30
0.0
 11
2223.459072479474
 21
2218.346048433019
 31
0.0
  0
LINE
  5
7EFE
330
8198
100
AcDbEntity
  8
0
  6
ByBlock
100
AcDbLine
 10
1922.588567644385
 20
2888.346048433021
 30
0.0
 11
2223.459072479474
 21
2888.346048433021
 31
0.0
  0
LINE
  5
7EFF
330
8198
100
AcDbEntity
  8
0
  6
ByBlock
100
AcDbLine
 10
2198.459072479474
 20
2268.346048433019
 30
0.0
 11
2198.459072479474
 21
2838.34604843302
 31
0.0
  0
INSERT
  5
7F00
330
8198
100
AcDbEntity
  8
0
  6
ByBlock
100
AcDbBlockReference
  2
_OPEN
 10
2198.459072479474
 20
2218.346048433019
 30
0.0
 41
50.0
 42
50.0
 43
50.0
 50
270.0
  0
INSERT
  5
7F01
330
8198
100
AcDbEntity
  8
0
  6
ByBlock
100
AcDbBlockReference
  2
_OPEN
 10
2198.459072479474
 20
2888.346048433021
 30
0.0
 41
50.0
 42
50.0
 43
50.0
 50
90.0
  0
TEXT
  5
7F02
330
8198
100
AcDbEntity
  8
3
100
AcDbText
 10
2185.959072479473
 20
2456.917477004448
 30
0.0
 40
75.0
  1
670
 50
90.0
100
AcDbText
  0
POINT
  5
7F03
330
8198
100
AcDbEntity
  8
DEFPOINTS
  6
ByBlock
 62
     0
100
AcDbPoint
 10
1897.588567644383
 20
2218.346048433019
 30
0.0
  0
POINT
  5
7F04
330
8198
100
AcDbEntity
  8
DEFPOINTS
  6
ByBlock
 62
     0
100
AcDbPoint
 10
1897.588567644383
 20
2888.346048433021
 30
0.0
  0
POINT
  5
7F05
330
8198
100
AcDbEntity
  8
DEFPOINTS
  6
ByBlock
 62
     0
100
AcDbPoint
 10
2198.459072479474
 20
2888.346048433021
 30
0.0
  0
ENDBLK
  5
7F06
330
8198
100
AcDbEntity
  8
0
100
AcDbBlockEnd
  0
BLOCK
  5
819B
330
819A
100
AcDbEntity
  8
0
100
AcDbBlockBegin
  2
*D13
 70
     1
 10
0.0
 20
0.0
 30
0.0
  3
*D13
  1

  0
LINE
  5
7F08
330
819A
100
AcDbEntity
  8
0
  6
ByBlock
100
AcDbLine
 10
1197.588567644385
 20
3398.346048433019
 30
0.0
 11
1197.588567644385
 21
3699.978102837189
 31
0.0
  0
LINE
  5
7F09
330
819A
100
AcDbEntity
  8
0
  6
ByBlock
100
AcDbLine
 10
297.5885676443848
 20
3398.346048433019
 30
0.0
 11
297.5885676443848
 21
3699.978102837189
 31
0.0
  0
LINE
  5
7F0A
330
819A
100
AcDbEntity
  8
0
  6
ByBlock
100
AcDbLine
 10
1147.588567644385
 20
3674.978102837189
 30
0.0
 11
347.5885676443848
 21
3674.978102837189
 31
0.0
  0
INSERT
  5
7F0B
330
819A
100
AcDbEntity
  8
0
  6
ByBlock
100
AcDbBlockReference
  2
_OPEN
 10
1197.588567644385
 20
3674.978102837189
 30
0.0
 41
50.0
 42
50.0
 43
50.0
  0
INSERT
  5
7F0C
330
819A
100
AcDbEntity
  8
0
  6
ByBlock
100
AcDbBlockReference
  2
_OPEN
 10
297.5885676443848
 20
3674.978102837189
 30
0.0
 41
50.0
 42
50.0
 43
50.0
 50
180.0
  0
TEXT
  5
7F0D
330
819A
100
AcDbEntity
  8
3
100
AcDbText
 10
651.1599962158135
 20
3687.478102837189
 30
0.0
 40
75.0
  1
900
100
AcDbText
  0
POINT
  5
7F0E
330
819A
100
AcDbEntity
  8
DEFPOINTS
  6
ByBlock
 62
     0
100
AcDbPoint
 10
1197.588567644385
 20
3373.346048433019
 30
0.0
  0
POINT
  5
7F0F
330
819A
100
AcDbEntity
  8
DEFPOINTS
  6
ByBlock
 62
     0
100
AcDbPoint
 10
297.5885676443848
 20
3373.346048433019
 30
0.0
  0
POINT
  5
7F10
330
819A
100
AcDbEntity
  8
DEFPOINTS
  6
ByBlock
 62
     0
100
AcDbPoint
 10
297.5885676443848
 20
3674.978102837189
 30
0.0
  0
ENDBLK
  5
7F11
330
819A
100
AcDbEntity
  8
0
100
AcDbBlockEnd
  0
BLOCK
  5
819D
330
819C
100
AcDbEntity
  8
0
100
AcDbBlockBegin
  2
*D14
 70
     1
 10
0.0
 20
0.0
 30
0.0
  3
*D14
  1

  0
LINE
  5
7F13
330
819C
100
AcDbEntity
  8
0
  6
ByBlock
100
AcDbLine
 10
1897.588567644383
 20
2913.34604843302
 30
0.0
 11
1897.588567644383
 21
3699.978102837189
 31
0.0
  0
LINE
  5
7F14
330
819C
100
AcDbEntity
  8
0
  6
ByBlock
100
AcDbLine
 10
1197.588567644385
 20
3398.346048433019
 30
0.0
 11
1197.588567644385
 21
3699.978102837189
 31
0.0
  0
LINE
  5
7F15
330
819C
100
AcDbEntity
  8
0
  6
ByBlock
100
AcDbLine
 10
1847.588567644384
 20
3674.978102837189
 30
0.0
 11
1247.588567644385
 21
3674.978102837189
 31
0.0
  0
INSERT
  5
7F16
330
819C
100
AcDbEntity
  8
0
  6
ByBlock
100
AcDbBlockReference
  2
_OPEN
 10
1897.588567644383
 20
3674.978102837189
 30
0.0
 41
50.0
 42
50.0
 43
50.0
  0
INSERT
  5
7F17
330
819C
100
AcDbEntity
  8
0
  6
ByBlock
100
AcDbBlockReference
  2
_OPEN
 10
1197.588567644385
 20
3674.978102837189
 30
0.0
 41
50.0
 42
50.0
 43
50.0
 50
180.0
  0
TEXT
  5
7F18
330
819C
100
AcDbEntity
  8
3
100
AcDbText
 10
1451.159996215813
 20
3687.478102837189
 30
0.0
 40
75.0
  1
700
100
AcDbText
  0
POINT
  5
7F19
330
819C
100
AcDbEntity
  8
DEFPOINTS
  6
ByBlock
 62
     0
100
AcDbPoint
 10
1897.588567644383
 20
2888.346048433021
 30
0.0
  0
POINT
  5
7F1A
330
819C
100
AcDbEntity
  8
DEFPOINTS
  6
ByBlock
 62
     0
100
AcDbPoint
 10
1197.588567644385
 20
3373.346048433019
 30
0.0
  0
POINT
  5
7F1B
330
819C
100
AcDbEntity
  8
DEFPOINTS
  6
ByBlock
 62
     0
100
AcDbPoint
 10
1197.588567644385
 20
3674.978102837189
 30
0.0
  0
ENDBLK
  5
7F1C
330
819C
100
AcDbEntity
  8
0
100
AcDbBlockEnd
  0
BLOCK
  5
819F
330
819E
100
AcDbEntity
  8
0
100
AcDbBlockBegin
  2
*D15
 70
     1
 10
0.0
 20
0.0
 30
0.0
  3
*D15
  1

  0
LINE
  5
7F1E
330
819E
100
AcDbEntity
  8
0
  6
ByBlock
100
AcDbLine
 10
272.5885676443848
 20
2218.346048433017
 30
0.0
 11
-28.80864049687261
 21
2218.346048433017
 31
0.0
  0
LINE
  5
7F1F
330
819E
100
AcDbEntity
  8
0
  6
ByBlock
100
AcDbLine
 10
272.5885676443848
 20
3373.346048433019
 30
0.0
 11
-28.80864049687261
 21
3373.346048433019
 31
0.0
  0
LINE
  5
7F20
330
819E
100
AcDbEntity
  8
0
  6
ByBlock
100
AcDbLine
 10
-3.808640496872611
 20
2268.346048433018
 30
0.0
 11
-3.808640496872611
 21
3323.346048433018
 31
0.0
  0
INSERT
  5
7F21
330
819E
100
AcDbEntity
  8
0
  6
ByBlock
100
AcDbBlockReference
  2
_OPEN
 10
-3.808640496872611
 20
2218.346048433017
 30
0.0
 41
50.0
 42
50.0
 43
50.0
 50
270.0
  0
INSERT
  5
7F22
330
819E
100
AcDbEntity
  8
0
  6
ByBlock
100
AcDbBlockReference
  2
_OPEN
 10
-3.808640496872611
 20
3373.346048433019
 30
0.0
 41
50.0
 42
50.0
 43
50.0
 50
90.0
  0
TEXT
  5
7F23
330
819E
100
AcDbEntity
  8
3
100
AcDbText
 10
-16.3086404968726
 20
2677.988905575876
 30
0.0
 40
75.0
  1
1155
 50
90.0
100
AcDbText
  0
POINT
  5
7F24
330
819E
100
AcDbEntity
  8
DEFPOINTS
  6
ByBlock
 62
     0
100
AcDbPoint
 10
297.5885676443848
 20
2218.346048433017
 30
0.0
  0
POINT
  5
7F25
330
819E
100
AcDbEntity
  8
DEFPOINTS
  6
ByBlock
 62
     0
100
AcDbPoint
 10
297.5885676443848
 20
3373.346048433019
 30
0.0
  0
POINT
  5
7F26
330
819E
100
AcDbEntity
  8
DEFPOINTS
  6
ByBlock
 62
     0
100
AcDbPoint
 10
-3.808640496872611
 20
3373.346048433019
 30
0.0
  0
ENDBLK
  5
7F27
330
819E
100
AcDbEntity
  8
0
100
AcDbBlockEnd
  0
BLOCK
  5
81A1
330
81A0
100
AcDbEntity
  8
0
100
AcDbBlockBegin
  2
*D16
 70
     1
 10
0.0
 20
0.0
 30
0.0
  3
*D16
  1

  0
LINE
  5
7F29
330
81A0
100
AcDbEntity
  8
0
  6
ByBlock
100
AcDbLine
 10
247.5885676443849
 20
533.7669540473683
 30
0.0
 11
247.5885676443849
 21
1391.903743581282
 31
0.0
  0
LINE
  5
7F2A
330
81A0
100
AcDbEntity
  8
0
  6
ByBlock
100
AcDbLine
 10
1897.588567644383
 20
-236.406521778601
 30
0.0
 11
1897.588567644383
 21
1391.903743581282
 31
0.0
  0
LINE
  5
7F2B
330
81A0
100
AcDbEntity
  8
0
  6
ByBlock
100
AcDbLine
 10
297.5885676443848
 20
1366.903743581282
 30
0.0
 11
1847.588567644384
 21
1366.903743581282
 31
0.0
  0
INSERT
  5
7F2C
330
81A0
100
AcDbEntity
  8
0
  6
ByBlock
100
AcDbBlockReference
  2
_OPEN
 10
247.5885676443849
 20
1366.903743581282
 30
0.0
 41
50.0
 42
50.0
 43
50.0
 50
180.0
  0
INSERT
  5
7F2D
330
81A0
100
AcDbEntity
  8
0
  6
ByBlock
100
AcDbBlockReference
  2
_OPEN
 10
1897.588567644383
 20
1366.903743581282
 30
0.0
 41
50.0
 42
50.0
 43
50.0
  0
TEXT
  5
7F2E
330
81A0
100
AcDbEntity
  8
3
100
AcDbText
 10
947.5885676443848
 20
1379.403743581282
 30
0.0
 40
75.0
  1
1650
100
AcDbText
  0
POINT
  5
7F2F
330
81A0
100
AcDbEntity
  8
DEFPOINTS
  6
ByBlock
 62
     0
100
AcDbPoint
 10
247.5885676443849
 20
508.7669540473684
 30
0.0
  0
POINT
  5
7F30
330
81A0
100
AcDbEntity
  8
DEFPOINTS
  6
ByBlock
 62
     0
100
AcDbPoint
 10
1897.588567644383
 20
-261.406521778601
 30
0.0
  0
POINT
  5
7F31
330
81A0
100
AcDbEntity
  8
DEFPOINTS
  6
ByBlock
 62
     0
100
AcDbPoint
 10
1897.588567644383
 20
1366.903743581282
 30
0.0
  0
ENDBLK
  5
7F32
330
81A0
100
AcDbEntity
  8
0
100
AcDbBlockEnd
  0
BLOCK
  5
81A3
330
81A2
100
AcDbEntity
  8
0
100
AcDbBlockBegin
  2
*D17
 70
     1
 10
0.0
 20
0.0
 30
0.0
  3
*D17
  1

  0
LINE
  5
7F34
330
81A2
100
AcDbEntity
  8
0
  6
ByBlock
100
AcDbLine
 10
247.588567644384
 20
546.593478221399
 30
0.0
 11
247.588567644384
 21
1193.481924814399
 31
0.0
  0
LINE
  5
7F35
330
81A2
100
AcDbEntity
  8
0
  6
ByBlock
100
AcDbLine
 10
747.5885676443851
 20
1101.189008982398
 30
0.0
 11
747.5885676443851
 21
1193.481924814399
 31
0.0
  0
LINE
  5
7F36
330
81A2
100
AcDbEntity
  8
0
  6
ByBlock
100
AcDbLine
 10
297.588567644384
 20
1168.481924814399
 30
0.0
 11
697.5885676443851
 21
1168.481924814399
 31
0.0
  0
INSERT
  5
7F37
330
81A2
100
AcDbEntity
  8
0
  6
ByBlock
100
AcDbBlockReference
  2
_OPEN
 10
247.588567644384
 20
1168.481924814399
 30
0.0
 41
50.0
 42
50.0
 43
50.0
 50
180.0
  0
INSERT
  5
7F38
330
81A2
100
AcDbEntity
  8
0
  6
ByBlock
100
AcDbBlockReference
  2
_OPEN
 10
747.5885676443851
 20
1168.481924814399
 30
0.0
 41
50.0
 42
50.0
 43
50.0
  0
TEXT
  5
7F39
330
81A2
100
AcDbEntity
  8
3
100
AcDbText
 10
401.1599962158131
 20
1180.981924814399
 30
0.0
 40
75.0
  1
500
100
AcDbText
  0
POINT
  5
7F3A
330
81A2
100
AcDbEntity
  8
DEFPOINTS
  6
ByBlock
 62
     0
100
AcDbPoint
 10
247.588567644384
 20
521.593478221399
 30
0.0
  0
POINT
  5
7F3B
330
81A2
100
AcDbEntity
  8
DEFPOINTS
  6
ByBlock
 62
     0
100
AcDbPoint
 10
747.5885676443851
 20
1076.189008982398
 30
0.0
  0
POINT
  5
7F3C
330
81A2
100
AcDbEntity
  8
DEFPOINTS
  6
ByBlock
 62
     0
100
AcDbPoint
 10
747.5885676443851
 20
1168.481924814399
 30
0.0
  0
ENDBLK
  5
7F3D
330
81A2
100
AcDbEntity
  8
0
100
AcDbBlockEnd
  0
BLOCK
  5
81A5
330
81A4
100
AcDbEntity
  8
0
100
AcDbBlockBegin
  2
*D18
 70
     1
 10
0.0
 20
0.0
 30
0.0
  3
*D18
  1

  0
LINE
  5
80DD
330
81A4
100
AcDbEntity
  8
3
100
AcDbLine
 10
2481.082261213754
 20
2682.41656341729
 30
0.0
 11
2481.082261213754
 21
3395.305010010289
 31
0.0
  0
LINE
  5
80DE
330
81A4
100
AcDbEntity
  8
3
100
AcDbLine
 10
1919.082261213754
 20
3370.30501001029
 30
0.0
 11
2431.082261213755
 21
3370.30501001029
 31
0.0
  0
INSERT
  5
80DF
330
81A4
100
AcDbEntity
  8
3
100
AcDbBlockReference
  2
_OPEN
 10
1869.082261213754
 20
3370.30501001029
 30
0.0
 41
50.0
 42
50.0
 43
50.0
 50
180.0
  0
INSERT
  5
80E0
330
81A4
100
AcDbEntity
  8
3
100
AcDbBlockReference
  2
_OPEN
 10
2481.082261213754
 20
3370.30501001029
 30
0.0
 41
50.0
 42
50.0
 43
50.0
  0
TEXT
  5
8100
330
81A4
100
AcDbEntity
  8
3
100
AcDbText
 10
2025.08
 20
3287.56
 30
0.0
 40
75.0
  1
612
100
AcDbText
  0
POINT
  5
80E2
330
81A4
100
AcDbEntity
  8
DEFPOINTS
 62
     0
100
AcDbPoint
 10
1869.082261213754
 20
3278.01209417829
 30
0.0
  0
POINT
  5
80E3
330
81A4
100
AcDbEntity
  8
DEFPOINTS
 62
     0
100
AcDbPoint
 10
2481.082261213754
 20
2657.416563417289
 30
0.0
  0
POINT
  5
80E4
330
81A4
100
AcDbEntity
  8
DEFPOINTS
 62
     0
100
AcDbPoint
 10
2481.082261213754
 20
3370.30501001029
 30
0.0
  0
ENDBLK
  5
7F47
330
81A4
100
AcDbEntity
  8
0
100
AcDbBlockEnd
  0
BLOCK
  5
81A7
330
81A6
100
AcDbEntity
  8
0
100
AcDbBlockBegin
  2
*D19
 70
     1
 10
0.0
 20
0.0
 30
0.0
  3
*D19
  1

  0
LINE
  5
7F49
330
81A6
100
AcDbEntity
  8
0
  6
ByBlock
100
AcDbLine
 10
775.5885676443847
 20
1014.593478221399
 30
0.0
 11
-243.8716614955283
 21
1014.593478221399
 31
0.0
  0
LINE
  5
7F4A
330
81A6
100
AcDbEntity
  8
0
  6
ByBlock
100
AcDbLine
 10
100.3227288389552
 20
508.5934782213988
 30
0.0
 11
-243.8716614955283
 21
508.5934782213988
 31
0.0
  0
LINE
  5
7F4B
330
81A6
100
AcDbEntity
  8
0
  6
ByBlock
100
AcDbLine
 10
-218.8716614955283
 20
964.5934782213988
 30
0.0
 11
-218.8716614955283
 21
558.5934782213988
 31
0.0
  0
INSERT
  5
7F4C
330
81A6
100
AcDbEntity
  8
0
  6
ByBlock
100
AcDbBlockReference
  2
_OPEN
 10
-218.8716614955283
 20
1014.593478221399
 30
0.0
 41
50.0
 42
50.0
 43
50.0
 50
90.0
  0
INSERT
  5
7F4D
330
81A6
100
AcDbEntity
  8
0
  6
ByBlock
100
AcDbBlockReference
  2
_OPEN
 10
-218.8716614955283
 20
508.5934782213988
 30
0.0
 41
50.0
 42
50.0
 43
50.0
 50
270.0
  0
TEXT
  5
7F4E
330
81A6
100
AcDbEntity
  8
3
100
AcDbText
 10
-231.3716614955283
 20
666.9506210785417
 30
0.0
 40
75.0
  1
506
 50
90.0
100
AcDbText
  0
POINT
  5
7F4F
330
81A6
100
AcDbEntity
  8
DEFPOINTS
  6
ByBlock
 62
     0
100
AcDbPoint
 10
800.5885676443847
 20
1014.593478221399
 30
0.0
  0
POINT
  5
7F50
330
81A6
100
AcDbEntity
  8
DEFPOINTS
  6
ByBlock
 62
     0
100
AcDbPoint
 10
125.3227288389552
 20
508.5934782213988
 30
0.0
  0
POINT
  5
7F51
330
81A6
100
AcDbEntity
  8
DEFPOINTS
  6
ByBlock
 62
     0
100
AcDbPoint
 10
-218.8716614955283
 20
508.5934782213988
 30
0.0
  0
ENDBLK
  5
7F52
330
81A6
100
AcDbEntity
  8
0
100
AcDbBlockEnd
  0
BLOCK
  5
81A9
330
81A8
100
AcDbEntity
  8
0
100
AcDbBlockBegin
  2
*D20
 70
     1
 10
0.0
 20
0.0
 30
0.0
  3
*D20
  1

  0
LINE
  5
80E5
330
81A8
100
AcDbEntity
  8
3
100
AcDbLine
 10
1394.082261213754
 20
1840.416563417289
 30
0.0
 11
877.6220320738413
 21
1840.416563417289
 31
0.0
  0
LINE
  5
80E6
330
81A8
100
AcDbEntity
  8
3
100
AcDbLine
 10
902.6220320738413
 20
2660.41656341729
 30
0.0
 11
902.6220320738413
 21
1890.416563417289
 31
0.0
  0
INSERT
  5
80E7
330
81A8
100
AcDbEntity
  8
3
100
AcDbBlockReference
  2
_OPEN
 10
902.6220320738413
 20
2710.41656341729
 30
0.0
 41
50.0
 42
50.0
 43
50.0
 50
90.0
  0
INSERT
  5
80E8
330
81A8
100
AcDbEntity
  8
3
100
AcDbBlockReference
  2
_OPEN
 10
902.6220320738413
 20
1840.416563417289
 30
0.0
 41
50.0
 42
50.0
 43
50.0
 50
270.0
  0
TEXT
  5
8101
330
81A8
100
AcDbEntity
  8
3
100
AcDbText
 10
702.6219999999999
 20
2142.67
 30
0.0
 40
75.0
  1
870
100
AcDbText
  0
POINT
  5
80EA
330
81A8
100
AcDbEntity
  8
DEFPOINTS
 62
     0
100
AcDbPoint
 10
1246.816422408324
 20
2710.41656341729
 30
0.0
  0
POINT
  5
80EB
330
81A8
100
AcDbEntity
  8
DEFPOINTS
 62
     0
100
AcDbPoint
 10
1419.082261213754
 20
1840.416563417289
 30
0.0
  0
POINT
  5
80EC
330
81A8
100
AcDbEntity
  8
DEFPOINTS
 62
     0
100
AcDbPoint
 10
902.6220320738413
 20
1840.416563417289
 30
0.0
  0
ENDBLK
  5
7F5C
330
81A8
100
AcDbEntity
  8
0
100
AcDbBlockEnd
  0
BLOCK
  5
81AB
330
81AA
100
AcDbEntity
  8
0
100
AcDbBlockBegin
  2
*D21
 70
     1
 10
0.0
 20
0.0
 30
0.0
  3
*D21
  1

  0
LINE
  5
80ED
330
81AA
100
AcDbEntity
  8
3
 62
     0
100
AcDbLine
 10
1406.582261213754
 20
1813.416563417289
 30
0.0
 11
877.6220320738413
 21
1813.416563417289
 31
0.0
  0
LINE
  5
80EE
330
81AA
100
AcDbEntity
  8
3
 62
     0
100
AcDbLine
 10
1406.582261213754
 20
1713.416563417289
 30
0.0
 11
877.6220320738413
 21
1713.416563417289
 31
0.0
  0
LINE
  5
80EF
330
81AA
100
AcDbEntity
  8
3
 62
     0
100
AcDbLine
 10
902.6220320738413
 20
1863.416563417288
 30
0.0
 11
902.6220320738413
 21
1913.416563417289
 31
0.0
  0
LINE
  5
80F0
330
81AA
100
AcDbEntity
  8
3
 62
     0
100
AcDbLine
 10
902.6220320738413
 20
1663.416563417289
 30
0.0
 11
902.6220320738413
 21
1384.845134845861
 31
0.0
  0
LINE
  5
80F1
330
81AA
100
AcDbEntity
  8
3
 62
     0
100
AcDbLine
 10
902.6220320738413
 20
1813.416563417289
 30
0.0
 11
902.6220320738413
 21
1713.416563417289
 31
0.0
  0
INSERT
  5
80F2
330
81AA
100
AcDbEntity
  8
3
 62
     0
100
AcDbBlockReference
  2
_DOT
 10
902.6220320738413
 20
1813.416563417289
 30
0.0
 41
50.0
 42
50.0
 43
50.0
 50
270.0
  0
INSERT
  5
80F3
330
81AA
100
AcDbEntity
  8
3
 62
     0
100
AcDbBlockReference
  2
_OPEN
 10
902.6220320738413
 20
1713.416563417289
 30
0.0
 41
50.0
 42
50.0
 43
50.0
 50
90.0
  0
TEXT
  5
8102
330
81AA
100
AcDbEntity
  8
3
 62
     0
100
AcDbText
 10
690.1219999999999
 20
1366.38
 30
0.0
 40
75.0
  1
100
100
AcDbText
  0
POINT
  5
80F5
330
81AA
100
AcDbEntity
  8
DEFPOINTS
 62
     0
100
AcDbPoint
 10
1419.082261213754
 20
1813.416563417289
 30
0.0
  0
POINT
  5
80F6
330
81AA
100
AcDbEntity
  8
DEFPOINTS
 62
     0
100
AcDbPoint
 10
1419.082261213754
 20
1713.416563417289
 30
0.0
  0
POINT
  5
80F7
330
81AA
100
AcDbEntity
  8
DEFPOINTS
 62
     0
100
AcDbPoint
 10
902.6220320738413
 20
1713.416563417289
 30
0.0
  0
ENDBLK
  5
7FE8
330
81AA
100
AcDbEntity
  8
0
100
AcDbBlockEnd
  0
BLOCK
  5
81AD
330
81AC
100
AcDbEntity
  8
0
100
AcDbBlockBegin
  2
_DOT
 70
     0
 10
0.0
 20
0.0
 30
0.0
  3
_DOT
  1

  0
LWPOLYLINE
  5
7FEB
330
81AC
100
AcDbEntity
  8
0
  6
ByBlock
 62
     0
100
AcDbPolyline
 90
        2
 70
     1
 43
0.25
 10
-0.125
 20
0.0
 42
1.0
 10
0.125
 20
0.0
 42
1.0
  0
LINE
  5
7FEF
330
81AC
100
AcDbEntity
  8
0
  6
ByBlock
 62
     0
100
AcDbLine
 10
-0.25
 20
0.0
 30
0.0
 11
-1.0
 21
0.0
 31
0.0
  0
ENDBLK
  5
7FCE
330
81AC
100
AcDbEntity
  8
0
100
AcDbBlockEnd
  0
BLOCK
  5
81AF
330
81AE
100
AcDbEntity
  8
0
100
AcDbBlockBegin
  2
*D23
 70
     1
 10
0.0
 20
0.0
 30
0.0
  3
*D23
  1

  0
LINE
  5
8027
330
81AE
100
AcDbEntity
  8
0
  6
ByBlock
 62
     0
100
AcDbLine
 10
1419.082261213754
 20
1688.416563417289
 30
0.0
 11
1419.082261213754
 21
1527.588342708843
 31
0.0
  0
LINE
  5
8028
330
81AE
100
AcDbEntity
  8
0
  6
ByBlock
 62
     0
100
AcDbLine
 10
1869.082261213754
 20
1688.416563417289
 30
0.0
 11
1869.082261213754
 21
1527.588342708843
 31
0.0
  0
LINE
  5
8029
330
81AE
100
AcDbEntity
  8
0
  6
ByBlock
 62
     0
100
AcDbLine
 10
1469.082261213754
 20
1552.588342708842
 30
0.0
 11
1819.082261213754
 21
1552.588342708842
 31
0.0
  0
INSERT
  5
802A
330
81AE
100
AcDbEntity
  8
0
  6
ByBlock
 62
     0
100
AcDbBlockReference
  2
_OPEN
 10
1419.082261213754
 20
1552.588342708842
 30
0.0
 41
50.0
 42
50.0
 43
50.0
 50
180.0
  0
INSERT
  5
802B
330
81AE
100
AcDbEntity
  8
0
  6
ByBlock
 62
     0
100
AcDbBlockReference
  2
_OPEN
 10
1869.082261213754
 20
1552.588342708842
 30
0.0
 41
50.0
 42
50.0
 43
50.0
  0
TEXT
  5
802C
330
81AE
100
AcDbEntity
  8
3
 62
     0
100
AcDbText
 10
1547.653689785183
 20
1577.588342708843
 30
0.0
 40
75.0
  1
450
100
AcDbText
  0
POINT
  5
802D
330
81AE
100
AcDbEntity
  8
DEFPOINTS
  6
ByBlock
 62
     0
100
AcDbPoint
 10
1419.082261213754
 20
1713.416563417289
 30
0.0
  0
POINT
  5
802E
330
81AE
100
AcDbEntity
  8
DEFPOINTS
  6
ByBlock
 62
     0
100
AcDbPoint
 10
1869.082261213754
 20
1713.416563417289
 30
0.0
  0
POINT
  5
802F
330
81AE
100
AcDbEntity
  8
DEFPOINTS
  6
ByBlock
 62
     0
100
AcDbPoint
 10
1869.082261213754
 20
1552.588342708842
 30
0.0
  0
ENDBLK
  5
8030
330
81AE
100
AcDbEntity
  8
0
100
AcDbBlockEnd
  0
BLOCK
  5
81B1
330
81B0
100
AcDbEntity
  8
0
100
AcDbBlockBegin
  2
*D24
 70
     1
 10
0.0
 20
0.0
 30
0.0
  3
*D24
  1

  0
LINE
  5
8034
330
81B0
100
AcDbEntity
  8
0
  6
ByBlock
 62
     0
100
AcDbLine
 10
1869.082261213754
 20
1688.416563417289
 30
0.0
 11
1869.082261213754
 21
1527.588342708843
 31
0.0
  0
LINE
  5
8035
330
81B0
100
AcDbEntity
  8
0
  6
ByBlock
 62
     0
100
AcDbLine
 10
3019.082261213755
 20
1688.416563417289
 30
0.0
 11
3019.082261213755
 21
1527.588342708843
 31
0.0
  0
LINE
  5
8036
330
81B0
100
AcDbEntity
  8
0
  6
ByBlock
 62
     0
100
AcDbLine
 10
1919.082261213754
 20
1552.588342708842
 30
0.0
 11
2969.082261213755
 21
1552.588342708842
 31
0.0
  0
INSERT
  5
8037
330
81B0
100
AcDbEntity
  8
0
  6
ByBlock
 62
     0
100
AcDbBlockReference
  2
_OPEN
 10
1869.082261213754
 20
1552.588342708842
 30
0.0
 41
50.0
 42
50.0
 43
50.0
 50
180.0
  0
INSERT
  5
8038
330
81B0
100
AcDbEntity
  8
0
  6
ByBlock
 62
     0
100
AcDbBlockReference
  2
_OPEN
 10
3019.082261213755
 20
1552.588342708842
 30
0.0
 41
50.0
 42
50.0
 43
50.0
  0
TEXT
  5
8039
330
81B0
100
AcDbEntity
  8
3
 62
     0
100
AcDbText
 10
2326.225118356612
 20
1577.588342708843
 30
0.0
 40
75.0
  1
1150
100
AcDbText
  0
POINT
  5
803A
330
81B0
100
AcDbEntity
  8
DEFPOINTS
  6
ByBlock
 62
     0
100
AcDbPoint
 10
1869.082261213754
 20
1713.416563417289
 30
0.0
  0
POINT
  5
803B
330
81B0
100
AcDbEntity
  8
DEFPOINTS
  6
ByBlock
 62
     0
100
AcDbPoint
 10
3019.082261213755
 20
1713.416563417289
 30
0.0
  0
POINT
  5
803C
330
81B0
100
AcDbEntity
  8
DEFPOINTS
  6
ByBlock
 62
     0
100
AcDbPoint
 10
3019.082261213755
 20
1552.588342708842
 30
0.0
  0
ENDBLK
  5
803D
330
81B0
100
AcDbEntity
  8
0
100
AcDbBlockEnd
  0
BLOCK
  5
81B3
330
81B2
100
AcDbEntity
  8
0
100
AcDbBlockBegin
  2
*D25
 70
     1
 10
0.0
 20
0.0
 30
0.0
  3
*D25
  1

  0
LINE
  5
8041
330
81B2
100
AcDbEntity
  8
0
  6
ByBlock
 62
     0
100
AcDbLine
 10
3416.091456407331
 20
1688.416563417289
 30
0.0
 11
3416.091456407331
 21
1527.588342708843
 31
0.0
  0
LINE
  5
8042
330
81B2
100
AcDbEntity
  8
0
  6
ByBlock
 62
     0
100
AcDbLine
 10
4068.091456407329
 20
1688.416563417289
 30
0.0
 11
4068.091456407329
 21
1527.588342708843
 31
0.0
  0
LINE
  5
8043
330
81B2
100
AcDbEntity
  8
0
  6
ByBlock
 62
     0
100
AcDbLine
 10
3466.091456407331
 20
1552.588342708842
 30
0.0
 11
4018.091456407328
 21
1552.588342708842
 31
0.0
  0
INSERT
  5
8044
330
81B2
100
AcDbEntity
  8
0
  6
ByBlock
 62
     0
100
AcDbBlockReference
  2
_OPEN
 10
3416.091456407331
 20
1552.588342708842
 30
0.0
 41
50.0
 42
50.0
 43
50.0
 50
180.0
  0
INSERT
  5
8045
330
81B2
100
AcDbEntity
  8
0
  6
ByBlock
 62
     0
100
AcDbBlockReference
  2
_OPEN
 10
4068.091456407329
 20
1552.588342708842
 30
0.0
 41
50.0
 42
50.0
 43
50.0
  0
TEXT
  5
8046
330
81B2
100
AcDbEntity
  8
3
 62
     0
100
AcDbText
 10
3645.662884978758
 20
1577.588342708843
 30
0.0
 40
75.0
  1
652
100
AcDbText
  0
POINT
  5
8047
330
81B2
100
AcDbEntity
  8
DEFPOINTS
  6
ByBlock
 62
     0
100
AcDbPoint
 10
3416.091456407331
 20
1713.416563417289
 30
0.0
  0
POINT
  5
8048
330
81B2
100
AcDbEntity
  8
DEFPOINTS
  6
ByBlock
 62
     0
100
AcDbPoint
 10
4068.091456407329
 20
1713.416563417289
 30
0.0
  0
POINT
  5
8049
330
81B2
100
AcDbEntity
  8
DEFPOINTS
  6
ByBlock
 62
     0
100
AcDbPoint
 10
4068.091456407329
 20
1552.588342708842
 30
0.0
  0
ENDBLK
  5
804A
330
81B2
100
AcDbEntity
  8
0
100
AcDbBlockEnd
  0
BLOCK
  5
81B5
330
81B4
100
AcDbEntity
  8
0
100
AcDbBlockBegin
  2
*D26
 70
     1
 10
0.0
 20
0.0
 30
0.0
  3
*D26
  1

  0
LINE
  5
804E
330
81B4
100
AcDbEntity
  8
0
  6
ByBlock
 62
     0
100
AcDbLine
 10
4068.091456407329
 20
1688.416563417289
 30
0.0
 11
4068.091456407329
 21
1527.588342708843
 31
0.0
  0
LINE
  5
804F
330
81B4
100
AcDbEntity
  8
0
  6
ByBlock
 62
     0
100
AcDbLine
 10
4571.091456407331
 20
1688.416563417289
 30
0.0
 11
4571.091456407331
 21
1527.588342708843
 31
0.0
  0
LINE
  5
8050
330
81B4
100
AcDbEntity
  8
0
  6
ByBlock
 62
     0
100
AcDbLine
 10
4118.09145640733
 20
1552.588342708842
 30
0.0
 11
4521.091456407331
 21
1552.588342708842
 31
0.0
  0
INSERT
  5
8051
330
81B4
100
AcDbEntity
  8
0
  6
ByBlock
 62
     0
100
AcDbBlockReference
  2
_OPEN
 10
4068.091456407329
 20
1552.588342708842
 30
0.0
 41
50.0
 42
50.0
 43
50.0
 50
180.0
  0
INSERT
  5
8052
330
81B4
100
AcDbEntity
  8
0
  6
ByBlock
 62
     0
100
AcDbBlockReference
  2
_OPEN
 10
4571.091456407331
 20
1552.588342708842
 30
0.0
 41
50.0
 42
50.0
 43
50.0
  0
TEXT
  5
8053
330
81B4
100
AcDbEntity
  8
3
 62
     0
100
AcDbText
 10
4223.162884978758
 20
1577.588342708843
 30
0.0
 40
75.0
  1
503
100
AcDbText
  0
POINT
  5
8054
330
81B4
100
AcDbEntity
  8
DEFPOINTS
  6
ByBlock
 62
     0
100
AcDbPoint
 10
4068.091456407329
 20
1713.416563417289
 30
0.0
  0
POINT
  5
8055
330
81B4
100
AcDbEntity
  8
DEFPOINTS
  6
ByBlock
 62
     0
100
AcDbPoint
 10
4571.091456407331
 20
1713.416563417289
 30
0.0
  0
POINT
  5
8056
330
81B4
100
AcDbEntity
  8
DEFPOINTS
  6
ByBlock
 62
     0
100
AcDbPoint
 10
4571.091456407331
 20
1552.588342708842
 30
0.0
  0
ENDBLK
  5
8057
330
81B4
100
AcDbEntity
  8
0
100
AcDbBlockEnd
  0
BLOCK
  5
81B7
330
81B6
100
AcDbEntity
  8
0
100
AcDbBlockBegin
  2
_NONE
 70
     0
 10
0.0
 20
0.0
 30
0.0
  3
_NONE
  1

  0
CIRCLE
  5
805B
330
81B6
100
AcDbEntity
  8
0
  6
ByBlock
 62
     0
100
AcDbCircle
 10
0.0
 20
0.0
 30
0.0
 40
0.25
  0
ENDBLK
  5
805C
330
81B6
100
AcDbEntity
  8
0
100
AcDbBlockEnd
  0
BLOCK
  5
81B9
330
81B8
100
AcDbEntity
  8
0
100
AcDbBlockBegin
  2
*D28
 70
     1
 10
0.0
 20
0.0
 30
0.0
  3
*D28
  1

  0
LINE
  5
805F
330
81B8
100
AcDbEntity
  8
0
  6
ByBlock
 62
     0
100
AcDbLine
 10
900.3940768132125
 20
1813.416563417289
 30
0.0
 11
900.3940768132125
 21
1813.416563417289
 31
0.0
  0
LINE
  5
8060
330
81B8
100
AcDbEntity
  8
0
  6
ByBlock
 62
     0
100
AcDbLine
 10
900.3940768132125
 20
1840.416563417289
 30
0.0
 11
900.3940768132125
 21
1940.416563417289
 31
0.0
  0
TEXT
  5
8061
330
81B8
100
AcDbEntity
  8
3
 62
     0
100
AcDbText
 10
805.7512196703553
 20
1717.987991988718
 30
0.0
 40
75.0
  1
(27)
 50
90.0
100
AcDbText
  0
LINE
  5
8062
330
81B8
100
AcDbEntity
  8
0
  6
ByBlock
 62
     0
100
AcDbLine
 10
900.3940768132125
 20
1813.416563417289
 30
0.0
 11
900.3940768132125
 21
1840.416563417289
 31
0.0
  0
POINT
  5
8063
330
81B8
100
AcDbEntity
  8
DEFPOINTS
  6
ByBlock
 62
     0
100
AcDbPoint
 10
1419.082261213754
 20
1813.416563417289
 30
0.0
  0
POINT
  5
8064
330
81B8
100
AcDbEntity
  8
DEFPOINTS
  6
ByBlock
 62
     0
100
AcDbPoint
 10
1419.082261213754
 20
1840.416563417289
 30
0.0
  0
POINT
  5
8065
330
81B8
100
AcDbEntity
  8
DEFPOINTS
  6
ByBlock
 62
     0
100
AcDbPoint
 10
900.3940768132125
 20
1840.416563417289
 30
0.0
  0
ENDBLK
  5
8066
330
81B8
100
AcDbEntity
  8
0
100
AcDbBlockEnd
  0
BLOCK
  5
81BB
330
81BA
100
AcDbEntity
  8
0
100
AcDbBlockBegin
  2
*D29
 70
     1
 10
0.0
 20
0.0
 30
0.0
  3
*D29
  1

  0
LINE
  5
806A
330
81BA
100
AcDbEntity
  8
0
  6
ByBlock
 62
     0
100
AcDbLine
 10
1872.082261213754
 20
3216.416563417289
 30
0.0
 11
659.4408935168867
 21
3216.416563417289
 31
0.0
  0
LINE
  5
806B
330
81BA
100
AcDbEntity
  8
0
  6
ByBlock
 62
     0
100
AcDbLine
 10
1394.082261213754
 20
1713.416563417289
 30
0.0
 11
659.4408935168867
 21
1713.416563417289
 31
0.0
  0
LINE
  5
806C
330
81BA
100
AcDbEntity
  8
0
  6
ByBlock
 62
     0
100
AcDbLine
 10
684.4408935168867
 20
3166.416563417289
 30
0.0
 11
684.4408935168867
 21
1763.416563417289
 31
0.0
  0
INSERT
  5
806D
330
81BA
100
AcDbEntity
  8
0
  6
ByBlock
 62
     0
100
AcDbBlockReference
  2
_OPEN
 10
684.4408935168867
 20
3216.416563417289
 30
0.0
 41
50.0
 42
50.0
 43
50.0
 50
90.0
  0
INSERT
  5
806E
330
81BA
100
AcDbEntity
  8
0
  6
ByBlock
 62
     0
100
AcDbBlockReference
  2
_OPEN
 10
684.4408935168867
 20
1713.416563417289
 30
0.0
 41
50.0
 42
50.0
 43
50.0
 50
270.0
  0
TEXT
  5
806F
330
81BA
100
AcDbEntity
  8
3
 62
     0
100
AcDbText
 10
627.2980363740296
 20
2291.702277703004
 30
0.0
 40
75.0
  1
(1503)
 50
90.0
100
AcDbText
  0
POINT
  5
8070
330
81BA
100
AcDbEntity
  8
DEFPOINTS
  6
ByBlock
 62
     0
100
AcDbPoint
 10
1897.082261213754
 20
3216.416563417289
 30
0.0
  0
POINT
  5
8071
330
81BA
100
AcDbEntity
  8
DEFPOINTS
  6
ByBlock
 62
     0
100
AcDbPoint
 10
1419.082261213754
 20
1713.416563417289
 30
0.0
  0
POINT
  5
8072
330
81BA
100
AcDbEntity
  8
DEFPOINTS
  6
ByBlock
 62
     0
100
AcDbPoint
 10
684.4408935168867
 20
1713.416563417289
 30
0.0
  0
ENDBLK
  5
8073
330
81BA
100
AcDbEntity
  8
0
100
AcDbBlockEnd
  0
BLOCK
  5
8257
330
8256
100
AcDbEntity
  8
0
100
AcDbBlockBegin
  2
*D31
 70
     1
 10
0.0
 20
0.0
 30
0.0
  3
*D31
  1

  0
LINE
  5
82A8
330
8256
100
AcDbEntity
  8
3
 62
     0
370
    -2
100
AcDbLine
 10
3228.091456407333
 20
3015.416563417289
 30
0.0
 11
3228.091456407333
 21
3586.500525742424
 31
0.0
  0
LINE
  5
82A9
330
8256
100
AcDbEntity
  8
3
 62
     0
370
    -2
100
AcDbLine
 10
4068.091456407331
 20
3515.863348091053
 30
0.0
 11
4068.091456407331
 21
3586.500525742424
 31
0.0
  0
LINE
  5
82AA
330
8256
100
AcDbEntity
  8
3
 62
     0
370
    -2
100
AcDbLine
 10
3278.091456407333
 20
3561.500525742424
 30
0.0
 11
4018.091456407331
 21
3561.500525742424
 31
0.0
  0
INSERT
  5
82AB
330
8256
100
AcDbEntity
  8
3
 62
     0
370
    -2
100
AcDbBlockReference
  2
_OPEN
 10
3228.091456407333
 20
3561.500525742424
 30
0.0
 41
50.0
 42
50.0
 43
50.0
 50
180.0
  0
INSERT
  5
82AC
330
8256
100
AcDbEntity
  8
3
 62
     0
370
    -2
100
AcDbBlockReference
  2
_OPEN
 10
4068.091456407331
 20
3561.500525742424
 30
0.0
 41
50.0
 42
50.0
 43
50.0
  0
MTEXT
  5
82AD
330
8256
100
AcDbEntity
  8
3
 62
     0
100
AcDbMText
 10
3648.091456407332
 20
3643.643382885282
 30
0.0
 40
75.0
 41
0.0
 71
     5
 72
     1
  1
\A1;(840)
 73
     1
 44
1.0
1001
ACAD
1000
MTEXTBEGIN
1070
    73
1070
     1
1070
    44
1040
1.0
1070
    74
1070
     0
1000
MTEXTEND
  0
POINT
  5
82AE
330
8256
100
AcDbEntity
  8
DEFPOINTS
 62
     0
100
AcDbPoint
 10
3228.091456407333
 20
2990.416563417289
 30
0.0
  0
POINT
  5
82AF
330
8256
100
AcDbEntity
  8
DEFPOINTS
 62
     0
100
AcDbPoint
 10
4068.091456407331
 20
3490.863348091053
 30
0.0
  0
POINT
  5
82B0
330
8256
100
AcDbEntity
  8
DEFPOINTS
 62
     0
100
AcDbPoint
 10
4068.091456407331
 20
3561.500525742424
 30
0.0
  0
ENDBLK
  5
8258
330
8256
100
AcDbEntity
  8
0
100
AcDbBlockEnd
  0
BLOCK
  5
8264
330
8263
100
AcDbEntity
  8
0
100
AcDbBlockBegin
  2
*D32
 70
     1
 10
0.0
 20
0.0
 30
0.0
  3
*D32
  1

  0
LINE
  5
82B1
330
8263
100
AcDbEntity
  8
3
 62
     0
370
    -2
100
AcDbLine
 10
4068.091456407331
 20
3515.863348091053
 30
0.0
 11
4068.091456407331
 21
3586.500525742424
 31
0.0
  0
LINE
  5
82B2
330
8263
100
AcDbEntity
  8
3
 62
     0
370
    -2
100
AcDbLine
 10
4628.091456407331
 20
2710.21656341729
 30
0.0
 11
4628.091456407331
 21
3586.500525742424
 31
0.0
  0
LINE
  5
82B3
330
8263
100
AcDbEntity
  8
3
 62
     0
370
    -2
100
AcDbLine
 10
4118.091456407331
 20
3561.500525742424
 30
0.0
 11
4578.091456407331
 21
3561.500525742424
 31
0.0
  0
INSERT
  5
82B4
330
8263
100
AcDbEntity
  8
3
 62
     0
370
    -2
100
AcDbBlockReference
  2
_OPEN
 10
4068.091456407331
 20
3561.500525742424
 30
0.0
 41
50.0
 42
50.0
 43
50.0
 50
180.0
  0
INSERT
  5
82B5
330
8263
100
AcDbEntity
  8
3
 62
     0
370
    -2
100
AcDbBlockReference
  2
_OPEN
 10
4628.091456407331
 20
3561.500525742424
 30
0.0
 41
50.0
 42
50.0
 43
50.0
  0
MTEXT
  5
82B6
330
8263
100
AcDbEntity
  8
3
 62
     0
100
AcDbMText
 10
4348.09145640733
 20
3643.643382885282
 30
0.0
 40
75.0
 41
0.0
 71
     5
 72
     1
  1
\A1;(560)
 73
     1
 44
1.0
1001
ACAD
1000
MTEXTBEGIN
1070
    73
1070
     1
1070
    44
1040
1.0
1070
    74
1070
     0
1000
MTEXTEND
  0
POINT
  5
82B7
330
8263
100
AcDbEntity
  8
DEFPOINTS
 62
     0
100
AcDbPoint
 10
4068.091456407331
 20
3490.863348091053
 30
0.0
  0
POINT
  5
82B8
330
8263
100
AcDbEntity
  8
DEFPOINTS
 62
     0
100
AcDbPoint
 10
4628.091456407331
 20
2685.21656341729
 30
0.0
  0
POINT
  5
82B9
330
8263
100
AcDbEntity
  8
DEFPOINTS
 62
     0
100
AcDbPoint
 10
4628.091456407331
 20
3561.500525742424
 30
0.0
  0
ENDBLK
  5
8265
330
8263
100
AcDbEntity
  8
0
100
AcDbBlockEnd
  0
BLOCK
  5
82BC
330
82BB
100
AcDbEntity
  8
0
100
AcDbBlockBegin
  2
*D33
 70
     1
 10
0.0
 20
0.0
 30
0.0
  3
*D33
  1

  0
LINE
  5
82BE
330
82BB
100
AcDbEntity
  8
3
 62
     0
370
    -2
100
AcDbLine
 10
1419.082261213754
 20
4078.532285537254
 30
0.0
 11
1419.082261213754
 21
3736.218186420876
 31
0.0
  0
LINE
  5
82BF
330
82BB
100
AcDbEntity
  8
3
 62
     0
370
    -2
100
AcDbLine
 10
3019.082261213755
 20
4078.532285537256
 30
0.0
 11
3019.082261213755
 21
3736.218186420876
 31
0.0
  0
LINE
  5
82C0
330
82BB
100
AcDbEntity
  8
3
 62
     0
370
    -2
100
AcDbLine
 10
1469.082261213754
 20
3761.218186420876
 30
0.0
 11
2969.082261213755
 21
3761.218186420876
 31
0.0
  0
INSERT
  5
82C1
330
82BB
100
AcDbEntity
  8
3
 62
     0
370
    -2
100
AcDbBlockReference
  2
_OPEN
 10
1419.082261213754
 20
3761.218186420876
 30
0.0
 41
50.0
 42
50.0
 43
50.0
 50
180.0
  0
INSERT
  5
82C2
330
82BB
100
AcDbEntity
  8
3
 62
     0
370
    -2
100
AcDbBlockReference
  2
_OPEN
 10
3019.082261213755
 20
3761.218186420876
 30
0.0
 41
50.0
 42
50.0
 43
50.0
  0
MTEXT
  5
82C3
330
82BB
100
AcDbEntity
  8
3
 62
     0
100
AcDbMText
 10
2219.082261213754
 20
3823.718186420876
 30
0.0
 40
75.0
 41
0.0
 71
     5
 72
     1
  1
\A1;1600
 73
     1
 44
1.0
1001
ACAD
1000
MTEXTBEGIN
1070
    73
1070
     1
1070
    44
1040
1.0
1070
    74
1070
     0
1000
MTEXTEND
  0
POINT
  5
82C4
330
82BB
100
AcDbEntity
  8
DEFPOINTS
 62
     0
100
AcDbPoint
 10
1419.082261213754
 20
4103.532285537254
 30
0.0
  0
POINT
  5
82C5
330
82BB
100
AcDbEntity
  8
DEFPOINTS
 62
     0
100
AcDbPoint
 10
3019.082261213755
 20
4103.532285537256
 30
0.0
  0
POINT
  5
82C6
330
82BB
100
AcDbEntity
  8
DEFPOINTS
 62
     0
100
AcDbPoint
 10
3019.082261213755
 20
3761.218186420876
 30
0.0
  0
ENDBLK
  5
82BD
330
82BB
100
AcDbEntity
  8
0
100
AcDbBlockEnd
  0
BLOCK
  5
82C9
330
82C8
100
AcDbEntity
  8
0
100
AcDbBlockBegin
  2
*D34
 70
     1
 10
0.0
 20
0.0
 30
0.0
  3
*D34
  1

  0
LINE
  5
82D4
330
82C8
100
AcDbEntity
  8
3
 62
     0
370
    -2
100
AcDbLine
 10
1869.082261213754
 20
3303.01209417829
 30
0.0
 11
1869.082261213754
 21
3395.305010010289
 31
0.0
  0
LINE
  5
82D5
330
82C8
100
AcDbEntity
  8
3
 62
     0
370
    -2
100
AcDbLine
 10
2464.082261213752
 20
2682.41656341729
 30
0.0
 11
2464.082261213752
 21
3395.305010010289
 31
0.0
  0
LINE
  5
82D6
330
82C8
100
AcDbEntity
  8
3
 62
     0
370
    -2
100
AcDbLine
 10
1919.082261213754
 20
3370.305010010289
 30
0.0
 11
2414.082261213752
 21
3370.305010010289
 31
0.0
  0
INSERT
  5
82D7
330
82C8
100
AcDbEntity
  8
3
 62
     0
370
    -2
100
AcDbBlockReference
  2
_OPEN
 10
1869.082261213754
 20
3370.305010010289
 30
0.0
 41
50.0
 42
50.0
 43
50.0
 50
180.0
  0
INSERT
  5
82D8
330
82C8
100
AcDbEntity
  8
3
 62
     0
370
    -2
100
AcDbBlockReference
  2
_OPEN
 10
2464.082261213752
 20
3370.305010010289
 30
0.0
 41
50.0
 42
50.0
 43
50.0
  0
MTEXT
  5
82D9
330
82C8
100
AcDbEntity
  8
3
 62
     0
100
AcDbMText
 10
2166.582261213753
 20
3432.805010010289
 30
0.0
 40
75.0
 41
0.0
 71
     5
 72
     1
  1
\A1;595
 73
     1
 44
1.0
1001
ACAD
1000
MTEXTBEGIN
1070
    73
1070
     1
1070
    44
1040
1.0
1070
    74
1070
     0
1000
MTEXTEND
  0
POINT
  5
82DA
330
82C8
100
AcDbEntity
  8
DEFPOINTS
 62
     0
100
AcDbPoint
 10
1869.082261213754
 20
3278.01209417829
 30
0.0
  0
POINT
  5
82DB
330
82C8
100
AcDbEntity
  8
DEFPOINTS
 62
     0
100
AcDbPoint
 10
2464.082261213752
 20
2657.41656341729
 30
0.0
  0
POINT
  5
82DC
330
82C8
100
AcDbEntity
  8
DEFPOINTS
 62
     0
100
AcDbPoint
 10
2464.082261213752
 20
3370.305010010289
 30
0.0
  0
ENDBLK
  5
82CA
330
82C8
100
AcDbEntity
  8
0
100
AcDbBlockEnd
  0
BLOCK
  5
82DF
330
82DE
100
AcDbEntity
  8
0
100
AcDbBlockBegin
  2
*D35
 70
     1
 10
0.0
 20
0.0
 30
0.0
  3
*D35
  1

  0
LINE
  5
82EA
330
82DE
100
AcDbEntity
  8
3
 62
     0
370
    -2
100
AcDbLine
 10
1221.816422408324
 20
2710.41656341729
 30
0.0
 11
877.6220320738412
 21
2710.41656341729
 31
0.0
  0
LINE
  5
82EB
330
82DE
100
AcDbEntity
  8
3
 62
     0
370
    -2
100
AcDbLine
 10
1897.082261213752
 20
3199.41656341729
 30
0.0
 11
877.6220320738412
 21
3199.41656341729
 31
0.0
  0
LINE
  5
82EC
330
82DE
100
AcDbEntity
  8
3
 62
     0
370
    -2
100
AcDbLine
 10
902.6220320738412
 20
2760.41656341729
 30
0.0
 11
902.6220320738413
 21
3149.41656341729
 31
0.0
  0
INSERT
  5
82ED
330
82DE
100
AcDbEntity
  8
3
 62
     0
370
    -2
100
AcDbBlockReference
  2
_OPEN
 10
902.6220320738412
 20
2710.41656341729
 30
0.0
 41
50.0
 42
50.0
 43
50.0
 50
270.0
  0
INSERT
  5
82EE
330
82DE
100
AcDbEntity
  8
3
 62
     0
370
    -2
100
AcDbBlockReference
  2
_OPEN
 10
902.6220320738413
 20
3199.41656341729
 30
0.0
 41
50.0
 42
50.0
 43
50.0
 50
90.0
  0
MTEXT
  5
82EF
330
82DE
100
AcDbEntity
  8
3
 62
     0
100
AcDbMText
 10
840.1220320738408
 20
2954.91656341729
 30
0.0
 40
75.0
 41
0.0
 71
     5
 72
     1
  1
\A1;489
 11
0.0000000000000001
 21
1.0
 31
0.0
 73
     1
 44
1.0
1001
ACAD
1000
MTEXTBEGIN
1070
    73
1070
     1
1070
    44
1040
1.0
1070
    74
1070
     0
1000
MTEXTEND
  0
POINT
  5
82F0
330
82DE
100
AcDbEntity
  8
DEFPOINTS
 62
     0
100
AcDbPoint
 10
1246.816422408324
 20
2710.41656341729
 30
0.0
  0
POINT
  5
82F1
330
82DE
100
AcDbEntity
  8
DEFPOINTS
 62
     0
100
AcDbPoint
 10
1922.082261213752
 20
3199.41656341729
 30
0.0
  0
POINT
  5
82F2
330
82DE
100
AcDbEntity
  8
DEFPOINTS
 62
     0
100
AcDbPoint
 10
902.6220320738413
 20
3199.41656341729
 30
0.0
  0
ENDBLK
  5
82E0
330
82DE
100
AcDbEntity
  8
0
100
AcDbBlockEnd
  0
BLOCK
  5
82F5
330
82F4
100
AcDbEntity
  8
0
100
AcDbBlockBegin
  2
*D36
 70
     1
 10
0.0
 20
0.0
 30
0.0
  3
*D36
  1

  0
LINE
  5
8309
330
82F4
100
AcDbEntity
  8
3
 62
     0
370
    -2
100
AcDbLine
 10
1394.082261213754
 20
1713.416563417289
 30
0.0
 11
615.0596512207409
 21
1713.416563417289
 31
0.0
  0
LINE
  5
830A
330
82F4
100
AcDbEntity
  8
3
 62
     0
370
    -2
100
AcDbLine
 10
1897.082261213752
 20
3199.41656341729
 30
0.0
 11
615.0596512207412
 21
3199.41656341729
 31
0.0
  0
LINE
  5
830B
330
82F4
100
AcDbEntity
  8
3
 62
     0
370
    -2
100
AcDbLine
 10
640.0596512207409
 20
1763.416563417289
 30
0.0
 11
640.0596512207413
 21
3149.41656341729
 31
0.0
  0
INSERT
  5
830C
330
82F4
100
AcDbEntity
  8
3
 62
     0
370
    -2
100
AcDbBlockReference
  2
_OPEN
 10
640.0596512207409
 20
1713.416563417289
 30
0.0
 41
50.0
 42
50.0
 43
50.0
 50
270.0
  0
INSERT
  5
830D
330
82F4
100
AcDbEntity
  8
3
 62
     0
370
    -2
100
AcDbBlockReference
  2
_OPEN
 10
640.0596512207413
 20
3199.41656341729
 30
0.0
 41
50.0
 42
50.0
 43
50.0
 50
90.0
  0
MTEXT
  5
830E
330
82F4
100
AcDbEntity
  8
3
 62
     0
100
AcDbMText
 10
557.9167940778837
 20
2456.41656341729
 30
0.0
 40
75.0
 41
0.0
 71
     5
 72
     1
  1
\A1;(1486)
 11
0.0000000000000001
 21
1.0
 31
0.0
 73
     1
 44
1.0
1001
ACAD
1000
MTEXTBEGIN
1070
    73
1070
     1
1070
    44
1040
1.0
1070
    74
1070
     0
1000
MTEXTEND
  0
POINT
  5
830F
330
82F4
100
AcDbEntity
  8
DEFPOINTS
 62
     0
100
AcDbPoint
 10
1419.082261213754
 20
1713.416563417289
 30
0.0
  0
POINT
  5
8310
330
82F4
100
AcDbEntity
  8
DEFPOINTS
 62
     0
100
AcDbPoint
 10
1922.082261213752
 20
3199.41656341729
 30
0.0
  0
POINT
  5
8311
330
82F4
100
AcDbEntity
  8
DEFPOINTS
 62
     0
100
AcDbPoint
 10
640.0596512207413
 20
3199.41656341729
 30
0.0
  0
ENDBLK
  5
82F6
330
82F4
100
AcDbEntity
  8
0
100
AcDbBlockEnd
  0
BLOCK
  5
8314
330
8313
100
AcDbEntity
  8
0
100
AcDbBlockBegin
  2
*D37
 70
     1
 10
0.0
 20
0.0
 30
0.0
  3
*D37
  1

  0
LINE
  5
831F
330
8313
100
AcDbEntity
  8
3
 62
     0
370
    -2
100
AcDbLine
 10
1221.816422408324
 20
2710.41656341729
 30
0.0
 11
875.3940768132125
 21
2710.41656341729
 31
0.0
  0
LINE
  5
8320
330
8313
100
AcDbEntity
  8
3
 62
     0
370
    -2
100
AcDbLine
 10
1394.082261213754
 20
1840.416563417289
 30
0.0
 11
875.3940768132125
 21
1840.416563417289
 31
0.0
  0
LINE
  5
8321
330
8313
100
AcDbEntity
  8
3
 62
     0
370
    -2
100
AcDbLine
 10
900.3940768132125
 20
2660.41656341729
 30
0.0
 11
900.3940768132125
 21
1890.416563417289
 31
0.0
  0
INSERT
  5
8322
330
8313
100
AcDbEntity
  8
3
 62
     0
370
    -2
100
AcDbBlockReference
  2
_OPEN
 10
900.3940768132125
 20
2710.41656341729
 30
0.0
 41
50.0
 42
50.0
 43
50.0
 50
90.0
  0
INSERT
  5
8323
330
8313
100
AcDbEntity
  8
3
 62
     0
370
    -2
100
AcDbBlockReference
  2
_OPEN
 10
900.3940768132125
 20
1840.416563417289
 30
0.0
 41
50.0
 42
50.0
 43
50.0
 50
270.0
  0
MTEXT
  5
8324
330
8313
100
AcDbEntity
  8
3
 62
     0
100
AcDbMText
 10
837.8940768132121
 20
2275.41656341729
 30
0.0
 40
75.0
 41
0.0
 71
     5
 72
     1
  1
\A1;870
 11
0.0000000000000001
 21
1.0
 31
0.0
 73
     1
 44
1.0
1001
ACAD
1000
MTEXTBEGIN
1070
    73
1070
     1
1070
    44
1040
1.0
1070
    74
1070
     0
1000
MTEXTEND
  0
POINT
  5
8325
330
8313
100
AcDbEntity
  8
DEFPOINTS
 62
     0
100
AcDbPoint
 10
1246.816422408324
 20
2710.41656341729
 30
0.0
  0
POINT
  5
8326
330
8313
100
AcDbEntity
  8
DEFPOINTS
 62
     0
100
AcDbPoint
 10
1419.082261213754
 20
1840.416563417289
 30
0.0
  0
POINT
  5
8327
330
8313
100
AcDbEntity
  8
DEFPOINTS
 62
     0
100
AcDbPoint
 10
900.3940768132125
 20
1840.416563417289
 30
0.0
  0
ENDBLK
  5
8315
330
8313
100
AcDbEntity
  8
0
100
AcDbBlockEnd
  0
ENDSEC
  0
SECTION
  2
ENTITIES
  0
INSERT
  5
7C45
330
8171
100
AcDbEntity
  8
0
100
AcDbBlockReference
  2
YA_N
 10
6.0
 20
5.0
 30
0.0
  0
LINE
  5
7C51
330
8171
100
AcDbEntity
  8
2
100
AcDbLine
 10
1869.082261213754
 20
1713.416563417289
 30
0.0
 11
1869.082261213754
 21
3278.01209417829
 31
0.0
  0
LINE
  5
7C52
330
8171
100
AcDbEntity
  8
2
100
AcDbLine
 10
1246.816422408324
 20
2710.41656341729
 30
0.0
 11
2544.108738716358
 21
2710.41656341729
 31
0.0
  0
LINE
  5
7C53
330
8171
100
AcDbEntity
  8
1
100
AcDbLine
 10
2566.082261213754
 20
1980.416563417289
 30
0.0
 11
2972.082261213755
 21
1980.416563417289
 31
0.0
  0
LINE
  5
7C54
330
8171
100
AcDbEntity
  8
1
100
AcDbLine
 10
2569.082261213754
 20
1940.416563417289
 30
0.0
 11
2569.082261213754
 21
1980.416563417289
 31
0.0
  0
LINE
  5
7C55
330
8171
100
AcDbEntity
  8
1
100
AcDbLine
 10
1419.082261213754
 20
1713.416563417289
 30
0.0
 11
3019.082261213755
 21
1713.416563417289
 31
0.0
  0
LINE
  5
7C56
330
8171
100
AcDbEntity
  8
1
100
AcDbLine
 10
1419.082261213754
 20
1813.416563417289
 30
0.0
 11
1419.082261213754
 21
1713.416563417289
 31
0.0
  0
LINE
  5
7C57
330
8171
100
AcDbEntity
  8
1
100
AcDbLine
 10
3019.082261213755
 20
1813.416563417289
 30
0.0
 11
3019.082261213755
 21
1713.416563417289
 31
0.0
  0
LINE
  5
7C58
330
8171
100
AcDbEntity
  8
1
100
AcDbLine
 10
1419.082261213754
 20
1813.416563417289
 30
0.0
 11
3019.082261213755
 21
1813.416563417289
 31
0.0
1001
ACAD
1000
ASC_BOUNDS
1002
{
1070
    19
1005
0
1002
}
  0
LINE
  5
7C59
330
8171
100
AcDbEntity
  8
2
100
AcDbLine
 10
4068.091456407329
 20
1713.416563417289
 30
0.0
 11
4068.091456407331
 21
3387.916491952243
 31
0.0
  0
LINE
  5
7C5A
330
8171
100
AcDbEntity
  8
2
100
AcDbLine
 10
3215.681003044527
 20
2710.41656341729
 30
0.0
 11
4654.373814802644
 21
2710.41656341729
 31
0.0
  0
LINE
  5
7C5B
330
8171
100
AcDbEntity
  8
1
100
AcDbLine
 10
3416.091456407331
 20
1713.416563417289
 30
0.0
 11
4546.091456407329
 21
1713.416563417289
 31
0.0
  0
LINE
  5
7C5C
330
8171
100
AcDbEntity
  8
1
100
AcDbLine
 10
3416.091456407331
 20
1813.416563417289
 30
0.0
 11
4571.091456407329
 21
1813.416563417289
 31
0.0
1001
ACAD
1000
ASC_BOUNDS
1002
{
1070
    19
1002
}
  0
LINE
  5
7C5D
330
8171
100
AcDbEntity
  8
2
100
AcDbLine
 10
1869.082261213754
 20
5340.422289151774
 30
0.0
 11
1869.082261213754
 21
3884.641085287288
 31
0.0
  0
LINE
  5
7C5E
330
8171
100
AcDbEntity
  8
2
100
AcDbLine
 10
2769.082261213755
 20
4726.443217536493
 30
0.0
 11
2769.082261213753
 21
3884.641085287288
 31
0.0
  0
LINE
  5
7C5F
330
8171
100
AcDbEntity
  8
2
100
AcDbLine
 10
1271.884064185675
 20
4755.532285537254
 30
0.0
 11
3211.608730158625
 21
4755.532285537258
 31
0.0
  0
LINE
  5
7C60
330
8171
100
AcDbEntity
  8
2
100
AcDbLine
 10
3215.570892190357
 20
2190.416563417289
 30
0.0
 11
4111.808110897109
 21
2190.416563417289
 31
0.0
  0
LINE
  5
7C61
330
8171
100
AcDbEntity
  8
1
100
AcDbLine
 10
4518.091456407328
 20
1951.416563417289
 30
0.0
 11
4518.091456407328
 21
2710.41656341729
 31
0.0
  0
POINT
  5
7C62
330
8171
100
AcDbEntity
  8
1
100
AcDbPoint
 10
1419.082261213754
 20
1713.416563417289
 30
0.0
  0
INSERT
  5
7C64
330
8171
100
AcDbEntity
  8
0
100
AcDbBlockReference
  2
YA_N
 10
-1092.024831295133
 20
-1095.319682135705
 30
0.0
 41
20.0
 42
20.0
 43
20.0
  0
LINE
  5
7C66
330
8171
100
AcDbEntity
  8
1
100
AcDbLine
 10
2923.082261213755
 20
2046.416563417289
 30
0.0
 11
2903.649761213754
 21
2099.80656341729
 31
0.0
  0
LINE
  5
7C67
330
8171
100
AcDbEntity
  8
1
100
AcDbLine
 10
2615.082261213754
 20
2046.416563417289
 30
0.0
 11
2634.514861213754
 21
2099.80656341729
 31
0.0
  0
ARC
  5
7C68
330
8171
100
AcDbEntity
  8
1
100
AcDbCircle
 10
2769.082261213755
 20
2190.416563417289
 30
0.0
 40
162.0
100
AcDbArc
 50
285.6481
 51
0.0
  0
ARC
  5
7C69
330
8171
100
AcDbEntity
  8
1
100
AcDbCircle
 10
2769.082261213755
 20
2190.416563417289
 30
0.0
 40
162.0
100
AcDbArc
 50
0.0
 51
254.5427
  0
LINE
  5
7C6A
330
8171
100
AcDbEntity
  8
2
100
AcDbLine
 10
2769.082261213755
 20
2439.652563417289
 30
0.0
 11
2769.082261213755
 21
1713.416563417289
 31
0.0
  0
LINE
  5
7C6B
330
8171
100
AcDbEntity
  8
1
100
AcDbLine
 10
2725.401661213754
 20
2034.416563417289
 30
0.0
 11
2812.762961213754
 21
2034.416563417289
 31
0.0
  0
LINE
  5
7C6C
330
8171
100
AcDbEntity
  8
1
100
AcDbLine
 10
2684.138361213753
 20
2052.472563417289
 30
0.0
 11
2675.960961213755
 21
2044.294563417289
 31
0.0
  0
LINE
  5
7C6D
330
8171
100
AcDbEntity
  8
1
100
AcDbLine
 10
2661.869061213753
 20
2048.416563417289
 30
0.0
 11
2617.082261213754
 21
2048.416563417289
 31
0.0
  0
ARC
  5
7C6F
330
8171
100
AcDbEntity
  8
1
100
AcDbCircle
 10
2617.082261213754
 20
2046.416563417289
 30
0.0
 40
2.0
100
AcDbArc
 50
90.0
 51
180.0
  0
LINE
  5
7C71
330
8171
100
AcDbEntity
  8
1
100
AcDbLine
 10
2615.082261213754
 20
2030.416563417289
 30
0.0
 11
2615.082261213754
 21
2046.416563417289
 31
0.0
  0
ARC
  5
7C73
330
8171
100
AcDbEntity
  8
1
100
AcDbCircle
 10
2678.082261213754
 20
2042.173563417289
 30
0.0
 40
3.0
100
AcDbArc
 50
135.0
 51
180.0
  0
LINE
  5
7C74
330
8171
100
AcDbEntity
  8
1
100
AcDbLine
 10
2675.082261213754
 20
2030.416563417289
 30
0.0
 11
2675.082261213754
 21
2042.173563417289
 31
0.0
  0
ARC
  5
7C79
330
8171
100
AcDbEntity
  8
1
100
AcDbCircle
 10
2661.869061213753
 20
2051.416563417289
 30
0.0
 40
3.0
100
AcDbArc
 50
270.0
 51
315.0
  0
LINE
  5
7C7A
330
8171
100
AcDbEntity
  8
1
100
AcDbLine
 10
2673.971061213755
 20
2059.275563417289
 30
0.0
 11
2663.990461213753
 21
2049.294563417289
 31
0.0
  0
LINE
  5
7C7C
330
8171
100
AcDbEntity
  8
1
100
AcDbLine
 10
2876.295461213755
 20
2048.416563417289
 30
0.0
 11
2921.082261213755
 21
2048.416563417289
 31
0.0
  0
LINE
  5
7C7D
330
8171
100
AcDbEntity
  8
1
100
AcDbLine
 10
2854.026161213754
 20
2052.472563417289
 30
0.0
 11
2862.203661213755
 21
2044.294563417289
 31
0.0
  0
ARC
  5
7C7E
330
8171
100
AcDbEntity
  8
1
100
AcDbCircle
 10
2860.082261213755
 20
2042.173563417289
 30
0.0
 40
3.0
100
AcDbArc
 50
0.0
 51
45.0
  0
LINE
  5
7C7F
330
8171
100
AcDbEntity
  8
1
100
AcDbLine
 10
2863.082261213755
 20
2030.416563417289
 30
0.0
 11
2863.082261213755
 21
2042.173563417289
 31
0.0
  0
ARC
  5
7C80
330
8171
100
AcDbEntity
  8
1
100
AcDbCircle
 10
2876.295461213755
 20
2051.416563417289
 30
0.0
 40
3.0
100
AcDbArc
 50
225.0
 51
270.0
  0
LINE
  5
7C81
330
8171
100
AcDbEntity
  8
1
100
AcDbLine
 10
2874.284461213754
 20
2049.184563417289
 30
0.0
 11
2864.193461213754
 21
2059.275563417289
 31
0.0
  0
ARC
  5
7C88
330
8171
100
AcDbEntity
  8
1
100
AcDbCircle
 10
2921.082261213755
 20
2046.416563417289
 30
0.0
 40
2.0
100
AcDbArc
 50
0.0
 51
90.0
  0
LINE
  5
7C89
330
8171
100
AcDbEntity
  8
1
100
AcDbLine
 10
2923.082261213755
 20
2030.416563417289
 30
0.0
 11
2923.082261213755
 21
2046.416563417289
 31
0.0
  0
LINE
  5
7C8A
330
8171
100
AcDbEntity
  8
2
100
AcDbLine
 10
2576.22538631423
 20
2190.416563417289
 30
0.0
 11
2966.841188432425
 21
2190.416563417289
 31
0.0
  0
LINE
  5
7C8B
330
8171
100
AcDbEntity
  8
1
100
AcDbLine
 10
2579.122793843495
 20
2030.416563417289
 30
0.0
 11
2709.082261213754
 21
2030.416563417289
 31
0.0
  0
LINE
  5
7C8C
330
8171
100
AcDbEntity
  8
1
100
AcDbLine
 10
2566.082261213754
 20
1980.416563417289
 30
0.0
 11
2579.122793843495
 21
2030.416563417289
 31
0.0
  0
LINE
  5
7C8D
330
8171
100
AcDbEntity
  8
1
100
AcDbLine
 10
2972.082261213755
 20
1980.416563417289
 30
0.0
 11
2958.700820304822
 21
2030.416563417289
 31
0.0
  0
LINE
  5
7C8E
330
8171
100
AcDbEntity
  8
1
100
AcDbLine
 10
2829.082261213755
 20
2030.416563417289
 30
0.0
 11
2829.082261213755
 21
2025.416563417289
 31
0.0
  0
LINE
  5
7C8F
330
8171
100
AcDbEntity
  8
1
100
AcDbLine
 10
2709.082261213754
 20
2030.416563417289
 30
0.0
 11
2709.082261213754
 21
2025.416563417289
 31
0.0
  0
LINE
  5
7C90
330
8171
100
AcDbEntity
  8
1
100
AcDbLine
 10
2709.082261213754
 20
2025.416563417289
 30
0.0
 11
2829.082261213755
 21
2025.416563417289
 31
0.0
  0
LINE
  5
7C92
330
8171
100
AcDbEntity
  8
1
100
AcDbLine
 10
2829.082261213755
 20
2030.416563417289
 30
0.0
 11
2958.700820304822
 21
2030.416563417289
 31
0.0
  0
POINT
  5
7C96
330
8171
100
AcDbEntity
  8
1
100
AcDbPoint
 10
1419.082261213754
 20
1718.416563417289
 30
0.0
  0
POINT
  5
7C97
330
8171
100
AcDbEntity
  8
1
100
AcDbPoint
 10
1419.082261213754
 20
1713.416563417289
 30
0.0
  0
POINT
  5
7C98
330
8171
100
AcDbEntity
  8
1
100
AcDbPoint
 10
1419.082261213754
 20
1718.416563417289
 30
0.0
  0
POINT
  5
7C99
330
8171
100
AcDbEntity
  8
1
100
AcDbPoint
 10
1419.082261213754
 20
1753.416563417289
 30
0.0
  0
DIMENSION
  5
7C9B
330
8171
100
AcDbEntity
  8
3
100
AcDbDimension
  2
*D4
 10
1220.074877434528
 20
2681.416563417289
 30
0.0
 11
1170.074877434528
 21
2316.416563417289
 31
0.0
 12
1121.493693569369
 22
2201.82308519589
 32
0.0
 71
     5
 42
-1.0
  3
Standard
100
AcDbAlignedDimension
 13
1369.082261213754
 23
1951.416563417289
 33
0.0
 14
1369.082261213753
 24
2681.416563417289
 34
0.0
 50
90.0
100
AcDbRotatedDimension
1001
ACAD
1000
DSTYLE
1002
{
1070
    40
1040
25.0
1002
}
  0
DIMENSION
  5
7C9C
330
8171
100
AcDbEntity
  8
3
100
AcDbDimension
  2
*D5
 10
1067.266103960862
 20
2710.41656341729
 30
0.0
 11
1017.266103960863
 21
2330.916563417289
 31
0.0
 12
1121.493693569369
 22
2201.82308519589
 32
0.0
 71
     5
 42
-1.0
  3
Standard
100
AcDbAlignedDimension
 13
1369.082261213754
 23
1951.416563417289
 33
0.0
 14
1246.816422408324
 24
2710.41656341729
 34
0.0
 50
90.0
100
AcDbRotatedDimension
1001
ACAD
1000
DSTYLE
1002
{
1070
    40
1040
25.0
1002
}
  0
LINE
  5
7C9D
330
8171
100
AcDbEntity
  8
1
100
AcDbLine
 10
4521.091456407329
 20
1713.416563417289
 30
0.0
 11
4571.091456407329
 21
1713.416563417289
 31
0.0
  0
POINT
  5
7C9E
330
8171
100
AcDbEntity
  8
1
100
AcDbPoint
 10
1419.082261213754
 20
1718.416563417289
 30
0.0
  0
POINT
  5
7C9F
330
8171
100
AcDbEntity
  8
1
100
AcDbPoint
 10
1419.082261213754
 20
1713.416563417289
 30
0.0
  0
POINT
  5
7CA0
330
8171
100
AcDbEntity
  8
1
100
AcDbPoint
 10
1419.082261213754
 20
1718.416563417289
 30
0.0
  0
POINT
  5
7CA1
330
8171
100
AcDbEntity
  8
1
100
AcDbPoint
 10
1419.082261213754
 20
1753.416563417289
 30
0.0
  0
INSERT
  5
7CA2
330
8171
100
AcDbEntity
  8
0
100
AcDbBlockReference
  2
YA_N
 10
-1018.773193578214
 20
-860.9217325598891
 30
0.0
 41
20.0
 42
20.0
 43
20.0
  0
POINT
  5
7CA4
330
8171
100
AcDbEntity
  8
1
100
AcDbPoint
 10
1419.082261213754
 20
1813.416563417289
 30
0.0
  0
POINT
  5
7CA5
330
8171
100
AcDbEntity
  8
1
100
AcDbPoint
 10
1419.082261213754
 20
1713.416563417289
 30
0.0
  0
POINT
  5
7CA6
330
8171
100
AcDbEntity
  8
1
100
AcDbPoint
 10
1419.082261213754
 20
1813.416563417289
 30
0.0
  0
LINE
  5
7CA7
330
8171
100
AcDbEntity
  8
1
100
AcDbLine
 10
4518.091456407328
 20
2710.41656341729
 30
0.0
 11
4518.091456407328
 21
3216.416563417289
 31
0.0
  0
LINE
  5
7CA9
330
8171
100
AcDbEntity
  8
1
100
AcDbLine
 10
3618.09145640733
 20
2710.41656341729
 30
0.0
 11
3618.09145640733
 21
3216.416563417289
 31
0.0
  0
LINE
  5
7CAB
330
8171
100
AcDbEntity
  8
1
100
AcDbLine
 10
4530.591456407329
 20
2575.216563417289
 30
0.0
 11
4530.591456407331
 21
2695.216563417289
 31
0.0
  0
LINE
  5
7CAC
330
8171
100
AcDbEntity
  8
1
100
AcDbLine
 10
4628.091456407328
 20
2585.21656341729
 30
0.0
 11
4628.091456407331
 21
2685.21656341729
 31
0.0
  0
LINE
  5
7CAD
330
8171
100
AcDbEntity
  8
1
100
AcDbLine
 10
4530.591456407331
 20
2695.216563417289
 30
0.0
 11
4570.391456407331
 21
2695.216563417289
 31
0.0
  0
LINE
  5
7CAE
330
8171
100
AcDbEntity
  8
1
100
AcDbLine
 10
4530.591456407329
 20
2575.216563417289
 30
0.0
 11
4570.391456407331
 21
2575.216563417289
 31
0.0
  0
ARC
  5
7CAF
330
8171
100
AcDbEntity
  8
1
100
AcDbCircle
 10
4618.09145640733
 20
2685.216563417291
 30
0.0
 40
10.0
100
AcDbArc
 50
359.9999999999982
 51
90.0
  0
ARC
  5
7CB0
330
8171
100
AcDbEntity
  8
1
100
AcDbCircle
 10
4618.09145640733
 20
2585.216563417291
 30
0.0
 40
10.0
100
AcDbArc
 50
270.0
 51
359.9999999999982
  0
LINE
  5
7CB1
330
8171
100
AcDbEntity
  8
1
100
AcDbLine
 10
4570.391456407331
 20
2575.216563417289
 30
0.0
 11
4618.09145640733
 21
2575.216563417289
 31
0.0
  0
LINE
  5
7CB2
330
8171
100
AcDbEntity
  8
1
100
AcDbLine
 10
4570.391456407331
 20
2695.216563417289
 30
0.0
 11
4618.09145640733
 21
2695.216563417289
 31
0.0
  0
LINE
  5
7CB3
330
8171
100
AcDbEntity
  8
1
100
AcDbLine
 10
2969.082261213755
 20
1940.416563417289
 30
0.0
 11
2969.082261213755
 21
1980.416563417289
 31
0.0
  0
POINT
  5
7CB4
330
8171
100
AcDbEntity
  8
1
100
AcDbPoint
 10
4628.091456407331
 20
2685.21656341729
 30
0.0
  0
LINE
  5
7CB5
330
8171
100
AcDbEntity
  8
1
100
AcDbLine
 10
1419.082261213754
 20
5258.532285537255
 30
0.0
 11
2319.082261213754
 21
5258.532285537256
 31
0.0
  0
LINE
  5
7CB6
330
8171
100
AcDbEntity
  8
1
100
AcDbLine
 10
1419.082261213754
 20
4103.532285537254
 30
0.0
 11
3019.082261213755
 21
4103.532285537256
 31
0.0
  0
LINE
  5
7CB7
330
8171
100
AcDbEntity
  8
1
100
AcDbLine
 10
1419.082261213754
 20
5258.532285537256
 30
0.0
 11
1419.082261213754
 21
5205.532285537255
 31
0.0
  0
LINE
  5
7CB8
330
8171
100
AcDbEntity
  8
1
100
AcDbLine
 10
2319.082261213754
 20
5258.532285537256
 30
0.0
 11
2319.082261213754
 21
5205.532285537255
 31
0.0
  0
LINE
  5
7CB9
330
8171
100
AcDbEntity
  8
1
100
AcDbLine
 10
3019.082261213755
 20
4773.532285537258
 30
0.0
 11
3019.082261213755
 21
4103.532285537257
 31
0.0
  0
LINE
  5
7CBA
330
8171
100
AcDbEntity
  8
1
100
AcDbLine
 10
2481.082261213754
 20
4773.532285537256
 30
0.0
 11
3019.082261213755
 21
4773.532285537258
 31
0.0
  0
POINT
  5
7CBB
330
8171
100
AcDbEntity
  8
1
100
AcDbPoint
 10
1419.082261213754
 20
1813.416563417289
 30
0.0
  0
POINT
  5
7CBC
330
8171
100
AcDbEntity
  8
1
100
AcDbPoint
 10
1419.082261213754
 20
1713.416563417289
 30
0.0
  0
POINT
  5
7CBD
330
8171
100
AcDbEntity
  8
1
100
AcDbPoint
 10
1419.082261213754
 20
1813.416563417289
 30
0.0
  0
LINE
  5
7CBE
330
8171
100
AcDbEntity
  8
1
100
AcDbLine
 10
1419.082261213754
 20
1840.416563417289
 30
0.0
 11
3019.082261213755
 21
1840.416563417289
 31
0.0
1001
ACAD
1000
ASC_BOUNDS
1002
{
1070
    19
1002
}
  0
LINE
  5
7CBF
330
8171
100
AcDbEntity
  8
1
100
AcDbLine
 10
1419.082261213754
 20
1940.416563417289
 30
0.0
 11
3019.082261213755
 21
1940.416563417289
 31
0.0
1001
ACAD
1000
ASC_BOUNDS
1002
{
1070
    19
1005
0
1002
}
  0
LINE
  5
7CC0
330
8171
100
AcDbEntity
  8
1
100
AcDbLine
 10
3019.082261213755
 20
1940.416563417289
 30
0.0
 11
3019.082261213755
 21
1840.416563417289
 31
0.0
  0
LINE
  5
7CC1
330
8171
100
AcDbEntity
  8
1
100
AcDbLine
 10
1419.082261213754
 20
1940.416563417289
 30
0.0
 11
1419.082261213754
 21
1840.416563417289
 31
0.0
  0
POINT
  5
7CC8
330
8171
100
AcDbEntity
  8
1
100
AcDbPoint
 10
1419.082261213754
 20
1813.416563417289
 30
0.0
  0
POINT
  5
7CC9
330
8171
100
AcDbEntity
  8
1
100
AcDbPoint
 10
1419.082261213754
 20
1713.416563417289
 30
0.0
  0
POINT
  5
7CCA
330
8171
100
AcDbEntity
  8
1
100
AcDbPoint
 10
1419.082261213754
 20
1813.416563417289
 30
0.0
  0
POINT
  5
7CCB
330
8171
100
AcDbEntity
  8
1
100
AcDbPoint
 10
1419.082261213754
 20
1840.416563417289
 30
0.0
  0
CIRCLE
  5
7CD1
330
8171
100
AcDbEntity
  8
1
100
AcDbCircle
 10
2769.082261213755
 20
2190.416563417289
 30
0.0
 40
79.0
  0
CIRCLE
  5
7CD2
330
8171
100
AcDbEntity
  8
1
100
AcDbCircle
 10
1869.082261213754
 20
2710.41656341729
 30
0.0
 40
203.2
  0
LINE
  5
7CD3
330
8171
100
AcDbEntity
  8
1
100
AcDbLine
 10
1938.501630684807
 20
2901.390884052922
 30
0.0
 11
2796.071090880158
 21
2264.663469569923
 31
0.0
  0
LINE
  5
7CD4
330
8171
100
AcDbEntity
  8
1
100
AcDbLine
 10
1853.23135021975
 20
2507.835743444963
 30
0.0
 11
2762.919751526125
 21
2111.657287935921
 31
0.0
  0
ARC
  5
7CD5
330
8171
100
AcDbEntity
  8
1
100
AcDbCircle
 10
1869.082261213754
 20
2710.41656341729
 30
0.0
 40
280.0
100
AcDbArc
 50
69.65938634983065
 51
265.8903682986978
  0
ARC
  5
7CD6
330
8171
100
AcDbEntity
  8
1
100
AcDbCircle
 10
2769.082261213755
 20
2190.416563417289
 30
0.0
 40
150.0
100
AcDbArc
 50
265.8903682986978
 51
69.65938634983065
  0
LINE
  5
7CD7
330
8171
100
AcDbEntity
  8
1
100
AcDbLine
 10
1966.41036743107
 20
2972.956540830541
 30
0.0
 11
2821.222318115887
 21
2331.062979888673
 31
0.0
  0
LINE
  5
7CD8
330
8171
100
AcDbEntity
  8
1
100
AcDbLine
 10
1849.016028172347
 20
2431.13651348259
 30
0.0
 11
2758.332493513
 21
2040.802250952272
 31
0.0
  0
INSERT
  5
7CD9
330
8171
100
AcDbEntity
  8
0
100
AcDbBlockReference
  2
YA_N
 10
2545.878788900856
 20
-1567.120050791241
 30
0.0
  0
LINE
  5
7CDB
330
8171
100
AcDbEntity
  8
1
100
AcDbLine
 10
3416.091456407331
 20
1940.416563417289
 30
0.0
 11
4571.091456407329
 21
1940.416563417289
 31
0.0
1001
ACAD
1000
ASC_BOUNDS
1002
{
1070
    19
1002
}
  0
LINE
  5
7CDC
330
8171
100
AcDbEntity
  8
1
100
AcDbLine
 10
3416.091456407331
 20
1713.416563417289
 30
0.0
 11
3416.091456407329
 21
1813.416563417289
 31
0.0
  0
LINE
  5
7CDD
330
8171
100
AcDbEntity
  8
1
100
AcDbLine
 10
3416.091456407331
 20
1840.416563417289
 30
0.0
 11
4571.091456407329
 21
1840.416563417289
 31
0.0
  0
LINE
  5
7CDE
330
8171
100
AcDbEntity
  8
1
100
AcDbLine
 10
4571.091456407331
 20
1713.416563417289
 30
0.0
 11
4571.091456407329
 21
1813.416563417289
 31
0.0
  0
LINE
  5
7CE1
330
8171
100
AcDbEntity
  8
1
100
AcDbLine
 10
3565.791456407328
 20
2687.216563417289
 30
0.0
 11
3525.591456407328
 21
2687.216563417289
 31
0.0
  0
LINE
  5
7CE2
330
8171
100
AcDbEntity
  8
1
100
AcDbLine
 10
3565.791456407328
 20
2567.21656341729
 30
0.0
 11
3525.59145640733
 21
2567.21656341729
 31
0.0
  0
LINE
  5
7CE3
330
8171
100
AcDbEntity
  8
1
100
AcDbLine
 10
3605.59145640733
 20
2567.21656341729
 30
0.0
 11
3605.591456407328
 21
2687.216563417289
 31
0.0
  0
LINE
  5
7CE4
330
8171
100
AcDbEntity
  8
1
100
AcDbLine
 10
3605.59145640733
 20
2567.21656341729
 30
0.0
 11
3565.791456407328
 21
2567.21656341729
 31
0.0
  0
LINE
  5
7CE5
330
8171
100
AcDbEntity
  8
1
100
AcDbLine
 10
3605.591456407328
 20
2687.216563417289
 30
0.0
 11
3565.791456407328
 21
2687.216563417289
 31
0.0
  0
LINE
  5
7CE6
330
8171
100
AcDbEntity
  8
1
100
AcDbLine
 10
3515.591456407332
 20
2577.21656341729
 30
0.0
 11
3515.591456407328
 21
2677.216563417289
 31
0.0
  0
ARC
  5
7CE7
330
8171
100
AcDbEntity
  8
1
100
AcDbCircle
 10
3525.59145640733
 20
2577.21656341729
 30
0.0
 40
10.0
100
AcDbArc
 50
180.0000000000016
 51
270.0
  0
ARC
  5
7CE8
330
8171
100
AcDbEntity
  8
1
100
AcDbCircle
 10
3525.591456407328
 20
2677.216563417289
 30
0.0
 40
10.0
100
AcDbArc
 50
90.0
 51
180.0000000000016
  0
POINT
  5
7CE9
330
8171
100
AcDbEntity
  8
1
100
AcDbPoint
 10
3515.591456407328
 20
2677.216563417289
 30
0.0
  0
LINE
  5
7CEA
330
8171
100
AcDbEntity
  8
1
100
AcDbLine
 10
3488.091456407329
 20
2685.416563417289
 30
0.0
 11
3488.091456407331
 21
2735.41656341729
 31
0.0
  0
LINE
  5
7CEB
330
8171
100
AcDbEntity
  8
1
100
AcDbLine
 10
3488.091456407331
 20
2735.41656341729
 30
0.0
 11
3618.091456407329
 21
2735.416563417289
 31
0.0
  0
LINE
  5
7CEC
330
8171
100
AcDbEntity
  8
1
100
AcDbLine
 10
3488.091456407331
 20
2685.416563417289
 30
0.0
 11
3519.99145640733
 21
2685.416563417289
 31
0.0
  0
LINE
  5
7CED
330
8171
100
AcDbEntity
  8
1
100
AcDbLine
 10
3464.091456407329
 20
2731.416563417289
 30
0.0
 11
3488.091456407329
 21
2731.416563417289
 31
0.0
  0
LINE
  5
7CEE
330
8171
100
AcDbEntity
  8
1
100
AcDbLine
 10
3464.091456407329
 20
2689.416563417289
 30
0.0
 11
3488.091456407329
 21
2689.416563417289
 31
0.0
  0
LINE
  5
7CEF
330
8171
100
AcDbEntity
  8
1
100
AcDbLine
 10
3464.091456407321
 20
2111.416563417289
 30
0.0
 11
3464.091456407333
 21
2913.616563417289
 31
0.0
  0
LINE
  5
7CF0
330
8171
100
AcDbEntity
  8
1
100
AcDbLine
 10
3363.091456407331
 20
2913.616563417289
 30
0.0
 11
3464.091456407333
 21
2913.616563417289
 31
0.0
  0
LINE
  5
7CF1
330
8171
100
AcDbEntity
  8
1
100
AcDbLine
 10
3363.091456407325
 20
2507.216563417289
 30
0.0
 11
3464.091456407328
 21
2507.216563417289
 31
0.0
  0
LINE
  5
7CF2
330
8171
100
AcDbEntity
  8
1
100
AcDbLine
 10
3363.091456407321
 20
2111.416563417289
 30
0.0
 11
3363.091456407332
 21
2913.616563417291
 31
0.0
  0
LINE
  5
7CF3
330
8171
100
AcDbEntity
  8
1
100
AcDbLine
 10
3363.091456407328
 20
2269.416563417289
 30
0.0
 11
3464.091456407328
 21
2269.416563417289
 31
0.0
  0
LINE
  5
7CF4
330
8171
100
AcDbEntity
  8
1
100
AcDbLine
 10
3363.091456407325
 20
2111.416563417289
 30
0.0
 11
3464.091456407326
 21
2111.416563417289
 31
0.0
  0
LINE
  5
7CF5
330
8171
100
AcDbEntity
  8
1
100
AcDbLine
 10
3228.091456407333
 20
2990.416563417289
 30
0.0
 11
3514.091456407333
 21
2990.416563417289
 31
0.0
  0
LINE
  5
7CF6
330
8171
100
AcDbEntity
  8
1
100
AcDbLine
 10
3228.091456407326
 20
2040.416563417289
 30
0.0
 11
3514.091456407324
 21
2040.416563417289
 31
0.0
  0
LINE
  5
7CF7
330
8171
100
AcDbEntity
  8
1
100
AcDbLine
 10
3514.091456407324
 20
2040.416563417289
 30
0.0
 11
3514.091456407324
 21
2060.416563417289
 31
0.0
  0
LINE
  5
7CF8
330
8171
100
AcDbEntity
  8
1
100
AcDbLine
 10
3228.09145640732
 20
2040.416563417289
 30
0.0
 11
3228.091456407333
 21
2990.416563417289
 31
0.0
  0
LINE
  5
7CF9
330
8171
100
AcDbEntity
  8
1
100
AcDbLine
 10
3514.091456407333
 20
2970.416563417289
 30
0.0
 11
3514.091456407333
 21
2990.416563417289
 31
0.0
  0
DIMENSION
  5
7CFA
330
8171
100
AcDbEntity
  8
3
100
AcDbDimension
  2
*D6
 10
4518.091456407328
 20
3403.363348091053
 30
0.0
 11
4068.091456407329
 21
3453.363348091054
 31
0.0
 12
223.8193824768604
 22
2201.82308519589
 32
0.0
 71
     5
 42
-1.0
  3
Standard
100
AcDbAlignedDimension
 13
3618.091456407329
 23
3211.758674958397
 33
0.0
 14
4518.091456407328
 24
3211.758661221389
 34
0.0
100
AcDbRotatedDimension
1001
ACAD
1000
DSTYLE
1002
{
1070
    40
1040
25.0
1002
}
  0
DIMENSION
  5
7CFE
330
8171
100
AcDbEntity
  8
3
100
AcDbDimension
  2
*D10
 10
4795.873591362751
 20
3085.41656341729
 30
0.0
 11
4745.873591362751
 21
2710.41656341729
 31
0.0
 12
223.8193824768604
 22
2201.82308519589
 32
0.0
  1
\U+03C6<>
 71
     5
 42
-1.0
  3
Standard
100
AcDbAlignedDimension
 13
4520.391456407329
 23
2335.416563417289
 33
0.0
 14
4520.391456407329
 24
3085.41656341729
 34
0.0
 50
90.0
100
AcDbRotatedDimension
1001
ACAD
1000
DSTYLE
1002
{
1070
    40
1040
25.0
1002
}
  0
DIMENSION
  5
7D00
330
8171
100
AcDbEntity
  8
3
100
AcDbDimension
  2
*D12
 10
3319.952766048845
 20
4773.532285537258
 30
0.0
 11
3269.952766048844
 21
4438.532285537257
 31
0.0
 12
1121.493693569369
 22
1885.186237104237
 32
0.0
 71
     5
 42
-1.0
  3
Standard
100
AcDbAlignedDimension
 13
3019.082261213755
 23
4103.532285537256
 33
0.0
 14
3019.082261213755
 24
4773.532285537258
 34
0.0
 50
270.0
100
AcDbRotatedDimension
1001
ACAD
1000
DSTYLE
1002
{
1070
    40
1040
25.0
1002
}
  0
DIMENSION
  5
7D01
330
8171
100
AcDbEntity
  8
3
100
AcDbDimension
  2
*D13
 10
1419.082261213754
 20
5560.164339941428
 30
0.0
 11
1869.082261213754
 21
5610.164339941428
 31
0.0
 12
1121.493693569369
 22
1885.186237104237
 32
0.0
 71
     5
 42
-1.0
  3
Standard
100
AcDbAlignedDimension
 13
2319.082261213754
 23
5258.532285537256
 33
0.0
 14
1419.082261213754
 24
5258.532285537256
 34
0.0
100
AcDbRotatedDimension
1001
ACAD
1000
DSTYLE
1002
{
1070
    40
1040
25.0
1002
}
  0
DIMENSION
  5
7D02
330
8171
100
AcDbEntity
  8
3
100
AcDbDimension
  2
*D14
 10
2319.082261213754
 20
5560.164339941428
 30
0.0
 11
2669.082261213754
 21
5610.164339941428
 31
0.0
 12
1121.493693569369
 22
1885.186237104237
 32
0.0
 71
     5
 42
-1.0
  3
Standard
100
AcDbAlignedDimension
 13
3019.082261213755
 23
4773.532285537258
 33
0.0
 14
2319.082261213754
 24
5258.532285537256
 34
0.0
100
AcDbRotatedDimension
1001
ACAD
1000
DSTYLE
1002
{
1070
    40
1040
25.0
1002
}
  0
DIMENSION
  5
7D03
330
8171
100
AcDbEntity
  8
3
100
AcDbDimension
  2
*D15
 10
1117.685053072497
 20
5258.532285537256
 30
0.0
 11
1067.685053072497
 21
4681.032285537256
 31
0.0
 12
1121.493693569369
 22
1885.186237104237
 32
0.0
 71
     5
 42
-1.0
  3
Standard
100
AcDbAlignedDimension
 13
1419.082261213754
 23
4103.532285537254
 33
0.0
 14
1419.082261213754
 24
5258.532285537256
 34
0.0
 50
270.0
100
AcDbRotatedDimension
1001
ACAD
1000
DSTYLE
1002
{
1070
    40
1040
25.0
1002
}
  0
LINE
  5
7D04
330
8171
100
AcDbEntity
  8
1
100
AcDbLine
 10
3416.091456407329
 20
1840.416563417289
 30
0.0
 11
3416.091456407331
 21
1940.416563417289
 31
0.0
  0
DIMENSION
  5
7D05
330
8171
100
AcDbEntity
  8
3
100
AcDbDimension
  2
*D16
 10
3019.082261213755
 20
3568.726828777172
 30
0.0
 11
2194.082261213754
 21
3618.726828777173
 31
0.0
 12
1121.493693569369
 22
2201.82308519589
 32
0.0
 71
     5
 42
-1.0
  3
Standard
100
AcDbAlignedDimension
 13
1369.082261213754
 23
2710.590039243259
 33
0.0
 14
3019.082261213755
 24
1940.416563417289
 34
0.0
100
AcDbRotatedDimension
1001
ACAD
1000
DSTYLE
1002
{
1070
    40
1040
25.0
1002
}
  0
LINE
  5
7D06
330
8171
100
AcDbEntity
  8
1
100
AcDbLine
 10
1589.082261213754
 20
3915.532285537256
 30
0.0
 11
1589.082261213754
 21
4200.532285537255
 31
0.0
  0
LINE
  5
7D07
330
8171
100
AcDbEntity
  8
1
100
AcDbLine
 10
2919.082261213755
 20
3915.532285537256
 30
0.0
 11
2919.082261213755
 21
4200.532285537255
 31
0.0
  0
LINE
  5
7D08
330
8171
100
AcDbEntity
  8
1
100
AcDbLine
 10
1665.882261213753
 20
4050.532285537256
 30
0.0
 11
1665.882261213753
 21
4150.532285537256
 31
0.0
  0
LINE
  5
7D09
330
8171
100
AcDbEntity
  8
1
100
AcDbLine
 10
2072.282261213754
 20
4050.532285537256
 30
0.0
 11
2072.282261213754
 21
4150.532285537256
 31
0.0
  0
LINE
  5
7D0A
330
8171
100
AcDbEntity
  8
1
100
AcDbLine
 10
2690.082261213754
 20
4050.532285537256
 30
0.0
 11
2690.082261213754
 21
4150.532285537256
 31
0.0
  0
LINE
  5
7D0B
330
8171
100
AcDbEntity
  8
1
100
AcDbLine
 10
2848.082261213754
 20
4050.532285537256
 30
0.0
 11
2848.082261213754
 21
4150.532285537257
 31
0.0
  0
LINE
  5
7D0C
330
8171
100
AcDbEntity
  8
1
100
AcDbLine
 10
1589.082261213754
 20
3915.532285537256
 30
0.0
 11
2919.082261213755
 21
3915.532285537256
 31
0.0
  0
LINE
  5
7D0D
330
8171
100
AcDbEntity
  8
1
100
AcDbLine
 10
1589.082261213753
 20
4200.532285537255
 30
0.0
 11
2919.082261213755
 21
4200.532285537255
 31
0.0
  0
LINE
  5
7D0E
330
8171
100
AcDbEntity
  8
1
100
AcDbLine
 10
1665.882261213753
 20
4150.532285537256
 30
0.0
 11
2072.282261213754
 21
4150.532285537256
 31
0.0
  0
LINE
  5
7D0F
330
8171
100
AcDbEntity
  8
1
100
AcDbLine
 10
1665.882261213753
 20
4050.532285537256
 30
0.0
 11
2072.282261213754
 21
4050.532285537256
 31
0.0
  0
LINE
  5
7D10
330
8171
100
AcDbEntity
  8
1
100
AcDbLine
 10
2690.082261213754
 20
4150.532285537256
 30
0.0
 11
2848.082261213754
 21
4150.532285537256
 31
0.0
  0
LINE
  5
7D11
330
8171
100
AcDbEntity
  8
1
100
AcDbLine
 10
2690.082261213754
 20
4050.532285537256
 30
0.0
 11
2848.082261213754
 21
4050.532285537256
 31
0.0
  0
LINE
  5
7D12
330
8171
100
AcDbEntity
  8
1
100
AcDbLine
 10
1369.082261213754
 20
4305.532285537254
 30
0.0
 11
2481.082261213754
 21
4305.532285537256
 31
0.0
  0
LINE
  5
7D13
330
8171
100
AcDbEntity
  8
1
100
AcDbLine
 10
1369.082261213754
 20
5205.532285537255
 30
0.0
 11
2481.082261213754
 21
5205.532285537255
 31
0.0
  0
LINE
  5
7D14
330
8171
100
AcDbEntity
  8
1
100
AcDbLine
 10
1369.082261213754
 20
5245.532285537255
 30
0.0
 11
1369.082261213754
 21
4265.532285537254
 31
0.0
  0
LINE
  5
7D15
330
8171
100
AcDbEntity
  8
1
100
AcDbLine
 10
2481.082261213754
 20
5205.532285537255
 30
0.0
 11
2481.082261213754
 21
4305.532285537256
 31
0.0
  0
LINE
  5
7D16
330
8171
100
AcDbEntity
  8
1
100
AcDbLine
 10
1369.082261213754
 20
5245.532285537255
 30
0.0
 11
1372.082261213754
 21
5245.532285537255
 31
0.0
  0
LINE
  5
7D17
330
8171
100
AcDbEntity
  8
1
100
AcDbLine
 10
1369.082261213754
 20
4265.532285537254
 30
0.0
 11
1372.082261213754
 21
4265.532285537255
 31
0.0
  0
LINE
  5
7D18
330
8171
100
AcDbEntity
  8
1
100
AcDbLine
 10
1372.082261213754
 20
5245.532285537255
 30
0.0
 11
1372.082261213754
 21
4265.532285537254
 31
0.0
  0
LINE
  5
7D19
330
8171
100
AcDbEntity
  8
1
100
AcDbLine
 10
1844.082261213754
 20
4305.532285537255
 30
0.0
 11
1844.082261213754
 21
4150.532285537256
 31
0.0
  0
LINE
  5
7D1A
330
8171
100
AcDbEntity
  8
1
100
AcDbLine
 10
1894.082261213754
 20
4305.532285537256
 30
0.0
 11
1894.082261213754
 21
4150.532285537256
 31
0.0
  0
LINE
  5
7D1B
330
8171
100
AcDbEntity
  8
1
100
AcDbLine
 10
2607.082261213754
 20
4168.532285537255
 30
0.0
 11
2607.082261213754
 21
4653.532285537256
 31
0.0
  0
LINE
  5
7D1C
330
8171
100
AcDbEntity
  8
1
100
AcDbLine
 10
2931.082261213754
 20
4168.532285537255
 30
0.0
 11
2931.082261213754
 21
4653.532285537256
 31
0.0
  0
LINE
  5
7D1D
330
8171
100
AcDbEntity
  8
1
100
AcDbLine
 10
2607.082261213754
 20
4653.532285537256
 30
0.0
 11
2931.082261213754
 21
4653.532285537256
 31
0.0
  0
LINE
  5
7D1E
330
8171
100
AcDbEntity
  8
1
100
AcDbLine
 10
2607.082261213754
 20
4168.532285537255
 30
0.0
 11
2931.082261213754
 21
4168.532285537255
 31
0.0
  0
LINE
  5
7D1F
330
8171
100
AcDbEntity
  8
1
100
AcDbLine
 10
2748.082261213754
 20
4168.532285537255
 30
0.0
 11
2748.082261213754
 21
4150.532285537256
 31
0.0
  0
LINE
  5
7D20
330
8171
100
AcDbEntity
  8
1
100
AcDbLine
 10
2790.082261213755
 20
4168.532285537255
 30
0.0
 11
2790.082261213755
 21
4150.532285537256
 31
0.0
  0
LINE
  5
7D21
330
8171
100
AcDbEntity
  8
1
100
AcDbLine
 10
3482.091456407328
 20
2352.416563417292
 30
0.0
 11
3967.091456407326
 21
2352.416563417292
 31
0.0
  0
LINE
  5
7D22
330
8171
100
AcDbEntity
  8
1
100
AcDbLine
 10
3482.091456407328
 20
2028.416563417292
 30
0.0
 11
3967.091456407326
 21
2028.416563417292
 31
0.0
  0
LINE
  5
7D23
330
8171
100
AcDbEntity
  8
1
100
AcDbLine
 10
3482.091456407328
 20
2028.416563417292
 30
0.0
 11
3482.091456407328
 21
2352.416563417292
 31
0.0
  0
LINE
  5
7D24
330
8171
100
AcDbEntity
  8
1
100
AcDbLine
 10
3482.091456407326
 20
2169.416563417292
 30
0.0
 11
3464.091456407328
 21
2169.416563417292
 31
0.0
  0
LINE
  5
7D25
330
8171
100
AcDbEntity
  8
1
100
AcDbLine
 10
3482.091456407326
 20
2211.416563417292
 30
0.0
 11
3464.091456407328
 21
2211.416563417292
 31
0.0
  0
LINE
  5
7D26
330
8171
100
AcDbEntity
  8
1
100
AcDbLine
 10
3605.591456407328
 20
2352.416563417292
 30
0.0
 11
3618.091456407329
 21
2352.416563417292
 31
0.0
  0
LINE
  5
7D2D
330
8171
100
AcDbEntity
  8
1
100
AcDbLine
 10
4571.091456407329
 20
1840.416563417289
 30
0.0
 11
4571.091456407329
 21
1940.416563417289
 31
0.0
  0
LINE
  5
7D2E
330
8171
100
AcDbEntity
  8
1
100
AcDbLine
 10
1419.082261213754
 20
4305.532285537255
 30
0.0
 11
1419.082261213754
 21
4103.532285537256
 31
0.0
  0
DIMENSION
  5
7D2F
330
8171
100
AcDbEntity
  8
3
100
AcDbDimension
  2
*D17
 10
1869.082261213754
 20
3370.30501001029
 30
0.0
 11
1619.082261213754
 21
3420.30501001029
 31
0.0
 12
1121.493693569369
 22
2201.82308519589
 32
0.0
 71
     5
 42
-1.0
  3
Standard
100
AcDbAlignedDimension
 13
1369.082261213753
 23
2723.416563417289
 33
0.0
 14
1869.082261213754
 24
3278.01209417829
 34
0.0
100
AcDbRotatedDimension
1001
ACAD
1000
DSTYLE
1002
{
1070
    40
1040
25.0
1002
}
  0
LINE
  5
7D31
330
8171
100
AcDbEntity
  8
1
100
AcDbLine
 10
3883.440154609181
 20
1951.416563417289
 30
0.0
 11
4518.091456407328
 21
1951.416563417289
 31
0.0
  0
LINE
  5
7D32
330
8171
100
AcDbEntity
  8
1
100
AcDbLine
 10
3618.09145640733
 20
3216.416563417289
 30
0.0
 11
4518.091456407328
 21
3216.416563417289
 31
0.0
  0
DIMENSION
  5
7D38
330
8171
100
AcDbEntity
  8
3
100
AcDbDimension
  2
*D21
 10
902.6220320738413
 20
1713.416563417289
 30
0.0
 11
840.122032073841
 21
1499.130849131575
 31
0.0
 71
     5
 42
-1.0
  3
Standard
100
AcDbAlignedDimension
 13
1419.082261213754
 23
1813.416563417289
 33
0.0
 14
1419.082261213754
 24
1713.416563417289
 34
0.0
 50
270.0
100
AcDbRotatedDimension
1001
ACAD
1000
DSTYLE
1002
{
1070
   287
1070
     3
1070
   287
1070
     3
1070
    40
1040
25.0
1070
   143
1040
0.039
1070
   172
1070
     1
1070
   271
1070
     0
1070
   279
1070
     0
1070
   288
1070
     1
1070
     6
1000
DOT
1002
}
  0
LINE
  5
7D3A
330
8171
100
AcDbEntity
  8
1
100
AcDbLine
 10
3967.091456407326
 20
2028.416563417292
 30
0.0
 11
3967.091456407326
 21
2352.416563417292
 31
0.0
  0
LINE
  5
7D3C
330
8171
100
AcDbEntity
  8
1
100
AcDbLine
 10
3618.09145640733
 20
2352.416563417292
 30
0.0
 11
3618.091456407329
 21
2710.41656341729
 31
0.0
  0
LINE
  5
7D3D
330
8171
100
AcDbEntity
  8
1
100
AcDbLine
 10
3883.440154609179
 20
2028.416563417292
 30
0.0
 11
3883.440154609181
 21
1940.416563417289
 31
0.0
  0
LINE
  5
7D3E
330
8171
100
AcDbEntity
  8
1
100
AcDbLine
 10
3556.820034070971
 20
2028.416563417292
 30
0.0
 11
3556.82003407097
 21
1940.416563417289
 31
0.0
  0
LINE
  5
7D3F
330
8171
100
AcDbEntity
  8
1
100
AcDbLine
 10
3556.82003407097
 20
1980.416563417289
 30
0.0
 11
3883.440154609181
 21
1980.416563417289
 31
0.0
  0
LINE
  5
7F81
330
8171
100
AcDbEntity
  8
4
100
AcDbLine
 10
4625.0
 20
1250.0
 30
0.0
 11
4625.0
 21
750.0
 31
0.0
  0
LINE
  5
7F82
330
8171
100
AcDbEntity
  8
4
100
AcDbLine
 10
2875.0
 20
1250.0
 30
0.0
 11
2875.0
 21
750.0
 31
0.0
  0
LINE
  5
7F83
330
8171
100
AcDbEntity
  8
4
100
AcDbLine
 10
1625.0
 20
1250.0
 30
0.0
 11
1625.0
 21
750.0
 31
0.0
  0
LINE
  5
7F86
330
8171
100
AcDbEntity
  8
4
100
AcDbLine
 10
1625.0
 20
750.0
 30
0.0
 11
4625.0
 21
750.0
 31
0.0
  0
LINE
  5
7F87
330
8171
100
AcDbEntity
  8
4
100
AcDbLine
 10
1625.0
 20
1000.0
 30
0.0
 11
4625.0
 21
1000.0
 31
0.0
  0
TEXT
  5
7F88
330
8171
100
AcDbEntity
  8
4
100
AcDbText
 10
1721.255202117253
 20
1078.857564666532
 30
0.0
 40
125.0
  1
機器名称
100
AcDbText
  0
TEXT
  5
7F89
330
8171
100
AcDbEntity
  8
4
100
AcDbText
 10
1715.645265061993
 20
804.1128918300273
 30
0.0
 40
125.0
  1
機器型番
100
AcDbText
  0
TEXT
  5
7F8A
330
8171
100
AcDbEntity
  8
4
100
AcDbText
 10
2944.196863719162
 20
1056.429422393921
 30
0.0
 40
125.0
  1
ミツヤ多翼送風機
100
AcDbText
  0
TEXT
  5
7F8B
330
8171
100
AcDbEntity
  8
4
100
AcDbText
 10
2966.636238963701
 20
792.8989606998584
 30
0.0
 40
125.0
  1
MF#4 1/2-5
100
AcDbText
  0
TEXT
  5
7F8D
330
8171
100
AcDbEntity
  8
4
100
AcDbText
 10
1931.937068338837
 20
5958.572103331289
 30
0.0
 40
135.0
  1
床置防振ベット
100
AcDbText
  0
TEXT
  5
7F8E
330
8171
100
AcDbEntity
  8
4
100
AcDbText
 10
790.4189833236158
 20
6334.702440498245
 30
0.0
 40
180.0
  1
遠心式両吸込両持多翼ファン
100
AcDbText
  0
LINE
  5
7F8F
330
8171
100
AcDbEntity
  8
4
100
AcDbLine
 10
625.0
 20
6173.521885662012
 30
0.0
 11
4625.0
 21
6173.521885662012
 31
0.0
  0
LINE
  5
7F90
330
8171
100
AcDbEntity
  8
4
100
AcDbLine
 10
625.0
 20
6673.521885662011
 30
0.0
 11
4625.0
 21
6673.521885662011
 31
0.0
  0
LINE
  5
7F91
330
8171
100
AcDbEntity
  8
4
100
AcDbLine
 10
1625.0
 20
1250.0
 30
0.0
 11
4625.0
 21
1250.0
 31
0.0
  0
LINE
  5
7F92
330
8171
100
AcDbEntity
  8
4
100
AcDbLine
 10
625.0
 20
6673.521885662011
 30
0.0
 11
625.0
 21
6173.521885662012
 31
0.0
  0
TEXT
  5
7F93
330
8171
100
AcDbEntity
  8
4
100
AcDbText
 10
842.2899877320814
 20
5955.798693865858
 30
0.0
 40
135.0
  1
右回転左横向
100
AcDbText
  0
TEXT
  5
7F94
330
8171
100
AcDbEntity
  8
4
100
AcDbText
 10
3672.423898123224
 20
6765.15270373827
 30
0.0
 40
140.0
  1
No.
100
AcDbText
  0
TEXT
  5
7F95
330
8171
100
AcDbEntity
  8
4
100
AcDbText
 10
3278.240156500032
 20
5958.572103331289
 30
0.0
 40
135.0
  1
縮尺：1/25
100
AcDbText
  0
LINE
  5
7F96
330
8171
100
AcDbEntity
  8
4
100
AcDbLine
 10
4625.0
 20
6673.521885662011
 30
0.0
 11
4625.0
 21
6173.521885662012
 31
0.0
  0
LINE
  5
7F97
330
8171
100
AcDbEntity
  8
4
100
AcDbLine
 10
5250.0
 20
7375.0
 30
0.0
 11
5250.0
 21
7375.0
 31
0.0
  0
LINE
  5
7F98
330
8171
100
AcDbEntity
  8
4
100
AcDbLine
 10
3601.543555899662
 20
6703.158957813504
 30
0.0
 11
3601.543555899662
 21
6966.630653874381
 31
0.0
  0
LINE
  5
7F99
330
8171
100
AcDbEntity
  8
4
100
AcDbLine
 10
3601.543555899662
 20
6966.630653874381
 30
0.0
 11
4625.0
 21
6966.630653874381
 31
0.0
  0
LINE
  5
7F9A
330
8171
100
AcDbEntity
  8
4
100
AcDbLine
 10
4625.0
 20
6966.630653874381
 30
0.0
 11
4625.0
 21
6703.158957813504
 31
0.0
  0
LINE
  5
7F9B
330
8171
100
AcDbEntity
  8
4
100
AcDbLine
 10
4625.0
 20
6703.158957813504
 30
0.0
 11
3601.543555899662
 21
6703.158957813504
 31
0.0
  0
LINE
  5
7F9C
330
8171
100
AcDbEntity
  8
4
100
AcDbLine
 10
0.0
 20
0.0
 30
0.0
 11
0.0
 21
7375.0
 31
0.0
  0
LINE
  5
7F9D
330
8171
100
AcDbEntity
  8
4
100
AcDbLine
 10
0.0
 20
7375.0
 30
0.0
 11
5250.0
 21
7375.0
 31
0.0
  0
LINE
  5
7F9E
330
8171
100
AcDbEntity
  8
4
100
AcDbLine
 10
5250.0
 20
7375.0
 30
0.0
 11
5250.0
 21
0.0
 31
0.0
  0
LINE
  5
7F9F
330
8171
100
AcDbEntity
  8
4
100
AcDbLine
 10
5250.0
 20
0.0
 30
0.0
 11
0.0
 21
0.0
 31
0.0
  0
DIMENSION
  5
8031
330
8171
100
AcDbEntity
  8
3
100
AcDbDimension
  2
*D23
 10
1869.082261213754
 20
1552.588342708842
 30
0.0
 11
1644.082261213754
 21
1615.088342708842
 31
0.0
 71
     5
 42
-1.0
  3
Standard
100
AcDbAlignedDimension
 13
1419.082261213754
 23
1713.416563417289
 33
0.0
 14
1869.082261213754
 24
1713.416563417289
 34
0.0
100
AcDbRotatedDimension
1001
ACAD
1000
DSTYLE
1002
{
1070
   172
1070
     1
1070
    40
1040
25.0
1070
    42
1040
1.0
1070
   271
1070
     0
1070
   143
1040
0.039
1002
}
  0
DIMENSION
  5
803E
330
8171
100
AcDbEntity
  8
3
100
AcDbDimension
  2
*D24
 10
3019.082261213755
 20
1552.588342708842
 30
0.0
 11
2444.082261213754
 21
1615.088342708842
 31
0.0
 71
     5
 42
-1.0
  3
Standard
100
AcDbAlignedDimension
 13
1869.082261213754
 23
1713.416563417289
 33
0.0
 14
3019.082261213755
 24
1713.416563417289
 34
0.0
100
AcDbRotatedDimension
1001
ACAD
1000
DSTYLE
1002
{
1070
   172
1070
     1
1070
    40
1040
25.0
1070
    42
1040
1.0
1070
   271
1070
     0
1070
   143
1040
0.039
1002
}
  0
DIMENSION
  5
804B
330
8171
100
AcDbEntity
  8
3
100
AcDbDimension
  2
*D25
 10
4068.091456407329
 20
1552.588342708842
 30
0.0
 11
3742.091456407329
 21
1615.088342708842
 31
0.0
 71
     5
 42
-1.0
  3
Standard
100
AcDbAlignedDimension
 13
3416.091456407331
 23
1713.416563417289
 33
0.0
 14
4068.091456407329
 24
1713.416563417289
 34
0.0
100
AcDbRotatedDimension
1001
ACAD
1000
DSTYLE
1002
{
1070
   172
1070
     1
1070
    40
1040
25.0
1070
    42
1040
1.0
1070
   271
1070
     0
1070
   143
1040
0.039
1002
}
  0
DIMENSION
  5
8058
330
8171
100
AcDbEntity
  8
3
100
AcDbDimension
  2
*D26
 10
4571.091456407331
 20
1552.588342708842
 30
0.0
 11
4319.591456407329
 21
1615.088342708842
 31
0.0
 71
     5
 42
-1.0
  3
Standard
100
AcDbAlignedDimension
 13
4068.091456407329
 23
1713.416563417289
 33
0.0
 14
4571.091456407331
 24
1713.416563417289
 34
0.0
100
AcDbRotatedDimension
1001
ACAD
1000
DSTYLE
1002
{
1070
   172
1070
     1
1070
    40
1040
25.0
1070
    42
1040
1.0
1070
   271
1070
     0
1070
   143
1040
0.039
1002
}
  0
DIMENSION
  5
8067
330
8171
100
AcDbEntity
  8
3
100
AcDbDimension
  2
*D28
 10
900.3940768132125
 20
1840.416563417289
 30
0.0
 11
780.7512196703553
 21
1826.916563417289
 31
0.0
 71
     5
 42
-1.0
  3
Standard
100
AcDbAlignedDimension
 13
1419.082261213754
 23
1813.416563417289
 33
0.0
 14
1419.082261213754
 24
1840.416563417289
 34
0.0
 50
90.0
100
AcDbRotatedDimension
1001
ACAD
1000
DSTYLE
1002
{
1070
   172
1070
     1
1070
    76
1070
     1
1070
    75
1070
     1
1070
    40
1040
25.0
1070
     3
1000
(<>)
1070
    42
1040
1.0
1070
   271
1070
     0
1070
     7
1000
_NONE
1070
     6
1000
_NONE
1070
   143
1040
0.039
1002
}
  0
LINE
  5
8243
330
8171
100
AcDbEntity
  8
1
100
AcDbLine
 10
1372.082261213754
 20
1951.775073040469
 30
0.0
 11
1898.991498369696
 21
2014.74241706144
 31
0.0
  0
ARC
  5
8244
330
8171
100
AcDbEntity
  8
1
100
AcDbCircle
 10
1816.082261213752
 20
2657.41656341729
 30
0.0
 40
648.0
100
AcDbArc
 50
277.3509360175294
 51
0.0
  0
ARC
  5
8245
330
8171
100
AcDbEntity
  8
1
100
AcDbCircle
 10
1922.082261213752
 20
2657.41656341729
 30
0.0
 40
541.9999999999998
100
AcDbArc
 50
0.0
 51
95.61169143310582
  0
ARC
  5
8246
330
8171
100
AcDbEntity
  8
1
100
AcDbCircle
 10
1910.082261213752
 20
2751.41656341729
 30
0.0
 40
448.0
100
AcDbArc
 50
95.25093431655038
 51
180.0
  0
ARC
  5
8247
330
8171
100
AcDbEntity
  8
1
100
AcDbCircle
 10
1828.082261213752
 20
2751.41656341729
 30
0.0
 40
366.0
100
AcDbArc
 50
180.0
 51
191.0261404812859
  0
LINE
  5
8248
330
8171
100
AcDbEntity
  8
1
100
AcDbLine
 10
1369.082261213752
 20
2681.41656341729
 30
0.0
 11
1468.838611304668
 21
2681.41656341729
 31
0.0
  0
LINE
  5
8249
330
8171
100
AcDbEntity
  8
1
100
AcDbLine
 10
1369.082261213754
 20
1909.416563417289
 30
0.0
 11
1369.082261213752
 21
2723.41656341729
 31
0.0
  0
LINE
  5
824A
330
8171
100
AcDbEntity
  8
1
100
AcDbLine
 10
1369.082261213754
 20
1909.416563417289
 30
0.0
 11
1372.082261213754
 21
1909.416563417289
 31
0.0
  0
LINE
  5
824B
330
8171
100
AcDbEntity
  8
1
100
AcDbLine
 10
1369.082261213752
 20
2723.41656341729
 30
0.0
 11
1372.082261213754
 21
2723.41656341729
 31
0.0
  0
LINE
  5
824C
330
8171
100
AcDbEntity
  8
1
100
AcDbLine
 10
1409.082261213754
 20
1954.865794989894
 30
0.0
 11
1409.082261213754
 21
2681.41656341729
 31
0.0
  0
LINE
  5
824D
330
8171
100
AcDbEntity
  8
1
100
AcDbLine
 10
1372.082261213754
 20
1909.416563417289
 30
0.0
 11
1372.082261213754
 21
2723.41656341729
 31
0.0
  0
POINT
  5
824E
330
8171
100
AcDbEntity
  8
1
100
AcDbPoint
 10
1408.899688749303
 20
2710.41656341729
 30
0.0
  0
LINE
  5
824F
330
8171
100
AcDbEntity
  8
1
100
AcDbLine
 10
1365.600455581261
 20
2710.41656341729
 30
0.0
 11
1349.927150164945
 21
2710.41656341729
 31
0.0
  0
CIRCLE
  5
8250
330
8171
100
AcDbEntity
  8
1
100
AcDbCircle
 10
1869.082261213754
 20
2710.41656341729
 30
0.0
 40
375.0
  0
CIRCLE
  5
8251
330
8171
100
AcDbEntity
  8
1
100
AcDbCircle
 10
1869.082261213754
 20
2710.41656341729
 30
0.0
 40
415.0
  0
DIMENSION
  5
8255
330
8171
100
AcDbEntity
  8
3
100
AcDbDimension
  2
*D31
 10
4068.091456407331
 20
3561.500525742424
 30
0.0
 11
3648.091456407332
 21
3643.643382885282
 31
0.0
 70
    32
  1
(<>)
 71
     5
 42
839.9999999999982
  3
IGA
100
AcDbAlignedDimension
 13
3228.091456407333
 23
2990.416563417289
 33
0.0
 14
4068.091456407331
 24
3490.863348091053
 34
0.0
100
AcDbRotatedDimension
1001
ACAD
1000
DSTYLE
1002
{
1070
    40
1040
25.0
1070
    42
1040
1.0
1070
   143
1040
0.039
1070
   172
1070
     1
1070
   271
1070
     4
1070
   272
1070
     4
1070
   279
1070
     0
1070
   284
1070
     0
1070
   285
1070
     0
1070
   286
1070
     0
1070
   341
1005
8185
1070
   343
1005
8185
1070
   344
1005
8185
1002
}
  0
DIMENSION
  5
8262
330
8171
100
AcDbEntity
  8
3
100
AcDbDimension
  2
*D32
 10
4628.091456407331
 20
3561.500525742424
 30
0.0
 11
4348.09145640733
 21
3643.643382885282
 31
0.0
 70
    32
  1
(<>)
 71
     5
 42
560.0
  3
IGA
100
AcDbAlignedDimension
 13
4068.091456407331
 23
3490.863348091053
 33
0.0
 14
4628.091456407331
 24
2685.21656341729
 34
0.0
100
AcDbRotatedDimension
1001
ACAD
1000
DSTYLE
1002
{
1070
    40
1040
25.0
1070
    42
1040
1.0
1070
   143
1040
0.039
1070
   172
1070
     1
1070
   271
1070
     4
1070
   272
1070
     4
1070
   279
1070
     1
1070
   284
1070
     0
1070
   285
1070
     0
1070
   286
1070
     0
1070
   341
1005
8185
1070
   343
1005
8185
1070
   344
1005
8185
1002
}
  0
DIMENSION
  5
82BA
330
8171
100
AcDbEntity
  8
3
100
AcDbDimension
  2
*D33
 10
3019.082261213755
 20
3761.218186420876
 30
0.0
 11
2219.082261213754
 21
3823.718186420876
 31
0.0
 70
    32
 71
     5
 42
1600.0
  3
IGA
100
AcDbAlignedDimension
 13
1419.082261213754
 23
4103.532285537254
 33
0.0
 14
3019.082261213755
 24
4103.532285537256
 34
0.0
100
AcDbRotatedDimension
1001
ACAD
1000
DSTYLE
1002
{
1070
    40
1040
25.0
1070
    42
1040
1.0
1070
   143
1040
0.039
1070
   172
1070
     1
1070
   271
1070
     4
1070
   272
1070
     4
1070
   279
1070
     0
1070
   284
1070
     0
1070
   285
1070
     0
1070
   286
1070
     0
1070
   341
1005
8185
1070
   343
1005
8185
1070
   344
1005
8185
1002
}
  0
DIMENSION
  5
82C7
330
8171
100
AcDbEntity
  8
3
100
AcDbDimension
  2
*D34
 10
2464.082261213752
 20
3370.305010010289
 30
0.0
 11
2166.582261213753
 21
3432.805010010289
 31
0.0
 70
    32
 71
     5
 42
594.9999999999981
  3
IGA
100
AcDbAlignedDimension
 13
1869.082261213754
 23
3278.01209417829
 33
0.0
 14
2464.082261213752
 24
2657.41656341729
 34
0.0
100
AcDbRotatedDimension
1001
ACAD
1000
DSTYLE
1002
{
1070
    40
1040
25.0
1070
    42
1040
1.0
1070
   143
1040
0.039
1070
   172
1070
     1
1070
   271
1070
     4
1070
   272
1070
     4
1070
   279
1070
     0
1070
   284
1070
     0
1070
   285
1070
     0
1070
   286
1070
     0
1070
   341
1005
8185
1070
   343
1005
8185
1070
   344
1005
8185
1002
}
  0
DIMENSION
  5
82DD
330
8171
100
AcDbEntity
  8
3
100
AcDbDimension
  2
*D35
 10
902.6220320738413
 20
3199.41656341729
 30
0.0
 11
840.1220320738408
 21
2954.91656341729
 31
0.0
 70
    32
 71
     5
 42
489.0
  3
IGA
100
AcDbAlignedDimension
 13
1246.816422408324
 23
2710.41656341729
 33
0.0
 14
1922.082261213752
 24
3199.41656341729
 34
0.0
 50
90.0
100
AcDbRotatedDimension
1001
ACAD
1000
DSTYLE
1002
{
1070
    40
1040
25.0
1070
    42
1040
1.0
1070
   143
1040
0.039
1070
   172
1070
     1
1070
   271
1070
     4
1070
   272
1070
     4
1070
   279
1070
     0
1070
   284
1070
     0
1070
   285
1070
     0
1070
   286
1070
     0
1070
   341
1005
8185
1070
   343
1005
8185
1070
   344
1005
8185
1002
}
  0
DIMENSION
  5
82F3
330
8171
100
AcDbEntity
  8
3
100
AcDbDimension
  2
*D36
 10
640.0596512207413
 20
3199.41656341729
 30
0.0
 11
557.9167940778837
 21
2456.41656341729
 31
0.0
 70
    32
  1
(<>)
 71
     5
 42
1486.000000000001
  3
IGA
100
AcDbAlignedDimension
 13
1419.082261213754
 23
1713.416563417289
 33
0.0
 14
1922.082261213752
 24
3199.41656341729
 34
0.0
 50
90.0
100
AcDbRotatedDimension
1001
ACAD
1000
DSTYLE
1002
{
1070
    40
1040
25.0
1070
    42
1040
1.0
1070
   143
1040
0.039
1070
   172
1070
     1
1070
   271
1070
     4
1070
   272
1070
     4
1070
   279
1070
     0
1070
   284
1070
     0
1070
   285
1070
     0
1070
   286
1070
     0
1070
   341
1005
8185
1070
   343
1005
8185
1070
   344
1005
8185
1002
}
  0
DIMENSION
  5
8312
330
8171
100
AcDbEntity
  8
3
100
AcDbDimension
  2
*D37
 10
900.3940768132125
 20
1840.416563417289
 30
0.0
 11
837.8940768132121
 21
2275.41656341729
 31
0.0
 70
    32
 71
     5
 42
870.0000000000009
  3
IGA
100
AcDbAlignedDimension
 13
1246.816422408324
 23
2710.41656341729
 33
0.0
 14
1419.082261213754
 24
1840.416563417289
 34
0.0
 50
90.0
100
AcDbRotatedDimension
1001
ACAD
1000
DSTYLE
1002
{
1070
    40
1040
25.0
1070
    42
1040
1.0
1070
   143
1040
0.039
1070
   172
1070
     1
1070
   271
1070
     4
1070
   272
1070
     4
1070
   279
1070
     0
1070
   284
1070
     0
1070
   285
1070
     0
1070
   286
1070
     0
1070
   341
1005
8185
1070
   343
1005
8185
1070
   344
1005
8185
1002
}
  0
ENDSEC
  0
SECTION
  2
OBJECTS
  0
DICTIONARY
  5
810E
330
0
100
AcDbDictionary
281
     1
  3
ACAD_CIP_PREVIOUS_PRODUCT_INFO
350
81BD
  3
ACAD_COLOR
350
8164
  3
ACAD_DETAILVIEWSTYLE
350
816B
  3
ACAD_GROUP
350
810F
  3
ACAD_LAYOUT
350
8163
  3
ACAD_MATERIAL
350
8112
  3
ACAD_MLEADERSTYLE
350
8167
  3
ACAD_MLINESTYLE
350
8160
  3
ACAD_PLOTSETTINGS
350
8162
  3
ACAD_PLOTSTYLENAME
350
8110
  3
ACAD_SCALELIST
350
8144
  3
ACAD_SECTIONVIEWSTYLE
350
8169
  3
ACAD_TABLESTYLE
350
8165
  3
ACAD_VISUALSTYLE
350
812B
  3
ACDB_RECOMPOSE_DATA
350
83AC
  3
AcDbVariableDictionary
350
81F5
  3
DWGPROPS
350
83AD
  0
DICTIONARY
  5
81BF
330
8104
100
AcDbDictionary
280
     1
281
     1
  3
ACAD_LAYERSTATES
360
81C0
  0
DICTIONARY
  5
81EB
330
8156
100
AcDbDictionary
280
     1
281
     1
  3
ADSK_XREC_LAYER_RECONCILED
360
81EC
  0
DICTIONARY
  5
81ED
330
8175
100
AcDbDictionary
280
     1
281
     1
  3
ADSK_XREC_LAYER_RECONCILED
360
81EE
  0
DICTIONARY
  5
81EF
330
8178
100
AcDbDictionary
280
     1
281
     1
  3
ADSK_XREC_LAYER_RECONCILED
360
81F0
  0
DICTIONARY
  5
81F1
330
8179
100
AcDbDictionary
280
     1
281
     1
  3
ADSK_XREC_LAYER_RECONCILED
360
81F2
  0
DICTIONARY
  5
81F3
330
817A
100
AcDbDictionary
280
     1
281
     1
  3
ADSK_XREC_LAYER_RECONCILED
360
81F4
  0
XRECORD
  5
81BD
102
{ACAD_REACTORS
330
810E
102
}
330
810E
100
AcDbXrecord
280
     1
300
ACDLT
300
2015
300
INVLTS_F_S
  0
DICTIONARY
  5
8164
102
{ACAD_REACTORS
330
810E
102
}
330
810E
100
AcDbDictionary
281
     1
  0
DICTIONARY
  5
816B
102
{ACAD_REACTORS
330
810E
102
}
330
810E
100
AcDbDictionary
281
     1
  3
Imperial24
350
816C
  0
DICTIONARY
  5
810F
102
{ACAD_REACTORS
330
810E
102
}
330
810E
100
AcDbDictionary
281
     1
  0
DICTIONARY
  5
8163
102
{ACAD_REACTORS
330
810E
102
}
330
810E
100
AcDbDictionary
281
     1
  3
Model
350
8174
  3
レイアウト1
350
8170
  0
DICTIONARY
  5
8112
102
{ACAD_REACTORS
330
810E
102
}
330
810E
100
AcDbDictionary
281
     1
  3
ByBlock
350
811B
  3
ByLayer
350
8113
  3
Global
350
8123
  0
DICTIONARY
  5
8167
102
{ACAD_REACTORS
330
810E
102
}
330
810E
100
AcDbDictionary
281
     1
  3
Standard
350
8168
  0
DICTIONARY
  5
8160
102
{ACAD_REACTORS
330
810E
102
}
330
810E
100
AcDbDictionary
281
     1
  3
Standard
350
8161
  0
DICTIONARY
  5
8162
102
{ACAD_REACTORS
330
810E
102
}
330
810E
100
AcDbDictionary
281
     1
  0
ACDBDICTIONARYWDFLT
  5
8110
102
{ACAD_REACTORS
330
810E
102
}
330
810E
100
AcDbDictionary
281
     1
  3
Normal
350
8111
100
AcDbDictionaryWithDefault
340
8111
  0
DICTIONARY
  5
8144
102
{ACAD_REACTORS
330
810E
102
}
330
810E
100
AcDbDictionary
281
     1
  3
A0
350
8145
  3
A1
350
8146
  3
A2
350
8147
  3
A3
350
8148
  3
A4
350
8149
  3
A5
350
814A
  3
A6
350
814B
  3
A7
350
814C
  3
A8
350
814D
  3
A9
350
814E
  3
B0
350
814F
  3
B1
350
8150
  3
B2
350
8151
  3
B3
350
8152
  3
B4
350
8153
  3
B5
350
8154
  3
B6
350
8155
  0
DICTIONARY
  5
8169
102
{ACAD_REACTORS
330
810E
102
}
330
810E
100
AcDbDictionary
281
     1
  3
Imperial24
350
816A
  0
DICTIONARY
  5
8165
102
{ACAD_REACTORS
330
810E
102
}
330
810E
100
AcDbDictionary
281
     1
  3
Standard
350
8166
  0
DICTIONARY
  5
812B
102
{ACAD_REACTORS
330
810E
102
}
330
810E
100
AcDbDictionary
281
     1
  3
2dWireframe
350
8131
  3
Basic
350
8130
  3
Brighten
350
8137
  3
ColorChange
350
813B
  3
Conceptual
350
8134
  3
Dim
350
8136
  3
EdgeColorOff
350
8143
  3
Facepattern
350
813A
  3
Flat
350
812C
  3
FlatWithEdges
350
812D
  3
Gouraud
350
812E
  3
GouraudWithEdges
350
812F
  3
Hidden
350
8133
  3
JitterOff
350
8141
  3
Linepattern
350
8139
  3
OverhangOff
350
8142
  3
Realistic
350
8135
  3
Shaded
350
8140
  3
Shaded with edges
350
813F
  3
Shades of Gray
350
813C
  3
Sketchy
350
813D
  3
Thicken
350
8138
  3
Wireframe
350
8132
  3
X-Ray
350
813E
  0
XRECORD
  5
83AC
102
{ACAD_REACTORS
330
810E
102
}
330
810E
100
AcDbXrecord
280
     1
 90
        1
330
8166
  0
DICTIONARY
  5
81F5
102
{ACAD_REACTORS
330
810E
102
}
330
810E
100
AcDbDictionary
281
     1
  3
CANNOSCALE
350
81FA
  3
CMLEADERSTYLE
350
81F7
  3
CTABLESTYLE
350
81F6
  3
CVIEWDETAILSTYLE
350
81F8
  3
CVIEWSECTIONSTYLE
350
81F9
  3
DIMASSOC
350
81FD
  3
INDEXCTL
350
81FC
  3
SORTENTS
350
81FB
  3
XCLIPFRAME
350
81FE
  0
XRECORD
  5
83AD
102
{ACAD_REACTORS
330
810E
102
}
330
810E
100
AcDbXrecord
280
     1
  1
DWGPROPS COOKIE
  2

  3

  4

  6

  7

  8
yasukiyo.ogawa
  9

300
=
301
=
302
=
303
=
304
=
305
=
306
=
307
=
308
=
309
=
 40
0.0864431712962963
 41
2451387.599927431
 42
2460263.706624236
  1

 90
        0
  0
DICTIONARY
  5
81C0
102
{ACAD_REACTORS
330
81BF
102
}
330
81BF
100
AcDbDictionary
281
     1
  0
XRECORD
  5
81EC
102
{ACAD_REACTORS
330
81EB
102
}
330
81EB
100
AcDbXrecord
280
     1
290
     1
  0
XRECORD
  5
81EE
102
{ACAD_REACTORS
330
81ED
102
}
330
81ED
100
AcDbXrecord
280
     1
290
     1
  0
XRECORD
  5
81F0
102
{ACAD_REACTORS
330
81EF
102
}
330
81EF
100
AcDbXrecord
280
     1
290
     1
  0
XRECORD
  5
81F2
102
{ACAD_REACTORS
330
81F1
102
}
330
81F1
100
AcDbXrecord
280
     1
290
     1
  0
XRECORD
  5
81F4
102
{ACAD_REACTORS
330
81F3
102
}
330
81F3
100
AcDbXrecord
280
     1
290
     1
  0
ACDBDETAILVIEWSTYLE
  5
816C
102
{ACAD_XDICTIONARY
360
83E5
102
}
102
{ACAD_REACTORS
330
816B
102
}
330
816B
100
AcDbModelDocViewStyle
 70
     0
  3
Imperial24
290
     0
100
AcDbDetailViewStyle
 70
     0
 71
     0
 90
        3
 71
     1
340
8157
 40
0.24
340
0
 40
0.24
300

 40
0.36
280
     3
 71
     2
340
815E
 90
       25
 71
     3
340
8157
 40
0.24
 90
        1
 40
0.75
 90
        1
300
%<\AcVar ViewType \f "%tc1">% %<\AcVar ViewDetailId>%\PSCALE %<\AcVar ViewScale \f "%sn">%
 71
     4
340
815E
 90
       25
340
815E
 90
       25
280
     0
  0
LAYOUT
  5
8174
102
{ACAD_XDICTIONARY
360
83E9
102
}
102
{ACAD_REACTORS
330
8163
102
}
330
8163
100
AcDbPlotSettings
  1

  2
RICOH imagio MP W3600 RPCS
  4

  6

 40
0.0
 41
0.0
 42
0.0
 43
0.0
 44
0.0
 45
0.0
 46
0.0
 47
0.0
 48
0.0
 49
0.0
140
0.0
141
0.0
142
1.0
143
1.0
 70
  1712
 72
     0
 73
     0
 74
     0
  7

 75
     0
147
1.0
148
0.0
149
0.0
100
AcDbLayout
  1
Model
 70
     1
 71
     0
 10
0.0
 20
0.0
 11
12.0
 21
9.0
 12
0.0
 22
0.0
 32
0.0
 14
0.0
 24
0.0
 34
0.0
 15
0.0
 25
0.0
 35
0.0
146
0.0
 13
0.0
 23
0.0
 33
0.0
 16
1.0
 26
0.0
 36
0.0
 17
0.0
 27
1.0
 37
0.0
 76
     0
330
8171
331
8176
  0
LAYOUT
  5
8170
102
{ACAD_XDICTIONARY
360
83E7
102
}
102
{ACAD_REACTORS
330
8163
102
}
330
8163
100
AcDbPlotSettings
  1

  2
RICOH imagio MP W3600 RPCS
  4

  6

 40
0.0
 41
0.0
 42
0.0
 43
0.0
 44
0.0
 45
0.0
 46
0.0
 47
0.0
 48
0.0
 49
0.0
140
0.0
141
0.0
142
1.0
143
1.0
 70
   688
 72
     0
 73
     0
 74
     5
  7

 75
    16
147
1.0
148
0.0
149
0.0
100
AcDbLayout
  1
レイアウト1
 70
     1
 71
     1
 10
0.0
 20
0.0
 11
12.0
 21
9.0
 12
0.0
 22
0.0
 32
0.0
 14
1.000000000000000E+20
 24
1.000000000000000E+20
 34
1.000000000000000E+20
 15
-1.000000000000000E+20
 25
-1.000000000000000E+20
 35
-1.000000000000000E+20
146
0.0
 13
0.0
 23
0.0
 33
0.0
 16
1.0
 26
0.0
 36
0.0
 17
0.0
 27
1.0
 37
0.0
 76
     0
330
816D
  0
MATERIAL
  5
811B
102
{ACAD_XDICTIONARY
360
811C
102
}
102
{ACAD_REACTORS
330
8112
102
}
330
8112
100
AcDbMaterial
  1
ByBlock
 72
     0
 43
0.0208333333333333
 43
0.0
 43
0.0
 43
0.0
 43
0.0
 43
0.0208333333333333
 43
0.0
 43
0.0
 43
0.0
 43
0.0
 43
1.0
 43
0.0
 43
0.0
 43
0.0
 43
0.0
 43
1.0
 77
     0
 47
0.0208333333333333
 47
0.0
 47
0.0
 47
0.0
 47
0.0
 47
0.0208333333333333
 47
0.0
 47
0.0
 47
0.0
 47
0.0
 47
1.0
 47
0.0
 47
0.0
 47
0.0
 47
0.0
 47
1.0
171
     0
 49
0.0208333333333333
 49
0.0
 49
0.0
 49
0.0
 49
0.0
 49
0.0208333333333333
 49
0.0
 49
0.0
 49
0.0
 49
0.0
 49
1.0
 49
0.0
 49
0.0
 49
0.0
 49
0.0
 49
1.0
175
     0
142
0.0208333333333333
142
0.0
142
0.0
142
0.0
142
0.0
142
0.0208333333333333
142
0.0
142
0.0
142
0.0
142
0.0
142
1.0
142
0.0
142
0.0
142
0.0
142
0.0
142
1.0
179
     0
144
0.0208333333333333
144
0.0
144
0.0
144
0.0
144
0.0
144
0.0208333333333333
144
0.0
144
0.0
144
0.0
144
0.0
144
1.0
144
0.0
144
0.0
144
0.0
144
0.0
144
1.0
147
0.0208333333333333
147
0.0
147
0.0
147
0.0
147
0.0
147
0.0208333333333333
147
0.0
147
0.0
147
0.0
147
0.0
147
1.0
147
0.0
147
0.0
147
0.0
147
0.0
147
1.0
  0
MATERIAL
  5
8113
102
{ACAD_XDICTIONARY
360
8114
102
}
102
{ACAD_REACTORS
330
8112
102
}
330
8112
100
AcDbMaterial
  1
ByLayer
 72
     0
 43
0.0208333333333333
 43
0.0
 43
0.0
 43
0.0
 43
0.0
 43
0.0208333333333333
 43
0.0
 43
0.0
 43
0.0
 43
0.0
 43
1.0
 43
0.0
 43
0.0
 43
0.0
 43
0.0
 43
1.0
 77
     0
 47
0.0208333333333333
 47
0.0
 47
0.0
 47
0.0
 47
0.0
 47
0.0208333333333333
 47
0.0
 47
0.0
 47
0.0
 47
0.0
 47
1.0
 47
0.0
 47
0.0
 47
0.0
 47
0.0
 47
1.0
171
     0
 49
0.0208333333333333
 49
0.0
 49
0.0
 49
0.0
 49
0.0
 49
0.0208333333333333
 49
0.0
 49
0.0
 49
0.0
 49
0.0
 49
1.0
 49
0.0
 49
0.0
 49
0.0
 49
0.0
 49
1.0
175
     0
142
0.0208333333333333
142
0.0
142
0.0
142
0.0
142
0.0
142
0.0208333333333333
142
0.0
142
0.0
142
0.0
142
0.0
142
1.0
142
0.0
142
0.0
142
0.0
142
0.0
142
1.0
179
     0
144
0.0208333333333333
144
0.0
144
0.0
144
0.0
144
0.0
144
0.0208333333333333
144
0.0
144
0.0
144
0.0
144
0.0
144
1.0
144
0.0
144
0.0
144
0.0
144
0.0
144
1.0
147
0.0208333333333333
147
0.0
147
0.0
147
0.0
147
0.0
147
0.0208333333333333
147
0.0
147
0.0
147
0.0
147
0.0
147
1.0
147
0.0
147
0.0
147
0.0
147
0.0
147
1.0
  0
MATERIAL
  5
8123
102
{ACAD_XDICTIONARY
360
8124
102
}
102
{ACAD_REACTORS
330
8112
102
}
330
8112
100
AcDbMaterial
  1
Global
 72
     0
 43
0.0208333333333333
 43
0.0
 43
0.0
 43
0.0
 43
0.0
 43
0.0208333333333333
 43
0.0
 43
0.0
 43
0.0
 43
0.0
 43
1.0
 43
0.0
 43
0.0
 43
0.0
 43
0.0
 43
1.0
 77
     0
 47
0.0208333333333333
 47
0.0
 47
0.0
 47
0.0
 47
0.0
 47
0.0208333333333333
 47
0.0
 47
0.0
 47
0.0
 47
0.0
 47
1.0
 47
0.0
 47
0.0
 47
0.0
 47
0.0
 47
1.0
171
     0
 49
0.0208333333333333
 49
0.0
 49
0.0
 49
0.0
 49
0.0
 49
0.0208333333333333
 49
0.0
 49
0.0
 49
0.0
 49
0.0
 49
1.0
 49
0.0
 49
0.0
 49
0.0
 49
0.0
 49
1.0
175
     0
142
0.0208333333333333
142
0.0
142
0.0
142
0.0
142
0.0
142
0.0208333333333333
142
0.0
142
0.0
142
0.0
142
0.0
142
1.0
142
0.0
142
0.0
142
0.0
142
0.0
142
1.0
179
     0
144
0.0208333333333333
144
0.0
144
0.0
144
0.0
144
0.0
144
0.0208333333333333
144
0.0
144
0.0
144
0.0
144
0.0
144
1.0
144
0.0
144
0.0
144
0.0
144
0.0
144
1.0
147
0.0208333333333333
147
0.0
147
0.0
147
0.0
147
0.0
147
0.0208333333333333
147
0.0
147
0.0
147
0.0
147
0.0
147
1.0
147
0.0
147
0.0
147
0.0
147
0.0
147
1.0
  0
MLEADERSTYLE
  5
8168
102
{ACAD_REACTORS
330
8167
102
}
330
8167
100
AcDbMLeaderStyle
170
     2
171
     1
172
     0
 90
        2
 40
0.0
 41
0.0
173
     1
 91
-1056964608
340
815C
 92
       -2
290
     1
 42
0.09
291
     1
 43
0.36
  3
Standard
 44
0.18
300

342
8157
174
     1
178
     6
175
     1
176
     0
 93
-1056964608
 45
0.18
292
     0
297
     0
 46
0.18
 94
-1056964608
 47
1.0
 49
1.0
140
1.0
293
     1
141
0.0
294
     1
177
     0
142
1.0
295
     0
296
     0
143
0.125
1001
ACAD_MLEADERVER
1070
     2
  0
MLINESTYLE
  5
8161
102
{ACAD_REACTORS
330
8160
102
}
330
8160
100
AcDbMlineStyle
  2
STANDARD
 70
     0
  3

 62
   256
 51
90.0
 52
90.0
 71
     2
 49
0.5
 62
   256
  6
BYLAYER
 49
-0.5
 62
   256
  6
BYLAYER
  0
ACDBPLACEHOLDER
  5
8111
102
{ACAD_REACTORS
330
8110
102
}
330
8110
  0
SCALE
  5
8145
102
{ACAD_REACTORS
330
8144
102
}
330
8144
100
AcDbScale
 70
     0
300
1:1
140
1.0
141
1.0
290
     1
  0
SCALE
  5
8146
102
{ACAD_REACTORS
330
8144
102
}
330
8144
100
AcDbScale
 70
     0
300
1/128" = 1'-0"
140
0.0078125
141
12.0
290
     0
  0
SCALE
  5
8147
102
{ACAD_REACTORS
330
8144
102
}
330
8144
100
AcDbScale
 70
     0
300
1/64" = 1'-0"
140
0.015625
141
12.0
290
     0
  0
SCALE
  5
8148
102
{ACAD_REACTORS
330
8144
102
}
330
8144
100
AcDbScale
 70
     0
300
1/32" = 1'-0"
140
0.03125
141
12.0
290
     0
  0
SCALE
  5
8149
102
{ACAD_REACTORS
330
8144
102
}
330
8144
100
AcDbScale
 70
     0
300
1/16" = 1'-0"
140
0.0625
141
12.0
290
     0
  0
SCALE
  5
814A
102
{ACAD_REACTORS
330
8144
102
}
330
8144
100
AcDbScale
 70
     0
300
3/32" = 1'-0"
140
0.09375
141
12.0
290
     0
  0
SCALE
  5
814B
102
{ACAD_REACTORS
330
8144
102
}
330
8144
100
AcDbScale
 70
     0
300
1/8" = 1'-0"
140
0.125
141
12.0
290
     0
  0
SCALE
  5
814C
102
{ACAD_REACTORS
330
8144
102
}
330
8144
100
AcDbScale
 70
     0
300
3/16" = 1'-0"
140
0.1875
141
12.0
290
     0
  0
SCALE
  5
814D
102
{ACAD_REACTORS
330
8144
102
}
330
8144
100
AcDbScale
 70
     0
300
1/4" = 1'-0"
140
0.25
141
12.0
290
     0
  0
SCALE
  5
814E
102
{ACAD_REACTORS
330
8144
102
}
330
8144
100
AcDbScale
 70
     0
300
3/8" = 1'-0"
140
0.375
141
12.0
290
     0
  0
SCALE
  5
814F
102
{ACAD_REACTORS
330
8144
102
}
330
8144
100
AcDbScale
 70
     0
300
1/2" = 1'-0"
140
0.5
141
12.0
290
     0
  0
SCALE
  5
8150
102
{ACAD_REACTORS
330
8144
102
}
330
8144
100
AcDbScale
 70
     0
300
3/4" = 1'-0"
140
0.75
141
12.0
290
     0
  0
SCALE
  5
8151
102
{ACAD_REACTORS
330
8144
102
}
330
8144
100
AcDbScale
 70
     0
300
1" = 1'-0"
140
1.0
141
12.0
290
     0
  0
SCALE
  5
8152
102
{ACAD_REACTORS
330
8144
102
}
330
8144
100
AcDbScale
 70
     0
300
1-1/2" = 1'-0"
140
1.5
141
12.0
290
     0
  0
SCALE
  5
8153
102
{ACAD_REACTORS
330
8144
102
}
330
8144
100
AcDbScale
 70
     0
300
3" = 1'-0"
140
3.0
141
12.0
290
     0
  0
SCALE
  5
8154
102
{ACAD_REACTORS
330
8144
102
}
330
8144
100
AcDbScale
 70
     0
300
6" = 1'-0"
140
6.0
141
12.0
290
     0
  0
SCALE
  5
8155
102
{ACAD_REACTORS
330
8144
102
}
330
8144
100
AcDbScale
 70
     0
300
1'-0" = 1'-0"
140
12.0
141
12.0
290
     0
  0
ACDBSECTIONVIEWSTYLE
  5
816A
102
{ACAD_XDICTIONARY
360
83E3
102
}
102
{ACAD_REACTORS
330
8169
102
}
330
8169
100
AcDbModelDocViewStyle
 70
     0
  3
Imperial24
290
     0
100
AcDbSectionViewStyle
 70
     0
 71
     0
 90
       78
 71
     1
340
8157
 40
0.24
340
0
340
0
 40
0.24
300
I, O, Q, S, X, Z
 40
0.48
 90
        3
 40
0.18
 90
        1
 71
     2
340
815E
 90
       25
340
815E
 90
       50
 40
0.24
 40
0.0
 40
0.24
 71
     3
340
8157
 40
0.24
 90
        1
 40
0.75
 90
        1
300
%<\AcVar ViewType \f "%tc1">% %<\AcVar ViewSectionStartId>%-%<\AcVar ViewSectionEndId>%\PSCALE %<\AcVar ViewScale \f "%sn">%
 71
     4
300
ANSI31
 40
1.0
 90
        0
290
     0
290
     0
 90
        6
 40
0.0
 40
1.570796326794896
 40
0.2617993877991494
 40
1.308996938995747
 40
-0.2617993877991494
 40
1.832595714594046
  0
TABLESTYLE
  5
8166
102
{ACAD_XDICTIONARY
360
83AA
102
}
102
{ACAD_REACTORS
330
8165
102
}
330
8165
100
AcDbTableStyle
  3
Standard
 70
     0
 71
     0
 40
0.06
 41
0.06
280
     0
281
     0
  7
STANDARD
140
0.18
170
     2
 62
     0
 63
     7
283
     0
274
    -2
284
     1
 64
     0
275
    -2
285
     1
 65
     0
276
    -2
286
     1
 66
     0
277
    -2
287
     1
 67
     0
278
    -2
288
     1
 68
     0
279
    -2
289
     1
 69
     0
  7
STANDARD
140
0.25
170
     5
 62
     0
 63
     7
283
     0
274
    -2
284
     1
 64
     0
275
    -2
285
     1
 65
     0
276
    -2
286
     1
 66
     0
277
    -2
287
     1
 67
     0
278
    -2
288
     1
 68
     0
279
    -2
289
     1
 69
     0
  7
STANDARD
140
0.18
170
     5
 62
     0
 63
     7
283
     0
274
    -2
284
     1
 64
     0
275
    -2
285
     1
 65
     0
276
    -2
286
     1
 66
     0
277
    -2
287
     1
 67
     0
278
    -2
288
     1
 68
     0
279
    -2
289
     1
 69
     0
  0
VISUALSTYLE
  5
8131
102
{ACAD_XDICTIONARY
360
83BB
102
}
102
{ACAD_REACTORS
330
812B
102
}
330
812B
100
AcDbVisualStyle
  2
2dWireframe
 70
     4
 71
     0
 72
     2
 73
     0
 90
        0
 40
-0.6
 41
-30.0
 62
     5
 63
     7
 74
     1
 91
        4
 64
     7
 65
   257
 75
     1
175
     1
 42
1.0
 92
        0
 66
   257
 43
1.0
 76
     1
 77
     6
 78
     2
 67
     7
 79
     5
170
     0
171
     0
290
     0
174
     0
 93
        1
 44
0.0
173
     0
291
     0
 45
0.0
1001
ACAD
1000
AcDbSavedByObjectVersion
1070
     0
  0
VISUALSTYLE
  5
8130
102
{ACAD_XDICTIONARY
360
83B9
102
}
102
{ACAD_REACTORS
330
812B
102
}
330
812B
100
AcDbVisualStyle
  2
Basic
 70
     7
 71
     1
 72
     0
 73
     1
 90
        0
 40
-0.6
 41
-30.0
 62
     5
 63
     7
 74
     0
 91
        4
 64
     7
 65
   257
 75
     1
175
     1
 42
1.0
 92
        8
 66
     7
 43
1.0
 76
     1
 77
     6
 78
     2
 67
     7
 79
     5
170
     0
171
     0
290
     0
174
     0
 93
        1
 44
0.0
173
     0
291
     1
 45
0.0
1001
ACAD
1000
AcDbSavedByObjectVersion
1070
     0
  0
VISUALSTYLE
  5
8137
102
{ACAD_XDICTIONARY
360
83C7
102
}
102
{ACAD_REACTORS
330
812B
102
}
330
812B
100
AcDbVisualStyle
  2
Brighten
 70
    12
 71
     2
 72
     2
 73
     0
 90
        0
 40
-0.6
 41
-30.0
 62
     5
 63
     7
 74
     1
 91
        4
 64
     7
 65
   257
 75
     1
175
     1
 42
1.0
 92
        8
 66
     7
 43
1.0
 76
     1
 77
     6
 78
     2
 67
     7
 79
     5
170
     0
171
     0
290
     0
174
     0
 93
        1
 44
50.0
173
     0
291
     1
 45
0.0
1001
ACAD
1000
AcDbSavedByObjectVersion
1070
     0
  0
VISUALSTYLE
  5
813B
102
{ACAD_XDICTIONARY
360
83CF
102
}
102
{ACAD_REACTORS
330
812B
102
}
330
812B
100
AcDbVisualStyle
  2
ColorChange
 70
    16
 71
     2
 72
     2
 73
     3
 90
        0
 40
-0.6
 41
-30.0
 62
     5
 63
     8
 74
     1
 91
        4
 64
     7
 65
   257
 75
     1
175
     1
 42
1.0
 92
        8
 66
     8
 43
1.0
 76
     1
 77
     6
 78
     2
 67
     7
 79
     5
170
     0
171
     0
290
     0
174
     0
 93
        1
 44
0.0
173
     0
291
     1
 45
0.0
1001
ACAD
1000
AcDbSavedByObjectVersion
1070
     0
  0
VISUALSTYLE
  5
8134
102
{ACAD_XDICTIONARY
360
83C1
102
}
102
{ACAD_REACTORS
330
812B
102
}
330
812B
100
AcDbVisualStyle
  2
Conceptual
 70
     9
 71
     3
 72
     2
 73
     0
 90
        0
 40
-0.6
 41
-30.0
 62
     5
 63
     7
 74
     2
 91
        2
 64
     7
 65
   257
 75
     1
175
     1
 42
179.0
 92
        8
 66
     7
 43
1.0
 76
     1
 77
     6
 78
     2
 67
     7
 79
     3
170
     0
171
     0
290
     0
174
     0
 93
        1
 44
0.0
173
     0
291
     0
 45
0.0
1001
ACAD
1000
AcDbSavedByObjectVersion
1070
     0
  0
VISUALSTYLE
  5
8136
102
{ACAD_XDICTIONARY
360
83C5
102
}
102
{ACAD_REACTORS
330
812B
102
}
330
812B
100
AcDbVisualStyle
  2
Dim
 70
    11
 71
     2
 72
     2
 73
     0
 90
        0
 40
-0.6
 41
-30.0
 62
     5
 63
     7
 74
     1
 91
        4
 64
     7
 65
   257
 75
     1
175
     1
 42
1.0
 92
        8
 66
     7
 43
1.0
 76
     1
 77
     6
 78
     2
 67
     7
 79
     5
170
     0
171
     0
290
     0
174
     0
 93
        1
 44
-50.0
173
     0
291
     1
 45
0.0
1001
ACAD
1000
AcDbSavedByObjectVersion
1070
     0
  0
VISUALSTYLE
  5
8143
102
{ACAD_XDICTIONARY
360
83DF
102
}
102
{ACAD_REACTORS
330
812B
102
}
330
812B
100
AcDbVisualStyle
  2
EdgeColorOff
 70
    22
 71
     2
 72
     2
 73
     0
 90
        0
 40
-0.6
 41
-30.0
 62
     5
 63
     7
 74
     1
 91
        4
 64
     7
 65
   257
 75
     1
175
     1
 42
1.0
 92
        8
 66
     7
 43
1.0
 76
     1
 77
     6
 78
     2
 67
     7
 79
     5
170
     0
171
     0
290
     0
174
     0
 93
        1
 44
0.0
173
     0
291
     1
 45
0.0
1001
ACAD
1000
AcDbSavedByObjectVersion
1070
     0
  0
VISUALSTYLE
  5
813A
102
{ACAD_XDICTIONARY
360
83CD
102
}
102
{ACAD_REACTORS
330
812B
102
}
330
812B
100
AcDbVisualStyle
  2
Facepattern
 70
    15
 71
     2
 72
     2
 73
     0
 90
        0
 40
-0.6
 41
-30.0
 62
     5
 63
     7
 74
     1
 91
        4
 64
     7
 65
   257
 75
     1
175
     1
 42
1.0
 92
        8
 66
     7
 43
1.0
 76
     1
 77
     6
 78
     2
 67
     7
 79
     5
170
     0
171
     0
290
     0
174
     0
 93
        1
 44
0.0
173
     0
291
     1
 45
0.0
1001
ACAD
1000
AcDbSavedByObjectVersion
1070
     0
  0
VISUALSTYLE
  5
812C
102
{ACAD_XDICTIONARY
360
83B1
102
}
102
{ACAD_REACTORS
330
812B
102
}
330
812B
100
AcDbVisualStyle
  2
Flat
 70
     0
 71
     2
 72
     1
 73
     1
 90
        2
 40
-0.6
 41
30.0
 62
     5
 63
     7
 74
     0
 91
        0
 64
     7
 65
   257
 75
     1
175
     1
 42
1.0
 92
        8
 66
     7
 43
1.0
 76
     1
 77
     6
 78
     2
 67
     7
 79
     5
170
     0
171
     0
290
     0
174
     0
 93
       13
 44
0.0
173
     0
291
     1
 45
0.0
1001
ACAD
1000
AcDbSavedByObjectVersion
1070
     0
  0
VISUALSTYLE
  5
812D
102
{ACAD_XDICTIONARY
360
83B3
102
}
102
{ACAD_REACTORS
330
812B
102
}
330
812B
100
AcDbVisualStyle
  2
FlatWithEdges
 70
     1
 71
     2
 72
     1
 73
     1
 90
        2
 40
-0.6
 41
30.0
 62
     5
 63
     7
 74
     1
 91
        0
 64
     7
 65
   257
 75
     1
175
     1
 42
1.0
 92
        0
 66
   257
 43
1.0
 76
     1
 77
     6
 78
     2
 67
     7
 79
     5
170
     0
171
     0
290
     0
174
     0
 93
       13
 44
0.0
173
     0
291
     1
 45
0.0
1001
ACAD
1000
AcDbSavedByObjectVersion
1070
     0
  0
VISUALSTYLE
  5
812E
102
{ACAD_XDICTIONARY
360
83B5
102
}
102
{ACAD_REACTORS
330
812B
102
}
330
812B
100
AcDbVisualStyle
  2
Gouraud
 70
     2
 71
     2
 72
     2
 73
     1
 90
        2
 40
-0.6
 41
30.0
 62
     5
 63
     7
 74
     0
 91
        0
 64
     7
 65
   257
 75
     1
175
     1
 42
1.0
 92
        0
 66
     7
 43
1.0
 76
     1
 77
     6
 78
     2
 67
     7
 79
     5
170
     0
171
     0
290
     0
174
     0
 93
       13
 44
0.0
173
     0
291
     1
 45
0.0
1001
ACAD
1000
AcDbSavedByObjectVersion
1070
     0
  0
VISUALSTYLE
  5
812F
102
{ACAD_XDICTIONARY
360
83B7
102
}
102
{ACAD_REACTORS
330
812B
102
}
330
812B
100
AcDbVisualStyle
  2
GouraudWithEdges
 70
     3
 71
     2
 72
     2
 73
     1
 90
        2
 40
-0.6
 41
30.0
 62
     5
 63
     7
 74
     1
 91
        0
 64
     7
 65
   257
 75
     1
175
     1
 42
1.0
 92
        0
 66
   257
 43
1.0
 76
     1
 77
     6
 78
     2
 67
     7
 79
     5
170
     0
171
     0
290
     0
174
     0
 93
       13
 44
0.0
173
     0
291
     1
 45
0.0
1001
ACAD
1000
AcDbSavedByObjectVersion
1070
     0
  0
VISUALSTYLE
  5
8133
102
{ACAD_XDICTIONARY
360
83BF
102
}
102
{ACAD_REACTORS
330
812B
102
}
330
812B
100
AcDbVisualStyle
  2
Hidden
 70
     6
 71
     1
 72
     2
 73
     2
 90
        0
 40
-0.6
 41
-30.0
 62
     5
 63
     7
 74
     2
 91
        2
 64
     7
 65
   257
 75
     2
175
     1
 42
40.0
 92
        0
 66
   257
 43
1.0
 76
     1
 77
     6
 78
     2
 67
     7
 79
     3
170
     0
171
     0
290
     0
174
     0
 93
        1
 44
0.0
173
     0
291
     0
 45
0.0
1001
ACAD
1000
AcDbSavedByObjectVersion
1070
     0
  0
VISUALSTYLE
  5
8141
102
{ACAD_XDICTIONARY
360
83DB
102
}
102
{ACAD_REACTORS
330
812B
102
}
330
812B
100
AcDbVisualStyle
  2
JitterOff
 70
    20
 71
     2
 72
     2
 73
     0
 90
        0
 40
-0.6
 41
-30.0
 62
     5
 63
     7
 74
     1
 91
        4
 64
     7
 65
   257
 75
     1
175
     1
 42
1.0
 92
       10
 66
     7
 43
1.0
 76
     1
 77
     6
 78
     2
 67
     7
 79
     5
170
     0
171
     0
290
     0
174
     0
 93
        1
 44
0.0
173
     0
291
     1
 45
0.0
1001
ACAD
1000
AcDbSavedByObjectVersion
1070
     0
  0
VISUALSTYLE
  5
8139
102
{ACAD_XDICTIONARY
360
83CB
102
}
102
{ACAD_REACTORS
330
812B
102
}
330
812B
100
AcDbVisualStyle
  2
Linepattern
 70
    14
 71
     2
 72
     2
 73
     0
 90
        0
 40
-0.6
 41
-30.0
 62
     5
 63
     7
 74
     1
 91
        4
 64
     7
 65
   257
 75
     7
175
     7
 42
1.0
 92
        8
 66
     7
 43
1.0
 76
     1
 77
     6
 78
     2
 67
     7
 79
     5
170
     0
171
     0
290
     0
174
     0
 93
        1
 44
0.0
173
     0
291
     1
 45
0.0
1001
ACAD
1000
AcDbSavedByObjectVersion
1070
     0
  0
VISUALSTYLE
  5
8142
102
{ACAD_XDICTIONARY
360
83DD
102
}
102
{ACAD_REACTORS
330
812B
102
}
330
812B
100
AcDbVisualStyle
  2
OverhangOff
 70
    21
 71
     2
 72
     2
 73
     0
 90
        0
 40
-0.6
 41
-30.0
 62
     5
 63
     7
 74
     1
 91
        4
 64
     7
 65
   257
 75
     1
175
     1
 42
1.0
 92
        9
 66
     7
 43
1.0
 76
     1
 77
     6
 78
     2
 67
     7
 79
     5
170
     0
171
     0
290
     0
174
     0
 93
        1
 44
0.0
173
     0
291
     1
 45
0.0
1001
ACAD
1000
AcDbSavedByObjectVersion
1070
     0
  0
VISUALSTYLE
  5
8135
102
{ACAD_XDICTIONARY
360
83C3
102
}
102
{ACAD_REACTORS
330
812B
102
}
330
812B
100
AcDbVisualStyle
  2
Realistic
 70
     8
 71
     2
 72
     3
 73
     0
 90
        2
 40
-0.6
 41
30.0
 62
     5
 63
     7
 74
     0
 91
        0
 64
     7
 65
   257
 75
     1
175
     1
 42
1.0
 92
        8
 66
   257
 43
1.0
 76
     1
 77
     6
 78
     2
 67
     7
 79
     3
170
     0
171
     0
290
     0
174
     0
 93
       13
 44
0.0
173
     0
291
     0
 45
0.0
1001
ACAD
1000
AcDbSavedByObjectVersion
1070
     0
  0
VISUALSTYLE
  5
8140
102
{ACAD_XDICTIONARY
360
83D9
102
}
102
{ACAD_REACTORS
330
812B
102
}
330
812B
100
AcDbVisualStyle
  2
Shaded
 70
    27
 71
     2
 72
     2
 73
     1
 90
        2
 40
-0.6
 41
30.0
 62
     5
 63
     7
 74
     0
 91
        4
 64
     7
 65
   257
 75
     1
175
     1
 42
1.0
 92
        8
 66
   257
 43
1.0
 76
     1
 77
     6
 78
     2
 67
     8
 79
     3
170
     0
171
     0
290
     0
174
     0
 93
        5
 44
0.0
173
     0
291
     0
 45
0.0
1001
ACAD
1000
AcDbSavedByObjectVersion
1070
     0
  0
VISUALSTYLE
  5
813F
102
{ACAD_XDICTIONARY
360
83D7
102
}
102
{ACAD_REACTORS
330
812B
102
}
330
812B
100
AcDbVisualStyle
  2
Shaded with edges
 70
    26
 71
     2
 72
     2
 73
     1
 90
        2
 40
-0.6
 41
30.0
 62
     5
 63
     7
 74
     1
 91
       10
 64
     7
 65
   257
 75
     2
175
     1
 42
1.0
 92
        8
 66
   257
 43
1.0
 76
     1
 77
     6
 78
     2
 67
     7
 79
     3
170
     0
171
     0
290
     0
174
     0
 93
        5
 44
0.0
173
     0
291
     0
 45
0.0
1001
ACAD
1000
AcDbSavedByObjectVersion
1070
     0
  0
VISUALSTYLE
  5
813C
102
{ACAD_XDICTIONARY
360
83D1
102
}
102
{ACAD_REACTORS
330
812B
102
}
330
812B
100
AcDbVisualStyle
  2
Shades of Gray
 70
    23
 71
     2
 72
     2
 73
     3
 90
        0
 40
-0.6
 41
-30.0
 62
     5
 63
     7
 74
     2
 91
        2
 64
     7
 65
     7
 75
     1
175
     1
 42
40.0
 92
        8
 66
     7
 43
1.0
 76
     1
 77
     6
 78
     2
 67
     7
 79
     3
170
     0
171
     0
290
     0
174
     0
 93
        1
 44
0.0
173
     0
291
     0
 45
0.0
1001
ACAD
1000
AcDbSavedByObjectVersion
1070
     0
  0
VISUALSTYLE
  5
813D
102
{ACAD_XDICTIONARY
360
83D3
102
}
102
{ACAD_REACTORS
330
812B
102
}
330
812B
100
AcDbVisualStyle
  2
Sketchy
 70
    24
 71
     1
 72
     2
 73
     2
 90
        0
 40
-0.6
 41
-30.0
 62
     5
 63
     7
 74
     2
 91
        2
 64
     7
 65
     7
 75
     1
175
     1
 42
40.0
 92
       11
 66
     7
 43
1.0
 76
     1
 77
     6
 78
     2
 67
     7
 79
     6
170
     0
171
     0
290
     0
174
     0
 93
        1
 44
0.0
173
     0
291
     0
 45
0.0
1001
ACAD
1000
AcDbSavedByObjectVersion
1070
     0
  0
VISUALSTYLE
  5
8138
102
{ACAD_XDICTIONARY
360
83C9
102
}
102
{ACAD_REACTORS
330
812B
102
}
330
812B
100
AcDbVisualStyle
  2
Thicken
 70
    13
 71
     2
 72
     2
 73
     0
 90
        0
 40
-0.6
 41
-30.0
 62
     5
 63
     7
 74
     1
 91
        4
 64
     7
 65
   257
 75
     1
175
     1
 42
1.0
 92
       12
 66
     7
 43
1.0
 76
     1
 77
     6
 78
     2
 67
     7
 79
     5
170
     0
171
     0
290
     0
174
     0
 93
        1
 44
0.0
173
     0
291
     1
 45
0.0
1001
ACAD
1000
AcDbSavedByObjectVersion
1070
     0
  0
VISUALSTYLE
  5
8132
102
{ACAD_XDICTIONARY
360
83BD
102
}
102
{ACAD_REACTORS
330
812B
102
}
330
812B
100
AcDbVisualStyle
  2
Wireframe
 70
     5
 71
     0
 72
     2
 73
     0
 90
        0
 40
-0.6
 41
-30.0
 62
     5
 63
     7
 74
     1
 91
        4
 64
     7
 65
   257
 75
     1
175
     1
 42
1.0
 92
        0
 66
   257
 43
1.0
 76
     1
 77
     6
 78
     2
 67
     7
 79
     3
170
     0
171
     0
290
     0
174
     0
 93
        1
 44
0.0
173
     0
291
     0
 45
0.0
1001
ACAD
1000
AcDbSavedByObjectVersion
1070
     0
  0
VISUALSTYLE
  5
813E
102
{ACAD_XDICTIONARY
360
83D5
102
}
102
{ACAD_REACTORS
330
812B
102
}
330
812B
100
AcDbVisualStyle
  2
X-Ray
 70
    25
 71
     2
 72
     2
 73
     1
 90
        1
 40
0.5
 41
-30.0
 62
     5
 63
     7
 74
     1
 91
        0
 64
     7
 65
   257
 75
     1
175
     1
 42
1.0
 92
        8
 66
     7
 43
1.0
 76
     1
 77
     6
 78
     2
 67
     7
 79
     3
170
     0
171
     0
290
     0
174
     0
 93
       13
 44
0.0
173
     0
291
     0
 45
0.0
1001
ACAD
1000
AcDbSavedByObjectVersion
1070
     0
  0
DICTIONARYVAR
  5
81FA
102
{ACAD_REACTORS
330
81F5
102
}
330
81F5
100
DictionaryVariables
280
     0
  1
1:1
  0
DICTIONARYVAR
  5
81F7
102
{ACAD_REACTORS
330
81F5
102
}
330
81F5
100
DictionaryVariables
280
     0
  1
STANDARD
  0
DICTIONARYVAR
  5
81F6
102
{ACAD_REACTORS
330
81F5
102
}
330
81F5
100
DictionaryVariables
280
     0
  1
STANDARD
  0
DICTIONARYVAR
  5
81F8
102
{ACAD_REACTORS
330
81F5
102
}
330
81F5
100
DictionaryVariables
280
     0
  1
Imperial24
  0
DICTIONARYVAR
  5
81F9
102
{ACAD_REACTORS
330
81F5
102
}
330
81F5
100
DictionaryVariables
280
     0
  1
Imperial24
  0
DICTIONARYVAR
  5
81FD
102
{ACAD_REACTORS
330
81F5
102
}
330
81F5
100
DictionaryVariables
280
     0
  1
1
  0
DICTIONARYVAR
  5
81FC
102
{ACAD_REACTORS
330
81F5
102
}
330
81F5
100
DictionaryVariables
280
     0
  1
0
  0
DICTIONARYVAR
  5
81FB
102
{ACAD_REACTORS
330
81F5
102
}
330
81F5
100
DictionaryVariables
280
     0
  1
127
  0
DICTIONARYVAR
  5
81FE
102
{ACAD_REACTORS
330
81F5
102
}
330
81F5
100
DictionaryVariables
280
     0
  1
2
  0
DICTIONARY
  5
83E5
330
816C
100
AcDbDictionary
280
     1
281
     1
  3
ACAD_XREC_ROUNDTRIP
360
83E6
  0
DICTIONARY
  5
83E9
330
8174
100
AcDbDictionary
280
     1
281
     1
  3
ACAD_XREC_ROUNDTRIP
360
83EA
  0
DICTIONARY
  5
83E7
330
8170
100
AcDbDictionary
280
     1
281
     1
  3
ACAD_XREC_ROUNDTRIP
360
83E8
  0
DICTIONARY
  5
811C
330
811B
100
AcDbDictionary
280
     1
281
     1
  3
ACAD_XREC_ROUNDTRIP
360
83AF
  3
BUMPTILE
360
811E
  3
DIFFUSETILE
360
811D
  3
OPACITYTILE
360
8121
  3
REFLECTIONTILE
360
8120
  3
REFRACTIONTILE
360
8122
  3
SPECULARTILE
360
811F
  0
DICTIONARY
  5
8114
330
8113
100
AcDbDictionary
280
     1
281
     1
  3
ACAD_XREC_ROUNDTRIP
360
83AE
  3
BUMPTILE
360
8116
  3
DIFFUSETILE
360
8115
  3
OPACITYTILE
360
8119
  3
REFLECTIONTILE
360
8118
  3
REFRACTIONTILE
360
811A
  3
SPECULARTILE
360
8117
  0
DICTIONARY
  5
8124
330
8123
100
AcDbDictionary
280
     1
281
     1
  3
ACAD_XREC_ROUNDTRIP
360
83B0
  3
BUMPTILE
360
8126
  3
DIFFUSETILE
360
8125
  3
FBXASSET
360
8252
  3
OPACITYTILE
360
8129
  3
REFLECTIONTILE
360
8128
  3
REFRACTIONTILE
360
812A
  3
SPECULARTILE
360
8127
  0
DICTIONARY
  5
83E3
330
816A
100
AcDbDictionary
280
     1
281
     1
  3
ACAD_XREC_ROUNDTRIP
360
83E4
  0
DICTIONARY
  5
83AA
330
8166
100
AcDbDictionary
280
     1
281
     1
  3
ACAD_ROUNDTRIP_2008_TABLESTYLE_CELLSTYLEMAP
360
83AB
  3
ACAD_XREC_ROUNDTRIP
360
83E1
  0
DICTIONARY
  5
83BB
330
8131
100
AcDbDictionary
280
     1
281
     1
  3
ACAD_XREC_ROUNDTRIP
360
83BC
  0
DICTIONARY
  5
83B9
330
8130
100
AcDbDictionary
280
     1
281
     1
  3
ACAD_XREC_ROUNDTRIP
360
83BA
  0
DICTIONARY
  5
83C7
330
8137
100
AcDbDictionary
280
     1
281
     1
  3
ACAD_XREC_ROUNDTRIP
360
83C8
  0
DICTIONARY
  5
83CF
330
813B
100
AcDbDictionary
280
     1
281
     1
  3
ACAD_XREC_ROUNDTRIP
360
83D0
  0
DICTIONARY
  5
83C1
330
8134
100
AcDbDictionary
280
     1
281
     1
  3
ACAD_XREC_ROUNDTRIP
360
83C2
  0
DICTIONARY
  5
83C5
330
8136
100
AcDbDictionary
280
     1
281
     1
  3
ACAD_XREC_ROUNDTRIP
360
83C6
  0
DICTIONARY
  5
83DF
330
8143
100
AcDbDictionary
280
     1
281
     1
  3
ACAD_XREC_ROUNDTRIP
360
83E0
  0
DICTIONARY
  5
83CD
330
813A
100
AcDbDictionary
280
     1
281
     1
  3
ACAD_XREC_ROUNDTRIP
360
83CE
  0
DICTIONARY
  5
83B1
330
812C
100
AcDbDictionary
280
     1
281
     1
  3
ACAD_XREC_ROUNDTRIP
360
83B2
  0
DICTIONARY
  5
83B3
330
812D
100
AcDbDictionary
280
     1
281
     1
  3
ACAD_XREC_ROUNDTRIP
360
83B4
  0
DICTIONARY
  5
83B5
330
812E
100
AcDbDictionary
280
     1
281
     1
  3
ACAD_XREC_ROUNDTRIP
360
83B6
  0
DICTIONARY
  5
83B7
330
812F
100
AcDbDictionary
280
     1
281
     1
  3
ACAD_XREC_ROUNDTRIP
360
83B8
  0
DICTIONARY
  5
83BF
330
8133
100
AcDbDictionary
280
     1
281
     1
  3
ACAD_XREC_ROUNDTRIP
360
83C0
  0
DICTIONARY
  5
83DB
330
8141
100
AcDbDictionary
280
     1
281
     1
  3
ACAD_XREC_ROUNDTRIP
360
83DC
  0
DICTIONARY
  5
83CB
330
8139
100
AcDbDictionary
280
     1
281
     1
  3
ACAD_XREC_ROUNDTRIP
360
83CC
  0
DICTIONARY
  5
83DD
330
8142
100
AcDbDictionary
280
     1
281
     1
  3
ACAD_XREC_ROUNDTRIP
360
83DE
  0
DICTIONARY
  5
83C3
330
8135
100
AcDbDictionary
280
     1
281
     1
  3
ACAD_XREC_ROUNDTRIP
360
83C4
  0
DICTIONARY
  5
83D9
330
8140
100
AcDbDictionary
280
     1
281
     1
  3
ACAD_XREC_ROUNDTRIP
360
83DA
  0
DICTIONARY
  5
83D7
330
813F
100
AcDbDictionary
280
     1
281
     1
  3
ACAD_XREC_ROUNDTRIP
360
83D8
  0
DICTIONARY
  5
83D1
330
813C
100
AcDbDictionary
280
     1
281
     1
  3
ACAD_XREC_ROUNDTRIP
360
83D2
  0
DICTIONARY
  5
83D3
330
813D
100
AcDbDictionary
280
     1
281
     1
  3
ACAD_XREC_ROUNDTRIP
360
83D4
  0
DICTIONARY
  5
83C9
330
8138
100
AcDbDictionary
280
     1
281
     1
  3
ACAD_XREC_ROUNDTRIP
360
83CA
  0
DICTIONARY
  5
83BD
330
8132
100
AcDbDictionary
280
     1
281
     1
  3
ACAD_XREC_ROUNDTRIP
360
83BE
  0
DICTIONARY
  5
83D5
330
813E
100
AcDbDictionary
280
     1
281
     1
  3
ACAD_XREC_ROUNDTRIP
360
83D6
  0
XRECORD
  5
83E6
102
{ACAD_REACTORS
330
83E5
102
}
330
83E5
100
AcDbXrecord
280
     1
102
DISPLAYNAME
  1
Imperial24
102
FLAGS
 90
        0
  0
XRECORD
  5
83EA
102
{ACAD_REACTORS
330
83E9
102
}
330
83E9
100
AcDbXrecord
280
     1
102
SHADEPLOT
 70
     0
102
SHADEPLOTRESLEVEL
 70
     2
102
SHADEPLOTCUSTOMDPI
 70
   300
  0
XRECORD
  5
83E8
102
{ACAD_REACTORS
330
83E7
102
}
330
83E7
100
AcDbXrecord
280
     1
102
SHADEPLOT
 70
     0
102
SHADEPLOTRESLEVEL
 70
     2
102
SHADEPLOTCUSTOMDPI
 70
   300
  0
XRECORD
  5
83AF
102
{ACAD_REACTORS
330
811C
102
}
330
811C
100
AcDbXrecord
280
     1
102
MATERIAL
148
0.0
149
0.0
149
0.0
 93
        0
 94
      127
282
     0
 72
     0
 77
     0
171
     0
175
     0
179
     0
273
     0
  0
XRECORD
  5
811E
102
{ACAD_REACTORS
330
811C
102
}
330
811C
100
AcDbXrecord
280
     1
270
     1
271
     1
  0
XRECORD
  5
811D
102
{ACAD_REACTORS
330
811C
102
}
330
811C
100
AcDbXrecord
280
     1
270
     1
271
     1
  0
XRECORD
  5
8121
102
{ACAD_REACTORS
330
811C
102
}
330
811C
100
AcDbXrecord
280
     1
270
     1
271
     1
  0
XRECORD
  5
8120
102
{ACAD_REACTORS
330
811C
102
}
330
811C
100
AcDbXrecord
280
     1
270
     1
271
     1
  0
XRECORD
  5
8122
102
{ACAD_REACTORS
330
811C
102
}
330
811C
100
AcDbXrecord
280
     1
270
     1
271
     1
  0
XRECORD
  5
811F
102
{ACAD_REACTORS
330
811C
102
}
330
811C
100
AcDbXrecord
280
     1
270
     1
271
     1
  0
XRECORD
  5
83AE
102
{ACAD_REACTORS
330
8114
102
}
330
8114
100
AcDbXrecord
280
     1
102
MATERIAL
148
0.0
149
0.0
149
0.0
 93
        0
 94
      127
282
     0
 72
     0
 77
     0
171
     0
175
     0
179
     0
273
     0
  0
XRECORD
  5
8116
102
{ACAD_REACTORS
330
8114
102
}
330
8114
100
AcDbXrecord
280
     1
270
     1
271
     1
  0
XRECORD
  5
8115
102
{ACAD_REACTORS
330
8114
102
}
330
8114
100
AcDbXrecord
280
     1
270
     1
271
     1
  0
XRECORD
  5
8119
102
{ACAD_REACTORS
330
8114
102
}
330
8114
100
AcDbXrecord
280
     1
270
     1
271
     1
  0
XRECORD
  5
8118
102
{ACAD_REACTORS
330
8114
102
}
330
8114
100
AcDbXrecord
280
     1
270
     1
271
     1
  0
XRECORD
  5
811A
102
{ACAD_REACTORS
330
8114
102
}
330
8114
100
AcDbXrecord
280
     1
270
     1
271
     1
  0
XRECORD
  5
8117
102
{ACAD_REACTORS
330
8114
102
}
330
8114
100
AcDbXrecord
280
     1
270
     1
271
     1
  0
XRECORD
  5
83B0
102
{ACAD_REACTORS
330
8124
102
}
330
8124
100
AcDbXrecord
280
     1
102
MATERIAL
148
0.0
149
0.0
149
0.0
 93
        0
 94
      127
282
     0
 72
     0
 77
     0
171
     0
175
     0
179
     0
273
     0
  0
XRECORD
  5
8126
102
{ACAD_REACTORS
330
8124
102
}
330
8124
100
AcDbXrecord
280
     1
270
     1
271
     1
  0
XRECORD
  5
8125
102
{ACAD_REACTORS
330
8124
102
}
330
8124
100
AcDbXrecord
280
     1
270
     1
271
     1
  0
XRECORD
  5
8252
102
{ACAD_REACTORS
330
8124
102
}
330
8124
100
AcDbXrecord
280
     1
 70
     1
 90
1959938040
 71
     1
  1
04E50A27-3E30-465C-8068-1D917F63AAB3
311
504B03041400060808006D806E572F28053DBF000000200100004F00000042343435334245452D444333342D343831462D424632342D3546413739373241353342362F4173736574446174612F446566696E6974696F6E4974657261746F7250726F706572746965732E62696EEB606060F80F0540260323103700495E20ED
311
9E9A975A94991C9C9C919A9BC8C00612C9C94F4ACC6147C831019920AE4B6A5A62694E0948976F6671726A4E4E625E6A7E69B12042A9426E6209D0B8C41C3D90264E20860914834C48875806B2DF0F88414E02D189290556F689C5C5A925B6FA694915FA4EAEE666AECEC696BAC62E4E96BA26E6962EBA4EE64666BA06162E
311
2E4EAE26CE9646E64EFA45A9C5F9A545C9A9C5FA46FA06F15093E30BF2D21918226256CB5D075A02720308130200504B03041400060808006D806E57842F95FFEF000000300200004500000042343435334245452D444333342D343831462D424632342D3546413739373241353342362F4173736574446174612F496E7374
311
616E636550726F706572746965732E62696EEB606060F80F0540260323103700495E20ED9E9A975A94991C9C9C919A9BA802143030713535703432D735763536D035313375D6B53030B3D03574B1343477333376747432664768046931363471713532B5D435353131066A3132D475727372D13534373670367376B67474B5
311
042A03DBCBA019D37FE8ABC6157B20CD04146B0062181F4C03F940F0C11EA29A8141C08141002C0426541C106CAC2CA046088033B02A030AC2157C6006F21A8018AAF50194E6010A610250382264E08660284CD9E98021862280A91564B406929A0FF62C401E28B6F88038B83CB1243943D7A928312F25350524C390F6DF96
311
161800504B03041400060808006D806E5728BB58AF800100009E0500003D00000042343435334245452D444333342D343831462D424632342D3546413739373241353342362F536368656D61732F436F6D6D6F6E536368656D612E786D6CBD544D4FC23018BEFB2B96DE15493C78601010A34B880709DEDFB52FD0D8B54BD7
311
0DF6EFED3AC0B12E6442E2716BFB3CEFF3D18E26FB440405EA8C2B1992E1C323095052C5B8DC842437EBFB673219DF8DA659866649B798C078B48AE6410122242F2A4994AC7F93815DF85C049C8564CA0A901499DD886B2EB9B1E02448F358701A9235880C49A0119892A20C89D1B9FD768815CAD268CB5E0355B40B1E47F3
311
E37A2020464BED06AA57CE8FCC20C3C3446D46761A2632A8C1283D07031EFF2AE7CCB1BFEEE916E406DFAC8E36FFD99A9D60A6944090EEDC3B670C7DC13DE86B6B2C5C240D6E503BB85ACD579D513F1B9F9A69DC9CC22AFA80C426D40AF0B21EA168559156B6276F0F726A6BFF04DCD513A87A62CAD41FB24FCB2858B3952E
311
3D852084DA25B9303C15687973CC8E8AAE11DF2836C38C6A9E765E8C1BA1BFB1DC29CDFE518C8B5A7655A4ED7E77291ABEB80DBD82EC866ADE1B8D05AF9E35CF09D7A061F38A986D9EC412B8F0F65E5D81534D9B231D1E5A8FE577A241F3A5FD01504B03041400060808006D806E572CCEBD668A040000E01200003E000000
311
42343435334245452D444333342D343831462D424632342D3546413739373241353342362F536368656D61732F47656E65726963536368656D612E786D6CD5586D6FDB380CFE7EBF42F0F7A649B70E1B90744856B4970F450FCD7A5F05459613EDE4174872DADCAF3F522F8ED3B88D2F1D06AC4050DBA2493EE4438AF2F8EB
311
73AEC8466823CB62928C06C384888297A92C5693A4B6D9D9E7E4EBD51FE3A931C22EF85AE4EC6AFC38BF261BA626C9AD288496DC3F4FCEAFC63366845F7A10452AF41DB320C0D44EC26EAB20918735565582695670811A6A49643A49A6E9069FA4604A64B29016DC4B48552F95E4932463CA888468C1D2B250DB4962750DF7
311
CE273069CE8363F1FF4EDB00E0A21999574AE4A2B00C353B93F3BD4777B8A61ED8F604ABFEDD79CE56A2B7BDFBDBC50996E0ADDE16FED26223C5D30956C29BDF4A55EA686E5E58B112DA45CE67F76F4FA27EFA3FB672FD7372FC388FAECDCA5209E693CAD167BADCD272F943701B3812F8A3D852008B1D2E32DB927B2F833C
311
6EA95879925356D254582695095A3CE982924720BE5774A3CB9CDCDB350427D2DF20DA1B5532EBE2D5D6288D75D4F7E4FD9890A0EF8E3D93EBB8F8BA4758158EF6FB90A6F9520281C93DE7AAC6D24607DA296BB96018123F821A7D6A5C5884050C475DA4865442732C8B95684A50165CBB3A32F25F783A4A480ED59AD7F924
311
B968AEA50131F46303223E6A397B0E52976030DC1DCA81D7E7C1EDEEA42C19FF27635C505E2BD5198A599020DF50A2330FCB3AAF28CB0124108429553EF1B228802E2265D8F7CC2401042B155BCC7070F1E5C55F13B4A9577362CCCE46C32174E010C3C378C44841A4BDA00FE3A12006CE11EE6AEC59894D3526DDE1CD59D5
311
03ECC324017F8061B7F162162FA62EDD81AE3308617770796DCBDAD2B2625C5AE8A63DE20B2C8AA5E95E76E5730823955956E33E705425A2187C185D36489A1B44D3DCEC2172F6BA2105C3546287A7194B2331768EBBE64F6E70A9930ABE0ADEA89E9E2C38523B810287AD67A54A039C1606EAFE68F8304610BB9093DBDDAB
311
C0B2AE4E290DCDA15376D7E39F72B556F0B32EAB5D3D498B4C41ABADEC3A1434C422D87E8025A84BDCB2B1417ED750FAE4DA8976863974C577C7F902D3F156AD354DEA3540DE6BEAE2BEA52F7A2EB4CA43802ECE5BF2CE2EDC9347179FFB023CE412E60BE16DA0BE29B374988A553F561DC04615DD35F7D2C8979F60E5955C
311
E93DF29DED8AFA1EE6642D53418086C03C47C377910F75F7E8F5EF665F70B60FFB22AEDF897D119E8423C773E819A3C1E55E550599EE6EDCA34D0C86FD72057DF2CD46F16A470682471C164E4346D5306BF12D7D12D82CFF673D41636C347443FEB51B50D72EA171A8E4A58623A4A16E0FA2B8B10A0D23268D87C33896EE8F
311
B73305A74BF224EDBADFA0BD674AB354D63DB7BD5D83426761C077DE767728235446A552754EB93B755891C3C4CC6CADE37CF0E912A7BB38DBA010F9DE1282EDF470CA69A9CDA482E334C4A6EA4107987980B17E72F31730EBF88BBD39E7C629F56797A3C0009C2C5AE7951D9A05A02773440F02EEB4DE396A3B6A570C72CC
311
FBCD823B0B8ED3F1D5CEDDFED772FA70236C83FB7D86C385D570B87107535572A60A96035F8F7C6A7192F13007246BBE0521855E6AC46F3E27689CEE7D186A6FD679D98CDCAD13333E04EBE7ED6F55FF01504B03041400060808006D806E576180134D5F0100006B0300004500000042343435334245452D444333342D3438
311
31462D424632342D3546413739373241353342362F536368656D61732F52656E6465724D6174657269616C536368656D612E786D6CA5934D6FC2300C86EFFB1551EEE343DBA41D1A103009551ADAD40EAE28A4A68D9426284961FCFBE5A340113B2071746D3F765EBF4DC6BFB5407BD0862B49F0B037C0082453059725C18D
311
DD3EBFE3F1E829991803366715D474942CD30FB4A782E00C64017A412D684E454CE3FE28995203B162A6EA5AC94B66997D225E109CD63B0135484BAD1B3C07E9080CA35DB3119C11BCA5C200461A68A1A438126C75E3E230D40FF81FB3F03C91D1E3A3A0AF79FE28E25BC39EC3E17E4C2A2D94A0833A51AF55BCCA7D88572F
311
CBAC529C4140B020FC3AAFA886621DCED7EAD7664CC86024E806DC297DA1BB393E4156543457A4537DB8817349A70F8ACBF09B3EEE2CB2F33E91B65D60786E4E3B39B77E3FEEEF5650424525DA657FB8B46BE6BF064646F0A0F7327C0BC1BC1B4CBBC1C419FA3CCB23500007872A2580CAAE5461865565294E4EDB4617B62F
311
F579DF9A5B2F54E834076A597573A020912FED777F9B3F504B03041400060808006D806E5751D54F6F51000000570000004700000042343435334245452D444333342D343831462D424632342D3546413739373241353342362F4173736574446174612F41737365745461626C654F66436F6E74656E74732E62696E536160
311
603030713535703432D735763536D035313375D6B53030B3D03574B13434773333767474321602AACB4D2C492DCA4CCC492C28484D2C4ACC4B4E050A82012F90744FCD03CA26072767A4E6260200504B03041400060808006D806E57F865834058000000680000004500000042343435334245452D444333342D343831462D
311
424632342D3546413739373241353342362F4173736574446174612F53747265616D56657273696F6E5461626C652E696E66558CBD0A80300C06F73E4B117FB66E451741D041DC5BF98480A492E4FDD18EAEC7DD4555D89EF28DF51A0B1BD8340C4DE7DD848B988C0ACF0649566493F2408C508DDEBB99D5129FF8F1AF8CF5
311
B9503E20FAE5A16B5AF702504B03041400060808006D806E57F3053212350100009A0400003600000042343435334245452D444333342D343831462D424632342D3546413739373241353342362F4173736574446174612F636E782E786D6CCD94314FC3301085FF4AE43D7692A20A558E2B044B2790A818D8AECEA5B5EAD8
311
917D41F0EFB1DB0CA022A60E5DCFEFCECF9FFC4EAE3F075B7C6088C6BB96D5BC62053AED3BE3F62D9BA82FEF59B15632784F3F64AC703060CB729929B90F7E1AE752873D4C3657AD71C7B9F81023D21676169FFB47EF081D4556680B31B62CEA030EC06122DF613CF20E0878CD03463F058D69129901E7493A2010764C3555
311
B328EBBAACEFB6F572552D56CDF25D8AAC5472E7BD9DF5265D16FC58E8F3AD4C5552E46325A760664D7E0B537F79E43BE3A4484A252385C464EEA0AF3175C0385AA381123AE13521954984304871162B2932835F249EB037CEE4964D3206E4C34BB287810CDE1C91FFBC5E9FCCC64502A7F176795C3ABC3E85D7D30F7A3B07
311
F294985BCBC9A5436E5C7F859488D31A49A1C95B457D03504B03041400060808006D806E5727DEEAC4080100004F0300003400000042343435334245452D444333342D343831462D424632342D3546413739373241353342362F536368656D61732F636E782E786D6CCD93316FC3201484FF0A623718A78AAA0893A143A72E
311
6DA76E145E1214CCB30057EDBF2FB80C89D4AD1DB2C1F109DD1D0FB9FF9C3CF980981C86910AD65302C1A075E138D2251FBA7B4AF64A46C47C815112F40423AD3255F21871999B64E1A0175F55EFC2B9890F384D185ECC09264D89F13AA591A675CBF492D1423A33ABB366824548B84403E586EC26683798083A83A56AE887
311
4D274427EE5EC576D76F76C3F64DF24A2AF98EE81BEF42868833315816A1D8E925AFC74A2ED135A666A0EAD21B2B6D485E0825538EA58346E6AFB9907A9EBD333A97AAF80AFE304AF21AF52AF0230488CEDC66E22B73FF16F9198285F8545E293AED6F33F96F1EFF56005F67BF8C40FD0AEA1B504B03041400060808006D80
311
6E57410A3D5871000000A40000002C00000042343435334245452D444333342D343831462D424632342D3546413739373241353342362F636E782E786D6C55CC4D0E82301086E1AB34B31774E7A22D31F1069E60020334B633A63FC6E34B0909B07DDE2F9FEE7EC1AB2FC5E4840DDC9A2B28E25E06C7938192C7CB1D546775
311
14C9871928C640062A83D55394F2D968A0118BAFEA1DBF377CA444F98919176EAB9FEAAB9F2960DA5BBB1E2ED3FA6FFF504B03041400060808006D806E57F45D64D37F000000A300000007000000636E782E786D6C4D8CD10E822018855F85FDF7542AA66D809392F770898E853F8DA4F5F841F3A2ABB37DE79C8F779FD591
311
B7092FEB51407138013178F793C54540DC66DA02E9240FDE6F7F332038AE4640C620F9127C7CEE6832F3185DA6CEE263878AB1BA52C3406FD78A51D6169A2A5D325AEBBEB934659FCA737A1CF325C5CF9732EBE517504B03041400060808006D806E5716E99B5DA600000035010000130000005B436F6E74656E745F547970
311
65735D2E786D6C9590410E82301045AFD2740F4517C6180A0BF5065E60AC53688469D30E066F6F91AD9AB89CF9FFFD3F99BA9DC7413C3026E749CB4D59498164FCCD51A7E5C4B6D84BD136F5E5193089ECA5A465CF1C0E4A25D3E308A9F401292BD6C711388FB15301CC1D3A54DBAADA29E38991B8E0254336F5092D4C038B
311
F39CD76B6FC6A538AEBEA54A4B08617006389FA516557DE4AE8E7E70DE30729138228C5F021CD93F02D4FB0DCD0B504B03041400060808006D806E573DEE336E64000000790000001B0000006175746F6465736B2D64657369676E2D7061636B6167652E786D6C35CBC10E83200C00D05F21DCA56CA76D41FC96062B120735
311
B69A7DBE268BB7777961F8D5AF396893C2ADB70FE7ADA196782C2DF776D7A97B5933C430F15651E5469C55D70F80A4992A3ADC954792C525AE70A1E4D6AD9816CC044FEFDF01FE3FDE907802504B03041400060808006D806E57D800AAC5F6000000960100003700000042343435334245452D444333342D343831462D4246
311
32342D3546413739373241353342362F4173736574446174612F636F72652E786D6C8550CB6EC32010FC156BEFD8801DF210264A1DF50B7AEA0D61E2A2C460F1A8FAF985D895DA534F0BB333B3BBC3CF5FF3A3FAD43E18677B2035864A5BE54663A71E52BCA1035467C1BD73F1170D2A2B67DD438141F0C9BBB46C9072366A
311
5B50EB46BD8132041DA1528FFCE821A80F3DCB5AA69819E15E2F52DDE5A46B52AF3CC15332E3263563763337A33D088AD9FE3A1C77E895318A3AF6724487CB619FBF781828EE769812DE14B1E0D1CC3FD395D732EAB1E8698B0841A47B23EC84DB1365EFBC294CC143F4F9E66D68B90EC4A56C7D9551F266EDFE714DCBF8BF
311
6B3236B674735D15014459F2D910BC2929E5F28C30D792A8F806504B03041400060808006D806E5707302686F4000000940100003500000042343435334245452D444333342D343831462D424632342D3546413739373241353342362F536368656D61732F636F72652E786D6C8550CB6EC32010FC158B3B3660873811266A
311
5DF507DA536F0888831283C5A3EAE7176C576A4F3D2DCCCECCEE0EBB7CCD8FEA53FB609C1D00AE11A8B4954E193B0D20C52BEC4175E1CC3B177FD14065C5AC075060C0D9E45D5A76483A1BB52DA8754AEFA008414750C9477E0C20C89B9E452D52CC8C70AF1721EF62D235AE371E672919B54B8DCA6EE66AB4079C207A7C19
311
4F07F84A29811D7D3EC1FEA93FE62F1A4782BA0322983545CC5934F3CF74E9B5885A153D6921C61077EF989E517B26F4833585C959883EDFBC0F2DD701FEB6EE1958B3F5FE78A645FDEF998C8D2DD93D374500BCACB836386B4A46B9AC01E65AF2E4DF504B03041400060808006D806E5763E732C502010000D70100002D00
311
000042343435334245452D444333342D343831462D424632342D3546413739373241353342362F636F72652E786D6C9591CB4EC33010457F259ABD9338AF96CA71D540F305ACD899789A5A6DECC80FC4E7E3902060072B5B77CE1DFBCEB0E3FB744FDED03A65740B34CD21413D18A9F4D842F017B287E4C89935C6FFC020D1
311
62C2161619381BAD09F3260D467BD48BAA8DC44D14CEA18764B8C74B0B6EB8E22452117C24DC2D9DC5701323A6345D39CEBC9ABEAC8345E151022FF2A22494125A3DD3E6909787A27961D942721694F665B13D86D32BCAC4CC3E46025EB36CAD462A28B9314AC63FAA8B420BBCABAABAECCE67F2F45856A4DAD39E747D5191
311
BA3FED1E76C529169BD8249A3973DEC6C96C4D9619FCD5BE1A7F250BB3FC67B2D5E180D3EF50D93266CEB2CF1DC4735909FF00504B03041400060808006D806E57B0AD788F05010000B201000008000000636F72652E786D6C8D50416EC32010FC0ADABB6DC08EE34498A875D517F4D41B35C441B1C1021CB5BF2F24546A6F
311
3D2DCCCEECCC2E3B7D2E33BA29E7B5353D9012035266B4529BA9872D9C8B0ED08933676DF8450364C4A27A4830703639BBAD191AAD09CA24D458A93228BC5701D038C7470F7EBCA84594620B91E1AFE52AC6AB985449CA078FB3A0971FE9E894084A02A798D605210569DE487BC4F591B6EFAC4A4CCEB64DCB6CA56574D767
311
AD5C92B4FB97E1B02B5EDB96164DFB7C28BAA76E1FBF7818286E769812562531673EB8B8731E127306E4C52DF9B2EAD1E2ECC3DA3913622889AC99BF806356A5C69FD0DB2AFF115A9B50D33CF0A1F0C053A07B231AA70BC6723F6FACE9DAFC1B504B010214001400060808006D806E572F28053DBF000000200100004F0000
311
00000000000000000000000000000042343435334245452D444333342D343831462D424632342D3546413739373241353342362F4173736574446174612F446566696E6974696F6E4974657261746F7250726F706572746965732E62696E504B010214001400060808006D806E57842F95FFEF000000300200004500000000
311
0000000000000000002C01000042343435334245452D444333342D343831462D424632342D3546413739373241353342362F4173736574446174612F496E7374616E636550726F706572746965732E62696E504B010214001400060808006D806E5728BB58AF800100009E0500003D000000000000000000000000007E0200
311
0042343435334245452D444333342D343831462D424632342D3546413739373241353342362F536368656D61732F436F6D6D6F6E536368656D612E786D6C504B010214001400060808006D806E572CCEBD668A040000E01200003E000000000000000000000000005904000042343435334245452D444333342D343831462D
311
424632342D3546413739373241353342362F536368656D61732F47656E65726963536368656D612E786D6C504B010214001400060808006D806E576180134D5F0100006B03000045000000000000000000000000003F09000042343435334245452D444333342D343831462D424632342D3546413739373241353342362F53
311
6368656D61732F52656E6465724D6174657269616C536368656D612E786D6C504B010214001400060808006D806E5751D54F6F51000000570000004700000000000000000000000000010B000042343435334245452D444333342D343831462D424632342D3546413739373241353342362F4173736574446174612F417373
311
65745461626C654F66436F6E74656E74732E62696E504B010214001400060808006D806E57F865834058000000680000004500000000000000000000000000B70B000042343435334245452D444333342D343831462D424632342D3546413739373241353342362F4173736574446174612F53747265616D56657273696F6E
311
5461626C652E696E66504B010214001400060808006D806E57F3053212350100009A0400003600000000000000000000000000720C000042343435334245452D444333342D343831462D424632342D3546413739373241353342362F4173736574446174612F636E782E786D6C504B010214001400060808006D806E5727DE
311
EAC4080100004F0300003400000000000000000000000000FB0D000042343435334245452D444333342D343831462D424632342D3546413739373241353342362F536368656D61732F636E782E786D6C504B010214001400060808006D806E57410A3D5871000000A40000002C00000000000000000000000000550F000042
311
343435334245452D444333342D343831462D424632342D3546413739373241353342362F636E782E786D6C504B010214001400060808006D806E57F45D64D37F000000A3000000070000000000000000000000000010100000636E782E786D6C504B010214001400060808006D806E5716E99B5DA600000035010000130000
311
0000000000000000000000B41000005B436F6E74656E745F54797065735D2E786D6C504B010214001400060808006D806E573DEE336E64000000790000001B000000000000000000000000008B1100006175746F6465736B2D64657369676E2D7061636B6167652E786D6C504B010214001400060808006D806E57D800AAC5
311
F60000009601000037000000000000000000000000002812000042343435334245452D444333342D343831462D424632342D3546413739373241353342362F4173736574446174612F636F72652E786D6C504B010214001400060808006D806E5707302686F400000094010000350000000000000000000000000073130000
311
42343435334245452D444333342D343831462D424632342D3546413739373241353342362F536368656D61732F636F72652E786D6C504B010214001400060808006D806E5763E732C502010000D70100002D00000000000000000000000000BA14000042343435334245452D444333342D343831462D424632342D35464137
311
39373241353342362F636F72652E786D6C504B010214001400060808006D806E57B0AD788F05010000B2010000080000000000000000000000000007160000636F72652E786D6C504B050600000000110011005A060000321700000000
310
504B03041400060808006D806E57000000000000000000000000370000006662782F45443230384531382D304539382D344333432D383135302D4237383041454438303630422F617474726962757465732E62696E504B03041400060808006D806E57000000000000000000000000350000006662782F4544323038453138
310
2D304539382D344333432D383135302D4237383041454438303630422F76657274696365732E62696E504B03041400060808006D806E57F270F1330600000004000000360000006662782F45443230384531382D304539382D344333432D383135302D4237383041454438303630422F747269616E676C65732E62696E6366
310
60600000504B03041400060808006D806E5751464CB48900000043010000360000006662782F45443230384531382D304539382D344333432D383135302D4237383041454438303630422F6469726563746F72792E786D6C9D8F310EC2300C45AF127987122606C71DD918B841D4B851A43646695A717C52A85029031293A5
310
A76FBF6FACEF7DA7264E43906840EF0FA03836E242F406C6DCEE4EA06AC22492573150D1F66C60C640E8938CB705396EEDD86DE9B5042FE27813D640EA63BB001C722AF6E55CB61E4863F58284D5D3F53DD715CE1C3985E63FD7F1B7EBDD617E9F1E504B03041400060808006D806E57C92EDDFF3E070000201C0000340000
310
006662782F45443230384531382D304539382D344333432D383135302D4237383041454438303630422F6F626A656374732E786D6CDD59596FDB3810FE2B84F665F7419664F92C1C17B19D144691B668D0C5BE09B44C3BDC5007282971F6D7EF90226551916DA507B0D804881D8A1CCE7C738F66EF0F11434F84673489AF2C
310
AFE75A88C461B2A5F1FECA2AF29D3DB1D0FB399AF124C96BFB2C14E3885C5962D99ACFF63C2952B5B4253B5CB0E6EAEDE22F94852426160A19CEB22B2B0B1F48847BB8C8932DC91E7B5B9CE3DE7E77E879BD72A34976CF71FAD0B82AC59CC439B00AEB3150511C78E6BF2092339F396283B1CDEFB6AD7F669B23053719A571
310
96E3387CC555E3BAFE09AE1AD7F9DE6075D31F4EEDE160E0DB8351DFB317B78B95ED8D7D77395A2EA7D737530BCD679B2461950252126F418B2FD6DC9B39E24925BE42A18DEF308963122A34DB366C89A24B49D6C4C400D693A2D51452CA5A5BF03B0A7F625B27500C960CB4B570FAB36EBDC9E66F0021EB62A53C23C2CAB3
310
9C83AE15F6A53FB833A75C35F4423314E19C708A196274C3310705C1D652410619E12D82141298492D6A7A755EC1B02FFB521B97BB8231E1BFD65C7A5A00FE48F24C7246FF21FCC87DFD36E009A42D689C4F94B0F94B0A24A633472E96CFFCBE7A580289760CEFC15A404CB1C9EF37F05A8A58B05E59F38FB79BC3BD880FED
310
97A73C4909CF85E54967567EA73558332D30BE0EA094B89ABA3BA2F215A0FF04C857BCA019688ED3C3E030D0B2731C67BB8447A01DE422DB853F2E125F5F7D9B39D5E1394246AC3C8529B8ED4FC2D410C3B8BB06E97CF604469F705F09771F6206367D4763E1E760288825B004F17EB73958F33504535884539881F4F03B73
310
C457041F251D88370D0DB585DF0E8AD20ED3F4B3A3AE3E80CD701A56AA32643C85EFF0A7E07BBDBAFF785FF01D0EC99D72EC15D9D198E6904CDB193240375CFEDBFA93F4C80F2CD960763C6D6C0AE19A7D22E2468B5AEE955A90D40B7022D270A919B97247C1DB19C331498A4CADB7C5A93061090F362F41E9C2AD77FDA96D
310
A0BC4C19406B2C83E41E729A0A4CACB9D25615087B3541C1C2305716B82FB51A6C8A280D709414B108B5AF4DB1C907C4196189405552D386ADBD5693DDD2DDAEC82078B5925C1A402A7FD6844B0B1F401C6BE397931DC790449338A09083C1595A6F302EA8C03BCF7346D82EA08C1551B0A30CF24810E1F404FD8E12D433D7
310
2379794EF8B695A06959DA27B50D09C015B01A249DADCA98AF74CAC9131565A6CC673A1B183B541D6ACD0727D285C8142D806A639466EE0E6E86EE757F6CFB37BE0B15D370694FDCD1C4F656536F7C3BF2AFAF177E934F1DADEAF90E5429CA1CC3FFF28722DAC498327820C4C6DBF4DD7B993DAF1C088DCEE2663CBA59FA53
310
DB5F2DA6F6603C5DD98B717F64BB93D56A7133584EFBE385C34996143C2499D377DC409B641AEF4F71A5B97B1D43A1ACB99CECB4BE9AC2FC8F63683327184AFCAF06D12A76B514845D83A838DA0CA1387C14292A08A1EA6B759F46106DF2D116E7DE1897DD9EEFCA1FCF9BF6DD697F321D55C67E3650CB7B7E38CEB5491042
310
DF59E44192E290E6ED09B5814BC738FDA6DCD2F3BD210274AABFD525E7F38CBA24A011DE9360874597D012182F49D09AC3F62CC9321A934C7679AFAABF064DB707C59499735B8C9066414472FC3DF627DB86864D436C6601F4A3B998085CAC0A2A83561DC8298AA2FB85C42DE57F09321CA5ACEC742F61E0F53504BAC769B3
310
38C1B4B8E209EC2DC079E06E891C5C5CA25EB1AFEB8356AD35A94FBF9BFC0978745DF30BE1D157742F9D7A436F2A7E2610544643CF1F6B455CC24A5F958B3E8E15D079862FC133A1FB874E8566379DD44AB6B2A8CE49046D2CCE0BDEC95F4743F7D5452A2E341CA276D31B8B43D9BFE90E0ED0930DDCA9F2B6760DD4A13486
310
395727415E49D16AC2521772A62746576FF0EBB3CAAE53FDE178F9CB2BE6BAF34572F8731907A896CB00ACA28F5153B756DD463D943DE33C84407A2F3FED0578C4966C8F8D9941AEAD44D7F5E9A5EA792D026A04135B2CE2EC9DF8C2BE62503574CF99F3A12CDA9C727D2D125B0F86D3473E0CA64D5A9F3FDC37A8C04AE7D3
310
5F0446E4B94141AD2E45377C86D4B7F5B1E76F5050127D5B9F39FE9FE828B4026B633498066709A33094275BB42709646F183B74E8367844329995C1785590D26F043A9C7E2A67AA39DE307D3A7CC0309866AA172B42188A42C6BCB2D43AFA0DC6A06212298753BD4768C3540CB350C1E99505169B53E8B67A1B1867C9E1A1
310
A4DE18578263E3782FF27D79AAFAFF784CA00351E92857B5A70B2E4A32C399A0B04DE57B02A8FACA07F3D9F78BAED9413887AF9B22AF84392E1CA55120E81702A57030F57B54F01EA0A0382F97D7937B0C483A4DE6CFDA4149D5CE31DFCBF17A0DEFEBD517474CC6D79F51CA8ABD50E7B9EED7A0648BAE9B15E5146A0686A1
310
C44CB1A82197EF9C2F3C81574C11BAA56004E8F7C364F487B34CA22889CB25E75ABDA842F70FF0DA69EBE8911FB4F1AE3774E414408DF5830DCE480F6FB3475800D5722A66A325C4860154D1B466005A23421770CCD8BF5E21551BD52624F5B02BE091337D048E24DEE508B7A96FA80D20C117802BF9F0F8452FCC1C0E43F0
310
F9BF504B03041400060808006D806E575A6D9F803E01000046050000300000006662782F45443230384531382D304539382D344333432D383135302D4237383041454438303630422F636E782E786D6CCD94C14EC3300C865FA5CABD49BBA1094D692671E00938206E69EA95B034AE1217B1B72719DD00A1210E93C62D727E
310
4BFF67FFB2DCBC0DAE7885102DFA86D5BC620578839DF57DC326DA96B7ACD8281910E98B8C155E0FD0B05C664AF601A7712E75B0D593CB5567FD6E2E6AA260DB8920B2C2381D63C3A2798641733D11761077BCD3A479CD03449C8281D44F7680B9DF04D0041D538B6AB12CEBBAAC6F1EEAD5BA5AAE17AB2729B252C916D1CD
310
7AEB09028E85C1F4F0C94C2545FE56720A76D66402A63E9DF1D67A29D2BF9231B9F5FDACA3FD9875E3E8ACD194C624D010509944A007293EC44A8ACCFB8DFAFEEEF1E8A0E86C004318F6571A407D6E0027633C25E16FFC07E1EFD8D8BE24DC6B6DFB2CEC6CEB62A8C7B4C614D79FFB4F29D2BE77FF2FF4276397CF7C3A2564
310
CDFF433EFABA10B1389CBCB4F47C01D53B504B03041400060808006D806E5740185CA27E000000A30000000B0000006662782F636E782E786D6C4D8C5B0E83201405B742EE3FEDA5CFDB0430555988A96888088D95A6CB2F347EF4EB24933323ABCFECD9DB2E2F178302B14360363C62EFC2A820AD03276095964B8CEBDF0D
310
58E866ABA060D0725C627A6EA8B743977CA1DE856983A63D2019411CCD8DF8A939369CC419797D25BC9B96F0827536F645C9F3EBE52D79FD05504B03041400060808006D806E57A6D797065F0000008200000007000000636E782E786D6C4DCB3B0E80201045D1AD90E9FD7516806B51190811670C8A61F982B1B0BAC9C97B
310
72CA7B1037C6D3332918DA1E04D2CAC69353902EDB8C20262D23F3F59B81A079470595414B17391D1F19B4730A5583A7ED43BBE4025D9592775E5ADFFA01504B03041400060808006D806E574FEB6A7CA0000000F4000000130000005B436F6E74656E745F54797065735D2E786D6C7D8F4B0EC2300C44AF1279DFA6B04008
310
35ED02B8011730C16D239A8F121795DB93D02D6269CFBC19BBED573B8B17C564BC53B0AB1B10E4B47F18372A5878A88E20FAAEBDBD032591BD2E299898C349CAA427B2986A1FC86565F0D122E7318E32A07EE24872DF3407A9BD63725C71C980AEBDD080CBCCE2BAE6F5D69B7110E7CD57AA146008B3D1C8F92C5954F993BB
310
1BF787F39A89ABC491D09600F9FDA2FB00504B03041400060808006D806E573DEE336E64000000790000001B0000006175746F6465736B2D64657369676E2D7061636B6167652E786D6C35CBC10E83200C00D05F21DCA56CA76D41FC96062B120735B69A7DBE268BB7777961F8D5AF396893C2ADB70FE7ADA196782C2DF776
310
D7A97B5933C430F15651E5469C55D70F80A4992A3ADC954792C525AE70A1E4D6AD9816CC044FEFDF01FE3FDE907802504B03041400060808006D806E579CFE324FF9000000960100003B0000006662782F45443230384531382D304539382D344333432D383135302D4237383041454438303630422F7265736F7572636573
310
2F636F72652E786D6C8550CB6E833010FC15B477037608A19171241AFA053DF566994D6225D8C88FAA9F5F3B50A93DF5B4ABD999D9DDE1A7AFF9517CA2F3DA9A1E6859438146D9499B6B0F315C4807C54970676DF84583C2C8197BC830087E75362E1BA4AC0968326AEC841B28BDC700857AA4A607AF6E38CB52C69018FE5E
310
2E52DDE5154B5AAE3CC163D4D326D55372D3178D0EC4E1309C3B3A30D234EC8D34E3A1262FF57E4FCEF5300E233DBF766DCBAB2C163CE8F967BB7228034E2058CD768452429B77DA1EEBDD91B51FBCCA4CC17D70E9E76D69FE0E84436FA353E879B54EFFB8C665FADF356A13766C735D151E044D473E07825739A5549E11A6
310
9A1315DF504B03041400060808006D806E57A1660AA2F1000000B1010000310000006662782F45443230384531382D304539382D344333432D383135302D4237383041454438303630422F636F72652E786D6C8D50CB6EC32010FC156BEFD860A72E8D305193F80F7AEA0D01715062B07854FDFC42EC4AED2DA745B333CCEC
310
B0C3F77CAFBEB40FC6D901488DA1D2563A65EC34408A1744A13A70E69D8B7F68505931EB010A0C9C4DDEA56583A4B351DB825AA7F4068A1074844ADEF3638020AF7A16B5483133C2AD5E84BC8949D7A45E799C4533FF4AA5D7226A05BCC56D87084164F741FA3DEEF66DFFC99AC2E42C25A3362BA3B2BBB918ED818FE716D3
310
915084C7378A76A7EE842879C1E8F84AF1FB78A6B8C747D614316721FA7CF3F649B9EE59F92AFC97392DEA89CCC6C6AEDD0C5745004E729EC782B3A61498C7A3DD3C4BD9FC07504B03041400060808006D806E57AD165EB754010000DD0200000C0000006662782F636F72652E786D6C8D52DB8E832014FC15C33B2AD4DA6E
310
833471DBFD827DDA378AD425553008A69FBFE025AE0F7B89099239E7CC9C9940CECFB68906617AA95501509C824828AE2BA9EA02387B8747109D29315ADB6F6D2052AC15050830A0A436DA7533C4B5B2420554E94ACC20EB7B6141C41B7F2940CF3F45CB62E6ACEFE81F71C7F883D52246F1D4478973B29A4765E5D9E45D0A
310
03E8E1505E8EA8C430CBF01BCCAE8714BEA4FB3DBCA4E5B5BCA2CBEB31CF49128629B1B25DD4B911CC8A0A509CE21D4408A2EC1DE5A77477C2F90749422725BD35DEF32C1ADC017ABF3D4932E11B3ED7557FF339A9EC0ECF7CD3440F28F2EB8D054A92908FFF8DE16D33F4C23E3FCB6ECD62E1E1A14170AB4DE62B95766B69
310
608D139E3A8DC68F2453D5338F043FF1E05F787EE7F0413155FBD598F5D79BB3417DBB53270C1CEC3352DAB4AC59979B565CCF5568636919E7BAD1E63FD38BD525CC243C4CFA05504B03041400060808006D806E5773DA93A907010000B201000008000000636F72652E786D6C8D50C16E842014FC15F2EE28A8AB76836C62
310
B55FD0536F54584B56C1086EDABF2FAC36696F3D3D3233EFCD30ECF2394FE8AE56A7AD6980260490328395DA8C0D6CFE8A6B4017CE566BFD2F19202366D5408481B371B5DB724083355E99881A2BD5010AE79407344CE1D1801B3ED42C12B1F9A070B76411C34D8C2AA1C9AEE3CCEBF967755895F04A02CF4896634A312D5E
310
697926F9392BDF581A959C6D9B96879596C15D5FB55A815755DBD5B4CD7051642FB8E82B829FC8E9843BD2F66D4FBBE7BA2C591A9739737E0D7F3E8E849C1E39718FBE2CDD29CEDEAD9D0E4108259135D31770C2D248FC09BD2DF21FA1B5F179761CDC371C701A023D88601C1B0CE3516F98B16DFE0D504B01021400140006
310
0808006D806E570000000000000000000000003700000000000000000000000000000000006662782F45443230384531382D304539382D344333432D383135302D4237383041454438303630422F617474726962757465732E62696E504B010214001400060808006D806E5700000000000000000000000035000000000000
310
00000000000000550000006662782F45443230384531382D304539382D344333432D383135302D4237383041454438303630422F76657274696365732E62696E504B010214001400060808006D806E57F270F13306000000040000003600000000000000000000000000A80000006662782F45443230384531382D30453938
310
2D344333432D383135302D4237383041454438303630422F747269616E676C65732E62696E504B010214001400060808006D806E5751464CB489000000430100003600000000000000000000000000020100006662782F45443230384531382D304539382D344333432D383135302D4237383041454438303630422F646972
310
6563746F72792E786D6C504B010214001400060808006D806E57C92EDDFF3E070000201C00003400000000000000000000000000DF0100006662782F45443230384531382D304539382D344333432D383135302D4237383041454438303630422F6F626A656374732E786D6C504B010214001400060808006D806E575A6D9F
310
803E0100004605000030000000000000000000000000006F0900006662782F45443230384531382D304539382D344333432D383135302D4237383041454438303630422F636E782E786D6C504B010214001400060808006D806E5740185CA27E000000A30000000B00000000000000000000000000FB0A00006662782F636E
310
782E786D6C504B010214001400060808006D806E57A6D797065F000000820000000700000000000000000000000000A20B0000636E782E786D6C504B010214001400060808006D806E574FEB6A7CA0000000F40000001300000000000000000000000000260C00005B436F6E74656E745F54797065735D2E786D6C504B0102
310
14001400060808006D806E573DEE336E64000000790000001B00000000000000000000000000F70C00006175746F6465736B2D64657369676E2D7061636B6167652E786D6C504B010214001400060808006D806E579CFE324FF9000000960100003B00000000000000000000000000940D00006662782F4544323038453138
310
2D304539382D344333432D383135302D4237383041454438303630422F7265736F75726365732F636F72652E786D6C504B010214001400060808006D806E57A1660AA2F1000000B10100003100000000000000000000000000E60E00006662782F45443230384531382D304539382D344333432D383135302D423738304145
310
4438303630422F636F72652E786D6C504B010214001400060808006D806E57AD165EB754010000DD0200000C00000000000000000000000000261000006662782F636F72652E786D6C504B010214001400060808006D806E5773DA93A907010000B20100000800000000000000000000000000A4110000636F72652E786D6C
310
504B0506000000000E000E0080040000D11200000000
  0
XRECORD
  5
8129
102
{ACAD_REACTORS
330
8124
102
}
330
8124
100
AcDbXrecord
280
     1
270
     1
271
     1
  0
XRECORD
  5
8128
102
{ACAD_REACTORS
330
8124
102
}
330
8124
100
AcDbXrecord
280
     1
270
     1
271
     1
  0
XRECORD
  5
812A
102
{ACAD_REACTORS
330
8124
102
}
330
8124
100
AcDbXrecord
280
     1
270
     1
271
     1
  0
XRECORD
  5
8127
102
{ACAD_REACTORS
330
8124
102
}
330
8124
100
AcDbXrecord
280
     1
270
     1
271
     1
  0
XRECORD
  5
83E4
102
{ACAD_REACTORS
330
83E3
102
}
330
83E3
100
AcDbXrecord
280
     1
102
DISPLAYNAME
  1
Imperial24
102
FLAGS
 90
        0
  0
CELLSTYLEMAP
  5
83AB
102
{ACAD_REACTORS
330
83AA
102
}
330
83AA
100
AcDbCellStyleMap
 90
        3
300
CELLSTYLE
  1
TABLEFORMAT_BEGIN
 90
        5
170
     1
 91
        0
 92
    32768
 62
   257
 93
        1
300
CONTENTFORMAT
  1
CONTENTFORMAT_BEGIN
 90
        0
 91
        0
 92
      512
 93
        0
300

 40
0.0
140
1.0
 94
        5
 62
     0
340
8157
144
0.25
309
CONTENTFORMAT_END
171
     0
 94
        0
309
TABLEFORMAT_END
  1
CELLSTYLE_BEGIN
 90
        1
 91
        1
300
_TITLE
309
CELLSTYLE_END
300
CELLSTYLE
  1
TABLEFORMAT_BEGIN
 90
        5
170
     1
 91
        0
 92
        0
 62
   257
 93
        1
300
CONTENTFORMAT
  1
CONTENTFORMAT_BEGIN
 90
        0
 91
        0
 92
      512
 93
        0
300

 40
0.0
140
1.0
 94
        5
 62
     0
340
8157
144
0.18
309
CONTENTFORMAT_END
171
     0
 94
        0
309
TABLEFORMAT_END
  1
CELLSTYLE_BEGIN
 90
        2
 91
        1
300
_HEADER
309
CELLSTYLE_END
300
CELLSTYLE
  1
TABLEFORMAT_BEGIN
 90
        5
170
     1
 91
        0
 92
        0
 62
   257
 93
        1
300
CONTENTFORMAT
  1
CONTENTFORMAT_BEGIN
 90
        0
 91
        0
 92
      512
 93
        0
300

 40
0.0
140
1.0
 94
        2
 62
     0
340
8157
144
0.18
309
CONTENTFORMAT_END
171
     0
 94
        0
309
TABLEFORMAT_END
  1
CELLSTYLE_BEGIN
 90
        3
 91
        2
300
_DATA
309
CELLSTYLE_END
  0
XRECORD
  5
83E1
102
{ACAD_REACTORS
330
83AA
102
}
330
83AA
100
AcDbXrecord
280
     1
102
ACAD_ROUNDTRIP_PRE2007_TABLESTYLE
 90
      512
 91
        0
  1

 92
      512
 93
        0
  2

 94
      512
 95
        0
  3

  0
XRECORD
  5
83BC
102
{ACAD_REACTORS
330
83BB
102
}
330
83BB
100
AcDbXrecord
280
     1
102
RTVSPost2010Prop28
280
     1
102
RTVSPost2010PropOp28
 70
     1
102
RTVSPost2010Prop29
280
     1
102
RTVSPost2010PropOp29
 70
     1
102
RTVSPost2010Prop30
280
     0
102
RTVSPost2010PropOp30
 70
     1
102
RTVSPost2010Prop31
280
     0
102
RTVSPost2010PropOp31
 70
     1
102
RTVSPost2010Prop32
280
     0
102
RTVSPost2010PropOp32
 70
     1
102
RTVSPost2010Prop33
280
     0
102
RTVSPost2010PropOp33
 70
     1
102
RTVSPost2010Prop34
280
     0
102
RTVSPost2010PropOp34
 70
     1
102
RTVSPost2010Prop35
280
     0
102
RTVSPost2010PropOp35
 70
     1
102
RTVSPost2010Prop36
280
     0
102
RTVSPost2010PropOp36
 70
     1
102
RTVSPost2010Prop37
 90
       50
102
RTVSPost2010PropOp37
 70
     1
102
RTVSPost2010Prop38
140
0.0
102
RTVSPost2010PropOp38
 70
     1
102
RTVSPost2010Prop39
140
1.0
102
RTVSPost2010PropOp39
 70
     1
102
RTVSPost2010Prop40
 90
        0
102
RTVSPost2010PropOp40
 70
     1
102
RTVSPost2010Prop41ColorIndex
 90
       18
102
RTVSPost2010Prop41ColorRGB
 90
        0
102
RTVSPost2010PropOp41
 70
     1
102
RTVSPost2010Prop42
 90
       50
102
RTVSPost2010PropOp42
 70
     1
102
RTVSPost2010Prop43
 90
        3
102
RTVSPost2010PropOp43
 70
     1
102
RTVSPost2010Prop44ColorIndex
 90
        5
102
RTVSPost2010Prop44ColorRGB
 90
      255
102
RTVSPost2010PropOp44
 70
     1
102
RTVSPost2010Prop45
280
     0
102
RTVSPost2010PropOp45
 70
     1
102
RTVSPost2010Prop46
 90
       50
102
RTVSPost2010PropOp46
 70
     1
102
RTVSPost2010Prop47
 90
       50
102
RTVSPost2010PropOp47
 70
     1
102
RTVSPost2010Prop48
 90
       50
102
RTVSPost2010PropOp48
 70
     1
102
RTVSPost2010Prop49
280
     0
102
RTVSPost2010PropOp49
 70
     1
102
RTVSPost2010Prop50
 90
       50
102
RTVSPost2010PropOp50
 70
     1
102
RTVSPost2010Prop51ColorIndex
 90
      256
102
RTVSPost2010Prop51ColorRGB
 90
-16777216
102
RTVSPost2010PropOp51
 70
     0
102
RTVSPost2010Prop52
140
1.0
102
RTVSPost2010PropOp52
 70
     0
102
RTVSPost2010Prop53
 90
        2
102
RTVSPost2010PropOp53
 70
     1
102
RTVSPost2010Prop54
  1
strokes_ogs.tif
102
RTVSPost2010PropOp54
 70
     1
102
RTVSPost2010Prop55
280
     0
102
RTVSPost2010PropOp55
 70
     1
102
RTVSPost2010Prop56
140
1.0
102
RTVSPost2010PropOp56
 70
     1
102
RTVSPost2010Prop57
140
1.0
102
RTVSPost2010PropOp57
 70
     1
102
RTVSPropertyOp0
 70
     1
102
RTVSPropertyOp1
 70
     1
102
RTVSPropertyOp2
 70
     1
102
RTVSPropertyOp3
 70
     1
102
RTVSPropertyOp4
 70
     1
102
RTVSPropertyOp5
 70
     1
102
RTVSPropertyOp6
 70
     1
102
RTVSPropertyOp7
 70
     1
102
RTVSPropertyOp8
 70
     1
102
RTVSPropertyOp9
 70
     1
102
RTVSPropertyOp10
 70
     1
102
RTVSPropertyOp11
 70
     1
102
RTVSPropertyOp12
 70
     1
102
RTVSPropertyOp13
 70
     1
102
RTVSPropertyOp14
 70
     1
102
RTVSPropertyOp15
 70
     1
102
RTVSPropertyOp16
 70
     1
102
RTVSPropertyOp17
 70
     1
102
RTVSPropertyOp18
 70
     1
102
RTVSPropertyOp19
 70
     1
102
RTVSPropertyOp20
 70
     1
102
RTVSPropertyOp21
 70
     1
102
RTVSPropertyOp22
 70
     1
102
RTVSPropertyOp23
 70
     1
102
RTVSPropertyOp24
 70
     1
102
RTVSPropertyOp25
 70
     1
102
RTVSPropertyOp26
 70
     1
102
RTVSPropertyOp27
 70
     1
102
RTVSPropertyOp28
 70
     1
102
RTVSPropertyOp29
 70
     1
102
RTVSPropertyOp30
 70
     1
102
RTVSPropertyOp31
 70
     1
102
RTVSPropertyOp32
 70
     1
102
RTVSPropertyOp33
 70
     1
102
RTVSPropertyOp34
 70
     1
102
RTVSPropertyOp35
 70
     1
102
RTVSPropertyOp36
 70
     1
102
RTVSPropertyOp37
 70
     1
102
RTVSPropertyOp38
 70
     1
102
RTVSPropertyOp39
 70
     1
102
RTVSPropertyOp40
 70
     1
102
RTVSPropertyOp41
 70
     1
102
RTVSPropertyOp42
 70
     1
102
RTVSPropertyOp43
 70
     1
102
RTVSPropertyOp44
 70
     1
102
RTVSPropertyOp45
 70
     1
102
RTVSPropertyOp46
 70
     1
102
RTVSPropertyOp47
 70
     1
102
RTVSPropertyOp48
 70
     1
102
RTVSPropertyOp49
 70
     1
102
RTVSPropertyOp50
 70
     1
102
RTVSPropertyOp51
 70
     0
102
RTVSPropertyOp52
 70
     0
102
RTVSPropertyOp53
 70
     1
102
RTVSPropertyOp54
 70
     1
102
RTVSPropertyOp55
 70
     1
102
RTVSPropertyOp56
 70
     1
102
RTVSPropertyOp57
 70
     1
102
RTVSPropertyOp58
 70
     1
102
RTVSPropertyOp59
 70
     1
102
RTVSPropertyOp60
 70
     1
102
RTVSPropertyOp61
 70
     1
102
RTVSPropertyOp62
 70
     1
  0
XRECORD
  5
83BA
102
{ACAD_REACTORS
330
83B9
102
}
330
83B9
100
AcDbXrecord
280
     1
102
RTVSPost2010Prop28
280
     0
102
RTVSPost2010PropOp28
 70
     1
102
RTVSPost2010Prop29
280
     1
102
RTVSPost2010PropOp29
 70
     1
102
RTVSPost2010Prop30
280
     1
102
RTVSPost2010PropOp30
 70
     1
102
RTVSPost2010Prop31
280
     0
102
RTVSPost2010PropOp31
 70
     1
102
RTVSPost2010Prop32
280
     0
102
RTVSPost2010PropOp32
 70
     1
102
RTVSPost2010Prop33
280
     0
102
RTVSPost2010PropOp33
 70
     1
102
RTVSPost2010Prop34
280
     0
102
RTVSPost2010PropOp34
 70
     1
102
RTVSPost2010Prop35
280
     0
102
RTVSPost2010PropOp35
 70
     1
102
RTVSPost2010Prop36
280
     0
102
RTVSPost2010PropOp36
 70
     1
102
RTVSPost2010Prop37
 90
       50
102
RTVSPost2010PropOp37
 70
     1
102
RTVSPost2010Prop38
140
0.0
102
RTVSPost2010PropOp38
 70
     1
102
RTVSPost2010Prop39
140
1.0
102
RTVSPost2010PropOp39
 70
     1
102
RTVSPost2010Prop40
 90
        0
102
RTVSPost2010PropOp40
 70
     1
102
RTVSPost2010Prop41ColorIndex
 90
       18
102
RTVSPost2010Prop41ColorRGB
 90
        0
102
RTVSPost2010PropOp41
 70
     1
102
RTVSPost2010Prop42
 90
       50
102
RTVSPost2010PropOp42
 70
     1
102
RTVSPost2010Prop43
 90
        3
102
RTVSPost2010PropOp43
 70
     1
102
RTVSPost2010Prop44ColorIndex
 90
        5
102
RTVSPost2010Prop44ColorRGB
 90
      255
102
RTVSPost2010PropOp44
 70
     1
102
RTVSPost2010Prop45
280
     0
102
RTVSPost2010PropOp45
 70
     1
102
RTVSPost2010Prop46
 90
       50
102
RTVSPost2010PropOp46
 70
     1
102
RTVSPost2010Prop47
 90
       50
102
RTVSPost2010PropOp47
 70
     1
102
RTVSPost2010Prop48
 90
       50
102
RTVSPost2010PropOp48
 70
     1
102
RTVSPost2010Prop49
280
     0
102
RTVSPost2010PropOp49
 70
     1
102
RTVSPost2010Prop50
 90
       50
102
RTVSPost2010PropOp50
 70
     1
102
RTVSPost2010Prop51ColorIndex
 90
      256
102
RTVSPost2010Prop51ColorRGB
 90
-16777216
102
RTVSPost2010PropOp51
 70
     0
102
RTVSPost2010Prop52
140
1.0
102
RTVSPost2010PropOp52
 70
     0
102
RTVSPost2010Prop53
 90
        2
102
RTVSPost2010PropOp53
 70
     1
102
RTVSPost2010Prop54
  1
strokes_ogs.tif
102
RTVSPost2010PropOp54
 70
     1
102
RTVSPost2010Prop55
280
     0
102
RTVSPost2010PropOp55
 70
     1
102
RTVSPost2010Prop56
140
1.0
102
RTVSPost2010PropOp56
 70
     1
102
RTVSPost2010Prop57
140
1.0
102
RTVSPost2010PropOp57
 70
     1
102
RTVSPropertyOp0
 70
     1
102
RTVSPropertyOp1
 70
     1
102
RTVSPropertyOp2
 70
     1
102
RTVSPropertyOp3
 70
     1
102
RTVSPropertyOp4
 70
     1
102
RTVSPropertyOp5
 70
     1
102
RTVSPropertyOp6
 70
     1
102
RTVSPropertyOp7
 70
     1
102
RTVSPropertyOp8
 70
     1
102
RTVSPropertyOp9
 70
     1
102
RTVSPropertyOp10
 70
     1
102
RTVSPropertyOp11
 70
     1
102
RTVSPropertyOp12
 70
     1
102
RTVSPropertyOp13
 70
     1
102
RTVSPropertyOp14
 70
     1
102
RTVSPropertyOp15
 70
     1
102
RTVSPropertyOp16
 70
     1
102
RTVSPropertyOp17
 70
     1
102
RTVSPropertyOp18
 70
     1
102
RTVSPropertyOp19
 70
     1
102
RTVSPropertyOp20
 70
     1
102
RTVSPropertyOp21
 70
     1
102
RTVSPropertyOp22
 70
     1
102
RTVSPropertyOp23
 70
     1
102
RTVSPropertyOp24
 70
     1
102
RTVSPropertyOp25
 70
     1
102
RTVSPropertyOp26
 70
     1
102
RTVSPropertyOp27
 70
     1
102
RTVSPropertyOp28
 70
     1
102
RTVSPropertyOp29
 70
     1
102
RTVSPropertyOp30
 70
     1
102
RTVSPropertyOp31
 70
     1
102
RTVSPropertyOp32
 70
     1
102
RTVSPropertyOp33
 70
     1
102
RTVSPropertyOp34
 70
     1
102
RTVSPropertyOp35
 70
     1
102
RTVSPropertyOp36
 70
     1
102
RTVSPropertyOp37
 70
     1
102
RTVSPropertyOp38
 70
     1
102
RTVSPropertyOp39
 70
     1
102
RTVSPropertyOp40
 70
     1
102
RTVSPropertyOp41
 70
     1
102
RTVSPropertyOp42
 70
     1
102
RTVSPropertyOp43
 70
     1
102
RTVSPropertyOp44
 70
     1
102
RTVSPropertyOp45
 70
     1
102
RTVSPropertyOp46
 70
     1
102
RTVSPropertyOp47
 70
     1
102
RTVSPropertyOp48
 70
     1
102
RTVSPropertyOp49
 70
     1
102
RTVSPropertyOp50
 70
     1
102
RTVSPropertyOp51
 70
     0
102
RTVSPropertyOp52
 70
     0
102
RTVSPropertyOp53
 70
     1
102
RTVSPropertyOp54
 70
     1
102
RTVSPropertyOp55
 70
     1
102
RTVSPropertyOp56
 70
     1
102
RTVSPropertyOp57
 70
     1
102
RTVSPropertyOp58
 70
     1
102
RTVSPropertyOp59
 70
     1
102
RTVSPropertyOp60
 70
     1
102
RTVSPropertyOp61
 70
     1
102
RTVSPropertyOp62
 70
     1
  0
XRECORD
  5
83C8
102
{ACAD_REACTORS
330
83C7
102
}
330
83C7
100
AcDbXrecord
280
     1
102
RTVSPost2010Prop28
280
     0
102
RTVSPost2010PropOp28
 70
     1
102
RTVSPost2010Prop29
280
     1
102
RTVSPost2010PropOp29
 70
     1
102
RTVSPost2010Prop30
280
     1
102
RTVSPost2010PropOp30
 70
     1
102
RTVSPost2010Prop31
280
     0
102
RTVSPost2010PropOp31
 70
     1
102
RTVSPost2010Prop32
280
     0
102
RTVSPost2010PropOp32
 70
     1
102
RTVSPost2010Prop33
280
     0
102
RTVSPost2010PropOp33
 70
     1
102
RTVSPost2010Prop34
280
     0
102
RTVSPost2010PropOp34
 70
     1
102
RTVSPost2010Prop35
280
     0
102
RTVSPost2010PropOp35
 70
     1
102
RTVSPost2010Prop36
280
     0
102
RTVSPost2010PropOp36
 70
     1
102
RTVSPost2010Prop37
 90
       50
102
RTVSPost2010PropOp37
 70
     1
102
RTVSPost2010Prop38
140
0.0
102
RTVSPost2010PropOp38
 70
     1
102
RTVSPost2010Prop39
140
1.0
102
RTVSPost2010PropOp39
 70
     1
102
RTVSPost2010Prop40
 90
        0
102
RTVSPost2010PropOp40
 70
     1
102
RTVSPost2010Prop41ColorIndex
 90
       18
102
RTVSPost2010Prop41ColorRGB
 90
        0
102
RTVSPost2010PropOp41
 70
     1
102
RTVSPost2010Prop42
 90
       50
102
RTVSPost2010PropOp42
 70
     1
102
RTVSPost2010Prop43
 90
        3
102
RTVSPost2010PropOp43
 70
     1
102
RTVSPost2010Prop44ColorIndex
 90
        5
102
RTVSPost2010Prop44ColorRGB
 90
      255
102
RTVSPost2010PropOp44
 70
     1
102
RTVSPost2010Prop45
280
     0
102
RTVSPost2010PropOp45
 70
     1
102
RTVSPost2010Prop46
 90
       50
102
RTVSPost2010PropOp46
 70
     1
102
RTVSPost2010Prop47
 90
       50
102
RTVSPost2010PropOp47
 70
     1
102
RTVSPost2010Prop48
 90
       50
102
RTVSPost2010PropOp48
 70
     1
102
RTVSPost2010Prop49
280
     0
102
RTVSPost2010PropOp49
 70
     1
102
RTVSPost2010Prop50
 90
       50
102
RTVSPost2010PropOp50
 70
     1
102
RTVSPost2010Prop51ColorIndex
 90
      256
102
RTVSPost2010Prop51ColorRGB
 90
-16777216
102
RTVSPost2010PropOp51
 70
     0
102
RTVSPost2010Prop52
140
1.0
102
RTVSPost2010PropOp52
 70
     0
102
RTVSPost2010Prop53
 90
        2
102
RTVSPost2010PropOp53
 70
     1
102
RTVSPost2010Prop54
  1
strokes_ogs.tif
102
RTVSPost2010PropOp54
 70
     1
102
RTVSPost2010Prop55
280
     0
102
RTVSPost2010PropOp55
 70
     1
102
RTVSPost2010Prop56
140
1.0
102
RTVSPost2010PropOp56
 70
     1
102
RTVSPost2010Prop57
140
1.0
102
RTVSPost2010PropOp57
 70
     1
102
RTVSPropertyOp0
 70
     1
102
RTVSPropertyOp1
 70
     1
102
RTVSPropertyOp2
 70
     1
102
RTVSPropertyOp3
 70
     1
102
RTVSPropertyOp4
 70
     1
102
RTVSPropertyOp5
 70
     1
102
RTVSPropertyOp6
 70
     1
102
RTVSPropertyOp7
 70
     1
102
RTVSPropertyOp8
 70
     1
102
RTVSPropertyOp9
 70
     1
102
RTVSPropertyOp10
 70
     1
102
RTVSPropertyOp11
 70
     1
102
RTVSPropertyOp12
 70
     1
102
RTVSPropertyOp13
 70
     1
102
RTVSPropertyOp14
 70
     1
102
RTVSPropertyOp15
 70
     1
102
RTVSPropertyOp16
 70
     1
102
RTVSPropertyOp17
 70
     1
102
RTVSPropertyOp18
 70
     1
102
RTVSPropertyOp19
 70
     1
102
RTVSPropertyOp20
 70
     1
102
RTVSPropertyOp21
 70
     1
102
RTVSPropertyOp22
 70
     1
102
RTVSPropertyOp23
 70
     1
102
RTVSPropertyOp24
 70
     1
102
RTVSPropertyOp25
 70
     1
102
RTVSPropertyOp26
 70
     1
102
RTVSPropertyOp27
 70
     1
102
RTVSPropertyOp28
 70
     1
102
RTVSPropertyOp29
 70
     1
102
RTVSPropertyOp30
 70
     1
102
RTVSPropertyOp31
 70
     1
102
RTVSPropertyOp32
 70
     1
102
RTVSPropertyOp33
 70
     1
102
RTVSPropertyOp34
 70
     1
102
RTVSPropertyOp35
 70
     1
102
RTVSPropertyOp36
 70
     1
102
RTVSPropertyOp37
 70
     1
102
RTVSPropertyOp38
 70
     1
102
RTVSPropertyOp39
 70
     1
102
RTVSPropertyOp40
 70
     1
102
RTVSPropertyOp41
 70
     1
102
RTVSPropertyOp42
 70
     1
102
RTVSPropertyOp43
 70
     1
102
RTVSPropertyOp44
 70
     1
102
RTVSPropertyOp45
 70
     1
102
RTVSPropertyOp46
 70
     1
102
RTVSPropertyOp47
 70
     1
102
RTVSPropertyOp48
 70
     1
102
RTVSPropertyOp49
 70
     1
102
RTVSPropertyOp50
 70
     1
102
RTVSPropertyOp51
 70
     0
102
RTVSPropertyOp52
 70
     0
102
RTVSPropertyOp53
 70
     1
102
RTVSPropertyOp54
 70
     1
102
RTVSPropertyOp55
 70
     1
102
RTVSPropertyOp56
 70
     1
102
RTVSPropertyOp57
 70
     1
102
RTVSPropertyOp58
 70
     1
102
RTVSPropertyOp59
 70
     1
102
RTVSPropertyOp60
 70
     1
102
RTVSPropertyOp61
 70
     1
102
RTVSPropertyOp62
 70
     1
  0
XRECORD
  5
83D0
102
{ACAD_REACTORS
330
83CF
102
}
330
83CF
100
AcDbXrecord
280
     1
102
RTVSPost2010Prop28
280
     0
102
RTVSPost2010PropOp28
 70
     1
102
RTVSPost2010Prop29
280
     1
102
RTVSPost2010PropOp29
 70
     1
102
RTVSPost2010Prop30
280
     1
102
RTVSPost2010PropOp30
 70
     1
102
RTVSPost2010Prop31
280
     0
102
RTVSPost2010PropOp31
 70
     1
102
RTVSPost2010Prop32
280
     0
102
RTVSPost2010PropOp32
 70
     1
102
RTVSPost2010Prop33
280
     0
102
RTVSPost2010PropOp33
 70
     1
102
RTVSPost2010Prop34
280
     0
102
RTVSPost2010PropOp34
 70
     1
102
RTVSPost2010Prop35
280
     0
102
RTVSPost2010PropOp35
 70
     1
102
RTVSPost2010Prop36
280
     0
102
RTVSPost2010PropOp36
 70
     1
102
RTVSPost2010Prop37
 90
       50
102
RTVSPost2010PropOp37
 70
     1
102
RTVSPost2010Prop38
140
0.0
102
RTVSPost2010PropOp38
 70
     1
102
RTVSPost2010Prop39
140
1.0
102
RTVSPost2010PropOp39
 70
     1
102
RTVSPost2010Prop40
 90
        0
102
RTVSPost2010PropOp40
 70
     1
102
RTVSPost2010Prop41ColorIndex
 90
       18
102
RTVSPost2010Prop41ColorRGB
 90
        0
102
RTVSPost2010PropOp41
 70
     1
102
RTVSPost2010Prop42
 90
       50
102
RTVSPost2010PropOp42
 70
     1
102
RTVSPost2010Prop43
 90
        3
102
RTVSPost2010PropOp43
 70
     1
102
RTVSPost2010Prop44ColorIndex
 90
        5
102
RTVSPost2010Prop44ColorRGB
 90
      255
102
RTVSPost2010PropOp44
 70
     1
102
RTVSPost2010Prop45
280
     0
102
RTVSPost2010PropOp45
 70
     1
102
RTVSPost2010Prop46
 90
       50
102
RTVSPost2010PropOp46
 70
     1
102
RTVSPost2010Prop47
 90
       50
102
RTVSPost2010PropOp47
 70
     1
102
RTVSPost2010Prop48
 90
       50
102
RTVSPost2010PropOp48
 70
     1
102
RTVSPost2010Prop49
280
     0
102
RTVSPost2010PropOp49
 70
     1
102
RTVSPost2010Prop50
 90
       50
102
RTVSPost2010PropOp50
 70
     1
102
RTVSPost2010Prop51ColorIndex
 90
      256
102
RTVSPost2010Prop51ColorRGB
 90
-16777216
102
RTVSPost2010PropOp51
 70
     0
102
RTVSPost2010Prop52
140
1.0
102
RTVSPost2010PropOp52
 70
     0
102
RTVSPost2010Prop53
 90
        2
102
RTVSPost2010PropOp53
 70
     1
102
RTVSPost2010Prop54
  1
strokes_ogs.tif
102
RTVSPost2010PropOp54
 70
     1
102
RTVSPost2010Prop55
280
     0
102
RTVSPost2010PropOp55
 70
     1
102
RTVSPost2010Prop56
140
1.0
102
RTVSPost2010PropOp56
 70
     1
102
RTVSPost2010Prop57
140
1.0
102
RTVSPost2010PropOp57
 70
     1
102
RTVSPropertyOp0
 70
     1
102
RTVSPropertyOp1
 70
     1
102
RTVSPropertyOp2
 70
     1
102
RTVSPropertyOp3
 70
     1
102
RTVSPropertyOp4
 70
     1
102
RTVSPropertyOp5
 70
     1
102
RTVSPropertyOp6
 70
     1
102
RTVSPropertyOp7
 70
     1
102
RTVSPropertyOp8
 70
     1
102
RTVSPropertyOp9
 70
     1
102
RTVSPropertyOp10
 70
     1
102
RTVSPropertyOp11
 70
     1
102
RTVSPropertyOp12
 70
     1
102
RTVSPropertyOp13
 70
     1
102
RTVSPropertyOp14
 70
     1
102
RTVSPropertyOp15
 70
     1
102
RTVSPropertyOp16
 70
     1
102
RTVSPropertyOp17
 70
     1
102
RTVSPropertyOp18
 70
     1
102
RTVSPropertyOp19
 70
     1
102
RTVSPropertyOp20
 70
     1
102
RTVSPropertyOp21
 70
     1
102
RTVSPropertyOp22
 70
     1
102
RTVSPropertyOp23
 70
     1
102
RTVSPropertyOp24
 70
     1
102
RTVSPropertyOp25
 70
     1
102
RTVSPropertyOp26
 70
     1
102
RTVSPropertyOp27
 70
     1
102
RTVSPropertyOp28
 70
     1
102
RTVSPropertyOp29
 70
     1
102
RTVSPropertyOp30
 70
     1
102
RTVSPropertyOp31
 70
     1
102
RTVSPropertyOp32
 70
     1
102
RTVSPropertyOp33
 70
     1
102
RTVSPropertyOp34
 70
     1
102
RTVSPropertyOp35
 70
     1
102
RTVSPropertyOp36
 70
     1
102
RTVSPropertyOp37
 70
     1
102
RTVSPropertyOp38
 70
     1
102
RTVSPropertyOp39
 70
     1
102
RTVSPropertyOp40
 70
     1
102
RTVSPropertyOp41
 70
     1
102
RTVSPropertyOp42
 70
     1
102
RTVSPropertyOp43
 70
     1
102
RTVSPropertyOp44
 70
     1
102
RTVSPropertyOp45
 70
     1
102
RTVSPropertyOp46
 70
     1
102
RTVSPropertyOp47
 70
     1
102
RTVSPropertyOp48
 70
     1
102
RTVSPropertyOp49
 70
     1
102
RTVSPropertyOp50
 70
     1
102
RTVSPropertyOp51
 70
     0
102
RTVSPropertyOp52
 70
     0
102
RTVSPropertyOp53
 70
     1
102
RTVSPropertyOp54
 70
     1
102
RTVSPropertyOp55
 70
     1
102
RTVSPropertyOp56
 70
     1
102
RTVSPropertyOp57
 70
     1
102
RTVSPropertyOp58
 70
     1
102
RTVSPropertyOp59
 70
     1
102
RTVSPropertyOp60
 70
     1
102
RTVSPropertyOp61
 70
     1
102
RTVSPropertyOp62
 70
     1
  0
XRECORD
  5
83C2
102
{ACAD_REACTORS
330
83C1
102
}
330
83C1
100
AcDbXrecord
280
     1
102
RTVSPost2010Prop28
280
     0
102
RTVSPost2010PropOp28
 70
     1
102
RTVSPost2010Prop29
280
     1
102
RTVSPost2010PropOp29
 70
     1
102
RTVSPost2010Prop30
280
     1
102
RTVSPost2010PropOp30
 70
     1
102
RTVSPost2010Prop31
280
     0
102
RTVSPost2010PropOp31
 70
     1
102
RTVSPost2010Prop32
280
     0
102
RTVSPost2010PropOp32
 70
     1
102
RTVSPost2010Prop33
280
     0
102
RTVSPost2010PropOp33
 70
     1
102
RTVSPost2010Prop34
280
     0
102
RTVSPost2010PropOp34
 70
     1
102
RTVSPost2010Prop35
280
     0
102
RTVSPost2010PropOp35
 70
     1
102
RTVSPost2010Prop36
280
     0
102
RTVSPost2010PropOp36
 70
     1
102
RTVSPost2010Prop37
 90
       50
102
RTVSPost2010PropOp37
 70
     1
102
RTVSPost2010Prop38
140
0.0
102
RTVSPost2010PropOp38
 70
     1
102
RTVSPost2010Prop39
140
1.0
102
RTVSPost2010PropOp39
 70
     1
102
RTVSPost2010Prop40
 90
        0
102
RTVSPost2010PropOp40
 70
     1
102
RTVSPost2010Prop41ColorIndex
 90
       18
102
RTVSPost2010Prop41ColorRGB
 90
        0
102
RTVSPost2010PropOp41
 70
     1
102
RTVSPost2010Prop42
 90
       50
102
RTVSPost2010PropOp42
 70
     1
102
RTVSPost2010Prop43
 90
        3
102
RTVSPost2010PropOp43
 70
     1
102
RTVSPost2010Prop44ColorIndex
 90
        5
102
RTVSPost2010Prop44ColorRGB
 90
      255
102
RTVSPost2010PropOp44
 70
     1
102
RTVSPost2010Prop45
280
     0
102
RTVSPost2010PropOp45
 70
     1
102
RTVSPost2010Prop46
 90
       50
102
RTVSPost2010PropOp46
 70
     1
102
RTVSPost2010Prop47
 90
       50
102
RTVSPost2010PropOp47
 70
     1
102
RTVSPost2010Prop48
 90
       50
102
RTVSPost2010PropOp48
 70
     1
102
RTVSPost2010Prop49
280
     0
102
RTVSPost2010PropOp49
 70
     1
102
RTVSPost2010Prop50
 90
       50
102
RTVSPost2010PropOp50
 70
     1
102
RTVSPost2010Prop51ColorIndex
 90
      256
102
RTVSPost2010Prop51ColorRGB
 90
-16777216
102
RTVSPost2010PropOp51
 70
     0
102
RTVSPost2010Prop52
140
1.0
102
RTVSPost2010PropOp52
 70
     0
102
RTVSPost2010Prop53
 90
        2
102
RTVSPost2010PropOp53
 70
     1
102
RTVSPost2010Prop54
  1
strokes_ogs.tif
102
RTVSPost2010PropOp54
 70
     1
102
RTVSPost2010Prop55
280
     0
102
RTVSPost2010PropOp55
 70
     1
102
RTVSPost2010Prop56
140
1.0
102
RTVSPost2010PropOp56
 70
     1
102
RTVSPost2010Prop57
140
1.0
102
RTVSPost2010PropOp57
 70
     1
102
RTVSPropertyOp0
 70
     1
102
RTVSPropertyOp1
 70
     1
102
RTVSPropertyOp2
 70
     1
102
RTVSPropertyOp3
 70
     1
102
RTVSPropertyOp4
 70
     1
102
RTVSPropertyOp5
 70
     1
102
RTVSPropertyOp6
 70
     1
102
RTVSPropertyOp7
 70
     1
102
RTVSPropertyOp8
 70
     1
102
RTVSPropertyOp9
 70
     1
102
RTVSPropertyOp10
 70
     1
102
RTVSPropertyOp11
 70
     1
102
RTVSPropertyOp12
 70
     1
102
RTVSPropertyOp13
 70
     1
102
RTVSPropertyOp14
 70
     1
102
RTVSPropertyOp15
 70
     1
102
RTVSPropertyOp16
 70
     1
102
RTVSPropertyOp17
 70
     1
102
RTVSPropertyOp18
 70
     1
102
RTVSPropertyOp19
 70
     1
102
RTVSPropertyOp20
 70
     1
102
RTVSPropertyOp21
 70
     1
102
RTVSPropertyOp22
 70
     1
102
RTVSPropertyOp23
 70
     1
102
RTVSPropertyOp24
 70
     1
102
RTVSPropertyOp25
 70
     1
102
RTVSPropertyOp26
 70
     1
102
RTVSPropertyOp27
 70
     1
102
RTVSPropertyOp28
 70
     1
102
RTVSPropertyOp29
 70
     1
102
RTVSPropertyOp30
 70
     1
102
RTVSPropertyOp31
 70
     1
102
RTVSPropertyOp32
 70
     1
102
RTVSPropertyOp33
 70
     1
102
RTVSPropertyOp34
 70
     1
102
RTVSPropertyOp35
 70
     1
102
RTVSPropertyOp36
 70
     1
102
RTVSPropertyOp37
 70
     1
102
RTVSPropertyOp38
 70
     1
102
RTVSPropertyOp39
 70
     1
102
RTVSPropertyOp40
 70
     1
102
RTVSPropertyOp41
 70
     1
102
RTVSPropertyOp42
 70
     1
102
RTVSPropertyOp43
 70
     1
102
RTVSPropertyOp44
 70
     1
102
RTVSPropertyOp45
 70
     1
102
RTVSPropertyOp46
 70
     1
102
RTVSPropertyOp47
 70
     1
102
RTVSPropertyOp48
 70
     1
102
RTVSPropertyOp49
 70
     1
102
RTVSPropertyOp50
 70
     1
102
RTVSPropertyOp51
 70
     0
102
RTVSPropertyOp52
 70
     0
102
RTVSPropertyOp53
 70
     1
102
RTVSPropertyOp54
 70
     1
102
RTVSPropertyOp55
 70
     1
102
RTVSPropertyOp56
 70
     1
102
RTVSPropertyOp57
 70
     1
102
RTVSPropertyOp58
 70
     1
102
RTVSPropertyOp59
 70
     1
102
RTVSPropertyOp60
 70
     1
102
RTVSPropertyOp61
 70
     1
102
RTVSPropertyOp62
 70
     1
  0
XRECORD
  5
83C6
102
{ACAD_REACTORS
330
83C5
102
}
330
83C5
100
AcDbXrecord
280
     1
102
RTVSPost2010Prop28
280
     0
102
RTVSPost2010PropOp28
 70
     1
102
RTVSPost2010Prop29
280
     1
102
RTVSPost2010PropOp29
 70
     1
102
RTVSPost2010Prop30
280
     1
102
RTVSPost2010PropOp30
 70
     1
102
RTVSPost2010Prop31
280
     0
102
RTVSPost2010PropOp31
 70
     1
102
RTVSPost2010Prop32
280
     0
102
RTVSPost2010PropOp32
 70
     1
102
RTVSPost2010Prop33
280
     0
102
RTVSPost2010PropOp33
 70
     1
102
RTVSPost2010Prop34
280
     0
102
RTVSPost2010PropOp34
 70
     1
102
RTVSPost2010Prop35
280
     0
102
RTVSPost2010PropOp35
 70
     1
102
RTVSPost2010Prop36
280
     0
102
RTVSPost2010PropOp36
 70
     1
102
RTVSPost2010Prop37
 90
       50
102
RTVSPost2010PropOp37
 70
     1
102
RTVSPost2010Prop38
140
0.0
102
RTVSPost2010PropOp38
 70
     1
102
RTVSPost2010Prop39
140
1.0
102
RTVSPost2010PropOp39
 70
     1
102
RTVSPost2010Prop40
 90
        0
102
RTVSPost2010PropOp40
 70
     1
102
RTVSPost2010Prop41ColorIndex
 90
       18
102
RTVSPost2010Prop41ColorRGB
 90
        0
102
RTVSPost2010PropOp41
 70
     1
102
RTVSPost2010Prop42
 90
       50
102
RTVSPost2010PropOp42
 70
     1
102
RTVSPost2010Prop43
 90
        3
102
RTVSPost2010PropOp43
 70
     1
102
RTVSPost2010Prop44ColorIndex
 90
        5
102
RTVSPost2010Prop44ColorRGB
 90
      255
102
RTVSPost2010PropOp44
 70
     1
102
RTVSPost2010Prop45
280
     0
102
RTVSPost2010PropOp45
 70
     1
102
RTVSPost2010Prop46
 90
       50
102
RTVSPost2010PropOp46
 70
     1
102
RTVSPost2010Prop47
 90
       50
102
RTVSPost2010PropOp47
 70
     1
102
RTVSPost2010Prop48
 90
       50
102
RTVSPost2010PropOp48
 70
     1
102
RTVSPost2010Prop49
280
     0
102
RTVSPost2010PropOp49
 70
     1
102
RTVSPost2010Prop50
 90
       50
102
RTVSPost2010PropOp50
 70
     1
102
RTVSPost2010Prop51ColorIndex
 90
      256
102
RTVSPost2010Prop51ColorRGB
 90
-16777216
102
RTVSPost2010PropOp51
 70
     0
102
RTVSPost2010Prop52
140
1.0
102
RTVSPost2010PropOp52
 70
     0
102
RTVSPost2010Prop53
 90
        2
102
RTVSPost2010PropOp53
 70
     1
102
RTVSPost2010Prop54
  1
strokes_ogs.tif
102
RTVSPost2010PropOp54
 70
     1
102
RTVSPost2010Prop55
280
     0
102
RTVSPost2010PropOp55
 70
     1
102
RTVSPost2010Prop56
140
1.0
102
RTVSPost2010PropOp56
 70
     1
102
RTVSPost2010Prop57
140
1.0
102
RTVSPost2010PropOp57
 70
     1
102
RTVSPropertyOp0
 70
     1
102
RTVSPropertyOp1
 70
     1
102
RTVSPropertyOp2
 70
     1
102
RTVSPropertyOp3
 70
     1
102
RTVSPropertyOp4
 70
     1
102
RTVSPropertyOp5
 70
     1
102
RTVSPropertyOp6
 70
     1
102
RTVSPropertyOp7
 70
     1
102
RTVSPropertyOp8
 70
     1
102
RTVSPropertyOp9
 70
     1
102
RTVSPropertyOp10
 70
     1
102
RTVSPropertyOp11
 70
     1
102
RTVSPropertyOp12
 70
     1
102
RTVSPropertyOp13
 70
     1
102
RTVSPropertyOp14
 70
     1
102
RTVSPropertyOp15
 70
     1
102
RTVSPropertyOp16
 70
     1
102
RTVSPropertyOp17
 70
     1
102
RTVSPropertyOp18
 70
     1
102
RTVSPropertyOp19
 70
     1
102
RTVSPropertyOp20
 70
     1
102
RTVSPropertyOp21
 70
     1
102
RTVSPropertyOp22
 70
     1
102
RTVSPropertyOp23
 70
     1
102
RTVSPropertyOp24
 70
     1
102
RTVSPropertyOp25
 70
     1
102
RTVSPropertyOp26
 70
     1
102
RTVSPropertyOp27
 70
     1
102
RTVSPropertyOp28
 70
     1
102
RTVSPropertyOp29
 70
     1
102
RTVSPropertyOp30
 70
     1
102
RTVSPropertyOp31
 70
     1
102
RTVSPropertyOp32
 70
     1
102
RTVSPropertyOp33
 70
     1
102
RTVSPropertyOp34
 70
     1
102
RTVSPropertyOp35
 70
     1
102
RTVSPropertyOp36
 70
     1
102
RTVSPropertyOp37
 70
     1
102
RTVSPropertyOp38
 70
     1
102
RTVSPropertyOp39
 70
     1
102
RTVSPropertyOp40
 70
     1
102
RTVSPropertyOp41
 70
     1
102
RTVSPropertyOp42
 70
     1
102
RTVSPropertyOp43
 70
     1
102
RTVSPropertyOp44
 70
     1
102
RTVSPropertyOp45
 70
     1
102
RTVSPropertyOp46
 70
     1
102
RTVSPropertyOp47
 70
     1
102
RTVSPropertyOp48
 70
     1
102
RTVSPropertyOp49
 70
     1
102
RTVSPropertyOp50
 70
     1
102
RTVSPropertyOp51
 70
     0
102
RTVSPropertyOp52
 70
     0
102
RTVSPropertyOp53
 70
     1
102
RTVSPropertyOp54
 70
     1
102
RTVSPropertyOp55
 70
     1
102
RTVSPropertyOp56
 70
     1
102
RTVSPropertyOp57
 70
     1
102
RTVSPropertyOp58
 70
     1
102
RTVSPropertyOp59
 70
     1
102
RTVSPropertyOp60
 70
     1
102
RTVSPropertyOp61
 70
     1
102
RTVSPropertyOp62
 70
     1
  0
XRECORD
  5
83E0
102
{ACAD_REACTORS
330
83DF
102
}
330
83DF
100
AcDbXrecord
280
     1
102
RTVSPost2010Prop28
280
     0
102
RTVSPost2010PropOp28
 70
     1
102
RTVSPost2010Prop29
280
     1
102
RTVSPost2010PropOp29
 70
     1
102
RTVSPost2010Prop30
280
     1
102
RTVSPost2010PropOp30
 70
     1
102
RTVSPost2010Prop31
280
     0
102
RTVSPost2010PropOp31
 70
     1
102
RTVSPost2010Prop32
280
     0
102
RTVSPost2010PropOp32
 70
     1
102
RTVSPost2010Prop33
280
     0
102
RTVSPost2010PropOp33
 70
     1
102
RTVSPost2010Prop34
280
     0
102
RTVSPost2010PropOp34
 70
     1
102
RTVSPost2010Prop35
280
     0
102
RTVSPost2010PropOp35
 70
     1
102
RTVSPost2010Prop36
280
     0
102
RTVSPost2010PropOp36
 70
     1
102
RTVSPost2010Prop37
 90
       50
102
RTVSPost2010PropOp37
 70
     0
102
RTVSPost2010Prop38
140
0.0
102
RTVSPost2010PropOp38
 70
     0
102
RTVSPost2010Prop39
140
1.0
102
RTVSPost2010PropOp39
 70
     0
102
RTVSPost2010Prop40
 90
        0
102
RTVSPost2010PropOp40
 70
     0
102
RTVSPost2010Prop41ColorIndex
 90
       18
102
RTVSPost2010Prop41ColorRGB
 90
        0
102
RTVSPost2010PropOp41
 70
     0
102
RTVSPost2010Prop42
 90
       50
102
RTVSPost2010PropOp42
 70
     0
102
RTVSPost2010Prop43
 90
        3
102
RTVSPost2010PropOp43
 70
     0
102
RTVSPost2010Prop44ColorIndex
 90
        5
102
RTVSPost2010Prop44ColorRGB
 90
      255
102
RTVSPost2010PropOp44
 70
     0
102
RTVSPost2010Prop45
280
     0
102
RTVSPost2010PropOp45
 70
     1
102
RTVSPost2010Prop46
 90
       50
102
RTVSPost2010PropOp46
 70
     0
102
RTVSPost2010Prop47
 90
       50
102
RTVSPost2010PropOp47
 70
     0
102
RTVSPost2010Prop48
 90
       50
102
RTVSPost2010PropOp48
 70
     0
102
RTVSPost2010Prop49
280
     0
102
RTVSPost2010PropOp49
 70
     1
102
RTVSPost2010Prop50
 90
       50
102
RTVSPost2010PropOp50
 70
     0
102
RTVSPost2010Prop51ColorIndex
 90
      256
102
RTVSPost2010Prop51ColorRGB
 90
-16777216
102
RTVSPost2010PropOp51
 70
     0
102
RTVSPost2010Prop52
140
1.0
102
RTVSPost2010PropOp52
 70
     0
102
RTVSPost2010Prop53
 90
        2
102
RTVSPost2010PropOp53
 70
     0
102
RTVSPost2010Prop54
  1
strokes_ogs.tif
102
RTVSPost2010PropOp54
 70
     0
102
RTVSPost2010Prop55
280
     0
102
RTVSPost2010PropOp55
 70
     1
102
RTVSPost2010Prop56
140
1.0
102
RTVSPost2010PropOp56
 70
     0
102
RTVSPost2010Prop57
140
1.0
102
RTVSPost2010PropOp57
 70
     0
102
RTVSPropertyOp0
 70
     0
102
RTVSPropertyOp1
 70
     0
102
RTVSPropertyOp2
 70
     0
102
RTVSPropertyOp3
 70
     0
102
RTVSPropertyOp4
 70
     0
102
RTVSPropertyOp5
 70
     0
102
RTVSPropertyOp6
 70
     0
102
RTVSPropertyOp7
 70
     0
102
RTVSPropertyOp8
 70
     0
102
RTVSPropertyOp9
 70
     0
102
RTVSPropertyOp10
 70
     0
102
RTVSPropertyOp11
 70
     0
102
RTVSPropertyOp12
 70
     0
102
RTVSPropertyOp13
 70
     0
102
RTVSPropertyOp14
 70
     2
102
RTVSPropertyOp15
 70
     0
102
RTVSPropertyOp16
 70
     0
102
RTVSPropertyOp17
 70
     0
102
RTVSPropertyOp18
 70
     0
102
RTVSPropertyOp19
 70
     0
102
RTVSPropertyOp20
 70
     0
102
RTVSPropertyOp21
 70
     0
102
RTVSPropertyOp22
 70
     0
102
RTVSPropertyOp23
 70
     0
102
RTVSPropertyOp24
 70
     0
102
RTVSPropertyOp25
 70
     0
102
RTVSPropertyOp26
 70
     0
102
RTVSPropertyOp27
 70
     0
102
RTVSPropertyOp28
 70
     1
102
RTVSPropertyOp29
 70
     1
102
RTVSPropertyOp30
 70
     1
102
RTVSPropertyOp31
 70
     1
102
RTVSPropertyOp32
 70
     1
102
RTVSPropertyOp33
 70
     1
102
RTVSPropertyOp34
 70
     1
102
RTVSPropertyOp35
 70
     1
102
RTVSPropertyOp36
 70
     1
102
RTVSPropertyOp37
 70
     0
102
RTVSPropertyOp38
 70
     0
102
RTVSPropertyOp39
 70
     0
102
RTVSPropertyOp40
 70
     0
102
RTVSPropertyOp41
 70
     0
102
RTVSPropertyOp42
 70
     0
102
RTVSPropertyOp43
 70
     0
102
RTVSPropertyOp44
 70
     0
102
RTVSPropertyOp45
 70
     1
102
RTVSPropertyOp46
 70
     0
102
RTVSPropertyOp47
 70
     0
102
RTVSPropertyOp48
 70
     0
102
RTVSPropertyOp49
 70
     1
102
RTVSPropertyOp50
 70
     0
102
RTVSPropertyOp51
 70
     0
102
RTVSPropertyOp52
 70
     0
102
RTVSPropertyOp53
 70
     0
102
RTVSPropertyOp54
 70
     0
102
RTVSPropertyOp55
 70
     1
102
RTVSPropertyOp56
 70
     0
102
RTVSPropertyOp57
 70
     0
102
RTVSPropertyOp58
 70
     0
102
RTVSPropertyOp59
 70
     0
102
RTVSPropertyOp60
 70
     0
102
RTVSPropertyOp61
 70
     0
102
RTVSPropertyOp62
 70
     0
  0
XRECORD
  5
83CE
102
{ACAD_REACTORS
330
83CD
102
}
330
83CD
100
AcDbXrecord
280
     1
102
RTVSPost2010Prop28
280
     0
102
RTVSPost2010PropOp28
 70
     1
102
RTVSPost2010Prop29
280
     1
102
RTVSPost2010PropOp29
 70
     1
102
RTVSPost2010Prop30
280
     1
102
RTVSPost2010PropOp30
 70
     1
102
RTVSPost2010Prop31
280
     0
102
RTVSPost2010PropOp31
 70
     1
102
RTVSPost2010Prop32
280
     0
102
RTVSPost2010PropOp32
 70
     1
102
RTVSPost2010Prop33
280
     0
102
RTVSPost2010PropOp33
 70
     1
102
RTVSPost2010Prop34
280
     0
102
RTVSPost2010PropOp34
 70
     1
102
RTVSPost2010Prop35
280
     0
102
RTVSPost2010PropOp35
 70
     1
102
RTVSPost2010Prop36
280
     0
102
RTVSPost2010PropOp36
 70
     1
102
RTVSPost2010Prop37
 90
       50
102
RTVSPost2010PropOp37
 70
     1
102
RTVSPost2010Prop38
140
0.0
102
RTVSPost2010PropOp38
 70
     1
102
RTVSPost2010Prop39
140
1.0
102
RTVSPost2010PropOp39
 70
     1
102
RTVSPost2010Prop40
 90
        0
102
RTVSPost2010PropOp40
 70
     1
102
RTVSPost2010Prop41ColorIndex
 90
       18
102
RTVSPost2010Prop41ColorRGB
 90
        0
102
RTVSPost2010PropOp41
 70
     1
102
RTVSPost2010Prop42
 90
       50
102
RTVSPost2010PropOp42
 70
     1
102
RTVSPost2010Prop43
 90
        3
102
RTVSPost2010PropOp43
 70
     1
102
RTVSPost2010Prop44ColorIndex
 90
        5
102
RTVSPost2010Prop44ColorRGB
 90
      255
102
RTVSPost2010PropOp44
 70
     1
102
RTVSPost2010Prop45
280
     0
102
RTVSPost2010PropOp45
 70
     1
102
RTVSPost2010Prop46
 90
       50
102
RTVSPost2010PropOp46
 70
     1
102
RTVSPost2010Prop47
 90
       50
102
RTVSPost2010PropOp47
 70
     1
102
RTVSPost2010Prop48
 90
       50
102
RTVSPost2010PropOp48
 70
     1
102
RTVSPost2010Prop49
280
     0
102
RTVSPost2010PropOp49
 70
     1
102
RTVSPost2010Prop50
 90
       50
102
RTVSPost2010PropOp50
 70
     1
102
RTVSPost2010Prop51ColorIndex
 90
      256
102
RTVSPost2010Prop51ColorRGB
 90
-16777216
102
RTVSPost2010PropOp51
 70
     0
102
RTVSPost2010Prop52
140
1.0
102
RTVSPost2010PropOp52
 70
     0
102
RTVSPost2010Prop53
 90
        2
102
RTVSPost2010PropOp53
 70
     1
102
RTVSPost2010Prop54
  1
strokes_ogs.tif
102
RTVSPost2010PropOp54
 70
     1
102
RTVSPost2010Prop55
280
     0
102
RTVSPost2010PropOp55
 70
     1
102
RTVSPost2010Prop56
140
1.0
102
RTVSPost2010PropOp56
 70
     1
102
RTVSPost2010Prop57
140
1.0
102
RTVSPost2010PropOp57
 70
     1
102
RTVSPropertyOp0
 70
     1
102
RTVSPropertyOp1
 70
     1
102
RTVSPropertyOp2
 70
     1
102
RTVSPropertyOp3
 70
     1
102
RTVSPropertyOp4
 70
     1
102
RTVSPropertyOp5
 70
     1
102
RTVSPropertyOp6
 70
     1
102
RTVSPropertyOp7
 70
     1
102
RTVSPropertyOp8
 70
     1
102
RTVSPropertyOp9
 70
     1
102
RTVSPropertyOp10
 70
     1
102
RTVSPropertyOp11
 70
     1
102
RTVSPropertyOp12
 70
     1
102
RTVSPropertyOp13
 70
     1
102
RTVSPropertyOp14
 70
     1
102
RTVSPropertyOp15
 70
     1
102
RTVSPropertyOp16
 70
     1
102
RTVSPropertyOp17
 70
     1
102
RTVSPropertyOp18
 70
     1
102
RTVSPropertyOp19
 70
     1
102
RTVSPropertyOp20
 70
     1
102
RTVSPropertyOp21
 70
     1
102
RTVSPropertyOp22
 70
     1
102
RTVSPropertyOp23
 70
     1
102
RTVSPropertyOp24
 70
     1
102
RTVSPropertyOp25
 70
     1
102
RTVSPropertyOp26
 70
     1
102
RTVSPropertyOp27
 70
     1
102
RTVSPropertyOp28
 70
     1
102
RTVSPropertyOp29
 70
     1
102
RTVSPropertyOp30
 70
     1
102
RTVSPropertyOp31
 70
     1
102
RTVSPropertyOp32
 70
     1
102
RTVSPropertyOp33
 70
     1
102
RTVSPropertyOp34
 70
     1
102
RTVSPropertyOp35
 70
     1
102
RTVSPropertyOp36
 70
     1
102
RTVSPropertyOp37
 70
     1
102
RTVSPropertyOp38
 70
     1
102
RTVSPropertyOp39
 70
     1
102
RTVSPropertyOp40
 70
     1
102
RTVSPropertyOp41
 70
     1
102
RTVSPropertyOp42
 70
     1
102
RTVSPropertyOp43
 70
     1
102
RTVSPropertyOp44
 70
     1
102
RTVSPropertyOp45
 70
     1
102
RTVSPropertyOp46
 70
     1
102
RTVSPropertyOp47
 70
     1
102
RTVSPropertyOp48
 70
     1
102
RTVSPropertyOp49
 70
     1
102
RTVSPropertyOp50
 70
     1
102
RTVSPropertyOp51
 70
     0
102
RTVSPropertyOp52
 70
     0
102
RTVSPropertyOp53
 70
     1
102
RTVSPropertyOp54
 70
     1
102
RTVSPropertyOp55
 70
     1
102
RTVSPropertyOp56
 70
     1
102
RTVSPropertyOp57
 70
     1
102
RTVSPropertyOp58
 70
     1
102
RTVSPropertyOp59
 70
     1
102
RTVSPropertyOp60
 70
     1
102
RTVSPropertyOp61
 70
     1
102
RTVSPropertyOp62
 70
     1
  0
XRECORD
  5
83B2
102
{ACAD_REACTORS
330
83B1
102
}
330
83B1
100
AcDbXrecord
280
     1
102
RTVSPost2010Prop28
280
     0
102
RTVSPost2010PropOp28
 70
     1
102
RTVSPost2010Prop29
280
     1
102
RTVSPost2010PropOp29
 70
     1
102
RTVSPost2010Prop30
280
     1
102
RTVSPost2010PropOp30
 70
     1
102
RTVSPost2010Prop31
280
     0
102
RTVSPost2010PropOp31
 70
     1
102
RTVSPost2010Prop32
280
     0
102
RTVSPost2010PropOp32
 70
     1
102
RTVSPost2010Prop33
280
     0
102
RTVSPost2010PropOp33
 70
     1
102
RTVSPost2010Prop34
280
     0
102
RTVSPost2010PropOp34
 70
     1
102
RTVSPost2010Prop35
280
     0
102
RTVSPost2010PropOp35
 70
     1
102
RTVSPost2010Prop36
280
     0
102
RTVSPost2010PropOp36
 70
     1
102
RTVSPost2010Prop37
 90
       50
102
RTVSPost2010PropOp37
 70
     1
102
RTVSPost2010Prop38
140
0.0
102
RTVSPost2010PropOp38
 70
     1
102
RTVSPost2010Prop39
140
1.0
102
RTVSPost2010PropOp39
 70
     1
102
RTVSPost2010Prop40
 90
        0
102
RTVSPost2010PropOp40
 70
     1
102
RTVSPost2010Prop41ColorIndex
 90
       18
102
RTVSPost2010Prop41ColorRGB
 90
        0
102
RTVSPost2010PropOp41
 70
     1
102
RTVSPost2010Prop42
 90
       50
102
RTVSPost2010PropOp42
 70
     1
102
RTVSPost2010Prop43
 90
        3
102
RTVSPost2010PropOp43
 70
     1
102
RTVSPost2010Prop44ColorIndex
 90
        5
102
RTVSPost2010Prop44ColorRGB
 90
      255
102
RTVSPost2010PropOp44
 70
     1
102
RTVSPost2010Prop45
280
     0
102
RTVSPost2010PropOp45
 70
     1
102
RTVSPost2010Prop46
 90
       50
102
RTVSPost2010PropOp46
 70
     1
102
RTVSPost2010Prop47
 90
       50
102
RTVSPost2010PropOp47
 70
     1
102
RTVSPost2010Prop48
 90
       50
102
RTVSPost2010PropOp48
 70
     1
102
RTVSPost2010Prop49
280
     0
102
RTVSPost2010PropOp49
 70
     1
102
RTVSPost2010Prop50
 90
       50
102
RTVSPost2010PropOp50
 70
     1
102
RTVSPost2010Prop51ColorIndex
 90
      256
102
RTVSPost2010Prop51ColorRGB
 90
-16777216
102
RTVSPost2010PropOp51
 70
     0
102
RTVSPost2010Prop52
140
1.0
102
RTVSPost2010PropOp52
 70
     0
102
RTVSPost2010Prop53
 90
        2
102
RTVSPost2010PropOp53
 70
     1
102
RTVSPost2010Prop54
  1
strokes_ogs.tif
102
RTVSPost2010PropOp54
 70
     1
102
RTVSPost2010Prop55
280
     0
102
RTVSPost2010PropOp55
 70
     1
102
RTVSPost2010Prop56
140
1.0
102
RTVSPost2010PropOp56
 70
     1
102
RTVSPost2010Prop57
140
1.0
102
RTVSPost2010PropOp57
 70
     1
102
RTVSPropertyOp0
 70
     1
102
RTVSPropertyOp1
 70
     1
102
RTVSPropertyOp2
 70
     1
102
RTVSPropertyOp3
 70
     1
102
RTVSPropertyOp4
 70
     1
102
RTVSPropertyOp5
 70
     1
102
RTVSPropertyOp6
 70
     1
102
RTVSPropertyOp7
 70
     1
102
RTVSPropertyOp8
 70
     1
102
RTVSPropertyOp9
 70
     1
102
RTVSPropertyOp10
 70
     1
102
RTVSPropertyOp11
 70
     1
102
RTVSPropertyOp12
 70
     1
102
RTVSPropertyOp13
 70
     1
102
RTVSPropertyOp14
 70
     1
102
RTVSPropertyOp15
 70
     1
102
RTVSPropertyOp16
 70
     1
102
RTVSPropertyOp17
 70
     1
102
RTVSPropertyOp18
 70
     1
102
RTVSPropertyOp19
 70
     1
102
RTVSPropertyOp20
 70
     1
102
RTVSPropertyOp21
 70
     1
102
RTVSPropertyOp22
 70
     1
102
RTVSPropertyOp23
 70
     1
102
RTVSPropertyOp24
 70
     1
102
RTVSPropertyOp25
 70
     1
102
RTVSPropertyOp26
 70
     1
102
RTVSPropertyOp27
 70
     1
102
RTVSPropertyOp28
 70
     1
102
RTVSPropertyOp29
 70
     1
102
RTVSPropertyOp30
 70
     1
102
RTVSPropertyOp31
 70
     1
102
RTVSPropertyOp32
 70
     1
102
RTVSPropertyOp33
 70
     1
102
RTVSPropertyOp34
 70
     1
102
RTVSPropertyOp35
 70
     1
102
RTVSPropertyOp36
 70
     1
102
RTVSPropertyOp37
 70
     1
102
RTVSPropertyOp38
 70
     1
102
RTVSPropertyOp39
 70
     1
102
RTVSPropertyOp40
 70
     1
102
RTVSPropertyOp41
 70
     1
102
RTVSPropertyOp42
 70
     1
102
RTVSPropertyOp43
 70
     1
102
RTVSPropertyOp44
 70
     1
102
RTVSPropertyOp45
 70
     1
102
RTVSPropertyOp46
 70
     1
102
RTVSPropertyOp47
 70
     1
102
RTVSPropertyOp48
 70
     1
102
RTVSPropertyOp49
 70
     1
102
RTVSPropertyOp50
 70
     1
102
RTVSPropertyOp51
 70
     0
102
RTVSPropertyOp52
 70
     0
102
RTVSPropertyOp53
 70
     1
102
RTVSPropertyOp54
 70
     1
102
RTVSPropertyOp55
 70
     1
102
RTVSPropertyOp56
 70
     1
102
RTVSPropertyOp57
 70
     1
102
RTVSPropertyOp58
 70
     1
102
RTVSPropertyOp59
 70
     1
102
RTVSPropertyOp60
 70
     1
102
RTVSPropertyOp61
 70
     1
102
RTVSPropertyOp62
 70
     1
  0
XRECORD
  5
83B4
102
{ACAD_REACTORS
330
83B3
102
}
330
83B3
100
AcDbXrecord
280
     1
102
RTVSPost2010Prop28
280
     0
102
RTVSPost2010PropOp28
 70
     1
102
RTVSPost2010Prop29
280
     1
102
RTVSPost2010PropOp29
 70
     1
102
RTVSPost2010Prop30
280
     1
102
RTVSPost2010PropOp30
 70
     1
102
RTVSPost2010Prop31
280
     0
102
RTVSPost2010PropOp31
 70
     1
102
RTVSPost2010Prop32
280
     0
102
RTVSPost2010PropOp32
 70
     1
102
RTVSPost2010Prop33
280
     0
102
RTVSPost2010PropOp33
 70
     1
102
RTVSPost2010Prop34
280
     0
102
RTVSPost2010PropOp34
 70
     1
102
RTVSPost2010Prop35
280
     0
102
RTVSPost2010PropOp35
 70
     1
102
RTVSPost2010Prop36
280
     0
102
RTVSPost2010PropOp36
 70
     1
102
RTVSPost2010Prop37
 90
       50
102
RTVSPost2010PropOp37
 70
     1
102
RTVSPost2010Prop38
140
0.0
102
RTVSPost2010PropOp38
 70
     1
102
RTVSPost2010Prop39
140
1.0
102
RTVSPost2010PropOp39
 70
     1
102
RTVSPost2010Prop40
 90
        0
102
RTVSPost2010PropOp40
 70
     1
102
RTVSPost2010Prop41ColorIndex
 90
       18
102
RTVSPost2010Prop41ColorRGB
 90
        0
102
RTVSPost2010PropOp41
 70
     1
102
RTVSPost2010Prop42
 90
       50
102
RTVSPost2010PropOp42
 70
     1
102
RTVSPost2010Prop43
 90
        3
102
RTVSPost2010PropOp43
 70
     1
102
RTVSPost2010Prop44ColorIndex
 90
        5
102
RTVSPost2010Prop44ColorRGB
 90
      255
102
RTVSPost2010PropOp44
 70
     1
102
RTVSPost2010Prop45
280
     0
102
RTVSPost2010PropOp45
 70
     1
102
RTVSPost2010Prop46
 90
       50
102
RTVSPost2010PropOp46
 70
     1
102
RTVSPost2010Prop47
 90
       50
102
RTVSPost2010PropOp47
 70
     1
102
RTVSPost2010Prop48
 90
       50
102
RTVSPost2010PropOp48
 70
     1
102
RTVSPost2010Prop49
280
     0
102
RTVSPost2010PropOp49
 70
     1
102
RTVSPost2010Prop50
 90
       50
102
RTVSPost2010PropOp50
 70
     1
102
RTVSPost2010Prop51ColorIndex
 90
      256
102
RTVSPost2010Prop51ColorRGB
 90
-16777216
102
RTVSPost2010PropOp51
 70
     0
102
RTVSPost2010Prop52
140
1.0
102
RTVSPost2010PropOp52
 70
     0
102
RTVSPost2010Prop53
 90
        2
102
RTVSPost2010PropOp53
 70
     1
102
RTVSPost2010Prop54
  1
strokes_ogs.tif
102
RTVSPost2010PropOp54
 70
     1
102
RTVSPost2010Prop55
280
     0
102
RTVSPost2010PropOp55
 70
     1
102
RTVSPost2010Prop56
140
1.0
102
RTVSPost2010PropOp56
 70
     1
102
RTVSPost2010Prop57
140
1.0
102
RTVSPost2010PropOp57
 70
     1
102
RTVSPropertyOp0
 70
     1
102
RTVSPropertyOp1
 70
     1
102
RTVSPropertyOp2
 70
     1
102
RTVSPropertyOp3
 70
     1
102
RTVSPropertyOp4
 70
     1
102
RTVSPropertyOp5
 70
     1
102
RTVSPropertyOp6
 70
     1
102
RTVSPropertyOp7
 70
     1
102
RTVSPropertyOp8
 70
     1
102
RTVSPropertyOp9
 70
     1
102
RTVSPropertyOp10
 70
     1
102
RTVSPropertyOp11
 70
     1
102
RTVSPropertyOp12
 70
     1
102
RTVSPropertyOp13
 70
     1
102
RTVSPropertyOp14
 70
     1
102
RTVSPropertyOp15
 70
     1
102
RTVSPropertyOp16
 70
     1
102
RTVSPropertyOp17
 70
     1
102
RTVSPropertyOp18
 70
     1
102
RTVSPropertyOp19
 70
     1
102
RTVSPropertyOp20
 70
     1
102
RTVSPropertyOp21
 70
     1
102
RTVSPropertyOp22
 70
     1
102
RTVSPropertyOp23
 70
     1
102
RTVSPropertyOp24
 70
     1
102
RTVSPropertyOp25
 70
     1
102
RTVSPropertyOp26
 70
     1
102
RTVSPropertyOp27
 70
     1
102
RTVSPropertyOp28
 70
     1
102
RTVSPropertyOp29
 70
     1
102
RTVSPropertyOp30
 70
     1
102
RTVSPropertyOp31
 70
     1
102
RTVSPropertyOp32
 70
     1
102
RTVSPropertyOp33
 70
     1
102
RTVSPropertyOp34
 70
     1
102
RTVSPropertyOp35
 70
     1
102
RTVSPropertyOp36
 70
     1
102
RTVSPropertyOp37
 70
     1
102
RTVSPropertyOp38
 70
     1
102
RTVSPropertyOp39
 70
     1
102
RTVSPropertyOp40
 70
     1
102
RTVSPropertyOp41
 70
     1
102
RTVSPropertyOp42
 70
     1
102
RTVSPropertyOp43
 70
     1
102
RTVSPropertyOp44
 70
     1
102
RTVSPropertyOp45
 70
     1
102
RTVSPropertyOp46
 70
     1
102
RTVSPropertyOp47
 70
     1
102
RTVSPropertyOp48
 70
     1
102
RTVSPropertyOp49
 70
     1
102
RTVSPropertyOp50
 70
     1
102
RTVSPropertyOp51
 70
     0
102
RTVSPropertyOp52
 70
     0
102
RTVSPropertyOp53
 70
     1
102
RTVSPropertyOp54
 70
     1
102
RTVSPropertyOp55
 70
     1
102
RTVSPropertyOp56
 70
     1
102
RTVSPropertyOp57
 70
     1
102
RTVSPropertyOp58
 70
     1
102
RTVSPropertyOp59
 70
     1
102
RTVSPropertyOp60
 70
     1
102
RTVSPropertyOp61
 70
     1
102
RTVSPropertyOp62
 70
     1
  0
XRECORD
  5
83B6
102
{ACAD_REACTORS
330
83B5
102
}
330
83B5
100
AcDbXrecord
280
     1
102
RTVSPost2010Prop28
280
     0
102
RTVSPost2010PropOp28
 70
     1
102
RTVSPost2010Prop29
280
     1
102
RTVSPost2010PropOp29
 70
     1
102
RTVSPost2010Prop30
280
     1
102
RTVSPost2010PropOp30
 70
     1
102
RTVSPost2010Prop31
280
     0
102
RTVSPost2010PropOp31
 70
     1
102
RTVSPost2010Prop32
280
     0
102
RTVSPost2010PropOp32
 70
     1
102
RTVSPost2010Prop33
280
     0
102
RTVSPost2010PropOp33
 70
     1
102
RTVSPost2010Prop34
280
     0
102
RTVSPost2010PropOp34
 70
     1
102
RTVSPost2010Prop35
280
     0
102
RTVSPost2010PropOp35
 70
     1
102
RTVSPost2010Prop36
280
     0
102
RTVSPost2010PropOp36
 70
     1
102
RTVSPost2010Prop37
 90
       50
102
RTVSPost2010PropOp37
 70
     1
102
RTVSPost2010Prop38
140
0.0
102
RTVSPost2010PropOp38
 70
     1
102
RTVSPost2010Prop39
140
1.0
102
RTVSPost2010PropOp39
 70
     1
102
RTVSPost2010Prop40
 90
        0
102
RTVSPost2010PropOp40
 70
     1
102
RTVSPost2010Prop41ColorIndex
 90
       18
102
RTVSPost2010Prop41ColorRGB
 90
        0
102
RTVSPost2010PropOp41
 70
     1
102
RTVSPost2010Prop42
 90
       50
102
RTVSPost2010PropOp42
 70
     1
102
RTVSPost2010Prop43
 90
        3
102
RTVSPost2010PropOp43
 70
     1
102
RTVSPost2010Prop44ColorIndex
 90
        5
102
RTVSPost2010Prop44ColorRGB
 90
      255
102
RTVSPost2010PropOp44
 70
     1
102
RTVSPost2010Prop45
280
     0
102
RTVSPost2010PropOp45
 70
     1
102
RTVSPost2010Prop46
 90
       50
102
RTVSPost2010PropOp46
 70
     1
102
RTVSPost2010Prop47
 90
       50
102
RTVSPost2010PropOp47
 70
     1
102
RTVSPost2010Prop48
 90
       50
102
RTVSPost2010PropOp48
 70
     1
102
RTVSPost2010Prop49
280
     0
102
RTVSPost2010PropOp49
 70
     1
102
RTVSPost2010Prop50
 90
       50
102
RTVSPost2010PropOp50
 70
     1
102
RTVSPost2010Prop51ColorIndex
 90
      256
102
RTVSPost2010Prop51ColorRGB
 90
-16777216
102
RTVSPost2010PropOp51
 70
     0
102
RTVSPost2010Prop52
140
1.0
102
RTVSPost2010PropOp52
 70
     0
102
RTVSPost2010Prop53
 90
        2
102
RTVSPost2010PropOp53
 70
     1
102
RTVSPost2010Prop54
  1
strokes_ogs.tif
102
RTVSPost2010PropOp54
 70
     1
102
RTVSPost2010Prop55
280
     0
102
RTVSPost2010PropOp55
 70
     1
102
RTVSPost2010Prop56
140
1.0
102
RTVSPost2010PropOp56
 70
     1
102
RTVSPost2010Prop57
140
1.0
102
RTVSPost2010PropOp57
 70
     1
102
RTVSPropertyOp0
 70
     1
102
RTVSPropertyOp1
 70
     1
102
RTVSPropertyOp2
 70
     1
102
RTVSPropertyOp3
 70
     1
102
RTVSPropertyOp4
 70
     1
102
RTVSPropertyOp5
 70
     1
102
RTVSPropertyOp6
 70
     1
102
RTVSPropertyOp7
 70
     1
102
RTVSPropertyOp8
 70
     1
102
RTVSPropertyOp9
 70
     1
102
RTVSPropertyOp10
 70
     1
102
RTVSPropertyOp11
 70
     1
102
RTVSPropertyOp12
 70
     1
102
RTVSPropertyOp13
 70
     1
102
RTVSPropertyOp14
 70
     1
102
RTVSPropertyOp15
 70
     1
102
RTVSPropertyOp16
 70
     1
102
RTVSPropertyOp17
 70
     1
102
RTVSPropertyOp18
 70
     1
102
RTVSPropertyOp19
 70
     1
102
RTVSPropertyOp20
 70
     1
102
RTVSPropertyOp21
 70
     1
102
RTVSPropertyOp22
 70
     1
102
RTVSPropertyOp23
 70
     1
102
RTVSPropertyOp24
 70
     1
102
RTVSPropertyOp25
 70
     1
102
RTVSPropertyOp26
 70
     1
102
RTVSPropertyOp27
 70
     1
102
RTVSPropertyOp28
 70
     1
102
RTVSPropertyOp29
 70
     1
102
RTVSPropertyOp30
 70
     1
102
RTVSPropertyOp31
 70
     1
102
RTVSPropertyOp32
 70
     1
102
RTVSPropertyOp33
 70
     1
102
RTVSPropertyOp34
 70
     1
102
RTVSPropertyOp35
 70
     1
102
RTVSPropertyOp36
 70
     1
102
RTVSPropertyOp37
 70
     1
102
RTVSPropertyOp38
 70
     1
102
RTVSPropertyOp39
 70
     1
102
RTVSPropertyOp40
 70
     1
102
RTVSPropertyOp41
 70
     1
102
RTVSPropertyOp42
 70
     1
102
RTVSPropertyOp43
 70
     1
102
RTVSPropertyOp44
 70
     1
102
RTVSPropertyOp45
 70
     1
102
RTVSPropertyOp46
 70
     1
102
RTVSPropertyOp47
 70
     1
102
RTVSPropertyOp48
 70
     1
102
RTVSPropertyOp49
 70
     1
102
RTVSPropertyOp50
 70
     1
102
RTVSPropertyOp51
 70
     0
102
RTVSPropertyOp52
 70
     0
102
RTVSPropertyOp53
 70
     1
102
RTVSPropertyOp54
 70
     1
102
RTVSPropertyOp55
 70
     1
102
RTVSPropertyOp56
 70
     1
102
RTVSPropertyOp57
 70
     1
102
RTVSPropertyOp58
 70
     1
102
RTVSPropertyOp59
 70
     1
102
RTVSPropertyOp60
 70
     1
102
RTVSPropertyOp61
 70
     1
102
RTVSPropertyOp62
 70
     1
  0
XRECORD
  5
83B8
102
{ACAD_REACTORS
330
83B7
102
}
330
83B7
100
AcDbXrecord
280
     1
102
RTVSPost2010Prop28
280
     0
102
RTVSPost2010PropOp28
 70
     1
102
RTVSPost2010Prop29
280
     1
102
RTVSPost2010PropOp29
 70
     1
102
RTVSPost2010Prop30
280
     1
102
RTVSPost2010PropOp30
 70
     1
102
RTVSPost2010Prop31
280
     0
102
RTVSPost2010PropOp31
 70
     1
102
RTVSPost2010Prop32
280
     0
102
RTVSPost2010PropOp32
 70
     1
102
RTVSPost2010Prop33
280
     0
102
RTVSPost2010PropOp33
 70
     1
102
RTVSPost2010Prop34
280
     0
102
RTVSPost2010PropOp34
 70
     1
102
RTVSPost2010Prop35
280
     0
102
RTVSPost2010PropOp35
 70
     1
102
RTVSPost2010Prop36
280
     0
102
RTVSPost2010PropOp36
 70
     1
102
RTVSPost2010Prop37
 90
       50
102
RTVSPost2010PropOp37
 70
     1
102
RTVSPost2010Prop38
140
0.0
102
RTVSPost2010PropOp38
 70
     1
102
RTVSPost2010Prop39
140
1.0
102
RTVSPost2010PropOp39
 70
     1
102
RTVSPost2010Prop40
 90
        0
102
RTVSPost2010PropOp40
 70
     1
102
RTVSPost2010Prop41ColorIndex
 90
       18
102
RTVSPost2010Prop41ColorRGB
 90
        0
102
RTVSPost2010PropOp41
 70
     1
102
RTVSPost2010Prop42
 90
       50
102
RTVSPost2010PropOp42
 70
     1
102
RTVSPost2010Prop43
 90
        3
102
RTVSPost2010PropOp43
 70
     1
102
RTVSPost2010Prop44ColorIndex
 90
        5
102
RTVSPost2010Prop44ColorRGB
 90
      255
102
RTVSPost2010PropOp44
 70
     1
102
RTVSPost2010Prop45
280
     0
102
RTVSPost2010PropOp45
 70
     1
102
RTVSPost2010Prop46
 90
       50
102
RTVSPost2010PropOp46
 70
     1
102
RTVSPost2010Prop47
 90
       50
102
RTVSPost2010PropOp47
 70
     1
102
RTVSPost2010Prop48
 90
       50
102
RTVSPost2010PropOp48
 70
     1
102
RTVSPost2010Prop49
280
     0
102
RTVSPost2010PropOp49
 70
     1
102
RTVSPost2010Prop50
 90
       50
102
RTVSPost2010PropOp50
 70
     1
102
RTVSPost2010Prop51ColorIndex
 90
      256
102
RTVSPost2010Prop51ColorRGB
 90
-16777216
102
RTVSPost2010PropOp51
 70
     0
102
RTVSPost2010Prop52
140
1.0
102
RTVSPost2010PropOp52
 70
     0
102
RTVSPost2010Prop53
 90
        2
102
RTVSPost2010PropOp53
 70
     1
102
RTVSPost2010Prop54
  1
strokes_ogs.tif
102
RTVSPost2010PropOp54
 70
     1
102
RTVSPost2010Prop55
280
     0
102
RTVSPost2010PropOp55
 70
     1
102
RTVSPost2010Prop56
140
1.0
102
RTVSPost2010PropOp56
 70
     1
102
RTVSPost2010Prop57
140
1.0
102
RTVSPost2010PropOp57
 70
     1
102
RTVSPropertyOp0
 70
     1
102
RTVSPropertyOp1
 70
     1
102
RTVSPropertyOp2
 70
     1
102
RTVSPropertyOp3
 70
     1
102
RTVSPropertyOp4
 70
     1
102
RTVSPropertyOp5
 70
     1
102
RTVSPropertyOp6
 70
     1
102
RTVSPropertyOp7
 70
     1
102
RTVSPropertyOp8
 70
     1
102
RTVSPropertyOp9
 70
     1
102
RTVSPropertyOp10
 70
     1
102
RTVSPropertyOp11
 70
     1
102
RTVSPropertyOp12
 70
     1
102
RTVSPropertyOp13
 70
     1
102
RTVSPropertyOp14
 70
     1
102
RTVSPropertyOp15
 70
     1
102
RTVSPropertyOp16
 70
     1
102
RTVSPropertyOp17
 70
     1
102
RTVSPropertyOp18
 70
     1
102
RTVSPropertyOp19
 70
     1
102
RTVSPropertyOp20
 70
     1
102
RTVSPropertyOp21
 70
     1
102
RTVSPropertyOp22
 70
     1
102
RTVSPropertyOp23
 70
     1
102
RTVSPropertyOp24
 70
     1
102
RTVSPropertyOp25
 70
     1
102
RTVSPropertyOp26
 70
     1
102
RTVSPropertyOp27
 70
     1
102
RTVSPropertyOp28
 70
     1
102
RTVSPropertyOp29
 70
     1
102
RTVSPropertyOp30
 70
     1
102
RTVSPropertyOp31
 70
     1
102
RTVSPropertyOp32
 70
     1
102
RTVSPropertyOp33
 70
     1
102
RTVSPropertyOp34
 70
     1
102
RTVSPropertyOp35
 70
     1
102
RTVSPropertyOp36
 70
     1
102
RTVSPropertyOp37
 70
     1
102
RTVSPropertyOp38
 70
     1
102
RTVSPropertyOp39
 70
     1
102
RTVSPropertyOp40
 70
     1
102
RTVSPropertyOp41
 70
     1
102
RTVSPropertyOp42
 70
     1
102
RTVSPropertyOp43
 70
     1
102
RTVSPropertyOp44
 70
     1
102
RTVSPropertyOp45
 70
     1
102
RTVSPropertyOp46
 70
     1
102
RTVSPropertyOp47
 70
     1
102
RTVSPropertyOp48
 70
     1
102
RTVSPropertyOp49
 70
     1
102
RTVSPropertyOp50
 70
     1
102
RTVSPropertyOp51
 70
     0
102
RTVSPropertyOp52
 70
     0
102
RTVSPropertyOp53
 70
     1
102
RTVSPropertyOp54
 70
     1
102
RTVSPropertyOp55
 70
     1
102
RTVSPropertyOp56
 70
     1
102
RTVSPropertyOp57
 70
     1
102
RTVSPropertyOp58
 70
     1
102
RTVSPropertyOp59
 70
     1
102
RTVSPropertyOp60
 70
     1
102
RTVSPropertyOp61
 70
     1
102
RTVSPropertyOp62
 70
     1
  0
XRECORD
  5
83C0
102
{ACAD_REACTORS
330
83BF
102
}
330
83BF
100
AcDbXrecord
280
     1
102
RTVSPost2010Prop28
280
     0
102
RTVSPost2010PropOp28
 70
     1
102
RTVSPost2010Prop29
280
     1
102
RTVSPost2010PropOp29
 70
     1
102
RTVSPost2010Prop30
280
     1
102
RTVSPost2010PropOp30
 70
     1
102
RTVSPost2010Prop31
280
     0
102
RTVSPost2010PropOp31
 70
     1
102
RTVSPost2010Prop32
280
     0
102
RTVSPost2010PropOp32
 70
     1
102
RTVSPost2010Prop33
280
     0
102
RTVSPost2010PropOp33
 70
     1
102
RTVSPost2010Prop34
280
     0
102
RTVSPost2010PropOp34
 70
     1
102
RTVSPost2010Prop35
280
     0
102
RTVSPost2010PropOp35
 70
     1
102
RTVSPost2010Prop36
280
     0
102
RTVSPost2010PropOp36
 70
     1
102
RTVSPost2010Prop37
 90
       50
102
RTVSPost2010PropOp37
 70
     1
102
RTVSPost2010Prop38
140
0.0
102
RTVSPost2010PropOp38
 70
     1
102
RTVSPost2010Prop39
140
1.0
102
RTVSPost2010PropOp39
 70
     1
102
RTVSPost2010Prop40
 90
        0
102
RTVSPost2010PropOp40
 70
     1
102
RTVSPost2010Prop41ColorIndex
 90
       18
102
RTVSPost2010Prop41ColorRGB
 90
        0
102
RTVSPost2010PropOp41
 70
     1
102
RTVSPost2010Prop42
 90
       50
102
RTVSPost2010PropOp42
 70
     1
102
RTVSPost2010Prop43
 90
        3
102
RTVSPost2010PropOp43
 70
     1
102
RTVSPost2010Prop44ColorIndex
 90
        5
102
RTVSPost2010Prop44ColorRGB
 90
      255
102
RTVSPost2010PropOp44
 70
     1
102
RTVSPost2010Prop45
280
     0
102
RTVSPost2010PropOp45
 70
     1
102
RTVSPost2010Prop46
 90
       50
102
RTVSPost2010PropOp46
 70
     1
102
RTVSPost2010Prop47
 90
       50
102
RTVSPost2010PropOp47
 70
     1
102
RTVSPost2010Prop48
 90
       50
102
RTVSPost2010PropOp48
 70
     1
102
RTVSPost2010Prop49
280
     0
102
RTVSPost2010PropOp49
 70
     1
102
RTVSPost2010Prop50
 90
       50
102
RTVSPost2010PropOp50
 70
     1
102
RTVSPost2010Prop51ColorIndex
 90
      256
102
RTVSPost2010Prop51ColorRGB
 90
-16777216
102
RTVSPost2010PropOp51
 70
     0
102
RTVSPost2010Prop52
140
1.0
102
RTVSPost2010PropOp52
 70
     0
102
RTVSPost2010Prop53
 90
        2
102
RTVSPost2010PropOp53
 70
     1
102
RTVSPost2010Prop54
  1
strokes_ogs.tif
102
RTVSPost2010PropOp54
 70
     1
102
RTVSPost2010Prop55
280
     0
102
RTVSPost2010PropOp55
 70
     1
102
RTVSPost2010Prop56
140
1.0
102
RTVSPost2010PropOp56
 70
     1
102
RTVSPost2010Prop57
140
1.0
102
RTVSPost2010PropOp57
 70
     1
102
RTVSPropertyOp0
 70
     1
102
RTVSPropertyOp1
 70
     1
102
RTVSPropertyOp2
 70
     1
102
RTVSPropertyOp3
 70
     1
102
RTVSPropertyOp4
 70
     1
102
RTVSPropertyOp5
 70
     1
102
RTVSPropertyOp6
 70
     1
102
RTVSPropertyOp7
 70
     1
102
RTVSPropertyOp8
 70
     1
102
RTVSPropertyOp9
 70
     1
102
RTVSPropertyOp10
 70
     1
102
RTVSPropertyOp11
 70
     1
102
RTVSPropertyOp12
 70
     1
102
RTVSPropertyOp13
 70
     1
102
RTVSPropertyOp14
 70
     1
102
RTVSPropertyOp15
 70
     1
102
RTVSPropertyOp16
 70
     1
102
RTVSPropertyOp17
 70
     1
102
RTVSPropertyOp18
 70
     1
102
RTVSPropertyOp19
 70
     1
102
RTVSPropertyOp20
 70
     1
102
RTVSPropertyOp21
 70
     1
102
RTVSPropertyOp22
 70
     1
102
RTVSPropertyOp23
 70
     1
102
RTVSPropertyOp24
 70
     1
102
RTVSPropertyOp25
 70
     1
102
RTVSPropertyOp26
 70
     1
102
RTVSPropertyOp27
 70
     1
102
RTVSPropertyOp28
 70
     1
102
RTVSPropertyOp29
 70
     1
102
RTVSPropertyOp30
 70
     1
102
RTVSPropertyOp31
 70
     1
102
RTVSPropertyOp32
 70
     1
102
RTVSPropertyOp33
 70
     1
102
RTVSPropertyOp34
 70
     1
102
RTVSPropertyOp35
 70
     1
102
RTVSPropertyOp36
 70
     1
102
RTVSPropertyOp37
 70
     1
102
RTVSPropertyOp38
 70
     1
102
RTVSPropertyOp39
 70
     1
102
RTVSPropertyOp40
 70
     1
102
RTVSPropertyOp41
 70
     1
102
RTVSPropertyOp42
 70
     1
102
RTVSPropertyOp43
 70
     1
102
RTVSPropertyOp44
 70
     1
102
RTVSPropertyOp45
 70
     1
102
RTVSPropertyOp46
 70
     1
102
RTVSPropertyOp47
 70
     1
102
RTVSPropertyOp48
 70
     1
102
RTVSPropertyOp49
 70
     1
102
RTVSPropertyOp50
 70
     1
102
RTVSPropertyOp51
 70
     0
102
RTVSPropertyOp52
 70
     0
102
RTVSPropertyOp53
 70
     1
102
RTVSPropertyOp54
 70
     1
102
RTVSPropertyOp55
 70
     1
102
RTVSPropertyOp56
 70
     1
102
RTVSPropertyOp57
 70
     1
102
RTVSPropertyOp58
 70
     1
102
RTVSPropertyOp59
 70
     1
102
RTVSPropertyOp60
 70
     1
102
RTVSPropertyOp61
 70
     1
102
RTVSPropertyOp62
 70
     1
  0
XRECORD
  5
83DC
102
{ACAD_REACTORS
330
83DB
102
}
330
83DB
100
AcDbXrecord
280
     1
102
RTVSPost2010Prop28
280
     0
102
RTVSPost2010PropOp28
 70
     1
102
RTVSPost2010Prop29
280
     1
102
RTVSPost2010PropOp29
 70
     1
102
RTVSPost2010Prop30
280
     1
102
RTVSPost2010PropOp30
 70
     1
102
RTVSPost2010Prop31
280
     0
102
RTVSPost2010PropOp31
 70
     1
102
RTVSPost2010Prop32
280
     0
102
RTVSPost2010PropOp32
 70
     1
102
RTVSPost2010Prop33
280
     0
102
RTVSPost2010PropOp33
 70
     1
102
RTVSPost2010Prop34
280
     0
102
RTVSPost2010PropOp34
 70
     1
102
RTVSPost2010Prop35
280
     0
102
RTVSPost2010PropOp35
 70
     1
102
RTVSPost2010Prop36
280
     0
102
RTVSPost2010PropOp36
 70
     1
102
RTVSPost2010Prop37
 90
       50
102
RTVSPost2010PropOp37
 70
     0
102
RTVSPost2010Prop38
140
0.0
102
RTVSPost2010PropOp38
 70
     0
102
RTVSPost2010Prop39
140
1.0
102
RTVSPost2010PropOp39
 70
     0
102
RTVSPost2010Prop40
 90
        0
102
RTVSPost2010PropOp40
 70
     0
102
RTVSPost2010Prop41ColorIndex
 90
       18
102
RTVSPost2010Prop41ColorRGB
 90
        0
102
RTVSPost2010PropOp41
 70
     0
102
RTVSPost2010Prop42
 90
       50
102
RTVSPost2010PropOp42
 70
     0
102
RTVSPost2010Prop43
 90
        3
102
RTVSPost2010PropOp43
 70
     0
102
RTVSPost2010Prop44ColorIndex
 90
        5
102
RTVSPost2010Prop44ColorRGB
 90
      255
102
RTVSPost2010PropOp44
 70
     0
102
RTVSPost2010Prop45
280
     0
102
RTVSPost2010PropOp45
 70
     1
102
RTVSPost2010Prop46
 90
       50
102
RTVSPost2010PropOp46
 70
     0
102
RTVSPost2010Prop47
 90
       50
102
RTVSPost2010PropOp47
 70
     0
102
RTVSPost2010Prop48
 90
       50
102
RTVSPost2010PropOp48
 70
     0
102
RTVSPost2010Prop49
280
     0
102
RTVSPost2010PropOp49
 70
     1
102
RTVSPost2010Prop50
 90
       50
102
RTVSPost2010PropOp50
 70
     0
102
RTVSPost2010Prop51ColorIndex
 90
      256
102
RTVSPost2010Prop51ColorRGB
 90
-16777216
102
RTVSPost2010PropOp51
 70
     0
102
RTVSPost2010Prop52
140
1.0
102
RTVSPost2010PropOp52
 70
     0
102
RTVSPost2010Prop53
 90
        2
102
RTVSPost2010PropOp53
 70
     0
102
RTVSPost2010Prop54
  1
strokes_ogs.tif
102
RTVSPost2010PropOp54
 70
     0
102
RTVSPost2010Prop55
280
     0
102
RTVSPost2010PropOp55
 70
     1
102
RTVSPost2010Prop56
140
1.0
102
RTVSPost2010PropOp56
 70
     0
102
RTVSPost2010Prop57
140
1.0
102
RTVSPost2010PropOp57
 70
     0
102
RTVSPropertyOp0
 70
     0
102
RTVSPropertyOp1
 70
     0
102
RTVSPropertyOp2
 70
     0
102
RTVSPropertyOp3
 70
     0
102
RTVSPropertyOp4
 70
     0
102
RTVSPropertyOp5
 70
     0
102
RTVSPropertyOp6
 70
     0
102
RTVSPropertyOp7
 70
     0
102
RTVSPropertyOp8
 70
     0
102
RTVSPropertyOp9
 70
     0
102
RTVSPropertyOp10
 70
     0
102
RTVSPropertyOp11
 70
     0
102
RTVSPropertyOp12
 70
     0
102
RTVSPropertyOp13
 70
     0
102
RTVSPropertyOp14
 70
     2
102
RTVSPropertyOp15
 70
     0
102
RTVSPropertyOp16
 70
     0
102
RTVSPropertyOp17
 70
     0
102
RTVSPropertyOp18
 70
     0
102
RTVSPropertyOp19
 70
     0
102
RTVSPropertyOp20
 70
     0
102
RTVSPropertyOp21
 70
     0
102
RTVSPropertyOp22
 70
     0
102
RTVSPropertyOp23
 70
     0
102
RTVSPropertyOp24
 70
     0
102
RTVSPropertyOp25
 70
     0
102
RTVSPropertyOp26
 70
     0
102
RTVSPropertyOp27
 70
     0
102
RTVSPropertyOp28
 70
     1
102
RTVSPropertyOp29
 70
     1
102
RTVSPropertyOp30
 70
     1
102
RTVSPropertyOp31
 70
     1
102
RTVSPropertyOp32
 70
     1
102
RTVSPropertyOp33
 70
     1
102
RTVSPropertyOp34
 70
     1
102
RTVSPropertyOp35
 70
     1
102
RTVSPropertyOp36
 70
     1
102
RTVSPropertyOp37
 70
     0
102
RTVSPropertyOp38
 70
     0
102
RTVSPropertyOp39
 70
     0
102
RTVSPropertyOp40
 70
     0
102
RTVSPropertyOp41
 70
     0
102
RTVSPropertyOp42
 70
     0
102
RTVSPropertyOp43
 70
     0
102
RTVSPropertyOp44
 70
     0
102
RTVSPropertyOp45
 70
     1
102
RTVSPropertyOp46
 70
     0
102
RTVSPropertyOp47
 70
     0
102
RTVSPropertyOp48
 70
     0
102
RTVSPropertyOp49
 70
     1
102
RTVSPropertyOp50
 70
     0
102
RTVSPropertyOp51
 70
     0
102
RTVSPropertyOp52
 70
     0
102
RTVSPropertyOp53
 70
     0
102
RTVSPropertyOp54
 70
     0
102
RTVSPropertyOp55
 70
     1
102
RTVSPropertyOp56
 70
     0
102
RTVSPropertyOp57
 70
     0
102
RTVSPropertyOp58
 70
     0
102
RTVSPropertyOp59
 70
     0
102
RTVSPropertyOp60
 70
     0
102
RTVSPropertyOp61
 70
     0
102
RTVSPropertyOp62
 70
     0
  0
XRECORD
  5
83CC
102
{ACAD_REACTORS
330
83CB
102
}
330
83CB
100
AcDbXrecord
280
     1
102
RTVSPost2010Prop28
280
     0
102
RTVSPost2010PropOp28
 70
     1
102
RTVSPost2010Prop29
280
     1
102
RTVSPost2010PropOp29
 70
     1
102
RTVSPost2010Prop30
280
     1
102
RTVSPost2010PropOp30
 70
     1
102
RTVSPost2010Prop31
280
     0
102
RTVSPost2010PropOp31
 70
     1
102
RTVSPost2010Prop32
280
     0
102
RTVSPost2010PropOp32
 70
     1
102
RTVSPost2010Prop33
280
     0
102
RTVSPost2010PropOp33
 70
     1
102
RTVSPost2010Prop34
280
     0
102
RTVSPost2010PropOp34
 70
     1
102
RTVSPost2010Prop35
280
     0
102
RTVSPost2010PropOp35
 70
     1
102
RTVSPost2010Prop36
280
     0
102
RTVSPost2010PropOp36
 70
     1
102
RTVSPost2010Prop37
 90
       50
102
RTVSPost2010PropOp37
 70
     1
102
RTVSPost2010Prop38
140
0.0
102
RTVSPost2010PropOp38
 70
     1
102
RTVSPost2010Prop39
140
1.0
102
RTVSPost2010PropOp39
 70
     1
102
RTVSPost2010Prop40
 90
        0
102
RTVSPost2010PropOp40
 70
     1
102
RTVSPost2010Prop41ColorIndex
 90
       18
102
RTVSPost2010Prop41ColorRGB
 90
        0
102
RTVSPost2010PropOp41
 70
     1
102
RTVSPost2010Prop42
 90
       50
102
RTVSPost2010PropOp42
 70
     1
102
RTVSPost2010Prop43
 90
        3
102
RTVSPost2010PropOp43
 70
     1
102
RTVSPost2010Prop44ColorIndex
 90
        5
102
RTVSPost2010Prop44ColorRGB
 90
      255
102
RTVSPost2010PropOp44
 70
     1
102
RTVSPost2010Prop45
280
     0
102
RTVSPost2010PropOp45
 70
     1
102
RTVSPost2010Prop46
 90
       50
102
RTVSPost2010PropOp46
 70
     1
102
RTVSPost2010Prop47
 90
       50
102
RTVSPost2010PropOp47
 70
     1
102
RTVSPost2010Prop48
 90
       50
102
RTVSPost2010PropOp48
 70
     1
102
RTVSPost2010Prop49
280
     0
102
RTVSPost2010PropOp49
 70
     1
102
RTVSPost2010Prop50
 90
       50
102
RTVSPost2010PropOp50
 70
     1
102
RTVSPost2010Prop51ColorIndex
 90
      256
102
RTVSPost2010Prop51ColorRGB
 90
-16777216
102
RTVSPost2010PropOp51
 70
     0
102
RTVSPost2010Prop52
140
1.0
102
RTVSPost2010PropOp52
 70
     0
102
RTVSPost2010Prop53
 90
        2
102
RTVSPost2010PropOp53
 70
     1
102
RTVSPost2010Prop54
  1
strokes_ogs.tif
102
RTVSPost2010PropOp54
 70
     1
102
RTVSPost2010Prop55
280
     0
102
RTVSPost2010PropOp55
 70
     1
102
RTVSPost2010Prop56
140
1.0
102
RTVSPost2010PropOp56
 70
     1
102
RTVSPost2010Prop57
140
1.0
102
RTVSPost2010PropOp57
 70
     1
102
RTVSPropertyOp0
 70
     1
102
RTVSPropertyOp1
 70
     1
102
RTVSPropertyOp2
 70
     1
102
RTVSPropertyOp3
 70
     1
102
RTVSPropertyOp4
 70
     1
102
RTVSPropertyOp5
 70
     1
102
RTVSPropertyOp6
 70
     1
102
RTVSPropertyOp7
 70
     1
102
RTVSPropertyOp8
 70
     1
102
RTVSPropertyOp9
 70
     1
102
RTVSPropertyOp10
 70
     1
102
RTVSPropertyOp11
 70
     1
102
RTVSPropertyOp12
 70
     1
102
RTVSPropertyOp13
 70
     1
102
RTVSPropertyOp14
 70
     1
102
RTVSPropertyOp15
 70
     1
102
RTVSPropertyOp16
 70
     1
102
RTVSPropertyOp17
 70
     1
102
RTVSPropertyOp18
 70
     1
102
RTVSPropertyOp19
 70
     1
102
RTVSPropertyOp20
 70
     1
102
RTVSPropertyOp21
 70
     1
102
RTVSPropertyOp22
 70
     1
102
RTVSPropertyOp23
 70
     1
102
RTVSPropertyOp24
 70
     1
102
RTVSPropertyOp25
 70
     1
102
RTVSPropertyOp26
 70
     1
102
RTVSPropertyOp27
 70
     1
102
RTVSPropertyOp28
 70
     1
102
RTVSPropertyOp29
 70
     1
102
RTVSPropertyOp30
 70
     1
102
RTVSPropertyOp31
 70
     1
102
RTVSPropertyOp32
 70
     1
102
RTVSPropertyOp33
 70
     1
102
RTVSPropertyOp34
 70
     1
102
RTVSPropertyOp35
 70
     1
102
RTVSPropertyOp36
 70
     1
102
RTVSPropertyOp37
 70
     1
102
RTVSPropertyOp38
 70
     1
102
RTVSPropertyOp39
 70
     1
102
RTVSPropertyOp40
 70
     1
102
RTVSPropertyOp41
 70
     1
102
RTVSPropertyOp42
 70
     1
102
RTVSPropertyOp43
 70
     1
102
RTVSPropertyOp44
 70
     1
102
RTVSPropertyOp45
 70
     1
102
RTVSPropertyOp46
 70
     1
102
RTVSPropertyOp47
 70
     1
102
RTVSPropertyOp48
 70
     1
102
RTVSPropertyOp49
 70
     1
102
RTVSPropertyOp50
 70
     1
102
RTVSPropertyOp51
 70
     0
102
RTVSPropertyOp52
 70
     0
102
RTVSPropertyOp53
 70
     1
102
RTVSPropertyOp54
 70
     1
102
RTVSPropertyOp55
 70
     1
102
RTVSPropertyOp56
 70
     1
102
RTVSPropertyOp57
 70
     1
102
RTVSPropertyOp58
 70
     1
102
RTVSPropertyOp59
 70
     1
102
RTVSPropertyOp60
 70
     1
102
RTVSPropertyOp61
 70
     1
102
RTVSPropertyOp62
 70
     1
  0
XRECORD
  5
83DE
102
{ACAD_REACTORS
330
83DD
102
}
330
83DD
100
AcDbXrecord
280
     1
102
RTVSPost2010Prop28
280
     0
102
RTVSPost2010PropOp28
 70
     1
102
RTVSPost2010Prop29
280
     1
102
RTVSPost2010PropOp29
 70
     1
102
RTVSPost2010Prop30
280
     1
102
RTVSPost2010PropOp30
 70
     1
102
RTVSPost2010Prop31
280
     0
102
RTVSPost2010PropOp31
 70
     1
102
RTVSPost2010Prop32
280
     0
102
RTVSPost2010PropOp32
 70
     1
102
RTVSPost2010Prop33
280
     0
102
RTVSPost2010PropOp33
 70
     1
102
RTVSPost2010Prop34
280
     0
102
RTVSPost2010PropOp34
 70
     1
102
RTVSPost2010Prop35
280
     0
102
RTVSPost2010PropOp35
 70
     1
102
RTVSPost2010Prop36
280
     0
102
RTVSPost2010PropOp36
 70
     1
102
RTVSPost2010Prop37
 90
       50
102
RTVSPost2010PropOp37
 70
     0
102
RTVSPost2010Prop38
140
0.0
102
RTVSPost2010PropOp38
 70
     0
102
RTVSPost2010Prop39
140
1.0
102
RTVSPost2010PropOp39
 70
     0
102
RTVSPost2010Prop40
 90
        0
102
RTVSPost2010PropOp40
 70
     0
102
RTVSPost2010Prop41ColorIndex
 90
       18
102
RTVSPost2010Prop41ColorRGB
 90
        0
102
RTVSPost2010PropOp41
 70
     0
102
RTVSPost2010Prop42
 90
       50
102
RTVSPost2010PropOp42
 70
     0
102
RTVSPost2010Prop43
 90
        3
102
RTVSPost2010PropOp43
 70
     0
102
RTVSPost2010Prop44ColorIndex
 90
        5
102
RTVSPost2010Prop44ColorRGB
 90
      255
102
RTVSPost2010PropOp44
 70
     0
102
RTVSPost2010Prop45
280
     0
102
RTVSPost2010PropOp45
 70
     1
102
RTVSPost2010Prop46
 90
       50
102
RTVSPost2010PropOp46
 70
     0
102
RTVSPost2010Prop47
 90
       50
102
RTVSPost2010PropOp47
 70
     0
102
RTVSPost2010Prop48
 90
       50
102
RTVSPost2010PropOp48
 70
     0
102
RTVSPost2010Prop49
280
     0
102
RTVSPost2010PropOp49
 70
     1
102
RTVSPost2010Prop50
 90
       50
102
RTVSPost2010PropOp50
 70
     0
102
RTVSPost2010Prop51ColorIndex
 90
      256
102
RTVSPost2010Prop51ColorRGB
 90
-16777216
102
RTVSPost2010PropOp51
 70
     0
102
RTVSPost2010Prop52
140
1.0
102
RTVSPost2010PropOp52
 70
     0
102
RTVSPost2010Prop53
 90
        2
102
RTVSPost2010PropOp53
 70
     0
102
RTVSPost2010Prop54
  1
strokes_ogs.tif
102
RTVSPost2010PropOp54
 70
     0
102
RTVSPost2010Prop55
280
     0
102
RTVSPost2010PropOp55
 70
     1
102
RTVSPost2010Prop56
140
1.0
102
RTVSPost2010PropOp56
 70
     0
102
RTVSPost2010Prop57
140
1.0
102
RTVSPost2010PropOp57
 70
     0
102
RTVSPropertyOp0
 70
     0
102
RTVSPropertyOp1
 70
     0
102
RTVSPropertyOp2
 70
     0
102
RTVSPropertyOp3
 70
     0
102
RTVSPropertyOp4
 70
     0
102
RTVSPropertyOp5
 70
     0
102
RTVSPropertyOp6
 70
     0
102
RTVSPropertyOp7
 70
     0
102
RTVSPropertyOp8
 70
     0
102
RTVSPropertyOp9
 70
     0
102
RTVSPropertyOp10
 70
     0
102
RTVSPropertyOp11
 70
     0
102
RTVSPropertyOp12
 70
     0
102
RTVSPropertyOp13
 70
     0
102
RTVSPropertyOp14
 70
     2
102
RTVSPropertyOp15
 70
     0
102
RTVSPropertyOp16
 70
     0
102
RTVSPropertyOp17
 70
     0
102
RTVSPropertyOp18
 70
     0
102
RTVSPropertyOp19
 70
     0
102
RTVSPropertyOp20
 70
     0
102
RTVSPropertyOp21
 70
     0
102
RTVSPropertyOp22
 70
     0
102
RTVSPropertyOp23
 70
     0
102
RTVSPropertyOp24
 70
     0
102
RTVSPropertyOp25
 70
     0
102
RTVSPropertyOp26
 70
     0
102
RTVSPropertyOp27
 70
     0
102
RTVSPropertyOp28
 70
     1
102
RTVSPropertyOp29
 70
     1
102
RTVSPropertyOp30
 70
     1
102
RTVSPropertyOp31
 70
     1
102
RTVSPropertyOp32
 70
     1
102
RTVSPropertyOp33
 70
     1
102
RTVSPropertyOp34
 70
     1
102
RTVSPropertyOp35
 70
     1
102
RTVSPropertyOp36
 70
     1
102
RTVSPropertyOp37
 70
     0
102
RTVSPropertyOp38
 70
     0
102
RTVSPropertyOp39
 70
     0
102
RTVSPropertyOp40
 70
     0
102
RTVSPropertyOp41
 70
     0
102
RTVSPropertyOp42
 70
     0
102
RTVSPropertyOp43
 70
     0
102
RTVSPropertyOp44
 70
     0
102
RTVSPropertyOp45
 70
     1
102
RTVSPropertyOp46
 70
     0
102
RTVSPropertyOp47
 70
     0
102
RTVSPropertyOp48
 70
     0
102
RTVSPropertyOp49
 70
     1
102
RTVSPropertyOp50
 70
     0
102
RTVSPropertyOp51
 70
     0
102
RTVSPropertyOp52
 70
     0
102
RTVSPropertyOp53
 70
     0
102
RTVSPropertyOp54
 70
     0
102
RTVSPropertyOp55
 70
     1
102
RTVSPropertyOp56
 70
     0
102
RTVSPropertyOp57
 70
     0
102
RTVSPropertyOp58
 70
     0
102
RTVSPropertyOp59
 70
     0
102
RTVSPropertyOp60
 70
     0
102
RTVSPropertyOp61
 70
     0
102
RTVSPropertyOp62
 70
     0
  0
XRECORD
  5
83C4
102
{ACAD_REACTORS
330
83C3
102
}
330
83C3
100
AcDbXrecord
280
     1
102
RTVSPost2010Prop28
280
     0
102
RTVSPost2010PropOp28
 70
     1
102
RTVSPost2010Prop29
280
     1
102
RTVSPost2010PropOp29
 70
     1
102
RTVSPost2010Prop30
280
     1
102
RTVSPost2010PropOp30
 70
     1
102
RTVSPost2010Prop31
280
     0
102
RTVSPost2010PropOp31
 70
     1
102
RTVSPost2010Prop32
280
     0
102
RTVSPost2010PropOp32
 70
     1
102
RTVSPost2010Prop33
280
     0
102
RTVSPost2010PropOp33
 70
     1
102
RTVSPost2010Prop34
280
     0
102
RTVSPost2010PropOp34
 70
     1
102
RTVSPost2010Prop35
280
     0
102
RTVSPost2010PropOp35
 70
     1
102
RTVSPost2010Prop36
280
     0
102
RTVSPost2010PropOp36
 70
     1
102
RTVSPost2010Prop37
 90
       50
102
RTVSPost2010PropOp37
 70
     1
102
RTVSPost2010Prop38
140
0.0
102
RTVSPost2010PropOp38
 70
     1
102
RTVSPost2010Prop39
140
1.0
102
RTVSPost2010PropOp39
 70
     1
102
RTVSPost2010Prop40
 90
        0
102
RTVSPost2010PropOp40
 70
     1
102
RTVSPost2010Prop41ColorIndex
 90
       18
102
RTVSPost2010Prop41ColorRGB
 90
        0
102
RTVSPost2010PropOp41
 70
     1
102
RTVSPost2010Prop42
 90
       50
102
RTVSPost2010PropOp42
 70
     1
102
RTVSPost2010Prop43
 90
        3
102
RTVSPost2010PropOp43
 70
     1
102
RTVSPost2010Prop44ColorIndex
 90
        5
102
RTVSPost2010Prop44ColorRGB
 90
      255
102
RTVSPost2010PropOp44
 70
     1
102
RTVSPost2010Prop45
280
     0
102
RTVSPost2010PropOp45
 70
     1
102
RTVSPost2010Prop46
 90
       50
102
RTVSPost2010PropOp46
 70
     1
102
RTVSPost2010Prop47
 90
       50
102
RTVSPost2010PropOp47
 70
     1
102
RTVSPost2010Prop48
 90
       50
102
RTVSPost2010PropOp48
 70
     1
102
RTVSPost2010Prop49
280
     0
102
RTVSPost2010PropOp49
 70
     1
102
RTVSPost2010Prop50
 90
       50
102
RTVSPost2010PropOp50
 70
     1
102
RTVSPost2010Prop51ColorIndex
 90
      256
102
RTVSPost2010Prop51ColorRGB
 90
-16777216
102
RTVSPost2010PropOp51
 70
     0
102
RTVSPost2010Prop52
140
1.0
102
RTVSPost2010PropOp52
 70
     0
102
RTVSPost2010Prop53
 90
        2
102
RTVSPost2010PropOp53
 70
     1
102
RTVSPost2010Prop54
  1
strokes_ogs.tif
102
RTVSPost2010PropOp54
 70
     1
102
RTVSPost2010Prop55
280
     0
102
RTVSPost2010PropOp55
 70
     1
102
RTVSPost2010Prop56
140
1.0
102
RTVSPost2010PropOp56
 70
     1
102
RTVSPost2010Prop57
140
1.0
102
RTVSPost2010PropOp57
 70
     1
102
RTVSPropertyOp0
 70
     1
102
RTVSPropertyOp1
 70
     1
102
RTVSPropertyOp2
 70
     1
102
RTVSPropertyOp3
 70
     1
102
RTVSPropertyOp4
 70
     1
102
RTVSPropertyOp5
 70
     1
102
RTVSPropertyOp6
 70
     1
102
RTVSPropertyOp7
 70
     1
102
RTVSPropertyOp8
 70
     1
102
RTVSPropertyOp9
 70
     1
102
RTVSPropertyOp10
 70
     1
102
RTVSPropertyOp11
 70
     1
102
RTVSPropertyOp12
 70
     1
102
RTVSPropertyOp13
 70
     1
102
RTVSPropertyOp14
 70
     1
102
RTVSPropertyOp15
 70
     1
102
RTVSPropertyOp16
 70
     1
102
RTVSPropertyOp17
 70
     1
102
RTVSPropertyOp18
 70
     1
102
RTVSPropertyOp19
 70
     1
102
RTVSPropertyOp20
 70
     1
102
RTVSPropertyOp21
 70
     1
102
RTVSPropertyOp22
 70
     1
102
RTVSPropertyOp23
 70
     1
102
RTVSPropertyOp24
 70
     1
102
RTVSPropertyOp25
 70
     1
102
RTVSPropertyOp26
 70
     1
102
RTVSPropertyOp27
 70
     1
102
RTVSPropertyOp28
 70
     1
102
RTVSPropertyOp29
 70
     1
102
RTVSPropertyOp30
 70
     1
102
RTVSPropertyOp31
 70
     1
102
RTVSPropertyOp32
 70
     1
102
RTVSPropertyOp33
 70
     1
102
RTVSPropertyOp34
 70
     1
102
RTVSPropertyOp35
 70
     1
102
RTVSPropertyOp36
 70
     1
102
RTVSPropertyOp37
 70
     1
102
RTVSPropertyOp38
 70
     1
102
RTVSPropertyOp39
 70
     1
102
RTVSPropertyOp40
 70
     1
102
RTVSPropertyOp41
 70
     1
102
RTVSPropertyOp42
 70
     1
102
RTVSPropertyOp43
 70
     1
102
RTVSPropertyOp44
 70
     1
102
RTVSPropertyOp45
 70
     1
102
RTVSPropertyOp46
 70
     1
102
RTVSPropertyOp47
 70
     1
102
RTVSPropertyOp48
 70
     1
102
RTVSPropertyOp49
 70
     1
102
RTVSPropertyOp50
 70
     1
102
RTVSPropertyOp51
 70
     0
102
RTVSPropertyOp52
 70
     0
102
RTVSPropertyOp53
 70
     1
102
RTVSPropertyOp54
 70
     1
102
RTVSPropertyOp55
 70
     1
102
RTVSPropertyOp56
 70
     1
102
RTVSPropertyOp57
 70
     1
102
RTVSPropertyOp58
 70
     1
102
RTVSPropertyOp59
 70
     1
102
RTVSPropertyOp60
 70
     1
102
RTVSPropertyOp61
 70
     1
102
RTVSPropertyOp62
 70
     1
  0
XRECORD
  5
83DA
102
{ACAD_REACTORS
330
83D9
102
}
330
83D9
100
AcDbXrecord
280
     1
102
RTVSPost2010Prop28
280
     0
102
RTVSPost2010PropOp28
 70
     1
102
RTVSPost2010Prop29
280
     1
102
RTVSPost2010PropOp29
 70
     1
102
RTVSPost2010Prop30
280
     1
102
RTVSPost2010PropOp30
 70
     1
102
RTVSPost2010Prop31
280
     0
102
RTVSPost2010PropOp31
 70
     1
102
RTVSPost2010Prop32
280
     0
102
RTVSPost2010PropOp32
 70
     1
102
RTVSPost2010Prop33
280
     0
102
RTVSPost2010PropOp33
 70
     1
102
RTVSPost2010Prop34
280
     0
102
RTVSPost2010PropOp34
 70
     1
102
RTVSPost2010Prop35
280
     0
102
RTVSPost2010PropOp35
 70
     1
102
RTVSPost2010Prop36
280
     0
102
RTVSPost2010PropOp36
 70
     1
102
RTVSPost2010Prop37
 90
       50
102
RTVSPost2010PropOp37
 70
     1
102
RTVSPost2010Prop38
140
0.0
102
RTVSPost2010PropOp38
 70
     1
102
RTVSPost2010Prop39
140
1.0
102
RTVSPost2010PropOp39
 70
     1
102
RTVSPost2010Prop40
 90
        0
102
RTVSPost2010PropOp40
 70
     1
102
RTVSPost2010Prop41ColorIndex
 90
       18
102
RTVSPost2010Prop41ColorRGB
 90
        0
102
RTVSPost2010PropOp41
 70
     1
102
RTVSPost2010Prop42
 90
       50
102
RTVSPost2010PropOp42
 70
     1
102
RTVSPost2010Prop43
 90
        3
102
RTVSPost2010PropOp43
 70
     1
102
RTVSPost2010Prop44ColorIndex
 90
        5
102
RTVSPost2010Prop44ColorRGB
 90
      255
102
RTVSPost2010PropOp44
 70
     1
102
RTVSPost2010Prop45
280
     0
102
RTVSPost2010PropOp45
 70
     1
102
RTVSPost2010Prop46
 90
       50
102
RTVSPost2010PropOp46
 70
     1
102
RTVSPost2010Prop47
 90
       50
102
RTVSPost2010PropOp47
 70
     1
102
RTVSPost2010Prop48
 90
       50
102
RTVSPost2010PropOp48
 70
     1
102
RTVSPost2010Prop49
280
     0
102
RTVSPost2010PropOp49
 70
     1
102
RTVSPost2010Prop50
 90
       50
102
RTVSPost2010PropOp50
 70
     1
102
RTVSPost2010Prop51ColorIndex
 90
      256
102
RTVSPost2010Prop51ColorRGB
 90
-16777216
102
RTVSPost2010PropOp51
 70
     0
102
RTVSPost2010Prop52
140
1.0
102
RTVSPost2010PropOp52
 70
     0
102
RTVSPost2010Prop53
 90
        2
102
RTVSPost2010PropOp53
 70
     1
102
RTVSPost2010Prop54
  1
strokes_ogs.tif
102
RTVSPost2010PropOp54
 70
     1
102
RTVSPost2010Prop55
280
     0
102
RTVSPost2010PropOp55
 70
     1
102
RTVSPost2010Prop56
140
1.0
102
RTVSPost2010PropOp56
 70
     1
102
RTVSPost2010Prop57
140
1.0
102
RTVSPost2010PropOp57
 70
     1
102
RTVSPropertyOp0
 70
     1
102
RTVSPropertyOp1
 70
     1
102
RTVSPropertyOp2
 70
     1
102
RTVSPropertyOp3
 70
     1
102
RTVSPropertyOp4
 70
     1
102
RTVSPropertyOp5
 70
     1
102
RTVSPropertyOp6
 70
     1
102
RTVSPropertyOp7
 70
     1
102
RTVSPropertyOp8
 70
     1
102
RTVSPropertyOp9
 70
     1
102
RTVSPropertyOp10
 70
     1
102
RTVSPropertyOp11
 70
     1
102
RTVSPropertyOp12
 70
     1
102
RTVSPropertyOp13
 70
     1
102
RTVSPropertyOp14
 70
     1
102
RTVSPropertyOp15
 70
     1
102
RTVSPropertyOp16
 70
     1
102
RTVSPropertyOp17
 70
     1
102
RTVSPropertyOp18
 70
     1
102
RTVSPropertyOp19
 70
     1
102
RTVSPropertyOp20
 70
     1
102
RTVSPropertyOp21
 70
     1
102
RTVSPropertyOp22
 70
     1
102
RTVSPropertyOp23
 70
     1
102
RTVSPropertyOp24
 70
     1
102
RTVSPropertyOp25
 70
     1
102
RTVSPropertyOp26
 70
     1
102
RTVSPropertyOp27
 70
     1
102
RTVSPropertyOp28
 70
     1
102
RTVSPropertyOp29
 70
     1
102
RTVSPropertyOp30
 70
     1
102
RTVSPropertyOp31
 70
     1
102
RTVSPropertyOp32
 70
     1
102
RTVSPropertyOp33
 70
     1
102
RTVSPropertyOp34
 70
     1
102
RTVSPropertyOp35
 70
     1
102
RTVSPropertyOp36
 70
     1
102
RTVSPropertyOp37
 70
     1
102
RTVSPropertyOp38
 70
     1
102
RTVSPropertyOp39
 70
     1
102
RTVSPropertyOp40
 70
     1
102
RTVSPropertyOp41
 70
     1
102
RTVSPropertyOp42
 70
     1
102
RTVSPropertyOp43
 70
     1
102
RTVSPropertyOp44
 70
     1
102
RTVSPropertyOp45
 70
     1
102
RTVSPropertyOp46
 70
     1
102
RTVSPropertyOp47
 70
     1
102
RTVSPropertyOp48
 70
     1
102
RTVSPropertyOp49
 70
     1
102
RTVSPropertyOp50
 70
     1
102
RTVSPropertyOp51
 70
     0
102
RTVSPropertyOp52
 70
     0
102
RTVSPropertyOp53
 70
     1
102
RTVSPropertyOp54
 70
     1
102
RTVSPropertyOp55
 70
     1
102
RTVSPropertyOp56
 70
     1
102
RTVSPropertyOp57
 70
     1
102
RTVSPropertyOp58
 70
     1
102
RTVSPropertyOp59
 70
     1
102
RTVSPropertyOp60
 70
     1
102
RTVSPropertyOp61
 70
     1
102
RTVSPropertyOp62
 70
     1
  0
XRECORD
  5
83D8
102
{ACAD_REACTORS
330
83D7
102
}
330
83D7
100
AcDbXrecord
280
     1
102
RTVSPost2010Prop28
280
     0
102
RTVSPost2010PropOp28
 70
     1
102
RTVSPost2010Prop29
280
     1
102
RTVSPost2010PropOp29
 70
     1
102
RTVSPost2010Prop30
280
     1
102
RTVSPost2010PropOp30
 70
     1
102
RTVSPost2010Prop31
280
     0
102
RTVSPost2010PropOp31
 70
     1
102
RTVSPost2010Prop32
280
     0
102
RTVSPost2010PropOp32
 70
     1
102
RTVSPost2010Prop33
280
     0
102
RTVSPost2010PropOp33
 70
     1
102
RTVSPost2010Prop34
280
     0
102
RTVSPost2010PropOp34
 70
     1
102
RTVSPost2010Prop35
280
     0
102
RTVSPost2010PropOp35
 70
     1
102
RTVSPost2010Prop36
280
     0
102
RTVSPost2010PropOp36
 70
     1
102
RTVSPost2010Prop37
 90
       50
102
RTVSPost2010PropOp37
 70
     1
102
RTVSPost2010Prop38
140
0.0
102
RTVSPost2010PropOp38
 70
     1
102
RTVSPost2010Prop39
140
1.0
102
RTVSPost2010PropOp39
 70
     1
102
RTVSPost2010Prop40
 90
        0
102
RTVSPost2010PropOp40
 70
     1
102
RTVSPost2010Prop41ColorIndex
 90
       18
102
RTVSPost2010Prop41ColorRGB
 90
        0
102
RTVSPost2010PropOp41
 70
     1
102
RTVSPost2010Prop42
 90
       50
102
RTVSPost2010PropOp42
 70
     1
102
RTVSPost2010Prop43
 90
        3
102
RTVSPost2010PropOp43
 70
     1
102
RTVSPost2010Prop44ColorIndex
 90
        5
102
RTVSPost2010Prop44ColorRGB
 90
      255
102
RTVSPost2010PropOp44
 70
     1
102
RTVSPost2010Prop45
280
     0
102
RTVSPost2010PropOp45
 70
     1
102
RTVSPost2010Prop46
 90
       50
102
RTVSPost2010PropOp46
 70
     1
102
RTVSPost2010Prop47
 90
       50
102
RTVSPost2010PropOp47
 70
     1
102
RTVSPost2010Prop48
 90
       50
102
RTVSPost2010PropOp48
 70
     1
102
RTVSPost2010Prop49
280
     0
102
RTVSPost2010PropOp49
 70
     1
102
RTVSPost2010Prop50
 90
       50
102
RTVSPost2010PropOp50
 70
     1
102
RTVSPost2010Prop51ColorIndex
 90
      256
102
RTVSPost2010Prop51ColorRGB
 90
-16777216
102
RTVSPost2010PropOp51
 70
     0
102
RTVSPost2010Prop52
140
1.0
102
RTVSPost2010PropOp52
 70
     0
102
RTVSPost2010Prop53
 90
        2
102
RTVSPost2010PropOp53
 70
     1
102
RTVSPost2010Prop54
  1
strokes_ogs.tif
102
RTVSPost2010PropOp54
 70
     1
102
RTVSPost2010Prop55
280
     0
102
RTVSPost2010PropOp55
 70
     1
102
RTVSPost2010Prop56
140
1.0
102
RTVSPost2010PropOp56
 70
     1
102
RTVSPost2010Prop57
140
1.0
102
RTVSPost2010PropOp57
 70
     1
102
RTVSPropertyOp0
 70
     1
102
RTVSPropertyOp1
 70
     1
102
RTVSPropertyOp2
 70
     1
102
RTVSPropertyOp3
 70
     1
102
RTVSPropertyOp4
 70
     1
102
RTVSPropertyOp5
 70
     1
102
RTVSPropertyOp6
 70
     1
102
RTVSPropertyOp7
 70
     1
102
RTVSPropertyOp8
 70
     1
102
RTVSPropertyOp9
 70
     1
102
RTVSPropertyOp10
 70
     1
102
RTVSPropertyOp11
 70
     1
102
RTVSPropertyOp12
 70
     1
102
RTVSPropertyOp13
 70
     1
102
RTVSPropertyOp14
 70
     1
102
RTVSPropertyOp15
 70
     1
102
RTVSPropertyOp16
 70
     1
102
RTVSPropertyOp17
 70
     1
102
RTVSPropertyOp18
 70
     1
102
RTVSPropertyOp19
 70
     1
102
RTVSPropertyOp20
 70
     1
102
RTVSPropertyOp21
 70
     1
102
RTVSPropertyOp22
 70
     1
102
RTVSPropertyOp23
 70
     1
102
RTVSPropertyOp24
 70
     1
102
RTVSPropertyOp25
 70
     1
102
RTVSPropertyOp26
 70
     1
102
RTVSPropertyOp27
 70
     1
102
RTVSPropertyOp28
 70
     1
102
RTVSPropertyOp29
 70
     1
102
RTVSPropertyOp30
 70
     1
102
RTVSPropertyOp31
 70
     1
102
RTVSPropertyOp32
 70
     1
102
RTVSPropertyOp33
 70
     1
102
RTVSPropertyOp34
 70
     1
102
RTVSPropertyOp35
 70
     1
102
RTVSPropertyOp36
 70
     1
102
RTVSPropertyOp37
 70
     1
102
RTVSPropertyOp38
 70
     1
102
RTVSPropertyOp39
 70
     1
102
RTVSPropertyOp40
 70
     1
102
RTVSPropertyOp41
 70
     1
102
RTVSPropertyOp42
 70
     1
102
RTVSPropertyOp43
 70
     1
102
RTVSPropertyOp44
 70
     1
102
RTVSPropertyOp45
 70
     1
102
RTVSPropertyOp46
 70
     1
102
RTVSPropertyOp47
 70
     1
102
RTVSPropertyOp48
 70
     1
102
RTVSPropertyOp49
 70
     1
102
RTVSPropertyOp50
 70
     1
102
RTVSPropertyOp51
 70
     0
102
RTVSPropertyOp52
 70
     0
102
RTVSPropertyOp53
 70
     1
102
RTVSPropertyOp54
 70
     1
102
RTVSPropertyOp55
 70
     1
102
RTVSPropertyOp56
 70
     1
102
RTVSPropertyOp57
 70
     1
102
RTVSPropertyOp58
 70
     1
102
RTVSPropertyOp59
 70
     1
102
RTVSPropertyOp60
 70
     1
102
RTVSPropertyOp61
 70
     1
102
RTVSPropertyOp62
 70
     1
  0
XRECORD
  5
83D2
102
{ACAD_REACTORS
330
83D1
102
}
330
83D1
100
AcDbXrecord
280
     1
102
RTVSPost2010Prop28
280
     0
102
RTVSPost2010PropOp28
 70
     1
102
RTVSPost2010Prop29
280
     1
102
RTVSPost2010PropOp29
 70
     1
102
RTVSPost2010Prop30
280
     1
102
RTVSPost2010PropOp30
 70
     1
102
RTVSPost2010Prop31
280
     0
102
RTVSPost2010PropOp31
 70
     1
102
RTVSPost2010Prop32
280
     0
102
RTVSPost2010PropOp32
 70
     1
102
RTVSPost2010Prop33
280
     0
102
RTVSPost2010PropOp33
 70
     1
102
RTVSPost2010Prop34
280
     0
102
RTVSPost2010PropOp34
 70
     1
102
RTVSPost2010Prop35
280
     0
102
RTVSPost2010PropOp35
 70
     1
102
RTVSPost2010Prop36
280
     0
102
RTVSPost2010PropOp36
 70
     1
102
RTVSPost2010Prop37
 90
       50
102
RTVSPost2010PropOp37
 70
     1
102
RTVSPost2010Prop38
140
0.0
102
RTVSPost2010PropOp38
 70
     1
102
RTVSPost2010Prop39
140
1.0
102
RTVSPost2010PropOp39
 70
     1
102
RTVSPost2010Prop40
 90
        0
102
RTVSPost2010PropOp40
 70
     1
102
RTVSPost2010Prop41ColorIndex
 90
       18
102
RTVSPost2010Prop41ColorRGB
 90
        0
102
RTVSPost2010PropOp41
 70
     1
102
RTVSPost2010Prop42
 90
       50
102
RTVSPost2010PropOp42
 70
     1
102
RTVSPost2010Prop43
 90
        3
102
RTVSPost2010PropOp43
 70
     1
102
RTVSPost2010Prop44ColorIndex
 90
        5
102
RTVSPost2010Prop44ColorRGB
 90
      255
102
RTVSPost2010PropOp44
 70
     1
102
RTVSPost2010Prop45
280
     0
102
RTVSPost2010PropOp45
 70
     1
102
RTVSPost2010Prop46
 90
       50
102
RTVSPost2010PropOp46
 70
     1
102
RTVSPost2010Prop47
 90
       50
102
RTVSPost2010PropOp47
 70
     1
102
RTVSPost2010Prop48
 90
       50
102
RTVSPost2010PropOp48
 70
     1
102
RTVSPost2010Prop49
280
     0
102
RTVSPost2010PropOp49
 70
     1
102
RTVSPost2010Prop50
 90
       50
102
RTVSPost2010PropOp50
 70
     1
102
RTVSPost2010Prop51ColorIndex
 90
      256
102
RTVSPost2010Prop51ColorRGB
 90
-16777216
102
RTVSPost2010PropOp51
 70
     0
102
RTVSPost2010Prop52
140
1.0
102
RTVSPost2010PropOp52
 70
     0
102
RTVSPost2010Prop53
 90
        2
102
RTVSPost2010PropOp53
 70
     1
102
RTVSPost2010Prop54
  1
strokes_ogs.tif
102
RTVSPost2010PropOp54
 70
     1
102
RTVSPost2010Prop55
280
     0
102
RTVSPost2010PropOp55
 70
     1
102
RTVSPost2010Prop56
140
1.0
102
RTVSPost2010PropOp56
 70
     1
102
RTVSPost2010Prop57
140
1.0
102
RTVSPost2010PropOp57
 70
     1
102
RTVSPropertyOp0
 70
     1
102
RTVSPropertyOp1
 70
     1
102
RTVSPropertyOp2
 70
     1
102
RTVSPropertyOp3
 70
     1
102
RTVSPropertyOp4
 70
     1
102
RTVSPropertyOp5
 70
     1
102
RTVSPropertyOp6
 70
     1
102
RTVSPropertyOp7
 70
     1
102
RTVSPropertyOp8
 70
     1
102
RTVSPropertyOp9
 70
     1
102
RTVSPropertyOp10
 70
     1
102
RTVSPropertyOp11
 70
     1
102
RTVSPropertyOp12
 70
     1
102
RTVSPropertyOp13
 70
     1
102
RTVSPropertyOp14
 70
     1
102
RTVSPropertyOp15
 70
     1
102
RTVSPropertyOp16
 70
     1
102
RTVSPropertyOp17
 70
     1
102
RTVSPropertyOp18
 70
     1
102
RTVSPropertyOp19
 70
     1
102
RTVSPropertyOp20
 70
     1
102
RTVSPropertyOp21
 70
     1
102
RTVSPropertyOp22
 70
     1
102
RTVSPropertyOp23
 70
     1
102
RTVSPropertyOp24
 70
     1
102
RTVSPropertyOp25
 70
     1
102
RTVSPropertyOp26
 70
     1
102
RTVSPropertyOp27
 70
     1
102
RTVSPropertyOp28
 70
     1
102
RTVSPropertyOp29
 70
     1
102
RTVSPropertyOp30
 70
     1
102
RTVSPropertyOp31
 70
     1
102
RTVSPropertyOp32
 70
     1
102
RTVSPropertyOp33
 70
     1
102
RTVSPropertyOp34
 70
     1
102
RTVSPropertyOp35
 70
     1
102
RTVSPropertyOp36
 70
     1
102
RTVSPropertyOp37
 70
     1
102
RTVSPropertyOp38
 70
     1
102
RTVSPropertyOp39
 70
     1
102
RTVSPropertyOp40
 70
     1
102
RTVSPropertyOp41
 70
     1
102
RTVSPropertyOp42
 70
     1
102
RTVSPropertyOp43
 70
     1
102
RTVSPropertyOp44
 70
     1
102
RTVSPropertyOp45
 70
     1
102
RTVSPropertyOp46
 70
     1
102
RTVSPropertyOp47
 70
     1
102
RTVSPropertyOp48
 70
     1
102
RTVSPropertyOp49
 70
     1
102
RTVSPropertyOp50
 70
     1
102
RTVSPropertyOp51
 70
     0
102
RTVSPropertyOp52
 70
     0
102
RTVSPropertyOp53
 70
     1
102
RTVSPropertyOp54
 70
     1
102
RTVSPropertyOp55
 70
     1
102
RTVSPropertyOp56
 70
     1
102
RTVSPropertyOp57
 70
     1
102
RTVSPropertyOp58
 70
     1
102
RTVSPropertyOp59
 70
     1
102
RTVSPropertyOp60
 70
     1
102
RTVSPropertyOp61
 70
     1
102
RTVSPropertyOp62
 70
     1
  0
XRECORD
  5
83D4
102
{ACAD_REACTORS
330
83D3
102
}
330
83D3
100
AcDbXrecord
280
     1
102
RTVSPost2010Prop28
280
     0
102
RTVSPost2010PropOp28
 70
     1
102
RTVSPost2010Prop29
280
     1
102
RTVSPost2010PropOp29
 70
     1
102
RTVSPost2010Prop30
280
     1
102
RTVSPost2010PropOp30
 70
     1
102
RTVSPost2010Prop31
280
     0
102
RTVSPost2010PropOp31
 70
     1
102
RTVSPost2010Prop32
280
     0
102
RTVSPost2010PropOp32
 70
     1
102
RTVSPost2010Prop33
280
     0
102
RTVSPost2010PropOp33
 70
     1
102
RTVSPost2010Prop34
280
     0
102
RTVSPost2010PropOp34
 70
     1
102
RTVSPost2010Prop35
280
     0
102
RTVSPost2010PropOp35
 70
     1
102
RTVSPost2010Prop36
280
     0
102
RTVSPost2010PropOp36
 70
     1
102
RTVSPost2010Prop37
 90
       50
102
RTVSPost2010PropOp37
 70
     1
102
RTVSPost2010Prop38
140
0.0
102
RTVSPost2010PropOp38
 70
     1
102
RTVSPost2010Prop39
140
1.0
102
RTVSPost2010PropOp39
 70
     1
102
RTVSPost2010Prop40
 90
        0
102
RTVSPost2010PropOp40
 70
     1
102
RTVSPost2010Prop41ColorIndex
 90
       18
102
RTVSPost2010Prop41ColorRGB
 90
        0
102
RTVSPost2010PropOp41
 70
     1
102
RTVSPost2010Prop42
 90
       50
102
RTVSPost2010PropOp42
 70
     1
102
RTVSPost2010Prop43
 90
        3
102
RTVSPost2010PropOp43
 70
     1
102
RTVSPost2010Prop44ColorIndex
 90
        5
102
RTVSPost2010Prop44ColorRGB
 90
      255
102
RTVSPost2010PropOp44
 70
     1
102
RTVSPost2010Prop45
280
     0
102
RTVSPost2010PropOp45
 70
     1
102
RTVSPost2010Prop46
 90
       50
102
RTVSPost2010PropOp46
 70
     1
102
RTVSPost2010Prop47
 90
       50
102
RTVSPost2010PropOp47
 70
     1
102
RTVSPost2010Prop48
 90
       50
102
RTVSPost2010PropOp48
 70
     1
102
RTVSPost2010Prop49
280
     0
102
RTVSPost2010PropOp49
 70
     1
102
RTVSPost2010Prop50
 90
       50
102
RTVSPost2010PropOp50
 70
     1
102
RTVSPost2010Prop51ColorIndex
 90
      256
102
RTVSPost2010Prop51ColorRGB
 90
-16777216
102
RTVSPost2010PropOp51
 70
     0
102
RTVSPost2010Prop52
140
1.0
102
RTVSPost2010PropOp52
 70
     0
102
RTVSPost2010Prop53
 90
        2
102
RTVSPost2010PropOp53
 70
     1
102
RTVSPost2010Prop54
  1
strokes_ogs.tif
102
RTVSPost2010PropOp54
 70
     1
102
RTVSPost2010Prop55
280
     0
102
RTVSPost2010PropOp55
 70
     1
102
RTVSPost2010Prop56
140
1.0
102
RTVSPost2010PropOp56
 70
     1
102
RTVSPost2010Prop57
140
1.0
102
RTVSPost2010PropOp57
 70
     1
102
RTVSPropertyOp0
 70
     1
102
RTVSPropertyOp1
 70
     1
102
RTVSPropertyOp2
 70
     1
102
RTVSPropertyOp3
 70
     1
102
RTVSPropertyOp4
 70
     1
102
RTVSPropertyOp5
 70
     1
102
RTVSPropertyOp6
 70
     1
102
RTVSPropertyOp7
 70
     1
102
RTVSPropertyOp8
 70
     1
102
RTVSPropertyOp9
 70
     1
102
RTVSPropertyOp10
 70
     1
102
RTVSPropertyOp11
 70
     1
102
RTVSPropertyOp12
 70
     1
102
RTVSPropertyOp13
 70
     1
102
RTVSPropertyOp14
 70
     1
102
RTVSPropertyOp15
 70
     1
102
RTVSPropertyOp16
 70
     1
102
RTVSPropertyOp17
 70
     1
102
RTVSPropertyOp18
 70
     1
102
RTVSPropertyOp19
 70
     1
102
RTVSPropertyOp20
 70
     1
102
RTVSPropertyOp21
 70
     1
102
RTVSPropertyOp22
 70
     1
102
RTVSPropertyOp23
 70
     1
102
RTVSPropertyOp24
 70
     1
102
RTVSPropertyOp25
 70
     1
102
RTVSPropertyOp26
 70
     1
102
RTVSPropertyOp27
 70
     1
102
RTVSPropertyOp28
 70
     1
102
RTVSPropertyOp29
 70
     1
102
RTVSPropertyOp30
 70
     1
102
RTVSPropertyOp31
 70
     1
102
RTVSPropertyOp32
 70
     1
102
RTVSPropertyOp33
 70
     1
102
RTVSPropertyOp34
 70
     1
102
RTVSPropertyOp35
 70
     1
102
RTVSPropertyOp36
 70
     1
102
RTVSPropertyOp37
 70
     1
102
RTVSPropertyOp38
 70
     1
102
RTVSPropertyOp39
 70
     1
102
RTVSPropertyOp40
 70
     1
102
RTVSPropertyOp41
 70
     1
102
RTVSPropertyOp42
 70
     1
102
RTVSPropertyOp43
 70
     1
102
RTVSPropertyOp44
 70
     1
102
RTVSPropertyOp45
 70
     1
102
RTVSPropertyOp46
 70
     1
102
RTVSPropertyOp47
 70
     1
102
RTVSPropertyOp48
 70
     1
102
RTVSPropertyOp49
 70
     1
102
RTVSPropertyOp50
 70
     1
102
RTVSPropertyOp51
 70
     0
102
RTVSPropertyOp52
 70
     0
102
RTVSPropertyOp53
 70
     1
102
RTVSPropertyOp54
 70
     1
102
RTVSPropertyOp55
 70
     1
102
RTVSPropertyOp56
 70
     1
102
RTVSPropertyOp57
 70
     1
102
RTVSPropertyOp58
 70
     1
102
RTVSPropertyOp59
 70
     1
102
RTVSPropertyOp60
 70
     1
102
RTVSPropertyOp61
 70
     1
102
RTVSPropertyOp62
 70
     1
  0
XRECORD
  5
83CA
102
{ACAD_REACTORS
330
83C9
102
}
330
83C9
100
AcDbXrecord
280
     1
102
RTVSPost2010Prop28
280
     0
102
RTVSPost2010PropOp28
 70
     1
102
RTVSPost2010Prop29
280
     1
102
RTVSPost2010PropOp29
 70
     1
102
RTVSPost2010Prop30
280
     1
102
RTVSPost2010PropOp30
 70
     1
102
RTVSPost2010Prop31
280
     0
102
RTVSPost2010PropOp31
 70
     1
102
RTVSPost2010Prop32
280
     0
102
RTVSPost2010PropOp32
 70
     1
102
RTVSPost2010Prop33
280
     0
102
RTVSPost2010PropOp33
 70
     1
102
RTVSPost2010Prop34
280
     0
102
RTVSPost2010PropOp34
 70
     1
102
RTVSPost2010Prop35
280
     0
102
RTVSPost2010PropOp35
 70
     1
102
RTVSPost2010Prop36
280
     0
102
RTVSPost2010PropOp36
 70
     1
102
RTVSPost2010Prop37
 90
       50
102
RTVSPost2010PropOp37
 70
     1
102
RTVSPost2010Prop38
140
0.0
102
RTVSPost2010PropOp38
 70
     1
102
RTVSPost2010Prop39
140
1.0
102
RTVSPost2010PropOp39
 70
     1
102
RTVSPost2010Prop40
 90
        0
102
RTVSPost2010PropOp40
 70
     1
102
RTVSPost2010Prop41ColorIndex
 90
       18
102
RTVSPost2010Prop41ColorRGB
 90
        0
102
RTVSPost2010PropOp41
 70
     1
102
RTVSPost2010Prop42
 90
       50
102
RTVSPost2010PropOp42
 70
     1
102
RTVSPost2010Prop43
 90
        3
102
RTVSPost2010PropOp43
 70
     1
102
RTVSPost2010Prop44ColorIndex
 90
        5
102
RTVSPost2010Prop44ColorRGB
 90
      255
102
RTVSPost2010PropOp44
 70
     1
102
RTVSPost2010Prop45
280
     0
102
RTVSPost2010PropOp45
 70
     1
102
RTVSPost2010Prop46
 90
       50
102
RTVSPost2010PropOp46
 70
     1
102
RTVSPost2010Prop47
 90
       50
102
RTVSPost2010PropOp47
 70
     1
102
RTVSPost2010Prop48
 90
       50
102
RTVSPost2010PropOp48
 70
     1
102
RTVSPost2010Prop49
280
     0
102
RTVSPost2010PropOp49
 70
     1
102
RTVSPost2010Prop50
 90
       50
102
RTVSPost2010PropOp50
 70
     1
102
RTVSPost2010Prop51ColorIndex
 90
      256
102
RTVSPost2010Prop51ColorRGB
 90
-16777216
102
RTVSPost2010PropOp51
 70
     0
102
RTVSPost2010Prop52
140
1.0
102
RTVSPost2010PropOp52
 70
     0
102
RTVSPost2010Prop53
 90
        2
102
RTVSPost2010PropOp53
 70
     1
102
RTVSPost2010Prop54
  1
strokes_ogs.tif
102
RTVSPost2010PropOp54
 70
     1
102
RTVSPost2010Prop55
280
     0
102
RTVSPost2010PropOp55
 70
     1
102
RTVSPost2010Prop56
140
1.0
102
RTVSPost2010PropOp56
 70
     1
102
RTVSPost2010Prop57
140
1.0
102
RTVSPost2010PropOp57
 70
     1
102
RTVSPropertyOp0
 70
     1
102
RTVSPropertyOp1
 70
     1
102
RTVSPropertyOp2
 70
     1
102
RTVSPropertyOp3
 70
     1
102
RTVSPropertyOp4
 70
     1
102
RTVSPropertyOp5
 70
     1
102
RTVSPropertyOp6
 70
     1
102
RTVSPropertyOp7
 70
     1
102
RTVSPropertyOp8
 70
     1
102
RTVSPropertyOp9
 70
     1
102
RTVSPropertyOp10
 70
     1
102
RTVSPropertyOp11
 70
     1
102
RTVSPropertyOp12
 70
     1
102
RTVSPropertyOp13
 70
     1
102
RTVSPropertyOp14
 70
     1
102
RTVSPropertyOp15
 70
     1
102
RTVSPropertyOp16
 70
     1
102
RTVSPropertyOp17
 70
     1
102
RTVSPropertyOp18
 70
     1
102
RTVSPropertyOp19
 70
     1
102
RTVSPropertyOp20
 70
     1
102
RTVSPropertyOp21
 70
     1
102
RTVSPropertyOp22
 70
     1
102
RTVSPropertyOp23
 70
     1
102
RTVSPropertyOp24
 70
     1
102
RTVSPropertyOp25
 70
     1
102
RTVSPropertyOp26
 70
     1
102
RTVSPropertyOp27
 70
     1
102
RTVSPropertyOp28
 70
     1
102
RTVSPropertyOp29
 70
     1
102
RTVSPropertyOp30
 70
     1
102
RTVSPropertyOp31
 70
     1
102
RTVSPropertyOp32
 70
     1
102
RTVSPropertyOp33
 70
     1
102
RTVSPropertyOp34
 70
     1
102
RTVSPropertyOp35
 70
     1
102
RTVSPropertyOp36
 70
     1
102
RTVSPropertyOp37
 70
     1
102
RTVSPropertyOp38
 70
     1
102
RTVSPropertyOp39
 70
     1
102
RTVSPropertyOp40
 70
     1
102
RTVSPropertyOp41
 70
     1
102
RTVSPropertyOp42
 70
     1
102
RTVSPropertyOp43
 70
     1
102
RTVSPropertyOp44
 70
     1
102
RTVSPropertyOp45
 70
     1
102
RTVSPropertyOp46
 70
     1
102
RTVSPropertyOp47
 70
     1
102
RTVSPropertyOp48
 70
     1
102
RTVSPropertyOp49
 70
     1
102
RTVSPropertyOp50
 70
     1
102
RTVSPropertyOp51
 70
     0
102
RTVSPropertyOp52
 70
     0
102
RTVSPropertyOp53
 70
     1
102
RTVSPropertyOp54
 70
     1
102
RTVSPropertyOp55
 70
     1
102
RTVSPropertyOp56
 70
     1
102
RTVSPropertyOp57
 70
     1
102
RTVSPropertyOp58
 70
     1
102
RTVSPropertyOp59
 70
     1
102
RTVSPropertyOp60
 70
     1
102
RTVSPropertyOp61
 70
     1
102
RTVSPropertyOp62
 70
     1
  0
XRECORD
  5
83BE
102
{ACAD_REACTORS
330
83BD
102
}
330
83BD
100
AcDbXrecord
280
     1
102
RTVSPost2010Prop28
280
     0
102
RTVSPost2010PropOp28
 70
     1
102
RTVSPost2010Prop29
280
     1
102
RTVSPost2010PropOp29
 70
     1
102
RTVSPost2010Prop30
280
     1
102
RTVSPost2010PropOp30
 70
     1
102
RTVSPost2010Prop31
280
     0
102
RTVSPost2010PropOp31
 70
     1
102
RTVSPost2010Prop32
280
     0
102
RTVSPost2010PropOp32
 70
     1
102
RTVSPost2010Prop33
280
     0
102
RTVSPost2010PropOp33
 70
     1
102
RTVSPost2010Prop34
280
     0
102
RTVSPost2010PropOp34
 70
     1
102
RTVSPost2010Prop35
280
     0
102
RTVSPost2010PropOp35
 70
     1
102
RTVSPost2010Prop36
280
     0
102
RTVSPost2010PropOp36
 70
     1
102
RTVSPost2010Prop37
 90
       50
102
RTVSPost2010PropOp37
 70
     1
102
RTVSPost2010Prop38
140
0.0
102
RTVSPost2010PropOp38
 70
     1
102
RTVSPost2010Prop39
140
1.0
102
RTVSPost2010PropOp39
 70
     1
102
RTVSPost2010Prop40
 90
        0
102
RTVSPost2010PropOp40
 70
     1
102
RTVSPost2010Prop41ColorIndex
 90
       18
102
RTVSPost2010Prop41ColorRGB
 90
        0
102
RTVSPost2010PropOp41
 70
     1
102
RTVSPost2010Prop42
 90
       50
102
RTVSPost2010PropOp42
 70
     1
102
RTVSPost2010Prop43
 90
        3
102
RTVSPost2010PropOp43
 70
     1
102
RTVSPost2010Prop44ColorIndex
 90
        5
102
RTVSPost2010Prop44ColorRGB
 90
      255
102
RTVSPost2010PropOp44
 70
     1
102
RTVSPost2010Prop45
280
     0
102
RTVSPost2010PropOp45
 70
     1
102
RTVSPost2010Prop46
 90
       50
102
RTVSPost2010PropOp46
 70
     1
102
RTVSPost2010Prop47
 90
       50
102
RTVSPost2010PropOp47
 70
     1
102
RTVSPost2010Prop48
 90
       50
102
RTVSPost2010PropOp48
 70
     1
102
RTVSPost2010Prop49
280
     0
102
RTVSPost2010PropOp49
 70
     1
102
RTVSPost2010Prop50
 90
       50
102
RTVSPost2010PropOp50
 70
     1
102
RTVSPost2010Prop51ColorIndex
 90
      256
102
RTVSPost2010Prop51ColorRGB
 90
-16777216
102
RTVSPost2010PropOp51
 70
     0
102
RTVSPost2010Prop52
140
1.0
102
RTVSPost2010PropOp52
 70
     0
102
RTVSPost2010Prop53
 90
        2
102
RTVSPost2010PropOp53
 70
     1
102
RTVSPost2010Prop54
  1
strokes_ogs.tif
102
RTVSPost2010PropOp54
 70
     1
102
RTVSPost2010Prop55
280
     0
102
RTVSPost2010PropOp55
 70
     1
102
RTVSPost2010Prop56
140
1.0
102
RTVSPost2010PropOp56
 70
     1
102
RTVSPost2010Prop57
140
1.0
102
RTVSPost2010PropOp57
 70
     1
102
RTVSPropertyOp0
 70
     1
102
RTVSPropertyOp1
 70
     1
102
RTVSPropertyOp2
 70
     1
102
RTVSPropertyOp3
 70
     1
102
RTVSPropertyOp4
 70
     1
102
RTVSPropertyOp5
 70
     1
102
RTVSPropertyOp6
 70
     1
102
RTVSPropertyOp7
 70
     1
102
RTVSPropertyOp8
 70
     1
102
RTVSPropertyOp9
 70
     1
102
RTVSPropertyOp10
 70
     1
102
RTVSPropertyOp11
 70
     1
102
RTVSPropertyOp12
 70
     1
102
RTVSPropertyOp13
 70
     1
102
RTVSPropertyOp14
 70
     1
102
RTVSPropertyOp15
 70
     1
102
RTVSPropertyOp16
 70
     1
102
RTVSPropertyOp17
 70
     1
102
RTVSPropertyOp18
 70
     1
102
RTVSPropertyOp19
 70
     1
102
RTVSPropertyOp20
 70
     1
102
RTVSPropertyOp21
 70
     1
102
RTVSPropertyOp22
 70
     1
102
RTVSPropertyOp23
 70
     1
102
RTVSPropertyOp24
 70
     1
102
RTVSPropertyOp25
 70
     1
102
RTVSPropertyOp26
 70
     1
102
RTVSPropertyOp27
 70
     1
102
RTVSPropertyOp28
 70
     1
102
RTVSPropertyOp29
 70
     1
102
RTVSPropertyOp30
 70
     1
102
RTVSPropertyOp31
 70
     1
102
RTVSPropertyOp32
 70
     1
102
RTVSPropertyOp33
 70
     1
102
RTVSPropertyOp34
 70
     1
102
RTVSPropertyOp35
 70
     1
102
RTVSPropertyOp36
 70
     1
102
RTVSPropertyOp37
 70
     1
102
RTVSPropertyOp38
 70
     1
102
RTVSPropertyOp39
 70
     1
102
RTVSPropertyOp40
 70
     1
102
RTVSPropertyOp41
 70
     1
102
RTVSPropertyOp42
 70
     1
102
RTVSPropertyOp43
 70
     1
102
RTVSPropertyOp44
 70
     1
102
RTVSPropertyOp45
 70
     1
102
RTVSPropertyOp46
 70
     1
102
RTVSPropertyOp47
 70
     1
102
RTVSPropertyOp48
 70
     1
102
RTVSPropertyOp49
 70
     1
102
RTVSPropertyOp50
 70
     1
102
RTVSPropertyOp51
 70
     0
102
RTVSPropertyOp52
 70
     0
102
RTVSPropertyOp53
 70
     1
102
RTVSPropertyOp54
 70
     1
102
RTVSPropertyOp55
 70
     1
102
RTVSPropertyOp56
 70
     1
102
RTVSPropertyOp57
 70
     1
102
RTVSPropertyOp58
 70
     1
102
RTVSPropertyOp59
 70
     1
102
RTVSPropertyOp60
 70
     1
102
RTVSPropertyOp61
 70
     1
102
RTVSPropertyOp62
 70
     1
  0
XRECORD
  5
83D6
102
{ACAD_REACTORS
330
83D5
102
}
330
83D5
100
AcDbXrecord
280
     1
102
RTVSPost2010Prop28
280
     0
102
RTVSPost2010PropOp28
 70
     1
102
RTVSPost2010Prop29
280
     1
102
RTVSPost2010PropOp29
 70
     1
102
RTVSPost2010Prop30
280
     1
102
RTVSPost2010PropOp30
 70
     1
102
RTVSPost2010Prop31
280
     0
102
RTVSPost2010PropOp31
 70
     1
102
RTVSPost2010Prop32
280
     0
102
RTVSPost2010PropOp32
 70
     1
102
RTVSPost2010Prop33
280
     0
102
RTVSPost2010PropOp33
 70
     1
102
RTVSPost2010Prop34
280
     0
102
RTVSPost2010PropOp34
 70
     1
102
RTVSPost2010Prop35
280
     0
102
RTVSPost2010PropOp35
 70
     1
102
RTVSPost2010Prop36
280
     0
102
RTVSPost2010PropOp36
 70
     1
102
RTVSPost2010Prop37
 90
       50
102
RTVSPost2010PropOp37
 70
     1
102
RTVSPost2010Prop38
140
0.0
102
RTVSPost2010PropOp38
 70
     1
102
RTVSPost2010Prop39
140
1.0
102
RTVSPost2010PropOp39
 70
     1
102
RTVSPost2010Prop40
 90
        0
102
RTVSPost2010PropOp40
 70
     1
102
RTVSPost2010Prop41ColorIndex
 90
       18
102
RTVSPost2010Prop41ColorRGB
 90
        0
102
RTVSPost2010PropOp41
 70
     1
102
RTVSPost2010Prop42
 90
       50
102
RTVSPost2010PropOp42
 70
     1
102
RTVSPost2010Prop43
 90
        3
102
RTVSPost2010PropOp43
 70
     1
102
RTVSPost2010Prop44ColorIndex
 90
        5
102
RTVSPost2010Prop44ColorRGB
 90
      255
102
RTVSPost2010PropOp44
 70
     1
102
RTVSPost2010Prop45
280
     0
102
RTVSPost2010PropOp45
 70
     1
102
RTVSPost2010Prop46
 90
       50
102
RTVSPost2010PropOp46
 70
     1
102
RTVSPost2010Prop47
 90
       50
102
RTVSPost2010PropOp47
 70
     1
102
RTVSPost2010Prop48
 90
       50
102
RTVSPost2010PropOp48
 70
     1
102
RTVSPost2010Prop49
280
     0
102
RTVSPost2010PropOp49
 70
     1
102
RTVSPost2010Prop50
 90
       50
102
RTVSPost2010PropOp50
 70
     1
102
RTVSPost2010Prop51ColorIndex
 90
      256
102
RTVSPost2010Prop51ColorRGB
 90
-16777216
102
RTVSPost2010PropOp51
 70
     0
102
RTVSPost2010Prop52
140
1.0
102
RTVSPost2010PropOp52
 70
     0
102
RTVSPost2010Prop53
 90
        2
102
RTVSPost2010PropOp53
 70
     1
102
RTVSPost2010Prop54
  1
strokes_ogs.tif
102
RTVSPost2010PropOp54
 70
     1
102
RTVSPost2010Prop55
280
     0
102
RTVSPost2010PropOp55
 70
     1
102
RTVSPost2010Prop56
140
1.0
102
RTVSPost2010PropOp56
 70
     1
102
RTVSPost2010Prop57
140
1.0
102
RTVSPost2010PropOp57
 70
     1
102
RTVSPropertyOp0
 70
     1
102
RTVSPropertyOp1
 70
     1
102
RTVSPropertyOp2
 70
     1
102
RTVSPropertyOp3
 70
     1
102
RTVSPropertyOp4
 70
     1
102
RTVSPropertyOp5
 70
     1
102
RTVSPropertyOp6
 70
     1
102
RTVSPropertyOp7
 70
     1
102
RTVSPropertyOp8
 70
     1
102
RTVSPropertyOp9
 70
     1
102
RTVSPropertyOp10
 70
     1
102
RTVSPropertyOp11
 70
     1
102
RTVSPropertyOp12
 70
     1
102
RTVSPropertyOp13
 70
     1
102
RTVSPropertyOp14
 70
     1
102
RTVSPropertyOp15
 70
     1
102
RTVSPropertyOp16
 70
     1
102
RTVSPropertyOp17
 70
     1
102
RTVSPropertyOp18
 70
     1
102
RTVSPropertyOp19
 70
     1
102
RTVSPropertyOp20
 70
     1
102
RTVSPropertyOp21
 70
     1
102
RTVSPropertyOp22
 70
     1
102
RTVSPropertyOp23
 70
     1
102
RTVSPropertyOp24
 70
     1
102
RTVSPropertyOp25
 70
     1
102
RTVSPropertyOp26
 70
     1
102
RTVSPropertyOp27
 70
     1
102
RTVSPropertyOp28
 70
     1
102
RTVSPropertyOp29
 70
     1
102
RTVSPropertyOp30
 70
     1
102
RTVSPropertyOp31
 70
     1
102
RTVSPropertyOp32
 70
     1
102
RTVSPropertyOp33
 70
     1
102
RTVSPropertyOp34
 70
     1
102
RTVSPropertyOp35
 70
     1
102
RTVSPropertyOp36
 70
     1
102
RTVSPropertyOp37
 70
     1
102
RTVSPropertyOp38
 70
     1
102
RTVSPropertyOp39
 70
     1
102
RTVSPropertyOp40
 70
     1
102
RTVSPropertyOp41
 70
     1
102
RTVSPropertyOp42
 70
     1
102
RTVSPropertyOp43
 70
     1
102
RTVSPropertyOp44
 70
     1
102
RTVSPropertyOp45
 70
     1
102
RTVSPropertyOp46
 70
     1
102
RTVSPropertyOp47
 70
     1
102
RTVSPropertyOp48
 70
     1
102
RTVSPropertyOp49
 70
     1
102
RTVSPropertyOp50
 70
     1
102
RTVSPropertyOp51
 70
     0
102
RTVSPropertyOp52
 70
     0
102
RTVSPropertyOp53
 70
     1
102
RTVSPropertyOp54
 70
     1
102
RTVSPropertyOp55
 70
     1
102
RTVSPropertyOp56
 70
     1
102
RTVSPropertyOp57
 70
     1
102
RTVSPropertyOp58
 70
     1
102
RTVSPropertyOp59
 70
     1
102
RTVSPropertyOp60
 70
     1
102
RTVSPropertyOp61
 70
     1
102
RTVSPropertyOp62
 70
     1
  0
ENDSEC
  0
EOF
