  0
SECTION
  2
HEADER
  9
$ACADVER
  1
AC1015
  9
$ACADMAINTVER
 70
    20
  9
$DWGCODEPAGE
  3
ANSI_932
  9
$INSBASE
 10
0.0
 20
0.0
 30
0.0
  9
$EXTMIN
 10
-0.1602050617329951
 20
-0.22504996767384
 30
-0.0015258207003583
  9
$EXTMAX
 10
5250.160229508953
 20
7375.225084310193
 30
0.0000000349246037
  9
$LIMMIN
 10
0.0
 20
0.0
  9
$LIMMAX
 10
297.0
 20
210.0
  9
$ORTHOMODE
 70
     1
  9
$REGENMODE
 70
     1
  9
$FILLMODE
 70
     0
  9
$QTEXTMODE
 70
     0
  9
$MIRRTEXT
 70
     1
  9
$LTSCALE
 40
100.0
  9
$ATTMODE
 70
     1
  9
$TEXTSIZE
 40
180.0
  9
$TRACEWID
 40
0.05
  9
$TEXTSTYLE
  7
STANDARD
  9
$CLAYER
  8
3
  9
$CELTYPE
  6
ByLayer
  9
$CECOLOR
 62
   256
  9
$CELTSCALE
 40
1.0
  9
$DISPSILH
 70
     0
  9
$DIMSCALE
 40
25.0
  9
$DIMASZ
 40
2.0
  9
$DIMEXO
 40
1.0
  9
$DIMDLI
 40
10.0
  9
$DIMRND
 40
0.0
  9
$DIMDLE
 40
0.0
  9
$DIMEXE
 40
1.0
  9
$DIMTP
 40
1.0
  9
$DIMTM
 40
1.0
  9
$DIMTXT
 40
3.0
  9
$DIMCEN
 40
0.0
  9
$DIMTSZ
 40
0.0
  9
$DIMTOL
 70
     0
  9
$DIMLIM
 70
     0
  9
$DIMTIH
 70
     0
  9
$DIMTOH
 70
     0
  9
$DIMSE1
 70
     0
  9
$DIMSE2
 70
     0
  9
$DIMTAD
 70
     1
  9
$DIMZIN
 70
     8
  9
$DIMBLK
  1

  9
$DIMASO
 70
     1
  9
$DIMSHO
 70
     1
  9
$DIMPOST
  1

  9
$DIMAPOST
  1

  9
$DIMALT
 70
     0
  9
$DIMALTD
 70
     2
  9
$DIMALTF
 40
0.039
  9
$DIMLFAC
 40
1.0
  9
$DIMTOFL
 70
     1
  9
$DIMTVP
 40
0.0
  9
$DIMTIX
 70
     0
  9
$DIMSOXD
 70
     0
  9
$DIMSAH
 70
     1
  9
$DIMBLK1
  1
OPEN
  9
$DIMBLK2
  1
OPEN
  9
$DIMSTYLE
  2
IGA
  9
$DIMCLRD
 70
     0
  9
$DIMCLRE
 70
     0
  9
$DIMCLRT
 70
     0
  9
$DIMTFAC
 40
10.0
  9
$DIMGAP
 40
1.0
  9
$DIMJUST
 70
     0
  9
$DIMSD1
 70
     0
  9
$DIMSD2
 70
     0
  9
$DIMTOLJ
 70
     1
  9
$DIMTZIN
 70
     0
  9
$DIMALTZ
 70
     0
  9
$DIMALTTZ
 70
     0
  9
$DIMUPT
 70
     0
  9
$DIMDEC
 70
     4
  9
$DIMTDEC
 70
     4
  9
$DIMALTU
 70
     2
  9
$DIMALTTD
 70
     2
  9
$DIMTXSTY
  7
STANDARD
  9
$DIMAUNIT
 70
     0
  9
$DIMADEC
 70
     0
  9
$DIMALTRND
 40
0.0
  9
$DIMAZIN
 70
     0
  9
$DIMDSEP
 70
    46
  9
$DIMATFIT
 70
     3
  9
$DIMFRAC
 70
     0
  9
$DIMLDRBLK
  1
OPEN
  9
$DIMLUNIT
 70
     2
  9
$DIMLWD
 70
    -2
  9
$DIMLWE
 70
    -2
  9
$DIMTMOVE
 70
     0
  9
$LUNITS
 70
     2
  9
$LUPREC
 70
     3
  9
$SKETCHINC
 40
0.1
  9
$FILLETRAD
 40
50.0
  9
$AUNITS
 70
     0
  9
$AUPREC
 70
     0
  9
$MENU
  1
acad
  9
$ELEVATION
 40
0.0
  9
$PELEVATION
 40
0.0
  9
$THICKNESS
 40
0.0
  9
$LIMCHECK
 70
     0
  9
$CHAMFERA
 40
0.5
  9
$CHAMFERB
 40
0.5
  9
$CHAMFERC
 40
0.0
  9
$CHAMFERD
 40
0.0
  9
$SKPOLY
 70
     0
  9
$TDCREATE
 40
2451387.592638426
  9
$TDUCREATE
 40
2451387.217638426
  9
$TDUPDATE
 40
2460263.705543357
  9
$TDUUPDATE
 40
2460263.330543356
  9
$TDINDWG
 40
0.0549106366
  9
$TDUSRTIMER
 40
0.0549103819
  9
$USRTIMER
 70
     1
  9
$ANGBASE
 50
0.0
  9
$ANGDIR
 70
     0
  9
$PDMODE
 70
     0
  9
$PDSIZE
 40
0.0
  9
$PLINEWID
 40
0.0
  9
$SPLFRAME
 70
     0
  9
$SPLINETYPE
 70
     6
  9
$SPLINESEGS
 70
     8
  9
$HANDSEED
  5
8444
  9
$SURFTAB1
 70
     6
  9
$SURFTAB2
 70
     6
  9
$SURFTYPE
 70
     6
  9
$SURFU
 70
     6
  9
$SURFV
 70
     6
  9
$UCSBASE
  2

  9
$UCSNAME
  2

  9
$UCSORG
 10
0.0
 20
0.0
 30
0.0
  9
$UCSXDIR
 10
1.0
 20
0.0
 30
0.0
  9
$UCSYDIR
 10
0.0
 20
1.0
 30
0.0
  9
$UCSORTHOREF
  2

  9
$UCSORTHOVIEW
 70
     0
  9
$UCSORGTOP
 10
0.0
 20
0.0
 30
0.0
  9
$UCSORGBOTTOM
 10
0.0
 20
0.0
 30
0.0
  9
$UCSORGLEFT
 10
0.0
 20
0.0
 30
0.0
  9
$UCSORGRIGHT
 10
0.0
 20
0.0
 30
0.0
  9
$UCSORGFRONT
 10
0.0
 20
0.0
 30
0.0
  9
$UCSORGBACK
 10
0.0
 20
0.0
 30
0.0
  9
$PUCSBASE
  2

  9
$PUCSNAME
  2

  9
$PUCSORG
 10
0.0
 20
0.0
 30
0.0
  9
$PUCSXDIR
 10
1.0
 20
0.0
 30
0.0
  9
$PUCSYDIR
 10
0.0
 20
1.0
 30
0.0
  9
$PUCSORTHOREF
  2

  9
$PUCSORTHOVIEW
 70
     0
  9
$PUCSORGTOP
 10
0.0
 20
0.0
 30
0.0
  9
$PUCSORGBOTTOM
 10
0.0
 20
0.0
 30
0.0
  9
$PUCSORGLEFT
 10
0.0
 20
0.0
 30
0.0
  9
$PUCSORGRIGHT
 10
0.0
 20
0.0
 30
0.0
  9
$PUCSORGFRONT
 10
0.0
 20
0.0
 30
0.0
  9
$PUCSORGBACK
 10
0.0
 20
0.0
 30
0.0
  9
$USERI1
 70
     0
  9
$USERI2
 70
     0
  9
$USERI3
 70
     0
  9
$USERI4
 70
     0
  9
$USERI5
 70
     0
  9
$USERR1
 40
0.0
  9
$USERR2
 40
0.0
  9
$USERR3
 40
0.0
  9
$USERR4
 40
0.0
  9
$USERR5
 40
0.0
  9
$WORLDVIEW
 70
     1
  9
$SHADEDGE
 70
     3
  9
$SHADEDIF
 70
    70
  9
$TILEMODE
 70
     1
  9
$MAXACTVP
 70
    16
  9
$PINSBASE
 10
0.0
 20
0.0
 30
0.0
  9
$PLIMCHECK
 70
     0
  9
$PEXTMIN
 10
1.000000000000000E+20
 20
1.000000000000000E+20
 30
1.000000000000000E+20
  9
$PEXTMAX
 10
-1.000000000000000E+20
 20
-1.000000000000000E+20
 30
-1.000000000000000E+20
  9
$PLIMMIN
 10
0.0
 20
0.0
  9
$PLIMMAX
 10
12.0
 20
9.0
  9
$UNITMODE
 70
     0
  9
$VISRETAIN
 70
     0
  9
$PLINEGEN
 70
     0
  9
$PSLTSCALE
 70
     1
  9
$TREEDEPTH
 70
  3020
  9
$CMLSTYLE
  2
Standard
  9
$CMLJUST
 70
     0
  9
$CMLSCALE
 40
1.0
  9
$PROXYGRAPHICS
 70
     1
  9
$MEASUREMENT
 70
     0
  9
$CELWEIGHT
370
    -1
  9
$ENDCAPS
280
     0
  9
$JOINSTYLE
280
     0
  9
$LWDISPLAY
290
     0
  9
$INSUNITS
 70
     0
  9
$HYPERLINKBASE
  1

  9
$STYLESHEET
  1

  9
$XEDIT
290
     1
  9
$CEPSNTYPE
380
     0
  9
$PSTYLEMODE
290
     1
  9
$FINGERPRINTGUID
  2
{331ED1CA-742B-413D-8E64-60B519C3ED49}
  9
$VERSIONGUID
  2
{809898ED-CAEA-4C74-B565-F44BBA0CB285}
  9
$EXTNAMES
290
     1
  9
$PSVPSCALE
 40
0.0
  9
$OLESTARTUP
290
     0
  0
ENDSEC
  0
SECTION
  2
CLASSES
  0
CLASS
  1
ACDBDICTIONARYWDFLT
  2
AcDbDictionaryWithDefault
  3
ObjectDBX Classes
 90
        0
280
     0
281
     0
  0
CLASS
  1
MATERIAL
  2
AcDbMaterial
  3
ObjectDBX Classes
 90
     1153
280
     0
281
     0
  0
CLASS
  1
VISUALSTYLE
  2
AcDbVisualStyle
  3
ObjectDBX Classes
 90
     4095
280
     0
281
     0
  0
CLASS
  1
SCALE
  2
AcDbScale
  3
ObjectDBX Classes
 90
     1153
280
     0
281
     0
  0
CLASS
  1
TABLESTYLE
  2
AcDbTableStyle
  3
ObjectDBX Classes
 90
     4095
280
     0
281
     0
  0
CLASS
  1
MLEADERSTYLE
  2
AcDbMLeaderStyle
  3
ACDB_MLEADERSTYLE_CLASS
 90
     4095
280
     0
281
     0
  0
CLASS
  1
ACDBSECTIONVIEWSTYLE
  2
AcDbSectionViewStyle
  3
ObjectDBX Classes
 90
     1025
280
     0
281
     0
  0
CLASS
  1
ACDBDETAILVIEWSTYLE
  2
AcDbDetailViewStyle
  3
ObjectDBX Classes
 90
     1025
280
     0
281
     0
  0
CLASS
  1
SORTENTSTABLE
  2
AcDbSortentsTable
  3
ObjectDBX Classes
 90
        0
280
     0
281
     0
  0
CLASS
  1
DICTIONARYVAR
  2
AcDbDictionaryVar
  3
ObjectDBX Classes
 90
        0
280
     0
281
     0
  0
CLASS
  1
CELLSTYLEMAP
  2
AcDbCellStyleMap
  3
ObjectDBX Classes
 90
     1152
280
     0
281
     0
  0
CLASS
  1
ACDBPLACEHOLDER
  2
AcDbPlaceHolder
  3
ObjectDBX Classes
 90
        0
280
     0
281
     0
  0
CLASS
  1
LAYOUT
  2
AcDbLayout
  3
ObjectDBX Classes
 90
        0
280
     0
281
     0
  0
ENDSEC
  0
SECTION
  2
TABLES
  0
TABLE
  2
VPORT
  5
811F
330
0
100
AcDbSymbolTable
 70
     1
  0
VPORT
  5
818B
330
811F
100
AcDbSymbolTableRecord
100
AcDbViewportTableRecord
  2
*ACTIVE
 70
     0
 10
0.0
 20
0.0
 11
1.0
 21
1.0
 12
2625.00001222361
 22
3687.500017171259
 13
0.0
 23
0.0
 14
10.0
 24
10.0
 15
10.0
 25
10.0
 16
0.0
 26
0.0
 36
1.0
 17
0.0
 27
0.0
 37
0.0
 40
7422.678203440799
 41
2.050213675213675
 42
50.0
 43
0.0
 44
0.0
 50
0.0
 51
0.0
 71
     0
 72
   100
 73
     1
 74
     0
 75
     0
 76
     0
 77
     0
 78
     0
281
     0
 65
     1
110
0.0
120
0.0
130
0.0
111
1.0
121
0.0
131
0.0
112
0.0
122
1.0
132
0.0
 79
     0
146
0.0
1001
ACAD_NAV_VCDISPLAY
1070
     3
  0
ENDTAB
  0
TABLE
  2
LTYPE
  5
811C
330
0
100
AcDbSymbolTable
 70
     4
  0
LTYPE
  5
8171
330
811C
100
AcDbSymbolTableRecord
100
AcDbLinetypeTableRecord
  2
ByBlock
 70
     0
  3

 72
    65
 73
     0
 40
0.0
  0
LTYPE
  5
8172
330
811C
100
AcDbSymbolTableRecord
100
AcDbLinetypeTableRecord
  2
ByLayer
 70
     0
  3

 72
    65
 73
     0
 40
0.0
  0
LTYPE
  5
8173
330
811C
100
AcDbSymbolTableRecord
100
AcDbLinetypeTableRecord
  2
CONTINUOUS
 70
     0
  3
Solid line
 72
    65
 73
     0
 40
0.0
  0
LTYPE
  5
818C
330
811C
100
AcDbSymbolTableRecord
100
AcDbLinetypeTableRecord
  2
CENTER
 70
     0
  3
____ _ ____ _ ____ _ ____ _ ____ _ ____ _ ____ 
 72
    65
 73
     4
 40
2.0
 49
1.25
 74
     0
 49
-0.25
 74
     0
 49
0.25
 74
     0
 49
-0.25
 74
     0
  0
ENDTAB
  0
TABLE
  2
LAYER
  5
8119
102
{ACAD_XDICTIONARY
360
81D2
102
}
330
0
100
AcDbSymbolTable
 70
     6
  0
LAYER
  5
816B
102
{ACAD_XDICTIONARY
360
81FE
102
}
330
8119
100
AcDbSymbolTableRecord
100
AcDbLayerTableRecord
  2
0
 70
     0
 62
     7
  6
CONTINUOUS
370
    -3
390
8126
  0
LAYER
  5
818A
102
{ACAD_XDICTIONARY
360
8200
102
}
330
8119
100
AcDbSymbolTableRecord
100
AcDbLayerTableRecord
  2
3
 70
     0
 62
     2
  6
CONTINUOUS
370
    -3
390
8126
  0
LAYER
  5
818D
102
{ACAD_XDICTIONARY
360
8202
102
}
330
8119
100
AcDbSymbolTableRecord
100
AcDbLayerTableRecord
  2
2
 70
     0
 62
     3
  6
CENTER
370
    -3
390
8126
  0
LAYER
  5
818E
102
{ACAD_XDICTIONARY
360
8204
102
}
330
8119
100
AcDbSymbolTableRecord
100
AcDbLayerTableRecord
  2
1
 70
     0
 62
     4
  6
CONTINUOUS
370
    -3
390
8126
  0
LAYER
  5
818F
102
{ACAD_XDICTIONARY
360
8206
102
}
330
8119
100
AcDbSymbolTableRecord
100
AcDbLayerTableRecord
  2
4
 70
     0
 62
     7
  6
CONTINUOUS
370
    -3
390
8126
  0
LAYER
  5
8190
330
8119
100
AcDbSymbolTableRecord
100
AcDbLayerTableRecord
  2
DEFPOINTS
 70
     0
 62
     7
  6
CONTINUOUS
290
     0
370
    -3
390
8126
  0
ENDTAB
  0
TABLE
  2
STYLE
  5
811A
330
0
100
AcDbSymbolTable
 70
     2
  0
STYLE
  5
816C
330
811A
100
AcDbSymbolTableRecord
100
AcDbTextStyleTableRecord
  2
STANDARD
 70
     0
 40
0.0
 41
1.0
 50
0.0
 71
     0
 42
180.0
  3
simplex.shx
  4
extfont.shx
  0
STYLE
  5
8170
330
811A
100
AcDbSymbolTableRecord
100
AcDbTextStyleTableRecord
  2
Annotative
 70
     0
 40
0.0
 41
1.0
 50
0.0
 71
     0
 42
0.2
  3
txt
  4

1001
AcadAnnotative
1000
AnnotativeData
1002
{
1070
     1
1070
     1
1002
}
  0
ENDTAB
  0
TABLE
  2
VIEW
  5
811D
330
0
100
AcDbSymbolTable
 70
     0
  0
ENDTAB
  0
TABLE
  2
UCS
  5
811E
330
0
100
AcDbSymbolTable
 70
     0
  0
ENDTAB
  0
TABLE
  2
APPID
  5
8120
330
0
100
AcDbSymbolTable
 70
     8
  0
APPID
  5
816D
330
8120
100
AcDbSymbolTableRecord
100
AcDbRegAppTableRecord
  2
ACAD
 70
     0
  0
APPID
  5
8174
330
8120
100
AcDbSymbolTableRecord
100
AcDbRegAppTableRecord
  2
AcadAnnotative
 70
     0
  0
APPID
  5
81D1
330
8120
100
AcDbSymbolTableRecord
100
AcDbRegAppTableRecord
  2
ACAD_NAV_VCDISPLAY
 70
     0
  0
APPID
  5
8254
330
8120
100
AcDbSymbolTableRecord
100
AcDbRegAppTableRecord
  2
ACAD_DSTYLE_DIMJAG
 70
     0
  0
APPID
  5
8255
330
8120
100
AcDbSymbolTableRecord
100
AcDbRegAppTableRecord
  2
ACAD_DSTYLE_DIMTALN
 70
     0
  0
APPID
  5
8282
330
8120
100
AcDbSymbolTableRecord
100
AcDbRegAppTableRecord
  2
AcadAnnoMonitorAlertIconDisabled
 70
     0
  0
APPID
  5
8283
330
8120
100
AcDbSymbolTableRecord
100
AcDbRegAppTableRecord
  2
ACAD_EXEMPT_FROM_CAD_STANDARDS
 70
     0
  0
APPID
  5
843B
330
8120
100
AcDbSymbolTableRecord
100
AcDbRegAppTableRecord
  2
ACAD_MLEADERVER
 70
     0
  0
ENDTAB
  0
TABLE
  2
DIMSTYLE
  5
8121
330
0
100
AcDbSymbolTable
 70
     5
100
AcDbDimStyleTable
 71
     1
340
8191
  0
DIMSTYLE
105
816E
102
{ACAD_REACTORS
330
7C8C
330
7C8D
330
7CEE
330
7CF2
330
7CF4
330
7CF5
330
7CF6
330
7CF7
330
7D1E
330
7D21
330
8041
330
804E
330
805B
330
8068
330
8077
330
8084
102
}
330
8121
100
AcDbSymbolTableRecord
100
AcDbDimStyleTableRecord
  2
Standard
 70
     0
340
816C
  0
DIMSTYLE
105
816F
330
8121
100
AcDbSymbolTableRecord
100
AcDbDimStyleTableRecord
  2
Annotative
 70
     0
340
816C
1001
AcadAnnotative
1000
AnnotativeData
1002
{
1070
     1
1070
     1
1002
}
  0
DIMSTYLE
105
8191
102
{ACAD_REACTORS
330
82BB
330
82E0
330
82F6
330
8303
330
8256
330
8263
102
}
330
8121
100
AcDbSymbolTableRecord
100
AcDbDimStyleTableRecord
  2
IGA
 70
     0
 40
2.0
 41
2.0
 42
0.5
 43
10.0
 44
1.0
 47
1.0
 48
1.0
 73
     0
 74
     0
 77
     1
 78
     8
140
3.0
141
0.0
143
0.03937
146
10.0
147
1.0
173
     1
271
     3
272
     3
279
     2
284
     8
285
     8
286
     8
340
816C
  0
DIMSTYLE
105
8192
330
8121
100
AcDbSymbolTableRecord
100
AcDbDimStyleTableRecord
  2
MATSU
 70
     0
 41
2.0
 42
1.0
 43
10.0
 44
1.0
 73
     0
 74
     0
 77
     1
 78
     8
140
3.0
141
0.0
143
0.03937
147
0.5
172
     1
173
     1
176
   256
177
   256
178
   256
271
     3
272
     3
279
     2
284
     8
285
     8
286
     8
340
816C
  0
ENDTAB
  0
TABLE
  2
BLOCK_RECORD
  5
8118
330
0
100
AcDbSymbolTable
 70
    38
  0
BLOCK_RECORD
  5
8186
330
8118
100
AcDbSymbolTableRecord
100
AcDbBlockTableRecord
  2
*Model_Space
340
8189
  0
BLOCK_RECORD
  5
8182
330
8118
100
AcDbSymbolTableRecord
100
AcDbBlockTableRecord
  2
*Paper_Space
340
8185
  0
BLOCK_RECORD
  5
8196
330
8118
100
AcDbSymbolTableRecord
100
AcDbBlockTableRecord
  2
$MODEL_SPACE
340
0
  0
BLOCK_RECORD
  5
8198
330
8118
100
AcDbSymbolTableRecord
100
AcDbBlockTableRecord
  2
$PAPER_SPACE
340
0
  0
BLOCK_RECORD
  5
819A
330
8118
100
AcDbSymbolTableRecord
100
AcDbBlockTableRecord
  2
_OPEN
340
0
102
{BLKREFS
331
82AC
331
82AD
331
82B5
331
82B6
331
7E5E
331
7E5F
331
7E69
331
7E6A
331
7EAB
331
7EAC
331
8003
331
8004
331
8019
331
801A
331
8061
331
8062
331
807D
331
807E
331
7ECC
331
7ECD
331
7ED7
331
7ED8
331
7FE9
331
7FEA
331
7EED
331
7EEE
331
7EF8
331
7EF9
331
7F03
331
7F04
331
7F0E
331
7F0F
331
80F4
331
80F5
331
8100
331
8107
331
8108
331
7F51
331
7F52
331
803A
331
803B
331
8047
331
8048
331
8054
331
8055
331
82C2
331
82C3
331
82F0
331
82F1
331
82FD
331
82FE
331
8313
331
8314
102
}
  0
BLOCK_RECORD
  5
819C
330
8118
100
AcDbSymbolTableRecord
100
AcDbBlockTableRecord
  2
YA_N
340
0
102
{BLKREFS
331
7CCC
331
7C36
331
7C55
331
7C93
102
}
  0
BLOCK_RECORD
  5
819E
330
8118
100
AcDbSymbolTableRecord
100
AcDbBlockTableRecord
  2
*D4
340
0
  0
BLOCK_RECORD
  5
81A0
330
8118
100
AcDbSymbolTableRecord
100
AcDbBlockTableRecord
  2
*D5
340
0
  0
BLOCK_RECORD
  5
81A2
330
8118
100
AcDbSymbolTableRecord
100
AcDbBlockTableRecord
  2
*D6
340
0
  0
BLOCK_RECORD
  5
81A4
330
8118
100
AcDbSymbolTableRecord
100
AcDbBlockTableRecord
  2
*D7
340
0
  0
BLOCK_RECORD
  5
81A6
330
8118
100
AcDbSymbolTableRecord
100
AcDbBlockTableRecord
  2
*U8
340
0
102
{BLKREFS
331
8005
102
}
  0
BLOCK_RECORD
  5
81A7
330
8118
100
AcDbSymbolTableRecord
100
AcDbBlockTableRecord
  2
*D9
340
0
  0
BLOCK_RECORD
  5
81A9
330
8118
100
AcDbSymbolTableRecord
100
AcDbBlockTableRecord
  2
*D10
340
0
  0
BLOCK_RECORD
  5
81AB
330
8118
100
AcDbSymbolTableRecord
100
AcDbBlockTableRecord
  2
*D11
340
0
  0
BLOCK_RECORD
  5
81AD
330
8118
100
AcDbSymbolTableRecord
100
AcDbBlockTableRecord
  2
*D12
340
0
  0
BLOCK_RECORD
  5
81AF
330
8118
100
AcDbSymbolTableRecord
100
AcDbBlockTableRecord
  2
*D13
340
0
  0
BLOCK_RECORD
  5
81B1
330
8118
100
AcDbSymbolTableRecord
100
AcDbBlockTableRecord
  2
*D14
340
0
  0
BLOCK_RECORD
  5
81B3
330
8118
100
AcDbSymbolTableRecord
100
AcDbBlockTableRecord
  2
*D15
340
0
  0
BLOCK_RECORD
  5
81B5
330
8118
100
AcDbSymbolTableRecord
100
AcDbBlockTableRecord
  2
*D16
340
0
  0
BLOCK_RECORD
  5
81B7
330
8118
100
AcDbSymbolTableRecord
100
AcDbBlockTableRecord
  2
*D17
340
0
  0
BLOCK_RECORD
  5
81B9
330
8118
100
AcDbSymbolTableRecord
100
AcDbBlockTableRecord
  2
*D18
340
0
  0
BLOCK_RECORD
  5
81BB
330
8118
100
AcDbSymbolTableRecord
100
AcDbBlockTableRecord
  2
_DOT
340
0
102
{BLKREFS
331
80FF
102
}
  0
BLOCK_RECORD
  5
81BC
330
8118
100
AcDbSymbolTableRecord
100
AcDbBlockTableRecord
  2
*D20
340
0
  0
BLOCK_RECORD
  5
81BE
330
8118
100
AcDbSymbolTableRecord
100
AcDbBlockTableRecord
  2
*D21
340
0
  0
BLOCK_RECORD
  5
81C1
330
8118
100
AcDbSymbolTableRecord
100
AcDbBlockTableRecord
  2
*D22
340
0
  0
BLOCK_RECORD
  5
81C3
330
8118
100
AcDbSymbolTableRecord
100
AcDbBlockTableRecord
  2
*D23
340
0
  0
BLOCK_RECORD
  5
81C5
330
8118
100
AcDbSymbolTableRecord
100
AcDbBlockTableRecord
  2
*D24
340
0
  0
BLOCK_RECORD
  5
81C7
330
8118
100
AcDbSymbolTableRecord
100
AcDbBlockTableRecord
  2
*D25
340
0
  0
BLOCK_RECORD
  5
81C9
330
8118
100
AcDbSymbolTableRecord
100
AcDbBlockTableRecord
  2
_NONE
340
0
  0
BLOCK_RECORD
  5
81CB
330
8118
100
AcDbSymbolTableRecord
100
AcDbBlockTableRecord
  2
*D27
340
0
  0
BLOCK_RECORD
  5
81CD
330
8118
100
AcDbSymbolTableRecord
100
AcDbBlockTableRecord
  2
*D28
340
0
  0
BLOCK_RECORD
  5
81D4
102
{ACAD_XDICTIONARY
360
81E7
102
}
330
8118
100
AcDbSymbolTableRecord
100
AcDbBlockTableRecord
  2
A$C1930764D
340
0
  0
BLOCK_RECORD
  5
8257
330
8118
100
AcDbSymbolTableRecord
100
AcDbBlockTableRecord
  2
*D30
340
0
  0
BLOCK_RECORD
  5
8264
330
8118
100
AcDbSymbolTableRecord
100
AcDbBlockTableRecord
  2
*D31
340
0
  0
BLOCK_RECORD
  5
82BC
330
8118
100
AcDbSymbolTableRecord
100
AcDbBlockTableRecord
  2
*D32
340
0
  0
BLOCK_RECORD
  5
82E1
330
8118
100
AcDbSymbolTableRecord
100
AcDbBlockTableRecord
  2
*D34
340
0
  0
BLOCK_RECORD
  5
82F7
330
8118
100
AcDbSymbolTableRecord
100
AcDbBlockTableRecord
  2
*D35
340
0
  0
BLOCK_RECORD
  5
8304
330
8118
100
AcDbSymbolTableRecord
100
AcDbBlockTableRecord
  2
*D36
340
0
  0
ENDTAB
  0
ENDSEC
  0
SECTION
  2
BLOCKS
  0
BLOCK
  5
8187
330
8186
100
AcDbEntity
  8
0
100
AcDbBlockBegin
  2
*Model_Space
 70
     0
 10
0.0
 20
0.0
 30
0.0
  3
*Model_Space
  1

  0
ENDBLK
  5
8188
330
8186
100
AcDbEntity
  8
0
100
AcDbBlockEnd
  0
BLOCK
  5
8183
330
8182
100
AcDbEntity
 67
     1
  8
0
100
AcDbBlockBegin
  2
*Paper_Space
 70
     0
 10
0.0
 20
0.0
 30
0.0
  3
*Paper_Space
  1

  0
ENDBLK
  5
8184
330
8182
100
AcDbEntity
 67
     1
  8
0
100
AcDbBlockEnd
  0
BLOCK
  5
8197
330
8196
100
AcDbEntity
  8
0
100
AcDbBlockBegin
  2
$MODEL_SPACE
 70
     0
 10
0.0
 20
0.0
 30
0.0
  3
$MODEL_SPACE
  1

  0
ENDBLK
  5
1B
330
8196
100
AcDbEntity
  8
0
100
AcDbBlockEnd
  0
BLOCK
  5
8199
330
8198
100
AcDbEntity
  8
0
100
AcDbBlockBegin
  2
$PAPER_SPACE
 70
     0
 10
0.0
 20
0.0
 30
0.0
  3
$PAPER_SPACE
  1

  0
ENDBLK
  5
18
330
8198
100
AcDbEntity
  8
0
100
AcDbBlockEnd
  0
BLOCK
  5
819B
330
819A
100
AcDbEntity
  8
0
100
AcDbBlockBegin
  2
_OPEN
 70
     0
 10
0.0
 20
0.0
 30
0.0
  3
_OPEN
  1

  0
LINE
  5
79FD
330
819A
100
AcDbEntity
  8
0
  6
ByBlock
 62
     0
100
AcDbLine
 10
-1.0
 20
0.1666666666666666
 30
0.0
 11
0.0
 21
0.0
 31
0.0
  0
LINE
  5
79FE
330
819A
100
AcDbEntity
  8
0
  6
ByBlock
 62
     0
100
AcDbLine
 10
0.0
 20
0.0
 30
0.0
 11
-1.0
 21
-0.1666666666666666
 31
0.0
  0
LINE
  5
79FF
330
819A
100
AcDbEntity
  8
0
  6
ByBlock
 62
     0
100
AcDbLine
 10
0.0
 20
0.0
 30
0.0
 11
-1.0
 21
0.0
 31
0.0
  0
ENDBLK
  5
7A01
330
819A
100
AcDbEntity
  8
0
100
AcDbBlockEnd
  0
BLOCK
  5
819D
330
819C
100
AcDbEntity
  8
0
100
AcDbBlockBegin
  2
YA_N
 70
     0
 10
0.0
 20
0.0
 30
0.0
  3
YA_N
  1

  0
ENDBLK
  5
7A0C
330
819C
100
AcDbEntity
  8
0
100
AcDbBlockEnd
  0
BLOCK
  5
819F
330
819E
100
AcDbEntity
  8
0
100
AcDbBlockBegin
  2
*D4
 70
     1
 10
0.0
 20
0.0
 30
0.0
  3
*D4
  1

  0
LINE
  5
7E5B
330
819E
100
AcDbEntity
  8
0
  6
ByBlock
100
AcDbLine
 10
466.5721472157604
 20
1033.593478221398
 30
0.0
 11
466.5721472157604
 21
1182.600862000624
 31
0.0
  0
LINE
  5
7E5C
330
819E
100
AcDbEntity
  8
0
  6
ByBlock
100
AcDbLine
 10
1196.57214721576
 20
1033.593478221399
 30
0.0
 11
1196.57214721576
 21
1182.600862000624
 31
0.0
  0
LINE
  5
7E5D
330
819E
100
AcDbEntity
  8
0
  6
ByBlock
100
AcDbLine
 10
516.5721472157603
 20
1157.600862000624
 30
0.0
 11
1146.57214721576
 21
1157.600862000624
 31
0.0
  0
INSERT
  5
7E5E
330
819E
100
AcDbEntity
  8
0
  6
ByBlock
100
AcDbBlockReference
  2
_OPEN
 10
466.5721472157604
 20
1157.600862000624
 30
0.0
 41
50.0
 42
50.0
 43
50.0
 50
180.0
  0
INSERT
  5
7E5F
330
819E
100
AcDbEntity
  8
0
  6
ByBlock
100
AcDbBlockReference
  2
_OPEN
 10
1196.57214721576
 20
1157.600862000624
 30
0.0
 41
50.0
 42
50.0
 43
50.0
  0
TEXT
  5
7E60
330
819E
100
AcDbEntity
  8
3
100
AcDbText
 10
735.1435757871891
 20
1170.100862000625
 30
0.0
 40
75.0
  1
730
100
AcDbText
  0
POINT
  5
7E61
330
819E
100
AcDbEntity
  8
DEFPOINTS
  6
ByBlock
 62
     0
100
AcDbPoint
 10
466.5721472157604
 20
1008.593478221398
 30
0.0
  0
POINT
  5
7E62
330
819E
100
AcDbEntity
  8
DEFPOINTS
  6
ByBlock
 62
     0
100
AcDbPoint
 10
1196.57214721576
 20
1008.593478221399
 30
0.0
  0
POINT
  5
7E63
330
819E
100
AcDbEntity
  8
DEFPOINTS
  6
ByBlock
 62
     0
100
AcDbPoint
 10
1196.57214721576
 20
1157.600862000624
 30
0.0
  0
ENDBLK
  5
7E64
330
819E
100
AcDbEntity
  8
0
100
AcDbBlockEnd
  0
BLOCK
  5
81A1
330
81A0
100
AcDbEntity
  8
0
100
AcDbBlockBegin
  2
*D5
 70
     1
 10
0.0
 20
0.0
 30
0.0
  3
*D5
  1

  0
LINE
  5
7E66
330
81A0
100
AcDbEntity
  8
0
  6
ByBlock
100
AcDbLine
 10
466.5721472157604
 20
1033.593478221398
 30
0.0
 11
466.5721472157604
 21
1335.40963547429
 31
0.0
  0
LINE
  5
7E67
330
81A0
100
AcDbEntity
  8
0
  6
ByBlock
100
AcDbLine
 10
1225.57214721576
 20
1155.859317026828
 30
0.0
 11
1225.57214721576
 21
1335.40963547429
 31
0.0
  0
LINE
  5
7E68
330
81A0
100
AcDbEntity
  8
0
  6
ByBlock
100
AcDbLine
 10
516.5721472157603
 20
1310.40963547429
 30
0.0
 11
1175.57214721576
 21
1310.40963547429
 31
0.0
  0
INSERT
  5
7E69
330
81A0
100
AcDbEntity
  8
0
  6
ByBlock
100
AcDbBlockReference
  2
_OPEN
 10
466.5721472157604
 20
1310.40963547429
 30
0.0
 41
50.0
 42
50.0
 43
50.0
 50
180.0
  0
INSERT
  5
7E6A
330
81A0
100
AcDbEntity
  8
0
  6
ByBlock
100
AcDbBlockReference
  2
_OPEN
 10
1225.57214721576
 20
1310.40963547429
 30
0.0
 41
50.0
 42
50.0
 43
50.0
  0
TEXT
  5
7E6B
330
81A0
100
AcDbEntity
  8
3
100
AcDbText
 10
751.4292900729032
 20
1322.90963547429
 30
0.0
 40
75.0
  1
759
100
AcDbText
  0
POINT
  5
7E6C
330
81A0
100
AcDbEntity
  8
DEFPOINTS
  6
ByBlock
 62
     0
100
AcDbPoint
 10
466.5721472157604
 20
1008.593478221398
 30
0.0
  0
POINT
  5
7E6D
330
81A0
100
AcDbEntity
  8
DEFPOINTS
  6
ByBlock
 62
     0
100
AcDbPoint
 10
1225.57214721576
 20
1130.859317026828
 30
0.0
  0
POINT
  5
7E6E
330
81A0
100
AcDbEntity
  8
DEFPOINTS
  6
ByBlock
 62
     0
100
AcDbPoint
 10
1225.57214721576
 20
1310.40963547429
 30
0.0
  0
ENDBLK
  5
7E6F
330
81A0
100
AcDbEntity
  8
0
100
AcDbBlockEnd
  0
BLOCK
  5
81A3
330
81A2
100
AcDbEntity
  8
0
100
AcDbBlockBegin
  2
*D6
 70
     1
 10
0.0
 20
0.0
 30
0.0
  3
*D6
  1

  0
LINE
  5
7EA8
330
81A2
100
AcDbEntity
  8
0
  6
ByBlock
100
AcDbLine
 10
3394.272073930469
 20
1033.802367882948
 30
0.0
 11
3394.272073930469
 21
1219.111446642817
 31
0.0
  0
LINE
  5
7EA9
330
81A2
100
AcDbEntity
  8
0
  6
ByBlock
100
AcDbLine
 10
4294.27207393047
 20
1033.80235414594
 30
0.0
 11
4294.27207393047
 21
1219.111446642817
 31
0.0
  0
LINE
  5
7EAA
330
81A2
100
AcDbEntity
  8
0
  6
ByBlock
100
AcDbLine
 10
3444.272073930469
 20
1194.111446642817
 30
0.0
 11
4244.27207393047
 21
1194.111446642817
 31
0.0
  0
INSERT
  5
7EAB
330
81A2
100
AcDbEntity
  8
0
  6
ByBlock
100
AcDbBlockReference
  2
_OPEN
 10
3394.272073930469
 20
1194.111446642817
 30
0.0
 41
50.0
 42
50.0
 43
50.0
 50
180.0
  0
INSERT
  5
7EAC
330
81A2
100
AcDbEntity
  8
0
  6
ByBlock
100
AcDbBlockReference
  2
_OPEN
 10
4294.27207393047
 20
1194.111446642817
 30
0.0
 41
50.0
 42
50.0
 43
50.0
  0
TEXT
  5
7EAD
330
81A2
100
AcDbEntity
  8
3
100
AcDbText
 10
3747.843502501898
 20
1206.611446642817
 30
0.0
 40
75.0
  1
900
100
AcDbText
  0
POINT
  5
7EAE
330
81A2
100
AcDbEntity
  8
DEFPOINTS
  6
ByBlock
 62
     0
100
AcDbPoint
 10
3394.272073930469
 20
1008.802367882948
 30
0.0
  0
POINT
  5
7EAF
330
81A2
100
AcDbEntity
  8
DEFPOINTS
  6
ByBlock
 62
     0
100
AcDbPoint
 10
4294.27207393047
 20
1008.80235414594
 30
0.0
  0
POINT
  5
7EB0
330
81A2
100
AcDbEntity
  8
DEFPOINTS
  6
ByBlock
 62
     0
100
AcDbPoint
 10
4294.27207393047
 20
1194.111446642817
 30
0.0
  0
ENDBLK
  5
7EB1
330
81A2
100
AcDbEntity
  8
0
100
AcDbBlockEnd
  0
BLOCK
  5
81A5
330
81A4
100
AcDbEntity
  8
0
100
AcDbBlockBegin
  2
*D7
 70
     1
 10
0.0
 20
0.0
 30
0.0
  3
*D7
  1

  0
LINE
  5
8000
330
81A4
100
AcDbEntity
  8
0
  6
ByBlock
100
AcDbLine
 10
3218.223289427717
 20
2753.956000393227
 30
0.0
 11
3218.223289427717
 21
3309.727635421943
 31
0.0
  0
LINE
  5
8001
330
81A4
100
AcDbEntity
  8
0
  6
ByBlock
100
AcDbLine
 10
3973.223289427713
 20
3294.43220232486
 30
0.0
 11
3973.223289427713
 21
3309.727635421943
 31
0.0
  0
LINE
  5
8002
330
81A4
100
AcDbEntity
  8
0
  6
ByBlock
100
AcDbLine
 10
3268.223289427717
 20
3284.727635421943
 30
0.0
 11
3923.223289427713
 21
3284.727635421943
 31
0.0
  0
INSERT
  5
8003
330
81A4
100
AcDbEntity
  8
0
  6
ByBlock
100
AcDbBlockReference
  2
_OPEN
 10
3218.223289427717
 20
3284.727635421943
 30
0.0
 41
50.0
 42
50.0
 43
50.0
 50
180.0
  0
INSERT
  5
8004
330
81A4
100
AcDbEntity
  8
0
  6
ByBlock
100
AcDbBlockReference
  2
_OPEN
 10
3973.223289427713
 20
3284.727635421943
 30
0.0
 41
50.0
 42
50.0
 43
50.0
  0
INSERT
  5
8005
330
81A4
100
AcDbEntity
  8
3
100
AcDbBlockReference
  2
*U8
 10
0.0
 20
0.0
 30
0.0
  0
POINT
  5
8006
330
81A4
100
AcDbEntity
  8
DEFPOINTS
  6
ByBlock
 62
     0
100
AcDbPoint
 10
3218.223289427717
 20
2728.956000393227
 30
0.0
  0
POINT
  5
8007
330
81A4
100
AcDbEntity
  8
DEFPOINTS
  6
ByBlock
 62
     0
100
AcDbPoint
 10
3973.223289427713
 20
3269.43220232486
 30
0.0
  0
POINT
  5
8008
330
81A4
100
AcDbEntity
  8
DEFPOINTS
  6
ByBlock
 62
     0
100
AcDbPoint
 10
3973.223289427713
 20
3284.727635421943
 30
0.0
  0
ENDBLK
  5
8009
330
81A4
100
AcDbEntity
  8
0
100
AcDbBlockEnd
  0
BLOCK
  5
81CF
330
81A6
100
AcDbEntity
  8
0
100
AcDbBlockBegin
  2
*U8
 70
     1
 10
0.0
 20
0.0
 30
0.0
  3
*U8
  1

  0
TEXT
  5
8111
330
81A6
100
AcDbEntity
  8
3
100
AcDbText
 10
3488.580432284857
 20
3422.227635421942
 30
0.0
 40
75.0
  1
MAX
100
AcDbText
  0
TEXT
  5
8112
330
81A6
100
AcDbEntity
  8
3
100
AcDbText
 10
3499.294717999144
 20
3297.227635421942
 30
0.0
 40
75.0
  1
780
100
AcDbText
  0
ENDBLK
  5
8114
330
81A6
100
AcDbEntity
  8
0
100
AcDbBlockEnd
  0
BLOCK
  5
81A8
330
81A7
100
AcDbEntity
  8
0
100
AcDbBlockBegin
  2
*D9
 70
     1
 10
0.0
 20
0.0
 30
0.0
  3
*D9
  1

  0
LINE
  5
8016
330
81A7
100
AcDbEntity
  8
0
  6
ByBlock
100
AcDbLine
 10
3973.223289427713
 20
3264.008814348148
 30
0.0
 11
3973.223289427713
 21
3309.727635421943
 31
0.0
  0
LINE
  5
8017
330
81A7
100
AcDbEntity
  8
0
  6
ByBlock
100
AcDbLine
 10
4525.723289427713
 20
2448.756000393227
 30
0.0
 11
4525.723289427713
 21
3309.727635421943
 31
0.0
  0
LINE
  5
8018
330
81A7
100
AcDbEntity
  8
0
  6
ByBlock
100
AcDbLine
 10
4023.223289427713
 20
3284.727635421943
 30
0.0
 11
4475.723289427714
 21
3284.727635421943
 31
0.0
  0
INSERT
  5
8019
330
81A7
100
AcDbEntity
  8
0
  6
ByBlock
100
AcDbBlockReference
  2
_OPEN
 10
3973.223289427713
 20
3284.727635421943
 30
0.0
 41
50.0
 42
50.0
 43
50.0
 50
180.0
  0
INSERT
  5
801A
330
81A7
100
AcDbEntity
  8
0
  6
ByBlock
100
AcDbBlockReference
  2
_OPEN
 10
4525.723289427713
 20
3284.727635421943
 30
0.0
 41
50.0
 42
50.0
 43
50.0
  0
TEXT
  5
801B
330
81A7
100
AcDbEntity
  8
3
100
AcDbText
 10
4104.830432284856
 20
3329.3704925648
 30
0.0
 40
75.0
  1
(560)
100
AcDbText
  0
POINT
  5
801C
330
81A7
100
AcDbEntity
  8
DEFPOINTS
  6
ByBlock
 62
     0
100
AcDbPoint
 10
3973.223289427713
 20
3239.008814348148
 30
0.0
  0
POINT
  5
801D
330
81A7
100
AcDbEntity
  8
DEFPOINTS
  6
ByBlock
 62
     0
100
AcDbPoint
 10
4525.723289427713
 20
2423.756000393227
 30
0.0
  0
POINT
  5
801E
330
81A7
100
AcDbEntity
  8
DEFPOINTS
  6
ByBlock
 62
     0
100
AcDbPoint
 10
4525.723289427713
 20
3284.727635421943
 30
0.0
  0
ENDBLK
  5
801F
330
81A7
100
AcDbEntity
  8
0
100
AcDbBlockEnd
  0
BLOCK
  5
81AA
330
81A9
100
AcDbEntity
  8
0
100
AcDbBlockBegin
  2
*D10
 70
     1
 10
0.0
 20
0.0
 30
0.0
  3
*D10
  1

  0
LINE
  5
7EC9
330
81A9
100
AcDbEntity
  8
0
  6
ByBlock
100
AcDbLine
 10
4321.57207393047
 20
133.5934782213989
 30
0.0
 11
4597.054208885889
 21
133.5934782213989
 31
0.0
  0
LINE
  5
7ECA
330
81A9
100
AcDbEntity
  8
0
  6
ByBlock
100
AcDbLine
 10
4321.57207393047
 20
883.5934782213987
 30
0.0
 11
4597.054208885889
 21
883.5934782213987
 31
0.0
  0
LINE
  5
7ECB
330
81A9
100
AcDbEntity
  8
0
  6
ByBlock
100
AcDbLine
 10
4572.054208885889
 20
183.5934782213989
 30
0.0
 11
4572.054208885889
 21
833.5934782213987
 31
0.0
  0
INSERT
  5
7ECC
330
81A9
100
AcDbEntity
  8
0
  6
ByBlock
100
AcDbBlockReference
  2
_OPEN
 10
4572.054208885889
 20
133.5934782213989
 30
0.0
 41
50.0
 42
50.0
 43
50.0
 50
270.0
  0
INSERT
  5
7ECD
330
81A9
100
AcDbEntity
  8
0
  6
ByBlock
100
AcDbBlockReference
  2
_OPEN
 10
4572.054208885889
 20
883.5934782213987
 30
0.0
 41
50.0
 42
50.0
 43
50.0
 50
90.0
  0
TEXT
  5
7ECE
330
81A9
100
AcDbEntity
  8
3
100
AcDbText
 10
4559.554208885889
 20
374.6649067928275
 30
0.0
 40
75.0
  1
\U+03C6750
 50
90.0
100
AcDbText
  0
POINT
  5
7ECF
330
81A9
100
AcDbEntity
  8
DEFPOINTS
  6
ByBlock
 62
     0
100
AcDbPoint
 10
4296.57207393047
 20
133.5934782213989
 30
0.0
  0
POINT
  5
7ED0
330
81A9
100
AcDbEntity
  8
DEFPOINTS
  6
ByBlock
 62
     0
100
AcDbPoint
 10
4296.57207393047
 20
883.5934782213987
 30
0.0
  0
POINT
  5
7ED1
330
81A9
100
AcDbEntity
  8
DEFPOINTS
  6
ByBlock
 62
     0
100
AcDbPoint
 10
4572.054208885889
 20
883.5934782213987
 30
0.0
  0
ENDBLK
  5
7ED2
330
81A9
100
AcDbEntity
  8
0
100
AcDbBlockEnd
  0
BLOCK
  5
81AC
330
81AB
100
AcDbEntity
  8
0
100
AcDbBlockBegin
  2
*D11
 70
     1
 10
0.0
 20
0.0
 30
0.0
  3
*D11
  1

  0
LINE
  5
7ED4
330
81AB
100
AcDbEntity
  8
0
  6
ByBlock
100
AcDbLine
 10
75.57214721576018
 20
2748.533310535339
 30
0.0
 11
75.57214721576018
 21
2485.350850711191
 31
0.0
  0
LINE
  5
7ED5
330
81AB
100
AcDbEntity
  8
0
  6
ByBlock
100
AcDbLine
 10
1675.57214721576
 20
2748.533310535338
 30
0.0
 11
1675.57214721576
 21
2485.350850711191
 31
0.0
  0
LINE
  5
7ED6
330
81AB
100
AcDbEntity
  8
0
  6
ByBlock
100
AcDbLine
 10
125.5721472157601
 20
2510.350850711191
 30
0.0
 11
1625.57214721576
 21
2510.350850711191
 31
0.0
  0
INSERT
  5
7ED7
330
81AB
100
AcDbEntity
  8
0
  6
ByBlock
100
AcDbBlockReference
  2
_OPEN
 10
75.57214721576018
 20
2510.350850711191
 30
0.0
 41
50.0
 42
50.0
 43
50.0
 50
180.0
  0
INSERT
  5
7ED8
330
81AB
100
AcDbEntity
  8
0
  6
ByBlock
100
AcDbBlockReference
  2
_OPEN
 10
1675.57214721576
 20
2510.350850711191
 30
0.0
 41
50.0
 42
50.0
 43
50.0
  0
TEXT
  5
7ED9
330
81AB
100
AcDbEntity
  8
3
100
AcDbText
 10
750.5721472157602
 20
2522.850850711191
 30
0.0
 40
75.0
  1
1600
100
AcDbText
  0
POINT
  5
7EDA
330
81AB
100
AcDbEntity
  8
DEFPOINTS
  6
ByBlock
 62
     0
100
AcDbPoint
 10
75.57214721576018
 20
2773.533310535339
 30
0.0
  0
POINT
  5
7EDB
330
81AB
100
AcDbEntity
  8
DEFPOINTS
  6
ByBlock
 62
     0
100
AcDbPoint
 10
1675.57214721576
 20
2773.533310535337
 30
0.0
  0
POINT
  5
7EDC
330
81AB
100
AcDbEntity
  8
DEFPOINTS
  6
ByBlock
 62
     0
100
AcDbPoint
 10
1675.57214721576
 20
2510.350850711191
 30
0.0
  0
ENDBLK
  5
7EDD
330
81AB
100
AcDbEntity
  8
0
100
AcDbBlockEnd
  0
BLOCK
  5
81AE
330
81AD
100
AcDbEntity
  8
0
100
AcDbBlockBegin
  2
*D12
 70
     1
 10
0.0
 20
0.0
 30
0.0
  3
*D12
  1

  0
LINE
  5
7FE6
330
81AD
100
AcDbEntity
  8
0
  6
ByBlock
100
AcDbLine
 10
535.9528807148527
 20
4001.46291352958
 30
0.0
 11
367.0932901355845
 21
4001.46291352958
 31
0.0
  0
LINE
  5
7FE7
330
81AD
100
AcDbEntity
  8
0
  6
ByBlock
100
AcDbLine
 10
535.9528807148527
 20
4671.46291352958
 30
0.0
 11
367.0932901355845
 21
4671.46291352958
 31
0.0
  0
LINE
  5
7FE8
330
81AD
100
AcDbEntity
  8
0
  6
ByBlock
100
AcDbLine
 10
392.0932901355845
 20
4051.462913529578
 30
0.0
 11
392.0932901355845
 21
4621.462913529581
 31
0.0
  0
INSERT
  5
7FE9
330
81AD
100
AcDbEntity
  8
0
  6
ByBlock
100
AcDbBlockReference
  2
_OPEN
 10
392.0932901355845
 20
4001.46291352958
 30
0.0
 41
50.0
 42
50.0
 43
50.0
 50
270.0
  0
INSERT
  5
7FEA
330
81AD
100
AcDbEntity
  8
0
  6
ByBlock
100
AcDbBlockReference
  2
_OPEN
 10
392.0932901355845
 20
4671.46291352958
 30
0.0
 41
50.0
 42
50.0
 43
50.0
 50
90.0
  0
TEXT
  5
7FEB
330
81AD
100
AcDbEntity
  8
3
100
AcDbText
 10
379.5932901355845
 20
4240.034342101009
 30
0.0
 40
75.0
  1
670
 50
90.0
100
AcDbText
  0
POINT
  5
7FEC
330
81AD
100
AcDbEntity
  8
DEFPOINTS
  6
ByBlock
 62
     0
100
AcDbPoint
 10
560.9528807148527
 20
4001.46291352958
 30
0.0
  0
POINT
  5
7FED
330
81AD
100
AcDbEntity
  8
DEFPOINTS
  6
ByBlock
 62
     0
100
AcDbPoint
 10
560.9528807148527
 20
4671.46291352958
 30
0.0
  0
POINT
  5
7FEE
330
81AD
100
AcDbEntity
  8
DEFPOINTS
  6
ByBlock
 62
     0
100
AcDbPoint
 10
392.0932901355845
 20
4671.46291352958
 30
0.0
  0
ENDBLK
  5
7FEF
330
81AD
100
AcDbEntity
  8
0
100
AcDbBlockEnd
  0
BLOCK
  5
81B0
330
81AF
100
AcDbEntity
  8
0
100
AcDbBlockBegin
  2
*D13
 70
     1
 10
0.0
 20
0.0
 30
0.0
  3
*D13
  1

  0
LINE
  5
7EEA
330
81AF
100
AcDbEntity
  8
0
  6
ByBlock
100
AcDbLine
 10
775.5721472157602
 20
3953.533310535338
 30
0.0
 11
775.5721472157602
 21
4255.16536493951
 31
0.0
  0
LINE
  5
7EEB
330
81AF
100
AcDbEntity
  8
0
  6
ByBlock
100
AcDbLine
 10
1675.57214721576
 20
3953.533310535338
 30
0.0
 11
1675.57214721576
 21
4255.16536493951
 31
0.0
  0
LINE
  5
7EEC
330
81AF
100
AcDbEntity
  8
0
  6
ByBlock
100
AcDbLine
 10
825.5721472157601
 20
4230.165364939511
 30
0.0
 11
1625.57214721576
 21
4230.165364939511
 31
0.0
  0
INSERT
  5
7EED
330
81AF
100
AcDbEntity
  8
0
  6
ByBlock
100
AcDbBlockReference
  2
_OPEN
 10
775.5721472157602
 20
4230.165364939511
 30
0.0
 41
50.0
 42
50.0
 43
50.0
 50
180.0
  0
INSERT
  5
7EEE
330
81AF
100
AcDbEntity
  8
0
  6
ByBlock
100
AcDbBlockReference
  2
_OPEN
 10
1675.57214721576
 20
4230.165364939511
 30
0.0
 41
50.0
 42
50.0
 43
50.0
  0
TEXT
  5
7EEF
330
81AF
100
AcDbEntity
  8
3
100
AcDbText
 10
1129.143575787189
 20
4242.665364939511
 30
0.0
 40
75.0
  1
900
100
AcDbText
  0
POINT
  5
7EF0
330
81AF
100
AcDbEntity
  8
DEFPOINTS
  6
ByBlock
 62
     0
100
AcDbPoint
 10
775.5721472157602
 20
3928.533310535339
 30
0.0
  0
POINT
  5
7EF1
330
81AF
100
AcDbEntity
  8
DEFPOINTS
  6
ByBlock
 62
     0
100
AcDbPoint
 10
1675.57214721576
 20
3928.533310535338
 30
0.0
  0
POINT
  5
7EF2
330
81AF
100
AcDbEntity
  8
DEFPOINTS
  6
ByBlock
 62
     0
100
AcDbPoint
 10
1675.57214721576
 20
4230.165364939511
 30
0.0
  0
ENDBLK
  5
7EF3
330
81AF
100
AcDbEntity
  8
0
100
AcDbBlockEnd
  0
BLOCK
  5
81B2
330
81B1
100
AcDbEntity
  8
0
100
AcDbBlockBegin
  2
*D14
 70
     1
 10
0.0
 20
0.0
 30
0.0
  3
*D14
  1

  0
LINE
  5
7EF5
330
81B1
100
AcDbEntity
  8
0
  6
ByBlock
100
AcDbLine
 10
75.57214721576018
 20
3468.53331053534
 30
0.0
 11
75.57214721576018
 21
4255.16536493951
 31
0.0
  0
LINE
  5
7EF6
330
81B1
100
AcDbEntity
  8
0
  6
ByBlock
100
AcDbLine
 10
775.5721472157602
 20
3953.533310535338
 30
0.0
 11
775.5721472157602
 21
4255.16536493951
 31
0.0
  0
LINE
  5
7EF7
330
81B1
100
AcDbEntity
  8
0
  6
ByBlock
100
AcDbLine
 10
125.5721472157601
 20
4230.165364939511
 30
0.0
 11
725.5721472157602
 21
4230.165364939511
 31
0.0
  0
INSERT
  5
7EF8
330
81B1
100
AcDbEntity
  8
0
  6
ByBlock
100
AcDbBlockReference
  2
_OPEN
 10
75.57214721576018
 20
4230.165364939511
 30
0.0
 41
50.0
 42
50.0
 43
50.0
 50
180.0
  0
INSERT
  5
7EF9
330
81B1
100
AcDbEntity
  8
0
  6
ByBlock
100
AcDbBlockReference
  2
_OPEN
 10
775.5721472157602
 20
4230.165364939511
 30
0.0
 41
50.0
 42
50.0
 43
50.0
  0
TEXT
  5
7EFA
330
81B1
100
AcDbEntity
  8
3
100
AcDbText
 10
329.1435757871887
 20
4242.665364939511
 30
0.0
 40
75.0
  1
700
100
AcDbText
  0
POINT
  5
7EFB
330
81B1
100
AcDbEntity
  8
DEFPOINTS
  6
ByBlock
 62
     0
100
AcDbPoint
 10
75.57214721576018
 20
3443.53331053534
 30
0.0
  0
POINT
  5
7EFC
330
81B1
100
AcDbEntity
  8
DEFPOINTS
  6
ByBlock
 62
     0
100
AcDbPoint
 10
775.5721472157602
 20
3928.533310535339
 30
0.0
  0
POINT
  5
7EFD
330
81B1
100
AcDbEntity
  8
DEFPOINTS
  6
ByBlock
 62
     0
100
AcDbPoint
 10
775.5721472157602
 20
4230.165364939511
 30
0.0
  0
ENDBLK
  5
7EFE
330
81B1
100
AcDbEntity
  8
0
100
AcDbBlockEnd
  0
BLOCK
  5
81B4
330
81B3
100
AcDbEntity
  8
0
100
AcDbBlockBegin
  2
*D15
 70
     1
 10
0.0
 20
0.0
 30
0.0
  3
*D15
  1

  0
LINE
  5
7F00
330
81B3
100
AcDbEntity
  8
0
  6
ByBlock
100
AcDbLine
 10
1700.57214721576
 20
2773.533310535337
 30
0.0
 11
2001.969355357017
 21
2773.533310535337
 31
0.0
  0
LINE
  5
7F01
330
81B3
100
AcDbEntity
  8
0
  6
ByBlock
100
AcDbLine
 10
1700.57214721576
 20
3928.533310535338
 30
0.0
 11
2001.969355357017
 21
3928.533310535338
 31
0.0
  0
LINE
  5
7F02
330
81B3
100
AcDbEntity
  8
0
  6
ByBlock
100
AcDbLine
 10
1976.969355357018
 20
2823.533310535337
 30
0.0
 11
1976.969355357018
 21
3878.533310535337
 31
0.0
  0
INSERT
  5
7F03
330
81B3
100
AcDbEntity
  8
0
  6
ByBlock
100
AcDbBlockReference
  2
_OPEN
 10
1976.969355357018
 20
2773.533310535337
 30
0.0
 41
50.0
 42
50.0
 43
50.0
 50
270.0
  0
INSERT
  5
7F04
330
81B3
100
AcDbEntity
  8
0
  6
ByBlock
100
AcDbBlockReference
  2
_OPEN
 10
1976.969355357018
 20
3928.533310535338
 30
0.0
 41
50.0
 42
50.0
 43
50.0
 50
90.0
  0
TEXT
  5
7F05
330
81B3
100
AcDbEntity
  8
3
100
AcDbText
 10
1964.469355357017
 20
3233.176167678195
 30
0.0
 40
75.0
  1
1155
 50
90.0
100
AcDbText
  0
POINT
  5
7F06
330
81B3
100
AcDbEntity
  8
DEFPOINTS
  6
ByBlock
 62
     0
100
AcDbPoint
 10
1675.57214721576
 20
2773.533310535337
 30
0.0
  0
POINT
  5
7F07
330
81B3
100
AcDbEntity
  8
DEFPOINTS
  6
ByBlock
 62
     0
100
AcDbPoint
 10
1675.57214721576
 20
3928.533310535338
 30
0.0
  0
POINT
  5
7F08
330
81B3
100
AcDbEntity
  8
DEFPOINTS
  6
ByBlock
 62
     0
100
AcDbPoint
 10
1976.969355357018
 20
3928.533310535338
 30
0.0
  0
ENDBLK
  5
7F09
330
81B3
100
AcDbEntity
  8
0
100
AcDbBlockEnd
  0
BLOCK
  5
81B6
330
81B5
100
AcDbEntity
  8
0
100
AcDbBlockBegin
  2
*D16
 70
     1
 10
0.0
 20
0.0
 30
0.0
  3
*D16
  1

  0
LINE
  5
7F0B
330
81B5
100
AcDbEntity
  8
0
  6
ByBlock
100
AcDbLine
 10
1263.57214721576
 20
1008.593478221399
 30
0.0
 11
1978.657130385134
 21
1008.593478221399
 31
0.0
  0
LINE
  5
7F0C
330
81B5
100
AcDbEntity
  8
0
  6
ByBlock
100
AcDbLine
 10
1872.837986021189
 20
508.5934782213988
 30
0.0
 11
1978.657130385134
 21
508.5934782213988
 31
0.0
  0
LINE
  5
7F0D
330
81B5
100
AcDbEntity
  8
0
  6
ByBlock
100
AcDbLine
 10
1953.657130385134
 20
958.5934782213996
 30
0.0
 11
1953.657130385134
 21
558.5934782213988
 31
0.0
  0
INSERT
  5
7F0E
330
81B5
100
AcDbEntity
  8
0
  6
ByBlock
100
AcDbBlockReference
  2
_OPEN
 10
1953.657130385134
 20
1008.593478221399
 30
0.0
 41
50.0
 42
50.0
 43
50.0
 50
90.0
  0
INSERT
  5
7F0F
330
81B5
100
AcDbEntity
  8
0
  6
ByBlock
100
AcDbBlockReference
  2
_OPEN
 10
1953.657130385134
 20
508.5934782213988
 30
0.0
 41
50.0
 42
50.0
 43
50.0
 50
270.0
  0
TEXT
  5
7F10
330
81B5
100
AcDbEntity
  8
3
100
AcDbText
 10
1941.157130385134
 20
662.1649067928277
 30
0.0
 40
75.0
  1
500
 50
90.0
100
AcDbText
  0
POINT
  5
7F11
330
81B5
100
AcDbEntity
  8
DEFPOINTS
  6
ByBlock
 62
     0
100
AcDbPoint
 10
1238.57214721576
 20
1008.593478221399
 30
0.0
  0
POINT
  5
7F12
330
81B5
100
AcDbEntity
  8
DEFPOINTS
  6
ByBlock
 62
     0
100
AcDbPoint
 10
1847.83798602119
 20
508.5934782213988
 30
0.0
  0
POINT
  5
7F13
330
81B5
100
AcDbEntity
  8
DEFPOINTS
  6
ByBlock
 62
     0
100
AcDbPoint
 10
1953.657130385134
 20
508.5934782213988
 30
0.0
  0
ENDBLK
  5
7F14
330
81B5
100
AcDbEntity
  8
0
100
AcDbBlockEnd
  0
BLOCK
  5
81B8
330
81B7
100
AcDbEntity
  8
0
100
AcDbBlockBegin
  2
*D17
 70
     1
 10
0.0
 20
0.0
 30
0.0
  3
*D17
  1

  0
LINE
  5
80F2
330
81B7
100
AcDbEntity
  8
3
100
AcDbLine
 10
2344.366003609498
 20
1808.956000393227
 30
0.0
 11
2622.450986778873
 21
1808.956000393227
 31
0.0
  0
LINE
  5
80F3
330
81B7
100
AcDbEntity
  8
3
100
AcDbLine
 10
2597.450986778873
 20
2398.956000393227
 30
0.0
 11
2597.450986778873
 21
1858.956000393227
 31
0.0
  0
INSERT
  5
80F4
330
81B7
100
AcDbEntity
  8
3
100
AcDbBlockReference
  2
_OPEN
 10
2597.450986778873
 20
2448.956000393227
 30
0.0
 41
50.0
 42
50.0
 43
50.0
 50
90.0
  0
INSERT
  5
80F5
330
81B7
100
AcDbEntity
  8
3
100
AcDbBlockReference
  2
_OPEN
 10
2597.450986778873
 20
1808.956000393227
 30
0.0
 41
50.0
 42
50.0
 43
50.0
 50
270.0
  0
TEXT
  5
8115
330
81B7
100
AcDbEntity
  8
3
100
AcDbText
 10
2397.45
 20
1996.21
 30
0.0
 40
75.0
  1
640
100
AcDbText
  0
POINT
  5
80F7
330
81B7
100
AcDbEntity
  8
DEFPOINTS
 62
     0
100
AcDbPoint
 10
2491.631842414928
 20
2448.956000393227
 30
0.0
  0
POINT
  5
80F8
330
81B7
100
AcDbEntity
  8
DEFPOINTS
 62
     0
100
AcDbPoint
 10
2319.366003609498
 20
1808.956000393227
 30
0.0
  0
POINT
  5
80F9
330
81B7
100
AcDbEntity
  8
DEFPOINTS
 62
     0
100
AcDbPoint
 10
2597.450986778873
 20
1808.956000393227
 30
0.0
  0
ENDBLK
  5
7F1E
330
81B7
100
AcDbEntity
  8
0
100
AcDbBlockEnd
  0
BLOCK
  5
81BA
330
81B9
100
AcDbEntity
  8
0
100
AcDbBlockBegin
  2
*D18
 70
     1
 10
0.0
 20
0.0
 30
0.0
  3
*D18
  1

  0
LINE
  5
80FA
330
81B9
100
AcDbEntity
  8
3
 62
     0
100
AcDbLine
 10
2331.866003609499
 20
1781.956000393227
 30
0.0
 11
2622.450986778873
 21
1781.956000393227
 31
0.0
  0
LINE
  5
80FB
330
81B9
100
AcDbEntity
  8
3
 62
     0
100
AcDbLine
 10
2331.866003609499
 20
1681.956000393227
 30
0.0
 11
2622.450986778873
 21
1681.956000393227
 31
0.0
  0
LINE
  5
80FC
330
81B9
100
AcDbEntity
  8
3
 62
     0
100
AcDbLine
 10
2597.450986778873
 20
1831.956000393227
 30
0.0
 11
2597.450986778873
 21
1881.956000393227
 31
0.0
  0
LINE
  5
80FD
330
81B9
100
AcDbEntity
  8
3
 62
     0
100
AcDbLine
 10
2597.450986778873
 20
1631.956000393227
 30
0.0
 11
2597.450986778873
 21
1353.384571821798
 31
0.0
  0
LINE
  5
80FE
330
81B9
100
AcDbEntity
  8
3
 62
     0
100
AcDbLine
 10
2597.450986778873
 20
1781.956000393227
 30
0.0
 11
2597.450986778873
 21
1681.956000393227
 31
0.0
  0
INSERT
  5
80FF
330
81B9
100
AcDbEntity
  8
3
 62
     0
100
AcDbBlockReference
  2
_DOT
 10
2597.450986778873
 20
1781.956000393227
 30
0.0
 41
50.0
 42
50.0
 43
50.0
 50
270.0
  0
INSERT
  5
8100
330
81B9
100
AcDbEntity
  8
3
 62
     0
100
AcDbBlockReference
  2
_OPEN
 10
2597.450986778873
 20
1681.956000393227
 30
0.0
 41
50.0
 42
50.0
 43
50.0
 50
90.0
  0
TEXT
  5
8116
330
81B9
100
AcDbEntity
  8
3
 62
     0
100
AcDbText
 10
2384.95
 20
1334.92
 30
0.0
 40
75.0
  1
100
100
AcDbText
  0
POINT
  5
8102
330
81B9
100
AcDbEntity
  8
DEFPOINTS
 62
     0
100
AcDbPoint
 10
2319.366003609498
 20
1781.956000393227
 30
0.0
  0
POINT
  5
8103
330
81B9
100
AcDbEntity
  8
DEFPOINTS
 62
     0
100
AcDbPoint
 10
2319.366003609498
 20
1681.956000393227
 30
0.0
  0
POINT
  5
8104
330
81B9
100
AcDbEntity
  8
DEFPOINTS
 62
     0
100
AcDbPoint
 10
2597.450986778873
 20
1681.956000393227
 30
0.0
  0
ENDBLK
  5
7FD5
330
81B9
100
AcDbEntity
  8
0
100
AcDbBlockEnd
  0
BLOCK
  5
81C0
330
81BB
100
AcDbEntity
  8
0
100
AcDbBlockBegin
  2
_DOT
 70
     0
 10
0.0
 20
0.0
 30
0.0
  3
_DOT
  1

  0
LWPOLYLINE
  5
7FD8
330
81BB
100
AcDbEntity
  8
0
  6
ByBlock
 62
     0
100
AcDbPolyline
 90
        2
 70
     1
 43
0.25
 10
-0.125
 20
0.0
 42
1.0
 10
0.125
 20
0.0
 42
1.0
  0
LINE
  5
7FDC
330
81BB
100
AcDbEntity
  8
0
  6
ByBlock
 62
     0
100
AcDbLine
 10
-0.25
 20
0.0
 30
0.0
 11
-1.0
 21
0.0
 31
0.0
  0
ENDBLK
  5
7FBB
330
81BB
100
AcDbEntity
  8
0
100
AcDbBlockEnd
  0
BLOCK
  5
81BD
330
81BC
100
AcDbEntity
  8
0
100
AcDbBlockBegin
  2
*D20
 70
     1
 10
0.0
 20
0.0
 30
0.0
  3
*D20
  1

  0
LINE
  5
8105
330
81BC
100
AcDbEntity
  8
3
100
AcDbLine
 10
2375.366003609499
 20
2420.956000393227
 30
0.0
 11
2375.366003609499
 21
3275.772157646119
 31
0.0
  0
LINE
  5
8106
330
81BC
100
AcDbEntity
  8
3
100
AcDbLine
 10
1919.366003609499
 20
3250.772157646119
 30
0.0
 11
2325.366003609498
 21
3250.772157646119
 31
0.0
  0
INSERT
  5
8107
330
81BC
100
AcDbEntity
  8
3
100
AcDbBlockReference
  2
_OPEN
 10
1869.366003609499
 20
3250.772157646119
 30
0.0
 41
50.0
 42
50.0
 43
50.0
 50
180.0
  0
INSERT
  5
8108
330
81BC
100
AcDbEntity
  8
3
100
AcDbBlockReference
  2
_OPEN
 10
2375.366003609499
 20
3250.772157646119
 30
0.0
 41
50.0
 42
50.0
 43
50.0
  0
TEXT
  5
8117
330
81BC
100
AcDbEntity
  8
3
100
AcDbText
 10
1972.37
 20
3168.02
 30
0.0
 40
75.0
  1
506
100
AcDbText
  0
POINT
  5
810A
330
81BC
100
AcDbEntity
  8
DEFPOINTS
 62
     0
100
AcDbPoint
 10
1869.366003609499
 20
3071.221839198657
 30
0.0
  0
POINT
  5
810B
330
81BC
100
AcDbEntity
  8
DEFPOINTS
 62
     0
100
AcDbPoint
 10
2375.366003609499
 20
2395.956000393227
 30
0.0
  0
POINT
  5
810C
330
81BC
100
AcDbEntity
  8
DEFPOINTS
 62
     0
100
AcDbPoint
 10
2375.366003609499
 20
3250.772157646119
 30
0.0
  0
ENDBLK
  5
7F41
330
81BC
100
AcDbEntity
  8
0
100
AcDbBlockEnd
  0
BLOCK
  5
81BF
330
81BE
100
AcDbEntity
  8
0
100
AcDbBlockBegin
  2
*D21
 70
     1
 10
0.0
 20
0.0
 30
0.0
  3
*D21
  1

  0
LINE
  5
7F4E
330
81BE
100
AcDbEntity
  8
0
  6
ByBlock
100
AcDbLine
 10
1731.57214721576
 20
480.5934782213987
 30
0.0
 11
1731.57214721576
 21
1467.082603555343
 31
0.0
  0
LINE
  5
7F4F
330
81BE
100
AcDbEntity
  8
0
  6
ByBlock
100
AcDbLine
 10
75.57214721576018
 20
-6.406521778601017
 30
0.0
 11
75.57214721576018
 21
1467.082603555343
 31
0.0
  0
LINE
  5
7F50
330
81BE
100
AcDbEntity
  8
0
  6
ByBlock
100
AcDbLine
 10
1681.57214721576
 20
1442.082603555343
 30
0.0
 11
125.5721472157601
 21
1442.082603555343
 31
0.0
  0
INSERT
  5
7F51
330
81BE
100
AcDbEntity
  8
0
  6
ByBlock
100
AcDbBlockReference
  2
_OPEN
 10
1731.57214721576
 20
1442.082603555343
 30
0.0
 41
50.0
 42
50.0
 43
50.0
  0
INSERT
  5
7F52
330
81BE
100
AcDbEntity
  8
0
  6
ByBlock
100
AcDbBlockReference
  2
_OPEN
 10
75.57214721576018
 20
1442.082603555343
 30
0.0
 41
50.0
 42
50.0
 43
50.0
 50
180.0
  0
TEXT
  5
7F53
330
81BE
100
AcDbEntity
  8
3
100
AcDbText
 10
780.3578615014743
 20
1454.582603555343
 30
0.0
 40
75.0
  1
1656
100
AcDbText
  0
POINT
  5
7F54
330
81BE
100
AcDbEntity
  8
DEFPOINTS
  6
ByBlock
 62
     0
100
AcDbPoint
 10
1731.57214721576
 20
455.5934782213987
 30
0.0
  0
POINT
  5
7F55
330
81BE
100
AcDbEntity
  8
DEFPOINTS
  6
ByBlock
 62
     0
100
AcDbPoint
 10
75.57214721576018
 20
-31.40652177860101
 30
0.0
  0
POINT
  5
7F56
330
81BE
100
AcDbEntity
  8
DEFPOINTS
  6
ByBlock
 62
     0
100
AcDbPoint
 10
75.57214721576018
 20
1442.082603555343
 30
0.0
  0
ENDBLK
  5
7F57
330
81BE
100
AcDbEntity
  8
0
100
AcDbBlockEnd
  0
BLOCK
  5
81C2
330
81C1
100
AcDbEntity
  8
0
100
AcDbBlockBegin
  2
*D22
 70
     1
 10
0.0
 20
0.0
 30
0.0
  3
*D22
  1

  0
LINE
  5
8037
330
81C1
100
AcDbEntity
  8
0
  6
ByBlock
 62
     0
100
AcDbLine
 10
719.3660036094987
 20
1656.956000393227
 30
0.0
 11
719.3660036094987
 21
1486.108227928494
 31
0.0
  0
LINE
  5
8038
330
81C1
100
AcDbEntity
  8
0
  6
ByBlock
 62
     0
100
AcDbLine
 10
1869.366003609499
 20
1656.956000393227
 30
0.0
 11
1869.366003609499
 21
1486.108227928494
 31
0.0
  0
LINE
  5
8039
330
81C1
100
AcDbEntity
  8
0
  6
ByBlock
 62
     0
100
AcDbLine
 10
769.3660036094987
 20
1511.108227928494
 30
0.0
 11
1819.366003609499
 21
1511.108227928494
 31
0.0
  0
INSERT
  5
803A
330
81C1
100
AcDbEntity
  8
0
  6
ByBlock
 62
     0
100
AcDbBlockReference
  2
_OPEN
 10
719.3660036094987
 20
1511.108227928494
 30
0.0
 41
50.0
 42
50.0
 43
50.0
 50
180.0
  0
INSERT
  5
803B
330
81C1
100
AcDbEntity
  8
0
  6
ByBlock
 62
     0
100
AcDbBlockReference
  2
_OPEN
 10
1869.366003609499
 20
1511.108227928494
 30
0.0
 41
50.0
 42
50.0
 43
50.0
  0
TEXT
  5
803C
330
81C1
100
AcDbEntity
  8
3
 62
     0
100
AcDbText
 10
1176.508860752356
 20
1536.108227928494
 30
0.0
 40
75.0
  1
1150
100
AcDbText
  0
POINT
  5
803D
330
81C1
100
AcDbEntity
  8
DEFPOINTS
  6
ByBlock
 62
     0
100
AcDbPoint
 10
719.3660036094987
 20
1681.956000393227
 30
0.0
  0
POINT
  5
803E
330
81C1
100
AcDbEntity
  8
DEFPOINTS
  6
ByBlock
 62
     0
100
AcDbPoint
 10
1869.366003609499
 20
1681.956000393227
 30
0.0
  0
POINT
  5
803F
330
81C1
100
AcDbEntity
  8
DEFPOINTS
  6
ByBlock
 62
     0
100
AcDbPoint
 10
1869.366003609499
 20
1511.108227928494
 30
0.0
  0
ENDBLK
  5
8040
330
81C1
100
AcDbEntity
  8
0
100
AcDbBlockEnd
  0
BLOCK
  5
81C4
330
81C3
100
AcDbEntity
  8
0
100
AcDbBlockBegin
  2
*D23
 70
     1
 10
0.0
 20
0.0
 30
0.0
  3
*D23
  1

  0
LINE
  5
8044
330
81C3
100
AcDbEntity
  8
0
  6
ByBlock
 62
     0
100
AcDbLine
 10
1869.366003609499
 20
1656.956000393227
 30
0.0
 11
1869.366003609499
 21
1486.108227928494
 31
0.0
  0
LINE
  5
8045
330
81C3
100
AcDbEntity
  8
0
  6
ByBlock
 62
     0
100
AcDbLine
 10
2319.366003609498
 20
1656.956000393227
 30
0.0
 11
2319.366003609498
 21
1486.108227928494
 31
0.0
  0
LINE
  5
8046
330
81C3
100
AcDbEntity
  8
0
  6
ByBlock
 62
     0
100
AcDbLine
 10
1919.366003609499
 20
1511.108227928494
 30
0.0
 11
2269.366003609499
 21
1511.108227928494
 31
0.0
  0
INSERT
  5
8047
330
81C3
100
AcDbEntity
  8
0
  6
ByBlock
 62
     0
100
AcDbBlockReference
  2
_OPEN
 10
1869.366003609499
 20
1511.108227928494
 30
0.0
 41
50.0
 42
50.0
 43
50.0
 50
180.0
  0
INSERT
  5
8048
330
81C3
100
AcDbEntity
  8
0
  6
ByBlock
 62
     0
100
AcDbBlockReference
  2
_OPEN
 10
2319.366003609498
 20
1511.108227928494
 30
0.0
 41
50.0
 42
50.0
 43
50.0
  0
TEXT
  5
8049
330
81C3
100
AcDbEntity
  8
3
 62
     0
100
AcDbText
 10
1997.937432180927
 20
1536.108227928494
 30
0.0
 40
75.0
  1
450
100
AcDbText
  0
POINT
  5
804A
330
81C3
100
AcDbEntity
  8
DEFPOINTS
  6
ByBlock
 62
     0
100
AcDbPoint
 10
1869.366003609499
 20
1681.956000393227
 30
0.0
  0
POINT
  5
804B
330
81C3
100
AcDbEntity
  8
DEFPOINTS
  6
ByBlock
 62
     0
100
AcDbPoint
 10
2319.366003609498
 20
1681.956000393227
 30
0.0
  0
POINT
  5
804C
330
81C3
100
AcDbEntity
  8
DEFPOINTS
  6
ByBlock
 62
     0
100
AcDbPoint
 10
2319.366003609498
 20
1511.108227928494
 30
0.0
  0
ENDBLK
  5
804D
330
81C3
100
AcDbEntity
  8
0
100
AcDbBlockEnd
  0
BLOCK
  5
81C6
330
81C5
100
AcDbEntity
  8
0
100
AcDbBlockBegin
  2
*D24
 70
     1
 10
0.0
 20
0.0
 30
0.0
  3
*D24
  1

  0
LINE
  5
8051
330
81C5
100
AcDbEntity
  8
0
  6
ByBlock
 62
     0
100
AcDbLine
 10
3321.223289427713
 20
1656.956000393227
 30
0.0
 11
3321.223289427713
 21
1486.108227928494
 31
0.0
  0
LINE
  5
8052
330
81C5
100
AcDbEntity
  8
0
  6
ByBlock
 62
     0
100
AcDbLine
 10
3973.223289427713
 20
1656.956000393227
 30
0.0
 11
3973.223289427713
 21
1486.108227928494
 31
0.0
  0
LINE
  5
8053
330
81C5
100
AcDbEntity
  8
0
  6
ByBlock
 62
     0
100
AcDbLine
 10
3371.223289427712
 20
1511.108227928494
 30
0.0
 11
3923.223289427713
 21
1511.108227928494
 31
0.0
  0
INSERT
  5
8054
330
81C5
100
AcDbEntity
  8
0
  6
ByBlock
 62
     0
100
AcDbBlockReference
  2
_OPEN
 10
3321.223289427713
 20
1511.108227928494
 30
0.0
 41
50.0
 42
50.0
 43
50.0
 50
180.0
  0
INSERT
  5
8055
330
81C5
100
AcDbEntity
  8
0
  6
ByBlock
 62
     0
100
AcDbBlockReference
  2
_OPEN
 10
3973.223289427713
 20
1511.108227928494
 30
0.0
 41
50.0
 42
50.0
 43
50.0
  0
TEXT
  5
8056
330
81C5
100
AcDbEntity
  8
3
 62
     0
100
AcDbText
 10
3550.794717999142
 20
1536.108227928494
 30
0.0
 40
75.0
  1
652
100
AcDbText
  0
POINT
  5
8057
330
81C5
100
AcDbEntity
  8
DEFPOINTS
  6
ByBlock
 62
     0
100
AcDbPoint
 10
3321.223289427713
 20
1681.956000393227
 30
0.0
  0
POINT
  5
8058
330
81C5
100
AcDbEntity
  8
DEFPOINTS
  6
ByBlock
 62
     0
100
AcDbPoint
 10
3973.223289427713
 20
1681.956000393227
 30
0.0
  0
POINT
  5
8059
330
81C5
100
AcDbEntity
  8
DEFPOINTS
  6
ByBlock
 62
     0
100
AcDbPoint
 10
3973.223289427713
 20
1511.108227928494
 30
0.0
  0
ENDBLK
  5
805A
330
81C5
100
AcDbEntity
  8
0
100
AcDbBlockEnd
  0
BLOCK
  5
81C8
330
81C7
100
AcDbEntity
  8
0
100
AcDbBlockBegin
  2
*D25
 70
     1
 10
0.0
 20
0.0
 30
0.0
  3
*D25
  1

  0
LINE
  5
805E
330
81C7
100
AcDbEntity
  8
0
  6
ByBlock
 62
     0
100
AcDbLine
 10
3973.223289427713
 20
1656.956000393227
 30
0.0
 11
3973.223289427713
 21
1486.108227928494
 31
0.0
  0
LINE
  5
805F
330
81C7
100
AcDbEntity
  8
0
  6
ByBlock
 62
     0
100
AcDbLine
 10
4476.223289427713
 20
1656.956000393227
 30
0.0
 11
4476.223289427713
 21
1486.108227928494
 31
0.0
  0
LINE
  5
8060
330
81C7
100
AcDbEntity
  8
0
  6
ByBlock
 62
     0
100
AcDbLine
 10
4023.223289427713
 20
1511.108227928494
 30
0.0
 11
4426.223289427713
 21
1511.108227928494
 31
0.0
  0
INSERT
  5
8061
330
81C7
100
AcDbEntity
  8
0
  6
ByBlock
 62
     0
100
AcDbBlockReference
  2
_OPEN
 10
3973.223289427713
 20
1511.108227928494
 30
0.0
 41
50.0
 42
50.0
 43
50.0
 50
180.0
  0
INSERT
  5
8062
330
81C7
100
AcDbEntity
  8
0
  6
ByBlock
 62
     0
100
AcDbBlockReference
  2
_OPEN
 10
4476.223289427713
 20
1511.108227928494
 30
0.0
 41
50.0
 42
50.0
 43
50.0
  0
TEXT
  5
8063
330
81C7
100
AcDbEntity
  8
3
 62
     0
100
AcDbText
 10
4128.294717999142
 20
1536.108227928494
 30
0.0
 40
75.0
  1
503
100
AcDbText
  0
POINT
  5
8064
330
81C7
100
AcDbEntity
  8
DEFPOINTS
  6
ByBlock
 62
     0
100
AcDbPoint
 10
3973.223289427713
 20
1681.956000393227
 30
0.0
  0
POINT
  5
8065
330
81C7
100
AcDbEntity
  8
DEFPOINTS
  6
ByBlock
 62
     0
100
AcDbPoint
 10
4476.223289427713
 20
1681.956000393227
 30
0.0
  0
POINT
  5
8066
330
81C7
100
AcDbEntity
  8
DEFPOINTS
  6
ByBlock
 62
     0
100
AcDbPoint
 10
4476.223289427713
 20
1511.108227928494
 30
0.0
  0
ENDBLK
  5
8067
330
81C7
100
AcDbEntity
  8
0
100
AcDbBlockEnd
  0
BLOCK
  5
81CA
330
81C9
100
AcDbEntity
  8
0
100
AcDbBlockBegin
  2
_NONE
 70
     0
 10
0.0
 20
0.0
 30
0.0
  3
_NONE
  1

  0
CIRCLE
  5
806B
330
81C9
100
AcDbEntity
  8
0
  6
ByBlock
 62
     0
100
AcDbCircle
 10
0.0
 20
0.0
 30
0.0
 40
0.25
  0
ENDBLK
  5
806C
330
81C9
100
AcDbEntity
  8
0
100
AcDbBlockEnd
  0
BLOCK
  5
81CC
330
81CB
100
AcDbEntity
  8
0
100
AcDbBlockBegin
  2
*D27
 70
     1
 10
0.0
 20
0.0
 30
0.0
  3
*D27
  1

  0
LINE
  5
806F
330
81CB
100
AcDbEntity
  8
0
  6
ByBlock
 62
     0
100
AcDbLine
 10
2594.699106065772
 20
1781.956000393227
 30
0.0
 11
2594.699106065772
 21
1781.956000393227
 31
0.0
  0
LINE
  5
8070
330
81CB
100
AcDbEntity
  8
0
  6
ByBlock
 62
     0
100
AcDbLine
 10
2594.699106065772
 20
1808.956000393227
 30
0.0
 11
2594.699106065772
 21
1908.956000393227
 31
0.0
  0
TEXT
  5
8071
330
81CB
100
AcDbEntity
  8
3
 62
     0
100
AcDbText
 10
2739.341963208628
 20
1686.527428964656
 30
0.0
 40
75.0
  1
(27)
 50
90.0
100
AcDbText
  0
LINE
  5
8072
330
81CB
100
AcDbEntity
  8
0
  6
ByBlock
 62
     0
100
AcDbLine
 10
2594.699106065772
 20
1781.956000393227
 30
0.0
 11
2594.699106065772
 21
1808.956000393227
 31
0.0
  0
POINT
  5
8073
330
81CB
100
AcDbEntity
  8
DEFPOINTS
  6
ByBlock
 62
     0
100
AcDbPoint
 10
2319.366003609498
 20
1781.956000393227
 30
0.0
  0
POINT
  5
8074
330
81CB
100
AcDbEntity
  8
DEFPOINTS
  6
ByBlock
 62
     0
100
AcDbPoint
 10
2319.366003609498
 20
1808.956000393227
 30
0.0
  0
POINT
  5
8075
330
81CB
100
AcDbEntity
  8
DEFPOINTS
  6
ByBlock
 62
     0
100
AcDbPoint
 10
2594.699106065772
 20
1808.956000393227
 30
0.0
  0
ENDBLK
  5
8076
330
81CB
100
AcDbEntity
  8
0
100
AcDbBlockEnd
  0
BLOCK
  5
81CE
330
81CD
100
AcDbEntity
  8
0
100
AcDbBlockBegin
  2
*D28
 70
     1
 10
0.0
 20
0.0
 30
0.0
  3
*D28
  1

  0
LINE
  5
807A
330
81CD
100
AcDbEntity
  8
0
  6
ByBlock
 62
     0
100
AcDbLine
 10
2344.366003609498
 20
1681.956000393227
 30
0.0
 11
2821.924033545052
 21
1681.956000393227
 31
0.0
  0
LINE
  5
807B
330
81CD
100
AcDbEntity
  8
0
  6
ByBlock
 62
     0
100
AcDbLine
 10
1932.366003609499
 20
2948.956000393229
 30
0.0
 11
2821.924033545052
 21
2948.956000393229
 31
0.0
  0
LINE
  5
807C
330
81CD
100
AcDbEntity
  8
0
  6
ByBlock
 62
     0
100
AcDbLine
 10
2796.924033545052
 20
1731.956000393227
 30
0.0
 11
2796.924033545052
 21
2898.956000393229
 31
0.0
  0
INSERT
  5
807D
330
81CD
100
AcDbEntity
  8
0
  6
ByBlock
 62
     0
100
AcDbBlockReference
  2
_OPEN
 10
2796.924033545052
 20
1681.956000393227
 30
0.0
 41
50.0
 42
50.0
 43
50.0
 50
270.0
  0
INSERT
  5
807E
330
81CD
100
AcDbEntity
  8
0
  6
ByBlock
 62
     0
100
AcDbBlockReference
  2
_OPEN
 10
2796.924033545052
 20
2948.956000393229
 30
0.0
 41
50.0
 42
50.0
 43
50.0
 50
90.0
  0
TEXT
  5
807F
330
81CD
100
AcDbEntity
  8
3
 62
     0
100
AcDbText
 10
2739.781176402194
 20
2142.241714678942
 30
0.0
 40
75.0
  1
(1267)
 50
90.0
100
AcDbText
  0
POINT
  5
8080
330
81CD
100
AcDbEntity
  8
DEFPOINTS
  6
ByBlock
 62
     0
100
AcDbPoint
 10
2319.366003609498
 20
1681.956000393227
 30
0.0
  0
POINT
  5
8081
330
81CD
100
AcDbEntity
  8
DEFPOINTS
  6
ByBlock
 62
     0
100
AcDbPoint
 10
1907.366003609499
 20
2948.956000393229
 30
0.0
  0
POINT
  5
8082
330
81CD
100
AcDbEntity
  8
DEFPOINTS
  6
ByBlock
 62
     0
100
AcDbPoint
 10
2796.924033545052
 20
2948.956000393229
 30
0.0
  0
ENDBLK
  5
8083
330
81CD
100
AcDbEntity
  8
0
100
AcDbBlockEnd
  0
BLOCK
  5
81E9
330
81D4
100
AcDbEntity
  8
0
100
AcDbBlockBegin
  2
A$C1930764D
 70
     0
 10
0.0
 20
0.0
 30
0.0
  3
A$C1930764D
  1

  0
LINE
  5
81D5
330
81D4
100
AcDbEntity
  8
2
100
AcDbLine
 10
622.2658381902983
 20
0.0000062909825829
 30
0.0
 11
622.2658381902983
 21
1375.051290748124
 31
0.0
  0
LINE
  5
81D6
330
81D4
100
AcDbEntity
  8
2
100
AcDbLine
 10
-0.0000006151312846
 20
545.0000062909821
 30
0.0
 11
1297.292315692903
 21
545.0000062909821
 31
0.0
  0
CIRCLE
  5
81D7
330
81D4
100
AcDbEntity
  8
1
100
AcDbCircle
 10
622.2658381902983
 20
545.0000062909821
 30
0.0
 40
127.0
  0
LINE
  5
81D8
330
81D4
100
AcDbEntity
  8
1
100
AcDbLine
 10
125.2658381902984
 20
1303.641496667802
 30
0.0
 11
652.1750753462401
 21
1240.674152646831
 31
0.0
  0
ARC
  5
81D9
330
81D4
100
AcDbEntity
  8
1
100
AcDbCircle
 10
569.2658381902965
 20
598.0000062909816
 30
0.0
 40
648.0
100
AcDbArc
 50
0.0
 51
82.64906398247061
  0
ARC
  5
81DA
330
81D4
100
AcDbEntity
  8
1
100
AcDbCircle
 10
675.2658381902965
 20
598.0000062909816
 30
0.0
 40
541.9999999999998
100
AcDbArc
 50
264.3883085668955
 51
0.0
  0
ARC
  5
81DB
330
81D4
100
AcDbEntity
  8
1
100
AcDbCircle
 10
663.2658381902965
 20
504.0000062909816
 30
0.0
 40
448.0
100
AcDbArc
 50
180.0
 51
264.7490656834496
  0
ARC
  5
81DC
330
81D4
100
AcDbEntity
  8
1
100
AcDbCircle
 10
581.2658381902966
 20
504.0000062909821
 30
0.0
 40
366.0
100
AcDbArc
 50
168.973859518714
 51
180.0
  0
LINE
  5
81DD
330
81D4
100
AcDbEntity
  8
1
100
AcDbLine
 10
122.2658381902965
 20
574.0000062909821
 30
0.0
 11
222.022188281213
 21
574.0000062909821
 31
0.0
  0
LINE
  5
81DE
330
81D4
100
AcDbEntity
  8
1
100
AcDbLine
 10
122.2658381902984
 20
1346.000006290982
 30
0.0
 11
122.2658381902965
 21
532.0000062909821
 31
0.0
  0
LINE
  5
81DF
330
81D4
100
AcDbEntity
  8
1
100
AcDbLine
 10
122.2658381902984
 20
1346.000006290982
 30
0.0
 11
125.2658381902984
 21
1346.000006290982
 31
0.0
  0
LINE
  5
81E0
330
81D4
100
AcDbEntity
  8
1
100
AcDbLine
 10
122.2658381902965
 20
532.0000062909821
 30
0.0
 11
125.2658381902984
 21
532.0000062909821
 31
0.0
  0
LINE
  5
81E1
330
81D4
100
AcDbEntity
  8
1
100
AcDbLine
 10
162.2658381902984
 20
1300.550774718377
 30
0.0
 11
162.2658381902984
 21
574.0000062909821
 31
0.0
  0
LINE
  5
81E2
330
81D4
100
AcDbEntity
  8
1
100
AcDbLine
 10
125.2658381902984
 20
1346.000006290982
 30
0.0
 11
125.2658381902984
 21
532.0000062909821
 31
0.0
  0
POINT
  5
81E3
330
81D4
100
AcDbEntity
  8
1
100
AcDbPoint
 10
162.083265725847
 20
545.0000062909821
 30
0.0
  0
LINE
  5
81E4
330
81D4
100
AcDbEntity
  8
1
100
AcDbLine
 10
118.7840325578054
 20
545.0000062909821
 30
0.0
 11
103.1107271414894
 21
545.0000062909821
 31
0.0
  0
CIRCLE
  5
81E5
330
81D4
100
AcDbEntity
  8
1
100
AcDbCircle
 10
622.2658381902983
 20
545.0000062909821
 30
0.0
 40
375.0
  0
CIRCLE
  5
81E6
330
81D4
100
AcDbEntity
  8
1
100
AcDbCircle
 10
622.2658381902983
 20
545.0000062909821
 30
0.0
 40
415.0
  0
ENDBLK
  5
81EA
330
81D4
100
AcDbEntity
  8
0
100
AcDbBlockEnd
  0
BLOCK
  5
8258
330
8257
100
AcDbEntity
  8
0
100
AcDbBlockBegin
  2
*D30
 70
     1
 10
0.0
 20
0.0
 30
0.0
  3
*D30
  1

  0
LINE
  5
82A9
330
8257
100
AcDbEntity
  8
3
 62
     0
370
    -2
100
AcDbLine
 10
3133.223289427717
 20
2753.956000393227
 30
0.0
 11
3133.223289427717
 21
3323.272067842816
 31
0.0
  0
LINE
  5
82AA
330
8257
100
AcDbEntity
  8
3
 62
     0
370
    -2
100
AcDbLine
 10
3973.223289427714
 20
3246.973968814645
 30
0.0
 11
3973.223289427714
 21
3323.272067842816
 31
0.0
  0
LINE
  5
82AB
330
8257
100
AcDbEntity
  8
3
 62
     0
370
    -2
100
AcDbLine
 10
3183.223289427717
 20
3298.272067842816
 30
0.0
 11
3923.223289427714
 21
3298.272067842816
 31
0.0
  0
INSERT
  5
82AC
330
8257
100
AcDbEntity
  8
3
 62
     0
370
    -2
100
AcDbBlockReference
  2
_OPEN
 10
3133.223289427717
 20
3298.272067842816
 30
0.0
 41
50.0
 42
50.0
 43
50.0
 50
180.0
  0
INSERT
  5
82AD
330
8257
100
AcDbEntity
  8
3
 62
     0
370
    -2
100
AcDbBlockReference
  2
_OPEN
 10
3973.223289427714
 20
3298.272067842816
 30
0.0
 41
50.0
 42
50.0
 43
50.0
  0
MTEXT
  5
82AE
330
8257
100
AcDbEntity
  8
3
 62
     0
100
AcDbMText
 10
3553.223289427716
 20
3380.414924985674
 30
0.0
 40
75.0
 41
0.0
 71
     5
 72
     1
  1
\A1;(840)
 73
     1
 44
1.0
1001
ACAD
1000
MTEXTBEGIN
1070
    73
1070
     1
1070
    44
1040
1.0
1070
    74
1070
     0
1000
MTEXTEND
  0
POINT
  5
82AF
330
8257
100
AcDbEntity
  8
DEFPOINTS
 62
     0
100
AcDbPoint
 10
3133.223289427717
 20
2728.956000393227
 30
0.0
  0
POINT
  5
82B0
330
8257
100
AcDbEntity
  8
DEFPOINTS
 62
     0
100
AcDbPoint
 10
3973.223289427714
 20
3221.973968814646
 30
0.0
  0
POINT
  5
82B1
330
8257
100
AcDbEntity
  8
DEFPOINTS
 62
     0
100
AcDbPoint
 10
3973.223289427714
 20
3298.272067842816
 30
0.0
  0
ENDBLK
  5
8259
330
8257
100
AcDbEntity
  8
0
100
AcDbBlockEnd
  0
BLOCK
  5
8265
330
8264
100
AcDbEntity
  8
0
100
AcDbBlockBegin
  2
*D31
 70
     1
 10
0.0
 20
0.0
 30
0.0
  3
*D31
  1

  0
LINE
  5
82B2
330
8264
100
AcDbEntity
  8
3
 62
     0
370
    -2
100
AcDbLine
 10
3973.223289427714
 20
3246.973968814645
 30
0.0
 11
3973.223289427714
 21
3323.272067842816
 31
0.0
  0
LINE
  5
82B3
330
8264
100
AcDbEntity
  8
3
 62
     0
370
    -2
100
AcDbLine
 10
4533.223289427714
 20
2448.756000393226
 30
0.0
 11
4533.223289427714
 21
3323.272067842816
 31
0.0
  0
LINE
  5
82B4
330
8264
100
AcDbEntity
  8
3
 62
     0
370
    -2
100
AcDbLine
 10
4023.223289427714
 20
3298.272067842816
 30
0.0
 11
4483.223289427714
 21
3298.272067842816
 31
0.0
  0
INSERT
  5
82B5
330
8264
100
AcDbEntity
  8
3
 62
     0
370
    -2
100
AcDbBlockReference
  2
_OPEN
 10
3973.223289427714
 20
3298.272067842816
 30
0.0
 41
50.0
 42
50.0
 43
50.0
 50
180.0
  0
INSERT
  5
82B6
330
8264
100
AcDbEntity
  8
3
 62
     0
370
    -2
100
AcDbBlockReference
  2
_OPEN
 10
4533.223289427714
 20
3298.272067842816
 30
0.0
 41
50.0
 42
50.0
 43
50.0
  0
MTEXT
  5
82B7
330
8264
100
AcDbEntity
  8
3
 62
     0
100
AcDbMText
 10
4253.223289427714
 20
3380.414924985674
 30
0.0
 40
75.0
 41
0.0
 71
     5
 72
     1
  1
\A1;(560)
 73
     1
 44
1.0
1001
ACAD
1000
MTEXTBEGIN
1070
    73
1070
     1
1070
    44
1040
1.0
1070
    74
1070
     0
1000
MTEXTEND
  0
POINT
  5
82B8
330
8264
100
AcDbEntity
  8
DEFPOINTS
 62
     0
100
AcDbPoint
 10
3973.223289427714
 20
3221.973968814646
 30
0.0
  0
POINT
  5
82B9
330
8264
100
AcDbEntity
  8
DEFPOINTS
 62
     0
100
AcDbPoint
 10
4533.223289427714
 20
2423.756000393226
 30
0.0
  0
POINT
  5
82BA
330
8264
100
AcDbEntity
  8
DEFPOINTS
 62
     0
100
AcDbPoint
 10
4533.223289427714
 20
3298.272067842816
 30
0.0
  0
ENDBLK
  5
8266
330
8264
100
AcDbEntity
  8
0
100
AcDbBlockEnd
  0
BLOCK
  5
82BD
330
82BC
100
AcDbEntity
  8
0
100
AcDbBlockBegin
  2
*D32
 70
     1
 10
0.0
 20
0.0
 30
0.0
  3
*D32
  1

  0
LINE
  5
82BF
330
82BC
100
AcDbEntity
  8
3
 62
     0
370
    -2
100
AcDbLine
 10
719.3660036094987
 20
3976.46291352958
 30
0.0
 11
719.3660036094987
 21
3625.23288387775
 31
0.0
  0
LINE
  5
82C0
330
82BC
100
AcDbEntity
  8
3
 62
     0
370
    -2
100
AcDbLine
 10
2319.366003609498
 20
3976.462913529579
 30
0.0
 11
2319.366003609498
 21
3625.23288387775
 31
0.0
  0
LINE
  5
82C1
330
82BC
100
AcDbEntity
  8
3
 62
     0
370
    -2
100
AcDbLine
 10
769.3660036094987
 20
3650.23288387775
 30
0.0
 11
2269.366003609498
 21
3650.23288387775
 31
0.0
  0
INSERT
  5
82C2
330
82BC
100
AcDbEntity
  8
3
 62
     0
370
    -2
100
AcDbBlockReference
  2
_OPEN
 10
719.3660036094987
 20
3650.23288387775
 30
0.0
 41
50.0
 42
50.0
 43
50.0
 50
180.0
  0
INSERT
  5
82C3
330
82BC
100
AcDbEntity
  8
3
 62
     0
370
    -2
100
AcDbBlockReference
  2
_OPEN
 10
2319.366003609498
 20
3650.23288387775
 30
0.0
 41
50.0
 42
50.0
 43
50.0
  0
MTEXT
  5
82C4
330
82BC
100
AcDbEntity
  8
3
 62
     0
100
AcDbMText
 10
1519.366003609498
 20
3712.73288387775
 30
0.0
 40
75.0
 41
0.0
 71
     5
 72
     1
  1
\A1;1600
 73
     1
 44
1.0
1001
ACAD
1000
MTEXTBEGIN
1070
    73
1070
     1
1070
    44
1040
1.0
1070
    74
1070
     0
1000
MTEXTEND
  0
POINT
  5
82C5
330
82BC
100
AcDbEntity
  8
DEFPOINTS
 62
     0
100
AcDbPoint
 10
719.3660036094987
 20
4001.46291352958
 30
0.0
  0
POINT
  5
82C6
330
82BC
100
AcDbEntity
  8
DEFPOINTS
 62
     0
100
AcDbPoint
 10
2319.366003609498
 20
4001.462913529579
 30
0.0
  0
POINT
  5
82C7
330
82BC
100
AcDbEntity
  8
DEFPOINTS
 62
     0
100
AcDbPoint
 10
2319.366003609498
 20
3650.23288387775
 30
0.0
  0
ENDBLK
  5
82BE
330
82BC
100
AcDbEntity
  8
0
100
AcDbBlockEnd
  0
BLOCK
  5
82E2
330
82E1
100
AcDbEntity
  8
0
100
AcDbBlockBegin
  2
*D34
 70
     1
 10
0.0
 20
0.0
 30
0.0
  3
*D34
  1

  0
LINE
  5
82ED
330
82E1
100
AcDbEntity
  8
3
 62
     0
370
    -2
100
AcDbLine
 10
1869.366003609499
 20
3096.221839198657
 30
0.0
 11
1869.366003609499
 21
3275.772157646118
 31
0.0
  0
LINE
  5
82EE
330
82E1
100
AcDbEntity
  8
3
 62
     0
370
    -2
100
AcDbLine
 10
2358.3660036095
 20
2420.956000393229
 30
0.0
 11
2358.3660036095
 21
3275.772157646118
 31
0.0
  0
LINE
  5
82EF
330
82E1
100
AcDbEntity
  8
3
 62
     0
370
    -2
100
AcDbLine
 10
1919.366003609499
 20
3250.772157646118
 30
0.0
 11
2308.3660036095
 21
3250.772157646118
 31
0.0
  0
INSERT
  5
82F0
330
82E1
100
AcDbEntity
  8
3
 62
     0
370
    -2
100
AcDbBlockReference
  2
_OPEN
 10
1869.366003609499
 20
3250.772157646118
 30
0.0
 41
50.0
 42
50.0
 43
50.0
 50
180.0
  0
INSERT
  5
82F1
330
82E1
100
AcDbEntity
  8
3
 62
     0
370
    -2
100
AcDbBlockReference
  2
_OPEN
 10
2358.3660036095
 20
3250.772157646118
 30
0.0
 41
50.0
 42
50.0
 43
50.0
  0
MTEXT
  5
82F2
330
82E1
100
AcDbEntity
  8
3
 62
     0
100
AcDbMText
 10
2113.8660036095
 20
3313.272157646118
 30
0.0
 40
75.0
 41
0.0
 71
     5
 72
     1
  1
\A1;489
 73
     1
 44
1.0
1001
ACAD
1000
MTEXTBEGIN
1070
    73
1070
     1
1070
    44
1040
1.0
1070
    74
1070
     0
1000
MTEXTEND
  0
POINT
  5
82F3
330
82E1
100
AcDbEntity
  8
DEFPOINTS
 62
     0
100
AcDbPoint
 10
1869.366003609499
 20
3071.221839198657
 30
0.0
  0
POINT
  5
82F4
330
82E1
100
AcDbEntity
  8
DEFPOINTS
 62
     0
100
AcDbPoint
 10
2358.3660036095
 20
2395.956000393229
 30
0.0
  0
POINT
  5
82F5
330
82E1
100
AcDbEntity
  8
DEFPOINTS
 62
     0
100
AcDbPoint
 10
2358.3660036095
 20
3250.772157646118
 30
0.0
  0
ENDBLK
  5
82E3
330
82E1
100
AcDbEntity
  8
0
100
AcDbBlockEnd
  0
BLOCK
  5
82F8
330
82F7
100
AcDbEntity
  8
0
100
AcDbBlockBegin
  2
*D35
 70
     1
 10
0.0
 20
0.0
 30
0.0
  3
*D35
  1

  0
LINE
  5
82FA
330
82F7
100
AcDbEntity
  8
3
 62
     0
370
    -2
100
AcDbLine
 10
719.3660036094987
 20
1933.956000393227
 30
0.0
 11
719.3660036094988
 21
3427.514003035845
 31
0.0
  0
LINE
  5
82FB
330
82F7
100
AcDbEntity
  8
3
 62
     0
370
    -2
100
AcDbLine
 10
2358.3660036095
 20
2420.956000393229
 30
0.0
 11
2358.3660036095
 21
3427.514003035845
 31
0.0
  0
LINE
  5
82FC
330
82F7
100
AcDbEntity
  8
3
 62
     0
370
    -2
100
AcDbLine
 10
769.3660036094988
 20
3402.514003035845
 30
0.0
 11
2308.3660036095
 21
3402.514003035845
 31
0.0
  0
INSERT
  5
82FD
330
82F7
100
AcDbEntity
  8
3
 62
     0
370
    -2
100
AcDbBlockReference
  2
_OPEN
 10
719.3660036094988
 20
3402.514003035845
 30
0.0
 41
50.0
 42
50.0
 43
50.0
 50
180.0
  0
INSERT
  5
82FE
330
82F7
100
AcDbEntity
  8
3
 62
     0
370
    -2
100
AcDbBlockReference
  2
_OPEN
 10
2358.3660036095
 20
3402.514003035845
 30
0.0
 41
50.0
 42
50.0
 43
50.0
  0
MTEXT
  5
82FF
330
82F7
100
AcDbEntity
  8
3
 62
     0
100
AcDbMText
 10
1538.866003609499
 20
3465.014003035845
 30
0.0
 40
75.0
 41
0.0
 71
     5
 72
     1
  1
\A1;1639
 73
     1
 44
1.0
1001
ACAD
1000
MTEXTBEGIN
1070
    73
1070
     1
1070
    44
1040
1.0
1070
    74
1070
     0
1000
MTEXTEND
  0
POINT
  5
8300
330
82F7
100
AcDbEntity
  8
DEFPOINTS
 62
     0
100
AcDbPoint
 10
719.3660036094987
 20
1908.956000393227
 30
0.0
  0
POINT
  5
8301
330
82F7
100
AcDbEntity
  8
DEFPOINTS
 62
     0
100
AcDbPoint
 10
2358.3660036095
 20
2395.956000393229
 30
0.0
  0
POINT
  5
8302
330
82F7
100
AcDbEntity
  8
DEFPOINTS
 62
     0
100
AcDbPoint
 10
2358.3660036095
 20
3402.514003035845
 30
0.0
  0
ENDBLK
  5
82F9
330
82F7
100
AcDbEntity
  8
0
100
AcDbBlockEnd
  0
BLOCK
  5
8305
330
8304
100
AcDbEntity
  8
0
100
AcDbBlockBegin
  2
*D36
 70
     1
 10
0.0
 20
0.0
 30
0.0
  3
*D36
  1

  0
LINE
  5
8310
330
8304
100
AcDbEntity
  8
3
 62
     0
370
    -2
100
AcDbLine
 10
2516.631842414928
 20
2448.956000393227
 30
0.0
 11
2619.699106065771
 21
2448.956000393227
 31
0.0
  0
LINE
  5
8311
330
8304
100
AcDbEntity
  8
3
 62
     0
370
    -2
100
AcDbLine
 10
2344.366003609498
 20
1808.956000393227
 30
0.0
 11
2619.699106065771
 21
1808.956000393227
 31
0.0
  0
LINE
  5
8312
330
8304
100
AcDbEntity
  8
3
 62
     0
370
    -2
100
AcDbLine
 10
2594.699106065772
 20
2398.956000393227
 30
0.0
 11
2594.699106065772
 21
1858.956000393227
 31
0.0
  0
INSERT
  5
8313
330
8304
100
AcDbEntity
  8
3
 62
     0
370
    -2
100
AcDbBlockReference
  2
_OPEN
 10
2594.699106065772
 20
2448.956000393227
 30
0.0
 41
50.0
 42
50.0
 43
50.0
 50
90.0
  0
INSERT
  5
8314
330
8304
100
AcDbEntity
  8
3
 62
     0
370
    -2
100
AcDbBlockReference
  2
_OPEN
 10
2594.699106065772
 20
1808.956000393227
 30
0.0
 41
50.0
 42
50.0
 43
50.0
 50
270.0
  0
MTEXT
  5
8315
330
8304
100
AcDbEntity
  8
3
 62
     0
100
AcDbMText
 10
2532.199106065771
 20
2128.956000393228
 30
0.0
 40
75.0
 41
0.0
 71
     5
 72
     1
  1
\A1;640
 11
0.0000000000000001
 21
1.0
 31
0.0
 73
     1
 44
1.0
1001
ACAD
1000
MTEXTBEGIN
1070
    73
1070
     1
1070
    44
1040
1.0
1070
    74
1070
     0
1000
MTEXTEND
  0
POINT
  5
8316
330
8304
100
AcDbEntity
  8
DEFPOINTS
 62
     0
100
AcDbPoint
 10
2491.631842414928
 20
2448.956000393227
 30
0.0
  0
POINT
  5
8317
330
8304
100
AcDbEntity
  8
DEFPOINTS
 62
     0
100
AcDbPoint
 10
2319.366003609498
 20
1808.956000393227
 30
0.0
  0
POINT
  5
8318
330
8304
100
AcDbEntity
  8
DEFPOINTS
 62
     0
100
AcDbPoint
 10
2594.699106065772
 20
1808.956000393227
 30
0.0
  0
ENDBLK
  5
8306
330
8304
100
AcDbEntity
  8
0
100
AcDbBlockEnd
  0
ENDSEC
  0
SECTION
  2
ENTITIES
  0
INSERT
  5
7C36
330
8186
100
AcDbEntity
  8
0
100
AcDbBlockReference
  2
YA_N
 10
6.0
 20
5.0
 30
0.0
  0
LINE
  5
7C42
330
8186
100
AcDbEntity
  8
2
100
AcDbLine
 10
1869.366003609499
 20
1681.956000393227
 30
0.0
 11
1869.366003609499
 21
3071.221839198657
 31
0.0
  0
LINE
  5
7C43
330
8186
100
AcDbEntity
  8
2
100
AcDbLine
 10
2491.631842414928
 20
2448.956000393227
 30
0.0
 11
1042.253725960271
 21
2448.956000393227
 31
0.0
  0
LINE
  5
7C44
330
8186
100
AcDbEntity
  8
1
100
AcDbLine
 10
1172.366003609499
 20
1948.956000393227
 30
0.0
 11
766.3660036094993
 21
1948.956000393227
 31
0.0
  0
LINE
  5
7C45
330
8186
100
AcDbEntity
  8
1
100
AcDbLine
 10
1169.366003609499
 20
1908.956000393227
 30
0.0
 11
1169.366003609499
 21
1948.956000393227
 31
0.0
  0
LINE
  5
7C46
330
8186
100
AcDbEntity
  8
1
100
AcDbLine
 10
2319.366003609498
 20
1681.956000393227
 30
0.0
 11
719.3660036094987
 21
1681.956000393227
 31
0.0
  0
LINE
  5
7C47
330
8186
100
AcDbEntity
  8
1
100
AcDbLine
 10
2319.366003609498
 20
1781.956000393227
 30
0.0
 11
2319.366003609498
 21
1681.956000393227
 31
0.0
  0
LINE
  5
7C48
330
8186
100
AcDbEntity
  8
1
100
AcDbLine
 10
719.3660036094987
 20
1781.956000393227
 30
0.0
 11
719.3660036094987
 21
1681.956000393227
 31
0.0
  0
LINE
  5
7C49
330
8186
100
AcDbEntity
  8
1
100
AcDbLine
 10
2319.366003609498
 20
1781.956000393227
 30
0.0
 11
719.3660036094987
 21
1781.956000393227
 31
0.0
1001
ACAD
1000
ASC_BOUNDS
1002
{
1070
    19
1005
0
1002
}
  0
LINE
  5
7C4A
330
8186
100
AcDbEntity
  8
2
100
AcDbLine
 10
3973.223289427713
 20
1681.956000393227
 30
0.0
 11
3973.223289427714
 21
3119.027112675834
 31
0.0
  0
LINE
  5
7C4B
330
8186
100
AcDbEntity
  8
2
100
AcDbLine
 10
3120.81283606491
 20
2448.956000393227
 30
0.0
 11
4559.505647823026
 21
2448.956000393227
 31
0.0
  0
LINE
  5
7C4C
330
8186
100
AcDbEntity
  8
1
100
AcDbLine
 10
3321.223289427713
 20
1681.956000393227
 30
0.0
 11
4451.223289427712
 21
1681.956000393227
 31
0.0
  0
LINE
  5
7C4D
330
8186
100
AcDbEntity
  8
1
100
AcDbLine
 10
3321.223289427713
 20
1781.956000393227
 30
0.0
 11
4476.223289427713
 21
1781.956000393227
 31
0.0
1001
ACAD
1000
ASC_BOUNDS
1002
{
1070
    19
1002
}
  0
LINE
  5
7C4E
330
8186
100
AcDbEntity
  8
2
100
AcDbLine
 10
1869.366003609498
 20
5238.352917144098
 30
0.0
 11
1869.366003609498
 21
3782.571713279613
 31
0.0
  0
LINE
  5
7C4F
330
8186
100
AcDbEntity
  8
2
100
AcDbLine
 10
969.3660036094989
 20
4624.373845528817
 30
0.0
 11
969.3660036094994
 21
3782.571713279613
 31
0.0
  0
LINE
  5
7C50
330
8186
100
AcDbEntity
  8
2
100
AcDbLine
 10
2466.564200637578
 20
4653.462913529578
 30
0.0
 11
658.8504489204495
 21
4653.462913529581
 31
0.0
  0
LINE
  5
7C51
330
8186
100
AcDbEntity
  8
2
100
AcDbLine
 10
3251.256190229803
 20
2158.956000393227
 30
0.0
 11
3670.064598763467
 21
2158.956000393227
 31
0.0
  0
LINE
  5
7C52
330
8186
100
AcDbEntity
  8
1
100
AcDbLine
 10
4423.223289427713
 20
1908.956000393227
 30
0.0
 11
4423.223289427713
 21
2448.956000393227
 31
0.0
  0
POINT
  5
7C53
330
8186
100
AcDbEntity
  8
1
100
AcDbPoint
 10
2319.366003609498
 20
1681.956000393227
 30
0.0
  0
INSERT
  5
7C55
330
8186
100
AcDbEntity
  8
0
100
AcDbBlockReference
  2
YA_N
 10
-1092.024831295133
 20
-1095.319682135705
 30
0.0
 41
20.0
 42
20.0
 43
20.0
  0
LINE
  5
7C57
330
8186
100
AcDbEntity
  8
1
100
AcDbLine
 10
815.3660036094986
 20
2014.956000393227
 30
0.0
 11
834.7985036094984
 21
2068.346000393228
 31
0.0
  0
LINE
  5
7C58
330
8186
100
AcDbEntity
  8
1
100
AcDbLine
 10
1123.366003609499
 20
2014.956000393227
 30
0.0
 11
1103.933403609498
 21
2068.346000393228
 31
0.0
  0
ARC
  5
7C59
330
8186
100
AcDbEntity
  8
1
100
AcDbCircle
 10
969.3660036094989
 20
2158.956000393227
 30
0.0
 40
162.0
100
AcDbArc
 50
180.0
 51
254.3518999999999
  0
ARC
  5
7C5A
330
8186
100
AcDbEntity
  8
1
100
AcDbCircle
 10
969.3660036094989
 20
2158.956000393227
 30
0.0
 40
162.0
100
AcDbArc
 50
285.4573
 51
180.0
  0
LINE
  5
7C5B
330
8186
100
AcDbEntity
  8
2
100
AcDbLine
 10
969.3660036094989
 20
2408.192000393227
 30
0.0
 11
969.3660036094989
 21
1681.956000393227
 31
0.0
  0
LINE
  5
7C5C
330
8186
100
AcDbEntity
  8
1
100
AcDbLine
 10
1013.046603609499
 20
2002.956000393227
 30
0.0
 11
925.6853036094989
 21
2002.956000393227
 31
0.0
  0
LINE
  5
7C5D
330
8186
100
AcDbEntity
  8
1
100
AcDbLine
 10
1054.309903609499
 20
2021.012000393227
 30
0.0
 11
1062.487303609498
 21
2012.834000393227
 31
0.0
  0
LINE
  5
7C5E
330
8186
100
AcDbEntity
  8
1
100
AcDbLine
 10
1076.579203609499
 20
2016.956000393227
 30
0.0
 11
1121.366003609499
 21
2016.956000393227
 31
0.0
  0
LINE
  5
7C5F
330
8186
100
AcDbEntity
  8
1
100
AcDbLine
 10
1103.616003609498
 20
2016.956000393227
 30
0.0
 11
1103.616003609498
 21
1998.956000393227
 31
0.0
  0
ARC
  5
7C60
330
8186
100
AcDbEntity
  8
1
100
AcDbCircle
 10
1121.366003609499
 20
2014.956000393227
 30
0.0
 40
2.0
100
AcDbArc
 50
0.0
 51
90.0
  0
LINE
  5
7C61
330
8186
100
AcDbEntity
  8
1
100
AcDbLine
 10
1096.366003609498
 20
2021.685000393227
 30
0.0
 11
1096.366003609498
 21
1991.427000393227
 31
0.0
  0
LINE
  5
7C62
330
8186
100
AcDbEntity
  8
1
100
AcDbLine
 10
1123.366003609499
 20
1998.956000393227
 30
0.0
 11
1123.366003609499
 21
2014.956000393227
 31
0.0
  0
LINE
  5
7C63
330
8186
100
AcDbEntity
  8
1
100
AcDbLine
 10
1089.116003609498
 20
2016.956000393227
 30
0.0
 11
1089.116003609498
 21
1998.956000393227
 31
0.0
  0
ARC
  5
7C64
330
8186
100
AcDbEntity
  8
1
100
AcDbCircle
 10
1060.366003609499
 20
2010.713000393227
 30
0.0
 40
3.0
100
AcDbArc
 50
0.0
 51
45.0
  0
LINE
  5
7C65
330
8186
100
AcDbEntity
  8
1
100
AcDbLine
 10
1063.366003609498
 20
1998.956000393227
 30
0.0
 11
1063.366003609498
 21
2010.713000393227
 31
0.0
  0
ARC
  5
7C66
330
8186
100
AcDbEntity
  8
1
100
AcDbCircle
 10
1074.446503609499
 20
2029.159000393227
 30
0.0
 40
8.0
100
AcDbArc
 50
225.0
 51
308.9931000000001
  0
ARC
  5
7C67
330
8186
100
AcDbEntity
  8
1
100
AcDbCircle
 10
969.3660036094989
 20
2158.956000393227
 30
0.0
 40
175.0
100
AcDbArc
 50
308.9929999999999
 51
313.8071
  0
ARC
  5
7C68
330
8186
100
AcDbEntity
  8
1
100
AcDbCircle
 10
1084.968803609499
 20
2038.436000393227
 30
0.0
 40
8.0
100
AcDbArc
 50
313.8068
 51
45.0
  0
LINE
  5
7C69
330
8186
100
AcDbEntity
  8
1
100
AcDbLine
 10
1087.110703609499
 20
2047.608000393227
 30
0.0
 11
1090.826703609499
 21
2043.892000393227
 31
0.0
  0
ARC
  5
7C6A
330
8186
100
AcDbEntity
  8
1
100
AcDbCircle
 10
1076.579203609499
 20
2019.956000393227
 30
0.0
 40
3.0
100
AcDbArc
 50
225.0
 51
270.0
  0
LINE
  5
7C6B
330
8186
100
AcDbEntity
  8
1
100
AcDbLine
 10
1064.477203609499
 20
2027.815000393227
 30
0.0
 11
1074.457803609499
 21
2017.834000393227
 31
0.0
  0
ARC
  5
7C6C
330
8186
100
AcDbEntity
  8
1
100
AcDbCircle
 10
864.2854036094984
 20
2029.159000393227
 30
0.0
 40
8.0
100
AcDbArc
 50
231.0068999999999
 51
315.0
  0
LINE
  5
7C6D
330
8186
100
AcDbEntity
  8
1
100
AcDbLine
 10
862.1528036094987
 20
2016.956000393227
 30
0.0
 11
817.3660036094988
 21
2016.956000393227
 31
0.0
  0
LINE
  5
7C6E
330
8186
100
AcDbEntity
  8
1
100
AcDbLine
 10
884.4221036094984
 20
2021.012000393227
 30
0.0
 11
876.2446036094987
 21
2012.834000393227
 31
0.0
  0
ARC
  5
7C6F
330
8186
100
AcDbEntity
  8
1
100
AcDbCircle
 10
878.3660036094989
 20
2010.713000393227
 30
0.0
 40
3.0
100
AcDbArc
 50
135.0
 51
180.0
  0
LINE
  5
7C70
330
8186
100
AcDbEntity
  8
1
100
AcDbLine
 10
875.3660036094988
 20
1998.956000393227
 30
0.0
 11
875.3660036094988
 21
2010.713000393227
 31
0.0
  0
ARC
  5
7C71
330
8186
100
AcDbEntity
  8
1
100
AcDbCircle
 10
862.1528036094987
 20
2019.956000393227
 30
0.0
 40
3.0
100
AcDbArc
 50
270.0
 51
315.0
  0
LINE
  5
7C72
330
8186
100
AcDbEntity
  8
1
100
AcDbLine
 10
864.163803609499
 20
2017.724000393227
 30
0.0
 11
874.2548036094991
 21
2027.815000393227
 31
0.0
  0
LINE
  5
7C73
330
8186
100
AcDbEntity
  8
1
100
AcDbLine
 10
849.6160036094988
 20
2016.956000393227
 30
0.0
 11
849.6160036094988
 21
1998.956000393227
 31
0.0
  0
LINE
  5
7C74
330
8186
100
AcDbEntity
  8
1
100
AcDbLine
 10
835.1160036094988
 20
2016.956000393227
 30
0.0
 11
835.1160036094988
 21
1998.956000393227
 31
0.0
  0
LINE
  5
7C75
330
8186
100
AcDbEntity
  8
1
100
AcDbLine
 10
842.3660036094988
 20
2021.685000393227
 30
0.0
 11
842.3660036094988
 21
1991.427000393227
 31
0.0
  0
ARC
  5
7C76
330
8186
100
AcDbEntity
  8
1
100
AcDbCircle
 10
853.7631036094991
 20
2038.436000393227
 30
0.0
 40
8.0
100
AcDbArc
 50
135.0
 51
226.1931999999999
  0
LINE
  5
7C77
330
8186
100
AcDbEntity
  8
1
100
AcDbLine
 10
851.6213036094985
 20
2047.608000393227
 30
0.0
 11
847.9053036094988
 21
2043.892000393227
 31
0.0
  0
ARC
  5
7C78
330
8186
100
AcDbEntity
  8
1
100
AcDbCircle
 10
969.3660036094989
 20
2158.956000393227
 30
0.0
 40
175.0
100
AcDbArc
 50
226.1928999999999
 51
231.0069999999999
  0
ARC
  5
7C79
330
8186
100
AcDbEntity
  8
1
100
AcDbCircle
 10
817.3660036094988
 20
2014.956000393227
 30
0.0
 40
2.0
100
AcDbArc
 50
90.0
 51
180.0
  0
LINE
  5
7C7A
330
8186
100
AcDbEntity
  8
1
100
AcDbLine
 10
815.3660036094986
 20
1998.956000393227
 30
0.0
 11
815.3660036094986
 21
2014.956000393227
 31
0.0
  0
LINE
  5
7C7B
330
8186
100
AcDbEntity
  8
2
100
AcDbLine
 10
1162.222878509022
 20
2158.956000393227
 30
0.0
 11
771.6070763908283
 21
2158.956000393227
 31
0.0
  0
LINE
  5
7C7C
330
8186
100
AcDbEntity
  8
1
100
AcDbLine
 10
1159.325470979757
 20
1998.956000393227
 30
0.0
 11
1029.366003609498
 21
1998.956000393227
 31
0.0
  0
LINE
  5
7C7D
330
8186
100
AcDbEntity
  8
1
100
AcDbLine
 10
1172.366003609499
 20
1948.956000393227
 30
0.0
 11
1159.325470979757
 21
1998.956000393227
 31
0.0
  0
LINE
  5
7C7E
330
8186
100
AcDbEntity
  8
1
100
AcDbLine
 10
766.3660036094993
 20
1948.956000393227
 30
0.0
 11
779.7474445184324
 21
1998.956000393227
 31
0.0
  0
LINE
  5
7C7F
330
8186
100
AcDbEntity
  8
1
100
AcDbLine
 10
909.3660036094988
 20
1998.956000393227
 30
0.0
 11
909.3660036094988
 21
1993.956000393227
 31
0.0
  0
LINE
  5
7C80
330
8186
100
AcDbEntity
  8
1
100
AcDbLine
 10
1029.366003609498
 20
1998.956000393227
 30
0.0
 11
1029.366003609498
 21
1993.956000393227
 31
0.0
  0
LINE
  5
7C81
330
8186
100
AcDbEntity
  8
1
100
AcDbLine
 10
1029.366003609498
 20
1993.956000393227
 30
0.0
 11
909.3660036094988
 21
1993.956000393227
 31
0.0
  0
LINE
  5
7C82
330
8186
100
AcDbEntity
  8
1
100
AcDbLine
 10
1029.366003609498
 20
1953.956000393227
 30
0.0
 11
909.3660036094988
 21
1953.956000393227
 31
0.0
  0
LINE
  5
7C83
330
8186
100
AcDbEntity
  8
1
100
AcDbLine
 10
909.3660036094988
 20
1998.956000393227
 30
0.0
 11
779.7474445184318
 21
1998.956000393227
 31
0.0
  0
LINE
  5
7C84
330
8186
100
AcDbEntity
  8
1
100
AcDbLine
 10
909.3660036094988
 20
1953.956000393227
 30
0.0
 11
909.3660036094988
 21
1948.956000393227
 31
0.0
  0
LINE
  5
7C85
330
8186
100
AcDbEntity
  8
1
100
AcDbLine
 10
1029.366003609498
 20
1953.956000393227
 30
0.0
 11
1029.366003609498
 21
1948.956000393227
 31
0.0
  0
POINT
  5
7C87
330
8186
100
AcDbEntity
  8
1
100
AcDbPoint
 10
2319.366003609498
 20
1686.956000393227
 30
0.0
  0
POINT
  5
7C88
330
8186
100
AcDbEntity
  8
1
100
AcDbPoint
 10
2319.366003609498
 20
1681.956000393227
 30
0.0
  0
POINT
  5
7C89
330
8186
100
AcDbEntity
  8
1
100
AcDbPoint
 10
2319.366003609498
 20
1686.956000393227
 30
0.0
  0
POINT
  5
7C8A
330
8186
100
AcDbEntity
  8
1
100
AcDbPoint
 10
2319.366003609498
 20
1721.956000393227
 30
0.0
  0
DIMENSION
  5
7C8C
330
8186
100
AcDbEntity
  8
3
100
AcDbDimension
  2
*D4
 10
1840.366003609499
 20
3097.963384172453
 30
0.0
 11
1316.952880714852
 21
3147.963384172453
 31
0.0
 12
643.7938563937384
 22
1940.362522171828
 32
0.0
 71
     5
 42
-1.0
  3
Standard
100
AcDbAlignedDimension
 13
1110.366003609499
 23
2948.956000393227
 33
0.0
 14
1840.366003609499
 24
2948.956000393229
 34
0.0
100
AcDbRotatedDimension
1001
ACAD
1000
DSTYLE
1002
{
1070
    40
1040
25.0
1002
}
  0
DIMENSION
  5
7C8D
330
8186
100
AcDbEntity
  8
3
100
AcDbDimension
  2
*D5
 10
1869.366003609499
 20
3250.772157646119
 30
0.0
 11
1331.452880714852
 21
3300.772157646119
 31
0.0
 12
643.7938563937384
 22
1940.362522171828
 32
0.0
 71
     5
 42
-1.0
  3
Standard
100
AcDbAlignedDimension
 13
1110.366003609499
 23
2948.956000393227
 33
0.0
 14
1869.366003609499
 24
3071.221839198657
 34
0.0
100
AcDbRotatedDimension
1001
ACAD
1000
DSTYLE
1002
{
1070
    40
1040
25.0
1002
}
  0
LINE
  5
7C8E
330
8186
100
AcDbEntity
  8
1
100
AcDbLine
 10
4426.223289427713
 20
1681.956000393227
 30
0.0
 11
4476.223289427713
 21
1681.956000393227
 31
0.0
  0
POINT
  5
7C8F
330
8186
100
AcDbEntity
  8
1
100
AcDbPoint
 10
2319.366003609498
 20
1686.956000393227
 30
0.0
  0
POINT
  5
7C90
330
8186
100
AcDbEntity
  8
1
100
AcDbPoint
 10
2319.366003609498
 20
1681.956000393227
 30
0.0
  0
POINT
  5
7C91
330
8186
100
AcDbEntity
  8
1
100
AcDbPoint
 10
2319.366003609498
 20
1686.956000393227
 30
0.0
  0
POINT
  5
7C92
330
8186
100
AcDbEntity
  8
1
100
AcDbPoint
 10
2319.366003609498
 20
1721.956000393227
 30
0.0
  0
INSERT
  5
7C93
330
8186
100
AcDbEntity
  8
0
100
AcDbBlockReference
  2
YA_N
 10
-1018.773193578214
 20
-860.9217325598891
 30
0.0
 41
20.0
 42
20.0
 43
20.0
  0
POINT
  5
7C95
330
8186
100
AcDbEntity
  8
1
100
AcDbPoint
 10
2319.366003609498
 20
1781.956000393227
 30
0.0
  0
POINT
  5
7C96
330
8186
100
AcDbEntity
  8
1
100
AcDbPoint
 10
2319.366003609498
 20
1681.956000393227
 30
0.0
  0
POINT
  5
7C97
330
8186
100
AcDbEntity
  8
1
100
AcDbPoint
 10
2319.366003609498
 20
1781.956000393227
 30
0.0
  0
LINE
  5
7C98
330
8186
100
AcDbEntity
  8
1
100
AcDbLine
 10
3483.223289427712
 20
2948.956000393227
 30
0.0
 11
4463.223289427713
 21
2948.956000393227
 31
0.0
  0
LINE
  5
7C99
330
8186
100
AcDbEntity
  8
1
100
AcDbLine
 10
4423.223289427713
 20
2448.956000393227
 30
0.0
 11
4423.223289427713
 21
2948.956000393227
 31
0.0
  0
LINE
  5
7C9B
330
8186
100
AcDbEntity
  8
1
100
AcDbLine
 10
3523.223289427714
 20
2448.956000393227
 30
0.0
 11
3523.223289427714
 21
2948.956000393227
 31
0.0
  0
LINE
  5
7C9C
330
8186
100
AcDbEntity
  8
1
100
AcDbLine
 10
3523.223289427714
 20
1908.956000393227
 30
0.0
 11
3523.223289427712
 21
2448.956000393227
 31
0.0
  0
LINE
  5
7C9E
330
8186
100
AcDbEntity
  8
1
100
AcDbLine
 10
4435.723289427712
 20
2313.756000393227
 30
0.0
 11
4435.723289427714
 21
2433.756000393227
 31
0.0
  0
LINE
  5
7C9F
330
8186
100
AcDbEntity
  8
1
100
AcDbLine
 10
4533.223289427712
 20
2323.756000393227
 30
0.0
 11
4533.223289427713
 21
2423.756000393227
 31
0.0
  0
LINE
  5
7CA0
330
8186
100
AcDbEntity
  8
1
100
AcDbLine
 10
4435.723289427714
 20
2433.756000393227
 30
0.0
 11
4475.523289427713
 21
2433.756000393227
 31
0.0
  0
LINE
  5
7CA1
330
8186
100
AcDbEntity
  8
1
100
AcDbLine
 10
4435.723289427712
 20
2313.756000393227
 30
0.0
 11
4475.523289427713
 21
2313.756000393227
 31
0.0
  0
ARC
  5
7CA2
330
8186
100
AcDbEntity
  8
1
100
AcDbCircle
 10
4523.223289427714
 20
2423.756000393227
 30
0.0
 40
10.0
100
AcDbArc
 50
359.9999999999982
 51
90.0
  0
ARC
  5
7CA3
330
8186
100
AcDbEntity
  8
1
100
AcDbCircle
 10
4523.223289427712
 20
2323.756000393227
 30
0.0
 40
10.0
100
AcDbArc
 50
270.0
 51
359.9999999999982
  0
LINE
  5
7CA4
330
8186
100
AcDbEntity
  8
1
100
AcDbLine
 10
4475.523289427713
 20
2313.756000393227
 30
0.0
 11
4523.223289427712
 21
2313.756000393227
 31
0.0
  0
LINE
  5
7CA5
330
8186
100
AcDbEntity
  8
1
100
AcDbLine
 10
4475.523289427713
 20
2433.756000393227
 30
0.0
 11
4523.223289427714
 21
2433.756000393227
 31
0.0
  0
LINE
  5
7CA6
330
8186
100
AcDbEntity
  8
1
100
AcDbLine
 10
769.3660036094987
 20
1908.956000393227
 30
0.0
 11
769.3660036094984
 21
1948.956000393227
 31
0.0
  0
POINT
  5
7CA7
330
8186
100
AcDbEntity
  8
1
100
AcDbPoint
 10
4533.223289427713
 20
2423.756000393227
 30
0.0
  0
LINE
  5
7CA8
330
8186
100
AcDbEntity
  8
1
100
AcDbLine
 10
2319.366003609498
 20
5156.462913529579
 30
0.0
 11
1419.366003609499
 21
5156.462913529579
 31
0.0
  0
LINE
  5
7CA9
330
8186
100
AcDbEntity
  8
1
100
AcDbLine
 10
2319.366003609498
 20
4001.462913529579
 30
0.0
 11
719.3660036094987
 21
4001.46291352958
 31
0.0
  0
LINE
  5
7CAA
330
8186
100
AcDbEntity
  8
1
100
AcDbLine
 10
2319.366003609498
 20
5156.462913529579
 30
0.0
 11
2319.366003609498
 21
5103.462913529579
 31
0.0
  0
LINE
  5
7CAB
330
8186
100
AcDbEntity
  8
1
100
AcDbLine
 10
1419.366003609499
 20
5156.462913529579
 30
0.0
 11
1419.366003609499
 21
5103.462913529579
 31
0.0
  0
LINE
  5
7CAC
330
8186
100
AcDbEntity
  8
1
100
AcDbLine
 10
719.3660036094987
 20
4671.46291352958
 30
0.0
 11
719.3660036094987
 21
4001.462913529581
 31
0.0
  0
LINE
  5
7CAD
330
8186
100
AcDbEntity
  8
1
100
AcDbLine
 10
1110.366003609499
 20
4671.462913529579
 30
0.0
 11
719.3660036094987
 21
4671.46291352958
 31
0.0
  0
POINT
  5
7CAE
330
8186
100
AcDbEntity
  8
1
100
AcDbPoint
 10
2319.366003609498
 20
1781.956000393227
 30
0.0
  0
POINT
  5
7CAF
330
8186
100
AcDbEntity
  8
1
100
AcDbPoint
 10
2319.366003609498
 20
1681.956000393227
 30
0.0
  0
POINT
  5
7CB0
330
8186
100
AcDbEntity
  8
1
100
AcDbPoint
 10
2319.366003609498
 20
1781.956000393227
 30
0.0
  0
LINE
  5
7CB1
330
8186
100
AcDbEntity
  8
1
100
AcDbLine
 10
2319.366003609498
 20
1808.956000393227
 30
0.0
 11
719.3660036094987
 21
1808.956000393227
 31
0.0
1001
ACAD
1000
ASC_BOUNDS
1002
{
1070
    19
1002
}
  0
LINE
  5
7CB2
330
8186
100
AcDbEntity
  8
1
100
AcDbLine
 10
2319.366003609498
 20
1908.956000393227
 30
0.0
 11
719.3660036094987
 21
1908.956000393227
 31
0.0
1001
ACAD
1000
ASC_BOUNDS
1002
{
1070
    19
1005
0
1002
}
  0
LINE
  5
7CB3
330
8186
100
AcDbEntity
  8
1
100
AcDbLine
 10
719.3660036094987
 20
1908.956000393227
 30
0.0
 11
719.3660036094987
 21
1808.956000393227
 31
0.0
  0
LINE
  5
7CB4
330
8186
100
AcDbEntity
  8
1
100
AcDbLine
 10
2319.366003609498
 20
1908.956000393227
 30
0.0
 11
2319.366003609498
 21
1808.956000393227
 31
0.0
  0
POINT
  5
7CB5
330
8186
100
AcDbEntity
  8
1
100
AcDbPoint
 10
2319.366003609498
 20
1908.956000393227
 30
0.0
  0
POINT
  5
7CB6
330
8186
100
AcDbEntity
  8
1
100
AcDbPoint
 10
2319.366003609498
 20
1908.956000393227
 30
0.0
  0
POINT
  5
7CB7
330
8186
100
AcDbEntity
  8
1
100
AcDbPoint
 10
2319.366003609498
 20
1908.956000393227
 30
0.0
  0
POINT
  5
7CB8
330
8186
100
AcDbEntity
  8
1
100
AcDbPoint
 10
2319.366003609498
 20
1908.956000393227
 30
0.0
  0
POINT
  5
7CBB
330
8186
100
AcDbEntity
  8
1
100
AcDbPoint
 10
2319.366003609498
 20
1781.956000393227
 30
0.0
  0
POINT
  5
7CBC
330
8186
100
AcDbEntity
  8
1
100
AcDbPoint
 10
2319.366003609498
 20
1681.956000393227
 30
0.0
  0
POINT
  5
7CBD
330
8186
100
AcDbEntity
  8
1
100
AcDbPoint
 10
2319.366003609498
 20
1781.956000393227
 30
0.0
  0
POINT
  5
7CBE
330
8186
100
AcDbEntity
  8
1
100
AcDbPoint
 10
2319.366003609498
 20
1808.956000393227
 30
0.0
  0
CIRCLE
  5
7CC4
330
8186
100
AcDbEntity
  8
1
100
AcDbCircle
 10
969.3660036094989
 20
2158.956000393227
 30
0.0
 40
79.0
  0
CIRCLE
  5
7CC5
330
8186
100
AcDbEntity
  8
1
100
AcDbCircle
 10
1869.366003609499
 20
2448.956000393227
 30
0.0
 40
203.2
  0
LINE
  5
7CC6
330
8186
100
AcDbEntity
  8
1
100
AcDbLine
 10
1799.946634138445
 20
2639.93032102886
 30
0.0
 11
942.3771739430952
 21
2233.20290654586
 31
0.0
  0
LINE
  5
7CC7
330
8186
100
AcDbEntity
  8
1
100
AcDbLine
 10
1885.216914603503
 20
2246.375180420901
 30
0.0
 11
975.5285132971284
 21
2080.19672491186
 31
0.0
  0
ARC
  5
7CC8
330
8186
100
AcDbEntity
  8
1
100
AcDbCircle
 10
1869.366003609499
 20
2448.956000393227
 30
0.0
 40
280.0
100
AcDbArc
 50
274.1096317013021
 51
110.3406136501693
  0
ARC
  5
7CC9
330
8186
100
AcDbEntity
  8
1
100
AcDbCircle
 10
969.3660036094989
 20
2158.956000393227
 30
0.0
 40
150.0
100
AcDbArc
 50
110.3406136501693
 51
274.1096317013021
  0
LINE
  5
7CCA
330
8186
100
AcDbEntity
  8
1
100
AcDbLine
 10
1772.037897392183
 20
2711.495977806479
 30
0.0
 11
917.2259467073656
 21
2299.602416864612
 31
0.0
  0
LINE
  5
7CCB
330
8186
100
AcDbEntity
  8
1
100
AcDbLine
 10
1889.432236650905
 20
2169.675950458528
 30
0.0
 11
980.1157713102528
 21
2009.341687928209
 31
0.0
  0
INSERT
  5
7CCC
330
8186
100
AcDbEntity
  8
0
100
AcDbBlockReference
  2
YA_N
 10
2545.878788900856
 20
-1567.120050791241
 30
0.0
  0
LINE
  5
7CCF
330
8186
100
AcDbEntity
  8
1
100
AcDbLine
 10
3321.223289427713
 20
1908.956000393227
 30
0.0
 11
4476.223289427713
 21
1908.956000393227
 31
0.0
1001
ACAD
1000
ASC_BOUNDS
1002
{
1070
    19
1002
}
  0
LINE
  5
7CD0
330
8186
100
AcDbEntity
  8
1
100
AcDbLine
 10
3321.223289427713
 20
1681.956000393227
 30
0.0
 11
3321.223289427713
 21
1781.956000393227
 31
0.0
  0
LINE
  5
7CD1
330
8186
100
AcDbEntity
  8
1
100
AcDbLine
 10
3321.223289427713
 20
1808.956000393227
 30
0.0
 11
4476.223289427713
 21
1808.956000393227
 31
0.0
  0
LINE
  5
7CD2
330
8186
100
AcDbEntity
  8
1
100
AcDbLine
 10
4476.223289427713
 20
1681.956000393227
 30
0.0
 11
4476.223289427713
 21
1781.956000393227
 31
0.0
  0
LINE
  5
7CD5
330
8186
100
AcDbEntity
  8
1
100
AcDbLine
 10
3470.923289427711
 20
2425.756000393227
 30
0.0
 11
3430.723289427711
 21
2425.756000393227
 31
0.0
  0
LINE
  5
7CD6
330
8186
100
AcDbEntity
  8
1
100
AcDbLine
 10
3470.923289427711
 20
2305.756000393227
 30
0.0
 11
3430.723289427714
 21
2305.756000393227
 31
0.0
  0
LINE
  5
7CD7
330
8186
100
AcDbEntity
  8
1
100
AcDbLine
 10
3510.723289427713
 20
2305.756000393227
 30
0.0
 11
3510.72328942771
 21
2425.756000393227
 31
0.0
  0
LINE
  5
7CD8
330
8186
100
AcDbEntity
  8
1
100
AcDbLine
 10
3510.723289427713
 20
2305.756000393227
 30
0.0
 11
3470.923289427711
 21
2305.756000393227
 31
0.0
  0
LINE
  5
7CD9
330
8186
100
AcDbEntity
  8
1
100
AcDbLine
 10
3510.72328942771
 20
2425.756000393227
 30
0.0
 11
3470.923289427711
 21
2425.756000393227
 31
0.0
  0
LINE
  5
7CDA
330
8186
100
AcDbEntity
  8
1
100
AcDbLine
 10
3420.723289427714
 20
2315.756000393227
 30
0.0
 11
3420.723289427711
 21
2415.756000393227
 31
0.0
  0
ARC
  5
7CDB
330
8186
100
AcDbEntity
  8
1
100
AcDbCircle
 10
3430.723289427714
 20
2315.756000393227
 30
0.0
 40
10.0
100
AcDbArc
 50
180.0000000000016
 51
270.0
  0
ARC
  5
7CDC
330
8186
100
AcDbEntity
  8
1
100
AcDbCircle
 10
3430.723289427711
 20
2415.756000393227
 30
0.0
 40
10.0
100
AcDbArc
 50
90.0
 51
180.0000000000016
  0
POINT
  5
7CDD
330
8186
100
AcDbEntity
  8
1
100
AcDbPoint
 10
3420.723289427711
 20
2415.756000393227
 30
0.0
  0
LINE
  5
7CDE
330
8186
100
AcDbEntity
  8
1
100
AcDbLine
 10
3393.223289427714
 20
2423.956000393227
 30
0.0
 11
3393.223289427714
 21
2473.956000393227
 31
0.0
  0
LINE
  5
7CDF
330
8186
100
AcDbEntity
  8
1
100
AcDbLine
 10
3393.223289427714
 20
2473.956000393227
 30
0.0
 11
3523.223289427714
 21
2473.956000393227
 31
0.0
  0
LINE
  5
7CE0
330
8186
100
AcDbEntity
  8
1
100
AcDbLine
 10
3393.223289427714
 20
2423.956000393227
 30
0.0
 11
3425.123289427713
 21
2423.956000393227
 31
0.0
  0
LINE
  5
7CE1
330
8186
100
AcDbEntity
  8
1
100
AcDbLine
 10
3369.223289427714
 20
2469.956000393227
 30
0.0
 11
3393.223289427714
 21
2469.956000393227
 31
0.0
  0
LINE
  5
7CE2
330
8186
100
AcDbEntity
  8
1
100
AcDbLine
 10
3369.223289427712
 20
2427.956000393227
 30
0.0
 11
3393.223289427712
 21
2427.956000393227
 31
0.0
  0
LINE
  5
7CE3
330
8186
100
AcDbEntity
  8
1
100
AcDbLine
 10
3369.223289427707
 20
2079.956000393227
 30
0.0
 11
3369.223289427714
 21
2652.156000393227
 31
0.0
  0
LINE
  5
7CE4
330
8186
100
AcDbEntity
  8
1
100
AcDbLine
 10
3268.223289427715
 20
2652.156000393227
 30
0.0
 11
3369.223289427716
 21
2652.156000393227
 31
0.0
  0
LINE
  5
7CE5
330
8186
100
AcDbEntity
  8
1
100
AcDbLine
 10
3268.223289427709
 20
2245.756000393227
 30
0.0
 11
3369.22328942771
 21
2245.756000393227
 31
0.0
  0
LINE
  5
7CE6
330
8186
100
AcDbEntity
  8
1
100
AcDbLine
 10
3268.223289427707
 20
2079.956000393227
 30
0.0
 11
3268.223289427715
 21
2652.156000393229
 31
0.0
  0
LINE
  5
7CE7
330
8186
100
AcDbEntity
  8
1
100
AcDbLine
 10
3268.223289427711
 20
2237.956000393227
 30
0.0
 11
3369.223289427711
 21
2237.956000393227
 31
0.0
  0
LINE
  5
7CE8
330
8186
100
AcDbEntity
  8
1
100
AcDbLine
 10
3268.223289427709
 20
2079.956000393227
 30
0.0
 11
3369.22328942771
 21
2079.956000393227
 31
0.0
  0
LINE
  5
7CE9
330
8186
100
AcDbEntity
  8
1
100
AcDbLine
 10
3133.223289427717
 20
2728.956000393227
 30
0.0
 11
3419.223289427716
 21
2728.956000393227
 31
0.0
  0
LINE
  5
7CEA
330
8186
100
AcDbEntity
  8
1
100
AcDbLine
 10
3133.223289427708
 20
2008.956000393227
 30
0.0
 11
3419.223289427707
 21
2008.956000393227
 31
0.0
  0
LINE
  5
7CEB
330
8186
100
AcDbEntity
  8
1
100
AcDbLine
 10
3419.223289427707
 20
2008.956000393227
 30
0.0
 11
3419.223289427707
 21
2028.956000393227
 31
0.0
  0
LINE
  5
7CEC
330
8186
100
AcDbEntity
  8
1
100
AcDbLine
 10
3133.223289427708
 20
2008.956000393227
 30
0.0
 11
3133.223289427717
 21
2728.956000393227
 31
0.0
  0
LINE
  5
7CED
330
8186
100
AcDbEntity
  8
1
100
AcDbLine
 10
3419.223289427716
 20
2708.956000393227
 30
0.0
 11
3419.223289427716
 21
2728.956000393227
 31
0.0
  0
DIMENSION
  5
7CEE
330
8186
100
AcDbEntity
  8
3
100
AcDbDimension
  2
*D6
 10
4423.223289427713
 20
3134.473968814646
 30
0.0
 11
3973.223289427713
 21
3184.473968814645
 31
0.0
 12
128.9512154972435
 22
1940.362522171828
 32
0.0
 71
     5
 42
-1.0
  3
Standard
100
AcDbAlignedDimension
 13
3523.223289427714
 23
2949.164890054777
 33
0.0
 14
4423.223289427713
 24
2949.16487631777
 34
0.0
100
AcDbRotatedDimension
1001
ACAD
1000
DSTYLE
1002
{
1070
    40
1040
25.0
1002
}
  0
DIMENSION
  5
7CF2
330
8186
100
AcDbEntity
  8
3
100
AcDbDimension
  2
*D10
 10
4701.005424383132
 20
2823.956000393227
 30
0.0
 11
4651.005424383131
 21
2448.956000393227
 31
0.0
 12
128.9512154972435
 22
1940.362522171828
 32
0.0
  1
\U+03C6<>
 71
     5
 42
-1.0
  3
Standard
100
AcDbAlignedDimension
 13
4425.523289427713
 23
2073.956000393227
 33
0.0
 14
4425.523289427713
 24
2823.956000393227
 34
0.0
 50
90.0
100
AcDbRotatedDimension
1001
ACAD
1000
DSTYLE
1002
{
1070
    40
1040
25.0
1002
}
  0
DIMENSION
  5
7CF4
330
8186
100
AcDbEntity
  8
3
100
AcDbDimension
  2
*D12
 10
550.5064130302306
 20
4671.46291352958
 30
0.0
 11
342.0932901355845
 21
4336.462913529579
 31
0.0
 12
158.4131228946462
 22
0.0
 32
0.0
 71
     5
 42
-1.0
  3
Standard
100
AcDbAlignedDimension
 13
719.3660036094987
 23
4001.46291352958
 33
0.0
 14
719.3660036094987
 24
4671.46291352958
 34
0.0
 50
90.0
100
AcDbRotatedDimension
1001
ACAD
1000
DSTYLE
1002
{
1070
    40
1040
25.0
1002
}
  0
DIMENSION
  5
7CF5
330
8186
100
AcDbEntity
  8
3
100
AcDbDimension
  2
*D13
 10
2319.366003609498
 20
5458.094967933752
 30
0.0
 11
1710.952880714852
 21
5508.094967933753
 31
0.0
 12
643.7938563937384
 22
1227.929602994241
 32
0.0
 71
     5
 42
-1.0
  3
Standard
100
AcDbAlignedDimension
 13
1419.366003609499
 23
5156.462913529579
 33
0.0
 14
2319.366003609498
 24
5156.462913529579
 34
0.0
100
AcDbRotatedDimension
1001
ACAD
1000
DSTYLE
1002
{
1070
    40
1040
25.0
1002
}
  0
DIMENSION
  5
7CF6
330
8186
100
AcDbEntity
  8
3
100
AcDbDimension
  2
*D14
 10
1419.366003609499
 20
5458.094967933752
 30
0.0
 11
910.9528807148526
 21
5508.094967933753
 31
0.0
 12
643.7938563937384
 22
1227.929602994241
 32
0.0
 71
     5
 42
-1.0
  3
Standard
100
AcDbAlignedDimension
 13
719.3660036094987
 23
4671.46291352958
 33
0.0
 14
1419.366003609499
 24
5156.462913529579
 34
0.0
100
AcDbRotatedDimension
1001
ACAD
1000
DSTYLE
1002
{
1070
    40
1040
25.0
1002
}
  0
DIMENSION
  5
7CF7
330
8186
100
AcDbEntity
  8
3
100
AcDbDimension
  2
*D15
 10
2620.763211750756
 20
5156.462913529579
 30
0.0
 11
2412.35008885611
 21
4578.962913529578
 31
0.0
 12
643.7938563937384
 22
1227.929602994241
 32
0.0
 71
     5
 42
-1.0
  3
Standard
100
AcDbAlignedDimension
 13
2319.366003609498
 23
4001.462913529579
 33
0.0
 14
2319.366003609498
 24
5156.462913529579
 34
0.0
 50
90.0
100
AcDbRotatedDimension
1001
ACAD
1000
DSTYLE
1002
{
1070
    40
1040
25.0
1002
}
  0
LINE
  5
7CF8
330
8186
100
AcDbEntity
  8
1
100
AcDbLine
 10
3321.223289427713
 20
1808.956000393227
 30
0.0
 11
3321.223289427713
 21
1908.956000393227
 31
0.0
  0
LINE
  5
7CF9
330
8186
100
AcDbEntity
  8
1
100
AcDbLine
 10
2149.366003609499
 20
3813.462913529579
 30
0.0
 11
2149.366003609499
 21
4098.462913529579
 31
0.0
  0
LINE
  5
7CFA
330
8186
100
AcDbEntity
  8
1
100
AcDbLine
 10
819.3660036094989
 20
3813.462913529579
 30
0.0
 11
819.3660036094989
 21
4098.462913529579
 31
0.0
  0
LINE
  5
7CFB
330
8186
100
AcDbEntity
  8
1
100
AcDbLine
 10
2072.566003609499
 20
3948.46291352958
 30
0.0
 11
2072.566003609499
 21
4048.462913529578
 31
0.0
  0
LINE
  5
7CFC
330
8186
100
AcDbEntity
  8
1
100
AcDbLine
 10
1666.166003609498
 20
3948.46291352958
 30
0.0
 11
1666.166003609498
 21
4048.462913529578
 31
0.0
  0
LINE
  5
7CFD
330
8186
100
AcDbEntity
  8
1
100
AcDbLine
 10
1048.366003609498
 20
3948.46291352958
 30
0.0
 11
1048.366003609498
 21
4048.462913529578
 31
0.0
  0
LINE
  5
7CFE
330
8186
100
AcDbEntity
  8
1
100
AcDbLine
 10
890.3660036094988
 20
3948.46291352958
 30
0.0
 11
890.3660036094988
 21
4048.462913529581
 31
0.0
  0
LINE
  5
7CFF
330
8186
100
AcDbEntity
  8
1
100
AcDbLine
 10
2149.366003609499
 20
3813.462913529579
 30
0.0
 11
819.3660036094989
 21
3813.462913529579
 31
0.0
  0
LINE
  5
7D00
330
8186
100
AcDbEntity
  8
1
100
AcDbLine
 10
2149.366003609499
 20
4098.462913529579
 30
0.0
 11
819.3660036094989
 21
4098.462913529579
 31
0.0
  0
LINE
  5
7D01
330
8186
100
AcDbEntity
  8
1
100
AcDbLine
 10
2072.566003609499
 20
4048.462913529578
 30
0.0
 11
1666.166003609498
 21
4048.462913529578
 31
0.0
  0
LINE
  5
7D02
330
8186
100
AcDbEntity
  8
1
100
AcDbLine
 10
2072.566003609499
 20
3948.46291352958
 30
0.0
 11
1666.166003609498
 21
3948.46291352958
 31
0.0
  0
LINE
  5
7D03
330
8186
100
AcDbEntity
  8
1
100
AcDbLine
 10
1048.366003609498
 20
4048.462913529578
 30
0.0
 11
890.3660036094988
 21
4048.462913529578
 31
0.0
  0
LINE
  5
7D04
330
8186
100
AcDbEntity
  8
1
100
AcDbLine
 10
1048.366003609498
 20
3948.46291352958
 30
0.0
 11
890.3660036094988
 21
3948.46291352958
 31
0.0
  0
LINE
  5
7D05
330
8186
100
AcDbEntity
  8
1
100
AcDbLine
 10
2375.366003609499
 20
4203.462913529577
 30
0.0
 11
1110.366003609499
 21
4203.46291352958
 31
0.0
  0
LINE
  5
7D06
330
8186
100
AcDbEntity
  8
1
100
AcDbLine
 10
2375.366003609499
 20
5103.462913529579
 30
0.0
 11
1110.366003609499
 21
5103.462913529579
 31
0.0
  0
LINE
  5
7D09
330
8186
100
AcDbEntity
  8
1
100
AcDbLine
 10
1894.366003609499
 20
4203.46291352958
 30
0.0
 11
1894.366003609499
 21
4048.462913529578
 31
0.0
  0
LINE
  5
7D0A
330
8186
100
AcDbEntity
  8
1
100
AcDbLine
 10
1844.366003609499
 20
4203.46291352958
 30
0.0
 11
1844.366003609499
 21
4048.462913529578
 31
0.0
  0
LINE
  5
7D0B
330
8186
100
AcDbEntity
  8
1
100
AcDbLine
 10
1131.366003609499
 20
4066.462913529579
 30
0.0
 11
1131.366003609499
 21
4203.46291352958
 31
0.0
  0
LINE
  5
7D0C
330
8186
100
AcDbEntity
  8
1
100
AcDbLine
 10
807.3660036094988
 20
4066.462913529579
 30
0.0
 11
807.3660036094988
 21
4551.462913529578
 31
0.0
  0
LINE
  5
7D0D
330
8186
100
AcDbEntity
  8
1
100
AcDbLine
 10
1110.366003609499
 20
4551.462913529578
 30
0.0
 11
807.3660036094988
 21
4551.462913529578
 31
0.0
  0
LINE
  5
7D0E
330
8186
100
AcDbEntity
  8
1
100
AcDbLine
 10
1131.366003609499
 20
4066.462913529579
 30
0.0
 11
807.3660036094988
 21
4066.462913529579
 31
0.0
  0
LINE
  5
7D0F
330
8186
100
AcDbEntity
  8
1
100
AcDbLine
 10
990.3660036094988
 20
4066.462913529579
 30
0.0
 11
990.3660036094988
 21
4048.462913529578
 31
0.0
  0
LINE
  5
7D10
330
8186
100
AcDbEntity
  8
1
100
AcDbLine
 10
948.3660036094988
 20
4066.462913529579
 30
0.0
 11
948.3660036094988
 21
4048.462913529578
 31
0.0
  0
LINE
  5
7D11
330
8186
100
AcDbEntity
  8
1
100
AcDbLine
 10
3387.223289427709
 20
2320.956000393231
 30
0.0
 11
3420.725289627752
 21
2320.956000393231
 31
0.0
  0
LINE
  5
7D12
330
8186
100
AcDbEntity
  8
1
100
AcDbLine
 10
3387.223289427709
 20
1996.956000393231
 30
0.0
 11
3523.223289427712
 21
1996.956000393231
 31
0.0
  0
LINE
  5
7D13
330
8186
100
AcDbEntity
  8
1
100
AcDbLine
 10
3387.223289427709
 20
1996.956000393231
 30
0.0
 11
3387.223289427709
 21
2320.956000393231
 31
0.0
  0
LINE
  5
7D14
330
8186
100
AcDbEntity
  8
1
100
AcDbLine
 10
3387.223289427709
 20
2137.956000393231
 30
0.0
 11
3369.22328942771
 21
2137.956000393231
 31
0.0
  0
LINE
  5
7D15
330
8186
100
AcDbEntity
  8
1
100
AcDbLine
 10
3387.223289427709
 20
2179.956000393231
 30
0.0
 11
3369.22328942771
 21
2179.956000393231
 31
0.0
  0
LINE
  5
7D16
330
8186
100
AcDbEntity
  8
1
100
AcDbLine
 10
3510.723289427711
 20
2320.956000393231
 30
0.0
 11
3523.223289427712
 21
2320.956000393231
 31
0.0
  0
LINE
  5
7D1D
330
8186
100
AcDbEntity
  8
1
100
AcDbLine
 10
4476.223289427713
 20
1808.956000393227
 30
0.0
 11
4476.223289427713
 21
1908.956000393227
 31
0.0
  0
DIMENSION
  5
7D1E
330
8186
100
AcDbEntity
  8
3
100
AcDbDimension
  2
*D16
 10
2597.450986778873
 20
2448.956000393227
 30
0.0
 11
2389.037863884226
 21
2698.956000393228
 31
0.0
 12
643.7938563937384
 22
1940.362522171828
 32
0.0
 71
     5
 42
-1.0
  3
Standard
100
AcDbAlignedDimension
 13
1882.366003609499
 23
2948.956000393229
 33
0.0
 14
2491.631842414928
 24
2448.956000393227
 34
0.0
 50
90.0
100
AcDbRotatedDimension
1001
ACAD
1000
DSTYLE
1002
{
1070
    40
1040
25.0
1002
}
  0
DIMENSION
  5
7D21
330
8186
100
AcDbEntity
  8
3
100
AcDbDimension
  2
*D18
 10
2597.450986778873
 20
1681.956000393227
 30
0.0
 11
2534.950986778872
 21
1467.670286107513
 31
0.0
 71
     5
 42
-1.0
  3
Standard
100
AcDbAlignedDimension
 13
2319.366003609498
 23
1781.956000393227
 33
0.0
 14
2319.366003609498
 24
1681.956000393227
 34
0.0
 50
90.0
100
AcDbRotatedDimension
1001
ACAD
1000
DSTYLE
1002
{
1070
   287
1070
     3
1070
   287
1070
     3
1070
    40
1040
25.0
1070
   143
1040
0.039
1070
   172
1070
     1
1070
   271
1070
     0
1070
   279
1070
     0
1070
   288
1070
     1
1070
     6
1000
DOT
1002
}
  0
LINE
  5
7D25
330
8186
100
AcDbEntity
  8
1
100
AcDbLine
 10
1110.366003609499
 20
5103.462913529579
 30
0.0
 11
1110.366003609499
 21
4203.46291352958
 31
0.0
  0
LINE
  5
7D26
330
8186
100
AcDbEntity
  8
1
100
AcDbLine
 10
2375.366003609499
 20
5103.462913529579
 30
0.0
 11
2375.366003609499
 21
4203.462913529577
 31
0.0
  0
LINE
  5
7D27
330
8186
100
AcDbEntity
  8
1
100
AcDbLine
 10
1840.366003609499
 20
5103.462913529579
 30
0.0
 11
1840.366003609499
 21
4203.46291352958
 31
0.0
  0
LINE
  5
7D28
330
8186
100
AcDbEntity
  8
1
100
AcDbLine
 10
1840.366003609499
 20
5103.462913529579
 30
0.0
 11
1110.366003609499
 21
4203.46291352958
 31
0.0
  0
LINE
  5
7D29
330
8186
100
AcDbEntity
  8
1
100
AcDbLine
 10
1110.366003609499
 20
5103.462913529579
 30
0.0
 11
1840.366003609499
 21
4203.46291352958
 31
0.0
  0
LINE
  5
7D2A
330
8186
100
AcDbEntity
  8
1
100
AcDbLine
 10
2319.366003609498
 20
4203.462913529577
 30
0.0
 11
2319.366003609498
 21
4001.46291352958
 31
0.0
  0
LINE
  5
7D2B
330
8186
100
AcDbEntity
  8
1
100
AcDbLine
 10
3483.223289427712
 20
2945.956000393227
 30
0.0
 11
4463.223289427713
 21
2945.956000393227
 31
0.0
  0
LINE
  5
7D2C
330
8186
100
AcDbEntity
  8
1
100
AcDbLine
 10
3483.223289427712
 20
2945.956000393227
 30
0.0
 11
3483.223289427713
 21
2948.956000393227
 31
0.0
  0
LINE
  5
7D2D
330
8186
100
AcDbEntity
  8
1
100
AcDbLine
 10
4463.223289427713
 20
2945.956000393227
 30
0.0
 11
4463.223289427713
 21
2948.956000393227
 31
0.0
  0
LINE
  5
7F58
330
8186
100
AcDbEntity
  8
4
100
AcDbLine
 10
4625.0
 20
1250.0
 30
0.0
 11
4625.0
 21
750.0
 31
0.0
  0
LINE
  5
7F59
330
8186
100
AcDbEntity
  8
4
100
AcDbLine
 10
2875.0
 20
1250.0
 30
0.0
 11
2875.0
 21
750.0
 31
0.0
  0
LINE
  5
7F5A
330
8186
100
AcDbEntity
  8
4
100
AcDbLine
 10
1625.0
 20
1250.0
 30
0.0
 11
1625.0
 21
750.0
 31
0.0
  0
LINE
  5
7F5D
330
8186
100
AcDbEntity
  8
4
100
AcDbLine
 10
1625.0
 20
750.0
 30
0.0
 11
4625.0
 21
750.0
 31
0.0
  0
LINE
  5
7F5E
330
8186
100
AcDbEntity
  8
4
100
AcDbLine
 10
1625.0
 20
1000.0
 30
0.0
 11
4625.0
 21
1000.0
 31
0.0
  0
TEXT
  5
7F5F
330
8186
100
AcDbEntity
  8
4
100
AcDbText
 10
1721.255202117253
 20
1078.857564666532
 30
0.0
 40
125.0
  1
機器名称
100
AcDbText
  0
TEXT
  5
7F60
330
8186
100
AcDbEntity
  8
4
100
AcDbText
 10
1715.645265061993
 20
804.1128918300273
 30
0.0
 40
125.0
  1
機器型番
100
AcDbText
  0
TEXT
  5
7F61
330
8186
100
AcDbEntity
  8
4
100
AcDbText
 10
2944.196863719162
 20
1056.429422393921
 30
0.0
 40
125.0
  1
ミツヤ多翼送風機
100
AcDbText
  0
TEXT
  5
7F62
330
8186
100
AcDbEntity
  8
4
100
AcDbText
 10
2966.636238963701
 20
792.8989606998584
 30
0.0
 40
125.0
  1
MF#4 1/2-5
100
AcDbText
  0
TEXT
  5
7F64
330
8186
100
AcDbEntity
  8
4
100
AcDbText
 10
2011.143671690759
 20
5958.572103331289
 30
0.0
 40
135.0
  1
床置防振ベット
100
AcDbText
  0
TEXT
  5
7F65
330
8186
100
AcDbEntity
  8
4
100
AcDbText
 10
790.4189833236158
 20
6334.702440498245
 30
0.0
 40
180.0
  1
遠心式両吸込両持多翼ファン
100
AcDbText
  0
LINE
  5
7F66
330
8186
100
AcDbEntity
  8
4
100
AcDbLine
 10
625.0
 20
6173.521885662012
 30
0.0
 11
4625.0
 21
6173.521885662012
 31
0.0
  0
LINE
  5
7F67
330
8186
100
AcDbEntity
  8
4
100
AcDbLine
 10
625.0
 20
6673.521885662011
 30
0.0
 11
4625.0
 21
6673.521885662011
 31
0.0
  0
LINE
  5
7F68
330
8186
100
AcDbEntity
  8
4
100
AcDbLine
 10
1625.0
 20
1250.0
 30
0.0
 11
4625.0
 21
1250.0
 31
0.0
  0
LINE
  5
7F69
330
8186
100
AcDbEntity
  8
4
100
AcDbLine
 10
625.0
 20
6673.521885662011
 30
0.0
 11
625.0
 21
6173.521885662012
 31
0.0
  0
TEXT
  5
7F6A
330
8186
100
AcDbEntity
  8
4
100
AcDbText
 10
921.4965910840033
 20
5955.798693865858
 30
0.0
 40
135.0
  1
右回転上向
100
AcDbText
  0
TEXT
  5
7F6B
330
8186
100
AcDbEntity
  8
4
100
AcDbText
 10
3672.423898123224
 20
6765.15270373827
 30
0.0
 40
140.0
  1
No.
100
AcDbText
  0
TEXT
  5
7F6C
330
8186
100
AcDbEntity
  8
4
100
AcDbText
 10
3278.240156500032
 20
5958.572103331289
 30
0.0
 40
135.0
  1
縮尺：1/25
100
AcDbText
  0
LINE
  5
7F6D
330
8186
100
AcDbEntity
  8
4
100
AcDbLine
 10
4625.0
 20
6673.521885662011
 30
0.0
 11
4625.0
 21
6173.521885662012
 31
0.0
  0
LINE
  5
7F6E
330
8186
100
AcDbEntity
  8
4
100
AcDbLine
 10
5250.0
 20
7375.0
 30
0.0
 11
5250.0
 21
7375.0
 31
0.0
  0
LINE
  5
7F6F
330
8186
100
AcDbEntity
  8
4
100
AcDbLine
 10
3601.543555899662
 20
6703.158957813504
 30
0.0
 11
3601.543555899662
 21
6966.630653874381
 31
0.0
  0
LINE
  5
7F70
330
8186
100
AcDbEntity
  8
4
100
AcDbLine
 10
3601.543555899662
 20
6966.630653874381
 30
0.0
 11
4625.0
 21
6966.630653874381
 31
0.0
  0
LINE
  5
7F71
330
8186
100
AcDbEntity
  8
4
100
AcDbLine
 10
4625.0
 20
6966.630653874381
 30
0.0
 11
4625.0
 21
6703.158957813504
 31
0.0
  0
LINE
  5
7F72
330
8186
100
AcDbEntity
  8
4
100
AcDbLine
 10
4625.0
 20
6703.158957813504
 30
0.0
 11
3601.543555899662
 21
6703.158957813504
 31
0.0
  0
LINE
  5
7F73
330
8186
100
AcDbEntity
  8
4
100
AcDbLine
 10
0.0
 20
0.0
 30
0.0
 11
0.0
 21
7375.0
 31
0.0
  0
LINE
  5
7F74
330
8186
100
AcDbEntity
  8
4
100
AcDbLine
 10
0.0
 20
7375.0
 30
0.0
 11
5250.0
 21
7375.0
 31
0.0
  0
LINE
  5
7F75
330
8186
100
AcDbEntity
  8
4
100
AcDbLine
 10
5250.0
 20
7375.0
 30
0.0
 11
5250.0
 21
0.0
 31
0.0
  0
LINE
  5
7F76
330
8186
100
AcDbEntity
  8
4
100
AcDbLine
 10
5250.0
 20
0.0
 30
0.0
 11
0.0
 21
0.0
 31
0.0
  0
DIMENSION
  5
8041
330
8186
100
AcDbEntity
  8
3
100
AcDbDimension
  2
*D22
 10
1869.366003609499
 20
1511.108227928494
 30
0.0
 11
1294.366003609499
 21
1573.608227928494
 31
0.0
 71
     5
 42
-1.0
  3
Standard
100
AcDbAlignedDimension
 13
719.3660036094987
 23
1681.956000393227
 33
0.0
 14
1869.366003609499
 24
1681.956000393227
 34
0.0
100
AcDbRotatedDimension
1001
ACAD
1000
DSTYLE
1002
{
1070
   172
1070
     1
1070
    40
1040
25.0
1070
    42
1040
1.0
1070
   271
1070
     0
1070
   143
1040
0.039
1002
}
  0
DIMENSION
  5
804E
330
8186
100
AcDbEntity
  8
3
100
AcDbDimension
  2
*D23
 10
2319.366003609498
 20
1511.108227928494
 30
0.0
 11
2094.366003609498
 21
1573.608227928494
 31
0.0
 71
     5
 42
-1.0
  3
Standard
100
AcDbAlignedDimension
 13
1869.366003609499
 23
1681.956000393227
 33
0.0
 14
2319.366003609498
 24
1681.956000393227
 34
0.0
100
AcDbRotatedDimension
1001
ACAD
1000
DSTYLE
1002
{
1070
   172
1070
     1
1070
    40
1040
25.0
1070
    42
1040
1.0
1070
   271
1070
     0
1070
   143
1040
0.039
1002
}
  0
DIMENSION
  5
805B
330
8186
100
AcDbEntity
  8
3
100
AcDbDimension
  2
*D24
 10
3973.223289427713
 20
1511.108227928494
 30
0.0
 11
3647.223289427714
 21
1573.608227928494
 31
0.0
 71
     5
 42
-1.0
  3
Standard
100
AcDbAlignedDimension
 13
3321.223289427713
 23
1681.956000393227
 33
0.0
 14
3973.223289427713
 24
1681.956000393227
 34
0.0
100
AcDbRotatedDimension
1001
ACAD
1000
DSTYLE
1002
{
1070
   172
1070
     1
1070
    40
1040
25.0
1070
    42
1040
1.0
1070
   271
1070
     0
1070
   143
1040
0.039
1002
}
  0
DIMENSION
  5
8068
330
8186
100
AcDbEntity
  8
3
100
AcDbDimension
  2
*D25
 10
4476.223289427713
 20
1511.108227928494
 30
0.0
 11
4224.723289427713
 21
1573.608227928494
 31
0.0
 71
     5
 42
-1.0
  3
Standard
100
AcDbAlignedDimension
 13
3973.223289427713
 23
1681.956000393227
 33
0.0
 14
4476.223289427713
 24
1681.956000393227
 34
0.0
100
AcDbRotatedDimension
1001
ACAD
1000
DSTYLE
1002
{
1070
   172
1070
     1
1070
    40
1040
25.0
1070
    42
1040
1.0
1070
   271
1070
     0
1070
   143
1040
0.039
1002
}
  0
DIMENSION
  5
8077
330
8186
100
AcDbEntity
  8
3
100
AcDbDimension
  2
*D27
 10
2594.699106065772
 20
1808.956000393227
 30
0.0
 11
2714.341963208628
 21
1795.456000393227
 31
0.0
 71
     5
 42
-1.0
  3
Standard
100
AcDbAlignedDimension
 13
2319.366003609498
 23
1781.956000393227
 33
0.0
 14
2319.366003609498
 24
1808.956000393227
 34
0.0
 50
90.0
100
AcDbRotatedDimension
1001
ACAD
1000
DSTYLE
1002
{
1070
   172
1070
     1
1070
    76
1070
     1
1070
    75
1070
     1
1070
    40
1040
25.0
1070
     3
1000
(<>)
1070
    42
1040
1.0
1070
   271
1070
     0
1070
     7
1000
_NONE
1070
     6
1000
_NONE
1070
   143
1040
0.039
1002
}
  0
DIMENSION
  5
8084
330
8186
100
AcDbEntity
  8
3
100
AcDbDimension
  2
*D28
 10
2796.924033545052
 20
2948.956000393229
 30
0.0
 11
2714.781176402194
 21
2315.456000393227
 31
0.0
 71
     5
 42
-1.0
  3
Standard
100
AcDbAlignedDimension
 13
2319.366003609498
 23
1681.956000393227
 33
0.0
 14
1907.366003609499
 24
2948.956000393229
 34
0.0
 50
90.0
100
AcDbRotatedDimension
1001
ACAD
1000
DSTYLE
1002
{
1070
   172
1070
     1
1070
    40
1040
25.0
1070
     3
1000
(<>)
1070
    42
1040
1.0
1070
   271
1070
     0
1070
   143
1040
0.039
1002
}
  0
DIMENSION
  5
8256
330
8186
100
AcDbEntity
  8
3
100
AcDbDimension
  2
*D30
 10
3973.223289427714
 20
3298.272067842816
 30
0.0
 11
3553.223289427716
 21
3380.414924985674
 31
0.0
 70
    32
  1
(<>)
 71
     5
 42
839.9999999999968
  3
IGA
100
AcDbAlignedDimension
 13
3133.223289427717
 23
2728.956000393227
 33
0.0
 14
3973.223289427714
 24
3221.973968814646
 34
0.0
100
AcDbRotatedDimension
1001
ACAD
1000
DSTYLE
1002
{
1070
    40
1040
25.0
1070
    42
1040
1.0
1070
   143
1040
0.039
1070
   172
1070
     1
1070
   271
1070
     4
1070
   272
1070
     4
1070
   279
1070
     0
1070
   284
1070
     0
1070
   285
1070
     0
1070
   286
1070
     0
1070
   341
1005
819A
1070
   343
1005
819A
1070
   344
1005
819A
1002
}
  0
DIMENSION
  5
8263
330
8186
100
AcDbEntity
  8
3
100
AcDbDimension
  2
*D31
 10
4533.223289427714
 20
3298.272067842816
 30
0.0
 11
4253.223289427714
 21
3380.414924985674
 31
0.0
 70
    32
  1
(<>)
 71
     5
 42
560.0
  3
IGA
100
AcDbAlignedDimension
 13
3973.223289427714
 23
3221.973968814646
 33
0.0
 14
4533.223289427714
 24
2423.756000393226
 34
0.0
100
AcDbRotatedDimension
1001
ACAD
1000
DSTYLE
1002
{
1070
    40
1040
25.0
1070
    42
1040
1.0
1070
   143
1040
0.039
1070
   172
1070
     1
1070
   271
1070
     4
1070
   272
1070
     4
1070
   279
1070
     1
1070
   284
1070
     0
1070
   285
1070
     0
1070
   286
1070
     0
1070
   341
1005
819A
1070
   343
1005
819A
1070
   344
1005
819A
1002
}
  0
DIMENSION
  5
82BB
330
8186
100
AcDbEntity
  8
3
100
AcDbDimension
  2
*D32
 10
2319.366003609498
 20
3650.23288387775
 30
0.0
 11
1519.366003609498
 21
3712.73288387775
 31
0.0
 70
    32
 71
     5
 42
1599.999999999999
  3
IGA
100
AcDbAlignedDimension
 13
719.3660036094987
 23
4001.46291352958
 33
0.0
 14
2319.366003609498
 24
4001.462913529579
 34
0.0
100
AcDbRotatedDimension
1001
ACAD
1000
DSTYLE
1002
{
1070
    40
1040
25.0
1070
    42
1040
1.0
1070
   143
1040
0.039
1070
   172
1070
     1
1070
   271
1070
     4
1070
   272
1070
     4
1070
   279
1070
     0
1070
   284
1070
     0
1070
   285
1070
     0
1070
   286
1070
     0
1070
   341
1005
819A
1070
   343
1005
819A
1070
   344
1005
819A
1002
}
  0
LINE
  5
82C8
330
8186
100
AcDbEntity
  8
2
100
AcDbLine
 10
2414.366003609499
 20
2448.956000393227
 30
0.0
 11
1039.314719152357
 21
2448.956000393227
 31
0.0
  0
LINE
  5
82C9
330
8186
100
AcDbEntity
  8
2
100
AcDbLine
 10
1869.366003609499
 20
3071.221839198657
 30
0.0
 11
1869.366003609499
 21
1773.929522890622
 31
0.0
  0
LINE
  5
82CB
330
8186
100
AcDbEntity
  8
1
100
AcDbLine
 10
1110.724513232679
 20
2945.956000393227
 30
0.0
 11
1173.69185725365
 21
2419.046763237285
 31
0.0
  0
ARC
  5
82CC
330
8186
100
AcDbEntity
  8
1
100
AcDbCircle
 10
1816.3660036095
 20
2501.956000393229
 30
0.0
 40
648.0
100
AcDbArc
 50
187.3509360175293
 51
246.2232656341104
  0
ARC
  5
82CD
330
8186
100
AcDbEntity
  8
1
100
AcDbCircle
 10
1816.3660036095
 20
2395.956000393229
 30
0.0
 40
541.9999999999998
100
AcDbArc
 50
296.0352751318408
 51
5.611691433105804
  0
ARC
  5
82CE
330
8186
100
AcDbEntity
  8
1
100
AcDbCircle
 10
1910.3660036095
 20
2407.956000393229
 30
0.0
 40
448.0
100
AcDbArc
 50
5.250934316547994
 51
90.0
  0
ARC
  5
82CF
330
8186
100
AcDbEntity
  8
1
100
AcDbCircle
 10
1910.366003609499
 20
2489.956000393229
 30
0.0
 40
366.0
100
AcDbArc
 50
90.0
 51
101.0261404812884
  0
LINE
  5
82D0
330
8186
100
AcDbEntity
  8
1
100
AcDbLine
 10
1840.366003609499
 20
2948.956000393229
 30
0.0
 11
1840.366003609499
 21
2849.199650302312
 31
0.0
  0
LINE
  5
82D1
330
8186
100
AcDbEntity
  8
1
100
AcDbLine
 10
1068.3660036095
 20
2948.956000393227
 30
0.0
 11
1882.366003609499
 21
2948.956000393229
 31
0.0
  0
LINE
  5
82D2
330
8186
100
AcDbEntity
  8
1
100
AcDbLine
 10
1068.3660036095
 20
2948.956000393227
 30
0.0
 11
1068.3660036095
 21
2945.956000393227
 31
0.0
  0
LINE
  5
82D3
330
8186
100
AcDbEntity
  8
1
100
AcDbLine
 10
1882.366003609499
 20
2948.956000393229
 30
0.0
 11
1882.366003609499
 21
2945.956000393227
 31
0.0
  0
LINE
  5
82D4
330
8186
100
AcDbEntity
  8
1
100
AcDbLine
 10
1113.815235182103
 20
2908.956000393227
 30
0.0
 11
1840.366003609499
 21
2908.956000393227
 31
0.0
  0
LINE
  5
82D5
330
8186
100
AcDbEntity
  8
1
100
AcDbLine
 10
1068.3660036095
 20
2945.956000393227
 30
0.0
 11
1882.366003609499
 21
2945.956000393227
 31
0.0
  0
POINT
  5
82D6
330
8186
100
AcDbEntity
  8
1
100
AcDbPoint
 10
1869.366003609499
 20
2909.138572857679
 30
0.0
 50
270.0
  0
LINE
  5
82D7
330
8186
100
AcDbEntity
  8
1
100
AcDbLine
 10
1869.366003609499
 20
2952.43780602572
 30
0.0
 11
1869.366003609499
 21
2968.111111442036
 31
0.0
  0
CIRCLE
  5
82D8
330
8186
100
AcDbEntity
  8
1
100
AcDbCircle
 10
1869.366003609499
 20
2448.956000393227
 30
0.0
 40
375.0
  0
CIRCLE
  5
82D9
330
8186
100
AcDbEntity
  8
1
100
AcDbCircle
 10
1869.366003609499
 20
2448.956000393227
 30
0.0
 40
415.0
  0
DIMENSION
  5
82E0
330
8186
100
AcDbEntity
  8
3
100
AcDbDimension
  2
*D34
 10
2358.3660036095
 20
3250.772157646118
 30
0.0
 11
2113.8660036095
 21
3313.272157646118
 31
0.0
 70
    32
 71
     5
 42
489.0000000000005
  3
IGA
100
AcDbAlignedDimension
 13
1869.366003609499
 23
3071.221839198657
 33
0.0
 14
2358.3660036095
 24
2395.956000393229
 34
0.0
100
AcDbRotatedDimension
1001
ACAD
1000
DSTYLE
1002
{
1070
    40
1040
25.0
1070
    42
1040
1.0
1070
   143
1040
0.039
1070
   172
1070
     1
1070
   271
1070
     4
1070
   272
1070
     4
1070
   279
1070
     0
1070
   284
1070
     0
1070
   285
1070
     0
1070
   286
1070
     0
1070
   341
1005
819A
1070
   343
1005
819A
1070
   344
1005
819A
1002
}
  0
DIMENSION
  5
82F6
330
8186
100
AcDbEntity
  8
3
100
AcDbDimension
  2
*D35
 10
2358.3660036095
 20
3402.514003035845
 30
0.0
 11
1538.866003609499
 21
3465.014003035845
 31
0.0
 70
    32
 71
     5
 42
1639.000000000001
  3
IGA
100
AcDbAlignedDimension
 13
719.3660036094987
 23
1908.956000393227
 33
0.0
 14
2358.3660036095
 24
2395.956000393229
 34
0.0
100
AcDbRotatedDimension
1001
ACAD
1000
DSTYLE
1002
{
1070
    40
1040
25.0
1070
    42
1040
1.0
1070
   143
1040
0.039
1070
   172
1070
     1
1070
   271
1070
     4
1070
   272
1070
     4
1070
   279
1070
     0
1070
   284
1070
     0
1070
   285
1070
     0
1070
   286
1070
     0
1070
   341
1005
819A
1070
   343
1005
819A
1070
   344
1005
819A
1002
}
  0
DIMENSION
  5
8303
330
8186
100
AcDbEntity
  8
3
100
AcDbDimension
  2
*D36
 10
2594.699106065772
 20
1808.956000393227
 30
0.0
 11
2532.199106065771
 21
2128.956000393228
 31
0.0
 70
    32
 71
     5
 42
640.0
  3
IGA
100
AcDbAlignedDimension
 13
2491.631842414928
 23
2448.956000393227
 33
0.0
 14
2319.366003609498
 24
1808.956000393227
 34
0.0
 50
90.0
100
AcDbRotatedDimension
1001
ACAD
1000
DSTYLE
1002
{
1070
    40
1040
25.0
1070
    42
1040
1.0
1070
   143
1040
0.039
1070
   172
1070
     1
1070
   271
1070
     4
1070
   272
1070
     4
1070
   279
1070
     0
1070
   284
1070
     0
1070
   285
1070
     0
1070
   286
1070
     0
1070
   341
1005
819A
1070
   343
1005
819A
1070
   344
1005
819A
1002
}
  0
ENDSEC
  0
SECTION
  2
OBJECTS
  0
DICTIONARY
  5
8123
330
0
100
AcDbDictionary
281
     1
  3
ACAD_CIP_PREVIOUS_PRODUCT_INFO
350
81D0
  3
ACAD_COLOR
350
8179
  3
ACAD_DETAILVIEWSTYLE
350
8180
  3
ACAD_GROUP
350
8124
  3
ACAD_LAYOUT
350
8178
  3
ACAD_MATERIAL
350
8127
  3
ACAD_MLEADERSTYLE
350
817C
  3
ACAD_MLINESTYLE
350
8175
  3
ACAD_PLOTSETTINGS
350
8177
  3
ACAD_PLOTSTYLENAME
350
8125
  3
ACAD_SCALELIST
350
8159
  3
ACAD_SECTIONVIEWSTYLE
350
817E
  3
ACAD_TABLESTYLE
350
817A
  3
ACAD_VISUALSTYLE
350
8140
  3
ACDB_RECOMPOSE_DATA
350
8405
  3
AcDbVariableDictionary
350
8208
  3
DWGPROPS
350
8406
  0
DICTIONARY
  5
81D2
330
8119
100
AcDbDictionary
280
     1
281
     1
  3
ACAD_LAYERSTATES
360
81D3
  0
DICTIONARY
  5
81FE
330
816B
100
AcDbDictionary
280
     1
281
     1
  3
ADSK_XREC_LAYER_RECONCILED
360
81FF
  0
DICTIONARY
  5
8200
330
818A
100
AcDbDictionary
280
     1
281
     1
  3
ADSK_XREC_LAYER_RECONCILED
360
8201
  0
DICTIONARY
  5
8202
330
818D
100
AcDbDictionary
280
     1
281
     1
  3
ADSK_XREC_LAYER_RECONCILED
360
8203
  0
DICTIONARY
  5
8204
330
818E
100
AcDbDictionary
280
     1
281
     1
  3
ADSK_XREC_LAYER_RECONCILED
360
8205
  0
DICTIONARY
  5
8206
330
818F
100
AcDbDictionary
280
     1
281
     1
  3
ADSK_XREC_LAYER_RECONCILED
360
8207
  0
DICTIONARY
  5
81E7
330
81D4
100
AcDbDictionary
280
     1
281
     1
  3
ACAD_SORTENTS
360
81E8
  0
XRECORD
  5
81D0
102
{ACAD_REACTORS
330
8123
102
}
330
8123
100
AcDbXrecord
280
     1
300
ACDLT
300
2015
300
INVLTS_F_S
  0
DICTIONARY
  5
8179
102
{ACAD_REACTORS
330
8123
102
}
330
8123
100
AcDbDictionary
281
     1
  0
DICTIONARY
  5
8180
102
{ACAD_REACTORS
330
8123
102
}
330
8123
100
AcDbDictionary
281
     1
  3
Imperial24
350
8181
  0
DICTIONARY
  5
8124
102
{ACAD_REACTORS
330
8123
102
}
330
8123
100
AcDbDictionary
281
     1
  0
DICTIONARY
  5
8178
102
{ACAD_REACTORS
330
8123
102
}
330
8123
100
AcDbDictionary
281
     1
  3
Model
350
8189
  3
レイアウト1
350
8185
  0
DICTIONARY
  5
8127
102
{ACAD_REACTORS
330
8123
102
}
330
8123
100
AcDbDictionary
281
     1
  3
ByBlock
350
8130
  3
ByLayer
350
8128
  3
Global
350
8138
  0
DICTIONARY
  5
817C
102
{ACAD_REACTORS
330
8123
102
}
330
8123
100
AcDbDictionary
281
     1
  3
Standard
350
817D
  0
DICTIONARY
  5
8175
102
{ACAD_REACTORS
330
8123
102
}
330
8123
100
AcDbDictionary
281
     1
  3
Standard
350
8176
  0
DICTIONARY
  5
8177
102
{ACAD_REACTORS
330
8123
102
}
330
8123
100
AcDbDictionary
281
     1
  0
ACDBDICTIONARYWDFLT
  5
8125
102
{ACAD_REACTORS
330
8123
102
}
330
8123
100
AcDbDictionary
281
     1
  3
Normal
350
8126
100
AcDbDictionaryWithDefault
340
8126
  0
DICTIONARY
  5
8159
102
{ACAD_REACTORS
330
8123
102
}
330
8123
100
AcDbDictionary
281
     1
  3
A0
350
815A
  3
A1
350
815B
  3
A2
350
815C
  3
A3
350
815D
  3
A4
350
815E
  3
A5
350
815F
  3
A6
350
8160
  3
A7
350
8161
  3
A8
350
8162
  3
A9
350
8163
  3
B0
350
8164
  3
B1
350
8165
  3
B2
350
8166
  3
B3
350
8167
  3
B4
350
8168
  3
B5
350
8169
  3
B6
350
816A
  0
DICTIONARY
  5
817E
102
{ACAD_REACTORS
330
8123
102
}
330
8123
100
AcDbDictionary
281
     1
  3
Imperial24
350
817F
  0
DICTIONARY
  5
817A
102
{ACAD_REACTORS
330
8123
102
}
330
8123
100
AcDbDictionary
281
     1
  3
Standard
350
817B
  0
DICTIONARY
  5
8140
102
{ACAD_REACTORS
330
8123
102
}
330
8123
100
AcDbDictionary
281
     1
  3
2dWireframe
350
8146
  3
Basic
350
8145
  3
Brighten
350
814C
  3
ColorChange
350
8150
  3
Conceptual
350
8149
  3
Dim
350
814B
  3
EdgeColorOff
350
8158
  3
Facepattern
350
814F
  3
Flat
350
8141
  3
FlatWithEdges
350
8142
  3
Gouraud
350
8143
  3
GouraudWithEdges
350
8144
  3
Hidden
350
8148
  3
JitterOff
350
8156
  3
Linepattern
350
814E
  3
OverhangOff
350
8157
  3
Realistic
350
814A
  3
Shaded
350
8155
  3
Shaded with edges
350
8154
  3
Shades of Gray
350
8151
  3
Sketchy
350
8152
  3
Thicken
350
814D
  3
Wireframe
350
8147
  3
X-Ray
350
8153
  0
XRECORD
  5
8405
102
{ACAD_REACTORS
330
8123
102
}
330
8123
100
AcDbXrecord
280
     1
 90
        1
330
817B
  0
DICTIONARY
  5
8208
102
{ACAD_REACTORS
330
8123
102
}
330
8123
100
AcDbDictionary
281
     1
  3
CANNOSCALE
350
820D
  3
CMLEADERSTYLE
350
820A
  3
CTABLESTYLE
350
8209
  3
CVIEWDETAILSTYLE
350
820B
  3
CVIEWSECTIONSTYLE
350
820C
  3
DIMASSOC
350
8210
  3
INDEXCTL
350
820F
  3
SORTENTS
350
820E
  3
XCLIPFRAME
350
8211
  0
XRECORD
  5
8406
102
{ACAD_REACTORS
330
8123
102
}
330
8123
100
AcDbXrecord
280
     1
  1
DWGPROPS COOKIE
  2

  3

  4

  6

  7

  8
yasukiyo.ogawa
  9

300
=
301
=
302
=
303
=
304
=
305
=
306
=
307
=
308
=
309
=
 40
0.054909837962963
 41
2451387.592638426
 42
2460263.705543357
  1

 90
        0
  0
DICTIONARY
  5
81D3
102
{ACAD_REACTORS
330
81D2
102
}
330
81D2
100
AcDbDictionary
281
     1
  0
XRECORD
  5
81FF
102
{ACAD_REACTORS
330
81FE
102
}
330
81FE
100
AcDbXrecord
280
     1
290
     1
  0
XRECORD
  5
8201
102
{ACAD_REACTORS
330
8200
102
}
330
8200
100
AcDbXrecord
280
     1
290
     1
  0
XRECORD
  5
8203
102
{ACAD_REACTORS
330
8202
102
}
330
8202
100
AcDbXrecord
280
     1
290
     1
  0
XRECORD
  5
8205
102
{ACAD_REACTORS
330
8204
102
}
330
8204
100
AcDbXrecord
280
     1
290
     1
  0
XRECORD
  5
8207
102
{ACAD_REACTORS
330
8206
102
}
330
8206
100
AcDbXrecord
280
     1
290
     1
  0
SORTENTSTABLE
  5
81E8
102
{ACAD_REACTORS
330
81E7
102
}
330
81E7
100
AcDbSortentsTable
330
81D4
  0
ACDBDETAILVIEWSTYLE
  5
8181
102
{ACAD_XDICTIONARY
360
843E
102
}
102
{ACAD_REACTORS
330
8180
102
}
330
8180
100
AcDbModelDocViewStyle
 70
     0
  3
Imperial24
290
     0
100
AcDbDetailViewStyle
 70
     0
 71
     0
 90
        3
 71
     1
340
816C
 40
0.24
340
0
 40
0.24
300

 40
0.36
280
     3
 71
     2
340
8173
 90
       25
 71
     3
340
816C
 40
0.24
 90
        1
 40
0.75
 90
        1
300
%<\AcVar ViewType \f "%tc1">% %<\AcVar ViewDetailId>%\PSCALE %<\AcVar ViewScale \f "%sn">%
 71
     4
340
8173
 90
       25
340
8173
 90
       25
280
     0
  0
LAYOUT
  5
8189
102
{ACAD_XDICTIONARY
360
8442
102
}
102
{ACAD_REACTORS
330
8178
102
}
330
8178
100
AcDbPlotSettings
  1

  2
RICOH imagio MP W3600 RPCS
  4

  6

 40
0.0
 41
0.0
 42
0.0
 43
0.0
 44
0.0
 45
0.0
 46
0.0
 47
0.0
 48
0.0
 49
0.0
140
0.0
141
0.0
142
1.0
143
1.0
 70
  1712
 72
     0
 73
     0
 74
     0
  7

 75
     0
147
1.0
148
0.0
149
0.0
100
AcDbLayout
  1
Model
 70
     1
 71
     0
 10
0.0
 20
0.0
 11
12.0
 21
9.0
 12
0.0
 22
0.0
 32
0.0
 14
0.0
 24
0.0
 34
0.0
 15
0.0
 25
0.0
 35
0.0
146
0.0
 13
0.0
 23
0.0
 33
0.0
 16
1.0
 26
0.0
 36
0.0
 17
0.0
 27
1.0
 37
0.0
 76
     0
330
8186
331
818B
  0
LAYOUT
  5
8185
102
{ACAD_XDICTIONARY
360
8440
102
}
102
{ACAD_REACTORS
330
8178
102
}
330
8178
100
AcDbPlotSettings
  1

  2
RICOH imagio MP W3600 RPCS
  4

  6

 40
0.0
 41
0.0
 42
0.0
 43
0.0
 44
0.0
 45
0.0
 46
0.0
 47
0.0
 48
0.0
 49
0.0
140
0.0
141
0.0
142
1.0
143
1.0
 70
   688
 72
     0
 73
     0
 74
     5
  7

 75
    16
147
1.0
148
0.0
149
0.0
100
AcDbLayout
  1
レイアウト1
 70
     1
 71
     1
 10
0.0
 20
0.0
 11
12.0
 21
9.0
 12
0.0
 22
0.0
 32
0.0
 14
1.000000000000000E+20
 24
1.000000000000000E+20
 34
1.000000000000000E+20
 15
-1.000000000000000E+20
 25
-1.000000000000000E+20
 35
-1.000000000000000E+20
146
0.0
 13
0.0
 23
0.0
 33
0.0
 16
1.0
 26
0.0
 36
0.0
 17
0.0
 27
1.0
 37
0.0
 76
     0
330
8182
  0
MATERIAL
  5
8130
102
{ACAD_XDICTIONARY
360
8131
102
}
102
{ACAD_REACTORS
330
8127
102
}
330
8127
100
AcDbMaterial
  1
ByBlock
 72
     0
 43
0.0208333333333333
 43
0.0
 43
0.0
 43
0.0
 43
0.0
 43
0.0208333333333333
 43
0.0
 43
0.0
 43
0.0
 43
0.0
 43
1.0
 43
0.0
 43
0.0
 43
0.0
 43
0.0
 43
1.0
 77
     0
 47
0.0208333333333333
 47
0.0
 47
0.0
 47
0.0
 47
0.0
 47
0.0208333333333333
 47
0.0
 47
0.0
 47
0.0
 47
0.0
 47
1.0
 47
0.0
 47
0.0
 47
0.0
 47
0.0
 47
1.0
171
     0
 49
0.0208333333333333
 49
0.0
 49
0.0
 49
0.0
 49
0.0
 49
0.0208333333333333
 49
0.0
 49
0.0
 49
0.0
 49
0.0
 49
1.0
 49
0.0
 49
0.0
 49
0.0
 49
0.0
 49
1.0
175
     0
142
0.0208333333333333
142
0.0
142
0.0
142
0.0
142
0.0
142
0.0208333333333333
142
0.0
142
0.0
142
0.0
142
0.0
142
1.0
142
0.0
142
0.0
142
0.0
142
0.0
142
1.0
179
     0
144
0.0208333333333333
144
0.0
144
0.0
144
0.0
144
0.0
144
0.0208333333333333
144
0.0
144
0.0
144
0.0
144
0.0
144
1.0
144
0.0
144
0.0
144
0.0
144
0.0
144
1.0
147
0.0208333333333333
147
0.0
147
0.0
147
0.0
147
0.0
147
0.0208333333333333
147
0.0
147
0.0
147
0.0
147
0.0
147
1.0
147
0.0
147
0.0
147
0.0
147
0.0
147
1.0
  0
MATERIAL
  5
8128
102
{ACAD_XDICTIONARY
360
8129
102
}
102
{ACAD_REACTORS
330
8127
102
}
330
8127
100
AcDbMaterial
  1
ByLayer
 72
     0
 43
0.0208333333333333
 43
0.0
 43
0.0
 43
0.0
 43
0.0
 43
0.0208333333333333
 43
0.0
 43
0.0
 43
0.0
 43
0.0
 43
1.0
 43
0.0
 43
0.0
 43
0.0
 43
0.0
 43
1.0
 77
     0
 47
0.0208333333333333
 47
0.0
 47
0.0
 47
0.0
 47
0.0
 47
0.0208333333333333
 47
0.0
 47
0.0
 47
0.0
 47
0.0
 47
1.0
 47
0.0
 47
0.0
 47
0.0
 47
0.0
 47
1.0
171
     0
 49
0.0208333333333333
 49
0.0
 49
0.0
 49
0.0
 49
0.0
 49
0.0208333333333333
 49
0.0
 49
0.0
 49
0.0
 49
0.0
 49
1.0
 49
0.0
 49
0.0
 49
0.0
 49
0.0
 49
1.0
175
     0
142
0.0208333333333333
142
0.0
142
0.0
142
0.0
142
0.0
142
0.0208333333333333
142
0.0
142
0.0
142
0.0
142
0.0
142
1.0
142
0.0
142
0.0
142
0.0
142
0.0
142
1.0
179
     0
144
0.0208333333333333
144
0.0
144
0.0
144
0.0
144
0.0
144
0.0208333333333333
144
0.0
144
0.0
144
0.0
144
0.0
144
1.0
144
0.0
144
0.0
144
0.0
144
0.0
144
1.0
147
0.0208333333333333
147
0.0
147
0.0
147
0.0
147
0.0
147
0.0208333333333333
147
0.0
147
0.0
147
0.0
147
0.0
147
1.0
147
0.0
147
0.0
147
0.0
147
0.0
147
1.0
  0
MATERIAL
  5
8138
102
{ACAD_XDICTIONARY
360
8139
102
}
102
{ACAD_REACTORS
330
8127
102
}
330
8127
100
AcDbMaterial
  1
Global
 72
     0
 43
0.0208333333333333
 43
0.0
 43
0.0
 43
0.0
 43
0.0
 43
0.0208333333333333
 43
0.0
 43
0.0
 43
0.0
 43
0.0
 43
1.0
 43
0.0
 43
0.0
 43
0.0
 43
0.0
 43
1.0
 77
     0
 47
0.0208333333333333
 47
0.0
 47
0.0
 47
0.0
 47
0.0
 47
0.0208333333333333
 47
0.0
 47
0.0
 47
0.0
 47
0.0
 47
1.0
 47
0.0
 47
0.0
 47
0.0
 47
0.0
 47
1.0
171
     0
 49
0.0208333333333333
 49
0.0
 49
0.0
 49
0.0
 49
0.0
 49
0.0208333333333333
 49
0.0
 49
0.0
 49
0.0
 49
0.0
 49
1.0
 49
0.0
 49
0.0
 49
0.0
 49
0.0
 49
1.0
175
     0
142
0.0208333333333333
142
0.0
142
0.0
142
0.0
142
0.0
142
0.0208333333333333
142
0.0
142
0.0
142
0.0
142
0.0
142
1.0
142
0.0
142
0.0
142
0.0
142
0.0
142
1.0
179
     0
144
0.0208333333333333
144
0.0
144
0.0
144
0.0
144
0.0
144
0.0208333333333333
144
0.0
144
0.0
144
0.0
144
0.0
144
1.0
144
0.0
144
0.0
144
0.0
144
0.0
144
1.0
147
0.0208333333333333
147
0.0
147
0.0
147
0.0
147
0.0
147
0.0208333333333333
147
0.0
147
0.0
147
0.0
147
0.0
147
1.0
147
0.0
147
0.0
147
0.0
147
0.0
147
1.0
  0
MLEADERSTYLE
  5
817D
102
{ACAD_REACTORS
330
817C
102
}
330
817C
100
AcDbMLeaderStyle
170
     2
171
     1
172
     0
 90
        2
 40
0.0
 41
0.0
173
     1
 91
-1056964608
340
8171
 92
       -2
290
     1
 42
0.09
291
     1
 43
0.36
  3
Standard
 44
0.18
300

342
816C
174
     1
178
     6
175
     1
176
     0
 93
-1056964608
 45
0.18
292
     0
297
     0
 46
0.18
 94
-1056964608
 47
1.0
 49
1.0
140
1.0
293
     1
141
0.0
294
     1
177
     0
142
1.0
295
     0
296
     0
143
0.125
1001
ACAD_MLEADERVER
1070
     2
  0
MLINESTYLE
  5
8176
102
{ACAD_REACTORS
330
8175
102
}
330
8175
100
AcDbMlineStyle
  2
STANDARD
 70
     0
  3

 62
   256
 51
90.0
 52
90.0
 71
     2
 49
0.5
 62
   256
  6
BYLAYER
 49
-0.5
 62
   256
  6
BYLAYER
  0
ACDBPLACEHOLDER
  5
8126
102
{ACAD_REACTORS
330
8125
102
}
330
8125
  0
SCALE
  5
815A
102
{ACAD_REACTORS
330
8159
102
}
330
8159
100
AcDbScale
 70
     0
300
1:1
140
1.0
141
1.0
290
     1
  0
SCALE
  5
815B
102
{ACAD_REACTORS
330
8159
102
}
330
8159
100
AcDbScale
 70
     0
300
1/128" = 1'-0"
140
0.0078125
141
12.0
290
     0
  0
SCALE
  5
815C
102
{ACAD_REACTORS
330
8159
102
}
330
8159
100
AcDbScale
 70
     0
300
1/64" = 1'-0"
140
0.015625
141
12.0
290
     0
  0
SCALE
  5
815D
102
{ACAD_REACTORS
330
8159
102
}
330
8159
100
AcDbScale
 70
     0
300
1/32" = 1'-0"
140
0.03125
141
12.0
290
     0
  0
SCALE
  5
815E
102
{ACAD_REACTORS
330
8159
102
}
330
8159
100
AcDbScale
 70
     0
300
1/16" = 1'-0"
140
0.0625
141
12.0
290
     0
  0
SCALE
  5
815F
102
{ACAD_REACTORS
330
8159
102
}
330
8159
100
AcDbScale
 70
     0
300
3/32" = 1'-0"
140
0.09375
141
12.0
290
     0
  0
SCALE
  5
8160
102
{ACAD_REACTORS
330
8159
102
}
330
8159
100
AcDbScale
 70
     0
300
1/8" = 1'-0"
140
0.125
141
12.0
290
     0
  0
SCALE
  5
8161
102
{ACAD_REACTORS
330
8159
102
}
330
8159
100
AcDbScale
 70
     0
300
3/16" = 1'-0"
140
0.1875
141
12.0
290
     0
  0
SCALE
  5
8162
102
{ACAD_REACTORS
330
8159
102
}
330
8159
100
AcDbScale
 70
     0
300
1/4" = 1'-0"
140
0.25
141
12.0
290
     0
  0
SCALE
  5
8163
102
{ACAD_REACTORS
330
8159
102
}
330
8159
100
AcDbScale
 70
     0
300
3/8" = 1'-0"
140
0.375
141
12.0
290
     0
  0
SCALE
  5
8164
102
{ACAD_REACTORS
330
8159
102
}
330
8159
100
AcDbScale
 70
     0
300
1/2" = 1'-0"
140
0.5
141
12.0
290
     0
  0
SCALE
  5
8165
102
{ACAD_REACTORS
330
8159
102
}
330
8159
100
AcDbScale
 70
     0
300
3/4" = 1'-0"
140
0.75
141
12.0
290
     0
  0
SCALE
  5
8166
102
{ACAD_REACTORS
330
8159
102
}
330
8159
100
AcDbScale
 70
     0
300
1" = 1'-0"
140
1.0
141
12.0
290
     0
  0
SCALE
  5
8167
102
{ACAD_REACTORS
330
8159
102
}
330
8159
100
AcDbScale
 70
     0
300
1-1/2" = 1'-0"
140
1.5
141
12.0
290
     0
  0
SCALE
  5
8168
102
{ACAD_REACTORS
330
8159
102
}
330
8159
100
AcDbScale
 70
     0
300
3" = 1'-0"
140
3.0
141
12.0
290
     0
  0
SCALE
  5
8169
102
{ACAD_REACTORS
330
8159
102
}
330
8159
100
AcDbScale
 70
     0
300
6" = 1'-0"
140
6.0
141
12.0
290
     0
  0
SCALE
  5
816A
102
{ACAD_REACTORS
330
8159
102
}
330
8159
100
AcDbScale
 70
     0
300
1'-0" = 1'-0"
140
12.0
141
12.0
290
     0
  0
ACDBSECTIONVIEWSTYLE
  5
817F
102
{ACAD_XDICTIONARY
360
843C
102
}
102
{ACAD_REACTORS
330
817E
102
}
330
817E
100
AcDbModelDocViewStyle
 70
     0
  3
Imperial24
290
     0
100
AcDbSectionViewStyle
 70
     0
 71
     0
 90
       78
 71
     1
340
816C
 40
0.24
340
0
340
0
 40
0.24
300
I, O, Q, S, X, Z
 40
0.48
 90
        3
 40
0.18
 90
        1
 71
     2
340
8173
 90
       25
340
8173
 90
       50
 40
0.24
 40
0.0
 40
0.24
 71
     3
340
816C
 40
0.24
 90
        1
 40
0.75
 90
        1
300
%<\AcVar ViewType \f "%tc1">% %<\AcVar ViewSectionStartId>%-%<\AcVar ViewSectionEndId>%\PSCALE %<\AcVar ViewScale \f "%sn">%
 71
     4
300
ANSI31
 40
1.0
 90
        0
290
     0
290
     0
 90
        6
 40
0.0
 40
1.570796326794896
 40
0.2617993877991494
 40
1.308996938995747
 40
-0.2617993877991494
 40
1.832595714594046
  0
TABLESTYLE
  5
817B
102
{ACAD_XDICTIONARY
360
8403
102
}
102
{ACAD_REACTORS
330
817A
102
}
330
817A
100
AcDbTableStyle
  3
Standard
 70
     0
 71
     0
 40
0.06
 41
0.06
280
     0
281
     0
  7
STANDARD
140
0.18
170
     2
 62
     0
 63
     7
283
     0
274
    -2
284
     1
 64
     0
275
    -2
285
     1
 65
     0
276
    -2
286
     1
 66
     0
277
    -2
287
     1
 67
     0
278
    -2
288
     1
 68
     0
279
    -2
289
     1
 69
     0
  7
STANDARD
140
0.25
170
     5
 62
     0
 63
     7
283
     0
274
    -2
284
     1
 64
     0
275
    -2
285
     1
 65
     0
276
    -2
286
     1
 66
     0
277
    -2
287
     1
 67
     0
278
    -2
288
     1
 68
     0
279
    -2
289
     1
 69
     0
  7
STANDARD
140
0.18
170
     5
 62
     0
 63
     7
283
     0
274
    -2
284
     1
 64
     0
275
    -2
285
     1
 65
     0
276
    -2
286
     1
 66
     0
277
    -2
287
     1
 67
     0
278
    -2
288
     1
 68
     0
279
    -2
289
     1
 69
     0
  0
VISUALSTYLE
  5
8146
102
{ACAD_XDICTIONARY
360
8414
102
}
102
{ACAD_REACTORS
330
8140
102
}
330
8140
100
AcDbVisualStyle
  2
2dWireframe
 70
     4
 71
     0
 72
     2
 73
     0
 90
        0
 40
-0.6
 41
-30.0
 62
     5
 63
     7
 74
     1
 91
        4
 64
     7
 65
   257
 75
     1
175
     1
 42
1.0
 92
        0
 66
   257
 43
1.0
 76
     1
 77
     6
 78
     2
 67
     7
 79
     5
170
     0
171
     0
290
     0
174
     0
 93
        1
 44
0.0
173
     0
291
     0
 45
0.0
1001
ACAD
1000
AcDbSavedByObjectVersion
1070
     0
  0
VISUALSTYLE
  5
8145
102
{ACAD_XDICTIONARY
360
8412
102
}
102
{ACAD_REACTORS
330
8140
102
}
330
8140
100
AcDbVisualStyle
  2
Basic
 70
     7
 71
     1
 72
     0
 73
     1
 90
        0
 40
-0.6
 41
-30.0
 62
     5
 63
     7
 74
     0
 91
        4
 64
     7
 65
   257
 75
     1
175
     1
 42
1.0
 92
        8
 66
     7
 43
1.0
 76
     1
 77
     6
 78
     2
 67
     7
 79
     5
170
     0
171
     0
290
     0
174
     0
 93
        1
 44
0.0
173
     0
291
     1
 45
0.0
1001
ACAD
1000
AcDbSavedByObjectVersion
1070
     0
  0
VISUALSTYLE
  5
814C
102
{ACAD_XDICTIONARY
360
8420
102
}
102
{ACAD_REACTORS
330
8140
102
}
330
8140
100
AcDbVisualStyle
  2
Brighten
 70
    12
 71
     2
 72
     2
 73
     0
 90
        0
 40
-0.6
 41
-30.0
 62
     5
 63
     7
 74
     1
 91
        4
 64
     7
 65
   257
 75
     1
175
     1
 42
1.0
 92
        8
 66
     7
 43
1.0
 76
     1
 77
     6
 78
     2
 67
     7
 79
     5
170
     0
171
     0
290
     0
174
     0
 93
        1
 44
50.0
173
     0
291
     1
 45
0.0
1001
ACAD
1000
AcDbSavedByObjectVersion
1070
     0
  0
VISUALSTYLE
  5
8150
102
{ACAD_XDICTIONARY
360
8428
102
}
102
{ACAD_REACTORS
330
8140
102
}
330
8140
100
AcDbVisualStyle
  2
ColorChange
 70
    16
 71
     2
 72
     2
 73
     3
 90
        0
 40
-0.6
 41
-30.0
 62
     5
 63
     8
 74
     1
 91
        4
 64
     7
 65
   257
 75
     1
175
     1
 42
1.0
 92
        8
 66
     8
 43
1.0
 76
     1
 77
     6
 78
     2
 67
     7
 79
     5
170
     0
171
     0
290
     0
174
     0
 93
        1
 44
0.0
173
     0
291
     1
 45
0.0
1001
ACAD
1000
AcDbSavedByObjectVersion
1070
     0
  0
VISUALSTYLE
  5
8149
102
{ACAD_XDICTIONARY
360
841A
102
}
102
{ACAD_REACTORS
330
8140
102
}
330
8140
100
AcDbVisualStyle
  2
Conceptual
 70
     9
 71
     3
 72
     2
 73
     0
 90
        0
 40
-0.6
 41
-30.0
 62
     5
 63
     7
 74
     2
 91
        2
 64
     7
 65
   257
 75
     1
175
     1
 42
179.0
 92
        8
 66
     7
 43
1.0
 76
     1
 77
     6
 78
     2
 67
     7
 79
     3
170
     0
171
     0
290
     0
174
     0
 93
        1
 44
0.0
173
     0
291
     0
 45
0.0
1001
ACAD
1000
AcDbSavedByObjectVersion
1070
     0
  0
VISUALSTYLE
  5
814B
102
{ACAD_XDICTIONARY
360
841E
102
}
102
{ACAD_REACTORS
330
8140
102
}
330
8140
100
AcDbVisualStyle
  2
Dim
 70
    11
 71
     2
 72
     2
 73
     0
 90
        0
 40
-0.6
 41
-30.0
 62
     5
 63
     7
 74
     1
 91
        4
 64
     7
 65
   257
 75
     1
175
     1
 42
1.0
 92
        8
 66
     7
 43
1.0
 76
     1
 77
     6
 78
     2
 67
     7
 79
     5
170
     0
171
     0
290
     0
174
     0
 93
        1
 44
-50.0
173
     0
291
     1
 45
0.0
1001
ACAD
1000
AcDbSavedByObjectVersion
1070
     0
  0
VISUALSTYLE
  5
8158
102
{ACAD_XDICTIONARY
360
8438
102
}
102
{ACAD_REACTORS
330
8140
102
}
330
8140
100
AcDbVisualStyle
  2
EdgeColorOff
 70
    22
 71
     2
 72
     2
 73
     0
 90
        0
 40
-0.6
 41
-30.0
 62
     5
 63
     7
 74
     1
 91
        4
 64
     7
 65
   257
 75
     1
175
     1
 42
1.0
 92
        8
 66
     7
 43
1.0
 76
     1
 77
     6
 78
     2
 67
     7
 79
     5
170
     0
171
     0
290
     0
174
     0
 93
        1
 44
0.0
173
     0
291
     1
 45
0.0
1001
ACAD
1000
AcDbSavedByObjectVersion
1070
     0
  0
VISUALSTYLE
  5
814F
102
{ACAD_XDICTIONARY
360
8426
102
}
102
{ACAD_REACTORS
330
8140
102
}
330
8140
100
AcDbVisualStyle
  2
Facepattern
 70
    15
 71
     2
 72
     2
 73
     0
 90
        0
 40
-0.6
 41
-30.0
 62
     5
 63
     7
 74
     1
 91
        4
 64
     7
 65
   257
 75
     1
175
     1
 42
1.0
 92
        8
 66
     7
 43
1.0
 76
     1
 77
     6
 78
     2
 67
     7
 79
     5
170
     0
171
     0
290
     0
174
     0
 93
        1
 44
0.0
173
     0
291
     1
 45
0.0
1001
ACAD
1000
AcDbSavedByObjectVersion
1070
     0
  0
VISUALSTYLE
  5
8141
102
{ACAD_XDICTIONARY
360
840A
102
}
102
{ACAD_REACTORS
330
8140
102
}
330
8140
100
AcDbVisualStyle
  2
Flat
 70
     0
 71
     2
 72
     1
 73
     1
 90
        2
 40
-0.6
 41
30.0
 62
     5
 63
     7
 74
     0
 91
        0
 64
     7
 65
   257
 75
     1
175
     1
 42
1.0
 92
        8
 66
     7
 43
1.0
 76
     1
 77
     6
 78
     2
 67
     7
 79
     5
170
     0
171
     0
290
     0
174
     0
 93
       13
 44
0.0
173
     0
291
     1
 45
0.0
1001
ACAD
1000
AcDbSavedByObjectVersion
1070
     0
  0
VISUALSTYLE
  5
8142
102
{ACAD_XDICTIONARY
360
840C
102
}
102
{ACAD_REACTORS
330
8140
102
}
330
8140
100
AcDbVisualStyle
  2
FlatWithEdges
 70
     1
 71
     2
 72
     1
 73
     1
 90
        2
 40
-0.6
 41
30.0
 62
     5
 63
     7
 74
     1
 91
        0
 64
     7
 65
   257
 75
     1
175
     1
 42
1.0
 92
        0
 66
   257
 43
1.0
 76
     1
 77
     6
 78
     2
 67
     7
 79
     5
170
     0
171
     0
290
     0
174
     0
 93
       13
 44
0.0
173
     0
291
     1
 45
0.0
1001
ACAD
1000
AcDbSavedByObjectVersion
1070
     0
  0
VISUALSTYLE
  5
8143
102
{ACAD_XDICTIONARY
360
840E
102
}
102
{ACAD_REACTORS
330
8140
102
}
330
8140
100
AcDbVisualStyle
  2
Gouraud
 70
     2
 71
     2
 72
     2
 73
     1
 90
        2
 40
-0.6
 41
30.0
 62
     5
 63
     7
 74
     0
 91
        0
 64
     7
 65
   257
 75
     1
175
     1
 42
1.0
 92
        0
 66
     7
 43
1.0
 76
     1
 77
     6
 78
     2
 67
     7
 79
     5
170
     0
171
     0
290
     0
174
     0
 93
       13
 44
0.0
173
     0
291
     1
 45
0.0
1001
ACAD
1000
AcDbSavedByObjectVersion
1070
     0
  0
VISUALSTYLE
  5
8144
102
{ACAD_XDICTIONARY
360
8410
102
}
102
{ACAD_REACTORS
330
8140
102
}
330
8140
100
AcDbVisualStyle
  2
GouraudWithEdges
 70
     3
 71
     2
 72
     2
 73
     1
 90
        2
 40
-0.6
 41
30.0
 62
     5
 63
     7
 74
     1
 91
        0
 64
     7
 65
   257
 75
     1
175
     1
 42
1.0
 92
        0
 66
   257
 43
1.0
 76
     1
 77
     6
 78
     2
 67
     7
 79
     5
170
     0
171
     0
290
     0
174
     0
 93
       13
 44
0.0
173
     0
291
     1
 45
0.0
1001
ACAD
1000
AcDbSavedByObjectVersion
1070
     0
  0
VISUALSTYLE
  5
8148
102
{ACAD_XDICTIONARY
360
8418
102
}
102
{ACAD_REACTORS
330
8140
102
}
330
8140
100
AcDbVisualStyle
  2
Hidden
 70
     6
 71
     1
 72
     2
 73
     2
 90
        0
 40
-0.6
 41
-30.0
 62
     5
 63
     7
 74
     2
 91
        2
 64
     7
 65
   257
 75
     2
175
     1
 42
40.0
 92
        0
 66
   257
 43
1.0
 76
     1
 77
     6
 78
     2
 67
     7
 79
     3
170
     0
171
     0
290
     0
174
     0
 93
        1
 44
0.0
173
     0
291
     0
 45
0.0
1001
ACAD
1000
AcDbSavedByObjectVersion
1070
     0
  0
VISUALSTYLE
  5
8156
102
{ACAD_XDICTIONARY
360
8434
102
}
102
{ACAD_REACTORS
330
8140
102
}
330
8140
100
AcDbVisualStyle
  2
JitterOff
 70
    20
 71
     2
 72
     2
 73
     0
 90
        0
 40
-0.6
 41
-30.0
 62
     5
 63
     7
 74
     1
 91
        4
 64
     7
 65
   257
 75
     1
175
     1
 42
1.0
 92
       10
 66
     7
 43
1.0
 76
     1
 77
     6
 78
     2
 67
     7
 79
     5
170
     0
171
     0
290
     0
174
     0
 93
        1
 44
0.0
173
     0
291
     1
 45
0.0
1001
ACAD
1000
AcDbSavedByObjectVersion
1070
     0
  0
VISUALSTYLE
  5
814E
102
{ACAD_XDICTIONARY
360
8424
102
}
102
{ACAD_REACTORS
330
8140
102
}
330
8140
100
AcDbVisualStyle
  2
Linepattern
 70
    14
 71
     2
 72
     2
 73
     0
 90
        0
 40
-0.6
 41
-30.0
 62
     5
 63
     7
 74
     1
 91
        4
 64
     7
 65
   257
 75
     7
175
     7
 42
1.0
 92
        8
 66
     7
 43
1.0
 76
     1
 77
     6
 78
     2
 67
     7
 79
     5
170
     0
171
     0
290
     0
174
     0
 93
        1
 44
0.0
173
     0
291
     1
 45
0.0
1001
ACAD
1000
AcDbSavedByObjectVersion
1070
     0
  0
VISUALSTYLE
  5
8157
102
{ACAD_XDICTIONARY
360
8436
102
}
102
{ACAD_REACTORS
330
8140
102
}
330
8140
100
AcDbVisualStyle
  2
OverhangOff
 70
    21
 71
     2
 72
     2
 73
     0
 90
        0
 40
-0.6
 41
-30.0
 62
     5
 63
     7
 74
     1
 91
        4
 64
     7
 65
   257
 75
     1
175
     1
 42
1.0
 92
        9
 66
     7
 43
1.0
 76
     1
 77
     6
 78
     2
 67
     7
 79
     5
170
     0
171
     0
290
     0
174
     0
 93
        1
 44
0.0
173
     0
291
     1
 45
0.0
1001
ACAD
1000
AcDbSavedByObjectVersion
1070
     0
  0
VISUALSTYLE
  5
814A
102
{ACAD_XDICTIONARY
360
841C
102
}
102
{ACAD_REACTORS
330
8140
102
}
330
8140
100
AcDbVisualStyle
  2
Realistic
 70
     8
 71
     2
 72
     3
 73
     0
 90
        2
 40
-0.6
 41
30.0
 62
     5
 63
     7
 74
     0
 91
        0
 64
     7
 65
   257
 75
     1
175
     1
 42
1.0
 92
        8
 66
   257
 43
1.0
 76
     1
 77
     6
 78
     2
 67
     7
 79
     3
170
     0
171
     0
290
     0
174
     0
 93
       13
 44
0.0
173
     0
291
     0
 45
0.0
1001
ACAD
1000
AcDbSavedByObjectVersion
1070
     0
  0
VISUALSTYLE
  5
8155
102
{ACAD_XDICTIONARY
360
8432
102
}
102
{ACAD_REACTORS
330
8140
102
}
330
8140
100
AcDbVisualStyle
  2
Shaded
 70
    27
 71
     2
 72
     2
 73
     1
 90
        2
 40
-0.6
 41
30.0
 62
     5
 63
     7
 74
     0
 91
        4
 64
     7
 65
   257
 75
     1
175
     1
 42
1.0
 92
        8
 66
   257
 43
1.0
 76
     1
 77
     6
 78
     2
 67
     8
 79
     3
170
     0
171
     0
290
     0
174
     0
 93
        5
 44
0.0
173
     0
291
     0
 45
0.0
1001
ACAD
1000
AcDbSavedByObjectVersion
1070
     0
  0
VISUALSTYLE
  5
8154
102
{ACAD_XDICTIONARY
360
8430
102
}
102
{ACAD_REACTORS
330
8140
102
}
330
8140
100
AcDbVisualStyle
  2
Shaded with edges
 70
    26
 71
     2
 72
     2
 73
     1
 90
        2
 40
-0.6
 41
30.0
 62
     5
 63
     7
 74
     1
 91
       10
 64
     7
 65
   257
 75
     2
175
     1
 42
1.0
 92
        8
 66
   257
 43
1.0
 76
     1
 77
     6
 78
     2
 67
     7
 79
     3
170
     0
171
     0
290
     0
174
     0
 93
        5
 44
0.0
173
     0
291
     0
 45
0.0
1001
ACAD
1000
AcDbSavedByObjectVersion
1070
     0
  0
VISUALSTYLE
  5
8151
102
{ACAD_XDICTIONARY
360
842A
102
}
102
{ACAD_REACTORS
330
8140
102
}
330
8140
100
AcDbVisualStyle
  2
Shades of Gray
 70
    23
 71
     2
 72
     2
 73
     3
 90
        0
 40
-0.6
 41
-30.0
 62
     5
 63
     7
 74
     2
 91
        2
 64
     7
 65
     7
 75
     1
175
     1
 42
40.0
 92
        8
 66
     7
 43
1.0
 76
     1
 77
     6
 78
     2
 67
     7
 79
     3
170
     0
171
     0
290
     0
174
     0
 93
        1
 44
0.0
173
     0
291
     0
 45
0.0
1001
ACAD
1000
AcDbSavedByObjectVersion
1070
     0
  0
VISUALSTYLE
  5
8152
102
{ACAD_XDICTIONARY
360
842C
102
}
102
{ACAD_REACTORS
330
8140
102
}
330
8140
100
AcDbVisualStyle
  2
Sketchy
 70
    24
 71
     1
 72
     2
 73
     2
 90
        0
 40
-0.6
 41
-30.0
 62
     5
 63
     7
 74
     2
 91
        2
 64
     7
 65
     7
 75
     1
175
     1
 42
40.0
 92
       11
 66
     7
 43
1.0
 76
     1
 77
     6
 78
     2
 67
     7
 79
     6
170
     0
171
     0
290
     0
174
     0
 93
        1
 44
0.0
173
     0
291
     0
 45
0.0
1001
ACAD
1000
AcDbSavedByObjectVersion
1070
     0
  0
VISUALSTYLE
  5
814D
102
{ACAD_XDICTIONARY
360
8422
102
}
102
{ACAD_REACTORS
330
8140
102
}
330
8140
100
AcDbVisualStyle
  2
Thicken
 70
    13
 71
     2
 72
     2
 73
     0
 90
        0
 40
-0.6
 41
-30.0
 62
     5
 63
     7
 74
     1
 91
        4
 64
     7
 65
   257
 75
     1
175
     1
 42
1.0
 92
       12
 66
     7
 43
1.0
 76
     1
 77
     6
 78
     2
 67
     7
 79
     5
170
     0
171
     0
290
     0
174
     0
 93
        1
 44
0.0
173
     0
291
     1
 45
0.0
1001
ACAD
1000
AcDbSavedByObjectVersion
1070
     0
  0
VISUALSTYLE
  5
8147
102
{ACAD_XDICTIONARY
360
8416
102
}
102
{ACAD_REACTORS
330
8140
102
}
330
8140
100
AcDbVisualStyle
  2
Wireframe
 70
     5
 71
     0
 72
     2
 73
     0
 90
        0
 40
-0.6
 41
-30.0
 62
     5
 63
     7
 74
     1
 91
        4
 64
     7
 65
   257
 75
     1
175
     1
 42
1.0
 92
        0
 66
   257
 43
1.0
 76
     1
 77
     6
 78
     2
 67
     7
 79
     3
170
     0
171
     0
290
     0
174
     0
 93
        1
 44
0.0
173
     0
291
     0
 45
0.0
1001
ACAD
1000
AcDbSavedByObjectVersion
1070
     0
  0
VISUALSTYLE
  5
8153
102
{ACAD_XDICTIONARY
360
842E
102
}
102
{ACAD_REACTORS
330
8140
102
}
330
8140
100
AcDbVisualStyle
  2
X-Ray
 70
    25
 71
     2
 72
     2
 73
     1
 90
        1
 40
0.5
 41
-30.0
 62
     5
 63
     7
 74
     1
 91
        0
 64
     7
 65
   257
 75
     1
175
     1
 42
1.0
 92
        8
 66
     7
 43
1.0
 76
     1
 77
     6
 78
     2
 67
     7
 79
     3
170
     0
171
     0
290
     0
174
     0
 93
       13
 44
0.0
173
     0
291
     0
 45
0.0
1001
ACAD
1000
AcDbSavedByObjectVersion
1070
     0
  0
DICTIONARYVAR
  5
820D
102
{ACAD_REACTORS
330
8208
102
}
330
8208
100
DictionaryVariables
280
     0
  1
1:1
  0
DICTIONARYVAR
  5
820A
102
{ACAD_REACTORS
330
8208
102
}
330
8208
100
DictionaryVariables
280
     0
  1
STANDARD
  0
DICTIONARYVAR
  5
8209
102
{ACAD_REACTORS
330
8208
102
}
330
8208
100
DictionaryVariables
280
     0
  1
STANDARD
  0
DICTIONARYVAR
  5
820B
102
{ACAD_REACTORS
330
8208
102
}
330
8208
100
DictionaryVariables
280
     0
  1
Imperial24
  0
DICTIONARYVAR
  5
820C
102
{ACAD_REACTORS
330
8208
102
}
330
8208
100
DictionaryVariables
280
     0
  1
Imperial24
  0
DICTIONARYVAR
  5
8210
102
{ACAD_REACTORS
330
8208
102
}
330
8208
100
DictionaryVariables
280
     0
  1
1
  0
DICTIONARYVAR
  5
820F
102
{ACAD_REACTORS
330
8208
102
}
330
8208
100
DictionaryVariables
280
     0
  1
0
  0
DICTIONARYVAR
  5
820E
102
{ACAD_REACTORS
330
8208
102
}
330
8208
100
DictionaryVariables
280
     0
  1
127
  0
DICTIONARYVAR
  5
8211
102
{ACAD_REACTORS
330
8208
102
}
330
8208
100
DictionaryVariables
280
     0
  1
2
  0
DICTIONARY
  5
843E
330
8181
100
AcDbDictionary
280
     1
281
     1
  3
ACAD_XREC_ROUNDTRIP
360
843F
  0
DICTIONARY
  5
8442
330
8189
100
AcDbDictionary
280
     1
281
     1
  3
ACAD_XREC_ROUNDTRIP
360
8443
  0
DICTIONARY
  5
8440
330
8185
100
AcDbDictionary
280
     1
281
     1
  3
ACAD_XREC_ROUNDTRIP
360
8441
  0
DICTIONARY
  5
8131
330
8130
100
AcDbDictionary
280
     1
281
     1
  3
ACAD_XREC_ROUNDTRIP
360
8408
  3
BUMPTILE
360
8133
  3
DIFFUSETILE
360
8132
  3
OPACITYTILE
360
8136
  3
REFLECTIONTILE
360
8135
  3
REFRACTIONTILE
360
8137
  3
SPECULARTILE
360
8134
  0
DICTIONARY
  5
8129
330
8128
100
AcDbDictionary
280
     1
281
     1
  3
ACAD_XREC_ROUNDTRIP
360
8407
  3
BUMPTILE
360
812B
  3
DIFFUSETILE
360
812A
  3
OPACITYTILE
360
812E
  3
REFLECTIONTILE
360
812D
  3
REFRACTIONTILE
360
812F
  3
SPECULARTILE
360
812C
  0
DICTIONARY
  5
8139
330
8138
100
AcDbDictionary
280
     1
281
     1
  3
ACAD_XREC_ROUNDTRIP
360
8409
  3
BUMPTILE
360
813B
  3
DIFFUSETILE
360
813A
  3
FBXASSET
360
8253
  3
OPACITYTILE
360
813E
  3
REFLECTIONTILE
360
813D
  3
REFRACTIONTILE
360
813F
  3
SPECULARTILE
360
813C
  0
DICTIONARY
  5
843C
330
817F
100
AcDbDictionary
280
     1
281
     1
  3
ACAD_XREC_ROUNDTRIP
360
843D
  0
DICTIONARY
  5
8403
330
817B
100
AcDbDictionary
280
     1
281
     1
  3
ACAD_ROUNDTRIP_2008_TABLESTYLE_CELLSTYLEMAP
360
8404
  3
ACAD_XREC_ROUNDTRIP
360
843A
  0
DICTIONARY
  5
8414
330
8146
100
AcDbDictionary
280
     1
281
     1
  3
ACAD_XREC_ROUNDTRIP
360
8415
  0
DICTIONARY
  5
8412
330
8145
100
AcDbDictionary
280
     1
281
     1
  3
ACAD_XREC_ROUNDTRIP
360
8413
  0
DICTIONARY
  5
8420
330
814C
100
AcDbDictionary
280
     1
281
     1
  3
ACAD_XREC_ROUNDTRIP
360
8421
  0
DICTIONARY
  5
8428
330
8150
100
AcDbDictionary
280
     1
281
     1
  3
ACAD_XREC_ROUNDTRIP
360
8429
  0
DICTIONARY
  5
841A
330
8149
100
AcDbDictionary
280
     1
281
     1
  3
ACAD_XREC_ROUNDTRIP
360
841B
  0
DICTIONARY
  5
841E
330
814B
100
AcDbDictionary
280
     1
281
     1
  3
ACAD_XREC_ROUNDTRIP
360
841F
  0
DICTIONARY
  5
8438
330
8158
100
AcDbDictionary
280
     1
281
     1
  3
ACAD_XREC_ROUNDTRIP
360
8439
  0
DICTIONARY
  5
8426
330
814F
100
AcDbDictionary
280
     1
281
     1
  3
ACAD_XREC_ROUNDTRIP
360
8427
  0
DICTIONARY
  5
840A
330
8141
100
AcDbDictionary
280
     1
281
     1
  3
ACAD_XREC_ROUNDTRIP
360
840B
  0
DICTIONARY
  5
840C
330
8142
100
AcDbDictionary
280
     1
281
     1
  3
ACAD_XREC_ROUNDTRIP
360
840D
  0
DICTIONARY
  5
840E
330
8143
100
AcDbDictionary
280
     1
281
     1
  3
ACAD_XREC_ROUNDTRIP
360
840F
  0
DICTIONARY
  5
8410
330
8144
100
AcDbDictionary
280
     1
281
     1
  3
ACAD_XREC_ROUNDTRIP
360
8411
  0
DICTIONARY
  5
8418
330
8148
100
AcDbDictionary
280
     1
281
     1
  3
ACAD_XREC_ROUNDTRIP
360
8419
  0
DICTIONARY
  5
8434
330
8156
100
AcDbDictionary
280
     1
281
     1
  3
ACAD_XREC_ROUNDTRIP
360
8435
  0
DICTIONARY
  5
8424
330
814E
100
AcDbDictionary
280
     1
281
     1
  3
ACAD_XREC_ROUNDTRIP
360
8425
  0
DICTIONARY
  5
8436
330
8157
100
AcDbDictionary
280
     1
281
     1
  3
ACAD_XREC_ROUNDTRIP
360
8437
  0
DICTIONARY
  5
841C
330
814A
100
AcDbDictionary
280
     1
281
     1
  3
ACAD_XREC_ROUNDTRIP
360
841D
  0
DICTIONARY
  5
8432
330
8155
100
AcDbDictionary
280
     1
281
     1
  3
ACAD_XREC_ROUNDTRIP
360
8433
  0
DICTIONARY
  5
8430
330
8154
100
AcDbDictionary
280
     1
281
     1
  3
ACAD_XREC_ROUNDTRIP
360
8431
  0
DICTIONARY
  5
842A
330
8151
100
AcDbDictionary
280
     1
281
     1
  3
ACAD_XREC_ROUNDTRIP
360
842B
  0
DICTIONARY
  5
842C
330
8152
100
AcDbDictionary
280
     1
281
     1
  3
ACAD_XREC_ROUNDTRIP
360
842D
  0
DICTIONARY
  5
8422
330
814D
100
AcDbDictionary
280
     1
281
     1
  3
ACAD_XREC_ROUNDTRIP
360
8423
  0
DICTIONARY
  5
8416
330
8147
100
AcDbDictionary
280
     1
281
     1
  3
ACAD_XREC_ROUNDTRIP
360
8417
  0
DICTIONARY
  5
842E
330
8153
100
AcDbDictionary
280
     1
281
     1
  3
ACAD_XREC_ROUNDTRIP
360
842F
  0
XRECORD
  5
843F
102
{ACAD_REACTORS
330
843E
102
}
330
843E
100
AcDbXrecord
280
     1
102
DISPLAYNAME
  1
Imperial24
102
FLAGS
 90
        0
  0
XRECORD
  5
8443
102
{ACAD_REACTORS
330
8442
102
}
330
8442
100
AcDbXrecord
280
     1
102
SHADEPLOT
 70
     0
102
SHADEPLOTRESLEVEL
 70
     2
102
SHADEPLOTCUSTOMDPI
 70
   300
  0
XRECORD
  5
8441
102
{ACAD_REACTORS
330
8440
102
}
330
8440
100
AcDbXrecord
280
     1
102
SHADEPLOT
 70
     0
102
SHADEPLOTRESLEVEL
 70
     2
102
SHADEPLOTCUSTOMDPI
 70
   300
  0
XRECORD
  5
8408
102
{ACAD_REACTORS
330
8131
102
}
330
8131
100
AcDbXrecord
280
     1
102
MATERIAL
148
0.0
149
0.0
149
0.0
 93
        0
 94
      127
282
     0
 72
     0
 77
     0
171
     0
175
     0
179
     0
273
     0
  0
XRECORD
  5
8133
102
{ACAD_REACTORS
330
8131
102
}
330
8131
100
AcDbXrecord
280
     1
270
     1
271
     1
  0
XRECORD
  5
8132
102
{ACAD_REACTORS
330
8131
102
}
330
8131
100
AcDbXrecord
280
     1
270
     1
271
     1
  0
XRECORD
  5
8136
102
{ACAD_REACTORS
330
8131
102
}
330
8131
100
AcDbXrecord
280
     1
270
     1
271
     1
  0
XRECORD
  5
8135
102
{ACAD_REACTORS
330
8131
102
}
330
8131
100
AcDbXrecord
280
     1
270
     1
271
     1
  0
XRECORD
  5
8137
102
{ACAD_REACTORS
330
8131
102
}
330
8131
100
AcDbXrecord
280
     1
270
     1
271
     1
  0
XRECORD
  5
8134
102
{ACAD_REACTORS
330
8131
102
}
330
8131
100
AcDbXrecord
280
     1
270
     1
271
     1
  0
XRECORD
  5
8407
102
{ACAD_REACTORS
330
8129
102
}
330
8129
100
AcDbXrecord
280
     1
102
MATERIAL
148
0.0
149
0.0
149
0.0
 93
        0
 94
      127
282
     0
 72
     0
 77
     0
171
     0
175
     0
179
     0
273
     0
  0
XRECORD
  5
812B
102
{ACAD_REACTORS
330
8129
102
}
330
8129
100
AcDbXrecord
280
     1
270
     1
271
     1
  0
XRECORD
  5
812A
102
{ACAD_REACTORS
330
8129
102
}
330
8129
100
AcDbXrecord
280
     1
270
     1
271
     1
  0
XRECORD
  5
812E
102
{ACAD_REACTORS
330
8129
102
}
330
8129
100
AcDbXrecord
280
     1
270
     1
271
     1
  0
XRECORD
  5
812D
102
{ACAD_REACTORS
330
8129
102
}
330
8129
100
AcDbXrecord
280
     1
270
     1
271
     1
  0
XRECORD
  5
812F
102
{ACAD_REACTORS
330
8129
102
}
330
8129
100
AcDbXrecord
280
     1
270
     1
271
     1
  0
XRECORD
  5
812C
102
{ACAD_REACTORS
330
8129
102
}
330
8129
100
AcDbXrecord
280
     1
270
     1
271
     1
  0
XRECORD
  5
8409
102
{ACAD_REACTORS
330
8139
102
}
330
8139
100
AcDbXrecord
280
     1
102
MATERIAL
148
0.0
149
0.0
149
0.0
 93
        0
 94
      127
282
     0
 72
     0
 77
     0
171
     0
175
     0
179
     0
273
     0
  0
XRECORD
  5
813B
102
{ACAD_REACTORS
330
8139
102
}
330
8139
100
AcDbXrecord
280
     1
270
     1
271
     1
  0
XRECORD
  5
813A
102
{ACAD_REACTORS
330
8139
102
}
330
8139
100
AcDbXrecord
280
     1
270
     1
271
     1
  0
XRECORD
  5
8253
102
{ACAD_REACTORS
330
8139
102
}
330
8139
100
AcDbXrecord
280
     1
 70
     1
 90
1959938040
 71
     1
  1
6AD88D5E-2FCB-4AFC-9626-5E7D0D922673
311
504B0304140006080800D77E6E57C1383D23BF000000200100004F00000045334543464345302D333844302D343631442D413036392D3145343639413646443936352F4173736574446174612F446566696E6974696F6E4974657261746F7250726F706572746965732E62696EEB606060F80F0540260323103700495E20ED
311
9E9A975A94991C9C9C919A9BC8C00612C9C94F4ACC6147C831019920AE4B6A5A62694E0948976F6671726A4E4E625E6A7E69B12042A9426E6209D0B8C41C3D90264E20860914834C48875806B2DF0F88414E02D189290556F689C5C5A925B6FA694915FA4EAEE666AECEC696BAC62E4E96BA26E6962EBA4EE64666BA06162E
311
2E4EAE26CE9646E64EFA45A9C5F9A545C9A9C5FA46FA06F15093E30BF2D2191822F857CB5D075A02720308130200504B0304140006080800D77E6E574C741CE5F0000000300200004500000045334543464345302D333844302D343631442D413036392D3145343639413646443936352F4173736574446174612F496E7374
311
616E636550726F706572746965732E62696EEB606060F80F0540260323103700495E20ED9E9A975A94991C9C9C919A9BA80214307374B1B0703175D535727376D235717473D6B5343332D3357535773170B13432323337664768046931363471713532B5D435353131D635313332D475727372D13534373670367376B67474
311
B5042A03DBCBA019D37FE8ABC6157B20CD04146B0062181F4C03F940F0C11EA29A8141C08141002C0426541C106CAC2CA046088033B02A030AC2157C6006F21A8018AAF50194E6010A610250382264E08660284CD9E98021862280A91564B406929A0FF62C401E28B6F88038B83CB1243943D7A928312F25350524131B1BFB
311
9F161800504B0304140006080800D77E6E5728BB58AF800100009E0500003D00000045334543464345302D333844302D343631442D413036392D3145343639413646443936352F536368656D61732F436F6D6D6F6E536368656D612E786D6CBD544D4FC23018BEFB2B96DE15493C78601010A34B880709DEDFB52FD0D8B54B
311
D70DF6EFED3AC0B12E6442E2716BFB3CEFF3D18E26FB440405EA8C2B1992E1C323095052C5B8DC842437EBFB673219DF8DA659866649B798C078B48AE6410122242F2A4994AC7F93815DF85C049C8564CA0A901499DD886B2EB9B1E02448F358701A9235880C49A0119892A20C89D1B9FD768815CAD268CB5E0355B40B1E47
311
F3E37A2020464BED06AA57CE8FCC20C3C3446D46761A2632A8C1283D07031EFF2AE7CCB1BFEEE916E406DFAC8E36FFD99A9D60A6944090EEDC3B670C7DC13DE86B6B2C5C240D6E503BB85ACD579D513F1B9F9A69DC9CC22AFA80C426D40AF0B21EA168559156B6276F0F726A6BFF04DCD513A87A62CAD41FB24FCB2858B395
311
2E3D852084DA25B9303C15687973CC8E8AAE11DF2836C38C6A9E765E8C1BA1BFB1DC29CDFE518C8B5A7655A4ED7E77291ABEB80DBD82EC866ADE1B8D05AF9E35CF09D7A061F38A986D9EC412B8F0F65E5D81534D9B231D1E5A8FE577A241F3A5FD01504B0304140006080800D77E6E572CCEBD668A040000E01200003E0000
311
0045334543464345302D333844302D343631442D413036392D3145343639413646443936352F536368656D61732F47656E65726963536368656D612E786D6CD5586D6FDB380CFE7EBF42F0F7A649B70E1B90744856B4970F450FCD7A5F05459613EDE4174872DADCAF3F522F8ED3B88D2F1D06AC4050DBA2493EE4438AF2F8
311
EB73AEC8466823CB62928C06C384888297A92C5693A4B6D9D9E7E4EBD51FE3A931C22EF85AE4EC6AFC38BF261BA626C9AD288496DC3F4FCEAFC63366845F7A10452AF41DB320C0D44EC26EAB20918735565582695670811A6A49643A49A6E9069FA4604A64B29016DC4B48552F95E4932463CA888468C1D2B250DB4962750D
311
F7CE273069CE8363F1FF4EDB00E0A21999574AE4A2B00C353B93F3BD4777B8A61ED8F604ABFEDD79CE56A2B7BDFBDBC50996E0ADDE16FED26223C5D30956C29BDF4A55EA686E5E58B112DA45CE67F76F4FA27EFA3FB672FD7372FC388FAECDCA5209E693CAD167BADCD272F943701B3812F8A3D852008B1D2E32DB927B2F83
311
3C6EA95879925356D254582695095A3CE982924720BE5774A3CB9CDCDB350427D2DF20DA1B5532EBE2D5D6288D75D4F7E4FD9890A0EF8E3D93EBB8F8BA4758158EF6FB90A6F9520281C93DE7AAC6D24607DA296BB96018123F821A7D6A5C5884050C475DA4865442732C8B95684A50165CBB3A32F25F783A4A480ED59AD7F9
311
24B968AEA50131F46303223E6A397B0E52976030DC1DCA81D7E7C1EDEEA42C19FF27635C505E2BD5198A599020DF50A2330FCB3AAF28CB0124108429553EF1B228802E2265D8F7CC2401042B155BCC7070F1E5C55F13B4A9577362CCCE46C32174E010C3C378C44841A4BDA00FE3A12006CE11EE6AEC59894D3526DDE1CD59
311
D503ECC324017F8061B7F162162FA62EDD81AE3308617770796DCBDAD2B2625C5AE8A63DE20B2C8AA5E95E76E5730823955956E33E705425A2187C185D36489A1B44D3DCEC2172F6BA2105C3546287A7194B2331768EBBE64F6E70A9930ABE0ADEA89E9E2C38523B810287AD67A54A039C1606EAFE68F8304610BB9093DBDD
311
ABC0B2AE4E290DCDA15376D7E39F72B556F0B32EAB5D3D498B4C41ABADEC3A1434C422D87E8025A84BDCB2B1417ED750FAE4DA8976863974C577C7F902D3F156AD354DEA3540DE6BEAE2BEA52F7A2EB4CA43802ECE5BF2CE2EDC9347179FFB023CE412E60BE16DA0BE29B374988A553F561DC04615DD35F7D2C8979F60E595
311
5CE93DF29DED8AFA1EE6642D53418086C03C47C377910F75F7E8F5EF665F70B60FFB22AEDF897D119E8423C773E819A3C1E55E550599EE6EDCA34D0C86FD72057DF2CD46F16A470682471C164E4346D5306BF12D7D12D82CFF673D41636C347443FEB51B50D72EA171A8E4A58623A4A16E0FA2B8B10A0D23268D87C33896EE
311
8FB73305A74BF224EDBADFA0BD674AB354D63DB7BD5D83426761C077DE767728235446A552754EB93B755891C3C4CC6CADE37CF0E912A7BB38DBA010F9DE1282EDF470CA69A9CDA482E334C4A6EA4107987980B17E72F31730EBF88BBD39E7C629F56797A3C0009C2C5AE7951D9A05A02773440F02EEB4DE396A3B6A570C72
311
CCFBCD823B0B8ED3F1D5CEDDFED772FA70236C83FB7D86C385D570B87107535572A60A96035F8F7C6A7192F13007246BBE0521855E6AC46F3E27689CEE7D186A6FD679D98CDCAD13333E04EBE7ED6F55FF01504B0304140006080800D77E6E576180134D5F0100006B0300004500000045334543464345302D333844302D34
311
3631442D413036392D3145343639413646443936352F536368656D61732F52656E6465724D6174657269616C536368656D612E786D6CA5934D6FC2300C86EFFB1551EEE343DBA41D1A103009551ADAD40EAE28A4A68D9426284961FCFBE5A340113B2071746D3F765EBF4DC6BFB5407BD0862B49F0B037C0082453059725C1
311
8DDD3EBFE3F1E829991803366715D474942CD30FB4A782E00C64017A412D684E454CE3FE28995203B162A6EA5AC94B66997D225E109CD63B0135484BAD1B3C07E9080CA35DB3119C11BCA5C200461A68A1A438126C75E3E230D40FF81FB3F03C91D1E3A3A0AF79FE28E25BC39EC3E17E4C2A2D94A0833A51AF55BCCA7D8857
311
2FCBAC529C4140B020FC3AAFA886621DCED7EAD7664CC86024E806DC297DA1BB393E4156543457A4537DB8817349A70F8ACBF09B3EEE2CB2F33E91B65D60786E4E3B39B77E3FEEEF5650424525DA657FB8B46BE6BF064646F0A0F7327C0BC1BC1B4CBBC1C419FA3CCB23500007872A2580CAAE5461865565294E4EDB4617B6
311
2FF579DF9A5B2F54E834076A597573A020912FED777F9B3F504B0304140006080800D77E6E57715D48AB51000000570000004700000045334543464345302D333844302D343631442D413036392D3145343639413646443936352F4173736574446174612F41737365745461626C654F66436F6E74656E74732E62696E5361
311
6060307374B1B0703175D535727376D235717473D6B5343332D3357535773170B134323233371602AACB4D2C492DCA4CCC492C28484D2C4ACC4B4E050A82012F90744FCD03CA26072767A4E6260200504B0304140006080800D77E6E57F865834058000000680000004500000045334543464345302D333844302D34363144
311
2D413036392D3145343639413646443936352F4173736574446174612F53747265616D56657273696F6E5461626C652E696E66558CBD0A80300C06F73E4B117FB66E451741D041DC5BF98480A492E4FDD18EAEC7DD4555D89EF28DF51A0B1BD8340C4DE7DD848B988C0ACF0649566493F2408C508DDEBB99D5129FF8F1AF8C
311
F5B9503E20FAE5A16B5AF702504B0304140006080800D77E6E57D4942C06350100009A0400003600000045334543464345302D333844302D343631442D413036392D3145343639413646443936352F4173736574446174612F636E782E786D6CCD94314FC3301085FF4AE43D76525A812AC71582A51348540C6C57E752AC3A
311
76645F10FC7BEC3403A888A943D7F3BBF3F327BF939BCFDE161F18A2F1AE6135AF58814EFBD6B843C346EACA3B566C940CDED30F192B1CF4D8B05C664A1E821F87B9D46207A3CD556BDC712EDEC788B483BDC5A7EEC13B42479115DA428C0D8BFA1D7BE030926F311E790B04BCE601A31F83C634894C8FF3241D10085BA616
311
D5E2A6ACEBB25EEEEAD57AB55C2F6FDFA4C84A25F7DEDB596FD265C10F853EDDCA5425453E56720C66D6E4B730F59747BE374E8AA4543252484CE60EFA1A52070C83351A28A1135E1352994408BD1427B1922233F845E2113BE34C6ED92663403E3C277B18C8E0D511F9CFEBE5C96C5D24701AAF97C7B9C3CB5378997ED0EB
311
29905362AE2D27E70EB971DD055222A635924293B78AFA06504B0304140006080800D77E6E578703CA50090100004F0300003400000045334543464345302D333844302D343631442D413036392D3145343639413646443936352F536368656D61732F636E782E786D6CCD93BD4E042114855F85D00FCCACB3D16C18B6B0B0
311
B2512B3B84BB2B59863BE1C7E8DB0B23C56E62A7C57670F842CE395CC4FE7376E40342B4E8273AB09E12F01A8DF5C789E674E8EE28D94B1110D319468957334CB4CA548A63C0BC34C9C04165575567FDA989F738CFE89FF53BCC8A12ED548C138DEB96A99CD0403C31A39262030B1031070DE58664676837E8002A81A172D3
311
6F6EBA61E886F165D8EEB6E36EBC7D15BC9252BC21BAC65B9F20E0423496852F767AC1EBB11439D8C6D40C549E7B63A50DC10B21454CA174D0C8F4B514522D8BB35AA552155FC11F460A5EA35E047E000FC1EAEB4C7C61EEDF223F8137101ECB2B05ABDC7526FFCDE3DF0AE0EBEC9711A85F417E03504B0304140006080800
311
D77E6E57410A3D5871000000A40000002C00000045334543464345302D333844302D343631442D413036392D3145343639413646443936352F636E782E786D6C55CC4D0E82301086E1AB34B31774E7A22D31F1069E60020334B633A63FC6E34B0909B07DDE2F9FEE7EC1AB2FC5E4840DDC9A2B28E25E06C7938192C7CB1D54
311
677514C9871928C640062A83D55394F2D968A0118BAFEA1DBF377CA444F98919176EAB9FEAAB9F2960DA5BBB1E2ED3FA6FFF504B0304140006080800D77E6E571064919D7E000000A300000007000000636E782E786D6C4D8CD10A832018465F45FE7B37A526096A44DA7BC4B290990E97638F3F1D5DECEA83C3778EE83FBB
311
476F9B5E2E0609F44200D9708F8B0B9B847CACB803D42B91623CFE6E80C2BC5B091583125B8AF979A2C5AE73F6957A171E27348D19A7D110DC749AE096518D07C238A6A6657C6093E6EC568C6B55CAFC7A656B5E7D01504B0304140006080800D77E6E5716E99B5DA600000035010000130000005B436F6E74656E745F5479
311
7065735D2E786D6C9590410E82301045AFD2740F4517C6180A0BF5065E60AC53688469D30E066F6F91AD9AB89CF9FFFD3F99BA9DC7413C3026E749CB4D59498164FCCD51A7E5C4B6D84BD136F5E5193089ECA5A465CF1C0E4A25D3E308A9F401292BD6C711388FB15301CC1D3A54DBAADA29E38991B8E0254336F5092D4C03
311
8BF39CD76B6FC6A538AEBEA54A4B08617006389FA516557DE4AE8E7E70DE30729138228C5F021CD93F02D4FB0DCD0B504B0304140006080800D77E6E573DEE336E64000000790000001B0000006175746F6465736B2D64657369676E2D7061636B6167652E786D6C35CBC10E83200C00D05F21DCA56CA76D41FC96062B1207
311
35B69A7DBE268BB7777961F8D5AF396893C2ADB70FE7ADA196782C2DF776D7A97B5933C430F15651E5469C55D70F80A4992A3ADC954792C525AE70A1E4D6AD9816CC044FEFDF01FE3FDE907802504B0304140006080800D77E6E57E630F364F9000000960100003700000045334543464345302D333844302D343631442D41
311
3036392D3145343639413646443936352F4173736574446174612F636F72652E786D6C8550CB6E833010FC15B477430C86A691714448F3053DF566D90EB1126CE447D5CFAF1DA8D49E7ADAD5ECCCECEED0E3D7FC283E95F3DA9A1E70B983421961A536530F315CD11E8A23A3CEDAF08B0685E1B3EA21C3C0E8E46C5C364858
311
1394C9A8B1526D20F75E0528C423353D787153332F790C89E1EFE5C2C59D4FAAC4E5CA6334462D37A996C94D5FB572C03A82F1D89D2EE83C9C5A44C601A3D791D4085F9AB6D9B7E4D20D6FB4CA6246839E7FB60BA778501258BDAB1B8431C2E41DB787961CC8CB07AD3293511F5CFA795B9ABF0336E4ABCF3C705AADD33FAE
311
7191FFBB466D42536FAEABC203C3E9C8E780D12AA794CA33C25473A2EC1B504B0304140006080800D77E6E574D206D63F8000000940100003500000045334543464345302D333844302D343631442D413036392D3145343639413646443936352F536368656D61732F636F72652E786D6C8550CB6E833010FC15B477430C86
311
A691714468F981F6D49B851D6225D8C88FAA9F5F1BA8D49E7ADAD5ECCCECEED0F3D7FCC83EA575CAE816707E804CEAD108A5A71682BFA223646746AD31FE170D32CD67D9428281D1C99AB0ECD068B4973AA1DA08B983DC39E9211B1FB169C18D3739F39C071F19EE9E2F7CBCF349E638DF788C86A0C42E5522BAA9AB921658
311
4330EE9BCB805EBA4B8D48DF61F4DC9312E1A1AAAB634D86A67BA5451233EAD5FCB37DB4927B29809587B24218234CDE717DAAC9893C7DD022311975DEC69FF7A5E93B606FEB9D8E16DBEC8F6758C4FF9E41695F95BBE7A670C0703C711D305AA48C6259038C35E5C9BE01504B0304140006080800D77E6E57842C851D0101
311
0000D70100002D00000045334543464345302D333844302D343631442D413036392D3145343639413646443936352F636F72652E786D6C95914D6EC3201085AF62CD1EDBF8AF498489A2D8394157DD5133715062B00C543D7EA176D576D7AE408FEFCDF066D8F17D7A246FB85865740B34CD21413D18A9F4D8827757B283E4
311
C8D9628CFB8141A2C5842D4419381B17E3E74D1A8C76A8A3AA8DC44D14D6A2836478844B0B76B8E12452E15D20EC3D9DC5701723A6345D39CE9C9ABEACC382C2A1045EE445492825B47AA6F5A1AE0ED5D30BCB22C99957DA95C5D60CA7579489995D8804BC66D9FA1A28AFE4C62819FEA8AE0A17E07DD99F2FE73E27E5AECB
311
49D5D08E9CF2664F685F35FB5373E9F64D2C12CC9C59B784C96C45E20CFE6A5F8DBF92F959FE33D9EAB0C0E977A82C8E99B3EC7307E18C2BE11F504B0304140006080800D77E6E5769E337D107010000B201000008000000636F72652E786D6C8D50C16E842014FC15F2EEA828DAED06D9B8B67E414FBD51615DB20A4670D3
311
FE7D61B5497BEBE99199796F8661A7CF694477B5386D4D0D24C90029D35BA9CD50C3EA2FF800E8C4D962ADFF250364C4A46A883070362C769D77A8B7C62B135163A5DA41E19CF280FA313C6A70FD554D2211AB0F0A774B66D1DFC4A012926C3ACEBC9E7E56FB4509AF24F03CCB0B4C0826F48D94C7921EE9D33B4BA392B375
311
D572B7D232B8EB8B560BF08A12D256E70EBF34E712D3B621F8B9A539265D511687927655F3CAD2B8CC99F34BF8F37E24E4F4C8897BF465E94671F661EDB80B422889AC19BF80672C8DC49FD0EB2CFF115A1B5FE4FBC16DC3012721D08308C6B1C1301EF58619DBE6DF504B01021400140006080800D77E6E57C1383D23BF00
311
0000200100004F000000000000000000000000000000000045334543464345302D333844302D343631442D413036392D3145343639413646443936352F4173736574446174612F446566696E6974696F6E4974657261746F7250726F706572746965732E62696E504B01021400140006080800D77E6E574C741CE5F0000000
311
3002000045000000000000000000000000002C01000045334543464345302D333844302D343631442D413036392D3145343639413646443936352F4173736574446174612F496E7374616E636550726F706572746965732E62696E504B01021400140006080800D77E6E5728BB58AF800100009E0500003D00000000000000
311
0000000000007F02000045334543464345302D333844302D343631442D413036392D3145343639413646443936352F536368656D61732F436F6D6D6F6E536368656D612E786D6C504B01021400140006080800D77E6E572CCEBD668A040000E01200003E000000000000000000000000005A04000045334543464345302D33
311
3844302D343631442D413036392D3145343639413646443936352F536368656D61732F47656E65726963536368656D612E786D6C504B01021400140006080800D77E6E576180134D5F0100006B03000045000000000000000000000000004009000045334543464345302D333844302D343631442D413036392D3145343639
311
413646443936352F536368656D61732F52656E6465724D6174657269616C536368656D612E786D6C504B01021400140006080800D77E6E57715D48AB51000000570000004700000000000000000000000000020B000045334543464345302D333844302D343631442D413036392D3145343639413646443936352F41737365
311
74446174612F41737365745461626C654F66436F6E74656E74732E62696E504B01021400140006080800D77E6E57F865834058000000680000004500000000000000000000000000B80B000045334543464345302D333844302D343631442D413036392D3145343639413646443936352F4173736574446174612F53747265
311
616D56657273696F6E5461626C652E696E66504B01021400140006080800D77E6E57D4942C06350100009A0400003600000000000000000000000000730C000045334543464345302D333844302D343631442D413036392D3145343639413646443936352F4173736574446174612F636E782E786D6C504B01021400140006
311
080800D77E6E578703CA50090100004F0300003400000000000000000000000000FC0D000045334543464345302D333844302D343631442D413036392D3145343639413646443936352F536368656D61732F636E782E786D6C504B01021400140006080800D77E6E57410A3D5871000000A40000002C000000000000000000
311
00000000570F000045334543464345302D333844302D343631442D413036392D3145343639413646443936352F636E782E786D6C504B01021400140006080800D77E6E571064919D7E000000A3000000070000000000000000000000000012100000636E782E786D6C504B01021400140006080800D77E6E5716E99B5DA600
311
0000350100001300000000000000000000000000B51000005B436F6E74656E745F54797065735D2E786D6C504B01021400140006080800D77E6E573DEE336E64000000790000001B000000000000000000000000008C1100006175746F6465736B2D64657369676E2D7061636B6167652E786D6C504B010214001400060808
311
00D77E6E57E630F364F90000009601000037000000000000000000000000002912000045334543464345302D333844302D343631442D413036392D3145343639413646443936352F4173736574446174612F636F72652E786D6C504B01021400140006080800D77E6E574D206D63F800000094010000350000000000000000
311
00000000007713000045334543464345302D333844302D343631442D413036392D3145343639413646443936352F536368656D61732F636F72652E786D6C504B01021400140006080800D77E6E57842C851D01010000D70100002D00000000000000000000000000C214000045334543464345302D333844302D343631442D
311
413036392D3145343639413646443936352F636F72652E786D6C504B01021400140006080800D77E6E5769E337D107010000B201000008000000000000000000000000000E160000636F72652E786D6C504B050600000000110011005A0600003B1700000000
310
504B0304140006080800D77E6E57000000000000000000000000370000006662782F42364130383933342D364636382D343938432D383133382D4134393239373445393935342F617474726962757465732E62696E504B0304140006080800D77E6E57000000000000000000000000350000006662782F4236413038393334
310
2D364636382D343938432D383133382D4134393239373445393935342F76657274696365732E62696E504B0304140006080800D77E6E57F270F1330600000004000000360000006662782F42364130383933342D364636382D343938432D383133382D4134393239373445393935342F747269616E676C65732E62696E6366
310
60600000504B0304140006080800D77E6E5751464CB48900000043010000360000006662782F42364130383933342D364636382D343938432D383133382D4134393239373445393935342F6469726563746F72792E786D6C9D8F310EC2300C45AF127987122606C71DD918B841D4B851A43646695A717C52A85029031293A5
310
A76FBF6FACEF7DA7264E43906840EF0FA03836E242F406C6DCEE4EA06AC22492573150D1F66C60C640E8938CB705396EEDD86DE9B5042FE27813D640EA63BB001C722AF6E55CB61E4863F58284D5D3F53DD715CE1C3985E63FD7F1B7EBDD617E9F1E504B0304140006080800D77E6E571AFFCCA238070000201C0000340000
310
006662782F42364130383933342D364636382D343938432D383133382D4134393239373445393935342F6F626A656374732E786D6CDD59DB6EDB3810FD1542FBB2FBA09BEF2A1C17B19D144691B6A8D1C5BE09B44C3BDCE806524A9CFDFA1D52A42CC9B2AD745BA0D804481C861ACE9C9939331C4DDF1FA2103D13C66912DF
310
18AEE51888C441B2A5F1FEC6C8B39D3931D0FB199AB224C92AFB0C14E388DC1862D9984DF72CC953B5B4253B9C87CDD5FBF95F88072426060A42CCF98DC1834712610BE759B225FCC9DAE20C5BFBDDC172AD62635DEC9EE1F4B171548A1989335015D66390A23470EB7F8249F66C6A8B0DB56DBD6EDBFA17B6D9D2F0BAA234
310
E6198E8313AD1A727ADDB4EABB83E55D6FE899C3C1A06F0E463DD79CDFCF97A63BEE3B8BD162E1DDDE79069A4D374912960E4849BC052FBE1A33776A8BFF94E62B14DAF40E9238268142B36DC39628B994F0262635605D695AC52185AD95857E47E3CF6CEB044A4DA51ADADA38FDBB1ABDC9E66F0081778952C68988729E31
310
F0B5C2BEC807676A17AB35BF508E229C1146718842BA61988183606BE1A09A18912D42141298492F6A79555D21B0AFE7529B96BB3C0C45FE1A3399693EE423C9B8D48CFE43D851FBEA69A013589BD3389B2863B3D7144478535B2E16FFEBF7D43F0B20D12EC47B881630536CEAF71A782D0417AC96C6ECE3FDE6B016FCD07E
310
78CA9294B04C449E4C669577DA8395D082E0EB004A816BDD774754BE02F49F00F952173405CF317A181C06DA768663BE4B5804DE410E321DF8E120F1F1E4D3D42E1F9E2154E3CA739842DAFE204C6B66D4CEAE403A9B3E43D027ACAF8C5B073884987EA0B1C87308141426B0047CBFDB1C8CD90AC81416E1291C82F5F03DB5
310
C54704BF0A39C0370D0FB5D16F0747E98469E6D9D1571F2066180D4A57D56C3C87EFF087E07BBB5C7F5CE76C8703F2A0127B497634A61914D376856AA0D752FEDBEA93CCC8137B6ABB0238679F08E268F1CB5AF90549C7802AA20E17AE912B0F14D23D0C714C929CABF536A20A923061FEE6D52F72B8F5AC3F75101487417E
310
8B08682533A8EE01A3A900C59829F34A26B48E38091E5401B82F9CEA6F70F024E0F50360ACEFD103A216B3A6D03C4A7D1C25792CE8FB34BC9BA6597D477EB9AED773BCDEC41B6963B914AFB3475343A9BC3827C2E9994316356F29D6D0928B3C1A005BB6591040CF94677E92E28066EDB1D030426528807D51E52DDDED720E
310
A4DE0A4B4363ABEF0E9153F9591E72597B75884F23BC27FE0E8B0AD77A5E0DA052B8B6A015997D98704E63C2658772C25C0D541C0B88A0885B2DB5250829F72392E1EF893F59F21AE1C7C82EF4A197CA44377B3DFAB482AA7A9E93283AB724F6A5FDAF3EC7511A165DDA350CDC5EE384565C85D2E2886788371F67BEB325B2
310
E9BE26BDE4058D6F27E9DE778B3F030FC33F1D1E7D0485D61B6AE475CFBAD6D0F5C4D70448653474FB63ED886B58E9A332D1838439744DC1ABFF42E8FEB11BA1753A879370E7D330CC23BFA8071989A005C359CE3AE5EB68E89C385FF14223212A27ED68080D7267D294BD87EE3EC02AD97C9C23CDCA3160148DE18ED6C990
310
132B5A4358FA42DE47C5B5EBBAF7DF2EF53FF365F59EF2445E5F12B66DD5B4DE46E80E4C370C822E55852BE3484A9E4DABC917C98BCB751C065A88E2B7E296A0228491672A0613F206D47A7FE02F380B8048D7F2B739878CD892EDB1A7A88953630E6306876A69BA4FADDE7480EC44F9A8355E2B41A8114C1BB0E0D907F121
310
FC8AC1D5D0F9715B753576B1BE1285CD82C1CA518F0BB23E7F5837A4C04AE7A7BF088CC84B43825A5D8846EE82A86FAB63BFDA90A02CFAB6BAF078F698479B185351194558E06DFAEEBDBC4BDED87051B0E777E3D1DDA2EF99FDE5DC3307636F69CEC7BD91E94C96CBF9DD60E1F5C6739B119EE42C20DCEED98EAF7BA734DE
310
EBC028A0EB72A380A9C2F5AB9F8EE7A683FFC7378A30D9E073B1F8AB5E28CA764F34648D5CEC7AA16825EACDDBBA7FF784A8DB8BD89B3AE76256A003FC72D90232D2F5BE7B6BA145EB4EA25DE74A457C63E13D7B5BF9E935A646E8ADF5A1B6A38DF2EB5C0CB3A7962AA56FB792D746B7CBC96439BC337BF78BB939B8BD5F98
310
DE08786C78375E3A4BAFD71B8DFB25E2AA1676AD2BBF04876A652B63349806F324A43094275BB42709DC8060EAD0815F5944B8BCD94003A0CAB87E23D0E1E9E762A69AE14DA89F0E1E310CA6435591F30086A270EBB831D43AFA0DC6A06212298753D613141E15ED06CA19BD312004320AF5C5DAC0384B0E0FA5F4C6B812DC
310
86E3BDB833154F957F1F1F13E840AC1CED2AF774C14559568B4E180EA4F23D01B09D6E48BEDF74AD0EC2197CDCE45969CC71E1688D0241BF10288C83A9DF9382F700C473D92ED7927B6A90749ACC5F8C8342AA9961B697E3F50ADEB7CB2FB6988CAF3EA334CCF7C29D97EA7D4D9229FA8C302F865053080C65668AC53D7CF1
310
CEFEC21278C514A17B0A41807E3F4C467FD88B248A92B858B26FD58B2AB47E84D74E5B5B8FFCA07171DCA12DFB1E35D687B9152716DEF2275800D7322A66A305C4B50028E9A91200DA23C217F0586DFF6A895411A8B4B0D5D655C02367FA081249BCCB116953DD501940422E8056C59CB6FCA017A6368321F8EC5F504B0304
310
140006080800D77E6E57032E87193F01000046050000300000006662782F42364130383933342D364636382D343938432D383133382D4134393239373445393935342F636E782E786D6CCD94C14EC3300C865F25CABDED3A3681A6349338F0041C10B734F54A581A57898BD8DB938C6C80D0108749DB2D727E4BFF67FFB258
310
BF0F96BD810F065DC3EB72C619388D9D717DC327DA14779CADA5F088F44DC6995303343C95B914BDC769CCA50E366AB2A96A8DDBE6A222F2A69D080267DAAA101A1EF40B0CAA54136107615B768A5459971E024E5E43EC273340EED71E1441C7E57C36BF29EABAA8178FF572B55CAC16B7CFA24A4A295A449BF5C611781C99
310
C6F870D1CC4C54E95B8AC99BAC49045C7E392B5BE34415FFA508D1ADEBB38E7663D28DA3355A511C53859A808A28023588EA532C4595787F503FDC3F1D1CB0CE78D0847E77A101D4A706703456C624FC8F7F2FFC1B1BDBD7887BA96D9F84CDB6CE867A486B8871FDBDFF9822E57A7B7DA13F1A3B7FE6E32921A3AF0FF9E0EB
310
4CC4D5FEE4C5A5A70B283F00504B0304140006080800D77E6E57D6B0BAC27F000000A30000000B0000006662782F636E782E786D6C4D8CC10EC22010057F85EC1D6D2DE26E4269AAD1FF682C6D88140C16E3E70BA6074F2F99BC19D57D16C7DE26BE6CF02DD4BB0A98F1F7305A3FB790D68923B04EAB18C2FA7703E687C5B4
310
50306835C7909E1B1ACD342457A8B3FEB1C1B3EC2BA446707993C805E18563DD20EF051DE824AE4447918D7D51F2FC7A794B5E7F01504B0304140006080800D77E6E57A6D797065F0000008200000007000000636E782E786D6C4DCB3B0E80201045D1AD90E9FD7516806B51190811670C8A61F982B1B0BAC9C97B72CA7B10
310
37C6D3332918DA1E04D2CAC69353902EDB8C20262D23F3F59B81A079470595414B17391D1F19B4730A5583A7ED43BBE4025D9592775E5ADFFA01504B0304140006080800D77E6E574FEB6A7CA0000000F4000000130000005B436F6E74656E745F54797065735D2E786D6C7D8F4B0EC2300C44AF1279DFA6B0400835ED02B8
310
011730C16D239A8F121795DB93D02D6269CFBC19BBED573B8B17C564BC53B0AB1B10E4B47F18372A5878A88E20FAAEBDBD032591BD2E299898C349CAA427B2986A1FC86565F0D122E7318E32A07EE24872DF3407A9BD63725C71C980AEBDD080CBCCE2BAE6F5D69B7110E7CD57AA146008B3D1C8F92C5954F993BB1BF787F3
310
9A89ABC491D09600F9FDA2FB00504B0304140006080800D77E6E573DEE336E64000000790000001B0000006175746F6465736B2D64657369676E2D7061636B6167652E786D6C35CBC10E83200C00D05F21DCA56CA76D41FC96062B120735B69A7DBE268BB7777961F8D5AF396893C2ADB70FE7ADA196782C2DF776D7A97B59
310
33C430F15651E5469C55D70F80A4992A3ADC954792C525AE70A1E4D6AD9816CC044FEFDF01FE3FDE907802504B0304140006080800D77E6E578A7DA9F2F8000000960100003B0000006662782F42364130383933342D364636382D343938432D383133382D4134393239373445393935342F7265736F75726365732F636F72
310
652E786D6C8550CB6E833010FC15B47703064393C8380A95F2053DF566990DB5126CE447D5CFAF1DA8D49E7A5A6B7666D633FCFCB53C8A4F745E5B33002D6B28D0283B69330F10C38D1CA0380BEEAC0DBF685018B9E0001906C16767E3BA43CA9A8026A3C64EB883D27B0C50A8477A0CE0D5072EB294312486BF97AB547739
310
6349CB8D27788C7ADAA57A4A6EFAA6D181A0757FE8AE232387CB4809EB5F477219594F8EF44AFB8E35B43EB6BCCA62C1835E7EAE2B8732E004A2A99B96504A287BA3DDA96327F6F2CEABCC14DC079732EF47733A100EBD8D4EA1E7D5B6FDE31AD7E97FD7A84D689BDD7553F894237DF2B910BCCA2DA5F1AC30CDDCA8F80650
310
4B0304140006080800D77E6E57B58F9795F2000000B1010000310000006662782F42364130383933342D364636382D343938432D383133382D4134393239373445393935342F636F72652E786D6C8D504B6EC32014BC8AC51EDBD8D8810813A5557B82AEBA43401C94182C3E558F5F885DA9DD65F5D0BC1966DEB0D3F772AF
310
BEB40FC6D909A0BA0595B6D22963E709A47881045427CEBC73F10F0D54562C7A0205069CCDDEA57587A4B351DB825AA7F40E8A10740495BCE7C70482BCEA45D422C5CC08B77A15F226665DA37AE37116CDF22B955E8BA815E05DDBF5102188F0071A8E033EE2C3276B0A93B3948CDAAD8CCAEEE662B407FC653CB784F6188E
310
EF238198925748504FE019D38E1EF01BA503664D117316A2CF37EF9F94EB9E956FC27F99D3AA9EC86C6CECBBDD705304C051CEF35870D69402F378B49B67299BFF00504B0304140006080800D77E6E572407602D53010000DD0200000C0000006662782F636F72652E786D6C8D525D6F832014FD2B8677542CBAB6419ABAA4
310
BF604F7BA3481DA9824130FDF9033FD2F9B06E314172EE3DE7DE7302393DBA361A8519A4562540710A22A1B8AEA56A4AE0EC0DEE4174A2C4686D7FB48148B14E9420C08092C668D72F10D7CA0A1550A56BB1806C188405116FFDA50403FF121D8B99B3BE63B8C73DE377D68818C5731F25CEC97AA1CADAABC99B1406509416
310
FBFC5261B83F5708E2E2BD82E70A17F0802EA8C87186D2C38E24814C8995DD3A9D1BC1ACA801CDD26C071182087FA0FC98E3237EFB2449E8A464B0C67B5E86067780DEAE0F92CCF846CFF5F5DF7A4E2ABBCB16BD993178077EBDA9404912F2F1BF29BC6D867EB0CFCFB26BBB5AB87B6814DC6A837DA5D6EE591A59EB84974E
310
A3E923C95CF5CA93C06F3AD90B9DD71A3E28A61ABF1AB3FE7A75364CDFEED40B0347FB8894361D6B9FCBCD2B3ECFE7A08DA595CE75ABCD7FD8ABD535CC243C4CFA0D504B0304140006080800D77E6E577F77D84407010000B201000008000000636F72652E786D6C8D504B6EC32014BC0A628F6D6CEC3A11268A2BE5045D75
310
4781382836587CA2F6F685D895DA5D570FCDCC7B330C3D7D2E337828E7B53503C445058132C24A6DA601C670453D0427469DB5E1970C02C31735C00C43462767E3BA43C29AA04C468D956A07B9F72A4020E6F418A01737B5F082C79014FE5EAC5CDCF9A40A5C6C3A46835E7E5685533C2809595DD50DC21861F286DB634B8E
310
E4E59D9659C9688C5AEE565A26777DD5CA4186ABAE6F2F2341FD79C48874AF233A8FA443077CC15D4B6A5C1D1A5AE665467D70E9CFFB91943300CF1FD997961BC5E887B5F32E48A124B066FE82ACA26526FE848EABFC47686D4253EF07B70D9F32A7404F2219E706D378D69B666E9B7D03504B01021400140006080800D77E
310
6E570000000000000000000000003700000000000000000000000000000000006662782F42364130383933342D364636382D343938432D383133382D4134393239373445393935342F617474726962757465732E62696E504B01021400140006080800D77E6E57000000000000000000000000350000000000000000000000
310
0000550000006662782F42364130383933342D364636382D343938432D383133382D4134393239373445393935342F76657274696365732E62696E504B01021400140006080800D77E6E57F270F13306000000040000003600000000000000000000000000A80000006662782F42364130383933342D364636382D34393843
310
2D383133382D4134393239373445393935342F747269616E676C65732E62696E504B01021400140006080800D77E6E5751464CB489000000430100003600000000000000000000000000020100006662782F42364130383933342D364636382D343938432D383133382D4134393239373445393935342F6469726563746F72
310
792E786D6C504B01021400140006080800D77E6E571AFFCCA238070000201C00003400000000000000000000000000DF0100006662782F42364130383933342D364636382D343938432D383133382D4134393239373445393935342F6F626A656374732E786D6C504B01021400140006080800D77E6E57032E87193F010000
310
460500003000000000000000000000000000690900006662782F42364130383933342D364636382D343938432D383133382D4134393239373445393935342F636E782E786D6C504B01021400140006080800D77E6E57D6B0BAC27F000000A30000000B00000000000000000000000000F60A00006662782F636E782E786D6C
310
504B01021400140006080800D77E6E57A6D797065F0000008200000007000000000000000000000000009E0B0000636E782E786D6C504B01021400140006080800D77E6E574FEB6A7CA0000000F40000001300000000000000000000000000220C00005B436F6E74656E745F54797065735D2E786D6C504B01021400140006
310
080800D77E6E573DEE336E64000000790000001B00000000000000000000000000F30C00006175746F6465736B2D64657369676E2D7061636B6167652E786D6C504B01021400140006080800D77E6E578A7DA9F2F8000000960100003B00000000000000000000000000900D00006662782F42364130383933342D36463638
310
2D343938432D383133382D4134393239373445393935342F7265736F75726365732F636F72652E786D6C504B01021400140006080800D77E6E57B58F9795F2000000B10100003100000000000000000000000000E10E00006662782F42364130383933342D364636382D343938432D383133382D4134393239373445393935
310
342F636F72652E786D6C504B01021400140006080800D77E6E572407602D53010000DD0200000C00000000000000000000000000221000006662782F636F72652E786D6C504B01021400140006080800D77E6E577F77D84407010000B201000008000000000000000000000000009F110000636F72652E786D6C504B050600
310
0000000E000E0080040000CC1200000000
  0
XRECORD
  5
813E
102
{ACAD_REACTORS
330
8139
102
}
330
8139
100
AcDbXrecord
280
     1
270
     1
271
     1
  0
XRECORD
  5
813D
102
{ACAD_REACTORS
330
8139
102
}
330
8139
100
AcDbXrecord
280
     1
270
     1
271
     1
  0
XRECORD
  5
813F
102
{ACAD_REACTORS
330
8139
102
}
330
8139
100
AcDbXrecord
280
     1
270
     1
271
     1
  0
XRECORD
  5
813C
102
{ACAD_REACTORS
330
8139
102
}
330
8139
100
AcDbXrecord
280
     1
270
     1
271
     1
  0
XRECORD
  5
843D
102
{ACAD_REACTORS
330
843C
102
}
330
843C
100
AcDbXrecord
280
     1
102
DISPLAYNAME
  1
Imperial24
102
FLAGS
 90
        0
  0
CELLSTYLEMAP
  5
8404
102
{ACAD_REACTORS
330
8403
102
}
330
8403
100
AcDbCellStyleMap
 90
        3
300
CELLSTYLE
  1
TABLEFORMAT_BEGIN
 90
        5
170
     1
 91
        0
 92
    32768
 62
   257
 93
        1
300
CONTENTFORMAT
  1
CONTENTFORMAT_BEGIN
 90
        0
 91
        0
 92
      512
 93
        0
300

 40
0.0
140
1.0
 94
        5
 62
     0
340
816C
144
0.25
309
CONTENTFORMAT_END
171
     0
 94
        0
309
TABLEFORMAT_END
  1
CELLSTYLE_BEGIN
 90
        1
 91
        1
300
_TITLE
309
CELLSTYLE_END
300
CELLSTYLE
  1
TABLEFORMAT_BEGIN
 90
        5
170
     1
 91
        0
 92
        0
 62
   257
 93
        1
300
CONTENTFORMAT
  1
CONTENTFORMAT_BEGIN
 90
        0
 91
        0
 92
      512
 93
        0
300

 40
0.0
140
1.0
 94
        5
 62
     0
340
816C
144
0.18
309
CONTENTFORMAT_END
171
     0
 94
        0
309
TABLEFORMAT_END
  1
CELLSTYLE_BEGIN
 90
        2
 91
        1
300
_HEADER
309
CELLSTYLE_END
300
CELLSTYLE
  1
TABLEFORMAT_BEGIN
 90
        5
170
     1
 91
        0
 92
        0
 62
   257
 93
        1
300
CONTENTFORMAT
  1
CONTENTFORMAT_BEGIN
 90
        0
 91
        0
 92
      512
 93
        0
300

 40
0.0
140
1.0
 94
        2
 62
     0
340
816C
144
0.18
309
CONTENTFORMAT_END
171
     0
 94
        0
309
TABLEFORMAT_END
  1
CELLSTYLE_BEGIN
 90
        3
 91
        2
300
_DATA
309
CELLSTYLE_END
  0
XRECORD
  5
843A
102
{ACAD_REACTORS
330
8403
102
}
330
8403
100
AcDbXrecord
280
     1
102
ACAD_ROUNDTRIP_PRE2007_TABLESTYLE
 90
      512
 91
        0
  1

 92
      512
 93
        0
  2

 94
      512
 95
        0
  3

  0
XRECORD
  5
8415
102
{ACAD_REACTORS
330
8414
102
}
330
8414
100
AcDbXrecord
280
     1
102
RTVSPost2010Prop28
280
     1
102
RTVSPost2010PropOp28
 70
     1
102
RTVSPost2010Prop29
280
     1
102
RTVSPost2010PropOp29
 70
     1
102
RTVSPost2010Prop30
280
     0
102
RTVSPost2010PropOp30
 70
     1
102
RTVSPost2010Prop31
280
     0
102
RTVSPost2010PropOp31
 70
     1
102
RTVSPost2010Prop32
280
     0
102
RTVSPost2010PropOp32
 70
     1
102
RTVSPost2010Prop33
280
     0
102
RTVSPost2010PropOp33
 70
     1
102
RTVSPost2010Prop34
280
     0
102
RTVSPost2010PropOp34
 70
     1
102
RTVSPost2010Prop35
280
     0
102
RTVSPost2010PropOp35
 70
     1
102
RTVSPost2010Prop36
280
     0
102
RTVSPost2010PropOp36
 70
     1
102
RTVSPost2010Prop37
 90
       50
102
RTVSPost2010PropOp37
 70
     1
102
RTVSPost2010Prop38
140
0.0
102
RTVSPost2010PropOp38
 70
     1
102
RTVSPost2010Prop39
140
1.0
102
RTVSPost2010PropOp39
 70
     1
102
RTVSPost2010Prop40
 90
        0
102
RTVSPost2010PropOp40
 70
     1
102
RTVSPost2010Prop41ColorIndex
 90
       18
102
RTVSPost2010Prop41ColorRGB
 90
        0
102
RTVSPost2010PropOp41
 70
     1
102
RTVSPost2010Prop42
 90
       50
102
RTVSPost2010PropOp42
 70
     1
102
RTVSPost2010Prop43
 90
        3
102
RTVSPost2010PropOp43
 70
     1
102
RTVSPost2010Prop44ColorIndex
 90
        5
102
RTVSPost2010Prop44ColorRGB
 90
      255
102
RTVSPost2010PropOp44
 70
     1
102
RTVSPost2010Prop45
280
     0
102
RTVSPost2010PropOp45
 70
     1
102
RTVSPost2010Prop46
 90
       50
102
RTVSPost2010PropOp46
 70
     1
102
RTVSPost2010Prop47
 90
       50
102
RTVSPost2010PropOp47
 70
     1
102
RTVSPost2010Prop48
 90
       50
102
RTVSPost2010PropOp48
 70
     1
102
RTVSPost2010Prop49
280
     0
102
RTVSPost2010PropOp49
 70
     1
102
RTVSPost2010Prop50
 90
       50
102
RTVSPost2010PropOp50
 70
     1
102
RTVSPost2010Prop51ColorIndex
 90
      256
102
RTVSPost2010Prop51ColorRGB
 90
-16777216
102
RTVSPost2010PropOp51
 70
     0
102
RTVSPost2010Prop52
140
1.0
102
RTVSPost2010PropOp52
 70
     0
102
RTVSPost2010Prop53
 90
        2
102
RTVSPost2010PropOp53
 70
     1
102
RTVSPost2010Prop54
  1
strokes_ogs.tif
102
RTVSPost2010PropOp54
 70
     1
102
RTVSPost2010Prop55
280
     0
102
RTVSPost2010PropOp55
 70
     1
102
RTVSPost2010Prop56
140
1.0
102
RTVSPost2010PropOp56
 70
     1
102
RTVSPost2010Prop57
140
1.0
102
RTVSPost2010PropOp57
 70
     1
102
RTVSPropertyOp0
 70
     1
102
RTVSPropertyOp1
 70
     1
102
RTVSPropertyOp2
 70
     1
102
RTVSPropertyOp3
 70
     1
102
RTVSPropertyOp4
 70
     1
102
RTVSPropertyOp5
 70
     1
102
RTVSPropertyOp6
 70
     1
102
RTVSPropertyOp7
 70
     1
102
RTVSPropertyOp8
 70
     1
102
RTVSPropertyOp9
 70
     1
102
RTVSPropertyOp10
 70
     1
102
RTVSPropertyOp11
 70
     1
102
RTVSPropertyOp12
 70
     1
102
RTVSPropertyOp13
 70
     1
102
RTVSPropertyOp14
 70
     1
102
RTVSPropertyOp15
 70
     1
102
RTVSPropertyOp16
 70
     1
102
RTVSPropertyOp17
 70
     1
102
RTVSPropertyOp18
 70
     1
102
RTVSPropertyOp19
 70
     1
102
RTVSPropertyOp20
 70
     1
102
RTVSPropertyOp21
 70
     1
102
RTVSPropertyOp22
 70
     1
102
RTVSPropertyOp23
 70
     1
102
RTVSPropertyOp24
 70
     1
102
RTVSPropertyOp25
 70
     1
102
RTVSPropertyOp26
 70
     1
102
RTVSPropertyOp27
 70
     1
102
RTVSPropertyOp28
 70
     1
102
RTVSPropertyOp29
 70
     1
102
RTVSPropertyOp30
 70
     1
102
RTVSPropertyOp31
 70
     1
102
RTVSPropertyOp32
 70
     1
102
RTVSPropertyOp33
 70
     1
102
RTVSPropertyOp34
 70
     1
102
RTVSPropertyOp35
 70
     1
102
RTVSPropertyOp36
 70
     1
102
RTVSPropertyOp37
 70
     1
102
RTVSPropertyOp38
 70
     1
102
RTVSPropertyOp39
 70
     1
102
RTVSPropertyOp40
 70
     1
102
RTVSPropertyOp41
 70
     1
102
RTVSPropertyOp42
 70
     1
102
RTVSPropertyOp43
 70
     1
102
RTVSPropertyOp44
 70
     1
102
RTVSPropertyOp45
 70
     1
102
RTVSPropertyOp46
 70
     1
102
RTVSPropertyOp47
 70
     1
102
RTVSPropertyOp48
 70
     1
102
RTVSPropertyOp49
 70
     1
102
RTVSPropertyOp50
 70
     1
102
RTVSPropertyOp51
 70
     0
102
RTVSPropertyOp52
 70
     0
102
RTVSPropertyOp53
 70
     1
102
RTVSPropertyOp54
 70
     1
102
RTVSPropertyOp55
 70
     1
102
RTVSPropertyOp56
 70
     1
102
RTVSPropertyOp57
 70
     1
102
RTVSPropertyOp58
 70
     1
102
RTVSPropertyOp59
 70
     1
102
RTVSPropertyOp60
 70
     1
102
RTVSPropertyOp61
 70
     1
102
RTVSPropertyOp62
 70
     1
  0
XRECORD
  5
8413
102
{ACAD_REACTORS
330
8412
102
}
330
8412
100
AcDbXrecord
280
     1
102
RTVSPost2010Prop28
280
     0
102
RTVSPost2010PropOp28
 70
     1
102
RTVSPost2010Prop29
280
     1
102
RTVSPost2010PropOp29
 70
     1
102
RTVSPost2010Prop30
280
     1
102
RTVSPost2010PropOp30
 70
     1
102
RTVSPost2010Prop31
280
     0
102
RTVSPost2010PropOp31
 70
     1
102
RTVSPost2010Prop32
280
     0
102
RTVSPost2010PropOp32
 70
     1
102
RTVSPost2010Prop33
280
     0
102
RTVSPost2010PropOp33
 70
     1
102
RTVSPost2010Prop34
280
     0
102
RTVSPost2010PropOp34
 70
     1
102
RTVSPost2010Prop35
280
     0
102
RTVSPost2010PropOp35
 70
     1
102
RTVSPost2010Prop36
280
     0
102
RTVSPost2010PropOp36
 70
     1
102
RTVSPost2010Prop37
 90
       50
102
RTVSPost2010PropOp37
 70
     1
102
RTVSPost2010Prop38
140
0.0
102
RTVSPost2010PropOp38
 70
     1
102
RTVSPost2010Prop39
140
1.0
102
RTVSPost2010PropOp39
 70
     1
102
RTVSPost2010Prop40
 90
        0
102
RTVSPost2010PropOp40
 70
     1
102
RTVSPost2010Prop41ColorIndex
 90
       18
102
RTVSPost2010Prop41ColorRGB
 90
        0
102
RTVSPost2010PropOp41
 70
     1
102
RTVSPost2010Prop42
 90
       50
102
RTVSPost2010PropOp42
 70
     1
102
RTVSPost2010Prop43
 90
        3
102
RTVSPost2010PropOp43
 70
     1
102
RTVSPost2010Prop44ColorIndex
 90
        5
102
RTVSPost2010Prop44ColorRGB
 90
      255
102
RTVSPost2010PropOp44
 70
     1
102
RTVSPost2010Prop45
280
     0
102
RTVSPost2010PropOp45
 70
     1
102
RTVSPost2010Prop46
 90
       50
102
RTVSPost2010PropOp46
 70
     1
102
RTVSPost2010Prop47
 90
       50
102
RTVSPost2010PropOp47
 70
     1
102
RTVSPost2010Prop48
 90
       50
102
RTVSPost2010PropOp48
 70
     1
102
RTVSPost2010Prop49
280
     0
102
RTVSPost2010PropOp49
 70
     1
102
RTVSPost2010Prop50
 90
       50
102
RTVSPost2010PropOp50
 70
     1
102
RTVSPost2010Prop51ColorIndex
 90
      256
102
RTVSPost2010Prop51ColorRGB
 90
-16777216
102
RTVSPost2010PropOp51
 70
     0
102
RTVSPost2010Prop52
140
1.0
102
RTVSPost2010PropOp52
 70
     0
102
RTVSPost2010Prop53
 90
        2
102
RTVSPost2010PropOp53
 70
     1
102
RTVSPost2010Prop54
  1
strokes_ogs.tif
102
RTVSPost2010PropOp54
 70
     1
102
RTVSPost2010Prop55
280
     0
102
RTVSPost2010PropOp55
 70
     1
102
RTVSPost2010Prop56
140
1.0
102
RTVSPost2010PropOp56
 70
     1
102
RTVSPost2010Prop57
140
1.0
102
RTVSPost2010PropOp57
 70
     1
102
RTVSPropertyOp0
 70
     1
102
RTVSPropertyOp1
 70
     1
102
RTVSPropertyOp2
 70
     1
102
RTVSPropertyOp3
 70
     1
102
RTVSPropertyOp4
 70
     1
102
RTVSPropertyOp5
 70
     1
102
RTVSPropertyOp6
 70
     1
102
RTVSPropertyOp7
 70
     1
102
RTVSPropertyOp8
 70
     1
102
RTVSPropertyOp9
 70
     1
102
RTVSPropertyOp10
 70
     1
102
RTVSPropertyOp11
 70
     1
102
RTVSPropertyOp12
 70
     1
102
RTVSPropertyOp13
 70
     1
102
RTVSPropertyOp14
 70
     1
102
RTVSPropertyOp15
 70
     1
102
RTVSPropertyOp16
 70
     1
102
RTVSPropertyOp17
 70
     1
102
RTVSPropertyOp18
 70
     1
102
RTVSPropertyOp19
 70
     1
102
RTVSPropertyOp20
 70
     1
102
RTVSPropertyOp21
 70
     1
102
RTVSPropertyOp22
 70
     1
102
RTVSPropertyOp23
 70
     1
102
RTVSPropertyOp24
 70
     1
102
RTVSPropertyOp25
 70
     1
102
RTVSPropertyOp26
 70
     1
102
RTVSPropertyOp27
 70
     1
102
RTVSPropertyOp28
 70
     1
102
RTVSPropertyOp29
 70
     1
102
RTVSPropertyOp30
 70
     1
102
RTVSPropertyOp31
 70
     1
102
RTVSPropertyOp32
 70
     1
102
RTVSPropertyOp33
 70
     1
102
RTVSPropertyOp34
 70
     1
102
RTVSPropertyOp35
 70
     1
102
RTVSPropertyOp36
 70
     1
102
RTVSPropertyOp37
 70
     1
102
RTVSPropertyOp38
 70
     1
102
RTVSPropertyOp39
 70
     1
102
RTVSPropertyOp40
 70
     1
102
RTVSPropertyOp41
 70
     1
102
RTVSPropertyOp42
 70
     1
102
RTVSPropertyOp43
 70
     1
102
RTVSPropertyOp44
 70
     1
102
RTVSPropertyOp45
 70
     1
102
RTVSPropertyOp46
 70
     1
102
RTVSPropertyOp47
 70
     1
102
RTVSPropertyOp48
 70
     1
102
RTVSPropertyOp49
 70
     1
102
RTVSPropertyOp50
 70
     1
102
RTVSPropertyOp51
 70
     0
102
RTVSPropertyOp52
 70
     0
102
RTVSPropertyOp53
 70
     1
102
RTVSPropertyOp54
 70
     1
102
RTVSPropertyOp55
 70
     1
102
RTVSPropertyOp56
 70
     1
102
RTVSPropertyOp57
 70
     1
102
RTVSPropertyOp58
 70
     1
102
RTVSPropertyOp59
 70
     1
102
RTVSPropertyOp60
 70
     1
102
RTVSPropertyOp61
 70
     1
102
RTVSPropertyOp62
 70
     1
  0
XRECORD
  5
8421
102
{ACAD_REACTORS
330
8420
102
}
330
8420
100
AcDbXrecord
280
     1
102
RTVSPost2010Prop28
280
     0
102
RTVSPost2010PropOp28
 70
     1
102
RTVSPost2010Prop29
280
     1
102
RTVSPost2010PropOp29
 70
     1
102
RTVSPost2010Prop30
280
     1
102
RTVSPost2010PropOp30
 70
     1
102
RTVSPost2010Prop31
280
     0
102
RTVSPost2010PropOp31
 70
     1
102
RTVSPost2010Prop32
280
     0
102
RTVSPost2010PropOp32
 70
     1
102
RTVSPost2010Prop33
280
     0
102
RTVSPost2010PropOp33
 70
     1
102
RTVSPost2010Prop34
280
     0
102
RTVSPost2010PropOp34
 70
     1
102
RTVSPost2010Prop35
280
     0
102
RTVSPost2010PropOp35
 70
     1
102
RTVSPost2010Prop36
280
     0
102
RTVSPost2010PropOp36
 70
     1
102
RTVSPost2010Prop37
 90
       50
102
RTVSPost2010PropOp37
 70
     1
102
RTVSPost2010Prop38
140
0.0
102
RTVSPost2010PropOp38
 70
     1
102
RTVSPost2010Prop39
140
1.0
102
RTVSPost2010PropOp39
 70
     1
102
RTVSPost2010Prop40
 90
        0
102
RTVSPost2010PropOp40
 70
     1
102
RTVSPost2010Prop41ColorIndex
 90
       18
102
RTVSPost2010Prop41ColorRGB
 90
        0
102
RTVSPost2010PropOp41
 70
     1
102
RTVSPost2010Prop42
 90
       50
102
RTVSPost2010PropOp42
 70
     1
102
RTVSPost2010Prop43
 90
        3
102
RTVSPost2010PropOp43
 70
     1
102
RTVSPost2010Prop44ColorIndex
 90
        5
102
RTVSPost2010Prop44ColorRGB
 90
      255
102
RTVSPost2010PropOp44
 70
     1
102
RTVSPost2010Prop45
280
     0
102
RTVSPost2010PropOp45
 70
     1
102
RTVSPost2010Prop46
 90
       50
102
RTVSPost2010PropOp46
 70
     1
102
RTVSPost2010Prop47
 90
       50
102
RTVSPost2010PropOp47
 70
     1
102
RTVSPost2010Prop48
 90
       50
102
RTVSPost2010PropOp48
 70
     1
102
RTVSPost2010Prop49
280
     0
102
RTVSPost2010PropOp49
 70
     1
102
RTVSPost2010Prop50
 90
       50
102
RTVSPost2010PropOp50
 70
     1
102
RTVSPost2010Prop51ColorIndex
 90
      256
102
RTVSPost2010Prop51ColorRGB
 90
-16777216
102
RTVSPost2010PropOp51
 70
     0
102
RTVSPost2010Prop52
140
1.0
102
RTVSPost2010PropOp52
 70
     0
102
RTVSPost2010Prop53
 90
        2
102
RTVSPost2010PropOp53
 70
     1
102
RTVSPost2010Prop54
  1
strokes_ogs.tif
102
RTVSPost2010PropOp54
 70
     1
102
RTVSPost2010Prop55
280
     0
102
RTVSPost2010PropOp55
 70
     1
102
RTVSPost2010Prop56
140
1.0
102
RTVSPost2010PropOp56
 70
     1
102
RTVSPost2010Prop57
140
1.0
102
RTVSPost2010PropOp57
 70
     1
102
RTVSPropertyOp0
 70
     1
102
RTVSPropertyOp1
 70
     1
102
RTVSPropertyOp2
 70
     1
102
RTVSPropertyOp3
 70
     1
102
RTVSPropertyOp4
 70
     1
102
RTVSPropertyOp5
 70
     1
102
RTVSPropertyOp6
 70
     1
102
RTVSPropertyOp7
 70
     1
102
RTVSPropertyOp8
 70
     1
102
RTVSPropertyOp9
 70
     1
102
RTVSPropertyOp10
 70
     1
102
RTVSPropertyOp11
 70
     1
102
RTVSPropertyOp12
 70
     1
102
RTVSPropertyOp13
 70
     1
102
RTVSPropertyOp14
 70
     1
102
RTVSPropertyOp15
 70
     1
102
RTVSPropertyOp16
 70
     1
102
RTVSPropertyOp17
 70
     1
102
RTVSPropertyOp18
 70
     1
102
RTVSPropertyOp19
 70
     1
102
RTVSPropertyOp20
 70
     1
102
RTVSPropertyOp21
 70
     1
102
RTVSPropertyOp22
 70
     1
102
RTVSPropertyOp23
 70
     1
102
RTVSPropertyOp24
 70
     1
102
RTVSPropertyOp25
 70
     1
102
RTVSPropertyOp26
 70
     1
102
RTVSPropertyOp27
 70
     1
102
RTVSPropertyOp28
 70
     1
102
RTVSPropertyOp29
 70
     1
102
RTVSPropertyOp30
 70
     1
102
RTVSPropertyOp31
 70
     1
102
RTVSPropertyOp32
 70
     1
102
RTVSPropertyOp33
 70
     1
102
RTVSPropertyOp34
 70
     1
102
RTVSPropertyOp35
 70
     1
102
RTVSPropertyOp36
 70
     1
102
RTVSPropertyOp37
 70
     1
102
RTVSPropertyOp38
 70
     1
102
RTVSPropertyOp39
 70
     1
102
RTVSPropertyOp40
 70
     1
102
RTVSPropertyOp41
 70
     1
102
RTVSPropertyOp42
 70
     1
102
RTVSPropertyOp43
 70
     1
102
RTVSPropertyOp44
 70
     1
102
RTVSPropertyOp45
 70
     1
102
RTVSPropertyOp46
 70
     1
102
RTVSPropertyOp47
 70
     1
102
RTVSPropertyOp48
 70
     1
102
RTVSPropertyOp49
 70
     1
102
RTVSPropertyOp50
 70
     1
102
RTVSPropertyOp51
 70
     0
102
RTVSPropertyOp52
 70
     0
102
RTVSPropertyOp53
 70
     1
102
RTVSPropertyOp54
 70
     1
102
RTVSPropertyOp55
 70
     1
102
RTVSPropertyOp56
 70
     1
102
RTVSPropertyOp57
 70
     1
102
RTVSPropertyOp58
 70
     1
102
RTVSPropertyOp59
 70
     1
102
RTVSPropertyOp60
 70
     1
102
RTVSPropertyOp61
 70
     1
102
RTVSPropertyOp62
 70
     1
  0
XRECORD
  5
8429
102
{ACAD_REACTORS
330
8428
102
}
330
8428
100
AcDbXrecord
280
     1
102
RTVSPost2010Prop28
280
     0
102
RTVSPost2010PropOp28
 70
     1
102
RTVSPost2010Prop29
280
     1
102
RTVSPost2010PropOp29
 70
     1
102
RTVSPost2010Prop30
280
     1
102
RTVSPost2010PropOp30
 70
     1
102
RTVSPost2010Prop31
280
     0
102
RTVSPost2010PropOp31
 70
     1
102
RTVSPost2010Prop32
280
     0
102
RTVSPost2010PropOp32
 70
     1
102
RTVSPost2010Prop33
280
     0
102
RTVSPost2010PropOp33
 70
     1
102
RTVSPost2010Prop34
280
     0
102
RTVSPost2010PropOp34
 70
     1
102
RTVSPost2010Prop35
280
     0
102
RTVSPost2010PropOp35
 70
     1
102
RTVSPost2010Prop36
280
     0
102
RTVSPost2010PropOp36
 70
     1
102
RTVSPost2010Prop37
 90
       50
102
RTVSPost2010PropOp37
 70
     1
102
RTVSPost2010Prop38
140
0.0
102
RTVSPost2010PropOp38
 70
     1
102
RTVSPost2010Prop39
140
1.0
102
RTVSPost2010PropOp39
 70
     1
102
RTVSPost2010Prop40
 90
        0
102
RTVSPost2010PropOp40
 70
     1
102
RTVSPost2010Prop41ColorIndex
 90
       18
102
RTVSPost2010Prop41ColorRGB
 90
        0
102
RTVSPost2010PropOp41
 70
     1
102
RTVSPost2010Prop42
 90
       50
102
RTVSPost2010PropOp42
 70
     1
102
RTVSPost2010Prop43
 90
        3
102
RTVSPost2010PropOp43
 70
     1
102
RTVSPost2010Prop44ColorIndex
 90
        5
102
RTVSPost2010Prop44ColorRGB
 90
      255
102
RTVSPost2010PropOp44
 70
     1
102
RTVSPost2010Prop45
280
     0
102
RTVSPost2010PropOp45
 70
     1
102
RTVSPost2010Prop46
 90
       50
102
RTVSPost2010PropOp46
 70
     1
102
RTVSPost2010Prop47
 90
       50
102
RTVSPost2010PropOp47
 70
     1
102
RTVSPost2010Prop48
 90
       50
102
RTVSPost2010PropOp48
 70
     1
102
RTVSPost2010Prop49
280
     0
102
RTVSPost2010PropOp49
 70
     1
102
RTVSPost2010Prop50
 90
       50
102
RTVSPost2010PropOp50
 70
     1
102
RTVSPost2010Prop51ColorIndex
 90
      256
102
RTVSPost2010Prop51ColorRGB
 90
-16777216
102
RTVSPost2010PropOp51
 70
     0
102
RTVSPost2010Prop52
140
1.0
102
RTVSPost2010PropOp52
 70
     0
102
RTVSPost2010Prop53
 90
        2
102
RTVSPost2010PropOp53
 70
     1
102
RTVSPost2010Prop54
  1
strokes_ogs.tif
102
RTVSPost2010PropOp54
 70
     1
102
RTVSPost2010Prop55
280
     0
102
RTVSPost2010PropOp55
 70
     1
102
RTVSPost2010Prop56
140
1.0
102
RTVSPost2010PropOp56
 70
     1
102
RTVSPost2010Prop57
140
1.0
102
RTVSPost2010PropOp57
 70
     1
102
RTVSPropertyOp0
 70
     1
102
RTVSPropertyOp1
 70
     1
102
RTVSPropertyOp2
 70
     1
102
RTVSPropertyOp3
 70
     1
102
RTVSPropertyOp4
 70
     1
102
RTVSPropertyOp5
 70
     1
102
RTVSPropertyOp6
 70
     1
102
RTVSPropertyOp7
 70
     1
102
RTVSPropertyOp8
 70
     1
102
RTVSPropertyOp9
 70
     1
102
RTVSPropertyOp10
 70
     1
102
RTVSPropertyOp11
 70
     1
102
RTVSPropertyOp12
 70
     1
102
RTVSPropertyOp13
 70
     1
102
RTVSPropertyOp14
 70
     1
102
RTVSPropertyOp15
 70
     1
102
RTVSPropertyOp16
 70
     1
102
RTVSPropertyOp17
 70
     1
102
RTVSPropertyOp18
 70
     1
102
RTVSPropertyOp19
 70
     1
102
RTVSPropertyOp20
 70
     1
102
RTVSPropertyOp21
 70
     1
102
RTVSPropertyOp22
 70
     1
102
RTVSPropertyOp23
 70
     1
102
RTVSPropertyOp24
 70
     1
102
RTVSPropertyOp25
 70
     1
102
RTVSPropertyOp26
 70
     1
102
RTVSPropertyOp27
 70
     1
102
RTVSPropertyOp28
 70
     1
102
RTVSPropertyOp29
 70
     1
102
RTVSPropertyOp30
 70
     1
102
RTVSPropertyOp31
 70
     1
102
RTVSPropertyOp32
 70
     1
102
RTVSPropertyOp33
 70
     1
102
RTVSPropertyOp34
 70
     1
102
RTVSPropertyOp35
 70
     1
102
RTVSPropertyOp36
 70
     1
102
RTVSPropertyOp37
 70
     1
102
RTVSPropertyOp38
 70
     1
102
RTVSPropertyOp39
 70
     1
102
RTVSPropertyOp40
 70
     1
102
RTVSPropertyOp41
 70
     1
102
RTVSPropertyOp42
 70
     1
102
RTVSPropertyOp43
 70
     1
102
RTVSPropertyOp44
 70
     1
102
RTVSPropertyOp45
 70
     1
102
RTVSPropertyOp46
 70
     1
102
RTVSPropertyOp47
 70
     1
102
RTVSPropertyOp48
 70
     1
102
RTVSPropertyOp49
 70
     1
102
RTVSPropertyOp50
 70
     1
102
RTVSPropertyOp51
 70
     0
102
RTVSPropertyOp52
 70
     0
102
RTVSPropertyOp53
 70
     1
102
RTVSPropertyOp54
 70
     1
102
RTVSPropertyOp55
 70
     1
102
RTVSPropertyOp56
 70
     1
102
RTVSPropertyOp57
 70
     1
102
RTVSPropertyOp58
 70
     1
102
RTVSPropertyOp59
 70
     1
102
RTVSPropertyOp60
 70
     1
102
RTVSPropertyOp61
 70
     1
102
RTVSPropertyOp62
 70
     1
  0
XRECORD
  5
841B
102
{ACAD_REACTORS
330
841A
102
}
330
841A
100
AcDbXrecord
280
     1
102
RTVSPost2010Prop28
280
     0
102
RTVSPost2010PropOp28
 70
     1
102
RTVSPost2010Prop29
280
     1
102
RTVSPost2010PropOp29
 70
     1
102
RTVSPost2010Prop30
280
     1
102
RTVSPost2010PropOp30
 70
     1
102
RTVSPost2010Prop31
280
     0
102
RTVSPost2010PropOp31
 70
     1
102
RTVSPost2010Prop32
280
     0
102
RTVSPost2010PropOp32
 70
     1
102
RTVSPost2010Prop33
280
     0
102
RTVSPost2010PropOp33
 70
     1
102
RTVSPost2010Prop34
280
     0
102
RTVSPost2010PropOp34
 70
     1
102
RTVSPost2010Prop35
280
     0
102
RTVSPost2010PropOp35
 70
     1
102
RTVSPost2010Prop36
280
     0
102
RTVSPost2010PropOp36
 70
     1
102
RTVSPost2010Prop37
 90
       50
102
RTVSPost2010PropOp37
 70
     1
102
RTVSPost2010Prop38
140
0.0
102
RTVSPost2010PropOp38
 70
     1
102
RTVSPost2010Prop39
140
1.0
102
RTVSPost2010PropOp39
 70
     1
102
RTVSPost2010Prop40
 90
        0
102
RTVSPost2010PropOp40
 70
     1
102
RTVSPost2010Prop41ColorIndex
 90
       18
102
RTVSPost2010Prop41ColorRGB
 90
        0
102
RTVSPost2010PropOp41
 70
     1
102
RTVSPost2010Prop42
 90
       50
102
RTVSPost2010PropOp42
 70
     1
102
RTVSPost2010Prop43
 90
        3
102
RTVSPost2010PropOp43
 70
     1
102
RTVSPost2010Prop44ColorIndex
 90
        5
102
RTVSPost2010Prop44ColorRGB
 90
      255
102
RTVSPost2010PropOp44
 70
     1
102
RTVSPost2010Prop45
280
     0
102
RTVSPost2010PropOp45
 70
     1
102
RTVSPost2010Prop46
 90
       50
102
RTVSPost2010PropOp46
 70
     1
102
RTVSPost2010Prop47
 90
       50
102
RTVSPost2010PropOp47
 70
     1
102
RTVSPost2010Prop48
 90
       50
102
RTVSPost2010PropOp48
 70
     1
102
RTVSPost2010Prop49
280
     0
102
RTVSPost2010PropOp49
 70
     1
102
RTVSPost2010Prop50
 90
       50
102
RTVSPost2010PropOp50
 70
     1
102
RTVSPost2010Prop51ColorIndex
 90
      256
102
RTVSPost2010Prop51ColorRGB
 90
-16777216
102
RTVSPost2010PropOp51
 70
     0
102
RTVSPost2010Prop52
140
1.0
102
RTVSPost2010PropOp52
 70
     0
102
RTVSPost2010Prop53
 90
        2
102
RTVSPost2010PropOp53
 70
     1
102
RTVSPost2010Prop54
  1
strokes_ogs.tif
102
RTVSPost2010PropOp54
 70
     1
102
RTVSPost2010Prop55
280
     0
102
RTVSPost2010PropOp55
 70
     1
102
RTVSPost2010Prop56
140
1.0
102
RTVSPost2010PropOp56
 70
     1
102
RTVSPost2010Prop57
140
1.0
102
RTVSPost2010PropOp57
 70
     1
102
RTVSPropertyOp0
 70
     1
102
RTVSPropertyOp1
 70
     1
102
RTVSPropertyOp2
 70
     1
102
RTVSPropertyOp3
 70
     1
102
RTVSPropertyOp4
 70
     1
102
RTVSPropertyOp5
 70
     1
102
RTVSPropertyOp6
 70
     1
102
RTVSPropertyOp7
 70
     1
102
RTVSPropertyOp8
 70
     1
102
RTVSPropertyOp9
 70
     1
102
RTVSPropertyOp10
 70
     1
102
RTVSPropertyOp11
 70
     1
102
RTVSPropertyOp12
 70
     1
102
RTVSPropertyOp13
 70
     1
102
RTVSPropertyOp14
 70
     1
102
RTVSPropertyOp15
 70
     1
102
RTVSPropertyOp16
 70
     1
102
RTVSPropertyOp17
 70
     1
102
RTVSPropertyOp18
 70
     1
102
RTVSPropertyOp19
 70
     1
102
RTVSPropertyOp20
 70
     1
102
RTVSPropertyOp21
 70
     1
102
RTVSPropertyOp22
 70
     1
102
RTVSPropertyOp23
 70
     1
102
RTVSPropertyOp24
 70
     1
102
RTVSPropertyOp25
 70
     1
102
RTVSPropertyOp26
 70
     1
102
RTVSPropertyOp27
 70
     1
102
RTVSPropertyOp28
 70
     1
102
RTVSPropertyOp29
 70
     1
102
RTVSPropertyOp30
 70
     1
102
RTVSPropertyOp31
 70
     1
102
RTVSPropertyOp32
 70
     1
102
RTVSPropertyOp33
 70
     1
102
RTVSPropertyOp34
 70
     1
102
RTVSPropertyOp35
 70
     1
102
RTVSPropertyOp36
 70
     1
102
RTVSPropertyOp37
 70
     1
102
RTVSPropertyOp38
 70
     1
102
RTVSPropertyOp39
 70
     1
102
RTVSPropertyOp40
 70
     1
102
RTVSPropertyOp41
 70
     1
102
RTVSPropertyOp42
 70
     1
102
RTVSPropertyOp43
 70
     1
102
RTVSPropertyOp44
 70
     1
102
RTVSPropertyOp45
 70
     1
102
RTVSPropertyOp46
 70
     1
102
RTVSPropertyOp47
 70
     1
102
RTVSPropertyOp48
 70
     1
102
RTVSPropertyOp49
 70
     1
102
RTVSPropertyOp50
 70
     1
102
RTVSPropertyOp51
 70
     0
102
RTVSPropertyOp52
 70
     0
102
RTVSPropertyOp53
 70
     1
102
RTVSPropertyOp54
 70
     1
102
RTVSPropertyOp55
 70
     1
102
RTVSPropertyOp56
 70
     1
102
RTVSPropertyOp57
 70
     1
102
RTVSPropertyOp58
 70
     1
102
RTVSPropertyOp59
 70
     1
102
RTVSPropertyOp60
 70
     1
102
RTVSPropertyOp61
 70
     1
102
RTVSPropertyOp62
 70
     1
  0
XRECORD
  5
841F
102
{ACAD_REACTORS
330
841E
102
}
330
841E
100
AcDbXrecord
280
     1
102
RTVSPost2010Prop28
280
     0
102
RTVSPost2010PropOp28
 70
     1
102
RTVSPost2010Prop29
280
     1
102
RTVSPost2010PropOp29
 70
     1
102
RTVSPost2010Prop30
280
     1
102
RTVSPost2010PropOp30
 70
     1
102
RTVSPost2010Prop31
280
     0
102
RTVSPost2010PropOp31
 70
     1
102
RTVSPost2010Prop32
280
     0
102
RTVSPost2010PropOp32
 70
     1
102
RTVSPost2010Prop33
280
     0
102
RTVSPost2010PropOp33
 70
     1
102
RTVSPost2010Prop34
280
     0
102
RTVSPost2010PropOp34
 70
     1
102
RTVSPost2010Prop35
280
     0
102
RTVSPost2010PropOp35
 70
     1
102
RTVSPost2010Prop36
280
     0
102
RTVSPost2010PropOp36
 70
     1
102
RTVSPost2010Prop37
 90
       50
102
RTVSPost2010PropOp37
 70
     1
102
RTVSPost2010Prop38
140
0.0
102
RTVSPost2010PropOp38
 70
     1
102
RTVSPost2010Prop39
140
1.0
102
RTVSPost2010PropOp39
 70
     1
102
RTVSPost2010Prop40
 90
        0
102
RTVSPost2010PropOp40
 70
     1
102
RTVSPost2010Prop41ColorIndex
 90
       18
102
RTVSPost2010Prop41ColorRGB
 90
        0
102
RTVSPost2010PropOp41
 70
     1
102
RTVSPost2010Prop42
 90
       50
102
RTVSPost2010PropOp42
 70
     1
102
RTVSPost2010Prop43
 90
        3
102
RTVSPost2010PropOp43
 70
     1
102
RTVSPost2010Prop44ColorIndex
 90
        5
102
RTVSPost2010Prop44ColorRGB
 90
      255
102
RTVSPost2010PropOp44
 70
     1
102
RTVSPost2010Prop45
280
     0
102
RTVSPost2010PropOp45
 70
     1
102
RTVSPost2010Prop46
 90
       50
102
RTVSPost2010PropOp46
 70
     1
102
RTVSPost2010Prop47
 90
       50
102
RTVSPost2010PropOp47
 70
     1
102
RTVSPost2010Prop48
 90
       50
102
RTVSPost2010PropOp48
 70
     1
102
RTVSPost2010Prop49
280
     0
102
RTVSPost2010PropOp49
 70
     1
102
RTVSPost2010Prop50
 90
       50
102
RTVSPost2010PropOp50
 70
     1
102
RTVSPost2010Prop51ColorIndex
 90
      256
102
RTVSPost2010Prop51ColorRGB
 90
-16777216
102
RTVSPost2010PropOp51
 70
     0
102
RTVSPost2010Prop52
140
1.0
102
RTVSPost2010PropOp52
 70
     0
102
RTVSPost2010Prop53
 90
        2
102
RTVSPost2010PropOp53
 70
     1
102
RTVSPost2010Prop54
  1
strokes_ogs.tif
102
RTVSPost2010PropOp54
 70
     1
102
RTVSPost2010Prop55
280
     0
102
RTVSPost2010PropOp55
 70
     1
102
RTVSPost2010Prop56
140
1.0
102
RTVSPost2010PropOp56
 70
     1
102
RTVSPost2010Prop57
140
1.0
102
RTVSPost2010PropOp57
 70
     1
102
RTVSPropertyOp0
 70
     1
102
RTVSPropertyOp1
 70
     1
102
RTVSPropertyOp2
 70
     1
102
RTVSPropertyOp3
 70
     1
102
RTVSPropertyOp4
 70
     1
102
RTVSPropertyOp5
 70
     1
102
RTVSPropertyOp6
 70
     1
102
RTVSPropertyOp7
 70
     1
102
RTVSPropertyOp8
 70
     1
102
RTVSPropertyOp9
 70
     1
102
RTVSPropertyOp10
 70
     1
102
RTVSPropertyOp11
 70
     1
102
RTVSPropertyOp12
 70
     1
102
RTVSPropertyOp13
 70
     1
102
RTVSPropertyOp14
 70
     1
102
RTVSPropertyOp15
 70
     1
102
RTVSPropertyOp16
 70
     1
102
RTVSPropertyOp17
 70
     1
102
RTVSPropertyOp18
 70
     1
102
RTVSPropertyOp19
 70
     1
102
RTVSPropertyOp20
 70
     1
102
RTVSPropertyOp21
 70
     1
102
RTVSPropertyOp22
 70
     1
102
RTVSPropertyOp23
 70
     1
102
RTVSPropertyOp24
 70
     1
102
RTVSPropertyOp25
 70
     1
102
RTVSPropertyOp26
 70
     1
102
RTVSPropertyOp27
 70
     1
102
RTVSPropertyOp28
 70
     1
102
RTVSPropertyOp29
 70
     1
102
RTVSPropertyOp30
 70
     1
102
RTVSPropertyOp31
 70
     1
102
RTVSPropertyOp32
 70
     1
102
RTVSPropertyOp33
 70
     1
102
RTVSPropertyOp34
 70
     1
102
RTVSPropertyOp35
 70
     1
102
RTVSPropertyOp36
 70
     1
102
RTVSPropertyOp37
 70
     1
102
RTVSPropertyOp38
 70
     1
102
RTVSPropertyOp39
 70
     1
102
RTVSPropertyOp40
 70
     1
102
RTVSPropertyOp41
 70
     1
102
RTVSPropertyOp42
 70
     1
102
RTVSPropertyOp43
 70
     1
102
RTVSPropertyOp44
 70
     1
102
RTVSPropertyOp45
 70
     1
102
RTVSPropertyOp46
 70
     1
102
RTVSPropertyOp47
 70
     1
102
RTVSPropertyOp48
 70
     1
102
RTVSPropertyOp49
 70
     1
102
RTVSPropertyOp50
 70
     1
102
RTVSPropertyOp51
 70
     0
102
RTVSPropertyOp52
 70
     0
102
RTVSPropertyOp53
 70
     1
102
RTVSPropertyOp54
 70
     1
102
RTVSPropertyOp55
 70
     1
102
RTVSPropertyOp56
 70
     1
102
RTVSPropertyOp57
 70
     1
102
RTVSPropertyOp58
 70
     1
102
RTVSPropertyOp59
 70
     1
102
RTVSPropertyOp60
 70
     1
102
RTVSPropertyOp61
 70
     1
102
RTVSPropertyOp62
 70
     1
  0
XRECORD
  5
8439
102
{ACAD_REACTORS
330
8438
102
}
330
8438
100
AcDbXrecord
280
     1
102
RTVSPost2010Prop28
280
     0
102
RTVSPost2010PropOp28
 70
     1
102
RTVSPost2010Prop29
280
     1
102
RTVSPost2010PropOp29
 70
     1
102
RTVSPost2010Prop30
280
     1
102
RTVSPost2010PropOp30
 70
     1
102
RTVSPost2010Prop31
280
     0
102
RTVSPost2010PropOp31
 70
     1
102
RTVSPost2010Prop32
280
     0
102
RTVSPost2010PropOp32
 70
     1
102
RTVSPost2010Prop33
280
     0
102
RTVSPost2010PropOp33
 70
     1
102
RTVSPost2010Prop34
280
     0
102
RTVSPost2010PropOp34
 70
     1
102
RTVSPost2010Prop35
280
     0
102
RTVSPost2010PropOp35
 70
     1
102
RTVSPost2010Prop36
280
     0
102
RTVSPost2010PropOp36
 70
     1
102
RTVSPost2010Prop37
 90
       50
102
RTVSPost2010PropOp37
 70
     0
102
RTVSPost2010Prop38
140
0.0
102
RTVSPost2010PropOp38
 70
     0
102
RTVSPost2010Prop39
140
1.0
102
RTVSPost2010PropOp39
 70
     0
102
RTVSPost2010Prop40
 90
        0
102
RTVSPost2010PropOp40
 70
     0
102
RTVSPost2010Prop41ColorIndex
 90
       18
102
RTVSPost2010Prop41ColorRGB
 90
        0
102
RTVSPost2010PropOp41
 70
     0
102
RTVSPost2010Prop42
 90
       50
102
RTVSPost2010PropOp42
 70
     0
102
RTVSPost2010Prop43
 90
        3
102
RTVSPost2010PropOp43
 70
     0
102
RTVSPost2010Prop44ColorIndex
 90
        5
102
RTVSPost2010Prop44ColorRGB
 90
      255
102
RTVSPost2010PropOp44
 70
     0
102
RTVSPost2010Prop45
280
     0
102
RTVSPost2010PropOp45
 70
     1
102
RTVSPost2010Prop46
 90
       50
102
RTVSPost2010PropOp46
 70
     0
102
RTVSPost2010Prop47
 90
       50
102
RTVSPost2010PropOp47
 70
     0
102
RTVSPost2010Prop48
 90
       50
102
RTVSPost2010PropOp48
 70
     0
102
RTVSPost2010Prop49
280
     0
102
RTVSPost2010PropOp49
 70
     1
102
RTVSPost2010Prop50
 90
       50
102
RTVSPost2010PropOp50
 70
     0
102
RTVSPost2010Prop51ColorIndex
 90
      256
102
RTVSPost2010Prop51ColorRGB
 90
-16777216
102
RTVSPost2010PropOp51
 70
     0
102
RTVSPost2010Prop52
140
1.0
102
RTVSPost2010PropOp52
 70
     0
102
RTVSPost2010Prop53
 90
        2
102
RTVSPost2010PropOp53
 70
     0
102
RTVSPost2010Prop54
  1
strokes_ogs.tif
102
RTVSPost2010PropOp54
 70
     0
102
RTVSPost2010Prop55
280
     0
102
RTVSPost2010PropOp55
 70
     1
102
RTVSPost2010Prop56
140
1.0
102
RTVSPost2010PropOp56
 70
     0
102
RTVSPost2010Prop57
140
1.0
102
RTVSPost2010PropOp57
 70
     0
102
RTVSPropertyOp0
 70
     0
102
RTVSPropertyOp1
 70
     0
102
RTVSPropertyOp2
 70
     0
102
RTVSPropertyOp3
 70
     0
102
RTVSPropertyOp4
 70
     0
102
RTVSPropertyOp5
 70
     0
102
RTVSPropertyOp6
 70
     0
102
RTVSPropertyOp7
 70
     0
102
RTVSPropertyOp8
 70
     0
102
RTVSPropertyOp9
 70
     0
102
RTVSPropertyOp10
 70
     0
102
RTVSPropertyOp11
 70
     0
102
RTVSPropertyOp12
 70
     0
102
RTVSPropertyOp13
 70
     0
102
RTVSPropertyOp14
 70
     2
102
RTVSPropertyOp15
 70
     0
102
RTVSPropertyOp16
 70
     0
102
RTVSPropertyOp17
 70
     0
102
RTVSPropertyOp18
 70
     0
102
RTVSPropertyOp19
 70
     0
102
RTVSPropertyOp20
 70
     0
102
RTVSPropertyOp21
 70
     0
102
RTVSPropertyOp22
 70
     0
102
RTVSPropertyOp23
 70
     0
102
RTVSPropertyOp24
 70
     0
102
RTVSPropertyOp25
 70
     0
102
RTVSPropertyOp26
 70
     0
102
RTVSPropertyOp27
 70
     0
102
RTVSPropertyOp28
 70
     1
102
RTVSPropertyOp29
 70
     1
102
RTVSPropertyOp30
 70
     1
102
RTVSPropertyOp31
 70
     1
102
RTVSPropertyOp32
 70
     1
102
RTVSPropertyOp33
 70
     1
102
RTVSPropertyOp34
 70
     1
102
RTVSPropertyOp35
 70
     1
102
RTVSPropertyOp36
 70
     1
102
RTVSPropertyOp37
 70
     0
102
RTVSPropertyOp38
 70
     0
102
RTVSPropertyOp39
 70
     0
102
RTVSPropertyOp40
 70
     0
102
RTVSPropertyOp41
 70
     0
102
RTVSPropertyOp42
 70
     0
102
RTVSPropertyOp43
 70
     0
102
RTVSPropertyOp44
 70
     0
102
RTVSPropertyOp45
 70
     1
102
RTVSPropertyOp46
 70
     0
102
RTVSPropertyOp47
 70
     0
102
RTVSPropertyOp48
 70
     0
102
RTVSPropertyOp49
 70
     1
102
RTVSPropertyOp50
 70
     0
102
RTVSPropertyOp51
 70
     0
102
RTVSPropertyOp52
 70
     0
102
RTVSPropertyOp53
 70
     0
102
RTVSPropertyOp54
 70
     0
102
RTVSPropertyOp55
 70
     1
102
RTVSPropertyOp56
 70
     0
102
RTVSPropertyOp57
 70
     0
102
RTVSPropertyOp58
 70
     0
102
RTVSPropertyOp59
 70
     0
102
RTVSPropertyOp60
 70
     0
102
RTVSPropertyOp61
 70
     0
102
RTVSPropertyOp62
 70
     0
  0
XRECORD
  5
8427
102
{ACAD_REACTORS
330
8426
102
}
330
8426
100
AcDbXrecord
280
     1
102
RTVSPost2010Prop28
280
     0
102
RTVSPost2010PropOp28
 70
     1
102
RTVSPost2010Prop29
280
     1
102
RTVSPost2010PropOp29
 70
     1
102
RTVSPost2010Prop30
280
     1
102
RTVSPost2010PropOp30
 70
     1
102
RTVSPost2010Prop31
280
     0
102
RTVSPost2010PropOp31
 70
     1
102
RTVSPost2010Prop32
280
     0
102
RTVSPost2010PropOp32
 70
     1
102
RTVSPost2010Prop33
280
     0
102
RTVSPost2010PropOp33
 70
     1
102
RTVSPost2010Prop34
280
     0
102
RTVSPost2010PropOp34
 70
     1
102
RTVSPost2010Prop35
280
     0
102
RTVSPost2010PropOp35
 70
     1
102
RTVSPost2010Prop36
280
     0
102
RTVSPost2010PropOp36
 70
     1
102
RTVSPost2010Prop37
 90
       50
102
RTVSPost2010PropOp37
 70
     1
102
RTVSPost2010Prop38
140
0.0
102
RTVSPost2010PropOp38
 70
     1
102
RTVSPost2010Prop39
140
1.0
102
RTVSPost2010PropOp39
 70
     1
102
RTVSPost2010Prop40
 90
        0
102
RTVSPost2010PropOp40
 70
     1
102
RTVSPost2010Prop41ColorIndex
 90
       18
102
RTVSPost2010Prop41ColorRGB
 90
        0
102
RTVSPost2010PropOp41
 70
     1
102
RTVSPost2010Prop42
 90
       50
102
RTVSPost2010PropOp42
 70
     1
102
RTVSPost2010Prop43
 90
        3
102
RTVSPost2010PropOp43
 70
     1
102
RTVSPost2010Prop44ColorIndex
 90
        5
102
RTVSPost2010Prop44ColorRGB
 90
      255
102
RTVSPost2010PropOp44
 70
     1
102
RTVSPost2010Prop45
280
     0
102
RTVSPost2010PropOp45
 70
     1
102
RTVSPost2010Prop46
 90
       50
102
RTVSPost2010PropOp46
 70
     1
102
RTVSPost2010Prop47
 90
       50
102
RTVSPost2010PropOp47
 70
     1
102
RTVSPost2010Prop48
 90
       50
102
RTVSPost2010PropOp48
 70
     1
102
RTVSPost2010Prop49
280
     0
102
RTVSPost2010PropOp49
 70
     1
102
RTVSPost2010Prop50
 90
       50
102
RTVSPost2010PropOp50
 70
     1
102
RTVSPost2010Prop51ColorIndex
 90
      256
102
RTVSPost2010Prop51ColorRGB
 90
-16777216
102
RTVSPost2010PropOp51
 70
     0
102
RTVSPost2010Prop52
140
1.0
102
RTVSPost2010PropOp52
 70
     0
102
RTVSPost2010Prop53
 90
        2
102
RTVSPost2010PropOp53
 70
     1
102
RTVSPost2010Prop54
  1
strokes_ogs.tif
102
RTVSPost2010PropOp54
 70
     1
102
RTVSPost2010Prop55
280
     0
102
RTVSPost2010PropOp55
 70
     1
102
RTVSPost2010Prop56
140
1.0
102
RTVSPost2010PropOp56
 70
     1
102
RTVSPost2010Prop57
140
1.0
102
RTVSPost2010PropOp57
 70
     1
102
RTVSPropertyOp0
 70
     1
102
RTVSPropertyOp1
 70
     1
102
RTVSPropertyOp2
 70
     1
102
RTVSPropertyOp3
 70
     1
102
RTVSPropertyOp4
 70
     1
102
RTVSPropertyOp5
 70
     1
102
RTVSPropertyOp6
 70
     1
102
RTVSPropertyOp7
 70
     1
102
RTVSPropertyOp8
 70
     1
102
RTVSPropertyOp9
 70
     1
102
RTVSPropertyOp10
 70
     1
102
RTVSPropertyOp11
 70
     1
102
RTVSPropertyOp12
 70
     1
102
RTVSPropertyOp13
 70
     1
102
RTVSPropertyOp14
 70
     1
102
RTVSPropertyOp15
 70
     1
102
RTVSPropertyOp16
 70
     1
102
RTVSPropertyOp17
 70
     1
102
RTVSPropertyOp18
 70
     1
102
RTVSPropertyOp19
 70
     1
102
RTVSPropertyOp20
 70
     1
102
RTVSPropertyOp21
 70
     1
102
RTVSPropertyOp22
 70
     1
102
RTVSPropertyOp23
 70
     1
102
RTVSPropertyOp24
 70
     1
102
RTVSPropertyOp25
 70
     1
102
RTVSPropertyOp26
 70
     1
102
RTVSPropertyOp27
 70
     1
102
RTVSPropertyOp28
 70
     1
102
RTVSPropertyOp29
 70
     1
102
RTVSPropertyOp30
 70
     1
102
RTVSPropertyOp31
 70
     1
102
RTVSPropertyOp32
 70
     1
102
RTVSPropertyOp33
 70
     1
102
RTVSPropertyOp34
 70
     1
102
RTVSPropertyOp35
 70
     1
102
RTVSPropertyOp36
 70
     1
102
RTVSPropertyOp37
 70
     1
102
RTVSPropertyOp38
 70
     1
102
RTVSPropertyOp39
 70
     1
102
RTVSPropertyOp40
 70
     1
102
RTVSPropertyOp41
 70
     1
102
RTVSPropertyOp42
 70
     1
102
RTVSPropertyOp43
 70
     1
102
RTVSPropertyOp44
 70
     1
102
RTVSPropertyOp45
 70
     1
102
RTVSPropertyOp46
 70
     1
102
RTVSPropertyOp47
 70
     1
102
RTVSPropertyOp48
 70
     1
102
RTVSPropertyOp49
 70
     1
102
RTVSPropertyOp50
 70
     1
102
RTVSPropertyOp51
 70
     0
102
RTVSPropertyOp52
 70
     0
102
RTVSPropertyOp53
 70
     1
102
RTVSPropertyOp54
 70
     1
102
RTVSPropertyOp55
 70
     1
102
RTVSPropertyOp56
 70
     1
102
RTVSPropertyOp57
 70
     1
102
RTVSPropertyOp58
 70
     1
102
RTVSPropertyOp59
 70
     1
102
RTVSPropertyOp60
 70
     1
102
RTVSPropertyOp61
 70
     1
102
RTVSPropertyOp62
 70
     1
  0
XRECORD
  5
840B
102
{ACAD_REACTORS
330
840A
102
}
330
840A
100
AcDbXrecord
280
     1
102
RTVSPost2010Prop28
280
     0
102
RTVSPost2010PropOp28
 70
     1
102
RTVSPost2010Prop29
280
     1
102
RTVSPost2010PropOp29
 70
     1
102
RTVSPost2010Prop30
280
     1
102
RTVSPost2010PropOp30
 70
     1
102
RTVSPost2010Prop31
280
     0
102
RTVSPost2010PropOp31
 70
     1
102
RTVSPost2010Prop32
280
     0
102
RTVSPost2010PropOp32
 70
     1
102
RTVSPost2010Prop33
280
     0
102
RTVSPost2010PropOp33
 70
     1
102
RTVSPost2010Prop34
280
     0
102
RTVSPost2010PropOp34
 70
     1
102
RTVSPost2010Prop35
280
     0
102
RTVSPost2010PropOp35
 70
     1
102
RTVSPost2010Prop36
280
     0
102
RTVSPost2010PropOp36
 70
     1
102
RTVSPost2010Prop37
 90
       50
102
RTVSPost2010PropOp37
 70
     1
102
RTVSPost2010Prop38
140
0.0
102
RTVSPost2010PropOp38
 70
     1
102
RTVSPost2010Prop39
140
1.0
102
RTVSPost2010PropOp39
 70
     1
102
RTVSPost2010Prop40
 90
        0
102
RTVSPost2010PropOp40
 70
     1
102
RTVSPost2010Prop41ColorIndex
 90
       18
102
RTVSPost2010Prop41ColorRGB
 90
        0
102
RTVSPost2010PropOp41
 70
     1
102
RTVSPost2010Prop42
 90
       50
102
RTVSPost2010PropOp42
 70
     1
102
RTVSPost2010Prop43
 90
        3
102
RTVSPost2010PropOp43
 70
     1
102
RTVSPost2010Prop44ColorIndex
 90
        5
102
RTVSPost2010Prop44ColorRGB
 90
      255
102
RTVSPost2010PropOp44
 70
     1
102
RTVSPost2010Prop45
280
     0
102
RTVSPost2010PropOp45
 70
     1
102
RTVSPost2010Prop46
 90
       50
102
RTVSPost2010PropOp46
 70
     1
102
RTVSPost2010Prop47
 90
       50
102
RTVSPost2010PropOp47
 70
     1
102
RTVSPost2010Prop48
 90
       50
102
RTVSPost2010PropOp48
 70
     1
102
RTVSPost2010Prop49
280
     0
102
RTVSPost2010PropOp49
 70
     1
102
RTVSPost2010Prop50
 90
       50
102
RTVSPost2010PropOp50
 70
     1
102
RTVSPost2010Prop51ColorIndex
 90
      256
102
RTVSPost2010Prop51ColorRGB
 90
-16777216
102
RTVSPost2010PropOp51
 70
     0
102
RTVSPost2010Prop52
140
1.0
102
RTVSPost2010PropOp52
 70
     0
102
RTVSPost2010Prop53
 90
        2
102
RTVSPost2010PropOp53
 70
     1
102
RTVSPost2010Prop54
  1
strokes_ogs.tif
102
RTVSPost2010PropOp54
 70
     1
102
RTVSPost2010Prop55
280
     0
102
RTVSPost2010PropOp55
 70
     1
102
RTVSPost2010Prop56
140
1.0
102
RTVSPost2010PropOp56
 70
     1
102
RTVSPost2010Prop57
140
1.0
102
RTVSPost2010PropOp57
 70
     1
102
RTVSPropertyOp0
 70
     1
102
RTVSPropertyOp1
 70
     1
102
RTVSPropertyOp2
 70
     1
102
RTVSPropertyOp3
 70
     1
102
RTVSPropertyOp4
 70
     1
102
RTVSPropertyOp5
 70
     1
102
RTVSPropertyOp6
 70
     1
102
RTVSPropertyOp7
 70
     1
102
RTVSPropertyOp8
 70
     1
102
RTVSPropertyOp9
 70
     1
102
RTVSPropertyOp10
 70
     1
102
RTVSPropertyOp11
 70
     1
102
RTVSPropertyOp12
 70
     1
102
RTVSPropertyOp13
 70
     1
102
RTVSPropertyOp14
 70
     1
102
RTVSPropertyOp15
 70
     1
102
RTVSPropertyOp16
 70
     1
102
RTVSPropertyOp17
 70
     1
102
RTVSPropertyOp18
 70
     1
102
RTVSPropertyOp19
 70
     1
102
RTVSPropertyOp20
 70
     1
102
RTVSPropertyOp21
 70
     1
102
RTVSPropertyOp22
 70
     1
102
RTVSPropertyOp23
 70
     1
102
RTVSPropertyOp24
 70
     1
102
RTVSPropertyOp25
 70
     1
102
RTVSPropertyOp26
 70
     1
102
RTVSPropertyOp27
 70
     1
102
RTVSPropertyOp28
 70
     1
102
RTVSPropertyOp29
 70
     1
102
RTVSPropertyOp30
 70
     1
102
RTVSPropertyOp31
 70
     1
102
RTVSPropertyOp32
 70
     1
102
RTVSPropertyOp33
 70
     1
102
RTVSPropertyOp34
 70
     1
102
RTVSPropertyOp35
 70
     1
102
RTVSPropertyOp36
 70
     1
102
RTVSPropertyOp37
 70
     1
102
RTVSPropertyOp38
 70
     1
102
RTVSPropertyOp39
 70
     1
102
RTVSPropertyOp40
 70
     1
102
RTVSPropertyOp41
 70
     1
102
RTVSPropertyOp42
 70
     1
102
RTVSPropertyOp43
 70
     1
102
RTVSPropertyOp44
 70
     1
102
RTVSPropertyOp45
 70
     1
102
RTVSPropertyOp46
 70
     1
102
RTVSPropertyOp47
 70
     1
102
RTVSPropertyOp48
 70
     1
102
RTVSPropertyOp49
 70
     1
102
RTVSPropertyOp50
 70
     1
102
RTVSPropertyOp51
 70
     0
102
RTVSPropertyOp52
 70
     0
102
RTVSPropertyOp53
 70
     1
102
RTVSPropertyOp54
 70
     1
102
RTVSPropertyOp55
 70
     1
102
RTVSPropertyOp56
 70
     1
102
RTVSPropertyOp57
 70
     1
102
RTVSPropertyOp58
 70
     1
102
RTVSPropertyOp59
 70
     1
102
RTVSPropertyOp60
 70
     1
102
RTVSPropertyOp61
 70
     1
102
RTVSPropertyOp62
 70
     1
  0
XRECORD
  5
840D
102
{ACAD_REACTORS
330
840C
102
}
330
840C
100
AcDbXrecord
280
     1
102
RTVSPost2010Prop28
280
     0
102
RTVSPost2010PropOp28
 70
     1
102
RTVSPost2010Prop29
280
     1
102
RTVSPost2010PropOp29
 70
     1
102
RTVSPost2010Prop30
280
     1
102
RTVSPost2010PropOp30
 70
     1
102
RTVSPost2010Prop31
280
     0
102
RTVSPost2010PropOp31
 70
     1
102
RTVSPost2010Prop32
280
     0
102
RTVSPost2010PropOp32
 70
     1
102
RTVSPost2010Prop33
280
     0
102
RTVSPost2010PropOp33
 70
     1
102
RTVSPost2010Prop34
280
     0
102
RTVSPost2010PropOp34
 70
     1
102
RTVSPost2010Prop35
280
     0
102
RTVSPost2010PropOp35
 70
     1
102
RTVSPost2010Prop36
280
     0
102
RTVSPost2010PropOp36
 70
     1
102
RTVSPost2010Prop37
 90
       50
102
RTVSPost2010PropOp37
 70
     1
102
RTVSPost2010Prop38
140
0.0
102
RTVSPost2010PropOp38
 70
     1
102
RTVSPost2010Prop39
140
1.0
102
RTVSPost2010PropOp39
 70
     1
102
RTVSPost2010Prop40
 90
        0
102
RTVSPost2010PropOp40
 70
     1
102
RTVSPost2010Prop41ColorIndex
 90
       18
102
RTVSPost2010Prop41ColorRGB
 90
        0
102
RTVSPost2010PropOp41
 70
     1
102
RTVSPost2010Prop42
 90
       50
102
RTVSPost2010PropOp42
 70
     1
102
RTVSPost2010Prop43
 90
        3
102
RTVSPost2010PropOp43
 70
     1
102
RTVSPost2010Prop44ColorIndex
 90
        5
102
RTVSPost2010Prop44ColorRGB
 90
      255
102
RTVSPost2010PropOp44
 70
     1
102
RTVSPost2010Prop45
280
     0
102
RTVSPost2010PropOp45
 70
     1
102
RTVSPost2010Prop46
 90
       50
102
RTVSPost2010PropOp46
 70
     1
102
RTVSPost2010Prop47
 90
       50
102
RTVSPost2010PropOp47
 70
     1
102
RTVSPost2010Prop48
 90
       50
102
RTVSPost2010PropOp48
 70
     1
102
RTVSPost2010Prop49
280
     0
102
RTVSPost2010PropOp49
 70
     1
102
RTVSPost2010Prop50
 90
       50
102
RTVSPost2010PropOp50
 70
     1
102
RTVSPost2010Prop51ColorIndex
 90
      256
102
RTVSPost2010Prop51ColorRGB
 90
-16777216
102
RTVSPost2010PropOp51
 70
     0
102
RTVSPost2010Prop52
140
1.0
102
RTVSPost2010PropOp52
 70
     0
102
RTVSPost2010Prop53
 90
        2
102
RTVSPost2010PropOp53
 70
     1
102
RTVSPost2010Prop54
  1
strokes_ogs.tif
102
RTVSPost2010PropOp54
 70
     1
102
RTVSPost2010Prop55
280
     0
102
RTVSPost2010PropOp55
 70
     1
102
RTVSPost2010Prop56
140
1.0
102
RTVSPost2010PropOp56
 70
     1
102
RTVSPost2010Prop57
140
1.0
102
RTVSPost2010PropOp57
 70
     1
102
RTVSPropertyOp0
 70
     1
102
RTVSPropertyOp1
 70
     1
102
RTVSPropertyOp2
 70
     1
102
RTVSPropertyOp3
 70
     1
102
RTVSPropertyOp4
 70
     1
102
RTVSPropertyOp5
 70
     1
102
RTVSPropertyOp6
 70
     1
102
RTVSPropertyOp7
 70
     1
102
RTVSPropertyOp8
 70
     1
102
RTVSPropertyOp9
 70
     1
102
RTVSPropertyOp10
 70
     1
102
RTVSPropertyOp11
 70
     1
102
RTVSPropertyOp12
 70
     1
102
RTVSPropertyOp13
 70
     1
102
RTVSPropertyOp14
 70
     1
102
RTVSPropertyOp15
 70
     1
102
RTVSPropertyOp16
 70
     1
102
RTVSPropertyOp17
 70
     1
102
RTVSPropertyOp18
 70
     1
102
RTVSPropertyOp19
 70
     1
102
RTVSPropertyOp20
 70
     1
102
RTVSPropertyOp21
 70
     1
102
RTVSPropertyOp22
 70
     1
102
RTVSPropertyOp23
 70
     1
102
RTVSPropertyOp24
 70
     1
102
RTVSPropertyOp25
 70
     1
102
RTVSPropertyOp26
 70
     1
102
RTVSPropertyOp27
 70
     1
102
RTVSPropertyOp28
 70
     1
102
RTVSPropertyOp29
 70
     1
102
RTVSPropertyOp30
 70
     1
102
RTVSPropertyOp31
 70
     1
102
RTVSPropertyOp32
 70
     1
102
RTVSPropertyOp33
 70
     1
102
RTVSPropertyOp34
 70
     1
102
RTVSPropertyOp35
 70
     1
102
RTVSPropertyOp36
 70
     1
102
RTVSPropertyOp37
 70
     1
102
RTVSPropertyOp38
 70
     1
102
RTVSPropertyOp39
 70
     1
102
RTVSPropertyOp40
 70
     1
102
RTVSPropertyOp41
 70
     1
102
RTVSPropertyOp42
 70
     1
102
RTVSPropertyOp43
 70
     1
102
RTVSPropertyOp44
 70
     1
102
RTVSPropertyOp45
 70
     1
102
RTVSPropertyOp46
 70
     1
102
RTVSPropertyOp47
 70
     1
102
RTVSPropertyOp48
 70
     1
102
RTVSPropertyOp49
 70
     1
102
RTVSPropertyOp50
 70
     1
102
RTVSPropertyOp51
 70
     0
102
RTVSPropertyOp52
 70
     0
102
RTVSPropertyOp53
 70
     1
102
RTVSPropertyOp54
 70
     1
102
RTVSPropertyOp55
 70
     1
102
RTVSPropertyOp56
 70
     1
102
RTVSPropertyOp57
 70
     1
102
RTVSPropertyOp58
 70
     1
102
RTVSPropertyOp59
 70
     1
102
RTVSPropertyOp60
 70
     1
102
RTVSPropertyOp61
 70
     1
102
RTVSPropertyOp62
 70
     1
  0
XRECORD
  5
840F
102
{ACAD_REACTORS
330
840E
102
}
330
840E
100
AcDbXrecord
280
     1
102
RTVSPost2010Prop28
280
     0
102
RTVSPost2010PropOp28
 70
     1
102
RTVSPost2010Prop29
280
     1
102
RTVSPost2010PropOp29
 70
     1
102
RTVSPost2010Prop30
280
     1
102
RTVSPost2010PropOp30
 70
     1
102
RTVSPost2010Prop31
280
     0
102
RTVSPost2010PropOp31
 70
     1
102
RTVSPost2010Prop32
280
     0
102
RTVSPost2010PropOp32
 70
     1
102
RTVSPost2010Prop33
280
     0
102
RTVSPost2010PropOp33
 70
     1
102
RTVSPost2010Prop34
280
     0
102
RTVSPost2010PropOp34
 70
     1
102
RTVSPost2010Prop35
280
     0
102
RTVSPost2010PropOp35
 70
     1
102
RTVSPost2010Prop36
280
     0
102
RTVSPost2010PropOp36
 70
     1
102
RTVSPost2010Prop37
 90
       50
102
RTVSPost2010PropOp37
 70
     1
102
RTVSPost2010Prop38
140
0.0
102
RTVSPost2010PropOp38
 70
     1
102
RTVSPost2010Prop39
140
1.0
102
RTVSPost2010PropOp39
 70
     1
102
RTVSPost2010Prop40
 90
        0
102
RTVSPost2010PropOp40
 70
     1
102
RTVSPost2010Prop41ColorIndex
 90
       18
102
RTVSPost2010Prop41ColorRGB
 90
        0
102
RTVSPost2010PropOp41
 70
     1
102
RTVSPost2010Prop42
 90
       50
102
RTVSPost2010PropOp42
 70
     1
102
RTVSPost2010Prop43
 90
        3
102
RTVSPost2010PropOp43
 70
     1
102
RTVSPost2010Prop44ColorIndex
 90
        5
102
RTVSPost2010Prop44ColorRGB
 90
      255
102
RTVSPost2010PropOp44
 70
     1
102
RTVSPost2010Prop45
280
     0
102
RTVSPost2010PropOp45
 70
     1
102
RTVSPost2010Prop46
 90
       50
102
RTVSPost2010PropOp46
 70
     1
102
RTVSPost2010Prop47
 90
       50
102
RTVSPost2010PropOp47
 70
     1
102
RTVSPost2010Prop48
 90
       50
102
RTVSPost2010PropOp48
 70
     1
102
RTVSPost2010Prop49
280
     0
102
RTVSPost2010PropOp49
 70
     1
102
RTVSPost2010Prop50
 90
       50
102
RTVSPost2010PropOp50
 70
     1
102
RTVSPost2010Prop51ColorIndex
 90
      256
102
RTVSPost2010Prop51ColorRGB
 90
-16777216
102
RTVSPost2010PropOp51
 70
     0
102
RTVSPost2010Prop52
140
1.0
102
RTVSPost2010PropOp52
 70
     0
102
RTVSPost2010Prop53
 90
        2
102
RTVSPost2010PropOp53
 70
     1
102
RTVSPost2010Prop54
  1
strokes_ogs.tif
102
RTVSPost2010PropOp54
 70
     1
102
RTVSPost2010Prop55
280
     0
102
RTVSPost2010PropOp55
 70
     1
102
RTVSPost2010Prop56
140
1.0
102
RTVSPost2010PropOp56
 70
     1
102
RTVSPost2010Prop57
140
1.0
102
RTVSPost2010PropOp57
 70
     1
102
RTVSPropertyOp0
 70
     1
102
RTVSPropertyOp1
 70
     1
102
RTVSPropertyOp2
 70
     1
102
RTVSPropertyOp3
 70
     1
102
RTVSPropertyOp4
 70
     1
102
RTVSPropertyOp5
 70
     1
102
RTVSPropertyOp6
 70
     1
102
RTVSPropertyOp7
 70
     1
102
RTVSPropertyOp8
 70
     1
102
RTVSPropertyOp9
 70
     1
102
RTVSPropertyOp10
 70
     1
102
RTVSPropertyOp11
 70
     1
102
RTVSPropertyOp12
 70
     1
102
RTVSPropertyOp13
 70
     1
102
RTVSPropertyOp14
 70
     1
102
RTVSPropertyOp15
 70
     1
102
RTVSPropertyOp16
 70
     1
102
RTVSPropertyOp17
 70
     1
102
RTVSPropertyOp18
 70
     1
102
RTVSPropertyOp19
 70
     1
102
RTVSPropertyOp20
 70
     1
102
RTVSPropertyOp21
 70
     1
102
RTVSPropertyOp22
 70
     1
102
RTVSPropertyOp23
 70
     1
102
RTVSPropertyOp24
 70
     1
102
RTVSPropertyOp25
 70
     1
102
RTVSPropertyOp26
 70
     1
102
RTVSPropertyOp27
 70
     1
102
RTVSPropertyOp28
 70
     1
102
RTVSPropertyOp29
 70
     1
102
RTVSPropertyOp30
 70
     1
102
RTVSPropertyOp31
 70
     1
102
RTVSPropertyOp32
 70
     1
102
RTVSPropertyOp33
 70
     1
102
RTVSPropertyOp34
 70
     1
102
RTVSPropertyOp35
 70
     1
102
RTVSPropertyOp36
 70
     1
102
RTVSPropertyOp37
 70
     1
102
RTVSPropertyOp38
 70
     1
102
RTVSPropertyOp39
 70
     1
102
RTVSPropertyOp40
 70
     1
102
RTVSPropertyOp41
 70
     1
102
RTVSPropertyOp42
 70
     1
102
RTVSPropertyOp43
 70
     1
102
RTVSPropertyOp44
 70
     1
102
RTVSPropertyOp45
 70
     1
102
RTVSPropertyOp46
 70
     1
102
RTVSPropertyOp47
 70
     1
102
RTVSPropertyOp48
 70
     1
102
RTVSPropertyOp49
 70
     1
102
RTVSPropertyOp50
 70
     1
102
RTVSPropertyOp51
 70
     0
102
RTVSPropertyOp52
 70
     0
102
RTVSPropertyOp53
 70
     1
102
RTVSPropertyOp54
 70
     1
102
RTVSPropertyOp55
 70
     1
102
RTVSPropertyOp56
 70
     1
102
RTVSPropertyOp57
 70
     1
102
RTVSPropertyOp58
 70
     1
102
RTVSPropertyOp59
 70
     1
102
RTVSPropertyOp60
 70
     1
102
RTVSPropertyOp61
 70
     1
102
RTVSPropertyOp62
 70
     1
  0
XRECORD
  5
8411
102
{ACAD_REACTORS
330
8410
102
}
330
8410
100
AcDbXrecord
280
     1
102
RTVSPost2010Prop28
280
     0
102
RTVSPost2010PropOp28
 70
     1
102
RTVSPost2010Prop29
280
     1
102
RTVSPost2010PropOp29
 70
     1
102
RTVSPost2010Prop30
280
     1
102
RTVSPost2010PropOp30
 70
     1
102
RTVSPost2010Prop31
280
     0
102
RTVSPost2010PropOp31
 70
     1
102
RTVSPost2010Prop32
280
     0
102
RTVSPost2010PropOp32
 70
     1
102
RTVSPost2010Prop33
280
     0
102
RTVSPost2010PropOp33
 70
     1
102
RTVSPost2010Prop34
280
     0
102
RTVSPost2010PropOp34
 70
     1
102
RTVSPost2010Prop35
280
     0
102
RTVSPost2010PropOp35
 70
     1
102
RTVSPost2010Prop36
280
     0
102
RTVSPost2010PropOp36
 70
     1
102
RTVSPost2010Prop37
 90
       50
102
RTVSPost2010PropOp37
 70
     1
102
RTVSPost2010Prop38
140
0.0
102
RTVSPost2010PropOp38
 70
     1
102
RTVSPost2010Prop39
140
1.0
102
RTVSPost2010PropOp39
 70
     1
102
RTVSPost2010Prop40
 90
        0
102
RTVSPost2010PropOp40
 70
     1
102
RTVSPost2010Prop41ColorIndex
 90
       18
102
RTVSPost2010Prop41ColorRGB
 90
        0
102
RTVSPost2010PropOp41
 70
     1
102
RTVSPost2010Prop42
 90
       50
102
RTVSPost2010PropOp42
 70
     1
102
RTVSPost2010Prop43
 90
        3
102
RTVSPost2010PropOp43
 70
     1
102
RTVSPost2010Prop44ColorIndex
 90
        5
102
RTVSPost2010Prop44ColorRGB
 90
      255
102
RTVSPost2010PropOp44
 70
     1
102
RTVSPost2010Prop45
280
     0
102
RTVSPost2010PropOp45
 70
     1
102
RTVSPost2010Prop46
 90
       50
102
RTVSPost2010PropOp46
 70
     1
102
RTVSPost2010Prop47
 90
       50
102
RTVSPost2010PropOp47
 70
     1
102
RTVSPost2010Prop48
 90
       50
102
RTVSPost2010PropOp48
 70
     1
102
RTVSPost2010Prop49
280
     0
102
RTVSPost2010PropOp49
 70
     1
102
RTVSPost2010Prop50
 90
       50
102
RTVSPost2010PropOp50
 70
     1
102
RTVSPost2010Prop51ColorIndex
 90
      256
102
RTVSPost2010Prop51ColorRGB
 90
-16777216
102
RTVSPost2010PropOp51
 70
     0
102
RTVSPost2010Prop52
140
1.0
102
RTVSPost2010PropOp52
 70
     0
102
RTVSPost2010Prop53
 90
        2
102
RTVSPost2010PropOp53
 70
     1
102
RTVSPost2010Prop54
  1
strokes_ogs.tif
102
RTVSPost2010PropOp54
 70
     1
102
RTVSPost2010Prop55
280
     0
102
RTVSPost2010PropOp55
 70
     1
102
RTVSPost2010Prop56
140
1.0
102
RTVSPost2010PropOp56
 70
     1
102
RTVSPost2010Prop57
140
1.0
102
RTVSPost2010PropOp57
 70
     1
102
RTVSPropertyOp0
 70
     1
102
RTVSPropertyOp1
 70
     1
102
RTVSPropertyOp2
 70
     1
102
RTVSPropertyOp3
 70
     1
102
RTVSPropertyOp4
 70
     1
102
RTVSPropertyOp5
 70
     1
102
RTVSPropertyOp6
 70
     1
102
RTVSPropertyOp7
 70
     1
102
RTVSPropertyOp8
 70
     1
102
RTVSPropertyOp9
 70
     1
102
RTVSPropertyOp10
 70
     1
102
RTVSPropertyOp11
 70
     1
102
RTVSPropertyOp12
 70
     1
102
RTVSPropertyOp13
 70
     1
102
RTVSPropertyOp14
 70
     1
102
RTVSPropertyOp15
 70
     1
102
RTVSPropertyOp16
 70
     1
102
RTVSPropertyOp17
 70
     1
102
RTVSPropertyOp18
 70
     1
102
RTVSPropertyOp19
 70
     1
102
RTVSPropertyOp20
 70
     1
102
RTVSPropertyOp21
 70
     1
102
RTVSPropertyOp22
 70
     1
102
RTVSPropertyOp23
 70
     1
102
RTVSPropertyOp24
 70
     1
102
RTVSPropertyOp25
 70
     1
102
RTVSPropertyOp26
 70
     1
102
RTVSPropertyOp27
 70
     1
102
RTVSPropertyOp28
 70
     1
102
RTVSPropertyOp29
 70
     1
102
RTVSPropertyOp30
 70
     1
102
RTVSPropertyOp31
 70
     1
102
RTVSPropertyOp32
 70
     1
102
RTVSPropertyOp33
 70
     1
102
RTVSPropertyOp34
 70
     1
102
RTVSPropertyOp35
 70
     1
102
RTVSPropertyOp36
 70
     1
102
RTVSPropertyOp37
 70
     1
102
RTVSPropertyOp38
 70
     1
102
RTVSPropertyOp39
 70
     1
102
RTVSPropertyOp40
 70
     1
102
RTVSPropertyOp41
 70
     1
102
RTVSPropertyOp42
 70
     1
102
RTVSPropertyOp43
 70
     1
102
RTVSPropertyOp44
 70
     1
102
RTVSPropertyOp45
 70
     1
102
RTVSPropertyOp46
 70
     1
102
RTVSPropertyOp47
 70
     1
102
RTVSPropertyOp48
 70
     1
102
RTVSPropertyOp49
 70
     1
102
RTVSPropertyOp50
 70
     1
102
RTVSPropertyOp51
 70
     0
102
RTVSPropertyOp52
 70
     0
102
RTVSPropertyOp53
 70
     1
102
RTVSPropertyOp54
 70
     1
102
RTVSPropertyOp55
 70
     1
102
RTVSPropertyOp56
 70
     1
102
RTVSPropertyOp57
 70
     1
102
RTVSPropertyOp58
 70
     1
102
RTVSPropertyOp59
 70
     1
102
RTVSPropertyOp60
 70
     1
102
RTVSPropertyOp61
 70
     1
102
RTVSPropertyOp62
 70
     1
  0
XRECORD
  5
8419
102
{ACAD_REACTORS
330
8418
102
}
330
8418
100
AcDbXrecord
280
     1
102
RTVSPost2010Prop28
280
     0
102
RTVSPost2010PropOp28
 70
     1
102
RTVSPost2010Prop29
280
     1
102
RTVSPost2010PropOp29
 70
     1
102
RTVSPost2010Prop30
280
     1
102
RTVSPost2010PropOp30
 70
     1
102
RTVSPost2010Prop31
280
     0
102
RTVSPost2010PropOp31
 70
     1
102
RTVSPost2010Prop32
280
     0
102
RTVSPost2010PropOp32
 70
     1
102
RTVSPost2010Prop33
280
     0
102
RTVSPost2010PropOp33
 70
     1
102
RTVSPost2010Prop34
280
     0
102
RTVSPost2010PropOp34
 70
     1
102
RTVSPost2010Prop35
280
     0
102
RTVSPost2010PropOp35
 70
     1
102
RTVSPost2010Prop36
280
     0
102
RTVSPost2010PropOp36
 70
     1
102
RTVSPost2010Prop37
 90
       50
102
RTVSPost2010PropOp37
 70
     1
102
RTVSPost2010Prop38
140
0.0
102
RTVSPost2010PropOp38
 70
     1
102
RTVSPost2010Prop39
140
1.0
102
RTVSPost2010PropOp39
 70
     1
102
RTVSPost2010Prop40
 90
        0
102
RTVSPost2010PropOp40
 70
     1
102
RTVSPost2010Prop41ColorIndex
 90
       18
102
RTVSPost2010Prop41ColorRGB
 90
        0
102
RTVSPost2010PropOp41
 70
     1
102
RTVSPost2010Prop42
 90
       50
102
RTVSPost2010PropOp42
 70
     1
102
RTVSPost2010Prop43
 90
        3
102
RTVSPost2010PropOp43
 70
     1
102
RTVSPost2010Prop44ColorIndex
 90
        5
102
RTVSPost2010Prop44ColorRGB
 90
      255
102
RTVSPost2010PropOp44
 70
     1
102
RTVSPost2010Prop45
280
     0
102
RTVSPost2010PropOp45
 70
     1
102
RTVSPost2010Prop46
 90
       50
102
RTVSPost2010PropOp46
 70
     1
102
RTVSPost2010Prop47
 90
       50
102
RTVSPost2010PropOp47
 70
     1
102
RTVSPost2010Prop48
 90
       50
102
RTVSPost2010PropOp48
 70
     1
102
RTVSPost2010Prop49
280
     0
102
RTVSPost2010PropOp49
 70
     1
102
RTVSPost2010Prop50
 90
       50
102
RTVSPost2010PropOp50
 70
     1
102
RTVSPost2010Prop51ColorIndex
 90
      256
102
RTVSPost2010Prop51ColorRGB
 90
-16777216
102
RTVSPost2010PropOp51
 70
     0
102
RTVSPost2010Prop52
140
1.0
102
RTVSPost2010PropOp52
 70
     0
102
RTVSPost2010Prop53
 90
        2
102
RTVSPost2010PropOp53
 70
     1
102
RTVSPost2010Prop54
  1
strokes_ogs.tif
102
RTVSPost2010PropOp54
 70
     1
102
RTVSPost2010Prop55
280
     0
102
RTVSPost2010PropOp55
 70
     1
102
RTVSPost2010Prop56
140
1.0
102
RTVSPost2010PropOp56
 70
     1
102
RTVSPost2010Prop57
140
1.0
102
RTVSPost2010PropOp57
 70
     1
102
RTVSPropertyOp0
 70
     1
102
RTVSPropertyOp1
 70
     1
102
RTVSPropertyOp2
 70
     1
102
RTVSPropertyOp3
 70
     1
102
RTVSPropertyOp4
 70
     1
102
RTVSPropertyOp5
 70
     1
102
RTVSPropertyOp6
 70
     1
102
RTVSPropertyOp7
 70
     1
102
RTVSPropertyOp8
 70
     1
102
RTVSPropertyOp9
 70
     1
102
RTVSPropertyOp10
 70
     1
102
RTVSPropertyOp11
 70
     1
102
RTVSPropertyOp12
 70
     1
102
RTVSPropertyOp13
 70
     1
102
RTVSPropertyOp14
 70
     1
102
RTVSPropertyOp15
 70
     1
102
RTVSPropertyOp16
 70
     1
102
RTVSPropertyOp17
 70
     1
102
RTVSPropertyOp18
 70
     1
102
RTVSPropertyOp19
 70
     1
102
RTVSPropertyOp20
 70
     1
102
RTVSPropertyOp21
 70
     1
102
RTVSPropertyOp22
 70
     1
102
RTVSPropertyOp23
 70
     1
102
RTVSPropertyOp24
 70
     1
102
RTVSPropertyOp25
 70
     1
102
RTVSPropertyOp26
 70
     1
102
RTVSPropertyOp27
 70
     1
102
RTVSPropertyOp28
 70
     1
102
RTVSPropertyOp29
 70
     1
102
RTVSPropertyOp30
 70
     1
102
RTVSPropertyOp31
 70
     1
102
RTVSPropertyOp32
 70
     1
102
RTVSPropertyOp33
 70
     1
102
RTVSPropertyOp34
 70
     1
102
RTVSPropertyOp35
 70
     1
102
RTVSPropertyOp36
 70
     1
102
RTVSPropertyOp37
 70
     1
102
RTVSPropertyOp38
 70
     1
102
RTVSPropertyOp39
 70
     1
102
RTVSPropertyOp40
 70
     1
102
RTVSPropertyOp41
 70
     1
102
RTVSPropertyOp42
 70
     1
102
RTVSPropertyOp43
 70
     1
102
RTVSPropertyOp44
 70
     1
102
RTVSPropertyOp45
 70
     1
102
RTVSPropertyOp46
 70
     1
102
RTVSPropertyOp47
 70
     1
102
RTVSPropertyOp48
 70
     1
102
RTVSPropertyOp49
 70
     1
102
RTVSPropertyOp50
 70
     1
102
RTVSPropertyOp51
 70
     0
102
RTVSPropertyOp52
 70
     0
102
RTVSPropertyOp53
 70
     1
102
RTVSPropertyOp54
 70
     1
102
RTVSPropertyOp55
 70
     1
102
RTVSPropertyOp56
 70
     1
102
RTVSPropertyOp57
 70
     1
102
RTVSPropertyOp58
 70
     1
102
RTVSPropertyOp59
 70
     1
102
RTVSPropertyOp60
 70
     1
102
RTVSPropertyOp61
 70
     1
102
RTVSPropertyOp62
 70
     1
  0
XRECORD
  5
8435
102
{ACAD_REACTORS
330
8434
102
}
330
8434
100
AcDbXrecord
280
     1
102
RTVSPost2010Prop28
280
     0
102
RTVSPost2010PropOp28
 70
     1
102
RTVSPost2010Prop29
280
     1
102
RTVSPost2010PropOp29
 70
     1
102
RTVSPost2010Prop30
280
     1
102
RTVSPost2010PropOp30
 70
     1
102
RTVSPost2010Prop31
280
     0
102
RTVSPost2010PropOp31
 70
     1
102
RTVSPost2010Prop32
280
     0
102
RTVSPost2010PropOp32
 70
     1
102
RTVSPost2010Prop33
280
     0
102
RTVSPost2010PropOp33
 70
     1
102
RTVSPost2010Prop34
280
     0
102
RTVSPost2010PropOp34
 70
     1
102
RTVSPost2010Prop35
280
     0
102
RTVSPost2010PropOp35
 70
     1
102
RTVSPost2010Prop36
280
     0
102
RTVSPost2010PropOp36
 70
     1
102
RTVSPost2010Prop37
 90
       50
102
RTVSPost2010PropOp37
 70
     0
102
RTVSPost2010Prop38
140
0.0
102
RTVSPost2010PropOp38
 70
     0
102
RTVSPost2010Prop39
140
1.0
102
RTVSPost2010PropOp39
 70
     0
102
RTVSPost2010Prop40
 90
        0
102
RTVSPost2010PropOp40
 70
     0
102
RTVSPost2010Prop41ColorIndex
 90
       18
102
RTVSPost2010Prop41ColorRGB
 90
        0
102
RTVSPost2010PropOp41
 70
     0
102
RTVSPost2010Prop42
 90
       50
102
RTVSPost2010PropOp42
 70
     0
102
RTVSPost2010Prop43
 90
        3
102
RTVSPost2010PropOp43
 70
     0
102
RTVSPost2010Prop44ColorIndex
 90
        5
102
RTVSPost2010Prop44ColorRGB
 90
      255
102
RTVSPost2010PropOp44
 70
     0
102
RTVSPost2010Prop45
280
     0
102
RTVSPost2010PropOp45
 70
     1
102
RTVSPost2010Prop46
 90
       50
102
RTVSPost2010PropOp46
 70
     0
102
RTVSPost2010Prop47
 90
       50
102
RTVSPost2010PropOp47
 70
     0
102
RTVSPost2010Prop48
 90
       50
102
RTVSPost2010PropOp48
 70
     0
102
RTVSPost2010Prop49
280
     0
102
RTVSPost2010PropOp49
 70
     1
102
RTVSPost2010Prop50
 90
       50
102
RTVSPost2010PropOp50
 70
     0
102
RTVSPost2010Prop51ColorIndex
 90
      256
102
RTVSPost2010Prop51ColorRGB
 90
-16777216
102
RTVSPost2010PropOp51
 70
     0
102
RTVSPost2010Prop52
140
1.0
102
RTVSPost2010PropOp52
 70
     0
102
RTVSPost2010Prop53
 90
        2
102
RTVSPost2010PropOp53
 70
     0
102
RTVSPost2010Prop54
  1
strokes_ogs.tif
102
RTVSPost2010PropOp54
 70
     0
102
RTVSPost2010Prop55
280
     0
102
RTVSPost2010PropOp55
 70
     1
102
RTVSPost2010Prop56
140
1.0
102
RTVSPost2010PropOp56
 70
     0
102
RTVSPost2010Prop57
140
1.0
102
RTVSPost2010PropOp57
 70
     0
102
RTVSPropertyOp0
 70
     0
102
RTVSPropertyOp1
 70
     0
102
RTVSPropertyOp2
 70
     0
102
RTVSPropertyOp3
 70
     0
102
RTVSPropertyOp4
 70
     0
102
RTVSPropertyOp5
 70
     0
102
RTVSPropertyOp6
 70
     0
102
RTVSPropertyOp7
 70
     0
102
RTVSPropertyOp8
 70
     0
102
RTVSPropertyOp9
 70
     0
102
RTVSPropertyOp10
 70
     0
102
RTVSPropertyOp11
 70
     0
102
RTVSPropertyOp12
 70
     0
102
RTVSPropertyOp13
 70
     0
102
RTVSPropertyOp14
 70
     2
102
RTVSPropertyOp15
 70
     0
102
RTVSPropertyOp16
 70
     0
102
RTVSPropertyOp17
 70
     0
102
RTVSPropertyOp18
 70
     0
102
RTVSPropertyOp19
 70
     0
102
RTVSPropertyOp20
 70
     0
102
RTVSPropertyOp21
 70
     0
102
RTVSPropertyOp22
 70
     0
102
RTVSPropertyOp23
 70
     0
102
RTVSPropertyOp24
 70
     0
102
RTVSPropertyOp25
 70
     0
102
RTVSPropertyOp26
 70
     0
102
RTVSPropertyOp27
 70
     0
102
RTVSPropertyOp28
 70
     1
102
RTVSPropertyOp29
 70
     1
102
RTVSPropertyOp30
 70
     1
102
RTVSPropertyOp31
 70
     1
102
RTVSPropertyOp32
 70
     1
102
RTVSPropertyOp33
 70
     1
102
RTVSPropertyOp34
 70
     1
102
RTVSPropertyOp35
 70
     1
102
RTVSPropertyOp36
 70
     1
102
RTVSPropertyOp37
 70
     0
102
RTVSPropertyOp38
 70
     0
102
RTVSPropertyOp39
 70
     0
102
RTVSPropertyOp40
 70
     0
102
RTVSPropertyOp41
 70
     0
102
RTVSPropertyOp42
 70
     0
102
RTVSPropertyOp43
 70
     0
102
RTVSPropertyOp44
 70
     0
102
RTVSPropertyOp45
 70
     1
102
RTVSPropertyOp46
 70
     0
102
RTVSPropertyOp47
 70
     0
102
RTVSPropertyOp48
 70
     0
102
RTVSPropertyOp49
 70
     1
102
RTVSPropertyOp50
 70
     0
102
RTVSPropertyOp51
 70
     0
102
RTVSPropertyOp52
 70
     0
102
RTVSPropertyOp53
 70
     0
102
RTVSPropertyOp54
 70
     0
102
RTVSPropertyOp55
 70
     1
102
RTVSPropertyOp56
 70
     0
102
RTVSPropertyOp57
 70
     0
102
RTVSPropertyOp58
 70
     0
102
RTVSPropertyOp59
 70
     0
102
RTVSPropertyOp60
 70
     0
102
RTVSPropertyOp61
 70
     0
102
RTVSPropertyOp62
 70
     0
  0
XRECORD
  5
8425
102
{ACAD_REACTORS
330
8424
102
}
330
8424
100
AcDbXrecord
280
     1
102
RTVSPost2010Prop28
280
     0
102
RTVSPost2010PropOp28
 70
     1
102
RTVSPost2010Prop29
280
     1
102
RTVSPost2010PropOp29
 70
     1
102
RTVSPost2010Prop30
280
     1
102
RTVSPost2010PropOp30
 70
     1
102
RTVSPost2010Prop31
280
     0
102
RTVSPost2010PropOp31
 70
     1
102
RTVSPost2010Prop32
280
     0
102
RTVSPost2010PropOp32
 70
     1
102
RTVSPost2010Prop33
280
     0
102
RTVSPost2010PropOp33
 70
     1
102
RTVSPost2010Prop34
280
     0
102
RTVSPost2010PropOp34
 70
     1
102
RTVSPost2010Prop35
280
     0
102
RTVSPost2010PropOp35
 70
     1
102
RTVSPost2010Prop36
280
     0
102
RTVSPost2010PropOp36
 70
     1
102
RTVSPost2010Prop37
 90
       50
102
RTVSPost2010PropOp37
 70
     1
102
RTVSPost2010Prop38
140
0.0
102
RTVSPost2010PropOp38
 70
     1
102
RTVSPost2010Prop39
140
1.0
102
RTVSPost2010PropOp39
 70
     1
102
RTVSPost2010Prop40
 90
        0
102
RTVSPost2010PropOp40
 70
     1
102
RTVSPost2010Prop41ColorIndex
 90
       18
102
RTVSPost2010Prop41ColorRGB
 90
        0
102
RTVSPost2010PropOp41
 70
     1
102
RTVSPost2010Prop42
 90
       50
102
RTVSPost2010PropOp42
 70
     1
102
RTVSPost2010Prop43
 90
        3
102
RTVSPost2010PropOp43
 70
     1
102
RTVSPost2010Prop44ColorIndex
 90
        5
102
RTVSPost2010Prop44ColorRGB
 90
      255
102
RTVSPost2010PropOp44
 70
     1
102
RTVSPost2010Prop45
280
     0
102
RTVSPost2010PropOp45
 70
     1
102
RTVSPost2010Prop46
 90
       50
102
RTVSPost2010PropOp46
 70
     1
102
RTVSPost2010Prop47
 90
       50
102
RTVSPost2010PropOp47
 70
     1
102
RTVSPost2010Prop48
 90
       50
102
RTVSPost2010PropOp48
 70
     1
102
RTVSPost2010Prop49
280
     0
102
RTVSPost2010PropOp49
 70
     1
102
RTVSPost2010Prop50
 90
       50
102
RTVSPost2010PropOp50
 70
     1
102
RTVSPost2010Prop51ColorIndex
 90
      256
102
RTVSPost2010Prop51ColorRGB
 90
-16777216
102
RTVSPost2010PropOp51
 70
     0
102
RTVSPost2010Prop52
140
1.0
102
RTVSPost2010PropOp52
 70
     0
102
RTVSPost2010Prop53
 90
        2
102
RTVSPost2010PropOp53
 70
     1
102
RTVSPost2010Prop54
  1
strokes_ogs.tif
102
RTVSPost2010PropOp54
 70
     1
102
RTVSPost2010Prop55
280
     0
102
RTVSPost2010PropOp55
 70
     1
102
RTVSPost2010Prop56
140
1.0
102
RTVSPost2010PropOp56
 70
     1
102
RTVSPost2010Prop57
140
1.0
102
RTVSPost2010PropOp57
 70
     1
102
RTVSPropertyOp0
 70
     1
102
RTVSPropertyOp1
 70
     1
102
RTVSPropertyOp2
 70
     1
102
RTVSPropertyOp3
 70
     1
102
RTVSPropertyOp4
 70
     1
102
RTVSPropertyOp5
 70
     1
102
RTVSPropertyOp6
 70
     1
102
RTVSPropertyOp7
 70
     1
102
RTVSPropertyOp8
 70
     1
102
RTVSPropertyOp9
 70
     1
102
RTVSPropertyOp10
 70
     1
102
RTVSPropertyOp11
 70
     1
102
RTVSPropertyOp12
 70
     1
102
RTVSPropertyOp13
 70
     1
102
RTVSPropertyOp14
 70
     1
102
RTVSPropertyOp15
 70
     1
102
RTVSPropertyOp16
 70
     1
102
RTVSPropertyOp17
 70
     1
102
RTVSPropertyOp18
 70
     1
102
RTVSPropertyOp19
 70
     1
102
RTVSPropertyOp20
 70
     1
102
RTVSPropertyOp21
 70
     1
102
RTVSPropertyOp22
 70
     1
102
RTVSPropertyOp23
 70
     1
102
RTVSPropertyOp24
 70
     1
102
RTVSPropertyOp25
 70
     1
102
RTVSPropertyOp26
 70
     1
102
RTVSPropertyOp27
 70
     1
102
RTVSPropertyOp28
 70
     1
102
RTVSPropertyOp29
 70
     1
102
RTVSPropertyOp30
 70
     1
102
RTVSPropertyOp31
 70
     1
102
RTVSPropertyOp32
 70
     1
102
RTVSPropertyOp33
 70
     1
102
RTVSPropertyOp34
 70
     1
102
RTVSPropertyOp35
 70
     1
102
RTVSPropertyOp36
 70
     1
102
RTVSPropertyOp37
 70
     1
102
RTVSPropertyOp38
 70
     1
102
RTVSPropertyOp39
 70
     1
102
RTVSPropertyOp40
 70
     1
102
RTVSPropertyOp41
 70
     1
102
RTVSPropertyOp42
 70
     1
102
RTVSPropertyOp43
 70
     1
102
RTVSPropertyOp44
 70
     1
102
RTVSPropertyOp45
 70
     1
102
RTVSPropertyOp46
 70
     1
102
RTVSPropertyOp47
 70
     1
102
RTVSPropertyOp48
 70
     1
102
RTVSPropertyOp49
 70
     1
102
RTVSPropertyOp50
 70
     1
102
RTVSPropertyOp51
 70
     0
102
RTVSPropertyOp52
 70
     0
102
RTVSPropertyOp53
 70
     1
102
RTVSPropertyOp54
 70
     1
102
RTVSPropertyOp55
 70
     1
102
RTVSPropertyOp56
 70
     1
102
RTVSPropertyOp57
 70
     1
102
RTVSPropertyOp58
 70
     1
102
RTVSPropertyOp59
 70
     1
102
RTVSPropertyOp60
 70
     1
102
RTVSPropertyOp61
 70
     1
102
RTVSPropertyOp62
 70
     1
  0
XRECORD
  5
8437
102
{ACAD_REACTORS
330
8436
102
}
330
8436
100
AcDbXrecord
280
     1
102
RTVSPost2010Prop28
280
     0
102
RTVSPost2010PropOp28
 70
     1
102
RTVSPost2010Prop29
280
     1
102
RTVSPost2010PropOp29
 70
     1
102
RTVSPost2010Prop30
280
     1
102
RTVSPost2010PropOp30
 70
     1
102
RTVSPost2010Prop31
280
     0
102
RTVSPost2010PropOp31
 70
     1
102
RTVSPost2010Prop32
280
     0
102
RTVSPost2010PropOp32
 70
     1
102
RTVSPost2010Prop33
280
     0
102
RTVSPost2010PropOp33
 70
     1
102
RTVSPost2010Prop34
280
     0
102
RTVSPost2010PropOp34
 70
     1
102
RTVSPost2010Prop35
280
     0
102
RTVSPost2010PropOp35
 70
     1
102
RTVSPost2010Prop36
280
     0
102
RTVSPost2010PropOp36
 70
     1
102
RTVSPost2010Prop37
 90
       50
102
RTVSPost2010PropOp37
 70
     0
102
RTVSPost2010Prop38
140
0.0
102
RTVSPost2010PropOp38
 70
     0
102
RTVSPost2010Prop39
140
1.0
102
RTVSPost2010PropOp39
 70
     0
102
RTVSPost2010Prop40
 90
        0
102
RTVSPost2010PropOp40
 70
     0
102
RTVSPost2010Prop41ColorIndex
 90
       18
102
RTVSPost2010Prop41ColorRGB
 90
        0
102
RTVSPost2010PropOp41
 70
     0
102
RTVSPost2010Prop42
 90
       50
102
RTVSPost2010PropOp42
 70
     0
102
RTVSPost2010Prop43
 90
        3
102
RTVSPost2010PropOp43
 70
     0
102
RTVSPost2010Prop44ColorIndex
 90
        5
102
RTVSPost2010Prop44ColorRGB
 90
      255
102
RTVSPost2010PropOp44
 70
     0
102
RTVSPost2010Prop45
280
     0
102
RTVSPost2010PropOp45
 70
     1
102
RTVSPost2010Prop46
 90
       50
102
RTVSPost2010PropOp46
 70
     0
102
RTVSPost2010Prop47
 90
       50
102
RTVSPost2010PropOp47
 70
     0
102
RTVSPost2010Prop48
 90
       50
102
RTVSPost2010PropOp48
 70
     0
102
RTVSPost2010Prop49
280
     0
102
RTVSPost2010PropOp49
 70
     1
102
RTVSPost2010Prop50
 90
       50
102
RTVSPost2010PropOp50
 70
     0
102
RTVSPost2010Prop51ColorIndex
 90
      256
102
RTVSPost2010Prop51ColorRGB
 90
-16777216
102
RTVSPost2010PropOp51
 70
     0
102
RTVSPost2010Prop52
140
1.0
102
RTVSPost2010PropOp52
 70
     0
102
RTVSPost2010Prop53
 90
        2
102
RTVSPost2010PropOp53
 70
     0
102
RTVSPost2010Prop54
  1
strokes_ogs.tif
102
RTVSPost2010PropOp54
 70
     0
102
RTVSPost2010Prop55
280
     0
102
RTVSPost2010PropOp55
 70
     1
102
RTVSPost2010Prop56
140
1.0
102
RTVSPost2010PropOp56
 70
     0
102
RTVSPost2010Prop57
140
1.0
102
RTVSPost2010PropOp57
 70
     0
102
RTVSPropertyOp0
 70
     0
102
RTVSPropertyOp1
 70
     0
102
RTVSPropertyOp2
 70
     0
102
RTVSPropertyOp3
 70
     0
102
RTVSPropertyOp4
 70
     0
102
RTVSPropertyOp5
 70
     0
102
RTVSPropertyOp6
 70
     0
102
RTVSPropertyOp7
 70
     0
102
RTVSPropertyOp8
 70
     0
102
RTVSPropertyOp9
 70
     0
102
RTVSPropertyOp10
 70
     0
102
RTVSPropertyOp11
 70
     0
102
RTVSPropertyOp12
 70
     0
102
RTVSPropertyOp13
 70
     0
102
RTVSPropertyOp14
 70
     2
102
RTVSPropertyOp15
 70
     0
102
RTVSPropertyOp16
 70
     0
102
RTVSPropertyOp17
 70
     0
102
RTVSPropertyOp18
 70
     0
102
RTVSPropertyOp19
 70
     0
102
RTVSPropertyOp20
 70
     0
102
RTVSPropertyOp21
 70
     0
102
RTVSPropertyOp22
 70
     0
102
RTVSPropertyOp23
 70
     0
102
RTVSPropertyOp24
 70
     0
102
RTVSPropertyOp25
 70
     0
102
RTVSPropertyOp26
 70
     0
102
RTVSPropertyOp27
 70
     0
102
RTVSPropertyOp28
 70
     1
102
RTVSPropertyOp29
 70
     1
102
RTVSPropertyOp30
 70
     1
102
RTVSPropertyOp31
 70
     1
102
RTVSPropertyOp32
 70
     1
102
RTVSPropertyOp33
 70
     1
102
RTVSPropertyOp34
 70
     1
102
RTVSPropertyOp35
 70
     1
102
RTVSPropertyOp36
 70
     1
102
RTVSPropertyOp37
 70
     0
102
RTVSPropertyOp38
 70
     0
102
RTVSPropertyOp39
 70
     0
102
RTVSPropertyOp40
 70
     0
102
RTVSPropertyOp41
 70
     0
102
RTVSPropertyOp42
 70
     0
102
RTVSPropertyOp43
 70
     0
102
RTVSPropertyOp44
 70
     0
102
RTVSPropertyOp45
 70
     1
102
RTVSPropertyOp46
 70
     0
102
RTVSPropertyOp47
 70
     0
102
RTVSPropertyOp48
 70
     0
102
RTVSPropertyOp49
 70
     1
102
RTVSPropertyOp50
 70
     0
102
RTVSPropertyOp51
 70
     0
102
RTVSPropertyOp52
 70
     0
102
RTVSPropertyOp53
 70
     0
102
RTVSPropertyOp54
 70
     0
102
RTVSPropertyOp55
 70
     1
102
RTVSPropertyOp56
 70
     0
102
RTVSPropertyOp57
 70
     0
102
RTVSPropertyOp58
 70
     0
102
RTVSPropertyOp59
 70
     0
102
RTVSPropertyOp60
 70
     0
102
RTVSPropertyOp61
 70
     0
102
RTVSPropertyOp62
 70
     0
  0
XRECORD
  5
841D
102
{ACAD_REACTORS
330
841C
102
}
330
841C
100
AcDbXrecord
280
     1
102
RTVSPost2010Prop28
280
     0
102
RTVSPost2010PropOp28
 70
     1
102
RTVSPost2010Prop29
280
     1
102
RTVSPost2010PropOp29
 70
     1
102
RTVSPost2010Prop30
280
     1
102
RTVSPost2010PropOp30
 70
     1
102
RTVSPost2010Prop31
280
     0
102
RTVSPost2010PropOp31
 70
     1
102
RTVSPost2010Prop32
280
     0
102
RTVSPost2010PropOp32
 70
     1
102
RTVSPost2010Prop33
280
     0
102
RTVSPost2010PropOp33
 70
     1
102
RTVSPost2010Prop34
280
     0
102
RTVSPost2010PropOp34
 70
     1
102
RTVSPost2010Prop35
280
     0
102
RTVSPost2010PropOp35
 70
     1
102
RTVSPost2010Prop36
280
     0
102
RTVSPost2010PropOp36
 70
     1
102
RTVSPost2010Prop37
 90
       50
102
RTVSPost2010PropOp37
 70
     1
102
RTVSPost2010Prop38
140
0.0
102
RTVSPost2010PropOp38
 70
     1
102
RTVSPost2010Prop39
140
1.0
102
RTVSPost2010PropOp39
 70
     1
102
RTVSPost2010Prop40
 90
        0
102
RTVSPost2010PropOp40
 70
     1
102
RTVSPost2010Prop41ColorIndex
 90
       18
102
RTVSPost2010Prop41ColorRGB
 90
        0
102
RTVSPost2010PropOp41
 70
     1
102
RTVSPost2010Prop42
 90
       50
102
RTVSPost2010PropOp42
 70
     1
102
RTVSPost2010Prop43
 90
        3
102
RTVSPost2010PropOp43
 70
     1
102
RTVSPost2010Prop44ColorIndex
 90
        5
102
RTVSPost2010Prop44ColorRGB
 90
      255
102
RTVSPost2010PropOp44
 70
     1
102
RTVSPost2010Prop45
280
     0
102
RTVSPost2010PropOp45
 70
     1
102
RTVSPost2010Prop46
 90
       50
102
RTVSPost2010PropOp46
 70
     1
102
RTVSPost2010Prop47
 90
       50
102
RTVSPost2010PropOp47
 70
     1
102
RTVSPost2010Prop48
 90
       50
102
RTVSPost2010PropOp48
 70
     1
102
RTVSPost2010Prop49
280
     0
102
RTVSPost2010PropOp49
 70
     1
102
RTVSPost2010Prop50
 90
       50
102
RTVSPost2010PropOp50
 70
     1
102
RTVSPost2010Prop51ColorIndex
 90
      256
102
RTVSPost2010Prop51ColorRGB
 90
-16777216
102
RTVSPost2010PropOp51
 70
     0
102
RTVSPost2010Prop52
140
1.0
102
RTVSPost2010PropOp52
 70
     0
102
RTVSPost2010Prop53
 90
        2
102
RTVSPost2010PropOp53
 70
     1
102
RTVSPost2010Prop54
  1
strokes_ogs.tif
102
RTVSPost2010PropOp54
 70
     1
102
RTVSPost2010Prop55
280
     0
102
RTVSPost2010PropOp55
 70
     1
102
RTVSPost2010Prop56
140
1.0
102
RTVSPost2010PropOp56
 70
     1
102
RTVSPost2010Prop57
140
1.0
102
RTVSPost2010PropOp57
 70
     1
102
RTVSPropertyOp0
 70
     1
102
RTVSPropertyOp1
 70
     1
102
RTVSPropertyOp2
 70
     1
102
RTVSPropertyOp3
 70
     1
102
RTVSPropertyOp4
 70
     1
102
RTVSPropertyOp5
 70
     1
102
RTVSPropertyOp6
 70
     1
102
RTVSPropertyOp7
 70
     1
102
RTVSPropertyOp8
 70
     1
102
RTVSPropertyOp9
 70
     1
102
RTVSPropertyOp10
 70
     1
102
RTVSPropertyOp11
 70
     1
102
RTVSPropertyOp12
 70
     1
102
RTVSPropertyOp13
 70
     1
102
RTVSPropertyOp14
 70
     1
102
RTVSPropertyOp15
 70
     1
102
RTVSPropertyOp16
 70
     1
102
RTVSPropertyOp17
 70
     1
102
RTVSPropertyOp18
 70
     1
102
RTVSPropertyOp19
 70
     1
102
RTVSPropertyOp20
 70
     1
102
RTVSPropertyOp21
 70
     1
102
RTVSPropertyOp22
 70
     1
102
RTVSPropertyOp23
 70
     1
102
RTVSPropertyOp24
 70
     1
102
RTVSPropertyOp25
 70
     1
102
RTVSPropertyOp26
 70
     1
102
RTVSPropertyOp27
 70
     1
102
RTVSPropertyOp28
 70
     1
102
RTVSPropertyOp29
 70
     1
102
RTVSPropertyOp30
 70
     1
102
RTVSPropertyOp31
 70
     1
102
RTVSPropertyOp32
 70
     1
102
RTVSPropertyOp33
 70
     1
102
RTVSPropertyOp34
 70
     1
102
RTVSPropertyOp35
 70
     1
102
RTVSPropertyOp36
 70
     1
102
RTVSPropertyOp37
 70
     1
102
RTVSPropertyOp38
 70
     1
102
RTVSPropertyOp39
 70
     1
102
RTVSPropertyOp40
 70
     1
102
RTVSPropertyOp41
 70
     1
102
RTVSPropertyOp42
 70
     1
102
RTVSPropertyOp43
 70
     1
102
RTVSPropertyOp44
 70
     1
102
RTVSPropertyOp45
 70
     1
102
RTVSPropertyOp46
 70
     1
102
RTVSPropertyOp47
 70
     1
102
RTVSPropertyOp48
 70
     1
102
RTVSPropertyOp49
 70
     1
102
RTVSPropertyOp50
 70
     1
102
RTVSPropertyOp51
 70
     0
102
RTVSPropertyOp52
 70
     0
102
RTVSPropertyOp53
 70
     1
102
RTVSPropertyOp54
 70
     1
102
RTVSPropertyOp55
 70
     1
102
RTVSPropertyOp56
 70
     1
102
RTVSPropertyOp57
 70
     1
102
RTVSPropertyOp58
 70
     1
102
RTVSPropertyOp59
 70
     1
102
RTVSPropertyOp60
 70
     1
102
RTVSPropertyOp61
 70
     1
102
RTVSPropertyOp62
 70
     1
  0
XRECORD
  5
8433
102
{ACAD_REACTORS
330
8432
102
}
330
8432
100
AcDbXrecord
280
     1
102
RTVSPost2010Prop28
280
     0
102
RTVSPost2010PropOp28
 70
     1
102
RTVSPost2010Prop29
280
     1
102
RTVSPost2010PropOp29
 70
     1
102
RTVSPost2010Prop30
280
     1
102
RTVSPost2010PropOp30
 70
     1
102
RTVSPost2010Prop31
280
     0
102
RTVSPost2010PropOp31
 70
     1
102
RTVSPost2010Prop32
280
     0
102
RTVSPost2010PropOp32
 70
     1
102
RTVSPost2010Prop33
280
     0
102
RTVSPost2010PropOp33
 70
     1
102
RTVSPost2010Prop34
280
     0
102
RTVSPost2010PropOp34
 70
     1
102
RTVSPost2010Prop35
280
     0
102
RTVSPost2010PropOp35
 70
     1
102
RTVSPost2010Prop36
280
     0
102
RTVSPost2010PropOp36
 70
     1
102
RTVSPost2010Prop37
 90
       50
102
RTVSPost2010PropOp37
 70
     1
102
RTVSPost2010Prop38
140
0.0
102
RTVSPost2010PropOp38
 70
     1
102
RTVSPost2010Prop39
140
1.0
102
RTVSPost2010PropOp39
 70
     1
102
RTVSPost2010Prop40
 90
        0
102
RTVSPost2010PropOp40
 70
     1
102
RTVSPost2010Prop41ColorIndex
 90
       18
102
RTVSPost2010Prop41ColorRGB
 90
        0
102
RTVSPost2010PropOp41
 70
     1
102
RTVSPost2010Prop42
 90
       50
102
RTVSPost2010PropOp42
 70
     1
102
RTVSPost2010Prop43
 90
        3
102
RTVSPost2010PropOp43
 70
     1
102
RTVSPost2010Prop44ColorIndex
 90
        5
102
RTVSPost2010Prop44ColorRGB
 90
      255
102
RTVSPost2010PropOp44
 70
     1
102
RTVSPost2010Prop45
280
     0
102
RTVSPost2010PropOp45
 70
     1
102
RTVSPost2010Prop46
 90
       50
102
RTVSPost2010PropOp46
 70
     1
102
RTVSPost2010Prop47
 90
       50
102
RTVSPost2010PropOp47
 70
     1
102
RTVSPost2010Prop48
 90
       50
102
RTVSPost2010PropOp48
 70
     1
102
RTVSPost2010Prop49
280
     0
102
RTVSPost2010PropOp49
 70
     1
102
RTVSPost2010Prop50
 90
       50
102
RTVSPost2010PropOp50
 70
     1
102
RTVSPost2010Prop51ColorIndex
 90
      256
102
RTVSPost2010Prop51ColorRGB
 90
-16777216
102
RTVSPost2010PropOp51
 70
     0
102
RTVSPost2010Prop52
140
1.0
102
RTVSPost2010PropOp52
 70
     0
102
RTVSPost2010Prop53
 90
        2
102
RTVSPost2010PropOp53
 70
     1
102
RTVSPost2010Prop54
  1
strokes_ogs.tif
102
RTVSPost2010PropOp54
 70
     1
102
RTVSPost2010Prop55
280
     0
102
RTVSPost2010PropOp55
 70
     1
102
RTVSPost2010Prop56
140
1.0
102
RTVSPost2010PropOp56
 70
     1
102
RTVSPost2010Prop57
140
1.0
102
RTVSPost2010PropOp57
 70
     1
102
RTVSPropertyOp0
 70
     1
102
RTVSPropertyOp1
 70
     1
102
RTVSPropertyOp2
 70
     1
102
RTVSPropertyOp3
 70
     1
102
RTVSPropertyOp4
 70
     1
102
RTVSPropertyOp5
 70
     1
102
RTVSPropertyOp6
 70
     1
102
RTVSPropertyOp7
 70
     1
102
RTVSPropertyOp8
 70
     1
102
RTVSPropertyOp9
 70
     1
102
RTVSPropertyOp10
 70
     1
102
RTVSPropertyOp11
 70
     1
102
RTVSPropertyOp12
 70
     1
102
RTVSPropertyOp13
 70
     1
102
RTVSPropertyOp14
 70
     1
102
RTVSPropertyOp15
 70
     1
102
RTVSPropertyOp16
 70
     1
102
RTVSPropertyOp17
 70
     1
102
RTVSPropertyOp18
 70
     1
102
RTVSPropertyOp19
 70
     1
102
RTVSPropertyOp20
 70
     1
102
RTVSPropertyOp21
 70
     1
102
RTVSPropertyOp22
 70
     1
102
RTVSPropertyOp23
 70
     1
102
RTVSPropertyOp24
 70
     1
102
RTVSPropertyOp25
 70
     1
102
RTVSPropertyOp26
 70
     1
102
RTVSPropertyOp27
 70
     1
102
RTVSPropertyOp28
 70
     1
102
RTVSPropertyOp29
 70
     1
102
RTVSPropertyOp30
 70
     1
102
RTVSPropertyOp31
 70
     1
102
RTVSPropertyOp32
 70
     1
102
RTVSPropertyOp33
 70
     1
102
RTVSPropertyOp34
 70
     1
102
RTVSPropertyOp35
 70
     1
102
RTVSPropertyOp36
 70
     1
102
RTVSPropertyOp37
 70
     1
102
RTVSPropertyOp38
 70
     1
102
RTVSPropertyOp39
 70
     1
102
RTVSPropertyOp40
 70
     1
102
RTVSPropertyOp41
 70
     1
102
RTVSPropertyOp42
 70
     1
102
RTVSPropertyOp43
 70
     1
102
RTVSPropertyOp44
 70
     1
102
RTVSPropertyOp45
 70
     1
102
RTVSPropertyOp46
 70
     1
102
RTVSPropertyOp47
 70
     1
102
RTVSPropertyOp48
 70
     1
102
RTVSPropertyOp49
 70
     1
102
RTVSPropertyOp50
 70
     1
102
RTVSPropertyOp51
 70
     0
102
RTVSPropertyOp52
 70
     0
102
RTVSPropertyOp53
 70
     1
102
RTVSPropertyOp54
 70
     1
102
RTVSPropertyOp55
 70
     1
102
RTVSPropertyOp56
 70
     1
102
RTVSPropertyOp57
 70
     1
102
RTVSPropertyOp58
 70
     1
102
RTVSPropertyOp59
 70
     1
102
RTVSPropertyOp60
 70
     1
102
RTVSPropertyOp61
 70
     1
102
RTVSPropertyOp62
 70
     1
  0
XRECORD
  5
8431
102
{ACAD_REACTORS
330
8430
102
}
330
8430
100
AcDbXrecord
280
     1
102
RTVSPost2010Prop28
280
     0
102
RTVSPost2010PropOp28
 70
     1
102
RTVSPost2010Prop29
280
     1
102
RTVSPost2010PropOp29
 70
     1
102
RTVSPost2010Prop30
280
     1
102
RTVSPost2010PropOp30
 70
     1
102
RTVSPost2010Prop31
280
     0
102
RTVSPost2010PropOp31
 70
     1
102
RTVSPost2010Prop32
280
     0
102
RTVSPost2010PropOp32
 70
     1
102
RTVSPost2010Prop33
280
     0
102
RTVSPost2010PropOp33
 70
     1
102
RTVSPost2010Prop34
280
     0
102
RTVSPost2010PropOp34
 70
     1
102
RTVSPost2010Prop35
280
     0
102
RTVSPost2010PropOp35
 70
     1
102
RTVSPost2010Prop36
280
     0
102
RTVSPost2010PropOp36
 70
     1
102
RTVSPost2010Prop37
 90
       50
102
RTVSPost2010PropOp37
 70
     1
102
RTVSPost2010Prop38
140
0.0
102
RTVSPost2010PropOp38
 70
     1
102
RTVSPost2010Prop39
140
1.0
102
RTVSPost2010PropOp39
 70
     1
102
RTVSPost2010Prop40
 90
        0
102
RTVSPost2010PropOp40
 70
     1
102
RTVSPost2010Prop41ColorIndex
 90
       18
102
RTVSPost2010Prop41ColorRGB
 90
        0
102
RTVSPost2010PropOp41
 70
     1
102
RTVSPost2010Prop42
 90
       50
102
RTVSPost2010PropOp42
 70
     1
102
RTVSPost2010Prop43
 90
        3
102
RTVSPost2010PropOp43
 70
     1
102
RTVSPost2010Prop44ColorIndex
 90
        5
102
RTVSPost2010Prop44ColorRGB
 90
      255
102
RTVSPost2010PropOp44
 70
     1
102
RTVSPost2010Prop45
280
     0
102
RTVSPost2010PropOp45
 70
     1
102
RTVSPost2010Prop46
 90
       50
102
RTVSPost2010PropOp46
 70
     1
102
RTVSPost2010Prop47
 90
       50
102
RTVSPost2010PropOp47
 70
     1
102
RTVSPost2010Prop48
 90
       50
102
RTVSPost2010PropOp48
 70
     1
102
RTVSPost2010Prop49
280
     0
102
RTVSPost2010PropOp49
 70
     1
102
RTVSPost2010Prop50
 90
       50
102
RTVSPost2010PropOp50
 70
     1
102
RTVSPost2010Prop51ColorIndex
 90
      256
102
RTVSPost2010Prop51ColorRGB
 90
-16777216
102
RTVSPost2010PropOp51
 70
     0
102
RTVSPost2010Prop52
140
1.0
102
RTVSPost2010PropOp52
 70
     0
102
RTVSPost2010Prop53
 90
        2
102
RTVSPost2010PropOp53
 70
     1
102
RTVSPost2010Prop54
  1
strokes_ogs.tif
102
RTVSPost2010PropOp54
 70
     1
102
RTVSPost2010Prop55
280
     0
102
RTVSPost2010PropOp55
 70
     1
102
RTVSPost2010Prop56
140
1.0
102
RTVSPost2010PropOp56
 70
     1
102
RTVSPost2010Prop57
140
1.0
102
RTVSPost2010PropOp57
 70
     1
102
RTVSPropertyOp0
 70
     1
102
RTVSPropertyOp1
 70
     1
102
RTVSPropertyOp2
 70
     1
102
RTVSPropertyOp3
 70
     1
102
RTVSPropertyOp4
 70
     1
102
RTVSPropertyOp5
 70
     1
102
RTVSPropertyOp6
 70
     1
102
RTVSPropertyOp7
 70
     1
102
RTVSPropertyOp8
 70
     1
102
RTVSPropertyOp9
 70
     1
102
RTVSPropertyOp10
 70
     1
102
RTVSPropertyOp11
 70
     1
102
RTVSPropertyOp12
 70
     1
102
RTVSPropertyOp13
 70
     1
102
RTVSPropertyOp14
 70
     1
102
RTVSPropertyOp15
 70
     1
102
RTVSPropertyOp16
 70
     1
102
RTVSPropertyOp17
 70
     1
102
RTVSPropertyOp18
 70
     1
102
RTVSPropertyOp19
 70
     1
102
RTVSPropertyOp20
 70
     1
102
RTVSPropertyOp21
 70
     1
102
RTVSPropertyOp22
 70
     1
102
RTVSPropertyOp23
 70
     1
102
RTVSPropertyOp24
 70
     1
102
RTVSPropertyOp25
 70
     1
102
RTVSPropertyOp26
 70
     1
102
RTVSPropertyOp27
 70
     1
102
RTVSPropertyOp28
 70
     1
102
RTVSPropertyOp29
 70
     1
102
RTVSPropertyOp30
 70
     1
102
RTVSPropertyOp31
 70
     1
102
RTVSPropertyOp32
 70
     1
102
RTVSPropertyOp33
 70
     1
102
RTVSPropertyOp34
 70
     1
102
RTVSPropertyOp35
 70
     1
102
RTVSPropertyOp36
 70
     1
102
RTVSPropertyOp37
 70
     1
102
RTVSPropertyOp38
 70
     1
102
RTVSPropertyOp39
 70
     1
102
RTVSPropertyOp40
 70
     1
102
RTVSPropertyOp41
 70
     1
102
RTVSPropertyOp42
 70
     1
102
RTVSPropertyOp43
 70
     1
102
RTVSPropertyOp44
 70
     1
102
RTVSPropertyOp45
 70
     1
102
RTVSPropertyOp46
 70
     1
102
RTVSPropertyOp47
 70
     1
102
RTVSPropertyOp48
 70
     1
102
RTVSPropertyOp49
 70
     1
102
RTVSPropertyOp50
 70
     1
102
RTVSPropertyOp51
 70
     0
102
RTVSPropertyOp52
 70
     0
102
RTVSPropertyOp53
 70
     1
102
RTVSPropertyOp54
 70
     1
102
RTVSPropertyOp55
 70
     1
102
RTVSPropertyOp56
 70
     1
102
RTVSPropertyOp57
 70
     1
102
RTVSPropertyOp58
 70
     1
102
RTVSPropertyOp59
 70
     1
102
RTVSPropertyOp60
 70
     1
102
RTVSPropertyOp61
 70
     1
102
RTVSPropertyOp62
 70
     1
  0
XRECORD
  5
842B
102
{ACAD_REACTORS
330
842A
102
}
330
842A
100
AcDbXrecord
280
     1
102
RTVSPost2010Prop28
280
     0
102
RTVSPost2010PropOp28
 70
     1
102
RTVSPost2010Prop29
280
     1
102
RTVSPost2010PropOp29
 70
     1
102
RTVSPost2010Prop30
280
     1
102
RTVSPost2010PropOp30
 70
     1
102
RTVSPost2010Prop31
280
     0
102
RTVSPost2010PropOp31
 70
     1
102
RTVSPost2010Prop32
280
     0
102
RTVSPost2010PropOp32
 70
     1
102
RTVSPost2010Prop33
280
     0
102
RTVSPost2010PropOp33
 70
     1
102
RTVSPost2010Prop34
280
     0
102
RTVSPost2010PropOp34
 70
     1
102
RTVSPost2010Prop35
280
     0
102
RTVSPost2010PropOp35
 70
     1
102
RTVSPost2010Prop36
280
     0
102
RTVSPost2010PropOp36
 70
     1
102
RTVSPost2010Prop37
 90
       50
102
RTVSPost2010PropOp37
 70
     1
102
RTVSPost2010Prop38
140
0.0
102
RTVSPost2010PropOp38
 70
     1
102
RTVSPost2010Prop39
140
1.0
102
RTVSPost2010PropOp39
 70
     1
102
RTVSPost2010Prop40
 90
        0
102
RTVSPost2010PropOp40
 70
     1
102
RTVSPost2010Prop41ColorIndex
 90
       18
102
RTVSPost2010Prop41ColorRGB
 90
        0
102
RTVSPost2010PropOp41
 70
     1
102
RTVSPost2010Prop42
 90
       50
102
RTVSPost2010PropOp42
 70
     1
102
RTVSPost2010Prop43
 90
        3
102
RTVSPost2010PropOp43
 70
     1
102
RTVSPost2010Prop44ColorIndex
 90
        5
102
RTVSPost2010Prop44ColorRGB
 90
      255
102
RTVSPost2010PropOp44
 70
     1
102
RTVSPost2010Prop45
280
     0
102
RTVSPost2010PropOp45
 70
     1
102
RTVSPost2010Prop46
 90
       50
102
RTVSPost2010PropOp46
 70
     1
102
RTVSPost2010Prop47
 90
       50
102
RTVSPost2010PropOp47
 70
     1
102
RTVSPost2010Prop48
 90
       50
102
RTVSPost2010PropOp48
 70
     1
102
RTVSPost2010Prop49
280
     0
102
RTVSPost2010PropOp49
 70
     1
102
RTVSPost2010Prop50
 90
       50
102
RTVSPost2010PropOp50
 70
     1
102
RTVSPost2010Prop51ColorIndex
 90
      256
102
RTVSPost2010Prop51ColorRGB
 90
-16777216
102
RTVSPost2010PropOp51
 70
     0
102
RTVSPost2010Prop52
140
1.0
102
RTVSPost2010PropOp52
 70
     0
102
RTVSPost2010Prop53
 90
        2
102
RTVSPost2010PropOp53
 70
     1
102
RTVSPost2010Prop54
  1
strokes_ogs.tif
102
RTVSPost2010PropOp54
 70
     1
102
RTVSPost2010Prop55
280
     0
102
RTVSPost2010PropOp55
 70
     1
102
RTVSPost2010Prop56
140
1.0
102
RTVSPost2010PropOp56
 70
     1
102
RTVSPost2010Prop57
140
1.0
102
RTVSPost2010PropOp57
 70
     1
102
RTVSPropertyOp0
 70
     1
102
RTVSPropertyOp1
 70
     1
102
RTVSPropertyOp2
 70
     1
102
RTVSPropertyOp3
 70
     1
102
RTVSPropertyOp4
 70
     1
102
RTVSPropertyOp5
 70
     1
102
RTVSPropertyOp6
 70
     1
102
RTVSPropertyOp7
 70
     1
102
RTVSPropertyOp8
 70
     1
102
RTVSPropertyOp9
 70
     1
102
RTVSPropertyOp10
 70
     1
102
RTVSPropertyOp11
 70
     1
102
RTVSPropertyOp12
 70
     1
102
RTVSPropertyOp13
 70
     1
102
RTVSPropertyOp14
 70
     1
102
RTVSPropertyOp15
 70
     1
102
RTVSPropertyOp16
 70
     1
102
RTVSPropertyOp17
 70
     1
102
RTVSPropertyOp18
 70
     1
102
RTVSPropertyOp19
 70
     1
102
RTVSPropertyOp20
 70
     1
102
RTVSPropertyOp21
 70
     1
102
RTVSPropertyOp22
 70
     1
102
RTVSPropertyOp23
 70
     1
102
RTVSPropertyOp24
 70
     1
102
RTVSPropertyOp25
 70
     1
102
RTVSPropertyOp26
 70
     1
102
RTVSPropertyOp27
 70
     1
102
RTVSPropertyOp28
 70
     1
102
RTVSPropertyOp29
 70
     1
102
RTVSPropertyOp30
 70
     1
102
RTVSPropertyOp31
 70
     1
102
RTVSPropertyOp32
 70
     1
102
RTVSPropertyOp33
 70
     1
102
RTVSPropertyOp34
 70
     1
102
RTVSPropertyOp35
 70
     1
102
RTVSPropertyOp36
 70
     1
102
RTVSPropertyOp37
 70
     1
102
RTVSPropertyOp38
 70
     1
102
RTVSPropertyOp39
 70
     1
102
RTVSPropertyOp40
 70
     1
102
RTVSPropertyOp41
 70
     1
102
RTVSPropertyOp42
 70
     1
102
RTVSPropertyOp43
 70
     1
102
RTVSPropertyOp44
 70
     1
102
RTVSPropertyOp45
 70
     1
102
RTVSPropertyOp46
 70
     1
102
RTVSPropertyOp47
 70
     1
102
RTVSPropertyOp48
 70
     1
102
RTVSPropertyOp49
 70
     1
102
RTVSPropertyOp50
 70
     1
102
RTVSPropertyOp51
 70
     0
102
RTVSPropertyOp52
 70
     0
102
RTVSPropertyOp53
 70
     1
102
RTVSPropertyOp54
 70
     1
102
RTVSPropertyOp55
 70
     1
102
RTVSPropertyOp56
 70
     1
102
RTVSPropertyOp57
 70
     1
102
RTVSPropertyOp58
 70
     1
102
RTVSPropertyOp59
 70
     1
102
RTVSPropertyOp60
 70
     1
102
RTVSPropertyOp61
 70
     1
102
RTVSPropertyOp62
 70
     1
  0
XRECORD
  5
842D
102
{ACAD_REACTORS
330
842C
102
}
330
842C
100
AcDbXrecord
280
     1
102
RTVSPost2010Prop28
280
     0
102
RTVSPost2010PropOp28
 70
     1
102
RTVSPost2010Prop29
280
     1
102
RTVSPost2010PropOp29
 70
     1
102
RTVSPost2010Prop30
280
     1
102
RTVSPost2010PropOp30
 70
     1
102
RTVSPost2010Prop31
280
     0
102
RTVSPost2010PropOp31
 70
     1
102
RTVSPost2010Prop32
280
     0
102
RTVSPost2010PropOp32
 70
     1
102
RTVSPost2010Prop33
280
     0
102
RTVSPost2010PropOp33
 70
     1
102
RTVSPost2010Prop34
280
     0
102
RTVSPost2010PropOp34
 70
     1
102
RTVSPost2010Prop35
280
     0
102
RTVSPost2010PropOp35
 70
     1
102
RTVSPost2010Prop36
280
     0
102
RTVSPost2010PropOp36
 70
     1
102
RTVSPost2010Prop37
 90
       50
102
RTVSPost2010PropOp37
 70
     1
102
RTVSPost2010Prop38
140
0.0
102
RTVSPost2010PropOp38
 70
     1
102
RTVSPost2010Prop39
140
1.0
102
RTVSPost2010PropOp39
 70
     1
102
RTVSPost2010Prop40
 90
        0
102
RTVSPost2010PropOp40
 70
     1
102
RTVSPost2010Prop41ColorIndex
 90
       18
102
RTVSPost2010Prop41ColorRGB
 90
        0
102
RTVSPost2010PropOp41
 70
     1
102
RTVSPost2010Prop42
 90
       50
102
RTVSPost2010PropOp42
 70
     1
102
RTVSPost2010Prop43
 90
        3
102
RTVSPost2010PropOp43
 70
     1
102
RTVSPost2010Prop44ColorIndex
 90
        5
102
RTVSPost2010Prop44ColorRGB
 90
      255
102
RTVSPost2010PropOp44
 70
     1
102
RTVSPost2010Prop45
280
     0
102
RTVSPost2010PropOp45
 70
     1
102
RTVSPost2010Prop46
 90
       50
102
RTVSPost2010PropOp46
 70
     1
102
RTVSPost2010Prop47
 90
       50
102
RTVSPost2010PropOp47
 70
     1
102
RTVSPost2010Prop48
 90
       50
102
RTVSPost2010PropOp48
 70
     1
102
RTVSPost2010Prop49
280
     0
102
RTVSPost2010PropOp49
 70
     1
102
RTVSPost2010Prop50
 90
       50
102
RTVSPost2010PropOp50
 70
     1
102
RTVSPost2010Prop51ColorIndex
 90
      256
102
RTVSPost2010Prop51ColorRGB
 90
-16777216
102
RTVSPost2010PropOp51
 70
     0
102
RTVSPost2010Prop52
140
1.0
102
RTVSPost2010PropOp52
 70
     0
102
RTVSPost2010Prop53
 90
        2
102
RTVSPost2010PropOp53
 70
     1
102
RTVSPost2010Prop54
  1
strokes_ogs.tif
102
RTVSPost2010PropOp54
 70
     1
102
RTVSPost2010Prop55
280
     0
102
RTVSPost2010PropOp55
 70
     1
102
RTVSPost2010Prop56
140
1.0
102
RTVSPost2010PropOp56
 70
     1
102
RTVSPost2010Prop57
140
1.0
102
RTVSPost2010PropOp57
 70
     1
102
RTVSPropertyOp0
 70
     1
102
RTVSPropertyOp1
 70
     1
102
RTVSPropertyOp2
 70
     1
102
RTVSPropertyOp3
 70
     1
102
RTVSPropertyOp4
 70
     1
102
RTVSPropertyOp5
 70
     1
102
RTVSPropertyOp6
 70
     1
102
RTVSPropertyOp7
 70
     1
102
RTVSPropertyOp8
 70
     1
102
RTVSPropertyOp9
 70
     1
102
RTVSPropertyOp10
 70
     1
102
RTVSPropertyOp11
 70
     1
102
RTVSPropertyOp12
 70
     1
102
RTVSPropertyOp13
 70
     1
102
RTVSPropertyOp14
 70
     1
102
RTVSPropertyOp15
 70
     1
102
RTVSPropertyOp16
 70
     1
102
RTVSPropertyOp17
 70
     1
102
RTVSPropertyOp18
 70
     1
102
RTVSPropertyOp19
 70
     1
102
RTVSPropertyOp20
 70
     1
102
RTVSPropertyOp21
 70
     1
102
RTVSPropertyOp22
 70
     1
102
RTVSPropertyOp23
 70
     1
102
RTVSPropertyOp24
 70
     1
102
RTVSPropertyOp25
 70
     1
102
RTVSPropertyOp26
 70
     1
102
RTVSPropertyOp27
 70
     1
102
RTVSPropertyOp28
 70
     1
102
RTVSPropertyOp29
 70
     1
102
RTVSPropertyOp30
 70
     1
102
RTVSPropertyOp31
 70
     1
102
RTVSPropertyOp32
 70
     1
102
RTVSPropertyOp33
 70
     1
102
RTVSPropertyOp34
 70
     1
102
RTVSPropertyOp35
 70
     1
102
RTVSPropertyOp36
 70
     1
102
RTVSPropertyOp37
 70
     1
102
RTVSPropertyOp38
 70
     1
102
RTVSPropertyOp39
 70
     1
102
RTVSPropertyOp40
 70
     1
102
RTVSPropertyOp41
 70
     1
102
RTVSPropertyOp42
 70
     1
102
RTVSPropertyOp43
 70
     1
102
RTVSPropertyOp44
 70
     1
102
RTVSPropertyOp45
 70
     1
102
RTVSPropertyOp46
 70
     1
102
RTVSPropertyOp47
 70
     1
102
RTVSPropertyOp48
 70
     1
102
RTVSPropertyOp49
 70
     1
102
RTVSPropertyOp50
 70
     1
102
RTVSPropertyOp51
 70
     0
102
RTVSPropertyOp52
 70
     0
102
RTVSPropertyOp53
 70
     1
102
RTVSPropertyOp54
 70
     1
102
RTVSPropertyOp55
 70
     1
102
RTVSPropertyOp56
 70
     1
102
RTVSPropertyOp57
 70
     1
102
RTVSPropertyOp58
 70
     1
102
RTVSPropertyOp59
 70
     1
102
RTVSPropertyOp60
 70
     1
102
RTVSPropertyOp61
 70
     1
102
RTVSPropertyOp62
 70
     1
  0
XRECORD
  5
8423
102
{ACAD_REACTORS
330
8422
102
}
330
8422
100
AcDbXrecord
280
     1
102
RTVSPost2010Prop28
280
     0
102
RTVSPost2010PropOp28
 70
     1
102
RTVSPost2010Prop29
280
     1
102
RTVSPost2010PropOp29
 70
     1
102
RTVSPost2010Prop30
280
     1
102
RTVSPost2010PropOp30
 70
     1
102
RTVSPost2010Prop31
280
     0
102
RTVSPost2010PropOp31
 70
     1
102
RTVSPost2010Prop32
280
     0
102
RTVSPost2010PropOp32
 70
     1
102
RTVSPost2010Prop33
280
     0
102
RTVSPost2010PropOp33
 70
     1
102
RTVSPost2010Prop34
280
     0
102
RTVSPost2010PropOp34
 70
     1
102
RTVSPost2010Prop35
280
     0
102
RTVSPost2010PropOp35
 70
     1
102
RTVSPost2010Prop36
280
     0
102
RTVSPost2010PropOp36
 70
     1
102
RTVSPost2010Prop37
 90
       50
102
RTVSPost2010PropOp37
 70
     1
102
RTVSPost2010Prop38
140
0.0
102
RTVSPost2010PropOp38
 70
     1
102
RTVSPost2010Prop39
140
1.0
102
RTVSPost2010PropOp39
 70
     1
102
RTVSPost2010Prop40
 90
        0
102
RTVSPost2010PropOp40
 70
     1
102
RTVSPost2010Prop41ColorIndex
 90
       18
102
RTVSPost2010Prop41ColorRGB
 90
        0
102
RTVSPost2010PropOp41
 70
     1
102
RTVSPost2010Prop42
 90
       50
102
RTVSPost2010PropOp42
 70
     1
102
RTVSPost2010Prop43
 90
        3
102
RTVSPost2010PropOp43
 70
     1
102
RTVSPost2010Prop44ColorIndex
 90
        5
102
RTVSPost2010Prop44ColorRGB
 90
      255
102
RTVSPost2010PropOp44
 70
     1
102
RTVSPost2010Prop45
280
     0
102
RTVSPost2010PropOp45
 70
     1
102
RTVSPost2010Prop46
 90
       50
102
RTVSPost2010PropOp46
 70
     1
102
RTVSPost2010Prop47
 90
       50
102
RTVSPost2010PropOp47
 70
     1
102
RTVSPost2010Prop48
 90
       50
102
RTVSPost2010PropOp48
 70
     1
102
RTVSPost2010Prop49
280
     0
102
RTVSPost2010PropOp49
 70
     1
102
RTVSPost2010Prop50
 90
       50
102
RTVSPost2010PropOp50
 70
     1
102
RTVSPost2010Prop51ColorIndex
 90
      256
102
RTVSPost2010Prop51ColorRGB
 90
-16777216
102
RTVSPost2010PropOp51
 70
     0
102
RTVSPost2010Prop52
140
1.0
102
RTVSPost2010PropOp52
 70
     0
102
RTVSPost2010Prop53
 90
        2
102
RTVSPost2010PropOp53
 70
     1
102
RTVSPost2010Prop54
  1
strokes_ogs.tif
102
RTVSPost2010PropOp54
 70
     1
102
RTVSPost2010Prop55
280
     0
102
RTVSPost2010PropOp55
 70
     1
102
RTVSPost2010Prop56
140
1.0
102
RTVSPost2010PropOp56
 70
     1
102
RTVSPost2010Prop57
140
1.0
102
RTVSPost2010PropOp57
 70
     1
102
RTVSPropertyOp0
 70
     1
102
RTVSPropertyOp1
 70
     1
102
RTVSPropertyOp2
 70
     1
102
RTVSPropertyOp3
 70
     1
102
RTVSPropertyOp4
 70
     1
102
RTVSPropertyOp5
 70
     1
102
RTVSPropertyOp6
 70
     1
102
RTVSPropertyOp7
 70
     1
102
RTVSPropertyOp8
 70
     1
102
RTVSPropertyOp9
 70
     1
102
RTVSPropertyOp10
 70
     1
102
RTVSPropertyOp11
 70
     1
102
RTVSPropertyOp12
 70
     1
102
RTVSPropertyOp13
 70
     1
102
RTVSPropertyOp14
 70
     1
102
RTVSPropertyOp15
 70
     1
102
RTVSPropertyOp16
 70
     1
102
RTVSPropertyOp17
 70
     1
102
RTVSPropertyOp18
 70
     1
102
RTVSPropertyOp19
 70
     1
102
RTVSPropertyOp20
 70
     1
102
RTVSPropertyOp21
 70
     1
102
RTVSPropertyOp22
 70
     1
102
RTVSPropertyOp23
 70
     1
102
RTVSPropertyOp24
 70
     1
102
RTVSPropertyOp25
 70
     1
102
RTVSPropertyOp26
 70
     1
102
RTVSPropertyOp27
 70
     1
102
RTVSPropertyOp28
 70
     1
102
RTVSPropertyOp29
 70
     1
102
RTVSPropertyOp30
 70
     1
102
RTVSPropertyOp31
 70
     1
102
RTVSPropertyOp32
 70
     1
102
RTVSPropertyOp33
 70
     1
102
RTVSPropertyOp34
 70
     1
102
RTVSPropertyOp35
 70
     1
102
RTVSPropertyOp36
 70
     1
102
RTVSPropertyOp37
 70
     1
102
RTVSPropertyOp38
 70
     1
102
RTVSPropertyOp39
 70
     1
102
RTVSPropertyOp40
 70
     1
102
RTVSPropertyOp41
 70
     1
102
RTVSPropertyOp42
 70
     1
102
RTVSPropertyOp43
 70
     1
102
RTVSPropertyOp44
 70
     1
102
RTVSPropertyOp45
 70
     1
102
RTVSPropertyOp46
 70
     1
102
RTVSPropertyOp47
 70
     1
102
RTVSPropertyOp48
 70
     1
102
RTVSPropertyOp49
 70
     1
102
RTVSPropertyOp50
 70
     1
102
RTVSPropertyOp51
 70
     0
102
RTVSPropertyOp52
 70
     0
102
RTVSPropertyOp53
 70
     1
102
RTVSPropertyOp54
 70
     1
102
RTVSPropertyOp55
 70
     1
102
RTVSPropertyOp56
 70
     1
102
RTVSPropertyOp57
 70
     1
102
RTVSPropertyOp58
 70
     1
102
RTVSPropertyOp59
 70
     1
102
RTVSPropertyOp60
 70
     1
102
RTVSPropertyOp61
 70
     1
102
RTVSPropertyOp62
 70
     1
  0
XRECORD
  5
8417
102
{ACAD_REACTORS
330
8416
102
}
330
8416
100
AcDbXrecord
280
     1
102
RTVSPost2010Prop28
280
     0
102
RTVSPost2010PropOp28
 70
     1
102
RTVSPost2010Prop29
280
     1
102
RTVSPost2010PropOp29
 70
     1
102
RTVSPost2010Prop30
280
     1
102
RTVSPost2010PropOp30
 70
     1
102
RTVSPost2010Prop31
280
     0
102
RTVSPost2010PropOp31
 70
     1
102
RTVSPost2010Prop32
280
     0
102
RTVSPost2010PropOp32
 70
     1
102
RTVSPost2010Prop33
280
     0
102
RTVSPost2010PropOp33
 70
     1
102
RTVSPost2010Prop34
280
     0
102
RTVSPost2010PropOp34
 70
     1
102
RTVSPost2010Prop35
280
     0
102
RTVSPost2010PropOp35
 70
     1
102
RTVSPost2010Prop36
280
     0
102
RTVSPost2010PropOp36
 70
     1
102
RTVSPost2010Prop37
 90
       50
102
RTVSPost2010PropOp37
 70
     1
102
RTVSPost2010Prop38
140
0.0
102
RTVSPost2010PropOp38
 70
     1
102
RTVSPost2010Prop39
140
1.0
102
RTVSPost2010PropOp39
 70
     1
102
RTVSPost2010Prop40
 90
        0
102
RTVSPost2010PropOp40
 70
     1
102
RTVSPost2010Prop41ColorIndex
 90
       18
102
RTVSPost2010Prop41ColorRGB
 90
        0
102
RTVSPost2010PropOp41
 70
     1
102
RTVSPost2010Prop42
 90
       50
102
RTVSPost2010PropOp42
 70
     1
102
RTVSPost2010Prop43
 90
        3
102
RTVSPost2010PropOp43
 70
     1
102
RTVSPost2010Prop44ColorIndex
 90
        5
102
RTVSPost2010Prop44ColorRGB
 90
      255
102
RTVSPost2010PropOp44
 70
     1
102
RTVSPost2010Prop45
280
     0
102
RTVSPost2010PropOp45
 70
     1
102
RTVSPost2010Prop46
 90
       50
102
RTVSPost2010PropOp46
 70
     1
102
RTVSPost2010Prop47
 90
       50
102
RTVSPost2010PropOp47
 70
     1
102
RTVSPost2010Prop48
 90
       50
102
RTVSPost2010PropOp48
 70
     1
102
RTVSPost2010Prop49
280
     0
102
RTVSPost2010PropOp49
 70
     1
102
RTVSPost2010Prop50
 90
       50
102
RTVSPost2010PropOp50
 70
     1
102
RTVSPost2010Prop51ColorIndex
 90
      256
102
RTVSPost2010Prop51ColorRGB
 90
-16777216
102
RTVSPost2010PropOp51
 70
     0
102
RTVSPost2010Prop52
140
1.0
102
RTVSPost2010PropOp52
 70
     0
102
RTVSPost2010Prop53
 90
        2
102
RTVSPost2010PropOp53
 70
     1
102
RTVSPost2010Prop54
  1
strokes_ogs.tif
102
RTVSPost2010PropOp54
 70
     1
102
RTVSPost2010Prop55
280
     0
102
RTVSPost2010PropOp55
 70
     1
102
RTVSPost2010Prop56
140
1.0
102
RTVSPost2010PropOp56
 70
     1
102
RTVSPost2010Prop57
140
1.0
102
RTVSPost2010PropOp57
 70
     1
102
RTVSPropertyOp0
 70
     1
102
RTVSPropertyOp1
 70
     1
102
RTVSPropertyOp2
 70
     1
102
RTVSPropertyOp3
 70
     1
102
RTVSPropertyOp4
 70
     1
102
RTVSPropertyOp5
 70
     1
102
RTVSPropertyOp6
 70
     1
102
RTVSPropertyOp7
 70
     1
102
RTVSPropertyOp8
 70
     1
102
RTVSPropertyOp9
 70
     1
102
RTVSPropertyOp10
 70
     1
102
RTVSPropertyOp11
 70
     1
102
RTVSPropertyOp12
 70
     1
102
RTVSPropertyOp13
 70
     1
102
RTVSPropertyOp14
 70
     1
102
RTVSPropertyOp15
 70
     1
102
RTVSPropertyOp16
 70
     1
102
RTVSPropertyOp17
 70
     1
102
RTVSPropertyOp18
 70
     1
102
RTVSPropertyOp19
 70
     1
102
RTVSPropertyOp20
 70
     1
102
RTVSPropertyOp21
 70
     1
102
RTVSPropertyOp22
 70
     1
102
RTVSPropertyOp23
 70
     1
102
RTVSPropertyOp24
 70
     1
102
RTVSPropertyOp25
 70
     1
102
RTVSPropertyOp26
 70
     1
102
RTVSPropertyOp27
 70
     1
102
RTVSPropertyOp28
 70
     1
102
RTVSPropertyOp29
 70
     1
102
RTVSPropertyOp30
 70
     1
102
RTVSPropertyOp31
 70
     1
102
RTVSPropertyOp32
 70
     1
102
RTVSPropertyOp33
 70
     1
102
RTVSPropertyOp34
 70
     1
102
RTVSPropertyOp35
 70
     1
102
RTVSPropertyOp36
 70
     1
102
RTVSPropertyOp37
 70
     1
102
RTVSPropertyOp38
 70
     1
102
RTVSPropertyOp39
 70
     1
102
RTVSPropertyOp40
 70
     1
102
RTVSPropertyOp41
 70
     1
102
RTVSPropertyOp42
 70
     1
102
RTVSPropertyOp43
 70
     1
102
RTVSPropertyOp44
 70
     1
102
RTVSPropertyOp45
 70
     1
102
RTVSPropertyOp46
 70
     1
102
RTVSPropertyOp47
 70
     1
102
RTVSPropertyOp48
 70
     1
102
RTVSPropertyOp49
 70
     1
102
RTVSPropertyOp50
 70
     1
102
RTVSPropertyOp51
 70
     0
102
RTVSPropertyOp52
 70
     0
102
RTVSPropertyOp53
 70
     1
102
RTVSPropertyOp54
 70
     1
102
RTVSPropertyOp55
 70
     1
102
RTVSPropertyOp56
 70
     1
102
RTVSPropertyOp57
 70
     1
102
RTVSPropertyOp58
 70
     1
102
RTVSPropertyOp59
 70
     1
102
RTVSPropertyOp60
 70
     1
102
RTVSPropertyOp61
 70
     1
102
RTVSPropertyOp62
 70
     1
  0
XRECORD
  5
842F
102
{ACAD_REACTORS
330
842E
102
}
330
842E
100
AcDbXrecord
280
     1
102
RTVSPost2010Prop28
280
     0
102
RTVSPost2010PropOp28
 70
     1
102
RTVSPost2010Prop29
280
     1
102
RTVSPost2010PropOp29
 70
     1
102
RTVSPost2010Prop30
280
     1
102
RTVSPost2010PropOp30
 70
     1
102
RTVSPost2010Prop31
280
     0
102
RTVSPost2010PropOp31
 70
     1
102
RTVSPost2010Prop32
280
     0
102
RTVSPost2010PropOp32
 70
     1
102
RTVSPost2010Prop33
280
     0
102
RTVSPost2010PropOp33
 70
     1
102
RTVSPost2010Prop34
280
     0
102
RTVSPost2010PropOp34
 70
     1
102
RTVSPost2010Prop35
280
     0
102
RTVSPost2010PropOp35
 70
     1
102
RTVSPost2010Prop36
280
     0
102
RTVSPost2010PropOp36
 70
     1
102
RTVSPost2010Prop37
 90
       50
102
RTVSPost2010PropOp37
 70
     1
102
RTVSPost2010Prop38
140
0.0
102
RTVSPost2010PropOp38
 70
     1
102
RTVSPost2010Prop39
140
1.0
102
RTVSPost2010PropOp39
 70
     1
102
RTVSPost2010Prop40
 90
        0
102
RTVSPost2010PropOp40
 70
     1
102
RTVSPost2010Prop41ColorIndex
 90
       18
102
RTVSPost2010Prop41ColorRGB
 90
        0
102
RTVSPost2010PropOp41
 70
     1
102
RTVSPost2010Prop42
 90
       50
102
RTVSPost2010PropOp42
 70
     1
102
RTVSPost2010Prop43
 90
        3
102
RTVSPost2010PropOp43
 70
     1
102
RTVSPost2010Prop44ColorIndex
 90
        5
102
RTVSPost2010Prop44ColorRGB
 90
      255
102
RTVSPost2010PropOp44
 70
     1
102
RTVSPost2010Prop45
280
     0
102
RTVSPost2010PropOp45
 70
     1
102
RTVSPost2010Prop46
 90
       50
102
RTVSPost2010PropOp46
 70
     1
102
RTVSPost2010Prop47
 90
       50
102
RTVSPost2010PropOp47
 70
     1
102
RTVSPost2010Prop48
 90
       50
102
RTVSPost2010PropOp48
 70
     1
102
RTVSPost2010Prop49
280
     0
102
RTVSPost2010PropOp49
 70
     1
102
RTVSPost2010Prop50
 90
       50
102
RTVSPost2010PropOp50
 70
     1
102
RTVSPost2010Prop51ColorIndex
 90
      256
102
RTVSPost2010Prop51ColorRGB
 90
-16777216
102
RTVSPost2010PropOp51
 70
     0
102
RTVSPost2010Prop52
140
1.0
102
RTVSPost2010PropOp52
 70
     0
102
RTVSPost2010Prop53
 90
        2
102
RTVSPost2010PropOp53
 70
     1
102
RTVSPost2010Prop54
  1
strokes_ogs.tif
102
RTVSPost2010PropOp54
 70
     1
102
RTVSPost2010Prop55
280
     0
102
RTVSPost2010PropOp55
 70
     1
102
RTVSPost2010Prop56
140
1.0
102
RTVSPost2010PropOp56
 70
     1
102
RTVSPost2010Prop57
140
1.0
102
RTVSPost2010PropOp57
 70
     1
102
RTVSPropertyOp0
 70
     1
102
RTVSPropertyOp1
 70
     1
102
RTVSPropertyOp2
 70
     1
102
RTVSPropertyOp3
 70
     1
102
RTVSPropertyOp4
 70
     1
102
RTVSPropertyOp5
 70
     1
102
RTVSPropertyOp6
 70
     1
102
RTVSPropertyOp7
 70
     1
102
RTVSPropertyOp8
 70
     1
102
RTVSPropertyOp9
 70
     1
102
RTVSPropertyOp10
 70
     1
102
RTVSPropertyOp11
 70
     1
102
RTVSPropertyOp12
 70
     1
102
RTVSPropertyOp13
 70
     1
102
RTVSPropertyOp14
 70
     1
102
RTVSPropertyOp15
 70
     1
102
RTVSPropertyOp16
 70
     1
102
RTVSPropertyOp17
 70
     1
102
RTVSPropertyOp18
 70
     1
102
RTVSPropertyOp19
 70
     1
102
RTVSPropertyOp20
 70
     1
102
RTVSPropertyOp21
 70
     1
102
RTVSPropertyOp22
 70
     1
102
RTVSPropertyOp23
 70
     1
102
RTVSPropertyOp24
 70
     1
102
RTVSPropertyOp25
 70
     1
102
RTVSPropertyOp26
 70
     1
102
RTVSPropertyOp27
 70
     1
102
RTVSPropertyOp28
 70
     1
102
RTVSPropertyOp29
 70
     1
102
RTVSPropertyOp30
 70
     1
102
RTVSPropertyOp31
 70
     1
102
RTVSPropertyOp32
 70
     1
102
RTVSPropertyOp33
 70
     1
102
RTVSPropertyOp34
 70
     1
102
RTVSPropertyOp35
 70
     1
102
RTVSPropertyOp36
 70
     1
102
RTVSPropertyOp37
 70
     1
102
RTVSPropertyOp38
 70
     1
102
RTVSPropertyOp39
 70
     1
102
RTVSPropertyOp40
 70
     1
102
RTVSPropertyOp41
 70
     1
102
RTVSPropertyOp42
 70
     1
102
RTVSPropertyOp43
 70
     1
102
RTVSPropertyOp44
 70
     1
102
RTVSPropertyOp45
 70
     1
102
RTVSPropertyOp46
 70
     1
102
RTVSPropertyOp47
 70
     1
102
RTVSPropertyOp48
 70
     1
102
RTVSPropertyOp49
 70
     1
102
RTVSPropertyOp50
 70
     1
102
RTVSPropertyOp51
 70
     0
102
RTVSPropertyOp52
 70
     0
102
RTVSPropertyOp53
 70
     1
102
RTVSPropertyOp54
 70
     1
102
RTVSPropertyOp55
 70
     1
102
RTVSPropertyOp56
 70
     1
102
RTVSPropertyOp57
 70
     1
102
RTVSPropertyOp58
 70
     1
102
RTVSPropertyOp59
 70
     1
102
RTVSPropertyOp60
 70
     1
102
RTVSPropertyOp61
 70
     1
102
RTVSPropertyOp62
 70
     1
  0
ENDSEC
  0
EOF
