  0
SECTION
  2
HEADER
  9
$ACADVER
  1
AC1015
  9
$ACADMAINTVER
 70
    20
  9
$DWGCODEPAGE
  3
ANSI_932
  9
$INSBASE
 10
0.0
 20
0.0
 30
0.0
  9
$EXTMIN
 10
-0.1602050617329951
 20
-0.22504996767384
 30
-0.0015258207003583
  9
$EXTMAX
 10
5250.160229508953
 20
7375.225084310193
 30
0.0000000349246037
  9
$LIMMIN
 10
0.0
 20
0.0
  9
$LIMMAX
 10
297.0
 20
210.0
  9
$ORTHOMODE
 70
     1
  9
$REGENMODE
 70
     1
  9
$FILLMODE
 70
     0
  9
$QTEXTMODE
 70
     0
  9
$MIRRTEXT
 70
     1
  9
$LTSCALE
 40
100.0
  9
$ATTMODE
 70
     1
  9
$TEXTSIZE
 40
180.0
  9
$TRACEWID
 40
0.05
  9
$TEXTSTYLE
  7
STANDARD
  9
$CLAYER
  8
3
  9
$CELTYPE
  6
ByLayer
  9
$CECOLOR
 62
   256
  9
$CELTSCALE
 40
1.0
  9
$DISPSILH
 70
     0
  9
$DIMSCALE
 40
25.0
  9
$DIMASZ
 40
2.0
  9
$DIMEXO
 40
1.0
  9
$DIMDLI
 40
10.0
  9
$DIMRND
 40
0.0
  9
$DIMDLE
 40
0.0
  9
$DIMEXE
 40
1.0
  9
$DIMTP
 40
1.0
  9
$DIMTM
 40
1.0
  9
$DIMTXT
 40
3.0
  9
$DIMCEN
 40
0.0
  9
$DIMTSZ
 40
0.0
  9
$DIMTOL
 70
     0
  9
$DIMLIM
 70
     0
  9
$DIMTIH
 70
     0
  9
$DIMTOH
 70
     0
  9
$DIMSE1
 70
     0
  9
$DIMSE2
 70
     0
  9
$DIMTAD
 70
     1
  9
$DIMZIN
 70
     8
  9
$DIMBLK
  1

  9
$DIMASO
 70
     1
  9
$DIMSHO
 70
     1
  9
$DIMPOST
  1

  9
$DIMAPOST
  1

  9
$DIMALT
 70
     0
  9
$DIMALTD
 70
     2
  9
$DIMALTF
 40
0.039
  9
$DIMLFAC
 40
1.0
  9
$DIMTOFL
 70
     1
  9
$DIMTVP
 40
0.0
  9
$DIMTIX
 70
     0
  9
$DIMSOXD
 70
     0
  9
$DIMSAH
 70
     1
  9
$DIMBLK1
  1
OPEN
  9
$DIMBLK2
  1
OPEN
  9
$DIMSTYLE
  2
IGA
  9
$DIMCLRD
 70
     0
  9
$DIMCLRE
 70
     0
  9
$DIMCLRT
 70
     0
  9
$DIMTFAC
 40
10.0
  9
$DIMGAP
 40
1.0
  9
$DIMJUST
 70
     0
  9
$DIMSD1
 70
     0
  9
$DIMSD2
 70
     0
  9
$DIMTOLJ
 70
     1
  9
$DIMTZIN
 70
     0
  9
$DIMALTZ
 70
     0
  9
$DIMALTTZ
 70
     0
  9
$DIMUPT
 70
     0
  9
$DIMDEC
 70
     4
  9
$DIMTDEC
 70
     4
  9
$DIMALTU
 70
     2
  9
$DIMALTTD
 70
     2
  9
$DIMTXSTY
  7
STANDARD
  9
$DIMAUNIT
 70
     0
  9
$DIMADEC
 70
     0
  9
$DIMALTRND
 40
0.0
  9
$DIMAZIN
 70
     0
  9
$DIMDSEP
 70
    46
  9
$DIMATFIT
 70
     3
  9
$DIMFRAC
 70
     0
  9
$DIMLDRBLK
  1
OPEN
  9
$DIMLUNIT
 70
     2
  9
$DIMLWD
 70
    -2
  9
$DIMLWE
 70
    -2
  9
$DIMTMOVE
 70
     0
  9
$LUNITS
 70
     2
  9
$LUPREC
 70
     3
  9
$SKETCHINC
 40
0.1
  9
$FILLETRAD
 40
50.0
  9
$AUNITS
 70
     0
  9
$AUPREC
 70
     0
  9
$MENU
  1
acad
  9
$ELEVATION
 40
0.0
  9
$PELEVATION
 40
0.0
  9
$THICKNESS
 40
0.0
  9
$LIMCHECK
 70
     0
  9
$CHAMFERA
 40
0.5
  9
$CHAMFERB
 40
0.5
  9
$CHAMFERC
 40
0.0
  9
$CHAMFERD
 40
0.0
  9
$SKPOLY
 70
     0
  9
$TDCREATE
 40
2451387.581912616
  9
$TDUCREATE
 40
2451387.206912616
  9
$TDUPDATE
 40
2460263.705211227
  9
$TDUUPDATE
 40
2460263.330211227
  9
$TDINDWG
 40
0.0823263889
  9
$TDUSRTIMER
 40
0.0823262037
  9
$USRTIMER
 70
     1
  9
$ANGBASE
 50
0.0
  9
$ANGDIR
 70
     0
  9
$PDMODE
 70
     0
  9
$PDSIZE
 40
0.0
  9
$PLINEWID
 40
0.0
  9
$SPLFRAME
 70
     0
  9
$SPLINETYPE
 70
     6
  9
$SPLINESEGS
 70
     8
  9
$HANDSEED
  5
8361
  9
$SURFTAB1
 70
     6
  9
$SURFTAB2
 70
     6
  9
$SURFTYPE
 70
     6
  9
$SURFU
 70
     6
  9
$SURFV
 70
     6
  9
$UCSBASE
  2

  9
$UCSNAME
  2

  9
$UCSORG
 10
0.0
 20
0.0
 30
0.0
  9
$UCSXDIR
 10
1.0
 20
0.0
 30
0.0
  9
$UCSYDIR
 10
0.0
 20
1.0
 30
0.0
  9
$UCSORTHOREF
  2

  9
$UCSORTHOVIEW
 70
     0
  9
$UCSORGTOP
 10
0.0
 20
0.0
 30
0.0
  9
$UCSORGBOTTOM
 10
0.0
 20
0.0
 30
0.0
  9
$UCSORGLEFT
 10
0.0
 20
0.0
 30
0.0
  9
$UCSORGRIGHT
 10
0.0
 20
0.0
 30
0.0
  9
$UCSORGFRONT
 10
0.0
 20
0.0
 30
0.0
  9
$UCSORGBACK
 10
0.0
 20
0.0
 30
0.0
  9
$PUCSBASE
  2

  9
$PUCSNAME
  2

  9
$PUCSORG
 10
0.0
 20
0.0
 30
0.0
  9
$PUCSXDIR
 10
1.0
 20
0.0
 30
0.0
  9
$PUCSYDIR
 10
0.0
 20
1.0
 30
0.0
  9
$PUCSORTHOREF
  2

  9
$PUCSORTHOVIEW
 70
     0
  9
$PUCSORGTOP
 10
0.0
 20
0.0
 30
0.0
  9
$PUCSORGBOTTOM
 10
0.0
 20
0.0
 30
0.0
  9
$PUCSORGLEFT
 10
0.0
 20
0.0
 30
0.0
  9
$PUCSORGRIGHT
 10
0.0
 20
0.0
 30
0.0
  9
$PUCSORGFRONT
 10
0.0
 20
0.0
 30
0.0
  9
$PUCSORGBACK
 10
0.0
 20
0.0
 30
0.0
  9
$USERI1
 70
     0
  9
$USERI2
 70
     0
  9
$USERI3
 70
     0
  9
$USERI4
 70
     0
  9
$USERI5
 70
     0
  9
$USERR1
 40
0.0
  9
$USERR2
 40
0.0
  9
$USERR3
 40
0.0
  9
$USERR4
 40
0.0
  9
$USERR5
 40
0.0
  9
$WORLDVIEW
 70
     1
  9
$SHADEDGE
 70
     3
  9
$SHADEDIF
 70
    70
  9
$TILEMODE
 70
     1
  9
$MAXACTVP
 70
    16
  9
$PINSBASE
 10
0.0
 20
0.0
 30
0.0
  9
$PLIMCHECK
 70
     0
  9
$PEXTMIN
 10
1.000000000000000E+20
 20
1.000000000000000E+20
 30
1.000000000000000E+20
  9
$PEXTMAX
 10
-1.000000000000000E+20
 20
-1.000000000000000E+20
 30
-1.000000000000000E+20
  9
$PLIMMIN
 10
0.0
 20
0.0
  9
$PLIMMAX
 10
12.0
 20
9.0
  9
$UNITMODE
 70
     0
  9
$VISRETAIN
 70
     0
  9
$PLINEGEN
 70
     0
  9
$PSLTSCALE
 70
     1
  9
$TREEDEPTH
 70
  3020
  9
$CMLSTYLE
  2
Standard
  9
$CMLJUST
 70
     0
  9
$CMLSCALE
 40
1.0
  9
$PROXYGRAPHICS
 70
     1
  9
$MEASUREMENT
 70
     0
  9
$CELWEIGHT
370
    -1
  9
$ENDCAPS
280
     0
  9
$JOINSTYLE
280
     0
  9
$LWDISPLAY
290
     0
  9
$INSUNITS
 70
     0
  9
$HYPERLINKBASE
  1

  9
$STYLESHEET
  1

  9
$XEDIT
290
     1
  9
$CEPSNTYPE
380
     0
  9
$PSTYLEMODE
290
     1
  9
$FINGERPRINTGUID
  2
{34207381-E75A-4E00-9E02-D4E3F542D873}
  9
$VERSIONGUID
  2
{6195AAAF-F420-4642-98E8-3CBDB5CDCF8B}
  9
$EXTNAMES
290
     1
  9
$PSVPSCALE
 40
0.0
  9
$OLESTARTUP
290
     0
  0
ENDSEC
  0
SECTION
  2
CLASSES
  0
CLASS
  1
ACDBDICTIONARYWDFLT
  2
AcDbDictionaryWithDefault
  3
ObjectDBX Classes
 90
        0
280
     0
281
     0
  0
CLASS
  1
MATERIAL
  2
AcDbMaterial
  3
ObjectDBX Classes
 90
     1153
280
     0
281
     0
  0
CLASS
  1
VISUALSTYLE
  2
AcDbVisualStyle
  3
ObjectDBX Classes
 90
     4095
280
     0
281
     0
  0
CLASS
  1
SCALE
  2
AcDbScale
  3
ObjectDBX Classes
 90
     1153
280
     0
281
     0
  0
CLASS
  1
TABLESTYLE
  2
AcDbTableStyle
  3
ObjectDBX Classes
 90
     4095
280
     0
281
     0
  0
CLASS
  1
MLEADERSTYLE
  2
AcDbMLeaderStyle
  3
ACDB_MLEADERSTYLE_CLASS
 90
     4095
280
     0
281
     0
  0
CLASS
  1
ACDBSECTIONVIEWSTYLE
  2
AcDbSectionViewStyle
  3
ObjectDBX Classes
 90
     1025
280
     0
281
     0
  0
CLASS
  1
ACDBDETAILVIEWSTYLE
  2
AcDbDetailViewStyle
  3
ObjectDBX Classes
 90
     1025
280
     0
281
     0
  0
CLASS
  1
DICTIONARYVAR
  2
AcDbDictionaryVar
  3
ObjectDBX Classes
 90
        0
280
     0
281
     0
  0
CLASS
  1
CELLSTYLEMAP
  2
AcDbCellStyleMap
  3
ObjectDBX Classes
 90
     1152
280
     0
281
     0
  0
CLASS
  1
SORTENTSTABLE
  2
AcDbSortentsTable
  3
ObjectDBX Classes
 90
        0
280
     0
281
     0
  0
CLASS
  1
ACDBPLACEHOLDER
  2
AcDbPlaceHolder
  3
ObjectDBX Classes
 90
        0
280
     0
281
     0
  0
CLASS
  1
LAYOUT
  2
AcDbLayout
  3
ObjectDBX Classes
 90
        0
280
     0
281
     0
  0
ENDSEC
  0
SECTION
  2
TABLES
  0
TABLE
  2
VPORT
  5
810E
330
0
100
AcDbSymbolTable
 70
     1
  0
VPORT
  5
817A
330
810E
100
AcDbSymbolTableRecord
100
AcDbViewportTableRecord
  2
*ACTIVE
 70
     0
 10
0.0
 20
0.0
 11
1.0
 21
1.0
 12
2625.00001222361
 22
3687.500017171259
 13
0.0
 23
0.0
 14
10.0
 24
10.0
 15
10.0
 25
10.0
 16
0.0
 26
0.0
 36
1.0
 17
0.0
 27
0.0
 37
0.0
 40
7426.203693861485
 41
2.050213675213675
 42
50.0
 43
0.0
 44
0.0
 50
0.0
 51
0.0
 71
     0
 72
   100
 73
     1
 74
     0
 75
     0
 76
     0
 77
     0
 78
     0
281
     0
 65
     1
110
0.0
120
0.0
130
0.0
111
1.0
121
0.0
131
0.0
112
0.0
122
1.0
132
0.0
 79
     0
146
0.0
1001
ACAD_NAV_VCDISPLAY
1070
     3
  0
ENDTAB
  0
TABLE
  2
LTYPE
  5
810B
330
0
100
AcDbSymbolTable
 70
     3
  0
LTYPE
  5
8160
330
810B
100
AcDbSymbolTableRecord
100
AcDbLinetypeTableRecord
  2
ByBlock
 70
     0
  3

 72
    65
 73
     0
 40
0.0
  0
LTYPE
  5
8161
330
810B
100
AcDbSymbolTableRecord
100
AcDbLinetypeTableRecord
  2
ByLayer
 70
     0
  3

 72
    65
 73
     0
 40
0.0
  0
LTYPE
  5
8162
330
810B
100
AcDbSymbolTableRecord
100
AcDbLinetypeTableRecord
  2
CONTINUOUS
 70
     0
  3
Solid line
 72
    65
 73
     0
 40
0.0
  0
LTYPE
  5
817B
330
810B
100
AcDbSymbolTableRecord
100
AcDbLinetypeTableRecord
  2
CENTER
 70
     0
  3
____ _ ____ _ ____ _ ____ _ ____ _ ____ _ ____ 
 72
    65
 73
     4
 40
2.0
 49
1.25
 74
     0
 49
-0.25
 74
     0
 49
0.25
 74
     0
 49
-0.25
 74
     0
  0
ENDTAB
  0
TABLE
  2
LAYER
  5
8108
102
{ACAD_XDICTIONARY
360
8216
102
}
330
0
100
AcDbSymbolTable
 70
     6
  0
LAYER
  5
815A
102
{ACAD_XDICTIONARY
360
81C0
102
}
330
8108
100
AcDbSymbolTableRecord
100
AcDbLayerTableRecord
  2
0
 70
     0
 62
     7
  6
CONTINUOUS
370
    -3
390
8115
  0
LAYER
  5
8179
102
{ACAD_XDICTIONARY
360
81C2
102
}
330
8108
100
AcDbSymbolTableRecord
100
AcDbLayerTableRecord
  2
3
 70
     0
 62
     2
  6
CONTINUOUS
370
    -3
390
8115
  0
LAYER
  5
817C
102
{ACAD_XDICTIONARY
360
81C4
102
}
330
8108
100
AcDbSymbolTableRecord
100
AcDbLayerTableRecord
  2
2
 70
     0
 62
     3
  6
CENTER
370
    -3
390
8115
  0
LAYER
  5
817D
102
{ACAD_XDICTIONARY
360
81C6
102
}
330
8108
100
AcDbSymbolTableRecord
100
AcDbLayerTableRecord
  2
1
 70
     0
 62
     4
  6
CONTINUOUS
370
    -3
390
8115
  0
LAYER
  5
817E
102
{ACAD_XDICTIONARY
360
81C8
102
}
330
8108
100
AcDbSymbolTableRecord
100
AcDbLayerTableRecord
  2
4
 70
     0
 62
     7
  6
CONTINUOUS
370
    -3
390
8115
  0
LAYER
  5
817F
330
8108
100
AcDbSymbolTableRecord
100
AcDbLayerTableRecord
  2
DEFPOINTS
 70
     0
 62
     7
  6
CONTINUOUS
290
     0
370
    -3
390
8115
  0
ENDTAB
  0
TABLE
  2
STYLE
  5
8109
330
0
100
AcDbSymbolTable
 70
     2
  0
STYLE
  5
815B
330
8109
100
AcDbSymbolTableRecord
100
AcDbTextStyleTableRecord
  2
STANDARD
 70
     0
 40
0.0
 41
1.0
 50
0.0
 71
     0
 42
180.0
  3
simplex.shx
  4
extfont.shx
  0
STYLE
  5
815F
330
8109
100
AcDbSymbolTableRecord
100
AcDbTextStyleTableRecord
  2
Annotative
 70
     0
 40
0.0
 41
1.0
 50
0.0
 71
     0
 42
0.2
  3
txt
  4

1001
AcadAnnotative
1000
AnnotativeData
1002
{
1070
     1
1070
     1
1002
}
  0
ENDTAB
  0
TABLE
  2
VIEW
  5
810C
330
0
100
AcDbSymbolTable
 70
     0
  0
ENDTAB
  0
TABLE
  2
UCS
  5
810D
330
0
100
AcDbSymbolTable
 70
     0
  0
ENDTAB
  0
TABLE
  2
APPID
  5
810F
330
0
100
AcDbSymbolTable
 70
     8
  0
APPID
  5
815C
330
810F
100
AcDbSymbolTableRecord
100
AcDbRegAppTableRecord
  2
ACAD
 70
     0
  0
APPID
  5
8163
330
810F
100
AcDbSymbolTableRecord
100
AcDbRegAppTableRecord
  2
AcadAnnotative
 70
     0
  0
APPID
  5
81D4
330
810F
100
AcDbSymbolTableRecord
100
AcDbRegAppTableRecord
  2
ACAD_NAV_VCDISPLAY
 70
     0
  0
APPID
  5
8243
330
810F
100
AcDbSymbolTableRecord
100
AcDbRegAppTableRecord
  2
ACAD_DSTYLE_DIMJAG
 70
     0
  0
APPID
  5
8244
330
810F
100
AcDbSymbolTableRecord
100
AcDbRegAppTableRecord
  2
ACAD_DSTYLE_DIMTALN
 70
     0
  0
APPID
  5
8271
330
810F
100
AcDbSymbolTableRecord
100
AcDbRegAppTableRecord
  2
AcadAnnoMonitorAlertIconDisabled
 70
     0
  0
APPID
  5
8272
330
810F
100
AcDbSymbolTableRecord
100
AcDbRegAppTableRecord
  2
ACAD_EXEMPT_FROM_CAD_STANDARDS
 70
     0
  0
APPID
  5
8358
330
810F
100
AcDbSymbolTableRecord
100
AcDbRegAppTableRecord
  2
ACAD_MLEADERVER
 70
     0
  0
ENDTAB
  0
TABLE
  2
DIMSTYLE
  5
8110
330
0
100
AcDbSymbolTable
 70
     4
100
AcDbDimStyleTable
 71
     1
340
8180
  0
DIMSTYLE
105
815D
102
{ACAD_REACTORS
330
7C8D
330
7C8E
330
7C9C
330
7CB1
330
7CF2
330
7CF6
330
7CF8
330
7CF9
330
7CFA
330
7CFB
330
7CFE
330
7D00
330
8052
330
805F
330
806C
330
8079
330
8088
330
8095
102
}
330
8110
100
AcDbSymbolTableRecord
100
AcDbDimStyleTableRecord
  2
Standard
 70
     0
340
815B
  0
DIMSTYLE
105
815E
330
8110
100
AcDbSymbolTableRecord
100
AcDbDimStyleTableRecord
  2
Annotative
 70
     0
340
815B
1001
AcadAnnotative
1000
AnnotativeData
1002
{
1070
     1
1070
     1
1002
}
  0
DIMSTYLE
105
8180
102
{ACAD_REACTORS
330
8245
330
8252
330
82AA
330
82C9
102
}
330
8110
100
AcDbSymbolTableRecord
100
AcDbDimStyleTableRecord
  2
IGA
 70
     0
 40
2.0
 41
2.0
 42
0.5
 43
10.0
 44
1.0
 47
1.0
 48
1.0
 73
     0
 74
     0
 77
     1
 78
     8
140
3.0
141
0.0
143
0.03937
146
10.0
147
1.0
173
     1
271
     3
272
     3
279
     2
284
     8
285
     8
286
     8
340
815B
  0
DIMSTYLE
105
8181
330
8110
100
AcDbSymbolTableRecord
100
AcDbDimStyleTableRecord
  2
MATSU
 70
     0
 41
2.0
 42
1.0
 43
10.0
 44
1.0
 73
     0
 74
     0
 77
     1
 78
     8
140
3.0
141
0.0
143
0.03937
147
0.5
172
     1
173
     1
176
   256
177
   256
178
   256
271
     3
272
     3
279
     2
284
     8
285
     8
286
     8
340
815B
  0
ENDTAB
  0
TABLE
  2
BLOCK_RECORD
  5
8107
330
0
100
AcDbSymbolTable
 70
    34
  0
BLOCK_RECORD
  5
8175
330
8107
100
AcDbSymbolTableRecord
100
AcDbBlockTableRecord
  2
*Model_Space
340
8178
  0
BLOCK_RECORD
  5
8171
330
8107
100
AcDbSymbolTableRecord
100
AcDbBlockTableRecord
  2
*Paper_Space
340
8174
  0
BLOCK_RECORD
  5
8185
330
8107
100
AcDbSymbolTableRecord
100
AcDbBlockTableRecord
  2
$MODEL_SPACE
340
0
  0
BLOCK_RECORD
  5
8187
330
8107
100
AcDbSymbolTableRecord
100
AcDbBlockTableRecord
  2
$PAPER_SPACE
340
0
  0
BLOCK_RECORD
  5
8189
330
8107
100
AcDbSymbolTableRecord
100
AcDbBlockTableRecord
  2
_OPEN
340
0
102
{BLKREFS
331
8065
331
8066
331
8072
331
8073
331
808E
331
808F
331
82B1
331
82B2
331
82D9
331
82DA
331
7ECE
331
7ECF
331
8037
331
8038
331
802C
331
802D
331
7EEF
331
7EF0
331
7EFA
331
7EFB
331
8007
331
8008
331
7F10
331
7F11
331
7F1B
331
7F1C
331
7F26
331
7F27
331
80F9
331
7F56
331
7F57
331
804B
331
804C
331
8058
331
8059
331
829B
331
829C
331
82A4
331
82A5
331
7E60
331
7E61
331
7E6B
331
7E6C
331
7E76
331
7E77
331
7E81
331
7E82
331
7E97
331
7E98
102
}
  0
BLOCK_RECORD
  5
818B
330
8107
100
AcDbSymbolTableRecord
100
AcDbBlockTableRecord
  2
YA_N
340
0
102
{BLKREFS
331
7C37
331
7C56
331
7C94
331
7CD0
102
}
  0
BLOCK_RECORD
  5
818D
330
8107
100
AcDbSymbolTableRecord
100
AcDbBlockTableRecord
  2
*D4
340
0
  0
BLOCK_RECORD
  5
818F
330
8107
100
AcDbSymbolTableRecord
100
AcDbBlockTableRecord
  2
*D5
340
0
  0
BLOCK_RECORD
  5
8191
330
8107
100
AcDbSymbolTableRecord
100
AcDbBlockTableRecord
  2
*D6
340
0
  0
BLOCK_RECORD
  5
8193
330
8107
100
AcDbSymbolTableRecord
100
AcDbBlockTableRecord
  2
*D7
340
0
  0
BLOCK_RECORD
  5
8195
330
8107
100
AcDbSymbolTableRecord
100
AcDbBlockTableRecord
  2
*D8
340
0
  0
BLOCK_RECORD
  5
8197
330
8107
100
AcDbSymbolTableRecord
100
AcDbBlockTableRecord
  2
*D9
340
0
  0
BLOCK_RECORD
  5
8199
330
8107
100
AcDbSymbolTableRecord
100
AcDbBlockTableRecord
  2
*D10
340
0
  0
BLOCK_RECORD
  5
819B
330
8107
100
AcDbSymbolTableRecord
100
AcDbBlockTableRecord
  2
*U11
340
0
102
{BLKREFS
331
8039
102
}
  0
BLOCK_RECORD
  5
819C
330
8107
100
AcDbSymbolTableRecord
100
AcDbBlockTableRecord
  2
*D12
340
0
  0
BLOCK_RECORD
  5
819E
330
8107
100
AcDbSymbolTableRecord
100
AcDbBlockTableRecord
  2
*D13
340
0
  0
BLOCK_RECORD
  5
81A0
330
8107
100
AcDbSymbolTableRecord
100
AcDbBlockTableRecord
  2
*D14
340
0
  0
BLOCK_RECORD
  5
81A2
330
8107
100
AcDbSymbolTableRecord
100
AcDbBlockTableRecord
  2
*D15
340
0
  0
BLOCK_RECORD
  5
81A4
330
8107
100
AcDbSymbolTableRecord
100
AcDbBlockTableRecord
  2
*D16
340
0
  0
BLOCK_RECORD
  5
81A6
330
8107
100
AcDbSymbolTableRecord
100
AcDbBlockTableRecord
  2
*D17
340
0
  0
BLOCK_RECORD
  5
81A8
330
8107
100
AcDbSymbolTableRecord
100
AcDbBlockTableRecord
  2
*D18
340
0
  0
BLOCK_RECORD
  5
81AA
330
8107
100
AcDbSymbolTableRecord
100
AcDbBlockTableRecord
  2
*D19
340
0
  0
BLOCK_RECORD
  5
81AC
330
8107
100
AcDbSymbolTableRecord
100
AcDbBlockTableRecord
  2
_DOT
340
0
102
{BLKREFS
331
80F8
102
}
  0
BLOCK_RECORD
  5
81AD
330
8107
100
AcDbSymbolTableRecord
100
AcDbBlockTableRecord
  2
*D21
340
0
  0
BLOCK_RECORD
  5
81B0
330
8107
100
AcDbSymbolTableRecord
100
AcDbBlockTableRecord
  2
*D22
340
0
  0
BLOCK_RECORD
  5
81B2
330
8107
100
AcDbSymbolTableRecord
100
AcDbBlockTableRecord
  2
*D23
340
0
  0
BLOCK_RECORD
  5
81B4
330
8107
100
AcDbSymbolTableRecord
100
AcDbBlockTableRecord
  2
*D24
340
0
  0
BLOCK_RECORD
  5
81B6
330
8107
100
AcDbSymbolTableRecord
100
AcDbBlockTableRecord
  2
*D25
340
0
  0
BLOCK_RECORD
  5
81B8
330
8107
100
AcDbSymbolTableRecord
100
AcDbBlockTableRecord
  2
_NONE
340
0
  0
BLOCK_RECORD
  5
81BA
330
8107
100
AcDbSymbolTableRecord
100
AcDbBlockTableRecord
  2
*D27
340
0
  0
BLOCK_RECORD
  5
81BC
330
8107
100
AcDbSymbolTableRecord
100
AcDbBlockTableRecord
  2
*D28
340
0
  0
BLOCK_RECORD
  5
8246
330
8107
100
AcDbSymbolTableRecord
100
AcDbBlockTableRecord
  2
*D30
340
0
  0
BLOCK_RECORD
  5
8253
330
8107
100
AcDbSymbolTableRecord
100
AcDbBlockTableRecord
  2
*D31
340
0
  0
BLOCK_RECORD
  5
82AB
330
8107
100
AcDbSymbolTableRecord
100
AcDbBlockTableRecord
  2
*D32
340
0
  0
BLOCK_RECORD
  5
82CA
330
8107
100
AcDbSymbolTableRecord
100
AcDbBlockTableRecord
  2
*D33
340
0
  0
ENDTAB
  0
ENDSEC
  0
SECTION
  2
BLOCKS
  0
BLOCK
  5
8176
330
8175
100
AcDbEntity
  8
0
100
AcDbBlockBegin
  2
*Model_Space
 70
     0
 10
0.0
 20
0.0
 30
0.0
  3
*Model_Space
  1

  0
ENDBLK
  5
8177
330
8175
100
AcDbEntity
  8
0
100
AcDbBlockEnd
  0
BLOCK
  5
8172
330
8171
100
AcDbEntity
 67
     1
  8
0
100
AcDbBlockBegin
  2
*Paper_Space
 70
     0
 10
0.0
 20
0.0
 30
0.0
  3
*Paper_Space
  1

  0
ENDBLK
  5
8173
330
8171
100
AcDbEntity
 67
     1
  8
0
100
AcDbBlockEnd
  0
BLOCK
  5
8186
330
8185
100
AcDbEntity
  8
0
100
AcDbBlockBegin
  2
$MODEL_SPACE
 70
     0
 10
0.0
 20
0.0
 30
0.0
  3
$MODEL_SPACE
  1

  0
ENDBLK
  5
1B
330
8185
100
AcDbEntity
  8
0
100
AcDbBlockEnd
  0
BLOCK
  5
8188
330
8187
100
AcDbEntity
  8
0
100
AcDbBlockBegin
  2
$PAPER_SPACE
 70
     0
 10
0.0
 20
0.0
 30
0.0
  3
$PAPER_SPACE
  1

  0
ENDBLK
  5
18
330
8187
100
AcDbEntity
  8
0
100
AcDbBlockEnd
  0
BLOCK
  5
818A
330
8189
100
AcDbEntity
  8
0
100
AcDbBlockBegin
  2
_OPEN
 70
     0
 10
0.0
 20
0.0
 30
0.0
  3
_OPEN
  1

  0
LINE
  5
79FD
330
8189
100
AcDbEntity
  8
0
  6
ByBlock
 62
     0
100
AcDbLine
 10
-1.0
 20
0.1666666666666666
 30
0.0
 11
0.0
 21
0.0
 31
0.0
  0
LINE
  5
79FE
330
8189
100
AcDbEntity
  8
0
  6
ByBlock
 62
     0
100
AcDbLine
 10
0.0
 20
0.0
 30
0.0
 11
-1.0
 21
-0.1666666666666666
 31
0.0
  0
LINE
  5
79FF
330
8189
100
AcDbEntity
  8
0
  6
ByBlock
 62
     0
100
AcDbLine
 10
0.0
 20
0.0
 30
0.0
 11
-1.0
 21
0.0
 31
0.0
  0
ENDBLK
  5
7A01
330
8189
100
AcDbEntity
  8
0
100
AcDbBlockEnd
  0
BLOCK
  5
818C
330
818B
100
AcDbEntity
  8
0
100
AcDbBlockBegin
  2
YA_N
 70
     0
 10
0.0
 20
0.0
 30
0.0
  3
YA_N
  1

  0
ENDBLK
  5
7A0C
330
818B
100
AcDbEntity
  8
0
100
AcDbBlockEnd
  0
BLOCK
  5
818E
330
818D
100
AcDbEntity
  8
0
100
AcDbBlockBegin
  2
*D4
 70
     1
 10
0.0
 20
0.0
 30
0.0
  3
*D4
  1

  0
LINE
  5
7E5D
330
818D
100
AcDbEntity
  8
0
  6
ByBlock
100
AcDbLine
 10
1750.57214721576
 20
1267.593478221399
 30
0.0
 11
1899.579530994986
 21
1267.593478221399
 31
0.0
  0
LINE
  5
7E5E
330
818D
100
AcDbEntity
  8
0
  6
ByBlock
100
AcDbLine
 10
1750.572147215761
 20
537.5934782213988
 30
0.0
 11
1899.579530994986
 21
537.5934782213988
 31
0.0
  0
LINE
  5
7E5F
330
818D
100
AcDbEntity
  8
0
  6
ByBlock
100
AcDbLine
 10
1874.579530994986
 20
1217.593478221399
 30
0.0
 11
1874.579530994986
 21
587.5934782213988
 31
0.0
  0
INSERT
  5
7E60
330
818D
100
AcDbEntity
  8
0
  6
ByBlock
100
AcDbBlockReference
  2
_OPEN
 10
1874.579530994986
 20
1267.593478221399
 30
0.0
 41
50.0
 42
50.0
 43
50.0
 50
90.0
  0
INSERT
  5
7E61
330
818D
100
AcDbEntity
  8
0
  6
ByBlock
100
AcDbBlockReference
  2
_OPEN
 10
1874.579530994986
 20
537.5934782213988
 30
0.0
 41
50.0
 42
50.0
 43
50.0
 50
270.0
  0
TEXT
  5
7E62
330
818D
100
AcDbEntity
  8
3
100
AcDbText
 10
1862.079530994986
 20
806.1649067928273
 30
0.0
 40
75.0
  1
730
 50
90.0
100
AcDbText
  0
POINT
  5
7E63
330
818D
100
AcDbEntity
  8
DEFPOINTS
  6
ByBlock
 62
     0
100
AcDbPoint
 10
1725.57214721576
 20
1267.593478221399
 30
0.0
  0
POINT
  5
7E64
330
818D
100
AcDbEntity
  8
DEFPOINTS
  6
ByBlock
 62
     0
100
AcDbPoint
 10
1725.572147215761
 20
537.5934782213988
 30
0.0
  0
POINT
  5
7E65
330
818D
100
AcDbEntity
  8
DEFPOINTS
  6
ByBlock
 62
     0
100
AcDbPoint
 10
1874.579530994986
 20
537.5934782213988
 30
0.0
  0
ENDBLK
  5
7E66
330
818D
100
AcDbEntity
  8
0
100
AcDbBlockEnd
  0
BLOCK
  5
8190
330
818F
100
AcDbEntity
  8
0
100
AcDbBlockBegin
  2
*D5
 70
     1
 10
0.0
 20
0.0
 30
0.0
  3
*D5
  1

  0
LINE
  5
7E68
330
818F
100
AcDbEntity
  8
0
  6
ByBlock
100
AcDbLine
 10
1750.57214721576
 20
1267.593478221399
 30
0.0
 11
2052.388304468651
 21
1267.593478221399
 31
0.0
  0
LINE
  5
7E69
330
818F
100
AcDbEntity
  8
0
  6
ByBlock
100
AcDbLine
 10
1872.837986021189
 20
508.5934782213988
 30
0.0
 11
2052.388304468651
 21
508.5934782213988
 31
0.0
  0
LINE
  5
7E6A
330
818F
100
AcDbEntity
  8
0
  6
ByBlock
100
AcDbLine
 10
2027.388304468651
 20
1217.593478221399
 30
0.0
 11
2027.388304468651
 21
558.5934782213988
 31
0.0
  0
INSERT
  5
7E6B
330
818F
100
AcDbEntity
  8
0
  6
ByBlock
100
AcDbBlockReference
  2
_OPEN
 10
2027.388304468651
 20
1267.593478221399
 30
0.0
 41
50.0
 42
50.0
 43
50.0
 50
90.0
  0
INSERT
  5
7E6C
330
818F
100
AcDbEntity
  8
0
  6
ByBlock
100
AcDbBlockReference
  2
_OPEN
 10
2027.388304468651
 20
508.5934782213988
 30
0.0
 41
50.0
 42
50.0
 43
50.0
 50
270.0
  0
TEXT
  5
7E6D
330
818F
100
AcDbEntity
  8
3
100
AcDbText
 10
2014.888304468651
 20
793.4506210785417
 30
0.0
 40
75.0
  1
759
 50
90.0
100
AcDbText
  0
POINT
  5
7E6E
330
818F
100
AcDbEntity
  8
DEFPOINTS
  6
ByBlock
 62
     0
100
AcDbPoint
 10
1725.57214721576
 20
1267.593478221399
 30
0.0
  0
POINT
  5
7E6F
330
818F
100
AcDbEntity
  8
DEFPOINTS
  6
ByBlock
 62
     0
100
AcDbPoint
 10
1847.83798602119
 20
508.5934782213988
 30
0.0
  0
POINT
  5
7E70
330
818F
100
AcDbEntity
  8
DEFPOINTS
  6
ByBlock
 62
     0
100
AcDbPoint
 10
2027.388304468651
 20
508.5934782213988
 30
0.0
  0
ENDBLK
  5
7E71
330
818F
100
AcDbEntity
  8
0
100
AcDbBlockEnd
  0
BLOCK
  5
8192
330
8191
100
AcDbEntity
  8
0
100
AcDbBlockBegin
  2
*D6
 70
     1
 10
0.0
 20
0.0
 30
0.0
  3
*D6
  1

  0
LINE
  5
7E73
330
8191
100
AcDbEntity
  8
0
  6
ByBlock
100
AcDbLine
 10
1725.57214721576
 20
1334.593478221398
 30
0.0
 11
1725.57214721576
 21
1485.574010402429
 31
0.0
  0
LINE
  5
7E74
330
8191
100
AcDbEntity
  8
0
  6
ByBlock
100
AcDbLine
 10
1225.57214721576
 20
1363.64476267854
 30
0.0
 11
1225.57214721576
 21
1485.574010402429
 31
0.0
  0
LINE
  5
7E75
330
8191
100
AcDbEntity
  8
0
  6
ByBlock
100
AcDbLine
 10
1675.57214721576
 20
1460.57401040243
 30
0.0
 11
1275.57214721576
 21
1460.57401040243
 31
0.0
  0
INSERT
  5
7E76
330
8191
100
AcDbEntity
  8
0
  6
ByBlock
100
AcDbBlockReference
  2
_OPEN
 10
1725.57214721576
 20
1460.57401040243
 30
0.0
 41
50.0
 42
50.0
 43
50.0
  0
INSERT
  5
7E77
330
8191
100
AcDbEntity
  8
0
  6
ByBlock
100
AcDbBlockReference
  2
_OPEN
 10
1225.57214721576
 20
1460.57401040243
 30
0.0
 41
50.0
 42
50.0
 43
50.0
 50
180.0
  0
TEXT
  5
7E78
330
8191
100
AcDbEntity
  8
3
100
AcDbText
 10
1379.143575787189
 20
1473.07401040243
 30
0.0
 40
75.0
  1
500
100
AcDbText
  0
POINT
  5
7E79
330
8191
100
AcDbEntity
  8
DEFPOINTS
  6
ByBlock
 62
     0
100
AcDbPoint
 10
1725.57214721576
 20
1309.593478221398
 30
0.0
  0
POINT
  5
7E7A
330
8191
100
AcDbEntity
  8
DEFPOINTS
  6
ByBlock
 62
     0
100
AcDbPoint
 10
1225.57214721576
 20
1338.64476267854
 30
0.0
  0
POINT
  5
7E7B
330
8191
100
AcDbEntity
  8
DEFPOINTS
  6
ByBlock
 62
     0
100
AcDbPoint
 10
1225.57214721576
 20
1460.57401040243
 30
0.0
  0
ENDBLK
  5
7E7C
330
8191
100
AcDbEntity
  8
0
100
AcDbBlockEnd
  0
BLOCK
  5
8194
330
8193
100
AcDbEntity
  8
0
100
AcDbBlockBegin
  2
*D7
 70
     1
 10
0.0
 20
0.0
 30
0.0
  3
*D7
  1

  0
LINE
  5
7E7E
330
8193
100
AcDbEntity
  8
0
  6
ByBlock
100
AcDbLine
 10
1225.57214721576
 20
1363.64476267854
 30
0.0
 11
1225.57214721576
 21
1485.574010402429
 31
0.0
  0
LINE
  5
7E7F
330
8193
100
AcDbEntity
  8
0
  6
ByBlock
100
AcDbLine
 10
615.6875418733219
 20
533.5934782213992
 30
0.0
 11
615.6875418733219
 21
1485.574010402429
 31
0.0
  0
LINE
  5
7E80
330
8193
100
AcDbEntity
  8
0
  6
ByBlock
100
AcDbLine
 10
1175.57214721576
 20
1460.57401040243
 30
0.0
 11
665.6875418733219
 21
1460.57401040243
 31
0.0
  0
INSERT
  5
7E81
330
8193
100
AcDbEntity
  8
0
  6
ByBlock
100
AcDbBlockReference
  2
_OPEN
 10
1225.57214721576
 20
1460.57401040243
 30
0.0
 41
50.0
 42
50.0
 43
50.0
  0
INSERT
  5
7E82
330
8193
100
AcDbEntity
  8
0
  6
ByBlock
100
AcDbBlockReference
  2
_OPEN
 10
615.6875418733219
 20
1460.57401040243
 30
0.0
 41
50.0
 42
50.0
 43
50.0
 50
180.0
  0
TEXT
  5
7E83
330
8193
100
AcDbEntity
  8
3
100
AcDbText
 10
831.344130258827
 20
1473.07401040243
 30
0.0
 40
75.0
  1
612
100
AcDbText
  0
POINT
  5
7E84
330
8193
100
AcDbEntity
  8
DEFPOINTS
  6
ByBlock
 62
     0
100
AcDbPoint
 10
1225.57214721576
 20
1338.64476267854
 30
0.0
  0
POINT
  5
7E85
330
8193
100
AcDbEntity
  8
DEFPOINTS
  6
ByBlock
 62
     0
100
AcDbPoint
 10
615.6875418733219
 20
508.5934782213991
 30
0.0
  0
POINT
  5
7E86
330
8193
100
AcDbEntity
  8
DEFPOINTS
  6
ByBlock
 62
     0
100
AcDbPoint
 10
615.6875418733219
 20
1460.57401040243
 30
0.0
  0
ENDBLK
  5
7E87
330
8193
100
AcDbEntity
  8
0
100
AcDbBlockEnd
  0
BLOCK
  5
8196
330
8195
100
AcDbEntity
  8
0
100
AcDbBlockBegin
  2
*D8
 70
     1
 10
0.0
 20
0.0
 30
0.0
  3
*D8
  1

  0
LINE
  5
7E94
330
8195
100
AcDbEntity
  8
0
  6
ByBlock
100
AcDbLine
 10
1872.837986021189
 20
508.5934782213988
 30
0.0
 11
2051.325961501075
 21
508.5934782213988
 31
0.0
  0
LINE
  5
7E95
330
8195
100
AcDbEntity
  8
0
  6
ByBlock
100
AcDbLine
 10
1700.57214721576
 20
-36.40652177860101
 30
0.0
 11
2051.325961501075
 21
-36.40652177860101
 31
0.0
  0
LINE
  5
7E96
330
8195
100
AcDbEntity
  8
0
  6
ByBlock
100
AcDbLine
 10
2026.325961501076
 20
458.5934782213988
 30
0.0
 11
2026.325961501076
 21
13.59347822139898
 31
0.0
  0
INSERT
  5
7E97
330
8195
100
AcDbEntity
  8
0
  6
ByBlock
100
AcDbBlockReference
  2
_OPEN
 10
2026.325961501076
 20
508.5934782213988
 30
0.0
 41
50.0
 42
50.0
 43
50.0
 50
90.0
  0
INSERT
  5
7E98
330
8195
100
AcDbEntity
  8
0
  6
ByBlock
100
AcDbBlockReference
  2
_OPEN
 10
2026.325961501076
 20
-36.40652177860101
 30
0.0
 41
50.0
 42
50.0
 43
50.0
 50
270.0
  0
TEXT
  5
7E99
330
8195
100
AcDbEntity
  8
3
100
AcDbText
 10
2013.825961501075
 20
139.6649067928275
 30
0.0
 40
75.0
  1
545
 50
90.0
100
AcDbText
  0
POINT
  5
7E9A
330
8195
100
AcDbEntity
  8
DEFPOINTS
  6
ByBlock
 62
     0
100
AcDbPoint
 10
1847.83798602119
 20
508.5934782213988
 30
0.0
  0
POINT
  5
7E9B
330
8195
100
AcDbEntity
  8
DEFPOINTS
  6
ByBlock
 62
     0
100
AcDbPoint
 10
1675.57214721576
 20
-36.40652177860101
 30
0.0
  0
POINT
  5
7E9C
330
8195
100
AcDbEntity
  8
DEFPOINTS
  6
ByBlock
 62
     0
100
AcDbPoint
 10
2026.325961501076
 20
-36.40652177860101
 30
0.0
  0
ENDBLK
  5
7E9D
330
8195
100
AcDbEntity
  8
0
100
AcDbBlockEnd
  0
BLOCK
  5
8198
330
8197
100
AcDbEntity
  8
0
100
AcDbBlockBegin
  2
*D9
 70
     1
 10
0.0
 20
0.0
 30
0.0
  3
*D9
  1

  0
LINE
  5
7ECB
330
8197
100
AcDbEntity
  8
0
  6
ByBlock
100
AcDbLine
 10
3394.272073930469
 20
1292.802367882948
 30
0.0
 11
3394.272073930469
 21
1484.407041015605
 31
0.0
  0
LINE
  5
7ECC
330
8197
100
AcDbEntity
  8
0
  6
ByBlock
100
AcDbLine
 10
4294.27207393047
 20
1292.80235414594
 30
0.0
 11
4294.27207393047
 21
1484.407041015605
 31
0.0
  0
LINE
  5
7ECD
330
8197
100
AcDbEntity
  8
0
  6
ByBlock
100
AcDbLine
 10
3444.272073930469
 20
1459.407041015604
 30
0.0
 11
4244.27207393047
 21
1459.407041015604
 31
0.0
  0
INSERT
  5
7ECE
330
8197
100
AcDbEntity
  8
0
  6
ByBlock
100
AcDbBlockReference
  2
_OPEN
 10
3394.272073930469
 20
1459.407041015604
 30
0.0
 41
50.0
 42
50.0
 43
50.0
 50
180.0
  0
INSERT
  5
7ECF
330
8197
100
AcDbEntity
  8
0
  6
ByBlock
100
AcDbBlockReference
  2
_OPEN
 10
4294.27207393047
 20
1459.407041015604
 30
0.0
 41
50.0
 42
50.0
 43
50.0
  0
TEXT
  5
7ED0
330
8197
100
AcDbEntity
  8
3
100
AcDbText
 10
3747.843502501898
 20
1471.907041015605
 30
0.0
 40
75.0
  1
900
100
AcDbText
  0
POINT
  5
7ED1
330
8197
100
AcDbEntity
  8
DEFPOINTS
  6
ByBlock
 62
     0
100
AcDbPoint
 10
3394.272073930469
 20
1267.802367882948
 30
0.0
  0
POINT
  5
7ED2
330
8197
100
AcDbEntity
  8
DEFPOINTS
  6
ByBlock
 62
     0
100
AcDbPoint
 10
4294.27207393047
 20
1267.80235414594
 30
0.0
  0
POINT
  5
7ED3
330
8197
100
AcDbEntity
  8
DEFPOINTS
  6
ByBlock
 62
     0
100
AcDbPoint
 10
4294.27207393047
 20
1459.407041015604
 30
0.0
  0
ENDBLK
  5
7ED4
330
8197
100
AcDbEntity
  8
0
100
AcDbBlockEnd
  0
BLOCK
  5
819A
330
8199
100
AcDbEntity
  8
0
100
AcDbBlockBegin
  2
*D10
 70
     1
 10
0.0
 20
0.0
 30
0.0
  3
*D10
  1

  0
LINE
  5
8034
330
8199
100
AcDbEntity
  8
0
  6
ByBlock
100
AcDbLine
 10
3233.415278056259
 20
2674.453614188716
 30
0.0
 11
3233.415278056259
 21
3495.520843590219
 31
0.0
  0
LINE
  5
8035
330
8199
100
AcDbEntity
  8
0
  6
ByBlock
100
AcDbLine
 10
3988.415278056257
 20
3437.98767709568
 30
0.0
 11
3988.415278056257
 21
3495.520843590219
 31
0.0
  0
LINE
  5
8036
330
8199
100
AcDbEntity
  8
0
  6
ByBlock
100
AcDbLine
 10
3283.415278056259
 20
3470.520843590219
 30
0.0
 11
3938.415278056257
 21
3470.520843590219
 31
0.0
  0
INSERT
  5
8037
330
8199
100
AcDbEntity
  8
0
  6
ByBlock
100
AcDbBlockReference
  2
_OPEN
 10
3233.415278056259
 20
3470.520843590219
 30
0.0
 41
50.0
 42
50.0
 43
50.0
 50
180.0
  0
INSERT
  5
8038
330
8199
100
AcDbEntity
  8
0
  6
ByBlock
100
AcDbBlockReference
  2
_OPEN
 10
3988.415278056257
 20
3470.520843590219
 30
0.0
 41
50.0
 42
50.0
 43
50.0
  0
INSERT
  5
8039
330
8199
100
AcDbEntity
  8
3
100
AcDbBlockReference
  2
*U11
 10
0.0
 20
0.0
 30
0.0
  0
POINT
  5
803A
330
8199
100
AcDbEntity
  8
DEFPOINTS
  6
ByBlock
 62
     0
100
AcDbPoint
 10
3233.415278056259
 20
2649.453614188717
 30
0.0
  0
POINT
  5
803B
330
8199
100
AcDbEntity
  8
DEFPOINTS
  6
ByBlock
 62
     0
100
AcDbPoint
 10
3988.415278056257
 20
3412.98767709568
 30
0.0
  0
POINT
  5
803C
330
8199
100
AcDbEntity
  8
DEFPOINTS
  6
ByBlock
 62
     0
100
AcDbPoint
 10
3988.415278056257
 20
3470.520843590219
 30
0.0
  0
ENDBLK
  5
803D
330
8199
100
AcDbEntity
  8
0
100
AcDbBlockEnd
  0
BLOCK
  5
81BE
330
819B
100
AcDbEntity
  8
0
100
AcDbBlockBegin
  2
*U11
 70
     1
 10
0.0
 20
0.0
 30
0.0
  3
*U11
  1

  0
TEXT
  5
8102
330
819B
100
AcDbEntity
  8
3
100
AcDbText
 10
3503.772420913401
 20
3608.020843590221
 30
0.0
 40
75.0
  1
MAX
100
AcDbText
  0
TEXT
  5
8103
330
819B
100
AcDbEntity
  8
3
100
AcDbText
 10
3514.486706627686
 20
3483.020843590221
 30
0.0
 40
75.0
  1
780
100
AcDbText
  0
ENDBLK
  5
8105
330
819B
100
AcDbEntity
  8
0
100
AcDbBlockEnd
  0
BLOCK
  5
819D
330
819C
100
AcDbEntity
  8
0
100
AcDbBlockBegin
  2
*D12
 70
     1
 10
0.0
 20
0.0
 30
0.0
  3
*D12
  1

  0
LINE
  5
8029
330
819C
100
AcDbEntity
  8
0
  6
ByBlock
100
AcDbLine
 10
3988.415278056257
 20
3437.98767709568
 30
0.0
 11
3988.415278056257
 21
3495.520843590219
 31
0.0
  0
LINE
  5
802A
330
819C
100
AcDbEntity
  8
0
  6
ByBlock
100
AcDbLine
 10
4540.915278056256
 20
2369.253614188716
 30
0.0
 11
4540.915278056256
 21
3495.520843590219
 31
0.0
  0
LINE
  5
802B
330
819C
100
AcDbEntity
  8
0
  6
ByBlock
100
AcDbLine
 10
4038.415278056256
 20
3470.520843590219
 30
0.0
 11
4490.915278056256
 21
3470.520843590219
 31
0.0
  0
INSERT
  5
802C
330
819C
100
AcDbEntity
  8
0
  6
ByBlock
100
AcDbBlockReference
  2
_OPEN
 10
3988.415278056257
 20
3470.520843590219
 30
0.0
 41
50.0
 42
50.0
 43
50.0
 50
180.0
  0
INSERT
  5
802D
330
819C
100
AcDbEntity
  8
0
  6
ByBlock
100
AcDbBlockReference
  2
_OPEN
 10
4540.915278056256
 20
3470.520843590219
 30
0.0
 41
50.0
 42
50.0
 43
50.0
  0
TEXT
  5
802E
330
819C
100
AcDbEntity
  8
3
100
AcDbText
 10
4120.0224209134
 20
3515.163700733078
 30
0.0
 40
75.0
  1
(560)
100
AcDbText
  0
POINT
  5
802F
330
819C
100
AcDbEntity
  8
DEFPOINTS
  6
ByBlock
 62
     0
100
AcDbPoint
 10
3988.415278056257
 20
3412.98767709568
 30
0.0
  0
POINT
  5
8030
330
819C
100
AcDbEntity
  8
DEFPOINTS
  6
ByBlock
 62
     0
100
AcDbPoint
 10
4540.915278056256
 20
2344.253614188716
 30
0.0
  0
POINT
  5
8031
330
819C
100
AcDbEntity
  8
DEFPOINTS
  6
ByBlock
 62
     0
100
AcDbPoint
 10
4540.915278056256
 20
3470.520843590219
 30
0.0
  0
ENDBLK
  5
8032
330
819C
100
AcDbEntity
  8
0
100
AcDbBlockEnd
  0
BLOCK
  5
819F
330
819E
100
AcDbEntity
  8
0
100
AcDbBlockBegin
  2
*D13
 70
     1
 10
0.0
 20
0.0
 30
0.0
  3
*D13
  1

  0
LINE
  5
7EEC
330
819E
100
AcDbEntity
  8
0
  6
ByBlock
100
AcDbLine
 10
4321.57207393047
 20
133.5934782213989
 30
0.0
 11
4597.054208885889
 21
133.5934782213989
 31
0.0
  0
LINE
  5
7EED
330
819E
100
AcDbEntity
  8
0
  6
ByBlock
100
AcDbLine
 10
4321.57207393047
 20
883.5934782213987
 30
0.0
 11
4597.054208885889
 21
883.5934782213987
 31
0.0
  0
LINE
  5
7EEE
330
819E
100
AcDbEntity
  8
0
  6
ByBlock
100
AcDbLine
 10
4572.054208885889
 20
183.5934782213989
 30
0.0
 11
4572.054208885889
 21
833.5934782213987
 31
0.0
  0
INSERT
  5
7EEF
330
819E
100
AcDbEntity
  8
0
  6
ByBlock
100
AcDbBlockReference
  2
_OPEN
 10
4572.054208885889
 20
133.5934782213989
 30
0.0
 41
50.0
 42
50.0
 43
50.0
 50
270.0
  0
INSERT
  5
7EF0
330
819E
100
AcDbEntity
  8
0
  6
ByBlock
100
AcDbBlockReference
  2
_OPEN
 10
4572.054208885889
 20
883.5934782213987
 30
0.0
 41
50.0
 42
50.0
 43
50.0
 50
90.0
  0
TEXT
  5
7EF1
330
819E
100
AcDbEntity
  8
3
100
AcDbText
 10
4559.554208885889
 20
374.6649067928275
 30
0.0
 40
75.0
  1
\U+03C6750
 50
90.0
100
AcDbText
  0
POINT
  5
7EF2
330
819E
100
AcDbEntity
  8
DEFPOINTS
  6
ByBlock
 62
     0
100
AcDbPoint
 10
4296.57207393047
 20
133.5934782213989
 30
0.0
  0
POINT
  5
7EF3
330
819E
100
AcDbEntity
  8
DEFPOINTS
  6
ByBlock
 62
     0
100
AcDbPoint
 10
4296.57207393047
 20
883.5934782213987
 30
0.0
  0
POINT
  5
7EF4
330
819E
100
AcDbEntity
  8
DEFPOINTS
  6
ByBlock
 62
     0
100
AcDbPoint
 10
4572.054208885889
 20
883.5934782213987
 30
0.0
  0
ENDBLK
  5
7EF5
330
819E
100
AcDbEntity
  8
0
100
AcDbBlockEnd
  0
BLOCK
  5
81A1
330
81A0
100
AcDbEntity
  8
0
100
AcDbBlockBegin
  2
*D14
 70
     1
 10
0.0
 20
0.0
 30
0.0
  3
*D14
  1

  0
LINE
  5
7EF7
330
81A0
100
AcDbEntity
  8
0
  6
ByBlock
100
AcDbLine
 10
75.57214721576018
 20
2748.533310535339
 30
0.0
 11
75.57214721576018
 21
2485.350850711191
 31
0.0
  0
LINE
  5
7EF8
330
81A0
100
AcDbEntity
  8
0
  6
ByBlock
100
AcDbLine
 10
1675.57214721576
 20
2748.533310535338
 30
0.0
 11
1675.57214721576
 21
2485.350850711191
 31
0.0
  0
LINE
  5
7EF9
330
81A0
100
AcDbEntity
  8
0
  6
ByBlock
100
AcDbLine
 10
125.5721472157601
 20
2510.350850711191
 30
0.0
 11
1625.57214721576
 21
2510.350850711191
 31
0.0
  0
INSERT
  5
7EFA
330
81A0
100
AcDbEntity
  8
0
  6
ByBlock
100
AcDbBlockReference
  2
_OPEN
 10
75.57214721576018
 20
2510.350850711191
 30
0.0
 41
50.0
 42
50.0
 43
50.0
 50
180.0
  0
INSERT
  5
7EFB
330
81A0
100
AcDbEntity
  8
0
  6
ByBlock
100
AcDbBlockReference
  2
_OPEN
 10
1675.57214721576
 20
2510.350850711191
 30
0.0
 41
50.0
 42
50.0
 43
50.0
  0
TEXT
  5
7EFC
330
81A0
100
AcDbEntity
  8
3
100
AcDbText
 10
750.5721472157602
 20
2522.850850711191
 30
0.0
 40
75.0
  1
1600
100
AcDbText
  0
POINT
  5
7EFD
330
81A0
100
AcDbEntity
  8
DEFPOINTS
  6
ByBlock
 62
     0
100
AcDbPoint
 10
75.57214721576018
 20
2773.533310535339
 30
0.0
  0
POINT
  5
7EFE
330
81A0
100
AcDbEntity
  8
DEFPOINTS
  6
ByBlock
 62
     0
100
AcDbPoint
 10
1675.57214721576
 20
2773.533310535337
 30
0.0
  0
POINT
  5
7EFF
330
81A0
100
AcDbEntity
  8
DEFPOINTS
  6
ByBlock
 62
     0
100
AcDbPoint
 10
1675.57214721576
 20
2510.350850711191
 30
0.0
  0
ENDBLK
  5
7F00
330
81A0
100
AcDbEntity
  8
0
100
AcDbBlockEnd
  0
BLOCK
  5
81A3
330
81A2
100
AcDbEntity
  8
0
100
AcDbBlockBegin
  2
*D15
 70
     1
 10
0.0
 20
0.0
 30
0.0
  3
*D15
  1

  0
LINE
  5
8004
330
81A2
100
AcDbEntity
  8
0
  6
ByBlock
100
AcDbLine
 10
445.536118939588
 20
4067.085753370572
 30
0.0
 11
303.0787369991485
 21
4067.085753370572
 31
0.0
  0
LINE
  5
8005
330
81A2
100
AcDbEntity
  8
0
  6
ByBlock
100
AcDbLine
 10
445.536118939588
 20
4737.085753370575
 30
0.0
 11
303.0787369991485
 21
4737.085753370575
 31
0.0
  0
LINE
  5
8006
330
81A2
100
AcDbEntity
  8
0
  6
ByBlock
100
AcDbLine
 10
328.0787369991485
 20
4117.085753370573
 30
0.0
 11
328.0787369991485
 21
4687.085753370575
 31
0.0
  0
INSERT
  5
8007
330
81A2
100
AcDbEntity
  8
0
  6
ByBlock
100
AcDbBlockReference
  2
_OPEN
 10
328.0787369991485
 20
4067.085753370572
 30
0.0
 41
50.0
 42
50.0
 43
50.0
 50
270.0
  0
INSERT
  5
8008
330
81A2
100
AcDbEntity
  8
0
  6
ByBlock
100
AcDbBlockReference
  2
_OPEN
 10
328.0787369991485
 20
4737.085753370575
 30
0.0
 41
50.0
 42
50.0
 43
50.0
 50
90.0
  0
TEXT
  5
8009
330
81A2
100
AcDbEntity
  8
3
100
AcDbText
 10
315.5787369991485
 20
4305.657181942001
 30
0.0
 40
75.0
  1
670
 50
90.0
100
AcDbText
  0
POINT
  5
800A
330
81A2
100
AcDbEntity
  8
DEFPOINTS
  6
ByBlock
 62
     0
100
AcDbPoint
 10
470.536118939588
 20
4067.085753370572
 30
0.0
  0
POINT
  5
800B
330
81A2
100
AcDbEntity
  8
DEFPOINTS
  6
ByBlock
 62
     0
100
AcDbPoint
 10
470.536118939588
 20
4737.085753370575
 30
0.0
  0
POINT
  5
800C
330
81A2
100
AcDbEntity
  8
DEFPOINTS
  6
ByBlock
 62
     0
100
AcDbPoint
 10
328.0787369991485
 20
4737.085753370575
 30
0.0
  0
ENDBLK
  5
800D
330
81A2
100
AcDbEntity
  8
0
100
AcDbBlockEnd
  0
BLOCK
  5
81A5
330
81A4
100
AcDbEntity
  8
0
100
AcDbBlockBegin
  2
*D16
 70
     1
 10
0.0
 20
0.0
 30
0.0
  3
*D16
  1

  0
LINE
  5
7F0D
330
81A4
100
AcDbEntity
  8
0
  6
ByBlock
100
AcDbLine
 10
775.5721472157602
 20
3953.533310535338
 30
0.0
 11
775.5721472157602
 21
4255.16536493951
 31
0.0
  0
LINE
  5
7F0E
330
81A4
100
AcDbEntity
  8
0
  6
ByBlock
100
AcDbLine
 10
1675.57214721576
 20
3953.533310535338
 30
0.0
 11
1675.57214721576
 21
4255.16536493951
 31
0.0
  0
LINE
  5
7F0F
330
81A4
100
AcDbEntity
  8
0
  6
ByBlock
100
AcDbLine
 10
825.5721472157601
 20
4230.165364939511
 30
0.0
 11
1625.57214721576
 21
4230.165364939511
 31
0.0
  0
INSERT
  5
7F10
330
81A4
100
AcDbEntity
  8
0
  6
ByBlock
100
AcDbBlockReference
  2
_OPEN
 10
775.5721472157602
 20
4230.165364939511
 30
0.0
 41
50.0
 42
50.0
 43
50.0
 50
180.0
  0
INSERT
  5
7F11
330
81A4
100
AcDbEntity
  8
0
  6
ByBlock
100
AcDbBlockReference
  2
_OPEN
 10
1675.57214721576
 20
4230.165364939511
 30
0.0
 41
50.0
 42
50.0
 43
50.0
  0
TEXT
  5
7F12
330
81A4
100
AcDbEntity
  8
3
100
AcDbText
 10
1129.143575787189
 20
4242.665364939511
 30
0.0
 40
75.0
  1
900
100
AcDbText
  0
POINT
  5
7F13
330
81A4
100
AcDbEntity
  8
DEFPOINTS
  6
ByBlock
 62
     0
100
AcDbPoint
 10
775.5721472157602
 20
3928.533310535339
 30
0.0
  0
POINT
  5
7F14
330
81A4
100
AcDbEntity
  8
DEFPOINTS
  6
ByBlock
 62
     0
100
AcDbPoint
 10
1675.57214721576
 20
3928.533310535338
 30
0.0
  0
POINT
  5
7F15
330
81A4
100
AcDbEntity
  8
DEFPOINTS
  6
ByBlock
 62
     0
100
AcDbPoint
 10
1675.57214721576
 20
4230.165364939511
 30
0.0
  0
ENDBLK
  5
7F16
330
81A4
100
AcDbEntity
  8
0
100
AcDbBlockEnd
  0
BLOCK
  5
81A7
330
81A6
100
AcDbEntity
  8
0
100
AcDbBlockBegin
  2
*D17
 70
     1
 10
0.0
 20
0.0
 30
0.0
  3
*D17
  1

  0
LINE
  5
7F18
330
81A6
100
AcDbEntity
  8
0
  6
ByBlock
100
AcDbLine
 10
75.57214721576018
 20
3468.53331053534
 30
0.0
 11
75.57214721576018
 21
4255.16536493951
 31
0.0
  0
LINE
  5
7F19
330
81A6
100
AcDbEntity
  8
0
  6
ByBlock
100
AcDbLine
 10
775.5721472157602
 20
3953.533310535338
 30
0.0
 11
775.5721472157602
 21
4255.16536493951
 31
0.0
  0
LINE
  5
7F1A
330
81A6
100
AcDbEntity
  8
0
  6
ByBlock
100
AcDbLine
 10
125.5721472157601
 20
4230.165364939511
 30
0.0
 11
725.5721472157602
 21
4230.165364939511
 31
0.0
  0
INSERT
  5
7F1B
330
81A6
100
AcDbEntity
  8
0
  6
ByBlock
100
AcDbBlockReference
  2
_OPEN
 10
75.57214721576018
 20
4230.165364939511
 30
0.0
 41
50.0
 42
50.0
 43
50.0
 50
180.0
  0
INSERT
  5
7F1C
330
81A6
100
AcDbEntity
  8
0
  6
ByBlock
100
AcDbBlockReference
  2
_OPEN
 10
775.5721472157602
 20
4230.165364939511
 30
0.0
 41
50.0
 42
50.0
 43
50.0
  0
TEXT
  5
7F1D
330
81A6
100
AcDbEntity
  8
3
100
AcDbText
 10
329.1435757871887
 20
4242.665364939511
 30
0.0
 40
75.0
  1
700
100
AcDbText
  0
POINT
  5
7F1E
330
81A6
100
AcDbEntity
  8
DEFPOINTS
  6
ByBlock
 62
     0
100
AcDbPoint
 10
75.57214721576018
 20
3443.53331053534
 30
0.0
  0
POINT
  5
7F1F
330
81A6
100
AcDbEntity
  8
DEFPOINTS
  6
ByBlock
 62
     0
100
AcDbPoint
 10
775.5721472157602
 20
3928.533310535339
 30
0.0
  0
POINT
  5
7F20
330
81A6
100
AcDbEntity
  8
DEFPOINTS
  6
ByBlock
 62
     0
100
AcDbPoint
 10
775.5721472157602
 20
4230.165364939511
 30
0.0
  0
ENDBLK
  5
7F21
330
81A6
100
AcDbEntity
  8
0
100
AcDbBlockEnd
  0
BLOCK
  5
81A9
330
81A8
100
AcDbEntity
  8
0
100
AcDbBlockBegin
  2
*D18
 70
     1
 10
0.0
 20
0.0
 30
0.0
  3
*D18
  1

  0
LINE
  5
7F23
330
81A8
100
AcDbEntity
  8
0
  6
ByBlock
100
AcDbLine
 10
1700.57214721576
 20
2773.533310535337
 30
0.0
 11
2001.969355357017
 21
2773.533310535337
 31
0.0
  0
LINE
  5
7F24
330
81A8
100
AcDbEntity
  8
0
  6
ByBlock
100
AcDbLine
 10
1700.57214721576
 20
3928.533310535338
 30
0.0
 11
2001.969355357017
 21
3928.533310535338
 31
0.0
  0
LINE
  5
7F25
330
81A8
100
AcDbEntity
  8
0
  6
ByBlock
100
AcDbLine
 10
1976.969355357018
 20
2823.533310535337
 30
0.0
 11
1976.969355357018
 21
3878.533310535337
 31
0.0
  0
INSERT
  5
7F26
330
81A8
100
AcDbEntity
  8
0
  6
ByBlock
100
AcDbBlockReference
  2
_OPEN
 10
1976.969355357018
 20
2773.533310535337
 30
0.0
 41
50.0
 42
50.0
 43
50.0
 50
270.0
  0
INSERT
  5
7F27
330
81A8
100
AcDbEntity
  8
0
  6
ByBlock
100
AcDbBlockReference
  2
_OPEN
 10
1976.969355357018
 20
3928.533310535338
 30
0.0
 41
50.0
 42
50.0
 43
50.0
 50
90.0
  0
TEXT
  5
7F28
330
81A8
100
AcDbEntity
  8
3
100
AcDbText
 10
1964.469355357017
 20
3233.176167678195
 30
0.0
 40
75.0
  1
1155
 50
90.0
100
AcDbText
  0
POINT
  5
7F29
330
81A8
100
AcDbEntity
  8
DEFPOINTS
  6
ByBlock
 62
     0
100
AcDbPoint
 10
1675.57214721576
 20
2773.533310535337
 30
0.0
  0
POINT
  5
7F2A
330
81A8
100
AcDbEntity
  8
DEFPOINTS
  6
ByBlock
 62
     0
100
AcDbPoint
 10
1675.57214721576
 20
3928.533310535338
 30
0.0
  0
POINT
  5
7F2B
330
81A8
100
AcDbEntity
  8
DEFPOINTS
  6
ByBlock
 62
     0
100
AcDbPoint
 10
1976.969355357018
 20
3928.533310535338
 30
0.0
  0
ENDBLK
  5
7F2C
330
81A8
100
AcDbEntity
  8
0
100
AcDbBlockEnd
  0
BLOCK
  5
81AB
330
81AA
100
AcDbEntity
  8
0
100
AcDbBlockBegin
  2
*D19
 70
     1
 10
0.0
 20
0.0
 30
0.0
  3
*D19
  1

  0
LINE
  5
80F3
330
81AA
100
AcDbEntity
  8
3
 62
     0
100
AcDbLine
 10
2373.460156090059
 20
1797.453614188716
 30
0.0
 11
2736.713970375375
 21
1797.453614188716
 31
0.0
  0
LINE
  5
80F4
330
81AA
100
AcDbEntity
  8
3
 62
     0
100
AcDbLine
 10
2373.460156090059
 20
1697.453614188716
 30
0.0
 11
2736.713970375375
 21
1697.453614188716
 31
0.0
  0
LINE
  5
80F5
330
81AA
100
AcDbEntity
  8
3
 62
     0
100
AcDbLine
 10
2711.713970375375
 20
1847.453614188716
 30
0.0
 11
2711.713970375375
 21
1897.453614188716
 31
0.0
  0
LINE
  5
80F6
330
81AA
100
AcDbEntity
  8
3
 62
     0
100
AcDbLine
 10
2711.713970375375
 20
1647.453614188716
 30
0.0
 11
2711.713970375375
 21
1368.882185617287
 31
0.0
  0
LINE
  5
80F7
330
81AA
100
AcDbEntity
  8
3
 62
     0
100
AcDbLine
 10
2711.713970375375
 20
1797.453614188716
 30
0.0
 11
2711.713970375375
 21
1697.453614188716
 31
0.0
  0
INSERT
  5
80F8
330
81AA
100
AcDbEntity
  8
3
 62
     0
100
AcDbBlockReference
  2
_DOT
 10
2711.713970375375
 20
1797.453614188716
 30
0.0
 41
50.0
 42
50.0
 43
50.0
 50
270.0
  0
INSERT
  5
80F9
330
81AA
100
AcDbEntity
  8
3
 62
     0
100
AcDbBlockReference
  2
_OPEN
 10
2711.713970375375
 20
1697.453614188716
 30
0.0
 41
50.0
 42
50.0
 43
50.0
 50
90.0
  0
TEXT
  5
8106
330
81AA
100
AcDbEntity
  8
3
 62
     0
100
AcDbText
 10
2499.21
 20
1350.42
 30
0.0
 40
75.0
  1
100
100
AcDbText
  0
POINT
  5
80FB
330
81AA
100
AcDbEntity
  8
DEFPOINTS
 62
     0
100
AcDbPoint
 10
2360.960156090059
 20
1797.453614188716
 30
0.0
  0
POINT
  5
80FC
330
81AA
100
AcDbEntity
  8
DEFPOINTS
 62
     0
100
AcDbPoint
 10
2360.960156090059
 20
1697.453614188716
 30
0.0
  0
POINT
  5
80FD
330
81AA
100
AcDbEntity
  8
DEFPOINTS
 62
     0
100
AcDbPoint
 10
2711.713970375375
 20
1697.453614188716
 30
0.0
  0
ENDBLK
  5
7FD7
330
81AA
100
AcDbEntity
  8
0
100
AcDbBlockEnd
  0
BLOCK
  5
81AF
330
81AC
100
AcDbEntity
  8
0
100
AcDbBlockBegin
  2
_DOT
 70
     0
 10
0.0
 20
0.0
 30
0.0
  3
_DOT
  1

  0
LWPOLYLINE
  5
7FF6
330
81AC
100
AcDbEntity
  8
0
  6
ByBlock
 62
     0
100
AcDbPolyline
 90
        2
 70
     1
 43
0.25
 10
-0.125
 20
0.0
 42
1.0
 10
0.125
 20
0.0
 42
1.0
  0
LINE
  5
7FFA
330
81AC
100
AcDbEntity
  8
0
  6
ByBlock
 62
     0
100
AcDbLine
 10
-0.25
 20
0.0
 30
0.0
 11
-1.0
 21
0.0
 31
0.0
  0
ENDBLK
  5
7FCA
330
81AC
100
AcDbEntity
  8
0
100
AcDbBlockEnd
  0
BLOCK
  5
81AE
330
81AD
100
AcDbEntity
  8
0
100
AcDbBlockBegin
  2
*D21
 70
     1
 10
0.0
 20
0.0
 30
0.0
  3
*D21
  1

  0
LINE
  5
7F53
330
81AD
100
AcDbEntity
  8
0
  6
ByBlock
100
AcDbLine
 10
1725.57214721576
 20
1334.593478221398
 30
0.0
 11
1725.57214721576
 21
1654.359497277424
 31
0.0
  0
LINE
  5
7F54
330
81AD
100
AcDbEntity
  8
0
  6
ByBlock
100
AcDbLine
 10
75.57214721576018
 20
88.59347822139898
 30
0.0
 11
75.57214721576018
 21
1654.359497277424
 31
0.0
  0
LINE
  5
7F55
330
81AD
100
AcDbEntity
  8
0
  6
ByBlock
100
AcDbLine
 10
1675.57214721576
 20
1629.359497277424
 30
0.0
 11
125.5721472157601
 21
1629.359497277424
 31
0.0
  0
INSERT
  5
7F56
330
81AD
100
AcDbEntity
  8
0
  6
ByBlock
100
AcDbBlockReference
  2
_OPEN
 10
1725.57214721576
 20
1629.359497277424
 30
0.0
 41
50.0
 42
50.0
 43
50.0
  0
INSERT
  5
7F57
330
81AD
100
AcDbEntity
  8
0
  6
ByBlock
100
AcDbBlockReference
  2
_OPEN
 10
75.57214721576018
 20
1629.359497277424
 30
0.0
 41
50.0
 42
50.0
 43
50.0
 50
180.0
  0
TEXT
  5
7F58
330
81AD
100
AcDbEntity
  8
3
100
AcDbText
 10
775.5721472157602
 20
1641.859497277424
 30
0.0
 40
75.0
  1
1650
100
AcDbText
  0
POINT
  5
7F59
330
81AD
100
AcDbEntity
  8
DEFPOINTS
  6
ByBlock
 62
     0
100
AcDbPoint
 10
1725.57214721576
 20
1309.593478221398
 30
0.0
  0
POINT
  5
7F5A
330
81AD
100
AcDbEntity
  8
DEFPOINTS
  6
ByBlock
 62
     0
100
AcDbPoint
 10
75.57214721576018
 20
63.59347822139898
 30
0.0
  0
POINT
  5
7F5B
330
81AD
100
AcDbEntity
  8
DEFPOINTS
  6
ByBlock
 62
     0
100
AcDbPoint
 10
75.57214721576018
 20
1629.359497277424
 30
0.0
  0
ENDBLK
  5
7F5C
330
81AD
100
AcDbEntity
  8
0
100
AcDbBlockEnd
  0
BLOCK
  5
81B1
330
81B0
100
AcDbEntity
  8
0
100
AcDbBlockBegin
  2
*D22
 70
     1
 10
0.0
 20
0.0
 30
0.0
  3
*D22
  1

  0
LINE
  5
8048
330
81B0
100
AcDbEntity
  8
0
  6
ByBlock
 62
     0
100
AcDbLine
 10
760.960156090059
 20
1672.453614188716
 30
0.0
 11
760.960156090059
 21
1486.998059792202
 31
0.0
  0
LINE
  5
8049
330
81B0
100
AcDbEntity
  8
0
  6
ByBlock
 62
     0
100
AcDbLine
 10
1910.960156090059
 20
1672.453614188716
 30
0.0
 11
1910.960156090059
 21
1486.998059792202
 31
0.0
  0
LINE
  5
804A
330
81B0
100
AcDbEntity
  8
0
  6
ByBlock
 62
     0
100
AcDbLine
 10
810.9601560900591
 20
1511.998059792202
 30
0.0
 11
1860.960156090059
 21
1511.998059792202
 31
0.0
  0
INSERT
  5
804B
330
81B0
100
AcDbEntity
  8
0
  6
ByBlock
 62
     0
100
AcDbBlockReference
  2
_OPEN
 10
760.960156090059
 20
1511.998059792202
 30
0.0
 41
50.0
 42
50.0
 43
50.0
 50
180.0
  0
INSERT
  5
804C
330
81B0
100
AcDbEntity
  8
0
  6
ByBlock
 62
     0
100
AcDbBlockReference
  2
_OPEN
 10
1910.960156090059
 20
1511.998059792202
 30
0.0
 41
50.0
 42
50.0
 43
50.0
  0
TEXT
  5
804D
330
81B0
100
AcDbEntity
  8
3
 62
     0
100
AcDbText
 10
1218.103013232916
 20
1536.998059792202
 30
0.0
 40
75.0
  1
1150
100
AcDbText
  0
POINT
  5
804E
330
81B0
100
AcDbEntity
  8
DEFPOINTS
  6
ByBlock
 62
     0
100
AcDbPoint
 10
760.960156090059
 20
1697.453614188716
 30
0.0
  0
POINT
  5
804F
330
81B0
100
AcDbEntity
  8
DEFPOINTS
  6
ByBlock
 62
     0
100
AcDbPoint
 10
1910.960156090059
 20
1697.453614188716
 30
0.0
  0
POINT
  5
8050
330
81B0
100
AcDbEntity
  8
DEFPOINTS
  6
ByBlock
 62
     0
100
AcDbPoint
 10
1910.960156090059
 20
1511.998059792202
 30
0.0
  0
ENDBLK
  5
8051
330
81B0
100
AcDbEntity
  8
0
100
AcDbBlockEnd
  0
BLOCK
  5
81B3
330
81B2
100
AcDbEntity
  8
0
100
AcDbBlockBegin
  2
*D23
 70
     1
 10
0.0
 20
0.0
 30
0.0
  3
*D23
  1

  0
LINE
  5
8055
330
81B2
100
AcDbEntity
  8
0
  6
ByBlock
 62
     0
100
AcDbLine
 10
1910.960156090059
 20
1672.453614188716
 30
0.0
 11
1910.960156090059
 21
1486.998059792202
 31
0.0
  0
LINE
  5
8056
330
81B2
100
AcDbEntity
  8
0
  6
ByBlock
 62
     0
100
AcDbLine
 10
2360.960156090059
 20
1672.453614188716
 30
0.0
 11
2360.960156090059
 21
1486.998059792202
 31
0.0
  0
LINE
  5
8057
330
81B2
100
AcDbEntity
  8
0
  6
ByBlock
 62
     0
100
AcDbLine
 10
1960.960156090059
 20
1511.998059792202
 30
0.0
 11
2310.960156090059
 21
1511.998059792202
 31
0.0
  0
INSERT
  5
8058
330
81B2
100
AcDbEntity
  8
0
  6
ByBlock
 62
     0
100
AcDbBlockReference
  2
_OPEN
 10
1910.960156090059
 20
1511.998059792202
 30
0.0
 41
50.0
 42
50.0
 43
50.0
 50
180.0
  0
INSERT
  5
8059
330
81B2
100
AcDbEntity
  8
0
  6
ByBlock
 62
     0
100
AcDbBlockReference
  2
_OPEN
 10
2360.960156090059
 20
1511.998059792202
 30
0.0
 41
50.0
 42
50.0
 43
50.0
  0
TEXT
  5
805A
330
81B2
100
AcDbEntity
  8
3
 62
     0
100
AcDbText
 10
2039.531584661487
 20
1536.998059792202
 30
0.0
 40
75.0
  1
450
100
AcDbText
  0
POINT
  5
805B
330
81B2
100
AcDbEntity
  8
DEFPOINTS
  6
ByBlock
 62
     0
100
AcDbPoint
 10
1910.960156090059
 20
1697.453614188716
 30
0.0
  0
POINT
  5
805C
330
81B2
100
AcDbEntity
  8
DEFPOINTS
  6
ByBlock
 62
     0
100
AcDbPoint
 10
2360.960156090059
 20
1697.453614188716
 30
0.0
  0
POINT
  5
805D
330
81B2
100
AcDbEntity
  8
DEFPOINTS
  6
ByBlock
 62
     0
100
AcDbPoint
 10
2360.960156090059
 20
1511.998059792202
 30
0.0
  0
ENDBLK
  5
805E
330
81B2
100
AcDbEntity
  8
0
100
AcDbBlockEnd
  0
BLOCK
  5
81B5
330
81B4
100
AcDbEntity
  8
0
100
AcDbBlockBegin
  2
*D24
 70
     1
 10
0.0
 20
0.0
 30
0.0
  3
*D24
  1

  0
LINE
  5
8062
330
81B4
100
AcDbEntity
  8
0
  6
ByBlock
 62
     0
100
AcDbLine
 10
3336.415278056256
 20
1672.453614188716
 30
0.0
 11
3336.415278056256
 21
1486.998059792202
 31
0.0
  0
LINE
  5
8063
330
81B4
100
AcDbEntity
  8
0
  6
ByBlock
 62
     0
100
AcDbLine
 10
3988.415278056257
 20
1672.453614188716
 30
0.0
 11
3988.415278056257
 21
1486.998059792202
 31
0.0
  0
LINE
  5
8064
330
81B4
100
AcDbEntity
  8
0
  6
ByBlock
 62
     0
100
AcDbLine
 10
3386.415278056257
 20
1511.998059792202
 30
0.0
 11
3938.415278056257
 21
1511.998059792202
 31
0.0
  0
INSERT
  5
8065
330
81B4
100
AcDbEntity
  8
0
  6
ByBlock
 62
     0
100
AcDbBlockReference
  2
_OPEN
 10
3336.415278056256
 20
1511.998059792202
 30
0.0
 41
50.0
 42
50.0
 43
50.0
 50
180.0
  0
INSERT
  5
8066
330
81B4
100
AcDbEntity
  8
0
  6
ByBlock
 62
     0
100
AcDbBlockReference
  2
_OPEN
 10
3988.415278056257
 20
1511.998059792202
 30
0.0
 41
50.0
 42
50.0
 43
50.0
  0
TEXT
  5
8067
330
81B4
100
AcDbEntity
  8
3
 62
     0
100
AcDbText
 10
3565.986706627684
 20
1536.998059792202
 30
0.0
 40
75.0
  1
652
100
AcDbText
  0
POINT
  5
8068
330
81B4
100
AcDbEntity
  8
DEFPOINTS
  6
ByBlock
 62
     0
100
AcDbPoint
 10
3336.415278056256
 20
1697.453614188716
 30
0.0
  0
POINT
  5
8069
330
81B4
100
AcDbEntity
  8
DEFPOINTS
  6
ByBlock
 62
     0
100
AcDbPoint
 10
3988.415278056257
 20
1697.453614188716
 30
0.0
  0
POINT
  5
806A
330
81B4
100
AcDbEntity
  8
DEFPOINTS
  6
ByBlock
 62
     0
100
AcDbPoint
 10
3988.415278056257
 20
1511.998059792202
 30
0.0
  0
ENDBLK
  5
806B
330
81B4
100
AcDbEntity
  8
0
100
AcDbBlockEnd
  0
BLOCK
  5
81B7
330
81B6
100
AcDbEntity
  8
0
100
AcDbBlockBegin
  2
*D25
 70
     1
 10
0.0
 20
0.0
 30
0.0
  3
*D25
  1

  0
LINE
  5
806F
330
81B6
100
AcDbEntity
  8
0
  6
ByBlock
 62
     0
100
AcDbLine
 10
3988.415278056257
 20
1672.453614188716
 30
0.0
 11
3988.415278056257
 21
1486.998059792202
 31
0.0
  0
LINE
  5
8070
330
81B6
100
AcDbEntity
  8
0
  6
ByBlock
 62
     0
100
AcDbLine
 10
4491.415278056257
 20
1672.453614188716
 30
0.0
 11
4491.415278056257
 21
1486.998059792202
 31
0.0
  0
LINE
  5
8071
330
81B6
100
AcDbEntity
  8
0
  6
ByBlock
 62
     0
100
AcDbLine
 10
4038.415278056256
 20
1511.998059792202
 30
0.0
 11
4441.415278056257
 21
1511.998059792202
 31
0.0
  0
INSERT
  5
8072
330
81B6
100
AcDbEntity
  8
0
  6
ByBlock
 62
     0
100
AcDbBlockReference
  2
_OPEN
 10
3988.415278056257
 20
1511.998059792202
 30
0.0
 41
50.0
 42
50.0
 43
50.0
 50
180.0
  0
INSERT
  5
8073
330
81B6
100
AcDbEntity
  8
0
  6
ByBlock
 62
     0
100
AcDbBlockReference
  2
_OPEN
 10
4491.415278056257
 20
1511.998059792202
 30
0.0
 41
50.0
 42
50.0
 43
50.0
  0
TEXT
  5
8074
330
81B6
100
AcDbEntity
  8
3
 62
     0
100
AcDbText
 10
4143.486706627685
 20
1536.998059792202
 30
0.0
 40
75.0
  1
503
100
AcDbText
  0
POINT
  5
8075
330
81B6
100
AcDbEntity
  8
DEFPOINTS
  6
ByBlock
 62
     0
100
AcDbPoint
 10
3988.415278056257
 20
1697.453614188716
 30
0.0
  0
POINT
  5
8076
330
81B6
100
AcDbEntity
  8
DEFPOINTS
  6
ByBlock
 62
     0
100
AcDbPoint
 10
4491.415278056257
 20
1697.453614188716
 30
0.0
  0
POINT
  5
8077
330
81B6
100
AcDbEntity
  8
DEFPOINTS
  6
ByBlock
 62
     0
100
AcDbPoint
 10
4491.415278056257
 20
1511.998059792202
 30
0.0
  0
ENDBLK
  5
8078
330
81B6
100
AcDbEntity
  8
0
100
AcDbBlockEnd
  0
BLOCK
  5
81B9
330
81B8
100
AcDbEntity
  8
0
100
AcDbBlockBegin
  2
_NONE
 70
     0
 10
0.0
 20
0.0
 30
0.0
  3
_NONE
  1

  0
CIRCLE
  5
807C
330
81B8
100
AcDbEntity
  8
0
  6
ByBlock
 62
     0
100
AcDbCircle
 10
0.0
 20
0.0
 30
0.0
 40
0.25
  0
ENDBLK
  5
807D
330
81B8
100
AcDbEntity
  8
0
100
AcDbBlockEnd
  0
BLOCK
  5
81BB
330
81BA
100
AcDbEntity
  8
0
100
AcDbBlockBegin
  2
*D27
 70
     1
 10
0.0
 20
0.0
 30
0.0
  3
*D27
  1

  0
LINE
  5
8080
330
81BA
100
AcDbEntity
  8
0
  6
ByBlock
 62
     0
100
AcDbLine
 10
2711.773086679615
 20
1797.453614188716
 30
0.0
 11
2711.773086679615
 21
1797.453614188716
 31
0.0
  0
LINE
  5
8081
330
81BA
100
AcDbEntity
  8
0
  6
ByBlock
 62
     0
100
AcDbLine
 10
2711.773086679615
 20
1824.453614188716
 30
0.0
 11
2711.773086679615
 21
1924.453614188716
 31
0.0
  0
TEXT
  5
8082
330
81BA
100
AcDbEntity
  8
3
 62
     0
100
AcDbText
 10
2856.415943822472
 20
1702.025042760145
 30
0.0
 40
75.0
  1
(27)
 50
90.0
100
AcDbText
  0
LINE
  5
8083
330
81BA
100
AcDbEntity
  8
0
  6
ByBlock
 62
     0
100
AcDbLine
 10
2711.773086679615
 20
1797.453614188716
 30
0.0
 11
2711.773086679615
 21
1824.453614188716
 31
0.0
  0
POINT
  5
8084
330
81BA
100
AcDbEntity
  8
DEFPOINTS
  6
ByBlock
 62
     0
100
AcDbPoint
 10
2360.960156090059
 20
1797.453614188716
 30
0.0
  0
POINT
  5
8085
330
81BA
100
AcDbEntity
  8
DEFPOINTS
  6
ByBlock
 62
     0
100
AcDbPoint
 10
2360.960156090059
 20
1824.453614188716
 30
0.0
  0
POINT
  5
8086
330
81BA
100
AcDbEntity
  8
DEFPOINTS
  6
ByBlock
 62
     0
100
AcDbPoint
 10
2711.773086679615
 20
1824.453614188716
 30
0.0
  0
ENDBLK
  5
8087
330
81BA
100
AcDbEntity
  8
0
100
AcDbBlockEnd
  0
BLOCK
  5
81BD
330
81BC
100
AcDbEntity
  8
0
100
AcDbBlockBegin
  2
*D28
 70
     1
 10
0.0
 20
0.0
 30
0.0
  3
*D28
  1

  0
LINE
  5
808B
330
81BC
100
AcDbEntity
  8
0
  6
ByBlock
 62
     0
100
AcDbLine
 10
2385.960156090058
 20
1697.453614188716
 30
0.0
 11
2942.01219362297
 21
1697.453614188716
 31
0.0
  0
LINE
  5
808C
330
81BC
100
AcDbEntity
  8
0
  6
ByBlock
 62
     0
100
AcDbLine
 10
2435.960156090059
 20
3128.453614188716
 30
0.0
 11
2942.01219362297
 21
3128.453614188716
 31
0.0
  0
LINE
  5
808D
330
81BC
100
AcDbEntity
  8
0
  6
ByBlock
 62
     0
100
AcDbLine
 10
2917.012193622969
 20
1747.453614188716
 30
0.0
 11
2917.012193622969
 21
3078.453614188715
 31
0.0
  0
INSERT
  5
808E
330
81BC
100
AcDbEntity
  8
0
  6
ByBlock
 62
     0
100
AcDbBlockReference
  2
_OPEN
 10
2917.012193622969
 20
1697.453614188716
 30
0.0
 41
50.0
 42
50.0
 43
50.0
 50
270.0
  0
INSERT
  5
808F
330
81BC
100
AcDbEntity
  8
0
  6
ByBlock
 62
     0
100
AcDbBlockReference
  2
_OPEN
 10
2917.012193622969
 20
3128.453614188716
 30
0.0
 41
50.0
 42
50.0
 43
50.0
 50
90.0
  0
TEXT
  5
8090
330
81BC
100
AcDbEntity
  8
3
 62
     0
100
AcDbText
 10
2859.869336480113
 20
2246.882185617288
 30
0.0
 40
75.0
  1
(1431)
 50
90.0
100
AcDbText
  0
POINT
  5
8091
330
81BC
100
AcDbEntity
  8
DEFPOINTS
  6
ByBlock
 62
     0
100
AcDbPoint
 10
2360.960156090059
 20
1697.453614188716
 30
0.0
  0
POINT
  5
8092
330
81BC
100
AcDbEntity
  8
DEFPOINTS
  6
ByBlock
 62
     0
100
AcDbPoint
 10
2410.960156090059
 20
3128.453614188716
 30
0.0
  0
POINT
  5
8093
330
81BC
100
AcDbEntity
  8
DEFPOINTS
  6
ByBlock
 62
     0
100
AcDbPoint
 10
2917.012193622969
 20
3128.453614188716
 30
0.0
  0
ENDBLK
  5
8094
330
81BC
100
AcDbEntity
  8
0
100
AcDbBlockEnd
  0
BLOCK
  5
8247
330
8246
100
AcDbEntity
  8
0
100
AcDbBlockBegin
  2
*D30
 70
     1
 10
0.0
 20
0.0
 30
0.0
  3
*D30
  1

  0
LINE
  5
8298
330
8246
100
AcDbEntity
  8
3
 62
     0
370
    -2
100
AcDbLine
 10
3148.415278056259
 20
2674.453614188717
 30
0.0
 11
3148.415278056259
 21
3513.823319040097
 31
0.0
  0
LINE
  5
8299
330
8246
100
AcDbEntity
  8
3
 62
     0
370
    -2
100
AcDbLine
 10
3988.415278056257
 20
3432.767176982922
 30
0.0
 11
3988.415278056257
 21
3513.823319040097
 31
0.0
  0
LINE
  5
829A
330
8246
100
AcDbEntity
  8
3
 62
     0
370
    -2
100
AcDbLine
 10
3198.41527805626
 20
3488.823319040097
 30
0.0
 11
3938.415278056257
 21
3488.823319040097
 31
0.0
  0
INSERT
  5
829B
330
8246
100
AcDbEntity
  8
3
 62
     0
370
    -2
100
AcDbBlockReference
  2
_OPEN
 10
3148.415278056259
 20
3488.823319040097
 30
0.0
 41
50.0
 42
50.0
 43
50.0
 50
180.0
  0
INSERT
  5
829C
330
8246
100
AcDbEntity
  8
3
 62
     0
370
    -2
100
AcDbBlockReference
  2
_OPEN
 10
3988.415278056257
 20
3488.823319040097
 30
0.0
 41
50.0
 42
50.0
 43
50.0
  0
MTEXT
  5
829D
330
8246
100
AcDbEntity
  8
3
 62
     0
100
AcDbMText
 10
3568.415278056259
 20
3570.966176182955
 30
0.0
 40
75.0
 41
0.0
 71
     5
 72
     1
  1
\A1;(840)
 73
     1
 44
1.0
1001
ACAD
1000
MTEXTBEGIN
1070
    73
1070
     1
1070
    44
1040
1.0
1070
    74
1070
     0
1000
MTEXTEND
  0
POINT
  5
829E
330
8246
100
AcDbEntity
  8
DEFPOINTS
 62
     0
100
AcDbPoint
 10
3148.415278056259
 20
2649.453614188717
 30
0.0
  0
POINT
  5
829F
330
8246
100
AcDbEntity
  8
DEFPOINTS
 62
     0
100
AcDbPoint
 10
3988.415278056257
 20
3407.767176982922
 30
0.0
  0
POINT
  5
82A0
330
8246
100
AcDbEntity
  8
DEFPOINTS
 62
     0
100
AcDbPoint
 10
3988.415278056257
 20
3488.823319040097
 30
0.0
  0
ENDBLK
  5
8248
330
8246
100
AcDbEntity
  8
0
100
AcDbBlockEnd
  0
BLOCK
  5
8254
330
8253
100
AcDbEntity
  8
0
100
AcDbBlockBegin
  2
*D31
 70
     1
 10
0.0
 20
0.0
 30
0.0
  3
*D31
  1

  0
LINE
  5
82A1
330
8253
100
AcDbEntity
  8
3
 62
     0
370
    -2
100
AcDbLine
 10
3988.415278056257
 20
3432.767176982922
 30
0.0
 11
3988.415278056257
 21
3513.823319040097
 31
0.0
  0
LINE
  5
82A2
330
8253
100
AcDbEntity
  8
3
 62
     0
370
    -2
100
AcDbLine
 10
4548.415278056256
 20
2369.253614188716
 30
0.0
 11
4548.415278056256
 21
3513.823319040097
 31
0.0
  0
LINE
  5
82A3
330
8253
100
AcDbEntity
  8
3
 62
     0
370
    -2
100
AcDbLine
 10
4038.415278056256
 20
3488.823319040097
 30
0.0
 11
4498.415278056255
 21
3488.823319040097
 31
0.0
  0
INSERT
  5
82A4
330
8253
100
AcDbEntity
  8
3
 62
     0
370
    -2
100
AcDbBlockReference
  2
_OPEN
 10
3988.415278056257
 20
3488.823319040097
 30
0.0
 41
50.0
 42
50.0
 43
50.0
 50
180.0
  0
INSERT
  5
82A5
330
8253
100
AcDbEntity
  8
3
 62
     0
370
    -2
100
AcDbBlockReference
  2
_OPEN
 10
4548.415278056256
 20
3488.823319040097
 30
0.0
 41
50.0
 42
50.0
 43
50.0
  0
MTEXT
  5
82A6
330
8253
100
AcDbEntity
  8
3
 62
     0
100
AcDbMText
 10
4268.415278056256
 20
3570.966176182955
 30
0.0
 40
75.0
 41
0.0
 71
     5
 72
     1
  1
\A1;(560)
 73
     1
 44
1.0
1001
ACAD
1000
MTEXTBEGIN
1070
    73
1070
     1
1070
    44
1040
1.0
1070
    74
1070
     0
1000
MTEXTEND
  0
POINT
  5
82A7
330
8253
100
AcDbEntity
  8
DEFPOINTS
 62
     0
100
AcDbPoint
 10
3988.415278056257
 20
3407.767176982922
 30
0.0
  0
POINT
  5
82A8
330
8253
100
AcDbEntity
  8
DEFPOINTS
 62
     0
100
AcDbPoint
 10
4548.415278056256
 20
2344.253614188716
 30
0.0
  0
POINT
  5
82A9
330
8253
100
AcDbEntity
  8
DEFPOINTS
 62
     0
100
AcDbPoint
 10
4548.415278056256
 20
3488.823319040097
 30
0.0
  0
ENDBLK
  5
8255
330
8253
100
AcDbEntity
  8
0
100
AcDbBlockEnd
  0
BLOCK
  5
82AC
330
82AB
100
AcDbEntity
  8
0
100
AcDbBlockBegin
  2
*D32
 70
     1
 10
0.0
 20
0.0
 30
0.0
  3
*D32
  1

  0
LINE
  5
82AE
330
82AB
100
AcDbEntity
  8
3
 62
     0
370
    -2
100
AcDbLine
 10
760.960156090059
 20
4042.085753370572
 30
0.0
 11
760.960156090059
 21
3690.762234019807
 31
0.0
  0
LINE
  5
82AF
330
82AB
100
AcDbEntity
  8
3
 62
     0
370
    -2
100
AcDbLine
 10
2360.960156090059
 20
4042.085753370572
 30
0.0
 11
2360.960156090059
 21
3690.762234019807
 31
0.0
  0
LINE
  5
82B0
330
82AB
100
AcDbEntity
  8
3
 62
     0
370
    -2
100
AcDbLine
 10
810.9601560900591
 20
3715.762234019807
 30
0.0
 11
2310.960156090059
 21
3715.762234019807
 31
0.0
  0
INSERT
  5
82B1
330
82AB
100
AcDbEntity
  8
3
 62
     0
370
    -2
100
AcDbBlockReference
  2
_OPEN
 10
760.960156090059
 20
3715.762234019807
 30
0.0
 41
50.0
 42
50.0
 43
50.0
 50
180.0
  0
INSERT
  5
82B2
330
82AB
100
AcDbEntity
  8
3
 62
     0
370
    -2
100
AcDbBlockReference
  2
_OPEN
 10
2360.960156090059
 20
3715.762234019807
 30
0.0
 41
50.0
 42
50.0
 43
50.0
  0
MTEXT
  5
82B3
330
82AB
100
AcDbEntity
  8
3
 62
     0
100
AcDbMText
 10
1560.960156090059
 20
3778.262234019807
 30
0.0
 40
75.0
 41
0.0
 71
     5
 72
     1
  1
\A1;1600
 73
     1
 44
1.0
1001
ACAD
1000
MTEXTBEGIN
1070
    73
1070
     1
1070
    44
1040
1.0
1070
    74
1070
     0
1000
MTEXTEND
  0
POINT
  5
82B4
330
82AB
100
AcDbEntity
  8
DEFPOINTS
 62
     0
100
AcDbPoint
 10
760.960156090059
 20
4067.085753370572
 30
0.0
  0
POINT
  5
82B5
330
82AB
100
AcDbEntity
  8
DEFPOINTS
 62
     0
100
AcDbPoint
 10
2360.960156090059
 20
4067.085753370572
 30
0.0
  0
POINT
  5
82B6
330
82AB
100
AcDbEntity
  8
DEFPOINTS
 62
     0
100
AcDbPoint
 10
2360.960156090059
 20
3715.762234019807
 30
0.0
  0
ENDBLK
  5
82AD
330
82AB
100
AcDbEntity
  8
0
100
AcDbBlockEnd
  0
BLOCK
  5
82CB
330
82CA
100
AcDbEntity
  8
0
100
AcDbBlockBegin
  2
*D33
 70
     1
 10
0.0
 20
0.0
 30
0.0
  3
*D33
  1

  0
LINE
  5
82D6
330
82CA
100
AcDbEntity
  8
3
 62
     0
370
    -2
100
AcDbLine
 10
1910.960156090059
 20
3224.504898645857
 30
0.0
 11
1910.960156090059
 21
3346.434146369747
 31
0.0
  0
LINE
  5
82D7
330
82CA
100
AcDbEntity
  8
3
 62
     0
370
    -2
100
AcDbLine
 10
1315.960156090061
 20
2447.453614188716
 30
0.0
 11
1315.960156090061
 21
3346.434146369747
 31
0.0
  0
LINE
  5
82D8
330
82CA
100
AcDbEntity
  8
3
 62
     0
370
    -2
100
AcDbLine
 10
1860.960156090059
 20
3321.434146369747
 30
0.0
 11
1365.960156090061
 21
3321.434146369747
 31
0.0
  0
INSERT
  5
82D9
330
82CA
100
AcDbEntity
  8
3
 62
     0
370
    -2
100
AcDbBlockReference
  2
_OPEN
 10
1910.960156090059
 20
3321.434146369747
 30
0.0
 41
50.0
 42
50.0
 43
50.0
  0
INSERT
  5
82DA
330
82CA
100
AcDbEntity
  8
3
 62
     0
370
    -2
100
AcDbBlockReference
  2
_OPEN
 10
1315.960156090061
 20
3321.434146369747
 30
0.0
 41
50.0
 42
50.0
 43
50.0
 50
180.0
  0
MTEXT
  5
82DB
330
82CA
100
AcDbEntity
  8
3
 62
     0
100
AcDbMText
 10
1613.46015609006
 20
3383.934146369747
 30
0.0
 40
75.0
 41
0.0
 71
     5
 72
     1
  1
\A1;595
 73
     1
 44
1.0
1001
ACAD
1000
MTEXTBEGIN
1070
    73
1070
     1
1070
    44
1040
1.0
1070
    74
1070
     0
1000
MTEXTEND
  0
POINT
  5
82DC
330
82CA
100
AcDbEntity
  8
DEFPOINTS
 62
     0
100
AcDbPoint
 10
1910.960156090059
 20
3199.504898645857
 30
0.0
  0
POINT
  5
82DD
330
82CA
100
AcDbEntity
  8
DEFPOINTS
 62
     0
100
AcDbPoint
 10
1315.960156090061
 20
2422.453614188716
 30
0.0
  0
POINT
  5
82DE
330
82CA
100
AcDbEntity
  8
DEFPOINTS
 62
     0
100
AcDbPoint
 10
1315.960156090061
 20
3321.434146369747
 30
0.0
  0
ENDBLK
  5
82CC
330
82CA
100
AcDbEntity
  8
0
100
AcDbBlockEnd
  0
ENDSEC
  0
SECTION
  2
ENTITIES
  0
INSERT
  5
7C37
330
8175
100
AcDbEntity
  8
0
100
AcDbBlockReference
  2
YA_N
 10
6.0
 20
5.0
 30
0.0
  0
LINE
  5
7C43
330
8175
100
AcDbEntity
  8
2
100
AcDbLine
 10
1910.960156090059
 20
1697.453614188716
 30
0.0
 11
1910.960156090059
 21
3199.504898645857
 31
0.0
  0
LINE
  5
7C44
330
8175
100
AcDbEntity
  8
2
100
AcDbLine
 10
2533.225994895488
 20
2369.453614188716
 30
0.0
 11
1235.933678587454
 21
2369.453614188716
 31
0.0
  0
LINE
  5
7C45
330
8175
100
AcDbEntity
  8
1
100
AcDbLine
 10
1213.960156090059
 20
1964.453614188716
 30
0.0
 11
807.9601560900595
 21
1964.453614188716
 31
0.0
  0
LINE
  5
7C46
330
8175
100
AcDbEntity
  8
1
100
AcDbLine
 10
1210.960156090059
 20
1924.453614188716
 30
0.0
 11
1210.960156090059
 21
1964.453614188716
 31
0.0
  0
LINE
  5
7C47
330
8175
100
AcDbEntity
  8
1
100
AcDbLine
 10
2360.960156090059
 20
1697.453614188716
 30
0.0
 11
760.960156090059
 21
1697.453614188716
 31
0.0
  0
LINE
  5
7C48
330
8175
100
AcDbEntity
  8
1
100
AcDbLine
 10
2360.960156090059
 20
1797.453614188716
 30
0.0
 11
2360.960156090059
 21
1697.453614188716
 31
0.0
  0
LINE
  5
7C49
330
8175
100
AcDbEntity
  8
1
100
AcDbLine
 10
760.960156090059
 20
1797.453614188716
 30
0.0
 11
760.960156090059
 21
1697.453614188716
 31
0.0
  0
LINE
  5
7C4A
330
8175
100
AcDbEntity
  8
1
100
AcDbLine
 10
2360.960156090059
 20
1797.453614188716
 30
0.0
 11
760.960156090059
 21
1797.453614188716
 31
0.0
1001
ACAD
1000
ASC_BOUNDS
1002
{
1070
    19
1005
0
1002
}
  0
LINE
  5
7C4B
330
8175
100
AcDbEntity
  8
2
100
AcDbLine
 10
3988.415278056257
 20
1697.453614188716
 30
0.0
 11
3988.415278056257
 21
3304.820320844111
 31
0.0
  0
LINE
  5
7C4C
330
8175
100
AcDbEntity
  8
2
100
AcDbLine
 10
3136.004824693453
 20
2369.453614188716
 30
0.0
 11
4574.69763645157
 21
2369.453614188716
 31
0.0
  0
LINE
  5
7C4D
330
8175
100
AcDbEntity
  8
1
100
AcDbLine
 10
3336.415278056256
 20
1697.453614188716
 30
0.0
 11
4466.415278056256
 21
1697.453614188716
 31
0.0
  0
LINE
  5
7C4E
330
8175
100
AcDbEntity
  8
1
100
AcDbLine
 10
3336.415278056256
 20
1797.453614188716
 30
0.0
 11
4491.415278056257
 21
1797.453614188716
 31
0.0
1001
ACAD
1000
ASC_BOUNDS
1002
{
1070
    19
1002
}
  0
LINE
  5
7C4F
330
8175
100
AcDbEntity
  8
2
100
AcDbLine
 10
1910.960156090059
 20
5303.975756985092
 30
0.0
 11
1910.960156090059
 21
3848.194553120605
 31
0.0
  0
LINE
  5
7C50
330
8175
100
AcDbEntity
  8
2
100
AcDbLine
 10
1010.960156090058
 20
4689.996685369808
 30
0.0
 11
1010.96015609006
 21
3848.194553120605
 31
0.0
  0
LINE
  5
7C51
330
8175
100
AcDbEntity
  8
2
100
AcDbLine
 10
2508.158353118139
 20
4719.085753370571
 30
0.0
 11
726.8468100398385
 21
4719.085753370573
 31
0.0
  0
LINE
  5
7C52
330
8175
100
AcDbEntity
  8
2
100
AcDbLine
 10
3136.302777474073
 20
2174.453614188716
 30
0.0
 11
3685.25658739201
 21
2174.453614188716
 31
0.0
  0
LINE
  5
7C53
330
8175
100
AcDbEntity
  8
1
100
AcDbLine
 10
4438.415278056257
 20
1924.453614188716
 30
0.0
 11
4438.415278056257
 21
2369.453614188716
 31
0.0
  0
POINT
  5
7C54
330
8175
100
AcDbEntity
  8
1
100
AcDbPoint
 10
2360.960156090059
 20
1697.453614188716
 30
0.0
  0
INSERT
  5
7C56
330
8175
100
AcDbEntity
  8
0
100
AcDbBlockReference
  2
YA_N
 10
-1092.024831295133
 20
-1095.319682135705
 30
0.0
 41
20.0
 42
20.0
 43
20.0
  0
LINE
  5
7C58
330
8175
100
AcDbEntity
  8
1
100
AcDbLine
 10
856.960156090059
 20
2030.453614188716
 30
0.0
 11
876.3926560900591
 21
2083.843614188717
 31
0.0
  0
LINE
  5
7C59
330
8175
100
AcDbEntity
  8
1
100
AcDbLine
 10
1164.960156090058
 20
2030.453614188716
 30
0.0
 11
1145.527556090059
 21
2083.843614188717
 31
0.0
  0
ARC
  5
7C5A
330
8175
100
AcDbEntity
  8
1
100
AcDbCircle
 10
1010.960156090058
 20
2174.453614188716
 30
0.0
 40
162.0
100
AcDbArc
 50
180.0
 51
254.3518999999999
  0
ARC
  5
7C5B
330
8175
100
AcDbEntity
  8
1
100
AcDbCircle
 10
1010.960156090058
 20
2174.453614188716
 30
0.0
 40
162.0
100
AcDbArc
 50
285.4573
 51
180.0
  0
LINE
  5
7C5C
330
8175
100
AcDbEntity
  8
2
100
AcDbLine
 10
1010.960156090058
 20
2423.689614188716
 30
0.0
 11
1010.960156090058
 21
1697.453614188716
 31
0.0
  0
LINE
  5
7C5D
330
8175
100
AcDbEntity
  8
1
100
AcDbLine
 10
1054.640756090059
 20
2018.453614188716
 30
0.0
 11
967.2794560900591
 21
2018.453614188716
 31
0.0
  0
LINE
  5
7C5E
330
8175
100
AcDbEntity
  8
1
100
AcDbLine
 10
1095.904056090059
 20
2036.509614188716
 30
0.0
 11
1104.081456090058
 21
2028.331614188716
 31
0.0
  0
LINE
  5
7C5F
330
8175
100
AcDbEntity
  8
1
100
AcDbLine
 10
1118.173356090059
 20
2032.453614188716
 30
0.0
 11
1162.960156090059
 21
2032.453614188716
 31
0.0
  0
ARC
  5
7C61
330
8175
100
AcDbEntity
  8
1
100
AcDbCircle
 10
1162.960156090059
 20
2030.453614188716
 30
0.0
 40
2.0
100
AcDbArc
 50
0.0
 51
90.0
  0
LINE
  5
7C63
330
8175
100
AcDbEntity
  8
1
100
AcDbLine
 10
1164.960156090058
 20
2014.453614188716
 30
0.0
 11
1164.960156090058
 21
2030.453614188716
 31
0.0
  0
ARC
  5
7C65
330
8175
100
AcDbEntity
  8
1
100
AcDbCircle
 10
1101.960156090059
 20
2026.210614188716
 30
0.0
 40
3.0
100
AcDbArc
 50
0.0
 51
45.0
  0
LINE
  5
7C66
330
8175
100
AcDbEntity
  8
1
100
AcDbLine
 10
1104.960156090059
 20
2014.453614188716
 30
0.0
 11
1104.960156090059
 21
2026.210614188716
 31
0.0
  0
ARC
  5
7C6B
330
8175
100
AcDbEntity
  8
1
100
AcDbCircle
 10
1118.173356090059
 20
2035.453614188716
 30
0.0
 40
3.0
100
AcDbArc
 50
225.0
 51
270.0
  0
LINE
  5
7C6C
330
8175
100
AcDbEntity
  8
1
100
AcDbLine
 10
1106.071356090059
 20
2043.312614188716
 30
0.0
 11
1116.051956090059
 21
2033.331614188716
 31
0.0
  0
LINE
  5
7C6E
330
8175
100
AcDbEntity
  8
1
100
AcDbLine
 10
903.7469560900589
 20
2032.453614188716
 30
0.0
 11
858.960156090059
 21
2032.453614188716
 31
0.0
  0
LINE
  5
7C6F
330
8175
100
AcDbEntity
  8
1
100
AcDbLine
 10
926.0162560900589
 20
2036.509614188716
 30
0.0
 11
917.8387560900592
 21
2028.331614188716
 31
0.0
  0
ARC
  5
7C70
330
8175
100
AcDbEntity
  8
1
100
AcDbCircle
 10
919.9601560900591
 20
2026.210614188716
 30
0.0
 40
3.0
100
AcDbArc
 50
135.0
 51
180.0
  0
LINE
  5
7C71
330
8175
100
AcDbEntity
  8
1
100
AcDbLine
 10
916.960156090059
 20
2014.453614188716
 30
0.0
 11
916.960156090059
 21
2026.210614188716
 31
0.0
  0
ARC
  5
7C72
330
8175
100
AcDbEntity
  8
1
100
AcDbCircle
 10
903.7469560900589
 20
2035.453614188716
 30
0.0
 40
3.0
100
AcDbArc
 50
270.0
 51
315.0
  0
LINE
  5
7C73
330
8175
100
AcDbEntity
  8
1
100
AcDbLine
 10
905.7579560900594
 20
2033.221614188716
 30
0.0
 11
915.8489560900592
 21
2043.312614188716
 31
0.0
  0
ARC
  5
7C7A
330
8175
100
AcDbEntity
  8
1
100
AcDbCircle
 10
858.960156090059
 20
2030.453614188716
 30
0.0
 40
2.0
100
AcDbArc
 50
90.0
 51
180.0
  0
LINE
  5
7C7B
330
8175
100
AcDbEntity
  8
1
100
AcDbLine
 10
856.960156090059
 20
2014.453614188716
 30
0.0
 11
856.960156090059
 21
2030.453614188716
 31
0.0
  0
LINE
  5
7C7C
330
8175
100
AcDbEntity
  8
2
100
AcDbLine
 10
1203.817030989583
 20
2174.453614188716
 30
0.0
 11
813.2012288713886
 21
2174.453614188716
 31
0.0
  0
LINE
  5
7C7D
330
8175
100
AcDbEntity
  8
1
100
AcDbLine
 10
1200.919623460317
 20
2014.453614188716
 30
0.0
 11
1070.960156090059
 21
2014.453614188716
 31
0.0
  0
LINE
  5
7C7E
330
8175
100
AcDbEntity
  8
1
100
AcDbLine
 10
1213.960156090059
 20
1964.453614188716
 30
0.0
 11
1200.919623460317
 21
2014.453614188716
 31
0.0
  0
LINE
  5
7C7F
330
8175
100
AcDbEntity
  8
1
100
AcDbLine
 10
807.9601560900595
 20
1964.453614188716
 30
0.0
 11
821.3415969989926
 21
2014.453614188716
 31
0.0
  0
LINE
  5
7C80
330
8175
100
AcDbEntity
  8
1
100
AcDbLine
 10
950.9601560900589
 20
2014.453614188716
 30
0.0
 11
950.9601560900589
 21
2009.453614188716
 31
0.0
  0
LINE
  5
7C81
330
8175
100
AcDbEntity
  8
1
100
AcDbLine
 10
1070.960156090059
 20
2014.453614188716
 30
0.0
 11
1070.960156090059
 21
2009.453614188716
 31
0.0
  0
LINE
  5
7C82
330
8175
100
AcDbEntity
  8
1
100
AcDbLine
 10
1070.960156090059
 20
2009.453614188716
 30
0.0
 11
950.9601560900589
 21
2009.453614188716
 31
0.0
  0
LINE
  5
7C84
330
8175
100
AcDbEntity
  8
1
100
AcDbLine
 10
950.9601560900589
 20
2014.453614188716
 30
0.0
 11
821.3415969989922
 21
2014.453614188716
 31
0.0
  0
POINT
  5
7C88
330
8175
100
AcDbEntity
  8
1
100
AcDbPoint
 10
2360.960156090059
 20
1702.453614188716
 30
0.0
  0
POINT
  5
7C89
330
8175
100
AcDbEntity
  8
1
100
AcDbPoint
 10
2360.960156090059
 20
1697.453614188716
 30
0.0
  0
POINT
  5
7C8A
330
8175
100
AcDbEntity
  8
1
100
AcDbPoint
 10
2360.960156090059
 20
1702.453614188716
 30
0.0
  0
POINT
  5
7C8B
330
8175
100
AcDbEntity
  8
1
100
AcDbPoint
 10
2360.960156090059
 20
1737.453614188716
 30
0.0
  0
DIMENSION
  5
7C8D
330
8175
100
AcDbEntity
  8
3
100
AcDbDimension
  2
*D4
 10
2559.967539869285
 20
2398.453614188716
 30
0.0
 11
2509.967539869285
 21
2763.453614188716
 31
0.0
 12
685.388008874299
 22
1860.860135967317
 32
0.0
 71
     5
 42
-1.0
  3
Standard
100
AcDbAlignedDimension
 13
2410.960156090059
 23
3128.453614188716
 33
0.0
 14
2410.96015609006
 24
2398.453614188716
 34
0.0
 50
270.0
100
AcDbRotatedDimension
1001
ACAD
1000
DSTYLE
1002
{
1070
    40
1040
25.0
1002
}
  0
DIMENSION
  5
7C8E
330
8175
100
AcDbEntity
  8
3
100
AcDbDimension
  2
*D5
 10
2712.77631334295
 20
2369.453614188716
 30
0.0
 11
2662.776313342949
 21
2748.953614188716
 31
0.0
 12
685.388008874299
 22
1860.860135967317
 32
0.0
 71
     5
 42
-1.0
  3
Standard
100
AcDbAlignedDimension
 13
2410.960156090059
 23
3128.453614188716
 33
0.0
 14
2533.225994895488
 24
2369.453614188716
 34
0.0
 50
270.0
100
AcDbRotatedDimension
1001
ACAD
1000
DSTYLE
1002
{
1070
    40
1040
25.0
1002
}
  0
LINE
  5
7C8F
330
8175
100
AcDbEntity
  8
1
100
AcDbLine
 10
4441.415278056257
 20
1697.453614188716
 30
0.0
 11
4491.415278056257
 21
1697.453614188716
 31
0.0
  0
POINT
  5
7C90
330
8175
100
AcDbEntity
  8
1
100
AcDbPoint
 10
2360.960156090059
 20
1702.453614188716
 30
0.0
  0
POINT
  5
7C91
330
8175
100
AcDbEntity
  8
1
100
AcDbPoint
 10
2360.960156090059
 20
1697.453614188716
 30
0.0
  0
POINT
  5
7C92
330
8175
100
AcDbEntity
  8
1
100
AcDbPoint
 10
2360.960156090059
 20
1702.453614188716
 30
0.0
  0
POINT
  5
7C93
330
8175
100
AcDbEntity
  8
1
100
AcDbPoint
 10
2360.960156090059
 20
1737.453614188716
 30
0.0
  0
INSERT
  5
7C94
330
8175
100
AcDbEntity
  8
0
100
AcDbBlockReference
  2
YA_N
 10
-1018.773193578214
 20
-860.9217325598891
 30
0.0
 41
20.0
 42
20.0
 43
20.0
  0
POINT
  5
7C96
330
8175
100
AcDbEntity
  8
1
100
AcDbPoint
 10
2360.960156090059
 20
1797.453614188716
 30
0.0
  0
POINT
  5
7C97
330
8175
100
AcDbEntity
  8
1
100
AcDbPoint
 10
2360.960156090059
 20
1697.453614188716
 30
0.0
  0
POINT
  5
7C98
330
8175
100
AcDbEntity
  8
1
100
AcDbPoint
 10
2360.960156090059
 20
1797.453614188716
 30
0.0
  0
LINE
  5
7C99
330
8175
100
AcDbEntity
  8
1
100
AcDbLine
 10
3538.415278056257
 20
3128.453614188716
 30
0.0
 11
4438.415278056257
 21
3128.453614188716
 31
0.0
  0
LINE
  5
7C9A
330
8175
100
AcDbEntity
  8
1
100
AcDbLine
 10
4438.415278056257
 20
2369.453614188716
 30
0.0
 11
4438.415278056257
 21
3128.453614188716
 31
0.0
  0
DIMENSION
  5
7C9C
330
8175
100
AcDbEntity
  8
3
100
AcDbDimension
  2
*D6
 10
1910.960156090059
 20
3321.434146369746
 30
0.0
 11
2160.960156090059
 21
3371.434146369747
 31
0.0
 12
685.388008874299
 22
1860.860135967317
 32
0.0
 71
     5
 42
-1.0
  3
Standard
100
AcDbAlignedDimension
 13
2410.960156090059
 23
3170.453614188716
 33
0.0
 14
1910.960156090059
 24
3199.504898645857
 34
0.0
100
AcDbRotatedDimension
1001
ACAD
1000
DSTYLE
1002
{
1070
    40
1040
25.0
1002
}
  0
LINE
  5
7C9E
330
8175
100
AcDbEntity
  8
1
100
AcDbLine
 10
3538.415278056257
 20
2369.453614188716
 30
0.0
 11
3538.415278056257
 21
3128.453614188716
 31
0.0
  0
LINE
  5
7C9F
330
8175
100
AcDbEntity
  8
1
100
AcDbLine
 10
3538.415278056257
 20
1924.453614188716
 30
0.0
 11
3538.415278056255
 21
2369.453614188716
 31
0.0
  0
LINE
  5
7CA1
330
8175
100
AcDbEntity
  8
1
100
AcDbLine
 10
4450.915278056256
 20
2234.253614188716
 30
0.0
 11
4450.915278056257
 21
2354.253614188717
 31
0.0
  0
LINE
  5
7CA2
330
8175
100
AcDbEntity
  8
1
100
AcDbLine
 10
4548.415278056254
 20
2244.253614188716
 30
0.0
 11
4548.415278056256
 21
2344.253614188716
 31
0.0
  0
LINE
  5
7CA3
330
8175
100
AcDbEntity
  8
1
100
AcDbLine
 10
4450.915278056257
 20
2354.253614188717
 30
0.0
 11
4490.715278056257
 21
2354.253614188717
 31
0.0
  0
LINE
  5
7CA4
330
8175
100
AcDbEntity
  8
1
100
AcDbLine
 10
4450.915278056256
 20
2234.253614188716
 30
0.0
 11
4490.715278056257
 21
2234.253614188716
 31
0.0
  0
ARC
  5
7CA5
330
8175
100
AcDbEntity
  8
1
100
AcDbCircle
 10
4538.415278056256
 20
2344.253614188716
 30
0.0
 40
10.0
100
AcDbArc
 50
359.9999999999982
 51
90.0
  0
ARC
  5
7CA6
330
8175
100
AcDbEntity
  8
1
100
AcDbCircle
 10
4538.415278056256
 20
2244.253614188716
 30
0.0
 40
10.0
100
AcDbArc
 50
270.0
 51
359.9999999999982
  0
LINE
  5
7CA7
330
8175
100
AcDbEntity
  8
1
100
AcDbLine
 10
4490.715278056257
 20
2234.253614188716
 30
0.0
 11
4538.415278056256
 21
2234.253614188716
 31
0.0
  0
LINE
  5
7CA8
330
8175
100
AcDbEntity
  8
1
100
AcDbLine
 10
4490.715278056257
 20
2354.253614188717
 30
0.0
 11
4538.415278056256
 21
2354.253614188717
 31
0.0
  0
LINE
  5
7CA9
330
8175
100
AcDbEntity
  8
1
100
AcDbLine
 10
810.9601560900591
 20
1924.453614188716
 30
0.0
 11
810.9601560900587
 21
1964.453614188716
 31
0.0
  0
POINT
  5
7CAA
330
8175
100
AcDbEntity
  8
1
100
AcDbPoint
 10
4548.415278056256
 20
2344.253614188716
 30
0.0
  0
LINE
  5
7CAB
330
8175
100
AcDbEntity
  8
1
100
AcDbLine
 10
2360.960156090059
 20
5222.085753370572
 30
0.0
 11
1460.960156090059
 21
5222.085753370573
 31
0.0
  0
LINE
  5
7CAC
330
8175
100
AcDbEntity
  8
1
100
AcDbLine
 10
2360.960156090059
 20
4067.085753370572
 30
0.0
 11
760.960156090059
 21
4067.085753370572
 31
0.0
  0
LINE
  5
7CAD
330
8175
100
AcDbEntity
  8
1
100
AcDbLine
 10
2360.960156090059
 20
5222.085753370573
 30
0.0
 11
2360.960156090059
 21
5169.085753370572
 31
0.0
  0
LINE
  5
7CAE
330
8175
100
AcDbEntity
  8
1
100
AcDbLine
 10
1460.960156090059
 20
5222.085753370573
 30
0.0
 11
1460.960156090059
 21
5169.085753370573
 31
0.0
  0
LINE
  5
7CAF
330
8175
100
AcDbEntity
  8
1
100
AcDbLine
 10
760.960156090059
 20
4737.085753370575
 30
0.0
 11
760.960156090059
 21
4067.085753370574
 31
0.0
  0
LINE
  5
7CB0
330
8175
100
AcDbEntity
  8
1
100
AcDbLine
 10
1298.960156090059
 20
4737.085753370573
 30
0.0
 11
760.960156090059
 21
4737.085753370575
 31
0.0
  0
DIMENSION
  5
7CB1
330
8175
100
AcDbEntity
  8
3
100
AcDbDimension
  2
*D8
 10
2711.713970375375
 20
1824.453614188716
 30
0.0
 11
2661.713970375375
 21
2096.953614188716
 31
0.0
 12
685.388008874299
 22
1860.860135967317
 32
0.0
 71
     5
 42
-1.0
  3
Standard
100
AcDbAlignedDimension
 13
2533.225994895488
 23
2369.453614188716
 33
0.0
 14
2360.960156090059
 24
1824.453614188716
 34
0.0
 50
90.0
100
AcDbRotatedDimension
1001
ACAD
1000
DSTYLE
1002
{
1070
    40
1040
25.0
1002
}
  0
POINT
  5
7CB2
330
8175
100
AcDbEntity
  8
1
100
AcDbPoint
 10
2360.960156090059
 20
1797.453614188716
 30
0.0
  0
POINT
  5
7CB3
330
8175
100
AcDbEntity
  8
1
100
AcDbPoint
 10
2360.960156090059
 20
1697.453614188716
 30
0.0
  0
POINT
  5
7CB4
330
8175
100
AcDbEntity
  8
1
100
AcDbPoint
 10
2360.960156090059
 20
1797.453614188716
 30
0.0
  0
LINE
  5
7CB5
330
8175
100
AcDbEntity
  8
1
100
AcDbLine
 10
2360.960156090059
 20
1824.453614188716
 30
0.0
 11
760.960156090059
 21
1824.453614188716
 31
0.0
1001
ACAD
1000
ASC_BOUNDS
1002
{
1070
    19
1002
}
  0
LINE
  5
7CB6
330
8175
100
AcDbEntity
  8
1
100
AcDbLine
 10
2360.960156090059
 20
1924.453614188716
 30
0.0
 11
760.960156090059
 21
1924.453614188716
 31
0.0
1001
ACAD
1000
ASC_BOUNDS
1002
{
1070
    19
1005
0
1002
}
  0
LINE
  5
7CB7
330
8175
100
AcDbEntity
  8
1
100
AcDbLine
 10
760.960156090059
 20
1924.453614188716
 30
0.0
 11
760.960156090059
 21
1824.453614188716
 31
0.0
  0
LINE
  5
7CB8
330
8175
100
AcDbEntity
  8
1
100
AcDbLine
 10
2360.960156090059
 20
1924.453614188716
 30
0.0
 11
2360.960156090059
 21
1824.453614188716
 31
0.0
  0
POINT
  5
7CB9
330
8175
100
AcDbEntity
  8
1
100
AcDbPoint
 10
2360.960156090059
 20
1924.453614188716
 30
0.0
  0
POINT
  5
7CBA
330
8175
100
AcDbEntity
  8
1
100
AcDbPoint
 10
2360.960156090059
 20
1924.453614188716
 30
0.0
  0
POINT
  5
7CBB
330
8175
100
AcDbEntity
  8
1
100
AcDbPoint
 10
2360.960156090059
 20
1924.453614188716
 30
0.0
  0
POINT
  5
7CBC
330
8175
100
AcDbEntity
  8
1
100
AcDbPoint
 10
2360.960156090059
 20
1924.453614188716
 30
0.0
  0
POINT
  5
7CBF
330
8175
100
AcDbEntity
  8
1
100
AcDbPoint
 10
2360.960156090059
 20
1797.453614188716
 30
0.0
  0
POINT
  5
7CC0
330
8175
100
AcDbEntity
  8
1
100
AcDbPoint
 10
2360.960156090059
 20
1697.453614188716
 30
0.0
  0
POINT
  5
7CC1
330
8175
100
AcDbEntity
  8
1
100
AcDbPoint
 10
2360.960156090059
 20
1797.453614188716
 30
0.0
  0
POINT
  5
7CC2
330
8175
100
AcDbEntity
  8
1
100
AcDbPoint
 10
2360.960156090059
 20
1824.453614188716
 30
0.0
  0
CIRCLE
  5
7CC8
330
8175
100
AcDbEntity
  8
1
100
AcDbCircle
 10
1010.960156090058
 20
2174.453614188716
 30
0.0
 40
79.0
  0
CIRCLE
  5
7CC9
330
8175
100
AcDbEntity
  8
1
100
AcDbCircle
 10
1910.960156090059
 20
2369.453614188716
 30
0.0
 40
203.2
  0
LINE
  5
7CCA
330
8175
100
AcDbEntity
  8
1
100
AcDbLine
 10
1841.540786619004
 20
2560.427934824349
 30
0.0
 11
983.9713264236552
 21
2248.700520341349
 31
0.0
  0
LINE
  5
7CCB
330
8175
100
AcDbEntity
  8
1
100
AcDbLine
 10
1926.811067084063
 20
2166.87279421639
 30
0.0
 11
1017.122665777688
 21
2095.694338707349
 31
0.0
  0
ARC
  5
7CCC
330
8175
100
AcDbEntity
  8
1
100
AcDbCircle
 10
1910.960156090059
 20
2369.453614188716
 30
0.0
 40
280.0
100
AcDbArc
 50
274.1096317013021
 51
110.3406136501693
  0
ARC
  5
7CCD
330
8175
100
AcDbEntity
  8
1
100
AcDbCircle
 10
1010.960156090058
 20
2174.453614188716
 30
0.0
 40
150.0
100
AcDbArc
 50
110.3406136501693
 51
274.1096317013021
  0
LINE
  5
7CCE
330
8175
100
AcDbEntity
  8
1
100
AcDbLine
 10
1813.632049872743
 20
2631.993591601968
 30
0.0
 11
958.8200991879258
 21
2315.100030660101
 31
0.0
  0
LINE
  5
7CCF
330
8175
100
AcDbEntity
  8
1
100
AcDbLine
 10
1931.026389131466
 20
2090.173564254017
 30
0.0
 11
1021.709923790812
 21
2024.839301723699
 31
0.0
  0
INSERT
  5
7CD0
330
8175
100
AcDbEntity
  8
0
100
AcDbBlockReference
  2
YA_N
 10
2545.878788900856
 20
-1567.120050791241
 30
0.0
  0
LINE
  5
7CD2
330
8175
100
AcDbEntity
  8
1
100
AcDbLine
 10
3536.115278056255
 20
1951.453614188716
 30
0.0
 11
3534.915278056255
 21
1951.453614188716
 31
0.0
  0
LINE
  5
7CD3
330
8175
100
AcDbEntity
  8
1
100
AcDbLine
 10
3336.415278056256
 20
1924.453614188716
 30
0.0
 11
4491.415278056257
 21
1924.453614188716
 31
0.0
1001
ACAD
1000
ASC_BOUNDS
1002
{
1070
    19
1002
}
  0
LINE
  5
7CD4
330
8175
100
AcDbEntity
  8
1
100
AcDbLine
 10
3336.415278056256
 20
1697.453614188716
 30
0.0
 11
3336.415278056255
 21
1797.453614188716
 31
0.0
  0
LINE
  5
7CD5
330
8175
100
AcDbEntity
  8
1
100
AcDbLine
 10
3336.415278056256
 20
1824.453614188716
 30
0.0
 11
4491.415278056257
 21
1824.453614188716
 31
0.0
  0
LINE
  5
7CD6
330
8175
100
AcDbEntity
  8
1
100
AcDbLine
 10
4491.415278056257
 20
1697.453614188716
 30
0.0
 11
4491.415278056257
 21
1797.453614188716
 31
0.0
  0
LINE
  5
7CD9
330
8175
100
AcDbEntity
  8
1
100
AcDbLine
 10
3486.115278056254
 20
2346.253614188716
 30
0.0
 11
3445.915278056255
 21
2346.253614188716
 31
0.0
  0
LINE
  5
7CDA
330
8175
100
AcDbEntity
  8
1
100
AcDbLine
 10
3486.115278056254
 20
2226.253614188717
 30
0.0
 11
3445.915278056256
 21
2226.253614188717
 31
0.0
  0
LINE
  5
7CDB
330
8175
100
AcDbEntity
  8
1
100
AcDbLine
 10
3525.915278056257
 20
2226.253614188717
 30
0.0
 11
3525.915278056253
 21
2346.253614188716
 31
0.0
  0
LINE
  5
7CDC
330
8175
100
AcDbEntity
  8
1
100
AcDbLine
 10
3525.915278056257
 20
2226.253614188717
 30
0.0
 11
3486.115278056254
 21
2226.253614188717
 31
0.0
  0
LINE
  5
7CDD
330
8175
100
AcDbEntity
  8
1
100
AcDbLine
 10
3525.915278056253
 20
2346.253614188716
 30
0.0
 11
3486.115278056254
 21
2346.253614188716
 31
0.0
  0
LINE
  5
7CDE
330
8175
100
AcDbEntity
  8
1
100
AcDbLine
 10
3435.915278056257
 20
2236.253614188716
 30
0.0
 11
3435.915278056255
 21
2336.253614188716
 31
0.0
  0
ARC
  5
7CDF
330
8175
100
AcDbEntity
  8
1
100
AcDbCircle
 10
3445.915278056256
 20
2236.253614188716
 30
0.0
 40
10.0
100
AcDbArc
 50
180.0000000000016
 51
270.0
  0
ARC
  5
7CE0
330
8175
100
AcDbEntity
  8
1
100
AcDbCircle
 10
3445.915278056255
 20
2336.253614188716
 30
0.0
 40
10.0
100
AcDbArc
 50
90.0
 51
180.0000000000016
  0
POINT
  5
7CE1
330
8175
100
AcDbEntity
  8
1
100
AcDbPoint
 10
3435.915278056255
 20
2336.253614188716
 30
0.0
  0
LINE
  5
7CE2
330
8175
100
AcDbEntity
  8
1
100
AcDbLine
 10
3408.415278056256
 20
2344.453614188716
 30
0.0
 11
3408.415278056256
 21
2394.453614188716
 31
0.0
  0
LINE
  5
7CE3
330
8175
100
AcDbEntity
  8
1
100
AcDbLine
 10
3408.415278056256
 20
2394.453614188716
 30
0.0
 11
3538.415278056257
 21
2394.453614188716
 31
0.0
  0
LINE
  5
7CE4
330
8175
100
AcDbEntity
  8
1
100
AcDbLine
 10
3408.415278056256
 20
2344.453614188716
 30
0.0
 11
3440.315278056255
 21
2344.453614188716
 31
0.0
  0
LINE
  5
7CE5
330
8175
100
AcDbEntity
  8
1
100
AcDbLine
 10
3384.415278056257
 20
2390.453614188716
 30
0.0
 11
3408.415278056256
 21
2390.453614188716
 31
0.0
  0
LINE
  5
7CE6
330
8175
100
AcDbEntity
  8
1
100
AcDbLine
 10
3384.415278056255
 20
2348.453614188716
 30
0.0
 11
3408.415278056255
 21
2348.453614188716
 31
0.0
  0
LINE
  5
7CE7
330
8175
100
AcDbEntity
  8
1
100
AcDbLine
 10
3384.415278056251
 20
2095.453614188716
 30
0.0
 11
3384.415278056258
 21
2572.653614188717
 31
0.0
  0
LINE
  5
7CE8
330
8175
100
AcDbEntity
  8
1
100
AcDbLine
 10
3283.415278056257
 20
2572.653614188717
 30
0.0
 11
3384.415278056259
 21
2572.653614188717
 31
0.0
  0
LINE
  5
7CE9
330
8175
100
AcDbEntity
  8
1
100
AcDbLine
 10
3283.415278056251
 20
2166.253614188716
 30
0.0
 11
3384.415278056253
 21
2166.253614188716
 31
0.0
  0
LINE
  5
7CEA
330
8175
100
AcDbEntity
  8
1
100
AcDbLine
 10
3283.415278056251
 20
2095.453614188716
 30
0.0
 11
3283.415278056259
 21
2572.653614188719
 31
0.0
  0
LINE
  5
7CEB
330
8175
100
AcDbEntity
  8
1
100
AcDbLine
 10
3283.415278056255
 20
2253.453614188716
 30
0.0
 11
3384.415278056255
 21
2253.453614188716
 31
0.0
  0
LINE
  5
7CEC
330
8175
100
AcDbEntity
  8
1
100
AcDbLine
 10
3283.415278056251
 20
2095.453614188716
 30
0.0
 11
3384.415278056252
 21
2095.453614188716
 31
0.0
  0
LINE
  5
7CED
330
8175
100
AcDbEntity
  8
1
100
AcDbLine
 10
3148.415278056259
 20
2649.453614188717
 30
0.0
 11
3434.415278056258
 21
2649.453614188717
 31
0.0
  0
LINE
  5
7CEE
330
8175
100
AcDbEntity
  8
1
100
AcDbLine
 10
3148.415278056252
 20
2024.453614188716
 30
0.0
 11
3434.41527805625
 21
2024.453614188716
 31
0.0
  0
LINE
  5
7CEF
330
8175
100
AcDbEntity
  8
1
100
AcDbLine
 10
3434.415278056252
 20
2024.453614188716
 30
0.0
 11
3434.415278056252
 21
2044.453614188716
 31
0.0
  0
LINE
  5
7CF0
330
8175
100
AcDbEntity
  8
1
100
AcDbLine
 10
3148.415278056252
 20
2024.453614188716
 30
0.0
 11
3148.415278056259
 21
2649.453614188717
 31
0.0
  0
LINE
  5
7CF1
330
8175
100
AcDbEntity
  8
1
100
AcDbLine
 10
3434.415278056258
 20
2629.453614188716
 30
0.0
 11
3434.415278056258
 21
2649.453614188717
 31
0.0
  0
DIMENSION
  5
7CF2
330
8175
100
AcDbEntity
  8
3
100
AcDbDimension
  2
*D9
 10
4438.415278056257
 20
3320.267176982923
 30
0.0
 11
3988.415278056257
 21
3370.267176982923
 31
0.0
 12
144.1432041257867
 22
1860.860135967317
 32
0.0
 71
     5
 42
-1.0
  3
Standard
100
AcDbAlignedDimension
 13
3538.415278056257
 23
3128.662503850267
 33
0.0
 14
4438.415278056257
 24
3128.662490113259
 34
0.0
100
AcDbRotatedDimension
1001
ACAD
1000
DSTYLE
1002
{
1070
    40
1040
25.0
1002
}
  0
DIMENSION
  5
7CF6
330
8175
100
AcDbEntity
  8
3
100
AcDbDimension
  2
*D13
 10
4716.197413011676
 20
2744.453614188716
 30
0.0
 11
4666.197413011675
 21
2369.453614188716
 31
0.0
 12
144.1432041257867
 22
1860.860135967317
 32
0.0
  1
\U+03C6<>
 71
     5
 42
-1.0
  3
Standard
100
AcDbAlignedDimension
 13
4440.715278056256
 23
1994.453614188716
 33
0.0
 14
4440.715278056256
 24
2744.453614188716
 34
0.0
 50
90.0
100
AcDbRotatedDimension
1001
ACAD
1000
DSTYLE
1002
{
1070
    40
1040
25.0
1002
}
  0
DIMENSION
  5
7CF8
330
8175
100
AcDbEntity
  8
3
100
AcDbDimension
  2
*D15
 10
618.5027741496196
 20
4737.085753370575
 30
0.0
 11
568.5027741496196
 21
4402.085753370573
 31
0.0
 12
290.4240371504711
 22
0.0
 32
0.0
 71
     5
 42
-1.0
  3
Standard
100
AcDbAlignedDimension
 13
760.960156090059
 23
4067.085753370572
 33
0.0
 14
760.960156090059
 24
4737.085753370575
 34
0.0
 50
90.0
100
AcDbRotatedDimension
1001
ACAD
1000
DSTYLE
1002
{
1070
    40
1040
25.0
1002
}
  0
DIMENSION
  5
7CF9
330
8175
100
AcDbEntity
  8
3
100
AcDbDimension
  2
*D16
 10
2360.960156090059
 20
5523.717807774745
 30
0.0
 11
1910.960156090059
 21
5573.717807774745
 31
0.0
 12
685.388008874299
 22
1293.552442835234
 32
0.0
 71
     5
 42
-1.0
  3
Standard
100
AcDbAlignedDimension
 13
1460.960156090059
 23
5222.085753370573
 33
0.0
 14
2360.960156090059
 24
5222.085753370573
 34
0.0
100
AcDbRotatedDimension
1001
ACAD
1000
DSTYLE
1002
{
1070
    40
1040
25.0
1002
}
  0
DIMENSION
  5
7CFA
330
8175
100
AcDbEntity
  8
3
100
AcDbDimension
  2
*D17
 10
1460.960156090059
 20
5523.717807774745
 30
0.0
 11
1110.960156090059
 21
5573.717807774745
 31
0.0
 12
685.388008874299
 22
1293.552442835234
 32
0.0
 71
     5
 42
-1.0
  3
Standard
100
AcDbAlignedDimension
 13
760.960156090059
 23
4737.085753370575
 33
0.0
 14
1460.960156090059
 24
5222.085753370573
 34
0.0
100
AcDbRotatedDimension
1001
ACAD
1000
DSTYLE
1002
{
1070
    40
1040
25.0
1002
}
  0
DIMENSION
  5
7CFB
330
8175
100
AcDbEntity
  8
3
100
AcDbDimension
  2
*D18
 10
2662.357364231317
 20
5222.085753370573
 30
0.0
 11
2612.357364231316
 21
4644.585753370572
 31
0.0
 12
685.388008874299
 22
1293.552442835234
 32
0.0
 71
     5
 42
-1.0
  3
Standard
100
AcDbAlignedDimension
 13
2360.960156090059
 23
4067.085753370572
 33
0.0
 14
2360.960156090059
 24
5222.085753370573
 34
0.0
 50
90.0
100
AcDbRotatedDimension
1001
ACAD
1000
DSTYLE
1002
{
1070
    40
1040
25.0
1002
}
  0
LINE
  5
7CFC
330
8175
100
AcDbEntity
  8
1
100
AcDbLine
 10
3336.415278056255
 20
1824.453614188716
 30
0.0
 11
3336.415278056256
 21
1924.453614188716
 31
0.0
  0
DIMENSION
  5
7CFE
330
8175
100
AcDbEntity
  8
3
100
AcDbDimension
  2
*D19
 10
2711.713970375375
 20
1697.453614188716
 30
0.0
 11
2649.213970375375
 21
1483.167899903002
 31
0.0
 71
     5
 42
-1.0
  3
Standard
100
AcDbAlignedDimension
 13
2360.960156090059
 23
1797.453614188716
 33
0.0
 14
2360.960156090059
 24
1697.453614188716
 34
0.0
 50
90.0
100
AcDbRotatedDimension
1001
ACAD
1000
DSTYLE
1002
{
1070
   287
1070
     3
1070
   287
1070
     3
1070
    40
1040
25.0
1070
   143
1040
0.039
1070
   172
1070
     1
1070
   271
1070
     0
1070
   279
1070
     0
1070
   288
1070
     1
1070
     6
1000
DOT
1002
}
  0
DIMENSION
  5
7D00
330
8175
100
AcDbEntity
  8
3
100
AcDbDimension
  2
*D21
 10
760.960156090059
 20
3490.219633244743
 30
0.0
 11
1585.960156090059
 21
3540.219633244742
 31
0.0
 12
685.388008874299
 22
1860.860135967317
 32
0.0
 71
     5
 42
-1.0
  3
Standard
100
AcDbAlignedDimension
 13
2410.960156090059
 23
3170.453614188716
 33
0.0
 14
760.960156090059
 24
1924.453614188716
 34
0.0
100
AcDbRotatedDimension
1001
ACAD
1000
DSTYLE
1002
{
1070
    40
1040
25.0
1002
}
  0
LINE
  5
7D01
330
8175
100
AcDbEntity
  8
1
100
AcDbLine
 10
2190.96015609006
 20
3879.085753370573
 30
0.0
 11
2190.96015609006
 21
4164.085753370573
 31
0.0
  0
LINE
  5
7D02
330
8175
100
AcDbEntity
  8
1
100
AcDbLine
 10
860.9601560900591
 20
3879.085753370573
 30
0.0
 11
860.9601560900591
 21
4164.085753370573
 31
0.0
  0
LINE
  5
7D03
330
8175
100
AcDbEntity
  8
1
100
AcDbLine
 10
2114.16015609006
 20
4014.085753370573
 30
0.0
 11
2114.16015609006
 21
4114.085753370573
 31
0.0
  0
LINE
  5
7D04
330
8175
100
AcDbEntity
  8
1
100
AcDbLine
 10
1707.760156090059
 20
4014.085753370573
 30
0.0
 11
1707.760156090059
 21
4114.085753370573
 31
0.0
  0
LINE
  5
7D05
330
8175
100
AcDbEntity
  8
1
100
AcDbLine
 10
1089.960156090058
 20
4014.085753370573
 30
0.0
 11
1089.960156090058
 21
4114.085753370573
 31
0.0
  0
LINE
  5
7D06
330
8175
100
AcDbEntity
  8
1
100
AcDbLine
 10
931.9601560900592
 20
4014.085753370573
 30
0.0
 11
931.9601560900592
 21
4114.085753370574
 31
0.0
  0
LINE
  5
7D07
330
8175
100
AcDbEntity
  8
1
100
AcDbLine
 10
2190.96015609006
 20
3879.085753370573
 30
0.0
 11
860.9601560900591
 21
3879.085753370573
 31
0.0
  0
LINE
  5
7D08
330
8175
100
AcDbEntity
  8
1
100
AcDbLine
 10
2190.96015609006
 20
4164.085753370573
 30
0.0
 11
860.9601560900591
 21
4164.085753370573
 31
0.0
  0
LINE
  5
7D09
330
8175
100
AcDbEntity
  8
1
100
AcDbLine
 10
2114.16015609006
 20
4114.085753370573
 30
0.0
 11
1707.760156090059
 21
4114.085753370573
 31
0.0
  0
LINE
  5
7D0A
330
8175
100
AcDbEntity
  8
1
100
AcDbLine
 10
2114.16015609006
 20
4014.085753370573
 30
0.0
 11
1707.760156090059
 21
4014.085753370573
 31
0.0
  0
LINE
  5
7D0B
330
8175
100
AcDbEntity
  8
1
100
AcDbLine
 10
1089.960156090058
 20
4114.085753370573
 30
0.0
 11
931.9601560900592
 21
4114.085753370573
 31
0.0
  0
LINE
  5
7D0C
330
8175
100
AcDbEntity
  8
1
100
AcDbLine
 10
1089.960156090058
 20
4014.085753370573
 30
0.0
 11
931.9601560900592
 21
4014.085753370573
 31
0.0
  0
LINE
  5
7D0D
330
8175
100
AcDbEntity
  8
1
100
AcDbLine
 10
2410.960156090059
 20
4269.085753370569
 30
0.0
 11
1298.960156090059
 21
4269.085753370573
 31
0.0
  0
LINE
  5
7D0E
330
8175
100
AcDbEntity
  8
1
100
AcDbLine
 10
2410.960156090059
 20
5169.085753370572
 30
0.0
 11
1298.960156090059
 21
5169.085753370573
 31
0.0
  0
LINE
  5
7D0F
330
8175
100
AcDbEntity
  8
1
100
AcDbLine
 10
2410.960156090059
 20
5209.085753370573
 30
0.0
 11
2410.960156090059
 21
4229.085753370571
 31
0.0
  0
LINE
  5
7D10
330
8175
100
AcDbEntity
  8
1
100
AcDbLine
 10
1298.960156090059
 20
5169.085753370573
 30
0.0
 11
1298.960156090059
 21
4269.085753370573
 31
0.0
  0
LINE
  5
7D11
330
8175
100
AcDbEntity
  8
1
100
AcDbLine
 10
2410.960156090059
 20
5209.085753370573
 30
0.0
 11
2407.960156090059
 21
5209.085753370573
 31
0.0
  0
LINE
  5
7D12
330
8175
100
AcDbEntity
  8
1
100
AcDbLine
 10
2410.960156090059
 20
4229.085753370571
 30
0.0
 11
2407.960156090059
 21
4229.085753370571
 31
0.0
  0
LINE
  5
7D13
330
8175
100
AcDbEntity
  8
1
100
AcDbLine
 10
2407.960156090059
 20
5209.085753370573
 30
0.0
 11
2407.960156090059
 21
4229.085753370571
 31
0.0
  0
LINE
  5
7D14
330
8175
100
AcDbEntity
  8
1
100
AcDbLine
 10
1935.960156090059
 20
4269.085753370572
 30
0.0
 11
1935.960156090059
 21
4114.085753370573
 31
0.0
  0
LINE
  5
7D15
330
8175
100
AcDbEntity
  8
1
100
AcDbLine
 10
1885.960156090059
 20
4269.085753370573
 30
0.0
 11
1885.960156090059
 21
4114.085753370573
 31
0.0
  0
LINE
  5
7D16
330
8175
100
AcDbEntity
  8
1
100
AcDbLine
 10
3538.415278056257
 20
2398.453614188716
 30
0.0
 11
4438.415278056257
 21
2398.453614188716
 31
0.0
  0
LINE
  5
7D17
330
8175
100
AcDbEntity
  8
1
100
AcDbLine
 10
4438.415278056257
 20
3128.453614188716
 30
0.0
 11
3538.415278056257
 21
2398.453614188716
 31
0.0
  0
LINE
  5
7D18
330
8175
100
AcDbEntity
  8
1
100
AcDbLine
 10
3538.415278056257
 20
3128.453614188716
 30
0.0
 11
4438.415278056257
 21
2398.453614188716
 31
0.0
  0
LINE
  5
7D19
330
8175
100
AcDbEntity
  8
1
100
AcDbLine
 10
1172.960156090058
 20
4132.085753370573
 30
0.0
 11
1172.960156090058
 21
4617.085753370573
 31
0.0
  0
LINE
  5
7D1A
330
8175
100
AcDbEntity
  8
1
100
AcDbLine
 10
848.960156090059
 20
4132.085753370573
 30
0.0
 11
848.960156090059
 21
4617.085753370573
 31
0.0
  0
LINE
  5
7D1B
330
8175
100
AcDbEntity
  8
1
100
AcDbLine
 10
1172.960156090058
 20
4617.085753370573
 30
0.0
 11
848.960156090059
 21
4617.085753370573
 31
0.0
  0
LINE
  5
7D1C
330
8175
100
AcDbEntity
  8
1
100
AcDbLine
 10
1172.960156090058
 20
4132.085753370573
 30
0.0
 11
848.960156090059
 21
4132.085753370573
 31
0.0
  0
LINE
  5
7D1D
330
8175
100
AcDbEntity
  8
1
100
AcDbLine
 10
1031.960156090058
 20
4132.085753370573
 30
0.0
 11
1031.960156090058
 21
4114.085753370573
 31
0.0
  0
LINE
  5
7D1E
330
8175
100
AcDbEntity
  8
1
100
AcDbLine
 10
989.9601560900592
 20
4132.085753370573
 30
0.0
 11
989.9601560900592
 21
4114.085753370573
 31
0.0
  0
LINE
  5
7D1F
330
8175
100
AcDbEntity
  8
1
100
AcDbLine
 10
3402.415278056253
 20
2336.453614188719
 30
0.0
 11
3435.917278256294
 21
2336.453614188719
 31
0.0
  0
LINE
  5
7D20
330
8175
100
AcDbEntity
  8
1
100
AcDbLine
 10
3402.415278056253
 20
2012.453614188719
 30
0.0
 11
3538.415278056255
 21
2012.453614188719
 31
0.0
  0
LINE
  5
7D21
330
8175
100
AcDbEntity
  8
1
100
AcDbLine
 10
3402.415278056253
 20
2012.453614188719
 30
0.0
 11
3402.415278056253
 21
2336.453614188719
 31
0.0
  0
LINE
  5
7D22
330
8175
100
AcDbEntity
  8
1
100
AcDbLine
 10
3402.415278056252
 20
2153.453614188719
 30
0.0
 11
3384.415278056253
 21
2153.453614188719
 31
0.0
  0
LINE
  5
7D23
330
8175
100
AcDbEntity
  8
1
100
AcDbLine
 10
3402.415278056252
 20
2195.453614188719
 30
0.0
 11
3384.415278056253
 21
2195.453614188719
 31
0.0
  0
LINE
  5
7D24
330
8175
100
AcDbEntity
  8
1
100
AcDbLine
 10
3525.915278056253
 20
2336.453614188719
 30
0.0
 11
3538.415278056255
 21
2336.453614188719
 31
0.0
  0
LINE
  5
7D2B
330
8175
100
AcDbEntity
  8
1
100
AcDbLine
 10
4491.415278056257
 20
1824.453614188716
 30
0.0
 11
4491.415278056257
 21
1924.453614188716
 31
0.0
  0
LINE
  5
7D2C
330
8175
100
AcDbEntity
  8
1
100
AcDbLine
 10
2360.960156090059
 20
4269.085753370572
 30
0.0
 11
2360.960156090059
 21
4067.085753370572
 31
0.0
  0
LINE
  5
7F5D
330
8175
100
AcDbEntity
  8
4
100
AcDbLine
 10
4625.0
 20
1250.0
 30
0.0
 11
4625.0
 21
750.0
 31
0.0
  0
LINE
  5
7F5E
330
8175
100
AcDbEntity
  8
4
100
AcDbLine
 10
2875.0
 20
1250.0
 30
0.0
 11
2875.0
 21
750.0
 31
0.0
  0
LINE
  5
7F5F
330
8175
100
AcDbEntity
  8
4
100
AcDbLine
 10
1625.0
 20
1250.0
 30
0.0
 11
1625.0
 21
750.0
 31
0.0
  0
LINE
  5
7F62
330
8175
100
AcDbEntity
  8
4
100
AcDbLine
 10
1625.0
 20
750.0
 30
0.0
 11
4625.0
 21
750.0
 31
0.0
  0
LINE
  5
7F63
330
8175
100
AcDbEntity
  8
4
100
AcDbLine
 10
1625.0
 20
1000.0
 30
0.0
 11
4625.0
 21
1000.0
 31
0.0
  0
TEXT
  5
7F64
330
8175
100
AcDbEntity
  8
4
100
AcDbText
 10
1721.255202117253
 20
1078.857564666532
 30
0.0
 40
125.0
  1
機器名称
100
AcDbText
  0
TEXT
  5
7F65
330
8175
100
AcDbEntity
  8
4
100
AcDbText
 10
1715.645265061993
 20
804.1128918300273
 30
0.0
 40
125.0
  1
機器型番
100
AcDbText
  0
TEXT
  5
7F66
330
8175
100
AcDbEntity
  8
4
100
AcDbText
 10
2944.196863719162
 20
1056.429422393921
 30
0.0
 40
125.0
  1
ミツヤ多翼送風機
100
AcDbText
  0
TEXT
  5
7F67
330
8175
100
AcDbEntity
  8
4
100
AcDbText
 10
2966.636238963701
 20
792.8989606998584
 30
0.0
 40
125.0
  1
MF#4 1/2-5
100
AcDbText
  0
TEXT
  5
7F69
330
8175
100
AcDbEntity
  8
4
100
AcDbText
 10
1945.138169307454
 20
5958.572103331289
 30
0.0
 40
135.0
  1
床置防振ベット
100
AcDbText
  0
TEXT
  5
7F6A
330
8175
100
AcDbEntity
  8
4
100
AcDbText
 10
790.4189833236158
 20
6334.702440498245
 30
0.0
 40
180.0
  1
遠心式両吸込両持多翼ファン
100
AcDbText
  0
LINE
  5
7F6B
330
8175
100
AcDbEntity
  8
4
100
AcDbLine
 10
625.0
 20
6173.521885662012
 30
0.0
 11
4625.0
 21
6173.521885662012
 31
0.0
  0
LINE
  5
7F6C
330
8175
100
AcDbEntity
  8
4
100
AcDbLine
 10
625.0
 20
6673.521885662011
 30
0.0
 11
4625.0
 21
6673.521885662011
 31
0.0
  0
LINE
  5
7F6D
330
8175
100
AcDbEntity
  8
4
100
AcDbLine
 10
1625.0
 20
1250.0
 30
0.0
 11
4625.0
 21
1250.0
 31
0.0
  0
LINE
  5
7F6E
330
8175
100
AcDbEntity
  8
4
100
AcDbLine
 10
625.0
 20
6673.521885662011
 30
0.0
 11
625.0
 21
6173.521885662012
 31
0.0
  0
TEXT
  5
7F6F
330
8175
100
AcDbEntity
  8
4
100
AcDbText
 10
855.491088700699
 20
5955.798693865858
 30
0.0
 40
135.0
  1
右回転右横向
100
AcDbText
  0
TEXT
  5
7F70
330
8175
100
AcDbEntity
  8
4
100
AcDbText
 10
3672.423898123224
 20
6765.15270373827
 30
0.0
 40
140.0
  1
No.
100
AcDbText
  0
TEXT
  5
7F71
330
8175
100
AcDbEntity
  8
4
100
AcDbText
 10
3278.240156500032
 20
5958.572103331289
 30
0.0
 40
135.0
  1
縮尺：1/25
100
AcDbText
  0
LINE
  5
7F72
330
8175
100
AcDbEntity
  8
4
100
AcDbLine
 10
4625.0
 20
6673.521885662011
 30
0.0
 11
4625.0
 21
6173.521885662012
 31
0.0
  0
LINE
  5
7F73
330
8175
100
AcDbEntity
  8
4
100
AcDbLine
 10
5250.0
 20
7375.0
 30
0.0
 11
5250.0
 21
7375.0
 31
0.0
  0
LINE
  5
7F74
330
8175
100
AcDbEntity
  8
4
100
AcDbLine
 10
3601.543555899662
 20
6703.158957813504
 30
0.0
 11
3601.543555899662
 21
6966.630653874381
 31
0.0
  0
LINE
  5
7F75
330
8175
100
AcDbEntity
  8
4
100
AcDbLine
 10
3601.543555899662
 20
6966.630653874381
 30
0.0
 11
4625.0
 21
6966.630653874381
 31
0.0
  0
LINE
  5
7F76
330
8175
100
AcDbEntity
  8
4
100
AcDbLine
 10
4625.0
 20
6966.630653874381
 30
0.0
 11
4625.0
 21
6703.158957813504
 31
0.0
  0
LINE
  5
7F77
330
8175
100
AcDbEntity
  8
4
100
AcDbLine
 10
4625.0
 20
6703.158957813504
 30
0.0
 11
3601.543555899662
 21
6703.158957813504
 31
0.0
  0
LINE
  5
7F78
330
8175
100
AcDbEntity
  8
4
100
AcDbLine
 10
0.0
 20
0.0
 30
0.0
 11
0.0
 21
7375.0
 31
0.0
  0
LINE
  5
7F79
330
8175
100
AcDbEntity
  8
4
100
AcDbLine
 10
0.0
 20
7375.0
 30
0.0
 11
5250.0
 21
7375.0
 31
0.0
  0
LINE
  5
7F7A
330
8175
100
AcDbEntity
  8
4
100
AcDbLine
 10
5250.0
 20
7375.0
 30
0.0
 11
5250.0
 21
0.0
 31
0.0
  0
LINE
  5
7F7B
330
8175
100
AcDbEntity
  8
4
100
AcDbLine
 10
5250.0
 20
0.0
 30
0.0
 11
0.0
 21
0.0
 31
0.0
  0
DIMENSION
  5
8052
330
8175
100
AcDbEntity
  8
3
100
AcDbDimension
  2
*D22
 10
1910.960156090059
 20
1511.998059792202
 30
0.0
 11
1335.960156090059
 21
1574.498059792202
 31
0.0
 71
     5
 42
-1.0
  3
Standard
100
AcDbAlignedDimension
 13
760.960156090059
 23
1697.453614188716
 33
0.0
 14
1910.960156090059
 24
1697.453614188716
 34
0.0
100
AcDbRotatedDimension
1001
ACAD
1000
DSTYLE
1002
{
1070
   172
1070
     1
1070
    40
1040
25.0
1070
    42
1040
1.0
1070
   271
1070
     0
1070
   143
1040
0.039
1002
}
  0
DIMENSION
  5
805F
330
8175
100
AcDbEntity
  8
3
100
AcDbDimension
  2
*D23
 10
2360.960156090059
 20
1511.998059792202
 30
0.0
 11
2135.960156090059
 21
1574.498059792202
 31
0.0
 71
     5
 42
-1.0
  3
Standard
100
AcDbAlignedDimension
 13
1910.960156090059
 23
1697.453614188716
 33
0.0
 14
2360.960156090059
 24
1697.453614188716
 34
0.0
100
AcDbRotatedDimension
1001
ACAD
1000
DSTYLE
1002
{
1070
   172
1070
     1
1070
    40
1040
25.0
1070
    42
1040
1.0
1070
   271
1070
     0
1070
   143
1040
0.039
1002
}
  0
DIMENSION
  5
806C
330
8175
100
AcDbEntity
  8
3
100
AcDbDimension
  2
*D24
 10
3988.415278056257
 20
1511.998059792202
 30
0.0
 11
3662.415278056256
 21
1574.498059792202
 31
0.0
 71
     5
 42
-1.0
  3
Standard
100
AcDbAlignedDimension
 13
3336.415278056256
 23
1697.453614188716
 33
0.0
 14
3988.415278056257
 24
1697.453614188716
 34
0.0
100
AcDbRotatedDimension
1001
ACAD
1000
DSTYLE
1002
{
1070
   172
1070
     1
1070
    40
1040
25.0
1070
    42
1040
1.0
1070
   271
1070
     0
1070
   143
1040
0.039
1002
}
  0
DIMENSION
  5
8079
330
8175
100
AcDbEntity
  8
3
100
AcDbDimension
  2
*D25
 10
4491.415278056257
 20
1511.998059792202
 30
0.0
 11
4239.915278056257
 21
1574.498059792202
 31
0.0
 71
     5
 42
-1.0
  3
Standard
100
AcDbAlignedDimension
 13
3988.415278056257
 23
1697.453614188716
 33
0.0
 14
4491.415278056257
 24
1697.453614188716
 34
0.0
100
AcDbRotatedDimension
1001
ACAD
1000
DSTYLE
1002
{
1070
   172
1070
     1
1070
    40
1040
25.0
1070
    42
1040
1.0
1070
   271
1070
     0
1070
   143
1040
0.039
1002
}
  0
DIMENSION
  5
8088
330
8175
100
AcDbEntity
  8
3
100
AcDbDimension
  2
*D27
 10
2711.773086679615
 20
1824.453614188716
 30
0.0
 11
2831.415943822472
 21
1810.953614188716
 31
0.0
 71
     5
 42
-1.0
  3
Standard
100
AcDbAlignedDimension
 13
2360.960156090059
 23
1797.453614188716
 33
0.0
 14
2360.960156090059
 24
1824.453614188716
 34
0.0
 50
90.0
100
AcDbRotatedDimension
1001
ACAD
1000
DSTYLE
1002
{
1070
   172
1070
     1
1070
    76
1070
     1
1070
    75
1070
     1
1070
    40
1040
25.0
1070
     3
1000
(<>)
1070
    42
1040
1.0
1070
   271
1070
     0
1070
     7
1000
_NONE
1070
     6
1000
_NONE
1070
   143
1040
0.039
1002
}
  0
DIMENSION
  5
8095
330
8175
100
AcDbEntity
  8
3
100
AcDbDimension
  2
*D28
 10
2917.012193622969
 20
3128.453614188716
 30
0.0
 11
2834.869336480112
 21
2412.953614188716
 31
0.0
 71
     5
 42
-1.0
  3
Standard
100
AcDbAlignedDimension
 13
2360.960156090059
 23
1697.453614188716
 33
0.0
 14
2410.960156090059
 24
3128.453614188716
 34
0.0
 50
90.0
100
AcDbRotatedDimension
1001
ACAD
1000
DSTYLE
1002
{
1070
   172
1070
     1
1070
    40
1040
25.0
1070
     3
1000
(<>)
1070
    42
1040
1.0
1070
   271
1070
     0
1070
   143
1040
0.039
1002
}
  0
DIMENSION
  5
8245
330
8175
100
AcDbEntity
  8
3
100
AcDbDimension
  2
*D30
 10
3988.415278056257
 20
3488.823319040097
 30
0.0
 11
3568.415278056259
 21
3570.966176182955
 31
0.0
 70
    32
  1
(<>)
 71
     5
 42
839.9999999999977
  3
IGA
100
AcDbAlignedDimension
 13
3148.415278056259
 23
2649.453614188717
 33
0.0
 14
3988.415278056257
 24
3407.767176982922
 34
0.0
100
AcDbRotatedDimension
1001
ACAD
1000
DSTYLE
1002
{
1070
    40
1040
25.0
1070
    42
1040
1.0
1070
   143
1040
0.039
1070
   172
1070
     1
1070
   271
1070
     4
1070
   272
1070
     4
1070
   279
1070
     0
1070
   284
1070
     0
1070
   285
1070
     0
1070
   286
1070
     0
1070
   341
1005
8189
1070
   343
1005
8189
1070
   344
1005
8189
1002
}
  0
DIMENSION
  5
8252
330
8175
100
AcDbEntity
  8
3
100
AcDbDimension
  2
*D31
 10
4548.415278056256
 20
3488.823319040097
 30
0.0
 11
4268.415278056256
 21
3570.966176182955
 31
0.0
 70
    32
  1
(<>)
 71
     5
 42
559.9999999999995
  3
IGA
100
AcDbAlignedDimension
 13
3988.415278056257
 23
3407.767176982922
 33
0.0
 14
4548.415278056256
 24
2344.253614188716
 34
0.0
100
AcDbRotatedDimension
1001
ACAD
1000
DSTYLE
1002
{
1070
    40
1040
25.0
1070
    42
1040
1.0
1070
   143
1040
0.039
1070
   172
1070
     1
1070
   271
1070
     4
1070
   272
1070
     4
1070
   279
1070
     1
1070
   284
1070
     0
1070
   285
1070
     0
1070
   286
1070
     0
1070
   341
1005
8189
1070
   343
1005
8189
1070
   344
1005
8189
1002
}
  0
DIMENSION
  5
82AA
330
8175
100
AcDbEntity
  8
3
100
AcDbDimension
  2
*D32
 10
2360.960156090059
 20
3715.762234019807
 30
0.0
 11
1560.960156090059
 21
3778.262234019807
 31
0.0
 70
    32
 71
     5
 42
1599.999999999999
  3
IGA
100
AcDbAlignedDimension
 13
760.960156090059
 23
4067.085753370572
 33
0.0
 14
2360.960156090059
 24
4067.085753370572
 34
0.0
100
AcDbRotatedDimension
1001
ACAD
1000
DSTYLE
1002
{
1070
    40
1040
25.0
1070
    42
1040
1.0
1070
   143
1040
0.039
1070
   172
1070
     1
1070
   271
1070
     4
1070
   272
1070
     4
1070
   279
1070
     0
1070
   284
1070
     0
1070
   285
1070
     0
1070
   286
1070
     0
1070
   341
1005
8189
1070
   343
1005
8189
1070
   344
1005
8189
1002
}
  0
LINE
  5
82BA
330
8175
100
AcDbEntity
  8
1
100
AcDbLine
 10
2407.960156090059
 20
3128.095104565536
 30
0.0
 11
1881.050918934117
 21
3065.127760544565
 31
0.0
  0
ARC
  5
82BB
330
8175
100
AcDbEntity
  8
1
100
AcDbCircle
 10
1963.960156090061
 20
2422.453614188716
 30
0.0
 40
648.0
100
AcDbArc
 50
97.35093601752982
 51
180.0
  0
ARC
  5
82BC
330
8175
100
AcDbEntity
  8
1
100
AcDbCircle
 10
1857.960156090061
 20
2422.453614188716
 30
0.0
 40
541.9999999999998
100
AcDbArc
 50
180.0
 51
246.754061256443
  0
ARC
  5
82BD
330
8175
100
AcDbEntity
  8
1
100
AcDbCircle
 10
1869.960156090061
 20
2328.453614188715
 30
0.0
 40
448.0
100
AcDbArc
 50
295.606206716391
 51
0.0
  0
ARC
  5
82BE
330
8175
100
AcDbEntity
  8
1
100
AcDbCircle
 10
1951.960156090061
 20
2328.453614188716
 30
0.0
 40
366.0
100
AcDbArc
 50
0.0
 51
11.02614048129254
  0
LINE
  5
82BF
330
8175
100
AcDbEntity
  8
1
100
AcDbLine
 10
2410.960156090061
 20
2398.453614188716
 30
0.0
 11
2311.203805999145
 21
2398.453614188716
 31
0.0
  0
LINE
  5
82C0
330
8175
100
AcDbEntity
  8
1
100
AcDbLine
 10
2410.960156090059
 20
3170.453614188716
 30
0.0
 11
2410.960156090061
 21
2356.453614188716
 31
0.0
  0
LINE
  5
82C1
330
8175
100
AcDbEntity
  8
1
100
AcDbLine
 10
2410.960156090059
 20
3170.453614188716
 30
0.0
 11
2407.960156090059
 21
3170.453614188716
 31
0.0
  0
LINE
  5
82C2
330
8175
100
AcDbEntity
  8
1
100
AcDbLine
 10
2410.960156090061
 20
2356.453614188716
 30
0.0
 11
2407.960156090059
 21
2356.453614188716
 31
0.0
  0
LINE
  5
82C3
330
8175
100
AcDbEntity
  8
1
100
AcDbLine
 10
2370.960156090059
 20
3125.004382616112
 30
0.0
 11
2370.960156090059
 21
2398.453614188716
 31
0.0
  0
LINE
  5
82C4
330
8175
100
AcDbEntity
  8
1
100
AcDbLine
 10
2407.960156090059
 20
3170.453614188716
 30
0.0
 11
2407.960156090059
 21
2356.453614188716
 31
0.0
  0
POINT
  5
82C5
330
8175
100
AcDbEntity
  8
1
100
AcDbPoint
 10
2371.142728554511
 20
2369.453614188716
 30
0.0
 50
180.0
  0
LINE
  5
82C6
330
8175
100
AcDbEntity
  8
1
100
AcDbLine
 10
2414.441961722552
 20
2369.453614188716
 30
0.0
 11
2430.115267138868
 21
2369.453614188716
 31
0.0
  0
CIRCLE
  5
82C7
330
8175
100
AcDbEntity
  8
1
100
AcDbCircle
 10
1910.960156090059
 20
2369.453614188716
 30
0.0
 40
375.0
  0
CIRCLE
  5
82C8
330
8175
100
AcDbEntity
  8
1
100
AcDbCircle
 10
1910.960156090059
 20
2369.453614188716
 30
0.0
 40
415.0
  0
DIMENSION
  5
82C9
330
8175
100
AcDbEntity
  8
3
100
AcDbDimension
  2
*D33
 10
1315.960156090061
 20
3321.434146369747
 30
0.0
 11
1613.46015609006
 21
3383.934146369747
 31
0.0
 70
    32
 71
     5
 42
594.9999999999977
  3
IGA
100
AcDbAlignedDimension
 13
1910.960156090059
 23
3199.504898645857
 33
0.0
 14
1315.960156090061
 24
2422.453614188716
 34
0.0
100
AcDbRotatedDimension
1001
ACAD
1000
DSTYLE
1002
{
1070
    40
1040
25.0
1070
    42
1040
1.0
1070
   143
1040
0.039
1070
   172
1070
     1
1070
   271
1070
     4
1070
   272
1070
     4
1070
   279
1070
     0
1070
   284
1070
     0
1070
   285
1070
     0
1070
   286
1070
     0
1070
   341
1005
8189
1070
   343
1005
8189
1070
   344
1005
8189
1002
}
  0
ENDSEC
  0
SECTION
  2
OBJECTS
  0
DICTIONARY
  5
8112
330
0
100
AcDbDictionary
281
     1
  3
ACAD_CIP_PREVIOUS_PRODUCT_INFO
350
81BF
  3
ACAD_COLOR
350
8168
  3
ACAD_DETAILVIEWSTYLE
350
816F
  3
ACAD_GROUP
350
8113
  3
ACAD_LAYOUT
350
8167
  3
ACAD_MATERIAL
350
8116
  3
ACAD_MLEADERSTYLE
350
816B
  3
ACAD_MLINESTYLE
350
8164
  3
ACAD_PLOTSETTINGS
350
8166
  3
ACAD_PLOTSTYLENAME
350
8114
  3
ACAD_SCALELIST
350
8148
  3
ACAD_SECTIONVIEWSTYLE
350
816D
  3
ACAD_TABLESTYLE
350
8169
  3
ACAD_VISUALSTYLE
350
812F
  3
ACDB_RECOMPOSE_DATA
350
8322
  3
AcDbVariableDictionary
350
81CA
  3
DWGPROPS
350
8323
  0
DICTIONARY
  5
8216
330
8108
100
AcDbDictionary
280
     1
281
     1
  3
ACAD_LAYERSTATES
360
8217
  0
DICTIONARY
  5
81C0
330
815A
100
AcDbDictionary
280
     1
281
     1
  3
ADSK_XREC_LAYER_RECONCILED
360
81C1
  0
DICTIONARY
  5
81C2
330
8179
100
AcDbDictionary
280
     1
281
     1
  3
ADSK_XREC_LAYER_RECONCILED
360
81C3
  0
DICTIONARY
  5
81C4
330
817C
100
AcDbDictionary
280
     1
281
     1
  3
ADSK_XREC_LAYER_RECONCILED
360
81C5
  0
DICTIONARY
  5
81C6
330
817D
100
AcDbDictionary
280
     1
281
     1
  3
ADSK_XREC_LAYER_RECONCILED
360
81C7
  0
DICTIONARY
  5
81C8
330
817E
100
AcDbDictionary
280
     1
281
     1
  3
ADSK_XREC_LAYER_RECONCILED
360
81C9
  0
XRECORD
  5
81BF
102
{ACAD_REACTORS
330
8112
102
}
330
8112
100
AcDbXrecord
280
     1
300
ACDLT
300
2015
300
INVLTS_F_S
  0
DICTIONARY
  5
8168
102
{ACAD_REACTORS
330
8112
102
}
330
8112
100
AcDbDictionary
281
     1
  0
DICTIONARY
  5
816F
102
{ACAD_REACTORS
330
8112
102
}
330
8112
100
AcDbDictionary
281
     1
  3
Imperial24
350
8170
  0
DICTIONARY
  5
8113
102
{ACAD_REACTORS
330
8112
102
}
330
8112
100
AcDbDictionary
281
     1
  0
DICTIONARY
  5
8167
102
{ACAD_REACTORS
330
8112
102
}
330
8112
100
AcDbDictionary
281
     1
  3
Model
350
8178
  3
レイアウト1
350
8174
  0
DICTIONARY
  5
8116
102
{ACAD_REACTORS
330
8112
102
}
330
8112
100
AcDbDictionary
281
     1
  3
ByBlock
350
811F
  3
ByLayer
350
8117
  3
Global
350
8127
  0
DICTIONARY
  5
816B
102
{ACAD_REACTORS
330
8112
102
}
330
8112
100
AcDbDictionary
281
     1
  3
Standard
350
816C
  0
DICTIONARY
  5
8164
102
{ACAD_REACTORS
330
8112
102
}
330
8112
100
AcDbDictionary
281
     1
  3
Standard
350
8165
  0
DICTIONARY
  5
8166
102
{ACAD_REACTORS
330
8112
102
}
330
8112
100
AcDbDictionary
281
     1
  0
ACDBDICTIONARYWDFLT
  5
8114
102
{ACAD_REACTORS
330
8112
102
}
330
8112
100
AcDbDictionary
281
     1
  3
Normal
350
8115
100
AcDbDictionaryWithDefault
340
8115
  0
DICTIONARY
  5
8148
102
{ACAD_REACTORS
330
8112
102
}
330
8112
100
AcDbDictionary
281
     1
  3
A0
350
8149
  3
A1
350
814A
  3
A2
350
814B
  3
A3
350
814C
  3
A4
350
814D
  3
A5
350
814E
  3
A6
350
814F
  3
A7
350
8150
  3
A8
350
8151
  3
A9
350
8152
  3
B0
350
8153
  3
B1
350
8154
  3
B2
350
8155
  3
B3
350
8156
  3
B4
350
8157
  3
B5
350
8158
  3
B6
350
8159
  0
DICTIONARY
  5
816D
102
{ACAD_REACTORS
330
8112
102
}
330
8112
100
AcDbDictionary
281
     1
  3
Imperial24
350
816E
  0
DICTIONARY
  5
8169
102
{ACAD_REACTORS
330
8112
102
}
330
8112
100
AcDbDictionary
281
     1
  3
Standard
350
816A
  0
DICTIONARY
  5
812F
102
{ACAD_REACTORS
330
8112
102
}
330
8112
100
AcDbDictionary
281
     1
  3
2dWireframe
350
8135
  3
Basic
350
8134
  3
Brighten
350
813B
  3
ColorChange
350
813F
  3
Conceptual
350
8138
  3
Dim
350
813A
  3
EdgeColorOff
350
8147
  3
Facepattern
350
813E
  3
Flat
350
8130
  3
FlatWithEdges
350
8131
  3
Gouraud
350
8132
  3
GouraudWithEdges
350
8133
  3
Hidden
350
8137
  3
JitterOff
350
8145
  3
Linepattern
350
813D
  3
OverhangOff
350
8146
  3
Realistic
350
8139
  3
Shaded
350
8144
  3
Shaded with edges
350
8143
  3
Shades of Gray
350
8140
  3
Sketchy
350
8141
  3
Thicken
350
813C
  3
Wireframe
350
8136
  3
X-Ray
350
8142
  0
XRECORD
  5
8322
102
{ACAD_REACTORS
330
8112
102
}
330
8112
100
AcDbXrecord
280
     1
 90
        1
330
816A
  0
DICTIONARY
  5
81CA
102
{ACAD_REACTORS
330
8112
102
}
330
8112
100
AcDbDictionary
281
     1
  3
CANNOSCALE
350
81CF
  3
CMLEADERSTYLE
350
81CC
  3
CTABLESTYLE
350
81CB
  3
CVIEWDETAILSTYLE
350
81CD
  3
CVIEWSECTIONSTYLE
350
81CE
  3
DIMASSOC
350
81D2
  3
INDEXCTL
350
81D1
  3
SORTENTS
350
81D0
  3
XCLIPFRAME
350
81D3
  0
XRECORD
  5
8323
102
{ACAD_REACTORS
330
8112
102
}
330
8112
100
AcDbXrecord
280
     1
  1
DWGPROPS COOKIE
  2

  3

  4

  6

  7

  8
yasukiyo.ogawa
  9

300
=
301
=
302
=
303
=
304
=
305
=
306
=
307
=
308
=
309
=
 40
0.082325462962963
 41
2451387.581912616
 42
2460263.705211227
  1

 90
        0
  0
DICTIONARY
  5
8217
102
{ACAD_REACTORS
330
8216
102
}
330
8216
100
AcDbDictionary
281
     1
  0
XRECORD
  5
81C1
102
{ACAD_REACTORS
330
81C0
102
}
330
81C0
100
AcDbXrecord
280
     1
290
     1
  0
XRECORD
  5
81C3
102
{ACAD_REACTORS
330
81C2
102
}
330
81C2
100
AcDbXrecord
280
     1
290
     1
  0
XRECORD
  5
81C5
102
{ACAD_REACTORS
330
81C4
102
}
330
81C4
100
AcDbXrecord
280
     1
290
     1
  0
XRECORD
  5
81C7
102
{ACAD_REACTORS
330
81C6
102
}
330
81C6
100
AcDbXrecord
280
     1
290
     1
  0
XRECORD
  5
81C9
102
{ACAD_REACTORS
330
81C8
102
}
330
81C8
100
AcDbXrecord
280
     1
290
     1
  0
ACDBDETAILVIEWSTYLE
  5
8170
102
{ACAD_XDICTIONARY
360
835B
102
}
102
{ACAD_REACTORS
330
816F
102
}
330
816F
100
AcDbModelDocViewStyle
 70
     0
  3
Imperial24
290
     0
100
AcDbDetailViewStyle
 70
     0
 71
     0
 90
        3
 71
     1
340
815B
 40
0.24
340
0
 40
0.24
300

 40
0.36
280
     3
 71
     2
340
8162
 90
       25
 71
     3
340
815B
 40
0.24
 90
        1
 40
0.75
 90
        1
300
%<\AcVar ViewType \f "%tc1">% %<\AcVar ViewDetailId>%\PSCALE %<\AcVar ViewScale \f "%sn">%
 71
     4
340
8162
 90
       25
340
8162
 90
       25
280
     0
  0
LAYOUT
  5
8178
102
{ACAD_XDICTIONARY
360
835F
102
}
102
{ACAD_REACTORS
330
8167
102
}
330
8167
100
AcDbPlotSettings
  1

  2
RICOH imagio MP W3600 RPCS
  4

  6

 40
0.0
 41
0.0
 42
0.0
 43
0.0
 44
0.0
 45
0.0
 46
0.0
 47
0.0
 48
0.0
 49
0.0
140
0.0
141
0.0
142
1.0
143
1.0
 70
  1712
 72
     0
 73
     0
 74
     0
  7

 75
     0
147
1.0
148
0.0
149
0.0
100
AcDbLayout
  1
Model
 70
     1
 71
     0
 10
0.0
 20
0.0
 11
12.0
 21
9.0
 12
0.0
 22
0.0
 32
0.0
 14
0.0
 24
0.0
 34
0.0
 15
0.0
 25
0.0
 35
0.0
146
0.0
 13
0.0
 23
0.0
 33
0.0
 16
1.0
 26
0.0
 36
0.0
 17
0.0
 27
1.0
 37
0.0
 76
     0
330
8175
331
817A
  0
LAYOUT
  5
8174
102
{ACAD_XDICTIONARY
360
835D
102
}
102
{ACAD_REACTORS
330
8167
102
}
330
8167
100
AcDbPlotSettings
  1

  2
RICOH imagio MP W3600 RPCS
  4

  6

 40
0.0
 41
0.0
 42
0.0
 43
0.0
 44
0.0
 45
0.0
 46
0.0
 47
0.0
 48
0.0
 49
0.0
140
0.0
141
0.0
142
1.0
143
1.0
 70
   688
 72
     0
 73
     0
 74
     5
  7

 75
    16
147
1.0
148
0.0
149
0.0
100
AcDbLayout
  1
レイアウト1
 70
     1
 71
     1
 10
0.0
 20
0.0
 11
12.0
 21
9.0
 12
0.0
 22
0.0
 32
0.0
 14
1.000000000000000E+20
 24
1.000000000000000E+20
 34
1.000000000000000E+20
 15
-1.000000000000000E+20
 25
-1.000000000000000E+20
 35
-1.000000000000000E+20
146
0.0
 13
0.0
 23
0.0
 33
0.0
 16
1.0
 26
0.0
 36
0.0
 17
0.0
 27
1.0
 37
0.0
 76
     0
330
8171
  0
MATERIAL
  5
811F
102
{ACAD_XDICTIONARY
360
8120
102
}
102
{ACAD_REACTORS
330
8116
102
}
330
8116
100
AcDbMaterial
  1
ByBlock
 72
     0
 43
0.0208333333333333
 43
0.0
 43
0.0
 43
0.0
 43
0.0
 43
0.0208333333333333
 43
0.0
 43
0.0
 43
0.0
 43
0.0
 43
1.0
 43
0.0
 43
0.0
 43
0.0
 43
0.0
 43
1.0
 77
     0
 47
0.0208333333333333
 47
0.0
 47
0.0
 47
0.0
 47
0.0
 47
0.0208333333333333
 47
0.0
 47
0.0
 47
0.0
 47
0.0
 47
1.0
 47
0.0
 47
0.0
 47
0.0
 47
0.0
 47
1.0
171
     0
 49
0.0208333333333333
 49
0.0
 49
0.0
 49
0.0
 49
0.0
 49
0.0208333333333333
 49
0.0
 49
0.0
 49
0.0
 49
0.0
 49
1.0
 49
0.0
 49
0.0
 49
0.0
 49
0.0
 49
1.0
175
     0
142
0.0208333333333333
142
0.0
142
0.0
142
0.0
142
0.0
142
0.0208333333333333
142
0.0
142
0.0
142
0.0
142
0.0
142
1.0
142
0.0
142
0.0
142
0.0
142
0.0
142
1.0
179
     0
144
0.0208333333333333
144
0.0
144
0.0
144
0.0
144
0.0
144
0.0208333333333333
144
0.0
144
0.0
144
0.0
144
0.0
144
1.0
144
0.0
144
0.0
144
0.0
144
0.0
144
1.0
147
0.0208333333333333
147
0.0
147
0.0
147
0.0
147
0.0
147
0.0208333333333333
147
0.0
147
0.0
147
0.0
147
0.0
147
1.0
147
0.0
147
0.0
147
0.0
147
0.0
147
1.0
  0
MATERIAL
  5
8117
102
{ACAD_XDICTIONARY
360
8118
102
}
102
{ACAD_REACTORS
330
8116
102
}
330
8116
100
AcDbMaterial
  1
ByLayer
 72
     0
 43
0.0208333333333333
 43
0.0
 43
0.0
 43
0.0
 43
0.0
 43
0.0208333333333333
 43
0.0
 43
0.0
 43
0.0
 43
0.0
 43
1.0
 43
0.0
 43
0.0
 43
0.0
 43
0.0
 43
1.0
 77
     0
 47
0.0208333333333333
 47
0.0
 47
0.0
 47
0.0
 47
0.0
 47
0.0208333333333333
 47
0.0
 47
0.0
 47
0.0
 47
0.0
 47
1.0
 47
0.0
 47
0.0
 47
0.0
 47
0.0
 47
1.0
171
     0
 49
0.0208333333333333
 49
0.0
 49
0.0
 49
0.0
 49
0.0
 49
0.0208333333333333
 49
0.0
 49
0.0
 49
0.0
 49
0.0
 49
1.0
 49
0.0
 49
0.0
 49
0.0
 49
0.0
 49
1.0
175
     0
142
0.0208333333333333
142
0.0
142
0.0
142
0.0
142
0.0
142
0.0208333333333333
142
0.0
142
0.0
142
0.0
142
0.0
142
1.0
142
0.0
142
0.0
142
0.0
142
0.0
142
1.0
179
     0
144
0.0208333333333333
144
0.0
144
0.0
144
0.0
144
0.0
144
0.0208333333333333
144
0.0
144
0.0
144
0.0
144
0.0
144
1.0
144
0.0
144
0.0
144
0.0
144
0.0
144
1.0
147
0.0208333333333333
147
0.0
147
0.0
147
0.0
147
0.0
147
0.0208333333333333
147
0.0
147
0.0
147
0.0
147
0.0
147
1.0
147
0.0
147
0.0
147
0.0
147
0.0
147
1.0
  0
MATERIAL
  5
8127
102
{ACAD_XDICTIONARY
360
8128
102
}
102
{ACAD_REACTORS
330
8116
102
}
330
8116
100
AcDbMaterial
  1
Global
 72
     0
 43
0.0208333333333333
 43
0.0
 43
0.0
 43
0.0
 43
0.0
 43
0.0208333333333333
 43
0.0
 43
0.0
 43
0.0
 43
0.0
 43
1.0
 43
0.0
 43
0.0
 43
0.0
 43
0.0
 43
1.0
 77
     0
 47
0.0208333333333333
 47
0.0
 47
0.0
 47
0.0
 47
0.0
 47
0.0208333333333333
 47
0.0
 47
0.0
 47
0.0
 47
0.0
 47
1.0
 47
0.0
 47
0.0
 47
0.0
 47
0.0
 47
1.0
171
     0
 49
0.0208333333333333
 49
0.0
 49
0.0
 49
0.0
 49
0.0
 49
0.0208333333333333
 49
0.0
 49
0.0
 49
0.0
 49
0.0
 49
1.0
 49
0.0
 49
0.0
 49
0.0
 49
0.0
 49
1.0
175
     0
142
0.0208333333333333
142
0.0
142
0.0
142
0.0
142
0.0
142
0.0208333333333333
142
0.0
142
0.0
142
0.0
142
0.0
142
1.0
142
0.0
142
0.0
142
0.0
142
0.0
142
1.0
179
     0
144
0.0208333333333333
144
0.0
144
0.0
144
0.0
144
0.0
144
0.0208333333333333
144
0.0
144
0.0
144
0.0
144
0.0
144
1.0
144
0.0
144
0.0
144
0.0
144
0.0
144
1.0
147
0.0208333333333333
147
0.0
147
0.0
147
0.0
147
0.0
147
0.0208333333333333
147
0.0
147
0.0
147
0.0
147
0.0
147
1.0
147
0.0
147
0.0
147
0.0
147
0.0
147
1.0
  0
MLEADERSTYLE
  5
816C
102
{ACAD_REACTORS
330
816B
102
}
330
816B
100
AcDbMLeaderStyle
170
     2
171
     1
172
     0
 90
        2
 40
0.0
 41
0.0
173
     1
 91
-1056964608
340
8160
 92
       -2
290
     1
 42
0.09
291
     1
 43
0.36
  3
Standard
 44
0.18
300

342
815B
174
     1
178
     6
175
     1
176
     0
 93
-1056964608
 45
0.18
292
     0
297
     0
 46
0.18
 94
-1056964608
 47
1.0
 49
1.0
140
1.0
293
     1
141
0.0
294
     1
177
     0
142
1.0
295
     0
296
     0
143
0.125
1001
ACAD_MLEADERVER
1070
     2
  0
MLINESTYLE
  5
8165
102
{ACAD_REACTORS
330
8164
102
}
330
8164
100
AcDbMlineStyle
  2
STANDARD
 70
     0
  3

 62
   256
 51
90.0
 52
90.0
 71
     2
 49
0.5
 62
   256
  6
BYLAYER
 49
-0.5
 62
   256
  6
BYLAYER
  0
ACDBPLACEHOLDER
  5
8115
102
{ACAD_REACTORS
330
8114
102
}
330
8114
  0
SCALE
  5
8149
102
{ACAD_REACTORS
330
8148
102
}
330
8148
100
AcDbScale
 70
     0
300
1:1
140
1.0
141
1.0
290
     1
  0
SCALE
  5
814A
102
{ACAD_REACTORS
330
8148
102
}
330
8148
100
AcDbScale
 70
     0
300
1/128" = 1'-0"
140
0.0078125
141
12.0
290
     0
  0
SCALE
  5
814B
102
{ACAD_REACTORS
330
8148
102
}
330
8148
100
AcDbScale
 70
     0
300
1/64" = 1'-0"
140
0.015625
141
12.0
290
     0
  0
SCALE
  5
814C
102
{ACAD_REACTORS
330
8148
102
}
330
8148
100
AcDbScale
 70
     0
300
1/32" = 1'-0"
140
0.03125
141
12.0
290
     0
  0
SCALE
  5
814D
102
{ACAD_REACTORS
330
8148
102
}
330
8148
100
AcDbScale
 70
     0
300
1/16" = 1'-0"
140
0.0625
141
12.0
290
     0
  0
SCALE
  5
814E
102
{ACAD_REACTORS
330
8148
102
}
330
8148
100
AcDbScale
 70
     0
300
3/32" = 1'-0"
140
0.09375
141
12.0
290
     0
  0
SCALE
  5
814F
102
{ACAD_REACTORS
330
8148
102
}
330
8148
100
AcDbScale
 70
     0
300
1/8" = 1'-0"
140
0.125
141
12.0
290
     0
  0
SCALE
  5
8150
102
{ACAD_REACTORS
330
8148
102
}
330
8148
100
AcDbScale
 70
     0
300
3/16" = 1'-0"
140
0.1875
141
12.0
290
     0
  0
SCALE
  5
8151
102
{ACAD_REACTORS
330
8148
102
}
330
8148
100
AcDbScale
 70
     0
300
1/4" = 1'-0"
140
0.25
141
12.0
290
     0
  0
SCALE
  5
8152
102
{ACAD_REACTORS
330
8148
102
}
330
8148
100
AcDbScale
 70
     0
300
3/8" = 1'-0"
140
0.375
141
12.0
290
     0
  0
SCALE
  5
8153
102
{ACAD_REACTORS
330
8148
102
}
330
8148
100
AcDbScale
 70
     0
300
1/2" = 1'-0"
140
0.5
141
12.0
290
     0
  0
SCALE
  5
8154
102
{ACAD_REACTORS
330
8148
102
}
330
8148
100
AcDbScale
 70
     0
300
3/4" = 1'-0"
140
0.75
141
12.0
290
     0
  0
SCALE
  5
8155
102
{ACAD_REACTORS
330
8148
102
}
330
8148
100
AcDbScale
 70
     0
300
1" = 1'-0"
140
1.0
141
12.0
290
     0
  0
SCALE
  5
8156
102
{ACAD_REACTORS
330
8148
102
}
330
8148
100
AcDbScale
 70
     0
300
1-1/2" = 1'-0"
140
1.5
141
12.0
290
     0
  0
SCALE
  5
8157
102
{ACAD_REACTORS
330
8148
102
}
330
8148
100
AcDbScale
 70
     0
300
3" = 1'-0"
140
3.0
141
12.0
290
     0
  0
SCALE
  5
8158
102
{ACAD_REACTORS
330
8148
102
}
330
8148
100
AcDbScale
 70
     0
300
6" = 1'-0"
140
6.0
141
12.0
290
     0
  0
SCALE
  5
8159
102
{ACAD_REACTORS
330
8148
102
}
330
8148
100
AcDbScale
 70
     0
300
1'-0" = 1'-0"
140
12.0
141
12.0
290
     0
  0
ACDBSECTIONVIEWSTYLE
  5
816E
102
{ACAD_XDICTIONARY
360
8359
102
}
102
{ACAD_REACTORS
330
816D
102
}
330
816D
100
AcDbModelDocViewStyle
 70
     0
  3
Imperial24
290
     0
100
AcDbSectionViewStyle
 70
     0
 71
     0
 90
       78
 71
     1
340
815B
 40
0.24
340
0
340
0
 40
0.24
300
I, O, Q, S, X, Z
 40
0.48
 90
        3
 40
0.18
 90
        1
 71
     2
340
8162
 90
       25
340
8162
 90
       50
 40
0.24
 40
0.0
 40
0.24
 71
     3
340
815B
 40
0.24
 90
        1
 40
0.75
 90
        1
300
%<\AcVar ViewType \f "%tc1">% %<\AcVar ViewSectionStartId>%-%<\AcVar ViewSectionEndId>%\PSCALE %<\AcVar ViewScale \f "%sn">%
 71
     4
300
ANSI31
 40
1.0
 90
        0
290
     0
290
     0
 90
        6
 40
0.0
 40
1.570796326794896
 40
0.2617993877991494
 40
1.308996938995747
 40
-0.2617993877991494
 40
1.832595714594046
  0
TABLESTYLE
  5
816A
102
{ACAD_XDICTIONARY
360
8320
102
}
102
{ACAD_REACTORS
330
8169
102
}
330
8169
100
AcDbTableStyle
  3
Standard
 70
     0
 71
     0
 40
0.06
 41
0.06
280
     0
281
     0
  7
STANDARD
140
0.18
170
     2
 62
     0
 63
     7
283
     0
274
    -2
284
     1
 64
     0
275
    -2
285
     1
 65
     0
276
    -2
286
     1
 66
     0
277
    -2
287
     1
 67
     0
278
    -2
288
     1
 68
     0
279
    -2
289
     1
 69
     0
  7
STANDARD
140
0.25
170
     5
 62
     0
 63
     7
283
     0
274
    -2
284
     1
 64
     0
275
    -2
285
     1
 65
     0
276
    -2
286
     1
 66
     0
277
    -2
287
     1
 67
     0
278
    -2
288
     1
 68
     0
279
    -2
289
     1
 69
     0
  7
STANDARD
140
0.18
170
     5
 62
     0
 63
     7
283
     0
274
    -2
284
     1
 64
     0
275
    -2
285
     1
 65
     0
276
    -2
286
     1
 66
     0
277
    -2
287
     1
 67
     0
278
    -2
288
     1
 68
     0
279
    -2
289
     1
 69
     0
  0
VISUALSTYLE
  5
8135
102
{ACAD_XDICTIONARY
360
8331
102
}
102
{ACAD_REACTORS
330
812F
102
}
330
812F
100
AcDbVisualStyle
  2
2dWireframe
 70
     4
 71
     0
 72
     2
 73
     0
 90
        0
 40
-0.6
 41
-30.0
 62
     5
 63
     7
 74
     1
 91
        4
 64
     7
 65
   257
 75
     1
175
     1
 42
1.0
 92
        0
 66
   257
 43
1.0
 76
     1
 77
     6
 78
     2
 67
     7
 79
     5
170
     0
171
     0
290
     0
174
     0
 93
        1
 44
0.0
173
     0
291
     0
 45
0.0
1001
ACAD
1000
AcDbSavedByObjectVersion
1070
     0
  0
VISUALSTYLE
  5
8134
102
{ACAD_XDICTIONARY
360
832F
102
}
102
{ACAD_REACTORS
330
812F
102
}
330
812F
100
AcDbVisualStyle
  2
Basic
 70
     7
 71
     1
 72
     0
 73
     1
 90
        0
 40
-0.6
 41
-30.0
 62
     5
 63
     7
 74
     0
 91
        4
 64
     7
 65
   257
 75
     1
175
     1
 42
1.0
 92
        8
 66
     7
 43
1.0
 76
     1
 77
     6
 78
     2
 67
     7
 79
     5
170
     0
171
     0
290
     0
174
     0
 93
        1
 44
0.0
173
     0
291
     1
 45
0.0
1001
ACAD
1000
AcDbSavedByObjectVersion
1070
     0
  0
VISUALSTYLE
  5
813B
102
{ACAD_XDICTIONARY
360
833D
102
}
102
{ACAD_REACTORS
330
812F
102
}
330
812F
100
AcDbVisualStyle
  2
Brighten
 70
    12
 71
     2
 72
     2
 73
     0
 90
        0
 40
-0.6
 41
-30.0
 62
     5
 63
     7
 74
     1
 91
        4
 64
     7
 65
   257
 75
     1
175
     1
 42
1.0
 92
        8
 66
     7
 43
1.0
 76
     1
 77
     6
 78
     2
 67
     7
 79
     5
170
     0
171
     0
290
     0
174
     0
 93
        1
 44
50.0
173
     0
291
     1
 45
0.0
1001
ACAD
1000
AcDbSavedByObjectVersion
1070
     0
  0
VISUALSTYLE
  5
813F
102
{ACAD_XDICTIONARY
360
8345
102
}
102
{ACAD_REACTORS
330
812F
102
}
330
812F
100
AcDbVisualStyle
  2
ColorChange
 70
    16
 71
     2
 72
     2
 73
     3
 90
        0
 40
-0.6
 41
-30.0
 62
     5
 63
     8
 74
     1
 91
        4
 64
     7
 65
   257
 75
     1
175
     1
 42
1.0
 92
        8
 66
     8
 43
1.0
 76
     1
 77
     6
 78
     2
 67
     7
 79
     5
170
     0
171
     0
290
     0
174
     0
 93
        1
 44
0.0
173
     0
291
     1
 45
0.0
1001
ACAD
1000
AcDbSavedByObjectVersion
1070
     0
  0
VISUALSTYLE
  5
8138
102
{ACAD_XDICTIONARY
360
8337
102
}
102
{ACAD_REACTORS
330
812F
102
}
330
812F
100
AcDbVisualStyle
  2
Conceptual
 70
     9
 71
     3
 72
     2
 73
     0
 90
        0
 40
-0.6
 41
-30.0
 62
     5
 63
     7
 74
     2
 91
        2
 64
     7
 65
   257
 75
     1
175
     1
 42
179.0
 92
        8
 66
     7
 43
1.0
 76
     1
 77
     6
 78
     2
 67
     7
 79
     3
170
     0
171
     0
290
     0
174
     0
 93
        1
 44
0.0
173
     0
291
     0
 45
0.0
1001
ACAD
1000
AcDbSavedByObjectVersion
1070
     0
  0
VISUALSTYLE
  5
813A
102
{ACAD_XDICTIONARY
360
833B
102
}
102
{ACAD_REACTORS
330
812F
102
}
330
812F
100
AcDbVisualStyle
  2
Dim
 70
    11
 71
     2
 72
     2
 73
     0
 90
        0
 40
-0.6
 41
-30.0
 62
     5
 63
     7
 74
     1
 91
        4
 64
     7
 65
   257
 75
     1
175
     1
 42
1.0
 92
        8
 66
     7
 43
1.0
 76
     1
 77
     6
 78
     2
 67
     7
 79
     5
170
     0
171
     0
290
     0
174
     0
 93
        1
 44
-50.0
173
     0
291
     1
 45
0.0
1001
ACAD
1000
AcDbSavedByObjectVersion
1070
     0
  0
VISUALSTYLE
  5
8147
102
{ACAD_XDICTIONARY
360
8355
102
}
102
{ACAD_REACTORS
330
812F
102
}
330
812F
100
AcDbVisualStyle
  2
EdgeColorOff
 70
    22
 71
     2
 72
     2
 73
     0
 90
        0
 40
-0.6
 41
-30.0
 62
     5
 63
     7
 74
     1
 91
        4
 64
     7
 65
   257
 75
     1
175
     1
 42
1.0
 92
        8
 66
     7
 43
1.0
 76
     1
 77
     6
 78
     2
 67
     7
 79
     5
170
     0
171
     0
290
     0
174
     0
 93
        1
 44
0.0
173
     0
291
     1
 45
0.0
1001
ACAD
1000
AcDbSavedByObjectVersion
1070
     0
  0
VISUALSTYLE
  5
813E
102
{ACAD_XDICTIONARY
360
8343
102
}
102
{ACAD_REACTORS
330
812F
102
}
330
812F
100
AcDbVisualStyle
  2
Facepattern
 70
    15
 71
     2
 72
     2
 73
     0
 90
        0
 40
-0.6
 41
-30.0
 62
     5
 63
     7
 74
     1
 91
        4
 64
     7
 65
   257
 75
     1
175
     1
 42
1.0
 92
        8
 66
     7
 43
1.0
 76
     1
 77
     6
 78
     2
 67
     7
 79
     5
170
     0
171
     0
290
     0
174
     0
 93
        1
 44
0.0
173
     0
291
     1
 45
0.0
1001
ACAD
1000
AcDbSavedByObjectVersion
1070
     0
  0
VISUALSTYLE
  5
8130
102
{ACAD_XDICTIONARY
360
8327
102
}
102
{ACAD_REACTORS
330
812F
102
}
330
812F
100
AcDbVisualStyle
  2
Flat
 70
     0
 71
     2
 72
     1
 73
     1
 90
        2
 40
-0.6
 41
30.0
 62
     5
 63
     7
 74
     0
 91
        0
 64
     7
 65
   257
 75
     1
175
     1
 42
1.0
 92
        8
 66
     7
 43
1.0
 76
     1
 77
     6
 78
     2
 67
     7
 79
     5
170
     0
171
     0
290
     0
174
     0
 93
       13
 44
0.0
173
     0
291
     1
 45
0.0
1001
ACAD
1000
AcDbSavedByObjectVersion
1070
     0
  0
VISUALSTYLE
  5
8131
102
{ACAD_XDICTIONARY
360
8329
102
}
102
{ACAD_REACTORS
330
812F
102
}
330
812F
100
AcDbVisualStyle
  2
FlatWithEdges
 70
     1
 71
     2
 72
     1
 73
     1
 90
        2
 40
-0.6
 41
30.0
 62
     5
 63
     7
 74
     1
 91
        0
 64
     7
 65
   257
 75
     1
175
     1
 42
1.0
 92
        0
 66
   257
 43
1.0
 76
     1
 77
     6
 78
     2
 67
     7
 79
     5
170
     0
171
     0
290
     0
174
     0
 93
       13
 44
0.0
173
     0
291
     1
 45
0.0
1001
ACAD
1000
AcDbSavedByObjectVersion
1070
     0
  0
VISUALSTYLE
  5
8132
102
{ACAD_XDICTIONARY
360
832B
102
}
102
{ACAD_REACTORS
330
812F
102
}
330
812F
100
AcDbVisualStyle
  2
Gouraud
 70
     2
 71
     2
 72
     2
 73
     1
 90
        2
 40
-0.6
 41
30.0
 62
     5
 63
     7
 74
     0
 91
        0
 64
     7
 65
   257
 75
     1
175
     1
 42
1.0
 92
        0
 66
     7
 43
1.0
 76
     1
 77
     6
 78
     2
 67
     7
 79
     5
170
     0
171
     0
290
     0
174
     0
 93
       13
 44
0.0
173
     0
291
     1
 45
0.0
1001
ACAD
1000
AcDbSavedByObjectVersion
1070
     0
  0
VISUALSTYLE
  5
8133
102
{ACAD_XDICTIONARY
360
832D
102
}
102
{ACAD_REACTORS
330
812F
102
}
330
812F
100
AcDbVisualStyle
  2
GouraudWithEdges
 70
     3
 71
     2
 72
     2
 73
     1
 90
        2
 40
-0.6
 41
30.0
 62
     5
 63
     7
 74
     1
 91
        0
 64
     7
 65
   257
 75
     1
175
     1
 42
1.0
 92
        0
 66
   257
 43
1.0
 76
     1
 77
     6
 78
     2
 67
     7
 79
     5
170
     0
171
     0
290
     0
174
     0
 93
       13
 44
0.0
173
     0
291
     1
 45
0.0
1001
ACAD
1000
AcDbSavedByObjectVersion
1070
     0
  0
VISUALSTYLE
  5
8137
102
{ACAD_XDICTIONARY
360
8335
102
}
102
{ACAD_REACTORS
330
812F
102
}
330
812F
100
AcDbVisualStyle
  2
Hidden
 70
     6
 71
     1
 72
     2
 73
     2
 90
        0
 40
-0.6
 41
-30.0
 62
     5
 63
     7
 74
     2
 91
        2
 64
     7
 65
   257
 75
     2
175
     1
 42
40.0
 92
        0
 66
   257
 43
1.0
 76
     1
 77
     6
 78
     2
 67
     7
 79
     3
170
     0
171
     0
290
     0
174
     0
 93
        1
 44
0.0
173
     0
291
     0
 45
0.0
1001
ACAD
1000
AcDbSavedByObjectVersion
1070
     0
  0
VISUALSTYLE
  5
8145
102
{ACAD_XDICTIONARY
360
8351
102
}
102
{ACAD_REACTORS
330
812F
102
}
330
812F
100
AcDbVisualStyle
  2
JitterOff
 70
    20
 71
     2
 72
     2
 73
     0
 90
        0
 40
-0.6
 41
-30.0
 62
     5
 63
     7
 74
     1
 91
        4
 64
     7
 65
   257
 75
     1
175
     1
 42
1.0
 92
       10
 66
     7
 43
1.0
 76
     1
 77
     6
 78
     2
 67
     7
 79
     5
170
     0
171
     0
290
     0
174
     0
 93
        1
 44
0.0
173
     0
291
     1
 45
0.0
1001
ACAD
1000
AcDbSavedByObjectVersion
1070
     0
  0
VISUALSTYLE
  5
813D
102
{ACAD_XDICTIONARY
360
8341
102
}
102
{ACAD_REACTORS
330
812F
102
}
330
812F
100
AcDbVisualStyle
  2
Linepattern
 70
    14
 71
     2
 72
     2
 73
     0
 90
        0
 40
-0.6
 41
-30.0
 62
     5
 63
     7
 74
     1
 91
        4
 64
     7
 65
   257
 75
     7
175
     7
 42
1.0
 92
        8
 66
     7
 43
1.0
 76
     1
 77
     6
 78
     2
 67
     7
 79
     5
170
     0
171
     0
290
     0
174
     0
 93
        1
 44
0.0
173
     0
291
     1
 45
0.0
1001
ACAD
1000
AcDbSavedByObjectVersion
1070
     0
  0
VISUALSTYLE
  5
8146
102
{ACAD_XDICTIONARY
360
8353
102
}
102
{ACAD_REACTORS
330
812F
102
}
330
812F
100
AcDbVisualStyle
  2
OverhangOff
 70
    21
 71
     2
 72
     2
 73
     0
 90
        0
 40
-0.6
 41
-30.0
 62
     5
 63
     7
 74
     1
 91
        4
 64
     7
 65
   257
 75
     1
175
     1
 42
1.0
 92
        9
 66
     7
 43
1.0
 76
     1
 77
     6
 78
     2
 67
     7
 79
     5
170
     0
171
     0
290
     0
174
     0
 93
        1
 44
0.0
173
     0
291
     1
 45
0.0
1001
ACAD
1000
AcDbSavedByObjectVersion
1070
     0
  0
VISUALSTYLE
  5
8139
102
{ACAD_XDICTIONARY
360
8339
102
}
102
{ACAD_REACTORS
330
812F
102
}
330
812F
100
AcDbVisualStyle
  2
Realistic
 70
     8
 71
     2
 72
     3
 73
     0
 90
        2
 40
-0.6
 41
30.0
 62
     5
 63
     7
 74
     0
 91
        0
 64
     7
 65
   257
 75
     1
175
     1
 42
1.0
 92
        8
 66
   257
 43
1.0
 76
     1
 77
     6
 78
     2
 67
     7
 79
     3
170
     0
171
     0
290
     0
174
     0
 93
       13
 44
0.0
173
     0
291
     0
 45
0.0
1001
ACAD
1000
AcDbSavedByObjectVersion
1070
     0
  0
VISUALSTYLE
  5
8144
102
{ACAD_XDICTIONARY
360
834F
102
}
102
{ACAD_REACTORS
330
812F
102
}
330
812F
100
AcDbVisualStyle
  2
Shaded
 70
    27
 71
     2
 72
     2
 73
     1
 90
        2
 40
-0.6
 41
30.0
 62
     5
 63
     7
 74
     0
 91
        4
 64
     7
 65
   257
 75
     1
175
     1
 42
1.0
 92
        8
 66
   257
 43
1.0
 76
     1
 77
     6
 78
     2
 67
     8
 79
     3
170
     0
171
     0
290
     0
174
     0
 93
        5
 44
0.0
173
     0
291
     0
 45
0.0
1001
ACAD
1000
AcDbSavedByObjectVersion
1070
     0
  0
VISUALSTYLE
  5
8143
102
{ACAD_XDICTIONARY
360
834D
102
}
102
{ACAD_REACTORS
330
812F
102
}
330
812F
100
AcDbVisualStyle
  2
Shaded with edges
 70
    26
 71
     2
 72
     2
 73
     1
 90
        2
 40
-0.6
 41
30.0
 62
     5
 63
     7
 74
     1
 91
       10
 64
     7
 65
   257
 75
     2
175
     1
 42
1.0
 92
        8
 66
   257
 43
1.0
 76
     1
 77
     6
 78
     2
 67
     7
 79
     3
170
     0
171
     0
290
     0
174
     0
 93
        5
 44
0.0
173
     0
291
     0
 45
0.0
1001
ACAD
1000
AcDbSavedByObjectVersion
1070
     0
  0
VISUALSTYLE
  5
8140
102
{ACAD_XDICTIONARY
360
8347
102
}
102
{ACAD_REACTORS
330
812F
102
}
330
812F
100
AcDbVisualStyle
  2
Shades of Gray
 70
    23
 71
     2
 72
     2
 73
     3
 90
        0
 40
-0.6
 41
-30.0
 62
     5
 63
     7
 74
     2
 91
        2
 64
     7
 65
     7
 75
     1
175
     1
 42
40.0
 92
        8
 66
     7
 43
1.0
 76
     1
 77
     6
 78
     2
 67
     7
 79
     3
170
     0
171
     0
290
     0
174
     0
 93
        1
 44
0.0
173
     0
291
     0
 45
0.0
1001
ACAD
1000
AcDbSavedByObjectVersion
1070
     0
  0
VISUALSTYLE
  5
8141
102
{ACAD_XDICTIONARY
360
8349
102
}
102
{ACAD_REACTORS
330
812F
102
}
330
812F
100
AcDbVisualStyle
  2
Sketchy
 70
    24
 71
     1
 72
     2
 73
     2
 90
        0
 40
-0.6
 41
-30.0
 62
     5
 63
     7
 74
     2
 91
        2
 64
     7
 65
     7
 75
     1
175
     1
 42
40.0
 92
       11
 66
     7
 43
1.0
 76
     1
 77
     6
 78
     2
 67
     7
 79
     6
170
     0
171
     0
290
     0
174
     0
 93
        1
 44
0.0
173
     0
291
     0
 45
0.0
1001
ACAD
1000
AcDbSavedByObjectVersion
1070
     0
  0
VISUALSTYLE
  5
813C
102
{ACAD_XDICTIONARY
360
833F
102
}
102
{ACAD_REACTORS
330
812F
102
}
330
812F
100
AcDbVisualStyle
  2
Thicken
 70
    13
 71
     2
 72
     2
 73
     0
 90
        0
 40
-0.6
 41
-30.0
 62
     5
 63
     7
 74
     1
 91
        4
 64
     7
 65
   257
 75
     1
175
     1
 42
1.0
 92
       12
 66
     7
 43
1.0
 76
     1
 77
     6
 78
     2
 67
     7
 79
     5
170
     0
171
     0
290
     0
174
     0
 93
        1
 44
0.0
173
     0
291
     1
 45
0.0
1001
ACAD
1000
AcDbSavedByObjectVersion
1070
     0
  0
VISUALSTYLE
  5
8136
102
{ACAD_XDICTIONARY
360
8333
102
}
102
{ACAD_REACTORS
330
812F
102
}
330
812F
100
AcDbVisualStyle
  2
Wireframe
 70
     5
 71
     0
 72
     2
 73
     0
 90
        0
 40
-0.6
 41
-30.0
 62
     5
 63
     7
 74
     1
 91
        4
 64
     7
 65
   257
 75
     1
175
     1
 42
1.0
 92
        0
 66
   257
 43
1.0
 76
     1
 77
     6
 78
     2
 67
     7
 79
     3
170
     0
171
     0
290
     0
174
     0
 93
        1
 44
0.0
173
     0
291
     0
 45
0.0
1001
ACAD
1000
AcDbSavedByObjectVersion
1070
     0
  0
VISUALSTYLE
  5
8142
102
{ACAD_XDICTIONARY
360
834B
102
}
102
{ACAD_REACTORS
330
812F
102
}
330
812F
100
AcDbVisualStyle
  2
X-Ray
 70
    25
 71
     2
 72
     2
 73
     1
 90
        1
 40
0.5
 41
-30.0
 62
     5
 63
     7
 74
     1
 91
        0
 64
     7
 65
   257
 75
     1
175
     1
 42
1.0
 92
        8
 66
     7
 43
1.0
 76
     1
 77
     6
 78
     2
 67
     7
 79
     3
170
     0
171
     0
290
     0
174
     0
 93
       13
 44
0.0
173
     0
291
     0
 45
0.0
1001
ACAD
1000
AcDbSavedByObjectVersion
1070
     0
  0
DICTIONARYVAR
  5
81CF
102
{ACAD_REACTORS
330
81CA
102
}
330
81CA
100
DictionaryVariables
280
     0
  1
1:1
  0
DICTIONARYVAR
  5
81CC
102
{ACAD_REACTORS
330
81CA
102
}
330
81CA
100
DictionaryVariables
280
     0
  1
STANDARD
  0
DICTIONARYVAR
  5
81CB
102
{ACAD_REACTORS
330
81CA
102
}
330
81CA
100
DictionaryVariables
280
     0
  1
STANDARD
  0
DICTIONARYVAR
  5
81CD
102
{ACAD_REACTORS
330
81CA
102
}
330
81CA
100
DictionaryVariables
280
     0
  1
Imperial24
  0
DICTIONARYVAR
  5
81CE
102
{ACAD_REACTORS
330
81CA
102
}
330
81CA
100
DictionaryVariables
280
     0
  1
Imperial24
  0
DICTIONARYVAR
  5
81D2
102
{ACAD_REACTORS
330
81CA
102
}
330
81CA
100
DictionaryVariables
280
     0
  1
1
  0
DICTIONARYVAR
  5
81D1
102
{ACAD_REACTORS
330
81CA
102
}
330
81CA
100
DictionaryVariables
280
     0
  1
0
  0
DICTIONARYVAR
  5
81D0
102
{ACAD_REACTORS
330
81CA
102
}
330
81CA
100
DictionaryVariables
280
     0
  1
127
  0
DICTIONARYVAR
  5
81D3
102
{ACAD_REACTORS
330
81CA
102
}
330
81CA
100
DictionaryVariables
280
     0
  1
2
  0
DICTIONARY
  5
835B
330
8170
100
AcDbDictionary
280
     1
281
     1
  3
ACAD_XREC_ROUNDTRIP
360
835C
  0
DICTIONARY
  5
835F
330
8178
100
AcDbDictionary
280
     1
281
     1
  3
ACAD_XREC_ROUNDTRIP
360
8360
  0
DICTIONARY
  5
835D
330
8174
100
AcDbDictionary
280
     1
281
     1
  3
ACAD_XREC_ROUNDTRIP
360
835E
  0
DICTIONARY
  5
8120
330
811F
100
AcDbDictionary
280
     1
281
     1
  3
ACAD_XREC_ROUNDTRIP
360
8325
  3
BUMPTILE
360
8122
  3
DIFFUSETILE
360
8121
  3
OPACITYTILE
360
8125
  3
REFLECTIONTILE
360
8124
  3
REFRACTIONTILE
360
8126
  3
SPECULARTILE
360
8123
  0
DICTIONARY
  5
8118
330
8117
100
AcDbDictionary
280
     1
281
     1
  3
ACAD_XREC_ROUNDTRIP
360
8324
  3
BUMPTILE
360
811A
  3
DIFFUSETILE
360
8119
  3
OPACITYTILE
360
811D
  3
REFLECTIONTILE
360
811C
  3
REFRACTIONTILE
360
811E
  3
SPECULARTILE
360
811B
  0
DICTIONARY
  5
8128
330
8127
100
AcDbDictionary
280
     1
281
     1
  3
ACAD_XREC_ROUNDTRIP
360
8326
  3
BUMPTILE
360
812A
  3
DIFFUSETILE
360
8129
  3
FBXASSET
360
8242
  3
OPACITYTILE
360
812D
  3
REFLECTIONTILE
360
812C
  3
REFRACTIONTILE
360
812E
  3
SPECULARTILE
360
812B
  0
DICTIONARY
  5
8359
330
816E
100
AcDbDictionary
280
     1
281
     1
  3
ACAD_XREC_ROUNDTRIP
360
835A
  0
DICTIONARY
  5
8320
330
816A
100
AcDbDictionary
280
     1
281
     1
  3
ACAD_ROUNDTRIP_2008_TABLESTYLE_CELLSTYLEMAP
360
8321
  3
ACAD_XREC_ROUNDTRIP
360
8357
  0
DICTIONARY
  5
8331
330
8135
100
AcDbDictionary
280
     1
281
     1
  3
ACAD_XREC_ROUNDTRIP
360
8332
  0
DICTIONARY
  5
832F
330
8134
100
AcDbDictionary
280
     1
281
     1
  3
ACAD_XREC_ROUNDTRIP
360
8330
  0
DICTIONARY
  5
833D
330
813B
100
AcDbDictionary
280
     1
281
     1
  3
ACAD_XREC_ROUNDTRIP
360
833E
  0
DICTIONARY
  5
8345
330
813F
100
AcDbDictionary
280
     1
281
     1
  3
ACAD_XREC_ROUNDTRIP
360
8346
  0
DICTIONARY
  5
8337
330
8138
100
AcDbDictionary
280
     1
281
     1
  3
ACAD_XREC_ROUNDTRIP
360
8338
  0
DICTIONARY
  5
833B
330
813A
100
AcDbDictionary
280
     1
281
     1
  3
ACAD_XREC_ROUNDTRIP
360
833C
  0
DICTIONARY
  5
8355
330
8147
100
AcDbDictionary
280
     1
281
     1
  3
ACAD_XREC_ROUNDTRIP
360
8356
  0
DICTIONARY
  5
8343
330
813E
100
AcDbDictionary
280
     1
281
     1
  3
ACAD_XREC_ROUNDTRIP
360
8344
  0
DICTIONARY
  5
8327
330
8130
100
AcDbDictionary
280
     1
281
     1
  3
ACAD_XREC_ROUNDTRIP
360
8328
  0
DICTIONARY
  5
8329
330
8131
100
AcDbDictionary
280
     1
281
     1
  3
ACAD_XREC_ROUNDTRIP
360
832A
  0
DICTIONARY
  5
832B
330
8132
100
AcDbDictionary
280
     1
281
     1
  3
ACAD_XREC_ROUNDTRIP
360
832C
  0
DICTIONARY
  5
832D
330
8133
100
AcDbDictionary
280
     1
281
     1
  3
ACAD_XREC_ROUNDTRIP
360
832E
  0
DICTIONARY
  5
8335
330
8137
100
AcDbDictionary
280
     1
281
     1
  3
ACAD_XREC_ROUNDTRIP
360
8336
  0
DICTIONARY
  5
8351
330
8145
100
AcDbDictionary
280
     1
281
     1
  3
ACAD_XREC_ROUNDTRIP
360
8352
  0
DICTIONARY
  5
8341
330
813D
100
AcDbDictionary
280
     1
281
     1
  3
ACAD_XREC_ROUNDTRIP
360
8342
  0
DICTIONARY
  5
8353
330
8146
100
AcDbDictionary
280
     1
281
     1
  3
ACAD_XREC_ROUNDTRIP
360
8354
  0
DICTIONARY
  5
8339
330
8139
100
AcDbDictionary
280
     1
281
     1
  3
ACAD_XREC_ROUNDTRIP
360
833A
  0
DICTIONARY
  5
834F
330
8144
100
AcDbDictionary
280
     1
281
     1
  3
ACAD_XREC_ROUNDTRIP
360
8350
  0
DICTIONARY
  5
834D
330
8143
100
AcDbDictionary
280
     1
281
     1
  3
ACAD_XREC_ROUNDTRIP
360
834E
  0
DICTIONARY
  5
8347
330
8140
100
AcDbDictionary
280
     1
281
     1
  3
ACAD_XREC_ROUNDTRIP
360
8348
  0
DICTIONARY
  5
8349
330
8141
100
AcDbDictionary
280
     1
281
     1
  3
ACAD_XREC_ROUNDTRIP
360
834A
  0
DICTIONARY
  5
833F
330
813C
100
AcDbDictionary
280
     1
281
     1
  3
ACAD_XREC_ROUNDTRIP
360
8340
  0
DICTIONARY
  5
8333
330
8136
100
AcDbDictionary
280
     1
281
     1
  3
ACAD_XREC_ROUNDTRIP
360
8334
  0
DICTIONARY
  5
834B
330
8142
100
AcDbDictionary
280
     1
281
     1
  3
ACAD_XREC_ROUNDTRIP
360
834C
  0
XRECORD
  5
835C
102
{ACAD_REACTORS
330
835B
102
}
330
835B
100
AcDbXrecord
280
     1
102
DISPLAYNAME
  1
Imperial24
102
FLAGS
 90
        0
  0
XRECORD
  5
8360
102
{ACAD_REACTORS
330
835F
102
}
330
835F
100
AcDbXrecord
280
     1
102
SHADEPLOT
 70
     0
102
SHADEPLOTRESLEVEL
 70
     2
102
SHADEPLOTCUSTOMDPI
 70
   300
  0
XRECORD
  5
835E
102
{ACAD_REACTORS
330
835D
102
}
330
835D
100
AcDbXrecord
280
     1
102
SHADEPLOT
 70
     0
102
SHADEPLOTRESLEVEL
 70
     2
102
SHADEPLOTCUSTOMDPI
 70
   300
  0
XRECORD
  5
8325
102
{ACAD_REACTORS
330
8120
102
}
330
8120
100
AcDbXrecord
280
     1
102
MATERIAL
148
0.0
149
0.0
149
0.0
 93
        0
 94
      127
282
     0
 72
     0
 77
     0
171
     0
175
     0
179
     0
273
     0
  0
XRECORD
  5
8122
102
{ACAD_REACTORS
330
8120
102
}
330
8120
100
AcDbXrecord
280
     1
270
     1
271
     1
  0
XRECORD
  5
8121
102
{ACAD_REACTORS
330
8120
102
}
330
8120
100
AcDbXrecord
280
     1
270
     1
271
     1
  0
XRECORD
  5
8125
102
{ACAD_REACTORS
330
8120
102
}
330
8120
100
AcDbXrecord
280
     1
270
     1
271
     1
  0
XRECORD
  5
8124
102
{ACAD_REACTORS
330
8120
102
}
330
8120
100
AcDbXrecord
280
     1
270
     1
271
     1
  0
XRECORD
  5
8126
102
{ACAD_REACTORS
330
8120
102
}
330
8120
100
AcDbXrecord
280
     1
270
     1
271
     1
  0
XRECORD
  5
8123
102
{ACAD_REACTORS
330
8120
102
}
330
8120
100
AcDbXrecord
280
     1
270
     1
271
     1
  0
XRECORD
  5
8324
102
{ACAD_REACTORS
330
8118
102
}
330
8118
100
AcDbXrecord
280
     1
102
MATERIAL
148
0.0
149
0.0
149
0.0
 93
        0
 94
      127
282
     0
 72
     0
 77
     0
171
     0
175
     0
179
     0
273
     0
  0
XRECORD
  5
811A
102
{ACAD_REACTORS
330
8118
102
}
330
8118
100
AcDbXrecord
280
     1
270
     1
271
     1
  0
XRECORD
  5
8119
102
{ACAD_REACTORS
330
8118
102
}
330
8118
100
AcDbXrecord
280
     1
270
     1
271
     1
  0
XRECORD
  5
811D
102
{ACAD_REACTORS
330
8118
102
}
330
8118
100
AcDbXrecord
280
     1
270
     1
271
     1
  0
XRECORD
  5
811C
102
{ACAD_REACTORS
330
8118
102
}
330
8118
100
AcDbXrecord
280
     1
270
     1
271
     1
  0
XRECORD
  5
811E
102
{ACAD_REACTORS
330
8118
102
}
330
8118
100
AcDbXrecord
280
     1
270
     1
271
     1
  0
XRECORD
  5
811B
102
{ACAD_REACTORS
330
8118
102
}
330
8118
100
AcDbXrecord
280
     1
270
     1
271
     1
  0
XRECORD
  5
8326
102
{ACAD_REACTORS
330
8128
102
}
330
8128
100
AcDbXrecord
280
     1
102
MATERIAL
148
0.0
149
0.0
149
0.0
 93
        0
 94
      127
282
     0
 72
     0
 77
     0
171
     0
175
     0
179
     0
273
     0
  0
XRECORD
  5
812A
102
{ACAD_REACTORS
330
8128
102
}
330
8128
100
AcDbXrecord
280
     1
270
     1
271
     1
  0
XRECORD
  5
8129
102
{ACAD_REACTORS
330
8128
102
}
330
8128
100
AcDbXrecord
280
     1
270
     1
271
     1
  0
XRECORD
  5
8242
102
{ACAD_REACTORS
330
8128
102
}
330
8128
100
AcDbXrecord
280
     1
 70
     1
 90
1959938040
 71
     1
  1
1B5944E4-05FF-4C60-A2B5-E8380D409356
311
504B0304140006080800557E6E57B1196B04DA000000200100004F00000031443736333237382D424333422D343336342D393633382D3846314544313345353232302F4173736574446174612F446566696E6974696F6E4974657261746F7250726F706572746965732E62696E454E3D4FC33010350C200606FE41D5DD3871
311
D286446D915C474CB0B4134B7575AE2592935471223132F2AFE14E14F5A477EF3EDFDDB710E2E76C148A2BC217F97BE2176CB1AFDDC67D6003E2862BBEDB83BFBDF4AE29E4D4E201463FF0D66B1D1C7A0F2D766378B88C4E1A18480EFC232FDD11FE0B81158E7FC7F8FE1B815F6286EA543C4308382CD561FFA94C99CDCB75
311
92CBC49A5CA6596EA5C9F45C464FD69A325DE73A33AAC7D08DBDC3A0B48A7667E5DDA93DD6D56A31D40D4E5A687039753DD24FD574A5239DC8389671BA8D67C52C2AD2E47DA178F217504B0304140006080800557E6E57D3AF37A617010000300200004500000031443736333237382D424333422D343336342D393633382D
311
3846314544313345353232302F4173736574446174612F496E7374616E636550726F706572746965732E62696EEB606060F80F0540260323103700495E20ED9E9A975A94991C9C9C919A9BA80214307432B534317135D135307573D335713633D075347232D575B530B630703131B0343635634768046931363471713532B5
311
D435353131D635313332D475727372D13534373670367376B67474B5042A03DBCBA019D37FE8ABC6157B20CD04146B0062181F4C03F940F0C11EA29A8141C08141002C0426541C106CAC2CA046088033B02A030AC2157C6006F21A8018AAF50194E6010A610250382264E08660284CD9E98021862280A91564B406929A0FF6
311
2C401E28B6F88038B83CB1243943D7A928312F25350524F3C36AC3836B40E92F1610FA8319847E6302A15F1841E8270610FA811E84BEA303A16F6841E82B1A10FA821A840600504B0304140006080800557E6E5728BB58AF800100009E0500003D00000031443736333237382D424333422D343336342D393633382D384631
311
4544313345353232302F536368656D61732F436F6D6D6F6E536368656D612E786D6CBD544D4FC23018BEFB2B96DE15493C78601010A34B880709DEDFB52FD0D8B54BD70DF6EFED3AC0B12E6442E2716BFB3CEFF3D18E26FB440405EA8C2B1992E1C323095052C5B8DC842437EBFB673219DF8DA659866649B798C078B48AE6
311
410122242F2A4994AC7F93815DF85C049C8564CA0A901499DD886B2EB9B1E02448F358701A9235880C49A0119892A20C89D1B9FD768815CAD268CB5E0355B40B1E47F3E37A2020464BED06AA57CE8FCC20C3C3446D46761A2632A8C1283D07031EFF2AE7CCB1BFEEE916E406DFAC8E36FFD99A9D60A6944090EEDC3B670C7D
311
C13DE86B6B2C5C240D6E503BB85ACD579D513F1B9F9A69DC9CC22AFA80C426D40AF0B21EA168559156B6276F0F726A6BFF04DCD513A87A62CAD41FB24FCB2858B3952E3D852084DA25B9303C15687973CC8E8AAE11DF2836C38C6A9E765E8C1BA1BFB1DC29CDFE518C8B5A7655A4ED7E77291ABEB80DBD82EC866ADE1B8D05
311
AF9E35CF09D7A061F38A986D9EC412B8F0F65E5D81534D9B231D1E5A8FE577A241F3A5FD01504B0304140006080800557E6E572CCEBD668A040000E01200003E00000031443736333237382D424333422D343336342D393633382D3846314544313345353232302F536368656D61732F47656E65726963536368656D612E78
311
6D6CD5586D6FDB380CFE7EBF42F0F7A649B70E1B90744856B4970F450FCD7A5F05459613EDE4174872DADCAF3F522F8ED3B88D2F1D06AC4050DBA2493EE4438AF2F8EB73AEC8466823CB62928C06C384888297A92C5693A4B6D9D9E7E4EBD51FE3A931C22EF85AE4EC6AFC38BF261BA626C9AD288496DC3F4FCEAFC6336684
311
5F7A10452AF41DB320C0D44EC26EAB20918735565582695670811A6A49643A49A6E9069FA4604A64B29016DC4B48552F95E4932463CA888468C1D2B250DB4962750DF7CE273069CE8363F1FF4EDB00E0A21999574AE4A2B00C353B93F3BD4777B8A61ED8F604ABFEDD79CE56A2B7BDFBDBC50996E0ADDE16FED26223C5D309
311
56C29BDF4A55EA686E5E58B112DA45CE67F76F4FA27EFA3FB672FD7372FC388FAECDCA5209E693CAD167BADCD272F943701B3812F8A3D852008B1D2E32DB927B2F833C6EA95879925356D254582695095A3CE982924720BE5774A3CB9CDCDB350427D2DF20DA1B5532EBE2D5D6288D75D4F7E4FD9890A0EF8E3D93EBB8F8BA
311
4758158EF6FB90A6F9520281C93DE7AAC6D24607DA296BB96018123F821A7D6A5C5884050C475DA4865442732C8B95684A50165CBB3A32F25F783A4A480ED59AD7F924B968AEA50131F46303223E6A397B0E52976030DC1DCA81D7E7C1EDEEA42C19FF27635C505E2BD5198A599020DF50A2330FCB3AAF28CB012410842955
311
3EF1B228802E2265D8F7CC2401042B155BCC7070F1E5C55F13B4A9577362CCCE46C32174E010C3C378C44841A4BDA00FE3A12006CE11EE6AEC59894D3526DDE1CD59D503ECC324017F8061B7F162162FA62EDD81AE3308617770796DCBDAD2B2625C5AE8A63DE20B2C8AA5E95E76E5730823955956E33E705425A2187C185D
311
36489A1B44D3DCEC2172F6BA2105C3546287A7194B2331768EBBE64F6E70A9930ABE0ADEA89E9E2C38523B810287AD67A54A039C1606EAFE68F8304610BB9093DBDDABC0B2AE4E290DCDA15376D7E39F72B556F0B32EAB5D3D498B4C41ABADEC3A1434C422D87E8025A84BDCB2B1417ED750FAE4DA8976863974C577C7F902
311
D3F156AD354DEA3540DE6BEAE2BEA52F7A2EB4CA43802ECE5BF2CE2EDC9347179FFB023CE412E60BE16DA0BE29B374988A553F561DC04615DD35F7D2C8979F60E5955CE93DF29DED8AFA1EE6642D53418086C03C47C377910F75F7E8F5EF665F70B60FFB22AEDF897D119E8423C773E819A3C1E55E550599EE6EDCA34D0C86
311
FD72057DF2CD46F16A470682471C164E4346D5306BF12D7D12D82CFF673D41636C347443FEB51B50D72EA171A8E4A58623A4A16E0FA2B8B10A0D23268D87C33896EE8FB73305A74BF224EDBADFA0BD674AB354D63DB7BD5D83426761C077DE767728235446A552754EB93B755891C3C4CC6CADE37CF0E912A7BB38DBA010F9
311
DE1282EDF470CA69A9CDA482E334C4A6EA4107987980B17E72F31730EBF88BBD39E7C629F56797A3C0009C2C5AE7951D9A05A02773440F02EEB4DE396A3B6A570C72CCFBCD823B0B8ED3F1D5CEDDFED772FA70236C83FB7D86C385D570B87107535572A60A96035F8F7C6A7192F13007246BBE0521855E6AC46F3E27689CEE
311
7D186A6FD679D98CDCAD13333E04EBE7ED6F55FF01504B0304140006080800557E6E576180134D5F0100006B0300004500000031443736333237382D424333422D343336342D393633382D3846314544313345353232302F536368656D61732F52656E6465724D6174657269616C536368656D612E786D6CA5934D6FC2300C
311
86EFFB1551EEE343DBA41D1A103009551ADAD40EAE28A4A68D9426284961FCFBE5A340113B2071746D3F765EBF4DC6BFB5407BD0862B49F0B037C0082453059725C18DDD3EBFE3F1E829991803366715D474942CD30FB4A782E00C64017A412D684E454CE3FE28995203B162A6EA5AC94B66997D225E109CD63B0135484BAD
311
1B3C07E9080CA35DB3119C11BCA5C200461A68A1A438126C75E3E230D40FF81FB3F03C91D1E3A3A0AF79FE28E25BC39EC3E17E4C2A2D94A0833A51AF55BCCA7D88572FCBAC529C4140B020FC3AAFA886621DCED7EAD7664CC86024E806DC297DA1BB393E4156543457A4537DB8817349A70F8ACBF09B3EEE2CB2F33E91B65D
311
60786E4E3B39B77E3FEEEF5650424525DA657FB8B46BE6BF064646F0A0F7327C0BC1BC1B4CBBC1C419FA3CCB23500007872A2580CAAE5461865565294E4EDB4617B62FF579DF9A5B2F54E834076A597573A020912FED777F9B3F504B0304140006080800557E6E57F186A70B51000000570000004700000031443736333237
311
382D424333422D343336342D393633382D3846314544313345353232302F4173736574446174612F41737365745461626C654F66436F6E74656E74732E62696E53616060307432B534317135D135307573D335713633D075347232D575B530B630703131B03436351302AACB4D2C492DCA4CCC492C28484D2C4ACC4B4E050A
311
82012F90744FCD03CA26072767A4E6260200504B0304140006080800557E6E57F865834058000000680000004500000031443736333237382D424333422D343336342D393633382D3846314544313345353232302F4173736574446174612F53747265616D56657273696F6E5461626C652E696E66558CBD0A80300C06F73E
311
4B117FB66E451741D041DC5BF98480A492E4FDD18EAEC7DD4555D89EF28DF51A0B1BD8340C4DE7DD848B988C0ACF0649566493F2408C508DDEBB99D5129FF8F1AF8CF5B9503E20FAE5A16B5AF702504B0304140006080800557E6E577E57A516350100009A0400003600000031443736333237382D424333422D343336342D
311
393633382D3846314544313345353232302F4173736574446174612F636E782E786D6CCD943F4FC33010C5BF4AE43D76D23F12AA1C5708964E205131B05D9D4BB1EAD8917D41F0EDB1D30CA022A60E5DCFEFCECF3FF99DDC7EF6B6F8C0108D770DAB79C50A74DAB7C61D1B365257DEB162AB64F09E7EC858E1A0C786E53253
311
F218FC38CCA5163B186DAE5AE34E73F13E46A43D1C2C3E750FDE113A8AACD016626C58D4EFD80387917C8BF1C45B20E0350F18FD1834A649647A9C27E98040D832B5A816CBB2AECB7AB5AFD79B75B5592DDFA4C84A250FDEDB596FD265C10F853EDFCA5425453E56720C66D6E4B730F597477E304E8AA4543252484CE60EFA
311
1A52070C83351A28A1135E1352994408BD1467B1922233F845E2113BE34C6ED92563403E3C277B18C8E0CD11F9CFEBF5C9EC5C24701A6F97C7A5C3EB5378997ED0EB399053626E2D27970EB971DD155222A635924293B78AFA06504B0304140006080800557E6E572F837133080100004F0300003400000031443736333237
311
382D424333422D343336342D393633382D3846314544313345353232302F536368656D61732F636E782E786D6CCD933B4F04211485FFCA847E61D84762360C5B5858D9A8951DC2DD952C70273C8CFE7B61A4D84DECB4D80E0E5FC839878B387C7A377C404C16C344381DC90041A3B1E13491928FAB3B321CA48888F9022343
311
501E26D26422C5296299BB64E0A88A6BAAB3E1DCC57BF41EC3B37E07AFC8A09D4A692269D95255321A48676A545694D308094BD4506FC8D643BF414750190C91EB71BD5971BEE2DB17BEDBEFC6FD76F32A5823A57843749DB72143C479D05817A1DA19056BC75294683BD3321079E98DD63604AB841429C7DA4127F3D75C49
311
35CFCE6A956B556C017F1829588B7A15F8010244AB6F33F195B97F8BFC04C1407CACAF14AD72B799FC378F7F2B802DB35F47A07D05F90D504B0304140006080800557E6E57410A3D5871000000A40000002C00000031443736333237382D424333422D343336342D393633382D3846314544313345353232302F636E782E78
311
6D6C55CC4D0E82301086E1AB34B31774E7A22D31F1069E60020334B633A63FC6E34B0909B07DDE2F9FEE7EC1AB2FC5E4840DDC9A2B28E25E06C7938192C7CB1D54677514C9871928C640062A83D55394F2D968A0118BAFEA1DBF377CA444F98919176EAB9FEAAB9F2960DA5BBB1E2ED3FA6FFF504B0304140006080800557E
311
6E57FA34C8647E000000A300000007000000636E782E786D6C4D8CD10E822018465F85FDF79480216D809B69EFE1121D13A191B41E3F685E74F56D67DF39B2FD6C0EBD4D7CD9E015905305C8F84798AC5F14A47DC60250AB650C61FFBB01F2E36614140C5A2E31A4E78126338FC915EAAC5F0F48FA8633DA08DCDD58876BC6
311
6B7CE54C607127434FD870A1B4CAC6B928797EBDBC25AFBF504B0304140006080800557E6E5716E99B5DA600000035010000130000005B436F6E74656E745F54797065735D2E786D6C9590410E82301045AFD2740F4517C6180A0BF5065E60AC53688469D30E066F6F91AD9AB89CF9FFFD3F99BA9DC7413C3026E749CB4D59
311
498164FCCD51A7E5C4B6D84BD136F5E5193089ECA5A465CF1C0E4A25D3E308A9F401292BD6C711388FB15301CC1D3A54DBAADA29E38991B8E0254336F5092D4C038BF39CD76B6FC6A538AEBEA54A4B08617006389FA516557DE4AE8E7E70DE30729138228C5F021CD93F02D4FB0DCD0B504B0304140006080800557E6E573D
311
EE336E64000000790000001B0000006175746F6465736B2D64657369676E2D7061636B6167652E786D6C35CBC10E83200C00D05F21DCA56CA76D41FC96062B120735B69A7DBE268BB7777961F8D5AF396893C2ADB70FE7ADA196782C2DF776D7A97B5933C430F15651E5469C55D70F80A4992A3ADC954792C525AE70A1E4D6
311
AD9816CC044FEFDF01FE3FDE907802504B0304140006080800557E6E5712E9E98BF8000000960100003700000031443736333237382D424333422D343336342D393633382D3846314544313345353232302F4173736574446174612F636F72652E786D6C8550CB6E833010FC15B47703B681A2C838A2A1FD829E7AB38C43AD
311
041BF951F5F36B072AB5A79E76353B33BB3BECFCB5DE8B4FE5BCB666005CD6502823EDACCD32400C57D44371E6CC591B7ED1A0306255036418385B9C8DDB01496B8232193576560728BC57010A794FCD005E7EA855942286C4F0B77213F2261655E272E77116A39E0FA99E939BBE6AE58053D28DE3D410F4DA3DBFA0A62304
311
F5974B8BFAAE9E7ADA53D28C4FACCA62CE825E7FB64BA74450337052138A3046B879C3EDA9AD4F0D7D67556672E6834B3F1F4BF377C0C77CF5248260D53EFDE31AB7F97FD7A84DA0E470DD151E384E473E069C5539A5541E11A69A13E5DF504B0304140006080800557E6E57171733C2F80000009401000035000000314437
311
36333237382D424333422D343336342D393633382D3846314544313345353232302F536368656D61732F636F72652E786D6C8550CB6E833010FC15B47703B681A2C838A249FB03EDA937CB38C44AB0911F553FBF36A1527BEA6957B333B3BBC38E5FCBBDF854CE6B6B06C0650D8532D24EDACC03C470413D1447CE9CB5E117
311
0D0A231635408681B3D9D9B8EE90B4262893516327B583C27B15A090F7D40CE0E5552DA214312486BF95AB903731AB12970F1E6731EA6997EA29B9E98B560E3825DD389E1B825EBBE717D47484A0FE746A51DFD5E79EF69434E313ABB298B3A0979FEDD22911D4049CD484228C116EDE717B68EB43433F5895999CF9E0D2CF
311
FBD2FC1DF0B7ED4ECFAAC7EC8F675CA7FF3DA3368192DDF3A1F0C0713A711B7056E58C52D9024C35E7C9BF01504B0304140006080800557E6E57ACB5393401010000D70100002D00000031443736333237382D424333422D343336342D393633382D3846314544313345353232302F636F72652E786D6C9591C17283201086
311
5FC5D93B2AA0C66690CCA4499FA0A7DEA86C0C93088E60A78F5FA876DADEDA13CCCFF7EFF2EF8AC3FB78CFDE70F6C6D90E685E4286B677DAD8A183255C480BD9418AD9B9F00383CCAA113B48324831CC6E9936A97736A04DAA751A3751798F01B2FE1E2F1DF8FE8AA3CAD51222E16FF9A4FA9B1A30A7F9CA4911CCF865ED67
311
5401354856324E2825B47AA6F5BE2EF7157F114522A5588C0D9C6DCD707C459DB929C448206B51ACAF915A8CDE18A3E31FCDC5E00C929E760D67BB961C1FF99154BCA9C843C35BD23ED1F389F273CD58198B44B3143ECC71325B913483BFDA57E3AF64CBA4FF996C75F8D8F33B5491C62C45F1B98378A695C80F504B030414
311
0006080800557E6E5779DC2F2E07010000B201000008000000636F72652E786D6C8D50C16E842014FC15F2EEA8805AB3413676B7FD829E7AA3C2BA64158CE0A6FDFBC26A93F6D6D32333F3DE0CC38F9FD388EE7AF1C6D916485600D2B677CAD8A185355C7003E828F8E25CF8250364E5A45B4830083E2C6E9D77A87736689B
311
50EB94DE41E9BD0E80FA313E5AF0FD554F32936B880A7FCB66D9DFE4A033926D3AC183997E56FB45CBA015085A508609C1A47C23D5A12A0E257BE779520ABEAE46ED5646457773317A01C168DD75E792E2D7FAF9059735A5B8399D2ADCD4C5B9610DA365F7C4F3B42CB80F4BFCF37E24E60CC8CB7BF2E5F94609FEE1DCB80B
311
6228859C1DBF40143C4FC49FD0EBACFE11DAD8C0E87E70DBF020480CF420A2716A308E47BD71A6B6C537504B01021400140006080800557E6E57B1196B04DA000000200100004F000000000000000000000000000000000031443736333237382D424333422D343336342D393633382D3846314544313345353232302F4173
311
736574446174612F446566696E6974696F6E4974657261746F7250726F706572746965732E62696E504B01021400140006080800557E6E57D3AF37A6170100003002000045000000000000000000000000004701000031443736333237382D424333422D343336342D393633382D3846314544313345353232302F41737365
311
74446174612F496E7374616E636550726F706572746965732E62696E504B01021400140006080800557E6E5728BB58AF800100009E0500003D00000000000000000000000000C102000031443736333237382D424333422D343336342D393633382D3846314544313345353232302F536368656D61732F436F6D6D6F6E5363
311
68656D612E786D6C504B01021400140006080800557E6E572CCEBD668A040000E01200003E000000000000000000000000009C04000031443736333237382D424333422D343336342D393633382D3846314544313345353232302F536368656D61732F47656E65726963536368656D612E786D6C504B010214001400060808
311
00557E6E576180134D5F0100006B03000045000000000000000000000000008209000031443736333237382D424333422D343336342D393633382D3846314544313345353232302F536368656D61732F52656E6465724D6174657269616C536368656D612E786D6C504B01021400140006080800557E6E57F186A70B510000
311
00570000004700000000000000000000000000440B000031443736333237382D424333422D343336342D393633382D3846314544313345353232302F4173736574446174612F41737365745461626C654F66436F6E74656E74732E62696E504B01021400140006080800557E6E57F865834058000000680000004500000000
311
000000000000000000FA0B000031443736333237382D424333422D343336342D393633382D3846314544313345353232302F4173736574446174612F53747265616D56657273696F6E5461626C652E696E66504B01021400140006080800557E6E577E57A516350100009A0400003600000000000000000000000000B50C00
311
0031443736333237382D424333422D343336342D393633382D3846314544313345353232302F4173736574446174612F636E782E786D6C504B01021400140006080800557E6E572F837133080100004F03000034000000000000000000000000003E0E000031443736333237382D424333422D343336342D393633382D3846
311
314544313345353232302F536368656D61732F636E782E786D6C504B01021400140006080800557E6E57410A3D5871000000A40000002C00000000000000000000000000980F000031443736333237382D424333422D343336342D393633382D3846314544313345353232302F636E782E786D6C504B010214001400060808
311
00557E6E57FA34C8647E000000A3000000070000000000000000000000000053100000636E782E786D6C504B01021400140006080800557E6E5716E99B5DA6000000350100001300000000000000000000000000F61000005B436F6E74656E745F54797065735D2E786D6C504B01021400140006080800557E6E573DEE336E
311
64000000790000001B00000000000000000000000000CD1100006175746F6465736B2D64657369676E2D7061636B6167652E786D6C504B01021400140006080800557E6E5712E9E98BF80000009601000037000000000000000000000000006A12000031443736333237382D424333422D343336342D393633382D38463145
311
44313345353232302F4173736574446174612F636F72652E786D6C504B01021400140006080800557E6E57171733C2F8000000940100003500000000000000000000000000B713000031443736333237382D424333422D343336342D393633382D3846314544313345353232302F536368656D61732F636F72652E786D6C50
311
4B01021400140006080800557E6E57ACB5393401010000D70100002D000000000000000000000000000215000031443736333237382D424333422D343336342D393633382D3846314544313345353232302F636F72652E786D6C504B01021400140006080800557E6E5779DC2F2E07010000B2010000080000000000000000
311
00000000004E160000636F72652E786D6C504B050600000000110011005A0600007B1700000000
310
504B0304140006080800557E6E57000000000000000000000000370000006662782F44444339384430422D443936462D343633412D394145462D3330363834463038453434352F617474726962757465732E62696E504B0304140006080800557E6E57000000000000000000000000350000006662782F4444433938443042
310
2D443936462D343633412D394145462D3330363834463038453434352F76657274696365732E62696E504B0304140006080800557E6E57F270F1330600000004000000360000006662782F44444339384430422D443936462D343633412D394145462D3330363834463038453434352F747269616E676C65732E62696E6366
310
60600000504B0304140006080800557E6E5751464CB48900000043010000360000006662782F44444339384430422D443936462D343633412D394145462D3330363834463038453434352F6469726563746F72792E786D6C9D8F310EC2300C45AF127987122606C71DD918B841D4B851A43646695A717C52A85029031293A5
310
A76FBF6FACEF7DA7264E43906840EF0FA03836E242F406C6DCEE4EA06AC22492573150D1F66C60C640E8938CB705396EEDD86DE9B5042FE27813D640EA63BB001C722AF6E55CB61E4863F58284D5D3F53DD715CE1C3985E63FD7F1B7EBDD617E9F1E504B0304140006080800557E6E57C09337743D070000201C0000340000
310
006662782F44444339384430422D443936462D343633412D394145462D3330363834463038453434352F6F626A656374732E786D6CDD59596FDB3810FE2B84F665F74197AFD885E322B693C228D21635BAD837819669871BEA002525CEFEFA1D52A42C2AB2ADF400169B00B14391C3996FEED1F4FD2162E889F08C26F1B5E5
310
3B9E85481C265B1AEFAFAD22DFD9630BBD9FA1294F92BCB6CF42318EC8B52596ADD974CF9322554B5BB2C3056BAEDECDFF4259486262A190E12CBBB6B2F08144D8C1459E6C49F6E86C718E9DFDEEE0F84EB9D124BBE7387D685C95624EE21C5885F518A8280E7CF35F10C99D4D5DB1C1D8D6EFB6AD77669B2B053719A57196
310
E3387CC555E3BADE09AE1AD7F5FDC1F2B6379CD8C3C1A06F0F463DDF9EDFCD97B67FD5F716A3C56272733BB1D06CBA491256292025F116B4F862CDFCA92B9E54E22B14DAF80E933826A142B36DC39628BA94644D4C0C607D295A4D21A5ACB5857E47E14F6CEB048AC19281B6164E7FD6AD37D9FC0D20645DAC946744587996
310
73D0B5C2BEF4076FEA96AB865E6886229C134E31438C6E38E6A020D85A2AC82023BC4590420233A9454DAFCE2B18F6655F6AE372573026FCD79A494F0BC01F499E49CEE83F841FB9AFDF063C81B4058DF3B112367F4981C464EACAC5F259BFA71E9640A21DC37BB01610536CEAF71A782D442C582DADD9C7BBCD612DE243FB
310
E5294F52C2736179D29995DF690DD64C0B8CAF032825AEA6EE8EA87C05E83F01F2152F680A9AE3F430380CB4EC1CC7D92EE111680779C8F6E08F87C4D757DFA66E75788690112B4F610A6EFB933035C430EEAE413A9B3E81D127BCAF845B8798814DDFD358F839180A62092C41BCDF6D0ED66C05C11416E11466203DFC4E5D
310
F115C1474907E24D43436DE1B783A2B4C334FDECA8AB0F60339C8695AA0C194FE13BFC29F8DE2CD71FD705DFE190DC2BC75E921D8D690EC9B49D210374C3E5BFAD3E498FFCC0920D66C7D3C6A610AED927226EB4A865ADD482A45E801391864BCDC8957B0ADECE188E4952646ABD2D4E85094B78B079094A176EBDEB4F6D03
310
E565CA005A631924F790D3546062CD94B6AA40E8D404050BC35C59E0BED46AB029A234C05152C422D4BE36C5261F106784250255494D1BB6F65A4D764B77BB2283E0D54A726100A9FC59132E2D7C0071AC8D5F4E761C43124DE280420E066769BDC1B8A002EF3CCF1961BB80325644C18E32C8234184D313F43B4A50CF5C8F
310
E4E539E1DB5682A665699FD436240057C06A9074B62A63BED229274F549499329FE96C60EC5075A8351B9C48172253B400AA8DB10C48F3E16430B81DD8DEF0EECE1E2C469E7DD39B0FEDDB717FEC2D07DEA43F1C35F9D4D1AA9EEF4095A2CC31FC2F7F28A24D8C298307426CBC4DDFBD97D9F3DA85D0E8CE6FAF46B78BFEC4
310
EE2FE7137B703559DAF3ABDEC8F6C6CBE5FC76B098F4AEE62E275952F090646ECFF5026D9269BC3FC595E6EE750C85B2E672B2D3FA6A0AF33F8EA1CD9C6028F1BF1A44ABD8D55210760DA2E2683384E2F051A4A82084AAAFD57D1A41B4C9475B9C7B635CF69CBE277F7C7FD2F326BDF1E4E8826703B5BCE787E35C9B0421F4
310
9D451E24290E69DE9E501BB8748CD36FCA2D4EDF1F2240A7FA5B5D723ECFA84B021AE13D09765874092D81F19204AD396CCF922CA331C96497F7AAFA6BD0F41C28A6CC9CDB6284340B2292E3EFB13FD936346C1A62330BA01FCDC544E062555019B4EA404E5114DD2F246E29FF4B90E1286565A77B0903BFA721D03D4E9BC5
310
09A6C5154F606F01CE036F4BE4E0E212F58A7D5D1FB46AAD497DF2DDE44FC0A3EB9A5F088FBEA27BE9E40CFD89F8194350190DFDFE9556C425ACF455B9E8E358019D67F8123C13BA7FE8546876D349AD642B8BEA9C44D0C6E2BCE09DFC7534F45E5DA4E242C3216A37BDB13894FD9BEEE0003DD9C09D2A6F6BD7401D4A6398
310
737512E49514AD262C7521677A6274F506BF3EABEC3AD51F8E97BFBC62AE3B5F24873F9771806AB90CC02AFA1835756BD56DD443D933CE4308A46BF969CFC123B6647B6CCC0C726D25BAAE4F2F55CF2B11502398D8621167EFC517F61583AAA17BCEDC0F65D1E696EB2B91D81C184E1FF9309836697DFEB06E508195CEA7BF
310
088CC87383825A5D886EF80CA96FAB63CFDFA0A024FAB63A73FC3FD1516805D6C668300DCE124661284FB6684F12C8DE3076E8D06DF08864322B83F1AA20A5DF087438FD54CE5473BC61FA74F8806130CD542F56843014858C796DA975F41B8C41C524520EA79C4768C3540CB350C1E9B505169B53E8B69C0D8CB3E4F05052
310
6F8C2BC1B171BC17F9BE3C55FD7F3C26D081A87494ABDAD305172599E14C50D8A6F23D01547DE583D9F4FB45D7EC209CC3D74D9157C21C178ED22810F40B81523898FA3D2A780F50509C97CB77E41E03924E93F9B3765052B573CCF772BC5EC3FB66F9C51593F1D56794B2622FD479AEFB3528D9A2EB664539859A82612831
310
532C6AC8C53BF70B4FE0155384EE281801FAFD301EFDE12E92284AE272C9BD512FAAD0FA015E3B6D5D3DF28336DEF387AE9C02A8B17EB0C11971F0367B8405502DA762365A426C1840154D6B06A035227401C78CFDAB2552B5516D42520FBB021E39D347E048E25D8E709BFA86DA00127C01B8920F8F5FF4C2D4E530049FFD
310
0B504B0304140006080800557E6E57DABE78653E01000046050000300000006662782F44444339384430422D443936462D343633412D394145462D3330363834463038453434352F636E782E786D6CCD944D6AC3301085AF62B4B764E5074A9015E8A227E8A27427CB13578D2D19695C9ADB574AE5B4A5A47411487662F406
310
DE37F318B17D1FFAE20D7C30CED684D38A1460B56B8DED6A32E1AEBC23C5560AEF1C7E9391C2AA016A92CA448ACEBB69CCA516766AEA53B537769F8B0AD19B664208A4D0BD0AA12641BFC0A0A89AD0B510F6B455A828A71E829BBC86D88F6680DCAF3D288496C845B558969C977CF5C8D79B75B5592D9F054B4A291AE7FAAC
310
3716C1BBB1D02E3E6C34530996BEA598BCC99A4440E49733DA182B58FC972244B7B6CB3A3C8C49378EBDD10AE39898D308584611A841B04FB1142CF1FEA07EB87F9A1D14ADF1A0D1F9C39506C0CF0DE0648CC624FC8FFF28FC1BDB35AF11F75ADB3E0B9B6D5D0C754E6B8871FDBDFF982265BBFEF6427F3276F9CCC7538246
310
DF1EF2ECEB42C4EC78F2E2D2D305941F504B0304140006080800557E6E57BB83B0BF7E000000A30000000B0000006662782F636E782E786D6C4D8CD10AC22018465F45FE7BCB9889823A56CEF718CD0D69D361337AFC3476D1D50787EF1CD97ED605BD5D7AF918145C4E04900B8F38FA302BC8FB8439A056CB14E3FE770314
310
86D529A818B49C53CCDB8146370D79A974F1E1794063EE821B72C346308B296B3A2CBADEE286304E2DE13DA5D7629CAB52E6D72B5BF3FA0B504B0304140006080800557E6E57A6D797065F0000008200000007000000636E782E786D6C4DCB3B0E80201045D1AD90E9FD7516806B51190811670C8A61F982B1B0BAC9C97B72
310
CA7B1037C6D3332918DA1E04D2CAC69353902EDB8C20262D23F3F59B81A079470595414B17391D1F19B4730A5583A7ED43BBE4025D9592775E5ADFFA01504B0304140006080800557E6E574FEB6A7CA0000000F4000000130000005B436F6E74656E745F54797065735D2E786D6C7D8F4B0EC2300C44AF1279DFA6B0400835
310
ED02B8011730C16D239A8F121795DB93D02D6269CFBC19BBED573B8B17C564BC53B0AB1B10E4B47F18372A5878A88E20FAAEBDBD032591BD2E299898C349CAA427B2986A1FC86565F0D122E7318E32A07EE24872DF3407A9BD63725C71C980AEBDD080CBCCE2BAE6F5D69B7110E7CD57AA146008B3D1C8F92C5954F993BB1B
310
F787F39A89ABC491D09600F9FDA2FB00504B0304140006080800557E6E573DEE336E64000000790000001B0000006175746F6465736B2D64657369676E2D7061636B6167652E786D6C35CBC10E83200C00D05F21DCA56CA76D41FC96062B120735B69A7DBE268BB7777961F8D5AF396893C2ADB70FE7ADA196782C2DF776D7
310
A97B5933C430F15651E5469C55D70F80A4992A3ADC954792C525AE70A1E4D6AD9816CC044FEFDF01FE3FDE907802504B0304140006080800557E6E5717210629F9000000960100003B0000006662782F44444339384430422D443936462D343633412D394145462D3330363834463038453434352F7265736F75726365732F
310
636F72652E786D6C8550CB6EC32010FC158B3BB6F12371224CE434F117F4D41B828D831283C5A3EAE71762576A4F3D2D9A9D9965869EBEE667F609D629A37B44F21265A085914A4F3D0AFE863B949D18B5C6F85F3494693E438F128C189DAC09CB0609A33DE8846A236103B973E051269EF1D12327EE30F39C071F19EE912F
310
5C3CF80439C9571EA32128B949958C6EEAA6C02246CEE5BE3D5C2FF83A766FB8E9F62D3E57658D77E3A123976A370CC3488B2466D4ABF9E7BAB0C03D48C4AAB2AA31219834EFA43DB6E5B1A93F6891988C3A6F63E6ED684A879805678215E068B16EFFB88645FEEF1A94F675B5B9AE0A1773C44FBE168C16A9A5385E15C699
310
1A65DF504B0304140006080800557E6E574105E799F3000000B1010000310000006662782F44444339384430422D443936462D343633412D394145462D3330363834463038453434352F636F72652E786D6C8D504B6EC32014BC8AC51E1B6C6C3911264AEBF8045D758780382831587CAA1EBF10BB52BBCBEAA17933CCBCA1
310
A7EFE5517C29E7B53503C025028532C24A6DE601C470853D284E8C3A6BC31F1A280C5FD400320C189D9D8DEB0E096B8232193556AA1DE4DEAB000AF1488F017871530B2F790C89E1EFE5CAC59DCFAAC4E5C66334E8E5572A9CE24149C06A5437106388C9076E8F2D3A92E6935699C9688C5AEE565A26777DD5CA01368EEF87
310
7E446F703C7413245D738687F365820DEA7A32A1FE42484BAB2C66D407976EDE3FC9D7BD2ADF84FF32C755BE90599BD0D4BBE1A6F080E194E7B960B4CA05A6F16C37CD5C36FB01504B0304140006080800557E6E57B8A90ABB55010000DD0200000C0000006662782F636F72652E786D6C8D52CB6EC32010FC158B3BB6F123
310
71234C9434C917F4D41BC1C445B1C1C260E5F30B7EC8CDA1696509A3D99DD99D1178FF689B60E0BA174A9600853108B864AA12B22E8135375880604FB056CAFC680381A42D2F818701C1B556B69B21A6A4E1D2A352557C0669DF730302D6B84B097AF6C55B1A526B5C477F0F3BCAEEB4E6210AA73E82AD15D54C1595531337
310
C13520E8186FF3B7F3099E2FC53BCC8A6D0E8F499CC2CDE5AD40A76473381C2E38F264828D6897E94C736A7805481227294408A2EC03E5BB3CDE65E9278E7C27C1BDD1CEF33CD4BB03E4767DE068C29FF46C57FDAD6785346932EB4D8CDE3970EB8D0582239F8FFB8DE13D67E806BBFC0CBD368B85BB8306CE8CD299AB54CA
310
AEA58136963BE938183F1C4D55A73C0AFCA693BCD079ADE182A2B276AB51E3AE576BFCF4E79D3AAEE1601E8154BAA5CDBADCB4E27AAE839E2C2D74A61AA5FFC35EAC2E6146FE61926F504B0304140006080800557E6E575F4F368908010000B201000008000000636F72652E786D6C8D504B6EC32014BC0A628F0DFE244E84
310
899C263E4157DD51435C141B2C3E517BFB42EC4AEDAEAB8766E6BD19869E3EE7093CA475CAE816920C4320F56084D2630B83BFA1068213A3D618FF4B0681E6B36C618221A3A33561D9A0C1682F7542B5117203B973D243304CF1D142377CC899673CF8A870F76CE1C39D8F3223D9AA63D4ABF96775B0927B29202B70512242
310
10A95E497DACF1B12ADF689E948C86A0C466A544745737252D64E48CF7F5E17A41D7BE794155B3AFD1B9C025DAF587865C8A5DD7753DCDD332A3CEDBF8E7ED48CCE981E38FE44BF39562F4DD986913C45002183D7D4186699E883FA1C322FE115A695F16DBC175C3C5CC31D09388C6A9C1389EF5C699DA66DF504B01021400
310
140006080800557E6E570000000000000000000000003700000000000000000000000000000000006662782F44444339384430422D443936462D343633412D394145462D3330363834463038453434352F617474726962757465732E62696E504B01021400140006080800557E6E5700000000000000000000000035000000
310
00000000000000000000550000006662782F44444339384430422D443936462D343633412D394145462D3330363834463038453434352F76657274696365732E62696E504B01021400140006080800557E6E57F270F13306000000040000003600000000000000000000000000A80000006662782F44444339384430422D44
310
3936462D343633412D394145462D3330363834463038453434352F747269616E676C65732E62696E504B01021400140006080800557E6E5751464CB489000000430100003600000000000000000000000000020100006662782F44444339384430422D443936462D343633412D394145462D3330363834463038453434352F
310
6469726563746F72792E786D6C504B01021400140006080800557E6E57C09337743D070000201C00003400000000000000000000000000DF0100006662782F44444339384430422D443936462D343633412D394145462D3330363834463038453434352F6F626A656374732E786D6C504B01021400140006080800557E6E57
310
DABE78653E0100004605000030000000000000000000000000006E0900006662782F44444339384430422D443936462D343633412D394145462D3330363834463038453434352F636E782E786D6C504B01021400140006080800557E6E57BB83B0BF7E000000A30000000B00000000000000000000000000FA0A0000666278
310
2F636E782E786D6C504B01021400140006080800557E6E57A6D797065F000000820000000700000000000000000000000000A10B0000636E782E786D6C504B01021400140006080800557E6E574FEB6A7CA0000000F40000001300000000000000000000000000250C00005B436F6E74656E745F54797065735D2E786D6C50
310
4B01021400140006080800557E6E573DEE336E64000000790000001B00000000000000000000000000F60C00006175746F6465736B2D64657369676E2D7061636B6167652E786D6C504B01021400140006080800557E6E5717210629F9000000960100003B00000000000000000000000000930D00006662782F4444433938
310
4430422D443936462D343633412D394145462D3330363834463038453434352F7265736F75726365732F636F72652E786D6C504B01021400140006080800557E6E574105E799F3000000B10100003100000000000000000000000000E50E00006662782F44444339384430422D443936462D343633412D394145462D333036
310
3834463038453434352F636F72652E786D6C504B01021400140006080800557E6E57B8A90ABB55010000DD0200000C00000000000000000000000000271000006662782F636F72652E786D6C504B01021400140006080800557E6E575F4F368908010000B20100000800000000000000000000000000A6110000636F72652E
310
786D6C504B0506000000000E000E0080040000D41200000000
  0
XRECORD
  5
812D
102
{ACAD_REACTORS
330
8128
102
}
330
8128
100
AcDbXrecord
280
     1
270
     1
271
     1
  0
XRECORD
  5
812C
102
{ACAD_REACTORS
330
8128
102
}
330
8128
100
AcDbXrecord
280
     1
270
     1
271
     1
  0
XRECORD
  5
812E
102
{ACAD_REACTORS
330
8128
102
}
330
8128
100
AcDbXrecord
280
     1
270
     1
271
     1
  0
XRECORD
  5
812B
102
{ACAD_REACTORS
330
8128
102
}
330
8128
100
AcDbXrecord
280
     1
270
     1
271
     1
  0
XRECORD
  5
835A
102
{ACAD_REACTORS
330
8359
102
}
330
8359
100
AcDbXrecord
280
     1
102
DISPLAYNAME
  1
Imperial24
102
FLAGS
 90
        0
  0
CELLSTYLEMAP
  5
8321
102
{ACAD_REACTORS
330
8320
102
}
330
8320
100
AcDbCellStyleMap
 90
        3
300
CELLSTYLE
  1
TABLEFORMAT_BEGIN
 90
        5
170
     1
 91
        0
 92
    32768
 62
   257
 93
        1
300
CONTENTFORMAT
  1
CONTENTFORMAT_BEGIN
 90
        0
 91
        0
 92
      512
 93
        0
300

 40
0.0
140
1.0
 94
        5
 62
     0
340
815B
144
0.25
309
CONTENTFORMAT_END
171
     0
 94
        0
309
TABLEFORMAT_END
  1
CELLSTYLE_BEGIN
 90
        1
 91
        1
300
_TITLE
309
CELLSTYLE_END
300
CELLSTYLE
  1
TABLEFORMAT_BEGIN
 90
        5
170
     1
 91
        0
 92
        0
 62
   257
 93
        1
300
CONTENTFORMAT
  1
CONTENTFORMAT_BEGIN
 90
        0
 91
        0
 92
      512
 93
        0
300

 40
0.0
140
1.0
 94
        5
 62
     0
340
815B
144
0.18
309
CONTENTFORMAT_END
171
     0
 94
        0
309
TABLEFORMAT_END
  1
CELLSTYLE_BEGIN
 90
        2
 91
        1
300
_HEADER
309
CELLSTYLE_END
300
CELLSTYLE
  1
TABLEFORMAT_BEGIN
 90
        5
170
     1
 91
        0
 92
        0
 62
   257
 93
        1
300
CONTENTFORMAT
  1
CONTENTFORMAT_BEGIN
 90
        0
 91
        0
 92
      512
 93
        0
300

 40
0.0
140
1.0
 94
        2
 62
     0
340
815B
144
0.18
309
CONTENTFORMAT_END
171
     0
 94
        0
309
TABLEFORMAT_END
  1
CELLSTYLE_BEGIN
 90
        3
 91
        2
300
_DATA
309
CELLSTYLE_END
  0
XRECORD
  5
8357
102
{ACAD_REACTORS
330
8320
102
}
330
8320
100
AcDbXrecord
280
     1
102
ACAD_ROUNDTRIP_PRE2007_TABLESTYLE
 90
      512
 91
        0
  1

 92
      512
 93
        0
  2

 94
      512
 95
        0
  3

  0
XRECORD
  5
8332
102
{ACAD_REACTORS
330
8331
102
}
330
8331
100
AcDbXrecord
280
     1
102
RTVSPost2010Prop28
280
     1
102
RTVSPost2010PropOp28
 70
     1
102
RTVSPost2010Prop29
280
     1
102
RTVSPost2010PropOp29
 70
     1
102
RTVSPost2010Prop30
280
     0
102
RTVSPost2010PropOp30
 70
     1
102
RTVSPost2010Prop31
280
     0
102
RTVSPost2010PropOp31
 70
     1
102
RTVSPost2010Prop32
280
     0
102
RTVSPost2010PropOp32
 70
     1
102
RTVSPost2010Prop33
280
     0
102
RTVSPost2010PropOp33
 70
     1
102
RTVSPost2010Prop34
280
     0
102
RTVSPost2010PropOp34
 70
     1
102
RTVSPost2010Prop35
280
     0
102
RTVSPost2010PropOp35
 70
     1
102
RTVSPost2010Prop36
280
     0
102
RTVSPost2010PropOp36
 70
     1
102
RTVSPost2010Prop37
 90
       50
102
RTVSPost2010PropOp37
 70
     1
102
RTVSPost2010Prop38
140
0.0
102
RTVSPost2010PropOp38
 70
     1
102
RTVSPost2010Prop39
140
1.0
102
RTVSPost2010PropOp39
 70
     1
102
RTVSPost2010Prop40
 90
        0
102
RTVSPost2010PropOp40
 70
     1
102
RTVSPost2010Prop41ColorIndex
 90
       18
102
RTVSPost2010Prop41ColorRGB
 90
        0
102
RTVSPost2010PropOp41
 70
     1
102
RTVSPost2010Prop42
 90
       50
102
RTVSPost2010PropOp42
 70
     1
102
RTVSPost2010Prop43
 90
        3
102
RTVSPost2010PropOp43
 70
     1
102
RTVSPost2010Prop44ColorIndex
 90
        5
102
RTVSPost2010Prop44ColorRGB
 90
      255
102
RTVSPost2010PropOp44
 70
     1
102
RTVSPost2010Prop45
280
     0
102
RTVSPost2010PropOp45
 70
     1
102
RTVSPost2010Prop46
 90
       50
102
RTVSPost2010PropOp46
 70
     1
102
RTVSPost2010Prop47
 90
       50
102
RTVSPost2010PropOp47
 70
     1
102
RTVSPost2010Prop48
 90
       50
102
RTVSPost2010PropOp48
 70
     1
102
RTVSPost2010Prop49
280
     0
102
RTVSPost2010PropOp49
 70
     1
102
RTVSPost2010Prop50
 90
       50
102
RTVSPost2010PropOp50
 70
     1
102
RTVSPost2010Prop51ColorIndex
 90
      256
102
RTVSPost2010Prop51ColorRGB
 90
-16777216
102
RTVSPost2010PropOp51
 70
     0
102
RTVSPost2010Prop52
140
1.0
102
RTVSPost2010PropOp52
 70
     0
102
RTVSPost2010Prop53
 90
        2
102
RTVSPost2010PropOp53
 70
     1
102
RTVSPost2010Prop54
  1
strokes_ogs.tif
102
RTVSPost2010PropOp54
 70
     1
102
RTVSPost2010Prop55
280
     0
102
RTVSPost2010PropOp55
 70
     1
102
RTVSPost2010Prop56
140
1.0
102
RTVSPost2010PropOp56
 70
     1
102
RTVSPost2010Prop57
140
1.0
102
RTVSPost2010PropOp57
 70
     1
102
RTVSPropertyOp0
 70
     1
102
RTVSPropertyOp1
 70
     1
102
RTVSPropertyOp2
 70
     1
102
RTVSPropertyOp3
 70
     1
102
RTVSPropertyOp4
 70
     1
102
RTVSPropertyOp5
 70
     1
102
RTVSPropertyOp6
 70
     1
102
RTVSPropertyOp7
 70
     1
102
RTVSPropertyOp8
 70
     1
102
RTVSPropertyOp9
 70
     1
102
RTVSPropertyOp10
 70
     1
102
RTVSPropertyOp11
 70
     1
102
RTVSPropertyOp12
 70
     1
102
RTVSPropertyOp13
 70
     1
102
RTVSPropertyOp14
 70
     1
102
RTVSPropertyOp15
 70
     1
102
RTVSPropertyOp16
 70
     1
102
RTVSPropertyOp17
 70
     1
102
RTVSPropertyOp18
 70
     1
102
RTVSPropertyOp19
 70
     1
102
RTVSPropertyOp20
 70
     1
102
RTVSPropertyOp21
 70
     1
102
RTVSPropertyOp22
 70
     1
102
RTVSPropertyOp23
 70
     1
102
RTVSPropertyOp24
 70
     1
102
RTVSPropertyOp25
 70
     1
102
RTVSPropertyOp26
 70
     1
102
RTVSPropertyOp27
 70
     1
102
RTVSPropertyOp28
 70
     1
102
RTVSPropertyOp29
 70
     1
102
RTVSPropertyOp30
 70
     1
102
RTVSPropertyOp31
 70
     1
102
RTVSPropertyOp32
 70
     1
102
RTVSPropertyOp33
 70
     1
102
RTVSPropertyOp34
 70
     1
102
RTVSPropertyOp35
 70
     1
102
RTVSPropertyOp36
 70
     1
102
RTVSPropertyOp37
 70
     1
102
RTVSPropertyOp38
 70
     1
102
RTVSPropertyOp39
 70
     1
102
RTVSPropertyOp40
 70
     1
102
RTVSPropertyOp41
 70
     1
102
RTVSPropertyOp42
 70
     1
102
RTVSPropertyOp43
 70
     1
102
RTVSPropertyOp44
 70
     1
102
RTVSPropertyOp45
 70
     1
102
RTVSPropertyOp46
 70
     1
102
RTVSPropertyOp47
 70
     1
102
RTVSPropertyOp48
 70
     1
102
RTVSPropertyOp49
 70
     1
102
RTVSPropertyOp50
 70
     1
102
RTVSPropertyOp51
 70
     0
102
RTVSPropertyOp52
 70
     0
102
RTVSPropertyOp53
 70
     1
102
RTVSPropertyOp54
 70
     1
102
RTVSPropertyOp55
 70
     1
102
RTVSPropertyOp56
 70
     1
102
RTVSPropertyOp57
 70
     1
102
RTVSPropertyOp58
 70
     1
102
RTVSPropertyOp59
 70
     1
102
RTVSPropertyOp60
 70
     1
102
RTVSPropertyOp61
 70
     1
102
RTVSPropertyOp62
 70
     1
  0
XRECORD
  5
8330
102
{ACAD_REACTORS
330
832F
102
}
330
832F
100
AcDbXrecord
280
     1
102
RTVSPost2010Prop28
280
     0
102
RTVSPost2010PropOp28
 70
     1
102
RTVSPost2010Prop29
280
     1
102
RTVSPost2010PropOp29
 70
     1
102
RTVSPost2010Prop30
280
     1
102
RTVSPost2010PropOp30
 70
     1
102
RTVSPost2010Prop31
280
     0
102
RTVSPost2010PropOp31
 70
     1
102
RTVSPost2010Prop32
280
     0
102
RTVSPost2010PropOp32
 70
     1
102
RTVSPost2010Prop33
280
     0
102
RTVSPost2010PropOp33
 70
     1
102
RTVSPost2010Prop34
280
     0
102
RTVSPost2010PropOp34
 70
     1
102
RTVSPost2010Prop35
280
     0
102
RTVSPost2010PropOp35
 70
     1
102
RTVSPost2010Prop36
280
     0
102
RTVSPost2010PropOp36
 70
     1
102
RTVSPost2010Prop37
 90
       50
102
RTVSPost2010PropOp37
 70
     1
102
RTVSPost2010Prop38
140
0.0
102
RTVSPost2010PropOp38
 70
     1
102
RTVSPost2010Prop39
140
1.0
102
RTVSPost2010PropOp39
 70
     1
102
RTVSPost2010Prop40
 90
        0
102
RTVSPost2010PropOp40
 70
     1
102
RTVSPost2010Prop41ColorIndex
 90
       18
102
RTVSPost2010Prop41ColorRGB
 90
        0
102
RTVSPost2010PropOp41
 70
     1
102
RTVSPost2010Prop42
 90
       50
102
RTVSPost2010PropOp42
 70
     1
102
RTVSPost2010Prop43
 90
        3
102
RTVSPost2010PropOp43
 70
     1
102
RTVSPost2010Prop44ColorIndex
 90
        5
102
RTVSPost2010Prop44ColorRGB
 90
      255
102
RTVSPost2010PropOp44
 70
     1
102
RTVSPost2010Prop45
280
     0
102
RTVSPost2010PropOp45
 70
     1
102
RTVSPost2010Prop46
 90
       50
102
RTVSPost2010PropOp46
 70
     1
102
RTVSPost2010Prop47
 90
       50
102
RTVSPost2010PropOp47
 70
     1
102
RTVSPost2010Prop48
 90
       50
102
RTVSPost2010PropOp48
 70
     1
102
RTVSPost2010Prop49
280
     0
102
RTVSPost2010PropOp49
 70
     1
102
RTVSPost2010Prop50
 90
       50
102
RTVSPost2010PropOp50
 70
     1
102
RTVSPost2010Prop51ColorIndex
 90
      256
102
RTVSPost2010Prop51ColorRGB
 90
-16777216
102
RTVSPost2010PropOp51
 70
     0
102
RTVSPost2010Prop52
140
1.0
102
RTVSPost2010PropOp52
 70
     0
102
RTVSPost2010Prop53
 90
        2
102
RTVSPost2010PropOp53
 70
     1
102
RTVSPost2010Prop54
  1
strokes_ogs.tif
102
RTVSPost2010PropOp54
 70
     1
102
RTVSPost2010Prop55
280
     0
102
RTVSPost2010PropOp55
 70
     1
102
RTVSPost2010Prop56
140
1.0
102
RTVSPost2010PropOp56
 70
     1
102
RTVSPost2010Prop57
140
1.0
102
RTVSPost2010PropOp57
 70
     1
102
RTVSPropertyOp0
 70
     1
102
RTVSPropertyOp1
 70
     1
102
RTVSPropertyOp2
 70
     1
102
RTVSPropertyOp3
 70
     1
102
RTVSPropertyOp4
 70
     1
102
RTVSPropertyOp5
 70
     1
102
RTVSPropertyOp6
 70
     1
102
RTVSPropertyOp7
 70
     1
102
RTVSPropertyOp8
 70
     1
102
RTVSPropertyOp9
 70
     1
102
RTVSPropertyOp10
 70
     1
102
RTVSPropertyOp11
 70
     1
102
RTVSPropertyOp12
 70
     1
102
RTVSPropertyOp13
 70
     1
102
RTVSPropertyOp14
 70
     1
102
RTVSPropertyOp15
 70
     1
102
RTVSPropertyOp16
 70
     1
102
RTVSPropertyOp17
 70
     1
102
RTVSPropertyOp18
 70
     1
102
RTVSPropertyOp19
 70
     1
102
RTVSPropertyOp20
 70
     1
102
RTVSPropertyOp21
 70
     1
102
RTVSPropertyOp22
 70
     1
102
RTVSPropertyOp23
 70
     1
102
RTVSPropertyOp24
 70
     1
102
RTVSPropertyOp25
 70
     1
102
RTVSPropertyOp26
 70
     1
102
RTVSPropertyOp27
 70
     1
102
RTVSPropertyOp28
 70
     1
102
RTVSPropertyOp29
 70
     1
102
RTVSPropertyOp30
 70
     1
102
RTVSPropertyOp31
 70
     1
102
RTVSPropertyOp32
 70
     1
102
RTVSPropertyOp33
 70
     1
102
RTVSPropertyOp34
 70
     1
102
RTVSPropertyOp35
 70
     1
102
RTVSPropertyOp36
 70
     1
102
RTVSPropertyOp37
 70
     1
102
RTVSPropertyOp38
 70
     1
102
RTVSPropertyOp39
 70
     1
102
RTVSPropertyOp40
 70
     1
102
RTVSPropertyOp41
 70
     1
102
RTVSPropertyOp42
 70
     1
102
RTVSPropertyOp43
 70
     1
102
RTVSPropertyOp44
 70
     1
102
RTVSPropertyOp45
 70
     1
102
RTVSPropertyOp46
 70
     1
102
RTVSPropertyOp47
 70
     1
102
RTVSPropertyOp48
 70
     1
102
RTVSPropertyOp49
 70
     1
102
RTVSPropertyOp50
 70
     1
102
RTVSPropertyOp51
 70
     0
102
RTVSPropertyOp52
 70
     0
102
RTVSPropertyOp53
 70
     1
102
RTVSPropertyOp54
 70
     1
102
RTVSPropertyOp55
 70
     1
102
RTVSPropertyOp56
 70
     1
102
RTVSPropertyOp57
 70
     1
102
RTVSPropertyOp58
 70
     1
102
RTVSPropertyOp59
 70
     1
102
RTVSPropertyOp60
 70
     1
102
RTVSPropertyOp61
 70
     1
102
RTVSPropertyOp62
 70
     1
  0
XRECORD
  5
833E
102
{ACAD_REACTORS
330
833D
102
}
330
833D
100
AcDbXrecord
280
     1
102
RTVSPost2010Prop28
280
     0
102
RTVSPost2010PropOp28
 70
     1
102
RTVSPost2010Prop29
280
     1
102
RTVSPost2010PropOp29
 70
     1
102
RTVSPost2010Prop30
280
     1
102
RTVSPost2010PropOp30
 70
     1
102
RTVSPost2010Prop31
280
     0
102
RTVSPost2010PropOp31
 70
     1
102
RTVSPost2010Prop32
280
     0
102
RTVSPost2010PropOp32
 70
     1
102
RTVSPost2010Prop33
280
     0
102
RTVSPost2010PropOp33
 70
     1
102
RTVSPost2010Prop34
280
     0
102
RTVSPost2010PropOp34
 70
     1
102
RTVSPost2010Prop35
280
     0
102
RTVSPost2010PropOp35
 70
     1
102
RTVSPost2010Prop36
280
     0
102
RTVSPost2010PropOp36
 70
     1
102
RTVSPost2010Prop37
 90
       50
102
RTVSPost2010PropOp37
 70
     1
102
RTVSPost2010Prop38
140
0.0
102
RTVSPost2010PropOp38
 70
     1
102
RTVSPost2010Prop39
140
1.0
102
RTVSPost2010PropOp39
 70
     1
102
RTVSPost2010Prop40
 90
        0
102
RTVSPost2010PropOp40
 70
     1
102
RTVSPost2010Prop41ColorIndex
 90
       18
102
RTVSPost2010Prop41ColorRGB
 90
        0
102
RTVSPost2010PropOp41
 70
     1
102
RTVSPost2010Prop42
 90
       50
102
RTVSPost2010PropOp42
 70
     1
102
RTVSPost2010Prop43
 90
        3
102
RTVSPost2010PropOp43
 70
     1
102
RTVSPost2010Prop44ColorIndex
 90
        5
102
RTVSPost2010Prop44ColorRGB
 90
      255
102
RTVSPost2010PropOp44
 70
     1
102
RTVSPost2010Prop45
280
     0
102
RTVSPost2010PropOp45
 70
     1
102
RTVSPost2010Prop46
 90
       50
102
RTVSPost2010PropOp46
 70
     1
102
RTVSPost2010Prop47
 90
       50
102
RTVSPost2010PropOp47
 70
     1
102
RTVSPost2010Prop48
 90
       50
102
RTVSPost2010PropOp48
 70
     1
102
RTVSPost2010Prop49
280
     0
102
RTVSPost2010PropOp49
 70
     1
102
RTVSPost2010Prop50
 90
       50
102
RTVSPost2010PropOp50
 70
     1
102
RTVSPost2010Prop51ColorIndex
 90
      256
102
RTVSPost2010Prop51ColorRGB
 90
-16777216
102
RTVSPost2010PropOp51
 70
     0
102
RTVSPost2010Prop52
140
1.0
102
RTVSPost2010PropOp52
 70
     0
102
RTVSPost2010Prop53
 90
        2
102
RTVSPost2010PropOp53
 70
     1
102
RTVSPost2010Prop54
  1
strokes_ogs.tif
102
RTVSPost2010PropOp54
 70
     1
102
RTVSPost2010Prop55
280
     0
102
RTVSPost2010PropOp55
 70
     1
102
RTVSPost2010Prop56
140
1.0
102
RTVSPost2010PropOp56
 70
     1
102
RTVSPost2010Prop57
140
1.0
102
RTVSPost2010PropOp57
 70
     1
102
RTVSPropertyOp0
 70
     1
102
RTVSPropertyOp1
 70
     1
102
RTVSPropertyOp2
 70
     1
102
RTVSPropertyOp3
 70
     1
102
RTVSPropertyOp4
 70
     1
102
RTVSPropertyOp5
 70
     1
102
RTVSPropertyOp6
 70
     1
102
RTVSPropertyOp7
 70
     1
102
RTVSPropertyOp8
 70
     1
102
RTVSPropertyOp9
 70
     1
102
RTVSPropertyOp10
 70
     1
102
RTVSPropertyOp11
 70
     1
102
RTVSPropertyOp12
 70
     1
102
RTVSPropertyOp13
 70
     1
102
RTVSPropertyOp14
 70
     1
102
RTVSPropertyOp15
 70
     1
102
RTVSPropertyOp16
 70
     1
102
RTVSPropertyOp17
 70
     1
102
RTVSPropertyOp18
 70
     1
102
RTVSPropertyOp19
 70
     1
102
RTVSPropertyOp20
 70
     1
102
RTVSPropertyOp21
 70
     1
102
RTVSPropertyOp22
 70
     1
102
RTVSPropertyOp23
 70
     1
102
RTVSPropertyOp24
 70
     1
102
RTVSPropertyOp25
 70
     1
102
RTVSPropertyOp26
 70
     1
102
RTVSPropertyOp27
 70
     1
102
RTVSPropertyOp28
 70
     1
102
RTVSPropertyOp29
 70
     1
102
RTVSPropertyOp30
 70
     1
102
RTVSPropertyOp31
 70
     1
102
RTVSPropertyOp32
 70
     1
102
RTVSPropertyOp33
 70
     1
102
RTVSPropertyOp34
 70
     1
102
RTVSPropertyOp35
 70
     1
102
RTVSPropertyOp36
 70
     1
102
RTVSPropertyOp37
 70
     1
102
RTVSPropertyOp38
 70
     1
102
RTVSPropertyOp39
 70
     1
102
RTVSPropertyOp40
 70
     1
102
RTVSPropertyOp41
 70
     1
102
RTVSPropertyOp42
 70
     1
102
RTVSPropertyOp43
 70
     1
102
RTVSPropertyOp44
 70
     1
102
RTVSPropertyOp45
 70
     1
102
RTVSPropertyOp46
 70
     1
102
RTVSPropertyOp47
 70
     1
102
RTVSPropertyOp48
 70
     1
102
RTVSPropertyOp49
 70
     1
102
RTVSPropertyOp50
 70
     1
102
RTVSPropertyOp51
 70
     0
102
RTVSPropertyOp52
 70
     0
102
RTVSPropertyOp53
 70
     1
102
RTVSPropertyOp54
 70
     1
102
RTVSPropertyOp55
 70
     1
102
RTVSPropertyOp56
 70
     1
102
RTVSPropertyOp57
 70
     1
102
RTVSPropertyOp58
 70
     1
102
RTVSPropertyOp59
 70
     1
102
RTVSPropertyOp60
 70
     1
102
RTVSPropertyOp61
 70
     1
102
RTVSPropertyOp62
 70
     1
  0
XRECORD
  5
8346
102
{ACAD_REACTORS
330
8345
102
}
330
8345
100
AcDbXrecord
280
     1
102
RTVSPost2010Prop28
280
     0
102
RTVSPost2010PropOp28
 70
     1
102
RTVSPost2010Prop29
280
     1
102
RTVSPost2010PropOp29
 70
     1
102
RTVSPost2010Prop30
280
     1
102
RTVSPost2010PropOp30
 70
     1
102
RTVSPost2010Prop31
280
     0
102
RTVSPost2010PropOp31
 70
     1
102
RTVSPost2010Prop32
280
     0
102
RTVSPost2010PropOp32
 70
     1
102
RTVSPost2010Prop33
280
     0
102
RTVSPost2010PropOp33
 70
     1
102
RTVSPost2010Prop34
280
     0
102
RTVSPost2010PropOp34
 70
     1
102
RTVSPost2010Prop35
280
     0
102
RTVSPost2010PropOp35
 70
     1
102
RTVSPost2010Prop36
280
     0
102
RTVSPost2010PropOp36
 70
     1
102
RTVSPost2010Prop37
 90
       50
102
RTVSPost2010PropOp37
 70
     1
102
RTVSPost2010Prop38
140
0.0
102
RTVSPost2010PropOp38
 70
     1
102
RTVSPost2010Prop39
140
1.0
102
RTVSPost2010PropOp39
 70
     1
102
RTVSPost2010Prop40
 90
        0
102
RTVSPost2010PropOp40
 70
     1
102
RTVSPost2010Prop41ColorIndex
 90
       18
102
RTVSPost2010Prop41ColorRGB
 90
        0
102
RTVSPost2010PropOp41
 70
     1
102
RTVSPost2010Prop42
 90
       50
102
RTVSPost2010PropOp42
 70
     1
102
RTVSPost2010Prop43
 90
        3
102
RTVSPost2010PropOp43
 70
     1
102
RTVSPost2010Prop44ColorIndex
 90
        5
102
RTVSPost2010Prop44ColorRGB
 90
      255
102
RTVSPost2010PropOp44
 70
     1
102
RTVSPost2010Prop45
280
     0
102
RTVSPost2010PropOp45
 70
     1
102
RTVSPost2010Prop46
 90
       50
102
RTVSPost2010PropOp46
 70
     1
102
RTVSPost2010Prop47
 90
       50
102
RTVSPost2010PropOp47
 70
     1
102
RTVSPost2010Prop48
 90
       50
102
RTVSPost2010PropOp48
 70
     1
102
RTVSPost2010Prop49
280
     0
102
RTVSPost2010PropOp49
 70
     1
102
RTVSPost2010Prop50
 90
       50
102
RTVSPost2010PropOp50
 70
     1
102
RTVSPost2010Prop51ColorIndex
 90
      256
102
RTVSPost2010Prop51ColorRGB
 90
-16777216
102
RTVSPost2010PropOp51
 70
     0
102
RTVSPost2010Prop52
140
1.0
102
RTVSPost2010PropOp52
 70
     0
102
RTVSPost2010Prop53
 90
        2
102
RTVSPost2010PropOp53
 70
     1
102
RTVSPost2010Prop54
  1
strokes_ogs.tif
102
RTVSPost2010PropOp54
 70
     1
102
RTVSPost2010Prop55
280
     0
102
RTVSPost2010PropOp55
 70
     1
102
RTVSPost2010Prop56
140
1.0
102
RTVSPost2010PropOp56
 70
     1
102
RTVSPost2010Prop57
140
1.0
102
RTVSPost2010PropOp57
 70
     1
102
RTVSPropertyOp0
 70
     1
102
RTVSPropertyOp1
 70
     1
102
RTVSPropertyOp2
 70
     1
102
RTVSPropertyOp3
 70
     1
102
RTVSPropertyOp4
 70
     1
102
RTVSPropertyOp5
 70
     1
102
RTVSPropertyOp6
 70
     1
102
RTVSPropertyOp7
 70
     1
102
RTVSPropertyOp8
 70
     1
102
RTVSPropertyOp9
 70
     1
102
RTVSPropertyOp10
 70
     1
102
RTVSPropertyOp11
 70
     1
102
RTVSPropertyOp12
 70
     1
102
RTVSPropertyOp13
 70
     1
102
RTVSPropertyOp14
 70
     1
102
RTVSPropertyOp15
 70
     1
102
RTVSPropertyOp16
 70
     1
102
RTVSPropertyOp17
 70
     1
102
RTVSPropertyOp18
 70
     1
102
RTVSPropertyOp19
 70
     1
102
RTVSPropertyOp20
 70
     1
102
RTVSPropertyOp21
 70
     1
102
RTVSPropertyOp22
 70
     1
102
RTVSPropertyOp23
 70
     1
102
RTVSPropertyOp24
 70
     1
102
RTVSPropertyOp25
 70
     1
102
RTVSPropertyOp26
 70
     1
102
RTVSPropertyOp27
 70
     1
102
RTVSPropertyOp28
 70
     1
102
RTVSPropertyOp29
 70
     1
102
RTVSPropertyOp30
 70
     1
102
RTVSPropertyOp31
 70
     1
102
RTVSPropertyOp32
 70
     1
102
RTVSPropertyOp33
 70
     1
102
RTVSPropertyOp34
 70
     1
102
RTVSPropertyOp35
 70
     1
102
RTVSPropertyOp36
 70
     1
102
RTVSPropertyOp37
 70
     1
102
RTVSPropertyOp38
 70
     1
102
RTVSPropertyOp39
 70
     1
102
RTVSPropertyOp40
 70
     1
102
RTVSPropertyOp41
 70
     1
102
RTVSPropertyOp42
 70
     1
102
RTVSPropertyOp43
 70
     1
102
RTVSPropertyOp44
 70
     1
102
RTVSPropertyOp45
 70
     1
102
RTVSPropertyOp46
 70
     1
102
RTVSPropertyOp47
 70
     1
102
RTVSPropertyOp48
 70
     1
102
RTVSPropertyOp49
 70
     1
102
RTVSPropertyOp50
 70
     1
102
RTVSPropertyOp51
 70
     0
102
RTVSPropertyOp52
 70
     0
102
RTVSPropertyOp53
 70
     1
102
RTVSPropertyOp54
 70
     1
102
RTVSPropertyOp55
 70
     1
102
RTVSPropertyOp56
 70
     1
102
RTVSPropertyOp57
 70
     1
102
RTVSPropertyOp58
 70
     1
102
RTVSPropertyOp59
 70
     1
102
RTVSPropertyOp60
 70
     1
102
RTVSPropertyOp61
 70
     1
102
RTVSPropertyOp62
 70
     1
  0
XRECORD
  5
8338
102
{ACAD_REACTORS
330
8337
102
}
330
8337
100
AcDbXrecord
280
     1
102
RTVSPost2010Prop28
280
     0
102
RTVSPost2010PropOp28
 70
     1
102
RTVSPost2010Prop29
280
     1
102
RTVSPost2010PropOp29
 70
     1
102
RTVSPost2010Prop30
280
     1
102
RTVSPost2010PropOp30
 70
     1
102
RTVSPost2010Prop31
280
     0
102
RTVSPost2010PropOp31
 70
     1
102
RTVSPost2010Prop32
280
     0
102
RTVSPost2010PropOp32
 70
     1
102
RTVSPost2010Prop33
280
     0
102
RTVSPost2010PropOp33
 70
     1
102
RTVSPost2010Prop34
280
     0
102
RTVSPost2010PropOp34
 70
     1
102
RTVSPost2010Prop35
280
     0
102
RTVSPost2010PropOp35
 70
     1
102
RTVSPost2010Prop36
280
     0
102
RTVSPost2010PropOp36
 70
     1
102
RTVSPost2010Prop37
 90
       50
102
RTVSPost2010PropOp37
 70
     1
102
RTVSPost2010Prop38
140
0.0
102
RTVSPost2010PropOp38
 70
     1
102
RTVSPost2010Prop39
140
1.0
102
RTVSPost2010PropOp39
 70
     1
102
RTVSPost2010Prop40
 90
        0
102
RTVSPost2010PropOp40
 70
     1
102
RTVSPost2010Prop41ColorIndex
 90
       18
102
RTVSPost2010Prop41ColorRGB
 90
        0
102
RTVSPost2010PropOp41
 70
     1
102
RTVSPost2010Prop42
 90
       50
102
RTVSPost2010PropOp42
 70
     1
102
RTVSPost2010Prop43
 90
        3
102
RTVSPost2010PropOp43
 70
     1
102
RTVSPost2010Prop44ColorIndex
 90
        5
102
RTVSPost2010Prop44ColorRGB
 90
      255
102
RTVSPost2010PropOp44
 70
     1
102
RTVSPost2010Prop45
280
     0
102
RTVSPost2010PropOp45
 70
     1
102
RTVSPost2010Prop46
 90
       50
102
RTVSPost2010PropOp46
 70
     1
102
RTVSPost2010Prop47
 90
       50
102
RTVSPost2010PropOp47
 70
     1
102
RTVSPost2010Prop48
 90
       50
102
RTVSPost2010PropOp48
 70
     1
102
RTVSPost2010Prop49
280
     0
102
RTVSPost2010PropOp49
 70
     1
102
RTVSPost2010Prop50
 90
       50
102
RTVSPost2010PropOp50
 70
     1
102
RTVSPost2010Prop51ColorIndex
 90
      256
102
RTVSPost2010Prop51ColorRGB
 90
-16777216
102
RTVSPost2010PropOp51
 70
     0
102
RTVSPost2010Prop52
140
1.0
102
RTVSPost2010PropOp52
 70
     0
102
RTVSPost2010Prop53
 90
        2
102
RTVSPost2010PropOp53
 70
     1
102
RTVSPost2010Prop54
  1
strokes_ogs.tif
102
RTVSPost2010PropOp54
 70
     1
102
RTVSPost2010Prop55
280
     0
102
RTVSPost2010PropOp55
 70
     1
102
RTVSPost2010Prop56
140
1.0
102
RTVSPost2010PropOp56
 70
     1
102
RTVSPost2010Prop57
140
1.0
102
RTVSPost2010PropOp57
 70
     1
102
RTVSPropertyOp0
 70
     1
102
RTVSPropertyOp1
 70
     1
102
RTVSPropertyOp2
 70
     1
102
RTVSPropertyOp3
 70
     1
102
RTVSPropertyOp4
 70
     1
102
RTVSPropertyOp5
 70
     1
102
RTVSPropertyOp6
 70
     1
102
RTVSPropertyOp7
 70
     1
102
RTVSPropertyOp8
 70
     1
102
RTVSPropertyOp9
 70
     1
102
RTVSPropertyOp10
 70
     1
102
RTVSPropertyOp11
 70
     1
102
RTVSPropertyOp12
 70
     1
102
RTVSPropertyOp13
 70
     1
102
RTVSPropertyOp14
 70
     1
102
RTVSPropertyOp15
 70
     1
102
RTVSPropertyOp16
 70
     1
102
RTVSPropertyOp17
 70
     1
102
RTVSPropertyOp18
 70
     1
102
RTVSPropertyOp19
 70
     1
102
RTVSPropertyOp20
 70
     1
102
RTVSPropertyOp21
 70
     1
102
RTVSPropertyOp22
 70
     1
102
RTVSPropertyOp23
 70
     1
102
RTVSPropertyOp24
 70
     1
102
RTVSPropertyOp25
 70
     1
102
RTVSPropertyOp26
 70
     1
102
RTVSPropertyOp27
 70
     1
102
RTVSPropertyOp28
 70
     1
102
RTVSPropertyOp29
 70
     1
102
RTVSPropertyOp30
 70
     1
102
RTVSPropertyOp31
 70
     1
102
RTVSPropertyOp32
 70
     1
102
RTVSPropertyOp33
 70
     1
102
RTVSPropertyOp34
 70
     1
102
RTVSPropertyOp35
 70
     1
102
RTVSPropertyOp36
 70
     1
102
RTVSPropertyOp37
 70
     1
102
RTVSPropertyOp38
 70
     1
102
RTVSPropertyOp39
 70
     1
102
RTVSPropertyOp40
 70
     1
102
RTVSPropertyOp41
 70
     1
102
RTVSPropertyOp42
 70
     1
102
RTVSPropertyOp43
 70
     1
102
RTVSPropertyOp44
 70
     1
102
RTVSPropertyOp45
 70
     1
102
RTVSPropertyOp46
 70
     1
102
RTVSPropertyOp47
 70
     1
102
RTVSPropertyOp48
 70
     1
102
RTVSPropertyOp49
 70
     1
102
RTVSPropertyOp50
 70
     1
102
RTVSPropertyOp51
 70
     0
102
RTVSPropertyOp52
 70
     0
102
RTVSPropertyOp53
 70
     1
102
RTVSPropertyOp54
 70
     1
102
RTVSPropertyOp55
 70
     1
102
RTVSPropertyOp56
 70
     1
102
RTVSPropertyOp57
 70
     1
102
RTVSPropertyOp58
 70
     1
102
RTVSPropertyOp59
 70
     1
102
RTVSPropertyOp60
 70
     1
102
RTVSPropertyOp61
 70
     1
102
RTVSPropertyOp62
 70
     1
  0
XRECORD
  5
833C
102
{ACAD_REACTORS
330
833B
102
}
330
833B
100
AcDbXrecord
280
     1
102
RTVSPost2010Prop28
280
     0
102
RTVSPost2010PropOp28
 70
     1
102
RTVSPost2010Prop29
280
     1
102
RTVSPost2010PropOp29
 70
     1
102
RTVSPost2010Prop30
280
     1
102
RTVSPost2010PropOp30
 70
     1
102
RTVSPost2010Prop31
280
     0
102
RTVSPost2010PropOp31
 70
     1
102
RTVSPost2010Prop32
280
     0
102
RTVSPost2010PropOp32
 70
     1
102
RTVSPost2010Prop33
280
     0
102
RTVSPost2010PropOp33
 70
     1
102
RTVSPost2010Prop34
280
     0
102
RTVSPost2010PropOp34
 70
     1
102
RTVSPost2010Prop35
280
     0
102
RTVSPost2010PropOp35
 70
     1
102
RTVSPost2010Prop36
280
     0
102
RTVSPost2010PropOp36
 70
     1
102
RTVSPost2010Prop37
 90
       50
102
RTVSPost2010PropOp37
 70
     1
102
RTVSPost2010Prop38
140
0.0
102
RTVSPost2010PropOp38
 70
     1
102
RTVSPost2010Prop39
140
1.0
102
RTVSPost2010PropOp39
 70
     1
102
RTVSPost2010Prop40
 90
        0
102
RTVSPost2010PropOp40
 70
     1
102
RTVSPost2010Prop41ColorIndex
 90
       18
102
RTVSPost2010Prop41ColorRGB
 90
        0
102
RTVSPost2010PropOp41
 70
     1
102
RTVSPost2010Prop42
 90
       50
102
RTVSPost2010PropOp42
 70
     1
102
RTVSPost2010Prop43
 90
        3
102
RTVSPost2010PropOp43
 70
     1
102
RTVSPost2010Prop44ColorIndex
 90
        5
102
RTVSPost2010Prop44ColorRGB
 90
      255
102
RTVSPost2010PropOp44
 70
     1
102
RTVSPost2010Prop45
280
     0
102
RTVSPost2010PropOp45
 70
     1
102
RTVSPost2010Prop46
 90
       50
102
RTVSPost2010PropOp46
 70
     1
102
RTVSPost2010Prop47
 90
       50
102
RTVSPost2010PropOp47
 70
     1
102
RTVSPost2010Prop48
 90
       50
102
RTVSPost2010PropOp48
 70
     1
102
RTVSPost2010Prop49
280
     0
102
RTVSPost2010PropOp49
 70
     1
102
RTVSPost2010Prop50
 90
       50
102
RTVSPost2010PropOp50
 70
     1
102
RTVSPost2010Prop51ColorIndex
 90
      256
102
RTVSPost2010Prop51ColorRGB
 90
-16777216
102
RTVSPost2010PropOp51
 70
     0
102
RTVSPost2010Prop52
140
1.0
102
RTVSPost2010PropOp52
 70
     0
102
RTVSPost2010Prop53
 90
        2
102
RTVSPost2010PropOp53
 70
     1
102
RTVSPost2010Prop54
  1
strokes_ogs.tif
102
RTVSPost2010PropOp54
 70
     1
102
RTVSPost2010Prop55
280
     0
102
RTVSPost2010PropOp55
 70
     1
102
RTVSPost2010Prop56
140
1.0
102
RTVSPost2010PropOp56
 70
     1
102
RTVSPost2010Prop57
140
1.0
102
RTVSPost2010PropOp57
 70
     1
102
RTVSPropertyOp0
 70
     1
102
RTVSPropertyOp1
 70
     1
102
RTVSPropertyOp2
 70
     1
102
RTVSPropertyOp3
 70
     1
102
RTVSPropertyOp4
 70
     1
102
RTVSPropertyOp5
 70
     1
102
RTVSPropertyOp6
 70
     1
102
RTVSPropertyOp7
 70
     1
102
RTVSPropertyOp8
 70
     1
102
RTVSPropertyOp9
 70
     1
102
RTVSPropertyOp10
 70
     1
102
RTVSPropertyOp11
 70
     1
102
RTVSPropertyOp12
 70
     1
102
RTVSPropertyOp13
 70
     1
102
RTVSPropertyOp14
 70
     1
102
RTVSPropertyOp15
 70
     1
102
RTVSPropertyOp16
 70
     1
102
RTVSPropertyOp17
 70
     1
102
RTVSPropertyOp18
 70
     1
102
RTVSPropertyOp19
 70
     1
102
RTVSPropertyOp20
 70
     1
102
RTVSPropertyOp21
 70
     1
102
RTVSPropertyOp22
 70
     1
102
RTVSPropertyOp23
 70
     1
102
RTVSPropertyOp24
 70
     1
102
RTVSPropertyOp25
 70
     1
102
RTVSPropertyOp26
 70
     1
102
RTVSPropertyOp27
 70
     1
102
RTVSPropertyOp28
 70
     1
102
RTVSPropertyOp29
 70
     1
102
RTVSPropertyOp30
 70
     1
102
RTVSPropertyOp31
 70
     1
102
RTVSPropertyOp32
 70
     1
102
RTVSPropertyOp33
 70
     1
102
RTVSPropertyOp34
 70
     1
102
RTVSPropertyOp35
 70
     1
102
RTVSPropertyOp36
 70
     1
102
RTVSPropertyOp37
 70
     1
102
RTVSPropertyOp38
 70
     1
102
RTVSPropertyOp39
 70
     1
102
RTVSPropertyOp40
 70
     1
102
RTVSPropertyOp41
 70
     1
102
RTVSPropertyOp42
 70
     1
102
RTVSPropertyOp43
 70
     1
102
RTVSPropertyOp44
 70
     1
102
RTVSPropertyOp45
 70
     1
102
RTVSPropertyOp46
 70
     1
102
RTVSPropertyOp47
 70
     1
102
RTVSPropertyOp48
 70
     1
102
RTVSPropertyOp49
 70
     1
102
RTVSPropertyOp50
 70
     1
102
RTVSPropertyOp51
 70
     0
102
RTVSPropertyOp52
 70
     0
102
RTVSPropertyOp53
 70
     1
102
RTVSPropertyOp54
 70
     1
102
RTVSPropertyOp55
 70
     1
102
RTVSPropertyOp56
 70
     1
102
RTVSPropertyOp57
 70
     1
102
RTVSPropertyOp58
 70
     1
102
RTVSPropertyOp59
 70
     1
102
RTVSPropertyOp60
 70
     1
102
RTVSPropertyOp61
 70
     1
102
RTVSPropertyOp62
 70
     1
  0
XRECORD
  5
8356
102
{ACAD_REACTORS
330
8355
102
}
330
8355
100
AcDbXrecord
280
     1
102
RTVSPost2010Prop28
280
     0
102
RTVSPost2010PropOp28
 70
     1
102
RTVSPost2010Prop29
280
     1
102
RTVSPost2010PropOp29
 70
     1
102
RTVSPost2010Prop30
280
     1
102
RTVSPost2010PropOp30
 70
     1
102
RTVSPost2010Prop31
280
     0
102
RTVSPost2010PropOp31
 70
     1
102
RTVSPost2010Prop32
280
     0
102
RTVSPost2010PropOp32
 70
     1
102
RTVSPost2010Prop33
280
     0
102
RTVSPost2010PropOp33
 70
     1
102
RTVSPost2010Prop34
280
     0
102
RTVSPost2010PropOp34
 70
     1
102
RTVSPost2010Prop35
280
     0
102
RTVSPost2010PropOp35
 70
     1
102
RTVSPost2010Prop36
280
     0
102
RTVSPost2010PropOp36
 70
     1
102
RTVSPost2010Prop37
 90
       50
102
RTVSPost2010PropOp37
 70
     0
102
RTVSPost2010Prop38
140
0.0
102
RTVSPost2010PropOp38
 70
     0
102
RTVSPost2010Prop39
140
1.0
102
RTVSPost2010PropOp39
 70
     0
102
RTVSPost2010Prop40
 90
        0
102
RTVSPost2010PropOp40
 70
     0
102
RTVSPost2010Prop41ColorIndex
 90
       18
102
RTVSPost2010Prop41ColorRGB
 90
        0
102
RTVSPost2010PropOp41
 70
     0
102
RTVSPost2010Prop42
 90
       50
102
RTVSPost2010PropOp42
 70
     0
102
RTVSPost2010Prop43
 90
        3
102
RTVSPost2010PropOp43
 70
     0
102
RTVSPost2010Prop44ColorIndex
 90
        5
102
RTVSPost2010Prop44ColorRGB
 90
      255
102
RTVSPost2010PropOp44
 70
     0
102
RTVSPost2010Prop45
280
     0
102
RTVSPost2010PropOp45
 70
     1
102
RTVSPost2010Prop46
 90
       50
102
RTVSPost2010PropOp46
 70
     0
102
RTVSPost2010Prop47
 90
       50
102
RTVSPost2010PropOp47
 70
     0
102
RTVSPost2010Prop48
 90
       50
102
RTVSPost2010PropOp48
 70
     0
102
RTVSPost2010Prop49
280
     0
102
RTVSPost2010PropOp49
 70
     1
102
RTVSPost2010Prop50
 90
       50
102
RTVSPost2010PropOp50
 70
     0
102
RTVSPost2010Prop51ColorIndex
 90
      256
102
RTVSPost2010Prop51ColorRGB
 90
-16777216
102
RTVSPost2010PropOp51
 70
     0
102
RTVSPost2010Prop52
140
1.0
102
RTVSPost2010PropOp52
 70
     0
102
RTVSPost2010Prop53
 90
        2
102
RTVSPost2010PropOp53
 70
     0
102
RTVSPost2010Prop54
  1
strokes_ogs.tif
102
RTVSPost2010PropOp54
 70
     0
102
RTVSPost2010Prop55
280
     0
102
RTVSPost2010PropOp55
 70
     1
102
RTVSPost2010Prop56
140
1.0
102
RTVSPost2010PropOp56
 70
     0
102
RTVSPost2010Prop57
140
1.0
102
RTVSPost2010PropOp57
 70
     0
102
RTVSPropertyOp0
 70
     0
102
RTVSPropertyOp1
 70
     0
102
RTVSPropertyOp2
 70
     0
102
RTVSPropertyOp3
 70
     0
102
RTVSPropertyOp4
 70
     0
102
RTVSPropertyOp5
 70
     0
102
RTVSPropertyOp6
 70
     0
102
RTVSPropertyOp7
 70
     0
102
RTVSPropertyOp8
 70
     0
102
RTVSPropertyOp9
 70
     0
102
RTVSPropertyOp10
 70
     0
102
RTVSPropertyOp11
 70
     0
102
RTVSPropertyOp12
 70
     0
102
RTVSPropertyOp13
 70
     0
102
RTVSPropertyOp14
 70
     2
102
RTVSPropertyOp15
 70
     0
102
RTVSPropertyOp16
 70
     0
102
RTVSPropertyOp17
 70
     0
102
RTVSPropertyOp18
 70
     0
102
RTVSPropertyOp19
 70
     0
102
RTVSPropertyOp20
 70
     0
102
RTVSPropertyOp21
 70
     0
102
RTVSPropertyOp22
 70
     0
102
RTVSPropertyOp23
 70
     0
102
RTVSPropertyOp24
 70
     0
102
RTVSPropertyOp25
 70
     0
102
RTVSPropertyOp26
 70
     0
102
RTVSPropertyOp27
 70
     0
102
RTVSPropertyOp28
 70
     1
102
RTVSPropertyOp29
 70
     1
102
RTVSPropertyOp30
 70
     1
102
RTVSPropertyOp31
 70
     1
102
RTVSPropertyOp32
 70
     1
102
RTVSPropertyOp33
 70
     1
102
RTVSPropertyOp34
 70
     1
102
RTVSPropertyOp35
 70
     1
102
RTVSPropertyOp36
 70
     1
102
RTVSPropertyOp37
 70
     0
102
RTVSPropertyOp38
 70
     0
102
RTVSPropertyOp39
 70
     0
102
RTVSPropertyOp40
 70
     0
102
RTVSPropertyOp41
 70
     0
102
RTVSPropertyOp42
 70
     0
102
RTVSPropertyOp43
 70
     0
102
RTVSPropertyOp44
 70
     0
102
RTVSPropertyOp45
 70
     1
102
RTVSPropertyOp46
 70
     0
102
RTVSPropertyOp47
 70
     0
102
RTVSPropertyOp48
 70
     0
102
RTVSPropertyOp49
 70
     1
102
RTVSPropertyOp50
 70
     0
102
RTVSPropertyOp51
 70
     0
102
RTVSPropertyOp52
 70
     0
102
RTVSPropertyOp53
 70
     0
102
RTVSPropertyOp54
 70
     0
102
RTVSPropertyOp55
 70
     1
102
RTVSPropertyOp56
 70
     0
102
RTVSPropertyOp57
 70
     0
102
RTVSPropertyOp58
 70
     0
102
RTVSPropertyOp59
 70
     0
102
RTVSPropertyOp60
 70
     0
102
RTVSPropertyOp61
 70
     0
102
RTVSPropertyOp62
 70
     0
  0
XRECORD
  5
8344
102
{ACAD_REACTORS
330
8343
102
}
330
8343
100
AcDbXrecord
280
     1
102
RTVSPost2010Prop28
280
     0
102
RTVSPost2010PropOp28
 70
     1
102
RTVSPost2010Prop29
280
     1
102
RTVSPost2010PropOp29
 70
     1
102
RTVSPost2010Prop30
280
     1
102
RTVSPost2010PropOp30
 70
     1
102
RTVSPost2010Prop31
280
     0
102
RTVSPost2010PropOp31
 70
     1
102
RTVSPost2010Prop32
280
     0
102
RTVSPost2010PropOp32
 70
     1
102
RTVSPost2010Prop33
280
     0
102
RTVSPost2010PropOp33
 70
     1
102
RTVSPost2010Prop34
280
     0
102
RTVSPost2010PropOp34
 70
     1
102
RTVSPost2010Prop35
280
     0
102
RTVSPost2010PropOp35
 70
     1
102
RTVSPost2010Prop36
280
     0
102
RTVSPost2010PropOp36
 70
     1
102
RTVSPost2010Prop37
 90
       50
102
RTVSPost2010PropOp37
 70
     1
102
RTVSPost2010Prop38
140
0.0
102
RTVSPost2010PropOp38
 70
     1
102
RTVSPost2010Prop39
140
1.0
102
RTVSPost2010PropOp39
 70
     1
102
RTVSPost2010Prop40
 90
        0
102
RTVSPost2010PropOp40
 70
     1
102
RTVSPost2010Prop41ColorIndex
 90
       18
102
RTVSPost2010Prop41ColorRGB
 90
        0
102
RTVSPost2010PropOp41
 70
     1
102
RTVSPost2010Prop42
 90
       50
102
RTVSPost2010PropOp42
 70
     1
102
RTVSPost2010Prop43
 90
        3
102
RTVSPost2010PropOp43
 70
     1
102
RTVSPost2010Prop44ColorIndex
 90
        5
102
RTVSPost2010Prop44ColorRGB
 90
      255
102
RTVSPost2010PropOp44
 70
     1
102
RTVSPost2010Prop45
280
     0
102
RTVSPost2010PropOp45
 70
     1
102
RTVSPost2010Prop46
 90
       50
102
RTVSPost2010PropOp46
 70
     1
102
RTVSPost2010Prop47
 90
       50
102
RTVSPost2010PropOp47
 70
     1
102
RTVSPost2010Prop48
 90
       50
102
RTVSPost2010PropOp48
 70
     1
102
RTVSPost2010Prop49
280
     0
102
RTVSPost2010PropOp49
 70
     1
102
RTVSPost2010Prop50
 90
       50
102
RTVSPost2010PropOp50
 70
     1
102
RTVSPost2010Prop51ColorIndex
 90
      256
102
RTVSPost2010Prop51ColorRGB
 90
-16777216
102
RTVSPost2010PropOp51
 70
     0
102
RTVSPost2010Prop52
140
1.0
102
RTVSPost2010PropOp52
 70
     0
102
RTVSPost2010Prop53
 90
        2
102
RTVSPost2010PropOp53
 70
     1
102
RTVSPost2010Prop54
  1
strokes_ogs.tif
102
RTVSPost2010PropOp54
 70
     1
102
RTVSPost2010Prop55
280
     0
102
RTVSPost2010PropOp55
 70
     1
102
RTVSPost2010Prop56
140
1.0
102
RTVSPost2010PropOp56
 70
     1
102
RTVSPost2010Prop57
140
1.0
102
RTVSPost2010PropOp57
 70
     1
102
RTVSPropertyOp0
 70
     1
102
RTVSPropertyOp1
 70
     1
102
RTVSPropertyOp2
 70
     1
102
RTVSPropertyOp3
 70
     1
102
RTVSPropertyOp4
 70
     1
102
RTVSPropertyOp5
 70
     1
102
RTVSPropertyOp6
 70
     1
102
RTVSPropertyOp7
 70
     1
102
RTVSPropertyOp8
 70
     1
102
RTVSPropertyOp9
 70
     1
102
RTVSPropertyOp10
 70
     1
102
RTVSPropertyOp11
 70
     1
102
RTVSPropertyOp12
 70
     1
102
RTVSPropertyOp13
 70
     1
102
RTVSPropertyOp14
 70
     1
102
RTVSPropertyOp15
 70
     1
102
RTVSPropertyOp16
 70
     1
102
RTVSPropertyOp17
 70
     1
102
RTVSPropertyOp18
 70
     1
102
RTVSPropertyOp19
 70
     1
102
RTVSPropertyOp20
 70
     1
102
RTVSPropertyOp21
 70
     1
102
RTVSPropertyOp22
 70
     1
102
RTVSPropertyOp23
 70
     1
102
RTVSPropertyOp24
 70
     1
102
RTVSPropertyOp25
 70
     1
102
RTVSPropertyOp26
 70
     1
102
RTVSPropertyOp27
 70
     1
102
RTVSPropertyOp28
 70
     1
102
RTVSPropertyOp29
 70
     1
102
RTVSPropertyOp30
 70
     1
102
RTVSPropertyOp31
 70
     1
102
RTVSPropertyOp32
 70
     1
102
RTVSPropertyOp33
 70
     1
102
RTVSPropertyOp34
 70
     1
102
RTVSPropertyOp35
 70
     1
102
RTVSPropertyOp36
 70
     1
102
RTVSPropertyOp37
 70
     1
102
RTVSPropertyOp38
 70
     1
102
RTVSPropertyOp39
 70
     1
102
RTVSPropertyOp40
 70
     1
102
RTVSPropertyOp41
 70
     1
102
RTVSPropertyOp42
 70
     1
102
RTVSPropertyOp43
 70
     1
102
RTVSPropertyOp44
 70
     1
102
RTVSPropertyOp45
 70
     1
102
RTVSPropertyOp46
 70
     1
102
RTVSPropertyOp47
 70
     1
102
RTVSPropertyOp48
 70
     1
102
RTVSPropertyOp49
 70
     1
102
RTVSPropertyOp50
 70
     1
102
RTVSPropertyOp51
 70
     0
102
RTVSPropertyOp52
 70
     0
102
RTVSPropertyOp53
 70
     1
102
RTVSPropertyOp54
 70
     1
102
RTVSPropertyOp55
 70
     1
102
RTVSPropertyOp56
 70
     1
102
RTVSPropertyOp57
 70
     1
102
RTVSPropertyOp58
 70
     1
102
RTVSPropertyOp59
 70
     1
102
RTVSPropertyOp60
 70
     1
102
RTVSPropertyOp61
 70
     1
102
RTVSPropertyOp62
 70
     1
  0
XRECORD
  5
8328
102
{ACAD_REACTORS
330
8327
102
}
330
8327
100
AcDbXrecord
280
     1
102
RTVSPost2010Prop28
280
     0
102
RTVSPost2010PropOp28
 70
     1
102
RTVSPost2010Prop29
280
     1
102
RTVSPost2010PropOp29
 70
     1
102
RTVSPost2010Prop30
280
     1
102
RTVSPost2010PropOp30
 70
     1
102
RTVSPost2010Prop31
280
     0
102
RTVSPost2010PropOp31
 70
     1
102
RTVSPost2010Prop32
280
     0
102
RTVSPost2010PropOp32
 70
     1
102
RTVSPost2010Prop33
280
     0
102
RTVSPost2010PropOp33
 70
     1
102
RTVSPost2010Prop34
280
     0
102
RTVSPost2010PropOp34
 70
     1
102
RTVSPost2010Prop35
280
     0
102
RTVSPost2010PropOp35
 70
     1
102
RTVSPost2010Prop36
280
     0
102
RTVSPost2010PropOp36
 70
     1
102
RTVSPost2010Prop37
 90
       50
102
RTVSPost2010PropOp37
 70
     1
102
RTVSPost2010Prop38
140
0.0
102
RTVSPost2010PropOp38
 70
     1
102
RTVSPost2010Prop39
140
1.0
102
RTVSPost2010PropOp39
 70
     1
102
RTVSPost2010Prop40
 90
        0
102
RTVSPost2010PropOp40
 70
     1
102
RTVSPost2010Prop41ColorIndex
 90
       18
102
RTVSPost2010Prop41ColorRGB
 90
        0
102
RTVSPost2010PropOp41
 70
     1
102
RTVSPost2010Prop42
 90
       50
102
RTVSPost2010PropOp42
 70
     1
102
RTVSPost2010Prop43
 90
        3
102
RTVSPost2010PropOp43
 70
     1
102
RTVSPost2010Prop44ColorIndex
 90
        5
102
RTVSPost2010Prop44ColorRGB
 90
      255
102
RTVSPost2010PropOp44
 70
     1
102
RTVSPost2010Prop45
280
     0
102
RTVSPost2010PropOp45
 70
     1
102
RTVSPost2010Prop46
 90
       50
102
RTVSPost2010PropOp46
 70
     1
102
RTVSPost2010Prop47
 90
       50
102
RTVSPost2010PropOp47
 70
     1
102
RTVSPost2010Prop48
 90
       50
102
RTVSPost2010PropOp48
 70
     1
102
RTVSPost2010Prop49
280
     0
102
RTVSPost2010PropOp49
 70
     1
102
RTVSPost2010Prop50
 90
       50
102
RTVSPost2010PropOp50
 70
     1
102
RTVSPost2010Prop51ColorIndex
 90
      256
102
RTVSPost2010Prop51ColorRGB
 90
-16777216
102
RTVSPost2010PropOp51
 70
     0
102
RTVSPost2010Prop52
140
1.0
102
RTVSPost2010PropOp52
 70
     0
102
RTVSPost2010Prop53
 90
        2
102
RTVSPost2010PropOp53
 70
     1
102
RTVSPost2010Prop54
  1
strokes_ogs.tif
102
RTVSPost2010PropOp54
 70
     1
102
RTVSPost2010Prop55
280
     0
102
RTVSPost2010PropOp55
 70
     1
102
RTVSPost2010Prop56
140
1.0
102
RTVSPost2010PropOp56
 70
     1
102
RTVSPost2010Prop57
140
1.0
102
RTVSPost2010PropOp57
 70
     1
102
RTVSPropertyOp0
 70
     1
102
RTVSPropertyOp1
 70
     1
102
RTVSPropertyOp2
 70
     1
102
RTVSPropertyOp3
 70
     1
102
RTVSPropertyOp4
 70
     1
102
RTVSPropertyOp5
 70
     1
102
RTVSPropertyOp6
 70
     1
102
RTVSPropertyOp7
 70
     1
102
RTVSPropertyOp8
 70
     1
102
RTVSPropertyOp9
 70
     1
102
RTVSPropertyOp10
 70
     1
102
RTVSPropertyOp11
 70
     1
102
RTVSPropertyOp12
 70
     1
102
RTVSPropertyOp13
 70
     1
102
RTVSPropertyOp14
 70
     1
102
RTVSPropertyOp15
 70
     1
102
RTVSPropertyOp16
 70
     1
102
RTVSPropertyOp17
 70
     1
102
RTVSPropertyOp18
 70
     1
102
RTVSPropertyOp19
 70
     1
102
RTVSPropertyOp20
 70
     1
102
RTVSPropertyOp21
 70
     1
102
RTVSPropertyOp22
 70
     1
102
RTVSPropertyOp23
 70
     1
102
RTVSPropertyOp24
 70
     1
102
RTVSPropertyOp25
 70
     1
102
RTVSPropertyOp26
 70
     1
102
RTVSPropertyOp27
 70
     1
102
RTVSPropertyOp28
 70
     1
102
RTVSPropertyOp29
 70
     1
102
RTVSPropertyOp30
 70
     1
102
RTVSPropertyOp31
 70
     1
102
RTVSPropertyOp32
 70
     1
102
RTVSPropertyOp33
 70
     1
102
RTVSPropertyOp34
 70
     1
102
RTVSPropertyOp35
 70
     1
102
RTVSPropertyOp36
 70
     1
102
RTVSPropertyOp37
 70
     1
102
RTVSPropertyOp38
 70
     1
102
RTVSPropertyOp39
 70
     1
102
RTVSPropertyOp40
 70
     1
102
RTVSPropertyOp41
 70
     1
102
RTVSPropertyOp42
 70
     1
102
RTVSPropertyOp43
 70
     1
102
RTVSPropertyOp44
 70
     1
102
RTVSPropertyOp45
 70
     1
102
RTVSPropertyOp46
 70
     1
102
RTVSPropertyOp47
 70
     1
102
RTVSPropertyOp48
 70
     1
102
RTVSPropertyOp49
 70
     1
102
RTVSPropertyOp50
 70
     1
102
RTVSPropertyOp51
 70
     0
102
RTVSPropertyOp52
 70
     0
102
RTVSPropertyOp53
 70
     1
102
RTVSPropertyOp54
 70
     1
102
RTVSPropertyOp55
 70
     1
102
RTVSPropertyOp56
 70
     1
102
RTVSPropertyOp57
 70
     1
102
RTVSPropertyOp58
 70
     1
102
RTVSPropertyOp59
 70
     1
102
RTVSPropertyOp60
 70
     1
102
RTVSPropertyOp61
 70
     1
102
RTVSPropertyOp62
 70
     1
  0
XRECORD
  5
832A
102
{ACAD_REACTORS
330
8329
102
}
330
8329
100
AcDbXrecord
280
     1
102
RTVSPost2010Prop28
280
     0
102
RTVSPost2010PropOp28
 70
     1
102
RTVSPost2010Prop29
280
     1
102
RTVSPost2010PropOp29
 70
     1
102
RTVSPost2010Prop30
280
     1
102
RTVSPost2010PropOp30
 70
     1
102
RTVSPost2010Prop31
280
     0
102
RTVSPost2010PropOp31
 70
     1
102
RTVSPost2010Prop32
280
     0
102
RTVSPost2010PropOp32
 70
     1
102
RTVSPost2010Prop33
280
     0
102
RTVSPost2010PropOp33
 70
     1
102
RTVSPost2010Prop34
280
     0
102
RTVSPost2010PropOp34
 70
     1
102
RTVSPost2010Prop35
280
     0
102
RTVSPost2010PropOp35
 70
     1
102
RTVSPost2010Prop36
280
     0
102
RTVSPost2010PropOp36
 70
     1
102
RTVSPost2010Prop37
 90
       50
102
RTVSPost2010PropOp37
 70
     1
102
RTVSPost2010Prop38
140
0.0
102
RTVSPost2010PropOp38
 70
     1
102
RTVSPost2010Prop39
140
1.0
102
RTVSPost2010PropOp39
 70
     1
102
RTVSPost2010Prop40
 90
        0
102
RTVSPost2010PropOp40
 70
     1
102
RTVSPost2010Prop41ColorIndex
 90
       18
102
RTVSPost2010Prop41ColorRGB
 90
        0
102
RTVSPost2010PropOp41
 70
     1
102
RTVSPost2010Prop42
 90
       50
102
RTVSPost2010PropOp42
 70
     1
102
RTVSPost2010Prop43
 90
        3
102
RTVSPost2010PropOp43
 70
     1
102
RTVSPost2010Prop44ColorIndex
 90
        5
102
RTVSPost2010Prop44ColorRGB
 90
      255
102
RTVSPost2010PropOp44
 70
     1
102
RTVSPost2010Prop45
280
     0
102
RTVSPost2010PropOp45
 70
     1
102
RTVSPost2010Prop46
 90
       50
102
RTVSPost2010PropOp46
 70
     1
102
RTVSPost2010Prop47
 90
       50
102
RTVSPost2010PropOp47
 70
     1
102
RTVSPost2010Prop48
 90
       50
102
RTVSPost2010PropOp48
 70
     1
102
RTVSPost2010Prop49
280
     0
102
RTVSPost2010PropOp49
 70
     1
102
RTVSPost2010Prop50
 90
       50
102
RTVSPost2010PropOp50
 70
     1
102
RTVSPost2010Prop51ColorIndex
 90
      256
102
RTVSPost2010Prop51ColorRGB
 90
-16777216
102
RTVSPost2010PropOp51
 70
     0
102
RTVSPost2010Prop52
140
1.0
102
RTVSPost2010PropOp52
 70
     0
102
RTVSPost2010Prop53
 90
        2
102
RTVSPost2010PropOp53
 70
     1
102
RTVSPost2010Prop54
  1
strokes_ogs.tif
102
RTVSPost2010PropOp54
 70
     1
102
RTVSPost2010Prop55
280
     0
102
RTVSPost2010PropOp55
 70
     1
102
RTVSPost2010Prop56
140
1.0
102
RTVSPost2010PropOp56
 70
     1
102
RTVSPost2010Prop57
140
1.0
102
RTVSPost2010PropOp57
 70
     1
102
RTVSPropertyOp0
 70
     1
102
RTVSPropertyOp1
 70
     1
102
RTVSPropertyOp2
 70
     1
102
RTVSPropertyOp3
 70
     1
102
RTVSPropertyOp4
 70
     1
102
RTVSPropertyOp5
 70
     1
102
RTVSPropertyOp6
 70
     1
102
RTVSPropertyOp7
 70
     1
102
RTVSPropertyOp8
 70
     1
102
RTVSPropertyOp9
 70
     1
102
RTVSPropertyOp10
 70
     1
102
RTVSPropertyOp11
 70
     1
102
RTVSPropertyOp12
 70
     1
102
RTVSPropertyOp13
 70
     1
102
RTVSPropertyOp14
 70
     1
102
RTVSPropertyOp15
 70
     1
102
RTVSPropertyOp16
 70
     1
102
RTVSPropertyOp17
 70
     1
102
RTVSPropertyOp18
 70
     1
102
RTVSPropertyOp19
 70
     1
102
RTVSPropertyOp20
 70
     1
102
RTVSPropertyOp21
 70
     1
102
RTVSPropertyOp22
 70
     1
102
RTVSPropertyOp23
 70
     1
102
RTVSPropertyOp24
 70
     1
102
RTVSPropertyOp25
 70
     1
102
RTVSPropertyOp26
 70
     1
102
RTVSPropertyOp27
 70
     1
102
RTVSPropertyOp28
 70
     1
102
RTVSPropertyOp29
 70
     1
102
RTVSPropertyOp30
 70
     1
102
RTVSPropertyOp31
 70
     1
102
RTVSPropertyOp32
 70
     1
102
RTVSPropertyOp33
 70
     1
102
RTVSPropertyOp34
 70
     1
102
RTVSPropertyOp35
 70
     1
102
RTVSPropertyOp36
 70
     1
102
RTVSPropertyOp37
 70
     1
102
RTVSPropertyOp38
 70
     1
102
RTVSPropertyOp39
 70
     1
102
RTVSPropertyOp40
 70
     1
102
RTVSPropertyOp41
 70
     1
102
RTVSPropertyOp42
 70
     1
102
RTVSPropertyOp43
 70
     1
102
RTVSPropertyOp44
 70
     1
102
RTVSPropertyOp45
 70
     1
102
RTVSPropertyOp46
 70
     1
102
RTVSPropertyOp47
 70
     1
102
RTVSPropertyOp48
 70
     1
102
RTVSPropertyOp49
 70
     1
102
RTVSPropertyOp50
 70
     1
102
RTVSPropertyOp51
 70
     0
102
RTVSPropertyOp52
 70
     0
102
RTVSPropertyOp53
 70
     1
102
RTVSPropertyOp54
 70
     1
102
RTVSPropertyOp55
 70
     1
102
RTVSPropertyOp56
 70
     1
102
RTVSPropertyOp57
 70
     1
102
RTVSPropertyOp58
 70
     1
102
RTVSPropertyOp59
 70
     1
102
RTVSPropertyOp60
 70
     1
102
RTVSPropertyOp61
 70
     1
102
RTVSPropertyOp62
 70
     1
  0
XRECORD
  5
832C
102
{ACAD_REACTORS
330
832B
102
}
330
832B
100
AcDbXrecord
280
     1
102
RTVSPost2010Prop28
280
     0
102
RTVSPost2010PropOp28
 70
     1
102
RTVSPost2010Prop29
280
     1
102
RTVSPost2010PropOp29
 70
     1
102
RTVSPost2010Prop30
280
     1
102
RTVSPost2010PropOp30
 70
     1
102
RTVSPost2010Prop31
280
     0
102
RTVSPost2010PropOp31
 70
     1
102
RTVSPost2010Prop32
280
     0
102
RTVSPost2010PropOp32
 70
     1
102
RTVSPost2010Prop33
280
     0
102
RTVSPost2010PropOp33
 70
     1
102
RTVSPost2010Prop34
280
     0
102
RTVSPost2010PropOp34
 70
     1
102
RTVSPost2010Prop35
280
     0
102
RTVSPost2010PropOp35
 70
     1
102
RTVSPost2010Prop36
280
     0
102
RTVSPost2010PropOp36
 70
     1
102
RTVSPost2010Prop37
 90
       50
102
RTVSPost2010PropOp37
 70
     1
102
RTVSPost2010Prop38
140
0.0
102
RTVSPost2010PropOp38
 70
     1
102
RTVSPost2010Prop39
140
1.0
102
RTVSPost2010PropOp39
 70
     1
102
RTVSPost2010Prop40
 90
        0
102
RTVSPost2010PropOp40
 70
     1
102
RTVSPost2010Prop41ColorIndex
 90
       18
102
RTVSPost2010Prop41ColorRGB
 90
        0
102
RTVSPost2010PropOp41
 70
     1
102
RTVSPost2010Prop42
 90
       50
102
RTVSPost2010PropOp42
 70
     1
102
RTVSPost2010Prop43
 90
        3
102
RTVSPost2010PropOp43
 70
     1
102
RTVSPost2010Prop44ColorIndex
 90
        5
102
RTVSPost2010Prop44ColorRGB
 90
      255
102
RTVSPost2010PropOp44
 70
     1
102
RTVSPost2010Prop45
280
     0
102
RTVSPost2010PropOp45
 70
     1
102
RTVSPost2010Prop46
 90
       50
102
RTVSPost2010PropOp46
 70
     1
102
RTVSPost2010Prop47
 90
       50
102
RTVSPost2010PropOp47
 70
     1
102
RTVSPost2010Prop48
 90
       50
102
RTVSPost2010PropOp48
 70
     1
102
RTVSPost2010Prop49
280
     0
102
RTVSPost2010PropOp49
 70
     1
102
RTVSPost2010Prop50
 90
       50
102
RTVSPost2010PropOp50
 70
     1
102
RTVSPost2010Prop51ColorIndex
 90
      256
102
RTVSPost2010Prop51ColorRGB
 90
-16777216
102
RTVSPost2010PropOp51
 70
     0
102
RTVSPost2010Prop52
140
1.0
102
RTVSPost2010PropOp52
 70
     0
102
RTVSPost2010Prop53
 90
        2
102
RTVSPost2010PropOp53
 70
     1
102
RTVSPost2010Prop54
  1
strokes_ogs.tif
102
RTVSPost2010PropOp54
 70
     1
102
RTVSPost2010Prop55
280
     0
102
RTVSPost2010PropOp55
 70
     1
102
RTVSPost2010Prop56
140
1.0
102
RTVSPost2010PropOp56
 70
     1
102
RTVSPost2010Prop57
140
1.0
102
RTVSPost2010PropOp57
 70
     1
102
RTVSPropertyOp0
 70
     1
102
RTVSPropertyOp1
 70
     1
102
RTVSPropertyOp2
 70
     1
102
RTVSPropertyOp3
 70
     1
102
RTVSPropertyOp4
 70
     1
102
RTVSPropertyOp5
 70
     1
102
RTVSPropertyOp6
 70
     1
102
RTVSPropertyOp7
 70
     1
102
RTVSPropertyOp8
 70
     1
102
RTVSPropertyOp9
 70
     1
102
RTVSPropertyOp10
 70
     1
102
RTVSPropertyOp11
 70
     1
102
RTVSPropertyOp12
 70
     1
102
RTVSPropertyOp13
 70
     1
102
RTVSPropertyOp14
 70
     1
102
RTVSPropertyOp15
 70
     1
102
RTVSPropertyOp16
 70
     1
102
RTVSPropertyOp17
 70
     1
102
RTVSPropertyOp18
 70
     1
102
RTVSPropertyOp19
 70
     1
102
RTVSPropertyOp20
 70
     1
102
RTVSPropertyOp21
 70
     1
102
RTVSPropertyOp22
 70
     1
102
RTVSPropertyOp23
 70
     1
102
RTVSPropertyOp24
 70
     1
102
RTVSPropertyOp25
 70
     1
102
RTVSPropertyOp26
 70
     1
102
RTVSPropertyOp27
 70
     1
102
RTVSPropertyOp28
 70
     1
102
RTVSPropertyOp29
 70
     1
102
RTVSPropertyOp30
 70
     1
102
RTVSPropertyOp31
 70
     1
102
RTVSPropertyOp32
 70
     1
102
RTVSPropertyOp33
 70
     1
102
RTVSPropertyOp34
 70
     1
102
RTVSPropertyOp35
 70
     1
102
RTVSPropertyOp36
 70
     1
102
RTVSPropertyOp37
 70
     1
102
RTVSPropertyOp38
 70
     1
102
RTVSPropertyOp39
 70
     1
102
RTVSPropertyOp40
 70
     1
102
RTVSPropertyOp41
 70
     1
102
RTVSPropertyOp42
 70
     1
102
RTVSPropertyOp43
 70
     1
102
RTVSPropertyOp44
 70
     1
102
RTVSPropertyOp45
 70
     1
102
RTVSPropertyOp46
 70
     1
102
RTVSPropertyOp47
 70
     1
102
RTVSPropertyOp48
 70
     1
102
RTVSPropertyOp49
 70
     1
102
RTVSPropertyOp50
 70
     1
102
RTVSPropertyOp51
 70
     0
102
RTVSPropertyOp52
 70
     0
102
RTVSPropertyOp53
 70
     1
102
RTVSPropertyOp54
 70
     1
102
RTVSPropertyOp55
 70
     1
102
RTVSPropertyOp56
 70
     1
102
RTVSPropertyOp57
 70
     1
102
RTVSPropertyOp58
 70
     1
102
RTVSPropertyOp59
 70
     1
102
RTVSPropertyOp60
 70
     1
102
RTVSPropertyOp61
 70
     1
102
RTVSPropertyOp62
 70
     1
  0
XRECORD
  5
832E
102
{ACAD_REACTORS
330
832D
102
}
330
832D
100
AcDbXrecord
280
     1
102
RTVSPost2010Prop28
280
     0
102
RTVSPost2010PropOp28
 70
     1
102
RTVSPost2010Prop29
280
     1
102
RTVSPost2010PropOp29
 70
     1
102
RTVSPost2010Prop30
280
     1
102
RTVSPost2010PropOp30
 70
     1
102
RTVSPost2010Prop31
280
     0
102
RTVSPost2010PropOp31
 70
     1
102
RTVSPost2010Prop32
280
     0
102
RTVSPost2010PropOp32
 70
     1
102
RTVSPost2010Prop33
280
     0
102
RTVSPost2010PropOp33
 70
     1
102
RTVSPost2010Prop34
280
     0
102
RTVSPost2010PropOp34
 70
     1
102
RTVSPost2010Prop35
280
     0
102
RTVSPost2010PropOp35
 70
     1
102
RTVSPost2010Prop36
280
     0
102
RTVSPost2010PropOp36
 70
     1
102
RTVSPost2010Prop37
 90
       50
102
RTVSPost2010PropOp37
 70
     1
102
RTVSPost2010Prop38
140
0.0
102
RTVSPost2010PropOp38
 70
     1
102
RTVSPost2010Prop39
140
1.0
102
RTVSPost2010PropOp39
 70
     1
102
RTVSPost2010Prop40
 90
        0
102
RTVSPost2010PropOp40
 70
     1
102
RTVSPost2010Prop41ColorIndex
 90
       18
102
RTVSPost2010Prop41ColorRGB
 90
        0
102
RTVSPost2010PropOp41
 70
     1
102
RTVSPost2010Prop42
 90
       50
102
RTVSPost2010PropOp42
 70
     1
102
RTVSPost2010Prop43
 90
        3
102
RTVSPost2010PropOp43
 70
     1
102
RTVSPost2010Prop44ColorIndex
 90
        5
102
RTVSPost2010Prop44ColorRGB
 90
      255
102
RTVSPost2010PropOp44
 70
     1
102
RTVSPost2010Prop45
280
     0
102
RTVSPost2010PropOp45
 70
     1
102
RTVSPost2010Prop46
 90
       50
102
RTVSPost2010PropOp46
 70
     1
102
RTVSPost2010Prop47
 90
       50
102
RTVSPost2010PropOp47
 70
     1
102
RTVSPost2010Prop48
 90
       50
102
RTVSPost2010PropOp48
 70
     1
102
RTVSPost2010Prop49
280
     0
102
RTVSPost2010PropOp49
 70
     1
102
RTVSPost2010Prop50
 90
       50
102
RTVSPost2010PropOp50
 70
     1
102
RTVSPost2010Prop51ColorIndex
 90
      256
102
RTVSPost2010Prop51ColorRGB
 90
-16777216
102
RTVSPost2010PropOp51
 70
     0
102
RTVSPost2010Prop52
140
1.0
102
RTVSPost2010PropOp52
 70
     0
102
RTVSPost2010Prop53
 90
        2
102
RTVSPost2010PropOp53
 70
     1
102
RTVSPost2010Prop54
  1
strokes_ogs.tif
102
RTVSPost2010PropOp54
 70
     1
102
RTVSPost2010Prop55
280
     0
102
RTVSPost2010PropOp55
 70
     1
102
RTVSPost2010Prop56
140
1.0
102
RTVSPost2010PropOp56
 70
     1
102
RTVSPost2010Prop57
140
1.0
102
RTVSPost2010PropOp57
 70
     1
102
RTVSPropertyOp0
 70
     1
102
RTVSPropertyOp1
 70
     1
102
RTVSPropertyOp2
 70
     1
102
RTVSPropertyOp3
 70
     1
102
RTVSPropertyOp4
 70
     1
102
RTVSPropertyOp5
 70
     1
102
RTVSPropertyOp6
 70
     1
102
RTVSPropertyOp7
 70
     1
102
RTVSPropertyOp8
 70
     1
102
RTVSPropertyOp9
 70
     1
102
RTVSPropertyOp10
 70
     1
102
RTVSPropertyOp11
 70
     1
102
RTVSPropertyOp12
 70
     1
102
RTVSPropertyOp13
 70
     1
102
RTVSPropertyOp14
 70
     1
102
RTVSPropertyOp15
 70
     1
102
RTVSPropertyOp16
 70
     1
102
RTVSPropertyOp17
 70
     1
102
RTVSPropertyOp18
 70
     1
102
RTVSPropertyOp19
 70
     1
102
RTVSPropertyOp20
 70
     1
102
RTVSPropertyOp21
 70
     1
102
RTVSPropertyOp22
 70
     1
102
RTVSPropertyOp23
 70
     1
102
RTVSPropertyOp24
 70
     1
102
RTVSPropertyOp25
 70
     1
102
RTVSPropertyOp26
 70
     1
102
RTVSPropertyOp27
 70
     1
102
RTVSPropertyOp28
 70
     1
102
RTVSPropertyOp29
 70
     1
102
RTVSPropertyOp30
 70
     1
102
RTVSPropertyOp31
 70
     1
102
RTVSPropertyOp32
 70
     1
102
RTVSPropertyOp33
 70
     1
102
RTVSPropertyOp34
 70
     1
102
RTVSPropertyOp35
 70
     1
102
RTVSPropertyOp36
 70
     1
102
RTVSPropertyOp37
 70
     1
102
RTVSPropertyOp38
 70
     1
102
RTVSPropertyOp39
 70
     1
102
RTVSPropertyOp40
 70
     1
102
RTVSPropertyOp41
 70
     1
102
RTVSPropertyOp42
 70
     1
102
RTVSPropertyOp43
 70
     1
102
RTVSPropertyOp44
 70
     1
102
RTVSPropertyOp45
 70
     1
102
RTVSPropertyOp46
 70
     1
102
RTVSPropertyOp47
 70
     1
102
RTVSPropertyOp48
 70
     1
102
RTVSPropertyOp49
 70
     1
102
RTVSPropertyOp50
 70
     1
102
RTVSPropertyOp51
 70
     0
102
RTVSPropertyOp52
 70
     0
102
RTVSPropertyOp53
 70
     1
102
RTVSPropertyOp54
 70
     1
102
RTVSPropertyOp55
 70
     1
102
RTVSPropertyOp56
 70
     1
102
RTVSPropertyOp57
 70
     1
102
RTVSPropertyOp58
 70
     1
102
RTVSPropertyOp59
 70
     1
102
RTVSPropertyOp60
 70
     1
102
RTVSPropertyOp61
 70
     1
102
RTVSPropertyOp62
 70
     1
  0
XRECORD
  5
8336
102
{ACAD_REACTORS
330
8335
102
}
330
8335
100
AcDbXrecord
280
     1
102
RTVSPost2010Prop28
280
     0
102
RTVSPost2010PropOp28
 70
     1
102
RTVSPost2010Prop29
280
     1
102
RTVSPost2010PropOp29
 70
     1
102
RTVSPost2010Prop30
280
     1
102
RTVSPost2010PropOp30
 70
     1
102
RTVSPost2010Prop31
280
     0
102
RTVSPost2010PropOp31
 70
     1
102
RTVSPost2010Prop32
280
     0
102
RTVSPost2010PropOp32
 70
     1
102
RTVSPost2010Prop33
280
     0
102
RTVSPost2010PropOp33
 70
     1
102
RTVSPost2010Prop34
280
     0
102
RTVSPost2010PropOp34
 70
     1
102
RTVSPost2010Prop35
280
     0
102
RTVSPost2010PropOp35
 70
     1
102
RTVSPost2010Prop36
280
     0
102
RTVSPost2010PropOp36
 70
     1
102
RTVSPost2010Prop37
 90
       50
102
RTVSPost2010PropOp37
 70
     1
102
RTVSPost2010Prop38
140
0.0
102
RTVSPost2010PropOp38
 70
     1
102
RTVSPost2010Prop39
140
1.0
102
RTVSPost2010PropOp39
 70
     1
102
RTVSPost2010Prop40
 90
        0
102
RTVSPost2010PropOp40
 70
     1
102
RTVSPost2010Prop41ColorIndex
 90
       18
102
RTVSPost2010Prop41ColorRGB
 90
        0
102
RTVSPost2010PropOp41
 70
     1
102
RTVSPost2010Prop42
 90
       50
102
RTVSPost2010PropOp42
 70
     1
102
RTVSPost2010Prop43
 90
        3
102
RTVSPost2010PropOp43
 70
     1
102
RTVSPost2010Prop44ColorIndex
 90
        5
102
RTVSPost2010Prop44ColorRGB
 90
      255
102
RTVSPost2010PropOp44
 70
     1
102
RTVSPost2010Prop45
280
     0
102
RTVSPost2010PropOp45
 70
     1
102
RTVSPost2010Prop46
 90
       50
102
RTVSPost2010PropOp46
 70
     1
102
RTVSPost2010Prop47
 90
       50
102
RTVSPost2010PropOp47
 70
     1
102
RTVSPost2010Prop48
 90
       50
102
RTVSPost2010PropOp48
 70
     1
102
RTVSPost2010Prop49
280
     0
102
RTVSPost2010PropOp49
 70
     1
102
RTVSPost2010Prop50
 90
       50
102
RTVSPost2010PropOp50
 70
     1
102
RTVSPost2010Prop51ColorIndex
 90
      256
102
RTVSPost2010Prop51ColorRGB
 90
-16777216
102
RTVSPost2010PropOp51
 70
     0
102
RTVSPost2010Prop52
140
1.0
102
RTVSPost2010PropOp52
 70
     0
102
RTVSPost2010Prop53
 90
        2
102
RTVSPost2010PropOp53
 70
     1
102
RTVSPost2010Prop54
  1
strokes_ogs.tif
102
RTVSPost2010PropOp54
 70
     1
102
RTVSPost2010Prop55
280
     0
102
RTVSPost2010PropOp55
 70
     1
102
RTVSPost2010Prop56
140
1.0
102
RTVSPost2010PropOp56
 70
     1
102
RTVSPost2010Prop57
140
1.0
102
RTVSPost2010PropOp57
 70
     1
102
RTVSPropertyOp0
 70
     1
102
RTVSPropertyOp1
 70
     1
102
RTVSPropertyOp2
 70
     1
102
RTVSPropertyOp3
 70
     1
102
RTVSPropertyOp4
 70
     1
102
RTVSPropertyOp5
 70
     1
102
RTVSPropertyOp6
 70
     1
102
RTVSPropertyOp7
 70
     1
102
RTVSPropertyOp8
 70
     1
102
RTVSPropertyOp9
 70
     1
102
RTVSPropertyOp10
 70
     1
102
RTVSPropertyOp11
 70
     1
102
RTVSPropertyOp12
 70
     1
102
RTVSPropertyOp13
 70
     1
102
RTVSPropertyOp14
 70
     1
102
RTVSPropertyOp15
 70
     1
102
RTVSPropertyOp16
 70
     1
102
RTVSPropertyOp17
 70
     1
102
RTVSPropertyOp18
 70
     1
102
RTVSPropertyOp19
 70
     1
102
RTVSPropertyOp20
 70
     1
102
RTVSPropertyOp21
 70
     1
102
RTVSPropertyOp22
 70
     1
102
RTVSPropertyOp23
 70
     1
102
RTVSPropertyOp24
 70
     1
102
RTVSPropertyOp25
 70
     1
102
RTVSPropertyOp26
 70
     1
102
RTVSPropertyOp27
 70
     1
102
RTVSPropertyOp28
 70
     1
102
RTVSPropertyOp29
 70
     1
102
RTVSPropertyOp30
 70
     1
102
RTVSPropertyOp31
 70
     1
102
RTVSPropertyOp32
 70
     1
102
RTVSPropertyOp33
 70
     1
102
RTVSPropertyOp34
 70
     1
102
RTVSPropertyOp35
 70
     1
102
RTVSPropertyOp36
 70
     1
102
RTVSPropertyOp37
 70
     1
102
RTVSPropertyOp38
 70
     1
102
RTVSPropertyOp39
 70
     1
102
RTVSPropertyOp40
 70
     1
102
RTVSPropertyOp41
 70
     1
102
RTVSPropertyOp42
 70
     1
102
RTVSPropertyOp43
 70
     1
102
RTVSPropertyOp44
 70
     1
102
RTVSPropertyOp45
 70
     1
102
RTVSPropertyOp46
 70
     1
102
RTVSPropertyOp47
 70
     1
102
RTVSPropertyOp48
 70
     1
102
RTVSPropertyOp49
 70
     1
102
RTVSPropertyOp50
 70
     1
102
RTVSPropertyOp51
 70
     0
102
RTVSPropertyOp52
 70
     0
102
RTVSPropertyOp53
 70
     1
102
RTVSPropertyOp54
 70
     1
102
RTVSPropertyOp55
 70
     1
102
RTVSPropertyOp56
 70
     1
102
RTVSPropertyOp57
 70
     1
102
RTVSPropertyOp58
 70
     1
102
RTVSPropertyOp59
 70
     1
102
RTVSPropertyOp60
 70
     1
102
RTVSPropertyOp61
 70
     1
102
RTVSPropertyOp62
 70
     1
  0
XRECORD
  5
8352
102
{ACAD_REACTORS
330
8351
102
}
330
8351
100
AcDbXrecord
280
     1
102
RTVSPost2010Prop28
280
     0
102
RTVSPost2010PropOp28
 70
     1
102
RTVSPost2010Prop29
280
     1
102
RTVSPost2010PropOp29
 70
     1
102
RTVSPost2010Prop30
280
     1
102
RTVSPost2010PropOp30
 70
     1
102
RTVSPost2010Prop31
280
     0
102
RTVSPost2010PropOp31
 70
     1
102
RTVSPost2010Prop32
280
     0
102
RTVSPost2010PropOp32
 70
     1
102
RTVSPost2010Prop33
280
     0
102
RTVSPost2010PropOp33
 70
     1
102
RTVSPost2010Prop34
280
     0
102
RTVSPost2010PropOp34
 70
     1
102
RTVSPost2010Prop35
280
     0
102
RTVSPost2010PropOp35
 70
     1
102
RTVSPost2010Prop36
280
     0
102
RTVSPost2010PropOp36
 70
     1
102
RTVSPost2010Prop37
 90
       50
102
RTVSPost2010PropOp37
 70
     0
102
RTVSPost2010Prop38
140
0.0
102
RTVSPost2010PropOp38
 70
     0
102
RTVSPost2010Prop39
140
1.0
102
RTVSPost2010PropOp39
 70
     0
102
RTVSPost2010Prop40
 90
        0
102
RTVSPost2010PropOp40
 70
     0
102
RTVSPost2010Prop41ColorIndex
 90
       18
102
RTVSPost2010Prop41ColorRGB
 90
        0
102
RTVSPost2010PropOp41
 70
     0
102
RTVSPost2010Prop42
 90
       50
102
RTVSPost2010PropOp42
 70
     0
102
RTVSPost2010Prop43
 90
        3
102
RTVSPost2010PropOp43
 70
     0
102
RTVSPost2010Prop44ColorIndex
 90
        5
102
RTVSPost2010Prop44ColorRGB
 90
      255
102
RTVSPost2010PropOp44
 70
     0
102
RTVSPost2010Prop45
280
     0
102
RTVSPost2010PropOp45
 70
     1
102
RTVSPost2010Prop46
 90
       50
102
RTVSPost2010PropOp46
 70
     0
102
RTVSPost2010Prop47
 90
       50
102
RTVSPost2010PropOp47
 70
     0
102
RTVSPost2010Prop48
 90
       50
102
RTVSPost2010PropOp48
 70
     0
102
RTVSPost2010Prop49
280
     0
102
RTVSPost2010PropOp49
 70
     1
102
RTVSPost2010Prop50
 90
       50
102
RTVSPost2010PropOp50
 70
     0
102
RTVSPost2010Prop51ColorIndex
 90
      256
102
RTVSPost2010Prop51ColorRGB
 90
-16777216
102
RTVSPost2010PropOp51
 70
     0
102
RTVSPost2010Prop52
140
1.0
102
RTVSPost2010PropOp52
 70
     0
102
RTVSPost2010Prop53
 90
        2
102
RTVSPost2010PropOp53
 70
     0
102
RTVSPost2010Prop54
  1
strokes_ogs.tif
102
RTVSPost2010PropOp54
 70
     0
102
RTVSPost2010Prop55
280
     0
102
RTVSPost2010PropOp55
 70
     1
102
RTVSPost2010Prop56
140
1.0
102
RTVSPost2010PropOp56
 70
     0
102
RTVSPost2010Prop57
140
1.0
102
RTVSPost2010PropOp57
 70
     0
102
RTVSPropertyOp0
 70
     0
102
RTVSPropertyOp1
 70
     0
102
RTVSPropertyOp2
 70
     0
102
RTVSPropertyOp3
 70
     0
102
RTVSPropertyOp4
 70
     0
102
RTVSPropertyOp5
 70
     0
102
RTVSPropertyOp6
 70
     0
102
RTVSPropertyOp7
 70
     0
102
RTVSPropertyOp8
 70
     0
102
RTVSPropertyOp9
 70
     0
102
RTVSPropertyOp10
 70
     0
102
RTVSPropertyOp11
 70
     0
102
RTVSPropertyOp12
 70
     0
102
RTVSPropertyOp13
 70
     0
102
RTVSPropertyOp14
 70
     2
102
RTVSPropertyOp15
 70
     0
102
RTVSPropertyOp16
 70
     0
102
RTVSPropertyOp17
 70
     0
102
RTVSPropertyOp18
 70
     0
102
RTVSPropertyOp19
 70
     0
102
RTVSPropertyOp20
 70
     0
102
RTVSPropertyOp21
 70
     0
102
RTVSPropertyOp22
 70
     0
102
RTVSPropertyOp23
 70
     0
102
RTVSPropertyOp24
 70
     0
102
RTVSPropertyOp25
 70
     0
102
RTVSPropertyOp26
 70
     0
102
RTVSPropertyOp27
 70
     0
102
RTVSPropertyOp28
 70
     1
102
RTVSPropertyOp29
 70
     1
102
RTVSPropertyOp30
 70
     1
102
RTVSPropertyOp31
 70
     1
102
RTVSPropertyOp32
 70
     1
102
RTVSPropertyOp33
 70
     1
102
RTVSPropertyOp34
 70
     1
102
RTVSPropertyOp35
 70
     1
102
RTVSPropertyOp36
 70
     1
102
RTVSPropertyOp37
 70
     0
102
RTVSPropertyOp38
 70
     0
102
RTVSPropertyOp39
 70
     0
102
RTVSPropertyOp40
 70
     0
102
RTVSPropertyOp41
 70
     0
102
RTVSPropertyOp42
 70
     0
102
RTVSPropertyOp43
 70
     0
102
RTVSPropertyOp44
 70
     0
102
RTVSPropertyOp45
 70
     1
102
RTVSPropertyOp46
 70
     0
102
RTVSPropertyOp47
 70
     0
102
RTVSPropertyOp48
 70
     0
102
RTVSPropertyOp49
 70
     1
102
RTVSPropertyOp50
 70
     0
102
RTVSPropertyOp51
 70
     0
102
RTVSPropertyOp52
 70
     0
102
RTVSPropertyOp53
 70
     0
102
RTVSPropertyOp54
 70
     0
102
RTVSPropertyOp55
 70
     1
102
RTVSPropertyOp56
 70
     0
102
RTVSPropertyOp57
 70
     0
102
RTVSPropertyOp58
 70
     0
102
RTVSPropertyOp59
 70
     0
102
RTVSPropertyOp60
 70
     0
102
RTVSPropertyOp61
 70
     0
102
RTVSPropertyOp62
 70
     0
  0
XRECORD
  5
8342
102
{ACAD_REACTORS
330
8341
102
}
330
8341
100
AcDbXrecord
280
     1
102
RTVSPost2010Prop28
280
     0
102
RTVSPost2010PropOp28
 70
     1
102
RTVSPost2010Prop29
280
     1
102
RTVSPost2010PropOp29
 70
     1
102
RTVSPost2010Prop30
280
     1
102
RTVSPost2010PropOp30
 70
     1
102
RTVSPost2010Prop31
280
     0
102
RTVSPost2010PropOp31
 70
     1
102
RTVSPost2010Prop32
280
     0
102
RTVSPost2010PropOp32
 70
     1
102
RTVSPost2010Prop33
280
     0
102
RTVSPost2010PropOp33
 70
     1
102
RTVSPost2010Prop34
280
     0
102
RTVSPost2010PropOp34
 70
     1
102
RTVSPost2010Prop35
280
     0
102
RTVSPost2010PropOp35
 70
     1
102
RTVSPost2010Prop36
280
     0
102
RTVSPost2010PropOp36
 70
     1
102
RTVSPost2010Prop37
 90
       50
102
RTVSPost2010PropOp37
 70
     1
102
RTVSPost2010Prop38
140
0.0
102
RTVSPost2010PropOp38
 70
     1
102
RTVSPost2010Prop39
140
1.0
102
RTVSPost2010PropOp39
 70
     1
102
RTVSPost2010Prop40
 90
        0
102
RTVSPost2010PropOp40
 70
     1
102
RTVSPost2010Prop41ColorIndex
 90
       18
102
RTVSPost2010Prop41ColorRGB
 90
        0
102
RTVSPost2010PropOp41
 70
     1
102
RTVSPost2010Prop42
 90
       50
102
RTVSPost2010PropOp42
 70
     1
102
RTVSPost2010Prop43
 90
        3
102
RTVSPost2010PropOp43
 70
     1
102
RTVSPost2010Prop44ColorIndex
 90
        5
102
RTVSPost2010Prop44ColorRGB
 90
      255
102
RTVSPost2010PropOp44
 70
     1
102
RTVSPost2010Prop45
280
     0
102
RTVSPost2010PropOp45
 70
     1
102
RTVSPost2010Prop46
 90
       50
102
RTVSPost2010PropOp46
 70
     1
102
RTVSPost2010Prop47
 90
       50
102
RTVSPost2010PropOp47
 70
     1
102
RTVSPost2010Prop48
 90
       50
102
RTVSPost2010PropOp48
 70
     1
102
RTVSPost2010Prop49
280
     0
102
RTVSPost2010PropOp49
 70
     1
102
RTVSPost2010Prop50
 90
       50
102
RTVSPost2010PropOp50
 70
     1
102
RTVSPost2010Prop51ColorIndex
 90
      256
102
RTVSPost2010Prop51ColorRGB
 90
-16777216
102
RTVSPost2010PropOp51
 70
     0
102
RTVSPost2010Prop52
140
1.0
102
RTVSPost2010PropOp52
 70
     0
102
RTVSPost2010Prop53
 90
        2
102
RTVSPost2010PropOp53
 70
     1
102
RTVSPost2010Prop54
  1
strokes_ogs.tif
102
RTVSPost2010PropOp54
 70
     1
102
RTVSPost2010Prop55
280
     0
102
RTVSPost2010PropOp55
 70
     1
102
RTVSPost2010Prop56
140
1.0
102
RTVSPost2010PropOp56
 70
     1
102
RTVSPost2010Prop57
140
1.0
102
RTVSPost2010PropOp57
 70
     1
102
RTVSPropertyOp0
 70
     1
102
RTVSPropertyOp1
 70
     1
102
RTVSPropertyOp2
 70
     1
102
RTVSPropertyOp3
 70
     1
102
RTVSPropertyOp4
 70
     1
102
RTVSPropertyOp5
 70
     1
102
RTVSPropertyOp6
 70
     1
102
RTVSPropertyOp7
 70
     1
102
RTVSPropertyOp8
 70
     1
102
RTVSPropertyOp9
 70
     1
102
RTVSPropertyOp10
 70
     1
102
RTVSPropertyOp11
 70
     1
102
RTVSPropertyOp12
 70
     1
102
RTVSPropertyOp13
 70
     1
102
RTVSPropertyOp14
 70
     1
102
RTVSPropertyOp15
 70
     1
102
RTVSPropertyOp16
 70
     1
102
RTVSPropertyOp17
 70
     1
102
RTVSPropertyOp18
 70
     1
102
RTVSPropertyOp19
 70
     1
102
RTVSPropertyOp20
 70
     1
102
RTVSPropertyOp21
 70
     1
102
RTVSPropertyOp22
 70
     1
102
RTVSPropertyOp23
 70
     1
102
RTVSPropertyOp24
 70
     1
102
RTVSPropertyOp25
 70
     1
102
RTVSPropertyOp26
 70
     1
102
RTVSPropertyOp27
 70
     1
102
RTVSPropertyOp28
 70
     1
102
RTVSPropertyOp29
 70
     1
102
RTVSPropertyOp30
 70
     1
102
RTVSPropertyOp31
 70
     1
102
RTVSPropertyOp32
 70
     1
102
RTVSPropertyOp33
 70
     1
102
RTVSPropertyOp34
 70
     1
102
RTVSPropertyOp35
 70
     1
102
RTVSPropertyOp36
 70
     1
102
RTVSPropertyOp37
 70
     1
102
RTVSPropertyOp38
 70
     1
102
RTVSPropertyOp39
 70
     1
102
RTVSPropertyOp40
 70
     1
102
RTVSPropertyOp41
 70
     1
102
RTVSPropertyOp42
 70
     1
102
RTVSPropertyOp43
 70
     1
102
RTVSPropertyOp44
 70
     1
102
RTVSPropertyOp45
 70
     1
102
RTVSPropertyOp46
 70
     1
102
RTVSPropertyOp47
 70
     1
102
RTVSPropertyOp48
 70
     1
102
RTVSPropertyOp49
 70
     1
102
RTVSPropertyOp50
 70
     1
102
RTVSPropertyOp51
 70
     0
102
RTVSPropertyOp52
 70
     0
102
RTVSPropertyOp53
 70
     1
102
RTVSPropertyOp54
 70
     1
102
RTVSPropertyOp55
 70
     1
102
RTVSPropertyOp56
 70
     1
102
RTVSPropertyOp57
 70
     1
102
RTVSPropertyOp58
 70
     1
102
RTVSPropertyOp59
 70
     1
102
RTVSPropertyOp60
 70
     1
102
RTVSPropertyOp61
 70
     1
102
RTVSPropertyOp62
 70
     1
  0
XRECORD
  5
8354
102
{ACAD_REACTORS
330
8353
102
}
330
8353
100
AcDbXrecord
280
     1
102
RTVSPost2010Prop28
280
     0
102
RTVSPost2010PropOp28
 70
     1
102
RTVSPost2010Prop29
280
     1
102
RTVSPost2010PropOp29
 70
     1
102
RTVSPost2010Prop30
280
     1
102
RTVSPost2010PropOp30
 70
     1
102
RTVSPost2010Prop31
280
     0
102
RTVSPost2010PropOp31
 70
     1
102
RTVSPost2010Prop32
280
     0
102
RTVSPost2010PropOp32
 70
     1
102
RTVSPost2010Prop33
280
     0
102
RTVSPost2010PropOp33
 70
     1
102
RTVSPost2010Prop34
280
     0
102
RTVSPost2010PropOp34
 70
     1
102
RTVSPost2010Prop35
280
     0
102
RTVSPost2010PropOp35
 70
     1
102
RTVSPost2010Prop36
280
     0
102
RTVSPost2010PropOp36
 70
     1
102
RTVSPost2010Prop37
 90
       50
102
RTVSPost2010PropOp37
 70
     0
102
RTVSPost2010Prop38
140
0.0
102
RTVSPost2010PropOp38
 70
     0
102
RTVSPost2010Prop39
140
1.0
102
RTVSPost2010PropOp39
 70
     0
102
RTVSPost2010Prop40
 90
        0
102
RTVSPost2010PropOp40
 70
     0
102
RTVSPost2010Prop41ColorIndex
 90
       18
102
RTVSPost2010Prop41ColorRGB
 90
        0
102
RTVSPost2010PropOp41
 70
     0
102
RTVSPost2010Prop42
 90
       50
102
RTVSPost2010PropOp42
 70
     0
102
RTVSPost2010Prop43
 90
        3
102
RTVSPost2010PropOp43
 70
     0
102
RTVSPost2010Prop44ColorIndex
 90
        5
102
RTVSPost2010Prop44ColorRGB
 90
      255
102
RTVSPost2010PropOp44
 70
     0
102
RTVSPost2010Prop45
280
     0
102
RTVSPost2010PropOp45
 70
     1
102
RTVSPost2010Prop46
 90
       50
102
RTVSPost2010PropOp46
 70
     0
102
RTVSPost2010Prop47
 90
       50
102
RTVSPost2010PropOp47
 70
     0
102
RTVSPost2010Prop48
 90
       50
102
RTVSPost2010PropOp48
 70
     0
102
RTVSPost2010Prop49
280
     0
102
RTVSPost2010PropOp49
 70
     1
102
RTVSPost2010Prop50
 90
       50
102
RTVSPost2010PropOp50
 70
     0
102
RTVSPost2010Prop51ColorIndex
 90
      256
102
RTVSPost2010Prop51ColorRGB
 90
-16777216
102
RTVSPost2010PropOp51
 70
     0
102
RTVSPost2010Prop52
140
1.0
102
RTVSPost2010PropOp52
 70
     0
102
RTVSPost2010Prop53
 90
        2
102
RTVSPost2010PropOp53
 70
     0
102
RTVSPost2010Prop54
  1
strokes_ogs.tif
102
RTVSPost2010PropOp54
 70
     0
102
RTVSPost2010Prop55
280
     0
102
RTVSPost2010PropOp55
 70
     1
102
RTVSPost2010Prop56
140
1.0
102
RTVSPost2010PropOp56
 70
     0
102
RTVSPost2010Prop57
140
1.0
102
RTVSPost2010PropOp57
 70
     0
102
RTVSPropertyOp0
 70
     0
102
RTVSPropertyOp1
 70
     0
102
RTVSPropertyOp2
 70
     0
102
RTVSPropertyOp3
 70
     0
102
RTVSPropertyOp4
 70
     0
102
RTVSPropertyOp5
 70
     0
102
RTVSPropertyOp6
 70
     0
102
RTVSPropertyOp7
 70
     0
102
RTVSPropertyOp8
 70
     0
102
RTVSPropertyOp9
 70
     0
102
RTVSPropertyOp10
 70
     0
102
RTVSPropertyOp11
 70
     0
102
RTVSPropertyOp12
 70
     0
102
RTVSPropertyOp13
 70
     0
102
RTVSPropertyOp14
 70
     2
102
RTVSPropertyOp15
 70
     0
102
RTVSPropertyOp16
 70
     0
102
RTVSPropertyOp17
 70
     0
102
RTVSPropertyOp18
 70
     0
102
RTVSPropertyOp19
 70
     0
102
RTVSPropertyOp20
 70
     0
102
RTVSPropertyOp21
 70
     0
102
RTVSPropertyOp22
 70
     0
102
RTVSPropertyOp23
 70
     0
102
RTVSPropertyOp24
 70
     0
102
RTVSPropertyOp25
 70
     0
102
RTVSPropertyOp26
 70
     0
102
RTVSPropertyOp27
 70
     0
102
RTVSPropertyOp28
 70
     1
102
RTVSPropertyOp29
 70
     1
102
RTVSPropertyOp30
 70
     1
102
RTVSPropertyOp31
 70
     1
102
RTVSPropertyOp32
 70
     1
102
RTVSPropertyOp33
 70
     1
102
RTVSPropertyOp34
 70
     1
102
RTVSPropertyOp35
 70
     1
102
RTVSPropertyOp36
 70
     1
102
RTVSPropertyOp37
 70
     0
102
RTVSPropertyOp38
 70
     0
102
RTVSPropertyOp39
 70
     0
102
RTVSPropertyOp40
 70
     0
102
RTVSPropertyOp41
 70
     0
102
RTVSPropertyOp42
 70
     0
102
RTVSPropertyOp43
 70
     0
102
RTVSPropertyOp44
 70
     0
102
RTVSPropertyOp45
 70
     1
102
RTVSPropertyOp46
 70
     0
102
RTVSPropertyOp47
 70
     0
102
RTVSPropertyOp48
 70
     0
102
RTVSPropertyOp49
 70
     1
102
RTVSPropertyOp50
 70
     0
102
RTVSPropertyOp51
 70
     0
102
RTVSPropertyOp52
 70
     0
102
RTVSPropertyOp53
 70
     0
102
RTVSPropertyOp54
 70
     0
102
RTVSPropertyOp55
 70
     1
102
RTVSPropertyOp56
 70
     0
102
RTVSPropertyOp57
 70
     0
102
RTVSPropertyOp58
 70
     0
102
RTVSPropertyOp59
 70
     0
102
RTVSPropertyOp60
 70
     0
102
RTVSPropertyOp61
 70
     0
102
RTVSPropertyOp62
 70
     0
  0
XRECORD
  5
833A
102
{ACAD_REACTORS
330
8339
102
}
330
8339
100
AcDbXrecord
280
     1
102
RTVSPost2010Prop28
280
     0
102
RTVSPost2010PropOp28
 70
     1
102
RTVSPost2010Prop29
280
     1
102
RTVSPost2010PropOp29
 70
     1
102
RTVSPost2010Prop30
280
     1
102
RTVSPost2010PropOp30
 70
     1
102
RTVSPost2010Prop31
280
     0
102
RTVSPost2010PropOp31
 70
     1
102
RTVSPost2010Prop32
280
     0
102
RTVSPost2010PropOp32
 70
     1
102
RTVSPost2010Prop33
280
     0
102
RTVSPost2010PropOp33
 70
     1
102
RTVSPost2010Prop34
280
     0
102
RTVSPost2010PropOp34
 70
     1
102
RTVSPost2010Prop35
280
     0
102
RTVSPost2010PropOp35
 70
     1
102
RTVSPost2010Prop36
280
     0
102
RTVSPost2010PropOp36
 70
     1
102
RTVSPost2010Prop37
 90
       50
102
RTVSPost2010PropOp37
 70
     1
102
RTVSPost2010Prop38
140
0.0
102
RTVSPost2010PropOp38
 70
     1
102
RTVSPost2010Prop39
140
1.0
102
RTVSPost2010PropOp39
 70
     1
102
RTVSPost2010Prop40
 90
        0
102
RTVSPost2010PropOp40
 70
     1
102
RTVSPost2010Prop41ColorIndex
 90
       18
102
RTVSPost2010Prop41ColorRGB
 90
        0
102
RTVSPost2010PropOp41
 70
     1
102
RTVSPost2010Prop42
 90
       50
102
RTVSPost2010PropOp42
 70
     1
102
RTVSPost2010Prop43
 90
        3
102
RTVSPost2010PropOp43
 70
     1
102
RTVSPost2010Prop44ColorIndex
 90
        5
102
RTVSPost2010Prop44ColorRGB
 90
      255
102
RTVSPost2010PropOp44
 70
     1
102
RTVSPost2010Prop45
280
     0
102
RTVSPost2010PropOp45
 70
     1
102
RTVSPost2010Prop46
 90
       50
102
RTVSPost2010PropOp46
 70
     1
102
RTVSPost2010Prop47
 90
       50
102
RTVSPost2010PropOp47
 70
     1
102
RTVSPost2010Prop48
 90
       50
102
RTVSPost2010PropOp48
 70
     1
102
RTVSPost2010Prop49
280
     0
102
RTVSPost2010PropOp49
 70
     1
102
RTVSPost2010Prop50
 90
       50
102
RTVSPost2010PropOp50
 70
     1
102
RTVSPost2010Prop51ColorIndex
 90
      256
102
RTVSPost2010Prop51ColorRGB
 90
-16777216
102
RTVSPost2010PropOp51
 70
     0
102
RTVSPost2010Prop52
140
1.0
102
RTVSPost2010PropOp52
 70
     0
102
RTVSPost2010Prop53
 90
        2
102
RTVSPost2010PropOp53
 70
     1
102
RTVSPost2010Prop54
  1
strokes_ogs.tif
102
RTVSPost2010PropOp54
 70
     1
102
RTVSPost2010Prop55
280
     0
102
RTVSPost2010PropOp55
 70
     1
102
RTVSPost2010Prop56
140
1.0
102
RTVSPost2010PropOp56
 70
     1
102
RTVSPost2010Prop57
140
1.0
102
RTVSPost2010PropOp57
 70
     1
102
RTVSPropertyOp0
 70
     1
102
RTVSPropertyOp1
 70
     1
102
RTVSPropertyOp2
 70
     1
102
RTVSPropertyOp3
 70
     1
102
RTVSPropertyOp4
 70
     1
102
RTVSPropertyOp5
 70
     1
102
RTVSPropertyOp6
 70
     1
102
RTVSPropertyOp7
 70
     1
102
RTVSPropertyOp8
 70
     1
102
RTVSPropertyOp9
 70
     1
102
RTVSPropertyOp10
 70
     1
102
RTVSPropertyOp11
 70
     1
102
RTVSPropertyOp12
 70
     1
102
RTVSPropertyOp13
 70
     1
102
RTVSPropertyOp14
 70
     1
102
RTVSPropertyOp15
 70
     1
102
RTVSPropertyOp16
 70
     1
102
RTVSPropertyOp17
 70
     1
102
RTVSPropertyOp18
 70
     1
102
RTVSPropertyOp19
 70
     1
102
RTVSPropertyOp20
 70
     1
102
RTVSPropertyOp21
 70
     1
102
RTVSPropertyOp22
 70
     1
102
RTVSPropertyOp23
 70
     1
102
RTVSPropertyOp24
 70
     1
102
RTVSPropertyOp25
 70
     1
102
RTVSPropertyOp26
 70
     1
102
RTVSPropertyOp27
 70
     1
102
RTVSPropertyOp28
 70
     1
102
RTVSPropertyOp29
 70
     1
102
RTVSPropertyOp30
 70
     1
102
RTVSPropertyOp31
 70
     1
102
RTVSPropertyOp32
 70
     1
102
RTVSPropertyOp33
 70
     1
102
RTVSPropertyOp34
 70
     1
102
RTVSPropertyOp35
 70
     1
102
RTVSPropertyOp36
 70
     1
102
RTVSPropertyOp37
 70
     1
102
RTVSPropertyOp38
 70
     1
102
RTVSPropertyOp39
 70
     1
102
RTVSPropertyOp40
 70
     1
102
RTVSPropertyOp41
 70
     1
102
RTVSPropertyOp42
 70
     1
102
RTVSPropertyOp43
 70
     1
102
RTVSPropertyOp44
 70
     1
102
RTVSPropertyOp45
 70
     1
102
RTVSPropertyOp46
 70
     1
102
RTVSPropertyOp47
 70
     1
102
RTVSPropertyOp48
 70
     1
102
RTVSPropertyOp49
 70
     1
102
RTVSPropertyOp50
 70
     1
102
RTVSPropertyOp51
 70
     0
102
RTVSPropertyOp52
 70
     0
102
RTVSPropertyOp53
 70
     1
102
RTVSPropertyOp54
 70
     1
102
RTVSPropertyOp55
 70
     1
102
RTVSPropertyOp56
 70
     1
102
RTVSPropertyOp57
 70
     1
102
RTVSPropertyOp58
 70
     1
102
RTVSPropertyOp59
 70
     1
102
RTVSPropertyOp60
 70
     1
102
RTVSPropertyOp61
 70
     1
102
RTVSPropertyOp62
 70
     1
  0
XRECORD
  5
8350
102
{ACAD_REACTORS
330
834F
102
}
330
834F
100
AcDbXrecord
280
     1
102
RTVSPost2010Prop28
280
     0
102
RTVSPost2010PropOp28
 70
     1
102
RTVSPost2010Prop29
280
     1
102
RTVSPost2010PropOp29
 70
     1
102
RTVSPost2010Prop30
280
     1
102
RTVSPost2010PropOp30
 70
     1
102
RTVSPost2010Prop31
280
     0
102
RTVSPost2010PropOp31
 70
     1
102
RTVSPost2010Prop32
280
     0
102
RTVSPost2010PropOp32
 70
     1
102
RTVSPost2010Prop33
280
     0
102
RTVSPost2010PropOp33
 70
     1
102
RTVSPost2010Prop34
280
     0
102
RTVSPost2010PropOp34
 70
     1
102
RTVSPost2010Prop35
280
     0
102
RTVSPost2010PropOp35
 70
     1
102
RTVSPost2010Prop36
280
     0
102
RTVSPost2010PropOp36
 70
     1
102
RTVSPost2010Prop37
 90
       50
102
RTVSPost2010PropOp37
 70
     1
102
RTVSPost2010Prop38
140
0.0
102
RTVSPost2010PropOp38
 70
     1
102
RTVSPost2010Prop39
140
1.0
102
RTVSPost2010PropOp39
 70
     1
102
RTVSPost2010Prop40
 90
        0
102
RTVSPost2010PropOp40
 70
     1
102
RTVSPost2010Prop41ColorIndex
 90
       18
102
RTVSPost2010Prop41ColorRGB
 90
        0
102
RTVSPost2010PropOp41
 70
     1
102
RTVSPost2010Prop42
 90
       50
102
RTVSPost2010PropOp42
 70
     1
102
RTVSPost2010Prop43
 90
        3
102
RTVSPost2010PropOp43
 70
     1
102
RTVSPost2010Prop44ColorIndex
 90
        5
102
RTVSPost2010Prop44ColorRGB
 90
      255
102
RTVSPost2010PropOp44
 70
     1
102
RTVSPost2010Prop45
280
     0
102
RTVSPost2010PropOp45
 70
     1
102
RTVSPost2010Prop46
 90
       50
102
RTVSPost2010PropOp46
 70
     1
102
RTVSPost2010Prop47
 90
       50
102
RTVSPost2010PropOp47
 70
     1
102
RTVSPost2010Prop48
 90
       50
102
RTVSPost2010PropOp48
 70
     1
102
RTVSPost2010Prop49
280
     0
102
RTVSPost2010PropOp49
 70
     1
102
RTVSPost2010Prop50
 90
       50
102
RTVSPost2010PropOp50
 70
     1
102
RTVSPost2010Prop51ColorIndex
 90
      256
102
RTVSPost2010Prop51ColorRGB
 90
-16777216
102
RTVSPost2010PropOp51
 70
     0
102
RTVSPost2010Prop52
140
1.0
102
RTVSPost2010PropOp52
 70
     0
102
RTVSPost2010Prop53
 90
        2
102
RTVSPost2010PropOp53
 70
     1
102
RTVSPost2010Prop54
  1
strokes_ogs.tif
102
RTVSPost2010PropOp54
 70
     1
102
RTVSPost2010Prop55
280
     0
102
RTVSPost2010PropOp55
 70
     1
102
RTVSPost2010Prop56
140
1.0
102
RTVSPost2010PropOp56
 70
     1
102
RTVSPost2010Prop57
140
1.0
102
RTVSPost2010PropOp57
 70
     1
102
RTVSPropertyOp0
 70
     1
102
RTVSPropertyOp1
 70
     1
102
RTVSPropertyOp2
 70
     1
102
RTVSPropertyOp3
 70
     1
102
RTVSPropertyOp4
 70
     1
102
RTVSPropertyOp5
 70
     1
102
RTVSPropertyOp6
 70
     1
102
RTVSPropertyOp7
 70
     1
102
RTVSPropertyOp8
 70
     1
102
RTVSPropertyOp9
 70
     1
102
RTVSPropertyOp10
 70
     1
102
RTVSPropertyOp11
 70
     1
102
RTVSPropertyOp12
 70
     1
102
RTVSPropertyOp13
 70
     1
102
RTVSPropertyOp14
 70
     1
102
RTVSPropertyOp15
 70
     1
102
RTVSPropertyOp16
 70
     1
102
RTVSPropertyOp17
 70
     1
102
RTVSPropertyOp18
 70
     1
102
RTVSPropertyOp19
 70
     1
102
RTVSPropertyOp20
 70
     1
102
RTVSPropertyOp21
 70
     1
102
RTVSPropertyOp22
 70
     1
102
RTVSPropertyOp23
 70
     1
102
RTVSPropertyOp24
 70
     1
102
RTVSPropertyOp25
 70
     1
102
RTVSPropertyOp26
 70
     1
102
RTVSPropertyOp27
 70
     1
102
RTVSPropertyOp28
 70
     1
102
RTVSPropertyOp29
 70
     1
102
RTVSPropertyOp30
 70
     1
102
RTVSPropertyOp31
 70
     1
102
RTVSPropertyOp32
 70
     1
102
RTVSPropertyOp33
 70
     1
102
RTVSPropertyOp34
 70
     1
102
RTVSPropertyOp35
 70
     1
102
RTVSPropertyOp36
 70
     1
102
RTVSPropertyOp37
 70
     1
102
RTVSPropertyOp38
 70
     1
102
RTVSPropertyOp39
 70
     1
102
RTVSPropertyOp40
 70
     1
102
RTVSPropertyOp41
 70
     1
102
RTVSPropertyOp42
 70
     1
102
RTVSPropertyOp43
 70
     1
102
RTVSPropertyOp44
 70
     1
102
RTVSPropertyOp45
 70
     1
102
RTVSPropertyOp46
 70
     1
102
RTVSPropertyOp47
 70
     1
102
RTVSPropertyOp48
 70
     1
102
RTVSPropertyOp49
 70
     1
102
RTVSPropertyOp50
 70
     1
102
RTVSPropertyOp51
 70
     0
102
RTVSPropertyOp52
 70
     0
102
RTVSPropertyOp53
 70
     1
102
RTVSPropertyOp54
 70
     1
102
RTVSPropertyOp55
 70
     1
102
RTVSPropertyOp56
 70
     1
102
RTVSPropertyOp57
 70
     1
102
RTVSPropertyOp58
 70
     1
102
RTVSPropertyOp59
 70
     1
102
RTVSPropertyOp60
 70
     1
102
RTVSPropertyOp61
 70
     1
102
RTVSPropertyOp62
 70
     1
  0
XRECORD
  5
834E
102
{ACAD_REACTORS
330
834D
102
}
330
834D
100
AcDbXrecord
280
     1
102
RTVSPost2010Prop28
280
     0
102
RTVSPost2010PropOp28
 70
     1
102
RTVSPost2010Prop29
280
     1
102
RTVSPost2010PropOp29
 70
     1
102
RTVSPost2010Prop30
280
     1
102
RTVSPost2010PropOp30
 70
     1
102
RTVSPost2010Prop31
280
     0
102
RTVSPost2010PropOp31
 70
     1
102
RTVSPost2010Prop32
280
     0
102
RTVSPost2010PropOp32
 70
     1
102
RTVSPost2010Prop33
280
     0
102
RTVSPost2010PropOp33
 70
     1
102
RTVSPost2010Prop34
280
     0
102
RTVSPost2010PropOp34
 70
     1
102
RTVSPost2010Prop35
280
     0
102
RTVSPost2010PropOp35
 70
     1
102
RTVSPost2010Prop36
280
     0
102
RTVSPost2010PropOp36
 70
     1
102
RTVSPost2010Prop37
 90
       50
102
RTVSPost2010PropOp37
 70
     1
102
RTVSPost2010Prop38
140
0.0
102
RTVSPost2010PropOp38
 70
     1
102
RTVSPost2010Prop39
140
1.0
102
RTVSPost2010PropOp39
 70
     1
102
RTVSPost2010Prop40
 90
        0
102
RTVSPost2010PropOp40
 70
     1
102
RTVSPost2010Prop41ColorIndex
 90
       18
102
RTVSPost2010Prop41ColorRGB
 90
        0
102
RTVSPost2010PropOp41
 70
     1
102
RTVSPost2010Prop42
 90
       50
102
RTVSPost2010PropOp42
 70
     1
102
RTVSPost2010Prop43
 90
        3
102
RTVSPost2010PropOp43
 70
     1
102
RTVSPost2010Prop44ColorIndex
 90
        5
102
RTVSPost2010Prop44ColorRGB
 90
      255
102
RTVSPost2010PropOp44
 70
     1
102
RTVSPost2010Prop45
280
     0
102
RTVSPost2010PropOp45
 70
     1
102
RTVSPost2010Prop46
 90
       50
102
RTVSPost2010PropOp46
 70
     1
102
RTVSPost2010Prop47
 90
       50
102
RTVSPost2010PropOp47
 70
     1
102
RTVSPost2010Prop48
 90
       50
102
RTVSPost2010PropOp48
 70
     1
102
RTVSPost2010Prop49
280
     0
102
RTVSPost2010PropOp49
 70
     1
102
RTVSPost2010Prop50
 90
       50
102
RTVSPost2010PropOp50
 70
     1
102
RTVSPost2010Prop51ColorIndex
 90
      256
102
RTVSPost2010Prop51ColorRGB
 90
-16777216
102
RTVSPost2010PropOp51
 70
     0
102
RTVSPost2010Prop52
140
1.0
102
RTVSPost2010PropOp52
 70
     0
102
RTVSPost2010Prop53
 90
        2
102
RTVSPost2010PropOp53
 70
     1
102
RTVSPost2010Prop54
  1
strokes_ogs.tif
102
RTVSPost2010PropOp54
 70
     1
102
RTVSPost2010Prop55
280
     0
102
RTVSPost2010PropOp55
 70
     1
102
RTVSPost2010Prop56
140
1.0
102
RTVSPost2010PropOp56
 70
     1
102
RTVSPost2010Prop57
140
1.0
102
RTVSPost2010PropOp57
 70
     1
102
RTVSPropertyOp0
 70
     1
102
RTVSPropertyOp1
 70
     1
102
RTVSPropertyOp2
 70
     1
102
RTVSPropertyOp3
 70
     1
102
RTVSPropertyOp4
 70
     1
102
RTVSPropertyOp5
 70
     1
102
RTVSPropertyOp6
 70
     1
102
RTVSPropertyOp7
 70
     1
102
RTVSPropertyOp8
 70
     1
102
RTVSPropertyOp9
 70
     1
102
RTVSPropertyOp10
 70
     1
102
RTVSPropertyOp11
 70
     1
102
RTVSPropertyOp12
 70
     1
102
RTVSPropertyOp13
 70
     1
102
RTVSPropertyOp14
 70
     1
102
RTVSPropertyOp15
 70
     1
102
RTVSPropertyOp16
 70
     1
102
RTVSPropertyOp17
 70
     1
102
RTVSPropertyOp18
 70
     1
102
RTVSPropertyOp19
 70
     1
102
RTVSPropertyOp20
 70
     1
102
RTVSPropertyOp21
 70
     1
102
RTVSPropertyOp22
 70
     1
102
RTVSPropertyOp23
 70
     1
102
RTVSPropertyOp24
 70
     1
102
RTVSPropertyOp25
 70
     1
102
RTVSPropertyOp26
 70
     1
102
RTVSPropertyOp27
 70
     1
102
RTVSPropertyOp28
 70
     1
102
RTVSPropertyOp29
 70
     1
102
RTVSPropertyOp30
 70
     1
102
RTVSPropertyOp31
 70
     1
102
RTVSPropertyOp32
 70
     1
102
RTVSPropertyOp33
 70
     1
102
RTVSPropertyOp34
 70
     1
102
RTVSPropertyOp35
 70
     1
102
RTVSPropertyOp36
 70
     1
102
RTVSPropertyOp37
 70
     1
102
RTVSPropertyOp38
 70
     1
102
RTVSPropertyOp39
 70
     1
102
RTVSPropertyOp40
 70
     1
102
RTVSPropertyOp41
 70
     1
102
RTVSPropertyOp42
 70
     1
102
RTVSPropertyOp43
 70
     1
102
RTVSPropertyOp44
 70
     1
102
RTVSPropertyOp45
 70
     1
102
RTVSPropertyOp46
 70
     1
102
RTVSPropertyOp47
 70
     1
102
RTVSPropertyOp48
 70
     1
102
RTVSPropertyOp49
 70
     1
102
RTVSPropertyOp50
 70
     1
102
RTVSPropertyOp51
 70
     0
102
RTVSPropertyOp52
 70
     0
102
RTVSPropertyOp53
 70
     1
102
RTVSPropertyOp54
 70
     1
102
RTVSPropertyOp55
 70
     1
102
RTVSPropertyOp56
 70
     1
102
RTVSPropertyOp57
 70
     1
102
RTVSPropertyOp58
 70
     1
102
RTVSPropertyOp59
 70
     1
102
RTVSPropertyOp60
 70
     1
102
RTVSPropertyOp61
 70
     1
102
RTVSPropertyOp62
 70
     1
  0
XRECORD
  5
8348
102
{ACAD_REACTORS
330
8347
102
}
330
8347
100
AcDbXrecord
280
     1
102
RTVSPost2010Prop28
280
     0
102
RTVSPost2010PropOp28
 70
     1
102
RTVSPost2010Prop29
280
     1
102
RTVSPost2010PropOp29
 70
     1
102
RTVSPost2010Prop30
280
     1
102
RTVSPost2010PropOp30
 70
     1
102
RTVSPost2010Prop31
280
     0
102
RTVSPost2010PropOp31
 70
     1
102
RTVSPost2010Prop32
280
     0
102
RTVSPost2010PropOp32
 70
     1
102
RTVSPost2010Prop33
280
     0
102
RTVSPost2010PropOp33
 70
     1
102
RTVSPost2010Prop34
280
     0
102
RTVSPost2010PropOp34
 70
     1
102
RTVSPost2010Prop35
280
     0
102
RTVSPost2010PropOp35
 70
     1
102
RTVSPost2010Prop36
280
     0
102
RTVSPost2010PropOp36
 70
     1
102
RTVSPost2010Prop37
 90
       50
102
RTVSPost2010PropOp37
 70
     1
102
RTVSPost2010Prop38
140
0.0
102
RTVSPost2010PropOp38
 70
     1
102
RTVSPost2010Prop39
140
1.0
102
RTVSPost2010PropOp39
 70
     1
102
RTVSPost2010Prop40
 90
        0
102
RTVSPost2010PropOp40
 70
     1
102
RTVSPost2010Prop41ColorIndex
 90
       18
102
RTVSPost2010Prop41ColorRGB
 90
        0
102
RTVSPost2010PropOp41
 70
     1
102
RTVSPost2010Prop42
 90
       50
102
RTVSPost2010PropOp42
 70
     1
102
RTVSPost2010Prop43
 90
        3
102
RTVSPost2010PropOp43
 70
     1
102
RTVSPost2010Prop44ColorIndex
 90
        5
102
RTVSPost2010Prop44ColorRGB
 90
      255
102
RTVSPost2010PropOp44
 70
     1
102
RTVSPost2010Prop45
280
     0
102
RTVSPost2010PropOp45
 70
     1
102
RTVSPost2010Prop46
 90
       50
102
RTVSPost2010PropOp46
 70
     1
102
RTVSPost2010Prop47
 90
       50
102
RTVSPost2010PropOp47
 70
     1
102
RTVSPost2010Prop48
 90
       50
102
RTVSPost2010PropOp48
 70
     1
102
RTVSPost2010Prop49
280
     0
102
RTVSPost2010PropOp49
 70
     1
102
RTVSPost2010Prop50
 90
       50
102
RTVSPost2010PropOp50
 70
     1
102
RTVSPost2010Prop51ColorIndex
 90
      256
102
RTVSPost2010Prop51ColorRGB
 90
-16777216
102
RTVSPost2010PropOp51
 70
     0
102
RTVSPost2010Prop52
140
1.0
102
RTVSPost2010PropOp52
 70
     0
102
RTVSPost2010Prop53
 90
        2
102
RTVSPost2010PropOp53
 70
     1
102
RTVSPost2010Prop54
  1
strokes_ogs.tif
102
RTVSPost2010PropOp54
 70
     1
102
RTVSPost2010Prop55
280
     0
102
RTVSPost2010PropOp55
 70
     1
102
RTVSPost2010Prop56
140
1.0
102
RTVSPost2010PropOp56
 70
     1
102
RTVSPost2010Prop57
140
1.0
102
RTVSPost2010PropOp57
 70
     1
102
RTVSPropertyOp0
 70
     1
102
RTVSPropertyOp1
 70
     1
102
RTVSPropertyOp2
 70
     1
102
RTVSPropertyOp3
 70
     1
102
RTVSPropertyOp4
 70
     1
102
RTVSPropertyOp5
 70
     1
102
RTVSPropertyOp6
 70
     1
102
RTVSPropertyOp7
 70
     1
102
RTVSPropertyOp8
 70
     1
102
RTVSPropertyOp9
 70
     1
102
RTVSPropertyOp10
 70
     1
102
RTVSPropertyOp11
 70
     1
102
RTVSPropertyOp12
 70
     1
102
RTVSPropertyOp13
 70
     1
102
RTVSPropertyOp14
 70
     1
102
RTVSPropertyOp15
 70
     1
102
RTVSPropertyOp16
 70
     1
102
RTVSPropertyOp17
 70
     1
102
RTVSPropertyOp18
 70
     1
102
RTVSPropertyOp19
 70
     1
102
RTVSPropertyOp20
 70
     1
102
RTVSPropertyOp21
 70
     1
102
RTVSPropertyOp22
 70
     1
102
RTVSPropertyOp23
 70
     1
102
RTVSPropertyOp24
 70
     1
102
RTVSPropertyOp25
 70
     1
102
RTVSPropertyOp26
 70
     1
102
RTVSPropertyOp27
 70
     1
102
RTVSPropertyOp28
 70
     1
102
RTVSPropertyOp29
 70
     1
102
RTVSPropertyOp30
 70
     1
102
RTVSPropertyOp31
 70
     1
102
RTVSPropertyOp32
 70
     1
102
RTVSPropertyOp33
 70
     1
102
RTVSPropertyOp34
 70
     1
102
RTVSPropertyOp35
 70
     1
102
RTVSPropertyOp36
 70
     1
102
RTVSPropertyOp37
 70
     1
102
RTVSPropertyOp38
 70
     1
102
RTVSPropertyOp39
 70
     1
102
RTVSPropertyOp40
 70
     1
102
RTVSPropertyOp41
 70
     1
102
RTVSPropertyOp42
 70
     1
102
RTVSPropertyOp43
 70
     1
102
RTVSPropertyOp44
 70
     1
102
RTVSPropertyOp45
 70
     1
102
RTVSPropertyOp46
 70
     1
102
RTVSPropertyOp47
 70
     1
102
RTVSPropertyOp48
 70
     1
102
RTVSPropertyOp49
 70
     1
102
RTVSPropertyOp50
 70
     1
102
RTVSPropertyOp51
 70
     0
102
RTVSPropertyOp52
 70
     0
102
RTVSPropertyOp53
 70
     1
102
RTVSPropertyOp54
 70
     1
102
RTVSPropertyOp55
 70
     1
102
RTVSPropertyOp56
 70
     1
102
RTVSPropertyOp57
 70
     1
102
RTVSPropertyOp58
 70
     1
102
RTVSPropertyOp59
 70
     1
102
RTVSPropertyOp60
 70
     1
102
RTVSPropertyOp61
 70
     1
102
RTVSPropertyOp62
 70
     1
  0
XRECORD
  5
834A
102
{ACAD_REACTORS
330
8349
102
}
330
8349
100
AcDbXrecord
280
     1
102
RTVSPost2010Prop28
280
     0
102
RTVSPost2010PropOp28
 70
     1
102
RTVSPost2010Prop29
280
     1
102
RTVSPost2010PropOp29
 70
     1
102
RTVSPost2010Prop30
280
     1
102
RTVSPost2010PropOp30
 70
     1
102
RTVSPost2010Prop31
280
     0
102
RTVSPost2010PropOp31
 70
     1
102
RTVSPost2010Prop32
280
     0
102
RTVSPost2010PropOp32
 70
     1
102
RTVSPost2010Prop33
280
     0
102
RTVSPost2010PropOp33
 70
     1
102
RTVSPost2010Prop34
280
     0
102
RTVSPost2010PropOp34
 70
     1
102
RTVSPost2010Prop35
280
     0
102
RTVSPost2010PropOp35
 70
     1
102
RTVSPost2010Prop36
280
     0
102
RTVSPost2010PropOp36
 70
     1
102
RTVSPost2010Prop37
 90
       50
102
RTVSPost2010PropOp37
 70
     1
102
RTVSPost2010Prop38
140
0.0
102
RTVSPost2010PropOp38
 70
     1
102
RTVSPost2010Prop39
140
1.0
102
RTVSPost2010PropOp39
 70
     1
102
RTVSPost2010Prop40
 90
        0
102
RTVSPost2010PropOp40
 70
     1
102
RTVSPost2010Prop41ColorIndex
 90
       18
102
RTVSPost2010Prop41ColorRGB
 90
        0
102
RTVSPost2010PropOp41
 70
     1
102
RTVSPost2010Prop42
 90
       50
102
RTVSPost2010PropOp42
 70
     1
102
RTVSPost2010Prop43
 90
        3
102
RTVSPost2010PropOp43
 70
     1
102
RTVSPost2010Prop44ColorIndex
 90
        5
102
RTVSPost2010Prop44ColorRGB
 90
      255
102
RTVSPost2010PropOp44
 70
     1
102
RTVSPost2010Prop45
280
     0
102
RTVSPost2010PropOp45
 70
     1
102
RTVSPost2010Prop46
 90
       50
102
RTVSPost2010PropOp46
 70
     1
102
RTVSPost2010Prop47
 90
       50
102
RTVSPost2010PropOp47
 70
     1
102
RTVSPost2010Prop48
 90
       50
102
RTVSPost2010PropOp48
 70
     1
102
RTVSPost2010Prop49
280
     0
102
RTVSPost2010PropOp49
 70
     1
102
RTVSPost2010Prop50
 90
       50
102
RTVSPost2010PropOp50
 70
     1
102
RTVSPost2010Prop51ColorIndex
 90
      256
102
RTVSPost2010Prop51ColorRGB
 90
-16777216
102
RTVSPost2010PropOp51
 70
     0
102
RTVSPost2010Prop52
140
1.0
102
RTVSPost2010PropOp52
 70
     0
102
RTVSPost2010Prop53
 90
        2
102
RTVSPost2010PropOp53
 70
     1
102
RTVSPost2010Prop54
  1
strokes_ogs.tif
102
RTVSPost2010PropOp54
 70
     1
102
RTVSPost2010Prop55
280
     0
102
RTVSPost2010PropOp55
 70
     1
102
RTVSPost2010Prop56
140
1.0
102
RTVSPost2010PropOp56
 70
     1
102
RTVSPost2010Prop57
140
1.0
102
RTVSPost2010PropOp57
 70
     1
102
RTVSPropertyOp0
 70
     1
102
RTVSPropertyOp1
 70
     1
102
RTVSPropertyOp2
 70
     1
102
RTVSPropertyOp3
 70
     1
102
RTVSPropertyOp4
 70
     1
102
RTVSPropertyOp5
 70
     1
102
RTVSPropertyOp6
 70
     1
102
RTVSPropertyOp7
 70
     1
102
RTVSPropertyOp8
 70
     1
102
RTVSPropertyOp9
 70
     1
102
RTVSPropertyOp10
 70
     1
102
RTVSPropertyOp11
 70
     1
102
RTVSPropertyOp12
 70
     1
102
RTVSPropertyOp13
 70
     1
102
RTVSPropertyOp14
 70
     1
102
RTVSPropertyOp15
 70
     1
102
RTVSPropertyOp16
 70
     1
102
RTVSPropertyOp17
 70
     1
102
RTVSPropertyOp18
 70
     1
102
RTVSPropertyOp19
 70
     1
102
RTVSPropertyOp20
 70
     1
102
RTVSPropertyOp21
 70
     1
102
RTVSPropertyOp22
 70
     1
102
RTVSPropertyOp23
 70
     1
102
RTVSPropertyOp24
 70
     1
102
RTVSPropertyOp25
 70
     1
102
RTVSPropertyOp26
 70
     1
102
RTVSPropertyOp27
 70
     1
102
RTVSPropertyOp28
 70
     1
102
RTVSPropertyOp29
 70
     1
102
RTVSPropertyOp30
 70
     1
102
RTVSPropertyOp31
 70
     1
102
RTVSPropertyOp32
 70
     1
102
RTVSPropertyOp33
 70
     1
102
RTVSPropertyOp34
 70
     1
102
RTVSPropertyOp35
 70
     1
102
RTVSPropertyOp36
 70
     1
102
RTVSPropertyOp37
 70
     1
102
RTVSPropertyOp38
 70
     1
102
RTVSPropertyOp39
 70
     1
102
RTVSPropertyOp40
 70
     1
102
RTVSPropertyOp41
 70
     1
102
RTVSPropertyOp42
 70
     1
102
RTVSPropertyOp43
 70
     1
102
RTVSPropertyOp44
 70
     1
102
RTVSPropertyOp45
 70
     1
102
RTVSPropertyOp46
 70
     1
102
RTVSPropertyOp47
 70
     1
102
RTVSPropertyOp48
 70
     1
102
RTVSPropertyOp49
 70
     1
102
RTVSPropertyOp50
 70
     1
102
RTVSPropertyOp51
 70
     0
102
RTVSPropertyOp52
 70
     0
102
RTVSPropertyOp53
 70
     1
102
RTVSPropertyOp54
 70
     1
102
RTVSPropertyOp55
 70
     1
102
RTVSPropertyOp56
 70
     1
102
RTVSPropertyOp57
 70
     1
102
RTVSPropertyOp58
 70
     1
102
RTVSPropertyOp59
 70
     1
102
RTVSPropertyOp60
 70
     1
102
RTVSPropertyOp61
 70
     1
102
RTVSPropertyOp62
 70
     1
  0
XRECORD
  5
8340
102
{ACAD_REACTORS
330
833F
102
}
330
833F
100
AcDbXrecord
280
     1
102
RTVSPost2010Prop28
280
     0
102
RTVSPost2010PropOp28
 70
     1
102
RTVSPost2010Prop29
280
     1
102
RTVSPost2010PropOp29
 70
     1
102
RTVSPost2010Prop30
280
     1
102
RTVSPost2010PropOp30
 70
     1
102
RTVSPost2010Prop31
280
     0
102
RTVSPost2010PropOp31
 70
     1
102
RTVSPost2010Prop32
280
     0
102
RTVSPost2010PropOp32
 70
     1
102
RTVSPost2010Prop33
280
     0
102
RTVSPost2010PropOp33
 70
     1
102
RTVSPost2010Prop34
280
     0
102
RTVSPost2010PropOp34
 70
     1
102
RTVSPost2010Prop35
280
     0
102
RTVSPost2010PropOp35
 70
     1
102
RTVSPost2010Prop36
280
     0
102
RTVSPost2010PropOp36
 70
     1
102
RTVSPost2010Prop37
 90
       50
102
RTVSPost2010PropOp37
 70
     1
102
RTVSPost2010Prop38
140
0.0
102
RTVSPost2010PropOp38
 70
     1
102
RTVSPost2010Prop39
140
1.0
102
RTVSPost2010PropOp39
 70
     1
102
RTVSPost2010Prop40
 90
        0
102
RTVSPost2010PropOp40
 70
     1
102
RTVSPost2010Prop41ColorIndex
 90
       18
102
RTVSPost2010Prop41ColorRGB
 90
        0
102
RTVSPost2010PropOp41
 70
     1
102
RTVSPost2010Prop42
 90
       50
102
RTVSPost2010PropOp42
 70
     1
102
RTVSPost2010Prop43
 90
        3
102
RTVSPost2010PropOp43
 70
     1
102
RTVSPost2010Prop44ColorIndex
 90
        5
102
RTVSPost2010Prop44ColorRGB
 90
      255
102
RTVSPost2010PropOp44
 70
     1
102
RTVSPost2010Prop45
280
     0
102
RTVSPost2010PropOp45
 70
     1
102
RTVSPost2010Prop46
 90
       50
102
RTVSPost2010PropOp46
 70
     1
102
RTVSPost2010Prop47
 90
       50
102
RTVSPost2010PropOp47
 70
     1
102
RTVSPost2010Prop48
 90
       50
102
RTVSPost2010PropOp48
 70
     1
102
RTVSPost2010Prop49
280
     0
102
RTVSPost2010PropOp49
 70
     1
102
RTVSPost2010Prop50
 90
       50
102
RTVSPost2010PropOp50
 70
     1
102
RTVSPost2010Prop51ColorIndex
 90
      256
102
RTVSPost2010Prop51ColorRGB
 90
-16777216
102
RTVSPost2010PropOp51
 70
     0
102
RTVSPost2010Prop52
140
1.0
102
RTVSPost2010PropOp52
 70
     0
102
RTVSPost2010Prop53
 90
        2
102
RTVSPost2010PropOp53
 70
     1
102
RTVSPost2010Prop54
  1
strokes_ogs.tif
102
RTVSPost2010PropOp54
 70
     1
102
RTVSPost2010Prop55
280
     0
102
RTVSPost2010PropOp55
 70
     1
102
RTVSPost2010Prop56
140
1.0
102
RTVSPost2010PropOp56
 70
     1
102
RTVSPost2010Prop57
140
1.0
102
RTVSPost2010PropOp57
 70
     1
102
RTVSPropertyOp0
 70
     1
102
RTVSPropertyOp1
 70
     1
102
RTVSPropertyOp2
 70
     1
102
RTVSPropertyOp3
 70
     1
102
RTVSPropertyOp4
 70
     1
102
RTVSPropertyOp5
 70
     1
102
RTVSPropertyOp6
 70
     1
102
RTVSPropertyOp7
 70
     1
102
RTVSPropertyOp8
 70
     1
102
RTVSPropertyOp9
 70
     1
102
RTVSPropertyOp10
 70
     1
102
RTVSPropertyOp11
 70
     1
102
RTVSPropertyOp12
 70
     1
102
RTVSPropertyOp13
 70
     1
102
RTVSPropertyOp14
 70
     1
102
RTVSPropertyOp15
 70
     1
102
RTVSPropertyOp16
 70
     1
102
RTVSPropertyOp17
 70
     1
102
RTVSPropertyOp18
 70
     1
102
RTVSPropertyOp19
 70
     1
102
RTVSPropertyOp20
 70
     1
102
RTVSPropertyOp21
 70
     1
102
RTVSPropertyOp22
 70
     1
102
RTVSPropertyOp23
 70
     1
102
RTVSPropertyOp24
 70
     1
102
RTVSPropertyOp25
 70
     1
102
RTVSPropertyOp26
 70
     1
102
RTVSPropertyOp27
 70
     1
102
RTVSPropertyOp28
 70
     1
102
RTVSPropertyOp29
 70
     1
102
RTVSPropertyOp30
 70
     1
102
RTVSPropertyOp31
 70
     1
102
RTVSPropertyOp32
 70
     1
102
RTVSPropertyOp33
 70
     1
102
RTVSPropertyOp34
 70
     1
102
RTVSPropertyOp35
 70
     1
102
RTVSPropertyOp36
 70
     1
102
RTVSPropertyOp37
 70
     1
102
RTVSPropertyOp38
 70
     1
102
RTVSPropertyOp39
 70
     1
102
RTVSPropertyOp40
 70
     1
102
RTVSPropertyOp41
 70
     1
102
RTVSPropertyOp42
 70
     1
102
RTVSPropertyOp43
 70
     1
102
RTVSPropertyOp44
 70
     1
102
RTVSPropertyOp45
 70
     1
102
RTVSPropertyOp46
 70
     1
102
RTVSPropertyOp47
 70
     1
102
RTVSPropertyOp48
 70
     1
102
RTVSPropertyOp49
 70
     1
102
RTVSPropertyOp50
 70
     1
102
RTVSPropertyOp51
 70
     0
102
RTVSPropertyOp52
 70
     0
102
RTVSPropertyOp53
 70
     1
102
RTVSPropertyOp54
 70
     1
102
RTVSPropertyOp55
 70
     1
102
RTVSPropertyOp56
 70
     1
102
RTVSPropertyOp57
 70
     1
102
RTVSPropertyOp58
 70
     1
102
RTVSPropertyOp59
 70
     1
102
RTVSPropertyOp60
 70
     1
102
RTVSPropertyOp61
 70
     1
102
RTVSPropertyOp62
 70
     1
  0
XRECORD
  5
8334
102
{ACAD_REACTORS
330
8333
102
}
330
8333
100
AcDbXrecord
280
     1
102
RTVSPost2010Prop28
280
     0
102
RTVSPost2010PropOp28
 70
     1
102
RTVSPost2010Prop29
280
     1
102
RTVSPost2010PropOp29
 70
     1
102
RTVSPost2010Prop30
280
     1
102
RTVSPost2010PropOp30
 70
     1
102
RTVSPost2010Prop31
280
     0
102
RTVSPost2010PropOp31
 70
     1
102
RTVSPost2010Prop32
280
     0
102
RTVSPost2010PropOp32
 70
     1
102
RTVSPost2010Prop33
280
     0
102
RTVSPost2010PropOp33
 70
     1
102
RTVSPost2010Prop34
280
     0
102
RTVSPost2010PropOp34
 70
     1
102
RTVSPost2010Prop35
280
     0
102
RTVSPost2010PropOp35
 70
     1
102
RTVSPost2010Prop36
280
     0
102
RTVSPost2010PropOp36
 70
     1
102
RTVSPost2010Prop37
 90
       50
102
RTVSPost2010PropOp37
 70
     1
102
RTVSPost2010Prop38
140
0.0
102
RTVSPost2010PropOp38
 70
     1
102
RTVSPost2010Prop39
140
1.0
102
RTVSPost2010PropOp39
 70
     1
102
RTVSPost2010Prop40
 90
        0
102
RTVSPost2010PropOp40
 70
     1
102
RTVSPost2010Prop41ColorIndex
 90
       18
102
RTVSPost2010Prop41ColorRGB
 90
        0
102
RTVSPost2010PropOp41
 70
     1
102
RTVSPost2010Prop42
 90
       50
102
RTVSPost2010PropOp42
 70
     1
102
RTVSPost2010Prop43
 90
        3
102
RTVSPost2010PropOp43
 70
     1
102
RTVSPost2010Prop44ColorIndex
 90
        5
102
RTVSPost2010Prop44ColorRGB
 90
      255
102
RTVSPost2010PropOp44
 70
     1
102
RTVSPost2010Prop45
280
     0
102
RTVSPost2010PropOp45
 70
     1
102
RTVSPost2010Prop46
 90
       50
102
RTVSPost2010PropOp46
 70
     1
102
RTVSPost2010Prop47
 90
       50
102
RTVSPost2010PropOp47
 70
     1
102
RTVSPost2010Prop48
 90
       50
102
RTVSPost2010PropOp48
 70
     1
102
RTVSPost2010Prop49
280
     0
102
RTVSPost2010PropOp49
 70
     1
102
RTVSPost2010Prop50
 90
       50
102
RTVSPost2010PropOp50
 70
     1
102
RTVSPost2010Prop51ColorIndex
 90
      256
102
RTVSPost2010Prop51ColorRGB
 90
-16777216
102
RTVSPost2010PropOp51
 70
     0
102
RTVSPost2010Prop52
140
1.0
102
RTVSPost2010PropOp52
 70
     0
102
RTVSPost2010Prop53
 90
        2
102
RTVSPost2010PropOp53
 70
     1
102
RTVSPost2010Prop54
  1
strokes_ogs.tif
102
RTVSPost2010PropOp54
 70
     1
102
RTVSPost2010Prop55
280
     0
102
RTVSPost2010PropOp55
 70
     1
102
RTVSPost2010Prop56
140
1.0
102
RTVSPost2010PropOp56
 70
     1
102
RTVSPost2010Prop57
140
1.0
102
RTVSPost2010PropOp57
 70
     1
102
RTVSPropertyOp0
 70
     1
102
RTVSPropertyOp1
 70
     1
102
RTVSPropertyOp2
 70
     1
102
RTVSPropertyOp3
 70
     1
102
RTVSPropertyOp4
 70
     1
102
RTVSPropertyOp5
 70
     1
102
RTVSPropertyOp6
 70
     1
102
RTVSPropertyOp7
 70
     1
102
RTVSPropertyOp8
 70
     1
102
RTVSPropertyOp9
 70
     1
102
RTVSPropertyOp10
 70
     1
102
RTVSPropertyOp11
 70
     1
102
RTVSPropertyOp12
 70
     1
102
RTVSPropertyOp13
 70
     1
102
RTVSPropertyOp14
 70
     1
102
RTVSPropertyOp15
 70
     1
102
RTVSPropertyOp16
 70
     1
102
RTVSPropertyOp17
 70
     1
102
RTVSPropertyOp18
 70
     1
102
RTVSPropertyOp19
 70
     1
102
RTVSPropertyOp20
 70
     1
102
RTVSPropertyOp21
 70
     1
102
RTVSPropertyOp22
 70
     1
102
RTVSPropertyOp23
 70
     1
102
RTVSPropertyOp24
 70
     1
102
RTVSPropertyOp25
 70
     1
102
RTVSPropertyOp26
 70
     1
102
RTVSPropertyOp27
 70
     1
102
RTVSPropertyOp28
 70
     1
102
RTVSPropertyOp29
 70
     1
102
RTVSPropertyOp30
 70
     1
102
RTVSPropertyOp31
 70
     1
102
RTVSPropertyOp32
 70
     1
102
RTVSPropertyOp33
 70
     1
102
RTVSPropertyOp34
 70
     1
102
RTVSPropertyOp35
 70
     1
102
RTVSPropertyOp36
 70
     1
102
RTVSPropertyOp37
 70
     1
102
RTVSPropertyOp38
 70
     1
102
RTVSPropertyOp39
 70
     1
102
RTVSPropertyOp40
 70
     1
102
RTVSPropertyOp41
 70
     1
102
RTVSPropertyOp42
 70
     1
102
RTVSPropertyOp43
 70
     1
102
RTVSPropertyOp44
 70
     1
102
RTVSPropertyOp45
 70
     1
102
RTVSPropertyOp46
 70
     1
102
RTVSPropertyOp47
 70
     1
102
RTVSPropertyOp48
 70
     1
102
RTVSPropertyOp49
 70
     1
102
RTVSPropertyOp50
 70
     1
102
RTVSPropertyOp51
 70
     0
102
RTVSPropertyOp52
 70
     0
102
RTVSPropertyOp53
 70
     1
102
RTVSPropertyOp54
 70
     1
102
RTVSPropertyOp55
 70
     1
102
RTVSPropertyOp56
 70
     1
102
RTVSPropertyOp57
 70
     1
102
RTVSPropertyOp58
 70
     1
102
RTVSPropertyOp59
 70
     1
102
RTVSPropertyOp60
 70
     1
102
RTVSPropertyOp61
 70
     1
102
RTVSPropertyOp62
 70
     1
  0
XRECORD
  5
834C
102
{ACAD_REACTORS
330
834B
102
}
330
834B
100
AcDbXrecord
280
     1
102
RTVSPost2010Prop28
280
     0
102
RTVSPost2010PropOp28
 70
     1
102
RTVSPost2010Prop29
280
     1
102
RTVSPost2010PropOp29
 70
     1
102
RTVSPost2010Prop30
280
     1
102
RTVSPost2010PropOp30
 70
     1
102
RTVSPost2010Prop31
280
     0
102
RTVSPost2010PropOp31
 70
     1
102
RTVSPost2010Prop32
280
     0
102
RTVSPost2010PropOp32
 70
     1
102
RTVSPost2010Prop33
280
     0
102
RTVSPost2010PropOp33
 70
     1
102
RTVSPost2010Prop34
280
     0
102
RTVSPost2010PropOp34
 70
     1
102
RTVSPost2010Prop35
280
     0
102
RTVSPost2010PropOp35
 70
     1
102
RTVSPost2010Prop36
280
     0
102
RTVSPost2010PropOp36
 70
     1
102
RTVSPost2010Prop37
 90
       50
102
RTVSPost2010PropOp37
 70
     1
102
RTVSPost2010Prop38
140
0.0
102
RTVSPost2010PropOp38
 70
     1
102
RTVSPost2010Prop39
140
1.0
102
RTVSPost2010PropOp39
 70
     1
102
RTVSPost2010Prop40
 90
        0
102
RTVSPost2010PropOp40
 70
     1
102
RTVSPost2010Prop41ColorIndex
 90
       18
102
RTVSPost2010Prop41ColorRGB
 90
        0
102
RTVSPost2010PropOp41
 70
     1
102
RTVSPost2010Prop42
 90
       50
102
RTVSPost2010PropOp42
 70
     1
102
RTVSPost2010Prop43
 90
        3
102
RTVSPost2010PropOp43
 70
     1
102
RTVSPost2010Prop44ColorIndex
 90
        5
102
RTVSPost2010Prop44ColorRGB
 90
      255
102
RTVSPost2010PropOp44
 70
     1
102
RTVSPost2010Prop45
280
     0
102
RTVSPost2010PropOp45
 70
     1
102
RTVSPost2010Prop46
 90
       50
102
RTVSPost2010PropOp46
 70
     1
102
RTVSPost2010Prop47
 90
       50
102
RTVSPost2010PropOp47
 70
     1
102
RTVSPost2010Prop48
 90
       50
102
RTVSPost2010PropOp48
 70
     1
102
RTVSPost2010Prop49
280
     0
102
RTVSPost2010PropOp49
 70
     1
102
RTVSPost2010Prop50
 90
       50
102
RTVSPost2010PropOp50
 70
     1
102
RTVSPost2010Prop51ColorIndex
 90
      256
102
RTVSPost2010Prop51ColorRGB
 90
-16777216
102
RTVSPost2010PropOp51
 70
     0
102
RTVSPost2010Prop52
140
1.0
102
RTVSPost2010PropOp52
 70
     0
102
RTVSPost2010Prop53
 90
        2
102
RTVSPost2010PropOp53
 70
     1
102
RTVSPost2010Prop54
  1
strokes_ogs.tif
102
RTVSPost2010PropOp54
 70
     1
102
RTVSPost2010Prop55
280
     0
102
RTVSPost2010PropOp55
 70
     1
102
RTVSPost2010Prop56
140
1.0
102
RTVSPost2010PropOp56
 70
     1
102
RTVSPost2010Prop57
140
1.0
102
RTVSPost2010PropOp57
 70
     1
102
RTVSPropertyOp0
 70
     1
102
RTVSPropertyOp1
 70
     1
102
RTVSPropertyOp2
 70
     1
102
RTVSPropertyOp3
 70
     1
102
RTVSPropertyOp4
 70
     1
102
RTVSPropertyOp5
 70
     1
102
RTVSPropertyOp6
 70
     1
102
RTVSPropertyOp7
 70
     1
102
RTVSPropertyOp8
 70
     1
102
RTVSPropertyOp9
 70
     1
102
RTVSPropertyOp10
 70
     1
102
RTVSPropertyOp11
 70
     1
102
RTVSPropertyOp12
 70
     1
102
RTVSPropertyOp13
 70
     1
102
RTVSPropertyOp14
 70
     1
102
RTVSPropertyOp15
 70
     1
102
RTVSPropertyOp16
 70
     1
102
RTVSPropertyOp17
 70
     1
102
RTVSPropertyOp18
 70
     1
102
RTVSPropertyOp19
 70
     1
102
RTVSPropertyOp20
 70
     1
102
RTVSPropertyOp21
 70
     1
102
RTVSPropertyOp22
 70
     1
102
RTVSPropertyOp23
 70
     1
102
RTVSPropertyOp24
 70
     1
102
RTVSPropertyOp25
 70
     1
102
RTVSPropertyOp26
 70
     1
102
RTVSPropertyOp27
 70
     1
102
RTVSPropertyOp28
 70
     1
102
RTVSPropertyOp29
 70
     1
102
RTVSPropertyOp30
 70
     1
102
RTVSPropertyOp31
 70
     1
102
RTVSPropertyOp32
 70
     1
102
RTVSPropertyOp33
 70
     1
102
RTVSPropertyOp34
 70
     1
102
RTVSPropertyOp35
 70
     1
102
RTVSPropertyOp36
 70
     1
102
RTVSPropertyOp37
 70
     1
102
RTVSPropertyOp38
 70
     1
102
RTVSPropertyOp39
 70
     1
102
RTVSPropertyOp40
 70
     1
102
RTVSPropertyOp41
 70
     1
102
RTVSPropertyOp42
 70
     1
102
RTVSPropertyOp43
 70
     1
102
RTVSPropertyOp44
 70
     1
102
RTVSPropertyOp45
 70
     1
102
RTVSPropertyOp46
 70
     1
102
RTVSPropertyOp47
 70
     1
102
RTVSPropertyOp48
 70
     1
102
RTVSPropertyOp49
 70
     1
102
RTVSPropertyOp50
 70
     1
102
RTVSPropertyOp51
 70
     0
102
RTVSPropertyOp52
 70
     0
102
RTVSPropertyOp53
 70
     1
102
RTVSPropertyOp54
 70
     1
102
RTVSPropertyOp55
 70
     1
102
RTVSPropertyOp56
 70
     1
102
RTVSPropertyOp57
 70
     1
102
RTVSPropertyOp58
 70
     1
102
RTVSPropertyOp59
 70
     1
102
RTVSPropertyOp60
 70
     1
102
RTVSPropertyOp61
 70
     1
102
RTVSPropertyOp62
 70
     1
  0
ENDSEC
  0
EOF
