  0
SECTION
  2
HEADER
  9
$ACADVER
  1
AC1015
  9
$ACADMAINTVER
 70
    20
  9
$DWGCODEPAGE
  3
ANSI_932
  9
$INSBASE
 10
0.0
 20
0.0
 30
0.0
  9
$EXTMIN
 10
-0.1602050617329951
 20
-0.22504996767384
 30
-0.0015258207003583
  9
$EXTMAX
 10
5250.160229508953
 20
7375.225084310193
 30
0.0000000349246037
  9
$LIMMIN
 10
0.0
 20
0.0
  9
$LIMMAX
 10
297.0
 20
210.0
  9
$ORTHOMODE
 70
     1
  9
$REGENMODE
 70
     1
  9
$FILLMODE
 70
     0
  9
$QTEXTMODE
 70
     0
  9
$MIRRTEXT
 70
     1
  9
$LTSCALE
 40
100.0
  9
$ATTMODE
 70
     1
  9
$TEXTSIZE
 40
180.0
  9
$TRACEWID
 40
0.05
  9
$TEXTSTYLE
  7
STANDARD
  9
$CLAYER
  8
3
  9
$CELTYPE
  6
ByLayer
  9
$CECOLOR
 62
   256
  9
$CELTSCALE
 40
1.0
  9
$DISPSILH
 70
     0
  9
$DIMSCALE
 40
25.0
  9
$DIMASZ
 40
2.0
  9
$DIMEXO
 40
1.0
  9
$DIMDLI
 40
10.0
  9
$DIMRND
 40
0.0
  9
$DIMDLE
 40
0.0
  9
$DIMEXE
 40
1.0
  9
$DIMTP
 40
1.0
  9
$DIMTM
 40
1.0
  9
$DIMTXT
 40
3.0
  9
$DIMCEN
 40
0.0
  9
$DIMTSZ
 40
0.0
  9
$DIMTOL
 70
     0
  9
$DIMLIM
 70
     0
  9
$DIMTIH
 70
     0
  9
$DIMTOH
 70
     0
  9
$DIMSE1
 70
     0
  9
$DIMSE2
 70
     0
  9
$DIMTAD
 70
     1
  9
$DIMZIN
 70
     8
  9
$DIMBLK
  1

  9
$DIMASO
 70
     1
  9
$DIMSHO
 70
     1
  9
$DIMPOST
  1

  9
$DIMAPOST
  1

  9
$DIMALT
 70
     0
  9
$DIMALTD
 70
     2
  9
$DIMALTF
 40
0.039
  9
$DIMLFAC
 40
1.0
  9
$DIMTOFL
 70
     1
  9
$DIMTVP
 40
0.0
  9
$DIMTIX
 70
     0
  9
$DIMSOXD
 70
     0
  9
$DIMSAH
 70
     1
  9
$DIMBLK1
  1
OPEN
  9
$DIMBLK2
  1
OPEN
  9
$DIMSTYLE
  2
IGA
  9
$DIMCLRD
 70
     0
  9
$DIMCLRE
 70
     0
  9
$DIMCLRT
 70
     0
  9
$DIMTFAC
 40
10.0
  9
$DIMGAP
 40
1.0
  9
$DIMJUST
 70
     0
  9
$DIMSD1
 70
     0
  9
$DIMSD2
 70
     0
  9
$DIMTOLJ
 70
     1
  9
$DIMTZIN
 70
     0
  9
$DIMALTZ
 70
     0
  9
$DIMALTTZ
 70
     0
  9
$DIMUPT
 70
     0
  9
$DIMDEC
 70
     4
  9
$DIMTDEC
 70
     4
  9
$DIMALTU
 70
     2
  9
$DIMALTTD
 70
     2
  9
$DIMTXSTY
  7
STANDARD
  9
$DIMAUNIT
 70
     0
  9
$DIMADEC
 70
     0
  9
$DIMALTRND
 40
0.0
  9
$DIMAZIN
 70
     0
  9
$DIMDSEP
 70
    46
  9
$DIMATFIT
 70
     3
  9
$DIMFRAC
 70
     0
  9
$DIMLDRBLK
  1
OPEN
  9
$DIMLUNIT
 70
     2
  9
$DIMLWD
 70
    -2
  9
$DIMLWE
 70
    -2
  9
$DIMTMOVE
 70
     0
  9
$LUNITS
 70
     2
  9
$LUPREC
 70
     3
  9
$SKETCHINC
 40
0.1
  9
$FILLETRAD
 40
50.0
  9
$AUNITS
 70
     0
  9
$AUPREC
 70
     0
  9
$MENU
  1
acad
  9
$ELEVATION
 40
0.0
  9
$PELEVATION
 40
0.0
  9
$THICKNESS
 40
0.0
  9
$LIMCHECK
 70
     0
  9
$CHAMFERA
 40
0.5
  9
$CHAMFERB
 40
0.5
  9
$CHAMFERC
 40
0.0
  9
$CHAMFERD
 40
0.0
  9
$SKPOLY
 70
     0
  9
$TDCREATE
 40
2451387.620289931
  9
$TDUCREATE
 40
2451387.245289931
  9
$TDUPDATE
 40
2460263.704951169
  9
$TDUUPDATE
 40
2460263.329951169
  9
$TDINDWG
 40
0.0588525231
  9
$TDUSRTIMER
 40
0.0588522801
  9
$USRTIMER
 70
     1
  9
$ANGBASE
 50
0.0
  9
$ANGDIR
 70
     0
  9
$PDMODE
 70
     0
  9
$PDSIZE
 40
0.0
  9
$PLINEWID
 40
0.0
  9
$SPLFRAME
 70
     0
  9
$SPLINETYPE
 70
     6
  9
$SPLINESEGS
 70
     8
  9
$HANDSEED
  5
838D
  9
$SURFTAB1
 70
     6
  9
$SURFTAB2
 70
     6
  9
$SURFTYPE
 70
     6
  9
$SURFU
 70
     6
  9
$SURFV
 70
     6
  9
$UCSBASE
  2

  9
$UCSNAME
  2

  9
$UCSORG
 10
0.0
 20
0.0
 30
0.0
  9
$UCSXDIR
 10
1.0
 20
0.0
 30
0.0
  9
$UCSYDIR
 10
0.0
 20
1.0
 30
0.0
  9
$UCSORTHOREF
  2

  9
$UCSORTHOVIEW
 70
     0
  9
$UCSORGTOP
 10
0.0
 20
0.0
 30
0.0
  9
$UCSORGBOTTOM
 10
0.0
 20
0.0
 30
0.0
  9
$UCSORGLEFT
 10
0.0
 20
0.0
 30
0.0
  9
$UCSORGRIGHT
 10
0.0
 20
0.0
 30
0.0
  9
$UCSORGFRONT
 10
0.0
 20
0.0
 30
0.0
  9
$UCSORGBACK
 10
0.0
 20
0.0
 30
0.0
  9
$PUCSBASE
  2

  9
$PUCSNAME
  2

  9
$PUCSORG
 10
0.0
 20
0.0
 30
0.0
  9
$PUCSXDIR
 10
1.0
 20
0.0
 30
0.0
  9
$PUCSYDIR
 10
0.0
 20
1.0
 30
0.0
  9
$PUCSORTHOREF
  2

  9
$PUCSORTHOVIEW
 70
     0
  9
$PUCSORGTOP
 10
0.0
 20
0.0
 30
0.0
  9
$PUCSORGBOTTOM
 10
0.0
 20
0.0
 30
0.0
  9
$PUCSORGLEFT
 10
0.0
 20
0.0
 30
0.0
  9
$PUCSORGRIGHT
 10
0.0
 20
0.0
 30
0.0
  9
$PUCSORGFRONT
 10
0.0
 20
0.0
 30
0.0
  9
$PUCSORGBACK
 10
0.0
 20
0.0
 30
0.0
  9
$USERI1
 70
     0
  9
$USERI2
 70
     0
  9
$USERI3
 70
     0
  9
$USERI4
 70
     0
  9
$USERI5
 70
     0
  9
$USERR1
 40
0.0
  9
$USERR2
 40
0.0
  9
$USERR3
 40
0.0
  9
$USERR4
 40
0.0
  9
$USERR5
 40
0.0
  9
$WORLDVIEW
 70
     1
  9
$SHADEDGE
 70
     3
  9
$SHADEDIF
 70
    70
  9
$TILEMODE
 70
     1
  9
$MAXACTVP
 70
    16
  9
$PINSBASE
 10
0.0
 20
0.0
 30
0.0
  9
$PLIMCHECK
 70
     0
  9
$PEXTMIN
 10
1.000000000000000E+20
 20
1.000000000000000E+20
 30
1.000000000000000E+20
  9
$PEXTMAX
 10
-1.000000000000000E+20
 20
-1.000000000000000E+20
 30
-1.000000000000000E+20
  9
$PLIMMIN
 10
0.0
 20
0.0
  9
$PLIMMAX
 10
12.0
 20
9.0
  9
$UNITMODE
 70
     0
  9
$VISRETAIN
 70
     0
  9
$PLINEGEN
 70
     0
  9
$PSLTSCALE
 70
     1
  9
$TREEDEPTH
 70
  3020
  9
$CMLSTYLE
  2
Standard
  9
$CMLJUST
 70
     0
  9
$CMLSCALE
 40
1.0
  9
$PROXYGRAPHICS
 70
     1
  9
$MEASUREMENT
 70
     0
  9
$CELWEIGHT
370
    -1
  9
$ENDCAPS
280
     0
  9
$JOINSTYLE
280
     0
  9
$LWDISPLAY
290
     0
  9
$INSUNITS
 70
     0
  9
$HYPERLINKBASE
  1

  9
$STYLESHEET
  1

  9
$XEDIT
290
     1
  9
$CEPSNTYPE
380
     0
  9
$PSTYLEMODE
290
     1
  9
$FINGERPRINTGUID
  2
{5F88F7F2-756D-46B8-A2A0-6BDA9CD0B93F}
  9
$VERSIONGUID
  2
{7FA59B1A-53BD-444E-A9B1-165926423AEE}
  9
$EXTNAMES
290
     1
  9
$PSVPSCALE
 40
0.0
  9
$OLESTARTUP
290
     0
  0
ENDSEC
  0
SECTION
  2
CLASSES
  0
CLASS
  1
ACDBDICTIONARYWDFLT
  2
AcDbDictionaryWithDefault
  3
ObjectDBX Classes
 90
        0
280
     0
281
     0
  0
CLASS
  1
MATERIAL
  2
AcDbMaterial
  3
ObjectDBX Classes
 90
     1153
280
     0
281
     0
  0
CLASS
  1
VISUALSTYLE
  2
AcDbVisualStyle
  3
ObjectDBX Classes
 90
     4095
280
     0
281
     0
  0
CLASS
  1
SCALE
  2
AcDbScale
  3
ObjectDBX Classes
 90
     1153
280
     0
281
     0
  0
CLASS
  1
TABLESTYLE
  2
AcDbTableStyle
  3
ObjectDBX Classes
 90
     4095
280
     0
281
     0
  0
CLASS
  1
MLEADERSTYLE
  2
AcDbMLeaderStyle
  3
ACDB_MLEADERSTYLE_CLASS
 90
     4095
280
     0
281
     0
  0
CLASS
  1
ACDBSECTIONVIEWSTYLE
  2
AcDbSectionViewStyle
  3
ObjectDBX Classes
 90
     1025
280
     0
281
     0
  0
CLASS
  1
ACDBDETAILVIEWSTYLE
  2
AcDbDetailViewStyle
  3
ObjectDBX Classes
 90
     1025
280
     0
281
     0
  0
CLASS
  1
SORTENTSTABLE
  2
AcDbSortentsTable
  3
ObjectDBX Classes
 90
        0
280
     0
281
     0
  0
CLASS
  1
DICTIONARYVAR
  2
AcDbDictionaryVar
  3
ObjectDBX Classes
 90
        0
280
     0
281
     0
  0
CLASS
  1
CELLSTYLEMAP
  2
AcDbCellStyleMap
  3
ObjectDBX Classes
 90
     1152
280
     0
281
     0
  0
CLASS
  1
ACDBPLACEHOLDER
  2
AcDbPlaceHolder
  3
ObjectDBX Classes
 90
        0
280
     0
281
     0
  0
CLASS
  1
LAYOUT
  2
AcDbLayout
  3
ObjectDBX Classes
 90
        0
280
     0
281
     0
  0
ENDSEC
  0
SECTION
  2
TABLES
  0
TABLE
  2
VPORT
  5
8125
330
0
100
AcDbSymbolTable
 70
     1
  0
VPORT
  5
8191
330
8125
100
AcDbSymbolTableRecord
100
AcDbViewportTableRecord
  2
*ACTIVE
 70
     0
 10
0.0
 20
0.0
 11
1.0
 21
1.0
 12
2625.00001222361
 22
3687.500017171259
 13
0.0
 23
0.0
 14
10.0
 24
10.0
 15
10.0
 25
10.0
 16
0.0
 26
0.0
 36
1.0
 17
0.0
 27
0.0
 37
0.0
 40
7425.778032292718
 41
2.050213675213675
 42
50.0
 43
0.0
 44
0.0
 50
0.0
 51
0.0
 71
     0
 72
   100
 73
     1
 74
     0
 75
     0
 76
     0
 77
     0
 78
     0
281
     0
 65
     1
110
0.0
120
0.0
130
0.0
111
1.0
121
0.0
131
0.0
112
0.0
122
1.0
132
0.0
 79
     0
146
0.0
1001
ACAD_NAV_VCDISPLAY
1070
     3
  0
ENDTAB
  0
TABLE
  2
LTYPE
  5
8122
330
0
100
AcDbSymbolTable
 70
     3
  0
LTYPE
  5
8177
330
8122
100
AcDbSymbolTableRecord
100
AcDbLinetypeTableRecord
  2
ByBlock
 70
     0
  3

 72
    65
 73
     0
 40
0.0
  0
LTYPE
  5
8178
330
8122
100
AcDbSymbolTableRecord
100
AcDbLinetypeTableRecord
  2
ByLayer
 70
     0
  3

 72
    65
 73
     0
 40
0.0
  0
LTYPE
  5
8179
330
8122
100
AcDbSymbolTableRecord
100
AcDbLinetypeTableRecord
  2
CONTINUOUS
 70
     0
  3
Solid line
 72
    65
 73
     0
 40
0.0
  0
LTYPE
  5
8192
330
8122
100
AcDbSymbolTableRecord
100
AcDbLinetypeTableRecord
  2
CENTER
 70
     0
  3
____ _ ____ _ ____ _ ____ _ ____ _ ____ _ ____ 
 72
    65
 73
     4
 40
2.0
 49
1.25
 74
     0
 49
-0.25
 74
     0
 49
0.25
 74
     0
 49
-0.25
 74
     0
  0
ENDTAB
  0
TABLE
  2
LAYER
  5
811F
102
{ACAD_XDICTIONARY
360
81DA
102
}
330
0
100
AcDbSymbolTable
 70
     6
  0
LAYER
  5
8171
102
{ACAD_XDICTIONARY
360
82F7
102
}
330
811F
100
AcDbSymbolTableRecord
100
AcDbLayerTableRecord
  2
0
 70
     0
 62
     7
  6
CONTINUOUS
370
    -3
390
812C
  0
LAYER
  5
8190
102
{ACAD_XDICTIONARY
360
82F9
102
}
330
811F
100
AcDbSymbolTableRecord
100
AcDbLayerTableRecord
  2
3
 70
     0
 62
     2
  6
CONTINUOUS
370
    -3
390
812C
  0
LAYER
  5
8193
102
{ACAD_XDICTIONARY
360
82FB
102
}
330
811F
100
AcDbSymbolTableRecord
100
AcDbLayerTableRecord
  2
2
 70
     0
 62
     3
  6
CENTER
370
    -3
390
812C
  0
LAYER
  5
8194
102
{ACAD_XDICTIONARY
360
82FD
102
}
330
811F
100
AcDbSymbolTableRecord
100
AcDbLayerTableRecord
  2
1
 70
     0
 62
     4
  6
CONTINUOUS
370
    -3
390
812C
  0
LAYER
  5
8195
102
{ACAD_XDICTIONARY
360
82FF
102
}
330
811F
100
AcDbSymbolTableRecord
100
AcDbLayerTableRecord
  2
4
 70
     0
 62
     7
  6
CONTINUOUS
370
    -3
390
812C
  0
LAYER
  5
8196
330
811F
100
AcDbSymbolTableRecord
100
AcDbLayerTableRecord
  2
DEFPOINTS
 70
     0
 62
     7
  6
CONTINUOUS
290
     0
370
    -3
390
812C
  0
ENDTAB
  0
TABLE
  2
STYLE
  5
8120
330
0
100
AcDbSymbolTable
 70
     2
  0
STYLE
  5
8172
330
8120
100
AcDbSymbolTableRecord
100
AcDbTextStyleTableRecord
  2
STANDARD
 70
     0
 40
0.0
 41
1.0
 50
0.0
 71
     0
 42
180.0
  3
simplex.shx
  4
extfont.shx
  0
STYLE
  5
8176
330
8120
100
AcDbSymbolTableRecord
100
AcDbTextStyleTableRecord
  2
Annotative
 70
     0
 40
0.0
 41
1.0
 50
0.0
 71
     0
 42
0.2
  3
txt
  4

1001
AcadAnnotative
1000
AnnotativeData
1002
{
1070
     1
1070
     1
1002
}
  0
ENDTAB
  0
TABLE
  2
VIEW
  5
8123
330
0
100
AcDbSymbolTable
 70
     0
  0
ENDTAB
  0
TABLE
  2
UCS
  5
8124
330
0
100
AcDbSymbolTable
 70
     0
  0
ENDTAB
  0
TABLE
  2
APPID
  5
8126
330
0
100
AcDbSymbolTable
 70
     8
  0
APPID
  5
8173
330
8126
100
AcDbSymbolTableRecord
100
AcDbRegAppTableRecord
  2
ACAD
 70
     0
  0
APPID
  5
817A
330
8126
100
AcDbSymbolTableRecord
100
AcDbRegAppTableRecord
  2
AcadAnnotative
 70
     0
  0
APPID
  5
81D9
330
8126
100
AcDbSymbolTableRecord
100
AcDbRegAppTableRecord
  2
ACAD_NAV_VCDISPLAY
 70
     0
  0
APPID
  5
827B
330
8126
100
AcDbSymbolTableRecord
100
AcDbRegAppTableRecord
  2
ACAD_DSTYLE_DIMJAG
 70
     0
  0
APPID
  5
827C
330
8126
100
AcDbSymbolTableRecord
100
AcDbRegAppTableRecord
  2
ACAD_DSTYLE_DIMTALN
 70
     0
  0
APPID
  5
82E2
330
8126
100
AcDbSymbolTableRecord
100
AcDbRegAppTableRecord
  2
AcadAnnoMonitorAlertIconDisabled
 70
     0
  0
APPID
  5
82E3
330
8126
100
AcDbSymbolTableRecord
100
AcDbRegAppTableRecord
  2
ACAD_EXEMPT_FROM_CAD_STANDARDS
 70
     0
  0
APPID
  5
8384
330
8126
100
AcDbSymbolTableRecord
100
AcDbRegAppTableRecord
  2
ACAD_MLEADERVER
 70
     0
  0
ENDTAB
  0
TABLE
  2
DIMSTYLE
  5
8127
330
0
100
AcDbSymbolTable
 70
     4
100
AcDbDimStyleTable
 71
     1
340
8197
  0
DIMSTYLE
105
8174
102
{ACAD_REACTORS
330
7C97
330
7C98
330
7CF7
330
7CFB
330
7CFD
330
7CFE
330
7CFF
330
7D00
330
7D02
330
7D2C
330
7D36
330
804C
330
8059
330
8066
330
8073
330
8082
102
}
330
8127
100
AcDbSymbolTableRecord
100
AcDbDimStyleTableRecord
  2
Standard
 70
     0
340
8172
  0
DIMSTYLE
105
8175
330
8127
100
AcDbSymbolTableRecord
100
AcDbDimStyleTableRecord
  2
Annotative
 70
     0
340
8172
1001
AcadAnnotative
1000
AnnotativeData
1002
{
1070
     1
1070
     1
1002
}
  0
DIMSTYLE
105
8197
102
{ACAD_REACTORS
330
823C
330
8249
330
827D
330
828A
330
82A0
330
82B6
330
82D5
102
}
330
8127
100
AcDbSymbolTableRecord
100
AcDbDimStyleTableRecord
  2
IGA
 70
     0
 40
2.0
 41
2.0
 42
0.5
 43
10.0
 44
1.0
 47
1.0
 48
1.0
 73
     0
 74
     0
 77
     1
 78
     8
140
3.0
141
0.0
143
0.03937
146
10.0
147
1.0
173
     1
271
     3
272
     3
279
     2
284
     8
285
     8
286
     8
340
8172
  0
DIMSTYLE
105
8198
330
8127
100
AcDbSymbolTableRecord
100
AcDbDimStyleTableRecord
  2
MATSU
 70
     0
 41
2.0
 42
1.0
 43
10.0
 44
1.0
 73
     0
 74
     0
 77
     1
 78
     8
140
3.0
141
0.0
143
0.03937
147
0.5
172
     1
173
     1
176
   256
177
   256
178
   256
271
     3
272
     3
279
     2
284
     8
285
     8
286
     8
340
8172
  0
ENDTAB
  0
TABLE
  2
BLOCK_RECORD
  5
811E
330
0
100
AcDbSymbolTable
 70
    38
  0
BLOCK_RECORD
  5
818C
330
811E
100
AcDbSymbolTableRecord
100
AcDbBlockTableRecord
  2
*Model_Space
340
818F
  0
BLOCK_RECORD
  5
8188
330
811E
100
AcDbSymbolTableRecord
100
AcDbBlockTableRecord
  2
*Paper_Space
340
818B
  0
BLOCK_RECORD
  5
819C
330
811E
100
AcDbSymbolTableRecord
100
AcDbBlockTableRecord
  2
$MODEL_SPACE
340
0
  0
BLOCK_RECORD
  5
819E
330
811E
100
AcDbSymbolTableRecord
100
AcDbBlockTableRecord
  2
$PAPER_SPACE
340
0
  0
BLOCK_RECORD
  5
81A0
330
811E
100
AcDbSymbolTableRecord
100
AcDbBlockTableRecord
  2
_OPEN
340
0
102
{BLKREFS
331
82CF
331
82D0
331
82F1
331
82F2
331
7F44
331
7F45
331
8102
331
8103
331
810E
331
8045
331
8046
331
8052
331
8053
331
805F
331
826B
331
826C
331
8274
331
8275
331
8284
331
8285
331
829A
331
829B
331
82B0
331
82B1
331
7E74
331
7E75
331
7E7F
331
7E80
331
7EC1
331
7EC2
331
801A
331
801B
331
8030
331
8031
331
80FA
331
80FB
331
8060
331
806C
331
806D
331
8088
331
8089
331
7EE2
331
7EE3
331
7EED
331
7EEE
331
8009
331
800A
331
7F03
331
7F04
331
7F0E
331
7F0F
331
7F19
331
7F1A
331
7F24
331
7F25
331
7F2F
331
7F30
102
}
  0
BLOCK_RECORD
  5
81A2
330
811E
100
AcDbSymbolTableRecord
100
AcDbBlockTableRecord
  2
YA_N
340
0
102
{BLKREFS
331
7C41
331
7C60
331
7C9E
331
7CD6
102
}
  0
BLOCK_RECORD
  5
81A4
330
811E
100
AcDbSymbolTableRecord
100
AcDbBlockTableRecord
  2
*D4
340
0
  0
BLOCK_RECORD
  5
81A6
330
811E
100
AcDbSymbolTableRecord
100
AcDbBlockTableRecord
  2
*D5
340
0
  0
BLOCK_RECORD
  5
81A8
330
811E
100
AcDbSymbolTableRecord
100
AcDbBlockTableRecord
  2
*D6
340
0
  0
BLOCK_RECORD
  5
81AA
330
811E
100
AcDbSymbolTableRecord
100
AcDbBlockTableRecord
  2
*D7
340
0
  0
BLOCK_RECORD
  5
81AC
330
811E
100
AcDbSymbolTableRecord
100
AcDbBlockTableRecord
  2
*U8
340
0
102
{BLKREFS
331
801C
102
}
  0
BLOCK_RECORD
  5
81AD
330
811E
100
AcDbSymbolTableRecord
100
AcDbBlockTableRecord
  2
*D9
340
0
  0
BLOCK_RECORD
  5
81AF
330
811E
100
AcDbSymbolTableRecord
100
AcDbBlockTableRecord
  2
*D10
340
0
  0
BLOCK_RECORD
  5
81B1
330
811E
100
AcDbSymbolTableRecord
100
AcDbBlockTableRecord
  2
*D11
340
0
  0
BLOCK_RECORD
  5
81B3
330
811E
100
AcDbSymbolTableRecord
100
AcDbBlockTableRecord
  2
*D12
340
0
  0
BLOCK_RECORD
  5
81B5
330
811E
100
AcDbSymbolTableRecord
100
AcDbBlockTableRecord
  2
*D13
340
0
  0
BLOCK_RECORD
  5
81B7
330
811E
100
AcDbSymbolTableRecord
100
AcDbBlockTableRecord
  2
*D14
340
0
  0
BLOCK_RECORD
  5
81B9
330
811E
100
AcDbSymbolTableRecord
100
AcDbBlockTableRecord
  2
*D15
340
0
  0
BLOCK_RECORD
  5
81BB
330
811E
100
AcDbSymbolTableRecord
100
AcDbBlockTableRecord
  2
*D16
340
0
  0
BLOCK_RECORD
  5
81BD
330
811E
100
AcDbSymbolTableRecord
100
AcDbBlockTableRecord
  2
*D17
340
0
  0
BLOCK_RECORD
  5
81BF
330
811E
100
AcDbSymbolTableRecord
100
AcDbBlockTableRecord
  2
*D18
340
0
  0
BLOCK_RECORD
  5
81C1
330
811E
100
AcDbSymbolTableRecord
100
AcDbBlockTableRecord
  2
*D19
340
0
  0
BLOCK_RECORD
  5
81C3
330
811E
100
AcDbSymbolTableRecord
100
AcDbBlockTableRecord
  2
*D20
340
0
  0
BLOCK_RECORD
  5
81C5
330
811E
100
AcDbSymbolTableRecord
100
AcDbBlockTableRecord
  2
*D21
340
0
  0
BLOCK_RECORD
  5
81C7
330
811E
100
AcDbSymbolTableRecord
100
AcDbBlockTableRecord
  2
_DOT
340
0
102
{BLKREFS
331
810D
102
}
  0
BLOCK_RECORD
  5
81C9
330
811E
100
AcDbSymbolTableRecord
100
AcDbBlockTableRecord
  2
*D23
340
0
  0
BLOCK_RECORD
  5
81CB
330
811E
100
AcDbSymbolTableRecord
100
AcDbBlockTableRecord
  2
*D24
340
0
  0
BLOCK_RECORD
  5
81CD
330
811E
100
AcDbSymbolTableRecord
100
AcDbBlockTableRecord
  2
*D25
340
0
  0
BLOCK_RECORD
  5
81CF
330
811E
100
AcDbSymbolTableRecord
100
AcDbBlockTableRecord
  2
*D26
340
0
  0
BLOCK_RECORD
  5
81D1
330
811E
100
AcDbSymbolTableRecord
100
AcDbBlockTableRecord
  2
_NONE
340
0
  0
BLOCK_RECORD
  5
81D3
330
811E
100
AcDbSymbolTableRecord
100
AcDbBlockTableRecord
  2
*D28
340
0
  0
BLOCK_RECORD
  5
81D5
330
811E
100
AcDbSymbolTableRecord
100
AcDbBlockTableRecord
  2
*D29
340
0
  0
BLOCK_RECORD
  5
823D
330
811E
100
AcDbSymbolTableRecord
100
AcDbBlockTableRecord
  2
*D31
340
0
  0
BLOCK_RECORD
  5
824A
330
811E
100
AcDbSymbolTableRecord
100
AcDbBlockTableRecord
  2
*D32
340
0
  0
BLOCK_RECORD
  5
827E
330
811E
100
AcDbSymbolTableRecord
100
AcDbBlockTableRecord
  2
*D33
340
0
  0
BLOCK_RECORD
  5
828B
330
811E
100
AcDbSymbolTableRecord
100
AcDbBlockTableRecord
  2
*D34
340
0
  0
BLOCK_RECORD
  5
82A1
330
811E
100
AcDbSymbolTableRecord
100
AcDbBlockTableRecord
  2
*D35
340
0
  0
BLOCK_RECORD
  5
82B7
330
811E
100
AcDbSymbolTableRecord
100
AcDbBlockTableRecord
  2
*D36
340
0
  0
BLOCK_RECORD
  5
82D6
330
811E
100
AcDbSymbolTableRecord
100
AcDbBlockTableRecord
  2
*D37
340
0
  0
ENDTAB
  0
ENDSEC
  0
SECTION
  2
BLOCKS
  0
BLOCK
  5
818D
330
818C
100
AcDbEntity
  8
0
100
AcDbBlockBegin
  2
*Model_Space
 70
     0
 10
0.0
 20
0.0
 30
0.0
  3
*Model_Space
  1

  0
ENDBLK
  5
818E
330
818C
100
AcDbEntity
  8
0
100
AcDbBlockEnd
  0
BLOCK
  5
8189
330
8188
100
AcDbEntity
 67
     1
  8
0
100
AcDbBlockBegin
  2
*Paper_Space
 70
     0
 10
0.0
 20
0.0
 30
0.0
  3
*Paper_Space
  1

  0
ENDBLK
  5
818A
330
8188
100
AcDbEntity
 67
     1
  8
0
100
AcDbBlockEnd
  0
BLOCK
  5
819D
330
819C
100
AcDbEntity
  8
0
100
AcDbBlockBegin
  2
$MODEL_SPACE
 70
     0
 10
0.0
 20
0.0
 30
0.0
  3
$MODEL_SPACE
  1

  0
ENDBLK
  5
1B
330
819C
100
AcDbEntity
  8
0
100
AcDbBlockEnd
  0
BLOCK
  5
819F
330
819E
100
AcDbEntity
  8
0
100
AcDbBlockBegin
  2
$PAPER_SPACE
 70
     0
 10
0.0
 20
0.0
 30
0.0
  3
$PAPER_SPACE
  1

  0
ENDBLK
  5
18
330
819E
100
AcDbEntity
  8
0
100
AcDbBlockEnd
  0
BLOCK
  5
81A1
330
81A0
100
AcDbEntity
  8
0
100
AcDbBlockBegin
  2
_OPEN
 70
     0
 10
0.0
 20
0.0
 30
0.0
  3
_OPEN
  1

  0
LINE
  5
79FD
330
81A0
100
AcDbEntity
  8
0
  6
ByBlock
 62
     0
100
AcDbLine
 10
-1.0
 20
0.1666666666666666
 30
0.0
 11
0.0
 21
0.0
 31
0.0
  0
LINE
  5
79FE
330
81A0
100
AcDbEntity
  8
0
  6
ByBlock
 62
     0
100
AcDbLine
 10
0.0
 20
0.0
 30
0.0
 11
-1.0
 21
-0.1666666666666666
 31
0.0
  0
LINE
  5
79FF
330
81A0
100
AcDbEntity
  8
0
  6
ByBlock
 62
     0
100
AcDbLine
 10
0.0
 20
0.0
 30
0.0
 11
-1.0
 21
0.0
 31
0.0
  0
ENDBLK
  5
7A01
330
81A0
100
AcDbEntity
  8
0
100
AcDbBlockEnd
  0
BLOCK
  5
81A3
330
81A2
100
AcDbEntity
  8
0
100
AcDbBlockBegin
  2
YA_N
 70
     0
 10
0.0
 20
0.0
 30
0.0
  3
YA_N
  1

  0
ENDBLK
  5
7A0C
330
81A2
100
AcDbEntity
  8
0
100
AcDbBlockEnd
  0
BLOCK
  5
81A5
330
81A4
100
AcDbEntity
  8
0
100
AcDbBlockBegin
  2
*D4
 70
     1
 10
0.0
 20
0.0
 30
0.0
  3
*D4
  1

  0
LINE
  5
7E71
330
81A4
100
AcDbEntity
  8
0
  6
ByBlock
100
AcDbLine
 10
1750.57214721576
 20
-250.406521778601
 30
0.0
 11
1899.579530994986
 21
-250.406521778601
 31
0.0
  0
LINE
  5
7E72
330
81A4
100
AcDbEntity
  8
0
  6
ByBlock
100
AcDbLine
 10
1750.572147215761
 20
479.5934782213988
 30
0.0
 11
1899.579530994986
 21
479.5934782213988
 31
0.0
  0
LINE
  5
7E73
330
81A4
100
AcDbEntity
  8
0
  6
ByBlock
100
AcDbLine
 10
1874.579530994986
 20
-200.4065217786009
 30
0.0
 11
1874.579530994986
 21
429.5934782213988
 31
0.0
  0
INSERT
  5
7E74
330
81A4
100
AcDbEntity
  8
0
  6
ByBlock
100
AcDbBlockReference
  2
_OPEN
 10
1874.579530994986
 20
-250.406521778601
 30
0.0
 41
50.0
 42
50.0
 43
50.0
 50
270.0
  0
INSERT
  5
7E75
330
81A4
100
AcDbEntity
  8
0
  6
ByBlock
100
AcDbBlockReference
  2
_OPEN
 10
1874.579530994986
 20
479.5934782213988
 30
0.0
 41
50.0
 42
50.0
 43
50.0
 50
90.0
  0
TEXT
  5
7E76
330
81A4
100
AcDbEntity
  8
3
100
AcDbText
 10
1862.079530994986
 20
18.16490679282755
 30
0.0
 40
75.0
  1
730
 50
90.0
100
AcDbText
  0
POINT
  5
7E77
330
81A4
100
AcDbEntity
  8
DEFPOINTS
  6
ByBlock
 62
     0
100
AcDbPoint
 10
1725.57214721576
 20
-250.406521778601
 30
0.0
  0
POINT
  5
7E78
330
81A4
100
AcDbEntity
  8
DEFPOINTS
  6
ByBlock
 62
     0
100
AcDbPoint
 10
1725.572147215761
 20
479.5934782213988
 30
0.0
  0
POINT
  5
7E79
330
81A4
100
AcDbEntity
  8
DEFPOINTS
  6
ByBlock
 62
     0
100
AcDbPoint
 10
1874.579530994986
 20
479.5934782213988
 30
0.0
  0
ENDBLK
  5
7E7A
330
81A4
100
AcDbEntity
  8
0
100
AcDbBlockEnd
  0
BLOCK
  5
81A7
330
81A6
100
AcDbEntity
  8
0
100
AcDbBlockBegin
  2
*D5
 70
     1
 10
0.0
 20
0.0
 30
0.0
  3
*D5
  1

  0
LINE
  5
7E7C
330
81A6
100
AcDbEntity
  8
0
  6
ByBlock
100
AcDbLine
 10
1750.57214721576
 20
-250.406521778601
 30
0.0
 11
2052.388304468651
 21
-250.406521778601
 31
0.0
  0
LINE
  5
7E7D
330
81A6
100
AcDbEntity
  8
0
  6
ByBlock
100
AcDbLine
 10
1872.837986021189
 20
508.5934782213988
 30
0.0
 11
2052.388304468651
 21
508.5934782213988
 31
0.0
  0
LINE
  5
7E7E
330
81A6
100
AcDbEntity
  8
0
  6
ByBlock
100
AcDbLine
 10
2027.388304468651
 20
-200.4065217786009
 30
0.0
 11
2027.388304468651
 21
458.5934782213988
 31
0.0
  0
INSERT
  5
7E7F
330
81A6
100
AcDbEntity
  8
0
  6
ByBlock
100
AcDbBlockReference
  2
_OPEN
 10
2027.388304468651
 20
-250.406521778601
 30
0.0
 41
50.0
 42
50.0
 43
50.0
 50
270.0
  0
INSERT
  5
7E80
330
81A6
100
AcDbEntity
  8
0
  6
ByBlock
100
AcDbBlockReference
  2
_OPEN
 10
2027.388304468651
 20
508.5934782213988
 30
0.0
 41
50.0
 42
50.0
 43
50.0
 50
90.0
  0
TEXT
  5
7E81
330
81A6
100
AcDbEntity
  8
3
100
AcDbText
 10
2014.888304468651
 20
34.45062107854186
 30
0.0
 40
75.0
  1
759
 50
90.0
100
AcDbText
  0
POINT
  5
7E82
330
81A6
100
AcDbEntity
  8
DEFPOINTS
  6
ByBlock
 62
     0
100
AcDbPoint
 10
1725.57214721576
 20
-250.406521778601
 30
0.0
  0
POINT
  5
7E83
330
81A6
100
AcDbEntity
  8
DEFPOINTS
  6
ByBlock
 62
     0
100
AcDbPoint
 10
1847.83798602119
 20
508.5934782213988
 30
0.0
  0
POINT
  5
7E84
330
81A6
100
AcDbEntity
  8
DEFPOINTS
  6
ByBlock
 62
     0
100
AcDbPoint
 10
2027.388304468651
 20
508.5934782213988
 30
0.0
  0
ENDBLK
  5
7E85
330
81A6
100
AcDbEntity
  8
0
100
AcDbBlockEnd
  0
BLOCK
  5
81A9
330
81A8
100
AcDbEntity
  8
0
100
AcDbBlockBegin
  2
*D6
 70
     1
 10
0.0
 20
0.0
 30
0.0
  3
*D6
  1

  0
LINE
  5
7EBE
330
81A8
100
AcDbEntity
  8
0
  6
ByBlock
100
AcDbLine
 10
3394.272073930469
 20
1034.935589762506
 30
0.0
 11
3394.272073930469
 21
1226.540262895163
 31
0.0
  0
LINE
  5
7EBF
330
81A8
100
AcDbEntity
  8
0
  6
ByBlock
100
AcDbLine
 10
4294.27207393047
 20
1034.935576025498
 30
0.0
 11
4294.27207393047
 21
1226.540262895163
 31
0.0
  0
LINE
  5
7EC0
330
81A8
100
AcDbEntity
  8
0
  6
ByBlock
100
AcDbLine
 10
3444.272073930469
 20
1201.540262895163
 30
0.0
 11
4244.27207393047
 21
1201.540262895163
 31
0.0
  0
INSERT
  5
7EC1
330
81A8
100
AcDbEntity
  8
0
  6
ByBlock
100
AcDbBlockReference
  2
_OPEN
 10
3394.272073930469
 20
1201.540262895163
 30
0.0
 41
50.0
 42
50.0
 43
50.0
 50
180.0
  0
INSERT
  5
7EC2
330
81A8
100
AcDbEntity
  8
0
  6
ByBlock
100
AcDbBlockReference
  2
_OPEN
 10
4294.27207393047
 20
1201.540262895163
 30
0.0
 41
50.0
 42
50.0
 43
50.0
  0
TEXT
  5
7EC3
330
81A8
100
AcDbEntity
  8
3
100
AcDbText
 10
3747.843502501898
 20
1214.040262895163
 30
0.0
 40
75.0
  1
900
100
AcDbText
  0
POINT
  5
7EC4
330
81A8
100
AcDbEntity
  8
DEFPOINTS
  6
ByBlock
 62
     0
100
AcDbPoint
 10
3394.272073930469
 20
1009.935589762506
 30
0.0
  0
POINT
  5
7EC5
330
81A8
100
AcDbEntity
  8
DEFPOINTS
  6
ByBlock
 62
     0
100
AcDbPoint
 10
4294.27207393047
 20
1009.935576025498
 30
0.0
  0
POINT
  5
7EC6
330
81A8
100
AcDbEntity
  8
DEFPOINTS
  6
ByBlock
 62
     0
100
AcDbPoint
 10
4294.27207393047
 20
1201.540262895163
 30
0.0
  0
ENDBLK
  5
7EC7
330
81A8
100
AcDbEntity
  8
0
100
AcDbBlockEnd
  0
BLOCK
  5
81AB
330
81AA
100
AcDbEntity
  8
0
100
AcDbBlockBegin
  2
*D7
 70
     1
 10
0.0
 20
0.0
 30
0.0
  3
*D7
  1

  0
LINE
  5
8017
330
81AA
100
AcDbEntity
  8
0
  6
ByBlock
100
AcDbLine
 10
3308.454511818551
 20
3015.416563417292
 30
0.0
 11
3308.454511818551
 21
3578.617014698353
 31
0.0
  0
LINE
  5
8018
330
81AA
100
AcDbEntity
  8
0
  6
ByBlock
100
AcDbLine
 10
4063.454511818547
 20
3563.321581601269
 30
0.0
 11
4063.454511818547
 21
3578.617014698353
 31
0.0
  0
LINE
  5
8019
330
81AA
100
AcDbEntity
  8
0
  6
ByBlock
100
AcDbLine
 10
3358.454511818551
 20
3553.617014698353
 30
0.0
 11
4013.454511818546
 21
3553.617014698353
 31
0.0
  0
INSERT
  5
801A
330
81AA
100
AcDbEntity
  8
0
  6
ByBlock
100
AcDbBlockReference
  2
_OPEN
 10
3308.454511818551
 20
3553.617014698353
 30
0.0
 41
50.0
 42
50.0
 43
50.0
 50
180.0
  0
INSERT
  5
801B
330
81AA
100
AcDbEntity
  8
0
  6
ByBlock
100
AcDbBlockReference
  2
_OPEN
 10
4063.454511818547
 20
3553.617014698353
 30
0.0
 41
50.0
 42
50.0
 43
50.0
  0
INSERT
  5
801C
330
81AA
100
AcDbEntity
  8
3
100
AcDbBlockReference
  2
*U8
 10
0.0
 20
0.0
 30
0.0
  0
POINT
  5
801D
330
81AA
100
AcDbEntity
  8
DEFPOINTS
  6
ByBlock
 62
     0
100
AcDbPoint
 10
3308.454511818551
 20
2990.416563417292
 30
0.0
  0
POINT
  5
801E
330
81AA
100
AcDbEntity
  8
DEFPOINTS
  6
ByBlock
 62
     0
100
AcDbPoint
 10
4063.454511818547
 20
3538.32158160127
 30
0.0
  0
POINT
  5
801F
330
81AA
100
AcDbEntity
  8
DEFPOINTS
  6
ByBlock
 62
     0
100
AcDbPoint
 10
4063.454511818547
 20
3553.617014698353
 30
0.0
  0
ENDBLK
  5
8020
330
81AA
100
AcDbEntity
  8
0
100
AcDbBlockEnd
  0
BLOCK
  5
81D7
330
81AC
100
AcDbEntity
  8
0
100
AcDbBlockBegin
  2
*U8
 70
     1
 10
0.0
 20
0.0
 30
0.0
  3
*U8
  1

  0
TEXT
  5
8117
330
81AC
100
AcDbEntity
  8
3
100
AcDbText
 10
3578.811654675691
 20
3691.117014698352
 30
0.0
 40
75.0
  1
MAX
100
AcDbText
  0
TEXT
  5
8118
330
81AC
100
AcDbEntity
  8
3
100
AcDbText
 10
3589.525940389977
 20
3566.117014698352
 30
0.0
 40
75.0
  1
780
100
AcDbText
  0
ENDBLK
  5
811A
330
81AC
100
AcDbEntity
  8
0
100
AcDbBlockEnd
  0
BLOCK
  5
81AE
330
81AD
100
AcDbEntity
  8
0
100
AcDbBlockBegin
  2
*D9
 70
     1
 10
0.0
 20
0.0
 30
0.0
  3
*D9
  1

  0
LINE
  5
802D
330
81AD
100
AcDbEntity
  8
0
  6
ByBlock
100
AcDbLine
 10
4063.454511818547
 20
3533.476332681931
 30
0.0
 11
4063.454511818547
 21
3578.617014698353
 31
0.0
  0
LINE
  5
802E
330
81AD
100
AcDbEntity
  8
0
  6
ByBlock
100
AcDbLine
 10
4615.954511818546
 20
2710.216563417291
 30
0.0
 11
4615.954511818546
 21
3578.617014698353
 31
0.0
  0
LINE
  5
802F
330
81AD
100
AcDbEntity
  8
0
  6
ByBlock
100
AcDbLine
 10
4113.454511818547
 20
3553.617014698353
 30
0.0
 11
4565.954511818548
 21
3553.617014698353
 31
0.0
  0
INSERT
  5
8030
330
81AD
100
AcDbEntity
  8
0
  6
ByBlock
100
AcDbBlockReference
  2
_OPEN
 10
4063.454511818547
 20
3553.617014698353
 30
0.0
 41
50.0
 42
50.0
 43
50.0
 50
180.0
  0
INSERT
  5
8031
330
81AD
100
AcDbEntity
  8
0
  6
ByBlock
100
AcDbBlockReference
  2
_OPEN
 10
4615.954511818546
 20
3553.617014698353
 30
0.0
 41
50.0
 42
50.0
 43
50.0
  0
TEXT
  5
8032
330
81AD
100
AcDbEntity
  8
3
100
AcDbText
 10
4195.06165467569
 20
3598.259871841211
 30
0.0
 40
75.0
  1
(560)
100
AcDbText
  0
POINT
  5
8033
330
81AD
100
AcDbEntity
  8
DEFPOINTS
  6
ByBlock
 62
     0
100
AcDbPoint
 10
4063.454511818547
 20
3508.476332681931
 30
0.0
  0
POINT
  5
8034
330
81AD
100
AcDbEntity
  8
DEFPOINTS
  6
ByBlock
 62
     0
100
AcDbPoint
 10
4615.954511818546
 20
2685.216563417291
 30
0.0
  0
POINT
  5
8035
330
81AD
100
AcDbEntity
  8
DEFPOINTS
  6
ByBlock
 62
     0
100
AcDbPoint
 10
4615.954511818546
 20
3553.617014698353
 30
0.0
  0
ENDBLK
  5
8036
330
81AD
100
AcDbEntity
  8
0
100
AcDbBlockEnd
  0
BLOCK
  5
81B0
330
81AF
100
AcDbEntity
  8
0
100
AcDbBlockBegin
  2
*D10
 70
     1
 10
0.0
 20
0.0
 30
0.0
  3
*D10
  1

  0
LINE
  5
7EDF
330
81AF
100
AcDbEntity
  8
0
  6
ByBlock
100
AcDbLine
 10
4321.57207393047
 20
133.5934782213989
 30
0.0
 11
4597.054208885889
 21
133.5934782213989
 31
0.0
  0
LINE
  5
7EE0
330
81AF
100
AcDbEntity
  8
0
  6
ByBlock
100
AcDbLine
 10
4321.57207393047
 20
883.5934782213987
 30
0.0
 11
4597.054208885889
 21
883.5934782213987
 31
0.0
  0
LINE
  5
7EE1
330
81AF
100
AcDbEntity
  8
0
  6
ByBlock
100
AcDbLine
 10
4572.054208885889
 20
183.5934782213989
 30
0.0
 11
4572.054208885889
 21
833.5934782213987
 31
0.0
  0
INSERT
  5
7EE2
330
81AF
100
AcDbEntity
  8
0
  6
ByBlock
100
AcDbBlockReference
  2
_OPEN
 10
4572.054208885889
 20
133.5934782213989
 30
0.0
 41
50.0
 42
50.0
 43
50.0
 50
270.0
  0
INSERT
  5
7EE3
330
81AF
100
AcDbEntity
  8
0
  6
ByBlock
100
AcDbBlockReference
  2
_OPEN
 10
4572.054208885889
 20
883.5934782213987
 30
0.0
 41
50.0
 42
50.0
 43
50.0
 50
90.0
  0
TEXT
  5
7EE4
330
81AF
100
AcDbEntity
  8
3
100
AcDbText
 10
4559.554208885889
 20
374.6649067928275
 30
0.0
 40
75.0
  1
\U+03C6750
 50
90.0
100
AcDbText
  0
POINT
  5
7EE5
330
81AF
100
AcDbEntity
  8
DEFPOINTS
  6
ByBlock
 62
     0
100
AcDbPoint
 10
4296.57207393047
 20
133.5934782213989
 30
0.0
  0
POINT
  5
7EE6
330
81AF
100
AcDbEntity
  8
DEFPOINTS
  6
ByBlock
 62
     0
100
AcDbPoint
 10
4296.57207393047
 20
883.5934782213987
 30
0.0
  0
POINT
  5
7EE7
330
81AF
100
AcDbEntity
  8
DEFPOINTS
  6
ByBlock
 62
     0
100
AcDbPoint
 10
4572.054208885889
 20
883.5934782213987
 30
0.0
  0
ENDBLK
  5
7EE8
330
81AF
100
AcDbEntity
  8
0
100
AcDbBlockEnd
  0
BLOCK
  5
81B2
330
81B1
100
AcDbEntity
  8
0
100
AcDbBlockBegin
  2
*D11
 70
     1
 10
0.0
 20
0.0
 30
0.0
  3
*D11
  1

  0
LINE
  5
7EEA
330
81B1
100
AcDbEntity
  8
0
  6
ByBlock
100
AcDbLine
 10
75.57214721576018
 20
2748.533310535339
 30
0.0
 11
75.57214721576018
 21
2485.350850711191
 31
0.0
  0
LINE
  5
7EEB
330
81B1
100
AcDbEntity
  8
0
  6
ByBlock
100
AcDbLine
 10
1675.57214721576
 20
2748.533310535338
 30
0.0
 11
1675.57214721576
 21
2485.350850711191
 31
0.0
  0
LINE
  5
7EEC
330
81B1
100
AcDbEntity
  8
0
  6
ByBlock
100
AcDbLine
 10
125.5721472157601
 20
2510.350850711191
 30
0.0
 11
1625.57214721576
 21
2510.350850711191
 31
0.0
  0
INSERT
  5
7EED
330
81B1
100
AcDbEntity
  8
0
  6
ByBlock
100
AcDbBlockReference
  2
_OPEN
 10
75.57214721576018
 20
2510.350850711191
 30
0.0
 41
50.0
 42
50.0
 43
50.0
 50
180.0
  0
INSERT
  5
7EEE
330
81B1
100
AcDbEntity
  8
0
  6
ByBlock
100
AcDbBlockReference
  2
_OPEN
 10
1675.57214721576
 20
2510.350850711191
 30
0.0
 41
50.0
 42
50.0
 43
50.0
  0
TEXT
  5
7EEF
330
81B1
100
AcDbEntity
  8
3
100
AcDbText
 10
750.5721472157602
 20
2522.850850711191
 30
0.0
 40
75.0
  1
1600
100
AcDbText
  0
POINT
  5
7EF0
330
81B1
100
AcDbEntity
  8
DEFPOINTS
  6
ByBlock
 62
     0
100
AcDbPoint
 10
75.57214721576018
 20
2773.533310535339
 30
0.0
  0
POINT
  5
7EF1
330
81B1
100
AcDbEntity
  8
DEFPOINTS
  6
ByBlock
 62
     0
100
AcDbPoint
 10
1675.57214721576
 20
2773.533310535337
 30
0.0
  0
POINT
  5
7EF2
330
81B1
100
AcDbEntity
  8
DEFPOINTS
  6
ByBlock
 62
     0
100
AcDbPoint
 10
1675.57214721576
 20
2510.350850711191
 30
0.0
  0
ENDBLK
  5
7EF3
330
81B1
100
AcDbEntity
  8
0
100
AcDbBlockEnd
  0
BLOCK
  5
81B4
330
81B3
100
AcDbEntity
  8
0
100
AcDbBlockBegin
  2
*D12
 70
     1
 10
0.0
 20
0.0
 30
0.0
  3
*D12
  1

  0
LINE
  5
8006
330
81B3
100
AcDbEntity
  8
0
  6
ByBlock
100
AcDbLine
 10
520.5753457462015
 20
4170.571064741897
 30
0.0
 11
351.7157809545969
 21
4170.571064741897
 31
0.0
  0
LINE
  5
8007
330
81B3
100
AcDbEntity
  8
0
  6
ByBlock
100
AcDbLine
 10
520.5753457462015
 20
4840.5710647419
 30
0.0
 11
351.7157809545969
 21
4840.5710647419
 31
0.0
  0
LINE
  5
8008
330
81B3
100
AcDbEntity
  8
0
  6
ByBlock
100
AcDbLine
 10
376.7157809545969
 20
4220.571064741897
 30
0.0
 11
376.7157809545969
 21
4790.571064741899
 31
0.0
  0
INSERT
  5
8009
330
81B3
100
AcDbEntity
  8
0
  6
ByBlock
100
AcDbBlockReference
  2
_OPEN
 10
376.7157809545969
 20
4170.571064741897
 30
0.0
 41
50.0
 42
50.0
 43
50.0
 50
270.0
  0
INSERT
  5
800A
330
81B3
100
AcDbEntity
  8
0
  6
ByBlock
100
AcDbBlockReference
  2
_OPEN
 10
376.7157809545969
 20
4840.5710647419
 30
0.0
 41
50.0
 42
50.0
 43
50.0
 50
90.0
  0
TEXT
  5
800B
330
81B3
100
AcDbEntity
  8
3
100
AcDbText
 10
364.2157809545969
 20
4409.142493313328
 30
0.0
 40
75.0
  1
670
 50
90.0
100
AcDbText
  0
POINT
  5
800C
330
81B3
100
AcDbEntity
  8
DEFPOINTS
  6
ByBlock
 62
     0
100
AcDbPoint
 10
545.5753457462015
 20
4170.571064741897
 30
0.0
  0
POINT
  5
800D
330
81B3
100
AcDbEntity
  8
DEFPOINTS
  6
ByBlock
 62
     0
100
AcDbPoint
 10
545.5753457462015
 20
4840.5710647419
 30
0.0
  0
POINT
  5
800E
330
81B3
100
AcDbEntity
  8
DEFPOINTS
  6
ByBlock
 62
     0
100
AcDbPoint
 10
376.7157809545969
 20
4840.5710647419
 30
0.0
  0
ENDBLK
  5
800F
330
81B3
100
AcDbEntity
  8
0
100
AcDbBlockEnd
  0
BLOCK
  5
81B6
330
81B5
100
AcDbEntity
  8
0
100
AcDbBlockBegin
  2
*D13
 70
     1
 10
0.0
 20
0.0
 30
0.0
  3
*D13
  1

  0
LINE
  5
7F00
330
81B5
100
AcDbEntity
  8
0
  6
ByBlock
100
AcDbLine
 10
775.5721472157602
 20
3953.533310535338
 30
0.0
 11
775.5721472157602
 21
4255.16536493951
 31
0.0
  0
LINE
  5
7F01
330
81B5
100
AcDbEntity
  8
0
  6
ByBlock
100
AcDbLine
 10
1675.57214721576
 20
3953.533310535338
 30
0.0
 11
1675.57214721576
 21
4255.16536493951
 31
0.0
  0
LINE
  5
7F02
330
81B5
100
AcDbEntity
  8
0
  6
ByBlock
100
AcDbLine
 10
825.5721472157601
 20
4230.165364939511
 30
0.0
 11
1625.57214721576
 21
4230.165364939511
 31
0.0
  0
INSERT
  5
7F03
330
81B5
100
AcDbEntity
  8
0
  6
ByBlock
100
AcDbBlockReference
  2
_OPEN
 10
775.5721472157602
 20
4230.165364939511
 30
0.0
 41
50.0
 42
50.0
 43
50.0
 50
180.0
  0
INSERT
  5
7F04
330
81B5
100
AcDbEntity
  8
0
  6
ByBlock
100
AcDbBlockReference
  2
_OPEN
 10
1675.57214721576
 20
4230.165364939511
 30
0.0
 41
50.0
 42
50.0
 43
50.0
  0
TEXT
  5
7F05
330
81B5
100
AcDbEntity
  8
3
100
AcDbText
 10
1129.143575787189
 20
4242.665364939511
 30
0.0
 40
75.0
  1
900
100
AcDbText
  0
POINT
  5
7F06
330
81B5
100
AcDbEntity
  8
DEFPOINTS
  6
ByBlock
 62
     0
100
AcDbPoint
 10
775.5721472157602
 20
3928.533310535339
 30
0.0
  0
POINT
  5
7F07
330
81B5
100
AcDbEntity
  8
DEFPOINTS
  6
ByBlock
 62
     0
100
AcDbPoint
 10
1675.57214721576
 20
3928.533310535338
 30
0.0
  0
POINT
  5
7F08
330
81B5
100
AcDbEntity
  8
DEFPOINTS
  6
ByBlock
 62
     0
100
AcDbPoint
 10
1675.57214721576
 20
4230.165364939511
 30
0.0
  0
ENDBLK
  5
7F09
330
81B5
100
AcDbEntity
  8
0
100
AcDbBlockEnd
  0
BLOCK
  5
81B8
330
81B7
100
AcDbEntity
  8
0
100
AcDbBlockBegin
  2
*D14
 70
     1
 10
0.0
 20
0.0
 30
0.0
  3
*D14
  1

  0
LINE
  5
7F0B
330
81B7
100
AcDbEntity
  8
0
  6
ByBlock
100
AcDbLine
 10
75.57214721576018
 20
3468.53331053534
 30
0.0
 11
75.57214721576018
 21
4255.16536493951
 31
0.0
  0
LINE
  5
7F0C
330
81B7
100
AcDbEntity
  8
0
  6
ByBlock
100
AcDbLine
 10
775.5721472157602
 20
3953.533310535338
 30
0.0
 11
775.5721472157602
 21
4255.16536493951
 31
0.0
  0
LINE
  5
7F0D
330
81B7
100
AcDbEntity
  8
0
  6
ByBlock
100
AcDbLine
 10
125.5721472157601
 20
4230.165364939511
 30
0.0
 11
725.5721472157602
 21
4230.165364939511
 31
0.0
  0
INSERT
  5
7F0E
330
81B7
100
AcDbEntity
  8
0
  6
ByBlock
100
AcDbBlockReference
  2
_OPEN
 10
75.57214721576018
 20
4230.165364939511
 30
0.0
 41
50.0
 42
50.0
 43
50.0
 50
180.0
  0
INSERT
  5
7F0F
330
81B7
100
AcDbEntity
  8
0
  6
ByBlock
100
AcDbBlockReference
  2
_OPEN
 10
775.5721472157602
 20
4230.165364939511
 30
0.0
 41
50.0
 42
50.0
 43
50.0
  0
TEXT
  5
7F10
330
81B7
100
AcDbEntity
  8
3
100
AcDbText
 10
329.1435757871887
 20
4242.665364939511
 30
0.0
 40
75.0
  1
700
100
AcDbText
  0
POINT
  5
7F11
330
81B7
100
AcDbEntity
  8
DEFPOINTS
  6
ByBlock
 62
     0
100
AcDbPoint
 10
75.57214721576018
 20
3443.53331053534
 30
0.0
  0
POINT
  5
7F12
330
81B7
100
AcDbEntity
  8
DEFPOINTS
  6
ByBlock
 62
     0
100
AcDbPoint
 10
775.5721472157602
 20
3928.533310535339
 30
0.0
  0
POINT
  5
7F13
330
81B7
100
AcDbEntity
  8
DEFPOINTS
  6
ByBlock
 62
     0
100
AcDbPoint
 10
775.5721472157602
 20
4230.165364939511
 30
0.0
  0
ENDBLK
  5
7F14
330
81B7
100
AcDbEntity
  8
0
100
AcDbBlockEnd
  0
BLOCK
  5
81BA
330
81B9
100
AcDbEntity
  8
0
100
AcDbBlockBegin
  2
*D15
 70
     1
 10
0.0
 20
0.0
 30
0.0
  3
*D15
  1

  0
LINE
  5
7F16
330
81B9
100
AcDbEntity
  8
0
  6
ByBlock
100
AcDbLine
 10
1700.57214721576
 20
2773.533310535337
 30
0.0
 11
2001.969355357017
 21
2773.533310535337
 31
0.0
  0
LINE
  5
7F17
330
81B9
100
AcDbEntity
  8
0
  6
ByBlock
100
AcDbLine
 10
1700.57214721576
 20
3928.533310535338
 30
0.0
 11
2001.969355357017
 21
3928.533310535338
 31
0.0
  0
LINE
  5
7F18
330
81B9
100
AcDbEntity
  8
0
  6
ByBlock
100
AcDbLine
 10
1976.969355357018
 20
2823.533310535337
 30
0.0
 11
1976.969355357018
 21
3878.533310535337
 31
0.0
  0
INSERT
  5
7F19
330
81B9
100
AcDbEntity
  8
0
  6
ByBlock
100
AcDbBlockReference
  2
_OPEN
 10
1976.969355357018
 20
2773.533310535337
 30
0.0
 41
50.0
 42
50.0
 43
50.0
 50
270.0
  0
INSERT
  5
7F1A
330
81B9
100
AcDbEntity
  8
0
  6
ByBlock
100
AcDbBlockReference
  2
_OPEN
 10
1976.969355357018
 20
3928.533310535338
 30
0.0
 41
50.0
 42
50.0
 43
50.0
 50
90.0
  0
TEXT
  5
7F1B
330
81B9
100
AcDbEntity
  8
3
100
AcDbText
 10
1964.469355357017
 20
3233.176167678195
 30
0.0
 40
75.0
  1
1155
 50
90.0
100
AcDbText
  0
POINT
  5
7F1C
330
81B9
100
AcDbEntity
  8
DEFPOINTS
  6
ByBlock
 62
     0
100
AcDbPoint
 10
1675.57214721576
 20
2773.533310535337
 30
0.0
  0
POINT
  5
7F1D
330
81B9
100
AcDbEntity
  8
DEFPOINTS
  6
ByBlock
 62
     0
100
AcDbPoint
 10
1675.57214721576
 20
3928.533310535338
 30
0.0
  0
POINT
  5
7F1E
330
81B9
100
AcDbEntity
  8
DEFPOINTS
  6
ByBlock
 62
     0
100
AcDbPoint
 10
1976.969355357018
 20
3928.533310535338
 30
0.0
  0
ENDBLK
  5
7F1F
330
81B9
100
AcDbEntity
  8
0
100
AcDbBlockEnd
  0
BLOCK
  5
81BC
330
81BB
100
AcDbEntity
  8
0
100
AcDbBlockBegin
  2
*D16
 70
     1
 10
0.0
 20
0.0
 30
0.0
  3
*D16
  1

  0
LINE
  5
7F21
330
81BB
100
AcDbEntity
  8
0
  6
ByBlock
100
AcDbLine
 10
1725.57214721576
 20
533.7669540473683
 30
0.0
 11
1725.57214721576
 21
1391.903743581282
 31
0.0
  0
LINE
  5
7F22
330
81BB
100
AcDbEntity
  8
0
  6
ByBlock
100
AcDbLine
 10
75.57214721576018
 20
-236.406521778601
 30
0.0
 11
75.57214721576018
 21
1391.903743581282
 31
0.0
  0
LINE
  5
7F23
330
81BB
100
AcDbEntity
  8
0
  6
ByBlock
100
AcDbLine
 10
1675.57214721576
 20
1366.903743581282
 30
0.0
 11
125.5721472157601
 21
1366.903743581282
 31
0.0
  0
INSERT
  5
7F24
330
81BB
100
AcDbEntity
  8
0
  6
ByBlock
100
AcDbBlockReference
  2
_OPEN
 10
1725.57214721576
 20
1366.903743581282
 30
0.0
 41
50.0
 42
50.0
 43
50.0
  0
INSERT
  5
7F25
330
81BB
100
AcDbEntity
  8
0
  6
ByBlock
100
AcDbBlockReference
  2
_OPEN
 10
75.57214721576018
 20
1366.903743581282
 30
0.0
 41
50.0
 42
50.0
 43
50.0
 50
180.0
  0
TEXT
  5
7F26
330
81BB
100
AcDbEntity
  8
3
100
AcDbText
 10
775.5721472157602
 20
1379.403743581282
 30
0.0
 40
75.0
  1
1650
100
AcDbText
  0
POINT
  5
7F27
330
81BB
100
AcDbEntity
  8
DEFPOINTS
  6
ByBlock
 62
     0
100
AcDbPoint
 10
1725.57214721576
 20
508.7669540473684
 30
0.0
  0
POINT
  5
7F28
330
81BB
100
AcDbEntity
  8
DEFPOINTS
  6
ByBlock
 62
     0
100
AcDbPoint
 10
75.57214721576018
 20
-261.406521778601
 30
0.0
  0
POINT
  5
7F29
330
81BB
100
AcDbEntity
  8
DEFPOINTS
  6
ByBlock
 62
     0
100
AcDbPoint
 10
75.57214721576018
 20
1366.903743581282
 30
0.0
  0
ENDBLK
  5
7F2A
330
81BB
100
AcDbEntity
  8
0
100
AcDbBlockEnd
  0
BLOCK
  5
81BE
330
81BD
100
AcDbEntity
  8
0
100
AcDbBlockBegin
  2
*D17
 70
     1
 10
0.0
 20
0.0
 30
0.0
  3
*D17
  1

  0
LINE
  5
7F2C
330
81BD
100
AcDbEntity
  8
0
  6
ByBlock
100
AcDbLine
 10
1725.572147215761
 20
546.593478221399
 30
0.0
 11
1725.572147215761
 21
1193.481924814399
 31
0.0
  0
LINE
  5
7F2D
330
81BD
100
AcDbEntity
  8
0
  6
ByBlock
100
AcDbLine
 10
1225.57214721576
 20
1101.189008982398
 30
0.0
 11
1225.57214721576
 21
1193.481924814399
 31
0.0
  0
LINE
  5
7F2E
330
81BD
100
AcDbEntity
  8
0
  6
ByBlock
100
AcDbLine
 10
1675.572147215761
 20
1168.481924814399
 30
0.0
 11
1275.57214721576
 21
1168.481924814399
 31
0.0
  0
INSERT
  5
7F2F
330
81BD
100
AcDbEntity
  8
0
  6
ByBlock
100
AcDbBlockReference
  2
_OPEN
 10
1725.572147215761
 20
1168.481924814399
 30
0.0
 41
50.0
 42
50.0
 43
50.0
  0
INSERT
  5
7F30
330
81BD
100
AcDbEntity
  8
0
  6
ByBlock
100
AcDbBlockReference
  2
_OPEN
 10
1225.57214721576
 20
1168.481924814399
 30
0.0
 41
50.0
 42
50.0
 43
50.0
 50
180.0
  0
TEXT
  5
7F31
330
81BD
100
AcDbEntity
  8
3
100
AcDbText
 10
1379.143575787189
 20
1180.981924814399
 30
0.0
 40
75.0
  1
500
100
AcDbText
  0
POINT
  5
7F32
330
81BD
100
AcDbEntity
  8
DEFPOINTS
  6
ByBlock
 62
     0
100
AcDbPoint
 10
1725.572147215761
 20
521.593478221399
 30
0.0
  0
POINT
  5
7F33
330
81BD
100
AcDbEntity
  8
DEFPOINTS
  6
ByBlock
 62
     0
100
AcDbPoint
 10
1225.57214721576
 20
1076.189008982398
 30
0.0
  0
POINT
  5
7F34
330
81BD
100
AcDbEntity
  8
DEFPOINTS
  6
ByBlock
 62
     0
100
AcDbPoint
 10
1225.57214721576
 20
1168.481924814399
 30
0.0
  0
ENDBLK
  5
7F35
330
81BD
100
AcDbEntity
  8
0
100
AcDbBlockEnd
  0
BLOCK
  5
81C0
330
81BF
100
AcDbEntity
  8
0
100
AcDbBlockBegin
  2
*D18
 70
     1
 10
0.0
 20
0.0
 30
0.0
  3
*D18
  1

  0
LINE
  5
80F8
330
81BF
100
AcDbEntity
  8
3
100
AcDbLine
 10
1360.798291471092
 20
2682.416563417291
 30
0.0
 11
1360.798291471092
 21
3395.305010010292
 31
0.0
  0
LINE
  5
80F9
330
81BF
100
AcDbEntity
  8
3
100
AcDbLine
 10
1922.798291471092
 20
3370.305010010292
 30
0.0
 11
1410.798291471092
 21
3370.305010010292
 31
0.0
  0
INSERT
  5
80FA
330
81BF
100
AcDbEntity
  8
3
100
AcDbBlockReference
  2
_OPEN
 10
1972.798291471092
 20
3370.305010010292
 30
0.0
 41
50.0
 42
50.0
 43
50.0
  0
INSERT
  5
80FB
330
81BF
100
AcDbEntity
  8
3
100
AcDbBlockReference
  2
_OPEN
 10
1360.798291471092
 20
3370.305010010292
 30
0.0
 41
50.0
 42
50.0
 43
50.0
 50
180.0
  0
TEXT
  5
811B
330
81BF
100
AcDbEntity
  8
3
100
AcDbText
 10
1516.8
 20
3287.56
 30
0.0
 40
75.0
  1
612
100
AcDbText
  0
POINT
  5
80FD
330
81BF
100
AcDbEntity
  8
DEFPOINTS
 62
     0
100
AcDbPoint
 10
1972.798291471092
 20
3278.012094178292
 30
0.0
  0
POINT
  5
80FE
330
81BF
100
AcDbEntity
  8
DEFPOINTS
 62
     0
100
AcDbPoint
 10
1360.798291471092
 20
2657.416563417291
 30
0.0
  0
POINT
  5
80FF
330
81BF
100
AcDbEntity
  8
DEFPOINTS
 62
     0
100
AcDbPoint
 10
1360.798291471092
 20
3370.305010010292
 30
0.0
  0
ENDBLK
  5
7F3F
330
81BF
100
AcDbEntity
  8
0
100
AcDbBlockEnd
  0
BLOCK
  5
81C2
330
81C1
100
AcDbEntity
  8
0
100
AcDbBlockBegin
  2
*D19
 70
     1
 10
0.0
 20
0.0
 30
0.0
  3
*D19
  1

  0
LINE
  5
7F41
330
81C1
100
AcDbEntity
  8
0
  6
ByBlock
100
AcDbLine
 10
1197.57214721576
 20
1014.593478221399
 30
0.0
 11
2217.032376355673
 21
1014.593478221399
 31
0.0
  0
LINE
  5
7F42
330
81C1
100
AcDbEntity
  8
0
  6
ByBlock
100
AcDbLine
 10
1872.837986021189
 20
508.5934782213988
 30
0.0
 11
2217.032376355673
 21
508.5934782213988
 31
0.0
  0
LINE
  5
7F43
330
81C1
100
AcDbEntity
  8
0
  6
ByBlock
100
AcDbLine
 10
2192.032376355673
 20
964.5934782213988
 30
0.0
 11
2192.032376355673
 21
558.5934782213988
 31
0.0
  0
INSERT
  5
7F44
330
81C1
100
AcDbEntity
  8
0
  6
ByBlock
100
AcDbBlockReference
  2
_OPEN
 10
2192.032376355673
 20
1014.593478221399
 30
0.0
 41
50.0
 42
50.0
 43
50.0
 50
90.0
  0
INSERT
  5
7F45
330
81C1
100
AcDbEntity
  8
0
  6
ByBlock
100
AcDbBlockReference
  2
_OPEN
 10
2192.032376355673
 20
508.5934782213988
 30
0.0
 41
50.0
 42
50.0
 43
50.0
 50
270.0
  0
TEXT
  5
7F46
330
81C1
100
AcDbEntity
  8
3
100
AcDbText
 10
2179.532376355673
 20
666.9506210785417
 30
0.0
 40
75.0
  1
506
 50
90.0
100
AcDbText
  0
POINT
  5
7F47
330
81C1
100
AcDbEntity
  8
DEFPOINTS
  6
ByBlock
 62
     0
100
AcDbPoint
 10
1172.57214721576
 20
1014.593478221399
 30
0.0
  0
POINT
  5
7F48
330
81C1
100
AcDbEntity
  8
DEFPOINTS
  6
ByBlock
 62
     0
100
AcDbPoint
 10
1847.83798602119
 20
508.5934782213988
 30
0.0
  0
POINT
  5
7F49
330
81C1
100
AcDbEntity
  8
DEFPOINTS
  6
ByBlock
 62
     0
100
AcDbPoint
 10
2192.032376355673
 20
508.5934782213988
 30
0.0
  0
ENDBLK
  5
7F4A
330
81C1
100
AcDbEntity
  8
0
100
AcDbBlockEnd
  0
BLOCK
  5
81C4
330
81C3
100
AcDbEntity
  8
0
100
AcDbBlockBegin
  2
*D20
 70
     1
 10
0.0
 20
0.0
 30
0.0
  3
*D20
  1

  0
LINE
  5
8100
330
81C3
100
AcDbEntity
  8
3
100
AcDbLine
 10
2447.798291471092
 20
1840.416563417291
 30
0.0
 11
2964.258520611005
 21
1840.416563417291
 31
0.0
  0
LINE
  5
8101
330
81C3
100
AcDbEntity
  8
3
100
AcDbLine
 10
2939.258520611005
 20
2660.416563417291
 30
0.0
 11
2939.258520611005
 21
1890.416563417291
 31
0.0
  0
INSERT
  5
8102
330
81C3
100
AcDbEntity
  8
3
100
AcDbBlockReference
  2
_OPEN
 10
2939.258520611005
 20
2710.416563417291
 30
0.0
 41
50.0
 42
50.0
 43
50.0
 50
90.0
  0
INSERT
  5
8103
330
81C3
100
AcDbEntity
  8
3
100
AcDbBlockReference
  2
_OPEN
 10
2939.258520611005
 20
1840.416563417291
 30
0.0
 41
50.0
 42
50.0
 43
50.0
 50
270.0
  0
TEXT
  5
811C
330
81C3
100
AcDbEntity
  8
3
100
AcDbText
 10
2739.26
 20
2142.67
 30
0.0
 40
75.0
  1
870
100
AcDbText
  0
POINT
  5
8105
330
81C3
100
AcDbEntity
  8
DEFPOINTS
 62
     0
100
AcDbPoint
 10
2595.064130276521
 20
2710.416563417291
 30
0.0
  0
POINT
  5
8106
330
81C3
100
AcDbEntity
  8
DEFPOINTS
 62
     0
100
AcDbPoint
 10
2422.798291471092
 20
1840.416563417291
 30
0.0
  0
POINT
  5
8107
330
81C3
100
AcDbEntity
  8
DEFPOINTS
 62
     0
100
AcDbPoint
 10
2939.258520611005
 20
1840.416563417291
 30
0.0
  0
ENDBLK
  5
7F54
330
81C3
100
AcDbEntity
  8
0
100
AcDbBlockEnd
  0
BLOCK
  5
81C6
330
81C5
100
AcDbEntity
  8
0
100
AcDbBlockBegin
  2
*D21
 70
     1
 10
0.0
 20
0.0
 30
0.0
  3
*D21
  1

  0
LINE
  5
8108
330
81C5
100
AcDbEntity
  8
3
 62
     0
100
AcDbLine
 10
2435.298291471092
 20
1813.416563417291
 30
0.0
 11
2964.258520611005
 21
1813.416563417291
 31
0.0
  0
LINE
  5
8109
330
81C5
100
AcDbEntity
  8
3
 62
     0
100
AcDbLine
 10
2435.298291471092
 20
1713.416563417291
 30
0.0
 11
2964.258520611005
 21
1713.416563417291
 31
0.0
  0
LINE
  5
810A
330
81C5
100
AcDbEntity
  8
3
 62
     0
100
AcDbLine
 10
2939.258520611005
 20
1863.416563417291
 30
0.0
 11
2939.258520611005
 21
1913.416563417291
 31
0.0
  0
LINE
  5
810B
330
81C5
100
AcDbEntity
  8
3
 62
     0
100
AcDbLine
 10
2939.258520611005
 20
1663.416563417291
 30
0.0
 11
2939.258520611005
 21
1384.845134845862
 31
0.0
  0
LINE
  5
810C
330
81C5
100
AcDbEntity
  8
3
 62
     0
100
AcDbLine
 10
2939.258520611005
 20
1813.416563417291
 30
0.0
 11
2939.258520611005
 21
1713.416563417291
 31
0.0
  0
INSERT
  5
810D
330
81C5
100
AcDbEntity
  8
3
 62
     0
100
AcDbBlockReference
  2
_DOT
 10
2939.258520611005
 20
1813.416563417291
 30
0.0
 41
50.0
 42
50.0
 43
50.0
 50
270.0
  0
INSERT
  5
810E
330
81C5
100
AcDbEntity
  8
3
 62
     0
100
AcDbBlockReference
  2
_OPEN
 10
2939.258520611005
 20
1713.416563417291
 30
0.0
 41
50.0
 42
50.0
 43
50.0
 50
90.0
  0
TEXT
  5
811D
330
81C5
100
AcDbEntity
  8
3
 62
     0
100
AcDbText
 10
2726.76
 20
1366.38
 30
0.0
 40
75.0
  1
100
100
AcDbText
  0
POINT
  5
8110
330
81C5
100
AcDbEntity
  8
DEFPOINTS
 62
     0
100
AcDbPoint
 10
2422.798291471092
 20
1813.416563417291
 30
0.0
  0
POINT
  5
8111
330
81C5
100
AcDbEntity
  8
DEFPOINTS
 62
     0
100
AcDbPoint
 10
2422.798291471092
 20
1713.416563417291
 30
0.0
  0
POINT
  5
8112
330
81C5
100
AcDbEntity
  8
DEFPOINTS
 62
     0
100
AcDbPoint
 10
2939.258520611005
 20
1713.416563417291
 30
0.0
  0
ENDBLK
  5
7FE8
330
81C5
100
AcDbEntity
  8
0
100
AcDbBlockEnd
  0
BLOCK
  5
81C8
330
81C7
100
AcDbEntity
  8
0
100
AcDbBlockBegin
  2
_DOT
 70
     0
 10
0.0
 20
0.0
 30
0.0
  3
_DOT
  1

  0
LWPOLYLINE
  5
7FF8
330
81C7
100
AcDbEntity
  8
0
  6
ByBlock
 62
     0
100
AcDbPolyline
 90
        2
 70
     1
 43
0.25
 10
-0.125
 20
0.0
 42
1.0
 10
0.125
 20
0.0
 42
1.0
  0
LINE
  5
7FFC
330
81C7
100
AcDbEntity
  8
0
  6
ByBlock
 62
     0
100
AcDbLine
 10
-0.25
 20
0.0
 30
0.0
 11
-1.0
 21
0.0
 31
0.0
  0
ENDBLK
  5
7FDB
330
81C7
100
AcDbEntity
  8
0
100
AcDbBlockEnd
  0
BLOCK
  5
81CA
330
81C9
100
AcDbEntity
  8
0
100
AcDbBlockBegin
  2
*D23
 70
     1
 10
0.0
 20
0.0
 30
0.0
  3
*D23
  1

  0
LINE
  5
8042
330
81C9
100
AcDbEntity
  8
0
  6
ByBlock
 62
     0
100
AcDbLine
 10
822.7982914710919
 20
1688.416563417291
 30
0.0
 11
822.7982914710919
 21
1525.63069887168
 31
0.0
  0
LINE
  5
8043
330
81C9
100
AcDbEntity
  8
0
  6
ByBlock
 62
     0
100
AcDbLine
 10
1972.798291471092
 20
1688.416563417291
 30
0.0
 11
1972.798291471092
 21
1525.63069887168
 31
0.0
  0
LINE
  5
8044
330
81C9
100
AcDbEntity
  8
0
  6
ByBlock
 62
     0
100
AcDbLine
 10
872.7982914710919
 20
1550.63069887168
 30
0.0
 11
1922.798291471092
 21
1550.63069887168
 31
0.0
  0
INSERT
  5
8045
330
81C9
100
AcDbEntity
  8
0
  6
ByBlock
 62
     0
100
AcDbBlockReference
  2
_OPEN
 10
822.7982914710919
 20
1550.63069887168
 30
0.0
 41
50.0
 42
50.0
 43
50.0
 50
180.0
  0
INSERT
  5
8046
330
81C9
100
AcDbEntity
  8
0
  6
ByBlock
 62
     0
100
AcDbBlockReference
  2
_OPEN
 10
1972.798291471092
 20
1550.63069887168
 30
0.0
 41
50.0
 42
50.0
 43
50.0
  0
TEXT
  5
8047
330
81C9
100
AcDbEntity
  8
3
 62
     0
100
AcDbText
 10
1279.941148613949
 20
1575.63069887168
 30
0.0
 40
75.0
  1
1150
100
AcDbText
  0
POINT
  5
8048
330
81C9
100
AcDbEntity
  8
DEFPOINTS
  6
ByBlock
 62
     0
100
AcDbPoint
 10
822.7982914710919
 20
1713.416563417291
 30
0.0
  0
POINT
  5
8049
330
81C9
100
AcDbEntity
  8
DEFPOINTS
  6
ByBlock
 62
     0
100
AcDbPoint
 10
1972.798291471092
 20
1713.416563417291
 30
0.0
  0
POINT
  5
804A
330
81C9
100
AcDbEntity
  8
DEFPOINTS
  6
ByBlock
 62
     0
100
AcDbPoint
 10
1972.798291471092
 20
1550.63069887168
 30
0.0
  0
ENDBLK
  5
804B
330
81C9
100
AcDbEntity
  8
0
100
AcDbBlockEnd
  0
BLOCK
  5
81CC
330
81CB
100
AcDbEntity
  8
0
100
AcDbBlockBegin
  2
*D24
 70
     1
 10
0.0
 20
0.0
 30
0.0
  3
*D24
  1

  0
LINE
  5
804F
330
81CB
100
AcDbEntity
  8
0
  6
ByBlock
 62
     0
100
AcDbLine
 10
1972.798291471092
 20
1688.416563417291
 30
0.0
 11
1972.798291471092
 21
1525.63069887168
 31
0.0
  0
LINE
  5
8050
330
81CB
100
AcDbEntity
  8
0
  6
ByBlock
 62
     0
100
AcDbLine
 10
2422.798291471092
 20
1688.416563417291
 30
0.0
 11
2422.798291471092
 21
1525.63069887168
 31
0.0
  0
LINE
  5
8051
330
81CB
100
AcDbEntity
  8
0
  6
ByBlock
 62
     0
100
AcDbLine
 10
2022.798291471092
 20
1550.63069887168
 30
0.0
 11
2372.798291471092
 21
1550.63069887168
 31
0.0
  0
INSERT
  5
8052
330
81CB
100
AcDbEntity
  8
0
  6
ByBlock
 62
     0
100
AcDbBlockReference
  2
_OPEN
 10
1972.798291471092
 20
1550.63069887168
 30
0.0
 41
50.0
 42
50.0
 43
50.0
 50
180.0
  0
INSERT
  5
8053
330
81CB
100
AcDbEntity
  8
0
  6
ByBlock
 62
     0
100
AcDbBlockReference
  2
_OPEN
 10
2422.798291471092
 20
1550.63069887168
 30
0.0
 41
50.0
 42
50.0
 43
50.0
  0
TEXT
  5
8054
330
81CB
100
AcDbEntity
  8
3
 62
     0
100
AcDbText
 10
2101.36972004252
 20
1575.63069887168
 30
0.0
 40
75.0
  1
450
100
AcDbText
  0
POINT
  5
8055
330
81CB
100
AcDbEntity
  8
DEFPOINTS
  6
ByBlock
 62
     0
100
AcDbPoint
 10
1972.798291471092
 20
1713.416563417291
 30
0.0
  0
POINT
  5
8056
330
81CB
100
AcDbEntity
  8
DEFPOINTS
  6
ByBlock
 62
     0
100
AcDbPoint
 10
2422.798291471092
 20
1713.416563417291
 30
0.0
  0
POINT
  5
8057
330
81CB
100
AcDbEntity
  8
DEFPOINTS
  6
ByBlock
 62
     0
100
AcDbPoint
 10
2422.798291471092
 20
1550.63069887168
 30
0.0
  0
ENDBLK
  5
8058
330
81CB
100
AcDbEntity
  8
0
100
AcDbBlockEnd
  0
BLOCK
  5
81CE
330
81CD
100
AcDbEntity
  8
0
100
AcDbBlockBegin
  2
*D25
 70
     1
 10
0.0
 20
0.0
 30
0.0
  3
*D25
  1

  0
LINE
  5
805C
330
81CD
100
AcDbEntity
  8
0
  6
ByBlock
 62
     0
100
AcDbLine
 10
3411.454511818547
 20
1688.416563417291
 30
0.0
 11
3411.454511818547
 21
1525.63069887168
 31
0.0
  0
LINE
  5
805D
330
81CD
100
AcDbEntity
  8
0
  6
ByBlock
 62
     0
100
AcDbLine
 10
4063.454511818547
 20
1688.416563417291
 30
0.0
 11
4063.454511818547
 21
1525.63069887168
 31
0.0
  0
LINE
  5
805E
330
81CD
100
AcDbEntity
  8
0
  6
ByBlock
 62
     0
100
AcDbLine
 10
3461.454511818546
 20
1550.63069887168
 30
0.0
 11
4013.454511818546
 21
1550.63069887168
 31
0.0
  0
INSERT
  5
805F
330
81CD
100
AcDbEntity
  8
0
  6
ByBlock
 62
     0
100
AcDbBlockReference
  2
_OPEN
 10
3411.454511818547
 20
1550.63069887168
 30
0.0
 41
50.0
 42
50.0
 43
50.0
 50
180.0
  0
INSERT
  5
8060
330
81CD
100
AcDbEntity
  8
0
  6
ByBlock
 62
     0
100
AcDbBlockReference
  2
_OPEN
 10
4063.454511818547
 20
1550.63069887168
 30
0.0
 41
50.0
 42
50.0
 43
50.0
  0
TEXT
  5
8061
330
81CD
100
AcDbEntity
  8
3
 62
     0
100
AcDbText
 10
3641.025940389976
 20
1575.63069887168
 30
0.0
 40
75.0
  1
652
100
AcDbText
  0
POINT
  5
8062
330
81CD
100
AcDbEntity
  8
DEFPOINTS
  6
ByBlock
 62
     0
100
AcDbPoint
 10
3411.454511818547
 20
1713.416563417291
 30
0.0
  0
POINT
  5
8063
330
81CD
100
AcDbEntity
  8
DEFPOINTS
  6
ByBlock
 62
     0
100
AcDbPoint
 10
4063.454511818547
 20
1713.416563417291
 30
0.0
  0
POINT
  5
8064
330
81CD
100
AcDbEntity
  8
DEFPOINTS
  6
ByBlock
 62
     0
100
AcDbPoint
 10
4063.454511818547
 20
1550.63069887168
 30
0.0
  0
ENDBLK
  5
8065
330
81CD
100
AcDbEntity
  8
0
100
AcDbBlockEnd
  0
BLOCK
  5
81D0
330
81CF
100
AcDbEntity
  8
0
100
AcDbBlockBegin
  2
*D26
 70
     1
 10
0.0
 20
0.0
 30
0.0
  3
*D26
  1

  0
LINE
  5
8069
330
81CF
100
AcDbEntity
  8
0
  6
ByBlock
 62
     0
100
AcDbLine
 10
4063.454511818547
 20
1688.416563417291
 30
0.0
 11
4063.454511818547
 21
1525.63069887168
 31
0.0
  0
LINE
  5
806A
330
81CF
100
AcDbEntity
  8
0
  6
ByBlock
 62
     0
100
AcDbLine
 10
4566.454511818547
 20
1688.416563417291
 30
0.0
 11
4566.454511818547
 21
1525.63069887168
 31
0.0
  0
LINE
  5
806B
330
81CF
100
AcDbEntity
  8
0
  6
ByBlock
 62
     0
100
AcDbLine
 10
4113.454511818547
 20
1550.63069887168
 30
0.0
 11
4516.454511818547
 21
1550.63069887168
 31
0.0
  0
INSERT
  5
806C
330
81CF
100
AcDbEntity
  8
0
  6
ByBlock
 62
     0
100
AcDbBlockReference
  2
_OPEN
 10
4063.454511818547
 20
1550.63069887168
 30
0.0
 41
50.0
 42
50.0
 43
50.0
 50
180.0
  0
INSERT
  5
806D
330
81CF
100
AcDbEntity
  8
0
  6
ByBlock
 62
     0
100
AcDbBlockReference
  2
_OPEN
 10
4566.454511818547
 20
1550.63069887168
 30
0.0
 41
50.0
 42
50.0
 43
50.0
  0
TEXT
  5
806E
330
81CF
100
AcDbEntity
  8
3
 62
     0
100
AcDbText
 10
4218.525940389976
 20
1575.63069887168
 30
0.0
 40
75.0
  1
503
100
AcDbText
  0
POINT
  5
806F
330
81CF
100
AcDbEntity
  8
DEFPOINTS
  6
ByBlock
 62
     0
100
AcDbPoint
 10
4063.454511818547
 20
1713.416563417291
 30
0.0
  0
POINT
  5
8070
330
81CF
100
AcDbEntity
  8
DEFPOINTS
  6
ByBlock
 62
     0
100
AcDbPoint
 10
4566.454511818547
 20
1713.416563417291
 30
0.0
  0
POINT
  5
8071
330
81CF
100
AcDbEntity
  8
DEFPOINTS
  6
ByBlock
 62
     0
100
AcDbPoint
 10
4566.454511818547
 20
1550.63069887168
 30
0.0
  0
ENDBLK
  5
8072
330
81CF
100
AcDbEntity
  8
0
100
AcDbBlockEnd
  0
BLOCK
  5
81D2
330
81D1
100
AcDbEntity
  8
0
100
AcDbBlockBegin
  2
_NONE
 70
     0
 10
0.0
 20
0.0
 30
0.0
  3
_NONE
  1

  0
CIRCLE
  5
8076
330
81D1
100
AcDbEntity
  8
0
  6
ByBlock
 62
     0
100
AcDbCircle
 10
0.0
 20
0.0
 30
0.0
 40
0.25
  0
ENDBLK
  5
8077
330
81D1
100
AcDbEntity
  8
0
100
AcDbBlockEnd
  0
BLOCK
  5
81D4
330
81D3
100
AcDbEntity
  8
0
100
AcDbBlockBegin
  2
*D28
 70
     1
 10
0.0
 20
0.0
 30
0.0
  3
*D28
  1

  0
LINE
  5
807A
330
81D3
100
AcDbEntity
  8
0
  6
ByBlock
 62
     0
100
AcDbLine
 10
2939.481620153208
 20
1813.416563417291
 30
0.0
 11
2939.481620153208
 21
1813.416563417291
 31
0.0
  0
LINE
  5
807B
330
81D3
100
AcDbEntity
  8
0
  6
ByBlock
 62
     0
100
AcDbLine
 10
2939.481620153208
 20
1840.416563417291
 30
0.0
 11
2939.481620153208
 21
1940.416563417291
 31
0.0
  0
TEXT
  5
807C
330
81D3
100
AcDbEntity
  8
3
 62
     0
100
AcDbText
 10
3084.124477296066
 20
1717.98799198872
 30
0.0
 40
75.0
  1
(27)
 50
90.0
100
AcDbText
  0
LINE
  5
807D
330
81D3
100
AcDbEntity
  8
0
  6
ByBlock
 62
     0
100
AcDbLine
 10
2939.481620153208
 20
1813.416563417291
 30
0.0
 11
2939.481620153208
 21
1840.416563417291
 31
0.0
  0
POINT
  5
807E
330
81D3
100
AcDbEntity
  8
DEFPOINTS
  6
ByBlock
 62
     0
100
AcDbPoint
 10
2422.798291471092
 20
1813.416563417291
 30
0.0
  0
POINT
  5
807F
330
81D3
100
AcDbEntity
  8
DEFPOINTS
  6
ByBlock
 62
     0
100
AcDbPoint
 10
2422.798291471092
 20
1840.416563417291
 30
0.0
  0
POINT
  5
8080
330
81D3
100
AcDbEntity
  8
DEFPOINTS
  6
ByBlock
 62
     0
100
AcDbPoint
 10
2939.481620153208
 20
1840.416563417291
 30
0.0
  0
ENDBLK
  5
8081
330
81D3
100
AcDbEntity
  8
0
100
AcDbBlockEnd
  0
BLOCK
  5
81D6
330
81D5
100
AcDbEntity
  8
0
100
AcDbBlockBegin
  2
*D29
 70
     1
 10
0.0
 20
0.0
 30
0.0
  3
*D29
  1

  0
LINE
  5
8085
330
81D5
100
AcDbEntity
  8
0
  6
ByBlock
 62
     0
100
AcDbLine
 10
2447.798291471092
 20
1713.416563417291
 30
0.0
 11
3157.389963356305
 21
1713.416563417291
 31
0.0
  0
LINE
  5
8086
330
81D5
100
AcDbEntity
  8
0
  6
ByBlock
 62
     0
100
AcDbLine
 10
1969.798291471091
 20
3216.416563417292
 30
0.0
 11
3157.389963356305
 21
3216.416563417292
 31
0.0
  0
LINE
  5
8087
330
81D5
100
AcDbEntity
  8
0
  6
ByBlock
 62
     0
100
AcDbLine
 10
3132.389963356305
 20
1763.416563417291
 30
0.0
 11
3132.389963356305
 21
3166.416563417291
 31
0.0
  0
INSERT
  5
8088
330
81D5
100
AcDbEntity
  8
0
  6
ByBlock
 62
     0
100
AcDbBlockReference
  2
_OPEN
 10
3132.389963356305
 20
1713.416563417291
 30
0.0
 41
50.0
 42
50.0
 43
50.0
 50
270.0
  0
INSERT
  5
8089
330
81D5
100
AcDbEntity
  8
0
  6
ByBlock
 62
     0
100
AcDbBlockReference
  2
_OPEN
 10
3132.389963356305
 20
3216.416563417292
 30
0.0
 41
50.0
 42
50.0
 43
50.0
 50
90.0
  0
TEXT
  5
808A
330
81D5
100
AcDbEntity
  8
3
 62
     0
100
AcDbText
 10
3075.247106213448
 20
2291.702277703005
 30
0.0
 40
75.0
  1
(1503)
 50
90.0
100
AcDbText
  0
POINT
  5
808B
330
81D5
100
AcDbEntity
  8
DEFPOINTS
  6
ByBlock
 62
     0
100
AcDbPoint
 10
2422.798291471092
 20
1713.416563417291
 30
0.0
  0
POINT
  5
808C
330
81D5
100
AcDbEntity
  8
DEFPOINTS
  6
ByBlock
 62
     0
100
AcDbPoint
 10
1944.798291471092
 20
3216.416563417292
 30
0.0
  0
POINT
  5
808D
330
81D5
100
AcDbEntity
  8
DEFPOINTS
  6
ByBlock
 62
     0
100
AcDbPoint
 10
3132.389963356305
 20
3216.416563417292
 30
0.0
  0
ENDBLK
  5
808E
330
81D5
100
AcDbEntity
  8
0
100
AcDbBlockEnd
  0
BLOCK
  5
823E
330
823D
100
AcDbEntity
  8
0
100
AcDbBlockBegin
  2
*D31
 70
     1
 10
0.0
 20
0.0
 30
0.0
  3
*D31
  1

  0
LINE
  5
8268
330
823D
100
AcDbEntity
  8
3
 62
     0
370
    -2
100
AcDbLine
 10
3223.454511818551
 20
3015.416563417292
 30
0.0
 11
3223.454511818551
 21
3584.552841774264
 31
0.0
  0
LINE
  5
8269
330
823D
100
AcDbEntity
  8
3
 62
     0
370
    -2
100
AcDbLine
 10
4063.454511818547
 20
3515.863348091055
 30
0.0
 11
4063.454511818547
 21
3584.552841774264
 31
0.0
  0
LINE
  5
826A
330
823D
100
AcDbEntity
  8
3
 62
     0
370
    -2
100
AcDbLine
 10
3273.454511818551
 20
3559.552841774265
 30
0.0
 11
4013.454511818546
 21
3559.552841774265
 31
0.0
  0
INSERT
  5
826B
330
823D
100
AcDbEntity
  8
3
 62
     0
370
    -2
100
AcDbBlockReference
  2
_OPEN
 10
3223.454511818551
 20
3559.552841774265
 30
0.0
 41
50.0
 42
50.0
 43
50.0
 50
180.0
  0
INSERT
  5
826C
330
823D
100
AcDbEntity
  8
3
 62
     0
370
    -2
100
AcDbBlockReference
  2
_OPEN
 10
4063.454511818547
 20
3559.552841774265
 30
0.0
 41
50.0
 42
50.0
 43
50.0
  0
MTEXT
  5
826D
330
823D
100
AcDbEntity
  8
3
 62
     0
100
AcDbMText
 10
3643.454511818549
 20
3641.695698917122
 30
0.0
 40
75.0
 41
0.0
 71
     5
 72
     1
  1
\A1;(840)
 73
     1
 44
1.0
1001
ACAD
1000
MTEXTBEGIN
1070
    73
1070
     1
1070
    44
1040
1.0
1070
    74
1070
     0
1000
MTEXTEND
  0
POINT
  5
826E
330
823D
100
AcDbEntity
  8
DEFPOINTS
 62
     0
100
AcDbPoint
 10
3223.454511818551
 20
2990.416563417292
 30
0.0
  0
POINT
  5
826F
330
823D
100
AcDbEntity
  8
DEFPOINTS
 62
     0
100
AcDbPoint
 10
4063.454511818547
 20
3490.863348091056
 30
0.0
  0
POINT
  5
8270
330
823D
100
AcDbEntity
  8
DEFPOINTS
 62
     0
100
AcDbPoint
 10
4063.454511818547
 20
3559.552841774265
 30
0.0
  0
ENDBLK
  5
823F
330
823D
100
AcDbEntity
  8
0
100
AcDbBlockEnd
  0
BLOCK
  5
824B
330
824A
100
AcDbEntity
  8
0
100
AcDbBlockBegin
  2
*D32
 70
     1
 10
0.0
 20
0.0
 30
0.0
  3
*D32
  1

  0
LINE
  5
8271
330
824A
100
AcDbEntity
  8
3
 62
     0
370
    -2
100
AcDbLine
 10
4063.454511818547
 20
3515.863348091055
 30
0.0
 11
4063.454511818547
 21
3584.552841774264
 31
0.0
  0
LINE
  5
8272
330
824A
100
AcDbEntity
  8
3
 62
     0
370
    -2
100
AcDbLine
 10
4623.454511818548
 20
2710.216563417291
 30
0.0
 11
4623.454511818548
 21
3584.552841774264
 31
0.0
  0
LINE
  5
8273
330
824A
100
AcDbEntity
  8
3
 62
     0
370
    -2
100
AcDbLine
 10
4113.454511818547
 20
3559.552841774265
 30
0.0
 11
4573.454511818548
 21
3559.552841774265
 31
0.0
  0
INSERT
  5
8274
330
824A
100
AcDbEntity
  8
3
 62
     0
370
    -2
100
AcDbBlockReference
  2
_OPEN
 10
4063.454511818547
 20
3559.552841774265
 30
0.0
 41
50.0
 42
50.0
 43
50.0
 50
180.0
  0
INSERT
  5
8275
330
824A
100
AcDbEntity
  8
3
 62
     0
370
    -2
100
AcDbBlockReference
  2
_OPEN
 10
4623.454511818548
 20
3559.552841774265
 30
0.0
 41
50.0
 42
50.0
 43
50.0
  0
MTEXT
  5
8276
330
824A
100
AcDbEntity
  8
3
 62
     0
100
AcDbMText
 10
4343.454511818547
 20
3641.695698917122
 30
0.0
 40
75.0
 41
0.0
 71
     5
 72
     1
  1
\A1;(560)
 73
     1
 44
1.0
1001
ACAD
1000
MTEXTBEGIN
1070
    73
1070
     1
1070
    44
1040
1.0
1070
    74
1070
     0
1000
MTEXTEND
  0
POINT
  5
8277
330
824A
100
AcDbEntity
  8
DEFPOINTS
 62
     0
100
AcDbPoint
 10
4063.454511818547
 20
3490.863348091056
 30
0.0
  0
POINT
  5
8278
330
824A
100
AcDbEntity
  8
DEFPOINTS
 62
     0
100
AcDbPoint
 10
4623.454511818548
 20
2685.216563417291
 30
0.0
  0
POINT
  5
8279
330
824A
100
AcDbEntity
  8
DEFPOINTS
 62
     0
100
AcDbPoint
 10
4623.454511818548
 20
3559.552841774265
 30
0.0
  0
ENDBLK
  5
824C
330
824A
100
AcDbEntity
  8
0
100
AcDbBlockEnd
  0
BLOCK
  5
827F
330
827E
100
AcDbEntity
  8
0
100
AcDbBlockBegin
  2
*D33
 70
     1
 10
0.0
 20
0.0
 30
0.0
  3
*D33
  1

  0
LINE
  5
8281
330
827E
100
AcDbEntity
  8
3
 62
     0
370
    -2
100
AcDbLine
 10
822.7982914710919
 20
4145.571064741897
 30
0.0
 11
822.7982914710919
 21
3788.212755510238
 31
0.0
  0
LINE
  5
8282
330
827E
100
AcDbEntity
  8
3
 62
     0
370
    -2
100
AcDbLine
 10
2422.798291471092
 20
4145.571064741897
 30
0.0
 11
2422.798291471092
 21
3788.212755510238
 31
0.0
  0
LINE
  5
8283
330
827E
100
AcDbEntity
  8
3
 62
     0
370
    -2
100
AcDbLine
 10
872.7982914710919
 20
3813.212755510238
 30
0.0
 11
2372.798291471092
 21
3813.212755510238
 31
0.0
  0
INSERT
  5
8284
330
827E
100
AcDbEntity
  8
3
 62
     0
370
    -2
100
AcDbBlockReference
  2
_OPEN
 10
822.7982914710919
 20
3813.212755510238
 30
0.0
 41
50.0
 42
50.0
 43
50.0
 50
180.0
  0
INSERT
  5
8285
330
827E
100
AcDbEntity
  8
3
 62
     0
370
    -2
100
AcDbBlockReference
  2
_OPEN
 10
2422.798291471092
 20
3813.212755510238
 30
0.0
 41
50.0
 42
50.0
 43
50.0
  0
MTEXT
  5
8286
330
827E
100
AcDbEntity
  8
3
 62
     0
100
AcDbMText
 10
1622.798291471092
 20
3875.712755510238
 30
0.0
 40
75.0
 41
0.0
 71
     5
 72
     1
  1
\A1;1600
 73
     1
 44
1.0
1001
ACAD
1000
MTEXTBEGIN
1070
    73
1070
     1
1070
    44
1040
1.0
1070
    74
1070
     0
1000
MTEXTEND
  0
POINT
  5
8287
330
827E
100
AcDbEntity
  8
DEFPOINTS
 62
     0
100
AcDbPoint
 10
822.7982914710919
 20
4170.571064741897
 30
0.0
  0
POINT
  5
8288
330
827E
100
AcDbEntity
  8
DEFPOINTS
 62
     0
100
AcDbPoint
 10
2422.798291471092
 20
4170.571064741897
 30
0.0
  0
POINT
  5
8289
330
827E
100
AcDbEntity
  8
DEFPOINTS
 62
     0
100
AcDbPoint
 10
2422.798291471092
 20
3813.212755510238
 30
0.0
  0
ENDBLK
  5
8280
330
827E
100
AcDbEntity
  8
0
100
AcDbBlockEnd
  0
BLOCK
  5
828C
330
828B
100
AcDbEntity
  8
0
100
AcDbBlockBegin
  2
*D34
 70
     1
 10
0.0
 20
0.0
 30
0.0
  3
*D34
  1

  0
LINE
  5
8297
330
828B
100
AcDbEntity
  8
3
 62
     0
370
    -2
100
AcDbLine
 10
1972.798291471092
 20
3280.416563417291
 30
0.0
 11
1972.798291471092
 21
3395.305010010292
 31
0.0
  0
LINE
  5
8298
330
828B
100
AcDbEntity
  8
3
 62
     0
370
    -2
100
AcDbLine
 10
1377.798291471094
 20
2682.416563417291
 30
0.0
 11
1377.798291471094
 21
3395.305010010292
 31
0.0
  0
LINE
  5
8299
330
828B
100
AcDbEntity
  8
3
 62
     0
370
    -2
100
AcDbLine
 10
1922.798291471092
 20
3370.305010010291
 30
0.0
 11
1427.798291471094
 21
3370.305010010291
 31
0.0
  0
INSERT
  5
829A
330
828B
100
AcDbEntity
  8
3
 62
     0
370
    -2
100
AcDbBlockReference
  2
_OPEN
 10
1972.798291471092
 20
3370.305010010291
 30
0.0
 41
50.0
 42
50.0
 43
50.0
  0
INSERT
  5
829B
330
828B
100
AcDbEntity
  8
3
 62
     0
370
    -2
100
AcDbBlockReference
  2
_OPEN
 10
1377.798291471094
 20
3370.305010010291
 30
0.0
 41
50.0
 42
50.0
 43
50.0
 50
180.0
  0
MTEXT
  5
829C
330
828B
100
AcDbEntity
  8
3
 62
     0
100
AcDbMText
 10
1675.298291471093
 20
3432.805010010291
 30
0.0
 40
75.0
 41
0.0
 71
     5
 72
     1
  1
\A1;595
 73
     1
 44
1.0
1001
ACAD
1000
MTEXTBEGIN
1070
    73
1070
     1
1070
    44
1040
1.0
1070
    74
1070
     0
1000
MTEXTEND
  0
POINT
  5
829D
330
828B
100
AcDbEntity
  8
DEFPOINTS
 62
     0
100
AcDbPoint
 10
1972.798291471092
 20
3255.416563417291
 30
0.0
  0
POINT
  5
829E
330
828B
100
AcDbEntity
  8
DEFPOINTS
 62
     0
100
AcDbPoint
 10
1377.798291471094
 20
2657.416563417291
 30
0.0
  0
POINT
  5
829F
330
828B
100
AcDbEntity
  8
DEFPOINTS
 62
     0
100
AcDbPoint
 10
1377.798291471094
 20
3370.305010010291
 30
0.0
  0
ENDBLK
  5
828D
330
828B
100
AcDbEntity
  8
0
100
AcDbBlockEnd
  0
BLOCK
  5
82A2
330
82A1
100
AcDbEntity
  8
0
100
AcDbBlockBegin
  2
*D35
 70
     1
 10
0.0
 20
0.0
 30
0.0
  3
*D35
  1

  0
LINE
  5
82AD
330
82A1
100
AcDbEntity
  8
3
 62
     0
370
    -2
100
AcDbLine
 10
2620.064130276521
 20
2710.416563417291
 30
0.0
 11
2964.258520611005
 21
2710.416563417291
 31
0.0
  0
LINE
  5
82AE
330
82A1
100
AcDbEntity
  8
3
 62
     0
370
    -2
100
AcDbLine
 10
1944.798291471094
 20
3199.416563417292
 30
0.0
 11
2964.258520611005
 21
3199.416563417292
 31
0.0
  0
LINE
  5
82AF
330
82A1
100
AcDbEntity
  8
3
 62
     0
370
    -2
100
AcDbLine
 10
2939.258520611005
 20
2760.416563417291
 30
0.0
 11
2939.258520611005
 21
3149.416563417292
 31
0.0
  0
INSERT
  5
82B0
330
82A1
100
AcDbEntity
  8
3
 62
     0
370
    -2
100
AcDbBlockReference
  2
_OPEN
 10
2939.258520611005
 20
2710.416563417291
 30
0.0
 41
50.0
 42
50.0
 43
50.0
 50
270.0
  0
INSERT
  5
82B1
330
82A1
100
AcDbEntity
  8
3
 62
     0
370
    -2
100
AcDbBlockReference
  2
_OPEN
 10
2939.258520611005
 20
3199.416563417292
 30
0.0
 41
50.0
 42
50.0
 43
50.0
 50
90.0
  0
MTEXT
  5
82B2
330
82A1
100
AcDbEntity
  8
3
 62
     0
100
AcDbMText
 10
2876.758520611005
 20
2954.916563417292
 30
0.0
 40
75.0
 41
0.0
 71
     5
 72
     1
  1
\A1;489
 11
0.0000000000000001
 21
1.0
 31
0.0
 73
     1
 44
1.0
1001
ACAD
1000
MTEXTBEGIN
1070
    73
1070
     1
1070
    44
1040
1.0
1070
    74
1070
     0
1000
MTEXTEND
  0
POINT
  5
82B3
330
82A1
100
AcDbEntity
  8
DEFPOINTS
 62
     0
100
AcDbPoint
 10
2595.064130276521
 20
2710.416563417291
 30
0.0
  0
POINT
  5
82B4
330
82A1
100
AcDbEntity
  8
DEFPOINTS
 62
     0
100
AcDbPoint
 10
1919.798291471094
 20
3199.416563417292
 30
0.0
  0
POINT
  5
82B5
330
82A1
100
AcDbEntity
  8
DEFPOINTS
 62
     0
100
AcDbPoint
 10
2939.258520611005
 20
3199.416563417292
 30
0.0
  0
ENDBLK
  5
82A3
330
82A1
100
AcDbEntity
  8
0
100
AcDbBlockEnd
  0
BLOCK
  5
82B8
330
82B7
100
AcDbEntity
  8
0
100
AcDbBlockBegin
  2
*D36
 70
     1
 10
0.0
 20
0.0
 30
0.0
  3
*D36
  1

  0
LINE
  5
82CC
330
82B7
100
AcDbEntity
  8
3
 62
     0
370
    -2
100
AcDbLine
 10
2620.064130276522
 20
2710.416563417291
 30
0.0
 11
2964.481620153208
 21
2710.416563417291
 31
0.0
  0
LINE
  5
82CD
330
82B7
100
AcDbEntity
  8
3
 62
     0
370
    -2
100
AcDbLine
 10
2447.798291471092
 20
1840.416563417291
 30
0.0
 11
2964.481620153208
 21
1840.41656341729
 31
0.0
  0
LINE
  5
82CE
330
82B7
100
AcDbEntity
  8
3
 62
     0
370
    -2
100
AcDbLine
 10
2939.481620153208
 20
2660.416563417291
 30
0.0
 11
2939.481620153208
 21
1890.41656341729
 31
0.0
  0
INSERT
  5
82CF
330
82B7
100
AcDbEntity
  8
3
 62
     0
370
    -2
100
AcDbBlockReference
  2
_OPEN
 10
2939.481620153208
 20
2710.416563417291
 30
0.0
 41
50.0
 42
50.0
 43
50.0
 50
90.0
  0
INSERT
  5
82D0
330
82B7
100
AcDbEntity
  8
3
 62
     0
370
    -2
100
AcDbBlockReference
  2
_OPEN
 10
2939.481620153208
 20
1840.41656341729
 30
0.0
 41
50.0
 42
50.0
 43
50.0
 50
270.0
  0
MTEXT
  5
82D1
330
82B7
100
AcDbEntity
  8
3
 62
     0
100
AcDbMText
 10
2876.981620153208
 20
2275.416563417291
 30
0.0
 40
75.0
 41
0.0
 71
     5
 72
     1
  1
\A1;870
 11
0.0000000000000001
 21
1.0
 31
0.0
 73
     1
 44
1.0
1001
ACAD
1000
MTEXTBEGIN
1070
    73
1070
     1
1070
    44
1040
1.0
1070
    74
1070
     0
1000
MTEXTEND
  0
POINT
  5
82D2
330
82B7
100
AcDbEntity
  8
DEFPOINTS
 62
     0
100
AcDbPoint
 10
2595.064130276522
 20
2710.416563417291
 30
0.0
  0
POINT
  5
82D3
330
82B7
100
AcDbEntity
  8
DEFPOINTS
 62
     0
100
AcDbPoint
 10
2422.798291471092
 20
1840.416563417291
 30
0.0
  0
POINT
  5
82D4
330
82B7
100
AcDbEntity
  8
DEFPOINTS
 62
     0
100
AcDbPoint
 10
2939.481620153208
 20
1840.41656341729
 30
0.0
  0
ENDBLK
  5
82B9
330
82B7
100
AcDbEntity
  8
0
100
AcDbBlockEnd
  0
BLOCK
  5
82D7
330
82D6
100
AcDbEntity
  8
0
100
AcDbBlockBegin
  2
*D37
 70
     1
 10
0.0
 20
0.0
 30
0.0
  3
*D37
  1

  0
LINE
  5
82EE
330
82D6
100
AcDbEntity
  8
3
 62
     0
370
    -2
100
AcDbLine
 10
2447.798291471092
 20
1713.416563417291
 30
0.0
 11
3190.61089711987
 21
1713.41656341729
 31
0.0
  0
LINE
  5
82EF
330
82D6
100
AcDbEntity
  8
3
 62
     0
370
    -2
100
AcDbLine
 10
1944.798291471094
 20
3199.416563417292
 30
0.0
 11
3190.610897119871
 21
3199.416563417291
 31
0.0
  0
LINE
  5
82F0
330
82D6
100
AcDbEntity
  8
3
 62
     0
370
    -2
100
AcDbLine
 10
3165.61089711987
 20
1763.41656341729
 30
0.0
 11
3165.610897119871
 21
3149.416563417291
 31
0.0
  0
INSERT
  5
82F1
330
82D6
100
AcDbEntity
  8
3
 62
     0
370
    -2
100
AcDbBlockReference
  2
_OPEN
 10
3165.61089711987
 20
1713.41656341729
 30
0.0
 41
50.0
 42
50.0
 43
50.0
 50
270.0
  0
INSERT
  5
82F2
330
82D6
100
AcDbEntity
  8
3
 62
     0
370
    -2
100
AcDbBlockReference
  2
_OPEN
 10
3165.610897119871
 20
3199.416563417291
 30
0.0
 41
50.0
 42
50.0
 43
50.0
 50
90.0
  0
MTEXT
  5
82F3
330
82D6
100
AcDbEntity
  8
3
 62
     0
100
AcDbMText
 10
3083.468039977013
 20
2456.416563417292
 30
0.0
 40
75.0
 41
0.0
 71
     5
 72
     1
  1
\A1;(1486)
 11
0.0000000000000001
 21
1.0
 31
0.0
 73
     1
 44
1.0
1001
ACAD
1000
MTEXTBEGIN
1070
    73
1070
     1
1070
    44
1040
1.0
1070
    74
1070
     0
1000
MTEXTEND
  0
POINT
  5
82F4
330
82D6
100
AcDbEntity
  8
DEFPOINTS
 62
     0
100
AcDbPoint
 10
2422.798291471092
 20
1713.416563417291
 30
0.0
  0
POINT
  5
82F5
330
82D6
100
AcDbEntity
  8
DEFPOINTS
 62
     0
100
AcDbPoint
 10
1919.798291471094
 20
3199.416563417292
 30
0.0
  0
POINT
  5
82F6
330
82D6
100
AcDbEntity
  8
DEFPOINTS
 62
     0
100
AcDbPoint
 10
3165.610897119871
 20
3199.416563417291
 30
0.0
  0
ENDBLK
  5
82D8
330
82D6
100
AcDbEntity
  8
0
100
AcDbBlockEnd
  0
ENDSEC
  0
SECTION
  2
ENTITIES
  0
INSERT
  5
7C41
330
818C
100
AcDbEntity
  8
0
100
AcDbBlockReference
  2
YA_N
 10
6.0
 20
5.0
 30
0.0
  0
LINE
  5
7C4D
330
818C
100
AcDbEntity
  8
2
100
AcDbLine
 10
1972.798291471092
 20
1713.416563417291
 30
0.0
 11
1972.798291471092
 21
3278.012094178292
 31
0.0
  0
LINE
  5
7C4E
330
818C
100
AcDbEntity
  8
2
100
AcDbLine
 10
2595.064130276521
 20
2710.416563417291
 30
0.0
 11
1297.771813968487
 21
2710.416563417291
 31
0.0
  0
LINE
  5
7C4F
330
818C
100
AcDbEntity
  8
1
100
AcDbLine
 10
1275.798291471092
 20
1980.416563417291
 30
0.0
 11
869.7982914710919
 21
1980.416563417291
 31
0.0
  0
LINE
  5
7C50
330
818C
100
AcDbEntity
  8
1
100
AcDbLine
 10
1272.798291471092
 20
1940.416563417291
 30
0.0
 11
1272.798291471092
 21
1980.416563417291
 31
0.0
  0
LINE
  5
7C51
330
818C
100
AcDbEntity
  8
1
100
AcDbLine
 10
2422.798291471092
 20
1713.416563417291
 30
0.0
 11
822.7982914710919
 21
1713.416563417291
 31
0.0
  0
LINE
  5
7C52
330
818C
100
AcDbEntity
  8
1
100
AcDbLine
 10
2422.798291471092
 20
1813.416563417291
 30
0.0
 11
2422.798291471092
 21
1713.416563417291
 31
0.0
  0
LINE
  5
7C53
330
818C
100
AcDbEntity
  8
1
100
AcDbLine
 10
822.7982914710919
 20
1813.416563417291
 30
0.0
 11
822.7982914710919
 21
1713.416563417291
 31
0.0
  0
LINE
  5
7C54
330
818C
100
AcDbEntity
  8
1
100
AcDbLine
 10
2422.798291471092
 20
1813.416563417291
 30
0.0
 11
822.7982914710919
 21
1813.416563417291
 31
0.0
1001
ACAD
1000
ASC_BOUNDS
1002
{
1070
    19
1005
0
1002
}
  0
LINE
  5
7C55
330
818C
100
AcDbEntity
  8
2
100
AcDbLine
 10
4063.454511818547
 20
1713.416563417291
 30
0.0
 11
4063.454511818547
 21
3387.916491952244
 31
0.0
  0
LINE
  5
7C56
330
818C
100
AcDbEntity
  8
2
100
AcDbLine
 10
3211.044058455743
 20
2710.416563417291
 30
0.0
 11
4649.736870213859
 21
2710.416563417291
 31
0.0
  0
LINE
  5
7C57
330
818C
100
AcDbEntity
  8
1
100
AcDbLine
 10
3411.454511818547
 20
1713.416563417291
 30
0.0
 11
4541.454511818545
 21
1713.416563417291
 31
0.0
  0
LINE
  5
7C58
330
818C
100
AcDbEntity
  8
1
100
AcDbLine
 10
3411.454511818547
 20
1813.416563417291
 30
0.0
 11
4566.454511818547
 21
1813.416563417291
 31
0.0
1001
ACAD
1000
ASC_BOUNDS
1002
{
1070
    19
1002
}
  0
LINE
  5
7C59
330
818C
100
AcDbEntity
  8
2
100
AcDbLine
 10
1972.798291471092
 20
5407.461068356417
 30
0.0
 11
1972.798291471092
 21
3951.67986449193
 31
0.0
  0
LINE
  5
7C5A
330
818C
100
AcDbEntity
  8
2
100
AcDbLine
 10
1072.798291471092
 20
4793.481996741134
 30
0.0
 11
1072.798291471092
 21
3951.67986449193
 31
0.0
  0
LINE
  5
7C5B
330
818C
100
AcDbEntity
  8
2
100
AcDbLine
 10
2569.996488499171
 20
4822.571064741897
 30
0.0
 11
762.2827625697063
 21
4822.5710647419
 31
0.0
  0
LINE
  5
7C5C
330
818C
100
AcDbEntity
  8
2
100
AcDbLine
 10
3341.487412620637
 20
2190.41656341729
 30
0.0
 11
3760.295821154301
 21
2190.41656341729
 31
0.0
  0
LINE
  5
7C5D
330
818C
100
AcDbEntity
  8
1
100
AcDbLine
 10
4513.454511818546
 20
1951.416563417291
 30
0.0
 11
4513.454511818546
 21
2710.416563417291
 31
0.0
  0
POINT
  5
7C5E
330
818C
100
AcDbEntity
  8
1
100
AcDbPoint
 10
2422.798291471092
 20
1713.416563417291
 30
0.0
  0
INSERT
  5
7C60
330
818C
100
AcDbEntity
  8
0
100
AcDbBlockReference
  2
YA_N
 10
-1092.024831295133
 20
-1095.319682135705
 30
0.0
 41
20.0
 42
20.0
 43
20.0
  0
LINE
  5
7C62
330
818C
100
AcDbEntity
  8
1
100
AcDbLine
 10
918.798291471092
 20
2046.416563417291
 30
0.0
 11
938.2307914710921
 21
2099.806563417291
 31
0.0
  0
LINE
  5
7C63
330
818C
100
AcDbEntity
  8
1
100
AcDbLine
 10
1226.798291471092
 20
2046.416563417291
 30
0.0
 11
1207.365691471091
 21
2099.806563417291
 31
0.0
  0
ARC
  5
7C64
330
818C
100
AcDbEntity
  8
1
100
AcDbCircle
 10
1072.798291471092
 20
2190.41656341729
 30
0.0
 40
162.0
100
AcDbArc
 50
180.0
 51
254.3518999999999
  0
ARC
  5
7C65
330
818C
100
AcDbEntity
  8
1
100
AcDbCircle
 10
1072.798291471092
 20
2190.41656341729
 30
0.0
 40
162.0
100
AcDbArc
 50
285.4573
 51
180.0
  0
LINE
  5
7C66
330
818C
100
AcDbEntity
  8
2
100
AcDbLine
 10
1072.798291471092
 20
2439.652563417291
 30
0.0
 11
1072.798291471092
 21
1713.416563417291
 31
0.0
  0
LINE
  5
7C67
330
818C
100
AcDbEntity
  8
1
100
AcDbLine
 10
1116.478891471092
 20
2034.416563417291
 30
0.0
 11
1029.117591471092
 21
2034.416563417291
 31
0.0
  0
LINE
  5
7C68
330
818C
100
AcDbEntity
  8
1
100
AcDbLine
 10
1157.742191471092
 20
2052.472563417291
 30
0.0
 11
1165.919591471091
 21
2044.294563417292
 31
0.0
  0
LINE
  5
7C69
330
818C
100
AcDbEntity
  8
1
100
AcDbLine
 10
1180.011491471092
 20
2048.416563417291
 30
0.0
 11
1224.798291471091
 21
2048.416563417291
 31
0.0
  0
ARC
  5
7C6B
330
818C
100
AcDbEntity
  8
1
100
AcDbCircle
 10
1224.798291471091
 20
2046.416563417291
 30
0.0
 40
2.0
100
AcDbArc
 50
0.0
 51
90.0
  0
LINE
  5
7C6D
330
818C
100
AcDbEntity
  8
1
100
AcDbLine
 10
1226.798291471092
 20
2030.416563417291
 30
0.0
 11
1226.798291471092
 21
2046.416563417291
 31
0.0
  0
ARC
  5
7C6F
330
818C
100
AcDbEntity
  8
1
100
AcDbCircle
 10
1163.798291471092
 20
2042.173563417291
 30
0.0
 40
3.0
100
AcDbArc
 50
0.0
 51
45.0
  0
LINE
  5
7C70
330
818C
100
AcDbEntity
  8
1
100
AcDbLine
 10
1166.798291471091
 20
2030.416563417291
 30
0.0
 11
1166.798291471091
 21
2042.173563417291
 31
0.0
  0
ARC
  5
7C75
330
818C
100
AcDbEntity
  8
1
100
AcDbCircle
 10
1180.011491471092
 20
2051.416563417291
 30
0.0
 40
3.0
100
AcDbArc
 50
225.0
 51
270.0
  0
LINE
  5
7C76
330
818C
100
AcDbEntity
  8
1
100
AcDbLine
 10
1167.909491471092
 20
2059.275563417291
 30
0.0
 11
1177.890091471092
 21
2049.294563417291
 31
0.0
  0
LINE
  5
7C78
330
818C
100
AcDbEntity
  8
1
100
AcDbLine
 10
965.5850914710915
 20
2048.416563417291
 30
0.0
 11
920.7982914710921
 21
2048.416563417291
 31
0.0
  0
LINE
  5
7C79
330
818C
100
AcDbEntity
  8
1
100
AcDbLine
 10
987.8543914710915
 20
2052.472563417291
 30
0.0
 11
979.676891471092
 21
2044.294563417292
 31
0.0
  0
ARC
  5
7C7A
330
818C
100
AcDbEntity
  8
1
100
AcDbCircle
 10
981.798291471092
 20
2042.173563417291
 30
0.0
 40
3.0
100
AcDbArc
 50
135.0
 51
180.0
  0
LINE
  5
7C7B
330
818C
100
AcDbEntity
  8
1
100
AcDbLine
 10
978.7982914710921
 20
2030.416563417291
 30
0.0
 11
978.7982914710921
 21
2042.173563417291
 31
0.0
  0
ARC
  5
7C7C
330
818C
100
AcDbEntity
  8
1
100
AcDbCircle
 10
965.5850914710915
 20
2051.416563417291
 30
0.0
 40
3.0
100
AcDbArc
 50
270.0
 51
315.0
  0
LINE
  5
7C7D
330
818C
100
AcDbEntity
  8
1
100
AcDbLine
 10
967.5960914710922
 20
2049.184563417291
 30
0.0
 11
977.687091471092
 21
2059.275563417291
 31
0.0
  0
ARC
  5
7C84
330
818C
100
AcDbEntity
  8
1
100
AcDbCircle
 10
920.7982914710921
 20
2046.416563417291
 30
0.0
 40
2.0
100
AcDbArc
 50
90.0
 51
180.0
  0
LINE
  5
7C85
330
818C
100
AcDbEntity
  8
1
100
AcDbLine
 10
918.798291471092
 20
2030.416563417291
 30
0.0
 11
918.798291471092
 21
2046.416563417291
 31
0.0
  0
LINE
  5
7C86
330
818C
100
AcDbEntity
  8
2
100
AcDbLine
 10
1265.655166370615
 20
2190.41656341729
 30
0.0
 11
875.0393642524212
 21
2190.41656341729
 31
0.0
  0
LINE
  5
7C87
330
818C
100
AcDbEntity
  8
1
100
AcDbLine
 10
1262.75775884135
 20
2030.416563417291
 30
0.0
 11
1132.798291471091
 21
2030.416563417291
 31
0.0
  0
LINE
  5
7C88
330
818C
100
AcDbEntity
  8
1
100
AcDbLine
 10
1275.798291471092
 20
1980.416563417291
 30
0.0
 11
1262.75775884135
 21
2030.416563417291
 31
0.0
  0
LINE
  5
7C89
330
818C
100
AcDbEntity
  8
1
100
AcDbLine
 10
869.7982914710919
 20
1980.416563417291
 30
0.0
 11
883.1797323800255
 21
2030.416563417291
 31
0.0
  0
LINE
  5
7C8A
330
818C
100
AcDbEntity
  8
1
100
AcDbLine
 10
1012.798291471092
 20
2030.416563417291
 30
0.0
 11
1012.798291471092
 21
2025.416563417291
 31
0.0
  0
LINE
  5
7C8B
330
818C
100
AcDbEntity
  8
1
100
AcDbLine
 10
1132.798291471091
 20
2030.416563417291
 30
0.0
 11
1132.798291471091
 21
2025.416563417291
 31
0.0
  0
LINE
  5
7C8C
330
818C
100
AcDbEntity
  8
1
100
AcDbLine
 10
1132.798291471091
 20
2025.416563417291
 30
0.0
 11
1012.798291471092
 21
2025.416563417291
 31
0.0
  0
LINE
  5
7C8E
330
818C
100
AcDbEntity
  8
1
100
AcDbLine
 10
1012.798291471092
 20
2030.416563417291
 30
0.0
 11
883.1797323800252
 21
2030.416563417291
 31
0.0
  0
POINT
  5
7C92
330
818C
100
AcDbEntity
  8
1
100
AcDbPoint
 10
2422.798291471092
 20
1718.41656341729
 30
0.0
  0
POINT
  5
7C93
330
818C
100
AcDbEntity
  8
1
100
AcDbPoint
 10
2422.798291471092
 20
1713.416563417291
 30
0.0
  0
POINT
  5
7C94
330
818C
100
AcDbEntity
  8
1
100
AcDbPoint
 10
2422.798291471092
 20
1718.41656341729
 30
0.0
  0
POINT
  5
7C95
330
818C
100
AcDbEntity
  8
1
100
AcDbPoint
 10
2422.798291471092
 20
1753.416563417291
 30
0.0
  0
DIMENSION
  5
7C97
330
818C
100
AcDbEntity
  8
3
100
AcDbDimension
  2
*D4
 10
2621.805675250318
 20
2681.416563417291
 30
0.0
 11
2571.805675250318
 21
2316.416563417291
 31
0.0
 12
747.2261442553315
 22
2201.823085195892
 32
0.0
 71
     5
 42
-1.0
  3
Standard
100
AcDbAlignedDimension
 13
2472.798291471092
 23
1951.416563417291
 33
0.0
 14
2472.798291471093
 24
2681.416563417291
 34
0.0
 50
270.0
100
AcDbRotatedDimension
1001
ACAD
1000
DSTYLE
1002
{
1070
    40
1040
25.0
1002
}
  0
DIMENSION
  5
7C98
330
818C
100
AcDbEntity
  8
3
100
AcDbDimension
  2
*D5
 10
2774.614448723983
 20
2710.416563417291
 30
0.0
 11
2724.614448723983
 21
2330.916563417291
 31
0.0
 12
747.2261442553315
 22
2201.823085195892
 32
0.0
 71
     5
 42
-1.0
  3
Standard
100
AcDbAlignedDimension
 13
2472.798291471092
 23
1951.416563417291
 33
0.0
 14
2595.064130276521
 24
2710.416563417291
 34
0.0
 50
270.0
100
AcDbRotatedDimension
1001
ACAD
1000
DSTYLE
1002
{
1070
    40
1040
25.0
1002
}
  0
LINE
  5
7C99
330
818C
100
AcDbEntity
  8
1
100
AcDbLine
 10
4516.454511818547
 20
1713.416563417291
 30
0.0
 11
4566.454511818547
 21
1713.416563417291
 31
0.0
  0
POINT
  5
7C9A
330
818C
100
AcDbEntity
  8
1
100
AcDbPoint
 10
2422.798291471092
 20
1718.41656341729
 30
0.0
  0
POINT
  5
7C9B
330
818C
100
AcDbEntity
  8
1
100
AcDbPoint
 10
2422.798291471092
 20
1713.416563417291
 30
0.0
  0
POINT
  5
7C9C
330
818C
100
AcDbEntity
  8
1
100
AcDbPoint
 10
2422.798291471092
 20
1718.41656341729
 30
0.0
  0
POINT
  5
7C9D
330
818C
100
AcDbEntity
  8
1
100
AcDbPoint
 10
2422.798291471092
 20
1753.416563417291
 30
0.0
  0
INSERT
  5
7C9E
330
818C
100
AcDbEntity
  8
0
100
AcDbBlockReference
  2
YA_N
 10
-1018.773193578214
 20
-860.9217325598891
 30
0.0
 41
20.0
 42
20.0
 43
20.0
  0
POINT
  5
7CA0
330
818C
100
AcDbEntity
  8
1
100
AcDbPoint
 10
2422.798291471092
 20
1813.416563417291
 30
0.0
  0
POINT
  5
7CA1
330
818C
100
AcDbEntity
  8
1
100
AcDbPoint
 10
2422.798291471092
 20
1713.416563417291
 30
0.0
  0
POINT
  5
7CA2
330
818C
100
AcDbEntity
  8
1
100
AcDbPoint
 10
2422.798291471092
 20
1813.416563417291
 30
0.0
  0
LINE
  5
7CA3
330
818C
100
AcDbEntity
  8
1
100
AcDbLine
 10
4513.454511818546
 20
2710.416563417291
 30
0.0
 11
4513.454511818546
 21
3216.416563417292
 31
0.0
  0
LINE
  5
7CA5
330
818C
100
AcDbEntity
  8
1
100
AcDbLine
 10
3613.454511818547
 20
2710.416563417291
 30
0.0
 11
3613.454511818547
 21
3216.416563417292
 31
0.0
  0
LINE
  5
7CA6
330
818C
100
AcDbEntity
  8
1
100
AcDbLine
 10
3613.454511818547
 20
1951.416563417291
 30
0.0
 11
3613.454511818546
 21
2710.416563417291
 31
0.0
  0
LINE
  5
7CA8
330
818C
100
AcDbEntity
  8
1
100
AcDbLine
 10
4525.954511818546
 20
2575.216563417291
 30
0.0
 11
4525.954511818548
 21
2695.216563417291
 31
0.0
  0
LINE
  5
7CA9
330
818C
100
AcDbEntity
  8
1
100
AcDbLine
 10
4623.454511818546
 20
2585.216563417291
 30
0.0
 11
4623.454511818547
 21
2685.216563417291
 31
0.0
  0
LINE
  5
7CAA
330
818C
100
AcDbEntity
  8
1
100
AcDbLine
 10
4525.954511818548
 20
2695.216563417291
 30
0.0
 11
4565.754511818548
 21
2695.216563417291
 31
0.0
  0
LINE
  5
7CAB
330
818C
100
AcDbEntity
  8
1
100
AcDbLine
 10
4525.954511818546
 20
2575.216563417291
 30
0.0
 11
4565.754511818548
 21
2575.216563417291
 31
0.0
  0
ARC
  5
7CAC
330
818C
100
AcDbEntity
  8
1
100
AcDbCircle
 10
4613.454511818548
 20
2685.216563417291
 30
0.0
 40
10.0
100
AcDbArc
 50
359.9999999999982
 51
90.0
  0
ARC
  5
7CAD
330
818C
100
AcDbEntity
  8
1
100
AcDbCircle
 10
4613.454511818546
 20
2585.216563417291
 30
0.0
 40
10.0
100
AcDbArc
 50
270.0
 51
359.9999999999982
  0
LINE
  5
7CAE
330
818C
100
AcDbEntity
  8
1
100
AcDbLine
 10
4565.754511818548
 20
2575.216563417291
 30
0.0
 11
4613.454511818546
 21
2575.216563417291
 31
0.0
  0
LINE
  5
7CAF
330
818C
100
AcDbEntity
  8
1
100
AcDbLine
 10
4565.754511818548
 20
2695.216563417291
 30
0.0
 11
4613.454511818548
 21
2695.216563417291
 31
0.0
  0
LINE
  5
7CB0
330
818C
100
AcDbEntity
  8
1
100
AcDbLine
 10
872.7982914710919
 20
1940.416563417291
 30
0.0
 11
872.7982914710915
 21
1980.416563417291
 31
0.0
  0
POINT
  5
7CB1
330
818C
100
AcDbEntity
  8
1
100
AcDbPoint
 10
4623.454511818547
 20
2685.216563417291
 30
0.0
  0
LINE
  5
7CB2
330
818C
100
AcDbEntity
  8
1
100
AcDbLine
 10
2422.798291471092
 20
5325.571064741897
 30
0.0
 11
1522.798291471092
 21
5325.571064741899
 31
0.0
  0
LINE
  5
7CB3
330
818C
100
AcDbEntity
  8
1
100
AcDbLine
 10
2422.798291471092
 20
4170.571064741897
 30
0.0
 11
822.7982914710919
 21
4170.571064741897
 31
0.0
  0
LINE
  5
7CB4
330
818C
100
AcDbEntity
  8
1
100
AcDbLine
 10
2422.798291471092
 20
5325.571064741899
 30
0.0
 11
2422.798291471092
 21
5272.571064741897
 31
0.0
  0
LINE
  5
7CB5
330
818C
100
AcDbEntity
  8
1
100
AcDbLine
 10
1522.798291471092
 20
5325.571064741899
 30
0.0
 11
1522.798291471092
 21
5272.571064741899
 31
0.0
  0
LINE
  5
7CB6
330
818C
100
AcDbEntity
  8
1
100
AcDbLine
 10
822.7982914710919
 20
4840.5710647419
 30
0.0
 11
822.7982914710919
 21
4170.571064741897
 31
0.0
  0
LINE
  5
7CB7
330
818C
100
AcDbEntity
  8
1
100
AcDbLine
 10
1360.798291471092
 20
4840.571064741898
 30
0.0
 11
822.7982914710919
 21
4840.5710647419
 31
0.0
  0
POINT
  5
7CB8
330
818C
100
AcDbEntity
  8
1
100
AcDbPoint
 10
2422.798291471092
 20
1813.416563417291
 30
0.0
  0
POINT
  5
7CB9
330
818C
100
AcDbEntity
  8
1
100
AcDbPoint
 10
2422.798291471092
 20
1713.416563417291
 30
0.0
  0
POINT
  5
7CBA
330
818C
100
AcDbEntity
  8
1
100
AcDbPoint
 10
2422.798291471092
 20
1813.416563417291
 30
0.0
  0
LINE
  5
7CBB
330
818C
100
AcDbEntity
  8
1
100
AcDbLine
 10
2422.798291471092
 20
1840.416563417291
 30
0.0
 11
822.7982914710919
 21
1840.416563417291
 31
0.0
1001
ACAD
1000
ASC_BOUNDS
1002
{
1070
    19
1002
}
  0
LINE
  5
7CBC
330
818C
100
AcDbEntity
  8
1
100
AcDbLine
 10
2422.798291471092
 20
1940.416563417291
 30
0.0
 11
822.7982914710919
 21
1940.416563417291
 31
0.0
1001
ACAD
1000
ASC_BOUNDS
1002
{
1070
    19
1005
0
1002
}
  0
LINE
  5
7CBD
330
818C
100
AcDbEntity
  8
1
100
AcDbLine
 10
822.7982914710919
 20
1940.416563417291
 30
0.0
 11
822.7982914710919
 21
1840.416563417291
 31
0.0
  0
LINE
  5
7CBE
330
818C
100
AcDbEntity
  8
1
100
AcDbLine
 10
2422.798291471092
 20
1940.416563417291
 30
0.0
 11
2422.798291471092
 21
1840.416563417291
 31
0.0
  0
POINT
  5
7CC5
330
818C
100
AcDbEntity
  8
1
100
AcDbPoint
 10
2422.798291471092
 20
1813.416563417291
 30
0.0
  0
POINT
  5
7CC6
330
818C
100
AcDbEntity
  8
1
100
AcDbPoint
 10
2422.798291471092
 20
1713.416563417291
 30
0.0
  0
POINT
  5
7CC7
330
818C
100
AcDbEntity
  8
1
100
AcDbPoint
 10
2422.798291471092
 20
1813.416563417291
 30
0.0
  0
POINT
  5
7CC8
330
818C
100
AcDbEntity
  8
1
100
AcDbPoint
 10
2422.798291471092
 20
1840.416563417291
 30
0.0
  0
CIRCLE
  5
7CCE
330
818C
100
AcDbEntity
  8
1
100
AcDbCircle
 10
1072.798291471092
 20
2190.41656341729
 30
0.0
 40
79.0
  0
CIRCLE
  5
7CCF
330
818C
100
AcDbEntity
  8
1
100
AcDbCircle
 10
1972.798291471092
 20
2710.416563417291
 30
0.0
 40
203.2
  0
LINE
  5
7CD0
330
818C
100
AcDbEntity
  8
1
100
AcDbLine
 10
1903.378922000038
 20
2901.390884052924
 30
0.0
 11
1045.809461804688
 21
2264.663469569924
 31
0.0
  0
LINE
  5
7CD1
330
818C
100
AcDbEntity
  8
1
100
AcDbLine
 10
1988.649202465096
 20
2507.835743444965
 30
0.0
 11
1078.960801158721
 21
2111.657287935924
 31
0.0
  0
ARC
  5
7CD2
330
818C
100
AcDbEntity
  8
1
100
AcDbCircle
 10
1972.798291471092
 20
2710.416563417291
 30
0.0
 40
280.0
100
AcDbArc
 50
274.1096317013021
 51
110.3406136501693
  0
ARC
  5
7CD3
330
818C
100
AcDbEntity
  8
1
100
AcDbCircle
 10
1072.798291471092
 20
2190.41656341729
 30
0.0
 40
150.0
100
AcDbArc
 50
110.3406136501693
 51
274.1096317013021
  0
LINE
  5
7CD4
330
818C
100
AcDbEntity
  8
1
100
AcDbLine
 10
1875.470185253776
 20
2972.956540830543
 30
0.0
 11
1020.658234568958
 21
2331.062979888676
 31
0.0
  0
LINE
  5
7CD5
330
818C
100
AcDbEntity
  8
1
100
AcDbLine
 10
1992.864524512499
 20
2431.136513482592
 30
0.0
 11
1083.548059171845
 21
2040.802250952274
 31
0.0
  0
INSERT
  5
7CD6
330
818C
100
AcDbEntity
  8
0
100
AcDbBlockReference
  2
YA_N
 10
2545.878788900856
 20
-1567.120050791241
 30
0.0
  0
LINE
  5
7CD8
330
818C
100
AcDbEntity
  8
1
100
AcDbLine
 10
3411.454511818547
 20
1940.416563417291
 30
0.0
 11
4566.454511818547
 21
1940.416563417291
 31
0.0
1001
ACAD
1000
ASC_BOUNDS
1002
{
1070
    19
1002
}
  0
LINE
  5
7CD9
330
818C
100
AcDbEntity
  8
1
100
AcDbLine
 10
3411.454511818547
 20
1713.416563417291
 30
0.0
 11
3411.454511818547
 21
1813.416563417291
 31
0.0
  0
LINE
  5
7CDA
330
818C
100
AcDbEntity
  8
1
100
AcDbLine
 10
3411.454511818547
 20
1840.416563417291
 30
0.0
 11
4566.454511818547
 21
1840.416563417291
 31
0.0
  0
LINE
  5
7CDB
330
818C
100
AcDbEntity
  8
1
100
AcDbLine
 10
4566.454511818547
 20
1713.416563417291
 30
0.0
 11
4566.454511818547
 21
1813.416563417291
 31
0.0
  0
LINE
  5
7CDE
330
818C
100
AcDbEntity
  8
1
100
AcDbLine
 10
3561.154511818545
 20
2687.216563417291
 30
0.0
 11
3520.954511818545
 21
2687.216563417291
 31
0.0
  0
LINE
  5
7CDF
330
818C
100
AcDbEntity
  8
1
100
AcDbLine
 10
3561.154511818545
 20
2567.216563417292
 30
0.0
 11
3520.954511818546
 21
2567.216563417292
 31
0.0
  0
LINE
  5
7CE0
330
818C
100
AcDbEntity
  8
1
100
AcDbLine
 10
3600.954511818547
 20
2567.216563417292
 30
0.0
 11
3600.954511818544
 21
2687.216563417291
 31
0.0
  0
LINE
  5
7CE1
330
818C
100
AcDbEntity
  8
1
100
AcDbLine
 10
3600.954511818547
 20
2567.216563417292
 30
0.0
 11
3561.154511818545
 21
2567.216563417292
 31
0.0
  0
LINE
  5
7CE2
330
818C
100
AcDbEntity
  8
1
100
AcDbLine
 10
3600.954511818544
 20
2687.216563417291
 30
0.0
 11
3561.154511818545
 21
2687.216563417291
 31
0.0
  0
LINE
  5
7CE3
330
818C
100
AcDbEntity
  8
1
100
AcDbLine
 10
3510.954511818548
 20
2577.216563417291
 30
0.0
 11
3510.954511818545
 21
2677.216563417291
 31
0.0
  0
ARC
  5
7CE4
330
818C
100
AcDbEntity
  8
1
100
AcDbCircle
 10
3520.954511818546
 20
2577.216563417291
 30
0.0
 40
10.0
100
AcDbArc
 50
180.0000000000016
 51
270.0
  0
ARC
  5
7CE5
330
818C
100
AcDbEntity
  8
1
100
AcDbCircle
 10
3520.954511818545
 20
2677.216563417291
 30
0.0
 40
10.0
100
AcDbArc
 50
90.0
 51
180.0000000000016
  0
POINT
  5
7CE6
330
818C
100
AcDbEntity
  8
1
100
AcDbPoint
 10
3510.954511818545
 20
2677.216563417291
 30
0.0
  0
LINE
  5
7CE7
330
818C
100
AcDbEntity
  8
1
100
AcDbLine
 10
3483.454511818546
 20
2685.416563417291
 30
0.0
 11
3483.454511818546
 21
2735.416563417291
 31
0.0
  0
LINE
  5
7CE8
330
818C
100
AcDbEntity
  8
1
100
AcDbLine
 10
3483.454511818546
 20
2735.416563417291
 30
0.0
 11
3613.454511818547
 21
2735.416563417291
 31
0.0
  0
LINE
  5
7CE9
330
818C
100
AcDbEntity
  8
1
100
AcDbLine
 10
3483.454511818546
 20
2685.416563417291
 30
0.0
 11
3515.354511818546
 21
2685.416563417291
 31
0.0
  0
LINE
  5
7CEA
330
818C
100
AcDbEntity
  8
1
100
AcDbLine
 10
3459.454511818548
 20
2731.416563417291
 30
0.0
 11
3483.454511818546
 21
2731.416563417291
 31
0.0
  0
LINE
  5
7CEB
330
818C
100
AcDbEntity
  8
1
100
AcDbLine
 10
3459.454511818545
 20
2689.416563417291
 30
0.0
 11
3483.454511818546
 21
2689.416563417291
 31
0.0
  0
LINE
  5
7CEC
330
818C
100
AcDbEntity
  8
1
100
AcDbLine
 10
3459.454511818537
 20
2111.416563417291
 30
0.0
 11
3459.454511818548
 21
2913.616563417291
 31
0.0
  0
LINE
  5
7CED
330
818C
100
AcDbEntity
  8
1
100
AcDbLine
 10
3358.454511818548
 20
2913.616563417291
 30
0.0
 11
3459.45451181855
 21
2913.616563417291
 31
0.0
  0
LINE
  5
7CEE
330
818C
100
AcDbEntity
  8
1
100
AcDbLine
 10
3358.454511818543
 20
2507.216563417291
 30
0.0
 11
3459.454511818544
 21
2507.216563417291
 31
0.0
  0
LINE
  5
7CEF
330
818C
100
AcDbEntity
  8
1
100
AcDbLine
 10
3358.454511818538
 20
2111.416563417291
 30
0.0
 11
3358.454511818548
 21
2913.616563417292
 31
0.0
  0
LINE
  5
7CF0
330
818C
100
AcDbEntity
  8
1
100
AcDbLine
 10
3358.454511818544
 20
2269.416563417291
 30
0.0
 11
3459.454511818545
 21
2269.416563417291
 31
0.0
  0
LINE
  5
7CF1
330
818C
100
AcDbEntity
  8
1
100
AcDbLine
 10
3358.454511818543
 20
2111.416563417291
 30
0.0
 11
3459.454511818543
 21
2111.416563417291
 31
0.0
  0
LINE
  5
7CF2
330
818C
100
AcDbEntity
  8
1
100
AcDbLine
 10
3223.454511818551
 20
2990.416563417292
 30
0.0
 11
3509.45451181855
 21
2990.416563417292
 31
0.0
  0
LINE
  5
7CF3
330
818C
100
AcDbEntity
  8
1
100
AcDbLine
 10
3223.454511818542
 20
2040.416563417291
 30
0.0
 11
3509.454511818541
 21
2040.416563417291
 31
0.0
  0
LINE
  5
7CF4
330
818C
100
AcDbEntity
  8
1
100
AcDbLine
 10
3509.454511818541
 20
2040.416563417291
 30
0.0
 11
3509.454511818541
 21
2060.416563417291
 31
0.0
  0
LINE
  5
7CF5
330
818C
100
AcDbEntity
  8
1
100
AcDbLine
 10
3223.454511818538
 20
2040.416563417291
 30
0.0
 11
3223.454511818551
 21
2990.416563417292
 31
0.0
  0
LINE
  5
7CF6
330
818C
100
AcDbEntity
  8
1
100
AcDbLine
 10
3509.45451181855
 20
2970.416563417292
 30
0.0
 11
3509.45451181855
 21
2990.416563417292
 31
0.0
  0
DIMENSION
  5
7CF7
330
818C
100
AcDbEntity
  8
3
100
AcDbDimension
  2
*D6
 10
4513.454511818546
 20
3403.363348091056
 30
0.0
 11
4063.454511818547
 21
3453.363348091055
 31
0.0
 12
219.1824378880773
 22
2201.823085195892
 32
0.0
 71
     5
 42
-1.0
  3
Standard
100
AcDbAlignedDimension
 13
3613.454511818547
 23
3211.758674958399
 33
0.0
 14
4513.454511818546
 24
3211.758661221391
 34
0.0
100
AcDbRotatedDimension
1001
ACAD
1000
DSTYLE
1002
{
1070
    40
1040
25.0
1002
}
  0
DIMENSION
  5
7CFB
330
818C
100
AcDbEntity
  8
3
100
AcDbDimension
  2
*D10
 10
4791.236646773966
 20
3085.416563417292
 30
0.0
 11
4741.236646773965
 21
2710.416563417291
 31
0.0
 12
219.1824378880773
 22
2201.823085195892
 32
0.0
  1
\U+03C6<>
 71
     5
 42
-1.0
  3
Standard
100
AcDbAlignedDimension
 13
4515.754511818547
 23
2335.416563417291
 33
0.0
 14
4515.754511818547
 24
3085.416563417292
 34
0.0
 50
90.0
100
AcDbRotatedDimension
1001
ACAD
1000
DSTYLE
1002
{
1070
    40
1040
25.0
1002
}
  0
DIMENSION
  5
7CFD
330
818C
100
AcDbEntity
  8
3
100
AcDbDimension
  2
*D12
 10
653.9387266794873
 20
4840.5710647419
 30
0.0
 11
603.9387266794873
 21
4505.571064741899
 31
0.0
 12
277.2229457248904
 22
0.0
 32
0.0
 71
     5
 42
-1.0
  3
Standard
100
AcDbAlignedDimension
 13
822.7982914710919
 23
4170.571064741897
 33
0.0
 14
822.7982914710919
 24
4840.5710647419
 34
0.0
 50
90.0
100
AcDbRotatedDimension
1001
ACAD
1000
DSTYLE
1002
{
1070
    40
1040
25.0
1002
}
  0
DIMENSION
  5
7CFE
330
818C
100
AcDbEntity
  8
3
100
AcDbDimension
  2
*D13
 10
2422.798291471092
 20
5627.203119146071
 30
0.0
 11
1972.798291471092
 21
5677.203119146071
 31
0.0
 12
747.2261442553315
 22
1397.037754206559
 32
0.0
 71
     5
 42
-1.0
  3
Standard
100
AcDbAlignedDimension
 13
1522.798291471092
 23
5325.571064741899
 33
0.0
 14
2422.798291471092
 24
5325.571064741899
 34
0.0
100
AcDbRotatedDimension
1001
ACAD
1000
DSTYLE
1002
{
1070
    40
1040
25.0
1002
}
  0
DIMENSION
  5
7CFF
330
818C
100
AcDbEntity
  8
3
100
AcDbDimension
  2
*D14
 10
1522.798291471092
 20
5627.203119146071
 30
0.0
 11
1172.798291471091
 21
5677.203119146071
 31
0.0
 12
747.2261442553315
 22
1397.037754206559
 32
0.0
 71
     5
 42
-1.0
  3
Standard
100
AcDbAlignedDimension
 13
822.7982914710919
 23
4840.5710647419
 33
0.0
 14
1522.798291471092
 24
5325.571064741899
 34
0.0
100
AcDbRotatedDimension
1001
ACAD
1000
DSTYLE
1002
{
1070
    40
1040
25.0
1002
}
  0
DIMENSION
  5
7D00
330
818C
100
AcDbEntity
  8
3
100
AcDbDimension
  2
*D15
 10
2724.19549961235
 20
5325.571064741899
 30
0.0
 11
2674.195499612349
 21
4748.071064741897
 31
0.0
 12
747.2261442553315
 22
1397.037754206559
 32
0.0
 71
     5
 42
-1.0
  3
Standard
100
AcDbAlignedDimension
 13
2422.798291471092
 23
4170.571064741897
 33
0.0
 14
2422.798291471092
 24
5325.571064741899
 34
0.0
 50
90.0
100
AcDbRotatedDimension
1001
ACAD
1000
DSTYLE
1002
{
1070
    40
1040
25.0
1002
}
  0
LINE
  5
7D01
330
818C
100
AcDbEntity
  8
1
100
AcDbLine
 10
3411.454511818547
 20
1840.416563417291
 30
0.0
 11
3411.454511818547
 21
1940.416563417291
 31
0.0
  0
DIMENSION
  5
7D02
330
818C
100
AcDbEntity
  8
3
100
AcDbDimension
  2
*D16
 10
822.7982914710919
 20
3568.726828777175
 30
0.0
 11
1647.798291471092
 21
3618.726828777175
 31
0.0
 12
747.2261442553315
 22
2201.823085195892
 32
0.0
 71
     5
 42
-1.0
  3
Standard
100
AcDbAlignedDimension
 13
2472.798291471092
 23
2710.59003924326
 33
0.0
 14
822.7982914710919
 24
1940.416563417291
 34
0.0
100
AcDbRotatedDimension
1001
ACAD
1000
DSTYLE
1002
{
1070
    40
1040
25.0
1002
}
  0
LINE
  5
7D03
330
818C
100
AcDbEntity
  8
1
100
AcDbLine
 10
2252.798291471092
 20
3982.571064741898
 30
0.0
 11
2252.798291471092
 21
4267.571064741897
 31
0.0
  0
LINE
  5
7D04
330
818C
100
AcDbEntity
  8
1
100
AcDbLine
 10
922.7982914710921
 20
3982.571064741898
 30
0.0
 11
922.7982914710921
 21
4267.571064741897
 31
0.0
  0
LINE
  5
7D05
330
818C
100
AcDbEntity
  8
1
100
AcDbLine
 10
2175.998291471092
 20
4117.571064741897
 30
0.0
 11
2175.998291471092
 21
4217.571064741897
 31
0.0
  0
LINE
  5
7D06
330
818C
100
AcDbEntity
  8
1
100
AcDbLine
 10
1769.598291471092
 20
4117.571064741897
 30
0.0
 11
1769.598291471092
 21
4217.571064741897
 31
0.0
  0
LINE
  5
7D07
330
818C
100
AcDbEntity
  8
1
100
AcDbLine
 10
1151.798291471092
 20
4117.571064741897
 30
0.0
 11
1151.798291471092
 21
4217.571064741897
 31
0.0
  0
LINE
  5
7D08
330
818C
100
AcDbEntity
  8
1
100
AcDbLine
 10
993.798291471092
 20
4117.571064741897
 30
0.0
 11
993.798291471092
 21
4217.571064741899
 31
0.0
  0
LINE
  5
7D09
330
818C
100
AcDbEntity
  8
1
100
AcDbLine
 10
2252.798291471092
 20
3982.571064741898
 30
0.0
 11
922.7982914710921
 21
3982.571064741898
 31
0.0
  0
LINE
  5
7D0A
330
818C
100
AcDbEntity
  8
1
100
AcDbLine
 10
2252.798291471092
 20
4267.571064741897
 30
0.0
 11
922.7982914710921
 21
4267.571064741897
 31
0.0
  0
LINE
  5
7D0B
330
818C
100
AcDbEntity
  8
1
100
AcDbLine
 10
2175.998291471092
 20
4217.571064741897
 30
0.0
 11
1769.598291471092
 21
4217.571064741897
 31
0.0
  0
LINE
  5
7D0C
330
818C
100
AcDbEntity
  8
1
100
AcDbLine
 10
2175.998291471092
 20
4117.571064741897
 30
0.0
 11
1769.598291471092
 21
4117.571064741897
 31
0.0
  0
LINE
  5
7D0D
330
818C
100
AcDbEntity
  8
1
100
AcDbLine
 10
1151.798291471092
 20
4217.571064741897
 30
0.0
 11
993.798291471092
 21
4217.571064741897
 31
0.0
  0
LINE
  5
7D0E
330
818C
100
AcDbEntity
  8
1
100
AcDbLine
 10
1151.798291471092
 20
4117.571064741897
 30
0.0
 11
993.798291471092
 21
4117.571064741897
 31
0.0
  0
LINE
  5
7D0F
330
818C
100
AcDbEntity
  8
1
100
AcDbLine
 10
2472.798291471092
 20
4372.571064741896
 30
0.0
 11
1360.798291471092
 21
4372.571064741896
 31
0.0
  0
LINE
  5
7D10
330
818C
100
AcDbEntity
  8
1
100
AcDbLine
 10
2472.798291471092
 20
5272.571064741897
 30
0.0
 11
1360.798291471092
 21
5272.571064741899
 31
0.0
  0
LINE
  5
7D11
330
818C
100
AcDbEntity
  8
1
100
AcDbLine
 10
2472.798291471092
 20
5312.571064741899
 30
0.0
 11
2472.798291471092
 21
4332.571064741896
 31
0.0
  0
LINE
  5
7D12
330
818C
100
AcDbEntity
  8
1
100
AcDbLine
 10
1360.798291471092
 20
5272.571064741899
 30
0.0
 11
1360.798291471092
 21
4372.571064741896
 31
0.0
  0
LINE
  5
7D13
330
818C
100
AcDbEntity
  8
1
100
AcDbLine
 10
2472.798291471092
 20
5312.571064741899
 30
0.0
 11
2469.798291471092
 21
5312.571064741899
 31
0.0
  0
LINE
  5
7D14
330
818C
100
AcDbEntity
  8
1
100
AcDbLine
 10
2472.798291471092
 20
4332.571064741896
 30
0.0
 11
2469.798291471092
 21
4332.571064741897
 31
0.0
  0
LINE
  5
7D15
330
818C
100
AcDbEntity
  8
1
100
AcDbLine
 10
2469.798291471092
 20
5312.571064741899
 30
0.0
 11
2469.798291471092
 21
4332.571064741896
 31
0.0
  0
LINE
  5
7D16
330
818C
100
AcDbEntity
  8
1
100
AcDbLine
 10
1997.798291471092
 20
4372.571064741896
 30
0.0
 11
1997.798291471092
 21
4217.571064741897
 31
0.0
  0
LINE
  5
7D17
330
818C
100
AcDbEntity
  8
1
100
AcDbLine
 10
1947.798291471092
 20
4372.571064741896
 30
0.0
 11
1947.798291471092
 21
4217.571064741897
 31
0.0
  0
LINE
  5
7D18
330
818C
100
AcDbEntity
  8
1
100
AcDbLine
 10
1234.798291471092
 20
4235.571064741897
 30
0.0
 11
1234.798291471092
 21
4720.571064741898
 31
0.0
  0
LINE
  5
7D19
330
818C
100
AcDbEntity
  8
1
100
AcDbLine
 10
910.798291471092
 20
4235.571064741897
 30
0.0
 11
910.798291471092
 21
4720.571064741898
 31
0.0
  0
LINE
  5
7D1A
330
818C
100
AcDbEntity
  8
1
100
AcDbLine
 10
1234.798291471092
 20
4720.571064741898
 30
0.0
 11
910.798291471092
 21
4720.571064741898
 31
0.0
  0
LINE
  5
7D1B
330
818C
100
AcDbEntity
  8
1
100
AcDbLine
 10
1234.798291471092
 20
4235.571064741897
 30
0.0
 11
910.798291471092
 21
4235.571064741897
 31
0.0
  0
LINE
  5
7D1C
330
818C
100
AcDbEntity
  8
1
100
AcDbLine
 10
1093.798291471091
 20
4235.571064741897
 30
0.0
 11
1093.798291471091
 21
4217.571064741897
 31
0.0
  0
LINE
  5
7D1D
330
818C
100
AcDbEntity
  8
1
100
AcDbLine
 10
1051.798291471092
 20
4235.571064741897
 30
0.0
 11
1051.798291471092
 21
4217.571064741897
 31
0.0
  0
LINE
  5
7D1E
330
818C
100
AcDbEntity
  8
1
100
AcDbLine
 10
3477.454511818543
 20
2352.416563417294
 30
0.0
 11
3613.454511818546
 21
2352.416563417294
 31
0.0
  0
LINE
  5
7D1F
330
818C
100
AcDbEntity
  8
1
100
AcDbLine
 10
3477.454511818543
 20
2028.416563417294
 30
0.0
 11
3613.454511818546
 21
2028.416563417294
 31
0.0
  0
LINE
  5
7D20
330
818C
100
AcDbEntity
  8
1
100
AcDbLine
 10
3477.454511818543
 20
2028.416563417294
 30
0.0
 11
3477.454511818543
 21
2352.416563417294
 31
0.0
  0
LINE
  5
7D21
330
818C
100
AcDbEntity
  8
1
100
AcDbLine
 10
3477.454511818543
 20
2169.416563417295
 30
0.0
 11
3459.454511818544
 21
2169.416563417295
 31
0.0
  0
LINE
  5
7D22
330
818C
100
AcDbEntity
  8
1
100
AcDbLine
 10
3477.454511818543
 20
2211.416563417294
 30
0.0
 11
3459.454511818544
 21
2211.416563417294
 31
0.0
  0
LINE
  5
7D23
330
818C
100
AcDbEntity
  8
1
100
AcDbLine
 10
3600.954511818545
 20
2352.416563417294
 30
0.0
 11
3613.454511818546
 21
2352.416563417294
 31
0.0
  0
LINE
  5
7D2A
330
818C
100
AcDbEntity
  8
1
100
AcDbLine
 10
4566.454511818547
 20
1840.416563417291
 30
0.0
 11
4566.454511818547
 21
1940.416563417291
 31
0.0
  0
LINE
  5
7D2B
330
818C
100
AcDbEntity
  8
1
100
AcDbLine
 10
2422.798291471092
 20
4372.571064741896
 30
0.0
 11
2422.798291471092
 21
4170.571064741897
 31
0.0
  0
DIMENSION
  5
7D2C
330
818C
100
AcDbEntity
  8
3
100
AcDbDimension
  2
*D17
 10
1972.798291471092
 20
3370.305010010292
 30
0.0
 11
2222.798291471092
 21
3420.305010010292
 31
0.0
 12
747.2261442553315
 22
2201.823085195892
 32
0.0
 71
     5
 42
-1.0
  3
Standard
100
AcDbAlignedDimension
 13
2472.798291471093
 23
2723.416563417291
 33
0.0
 14
1972.798291471092
 24
3278.012094178292
 34
0.0
100
AcDbRotatedDimension
1001
ACAD
1000
DSTYLE
1002
{
1070
    40
1040
25.0
1002
}
  0
LINE
  5
7D2E
330
818C
100
AcDbEntity
  8
1
100
AcDbLine
 10
3613.454511818546
 20
1951.416563417291
 30
0.0
 11
4513.454511818546
 21
1951.416563417291
 31
0.0
  0
LINE
  5
7D2F
330
818C
100
AcDbEntity
  8
1
100
AcDbLine
 10
3613.454511818547
 20
3216.416563417292
 30
0.0
 11
4513.454511818546
 21
3216.416563417292
 31
0.0
  0
LINE
  5
7D30
330
818C
100
AcDbEntity
  8
1
100
AcDbLine
 10
3613.454511818546
 20
2681.416563417291
 30
0.0
 11
4513.454511818546
 21
2681.416563417291
 31
0.0
  0
LINE
  5
7D31
330
818C
100
AcDbEntity
  8
1
100
AcDbLine
 10
3613.454511818547
 20
1951.416563417291
 30
0.0
 11
4513.454511818546
 21
2681.416563417291
 31
0.0
  0
LINE
  5
7D32
330
818C
100
AcDbEntity
  8
1
100
AcDbLine
 10
3613.454511818546
 20
2681.416563417291
 30
0.0
 11
4513.454511818546
 21
1951.416563417291
 31
0.0
  0
DIMENSION
  5
7D36
330
818C
100
AcDbEntity
  8
3
100
AcDbDimension
  2
*D21
 10
2939.258520611005
 20
1713.416563417291
 30
0.0
 11
2876.758520611005
 21
1499.130849131577
 31
0.0
 71
     5
 42
-1.0
  3
Standard
100
AcDbAlignedDimension
 13
2422.798291471092
 23
1813.416563417291
 33
0.0
 14
2422.798291471092
 24
1713.416563417291
 34
0.0
 50
90.0
100
AcDbRotatedDimension
1001
ACAD
1000
DSTYLE
1002
{
1070
   287
1070
     3
1070
   287
1070
     3
1070
    40
1040
25.0
1070
   143
1040
0.039
1070
   172
1070
     1
1070
   271
1070
     0
1070
   279
1070
     0
1070
   288
1070
     1
1070
     6
1000
DOT
1002
}
  0
LINE
  5
7F79
330
818C
100
AcDbEntity
  8
4
100
AcDbLine
 10
4625.0
 20
1250.0
 30
0.0
 11
4625.0
 21
750.0
 31
0.0
  0
LINE
  5
7F7A
330
818C
100
AcDbEntity
  8
4
100
AcDbLine
 10
2875.0
 20
1250.0
 30
0.0
 11
2875.0
 21
750.0
 31
0.0
  0
LINE
  5
7F7B
330
818C
100
AcDbEntity
  8
4
100
AcDbLine
 10
1625.0
 20
1250.0
 30
0.0
 11
1625.0
 21
750.0
 31
0.0
  0
LINE
  5
7F7E
330
818C
100
AcDbEntity
  8
4
100
AcDbLine
 10
1625.0
 20
750.0
 30
0.0
 11
4625.0
 21
750.0
 31
0.0
  0
LINE
  5
7F7F
330
818C
100
AcDbEntity
  8
4
100
AcDbLine
 10
1625.0
 20
1000.0
 30
0.0
 11
4625.0
 21
1000.0
 31
0.0
  0
TEXT
  5
7F80
330
818C
100
AcDbEntity
  8
4
100
AcDbText
 10
1721.255202117253
 20
1078.857564666532
 30
0.0
 40
125.0
  1
機器名称
100
AcDbText
  0
TEXT
  5
7F81
330
818C
100
AcDbEntity
  8
4
100
AcDbText
 10
1715.645265061993
 20
804.1128918300273
 30
0.0
 40
125.0
  1
機器型番
100
AcDbText
  0
TEXT
  5
7F82
330
818C
100
AcDbEntity
  8
4
100
AcDbText
 10
2944.196863719162
 20
1056.429422393921
 30
0.0
 40
125.0
  1
ミツヤ多翼送風機
100
AcDbText
  0
TEXT
  5
7F83
330
818C
100
AcDbEntity
  8
4
100
AcDbText
 10
2966.636238963701
 20
792.8989606998584
 30
0.0
 40
125.0
  1
MF#4 1/2-5
100
AcDbText
  0
TEXT
  5
7F85
330
818C
100
AcDbEntity
  8
4
100
AcDbText
 10
2024.344745688027
 20
5958.572103331289
 30
0.0
 40
135.0
  1
床置防振ベット
100
AcDbText
  0
TEXT
  5
7F86
330
818C
100
AcDbEntity
  8
4
100
AcDbText
 10
790.4189833236158
 20
6334.702440498245
 30
0.0
 40
180.0
  1
遠心式両吸込両持多翼ファン
100
AcDbText
  0
LINE
  5
7F87
330
818C
100
AcDbEntity
  8
4
100
AcDbLine
 10
625.0
 20
6173.521885662012
 30
0.0
 11
4625.0
 21
6173.521885662012
 31
0.0
  0
LINE
  5
7F88
330
818C
100
AcDbEntity
  8
4
100
AcDbLine
 10
625.0
 20
6673.521885662011
 30
0.0
 11
4625.0
 21
6673.521885662011
 31
0.0
  0
LINE
  5
7F89
330
818C
100
AcDbEntity
  8
4
100
AcDbLine
 10
1625.0
 20
1250.0
 30
0.0
 11
4625.0
 21
1250.0
 31
0.0
  0
LINE
  5
7F8A
330
818C
100
AcDbEntity
  8
4
100
AcDbLine
 10
625.0
 20
6673.521885662011
 30
0.0
 11
625.0
 21
6173.521885662012
 31
0.0
  0
TEXT
  5
7F8B
330
818C
100
AcDbEntity
  8
4
100
AcDbText
 10
934.697665081272
 20
5955.798693865858
 30
0.0
 40
135.0
  1
左回転右横向
100
AcDbText
  0
TEXT
  5
7F8C
330
818C
100
AcDbEntity
  8
4
100
AcDbText
 10
3672.423898123224
 20
6765.15270373827
 30
0.0
 40
140.0
  1
No.
100
AcDbText
  0
TEXT
  5
7F8D
330
818C
100
AcDbEntity
  8
4
100
AcDbText
 10
3278.240156500032
 20
5958.572103331289
 30
0.0
 40
135.0
  1
縮尺：1/25
100
AcDbText
  0
LINE
  5
7F8E
330
818C
100
AcDbEntity
  8
4
100
AcDbLine
 10
4625.0
 20
6673.521885662011
 30
0.0
 11
4625.0
 21
6173.521885662012
 31
0.0
  0
LINE
  5
7F8F
330
818C
100
AcDbEntity
  8
4
100
AcDbLine
 10
5250.0
 20
7375.0
 30
0.0
 11
5250.0
 21
7375.0
 31
0.0
  0
LINE
  5
7F90
330
818C
100
AcDbEntity
  8
4
100
AcDbLine
 10
3601.543555899662
 20
6703.158957813504
 30
0.0
 11
3601.543555899662
 21
6966.630653874381
 31
0.0
  0
LINE
  5
7F91
330
818C
100
AcDbEntity
  8
4
100
AcDbLine
 10
3601.543555899662
 20
6966.630653874381
 30
0.0
 11
4625.0
 21
6966.630653874381
 31
0.0
  0
LINE
  5
7F92
330
818C
100
AcDbEntity
  8
4
100
AcDbLine
 10
4625.0
 20
6966.630653874381
 30
0.0
 11
4625.0
 21
6703.158957813504
 31
0.0
  0
LINE
  5
7F93
330
818C
100
AcDbEntity
  8
4
100
AcDbLine
 10
4625.0
 20
6703.158957813504
 30
0.0
 11
3601.543555899662
 21
6703.158957813504
 31
0.0
  0
LINE
  5
7F94
330
818C
100
AcDbEntity
  8
4
100
AcDbLine
 10
0.0
 20
0.0
 30
0.0
 11
0.0
 21
7375.0
 31
0.0
  0
LINE
  5
7F95
330
818C
100
AcDbEntity
  8
4
100
AcDbLine
 10
0.0
 20
7375.0
 30
0.0
 11
5250.0
 21
7375.0
 31
0.0
  0
LINE
  5
7F96
330
818C
100
AcDbEntity
  8
4
100
AcDbLine
 10
5250.0
 20
7375.0
 30
0.0
 11
5250.0
 21
0.0
 31
0.0
  0
LINE
  5
7F97
330
818C
100
AcDbEntity
  8
4
100
AcDbLine
 10
5250.0
 20
0.0
 30
0.0
 11
0.0
 21
0.0
 31
0.0
  0
DIMENSION
  5
804C
330
818C
100
AcDbEntity
  8
3
100
AcDbDimension
  2
*D23
 10
1972.798291471092
 20
1550.63069887168
 30
0.0
 11
1397.798291471092
 21
1613.13069887168
 31
0.0
 71
     5
 42
-1.0
  3
Standard
100
AcDbAlignedDimension
 13
822.7982914710919
 23
1713.416563417291
 33
0.0
 14
1972.798291471092
 24
1713.416563417291
 34
0.0
100
AcDbRotatedDimension
1001
ACAD
1000
DSTYLE
1002
{
1070
   172
1070
     1
1070
    40
1040
25.0
1070
    42
1040
1.0
1070
   271
1070
     0
1070
   143
1040
0.039
1002
}
  0
DIMENSION
  5
8059
330
818C
100
AcDbEntity
  8
3
100
AcDbDimension
  2
*D24
 10
2422.798291471092
 20
1550.63069887168
 30
0.0
 11
2197.798291471092
 21
1613.13069887168
 31
0.0
 71
     5
 42
-1.0
  3
Standard
100
AcDbAlignedDimension
 13
1972.798291471092
 23
1713.416563417291
 33
0.0
 14
2422.798291471092
 24
1713.416563417291
 34
0.0
100
AcDbRotatedDimension
1001
ACAD
1000
DSTYLE
1002
{
1070
   172
1070
     1
1070
    40
1040
25.0
1070
    42
1040
1.0
1070
   271
1070
     0
1070
   143
1040
0.039
1002
}
  0
DIMENSION
  5
8066
330
818C
100
AcDbEntity
  8
3
100
AcDbDimension
  2
*D25
 10
4063.454511818547
 20
1550.63069887168
 30
0.0
 11
3737.454511818548
 21
1613.13069887168
 31
0.0
 71
     5
 42
-1.0
  3
Standard
100
AcDbAlignedDimension
 13
3411.454511818547
 23
1713.416563417291
 33
0.0
 14
4063.454511818547
 24
1713.416563417291
 34
0.0
100
AcDbRotatedDimension
1001
ACAD
1000
DSTYLE
1002
{
1070
   172
1070
     1
1070
    40
1040
25.0
1070
    42
1040
1.0
1070
   271
1070
     0
1070
   143
1040
0.039
1002
}
  0
DIMENSION
  5
8073
330
818C
100
AcDbEntity
  8
3
100
AcDbDimension
  2
*D26
 10
4566.454511818547
 20
1550.63069887168
 30
0.0
 11
4314.954511818547
 21
1613.13069887168
 31
0.0
 71
     5
 42
-1.0
  3
Standard
100
AcDbAlignedDimension
 13
4063.454511818547
 23
1713.416563417291
 33
0.0
 14
4566.454511818547
 24
1713.416563417291
 34
0.0
100
AcDbRotatedDimension
1001
ACAD
1000
DSTYLE
1002
{
1070
   172
1070
     1
1070
    40
1040
25.0
1070
    42
1040
1.0
1070
   271
1070
     0
1070
   143
1040
0.039
1002
}
  0
DIMENSION
  5
8082
330
818C
100
AcDbEntity
  8
3
100
AcDbDimension
  2
*D28
 10
2939.481620153208
 20
1840.416563417291
 30
0.0
 11
3059.124477296066
 21
1826.916563417291
 31
0.0
 71
     5
 42
-1.0
  3
Standard
100
AcDbAlignedDimension
 13
2422.798291471092
 23
1813.416563417291
 33
0.0
 14
2422.798291471092
 24
1840.416563417291
 34
0.0
 50
90.0
100
AcDbRotatedDimension
1001
ACAD
1000
DSTYLE
1002
{
1070
   172
1070
     1
1070
    76
1070
     1
1070
    75
1070
     1
1070
    40
1040
25.0
1070
     3
1000
(<>)
1070
    42
1040
1.0
1070
   271
1070
     0
1070
     7
1000
_NONE
1070
     6
1000
_NONE
1070
   143
1040
0.039
1002
}
  0
LINE
  5
822A
330
818C
100
AcDbEntity
  8
2
100
AcDbLine
 10
1972.798291471092
 20
3255.416563417291
 30
0.0
 11
1972.798291471092
 21
1880.365278960149
 31
0.0
  0
LINE
  5
822B
330
818C
100
AcDbEntity
  8
2
100
AcDbLine
 10
2595.064130276522
 20
2710.416563417291
 30
0.0
 11
1297.771813968487
 21
2710.416563417291
 31
0.0
  0
LINE
  5
822D
330
818C
100
AcDbEntity
  8
1
100
AcDbLine
 10
2469.798291471092
 20
1951.775073040471
 30
0.0
 11
1942.88905431515
 21
2014.742417061442
 31
0.0
  0
ARC
  5
822E
330
818C
100
AcDbEntity
  8
1
100
AcDbCircle
 10
2025.798291471094
 20
2657.416563417291
 30
0.0
 40
648.0
100
AcDbArc
 50
180.0
 51
262.6490639824706
  0
ARC
  5
822F
330
818C
100
AcDbEntity
  8
1
100
AcDbCircle
 10
1919.798291471094
 20
2657.416563417291
 30
0.0
 40
541.9999999999998
100
AcDbArc
 50
84.3883085669214
 51
180.0
  0
ARC
  5
8230
330
818C
100
AcDbEntity
  8
1
100
AcDbCircle
 10
1931.798291471094
 20
2751.416563417291
 30
0.0
 40
448.0
100
AcDbArc
 50
0.0
 51
84.74906568342367
  0
ARC
  5
8231
330
818C
100
AcDbEntity
  8
1
100
AcDbCircle
 10
2013.798291471094
 20
2751.416563417291
 30
0.0
 40
366.0
100
AcDbArc
 50
348.9738595187091
 51
0.0
  0
LINE
  5
8232
330
818C
100
AcDbEntity
  8
1
100
AcDbLine
 10
2472.798291471094
 20
2681.416563417291
 30
0.0
 11
2373.041941380177
 21
2681.416563417291
 31
0.0
  0
LINE
  5
8233
330
818C
100
AcDbEntity
  8
1
100
AcDbLine
 10
2472.798291471092
 20
1909.416563417291
 30
0.0
 11
2472.798291471094
 21
2723.416563417291
 31
0.0
  0
LINE
  5
8234
330
818C
100
AcDbEntity
  8
1
100
AcDbLine
 10
2472.798291471092
 20
1909.416563417291
 30
0.0
 11
2469.798291471092
 21
1909.416563417291
 31
0.0
  0
LINE
  5
8235
330
818C
100
AcDbEntity
  8
1
100
AcDbLine
 10
2472.798291471094
 20
2723.416563417291
 30
0.0
 11
2469.798291471092
 21
2723.416563417291
 31
0.0
  0
LINE
  5
8236
330
818C
100
AcDbEntity
  8
1
100
AcDbLine
 10
2432.798291471092
 20
1954.865794989895
 30
0.0
 11
2432.798291471092
 21
2681.416563417291
 31
0.0
  0
LINE
  5
8237
330
818C
100
AcDbEntity
  8
1
100
AcDbLine
 10
2469.798291471092
 20
1909.416563417291
 30
0.0
 11
2469.798291471092
 21
2723.416563417291
 31
0.0
  0
POINT
  5
8238
330
818C
100
AcDbEntity
  8
1
100
AcDbPoint
 10
2432.980863935544
 20
2710.416563417291
 30
0.0
 50
180.0
  0
LINE
  5
8239
330
818C
100
AcDbEntity
  8
1
100
AcDbLine
 10
2476.280097103585
 20
2710.416563417291
 30
0.0
 11
2491.953402519901
 21
2710.416563417291
 31
0.0
  0
CIRCLE
  5
823A
330
818C
100
AcDbEntity
  8
1
100
AcDbCircle
 10
1972.798291471092
 20
2710.416563417291
 30
0.0
 40
375.0
  0
CIRCLE
  5
823B
330
818C
100
AcDbEntity
  8
1
100
AcDbCircle
 10
1972.798291471092
 20
2710.416563417291
 30
0.0
 40
415.0
  0
DIMENSION
  5
823C
330
818C
100
AcDbEntity
  8
3
100
AcDbDimension
  2
*D31
 10
4063.454511818547
 20
3559.552841774265
 30
0.0
 11
3643.454511818549
 21
3641.695698917122
 31
0.0
 70
    32
 71
     5
 42
839.9999999999959
  3
IGA
100
AcDbAlignedDimension
 13
3223.454511818551
 23
2990.416563417292
 33
0.0
 14
4063.454511818547
 24
3490.863348091056
 34
0.0
100
AcDbRotatedDimension
1001
ACAD
1000
DSTYLE
1002
{
1070
     3
1000
(<>)
1070
    40
1040
25.0
1070
    42
1040
1.0
1070
   143
1040
0.039
1070
   172
1070
     1
1070
   271
1070
     4
1070
   272
1070
     4
1070
   279
1070
     0
1070
   284
1070
     0
1070
   285
1070
     0
1070
   286
1070
     0
1070
   341
1005
81A0
1070
   343
1005
81A0
1070
   344
1005
81A0
1002
}
  0
DIMENSION
  5
8249
330
818C
100
AcDbEntity
  8
3
100
AcDbDimension
  2
*D32
 10
4623.454511818548
 20
3559.552841774265
 30
0.0
 11
4343.454511818547
 21
3641.695698917122
 31
0.0
 70
    32
 71
     5
 42
560.0000000000009
  3
IGA
100
AcDbAlignedDimension
 13
4063.454511818547
 23
3490.863348091056
 33
0.0
 14
4623.454511818548
 24
2685.216563417291
 34
0.0
100
AcDbRotatedDimension
1001
ACAD
1000
DSTYLE
1002
{
1070
     3
1000
(<>)
1070
    40
1040
25.0
1070
    42
1040
1.0
1070
   143
1040
0.039
1070
   172
1070
     1
1070
   271
1070
     4
1070
   272
1070
     4
1070
   279
1070
     1
1070
   284
1070
     0
1070
   285
1070
     0
1070
   286
1070
     0
1070
   341
1005
81A0
1070
   343
1005
81A0
1070
   344
1005
81A0
1002
}
  0
DIMENSION
  5
827D
330
818C
100
AcDbEntity
  8
3
100
AcDbDimension
  2
*D33
 10
2422.798291471092
 20
3813.212755510238
 30
0.0
 11
1622.798291471092
 21
3875.712755510238
 31
0.0
 70
    32
 71
     5
 42
1600.0
  3
IGA
100
AcDbAlignedDimension
 13
822.7982914710919
 23
4170.571064741897
 33
0.0
 14
2422.798291471092
 24
4170.571064741897
 34
0.0
100
AcDbRotatedDimension
1001
ACAD
1000
DSTYLE
1002
{
1070
    40
1040
25.0
1070
    42
1040
1.0
1070
   143
1040
0.039
1070
   172
1070
     1
1070
   271
1070
     4
1070
   272
1070
     4
1070
   279
1070
     0
1070
   284
1070
     0
1070
   285
1070
     0
1070
   286
1070
     0
1070
   341
1005
81A0
1070
   343
1005
81A0
1070
   344
1005
81A0
1002
}
  0
DIMENSION
  5
828A
330
818C
100
AcDbEntity
  8
3
100
AcDbDimension
  2
*D34
 10
1377.798291471094
 20
3370.305010010291
 30
0.0
 11
1675.298291471093
 21
3432.805010010291
 31
0.0
 70
    32
 71
     5
 42
594.9999999999979
  3
IGA
100
AcDbAlignedDimension
 13
1972.798291471092
 23
3255.416563417291
 33
0.0
 14
1377.798291471094
 24
2657.416563417291
 34
0.0
100
AcDbRotatedDimension
1001
ACAD
1000
DSTYLE
1002
{
1070
    40
1040
25.0
1070
    42
1040
1.0
1070
   143
1040
0.039
1070
   172
1070
     1
1070
   271
1070
     4
1070
   272
1070
     4
1070
   279
1070
     0
1070
   284
1070
     0
1070
   285
1070
     0
1070
   286
1070
     0
1070
   341
1005
81A0
1070
   343
1005
81A0
1070
   344
1005
81A0
1002
}
  0
DIMENSION
  5
82A0
330
818C
100
AcDbEntity
  8
3
100
AcDbDimension
  2
*D35
 10
2939.258520611005
 20
3199.416563417292
 30
0.0
 11
2876.758520611005
 21
2954.916563417292
 31
0.0
 70
    32
 71
     5
 42
489.0000000000005
  3
IGA
100
AcDbAlignedDimension
 13
2595.064130276521
 23
2710.416563417291
 33
0.0
 14
1919.798291471094
 24
3199.416563417292
 34
0.0
 50
90.0
100
AcDbRotatedDimension
1001
ACAD
1000
DSTYLE
1002
{
1070
    40
1040
25.0
1070
    42
1040
1.0
1070
   143
1040
0.039
1070
   172
1070
     1
1070
   271
1070
     4
1070
   272
1070
     4
1070
   279
1070
     0
1070
   284
1070
     0
1070
   285
1070
     0
1070
   286
1070
     0
1070
   341
1005
81A0
1070
   343
1005
81A0
1070
   344
1005
81A0
1002
}
  0
DIMENSION
  5
82B6
330
818C
100
AcDbEntity
  8
3
100
AcDbDimension
  2
*D36
 10
2939.481620153208
 20
1840.41656341729
 30
0.0
 11
2876.981620153208
 21
2275.416563417291
 31
0.0
 70
    32
 71
     5
 42
870.0000000000002
  3
IGA
100
AcDbAlignedDimension
 13
2595.064130276522
 23
2710.416563417291
 33
0.0
 14
2422.798291471092
 24
1840.416563417291
 34
0.0
 50
90.0
100
AcDbRotatedDimension
1001
ACAD
1000
DSTYLE
1002
{
1070
    40
1040
25.0
1070
    42
1040
1.0
1070
   143
1040
0.039
1070
   172
1070
     1
1070
   271
1070
     4
1070
   272
1070
     4
1070
   279
1070
     0
1070
   284
1070
     0
1070
   285
1070
     0
1070
   286
1070
     0
1070
   341
1005
81A0
1070
   343
1005
81A0
1070
   344
1005
81A0
1002
}
  0
DIMENSION
  5
82D5
330
818C
100
AcDbEntity
  8
3
100
AcDbDimension
  2
*D37
 10
3165.610897119871
 20
3199.416563417291
 30
0.0
 11
3083.468039977013
 21
2456.416563417292
 31
0.0
 70
    32
  1
(<>)
 71
     5
 42
1486.0
  3
IGA
100
AcDbAlignedDimension
 13
2422.798291471092
 23
1713.416563417291
 33
0.0
 14
1919.798291471094
 24
3199.416563417292
 34
0.0
 50
90.0
100
AcDbRotatedDimension
1001
ACAD
1000
DSTYLE
1002
{
1070
    40
1040
25.0
1070
    42
1040
1.0
1070
   143
1040
0.039
1070
   172
1070
     1
1070
   271
1070
     4
1070
   272
1070
     4
1070
   279
1070
     0
1070
   284
1070
     0
1070
   285
1070
     0
1070
   286
1070
     0
1070
   341
1005
81A0
1070
   343
1005
81A0
1070
   344
1005
81A0
1002
}
  0
ENDSEC
  0
SECTION
  2
OBJECTS
  0
DICTIONARY
  5
8129
330
0
100
AcDbDictionary
281
     1
  3
ACAD_CIP_PREVIOUS_PRODUCT_INFO
350
81D8
  3
ACAD_COLOR
350
817F
  3
ACAD_DETAILVIEWSTYLE
350
8186
  3
ACAD_GROUP
350
812A
  3
ACAD_LAYOUT
350
817E
  3
ACAD_MATERIAL
350
812D
  3
ACAD_MLEADERSTYLE
350
8182
  3
ACAD_MLINESTYLE
350
817B
  3
ACAD_PLOTSETTINGS
350
817D
  3
ACAD_PLOTSTYLENAME
350
812B
  3
ACAD_SCALELIST
350
815F
  3
ACAD_SECTIONVIEWSTYLE
350
8184
  3
ACAD_TABLESTYLE
350
8180
  3
ACAD_VISUALSTYLE
350
8146
  3
ACDB_RECOMPOSE_DATA
350
834E
  3
AcDbVariableDictionary
350
8301
  3
DWGPROPS
350
834F
  0
DICTIONARY
  5
81DA
330
811F
100
AcDbDictionary
280
     1
281
     1
  3
ACAD_LAYERSTATES
360
81DB
  0
DICTIONARY
  5
82F7
330
8171
100
AcDbDictionary
280
     1
281
     1
  3
ADSK_XREC_LAYER_RECONCILED
360
82F8
  0
DICTIONARY
  5
82F9
330
8190
100
AcDbDictionary
280
     1
281
     1
  3
ADSK_XREC_LAYER_RECONCILED
360
82FA
  0
DICTIONARY
  5
82FB
330
8193
100
AcDbDictionary
280
     1
281
     1
  3
ADSK_XREC_LAYER_RECONCILED
360
82FC
  0
DICTIONARY
  5
82FD
330
8194
100
AcDbDictionary
280
     1
281
     1
  3
ADSK_XREC_LAYER_RECONCILED
360
82FE
  0
DICTIONARY
  5
82FF
330
8195
100
AcDbDictionary
280
     1
281
     1
  3
ADSK_XREC_LAYER_RECONCILED
360
8300
  0
XRECORD
  5
81D8
102
{ACAD_REACTORS
330
8129
102
}
330
8129
100
AcDbXrecord
280
     1
300
ACDLT
300
2015
300
INVLTS_F_S
  0
DICTIONARY
  5
817F
102
{ACAD_REACTORS
330
8129
102
}
330
8129
100
AcDbDictionary
281
     1
  0
DICTIONARY
  5
8186
102
{ACAD_REACTORS
330
8129
102
}
330
8129
100
AcDbDictionary
281
     1
  3
Imperial24
350
8187
  0
DICTIONARY
  5
812A
102
{ACAD_REACTORS
330
8129
102
}
330
8129
100
AcDbDictionary
281
     1
  0
DICTIONARY
  5
817E
102
{ACAD_REACTORS
330
8129
102
}
330
8129
100
AcDbDictionary
281
     1
  3
Model
350
818F
  3
レイアウト1
350
818B
  0
DICTIONARY
  5
812D
102
{ACAD_REACTORS
330
8129
102
}
330
8129
100
AcDbDictionary
281
     1
  3
ByBlock
350
8136
  3
ByLayer
350
812E
  3
Global
350
813E
  0
DICTIONARY
  5
8182
102
{ACAD_REACTORS
330
8129
102
}
330
8129
100
AcDbDictionary
281
     1
  3
Standard
350
8183
  0
DICTIONARY
  5
817B
102
{ACAD_REACTORS
330
8129
102
}
330
8129
100
AcDbDictionary
281
     1
  3
Standard
350
817C
  0
DICTIONARY
  5
817D
102
{ACAD_REACTORS
330
8129
102
}
330
8129
100
AcDbDictionary
281
     1
  0
ACDBDICTIONARYWDFLT
  5
812B
102
{ACAD_REACTORS
330
8129
102
}
330
8129
100
AcDbDictionary
281
     1
  3
Normal
350
812C
100
AcDbDictionaryWithDefault
340
812C
  0
DICTIONARY
  5
815F
102
{ACAD_REACTORS
330
8129
102
}
330
8129
100
AcDbDictionary
281
     1
  3
A0
350
8160
  3
A1
350
8161
  3
A2
350
8162
  3
A3
350
8163
  3
A4
350
8164
  3
A5
350
8165
  3
A6
350
8166
  3
A7
350
8167
  3
A8
350
8168
  3
A9
350
8169
  3
B0
350
816A
  3
B1
350
816B
  3
B2
350
816C
  3
B3
350
816D
  3
B4
350
816E
  3
B5
350
816F
  3
B6
350
8170
  0
DICTIONARY
  5
8184
102
{ACAD_REACTORS
330
8129
102
}
330
8129
100
AcDbDictionary
281
     1
  3
Imperial24
350
8185
  0
DICTIONARY
  5
8180
102
{ACAD_REACTORS
330
8129
102
}
330
8129
100
AcDbDictionary
281
     1
  3
Standard
350
8181
  0
DICTIONARY
  5
8146
102
{ACAD_REACTORS
330
8129
102
}
330
8129
100
AcDbDictionary
281
     1
  3
2dWireframe
350
814C
  3
Basic
350
814B
  3
Brighten
350
8152
  3
ColorChange
350
8156
  3
Conceptual
350
814F
  3
Dim
350
8151
  3
EdgeColorOff
350
815E
  3
Facepattern
350
8155
  3
Flat
350
8147
  3
FlatWithEdges
350
8148
  3
Gouraud
350
8149
  3
GouraudWithEdges
350
814A
  3
Hidden
350
814E
  3
JitterOff
350
815C
  3
Linepattern
350
8154
  3
OverhangOff
350
815D
  3
Realistic
350
8150
  3
Shaded
350
815B
  3
Shaded with edges
350
815A
  3
Shades of Gray
350
8157
  3
Sketchy
350
8158
  3
Thicken
350
8153
  3
Wireframe
350
814D
  3
X-Ray
350
8159
  0
XRECORD
  5
834E
102
{ACAD_REACTORS
330
8129
102
}
330
8129
100
AcDbXrecord
280
     1
 90
        1
330
8181
  0
DICTIONARY
  5
8301
102
{ACAD_REACTORS
330
8129
102
}
330
8129
100
AcDbDictionary
281
     1
  3
CANNOSCALE
350
8306
  3
CMLEADERSTYLE
350
8303
  3
CTABLESTYLE
350
8302
  3
CVIEWDETAILSTYLE
350
8304
  3
CVIEWSECTIONSTYLE
350
8305
  3
DIMASSOC
350
8309
  3
INDEXCTL
350
8308
  3
SORTENTS
350
8307
  3
XCLIPFRAME
350
830A
  0
XRECORD
  5
834F
102
{ACAD_REACTORS
330
8129
102
}
330
8129
100
AcDbXrecord
280
     1
  1
DWGPROPS COOKIE
  2

  3

  4

  6

  7

  8
yasukiyo.ogawa
  9

300
=
301
=
302
=
303
=
304
=
305
=
306
=
307
=
308
=
309
=
 40
0.0588516203703704
 41
2451387.620289931
 42
2460263.704951169
  1

 90
        0
  0
DICTIONARY
  5
81DB
102
{ACAD_REACTORS
330
81DA
102
}
330
81DA
100
AcDbDictionary
281
     1
  0
XRECORD
  5
82F8
102
{ACAD_REACTORS
330
82F7
102
}
330
82F7
100
AcDbXrecord
280
     1
290
     1
  0
XRECORD
  5
82FA
102
{ACAD_REACTORS
330
82F9
102
}
330
82F9
100
AcDbXrecord
280
     1
290
     1
  0
XRECORD
  5
82FC
102
{ACAD_REACTORS
330
82FB
102
}
330
82FB
100
AcDbXrecord
280
     1
290
     1
  0
XRECORD
  5
82FE
102
{ACAD_REACTORS
330
82FD
102
}
330
82FD
100
AcDbXrecord
280
     1
290
     1
  0
XRECORD
  5
8300
102
{ACAD_REACTORS
330
82FF
102
}
330
82FF
100
AcDbXrecord
280
     1
290
     1
  0
ACDBDETAILVIEWSTYLE
  5
8187
102
{ACAD_XDICTIONARY
360
8387
102
}
102
{ACAD_REACTORS
330
8186
102
}
330
8186
100
AcDbModelDocViewStyle
 70
     0
  3
Imperial24
290
     0
100
AcDbDetailViewStyle
 70
     0
 71
     0
 90
        3
 71
     1
340
8172
 40
0.24
340
0
 40
0.24
300

 40
0.36
280
     3
 71
     2
340
8179
 90
       25
 71
     3
340
8172
 40
0.24
 90
        1
 40
0.75
 90
        1
300
%<\AcVar ViewType \f "%tc1">% %<\AcVar ViewDetailId>%\PSCALE %<\AcVar ViewScale \f "%sn">%
 71
     4
340
8179
 90
       25
340
8179
 90
       25
280
     0
  0
LAYOUT
  5
818F
102
{ACAD_XDICTIONARY
360
838B
102
}
102
{ACAD_REACTORS
330
817E
102
}
330
817E
100
AcDbPlotSettings
  1

  2
RICOH imagio MP W3600 RPCS
  4

  6

 40
0.0
 41
0.0
 42
0.0
 43
0.0
 44
0.0
 45
0.0
 46
0.0
 47
0.0
 48
0.0
 49
0.0
140
0.0
141
0.0
142
1.0
143
1.0
 70
  1712
 72
     0
 73
     0
 74
     0
  7

 75
     0
147
1.0
148
0.0
149
0.0
100
AcDbLayout
  1
Model
 70
     1
 71
     0
 10
0.0
 20
0.0
 11
12.0
 21
9.0
 12
0.0
 22
0.0
 32
0.0
 14
0.0
 24
0.0
 34
0.0
 15
0.0
 25
0.0
 35
0.0
146
0.0
 13
0.0
 23
0.0
 33
0.0
 16
1.0
 26
0.0
 36
0.0
 17
0.0
 27
1.0
 37
0.0
 76
     0
330
818C
331
8191
  0
LAYOUT
  5
818B
102
{ACAD_XDICTIONARY
360
8389
102
}
102
{ACAD_REACTORS
330
817E
102
}
330
817E
100
AcDbPlotSettings
  1

  2
RICOH imagio MP W3600 RPCS
  4

  6

 40
0.0
 41
0.0
 42
0.0
 43
0.0
 44
0.0
 45
0.0
 46
0.0
 47
0.0
 48
0.0
 49
0.0
140
0.0
141
0.0
142
1.0
143
1.0
 70
   688
 72
     0
 73
     0
 74
     5
  7

 75
    16
147
1.0
148
0.0
149
0.0
100
AcDbLayout
  1
レイアウト1
 70
     1
 71
     1
 10
0.0
 20
0.0
 11
12.0
 21
9.0
 12
0.0
 22
0.0
 32
0.0
 14
1.000000000000000E+20
 24
1.000000000000000E+20
 34
1.000000000000000E+20
 15
-1.000000000000000E+20
 25
-1.000000000000000E+20
 35
-1.000000000000000E+20
146
0.0
 13
0.0
 23
0.0
 33
0.0
 16
1.0
 26
0.0
 36
0.0
 17
0.0
 27
1.0
 37
0.0
 76
     0
330
8188
  0
MATERIAL
  5
8136
102
{ACAD_XDICTIONARY
360
8137
102
}
102
{ACAD_REACTORS
330
812D
102
}
330
812D
100
AcDbMaterial
  1
ByBlock
 72
     0
 43
0.0208333333333333
 43
0.0
 43
0.0
 43
0.0
 43
0.0
 43
0.0208333333333333
 43
0.0
 43
0.0
 43
0.0
 43
0.0
 43
1.0
 43
0.0
 43
0.0
 43
0.0
 43
0.0
 43
1.0
 77
     0
 47
0.0208333333333333
 47
0.0
 47
0.0
 47
0.0
 47
0.0
 47
0.0208333333333333
 47
0.0
 47
0.0
 47
0.0
 47
0.0
 47
1.0
 47
0.0
 47
0.0
 47
0.0
 47
0.0
 47
1.0
171
     0
 49
0.0208333333333333
 49
0.0
 49
0.0
 49
0.0
 49
0.0
 49
0.0208333333333333
 49
0.0
 49
0.0
 49
0.0
 49
0.0
 49
1.0
 49
0.0
 49
0.0
 49
0.0
 49
0.0
 49
1.0
175
     0
142
0.0208333333333333
142
0.0
142
0.0
142
0.0
142
0.0
142
0.0208333333333333
142
0.0
142
0.0
142
0.0
142
0.0
142
1.0
142
0.0
142
0.0
142
0.0
142
0.0
142
1.0
179
     0
144
0.0208333333333333
144
0.0
144
0.0
144
0.0
144
0.0
144
0.0208333333333333
144
0.0
144
0.0
144
0.0
144
0.0
144
1.0
144
0.0
144
0.0
144
0.0
144
0.0
144
1.0
147
0.0208333333333333
147
0.0
147
0.0
147
0.0
147
0.0
147
0.0208333333333333
147
0.0
147
0.0
147
0.0
147
0.0
147
1.0
147
0.0
147
0.0
147
0.0
147
0.0
147
1.0
  0
MATERIAL
  5
812E
102
{ACAD_XDICTIONARY
360
812F
102
}
102
{ACAD_REACTORS
330
812D
102
}
330
812D
100
AcDbMaterial
  1
ByLayer
 72
     0
 43
0.0208333333333333
 43
0.0
 43
0.0
 43
0.0
 43
0.0
 43
0.0208333333333333
 43
0.0
 43
0.0
 43
0.0
 43
0.0
 43
1.0
 43
0.0
 43
0.0
 43
0.0
 43
0.0
 43
1.0
 77
     0
 47
0.0208333333333333
 47
0.0
 47
0.0
 47
0.0
 47
0.0
 47
0.0208333333333333
 47
0.0
 47
0.0
 47
0.0
 47
0.0
 47
1.0
 47
0.0
 47
0.0
 47
0.0
 47
0.0
 47
1.0
171
     0
 49
0.0208333333333333
 49
0.0
 49
0.0
 49
0.0
 49
0.0
 49
0.0208333333333333
 49
0.0
 49
0.0
 49
0.0
 49
0.0
 49
1.0
 49
0.0
 49
0.0
 49
0.0
 49
0.0
 49
1.0
175
     0
142
0.0208333333333333
142
0.0
142
0.0
142
0.0
142
0.0
142
0.0208333333333333
142
0.0
142
0.0
142
0.0
142
0.0
142
1.0
142
0.0
142
0.0
142
0.0
142
0.0
142
1.0
179
     0
144
0.0208333333333333
144
0.0
144
0.0
144
0.0
144
0.0
144
0.0208333333333333
144
0.0
144
0.0
144
0.0
144
0.0
144
1.0
144
0.0
144
0.0
144
0.0
144
0.0
144
1.0
147
0.0208333333333333
147
0.0
147
0.0
147
0.0
147
0.0
147
0.0208333333333333
147
0.0
147
0.0
147
0.0
147
0.0
147
1.0
147
0.0
147
0.0
147
0.0
147
0.0
147
1.0
  0
MATERIAL
  5
813E
102
{ACAD_XDICTIONARY
360
813F
102
}
102
{ACAD_REACTORS
330
812D
102
}
330
812D
100
AcDbMaterial
  1
Global
 72
     0
 43
0.0208333333333333
 43
0.0
 43
0.0
 43
0.0
 43
0.0
 43
0.0208333333333333
 43
0.0
 43
0.0
 43
0.0
 43
0.0
 43
1.0
 43
0.0
 43
0.0
 43
0.0
 43
0.0
 43
1.0
 77
     0
 47
0.0208333333333333
 47
0.0
 47
0.0
 47
0.0
 47
0.0
 47
0.0208333333333333
 47
0.0
 47
0.0
 47
0.0
 47
0.0
 47
1.0
 47
0.0
 47
0.0
 47
0.0
 47
0.0
 47
1.0
171
     0
 49
0.0208333333333333
 49
0.0
 49
0.0
 49
0.0
 49
0.0
 49
0.0208333333333333
 49
0.0
 49
0.0
 49
0.0
 49
0.0
 49
1.0
 49
0.0
 49
0.0
 49
0.0
 49
0.0
 49
1.0
175
     0
142
0.0208333333333333
142
0.0
142
0.0
142
0.0
142
0.0
142
0.0208333333333333
142
0.0
142
0.0
142
0.0
142
0.0
142
1.0
142
0.0
142
0.0
142
0.0
142
0.0
142
1.0
179
     0
144
0.0208333333333333
144
0.0
144
0.0
144
0.0
144
0.0
144
0.0208333333333333
144
0.0
144
0.0
144
0.0
144
0.0
144
1.0
144
0.0
144
0.0
144
0.0
144
0.0
144
1.0
147
0.0208333333333333
147
0.0
147
0.0
147
0.0
147
0.0
147
0.0208333333333333
147
0.0
147
0.0
147
0.0
147
0.0
147
1.0
147
0.0
147
0.0
147
0.0
147
0.0
147
1.0
  0
MLEADERSTYLE
  5
8183
102
{ACAD_REACTORS
330
8182
102
}
330
8182
100
AcDbMLeaderStyle
170
     2
171
     1
172
     0
 90
        2
 40
0.0
 41
0.0
173
     1
 91
-1056964608
340
8177
 92
       -2
290
     1
 42
0.09
291
     1
 43
0.36
  3
Standard
 44
0.18
300

342
8172
174
     1
178
     6
175
     1
176
     0
 93
-1056964608
 45
0.18
292
     0
297
     0
 46
0.18
 94
-1056964608
 47
1.0
 49
1.0
140
1.0
293
     1
141
0.0
294
     1
177
     0
142
1.0
295
     0
296
     0
143
0.125
1001
ACAD_MLEADERVER
1070
     2
  0
MLINESTYLE
  5
817C
102
{ACAD_REACTORS
330
817B
102
}
330
817B
100
AcDbMlineStyle
  2
STANDARD
 70
     0
  3

 62
   256
 51
90.0
 52
90.0
 71
     2
 49
0.5
 62
   256
  6
BYLAYER
 49
-0.5
 62
   256
  6
BYLAYER
  0
ACDBPLACEHOLDER
  5
812C
102
{ACAD_REACTORS
330
812B
102
}
330
812B
  0
SCALE
  5
8160
102
{ACAD_REACTORS
330
815F
102
}
330
815F
100
AcDbScale
 70
     0
300
1:1
140
1.0
141
1.0
290
     1
  0
SCALE
  5
8161
102
{ACAD_REACTORS
330
815F
102
}
330
815F
100
AcDbScale
 70
     0
300
1/128" = 1'-0"
140
0.0078125
141
12.0
290
     0
  0
SCALE
  5
8162
102
{ACAD_REACTORS
330
815F
102
}
330
815F
100
AcDbScale
 70
     0
300
1/64" = 1'-0"
140
0.015625
141
12.0
290
     0
  0
SCALE
  5
8163
102
{ACAD_REACTORS
330
815F
102
}
330
815F
100
AcDbScale
 70
     0
300
1/32" = 1'-0"
140
0.03125
141
12.0
290
     0
  0
SCALE
  5
8164
102
{ACAD_REACTORS
330
815F
102
}
330
815F
100
AcDbScale
 70
     0
300
1/16" = 1'-0"
140
0.0625
141
12.0
290
     0
  0
SCALE
  5
8165
102
{ACAD_REACTORS
330
815F
102
}
330
815F
100
AcDbScale
 70
     0
300
3/32" = 1'-0"
140
0.09375
141
12.0
290
     0
  0
SCALE
  5
8166
102
{ACAD_REACTORS
330
815F
102
}
330
815F
100
AcDbScale
 70
     0
300
1/8" = 1'-0"
140
0.125
141
12.0
290
     0
  0
SCALE
  5
8167
102
{ACAD_REACTORS
330
815F
102
}
330
815F
100
AcDbScale
 70
     0
300
3/16" = 1'-0"
140
0.1875
141
12.0
290
     0
  0
SCALE
  5
8168
102
{ACAD_REACTORS
330
815F
102
}
330
815F
100
AcDbScale
 70
     0
300
1/4" = 1'-0"
140
0.25
141
12.0
290
     0
  0
SCALE
  5
8169
102
{ACAD_REACTORS
330
815F
102
}
330
815F
100
AcDbScale
 70
     0
300
3/8" = 1'-0"
140
0.375
141
12.0
290
     0
  0
SCALE
  5
816A
102
{ACAD_REACTORS
330
815F
102
}
330
815F
100
AcDbScale
 70
     0
300
1/2" = 1'-0"
140
0.5
141
12.0
290
     0
  0
SCALE
  5
816B
102
{ACAD_REACTORS
330
815F
102
}
330
815F
100
AcDbScale
 70
     0
300
3/4" = 1'-0"
140
0.75
141
12.0
290
     0
  0
SCALE
  5
816C
102
{ACAD_REACTORS
330
815F
102
}
330
815F
100
AcDbScale
 70
     0
300
1" = 1'-0"
140
1.0
141
12.0
290
     0
  0
SCALE
  5
816D
102
{ACAD_REACTORS
330
815F
102
}
330
815F
100
AcDbScale
 70
     0
300
1-1/2" = 1'-0"
140
1.5
141
12.0
290
     0
  0
SCALE
  5
816E
102
{ACAD_REACTORS
330
815F
102
}
330
815F
100
AcDbScale
 70
     0
300
3" = 1'-0"
140
3.0
141
12.0
290
     0
  0
SCALE
  5
816F
102
{ACAD_REACTORS
330
815F
102
}
330
815F
100
AcDbScale
 70
     0
300
6" = 1'-0"
140
6.0
141
12.0
290
     0
  0
SCALE
  5
8170
102
{ACAD_REACTORS
330
815F
102
}
330
815F
100
AcDbScale
 70
     0
300
1'-0" = 1'-0"
140
12.0
141
12.0
290
     0
  0
ACDBSECTIONVIEWSTYLE
  5
8185
102
{ACAD_XDICTIONARY
360
8385
102
}
102
{ACAD_REACTORS
330
8184
102
}
330
8184
100
AcDbModelDocViewStyle
 70
     0
  3
Imperial24
290
     0
100
AcDbSectionViewStyle
 70
     0
 71
     0
 90
       78
 71
     1
340
8172
 40
0.24
340
0
340
0
 40
0.24
300
I, O, Q, S, X, Z
 40
0.48
 90
        3
 40
0.18
 90
        1
 71
     2
340
8179
 90
       25
340
8179
 90
       50
 40
0.24
 40
0.0
 40
0.24
 71
     3
340
8172
 40
0.24
 90
        1
 40
0.75
 90
        1
300
%<\AcVar ViewType \f "%tc1">% %<\AcVar ViewSectionStartId>%-%<\AcVar ViewSectionEndId>%\PSCALE %<\AcVar ViewScale \f "%sn">%
 71
     4
300
ANSI31
 40
1.0
 90
        0
290
     0
290
     0
 90
        6
 40
0.0
 40
1.570796326794896
 40
0.2617993877991494
 40
1.308996938995747
 40
-0.2617993877991494
 40
1.832595714594046
  0
TABLESTYLE
  5
8181
102
{ACAD_XDICTIONARY
360
834C
102
}
102
{ACAD_REACTORS
330
8180
102
}
330
8180
100
AcDbTableStyle
  3
Standard
 70
     0
 71
     0
 40
0.06
 41
0.06
280
     0
281
     0
  7
STANDARD
140
0.18
170
     2
 62
     0
 63
     7
283
     0
274
    -2
284
     1
 64
     0
275
    -2
285
     1
 65
     0
276
    -2
286
     1
 66
     0
277
    -2
287
     1
 67
     0
278
    -2
288
     1
 68
     0
279
    -2
289
     1
 69
     0
  7
STANDARD
140
0.25
170
     5
 62
     0
 63
     7
283
     0
274
    -2
284
     1
 64
     0
275
    -2
285
     1
 65
     0
276
    -2
286
     1
 66
     0
277
    -2
287
     1
 67
     0
278
    -2
288
     1
 68
     0
279
    -2
289
     1
 69
     0
  7
STANDARD
140
0.18
170
     5
 62
     0
 63
     7
283
     0
274
    -2
284
     1
 64
     0
275
    -2
285
     1
 65
     0
276
    -2
286
     1
 66
     0
277
    -2
287
     1
 67
     0
278
    -2
288
     1
 68
     0
279
    -2
289
     1
 69
     0
  0
VISUALSTYLE
  5
814C
102
{ACAD_XDICTIONARY
360
835D
102
}
102
{ACAD_REACTORS
330
8146
102
}
330
8146
100
AcDbVisualStyle
  2
2dWireframe
 70
     4
 71
     0
 72
     2
 73
     0
 90
        0
 40
-0.6
 41
-30.0
 62
     5
 63
     7
 74
     1
 91
        4
 64
     7
 65
   257
 75
     1
175
     1
 42
1.0
 92
        0
 66
   257
 43
1.0
 76
     1
 77
     6
 78
     2
 67
     7
 79
     5
170
     0
171
     0
290
     0
174
     0
 93
        1
 44
0.0
173
     0
291
     0
 45
0.0
1001
ACAD
1000
AcDbSavedByObjectVersion
1070
     0
  0
VISUALSTYLE
  5
814B
102
{ACAD_XDICTIONARY
360
835B
102
}
102
{ACAD_REACTORS
330
8146
102
}
330
8146
100
AcDbVisualStyle
  2
Basic
 70
     7
 71
     1
 72
     0
 73
     1
 90
        0
 40
-0.6
 41
-30.0
 62
     5
 63
     7
 74
     0
 91
        4
 64
     7
 65
   257
 75
     1
175
     1
 42
1.0
 92
        8
 66
     7
 43
1.0
 76
     1
 77
     6
 78
     2
 67
     7
 79
     5
170
     0
171
     0
290
     0
174
     0
 93
        1
 44
0.0
173
     0
291
     1
 45
0.0
1001
ACAD
1000
AcDbSavedByObjectVersion
1070
     0
  0
VISUALSTYLE
  5
8152
102
{ACAD_XDICTIONARY
360
8369
102
}
102
{ACAD_REACTORS
330
8146
102
}
330
8146
100
AcDbVisualStyle
  2
Brighten
 70
    12
 71
     2
 72
     2
 73
     0
 90
        0
 40
-0.6
 41
-30.0
 62
     5
 63
     7
 74
     1
 91
        4
 64
     7
 65
   257
 75
     1
175
     1
 42
1.0
 92
        8
 66
     7
 43
1.0
 76
     1
 77
     6
 78
     2
 67
     7
 79
     5
170
     0
171
     0
290
     0
174
     0
 93
        1
 44
50.0
173
     0
291
     1
 45
0.0
1001
ACAD
1000
AcDbSavedByObjectVersion
1070
     0
  0
VISUALSTYLE
  5
8156
102
{ACAD_XDICTIONARY
360
8371
102
}
102
{ACAD_REACTORS
330
8146
102
}
330
8146
100
AcDbVisualStyle
  2
ColorChange
 70
    16
 71
     2
 72
     2
 73
     3
 90
        0
 40
-0.6
 41
-30.0
 62
     5
 63
     8
 74
     1
 91
        4
 64
     7
 65
   257
 75
     1
175
     1
 42
1.0
 92
        8
 66
     8
 43
1.0
 76
     1
 77
     6
 78
     2
 67
     7
 79
     5
170
     0
171
     0
290
     0
174
     0
 93
        1
 44
0.0
173
     0
291
     1
 45
0.0
1001
ACAD
1000
AcDbSavedByObjectVersion
1070
     0
  0
VISUALSTYLE
  5
814F
102
{ACAD_XDICTIONARY
360
8363
102
}
102
{ACAD_REACTORS
330
8146
102
}
330
8146
100
AcDbVisualStyle
  2
Conceptual
 70
     9
 71
     3
 72
     2
 73
     0
 90
        0
 40
-0.6
 41
-30.0
 62
     5
 63
     7
 74
     2
 91
        2
 64
     7
 65
   257
 75
     1
175
     1
 42
179.0
 92
        8
 66
     7
 43
1.0
 76
     1
 77
     6
 78
     2
 67
     7
 79
     3
170
     0
171
     0
290
     0
174
     0
 93
        1
 44
0.0
173
     0
291
     0
 45
0.0
1001
ACAD
1000
AcDbSavedByObjectVersion
1070
     0
  0
VISUALSTYLE
  5
8151
102
{ACAD_XDICTIONARY
360
8367
102
}
102
{ACAD_REACTORS
330
8146
102
}
330
8146
100
AcDbVisualStyle
  2
Dim
 70
    11
 71
     2
 72
     2
 73
     0
 90
        0
 40
-0.6
 41
-30.0
 62
     5
 63
     7
 74
     1
 91
        4
 64
     7
 65
   257
 75
     1
175
     1
 42
1.0
 92
        8
 66
     7
 43
1.0
 76
     1
 77
     6
 78
     2
 67
     7
 79
     5
170
     0
171
     0
290
     0
174
     0
 93
        1
 44
-50.0
173
     0
291
     1
 45
0.0
1001
ACAD
1000
AcDbSavedByObjectVersion
1070
     0
  0
VISUALSTYLE
  5
815E
102
{ACAD_XDICTIONARY
360
8381
102
}
102
{ACAD_REACTORS
330
8146
102
}
330
8146
100
AcDbVisualStyle
  2
EdgeColorOff
 70
    22
 71
     2
 72
     2
 73
     0
 90
        0
 40
-0.6
 41
-30.0
 62
     5
 63
     7
 74
     1
 91
        4
 64
     7
 65
   257
 75
     1
175
     1
 42
1.0
 92
        8
 66
     7
 43
1.0
 76
     1
 77
     6
 78
     2
 67
     7
 79
     5
170
     0
171
     0
290
     0
174
     0
 93
        1
 44
0.0
173
     0
291
     1
 45
0.0
1001
ACAD
1000
AcDbSavedByObjectVersion
1070
     0
  0
VISUALSTYLE
  5
8155
102
{ACAD_XDICTIONARY
360
836F
102
}
102
{ACAD_REACTORS
330
8146
102
}
330
8146
100
AcDbVisualStyle
  2
Facepattern
 70
    15
 71
     2
 72
     2
 73
     0
 90
        0
 40
-0.6
 41
-30.0
 62
     5
 63
     7
 74
     1
 91
        4
 64
     7
 65
   257
 75
     1
175
     1
 42
1.0
 92
        8
 66
     7
 43
1.0
 76
     1
 77
     6
 78
     2
 67
     7
 79
     5
170
     0
171
     0
290
     0
174
     0
 93
        1
 44
0.0
173
     0
291
     1
 45
0.0
1001
ACAD
1000
AcDbSavedByObjectVersion
1070
     0
  0
VISUALSTYLE
  5
8147
102
{ACAD_XDICTIONARY
360
8353
102
}
102
{ACAD_REACTORS
330
8146
102
}
330
8146
100
AcDbVisualStyle
  2
Flat
 70
     0
 71
     2
 72
     1
 73
     1
 90
        2
 40
-0.6
 41
30.0
 62
     5
 63
     7
 74
     0
 91
        0
 64
     7
 65
   257
 75
     1
175
     1
 42
1.0
 92
        8
 66
     7
 43
1.0
 76
     1
 77
     6
 78
     2
 67
     7
 79
     5
170
     0
171
     0
290
     0
174
     0
 93
       13
 44
0.0
173
     0
291
     1
 45
0.0
1001
ACAD
1000
AcDbSavedByObjectVersion
1070
     0
  0
VISUALSTYLE
  5
8148
102
{ACAD_XDICTIONARY
360
8355
102
}
102
{ACAD_REACTORS
330
8146
102
}
330
8146
100
AcDbVisualStyle
  2
FlatWithEdges
 70
     1
 71
     2
 72
     1
 73
     1
 90
        2
 40
-0.6
 41
30.0
 62
     5
 63
     7
 74
     1
 91
        0
 64
     7
 65
   257
 75
     1
175
     1
 42
1.0
 92
        0
 66
   257
 43
1.0
 76
     1
 77
     6
 78
     2
 67
     7
 79
     5
170
     0
171
     0
290
     0
174
     0
 93
       13
 44
0.0
173
     0
291
     1
 45
0.0
1001
ACAD
1000
AcDbSavedByObjectVersion
1070
     0
  0
VISUALSTYLE
  5
8149
102
{ACAD_XDICTIONARY
360
8357
102
}
102
{ACAD_REACTORS
330
8146
102
}
330
8146
100
AcDbVisualStyle
  2
Gouraud
 70
     2
 71
     2
 72
     2
 73
     1
 90
        2
 40
-0.6
 41
30.0
 62
     5
 63
     7
 74
     0
 91
        0
 64
     7
 65
   257
 75
     1
175
     1
 42
1.0
 92
        0
 66
     7
 43
1.0
 76
     1
 77
     6
 78
     2
 67
     7
 79
     5
170
     0
171
     0
290
     0
174
     0
 93
       13
 44
0.0
173
     0
291
     1
 45
0.0
1001
ACAD
1000
AcDbSavedByObjectVersion
1070
     0
  0
VISUALSTYLE
  5
814A
102
{ACAD_XDICTIONARY
360
8359
102
}
102
{ACAD_REACTORS
330
8146
102
}
330
8146
100
AcDbVisualStyle
  2
GouraudWithEdges
 70
     3
 71
     2
 72
     2
 73
     1
 90
        2
 40
-0.6
 41
30.0
 62
     5
 63
     7
 74
     1
 91
        0
 64
     7
 65
   257
 75
     1
175
     1
 42
1.0
 92
        0
 66
   257
 43
1.0
 76
     1
 77
     6
 78
     2
 67
     7
 79
     5
170
     0
171
     0
290
     0
174
     0
 93
       13
 44
0.0
173
     0
291
     1
 45
0.0
1001
ACAD
1000
AcDbSavedByObjectVersion
1070
     0
  0
VISUALSTYLE
  5
814E
102
{ACAD_XDICTIONARY
360
8361
102
}
102
{ACAD_REACTORS
330
8146
102
}
330
8146
100
AcDbVisualStyle
  2
Hidden
 70
     6
 71
     1
 72
     2
 73
     2
 90
        0
 40
-0.6
 41
-30.0
 62
     5
 63
     7
 74
     2
 91
        2
 64
     7
 65
   257
 75
     2
175
     1
 42
40.0
 92
        0
 66
   257
 43
1.0
 76
     1
 77
     6
 78
     2
 67
     7
 79
     3
170
     0
171
     0
290
     0
174
     0
 93
        1
 44
0.0
173
     0
291
     0
 45
0.0
1001
ACAD
1000
AcDbSavedByObjectVersion
1070
     0
  0
VISUALSTYLE
  5
815C
102
{ACAD_XDICTIONARY
360
837D
102
}
102
{ACAD_REACTORS
330
8146
102
}
330
8146
100
AcDbVisualStyle
  2
JitterOff
 70
    20
 71
     2
 72
     2
 73
     0
 90
        0
 40
-0.6
 41
-30.0
 62
     5
 63
     7
 74
     1
 91
        4
 64
     7
 65
   257
 75
     1
175
     1
 42
1.0
 92
       10
 66
     7
 43
1.0
 76
     1
 77
     6
 78
     2
 67
     7
 79
     5
170
     0
171
     0
290
     0
174
     0
 93
        1
 44
0.0
173
     0
291
     1
 45
0.0
1001
ACAD
1000
AcDbSavedByObjectVersion
1070
     0
  0
VISUALSTYLE
  5
8154
102
{ACAD_XDICTIONARY
360
836D
102
}
102
{ACAD_REACTORS
330
8146
102
}
330
8146
100
AcDbVisualStyle
  2
Linepattern
 70
    14
 71
     2
 72
     2
 73
     0
 90
        0
 40
-0.6
 41
-30.0
 62
     5
 63
     7
 74
     1
 91
        4
 64
     7
 65
   257
 75
     7
175
     7
 42
1.0
 92
        8
 66
     7
 43
1.0
 76
     1
 77
     6
 78
     2
 67
     7
 79
     5
170
     0
171
     0
290
     0
174
     0
 93
        1
 44
0.0
173
     0
291
     1
 45
0.0
1001
ACAD
1000
AcDbSavedByObjectVersion
1070
     0
  0
VISUALSTYLE
  5
815D
102
{ACAD_XDICTIONARY
360
837F
102
}
102
{ACAD_REACTORS
330
8146
102
}
330
8146
100
AcDbVisualStyle
  2
OverhangOff
 70
    21
 71
     2
 72
     2
 73
     0
 90
        0
 40
-0.6
 41
-30.0
 62
     5
 63
     7
 74
     1
 91
        4
 64
     7
 65
   257
 75
     1
175
     1
 42
1.0
 92
        9
 66
     7
 43
1.0
 76
     1
 77
     6
 78
     2
 67
     7
 79
     5
170
     0
171
     0
290
     0
174
     0
 93
        1
 44
0.0
173
     0
291
     1
 45
0.0
1001
ACAD
1000
AcDbSavedByObjectVersion
1070
     0
  0
VISUALSTYLE
  5
8150
102
{ACAD_XDICTIONARY
360
8365
102
}
102
{ACAD_REACTORS
330
8146
102
}
330
8146
100
AcDbVisualStyle
  2
Realistic
 70
     8
 71
     2
 72
     3
 73
     0
 90
        2
 40
-0.6
 41
30.0
 62
     5
 63
     7
 74
     0
 91
        0
 64
     7
 65
   257
 75
     1
175
     1
 42
1.0
 92
        8
 66
   257
 43
1.0
 76
     1
 77
     6
 78
     2
 67
     7
 79
     3
170
     0
171
     0
290
     0
174
     0
 93
       13
 44
0.0
173
     0
291
     0
 45
0.0
1001
ACAD
1000
AcDbSavedByObjectVersion
1070
     0
  0
VISUALSTYLE
  5
815B
102
{ACAD_XDICTIONARY
360
837B
102
}
102
{ACAD_REACTORS
330
8146
102
}
330
8146
100
AcDbVisualStyle
  2
Shaded
 70
    27
 71
     2
 72
     2
 73
     1
 90
        2
 40
-0.6
 41
30.0
 62
     5
 63
     7
 74
     0
 91
        4
 64
     7
 65
   257
 75
     1
175
     1
 42
1.0
 92
        8
 66
   257
 43
1.0
 76
     1
 77
     6
 78
     2
 67
     8
 79
     3
170
     0
171
     0
290
     0
174
     0
 93
        5
 44
0.0
173
     0
291
     0
 45
0.0
1001
ACAD
1000
AcDbSavedByObjectVersion
1070
     0
  0
VISUALSTYLE
  5
815A
102
{ACAD_XDICTIONARY
360
8379
102
}
102
{ACAD_REACTORS
330
8146
102
}
330
8146
100
AcDbVisualStyle
  2
Shaded with edges
 70
    26
 71
     2
 72
     2
 73
     1
 90
        2
 40
-0.6
 41
30.0
 62
     5
 63
     7
 74
     1
 91
       10
 64
     7
 65
   257
 75
     2
175
     1
 42
1.0
 92
        8
 66
   257
 43
1.0
 76
     1
 77
     6
 78
     2
 67
     7
 79
     3
170
     0
171
     0
290
     0
174
     0
 93
        5
 44
0.0
173
     0
291
     0
 45
0.0
1001
ACAD
1000
AcDbSavedByObjectVersion
1070
     0
  0
VISUALSTYLE
  5
8157
102
{ACAD_XDICTIONARY
360
8373
102
}
102
{ACAD_REACTORS
330
8146
102
}
330
8146
100
AcDbVisualStyle
  2
Shades of Gray
 70
    23
 71
     2
 72
     2
 73
     3
 90
        0
 40
-0.6
 41
-30.0
 62
     5
 63
     7
 74
     2
 91
        2
 64
     7
 65
     7
 75
     1
175
     1
 42
40.0
 92
        8
 66
     7
 43
1.0
 76
     1
 77
     6
 78
     2
 67
     7
 79
     3
170
     0
171
     0
290
     0
174
     0
 93
        1
 44
0.0
173
     0
291
     0
 45
0.0
1001
ACAD
1000
AcDbSavedByObjectVersion
1070
     0
  0
VISUALSTYLE
  5
8158
102
{ACAD_XDICTIONARY
360
8375
102
}
102
{ACAD_REACTORS
330
8146
102
}
330
8146
100
AcDbVisualStyle
  2
Sketchy
 70
    24
 71
     1
 72
     2
 73
     2
 90
        0
 40
-0.6
 41
-30.0
 62
     5
 63
     7
 74
     2
 91
        2
 64
     7
 65
     7
 75
     1
175
     1
 42
40.0
 92
       11
 66
     7
 43
1.0
 76
     1
 77
     6
 78
     2
 67
     7
 79
     6
170
     0
171
     0
290
     0
174
     0
 93
        1
 44
0.0
173
     0
291
     0
 45
0.0
1001
ACAD
1000
AcDbSavedByObjectVersion
1070
     0
  0
VISUALSTYLE
  5
8153
102
{ACAD_XDICTIONARY
360
836B
102
}
102
{ACAD_REACTORS
330
8146
102
}
330
8146
100
AcDbVisualStyle
  2
Thicken
 70
    13
 71
     2
 72
     2
 73
     0
 90
        0
 40
-0.6
 41
-30.0
 62
     5
 63
     7
 74
     1
 91
        4
 64
     7
 65
   257
 75
     1
175
     1
 42
1.0
 92
       12
 66
     7
 43
1.0
 76
     1
 77
     6
 78
     2
 67
     7
 79
     5
170
     0
171
     0
290
     0
174
     0
 93
        1
 44
0.0
173
     0
291
     1
 45
0.0
1001
ACAD
1000
AcDbSavedByObjectVersion
1070
     0
  0
VISUALSTYLE
  5
814D
102
{ACAD_XDICTIONARY
360
835F
102
}
102
{ACAD_REACTORS
330
8146
102
}
330
8146
100
AcDbVisualStyle
  2
Wireframe
 70
     5
 71
     0
 72
     2
 73
     0
 90
        0
 40
-0.6
 41
-30.0
 62
     5
 63
     7
 74
     1
 91
        4
 64
     7
 65
   257
 75
     1
175
     1
 42
1.0
 92
        0
 66
   257
 43
1.0
 76
     1
 77
     6
 78
     2
 67
     7
 79
     3
170
     0
171
     0
290
     0
174
     0
 93
        1
 44
0.0
173
     0
291
     0
 45
0.0
1001
ACAD
1000
AcDbSavedByObjectVersion
1070
     0
  0
VISUALSTYLE
  5
8159
102
{ACAD_XDICTIONARY
360
8377
102
}
102
{ACAD_REACTORS
330
8146
102
}
330
8146
100
AcDbVisualStyle
  2
X-Ray
 70
    25
 71
     2
 72
     2
 73
     1
 90
        1
 40
0.5
 41
-30.0
 62
     5
 63
     7
 74
     1
 91
        0
 64
     7
 65
   257
 75
     1
175
     1
 42
1.0
 92
        8
 66
     7
 43
1.0
 76
     1
 77
     6
 78
     2
 67
     7
 79
     3
170
     0
171
     0
290
     0
174
     0
 93
       13
 44
0.0
173
     0
291
     0
 45
0.0
1001
ACAD
1000
AcDbSavedByObjectVersion
1070
     0
  0
DICTIONARYVAR
  5
8306
102
{ACAD_REACTORS
330
8301
102
}
330
8301
100
DictionaryVariables
280
     0
  1
1:1
  0
DICTIONARYVAR
  5
8303
102
{ACAD_REACTORS
330
8301
102
}
330
8301
100
DictionaryVariables
280
     0
  1
STANDARD
  0
DICTIONARYVAR
  5
8302
102
{ACAD_REACTORS
330
8301
102
}
330
8301
100
DictionaryVariables
280
     0
  1
STANDARD
  0
DICTIONARYVAR
  5
8304
102
{ACAD_REACTORS
330
8301
102
}
330
8301
100
DictionaryVariables
280
     0
  1
Imperial24
  0
DICTIONARYVAR
  5
8305
102
{ACAD_REACTORS
330
8301
102
}
330
8301
100
DictionaryVariables
280
     0
  1
Imperial24
  0
DICTIONARYVAR
  5
8309
102
{ACAD_REACTORS
330
8301
102
}
330
8301
100
DictionaryVariables
280
     0
  1
1
  0
DICTIONARYVAR
  5
8308
102
{ACAD_REACTORS
330
8301
102
}
330
8301
100
DictionaryVariables
280
     0
  1
0
  0
DICTIONARYVAR
  5
8307
102
{ACAD_REACTORS
330
8301
102
}
330
8301
100
DictionaryVariables
280
     0
  1
127
  0
DICTIONARYVAR
  5
830A
102
{ACAD_REACTORS
330
8301
102
}
330
8301
100
DictionaryVariables
280
     0
  1
2
  0
DICTIONARY
  5
8387
330
8187
100
AcDbDictionary
280
     1
281
     1
  3
ACAD_XREC_ROUNDTRIP
360
8388
  0
DICTIONARY
  5
838B
330
818F
100
AcDbDictionary
280
     1
281
     1
  3
ACAD_XREC_ROUNDTRIP
360
838C
  0
DICTIONARY
  5
8389
330
818B
100
AcDbDictionary
280
     1
281
     1
  3
ACAD_XREC_ROUNDTRIP
360
838A
  0
DICTIONARY
  5
8137
330
8136
100
AcDbDictionary
280
     1
281
     1
  3
ACAD_XREC_ROUNDTRIP
360
8351
  3
BUMPTILE
360
8139
  3
DIFFUSETILE
360
8138
  3
OPACITYTILE
360
813C
  3
REFLECTIONTILE
360
813B
  3
REFRACTIONTILE
360
813D
  3
SPECULARTILE
360
813A
  0
DICTIONARY
  5
812F
330
812E
100
AcDbDictionary
280
     1
281
     1
  3
ACAD_XREC_ROUNDTRIP
360
8350
  3
BUMPTILE
360
8131
  3
DIFFUSETILE
360
8130
  3
OPACITYTILE
360
8134
  3
REFLECTIONTILE
360
8133
  3
REFRACTIONTILE
360
8135
  3
SPECULARTILE
360
8132
  0
DICTIONARY
  5
813F
330
813E
100
AcDbDictionary
280
     1
281
     1
  3
ACAD_XREC_ROUNDTRIP
360
8352
  3
BUMPTILE
360
8141
  3
DIFFUSETILE
360
8140
  3
FBXASSET
360
827A
  3
OPACITYTILE
360
8144
  3
REFLECTIONTILE
360
8143
  3
REFRACTIONTILE
360
8145
  3
SPECULARTILE
360
8142
  0
DICTIONARY
  5
8385
330
8185
100
AcDbDictionary
280
     1
281
     1
  3
ACAD_XREC_ROUNDTRIP
360
8386
  0
DICTIONARY
  5
834C
330
8181
100
AcDbDictionary
280
     1
281
     1
  3
ACAD_ROUNDTRIP_2008_TABLESTYLE_CELLSTYLEMAP
360
834D
  3
ACAD_XREC_ROUNDTRIP
360
8383
  0
DICTIONARY
  5
835D
330
814C
100
AcDbDictionary
280
     1
281
     1
  3
ACAD_XREC_ROUNDTRIP
360
835E
  0
DICTIONARY
  5
835B
330
814B
100
AcDbDictionary
280
     1
281
     1
  3
ACAD_XREC_ROUNDTRIP
360
835C
  0
DICTIONARY
  5
8369
330
8152
100
AcDbDictionary
280
     1
281
     1
  3
ACAD_XREC_ROUNDTRIP
360
836A
  0
DICTIONARY
  5
8371
330
8156
100
AcDbDictionary
280
     1
281
     1
  3
ACAD_XREC_ROUNDTRIP
360
8372
  0
DICTIONARY
  5
8363
330
814F
100
AcDbDictionary
280
     1
281
     1
  3
ACAD_XREC_ROUNDTRIP
360
8364
  0
DICTIONARY
  5
8367
330
8151
100
AcDbDictionary
280
     1
281
     1
  3
ACAD_XREC_ROUNDTRIP
360
8368
  0
DICTIONARY
  5
8381
330
815E
100
AcDbDictionary
280
     1
281
     1
  3
ACAD_XREC_ROUNDTRIP
360
8382
  0
DICTIONARY
  5
836F
330
8155
100
AcDbDictionary
280
     1
281
     1
  3
ACAD_XREC_ROUNDTRIP
360
8370
  0
DICTIONARY
  5
8353
330
8147
100
AcDbDictionary
280
     1
281
     1
  3
ACAD_XREC_ROUNDTRIP
360
8354
  0
DICTIONARY
  5
8355
330
8148
100
AcDbDictionary
280
     1
281
     1
  3
ACAD_XREC_ROUNDTRIP
360
8356
  0
DICTIONARY
  5
8357
330
8149
100
AcDbDictionary
280
     1
281
     1
  3
ACAD_XREC_ROUNDTRIP
360
8358
  0
DICTIONARY
  5
8359
330
814A
100
AcDbDictionary
280
     1
281
     1
  3
ACAD_XREC_ROUNDTRIP
360
835A
  0
DICTIONARY
  5
8361
330
814E
100
AcDbDictionary
280
     1
281
     1
  3
ACAD_XREC_ROUNDTRIP
360
8362
  0
DICTIONARY
  5
837D
330
815C
100
AcDbDictionary
280
     1
281
     1
  3
ACAD_XREC_ROUNDTRIP
360
837E
  0
DICTIONARY
  5
836D
330
8154
100
AcDbDictionary
280
     1
281
     1
  3
ACAD_XREC_ROUNDTRIP
360
836E
  0
DICTIONARY
  5
837F
330
815D
100
AcDbDictionary
280
     1
281
     1
  3
ACAD_XREC_ROUNDTRIP
360
8380
  0
DICTIONARY
  5
8365
330
8150
100
AcDbDictionary
280
     1
281
     1
  3
ACAD_XREC_ROUNDTRIP
360
8366
  0
DICTIONARY
  5
837B
330
815B
100
AcDbDictionary
280
     1
281
     1
  3
ACAD_XREC_ROUNDTRIP
360
837C
  0
DICTIONARY
  5
8379
330
815A
100
AcDbDictionary
280
     1
281
     1
  3
ACAD_XREC_ROUNDTRIP
360
837A
  0
DICTIONARY
  5
8373
330
8157
100
AcDbDictionary
280
     1
281
     1
  3
ACAD_XREC_ROUNDTRIP
360
8374
  0
DICTIONARY
  5
8375
330
8158
100
AcDbDictionary
280
     1
281
     1
  3
ACAD_XREC_ROUNDTRIP
360
8376
  0
DICTIONARY
  5
836B
330
8153
100
AcDbDictionary
280
     1
281
     1
  3
ACAD_XREC_ROUNDTRIP
360
836C
  0
DICTIONARY
  5
835F
330
814D
100
AcDbDictionary
280
     1
281
     1
  3
ACAD_XREC_ROUNDTRIP
360
8360
  0
DICTIONARY
  5
8377
330
8159
100
AcDbDictionary
280
     1
281
     1
  3
ACAD_XREC_ROUNDTRIP
360
8378
  0
XRECORD
  5
8388
102
{ACAD_REACTORS
330
8387
102
}
330
8387
100
AcDbXrecord
280
     1
102
DISPLAYNAME
  1
Imperial24
102
FLAGS
 90
        0
  0
XRECORD
  5
838C
102
{ACAD_REACTORS
330
838B
102
}
330
838B
100
AcDbXrecord
280
     1
102
SHADEPLOT
 70
     0
102
SHADEPLOTRESLEVEL
 70
     2
102
SHADEPLOTCUSTOMDPI
 70
   300
  0
XRECORD
  5
838A
102
{ACAD_REACTORS
330
8389
102
}
330
8389
100
AcDbXrecord
280
     1
102
SHADEPLOT
 70
     0
102
SHADEPLOTRESLEVEL
 70
     2
102
SHADEPLOTCUSTOMDPI
 70
   300
  0
XRECORD
  5
8351
102
{ACAD_REACTORS
330
8137
102
}
330
8137
100
AcDbXrecord
280
     1
102
MATERIAL
148
0.0
149
0.0
149
0.0
 93
        0
 94
      127
282
     0
 72
     0
 77
     0
171
     0
175
     0
179
     0
273
     0
  0
XRECORD
  5
8139
102
{ACAD_REACTORS
330
8137
102
}
330
8137
100
AcDbXrecord
280
     1
270
     1
271
     1
  0
XRECORD
  5
8138
102
{ACAD_REACTORS
330
8137
102
}
330
8137
100
AcDbXrecord
280
     1
270
     1
271
     1
  0
XRECORD
  5
813C
102
{ACAD_REACTORS
330
8137
102
}
330
8137
100
AcDbXrecord
280
     1
270
     1
271
     1
  0
XRECORD
  5
813B
102
{ACAD_REACTORS
330
8137
102
}
330
8137
100
AcDbXrecord
280
     1
270
     1
271
     1
  0
XRECORD
  5
813D
102
{ACAD_REACTORS
330
8137
102
}
330
8137
100
AcDbXrecord
280
     1
270
     1
271
     1
  0
XRECORD
  5
813A
102
{ACAD_REACTORS
330
8137
102
}
330
8137
100
AcDbXrecord
280
     1
270
     1
271
     1
  0
XRECORD
  5
8350
102
{ACAD_REACTORS
330
812F
102
}
330
812F
100
AcDbXrecord
280
     1
102
MATERIAL
148
0.0
149
0.0
149
0.0
 93
        0
 94
      127
282
     0
 72
     0
 77
     0
171
     0
175
     0
179
     0
273
     0
  0
XRECORD
  5
8131
102
{ACAD_REACTORS
330
812F
102
}
330
812F
100
AcDbXrecord
280
     1
270
     1
271
     1
  0
XRECORD
  5
8130
102
{ACAD_REACTORS
330
812F
102
}
330
812F
100
AcDbXrecord
280
     1
270
     1
271
     1
  0
XRECORD
  5
8134
102
{ACAD_REACTORS
330
812F
102
}
330
812F
100
AcDbXrecord
280
     1
270
     1
271
     1
  0
XRECORD
  5
8133
102
{ACAD_REACTORS
330
812F
102
}
330
812F
100
AcDbXrecord
280
     1
270
     1
271
     1
  0
XRECORD
  5
8135
102
{ACAD_REACTORS
330
812F
102
}
330
812F
100
AcDbXrecord
280
     1
270
     1
271
     1
  0
XRECORD
  5
8132
102
{ACAD_REACTORS
330
812F
102
}
330
812F
100
AcDbXrecord
280
     1
270
     1
271
     1
  0
XRECORD
  5
8352
102
{ACAD_REACTORS
330
813F
102
}
330
813F
100
AcDbXrecord
280
     1
102
MATERIAL
148
0.0
149
0.0
149
0.0
 93
        0
 94
      127
282
     0
 72
     0
 77
     0
171
     0
175
     0
179
     0
273
     0
  0
XRECORD
  5
8141
102
{ACAD_REACTORS
330
813F
102
}
330
813F
100
AcDbXrecord
280
     1
270
     1
271
     1
  0
XRECORD
  5
8140
102
{ACAD_REACTORS
330
813F
102
}
330
813F
100
AcDbXrecord
280
     1
270
     1
271
     1
  0
XRECORD
  5
827A
102
{ACAD_REACTORS
330
813F
102
}
330
813F
100
AcDbXrecord
280
     1
 70
     1
 90
1959938040
 71
     1
  1
8D5B5730-67F8-42E4-8B0C-897FE750F34A
311
504B0304140006080800D67D6E571A9614B1DA000000200100004F00000031454441424130352D373245382D344635392D383035412D4135383444313334414335432F4173736574446174612F446566696E6974696F6E4974657261746F7250726F706572746965732E62696E454E3D4FC33010350CA00E0CFC83AABBEBC4
311
711312B545721D752A0B4C2CD5D5B996484E52C589C4C8C8BF86B328EA49EFDE7DBEBB6FC6D8CFC5286437842FF20FC45B6CB1AFEDABFDC006D85DA8B8EE00EEFEDABBA530A4068F30BA216CED6A6FD13968B11BFDE37574DAC04072E0E6616942F82FF8A070FA3B16EEBF10C24B81A13A17CFE03D0E2B713C7C0A5D6669B9
311
49729E189D7395E586EB4CA63C7A3246976A93CB4C8B1E7D37F616BD9022DA5F94F7E7F65457EBE55037386DA1C1D5CCF6483F55B3B58C64C2E398C7EA2D5E142A2DD4E27D29C2E42F504B0304140006080800D67D6E57E5F51FF00C010000300200004500000031454441424130352D373245382D344635392D383035412D
311
4135383444313334414335432F4173736574446174612F496E7374616E636550726F706572746965732E62696EEB606060F80F0540260323103700495E20ED9E9A975A94991C9C9C919A9BA80214B070317532353736D0353377B3D035317235D1B5703270D6B5B034777335373570333671644768046931363471713532B5
311
D435353131D635313332D475727372D135041AE36CE6EC6CE9E86A095406B6974133A6FFD0578D2BF6409A0928D600C4303E9806F281E0833D443503838003830058084CA83820D85859408D10006760550614842BF8C00CE435003154EB0328CD0314C204A07044C8C00DC15098B2D301430C4500532BC8680D24351FEC59
311
803C506CF10171707962497286AE5351625E4A6A0A48868141BBE1EAFFFFAB42C16C381F64CCFFAB0DDA30790813AE06A2094D106E50E8AAFFFF01504B0304140006080800D67D6E5728BB58AF800100009E0500003D00000031454441424130352D373245382D344635392D383035412D4135383444313334414335432F53
311
6368656D61732F436F6D6D6F6E536368656D612E786D6CBD544D4FC23018BEFB2B96DE15493C78601010A34B880709DEDFB52FD0D8B54BD70DF6EFED3AC0B12E6442E2716BFB3CEFF3D18E26FB440405EA8C2B1992E1C323095052C5B8DC842437EBFB673219DF8DA659866649B798C078B48AE6410122242F2A4994AC7F93
311
815DF85C049C8564CA0A901499DD886B2EB9B1E02448F358701A9235880C49A0119892A20C89D1B9FD768815CAD268CB5E0355B40B1E47F3E37A2020464BED06AA57CE8FCC20C3C3446D46761A2632A8C1283D07031EFF2AE7CCB1BFEEE916E406DFAC8E36FFD99A9D60A6944090EEDC3B670C7DC13DE86B6B2C5C240D6E50
311
3BB85ACD579D513F1B9F9A69DC9CC22AFA80C426D40AF0B21EA168559156B6276F0F726A6BFF04DCD513A87A62CAD41FB24FCB2858B3952E3D852084DA25B9303C15687973CC8E8AAE11DF2836C38C6A9E765E8C1BA1BFB1DC29CDFE518C8B5A7655A4ED7E77291ABEB80DBD82EC866ADE1B8D05AF9E35CF09D7A061F38A98
311
6D9EC412B8F0F65E5D81534D9B231D1E5A8FE577A241F3A5FD01504B0304140006080800D67D6E572CCEBD668A040000E01200003E00000031454441424130352D373245382D344635392D383035412D4135383444313334414335432F536368656D61732F47656E65726963536368656D612E786D6CD5586D6FDB380CFE7E
311
BF42F0F7A649B70E1B90744856B4970F450FCD7A5F05459613EDE4174872DADCAF3F522F8ED3B88D2F1D06AC4050DBA2493EE4438AF2F8EB73AEC8466823CB62928C06C384888297A92C5693A4B6D9D9E7E4EBD51FE3A931C22EF85AE4EC6AFC38BF261BA626C9AD288496DC3F4FCEAFC63366845F7A10452AF41DB320C0D4
311
4EC26EAB20918735565582695670811A6A49643A49A6E9069FA4604A64B29016DC4B48552F95E4932463CA888468C1D2B250DB4962750DF7CE273069CE8363F1FF4EDB00E0A21999574AE4A2B00C353B93F3BD4777B8A61ED8F604ABFEDD79CE56A2B7BDFBDBC50996E0ADDE16FED26223C5D30956C29BDF4A55EA686E5E58
311
B112DA45CE67F76F4FA27EFA3FB672FD7372FC388FAECDCA5209E693CAD167BADCD272F943701B3812F8A3D852008B1D2E32DB927B2F833C6EA95879925356D254582695095A3CE982924720BE5774A3CB9CDCDB350427D2DF20DA1B5532EBE2D5D6288D75D4F7E4FD9890A0EF8E3D93EBB8F8BA4758158EF6FB90A6F95202
311
81C93DE7AAC6D24607DA296BB96018123F821A7D6A5C5884050C475DA4865442732C8B95684A50165CBB3A32F25F783A4A480ED59AD7F924B968AEA50131F46303223E6A397B0E52976030DC1DCA81D7E7C1EDEEA42C19FF27635C505E2BD5198A599020DF50A2330FCB3AAF28CB0124108429553EF1B228802E2265D8F7CC
311
2401042B155BCC7070F1E5C55F13B4A9577362CCCE46C32174E010C3C378C44841A4BDA00FE3A12006CE11EE6AEC59894D3526DDE1CD59D503ECC324017F8061B7F162162FA62EDD81AE3308617770796DCBDAD2B2625C5AE8A63DE20B2C8AA5E95E76E5730823955956E33E705425A2187C185D36489A1B44D3DCEC2172F6
311
BA2105C3546287A7194B2331768EBBE64F6E70A9930ABE0ADEA89E9E2C38523B810287AD67A54A039C1606EAFE68F8304610BB9093DBDDABC0B2AE4E290DCDA15376D7E39F72B556F0B32EAB5D3D498B4C41ABADEC3A1434C422D87E8025A84BDCB2B1417ED750FAE4DA8976863974C577C7F902D3F156AD354DEA3540DE6B
311
EAE2BEA52F7A2EB4CA43802ECE5BF2CE2EDC9347179FFB023CE412E60BE16DA0BE29B374988A553F561DC04615DD35F7D2C8979F60E5955CE93DF29DED8AFA1EE6642D53418086C03C47C377910F75F7E8F5EF665F70B60FFB22AEDF897D119E8423C773E819A3C1E55E550599EE6EDCA34D0C86FD72057DF2CD46F16A4706
311
82471C164E4346D5306BF12D7D12D82CFF673D41636C347443FEB51B50D72EA171A8E4A58623A4A16E0FA2B8B10A0D23268D87C33896EE8FB73305A74BF224EDBADFA0BD674AB354D63DB7BD5D83426761C077DE767728235446A552754EB93B755891C3C4CC6CADE37CF0E912A7BB38DBA010F9DE1282EDF470CA69A9CDA4
311
82E334C4A6EA4107987980B17E72F31730EBF88BBD39E7C629F56797A3C0009C2C5AE7951D9A05A02773440F02EEB4DE396A3B6A570C72CCFBCD823B0B8ED3F1D5CEDDFED772FA70236C83FB7D86C385D570B87107535572A60A96035F8F7C6A7192F13007246BBE0521855E6AC46F3E27689CEE7D186A6FD679D98CDCAD13
311
333E04EBE7ED6F55FF01504B0304140006080800D67D6E576180134D5F0100006B0300004500000031454441424130352D373245382D344635392D383035412D4135383444313334414335432F536368656D61732F52656E6465724D6174657269616C536368656D612E786D6CA5934D6FC2300C86EFFB1551EEE343DBA41D
311
1A103009551ADAD40EAE28A4A68D9426284961FCFBE5A340113B2071746D3F765EBF4DC6BFB5407BD0862B49F0B037C0082453059725C18DDD3EBFE3F1E829991803366715D474942CD30FB4A782E00C64017A412D684E454CE3FE28995203B162A6EA5AC94B66997D225E109CD63B0135484BAD1B3C07E9080CA35DB3119C
311
11BCA5C200461A68A1A438126C75E3E230D40FF81FB3F03C91D1E3A3A0AF79FE28E25BC39EC3E17E4C2A2D94A0833A51AF55BCCA7D88572FCBAC529C4140B020FC3AAFA886621DCED7EAD7664CC86024E806DC297DA1BB393E4156543457A4537DB8817349A70F8ACBF09B3EEE2CB2F33E91B65D60786E4E3B39B77E3FEEEF
311
5650424525DA657FB8B46BE6BF064646F0A0F7327C0BC1BC1B4CBBC1C419FA3CCB23500007872A2580CAAE5461865565294E4EDB4617B62FF579DF9A5B2F54E834076A597573A020912FED777F9B3F504B0304140006080800D67D6E5778151C9251000000570000004700000031454441424130352D373245382D34463539
311
2D383035412D4135383444313334414335432F4173736574446174612F41737365745461626C654F66436F6E74656E74732E62696E53616060B070317532353736D0353377B3D035317235D1B5703270D6B5B0347773353735703336711402AACB4D2C492DCA4CCC492C28484D2C4ACC4B4E050A82012F90744FCD03CA2607
311
2767A4E6260200504B0304140006080800D67D6E57F865834058000000680000004500000031454441424130352D373245382D344635392D383035412D4135383444313334414335432F4173736574446174612F53747265616D56657273696F6E5461626C652E696E66558CBD0A80300C06F73E4B117FB66E451741D041DC
311
5BF98480A492E4FDD18EAEC7DD4555D89EF28DF51A0B1BD8340C4DE7DD848B988C0ACF0649566493F2408C508DDEBB99D5129FF8F1AF8CF5B9503E20FAE5A16B5AF702504B0304140006080800D67D6E570B808548350100009A0400003600000031454441424130352D373245382D344635392D383035412D413538344431
311
3334414335432F4173736574446174612F636E782E786D6CCD94314FC3301085FF4AE43D76525A842AC71582A51348540C6C57E752AC3A76645F10FC7BEC3403A888A943D7F3BBF3F327BF939BCFDE161F18A2F1AE6135AF58814EFBD6B843C346EACA3B566C940CDED30F192B1CF4D8B05C664A1E821F87B9D46207A3CD55
311
6BDC712EDEC788B483BDC5A7EEC13B42479115DA428C0D8BFA1D7BE030926F311E790B04BCE601A31F83C634894C8FF3241D10085BA616D5E2A6ACEBB25EEEEAD57A79BB5EAEDEA4C84A25F7DEDB596FD265C10F853EDDCA5425453E56720C66D6E4B730F59747BE374E8AA4543252484CE60EFA1A52070C83351A28A1135E
311
1352994408BD1427B1922233F845E2113BE34C6ED92663403E3C277B18C8E0D511F9CFEBE5C96C5D24701AAF97C7B9C3CB5378997ED0EB29905362AE2D27E70EB971DD055222A635924293B78AFA06504B0304140006080800D67D6E5749848D8B090100004F0300003400000031454441424130352D373245382D34463539
311
2D383035412D4135383444313334414335432F536368656D61732F636E782E786D6CCD93BD4E042114855F85D00FCCACB3C66C18B6B0B0B2512B3B84BB2B59863BE1C7E8DB0B23C56E62A7C57670F842CE395CC4FE7376E40342B4E8273AB09E12F01A8DF5C789E674E8EE28D94B1110D319468957334CB4CA548A63C0BC34
311
C9C04165575567FDA989F738CFE89FF53BCC8A12ED548C138DEB96A99CD0403C31A39262030B1031070DE58664676837E8002A81A172D36F6EBA61E886F165D8EEC6DBDDB87D15BC9252BC21BAC65B9F20E0423496852F767AC1EBB11439D8C6D40C549E7B63A50DC10B21454CA174D0C8F4B514522D8BB35AA552155FC11F
311
460A5EA35E047E000FC1EAEB4C7C61EEDF223F8137101ECB2B05ABDC7526FFCDE3DF0AE0EBEC9711A85F417E03504B0304140006080800D67D6E57410A3D5871000000A40000002C00000031454441424130352D373245382D344635392D383035412D4135383444313334414335432F636E782E786D6C55CC4D0E82301086
311
E1AB34B31774E7A22D31F1069E60020334B633A63FC6E34B0909B07DDE2F9FEE7EC1AB2FC5E4840DDC9A2B28E25E06C7938192C7CB1D54677514C9871928C640062A83D55394F2D968A0118BAFEA1DBF377CA444F98919176EAB9FEAAB9F2960DA5BBB1E2ED3FA6FFF504B0304140006080800D67D6E57AF243BBC7E000000
311
A300000007000000636E782E786D6C4D8CD10AC22018465F45FE7B4B4BC9401DB6ADF718CD0D99D3B0193D7E1ABBE8EA83C3778E6C3EAB476F9B5E2E0605F44000D9F088A30BB382BC4D58006AB44C316E7F37406158AD828A41CB39C5FCDCD168A721FB4ABD0BCB0E69DF999B211C5F4EBDC0ECCEAF58106EB0E18275F4CC
311
4CCBDB621CAB52E6D72B5BF3FA0B504B0304140006080800D67D6E5716E99B5DA600000035010000130000005B436F6E74656E745F54797065735D2E786D6C9590410E82301045AFD2740F4517C6180A0BF5065E60AC53688469D30E066F6F91AD9AB89CF9FFFD3F99BA9DC7413C3026E749CB4D59498164FCCD51A7E5C4B6
311
D84BD136F5E5193089ECA5A465CF1C0E4A25D3E308A9F401292BD6C711388FB15301CC1D3A54DBAADA29E38991B8E0254336F5092D4C038BF39CD76B6FC6A538AEBEA54A4B08617006389FA516557DE4AE8E7E70DE30729138228C5F021CD93F02D4FB0DCD0B504B0304140006080800D67D6E573DEE336E64000000790000
311
001B0000006175746F6465736B2D64657369676E2D7061636B6167652E786D6C35CBC10E83200C00D05F21DCA56CA76D41FC96062B120735B69A7DBE268BB7777961F8D5AF396893C2ADB70FE7ADA196782C2DF776D7A97B5933C430F15651E5469C55D70F80A4992A3ADC954792C525AE70A1E4D6AD9816CC044FEFDF01FE
311
3FDE907802504B0304140006080800D67D6E577C1CD36EF8000000960100003700000031454441424130352D373245382D344635392D383035412D4135383444313334414335432F4173736574446174612F636F72652E786D6C8550CB6E833010FC15B477430C864691710489F8829E7AB36C875A0936F2A3CAE7D70E546A
311
4F3DED6A76667677E8F9B93C8A2FE5BCB6A6075C1EA0504658A9CDDC430C377484E2CCA8B336FCA24161F8A27AC830303A3B1BD71D12D60465326AAC543BC8BD57010AF1484D0F5E7CAA85973C86C4F0F772E5E2CE6755E272E3311AA396BB54CBE4A66F5A39606DDB0D13B90C68EAF084483736E848C880C6B16DA6B7E18A
311
27D2D12A8B190D7AF9D92E9CE2414960F5A16E10C6089377DC9E487722ED07AD3293511F5CFA795F9ABF0336E4ABAF3C705A6DD33FAE7195FFBB466D4253EFAE9BC203C3E9C8D780D12AA794CA2BC25473A2EC1B504B0304140006080800D67D6E57B3DE8BCBF7000000940100003500000031454441424130352D37324538
311
2D344635392D383035412D4135383444313334414335432F536368656D61732F636F72652E786D6C8550CB6E833010FC15B477430C8646917104ADF881F6D49B653BD44AB0911F553FBF3650A93DF5B4ABD999D9DDA1D7AFE5517C2AE7B5353DE0F2048532C24A6DE61E62B8A1331457469DB5E1170D0AC317D5438681D1D9
311
D9B81E90B02628935163A53A40EEBD0A5088476A7AF0E2432DBCE4312486BF972B17773EAB12973B8FD118B53CA45A26377DD3CA016BDB6E98C8F380A60E4F88746383CE840C681CDB667A1A5EF0443A5A6531A3412F3FDB85533C2809AC3ED50DC21861F286DB0BE92EA47DA7556632EA834B3F1F4BF377C05EB73B3DADF6
311
D91FCFB8CAFF3DA336A1A90FCF5DE181E174E23660B4CA19A5B205986ACE937D03504B0304140006080800D67D6E57D80DBC9E01010000D70100002D00000031454441424130352D373245382D344635392D383035412D4135383444313334414335432F636F72652E786D6C9591C152C32010865F85E14E1292A0B143E8C4
311
B63E81276F08DB94690399008E8F2F9838EA4D4F303FDFBFCBBFCBF7EFD30DBDC1E28DB33DA645851158E5B4B1638F6338930EA3BDE08B73E10786919513F438CB58F0717171DE24E56C009B55EB346CA2F41E0246EA962E3DF6EA02932C640C89F0D76296EA2A472868B1728207337D59D5023280C6A2AEEA86504A68FB4C
311
D9AEBDDBB5EC859799143C1A1B9A7A6B06D32B68E4E6902261C178B9BE262A1ABD3146A73F9AB381050B7A3A0E8F43C5C87D7DEA48FBC41E4857B1810CAC6B8FB46987033BA422C92CB80F4B9ACC5624CFE0AFF6D5F82B599CF53F93AD0E9F7A7E872AF398052F3F7790CEBC12F101504B0304140006080800D67D6E57C932
311
0AA906010000B201000008000000636F72652E786D6C8D50C16E842014FC15F2EEA828DACD06D9681BBFA0A7DEA8B096AC8201DCB47F5F586DD2DE7A7A6466DE9B61D8E57399D15D39AFAD698164052065462BB5995AD8C2159F005D3873D6865F3240462CAA8504036793B3DB7A40A3354199841A2BD5010AEF550034CEF1
311
D1821F3FD42232B185A8F0B76C15E34D4C2A23D9AEE32CE8E56775744A042581974559614230A1AFA43ED3E64CEB3796272567DBA6E561A56574D757AD1CF0BA6EBA813E777868C88069D357F8446987FBBEAE86A7EE850CB461795AE6CC0717FF7C1C893903F2E29E7C59BE539CBD5B3B1F82184A226BE62FE005CB13F127
311
F4B6CA7F84D62654E57170DFF0C0490CF420A2716A308E47BD71A6B6F937504B01021400140006080800D67D6E571A9614B1DA000000200100004F000000000000000000000000000000000031454441424130352D373245382D344635392D383035412D4135383444313334414335432F4173736574446174612F44656669
311
6E6974696F6E4974657261746F7250726F706572746965732E62696E504B01021400140006080800D67D6E57E5F51FF00C0100003002000045000000000000000000000000004701000031454441424130352D373245382D344635392D383035412D4135383444313334414335432F4173736574446174612F496E7374616E
311
636550726F706572746965732E62696E504B01021400140006080800D67D6E5728BB58AF800100009E0500003D00000000000000000000000000B602000031454441424130352D373245382D344635392D383035412D4135383444313334414335432F536368656D61732F436F6D6D6F6E536368656D612E786D6C504B0102
311
1400140006080800D67D6E572CCEBD668A040000E01200003E000000000000000000000000009104000031454441424130352D373245382D344635392D383035412D4135383444313334414335432F536368656D61732F47656E65726963536368656D612E786D6C504B01021400140006080800D67D6E576180134D5F0100
311
006B03000045000000000000000000000000007709000031454441424130352D373245382D344635392D383035412D4135383444313334414335432F536368656D61732F52656E6465724D6174657269616C536368656D612E786D6C504B01021400140006080800D67D6E5778151C92510000005700000047000000000000
311
00000000000000390B000031454441424130352D373245382D344635392D383035412D4135383444313334414335432F4173736574446174612F41737365745461626C654F66436F6E74656E74732E62696E504B01021400140006080800D67D6E57F865834058000000680000004500000000000000000000000000EF0B00
311
0031454441424130352D373245382D344635392D383035412D4135383444313334414335432F4173736574446174612F53747265616D56657273696F6E5461626C652E696E66504B01021400140006080800D67D6E570B808548350100009A0400003600000000000000000000000000AA0C000031454441424130352D3732
311
45382D344635392D383035412D4135383444313334414335432F4173736574446174612F636E782E786D6C504B01021400140006080800D67D6E5749848D8B090100004F0300003400000000000000000000000000330E000031454441424130352D373245382D344635392D383035412D4135383444313334414335432F53
311
6368656D61732F636E782E786D6C504B01021400140006080800D67D6E57410A3D5871000000A40000002C000000000000000000000000008E0F000031454441424130352D373245382D344635392D383035412D4135383444313334414335432F636E782E786D6C504B01021400140006080800D67D6E57AF243BBC7E0000
311
00A3000000070000000000000000000000000049100000636E782E786D6C504B01021400140006080800D67D6E5716E99B5DA6000000350100001300000000000000000000000000EC1000005B436F6E74656E745F54797065735D2E786D6C504B01021400140006080800D67D6E573DEE336E64000000790000001B000000
311
00000000000000000000C31100006175746F6465736B2D64657369676E2D7061636B6167652E786D6C504B01021400140006080800D67D6E577C1CD36EF80000009601000037000000000000000000000000006012000031454441424130352D373245382D344635392D383035412D4135383444313334414335432F417373
311
6574446174612F636F72652E786D6C504B01021400140006080800D67D6E57B3DE8BCBF7000000940100003500000000000000000000000000AD13000031454441424130352D373245382D344635392D383035412D4135383444313334414335432F536368656D61732F636F72652E786D6C504B01021400140006080800D6
311
7D6E57D80DBC9E01010000D70100002D00000000000000000000000000F714000031454441424130352D373245382D344635392D383035412D4135383444313334414335432F636F72652E786D6C504B01021400140006080800D67D6E57C9320AA906010000B2010000080000000000000000000000000043160000636F72
311
652E786D6C504B050600000000110011005A0600006F1700000000
310
504B0304140006080800D67D6E57000000000000000000000000370000006662782F35313530414537422D433636412D344637372D413531342D3844353244443031363436382F617474726962757465732E62696E504B0304140006080800D67D6E57000000000000000000000000350000006662782F3531353041453742
310
2D433636412D344637372D413531342D3844353244443031363436382F76657274696365732E62696E504B0304140006080800D67D6E57F270F1330600000004000000360000006662782F35313530414537422D433636412D344637372D413531342D3844353244443031363436382F747269616E676C65732E62696E6366
310
60600000504B0304140006080800D67D6E5751464CB48900000043010000360000006662782F35313530414537422D433636412D344637372D413531342D3844353244443031363436382F6469726563746F72792E786D6C9D8F310EC2300C45AF127987122606C71DD918B841D4B851A43646695A717C52A85029031293A5
310
A76FBF6FACEF7DA7264E43906840EF0FA03836E242F406C6DCEE4EA06AC22492573150D1F66C60C640E8938CB705396EEDD86DE9B5042FE27813D640EA63BB001C722AF6E55CB61E4863F58284D5D3F53DD715CE1C3985E63FD7F1B7EBDD617E9F1E504B0304140006080800D67D6E57CA3863F23E070000201C0000340000
310
006662782F35313530414537422D433636412D344637372D413531342D3844353244443031363436382F6F626A656374732E786D6CDD59596FDB3810FE2B84F665F741976F178E8BD84E0AA3485B34E862DF045AA61D6EA803949438FBEB774891B2A8C8B6D203586C02C40E450E67BEB947B3F78788A127C2339AC45796EF
310
78162271986C69BCBFB28A7C674F2CF47E8E663C49F2DA3E0BC53822579658B6E6B33D4F8A542D6DC90E17ACB97ABBF80B65218989854286B3ECCACAC2071261071779B225D9A3B3C53976F6BB83E33BE54693EC9EE3F4A171558A3989736015D663A0A238F0CD7F4124773E73C506635BBFDBB6DE996DAE14DC6494C6598E
310
E3F015578DEB7A27B86A5CD7F707AB9BDE706A0F0783BE3D18F57C7B71BB58D9FEB8EF2D47CBE5F4FA666AA1F96C9324AC52404AE22D68F1C59AFB33573CA9C45728B4F11D26714C428566DB862D517429C99A9818C0FA52B49A424A596B0BFD8EC29FD8D609148325036D2D9CFEAC5B6FB2F91B40C8BA5829CF88B0F22CE7
310
A06B857DE90FDECC2D570DBDD00C4538279C628618DD70CC4141B0B554904146788B20850466528B9A5E9D5730ECCBBED4C6E5AE604CF8AF35979E16803F923C939CD17F083F725FBF0D7802690B1AE713256CFE920289E9CC958BE5B37E4F3D2C81443B86F7602D20A6D8D4EF35F05A8A58B05E59F38FB79BC3BD880FED97
310
A73C4909CF85E54967567EA73558332D30BE0EA094B89ABA3BA2F215A0FF04C857BCA019688ED3C3E030D0B2731C67BB8447A01DE421DB833F1E125F5F7D9BB9D5E1394246AC3C8529B8ED4FC2D410C3B8BB06E97CF604469FF0BE12EE3EC40C6CFA8EC6C2CFC150104B6009E2FD6E73B0E66B08A6B008A73003E9E177E68A
310
AF083E4A3A106F1A1A6A0BBF1D14A51DA6E967475D7D009BE134AC5465C8780ADFE14FC1F77A75FFF1BEE03B1C923BE5D82BB2A331CD2199B63364806EB8FCB7F527E9911F58B2C1EC78DAD814C235FB44C48D16B5DC2BB520A917E044A4E1523372E58E82B73386639214995A6F8B5361C2121E6C5E82D2855BEFFA53DB40
310
79993280D65806C93DE43415985873A5AD2A103A3541C1C2305716B82FB51A6C8A280D709414B108B5AF4DB1C907C4196189405552D386ADBD5693DDD2DDAEC82078B5925C1A402A7FD6844B0B1F401C6BE397931DC790449338A09083C1595A6F302EA8C03BCF7346D82EA08C1551B0A30CF24810E1F404FD8E12D433D723
310
79794EF8B695A06959DA27B50D09C015B01A249DADCA98AF74CAC9131565A6CC673A1B183B541D6ACD0727D285C8142D806A6394663E590D1743A88EECD1F876620F7A37037BB2F096F6643ABEBD190FBDDBFEE0BAC9A78E56F57C07AA14658EE17FF943116D624C193C1062E36DFAEEBDCC9E572E84467771331EDD2CFB53
310
BBBF5A4CEDC178BAB217E3DEC8F626ABD5E266B09CF6C60B97932C29784832B7E77A8136C934DE9FE24A73F73A8642597339D9697D3585F91FC7D0664E3094F85F0DA255EC6A2908BB065171B4194271F82852541042D5D7EA3E8D20DAE4A32DCEBD312E7B4EDF933FBE3FED79D3DE643AAA8CFD6CA096F7FC709C6B932084
310
BEB3C88324C521CDDB136A03978E71FA4DB9C5E9FB4304E8547FAB4BCEE71975494023BC27C10E8B2EA125305E92A03587ED599265342699ECF25E557F0D9A9E03C59499735B8C9066414472FC3DF627DB86864D436C6601F4A3B998085CAC0A2A83561DC8298AA2FB85C42DE57F09321CA5ACEC742F61E0F73404BAC769B3
310
38C1B4B8E209EC2DC079E06D891C5C5CA25EB1AFEB8356AD35A94FBF9BFC0978745DF30BE1D157742F9D9CA13F153F13082AA3A1DF1F6B455CC24A5F958B3E8E15D079862FC133A1FB874E8566379DD44AB6B2A8CE49046D2CCE0BDEC95F4743EFD5452A2E341CA276D31B8B43D9BFE90E0ED0930DDCA9F2B6760DD4A13486
310
395727415E49D16AC2521772A62746576FF0EBB3CAAE53FDE178F9CB2BE6BAF34572F8731907A896CB00ACA28F5153B756DD463D943DE33C84407A2F3FED0578C4966C8F8D9941AEAD44D7F5E9A5EA792D026A04135B2CE2EC9DF8C2BE62503574CF99FBA12CDADC727D2D129B03C3E9231F06D326ADCF1FEE1B5460A5F3E9
310
2F0223F2DCA0A05697A21B3E43EADBFAD8F337282889BEADCF1CFF4F74145A81B5311A4C83B3845118CA932DDA9304B2378C1D3A741B3C2299CCCA60BC2A48E937021D4E3F9533D51C6F983E1D3E60184C33D58B15210C4521635E596A1DFD066350318994C329E711DA3015C32C54707A6581C5E614BA2D6703E32C393C94
310
D41BE34A706C1CEF45BE2F4F55FF1F8F0974202A1DE5AAF674C1454966381314B6A97C4F00555FF9603EFB7ED1353B08E7F07553E49530C785A3340A04FD42A0140EA67E8F0ADE031414E7E5F21DB9C780A4D364FEAC1D9454ED1CF3BD1CAFD7F0BE5E7D71C5647CFD19A5ACD80B759EEB7E0D4AB6E8BA59514EA16660184A
310
CC148B1A72F9CEFDC21378C514A15B0A46807E3F4C467FB8CB248A92B85C72AFD58B2A74FF00AF9DB6AE1EF9411BEFF943574E01D4583FD8E08C38789B3DC202A89653311B2D21360CA08AA63503D01A11BA8063C6FEF50AA9DAA83621A9875D018F9CE9237024F12E47B84D7D436D0009BE005CC987C72F7A61E6721882CF
310
FF05504B0304140006080800D67D6E57C6B5143F3F01000046050000300000006662782F35313530414537422D433636412D344637372D413531342D3844353244443031363436382F636E782E786D6CCD94C14EC3300C865F25CABDED3A3684A6349338F0041C10B734F54A581A57898BD8DB938C6C80D0108749DB2D727E
310
4BFF67FFB258BF0F96BD810F065DC3EB72C619388D9D717DC327DA14779CADA5F088F44DC6995303343C95B914BDC769CCA50E366AB2A96A8DDBE6A222F2A69D080267DAAA101A1EF40B0CAA54136107615B768A5459971E024E5E43EC273340EED71E1441C7E57C36BF29EABAA8178FF572B5B85D2D96CFA24A4A295A449B
310
F5C611781C99C6F870D1CC4C54E95B8AC99BAC49045C7E392B5BE34415FFA508D1ADEBB38E7663D28DA3355A511C53859A808A28023588EA532C4595787F503FDC3F1D1CB0CE78D0847E77A101D4A706703456C624FC8F7F2FFC1B1BDBD7887BA96D9F84CDB6CE867A486B8871FDBDFF9822E57A7B7DA13F1A3B7FE6E32921
310
A3AF0FF9E0EB4CC4D5FEE4C5A5A70B283F00504B0304140006080800D67D6E57860AE5827E000000A30000000B0000006662782F636E782E786D6C4D8C4D0EC2201805AF42BE3D0A86BF05D054D17B349636C4160C16E3F105D385AB974CDE8CEE3EEB82DE3EBF428A06E88100F2F19EC6106703659BB002D4599D53DAFE6E
310
80E2B07A030D83D5734EE5B9A3D14F43591A5D427CEC90534EFAAB3CE38B103D66372971CF29C3CAF19373840A2654358E4DA9F3EBD56D79FB05504B0304140006080800D67D6E57A6D797065F0000008200000007000000636E782E786D6C4DCB3B0E80201045D1AD90E9FD7516806B51190811670C8A61F982B1B0BAC9C9
310
7B72CA7B1037C6D3332918DA1E04D2CAC69353902EDB8C20262D23F3F59B81A079470595414B17391D1F19B4730A5583A7ED43BBE4025D9592775E5ADFFA01504B0304140006080800D67D6E574FEB6A7CA0000000F4000000130000005B436F6E74656E745F54797065735D2E786D6C7D8F4B0EC2300C44AF1279DFA6B040
310
0835ED02B8011730C16D239A8F121795DB93D02D6269CFBC19BBED573B8B17C564BC53B0AB1B10E4B47F18372A5878A88E20FAAEBDBD032591BD2E299898C349CAA427B2986A1FC86565F0D122E7318E32A07EE24872DF3407A9BD63725C71C980AEBDD080CBCCE2BAE6F5D69B7110E7CD57AA146008B3D1C8F92C5954F993
310
BB1BF787F39A89ABC491D09600F9FDA2FB00504B0304140006080800D67D6E573DEE336E64000000790000001B0000006175746F6465736B2D64657369676E2D7061636B6167652E786D6C35CBC10E83200C00D05F21DCA56CA76D41FC96062B120735B69A7DBE268BB7777961F8D5AF396893C2ADB70FE7ADA196782C2DF7
310
76D7A97B5933C430F15651E5469C55D70F80A4992A3ADC954792C525AE70A1E4D6AD9816CC044FEFDF01FE3FDE907802504B0304140006080800D67D6E57C3AD9840F7000000960100003B0000006662782F35313530414537422D433636412D344637372D413531342D3844353244443031363436382F7265736F75726365
310
732F636F72652E786D6C8550CB6EC32010FC158B3BB631A64E224CA438F9839E7A43B0715062B07854FDFC42E24AEDA9A745B333B3CCF0E3D7F2A83EC107E3EC8848DDA20AAC72DAD87944295EF10E5547C1BD73F1170D55562E30A20223C167EFD2BA41CAD908B6A0D669D84019024454A9477E8C28A81B2CB296296646B8
310
D7AB547739434DEA174FF0948CDEA44667377335E09120D3305C286931ED863DEE2F13C1A7819D3163E71D231DA5D369CF9B22163C9AE5E7BAF220236824BAB6A398104CFA77C20EFDDBA1671FBC294CC143F439F376B4A443C24370C92B08BC796DFFB8A655FFEF9A8C8DB4DB5C5F8A9073E44F3E178237A5A53C9E15E659
310
1A15DF504B0304140006080800D67D6E570E89E3A0F2000000B1010000310000006662782F35313530414537422D433636412D344637372D413531342D3844353244443031363436382F636F72652E786D6C8D50CB6EC32010FC156BEFD8C6013B8A30915BB75FD0536F08130725068B47D5CF2FC4AED4DE725A343BC3CC0E
310
3B7F2FF7E24B39AFADE901973514CA483B6933F710C3051DA13873E6AC0D7F685018B1A81E320C9CCDCEC67587A43541998C1A3BA91D14DEAB0085BCA7470F5E5ED5224A114362F85BB90A7913B32A71B9F1380B7AF9954AA7445013F0A66E0E086384C907A627D29E08FD6455667216A39E762B3D25777DD1CA01A798D6C3
310
5BF7825EDB7640E4BDEBD0403141C79136E358E396B447566531673EB874F3FE49BEEE59F926FC9739AED31399B509876637DC141E384E791E0BCEAA5C601A8F76D3CC65F31F504B0304140006080800D67D6E57D24AE50A53010000DD0200000C0000006662782F636F72652E786D6C8D52CB6E833010FC15E4BB01F32869
310
641C298F3FE8A937071C6A056C646C94CFEF9A87680E4D2B2463CDEECCEE8C4C0F8FAE0D466106A955894818A340A84AD752352572F686772838306AB4B63FDA50A078274AE461C46863B4EB17A8D2CA0AE551A56BB1807C18844541D5C2A54443F5253A1E7267A163B8873DAFEEBC112109E73E469D93F5429535A8C99B14
310
0631722A8A4B4A629C26C53BCE2E27828F457EC6797EDEE52449D3D3F19D469ECCA895DD3ABD32825B512396C4498A09C124FB20F93E7BDB67F9278D7C27A38335E07919EADD2176BB3E6834E34F7AAEAFFFD67352D93459F466C6000E60BDA9C068E4F381DF14DE73863018F2B3FCDAAE16EE008DA2B2DA6450A9B5DB4A23
310
6F9D00E938983E1ACD55509E047ED3495EE8BCD680A0B86A60356EE17A75D64F7FDEA917068FF611286D3ADE6ECBCD2B6EE736E8C9D24AAF74ABCD7FD8ABD535CCC83F4CF60D504B0304140006080800D67D6E57AABEF45906010000B201000008000000636F72652E786D6C8D504B6EC32014BC0A628F6D8C5D271126529C
310
DCA0ABEE281017C5068B4FD4DEBE9050A9DD75F5D0CCBC37C3D0E3E7BA80BB725E5B33425C35102823ACD4661E610C57B483E0C8A8B336FC924160F8AA469861C8E8EC6CDC0A24AC09CA64D458A90AC8BD570102B1A4C708BDF8502BAF780C49E16FD5C6C58DCFAAC2D553C768D0EBCFAA708A0725216B9B96208C11EE5E71
310
7FE85E0E5DFF46EBAC6434462D8B9596C95D5FB57290E169182E043788B4C31E759709A3D3D09F51DF9F773D6E09994E7B5AE765467D70E9CFE548CA1980E7F7EC4BEB27C5E8BBB54B11A4501258B37C41D6D03A137F42C74DFE23B43681B4E5E073C3A7CC29D08348C6B9C1341EF5A699DB66DF504B010214001400060808
310
00D67D6E570000000000000000000000003700000000000000000000000000000000006662782F35313530414537422D433636412D344637372D413531342D3844353244443031363436382F617474726962757465732E62696E504B01021400140006080800D67D6E57000000000000000000000000350000000000000000
310
0000000000550000006662782F35313530414537422D433636412D344637372D413531342D3844353244443031363436382F76657274696365732E62696E504B01021400140006080800D67D6E57F270F13306000000040000003600000000000000000000000000A80000006662782F35313530414537422D433636412D34
310
4637372D413531342D3844353244443031363436382F747269616E676C65732E62696E504B01021400140006080800D67D6E5751464CB489000000430100003600000000000000000000000000020100006662782F35313530414537422D433636412D344637372D413531342D3844353244443031363436382F6469726563
310
746F72792E786D6C504B01021400140006080800D67D6E57CA3863F23E070000201C00003400000000000000000000000000DF0100006662782F35313530414537422D433636412D344637372D413531342D3844353244443031363436382F6F626A656374732E786D6C504B01021400140006080800D67D6E57C6B5143F3F
310
0100004605000030000000000000000000000000006F0900006662782F35313530414537422D433636412D344637372D413531342D3844353244443031363436382F636E782E786D6C504B01021400140006080800D67D6E57860AE5827E000000A30000000B00000000000000000000000000FC0A00006662782F636E782E
310
786D6C504B01021400140006080800D67D6E57A6D797065F000000820000000700000000000000000000000000A30B0000636E782E786D6C504B01021400140006080800D67D6E574FEB6A7CA0000000F40000001300000000000000000000000000270C00005B436F6E74656E745F54797065735D2E786D6C504B01021400
310
140006080800D67D6E573DEE336E64000000790000001B00000000000000000000000000F80C00006175746F6465736B2D64657369676E2D7061636B6167652E786D6C504B01021400140006080800D67D6E57C3AD9840F7000000960100003B00000000000000000000000000950D00006662782F35313530414537422D43
310
3636412D344637372D413531342D3844353244443031363436382F7265736F75726365732F636F72652E786D6C504B01021400140006080800D67D6E570E89E3A0F2000000B10100003100000000000000000000000000E50E00006662782F35313530414537422D433636412D344637372D413531342D3844353244443031
310
363436382F636F72652E786D6C504B01021400140006080800D67D6E57D24AE50A53010000DD0200000C00000000000000000000000000261000006662782F636F72652E786D6C504B01021400140006080800D67D6E57AABEF45906010000B20100000800000000000000000000000000A3110000636F72652E786D6C504B
310
0506000000000E000E0080040000CF1200000000
  0
XRECORD
  5
8144
102
{ACAD_REACTORS
330
813F
102
}
330
813F
100
AcDbXrecord
280
     1
270
     1
271
     1
  0
XRECORD
  5
8143
102
{ACAD_REACTORS
330
813F
102
}
330
813F
100
AcDbXrecord
280
     1
270
     1
271
     1
  0
XRECORD
  5
8145
102
{ACAD_REACTORS
330
813F
102
}
330
813F
100
AcDbXrecord
280
     1
270
     1
271
     1
  0
XRECORD
  5
8142
102
{ACAD_REACTORS
330
813F
102
}
330
813F
100
AcDbXrecord
280
     1
270
     1
271
     1
  0
XRECORD
  5
8386
102
{ACAD_REACTORS
330
8385
102
}
330
8385
100
AcDbXrecord
280
     1
102
DISPLAYNAME
  1
Imperial24
102
FLAGS
 90
        0
  0
CELLSTYLEMAP
  5
834D
102
{ACAD_REACTORS
330
834C
102
}
330
834C
100
AcDbCellStyleMap
 90
        3
300
CELLSTYLE
  1
TABLEFORMAT_BEGIN
 90
        5
170
     1
 91
        0
 92
    32768
 62
   257
 93
        1
300
CONTENTFORMAT
  1
CONTENTFORMAT_BEGIN
 90
        0
 91
        0
 92
      512
 93
        0
300

 40
0.0
140
1.0
 94
        5
 62
     0
340
8172
144
0.25
309
CONTENTFORMAT_END
171
     0
 94
        0
309
TABLEFORMAT_END
  1
CELLSTYLE_BEGIN
 90
        1
 91
        1
300
_TITLE
309
CELLSTYLE_END
300
CELLSTYLE
  1
TABLEFORMAT_BEGIN
 90
        5
170
     1
 91
        0
 92
        0
 62
   257
 93
        1
300
CONTENTFORMAT
  1
CONTENTFORMAT_BEGIN
 90
        0
 91
        0
 92
      512
 93
        0
300

 40
0.0
140
1.0
 94
        5
 62
     0
340
8172
144
0.18
309
CONTENTFORMAT_END
171
     0
 94
        0
309
TABLEFORMAT_END
  1
CELLSTYLE_BEGIN
 90
        2
 91
        1
300
_HEADER
309
CELLSTYLE_END
300
CELLSTYLE
  1
TABLEFORMAT_BEGIN
 90
        5
170
     1
 91
        0
 92
        0
 62
   257
 93
        1
300
CONTENTFORMAT
  1
CONTENTFORMAT_BEGIN
 90
        0
 91
        0
 92
      512
 93
        0
300

 40
0.0
140
1.0
 94
        2
 62
     0
340
8172
144
0.18
309
CONTENTFORMAT_END
171
     0
 94
        0
309
TABLEFORMAT_END
  1
CELLSTYLE_BEGIN
 90
        3
 91
        2
300
_DATA
309
CELLSTYLE_END
  0
XRECORD
  5
8383
102
{ACAD_REACTORS
330
834C
102
}
330
834C
100
AcDbXrecord
280
     1
102
ACAD_ROUNDTRIP_PRE2007_TABLESTYLE
 90
      512
 91
        0
  1

 92
      512
 93
        0
  2

 94
      512
 95
        0
  3

  0
XRECORD
  5
835E
102
{ACAD_REACTORS
330
835D
102
}
330
835D
100
AcDbXrecord
280
     1
102
RTVSPost2010Prop28
280
     1
102
RTVSPost2010PropOp28
 70
     1
102
RTVSPost2010Prop29
280
     1
102
RTVSPost2010PropOp29
 70
     1
102
RTVSPost2010Prop30
280
     0
102
RTVSPost2010PropOp30
 70
     1
102
RTVSPost2010Prop31
280
     0
102
RTVSPost2010PropOp31
 70
     1
102
RTVSPost2010Prop32
280
     0
102
RTVSPost2010PropOp32
 70
     1
102
RTVSPost2010Prop33
280
     0
102
RTVSPost2010PropOp33
 70
     1
102
RTVSPost2010Prop34
280
     0
102
RTVSPost2010PropOp34
 70
     1
102
RTVSPost2010Prop35
280
     0
102
RTVSPost2010PropOp35
 70
     1
102
RTVSPost2010Prop36
280
     0
102
RTVSPost2010PropOp36
 70
     1
102
RTVSPost2010Prop37
 90
       50
102
RTVSPost2010PropOp37
 70
     1
102
RTVSPost2010Prop38
140
0.0
102
RTVSPost2010PropOp38
 70
     1
102
RTVSPost2010Prop39
140
1.0
102
RTVSPost2010PropOp39
 70
     1
102
RTVSPost2010Prop40
 90
        0
102
RTVSPost2010PropOp40
 70
     1
102
RTVSPost2010Prop41ColorIndex
 90
       18
102
RTVSPost2010Prop41ColorRGB
 90
        0
102
RTVSPost2010PropOp41
 70
     1
102
RTVSPost2010Prop42
 90
       50
102
RTVSPost2010PropOp42
 70
     1
102
RTVSPost2010Prop43
 90
        3
102
RTVSPost2010PropOp43
 70
     1
102
RTVSPost2010Prop44ColorIndex
 90
        5
102
RTVSPost2010Prop44ColorRGB
 90
      255
102
RTVSPost2010PropOp44
 70
     1
102
RTVSPost2010Prop45
280
     0
102
RTVSPost2010PropOp45
 70
     1
102
RTVSPost2010Prop46
 90
       50
102
RTVSPost2010PropOp46
 70
     1
102
RTVSPost2010Prop47
 90
       50
102
RTVSPost2010PropOp47
 70
     1
102
RTVSPost2010Prop48
 90
       50
102
RTVSPost2010PropOp48
 70
     1
102
RTVSPost2010Prop49
280
     0
102
RTVSPost2010PropOp49
 70
     1
102
RTVSPost2010Prop50
 90
       50
102
RTVSPost2010PropOp50
 70
     1
102
RTVSPost2010Prop51ColorIndex
 90
      256
102
RTVSPost2010Prop51ColorRGB
 90
-16777216
102
RTVSPost2010PropOp51
 70
     0
102
RTVSPost2010Prop52
140
1.0
102
RTVSPost2010PropOp52
 70
     0
102
RTVSPost2010Prop53
 90
        2
102
RTVSPost2010PropOp53
 70
     1
102
RTVSPost2010Prop54
  1
strokes_ogs.tif
102
RTVSPost2010PropOp54
 70
     1
102
RTVSPost2010Prop55
280
     0
102
RTVSPost2010PropOp55
 70
     1
102
RTVSPost2010Prop56
140
1.0
102
RTVSPost2010PropOp56
 70
     1
102
RTVSPost2010Prop57
140
1.0
102
RTVSPost2010PropOp57
 70
     1
102
RTVSPropertyOp0
 70
     1
102
RTVSPropertyOp1
 70
     1
102
RTVSPropertyOp2
 70
     1
102
RTVSPropertyOp3
 70
     1
102
RTVSPropertyOp4
 70
     1
102
RTVSPropertyOp5
 70
     1
102
RTVSPropertyOp6
 70
     1
102
RTVSPropertyOp7
 70
     1
102
RTVSPropertyOp8
 70
     1
102
RTVSPropertyOp9
 70
     1
102
RTVSPropertyOp10
 70
     1
102
RTVSPropertyOp11
 70
     1
102
RTVSPropertyOp12
 70
     1
102
RTVSPropertyOp13
 70
     1
102
RTVSPropertyOp14
 70
     1
102
RTVSPropertyOp15
 70
     1
102
RTVSPropertyOp16
 70
     1
102
RTVSPropertyOp17
 70
     1
102
RTVSPropertyOp18
 70
     1
102
RTVSPropertyOp19
 70
     1
102
RTVSPropertyOp20
 70
     1
102
RTVSPropertyOp21
 70
     1
102
RTVSPropertyOp22
 70
     1
102
RTVSPropertyOp23
 70
     1
102
RTVSPropertyOp24
 70
     1
102
RTVSPropertyOp25
 70
     1
102
RTVSPropertyOp26
 70
     1
102
RTVSPropertyOp27
 70
     1
102
RTVSPropertyOp28
 70
     1
102
RTVSPropertyOp29
 70
     1
102
RTVSPropertyOp30
 70
     1
102
RTVSPropertyOp31
 70
     1
102
RTVSPropertyOp32
 70
     1
102
RTVSPropertyOp33
 70
     1
102
RTVSPropertyOp34
 70
     1
102
RTVSPropertyOp35
 70
     1
102
RTVSPropertyOp36
 70
     1
102
RTVSPropertyOp37
 70
     1
102
RTVSPropertyOp38
 70
     1
102
RTVSPropertyOp39
 70
     1
102
RTVSPropertyOp40
 70
     1
102
RTVSPropertyOp41
 70
     1
102
RTVSPropertyOp42
 70
     1
102
RTVSPropertyOp43
 70
     1
102
RTVSPropertyOp44
 70
     1
102
RTVSPropertyOp45
 70
     1
102
RTVSPropertyOp46
 70
     1
102
RTVSPropertyOp47
 70
     1
102
RTVSPropertyOp48
 70
     1
102
RTVSPropertyOp49
 70
     1
102
RTVSPropertyOp50
 70
     1
102
RTVSPropertyOp51
 70
     0
102
RTVSPropertyOp52
 70
     0
102
RTVSPropertyOp53
 70
     1
102
RTVSPropertyOp54
 70
     1
102
RTVSPropertyOp55
 70
     1
102
RTVSPropertyOp56
 70
     1
102
RTVSPropertyOp57
 70
     1
102
RTVSPropertyOp58
 70
     1
102
RTVSPropertyOp59
 70
     1
102
RTVSPropertyOp60
 70
     1
102
RTVSPropertyOp61
 70
     1
102
RTVSPropertyOp62
 70
     1
  0
XRECORD
  5
835C
102
{ACAD_REACTORS
330
835B
102
}
330
835B
100
AcDbXrecord
280
     1
102
RTVSPost2010Prop28
280
     0
102
RTVSPost2010PropOp28
 70
     1
102
RTVSPost2010Prop29
280
     1
102
RTVSPost2010PropOp29
 70
     1
102
RTVSPost2010Prop30
280
     1
102
RTVSPost2010PropOp30
 70
     1
102
RTVSPost2010Prop31
280
     0
102
RTVSPost2010PropOp31
 70
     1
102
RTVSPost2010Prop32
280
     0
102
RTVSPost2010PropOp32
 70
     1
102
RTVSPost2010Prop33
280
     0
102
RTVSPost2010PropOp33
 70
     1
102
RTVSPost2010Prop34
280
     0
102
RTVSPost2010PropOp34
 70
     1
102
RTVSPost2010Prop35
280
     0
102
RTVSPost2010PropOp35
 70
     1
102
RTVSPost2010Prop36
280
     0
102
RTVSPost2010PropOp36
 70
     1
102
RTVSPost2010Prop37
 90
       50
102
RTVSPost2010PropOp37
 70
     1
102
RTVSPost2010Prop38
140
0.0
102
RTVSPost2010PropOp38
 70
     1
102
RTVSPost2010Prop39
140
1.0
102
RTVSPost2010PropOp39
 70
     1
102
RTVSPost2010Prop40
 90
        0
102
RTVSPost2010PropOp40
 70
     1
102
RTVSPost2010Prop41ColorIndex
 90
       18
102
RTVSPost2010Prop41ColorRGB
 90
        0
102
RTVSPost2010PropOp41
 70
     1
102
RTVSPost2010Prop42
 90
       50
102
RTVSPost2010PropOp42
 70
     1
102
RTVSPost2010Prop43
 90
        3
102
RTVSPost2010PropOp43
 70
     1
102
RTVSPost2010Prop44ColorIndex
 90
        5
102
RTVSPost2010Prop44ColorRGB
 90
      255
102
RTVSPost2010PropOp44
 70
     1
102
RTVSPost2010Prop45
280
     0
102
RTVSPost2010PropOp45
 70
     1
102
RTVSPost2010Prop46
 90
       50
102
RTVSPost2010PropOp46
 70
     1
102
RTVSPost2010Prop47
 90
       50
102
RTVSPost2010PropOp47
 70
     1
102
RTVSPost2010Prop48
 90
       50
102
RTVSPost2010PropOp48
 70
     1
102
RTVSPost2010Prop49
280
     0
102
RTVSPost2010PropOp49
 70
     1
102
RTVSPost2010Prop50
 90
       50
102
RTVSPost2010PropOp50
 70
     1
102
RTVSPost2010Prop51ColorIndex
 90
      256
102
RTVSPost2010Prop51ColorRGB
 90
-16777216
102
RTVSPost2010PropOp51
 70
     0
102
RTVSPost2010Prop52
140
1.0
102
RTVSPost2010PropOp52
 70
     0
102
RTVSPost2010Prop53
 90
        2
102
RTVSPost2010PropOp53
 70
     1
102
RTVSPost2010Prop54
  1
strokes_ogs.tif
102
RTVSPost2010PropOp54
 70
     1
102
RTVSPost2010Prop55
280
     0
102
RTVSPost2010PropOp55
 70
     1
102
RTVSPost2010Prop56
140
1.0
102
RTVSPost2010PropOp56
 70
     1
102
RTVSPost2010Prop57
140
1.0
102
RTVSPost2010PropOp57
 70
     1
102
RTVSPropertyOp0
 70
     1
102
RTVSPropertyOp1
 70
     1
102
RTVSPropertyOp2
 70
     1
102
RTVSPropertyOp3
 70
     1
102
RTVSPropertyOp4
 70
     1
102
RTVSPropertyOp5
 70
     1
102
RTVSPropertyOp6
 70
     1
102
RTVSPropertyOp7
 70
     1
102
RTVSPropertyOp8
 70
     1
102
RTVSPropertyOp9
 70
     1
102
RTVSPropertyOp10
 70
     1
102
RTVSPropertyOp11
 70
     1
102
RTVSPropertyOp12
 70
     1
102
RTVSPropertyOp13
 70
     1
102
RTVSPropertyOp14
 70
     1
102
RTVSPropertyOp15
 70
     1
102
RTVSPropertyOp16
 70
     1
102
RTVSPropertyOp17
 70
     1
102
RTVSPropertyOp18
 70
     1
102
RTVSPropertyOp19
 70
     1
102
RTVSPropertyOp20
 70
     1
102
RTVSPropertyOp21
 70
     1
102
RTVSPropertyOp22
 70
     1
102
RTVSPropertyOp23
 70
     1
102
RTVSPropertyOp24
 70
     1
102
RTVSPropertyOp25
 70
     1
102
RTVSPropertyOp26
 70
     1
102
RTVSPropertyOp27
 70
     1
102
RTVSPropertyOp28
 70
     1
102
RTVSPropertyOp29
 70
     1
102
RTVSPropertyOp30
 70
     1
102
RTVSPropertyOp31
 70
     1
102
RTVSPropertyOp32
 70
     1
102
RTVSPropertyOp33
 70
     1
102
RTVSPropertyOp34
 70
     1
102
RTVSPropertyOp35
 70
     1
102
RTVSPropertyOp36
 70
     1
102
RTVSPropertyOp37
 70
     1
102
RTVSPropertyOp38
 70
     1
102
RTVSPropertyOp39
 70
     1
102
RTVSPropertyOp40
 70
     1
102
RTVSPropertyOp41
 70
     1
102
RTVSPropertyOp42
 70
     1
102
RTVSPropertyOp43
 70
     1
102
RTVSPropertyOp44
 70
     1
102
RTVSPropertyOp45
 70
     1
102
RTVSPropertyOp46
 70
     1
102
RTVSPropertyOp47
 70
     1
102
RTVSPropertyOp48
 70
     1
102
RTVSPropertyOp49
 70
     1
102
RTVSPropertyOp50
 70
     1
102
RTVSPropertyOp51
 70
     0
102
RTVSPropertyOp52
 70
     0
102
RTVSPropertyOp53
 70
     1
102
RTVSPropertyOp54
 70
     1
102
RTVSPropertyOp55
 70
     1
102
RTVSPropertyOp56
 70
     1
102
RTVSPropertyOp57
 70
     1
102
RTVSPropertyOp58
 70
     1
102
RTVSPropertyOp59
 70
     1
102
RTVSPropertyOp60
 70
     1
102
RTVSPropertyOp61
 70
     1
102
RTVSPropertyOp62
 70
     1
  0
XRECORD
  5
836A
102
{ACAD_REACTORS
330
8369
102
}
330
8369
100
AcDbXrecord
280
     1
102
RTVSPost2010Prop28
280
     0
102
RTVSPost2010PropOp28
 70
     1
102
RTVSPost2010Prop29
280
     1
102
RTVSPost2010PropOp29
 70
     1
102
RTVSPost2010Prop30
280
     1
102
RTVSPost2010PropOp30
 70
     1
102
RTVSPost2010Prop31
280
     0
102
RTVSPost2010PropOp31
 70
     1
102
RTVSPost2010Prop32
280
     0
102
RTVSPost2010PropOp32
 70
     1
102
RTVSPost2010Prop33
280
     0
102
RTVSPost2010PropOp33
 70
     1
102
RTVSPost2010Prop34
280
     0
102
RTVSPost2010PropOp34
 70
     1
102
RTVSPost2010Prop35
280
     0
102
RTVSPost2010PropOp35
 70
     1
102
RTVSPost2010Prop36
280
     0
102
RTVSPost2010PropOp36
 70
     1
102
RTVSPost2010Prop37
 90
       50
102
RTVSPost2010PropOp37
 70
     1
102
RTVSPost2010Prop38
140
0.0
102
RTVSPost2010PropOp38
 70
     1
102
RTVSPost2010Prop39
140
1.0
102
RTVSPost2010PropOp39
 70
     1
102
RTVSPost2010Prop40
 90
        0
102
RTVSPost2010PropOp40
 70
     1
102
RTVSPost2010Prop41ColorIndex
 90
       18
102
RTVSPost2010Prop41ColorRGB
 90
        0
102
RTVSPost2010PropOp41
 70
     1
102
RTVSPost2010Prop42
 90
       50
102
RTVSPost2010PropOp42
 70
     1
102
RTVSPost2010Prop43
 90
        3
102
RTVSPost2010PropOp43
 70
     1
102
RTVSPost2010Prop44ColorIndex
 90
        5
102
RTVSPost2010Prop44ColorRGB
 90
      255
102
RTVSPost2010PropOp44
 70
     1
102
RTVSPost2010Prop45
280
     0
102
RTVSPost2010PropOp45
 70
     1
102
RTVSPost2010Prop46
 90
       50
102
RTVSPost2010PropOp46
 70
     1
102
RTVSPost2010Prop47
 90
       50
102
RTVSPost2010PropOp47
 70
     1
102
RTVSPost2010Prop48
 90
       50
102
RTVSPost2010PropOp48
 70
     1
102
RTVSPost2010Prop49
280
     0
102
RTVSPost2010PropOp49
 70
     1
102
RTVSPost2010Prop50
 90
       50
102
RTVSPost2010PropOp50
 70
     1
102
RTVSPost2010Prop51ColorIndex
 90
      256
102
RTVSPost2010Prop51ColorRGB
 90
-16777216
102
RTVSPost2010PropOp51
 70
     0
102
RTVSPost2010Prop52
140
1.0
102
RTVSPost2010PropOp52
 70
     0
102
RTVSPost2010Prop53
 90
        2
102
RTVSPost2010PropOp53
 70
     1
102
RTVSPost2010Prop54
  1
strokes_ogs.tif
102
RTVSPost2010PropOp54
 70
     1
102
RTVSPost2010Prop55
280
     0
102
RTVSPost2010PropOp55
 70
     1
102
RTVSPost2010Prop56
140
1.0
102
RTVSPost2010PropOp56
 70
     1
102
RTVSPost2010Prop57
140
1.0
102
RTVSPost2010PropOp57
 70
     1
102
RTVSPropertyOp0
 70
     1
102
RTVSPropertyOp1
 70
     1
102
RTVSPropertyOp2
 70
     1
102
RTVSPropertyOp3
 70
     1
102
RTVSPropertyOp4
 70
     1
102
RTVSPropertyOp5
 70
     1
102
RTVSPropertyOp6
 70
     1
102
RTVSPropertyOp7
 70
     1
102
RTVSPropertyOp8
 70
     1
102
RTVSPropertyOp9
 70
     1
102
RTVSPropertyOp10
 70
     1
102
RTVSPropertyOp11
 70
     1
102
RTVSPropertyOp12
 70
     1
102
RTVSPropertyOp13
 70
     1
102
RTVSPropertyOp14
 70
     1
102
RTVSPropertyOp15
 70
     1
102
RTVSPropertyOp16
 70
     1
102
RTVSPropertyOp17
 70
     1
102
RTVSPropertyOp18
 70
     1
102
RTVSPropertyOp19
 70
     1
102
RTVSPropertyOp20
 70
     1
102
RTVSPropertyOp21
 70
     1
102
RTVSPropertyOp22
 70
     1
102
RTVSPropertyOp23
 70
     1
102
RTVSPropertyOp24
 70
     1
102
RTVSPropertyOp25
 70
     1
102
RTVSPropertyOp26
 70
     1
102
RTVSPropertyOp27
 70
     1
102
RTVSPropertyOp28
 70
     1
102
RTVSPropertyOp29
 70
     1
102
RTVSPropertyOp30
 70
     1
102
RTVSPropertyOp31
 70
     1
102
RTVSPropertyOp32
 70
     1
102
RTVSPropertyOp33
 70
     1
102
RTVSPropertyOp34
 70
     1
102
RTVSPropertyOp35
 70
     1
102
RTVSPropertyOp36
 70
     1
102
RTVSPropertyOp37
 70
     1
102
RTVSPropertyOp38
 70
     1
102
RTVSPropertyOp39
 70
     1
102
RTVSPropertyOp40
 70
     1
102
RTVSPropertyOp41
 70
     1
102
RTVSPropertyOp42
 70
     1
102
RTVSPropertyOp43
 70
     1
102
RTVSPropertyOp44
 70
     1
102
RTVSPropertyOp45
 70
     1
102
RTVSPropertyOp46
 70
     1
102
RTVSPropertyOp47
 70
     1
102
RTVSPropertyOp48
 70
     1
102
RTVSPropertyOp49
 70
     1
102
RTVSPropertyOp50
 70
     1
102
RTVSPropertyOp51
 70
     0
102
RTVSPropertyOp52
 70
     0
102
RTVSPropertyOp53
 70
     1
102
RTVSPropertyOp54
 70
     1
102
RTVSPropertyOp55
 70
     1
102
RTVSPropertyOp56
 70
     1
102
RTVSPropertyOp57
 70
     1
102
RTVSPropertyOp58
 70
     1
102
RTVSPropertyOp59
 70
     1
102
RTVSPropertyOp60
 70
     1
102
RTVSPropertyOp61
 70
     1
102
RTVSPropertyOp62
 70
     1
  0
XRECORD
  5
8372
102
{ACAD_REACTORS
330
8371
102
}
330
8371
100
AcDbXrecord
280
     1
102
RTVSPost2010Prop28
280
     0
102
RTVSPost2010PropOp28
 70
     1
102
RTVSPost2010Prop29
280
     1
102
RTVSPost2010PropOp29
 70
     1
102
RTVSPost2010Prop30
280
     1
102
RTVSPost2010PropOp30
 70
     1
102
RTVSPost2010Prop31
280
     0
102
RTVSPost2010PropOp31
 70
     1
102
RTVSPost2010Prop32
280
     0
102
RTVSPost2010PropOp32
 70
     1
102
RTVSPost2010Prop33
280
     0
102
RTVSPost2010PropOp33
 70
     1
102
RTVSPost2010Prop34
280
     0
102
RTVSPost2010PropOp34
 70
     1
102
RTVSPost2010Prop35
280
     0
102
RTVSPost2010PropOp35
 70
     1
102
RTVSPost2010Prop36
280
     0
102
RTVSPost2010PropOp36
 70
     1
102
RTVSPost2010Prop37
 90
       50
102
RTVSPost2010PropOp37
 70
     1
102
RTVSPost2010Prop38
140
0.0
102
RTVSPost2010PropOp38
 70
     1
102
RTVSPost2010Prop39
140
1.0
102
RTVSPost2010PropOp39
 70
     1
102
RTVSPost2010Prop40
 90
        0
102
RTVSPost2010PropOp40
 70
     1
102
RTVSPost2010Prop41ColorIndex
 90
       18
102
RTVSPost2010Prop41ColorRGB
 90
        0
102
RTVSPost2010PropOp41
 70
     1
102
RTVSPost2010Prop42
 90
       50
102
RTVSPost2010PropOp42
 70
     1
102
RTVSPost2010Prop43
 90
        3
102
RTVSPost2010PropOp43
 70
     1
102
RTVSPost2010Prop44ColorIndex
 90
        5
102
RTVSPost2010Prop44ColorRGB
 90
      255
102
RTVSPost2010PropOp44
 70
     1
102
RTVSPost2010Prop45
280
     0
102
RTVSPost2010PropOp45
 70
     1
102
RTVSPost2010Prop46
 90
       50
102
RTVSPost2010PropOp46
 70
     1
102
RTVSPost2010Prop47
 90
       50
102
RTVSPost2010PropOp47
 70
     1
102
RTVSPost2010Prop48
 90
       50
102
RTVSPost2010PropOp48
 70
     1
102
RTVSPost2010Prop49
280
     0
102
RTVSPost2010PropOp49
 70
     1
102
RTVSPost2010Prop50
 90
       50
102
RTVSPost2010PropOp50
 70
     1
102
RTVSPost2010Prop51ColorIndex
 90
      256
102
RTVSPost2010Prop51ColorRGB
 90
-16777216
102
RTVSPost2010PropOp51
 70
     0
102
RTVSPost2010Prop52
140
1.0
102
RTVSPost2010PropOp52
 70
     0
102
RTVSPost2010Prop53
 90
        2
102
RTVSPost2010PropOp53
 70
     1
102
RTVSPost2010Prop54
  1
strokes_ogs.tif
102
RTVSPost2010PropOp54
 70
     1
102
RTVSPost2010Prop55
280
     0
102
RTVSPost2010PropOp55
 70
     1
102
RTVSPost2010Prop56
140
1.0
102
RTVSPost2010PropOp56
 70
     1
102
RTVSPost2010Prop57
140
1.0
102
RTVSPost2010PropOp57
 70
     1
102
RTVSPropertyOp0
 70
     1
102
RTVSPropertyOp1
 70
     1
102
RTVSPropertyOp2
 70
     1
102
RTVSPropertyOp3
 70
     1
102
RTVSPropertyOp4
 70
     1
102
RTVSPropertyOp5
 70
     1
102
RTVSPropertyOp6
 70
     1
102
RTVSPropertyOp7
 70
     1
102
RTVSPropertyOp8
 70
     1
102
RTVSPropertyOp9
 70
     1
102
RTVSPropertyOp10
 70
     1
102
RTVSPropertyOp11
 70
     1
102
RTVSPropertyOp12
 70
     1
102
RTVSPropertyOp13
 70
     1
102
RTVSPropertyOp14
 70
     1
102
RTVSPropertyOp15
 70
     1
102
RTVSPropertyOp16
 70
     1
102
RTVSPropertyOp17
 70
     1
102
RTVSPropertyOp18
 70
     1
102
RTVSPropertyOp19
 70
     1
102
RTVSPropertyOp20
 70
     1
102
RTVSPropertyOp21
 70
     1
102
RTVSPropertyOp22
 70
     1
102
RTVSPropertyOp23
 70
     1
102
RTVSPropertyOp24
 70
     1
102
RTVSPropertyOp25
 70
     1
102
RTVSPropertyOp26
 70
     1
102
RTVSPropertyOp27
 70
     1
102
RTVSPropertyOp28
 70
     1
102
RTVSPropertyOp29
 70
     1
102
RTVSPropertyOp30
 70
     1
102
RTVSPropertyOp31
 70
     1
102
RTVSPropertyOp32
 70
     1
102
RTVSPropertyOp33
 70
     1
102
RTVSPropertyOp34
 70
     1
102
RTVSPropertyOp35
 70
     1
102
RTVSPropertyOp36
 70
     1
102
RTVSPropertyOp37
 70
     1
102
RTVSPropertyOp38
 70
     1
102
RTVSPropertyOp39
 70
     1
102
RTVSPropertyOp40
 70
     1
102
RTVSPropertyOp41
 70
     1
102
RTVSPropertyOp42
 70
     1
102
RTVSPropertyOp43
 70
     1
102
RTVSPropertyOp44
 70
     1
102
RTVSPropertyOp45
 70
     1
102
RTVSPropertyOp46
 70
     1
102
RTVSPropertyOp47
 70
     1
102
RTVSPropertyOp48
 70
     1
102
RTVSPropertyOp49
 70
     1
102
RTVSPropertyOp50
 70
     1
102
RTVSPropertyOp51
 70
     0
102
RTVSPropertyOp52
 70
     0
102
RTVSPropertyOp53
 70
     1
102
RTVSPropertyOp54
 70
     1
102
RTVSPropertyOp55
 70
     1
102
RTVSPropertyOp56
 70
     1
102
RTVSPropertyOp57
 70
     1
102
RTVSPropertyOp58
 70
     1
102
RTVSPropertyOp59
 70
     1
102
RTVSPropertyOp60
 70
     1
102
RTVSPropertyOp61
 70
     1
102
RTVSPropertyOp62
 70
     1
  0
XRECORD
  5
8364
102
{ACAD_REACTORS
330
8363
102
}
330
8363
100
AcDbXrecord
280
     1
102
RTVSPost2010Prop28
280
     0
102
RTVSPost2010PropOp28
 70
     1
102
RTVSPost2010Prop29
280
     1
102
RTVSPost2010PropOp29
 70
     1
102
RTVSPost2010Prop30
280
     1
102
RTVSPost2010PropOp30
 70
     1
102
RTVSPost2010Prop31
280
     0
102
RTVSPost2010PropOp31
 70
     1
102
RTVSPost2010Prop32
280
     0
102
RTVSPost2010PropOp32
 70
     1
102
RTVSPost2010Prop33
280
     0
102
RTVSPost2010PropOp33
 70
     1
102
RTVSPost2010Prop34
280
     0
102
RTVSPost2010PropOp34
 70
     1
102
RTVSPost2010Prop35
280
     0
102
RTVSPost2010PropOp35
 70
     1
102
RTVSPost2010Prop36
280
     0
102
RTVSPost2010PropOp36
 70
     1
102
RTVSPost2010Prop37
 90
       50
102
RTVSPost2010PropOp37
 70
     1
102
RTVSPost2010Prop38
140
0.0
102
RTVSPost2010PropOp38
 70
     1
102
RTVSPost2010Prop39
140
1.0
102
RTVSPost2010PropOp39
 70
     1
102
RTVSPost2010Prop40
 90
        0
102
RTVSPost2010PropOp40
 70
     1
102
RTVSPost2010Prop41ColorIndex
 90
       18
102
RTVSPost2010Prop41ColorRGB
 90
        0
102
RTVSPost2010PropOp41
 70
     1
102
RTVSPost2010Prop42
 90
       50
102
RTVSPost2010PropOp42
 70
     1
102
RTVSPost2010Prop43
 90
        3
102
RTVSPost2010PropOp43
 70
     1
102
RTVSPost2010Prop44ColorIndex
 90
        5
102
RTVSPost2010Prop44ColorRGB
 90
      255
102
RTVSPost2010PropOp44
 70
     1
102
RTVSPost2010Prop45
280
     0
102
RTVSPost2010PropOp45
 70
     1
102
RTVSPost2010Prop46
 90
       50
102
RTVSPost2010PropOp46
 70
     1
102
RTVSPost2010Prop47
 90
       50
102
RTVSPost2010PropOp47
 70
     1
102
RTVSPost2010Prop48
 90
       50
102
RTVSPost2010PropOp48
 70
     1
102
RTVSPost2010Prop49
280
     0
102
RTVSPost2010PropOp49
 70
     1
102
RTVSPost2010Prop50
 90
       50
102
RTVSPost2010PropOp50
 70
     1
102
RTVSPost2010Prop51ColorIndex
 90
      256
102
RTVSPost2010Prop51ColorRGB
 90
-16777216
102
RTVSPost2010PropOp51
 70
     0
102
RTVSPost2010Prop52
140
1.0
102
RTVSPost2010PropOp52
 70
     0
102
RTVSPost2010Prop53
 90
        2
102
RTVSPost2010PropOp53
 70
     1
102
RTVSPost2010Prop54
  1
strokes_ogs.tif
102
RTVSPost2010PropOp54
 70
     1
102
RTVSPost2010Prop55
280
     0
102
RTVSPost2010PropOp55
 70
     1
102
RTVSPost2010Prop56
140
1.0
102
RTVSPost2010PropOp56
 70
     1
102
RTVSPost2010Prop57
140
1.0
102
RTVSPost2010PropOp57
 70
     1
102
RTVSPropertyOp0
 70
     1
102
RTVSPropertyOp1
 70
     1
102
RTVSPropertyOp2
 70
     1
102
RTVSPropertyOp3
 70
     1
102
RTVSPropertyOp4
 70
     1
102
RTVSPropertyOp5
 70
     1
102
RTVSPropertyOp6
 70
     1
102
RTVSPropertyOp7
 70
     1
102
RTVSPropertyOp8
 70
     1
102
RTVSPropertyOp9
 70
     1
102
RTVSPropertyOp10
 70
     1
102
RTVSPropertyOp11
 70
     1
102
RTVSPropertyOp12
 70
     1
102
RTVSPropertyOp13
 70
     1
102
RTVSPropertyOp14
 70
     1
102
RTVSPropertyOp15
 70
     1
102
RTVSPropertyOp16
 70
     1
102
RTVSPropertyOp17
 70
     1
102
RTVSPropertyOp18
 70
     1
102
RTVSPropertyOp19
 70
     1
102
RTVSPropertyOp20
 70
     1
102
RTVSPropertyOp21
 70
     1
102
RTVSPropertyOp22
 70
     1
102
RTVSPropertyOp23
 70
     1
102
RTVSPropertyOp24
 70
     1
102
RTVSPropertyOp25
 70
     1
102
RTVSPropertyOp26
 70
     1
102
RTVSPropertyOp27
 70
     1
102
RTVSPropertyOp28
 70
     1
102
RTVSPropertyOp29
 70
     1
102
RTVSPropertyOp30
 70
     1
102
RTVSPropertyOp31
 70
     1
102
RTVSPropertyOp32
 70
     1
102
RTVSPropertyOp33
 70
     1
102
RTVSPropertyOp34
 70
     1
102
RTVSPropertyOp35
 70
     1
102
RTVSPropertyOp36
 70
     1
102
RTVSPropertyOp37
 70
     1
102
RTVSPropertyOp38
 70
     1
102
RTVSPropertyOp39
 70
     1
102
RTVSPropertyOp40
 70
     1
102
RTVSPropertyOp41
 70
     1
102
RTVSPropertyOp42
 70
     1
102
RTVSPropertyOp43
 70
     1
102
RTVSPropertyOp44
 70
     1
102
RTVSPropertyOp45
 70
     1
102
RTVSPropertyOp46
 70
     1
102
RTVSPropertyOp47
 70
     1
102
RTVSPropertyOp48
 70
     1
102
RTVSPropertyOp49
 70
     1
102
RTVSPropertyOp50
 70
     1
102
RTVSPropertyOp51
 70
     0
102
RTVSPropertyOp52
 70
     0
102
RTVSPropertyOp53
 70
     1
102
RTVSPropertyOp54
 70
     1
102
RTVSPropertyOp55
 70
     1
102
RTVSPropertyOp56
 70
     1
102
RTVSPropertyOp57
 70
     1
102
RTVSPropertyOp58
 70
     1
102
RTVSPropertyOp59
 70
     1
102
RTVSPropertyOp60
 70
     1
102
RTVSPropertyOp61
 70
     1
102
RTVSPropertyOp62
 70
     1
  0
XRECORD
  5
8368
102
{ACAD_REACTORS
330
8367
102
}
330
8367
100
AcDbXrecord
280
     1
102
RTVSPost2010Prop28
280
     0
102
RTVSPost2010PropOp28
 70
     1
102
RTVSPost2010Prop29
280
     1
102
RTVSPost2010PropOp29
 70
     1
102
RTVSPost2010Prop30
280
     1
102
RTVSPost2010PropOp30
 70
     1
102
RTVSPost2010Prop31
280
     0
102
RTVSPost2010PropOp31
 70
     1
102
RTVSPost2010Prop32
280
     0
102
RTVSPost2010PropOp32
 70
     1
102
RTVSPost2010Prop33
280
     0
102
RTVSPost2010PropOp33
 70
     1
102
RTVSPost2010Prop34
280
     0
102
RTVSPost2010PropOp34
 70
     1
102
RTVSPost2010Prop35
280
     0
102
RTVSPost2010PropOp35
 70
     1
102
RTVSPost2010Prop36
280
     0
102
RTVSPost2010PropOp36
 70
     1
102
RTVSPost2010Prop37
 90
       50
102
RTVSPost2010PropOp37
 70
     1
102
RTVSPost2010Prop38
140
0.0
102
RTVSPost2010PropOp38
 70
     1
102
RTVSPost2010Prop39
140
1.0
102
RTVSPost2010PropOp39
 70
     1
102
RTVSPost2010Prop40
 90
        0
102
RTVSPost2010PropOp40
 70
     1
102
RTVSPost2010Prop41ColorIndex
 90
       18
102
RTVSPost2010Prop41ColorRGB
 90
        0
102
RTVSPost2010PropOp41
 70
     1
102
RTVSPost2010Prop42
 90
       50
102
RTVSPost2010PropOp42
 70
     1
102
RTVSPost2010Prop43
 90
        3
102
RTVSPost2010PropOp43
 70
     1
102
RTVSPost2010Prop44ColorIndex
 90
        5
102
RTVSPost2010Prop44ColorRGB
 90
      255
102
RTVSPost2010PropOp44
 70
     1
102
RTVSPost2010Prop45
280
     0
102
RTVSPost2010PropOp45
 70
     1
102
RTVSPost2010Prop46
 90
       50
102
RTVSPost2010PropOp46
 70
     1
102
RTVSPost2010Prop47
 90
       50
102
RTVSPost2010PropOp47
 70
     1
102
RTVSPost2010Prop48
 90
       50
102
RTVSPost2010PropOp48
 70
     1
102
RTVSPost2010Prop49
280
     0
102
RTVSPost2010PropOp49
 70
     1
102
RTVSPost2010Prop50
 90
       50
102
RTVSPost2010PropOp50
 70
     1
102
RTVSPost2010Prop51ColorIndex
 90
      256
102
RTVSPost2010Prop51ColorRGB
 90
-16777216
102
RTVSPost2010PropOp51
 70
     0
102
RTVSPost2010Prop52
140
1.0
102
RTVSPost2010PropOp52
 70
     0
102
RTVSPost2010Prop53
 90
        2
102
RTVSPost2010PropOp53
 70
     1
102
RTVSPost2010Prop54
  1
strokes_ogs.tif
102
RTVSPost2010PropOp54
 70
     1
102
RTVSPost2010Prop55
280
     0
102
RTVSPost2010PropOp55
 70
     1
102
RTVSPost2010Prop56
140
1.0
102
RTVSPost2010PropOp56
 70
     1
102
RTVSPost2010Prop57
140
1.0
102
RTVSPost2010PropOp57
 70
     1
102
RTVSPropertyOp0
 70
     1
102
RTVSPropertyOp1
 70
     1
102
RTVSPropertyOp2
 70
     1
102
RTVSPropertyOp3
 70
     1
102
RTVSPropertyOp4
 70
     1
102
RTVSPropertyOp5
 70
     1
102
RTVSPropertyOp6
 70
     1
102
RTVSPropertyOp7
 70
     1
102
RTVSPropertyOp8
 70
     1
102
RTVSPropertyOp9
 70
     1
102
RTVSPropertyOp10
 70
     1
102
RTVSPropertyOp11
 70
     1
102
RTVSPropertyOp12
 70
     1
102
RTVSPropertyOp13
 70
     1
102
RTVSPropertyOp14
 70
     1
102
RTVSPropertyOp15
 70
     1
102
RTVSPropertyOp16
 70
     1
102
RTVSPropertyOp17
 70
     1
102
RTVSPropertyOp18
 70
     1
102
RTVSPropertyOp19
 70
     1
102
RTVSPropertyOp20
 70
     1
102
RTVSPropertyOp21
 70
     1
102
RTVSPropertyOp22
 70
     1
102
RTVSPropertyOp23
 70
     1
102
RTVSPropertyOp24
 70
     1
102
RTVSPropertyOp25
 70
     1
102
RTVSPropertyOp26
 70
     1
102
RTVSPropertyOp27
 70
     1
102
RTVSPropertyOp28
 70
     1
102
RTVSPropertyOp29
 70
     1
102
RTVSPropertyOp30
 70
     1
102
RTVSPropertyOp31
 70
     1
102
RTVSPropertyOp32
 70
     1
102
RTVSPropertyOp33
 70
     1
102
RTVSPropertyOp34
 70
     1
102
RTVSPropertyOp35
 70
     1
102
RTVSPropertyOp36
 70
     1
102
RTVSPropertyOp37
 70
     1
102
RTVSPropertyOp38
 70
     1
102
RTVSPropertyOp39
 70
     1
102
RTVSPropertyOp40
 70
     1
102
RTVSPropertyOp41
 70
     1
102
RTVSPropertyOp42
 70
     1
102
RTVSPropertyOp43
 70
     1
102
RTVSPropertyOp44
 70
     1
102
RTVSPropertyOp45
 70
     1
102
RTVSPropertyOp46
 70
     1
102
RTVSPropertyOp47
 70
     1
102
RTVSPropertyOp48
 70
     1
102
RTVSPropertyOp49
 70
     1
102
RTVSPropertyOp50
 70
     1
102
RTVSPropertyOp51
 70
     0
102
RTVSPropertyOp52
 70
     0
102
RTVSPropertyOp53
 70
     1
102
RTVSPropertyOp54
 70
     1
102
RTVSPropertyOp55
 70
     1
102
RTVSPropertyOp56
 70
     1
102
RTVSPropertyOp57
 70
     1
102
RTVSPropertyOp58
 70
     1
102
RTVSPropertyOp59
 70
     1
102
RTVSPropertyOp60
 70
     1
102
RTVSPropertyOp61
 70
     1
102
RTVSPropertyOp62
 70
     1
  0
XRECORD
  5
8382
102
{ACAD_REACTORS
330
8381
102
}
330
8381
100
AcDbXrecord
280
     1
102
RTVSPost2010Prop28
280
     0
102
RTVSPost2010PropOp28
 70
     1
102
RTVSPost2010Prop29
280
     1
102
RTVSPost2010PropOp29
 70
     1
102
RTVSPost2010Prop30
280
     1
102
RTVSPost2010PropOp30
 70
     1
102
RTVSPost2010Prop31
280
     0
102
RTVSPost2010PropOp31
 70
     1
102
RTVSPost2010Prop32
280
     0
102
RTVSPost2010PropOp32
 70
     1
102
RTVSPost2010Prop33
280
     0
102
RTVSPost2010PropOp33
 70
     1
102
RTVSPost2010Prop34
280
     0
102
RTVSPost2010PropOp34
 70
     1
102
RTVSPost2010Prop35
280
     0
102
RTVSPost2010PropOp35
 70
     1
102
RTVSPost2010Prop36
280
     0
102
RTVSPost2010PropOp36
 70
     1
102
RTVSPost2010Prop37
 90
       50
102
RTVSPost2010PropOp37
 70
     0
102
RTVSPost2010Prop38
140
0.0
102
RTVSPost2010PropOp38
 70
     0
102
RTVSPost2010Prop39
140
1.0
102
RTVSPost2010PropOp39
 70
     0
102
RTVSPost2010Prop40
 90
        0
102
RTVSPost2010PropOp40
 70
     0
102
RTVSPost2010Prop41ColorIndex
 90
       18
102
RTVSPost2010Prop41ColorRGB
 90
        0
102
RTVSPost2010PropOp41
 70
     0
102
RTVSPost2010Prop42
 90
       50
102
RTVSPost2010PropOp42
 70
     0
102
RTVSPost2010Prop43
 90
        3
102
RTVSPost2010PropOp43
 70
     0
102
RTVSPost2010Prop44ColorIndex
 90
        5
102
RTVSPost2010Prop44ColorRGB
 90
      255
102
RTVSPost2010PropOp44
 70
     0
102
RTVSPost2010Prop45
280
     0
102
RTVSPost2010PropOp45
 70
     1
102
RTVSPost2010Prop46
 90
       50
102
RTVSPost2010PropOp46
 70
     0
102
RTVSPost2010Prop47
 90
       50
102
RTVSPost2010PropOp47
 70
     0
102
RTVSPost2010Prop48
 90
       50
102
RTVSPost2010PropOp48
 70
     0
102
RTVSPost2010Prop49
280
     0
102
RTVSPost2010PropOp49
 70
     1
102
RTVSPost2010Prop50
 90
       50
102
RTVSPost2010PropOp50
 70
     0
102
RTVSPost2010Prop51ColorIndex
 90
      256
102
RTVSPost2010Prop51ColorRGB
 90
-16777216
102
RTVSPost2010PropOp51
 70
     0
102
RTVSPost2010Prop52
140
1.0
102
RTVSPost2010PropOp52
 70
     0
102
RTVSPost2010Prop53
 90
        2
102
RTVSPost2010PropOp53
 70
     0
102
RTVSPost2010Prop54
  1
strokes_ogs.tif
102
RTVSPost2010PropOp54
 70
     0
102
RTVSPost2010Prop55
280
     0
102
RTVSPost2010PropOp55
 70
     1
102
RTVSPost2010Prop56
140
1.0
102
RTVSPost2010PropOp56
 70
     0
102
RTVSPost2010Prop57
140
1.0
102
RTVSPost2010PropOp57
 70
     0
102
RTVSPropertyOp0
 70
     0
102
RTVSPropertyOp1
 70
     0
102
RTVSPropertyOp2
 70
     0
102
RTVSPropertyOp3
 70
     0
102
RTVSPropertyOp4
 70
     0
102
RTVSPropertyOp5
 70
     0
102
RTVSPropertyOp6
 70
     0
102
RTVSPropertyOp7
 70
     0
102
RTVSPropertyOp8
 70
     0
102
RTVSPropertyOp9
 70
     0
102
RTVSPropertyOp10
 70
     0
102
RTVSPropertyOp11
 70
     0
102
RTVSPropertyOp12
 70
     0
102
RTVSPropertyOp13
 70
     0
102
RTVSPropertyOp14
 70
     2
102
RTVSPropertyOp15
 70
     0
102
RTVSPropertyOp16
 70
     0
102
RTVSPropertyOp17
 70
     0
102
RTVSPropertyOp18
 70
     0
102
RTVSPropertyOp19
 70
     0
102
RTVSPropertyOp20
 70
     0
102
RTVSPropertyOp21
 70
     0
102
RTVSPropertyOp22
 70
     0
102
RTVSPropertyOp23
 70
     0
102
RTVSPropertyOp24
 70
     0
102
RTVSPropertyOp25
 70
     0
102
RTVSPropertyOp26
 70
     0
102
RTVSPropertyOp27
 70
     0
102
RTVSPropertyOp28
 70
     1
102
RTVSPropertyOp29
 70
     1
102
RTVSPropertyOp30
 70
     1
102
RTVSPropertyOp31
 70
     1
102
RTVSPropertyOp32
 70
     1
102
RTVSPropertyOp33
 70
     1
102
RTVSPropertyOp34
 70
     1
102
RTVSPropertyOp35
 70
     1
102
RTVSPropertyOp36
 70
     1
102
RTVSPropertyOp37
 70
     0
102
RTVSPropertyOp38
 70
     0
102
RTVSPropertyOp39
 70
     0
102
RTVSPropertyOp40
 70
     0
102
RTVSPropertyOp41
 70
     0
102
RTVSPropertyOp42
 70
     0
102
RTVSPropertyOp43
 70
     0
102
RTVSPropertyOp44
 70
     0
102
RTVSPropertyOp45
 70
     1
102
RTVSPropertyOp46
 70
     0
102
RTVSPropertyOp47
 70
     0
102
RTVSPropertyOp48
 70
     0
102
RTVSPropertyOp49
 70
     1
102
RTVSPropertyOp50
 70
     0
102
RTVSPropertyOp51
 70
     0
102
RTVSPropertyOp52
 70
     0
102
RTVSPropertyOp53
 70
     0
102
RTVSPropertyOp54
 70
     0
102
RTVSPropertyOp55
 70
     1
102
RTVSPropertyOp56
 70
     0
102
RTVSPropertyOp57
 70
     0
102
RTVSPropertyOp58
 70
     0
102
RTVSPropertyOp59
 70
     0
102
RTVSPropertyOp60
 70
     0
102
RTVSPropertyOp61
 70
     0
102
RTVSPropertyOp62
 70
     0
  0
XRECORD
  5
8370
102
{ACAD_REACTORS
330
836F
102
}
330
836F
100
AcDbXrecord
280
     1
102
RTVSPost2010Prop28
280
     0
102
RTVSPost2010PropOp28
 70
     1
102
RTVSPost2010Prop29
280
     1
102
RTVSPost2010PropOp29
 70
     1
102
RTVSPost2010Prop30
280
     1
102
RTVSPost2010PropOp30
 70
     1
102
RTVSPost2010Prop31
280
     0
102
RTVSPost2010PropOp31
 70
     1
102
RTVSPost2010Prop32
280
     0
102
RTVSPost2010PropOp32
 70
     1
102
RTVSPost2010Prop33
280
     0
102
RTVSPost2010PropOp33
 70
     1
102
RTVSPost2010Prop34
280
     0
102
RTVSPost2010PropOp34
 70
     1
102
RTVSPost2010Prop35
280
     0
102
RTVSPost2010PropOp35
 70
     1
102
RTVSPost2010Prop36
280
     0
102
RTVSPost2010PropOp36
 70
     1
102
RTVSPost2010Prop37
 90
       50
102
RTVSPost2010PropOp37
 70
     1
102
RTVSPost2010Prop38
140
0.0
102
RTVSPost2010PropOp38
 70
     1
102
RTVSPost2010Prop39
140
1.0
102
RTVSPost2010PropOp39
 70
     1
102
RTVSPost2010Prop40
 90
        0
102
RTVSPost2010PropOp40
 70
     1
102
RTVSPost2010Prop41ColorIndex
 90
       18
102
RTVSPost2010Prop41ColorRGB
 90
        0
102
RTVSPost2010PropOp41
 70
     1
102
RTVSPost2010Prop42
 90
       50
102
RTVSPost2010PropOp42
 70
     1
102
RTVSPost2010Prop43
 90
        3
102
RTVSPost2010PropOp43
 70
     1
102
RTVSPost2010Prop44ColorIndex
 90
        5
102
RTVSPost2010Prop44ColorRGB
 90
      255
102
RTVSPost2010PropOp44
 70
     1
102
RTVSPost2010Prop45
280
     0
102
RTVSPost2010PropOp45
 70
     1
102
RTVSPost2010Prop46
 90
       50
102
RTVSPost2010PropOp46
 70
     1
102
RTVSPost2010Prop47
 90
       50
102
RTVSPost2010PropOp47
 70
     1
102
RTVSPost2010Prop48
 90
       50
102
RTVSPost2010PropOp48
 70
     1
102
RTVSPost2010Prop49
280
     0
102
RTVSPost2010PropOp49
 70
     1
102
RTVSPost2010Prop50
 90
       50
102
RTVSPost2010PropOp50
 70
     1
102
RTVSPost2010Prop51ColorIndex
 90
      256
102
RTVSPost2010Prop51ColorRGB
 90
-16777216
102
RTVSPost2010PropOp51
 70
     0
102
RTVSPost2010Prop52
140
1.0
102
RTVSPost2010PropOp52
 70
     0
102
RTVSPost2010Prop53
 90
        2
102
RTVSPost2010PropOp53
 70
     1
102
RTVSPost2010Prop54
  1
strokes_ogs.tif
102
RTVSPost2010PropOp54
 70
     1
102
RTVSPost2010Prop55
280
     0
102
RTVSPost2010PropOp55
 70
     1
102
RTVSPost2010Prop56
140
1.0
102
RTVSPost2010PropOp56
 70
     1
102
RTVSPost2010Prop57
140
1.0
102
RTVSPost2010PropOp57
 70
     1
102
RTVSPropertyOp0
 70
     1
102
RTVSPropertyOp1
 70
     1
102
RTVSPropertyOp2
 70
     1
102
RTVSPropertyOp3
 70
     1
102
RTVSPropertyOp4
 70
     1
102
RTVSPropertyOp5
 70
     1
102
RTVSPropertyOp6
 70
     1
102
RTVSPropertyOp7
 70
     1
102
RTVSPropertyOp8
 70
     1
102
RTVSPropertyOp9
 70
     1
102
RTVSPropertyOp10
 70
     1
102
RTVSPropertyOp11
 70
     1
102
RTVSPropertyOp12
 70
     1
102
RTVSPropertyOp13
 70
     1
102
RTVSPropertyOp14
 70
     1
102
RTVSPropertyOp15
 70
     1
102
RTVSPropertyOp16
 70
     1
102
RTVSPropertyOp17
 70
     1
102
RTVSPropertyOp18
 70
     1
102
RTVSPropertyOp19
 70
     1
102
RTVSPropertyOp20
 70
     1
102
RTVSPropertyOp21
 70
     1
102
RTVSPropertyOp22
 70
     1
102
RTVSPropertyOp23
 70
     1
102
RTVSPropertyOp24
 70
     1
102
RTVSPropertyOp25
 70
     1
102
RTVSPropertyOp26
 70
     1
102
RTVSPropertyOp27
 70
     1
102
RTVSPropertyOp28
 70
     1
102
RTVSPropertyOp29
 70
     1
102
RTVSPropertyOp30
 70
     1
102
RTVSPropertyOp31
 70
     1
102
RTVSPropertyOp32
 70
     1
102
RTVSPropertyOp33
 70
     1
102
RTVSPropertyOp34
 70
     1
102
RTVSPropertyOp35
 70
     1
102
RTVSPropertyOp36
 70
     1
102
RTVSPropertyOp37
 70
     1
102
RTVSPropertyOp38
 70
     1
102
RTVSPropertyOp39
 70
     1
102
RTVSPropertyOp40
 70
     1
102
RTVSPropertyOp41
 70
     1
102
RTVSPropertyOp42
 70
     1
102
RTVSPropertyOp43
 70
     1
102
RTVSPropertyOp44
 70
     1
102
RTVSPropertyOp45
 70
     1
102
RTVSPropertyOp46
 70
     1
102
RTVSPropertyOp47
 70
     1
102
RTVSPropertyOp48
 70
     1
102
RTVSPropertyOp49
 70
     1
102
RTVSPropertyOp50
 70
     1
102
RTVSPropertyOp51
 70
     0
102
RTVSPropertyOp52
 70
     0
102
RTVSPropertyOp53
 70
     1
102
RTVSPropertyOp54
 70
     1
102
RTVSPropertyOp55
 70
     1
102
RTVSPropertyOp56
 70
     1
102
RTVSPropertyOp57
 70
     1
102
RTVSPropertyOp58
 70
     1
102
RTVSPropertyOp59
 70
     1
102
RTVSPropertyOp60
 70
     1
102
RTVSPropertyOp61
 70
     1
102
RTVSPropertyOp62
 70
     1
  0
XRECORD
  5
8354
102
{ACAD_REACTORS
330
8353
102
}
330
8353
100
AcDbXrecord
280
     1
102
RTVSPost2010Prop28
280
     0
102
RTVSPost2010PropOp28
 70
     1
102
RTVSPost2010Prop29
280
     1
102
RTVSPost2010PropOp29
 70
     1
102
RTVSPost2010Prop30
280
     1
102
RTVSPost2010PropOp30
 70
     1
102
RTVSPost2010Prop31
280
     0
102
RTVSPost2010PropOp31
 70
     1
102
RTVSPost2010Prop32
280
     0
102
RTVSPost2010PropOp32
 70
     1
102
RTVSPost2010Prop33
280
     0
102
RTVSPost2010PropOp33
 70
     1
102
RTVSPost2010Prop34
280
     0
102
RTVSPost2010PropOp34
 70
     1
102
RTVSPost2010Prop35
280
     0
102
RTVSPost2010PropOp35
 70
     1
102
RTVSPost2010Prop36
280
     0
102
RTVSPost2010PropOp36
 70
     1
102
RTVSPost2010Prop37
 90
       50
102
RTVSPost2010PropOp37
 70
     1
102
RTVSPost2010Prop38
140
0.0
102
RTVSPost2010PropOp38
 70
     1
102
RTVSPost2010Prop39
140
1.0
102
RTVSPost2010PropOp39
 70
     1
102
RTVSPost2010Prop40
 90
        0
102
RTVSPost2010PropOp40
 70
     1
102
RTVSPost2010Prop41ColorIndex
 90
       18
102
RTVSPost2010Prop41ColorRGB
 90
        0
102
RTVSPost2010PropOp41
 70
     1
102
RTVSPost2010Prop42
 90
       50
102
RTVSPost2010PropOp42
 70
     1
102
RTVSPost2010Prop43
 90
        3
102
RTVSPost2010PropOp43
 70
     1
102
RTVSPost2010Prop44ColorIndex
 90
        5
102
RTVSPost2010Prop44ColorRGB
 90
      255
102
RTVSPost2010PropOp44
 70
     1
102
RTVSPost2010Prop45
280
     0
102
RTVSPost2010PropOp45
 70
     1
102
RTVSPost2010Prop46
 90
       50
102
RTVSPost2010PropOp46
 70
     1
102
RTVSPost2010Prop47
 90
       50
102
RTVSPost2010PropOp47
 70
     1
102
RTVSPost2010Prop48
 90
       50
102
RTVSPost2010PropOp48
 70
     1
102
RTVSPost2010Prop49
280
     0
102
RTVSPost2010PropOp49
 70
     1
102
RTVSPost2010Prop50
 90
       50
102
RTVSPost2010PropOp50
 70
     1
102
RTVSPost2010Prop51ColorIndex
 90
      256
102
RTVSPost2010Prop51ColorRGB
 90
-16777216
102
RTVSPost2010PropOp51
 70
     0
102
RTVSPost2010Prop52
140
1.0
102
RTVSPost2010PropOp52
 70
     0
102
RTVSPost2010Prop53
 90
        2
102
RTVSPost2010PropOp53
 70
     1
102
RTVSPost2010Prop54
  1
strokes_ogs.tif
102
RTVSPost2010PropOp54
 70
     1
102
RTVSPost2010Prop55
280
     0
102
RTVSPost2010PropOp55
 70
     1
102
RTVSPost2010Prop56
140
1.0
102
RTVSPost2010PropOp56
 70
     1
102
RTVSPost2010Prop57
140
1.0
102
RTVSPost2010PropOp57
 70
     1
102
RTVSPropertyOp0
 70
     1
102
RTVSPropertyOp1
 70
     1
102
RTVSPropertyOp2
 70
     1
102
RTVSPropertyOp3
 70
     1
102
RTVSPropertyOp4
 70
     1
102
RTVSPropertyOp5
 70
     1
102
RTVSPropertyOp6
 70
     1
102
RTVSPropertyOp7
 70
     1
102
RTVSPropertyOp8
 70
     1
102
RTVSPropertyOp9
 70
     1
102
RTVSPropertyOp10
 70
     1
102
RTVSPropertyOp11
 70
     1
102
RTVSPropertyOp12
 70
     1
102
RTVSPropertyOp13
 70
     1
102
RTVSPropertyOp14
 70
     1
102
RTVSPropertyOp15
 70
     1
102
RTVSPropertyOp16
 70
     1
102
RTVSPropertyOp17
 70
     1
102
RTVSPropertyOp18
 70
     1
102
RTVSPropertyOp19
 70
     1
102
RTVSPropertyOp20
 70
     1
102
RTVSPropertyOp21
 70
     1
102
RTVSPropertyOp22
 70
     1
102
RTVSPropertyOp23
 70
     1
102
RTVSPropertyOp24
 70
     1
102
RTVSPropertyOp25
 70
     1
102
RTVSPropertyOp26
 70
     1
102
RTVSPropertyOp27
 70
     1
102
RTVSPropertyOp28
 70
     1
102
RTVSPropertyOp29
 70
     1
102
RTVSPropertyOp30
 70
     1
102
RTVSPropertyOp31
 70
     1
102
RTVSPropertyOp32
 70
     1
102
RTVSPropertyOp33
 70
     1
102
RTVSPropertyOp34
 70
     1
102
RTVSPropertyOp35
 70
     1
102
RTVSPropertyOp36
 70
     1
102
RTVSPropertyOp37
 70
     1
102
RTVSPropertyOp38
 70
     1
102
RTVSPropertyOp39
 70
     1
102
RTVSPropertyOp40
 70
     1
102
RTVSPropertyOp41
 70
     1
102
RTVSPropertyOp42
 70
     1
102
RTVSPropertyOp43
 70
     1
102
RTVSPropertyOp44
 70
     1
102
RTVSPropertyOp45
 70
     1
102
RTVSPropertyOp46
 70
     1
102
RTVSPropertyOp47
 70
     1
102
RTVSPropertyOp48
 70
     1
102
RTVSPropertyOp49
 70
     1
102
RTVSPropertyOp50
 70
     1
102
RTVSPropertyOp51
 70
     0
102
RTVSPropertyOp52
 70
     0
102
RTVSPropertyOp53
 70
     1
102
RTVSPropertyOp54
 70
     1
102
RTVSPropertyOp55
 70
     1
102
RTVSPropertyOp56
 70
     1
102
RTVSPropertyOp57
 70
     1
102
RTVSPropertyOp58
 70
     1
102
RTVSPropertyOp59
 70
     1
102
RTVSPropertyOp60
 70
     1
102
RTVSPropertyOp61
 70
     1
102
RTVSPropertyOp62
 70
     1
  0
XRECORD
  5
8356
102
{ACAD_REACTORS
330
8355
102
}
330
8355
100
AcDbXrecord
280
     1
102
RTVSPost2010Prop28
280
     0
102
RTVSPost2010PropOp28
 70
     1
102
RTVSPost2010Prop29
280
     1
102
RTVSPost2010PropOp29
 70
     1
102
RTVSPost2010Prop30
280
     1
102
RTVSPost2010PropOp30
 70
     1
102
RTVSPost2010Prop31
280
     0
102
RTVSPost2010PropOp31
 70
     1
102
RTVSPost2010Prop32
280
     0
102
RTVSPost2010PropOp32
 70
     1
102
RTVSPost2010Prop33
280
     0
102
RTVSPost2010PropOp33
 70
     1
102
RTVSPost2010Prop34
280
     0
102
RTVSPost2010PropOp34
 70
     1
102
RTVSPost2010Prop35
280
     0
102
RTVSPost2010PropOp35
 70
     1
102
RTVSPost2010Prop36
280
     0
102
RTVSPost2010PropOp36
 70
     1
102
RTVSPost2010Prop37
 90
       50
102
RTVSPost2010PropOp37
 70
     1
102
RTVSPost2010Prop38
140
0.0
102
RTVSPost2010PropOp38
 70
     1
102
RTVSPost2010Prop39
140
1.0
102
RTVSPost2010PropOp39
 70
     1
102
RTVSPost2010Prop40
 90
        0
102
RTVSPost2010PropOp40
 70
     1
102
RTVSPost2010Prop41ColorIndex
 90
       18
102
RTVSPost2010Prop41ColorRGB
 90
        0
102
RTVSPost2010PropOp41
 70
     1
102
RTVSPost2010Prop42
 90
       50
102
RTVSPost2010PropOp42
 70
     1
102
RTVSPost2010Prop43
 90
        3
102
RTVSPost2010PropOp43
 70
     1
102
RTVSPost2010Prop44ColorIndex
 90
        5
102
RTVSPost2010Prop44ColorRGB
 90
      255
102
RTVSPost2010PropOp44
 70
     1
102
RTVSPost2010Prop45
280
     0
102
RTVSPost2010PropOp45
 70
     1
102
RTVSPost2010Prop46
 90
       50
102
RTVSPost2010PropOp46
 70
     1
102
RTVSPost2010Prop47
 90
       50
102
RTVSPost2010PropOp47
 70
     1
102
RTVSPost2010Prop48
 90
       50
102
RTVSPost2010PropOp48
 70
     1
102
RTVSPost2010Prop49
280
     0
102
RTVSPost2010PropOp49
 70
     1
102
RTVSPost2010Prop50
 90
       50
102
RTVSPost2010PropOp50
 70
     1
102
RTVSPost2010Prop51ColorIndex
 90
      256
102
RTVSPost2010Prop51ColorRGB
 90
-16777216
102
RTVSPost2010PropOp51
 70
     0
102
RTVSPost2010Prop52
140
1.0
102
RTVSPost2010PropOp52
 70
     0
102
RTVSPost2010Prop53
 90
        2
102
RTVSPost2010PropOp53
 70
     1
102
RTVSPost2010Prop54
  1
strokes_ogs.tif
102
RTVSPost2010PropOp54
 70
     1
102
RTVSPost2010Prop55
280
     0
102
RTVSPost2010PropOp55
 70
     1
102
RTVSPost2010Prop56
140
1.0
102
RTVSPost2010PropOp56
 70
     1
102
RTVSPost2010Prop57
140
1.0
102
RTVSPost2010PropOp57
 70
     1
102
RTVSPropertyOp0
 70
     1
102
RTVSPropertyOp1
 70
     1
102
RTVSPropertyOp2
 70
     1
102
RTVSPropertyOp3
 70
     1
102
RTVSPropertyOp4
 70
     1
102
RTVSPropertyOp5
 70
     1
102
RTVSPropertyOp6
 70
     1
102
RTVSPropertyOp7
 70
     1
102
RTVSPropertyOp8
 70
     1
102
RTVSPropertyOp9
 70
     1
102
RTVSPropertyOp10
 70
     1
102
RTVSPropertyOp11
 70
     1
102
RTVSPropertyOp12
 70
     1
102
RTVSPropertyOp13
 70
     1
102
RTVSPropertyOp14
 70
     1
102
RTVSPropertyOp15
 70
     1
102
RTVSPropertyOp16
 70
     1
102
RTVSPropertyOp17
 70
     1
102
RTVSPropertyOp18
 70
     1
102
RTVSPropertyOp19
 70
     1
102
RTVSPropertyOp20
 70
     1
102
RTVSPropertyOp21
 70
     1
102
RTVSPropertyOp22
 70
     1
102
RTVSPropertyOp23
 70
     1
102
RTVSPropertyOp24
 70
     1
102
RTVSPropertyOp25
 70
     1
102
RTVSPropertyOp26
 70
     1
102
RTVSPropertyOp27
 70
     1
102
RTVSPropertyOp28
 70
     1
102
RTVSPropertyOp29
 70
     1
102
RTVSPropertyOp30
 70
     1
102
RTVSPropertyOp31
 70
     1
102
RTVSPropertyOp32
 70
     1
102
RTVSPropertyOp33
 70
     1
102
RTVSPropertyOp34
 70
     1
102
RTVSPropertyOp35
 70
     1
102
RTVSPropertyOp36
 70
     1
102
RTVSPropertyOp37
 70
     1
102
RTVSPropertyOp38
 70
     1
102
RTVSPropertyOp39
 70
     1
102
RTVSPropertyOp40
 70
     1
102
RTVSPropertyOp41
 70
     1
102
RTVSPropertyOp42
 70
     1
102
RTVSPropertyOp43
 70
     1
102
RTVSPropertyOp44
 70
     1
102
RTVSPropertyOp45
 70
     1
102
RTVSPropertyOp46
 70
     1
102
RTVSPropertyOp47
 70
     1
102
RTVSPropertyOp48
 70
     1
102
RTVSPropertyOp49
 70
     1
102
RTVSPropertyOp50
 70
     1
102
RTVSPropertyOp51
 70
     0
102
RTVSPropertyOp52
 70
     0
102
RTVSPropertyOp53
 70
     1
102
RTVSPropertyOp54
 70
     1
102
RTVSPropertyOp55
 70
     1
102
RTVSPropertyOp56
 70
     1
102
RTVSPropertyOp57
 70
     1
102
RTVSPropertyOp58
 70
     1
102
RTVSPropertyOp59
 70
     1
102
RTVSPropertyOp60
 70
     1
102
RTVSPropertyOp61
 70
     1
102
RTVSPropertyOp62
 70
     1
  0
XRECORD
  5
8358
102
{ACAD_REACTORS
330
8357
102
}
330
8357
100
AcDbXrecord
280
     1
102
RTVSPost2010Prop28
280
     0
102
RTVSPost2010PropOp28
 70
     1
102
RTVSPost2010Prop29
280
     1
102
RTVSPost2010PropOp29
 70
     1
102
RTVSPost2010Prop30
280
     1
102
RTVSPost2010PropOp30
 70
     1
102
RTVSPost2010Prop31
280
     0
102
RTVSPost2010PropOp31
 70
     1
102
RTVSPost2010Prop32
280
     0
102
RTVSPost2010PropOp32
 70
     1
102
RTVSPost2010Prop33
280
     0
102
RTVSPost2010PropOp33
 70
     1
102
RTVSPost2010Prop34
280
     0
102
RTVSPost2010PropOp34
 70
     1
102
RTVSPost2010Prop35
280
     0
102
RTVSPost2010PropOp35
 70
     1
102
RTVSPost2010Prop36
280
     0
102
RTVSPost2010PropOp36
 70
     1
102
RTVSPost2010Prop37
 90
       50
102
RTVSPost2010PropOp37
 70
     1
102
RTVSPost2010Prop38
140
0.0
102
RTVSPost2010PropOp38
 70
     1
102
RTVSPost2010Prop39
140
1.0
102
RTVSPost2010PropOp39
 70
     1
102
RTVSPost2010Prop40
 90
        0
102
RTVSPost2010PropOp40
 70
     1
102
RTVSPost2010Prop41ColorIndex
 90
       18
102
RTVSPost2010Prop41ColorRGB
 90
        0
102
RTVSPost2010PropOp41
 70
     1
102
RTVSPost2010Prop42
 90
       50
102
RTVSPost2010PropOp42
 70
     1
102
RTVSPost2010Prop43
 90
        3
102
RTVSPost2010PropOp43
 70
     1
102
RTVSPost2010Prop44ColorIndex
 90
        5
102
RTVSPost2010Prop44ColorRGB
 90
      255
102
RTVSPost2010PropOp44
 70
     1
102
RTVSPost2010Prop45
280
     0
102
RTVSPost2010PropOp45
 70
     1
102
RTVSPost2010Prop46
 90
       50
102
RTVSPost2010PropOp46
 70
     1
102
RTVSPost2010Prop47
 90
       50
102
RTVSPost2010PropOp47
 70
     1
102
RTVSPost2010Prop48
 90
       50
102
RTVSPost2010PropOp48
 70
     1
102
RTVSPost2010Prop49
280
     0
102
RTVSPost2010PropOp49
 70
     1
102
RTVSPost2010Prop50
 90
       50
102
RTVSPost2010PropOp50
 70
     1
102
RTVSPost2010Prop51ColorIndex
 90
      256
102
RTVSPost2010Prop51ColorRGB
 90
-16777216
102
RTVSPost2010PropOp51
 70
     0
102
RTVSPost2010Prop52
140
1.0
102
RTVSPost2010PropOp52
 70
     0
102
RTVSPost2010Prop53
 90
        2
102
RTVSPost2010PropOp53
 70
     1
102
RTVSPost2010Prop54
  1
strokes_ogs.tif
102
RTVSPost2010PropOp54
 70
     1
102
RTVSPost2010Prop55
280
     0
102
RTVSPost2010PropOp55
 70
     1
102
RTVSPost2010Prop56
140
1.0
102
RTVSPost2010PropOp56
 70
     1
102
RTVSPost2010Prop57
140
1.0
102
RTVSPost2010PropOp57
 70
     1
102
RTVSPropertyOp0
 70
     1
102
RTVSPropertyOp1
 70
     1
102
RTVSPropertyOp2
 70
     1
102
RTVSPropertyOp3
 70
     1
102
RTVSPropertyOp4
 70
     1
102
RTVSPropertyOp5
 70
     1
102
RTVSPropertyOp6
 70
     1
102
RTVSPropertyOp7
 70
     1
102
RTVSPropertyOp8
 70
     1
102
RTVSPropertyOp9
 70
     1
102
RTVSPropertyOp10
 70
     1
102
RTVSPropertyOp11
 70
     1
102
RTVSPropertyOp12
 70
     1
102
RTVSPropertyOp13
 70
     1
102
RTVSPropertyOp14
 70
     1
102
RTVSPropertyOp15
 70
     1
102
RTVSPropertyOp16
 70
     1
102
RTVSPropertyOp17
 70
     1
102
RTVSPropertyOp18
 70
     1
102
RTVSPropertyOp19
 70
     1
102
RTVSPropertyOp20
 70
     1
102
RTVSPropertyOp21
 70
     1
102
RTVSPropertyOp22
 70
     1
102
RTVSPropertyOp23
 70
     1
102
RTVSPropertyOp24
 70
     1
102
RTVSPropertyOp25
 70
     1
102
RTVSPropertyOp26
 70
     1
102
RTVSPropertyOp27
 70
     1
102
RTVSPropertyOp28
 70
     1
102
RTVSPropertyOp29
 70
     1
102
RTVSPropertyOp30
 70
     1
102
RTVSPropertyOp31
 70
     1
102
RTVSPropertyOp32
 70
     1
102
RTVSPropertyOp33
 70
     1
102
RTVSPropertyOp34
 70
     1
102
RTVSPropertyOp35
 70
     1
102
RTVSPropertyOp36
 70
     1
102
RTVSPropertyOp37
 70
     1
102
RTVSPropertyOp38
 70
     1
102
RTVSPropertyOp39
 70
     1
102
RTVSPropertyOp40
 70
     1
102
RTVSPropertyOp41
 70
     1
102
RTVSPropertyOp42
 70
     1
102
RTVSPropertyOp43
 70
     1
102
RTVSPropertyOp44
 70
     1
102
RTVSPropertyOp45
 70
     1
102
RTVSPropertyOp46
 70
     1
102
RTVSPropertyOp47
 70
     1
102
RTVSPropertyOp48
 70
     1
102
RTVSPropertyOp49
 70
     1
102
RTVSPropertyOp50
 70
     1
102
RTVSPropertyOp51
 70
     0
102
RTVSPropertyOp52
 70
     0
102
RTVSPropertyOp53
 70
     1
102
RTVSPropertyOp54
 70
     1
102
RTVSPropertyOp55
 70
     1
102
RTVSPropertyOp56
 70
     1
102
RTVSPropertyOp57
 70
     1
102
RTVSPropertyOp58
 70
     1
102
RTVSPropertyOp59
 70
     1
102
RTVSPropertyOp60
 70
     1
102
RTVSPropertyOp61
 70
     1
102
RTVSPropertyOp62
 70
     1
  0
XRECORD
  5
835A
102
{ACAD_REACTORS
330
8359
102
}
330
8359
100
AcDbXrecord
280
     1
102
RTVSPost2010Prop28
280
     0
102
RTVSPost2010PropOp28
 70
     1
102
RTVSPost2010Prop29
280
     1
102
RTVSPost2010PropOp29
 70
     1
102
RTVSPost2010Prop30
280
     1
102
RTVSPost2010PropOp30
 70
     1
102
RTVSPost2010Prop31
280
     0
102
RTVSPost2010PropOp31
 70
     1
102
RTVSPost2010Prop32
280
     0
102
RTVSPost2010PropOp32
 70
     1
102
RTVSPost2010Prop33
280
     0
102
RTVSPost2010PropOp33
 70
     1
102
RTVSPost2010Prop34
280
     0
102
RTVSPost2010PropOp34
 70
     1
102
RTVSPost2010Prop35
280
     0
102
RTVSPost2010PropOp35
 70
     1
102
RTVSPost2010Prop36
280
     0
102
RTVSPost2010PropOp36
 70
     1
102
RTVSPost2010Prop37
 90
       50
102
RTVSPost2010PropOp37
 70
     1
102
RTVSPost2010Prop38
140
0.0
102
RTVSPost2010PropOp38
 70
     1
102
RTVSPost2010Prop39
140
1.0
102
RTVSPost2010PropOp39
 70
     1
102
RTVSPost2010Prop40
 90
        0
102
RTVSPost2010PropOp40
 70
     1
102
RTVSPost2010Prop41ColorIndex
 90
       18
102
RTVSPost2010Prop41ColorRGB
 90
        0
102
RTVSPost2010PropOp41
 70
     1
102
RTVSPost2010Prop42
 90
       50
102
RTVSPost2010PropOp42
 70
     1
102
RTVSPost2010Prop43
 90
        3
102
RTVSPost2010PropOp43
 70
     1
102
RTVSPost2010Prop44ColorIndex
 90
        5
102
RTVSPost2010Prop44ColorRGB
 90
      255
102
RTVSPost2010PropOp44
 70
     1
102
RTVSPost2010Prop45
280
     0
102
RTVSPost2010PropOp45
 70
     1
102
RTVSPost2010Prop46
 90
       50
102
RTVSPost2010PropOp46
 70
     1
102
RTVSPost2010Prop47
 90
       50
102
RTVSPost2010PropOp47
 70
     1
102
RTVSPost2010Prop48
 90
       50
102
RTVSPost2010PropOp48
 70
     1
102
RTVSPost2010Prop49
280
     0
102
RTVSPost2010PropOp49
 70
     1
102
RTVSPost2010Prop50
 90
       50
102
RTVSPost2010PropOp50
 70
     1
102
RTVSPost2010Prop51ColorIndex
 90
      256
102
RTVSPost2010Prop51ColorRGB
 90
-16777216
102
RTVSPost2010PropOp51
 70
     0
102
RTVSPost2010Prop52
140
1.0
102
RTVSPost2010PropOp52
 70
     0
102
RTVSPost2010Prop53
 90
        2
102
RTVSPost2010PropOp53
 70
     1
102
RTVSPost2010Prop54
  1
strokes_ogs.tif
102
RTVSPost2010PropOp54
 70
     1
102
RTVSPost2010Prop55
280
     0
102
RTVSPost2010PropOp55
 70
     1
102
RTVSPost2010Prop56
140
1.0
102
RTVSPost2010PropOp56
 70
     1
102
RTVSPost2010Prop57
140
1.0
102
RTVSPost2010PropOp57
 70
     1
102
RTVSPropertyOp0
 70
     1
102
RTVSPropertyOp1
 70
     1
102
RTVSPropertyOp2
 70
     1
102
RTVSPropertyOp3
 70
     1
102
RTVSPropertyOp4
 70
     1
102
RTVSPropertyOp5
 70
     1
102
RTVSPropertyOp6
 70
     1
102
RTVSPropertyOp7
 70
     1
102
RTVSPropertyOp8
 70
     1
102
RTVSPropertyOp9
 70
     1
102
RTVSPropertyOp10
 70
     1
102
RTVSPropertyOp11
 70
     1
102
RTVSPropertyOp12
 70
     1
102
RTVSPropertyOp13
 70
     1
102
RTVSPropertyOp14
 70
     1
102
RTVSPropertyOp15
 70
     1
102
RTVSPropertyOp16
 70
     1
102
RTVSPropertyOp17
 70
     1
102
RTVSPropertyOp18
 70
     1
102
RTVSPropertyOp19
 70
     1
102
RTVSPropertyOp20
 70
     1
102
RTVSPropertyOp21
 70
     1
102
RTVSPropertyOp22
 70
     1
102
RTVSPropertyOp23
 70
     1
102
RTVSPropertyOp24
 70
     1
102
RTVSPropertyOp25
 70
     1
102
RTVSPropertyOp26
 70
     1
102
RTVSPropertyOp27
 70
     1
102
RTVSPropertyOp28
 70
     1
102
RTVSPropertyOp29
 70
     1
102
RTVSPropertyOp30
 70
     1
102
RTVSPropertyOp31
 70
     1
102
RTVSPropertyOp32
 70
     1
102
RTVSPropertyOp33
 70
     1
102
RTVSPropertyOp34
 70
     1
102
RTVSPropertyOp35
 70
     1
102
RTVSPropertyOp36
 70
     1
102
RTVSPropertyOp37
 70
     1
102
RTVSPropertyOp38
 70
     1
102
RTVSPropertyOp39
 70
     1
102
RTVSPropertyOp40
 70
     1
102
RTVSPropertyOp41
 70
     1
102
RTVSPropertyOp42
 70
     1
102
RTVSPropertyOp43
 70
     1
102
RTVSPropertyOp44
 70
     1
102
RTVSPropertyOp45
 70
     1
102
RTVSPropertyOp46
 70
     1
102
RTVSPropertyOp47
 70
     1
102
RTVSPropertyOp48
 70
     1
102
RTVSPropertyOp49
 70
     1
102
RTVSPropertyOp50
 70
     1
102
RTVSPropertyOp51
 70
     0
102
RTVSPropertyOp52
 70
     0
102
RTVSPropertyOp53
 70
     1
102
RTVSPropertyOp54
 70
     1
102
RTVSPropertyOp55
 70
     1
102
RTVSPropertyOp56
 70
     1
102
RTVSPropertyOp57
 70
     1
102
RTVSPropertyOp58
 70
     1
102
RTVSPropertyOp59
 70
     1
102
RTVSPropertyOp60
 70
     1
102
RTVSPropertyOp61
 70
     1
102
RTVSPropertyOp62
 70
     1
  0
XRECORD
  5
8362
102
{ACAD_REACTORS
330
8361
102
}
330
8361
100
AcDbXrecord
280
     1
102
RTVSPost2010Prop28
280
     0
102
RTVSPost2010PropOp28
 70
     1
102
RTVSPost2010Prop29
280
     1
102
RTVSPost2010PropOp29
 70
     1
102
RTVSPost2010Prop30
280
     1
102
RTVSPost2010PropOp30
 70
     1
102
RTVSPost2010Prop31
280
     0
102
RTVSPost2010PropOp31
 70
     1
102
RTVSPost2010Prop32
280
     0
102
RTVSPost2010PropOp32
 70
     1
102
RTVSPost2010Prop33
280
     0
102
RTVSPost2010PropOp33
 70
     1
102
RTVSPost2010Prop34
280
     0
102
RTVSPost2010PropOp34
 70
     1
102
RTVSPost2010Prop35
280
     0
102
RTVSPost2010PropOp35
 70
     1
102
RTVSPost2010Prop36
280
     0
102
RTVSPost2010PropOp36
 70
     1
102
RTVSPost2010Prop37
 90
       50
102
RTVSPost2010PropOp37
 70
     1
102
RTVSPost2010Prop38
140
0.0
102
RTVSPost2010PropOp38
 70
     1
102
RTVSPost2010Prop39
140
1.0
102
RTVSPost2010PropOp39
 70
     1
102
RTVSPost2010Prop40
 90
        0
102
RTVSPost2010PropOp40
 70
     1
102
RTVSPost2010Prop41ColorIndex
 90
       18
102
RTVSPost2010Prop41ColorRGB
 90
        0
102
RTVSPost2010PropOp41
 70
     1
102
RTVSPost2010Prop42
 90
       50
102
RTVSPost2010PropOp42
 70
     1
102
RTVSPost2010Prop43
 90
        3
102
RTVSPost2010PropOp43
 70
     1
102
RTVSPost2010Prop44ColorIndex
 90
        5
102
RTVSPost2010Prop44ColorRGB
 90
      255
102
RTVSPost2010PropOp44
 70
     1
102
RTVSPost2010Prop45
280
     0
102
RTVSPost2010PropOp45
 70
     1
102
RTVSPost2010Prop46
 90
       50
102
RTVSPost2010PropOp46
 70
     1
102
RTVSPost2010Prop47
 90
       50
102
RTVSPost2010PropOp47
 70
     1
102
RTVSPost2010Prop48
 90
       50
102
RTVSPost2010PropOp48
 70
     1
102
RTVSPost2010Prop49
280
     0
102
RTVSPost2010PropOp49
 70
     1
102
RTVSPost2010Prop50
 90
       50
102
RTVSPost2010PropOp50
 70
     1
102
RTVSPost2010Prop51ColorIndex
 90
      256
102
RTVSPost2010Prop51ColorRGB
 90
-16777216
102
RTVSPost2010PropOp51
 70
     0
102
RTVSPost2010Prop52
140
1.0
102
RTVSPost2010PropOp52
 70
     0
102
RTVSPost2010Prop53
 90
        2
102
RTVSPost2010PropOp53
 70
     1
102
RTVSPost2010Prop54
  1
strokes_ogs.tif
102
RTVSPost2010PropOp54
 70
     1
102
RTVSPost2010Prop55
280
     0
102
RTVSPost2010PropOp55
 70
     1
102
RTVSPost2010Prop56
140
1.0
102
RTVSPost2010PropOp56
 70
     1
102
RTVSPost2010Prop57
140
1.0
102
RTVSPost2010PropOp57
 70
     1
102
RTVSPropertyOp0
 70
     1
102
RTVSPropertyOp1
 70
     1
102
RTVSPropertyOp2
 70
     1
102
RTVSPropertyOp3
 70
     1
102
RTVSPropertyOp4
 70
     1
102
RTVSPropertyOp5
 70
     1
102
RTVSPropertyOp6
 70
     1
102
RTVSPropertyOp7
 70
     1
102
RTVSPropertyOp8
 70
     1
102
RTVSPropertyOp9
 70
     1
102
RTVSPropertyOp10
 70
     1
102
RTVSPropertyOp11
 70
     1
102
RTVSPropertyOp12
 70
     1
102
RTVSPropertyOp13
 70
     1
102
RTVSPropertyOp14
 70
     1
102
RTVSPropertyOp15
 70
     1
102
RTVSPropertyOp16
 70
     1
102
RTVSPropertyOp17
 70
     1
102
RTVSPropertyOp18
 70
     1
102
RTVSPropertyOp19
 70
     1
102
RTVSPropertyOp20
 70
     1
102
RTVSPropertyOp21
 70
     1
102
RTVSPropertyOp22
 70
     1
102
RTVSPropertyOp23
 70
     1
102
RTVSPropertyOp24
 70
     1
102
RTVSPropertyOp25
 70
     1
102
RTVSPropertyOp26
 70
     1
102
RTVSPropertyOp27
 70
     1
102
RTVSPropertyOp28
 70
     1
102
RTVSPropertyOp29
 70
     1
102
RTVSPropertyOp30
 70
     1
102
RTVSPropertyOp31
 70
     1
102
RTVSPropertyOp32
 70
     1
102
RTVSPropertyOp33
 70
     1
102
RTVSPropertyOp34
 70
     1
102
RTVSPropertyOp35
 70
     1
102
RTVSPropertyOp36
 70
     1
102
RTVSPropertyOp37
 70
     1
102
RTVSPropertyOp38
 70
     1
102
RTVSPropertyOp39
 70
     1
102
RTVSPropertyOp40
 70
     1
102
RTVSPropertyOp41
 70
     1
102
RTVSPropertyOp42
 70
     1
102
RTVSPropertyOp43
 70
     1
102
RTVSPropertyOp44
 70
     1
102
RTVSPropertyOp45
 70
     1
102
RTVSPropertyOp46
 70
     1
102
RTVSPropertyOp47
 70
     1
102
RTVSPropertyOp48
 70
     1
102
RTVSPropertyOp49
 70
     1
102
RTVSPropertyOp50
 70
     1
102
RTVSPropertyOp51
 70
     0
102
RTVSPropertyOp52
 70
     0
102
RTVSPropertyOp53
 70
     1
102
RTVSPropertyOp54
 70
     1
102
RTVSPropertyOp55
 70
     1
102
RTVSPropertyOp56
 70
     1
102
RTVSPropertyOp57
 70
     1
102
RTVSPropertyOp58
 70
     1
102
RTVSPropertyOp59
 70
     1
102
RTVSPropertyOp60
 70
     1
102
RTVSPropertyOp61
 70
     1
102
RTVSPropertyOp62
 70
     1
  0
XRECORD
  5
837E
102
{ACAD_REACTORS
330
837D
102
}
330
837D
100
AcDbXrecord
280
     1
102
RTVSPost2010Prop28
280
     0
102
RTVSPost2010PropOp28
 70
     1
102
RTVSPost2010Prop29
280
     1
102
RTVSPost2010PropOp29
 70
     1
102
RTVSPost2010Prop30
280
     1
102
RTVSPost2010PropOp30
 70
     1
102
RTVSPost2010Prop31
280
     0
102
RTVSPost2010PropOp31
 70
     1
102
RTVSPost2010Prop32
280
     0
102
RTVSPost2010PropOp32
 70
     1
102
RTVSPost2010Prop33
280
     0
102
RTVSPost2010PropOp33
 70
     1
102
RTVSPost2010Prop34
280
     0
102
RTVSPost2010PropOp34
 70
     1
102
RTVSPost2010Prop35
280
     0
102
RTVSPost2010PropOp35
 70
     1
102
RTVSPost2010Prop36
280
     0
102
RTVSPost2010PropOp36
 70
     1
102
RTVSPost2010Prop37
 90
       50
102
RTVSPost2010PropOp37
 70
     0
102
RTVSPost2010Prop38
140
0.0
102
RTVSPost2010PropOp38
 70
     0
102
RTVSPost2010Prop39
140
1.0
102
RTVSPost2010PropOp39
 70
     0
102
RTVSPost2010Prop40
 90
        0
102
RTVSPost2010PropOp40
 70
     0
102
RTVSPost2010Prop41ColorIndex
 90
       18
102
RTVSPost2010Prop41ColorRGB
 90
        0
102
RTVSPost2010PropOp41
 70
     0
102
RTVSPost2010Prop42
 90
       50
102
RTVSPost2010PropOp42
 70
     0
102
RTVSPost2010Prop43
 90
        3
102
RTVSPost2010PropOp43
 70
     0
102
RTVSPost2010Prop44ColorIndex
 90
        5
102
RTVSPost2010Prop44ColorRGB
 90
      255
102
RTVSPost2010PropOp44
 70
     0
102
RTVSPost2010Prop45
280
     0
102
RTVSPost2010PropOp45
 70
     1
102
RTVSPost2010Prop46
 90
       50
102
RTVSPost2010PropOp46
 70
     0
102
RTVSPost2010Prop47
 90
       50
102
RTVSPost2010PropOp47
 70
     0
102
RTVSPost2010Prop48
 90
       50
102
RTVSPost2010PropOp48
 70
     0
102
RTVSPost2010Prop49
280
     0
102
RTVSPost2010PropOp49
 70
     1
102
RTVSPost2010Prop50
 90
       50
102
RTVSPost2010PropOp50
 70
     0
102
RTVSPost2010Prop51ColorIndex
 90
      256
102
RTVSPost2010Prop51ColorRGB
 90
-16777216
102
RTVSPost2010PropOp51
 70
     0
102
RTVSPost2010Prop52
140
1.0
102
RTVSPost2010PropOp52
 70
     0
102
RTVSPost2010Prop53
 90
        2
102
RTVSPost2010PropOp53
 70
     0
102
RTVSPost2010Prop54
  1
strokes_ogs.tif
102
RTVSPost2010PropOp54
 70
     0
102
RTVSPost2010Prop55
280
     0
102
RTVSPost2010PropOp55
 70
     1
102
RTVSPost2010Prop56
140
1.0
102
RTVSPost2010PropOp56
 70
     0
102
RTVSPost2010Prop57
140
1.0
102
RTVSPost2010PropOp57
 70
     0
102
RTVSPropertyOp0
 70
     0
102
RTVSPropertyOp1
 70
     0
102
RTVSPropertyOp2
 70
     0
102
RTVSPropertyOp3
 70
     0
102
RTVSPropertyOp4
 70
     0
102
RTVSPropertyOp5
 70
     0
102
RTVSPropertyOp6
 70
     0
102
RTVSPropertyOp7
 70
     0
102
RTVSPropertyOp8
 70
     0
102
RTVSPropertyOp9
 70
     0
102
RTVSPropertyOp10
 70
     0
102
RTVSPropertyOp11
 70
     0
102
RTVSPropertyOp12
 70
     0
102
RTVSPropertyOp13
 70
     0
102
RTVSPropertyOp14
 70
     2
102
RTVSPropertyOp15
 70
     0
102
RTVSPropertyOp16
 70
     0
102
RTVSPropertyOp17
 70
     0
102
RTVSPropertyOp18
 70
     0
102
RTVSPropertyOp19
 70
     0
102
RTVSPropertyOp20
 70
     0
102
RTVSPropertyOp21
 70
     0
102
RTVSPropertyOp22
 70
     0
102
RTVSPropertyOp23
 70
     0
102
RTVSPropertyOp24
 70
     0
102
RTVSPropertyOp25
 70
     0
102
RTVSPropertyOp26
 70
     0
102
RTVSPropertyOp27
 70
     0
102
RTVSPropertyOp28
 70
     1
102
RTVSPropertyOp29
 70
     1
102
RTVSPropertyOp30
 70
     1
102
RTVSPropertyOp31
 70
     1
102
RTVSPropertyOp32
 70
     1
102
RTVSPropertyOp33
 70
     1
102
RTVSPropertyOp34
 70
     1
102
RTVSPropertyOp35
 70
     1
102
RTVSPropertyOp36
 70
     1
102
RTVSPropertyOp37
 70
     0
102
RTVSPropertyOp38
 70
     0
102
RTVSPropertyOp39
 70
     0
102
RTVSPropertyOp40
 70
     0
102
RTVSPropertyOp41
 70
     0
102
RTVSPropertyOp42
 70
     0
102
RTVSPropertyOp43
 70
     0
102
RTVSPropertyOp44
 70
     0
102
RTVSPropertyOp45
 70
     1
102
RTVSPropertyOp46
 70
     0
102
RTVSPropertyOp47
 70
     0
102
RTVSPropertyOp48
 70
     0
102
RTVSPropertyOp49
 70
     1
102
RTVSPropertyOp50
 70
     0
102
RTVSPropertyOp51
 70
     0
102
RTVSPropertyOp52
 70
     0
102
RTVSPropertyOp53
 70
     0
102
RTVSPropertyOp54
 70
     0
102
RTVSPropertyOp55
 70
     1
102
RTVSPropertyOp56
 70
     0
102
RTVSPropertyOp57
 70
     0
102
RTVSPropertyOp58
 70
     0
102
RTVSPropertyOp59
 70
     0
102
RTVSPropertyOp60
 70
     0
102
RTVSPropertyOp61
 70
     0
102
RTVSPropertyOp62
 70
     0
  0
XRECORD
  5
836E
102
{ACAD_REACTORS
330
836D
102
}
330
836D
100
AcDbXrecord
280
     1
102
RTVSPost2010Prop28
280
     0
102
RTVSPost2010PropOp28
 70
     1
102
RTVSPost2010Prop29
280
     1
102
RTVSPost2010PropOp29
 70
     1
102
RTVSPost2010Prop30
280
     1
102
RTVSPost2010PropOp30
 70
     1
102
RTVSPost2010Prop31
280
     0
102
RTVSPost2010PropOp31
 70
     1
102
RTVSPost2010Prop32
280
     0
102
RTVSPost2010PropOp32
 70
     1
102
RTVSPost2010Prop33
280
     0
102
RTVSPost2010PropOp33
 70
     1
102
RTVSPost2010Prop34
280
     0
102
RTVSPost2010PropOp34
 70
     1
102
RTVSPost2010Prop35
280
     0
102
RTVSPost2010PropOp35
 70
     1
102
RTVSPost2010Prop36
280
     0
102
RTVSPost2010PropOp36
 70
     1
102
RTVSPost2010Prop37
 90
       50
102
RTVSPost2010PropOp37
 70
     1
102
RTVSPost2010Prop38
140
0.0
102
RTVSPost2010PropOp38
 70
     1
102
RTVSPost2010Prop39
140
1.0
102
RTVSPost2010PropOp39
 70
     1
102
RTVSPost2010Prop40
 90
        0
102
RTVSPost2010PropOp40
 70
     1
102
RTVSPost2010Prop41ColorIndex
 90
       18
102
RTVSPost2010Prop41ColorRGB
 90
        0
102
RTVSPost2010PropOp41
 70
     1
102
RTVSPost2010Prop42
 90
       50
102
RTVSPost2010PropOp42
 70
     1
102
RTVSPost2010Prop43
 90
        3
102
RTVSPost2010PropOp43
 70
     1
102
RTVSPost2010Prop44ColorIndex
 90
        5
102
RTVSPost2010Prop44ColorRGB
 90
      255
102
RTVSPost2010PropOp44
 70
     1
102
RTVSPost2010Prop45
280
     0
102
RTVSPost2010PropOp45
 70
     1
102
RTVSPost2010Prop46
 90
       50
102
RTVSPost2010PropOp46
 70
     1
102
RTVSPost2010Prop47
 90
       50
102
RTVSPost2010PropOp47
 70
     1
102
RTVSPost2010Prop48
 90
       50
102
RTVSPost2010PropOp48
 70
     1
102
RTVSPost2010Prop49
280
     0
102
RTVSPost2010PropOp49
 70
     1
102
RTVSPost2010Prop50
 90
       50
102
RTVSPost2010PropOp50
 70
     1
102
RTVSPost2010Prop51ColorIndex
 90
      256
102
RTVSPost2010Prop51ColorRGB
 90
-16777216
102
RTVSPost2010PropOp51
 70
     0
102
RTVSPost2010Prop52
140
1.0
102
RTVSPost2010PropOp52
 70
     0
102
RTVSPost2010Prop53
 90
        2
102
RTVSPost2010PropOp53
 70
     1
102
RTVSPost2010Prop54
  1
strokes_ogs.tif
102
RTVSPost2010PropOp54
 70
     1
102
RTVSPost2010Prop55
280
     0
102
RTVSPost2010PropOp55
 70
     1
102
RTVSPost2010Prop56
140
1.0
102
RTVSPost2010PropOp56
 70
     1
102
RTVSPost2010Prop57
140
1.0
102
RTVSPost2010PropOp57
 70
     1
102
RTVSPropertyOp0
 70
     1
102
RTVSPropertyOp1
 70
     1
102
RTVSPropertyOp2
 70
     1
102
RTVSPropertyOp3
 70
     1
102
RTVSPropertyOp4
 70
     1
102
RTVSPropertyOp5
 70
     1
102
RTVSPropertyOp6
 70
     1
102
RTVSPropertyOp7
 70
     1
102
RTVSPropertyOp8
 70
     1
102
RTVSPropertyOp9
 70
     1
102
RTVSPropertyOp10
 70
     1
102
RTVSPropertyOp11
 70
     1
102
RTVSPropertyOp12
 70
     1
102
RTVSPropertyOp13
 70
     1
102
RTVSPropertyOp14
 70
     1
102
RTVSPropertyOp15
 70
     1
102
RTVSPropertyOp16
 70
     1
102
RTVSPropertyOp17
 70
     1
102
RTVSPropertyOp18
 70
     1
102
RTVSPropertyOp19
 70
     1
102
RTVSPropertyOp20
 70
     1
102
RTVSPropertyOp21
 70
     1
102
RTVSPropertyOp22
 70
     1
102
RTVSPropertyOp23
 70
     1
102
RTVSPropertyOp24
 70
     1
102
RTVSPropertyOp25
 70
     1
102
RTVSPropertyOp26
 70
     1
102
RTVSPropertyOp27
 70
     1
102
RTVSPropertyOp28
 70
     1
102
RTVSPropertyOp29
 70
     1
102
RTVSPropertyOp30
 70
     1
102
RTVSPropertyOp31
 70
     1
102
RTVSPropertyOp32
 70
     1
102
RTVSPropertyOp33
 70
     1
102
RTVSPropertyOp34
 70
     1
102
RTVSPropertyOp35
 70
     1
102
RTVSPropertyOp36
 70
     1
102
RTVSPropertyOp37
 70
     1
102
RTVSPropertyOp38
 70
     1
102
RTVSPropertyOp39
 70
     1
102
RTVSPropertyOp40
 70
     1
102
RTVSPropertyOp41
 70
     1
102
RTVSPropertyOp42
 70
     1
102
RTVSPropertyOp43
 70
     1
102
RTVSPropertyOp44
 70
     1
102
RTVSPropertyOp45
 70
     1
102
RTVSPropertyOp46
 70
     1
102
RTVSPropertyOp47
 70
     1
102
RTVSPropertyOp48
 70
     1
102
RTVSPropertyOp49
 70
     1
102
RTVSPropertyOp50
 70
     1
102
RTVSPropertyOp51
 70
     0
102
RTVSPropertyOp52
 70
     0
102
RTVSPropertyOp53
 70
     1
102
RTVSPropertyOp54
 70
     1
102
RTVSPropertyOp55
 70
     1
102
RTVSPropertyOp56
 70
     1
102
RTVSPropertyOp57
 70
     1
102
RTVSPropertyOp58
 70
     1
102
RTVSPropertyOp59
 70
     1
102
RTVSPropertyOp60
 70
     1
102
RTVSPropertyOp61
 70
     1
102
RTVSPropertyOp62
 70
     1
  0
XRECORD
  5
8380
102
{ACAD_REACTORS
330
837F
102
}
330
837F
100
AcDbXrecord
280
     1
102
RTVSPost2010Prop28
280
     0
102
RTVSPost2010PropOp28
 70
     1
102
RTVSPost2010Prop29
280
     1
102
RTVSPost2010PropOp29
 70
     1
102
RTVSPost2010Prop30
280
     1
102
RTVSPost2010PropOp30
 70
     1
102
RTVSPost2010Prop31
280
     0
102
RTVSPost2010PropOp31
 70
     1
102
RTVSPost2010Prop32
280
     0
102
RTVSPost2010PropOp32
 70
     1
102
RTVSPost2010Prop33
280
     0
102
RTVSPost2010PropOp33
 70
     1
102
RTVSPost2010Prop34
280
     0
102
RTVSPost2010PropOp34
 70
     1
102
RTVSPost2010Prop35
280
     0
102
RTVSPost2010PropOp35
 70
     1
102
RTVSPost2010Prop36
280
     0
102
RTVSPost2010PropOp36
 70
     1
102
RTVSPost2010Prop37
 90
       50
102
RTVSPost2010PropOp37
 70
     0
102
RTVSPost2010Prop38
140
0.0
102
RTVSPost2010PropOp38
 70
     0
102
RTVSPost2010Prop39
140
1.0
102
RTVSPost2010PropOp39
 70
     0
102
RTVSPost2010Prop40
 90
        0
102
RTVSPost2010PropOp40
 70
     0
102
RTVSPost2010Prop41ColorIndex
 90
       18
102
RTVSPost2010Prop41ColorRGB
 90
        0
102
RTVSPost2010PropOp41
 70
     0
102
RTVSPost2010Prop42
 90
       50
102
RTVSPost2010PropOp42
 70
     0
102
RTVSPost2010Prop43
 90
        3
102
RTVSPost2010PropOp43
 70
     0
102
RTVSPost2010Prop44ColorIndex
 90
        5
102
RTVSPost2010Prop44ColorRGB
 90
      255
102
RTVSPost2010PropOp44
 70
     0
102
RTVSPost2010Prop45
280
     0
102
RTVSPost2010PropOp45
 70
     1
102
RTVSPost2010Prop46
 90
       50
102
RTVSPost2010PropOp46
 70
     0
102
RTVSPost2010Prop47
 90
       50
102
RTVSPost2010PropOp47
 70
     0
102
RTVSPost2010Prop48
 90
       50
102
RTVSPost2010PropOp48
 70
     0
102
RTVSPost2010Prop49
280
     0
102
RTVSPost2010PropOp49
 70
     1
102
RTVSPost2010Prop50
 90
       50
102
RTVSPost2010PropOp50
 70
     0
102
RTVSPost2010Prop51ColorIndex
 90
      256
102
RTVSPost2010Prop51ColorRGB
 90
-16777216
102
RTVSPost2010PropOp51
 70
     0
102
RTVSPost2010Prop52
140
1.0
102
RTVSPost2010PropOp52
 70
     0
102
RTVSPost2010Prop53
 90
        2
102
RTVSPost2010PropOp53
 70
     0
102
RTVSPost2010Prop54
  1
strokes_ogs.tif
102
RTVSPost2010PropOp54
 70
     0
102
RTVSPost2010Prop55
280
     0
102
RTVSPost2010PropOp55
 70
     1
102
RTVSPost2010Prop56
140
1.0
102
RTVSPost2010PropOp56
 70
     0
102
RTVSPost2010Prop57
140
1.0
102
RTVSPost2010PropOp57
 70
     0
102
RTVSPropertyOp0
 70
     0
102
RTVSPropertyOp1
 70
     0
102
RTVSPropertyOp2
 70
     0
102
RTVSPropertyOp3
 70
     0
102
RTVSPropertyOp4
 70
     0
102
RTVSPropertyOp5
 70
     0
102
RTVSPropertyOp6
 70
     0
102
RTVSPropertyOp7
 70
     0
102
RTVSPropertyOp8
 70
     0
102
RTVSPropertyOp9
 70
     0
102
RTVSPropertyOp10
 70
     0
102
RTVSPropertyOp11
 70
     0
102
RTVSPropertyOp12
 70
     0
102
RTVSPropertyOp13
 70
     0
102
RTVSPropertyOp14
 70
     2
102
RTVSPropertyOp15
 70
     0
102
RTVSPropertyOp16
 70
     0
102
RTVSPropertyOp17
 70
     0
102
RTVSPropertyOp18
 70
     0
102
RTVSPropertyOp19
 70
     0
102
RTVSPropertyOp20
 70
     0
102
RTVSPropertyOp21
 70
     0
102
RTVSPropertyOp22
 70
     0
102
RTVSPropertyOp23
 70
     0
102
RTVSPropertyOp24
 70
     0
102
RTVSPropertyOp25
 70
     0
102
RTVSPropertyOp26
 70
     0
102
RTVSPropertyOp27
 70
     0
102
RTVSPropertyOp28
 70
     1
102
RTVSPropertyOp29
 70
     1
102
RTVSPropertyOp30
 70
     1
102
RTVSPropertyOp31
 70
     1
102
RTVSPropertyOp32
 70
     1
102
RTVSPropertyOp33
 70
     1
102
RTVSPropertyOp34
 70
     1
102
RTVSPropertyOp35
 70
     1
102
RTVSPropertyOp36
 70
     1
102
RTVSPropertyOp37
 70
     0
102
RTVSPropertyOp38
 70
     0
102
RTVSPropertyOp39
 70
     0
102
RTVSPropertyOp40
 70
     0
102
RTVSPropertyOp41
 70
     0
102
RTVSPropertyOp42
 70
     0
102
RTVSPropertyOp43
 70
     0
102
RTVSPropertyOp44
 70
     0
102
RTVSPropertyOp45
 70
     1
102
RTVSPropertyOp46
 70
     0
102
RTVSPropertyOp47
 70
     0
102
RTVSPropertyOp48
 70
     0
102
RTVSPropertyOp49
 70
     1
102
RTVSPropertyOp50
 70
     0
102
RTVSPropertyOp51
 70
     0
102
RTVSPropertyOp52
 70
     0
102
RTVSPropertyOp53
 70
     0
102
RTVSPropertyOp54
 70
     0
102
RTVSPropertyOp55
 70
     1
102
RTVSPropertyOp56
 70
     0
102
RTVSPropertyOp57
 70
     0
102
RTVSPropertyOp58
 70
     0
102
RTVSPropertyOp59
 70
     0
102
RTVSPropertyOp60
 70
     0
102
RTVSPropertyOp61
 70
     0
102
RTVSPropertyOp62
 70
     0
  0
XRECORD
  5
8366
102
{ACAD_REACTORS
330
8365
102
}
330
8365
100
AcDbXrecord
280
     1
102
RTVSPost2010Prop28
280
     0
102
RTVSPost2010PropOp28
 70
     1
102
RTVSPost2010Prop29
280
     1
102
RTVSPost2010PropOp29
 70
     1
102
RTVSPost2010Prop30
280
     1
102
RTVSPost2010PropOp30
 70
     1
102
RTVSPost2010Prop31
280
     0
102
RTVSPost2010PropOp31
 70
     1
102
RTVSPost2010Prop32
280
     0
102
RTVSPost2010PropOp32
 70
     1
102
RTVSPost2010Prop33
280
     0
102
RTVSPost2010PropOp33
 70
     1
102
RTVSPost2010Prop34
280
     0
102
RTVSPost2010PropOp34
 70
     1
102
RTVSPost2010Prop35
280
     0
102
RTVSPost2010PropOp35
 70
     1
102
RTVSPost2010Prop36
280
     0
102
RTVSPost2010PropOp36
 70
     1
102
RTVSPost2010Prop37
 90
       50
102
RTVSPost2010PropOp37
 70
     1
102
RTVSPost2010Prop38
140
0.0
102
RTVSPost2010PropOp38
 70
     1
102
RTVSPost2010Prop39
140
1.0
102
RTVSPost2010PropOp39
 70
     1
102
RTVSPost2010Prop40
 90
        0
102
RTVSPost2010PropOp40
 70
     1
102
RTVSPost2010Prop41ColorIndex
 90
       18
102
RTVSPost2010Prop41ColorRGB
 90
        0
102
RTVSPost2010PropOp41
 70
     1
102
RTVSPost2010Prop42
 90
       50
102
RTVSPost2010PropOp42
 70
     1
102
RTVSPost2010Prop43
 90
        3
102
RTVSPost2010PropOp43
 70
     1
102
RTVSPost2010Prop44ColorIndex
 90
        5
102
RTVSPost2010Prop44ColorRGB
 90
      255
102
RTVSPost2010PropOp44
 70
     1
102
RTVSPost2010Prop45
280
     0
102
RTVSPost2010PropOp45
 70
     1
102
RTVSPost2010Prop46
 90
       50
102
RTVSPost2010PropOp46
 70
     1
102
RTVSPost2010Prop47
 90
       50
102
RTVSPost2010PropOp47
 70
     1
102
RTVSPost2010Prop48
 90
       50
102
RTVSPost2010PropOp48
 70
     1
102
RTVSPost2010Prop49
280
     0
102
RTVSPost2010PropOp49
 70
     1
102
RTVSPost2010Prop50
 90
       50
102
RTVSPost2010PropOp50
 70
     1
102
RTVSPost2010Prop51ColorIndex
 90
      256
102
RTVSPost2010Prop51ColorRGB
 90
-16777216
102
RTVSPost2010PropOp51
 70
     0
102
RTVSPost2010Prop52
140
1.0
102
RTVSPost2010PropOp52
 70
     0
102
RTVSPost2010Prop53
 90
        2
102
RTVSPost2010PropOp53
 70
     1
102
RTVSPost2010Prop54
  1
strokes_ogs.tif
102
RTVSPost2010PropOp54
 70
     1
102
RTVSPost2010Prop55
280
     0
102
RTVSPost2010PropOp55
 70
     1
102
RTVSPost2010Prop56
140
1.0
102
RTVSPost2010PropOp56
 70
     1
102
RTVSPost2010Prop57
140
1.0
102
RTVSPost2010PropOp57
 70
     1
102
RTVSPropertyOp0
 70
     1
102
RTVSPropertyOp1
 70
     1
102
RTVSPropertyOp2
 70
     1
102
RTVSPropertyOp3
 70
     1
102
RTVSPropertyOp4
 70
     1
102
RTVSPropertyOp5
 70
     1
102
RTVSPropertyOp6
 70
     1
102
RTVSPropertyOp7
 70
     1
102
RTVSPropertyOp8
 70
     1
102
RTVSPropertyOp9
 70
     1
102
RTVSPropertyOp10
 70
     1
102
RTVSPropertyOp11
 70
     1
102
RTVSPropertyOp12
 70
     1
102
RTVSPropertyOp13
 70
     1
102
RTVSPropertyOp14
 70
     1
102
RTVSPropertyOp15
 70
     1
102
RTVSPropertyOp16
 70
     1
102
RTVSPropertyOp17
 70
     1
102
RTVSPropertyOp18
 70
     1
102
RTVSPropertyOp19
 70
     1
102
RTVSPropertyOp20
 70
     1
102
RTVSPropertyOp21
 70
     1
102
RTVSPropertyOp22
 70
     1
102
RTVSPropertyOp23
 70
     1
102
RTVSPropertyOp24
 70
     1
102
RTVSPropertyOp25
 70
     1
102
RTVSPropertyOp26
 70
     1
102
RTVSPropertyOp27
 70
     1
102
RTVSPropertyOp28
 70
     1
102
RTVSPropertyOp29
 70
     1
102
RTVSPropertyOp30
 70
     1
102
RTVSPropertyOp31
 70
     1
102
RTVSPropertyOp32
 70
     1
102
RTVSPropertyOp33
 70
     1
102
RTVSPropertyOp34
 70
     1
102
RTVSPropertyOp35
 70
     1
102
RTVSPropertyOp36
 70
     1
102
RTVSPropertyOp37
 70
     1
102
RTVSPropertyOp38
 70
     1
102
RTVSPropertyOp39
 70
     1
102
RTVSPropertyOp40
 70
     1
102
RTVSPropertyOp41
 70
     1
102
RTVSPropertyOp42
 70
     1
102
RTVSPropertyOp43
 70
     1
102
RTVSPropertyOp44
 70
     1
102
RTVSPropertyOp45
 70
     1
102
RTVSPropertyOp46
 70
     1
102
RTVSPropertyOp47
 70
     1
102
RTVSPropertyOp48
 70
     1
102
RTVSPropertyOp49
 70
     1
102
RTVSPropertyOp50
 70
     1
102
RTVSPropertyOp51
 70
     0
102
RTVSPropertyOp52
 70
     0
102
RTVSPropertyOp53
 70
     1
102
RTVSPropertyOp54
 70
     1
102
RTVSPropertyOp55
 70
     1
102
RTVSPropertyOp56
 70
     1
102
RTVSPropertyOp57
 70
     1
102
RTVSPropertyOp58
 70
     1
102
RTVSPropertyOp59
 70
     1
102
RTVSPropertyOp60
 70
     1
102
RTVSPropertyOp61
 70
     1
102
RTVSPropertyOp62
 70
     1
  0
XRECORD
  5
837C
102
{ACAD_REACTORS
330
837B
102
}
330
837B
100
AcDbXrecord
280
     1
102
RTVSPost2010Prop28
280
     0
102
RTVSPost2010PropOp28
 70
     1
102
RTVSPost2010Prop29
280
     1
102
RTVSPost2010PropOp29
 70
     1
102
RTVSPost2010Prop30
280
     1
102
RTVSPost2010PropOp30
 70
     1
102
RTVSPost2010Prop31
280
     0
102
RTVSPost2010PropOp31
 70
     1
102
RTVSPost2010Prop32
280
     0
102
RTVSPost2010PropOp32
 70
     1
102
RTVSPost2010Prop33
280
     0
102
RTVSPost2010PropOp33
 70
     1
102
RTVSPost2010Prop34
280
     0
102
RTVSPost2010PropOp34
 70
     1
102
RTVSPost2010Prop35
280
     0
102
RTVSPost2010PropOp35
 70
     1
102
RTVSPost2010Prop36
280
     0
102
RTVSPost2010PropOp36
 70
     1
102
RTVSPost2010Prop37
 90
       50
102
RTVSPost2010PropOp37
 70
     1
102
RTVSPost2010Prop38
140
0.0
102
RTVSPost2010PropOp38
 70
     1
102
RTVSPost2010Prop39
140
1.0
102
RTVSPost2010PropOp39
 70
     1
102
RTVSPost2010Prop40
 90
        0
102
RTVSPost2010PropOp40
 70
     1
102
RTVSPost2010Prop41ColorIndex
 90
       18
102
RTVSPost2010Prop41ColorRGB
 90
        0
102
RTVSPost2010PropOp41
 70
     1
102
RTVSPost2010Prop42
 90
       50
102
RTVSPost2010PropOp42
 70
     1
102
RTVSPost2010Prop43
 90
        3
102
RTVSPost2010PropOp43
 70
     1
102
RTVSPost2010Prop44ColorIndex
 90
        5
102
RTVSPost2010Prop44ColorRGB
 90
      255
102
RTVSPost2010PropOp44
 70
     1
102
RTVSPost2010Prop45
280
     0
102
RTVSPost2010PropOp45
 70
     1
102
RTVSPost2010Prop46
 90
       50
102
RTVSPost2010PropOp46
 70
     1
102
RTVSPost2010Prop47
 90
       50
102
RTVSPost2010PropOp47
 70
     1
102
RTVSPost2010Prop48
 90
       50
102
RTVSPost2010PropOp48
 70
     1
102
RTVSPost2010Prop49
280
     0
102
RTVSPost2010PropOp49
 70
     1
102
RTVSPost2010Prop50
 90
       50
102
RTVSPost2010PropOp50
 70
     1
102
RTVSPost2010Prop51ColorIndex
 90
      256
102
RTVSPost2010Prop51ColorRGB
 90
-16777216
102
RTVSPost2010PropOp51
 70
     0
102
RTVSPost2010Prop52
140
1.0
102
RTVSPost2010PropOp52
 70
     0
102
RTVSPost2010Prop53
 90
        2
102
RTVSPost2010PropOp53
 70
     1
102
RTVSPost2010Prop54
  1
strokes_ogs.tif
102
RTVSPost2010PropOp54
 70
     1
102
RTVSPost2010Prop55
280
     0
102
RTVSPost2010PropOp55
 70
     1
102
RTVSPost2010Prop56
140
1.0
102
RTVSPost2010PropOp56
 70
     1
102
RTVSPost2010Prop57
140
1.0
102
RTVSPost2010PropOp57
 70
     1
102
RTVSPropertyOp0
 70
     1
102
RTVSPropertyOp1
 70
     1
102
RTVSPropertyOp2
 70
     1
102
RTVSPropertyOp3
 70
     1
102
RTVSPropertyOp4
 70
     1
102
RTVSPropertyOp5
 70
     1
102
RTVSPropertyOp6
 70
     1
102
RTVSPropertyOp7
 70
     1
102
RTVSPropertyOp8
 70
     1
102
RTVSPropertyOp9
 70
     1
102
RTVSPropertyOp10
 70
     1
102
RTVSPropertyOp11
 70
     1
102
RTVSPropertyOp12
 70
     1
102
RTVSPropertyOp13
 70
     1
102
RTVSPropertyOp14
 70
     1
102
RTVSPropertyOp15
 70
     1
102
RTVSPropertyOp16
 70
     1
102
RTVSPropertyOp17
 70
     1
102
RTVSPropertyOp18
 70
     1
102
RTVSPropertyOp19
 70
     1
102
RTVSPropertyOp20
 70
     1
102
RTVSPropertyOp21
 70
     1
102
RTVSPropertyOp22
 70
     1
102
RTVSPropertyOp23
 70
     1
102
RTVSPropertyOp24
 70
     1
102
RTVSPropertyOp25
 70
     1
102
RTVSPropertyOp26
 70
     1
102
RTVSPropertyOp27
 70
     1
102
RTVSPropertyOp28
 70
     1
102
RTVSPropertyOp29
 70
     1
102
RTVSPropertyOp30
 70
     1
102
RTVSPropertyOp31
 70
     1
102
RTVSPropertyOp32
 70
     1
102
RTVSPropertyOp33
 70
     1
102
RTVSPropertyOp34
 70
     1
102
RTVSPropertyOp35
 70
     1
102
RTVSPropertyOp36
 70
     1
102
RTVSPropertyOp37
 70
     1
102
RTVSPropertyOp38
 70
     1
102
RTVSPropertyOp39
 70
     1
102
RTVSPropertyOp40
 70
     1
102
RTVSPropertyOp41
 70
     1
102
RTVSPropertyOp42
 70
     1
102
RTVSPropertyOp43
 70
     1
102
RTVSPropertyOp44
 70
     1
102
RTVSPropertyOp45
 70
     1
102
RTVSPropertyOp46
 70
     1
102
RTVSPropertyOp47
 70
     1
102
RTVSPropertyOp48
 70
     1
102
RTVSPropertyOp49
 70
     1
102
RTVSPropertyOp50
 70
     1
102
RTVSPropertyOp51
 70
     0
102
RTVSPropertyOp52
 70
     0
102
RTVSPropertyOp53
 70
     1
102
RTVSPropertyOp54
 70
     1
102
RTVSPropertyOp55
 70
     1
102
RTVSPropertyOp56
 70
     1
102
RTVSPropertyOp57
 70
     1
102
RTVSPropertyOp58
 70
     1
102
RTVSPropertyOp59
 70
     1
102
RTVSPropertyOp60
 70
     1
102
RTVSPropertyOp61
 70
     1
102
RTVSPropertyOp62
 70
     1
  0
XRECORD
  5
837A
102
{ACAD_REACTORS
330
8379
102
}
330
8379
100
AcDbXrecord
280
     1
102
RTVSPost2010Prop28
280
     0
102
RTVSPost2010PropOp28
 70
     1
102
RTVSPost2010Prop29
280
     1
102
RTVSPost2010PropOp29
 70
     1
102
RTVSPost2010Prop30
280
     1
102
RTVSPost2010PropOp30
 70
     1
102
RTVSPost2010Prop31
280
     0
102
RTVSPost2010PropOp31
 70
     1
102
RTVSPost2010Prop32
280
     0
102
RTVSPost2010PropOp32
 70
     1
102
RTVSPost2010Prop33
280
     0
102
RTVSPost2010PropOp33
 70
     1
102
RTVSPost2010Prop34
280
     0
102
RTVSPost2010PropOp34
 70
     1
102
RTVSPost2010Prop35
280
     0
102
RTVSPost2010PropOp35
 70
     1
102
RTVSPost2010Prop36
280
     0
102
RTVSPost2010PropOp36
 70
     1
102
RTVSPost2010Prop37
 90
       50
102
RTVSPost2010PropOp37
 70
     1
102
RTVSPost2010Prop38
140
0.0
102
RTVSPost2010PropOp38
 70
     1
102
RTVSPost2010Prop39
140
1.0
102
RTVSPost2010PropOp39
 70
     1
102
RTVSPost2010Prop40
 90
        0
102
RTVSPost2010PropOp40
 70
     1
102
RTVSPost2010Prop41ColorIndex
 90
       18
102
RTVSPost2010Prop41ColorRGB
 90
        0
102
RTVSPost2010PropOp41
 70
     1
102
RTVSPost2010Prop42
 90
       50
102
RTVSPost2010PropOp42
 70
     1
102
RTVSPost2010Prop43
 90
        3
102
RTVSPost2010PropOp43
 70
     1
102
RTVSPost2010Prop44ColorIndex
 90
        5
102
RTVSPost2010Prop44ColorRGB
 90
      255
102
RTVSPost2010PropOp44
 70
     1
102
RTVSPost2010Prop45
280
     0
102
RTVSPost2010PropOp45
 70
     1
102
RTVSPost2010Prop46
 90
       50
102
RTVSPost2010PropOp46
 70
     1
102
RTVSPost2010Prop47
 90
       50
102
RTVSPost2010PropOp47
 70
     1
102
RTVSPost2010Prop48
 90
       50
102
RTVSPost2010PropOp48
 70
     1
102
RTVSPost2010Prop49
280
     0
102
RTVSPost2010PropOp49
 70
     1
102
RTVSPost2010Prop50
 90
       50
102
RTVSPost2010PropOp50
 70
     1
102
RTVSPost2010Prop51ColorIndex
 90
      256
102
RTVSPost2010Prop51ColorRGB
 90
-16777216
102
RTVSPost2010PropOp51
 70
     0
102
RTVSPost2010Prop52
140
1.0
102
RTVSPost2010PropOp52
 70
     0
102
RTVSPost2010Prop53
 90
        2
102
RTVSPost2010PropOp53
 70
     1
102
RTVSPost2010Prop54
  1
strokes_ogs.tif
102
RTVSPost2010PropOp54
 70
     1
102
RTVSPost2010Prop55
280
     0
102
RTVSPost2010PropOp55
 70
     1
102
RTVSPost2010Prop56
140
1.0
102
RTVSPost2010PropOp56
 70
     1
102
RTVSPost2010Prop57
140
1.0
102
RTVSPost2010PropOp57
 70
     1
102
RTVSPropertyOp0
 70
     1
102
RTVSPropertyOp1
 70
     1
102
RTVSPropertyOp2
 70
     1
102
RTVSPropertyOp3
 70
     1
102
RTVSPropertyOp4
 70
     1
102
RTVSPropertyOp5
 70
     1
102
RTVSPropertyOp6
 70
     1
102
RTVSPropertyOp7
 70
     1
102
RTVSPropertyOp8
 70
     1
102
RTVSPropertyOp9
 70
     1
102
RTVSPropertyOp10
 70
     1
102
RTVSPropertyOp11
 70
     1
102
RTVSPropertyOp12
 70
     1
102
RTVSPropertyOp13
 70
     1
102
RTVSPropertyOp14
 70
     1
102
RTVSPropertyOp15
 70
     1
102
RTVSPropertyOp16
 70
     1
102
RTVSPropertyOp17
 70
     1
102
RTVSPropertyOp18
 70
     1
102
RTVSPropertyOp19
 70
     1
102
RTVSPropertyOp20
 70
     1
102
RTVSPropertyOp21
 70
     1
102
RTVSPropertyOp22
 70
     1
102
RTVSPropertyOp23
 70
     1
102
RTVSPropertyOp24
 70
     1
102
RTVSPropertyOp25
 70
     1
102
RTVSPropertyOp26
 70
     1
102
RTVSPropertyOp27
 70
     1
102
RTVSPropertyOp28
 70
     1
102
RTVSPropertyOp29
 70
     1
102
RTVSPropertyOp30
 70
     1
102
RTVSPropertyOp31
 70
     1
102
RTVSPropertyOp32
 70
     1
102
RTVSPropertyOp33
 70
     1
102
RTVSPropertyOp34
 70
     1
102
RTVSPropertyOp35
 70
     1
102
RTVSPropertyOp36
 70
     1
102
RTVSPropertyOp37
 70
     1
102
RTVSPropertyOp38
 70
     1
102
RTVSPropertyOp39
 70
     1
102
RTVSPropertyOp40
 70
     1
102
RTVSPropertyOp41
 70
     1
102
RTVSPropertyOp42
 70
     1
102
RTVSPropertyOp43
 70
     1
102
RTVSPropertyOp44
 70
     1
102
RTVSPropertyOp45
 70
     1
102
RTVSPropertyOp46
 70
     1
102
RTVSPropertyOp47
 70
     1
102
RTVSPropertyOp48
 70
     1
102
RTVSPropertyOp49
 70
     1
102
RTVSPropertyOp50
 70
     1
102
RTVSPropertyOp51
 70
     0
102
RTVSPropertyOp52
 70
     0
102
RTVSPropertyOp53
 70
     1
102
RTVSPropertyOp54
 70
     1
102
RTVSPropertyOp55
 70
     1
102
RTVSPropertyOp56
 70
     1
102
RTVSPropertyOp57
 70
     1
102
RTVSPropertyOp58
 70
     1
102
RTVSPropertyOp59
 70
     1
102
RTVSPropertyOp60
 70
     1
102
RTVSPropertyOp61
 70
     1
102
RTVSPropertyOp62
 70
     1
  0
XRECORD
  5
8374
102
{ACAD_REACTORS
330
8373
102
}
330
8373
100
AcDbXrecord
280
     1
102
RTVSPost2010Prop28
280
     0
102
RTVSPost2010PropOp28
 70
     1
102
RTVSPost2010Prop29
280
     1
102
RTVSPost2010PropOp29
 70
     1
102
RTVSPost2010Prop30
280
     1
102
RTVSPost2010PropOp30
 70
     1
102
RTVSPost2010Prop31
280
     0
102
RTVSPost2010PropOp31
 70
     1
102
RTVSPost2010Prop32
280
     0
102
RTVSPost2010PropOp32
 70
     1
102
RTVSPost2010Prop33
280
     0
102
RTVSPost2010PropOp33
 70
     1
102
RTVSPost2010Prop34
280
     0
102
RTVSPost2010PropOp34
 70
     1
102
RTVSPost2010Prop35
280
     0
102
RTVSPost2010PropOp35
 70
     1
102
RTVSPost2010Prop36
280
     0
102
RTVSPost2010PropOp36
 70
     1
102
RTVSPost2010Prop37
 90
       50
102
RTVSPost2010PropOp37
 70
     1
102
RTVSPost2010Prop38
140
0.0
102
RTVSPost2010PropOp38
 70
     1
102
RTVSPost2010Prop39
140
1.0
102
RTVSPost2010PropOp39
 70
     1
102
RTVSPost2010Prop40
 90
        0
102
RTVSPost2010PropOp40
 70
     1
102
RTVSPost2010Prop41ColorIndex
 90
       18
102
RTVSPost2010Prop41ColorRGB
 90
        0
102
RTVSPost2010PropOp41
 70
     1
102
RTVSPost2010Prop42
 90
       50
102
RTVSPost2010PropOp42
 70
     1
102
RTVSPost2010Prop43
 90
        3
102
RTVSPost2010PropOp43
 70
     1
102
RTVSPost2010Prop44ColorIndex
 90
        5
102
RTVSPost2010Prop44ColorRGB
 90
      255
102
RTVSPost2010PropOp44
 70
     1
102
RTVSPost2010Prop45
280
     0
102
RTVSPost2010PropOp45
 70
     1
102
RTVSPost2010Prop46
 90
       50
102
RTVSPost2010PropOp46
 70
     1
102
RTVSPost2010Prop47
 90
       50
102
RTVSPost2010PropOp47
 70
     1
102
RTVSPost2010Prop48
 90
       50
102
RTVSPost2010PropOp48
 70
     1
102
RTVSPost2010Prop49
280
     0
102
RTVSPost2010PropOp49
 70
     1
102
RTVSPost2010Prop50
 90
       50
102
RTVSPost2010PropOp50
 70
     1
102
RTVSPost2010Prop51ColorIndex
 90
      256
102
RTVSPost2010Prop51ColorRGB
 90
-16777216
102
RTVSPost2010PropOp51
 70
     0
102
RTVSPost2010Prop52
140
1.0
102
RTVSPost2010PropOp52
 70
     0
102
RTVSPost2010Prop53
 90
        2
102
RTVSPost2010PropOp53
 70
     1
102
RTVSPost2010Prop54
  1
strokes_ogs.tif
102
RTVSPost2010PropOp54
 70
     1
102
RTVSPost2010Prop55
280
     0
102
RTVSPost2010PropOp55
 70
     1
102
RTVSPost2010Prop56
140
1.0
102
RTVSPost2010PropOp56
 70
     1
102
RTVSPost2010Prop57
140
1.0
102
RTVSPost2010PropOp57
 70
     1
102
RTVSPropertyOp0
 70
     1
102
RTVSPropertyOp1
 70
     1
102
RTVSPropertyOp2
 70
     1
102
RTVSPropertyOp3
 70
     1
102
RTVSPropertyOp4
 70
     1
102
RTVSPropertyOp5
 70
     1
102
RTVSPropertyOp6
 70
     1
102
RTVSPropertyOp7
 70
     1
102
RTVSPropertyOp8
 70
     1
102
RTVSPropertyOp9
 70
     1
102
RTVSPropertyOp10
 70
     1
102
RTVSPropertyOp11
 70
     1
102
RTVSPropertyOp12
 70
     1
102
RTVSPropertyOp13
 70
     1
102
RTVSPropertyOp14
 70
     1
102
RTVSPropertyOp15
 70
     1
102
RTVSPropertyOp16
 70
     1
102
RTVSPropertyOp17
 70
     1
102
RTVSPropertyOp18
 70
     1
102
RTVSPropertyOp19
 70
     1
102
RTVSPropertyOp20
 70
     1
102
RTVSPropertyOp21
 70
     1
102
RTVSPropertyOp22
 70
     1
102
RTVSPropertyOp23
 70
     1
102
RTVSPropertyOp24
 70
     1
102
RTVSPropertyOp25
 70
     1
102
RTVSPropertyOp26
 70
     1
102
RTVSPropertyOp27
 70
     1
102
RTVSPropertyOp28
 70
     1
102
RTVSPropertyOp29
 70
     1
102
RTVSPropertyOp30
 70
     1
102
RTVSPropertyOp31
 70
     1
102
RTVSPropertyOp32
 70
     1
102
RTVSPropertyOp33
 70
     1
102
RTVSPropertyOp34
 70
     1
102
RTVSPropertyOp35
 70
     1
102
RTVSPropertyOp36
 70
     1
102
RTVSPropertyOp37
 70
     1
102
RTVSPropertyOp38
 70
     1
102
RTVSPropertyOp39
 70
     1
102
RTVSPropertyOp40
 70
     1
102
RTVSPropertyOp41
 70
     1
102
RTVSPropertyOp42
 70
     1
102
RTVSPropertyOp43
 70
     1
102
RTVSPropertyOp44
 70
     1
102
RTVSPropertyOp45
 70
     1
102
RTVSPropertyOp46
 70
     1
102
RTVSPropertyOp47
 70
     1
102
RTVSPropertyOp48
 70
     1
102
RTVSPropertyOp49
 70
     1
102
RTVSPropertyOp50
 70
     1
102
RTVSPropertyOp51
 70
     0
102
RTVSPropertyOp52
 70
     0
102
RTVSPropertyOp53
 70
     1
102
RTVSPropertyOp54
 70
     1
102
RTVSPropertyOp55
 70
     1
102
RTVSPropertyOp56
 70
     1
102
RTVSPropertyOp57
 70
     1
102
RTVSPropertyOp58
 70
     1
102
RTVSPropertyOp59
 70
     1
102
RTVSPropertyOp60
 70
     1
102
RTVSPropertyOp61
 70
     1
102
RTVSPropertyOp62
 70
     1
  0
XRECORD
  5
8376
102
{ACAD_REACTORS
330
8375
102
}
330
8375
100
AcDbXrecord
280
     1
102
RTVSPost2010Prop28
280
     0
102
RTVSPost2010PropOp28
 70
     1
102
RTVSPost2010Prop29
280
     1
102
RTVSPost2010PropOp29
 70
     1
102
RTVSPost2010Prop30
280
     1
102
RTVSPost2010PropOp30
 70
     1
102
RTVSPost2010Prop31
280
     0
102
RTVSPost2010PropOp31
 70
     1
102
RTVSPost2010Prop32
280
     0
102
RTVSPost2010PropOp32
 70
     1
102
RTVSPost2010Prop33
280
     0
102
RTVSPost2010PropOp33
 70
     1
102
RTVSPost2010Prop34
280
     0
102
RTVSPost2010PropOp34
 70
     1
102
RTVSPost2010Prop35
280
     0
102
RTVSPost2010PropOp35
 70
     1
102
RTVSPost2010Prop36
280
     0
102
RTVSPost2010PropOp36
 70
     1
102
RTVSPost2010Prop37
 90
       50
102
RTVSPost2010PropOp37
 70
     1
102
RTVSPost2010Prop38
140
0.0
102
RTVSPost2010PropOp38
 70
     1
102
RTVSPost2010Prop39
140
1.0
102
RTVSPost2010PropOp39
 70
     1
102
RTVSPost2010Prop40
 90
        0
102
RTVSPost2010PropOp40
 70
     1
102
RTVSPost2010Prop41ColorIndex
 90
       18
102
RTVSPost2010Prop41ColorRGB
 90
        0
102
RTVSPost2010PropOp41
 70
     1
102
RTVSPost2010Prop42
 90
       50
102
RTVSPost2010PropOp42
 70
     1
102
RTVSPost2010Prop43
 90
        3
102
RTVSPost2010PropOp43
 70
     1
102
RTVSPost2010Prop44ColorIndex
 90
        5
102
RTVSPost2010Prop44ColorRGB
 90
      255
102
RTVSPost2010PropOp44
 70
     1
102
RTVSPost2010Prop45
280
     0
102
RTVSPost2010PropOp45
 70
     1
102
RTVSPost2010Prop46
 90
       50
102
RTVSPost2010PropOp46
 70
     1
102
RTVSPost2010Prop47
 90
       50
102
RTVSPost2010PropOp47
 70
     1
102
RTVSPost2010Prop48
 90
       50
102
RTVSPost2010PropOp48
 70
     1
102
RTVSPost2010Prop49
280
     0
102
RTVSPost2010PropOp49
 70
     1
102
RTVSPost2010Prop50
 90
       50
102
RTVSPost2010PropOp50
 70
     1
102
RTVSPost2010Prop51ColorIndex
 90
      256
102
RTVSPost2010Prop51ColorRGB
 90
-16777216
102
RTVSPost2010PropOp51
 70
     0
102
RTVSPost2010Prop52
140
1.0
102
RTVSPost2010PropOp52
 70
     0
102
RTVSPost2010Prop53
 90
        2
102
RTVSPost2010PropOp53
 70
     1
102
RTVSPost2010Prop54
  1
strokes_ogs.tif
102
RTVSPost2010PropOp54
 70
     1
102
RTVSPost2010Prop55
280
     0
102
RTVSPost2010PropOp55
 70
     1
102
RTVSPost2010Prop56
140
1.0
102
RTVSPost2010PropOp56
 70
     1
102
RTVSPost2010Prop57
140
1.0
102
RTVSPost2010PropOp57
 70
     1
102
RTVSPropertyOp0
 70
     1
102
RTVSPropertyOp1
 70
     1
102
RTVSPropertyOp2
 70
     1
102
RTVSPropertyOp3
 70
     1
102
RTVSPropertyOp4
 70
     1
102
RTVSPropertyOp5
 70
     1
102
RTVSPropertyOp6
 70
     1
102
RTVSPropertyOp7
 70
     1
102
RTVSPropertyOp8
 70
     1
102
RTVSPropertyOp9
 70
     1
102
RTVSPropertyOp10
 70
     1
102
RTVSPropertyOp11
 70
     1
102
RTVSPropertyOp12
 70
     1
102
RTVSPropertyOp13
 70
     1
102
RTVSPropertyOp14
 70
     1
102
RTVSPropertyOp15
 70
     1
102
RTVSPropertyOp16
 70
     1
102
RTVSPropertyOp17
 70
     1
102
RTVSPropertyOp18
 70
     1
102
RTVSPropertyOp19
 70
     1
102
RTVSPropertyOp20
 70
     1
102
RTVSPropertyOp21
 70
     1
102
RTVSPropertyOp22
 70
     1
102
RTVSPropertyOp23
 70
     1
102
RTVSPropertyOp24
 70
     1
102
RTVSPropertyOp25
 70
     1
102
RTVSPropertyOp26
 70
     1
102
RTVSPropertyOp27
 70
     1
102
RTVSPropertyOp28
 70
     1
102
RTVSPropertyOp29
 70
     1
102
RTVSPropertyOp30
 70
     1
102
RTVSPropertyOp31
 70
     1
102
RTVSPropertyOp32
 70
     1
102
RTVSPropertyOp33
 70
     1
102
RTVSPropertyOp34
 70
     1
102
RTVSPropertyOp35
 70
     1
102
RTVSPropertyOp36
 70
     1
102
RTVSPropertyOp37
 70
     1
102
RTVSPropertyOp38
 70
     1
102
RTVSPropertyOp39
 70
     1
102
RTVSPropertyOp40
 70
     1
102
RTVSPropertyOp41
 70
     1
102
RTVSPropertyOp42
 70
     1
102
RTVSPropertyOp43
 70
     1
102
RTVSPropertyOp44
 70
     1
102
RTVSPropertyOp45
 70
     1
102
RTVSPropertyOp46
 70
     1
102
RTVSPropertyOp47
 70
     1
102
RTVSPropertyOp48
 70
     1
102
RTVSPropertyOp49
 70
     1
102
RTVSPropertyOp50
 70
     1
102
RTVSPropertyOp51
 70
     0
102
RTVSPropertyOp52
 70
     0
102
RTVSPropertyOp53
 70
     1
102
RTVSPropertyOp54
 70
     1
102
RTVSPropertyOp55
 70
     1
102
RTVSPropertyOp56
 70
     1
102
RTVSPropertyOp57
 70
     1
102
RTVSPropertyOp58
 70
     1
102
RTVSPropertyOp59
 70
     1
102
RTVSPropertyOp60
 70
     1
102
RTVSPropertyOp61
 70
     1
102
RTVSPropertyOp62
 70
     1
  0
XRECORD
  5
836C
102
{ACAD_REACTORS
330
836B
102
}
330
836B
100
AcDbXrecord
280
     1
102
RTVSPost2010Prop28
280
     0
102
RTVSPost2010PropOp28
 70
     1
102
RTVSPost2010Prop29
280
     1
102
RTVSPost2010PropOp29
 70
     1
102
RTVSPost2010Prop30
280
     1
102
RTVSPost2010PropOp30
 70
     1
102
RTVSPost2010Prop31
280
     0
102
RTVSPost2010PropOp31
 70
     1
102
RTVSPost2010Prop32
280
     0
102
RTVSPost2010PropOp32
 70
     1
102
RTVSPost2010Prop33
280
     0
102
RTVSPost2010PropOp33
 70
     1
102
RTVSPost2010Prop34
280
     0
102
RTVSPost2010PropOp34
 70
     1
102
RTVSPost2010Prop35
280
     0
102
RTVSPost2010PropOp35
 70
     1
102
RTVSPost2010Prop36
280
     0
102
RTVSPost2010PropOp36
 70
     1
102
RTVSPost2010Prop37
 90
       50
102
RTVSPost2010PropOp37
 70
     1
102
RTVSPost2010Prop38
140
0.0
102
RTVSPost2010PropOp38
 70
     1
102
RTVSPost2010Prop39
140
1.0
102
RTVSPost2010PropOp39
 70
     1
102
RTVSPost2010Prop40
 90
        0
102
RTVSPost2010PropOp40
 70
     1
102
RTVSPost2010Prop41ColorIndex
 90
       18
102
RTVSPost2010Prop41ColorRGB
 90
        0
102
RTVSPost2010PropOp41
 70
     1
102
RTVSPost2010Prop42
 90
       50
102
RTVSPost2010PropOp42
 70
     1
102
RTVSPost2010Prop43
 90
        3
102
RTVSPost2010PropOp43
 70
     1
102
RTVSPost2010Prop44ColorIndex
 90
        5
102
RTVSPost2010Prop44ColorRGB
 90
      255
102
RTVSPost2010PropOp44
 70
     1
102
RTVSPost2010Prop45
280
     0
102
RTVSPost2010PropOp45
 70
     1
102
RTVSPost2010Prop46
 90
       50
102
RTVSPost2010PropOp46
 70
     1
102
RTVSPost2010Prop47
 90
       50
102
RTVSPost2010PropOp47
 70
     1
102
RTVSPost2010Prop48
 90
       50
102
RTVSPost2010PropOp48
 70
     1
102
RTVSPost2010Prop49
280
     0
102
RTVSPost2010PropOp49
 70
     1
102
RTVSPost2010Prop50
 90
       50
102
RTVSPost2010PropOp50
 70
     1
102
RTVSPost2010Prop51ColorIndex
 90
      256
102
RTVSPost2010Prop51ColorRGB
 90
-16777216
102
RTVSPost2010PropOp51
 70
     0
102
RTVSPost2010Prop52
140
1.0
102
RTVSPost2010PropOp52
 70
     0
102
RTVSPost2010Prop53
 90
        2
102
RTVSPost2010PropOp53
 70
     1
102
RTVSPost2010Prop54
  1
strokes_ogs.tif
102
RTVSPost2010PropOp54
 70
     1
102
RTVSPost2010Prop55
280
     0
102
RTVSPost2010PropOp55
 70
     1
102
RTVSPost2010Prop56
140
1.0
102
RTVSPost2010PropOp56
 70
     1
102
RTVSPost2010Prop57
140
1.0
102
RTVSPost2010PropOp57
 70
     1
102
RTVSPropertyOp0
 70
     1
102
RTVSPropertyOp1
 70
     1
102
RTVSPropertyOp2
 70
     1
102
RTVSPropertyOp3
 70
     1
102
RTVSPropertyOp4
 70
     1
102
RTVSPropertyOp5
 70
     1
102
RTVSPropertyOp6
 70
     1
102
RTVSPropertyOp7
 70
     1
102
RTVSPropertyOp8
 70
     1
102
RTVSPropertyOp9
 70
     1
102
RTVSPropertyOp10
 70
     1
102
RTVSPropertyOp11
 70
     1
102
RTVSPropertyOp12
 70
     1
102
RTVSPropertyOp13
 70
     1
102
RTVSPropertyOp14
 70
     1
102
RTVSPropertyOp15
 70
     1
102
RTVSPropertyOp16
 70
     1
102
RTVSPropertyOp17
 70
     1
102
RTVSPropertyOp18
 70
     1
102
RTVSPropertyOp19
 70
     1
102
RTVSPropertyOp20
 70
     1
102
RTVSPropertyOp21
 70
     1
102
RTVSPropertyOp22
 70
     1
102
RTVSPropertyOp23
 70
     1
102
RTVSPropertyOp24
 70
     1
102
RTVSPropertyOp25
 70
     1
102
RTVSPropertyOp26
 70
     1
102
RTVSPropertyOp27
 70
     1
102
RTVSPropertyOp28
 70
     1
102
RTVSPropertyOp29
 70
     1
102
RTVSPropertyOp30
 70
     1
102
RTVSPropertyOp31
 70
     1
102
RTVSPropertyOp32
 70
     1
102
RTVSPropertyOp33
 70
     1
102
RTVSPropertyOp34
 70
     1
102
RTVSPropertyOp35
 70
     1
102
RTVSPropertyOp36
 70
     1
102
RTVSPropertyOp37
 70
     1
102
RTVSPropertyOp38
 70
     1
102
RTVSPropertyOp39
 70
     1
102
RTVSPropertyOp40
 70
     1
102
RTVSPropertyOp41
 70
     1
102
RTVSPropertyOp42
 70
     1
102
RTVSPropertyOp43
 70
     1
102
RTVSPropertyOp44
 70
     1
102
RTVSPropertyOp45
 70
     1
102
RTVSPropertyOp46
 70
     1
102
RTVSPropertyOp47
 70
     1
102
RTVSPropertyOp48
 70
     1
102
RTVSPropertyOp49
 70
     1
102
RTVSPropertyOp50
 70
     1
102
RTVSPropertyOp51
 70
     0
102
RTVSPropertyOp52
 70
     0
102
RTVSPropertyOp53
 70
     1
102
RTVSPropertyOp54
 70
     1
102
RTVSPropertyOp55
 70
     1
102
RTVSPropertyOp56
 70
     1
102
RTVSPropertyOp57
 70
     1
102
RTVSPropertyOp58
 70
     1
102
RTVSPropertyOp59
 70
     1
102
RTVSPropertyOp60
 70
     1
102
RTVSPropertyOp61
 70
     1
102
RTVSPropertyOp62
 70
     1
  0
XRECORD
  5
8360
102
{ACAD_REACTORS
330
835F
102
}
330
835F
100
AcDbXrecord
280
     1
102
RTVSPost2010Prop28
280
     0
102
RTVSPost2010PropOp28
 70
     1
102
RTVSPost2010Prop29
280
     1
102
RTVSPost2010PropOp29
 70
     1
102
RTVSPost2010Prop30
280
     1
102
RTVSPost2010PropOp30
 70
     1
102
RTVSPost2010Prop31
280
     0
102
RTVSPost2010PropOp31
 70
     1
102
RTVSPost2010Prop32
280
     0
102
RTVSPost2010PropOp32
 70
     1
102
RTVSPost2010Prop33
280
     0
102
RTVSPost2010PropOp33
 70
     1
102
RTVSPost2010Prop34
280
     0
102
RTVSPost2010PropOp34
 70
     1
102
RTVSPost2010Prop35
280
     0
102
RTVSPost2010PropOp35
 70
     1
102
RTVSPost2010Prop36
280
     0
102
RTVSPost2010PropOp36
 70
     1
102
RTVSPost2010Prop37
 90
       50
102
RTVSPost2010PropOp37
 70
     1
102
RTVSPost2010Prop38
140
0.0
102
RTVSPost2010PropOp38
 70
     1
102
RTVSPost2010Prop39
140
1.0
102
RTVSPost2010PropOp39
 70
     1
102
RTVSPost2010Prop40
 90
        0
102
RTVSPost2010PropOp40
 70
     1
102
RTVSPost2010Prop41ColorIndex
 90
       18
102
RTVSPost2010Prop41ColorRGB
 90
        0
102
RTVSPost2010PropOp41
 70
     1
102
RTVSPost2010Prop42
 90
       50
102
RTVSPost2010PropOp42
 70
     1
102
RTVSPost2010Prop43
 90
        3
102
RTVSPost2010PropOp43
 70
     1
102
RTVSPost2010Prop44ColorIndex
 90
        5
102
RTVSPost2010Prop44ColorRGB
 90
      255
102
RTVSPost2010PropOp44
 70
     1
102
RTVSPost2010Prop45
280
     0
102
RTVSPost2010PropOp45
 70
     1
102
RTVSPost2010Prop46
 90
       50
102
RTVSPost2010PropOp46
 70
     1
102
RTVSPost2010Prop47
 90
       50
102
RTVSPost2010PropOp47
 70
     1
102
RTVSPost2010Prop48
 90
       50
102
RTVSPost2010PropOp48
 70
     1
102
RTVSPost2010Prop49
280
     0
102
RTVSPost2010PropOp49
 70
     1
102
RTVSPost2010Prop50
 90
       50
102
RTVSPost2010PropOp50
 70
     1
102
RTVSPost2010Prop51ColorIndex
 90
      256
102
RTVSPost2010Prop51ColorRGB
 90
-16777216
102
RTVSPost2010PropOp51
 70
     0
102
RTVSPost2010Prop52
140
1.0
102
RTVSPost2010PropOp52
 70
     0
102
RTVSPost2010Prop53
 90
        2
102
RTVSPost2010PropOp53
 70
     1
102
RTVSPost2010Prop54
  1
strokes_ogs.tif
102
RTVSPost2010PropOp54
 70
     1
102
RTVSPost2010Prop55
280
     0
102
RTVSPost2010PropOp55
 70
     1
102
RTVSPost2010Prop56
140
1.0
102
RTVSPost2010PropOp56
 70
     1
102
RTVSPost2010Prop57
140
1.0
102
RTVSPost2010PropOp57
 70
     1
102
RTVSPropertyOp0
 70
     1
102
RTVSPropertyOp1
 70
     1
102
RTVSPropertyOp2
 70
     1
102
RTVSPropertyOp3
 70
     1
102
RTVSPropertyOp4
 70
     1
102
RTVSPropertyOp5
 70
     1
102
RTVSPropertyOp6
 70
     1
102
RTVSPropertyOp7
 70
     1
102
RTVSPropertyOp8
 70
     1
102
RTVSPropertyOp9
 70
     1
102
RTVSPropertyOp10
 70
     1
102
RTVSPropertyOp11
 70
     1
102
RTVSPropertyOp12
 70
     1
102
RTVSPropertyOp13
 70
     1
102
RTVSPropertyOp14
 70
     1
102
RTVSPropertyOp15
 70
     1
102
RTVSPropertyOp16
 70
     1
102
RTVSPropertyOp17
 70
     1
102
RTVSPropertyOp18
 70
     1
102
RTVSPropertyOp19
 70
     1
102
RTVSPropertyOp20
 70
     1
102
RTVSPropertyOp21
 70
     1
102
RTVSPropertyOp22
 70
     1
102
RTVSPropertyOp23
 70
     1
102
RTVSPropertyOp24
 70
     1
102
RTVSPropertyOp25
 70
     1
102
RTVSPropertyOp26
 70
     1
102
RTVSPropertyOp27
 70
     1
102
RTVSPropertyOp28
 70
     1
102
RTVSPropertyOp29
 70
     1
102
RTVSPropertyOp30
 70
     1
102
RTVSPropertyOp31
 70
     1
102
RTVSPropertyOp32
 70
     1
102
RTVSPropertyOp33
 70
     1
102
RTVSPropertyOp34
 70
     1
102
RTVSPropertyOp35
 70
     1
102
RTVSPropertyOp36
 70
     1
102
RTVSPropertyOp37
 70
     1
102
RTVSPropertyOp38
 70
     1
102
RTVSPropertyOp39
 70
     1
102
RTVSPropertyOp40
 70
     1
102
RTVSPropertyOp41
 70
     1
102
RTVSPropertyOp42
 70
     1
102
RTVSPropertyOp43
 70
     1
102
RTVSPropertyOp44
 70
     1
102
RTVSPropertyOp45
 70
     1
102
RTVSPropertyOp46
 70
     1
102
RTVSPropertyOp47
 70
     1
102
RTVSPropertyOp48
 70
     1
102
RTVSPropertyOp49
 70
     1
102
RTVSPropertyOp50
 70
     1
102
RTVSPropertyOp51
 70
     0
102
RTVSPropertyOp52
 70
     0
102
RTVSPropertyOp53
 70
     1
102
RTVSPropertyOp54
 70
     1
102
RTVSPropertyOp55
 70
     1
102
RTVSPropertyOp56
 70
     1
102
RTVSPropertyOp57
 70
     1
102
RTVSPropertyOp58
 70
     1
102
RTVSPropertyOp59
 70
     1
102
RTVSPropertyOp60
 70
     1
102
RTVSPropertyOp61
 70
     1
102
RTVSPropertyOp62
 70
     1
  0
XRECORD
  5
8378
102
{ACAD_REACTORS
330
8377
102
}
330
8377
100
AcDbXrecord
280
     1
102
RTVSPost2010Prop28
280
     0
102
RTVSPost2010PropOp28
 70
     1
102
RTVSPost2010Prop29
280
     1
102
RTVSPost2010PropOp29
 70
     1
102
RTVSPost2010Prop30
280
     1
102
RTVSPost2010PropOp30
 70
     1
102
RTVSPost2010Prop31
280
     0
102
RTVSPost2010PropOp31
 70
     1
102
RTVSPost2010Prop32
280
     0
102
RTVSPost2010PropOp32
 70
     1
102
RTVSPost2010Prop33
280
     0
102
RTVSPost2010PropOp33
 70
     1
102
RTVSPost2010Prop34
280
     0
102
RTVSPost2010PropOp34
 70
     1
102
RTVSPost2010Prop35
280
     0
102
RTVSPost2010PropOp35
 70
     1
102
RTVSPost2010Prop36
280
     0
102
RTVSPost2010PropOp36
 70
     1
102
RTVSPost2010Prop37
 90
       50
102
RTVSPost2010PropOp37
 70
     1
102
RTVSPost2010Prop38
140
0.0
102
RTVSPost2010PropOp38
 70
     1
102
RTVSPost2010Prop39
140
1.0
102
RTVSPost2010PropOp39
 70
     1
102
RTVSPost2010Prop40
 90
        0
102
RTVSPost2010PropOp40
 70
     1
102
RTVSPost2010Prop41ColorIndex
 90
       18
102
RTVSPost2010Prop41ColorRGB
 90
        0
102
RTVSPost2010PropOp41
 70
     1
102
RTVSPost2010Prop42
 90
       50
102
RTVSPost2010PropOp42
 70
     1
102
RTVSPost2010Prop43
 90
        3
102
RTVSPost2010PropOp43
 70
     1
102
RTVSPost2010Prop44ColorIndex
 90
        5
102
RTVSPost2010Prop44ColorRGB
 90
      255
102
RTVSPost2010PropOp44
 70
     1
102
RTVSPost2010Prop45
280
     0
102
RTVSPost2010PropOp45
 70
     1
102
RTVSPost2010Prop46
 90
       50
102
RTVSPost2010PropOp46
 70
     1
102
RTVSPost2010Prop47
 90
       50
102
RTVSPost2010PropOp47
 70
     1
102
RTVSPost2010Prop48
 90
       50
102
RTVSPost2010PropOp48
 70
     1
102
RTVSPost2010Prop49
280
     0
102
RTVSPost2010PropOp49
 70
     1
102
RTVSPost2010Prop50
 90
       50
102
RTVSPost2010PropOp50
 70
     1
102
RTVSPost2010Prop51ColorIndex
 90
      256
102
RTVSPost2010Prop51ColorRGB
 90
-16777216
102
RTVSPost2010PropOp51
 70
     0
102
RTVSPost2010Prop52
140
1.0
102
RTVSPost2010PropOp52
 70
     0
102
RTVSPost2010Prop53
 90
        2
102
RTVSPost2010PropOp53
 70
     1
102
RTVSPost2010Prop54
  1
strokes_ogs.tif
102
RTVSPost2010PropOp54
 70
     1
102
RTVSPost2010Prop55
280
     0
102
RTVSPost2010PropOp55
 70
     1
102
RTVSPost2010Prop56
140
1.0
102
RTVSPost2010PropOp56
 70
     1
102
RTVSPost2010Prop57
140
1.0
102
RTVSPost2010PropOp57
 70
     1
102
RTVSPropertyOp0
 70
     1
102
RTVSPropertyOp1
 70
     1
102
RTVSPropertyOp2
 70
     1
102
RTVSPropertyOp3
 70
     1
102
RTVSPropertyOp4
 70
     1
102
RTVSPropertyOp5
 70
     1
102
RTVSPropertyOp6
 70
     1
102
RTVSPropertyOp7
 70
     1
102
RTVSPropertyOp8
 70
     1
102
RTVSPropertyOp9
 70
     1
102
RTVSPropertyOp10
 70
     1
102
RTVSPropertyOp11
 70
     1
102
RTVSPropertyOp12
 70
     1
102
RTVSPropertyOp13
 70
     1
102
RTVSPropertyOp14
 70
     1
102
RTVSPropertyOp15
 70
     1
102
RTVSPropertyOp16
 70
     1
102
RTVSPropertyOp17
 70
     1
102
RTVSPropertyOp18
 70
     1
102
RTVSPropertyOp19
 70
     1
102
RTVSPropertyOp20
 70
     1
102
RTVSPropertyOp21
 70
     1
102
RTVSPropertyOp22
 70
     1
102
RTVSPropertyOp23
 70
     1
102
RTVSPropertyOp24
 70
     1
102
RTVSPropertyOp25
 70
     1
102
RTVSPropertyOp26
 70
     1
102
RTVSPropertyOp27
 70
     1
102
RTVSPropertyOp28
 70
     1
102
RTVSPropertyOp29
 70
     1
102
RTVSPropertyOp30
 70
     1
102
RTVSPropertyOp31
 70
     1
102
RTVSPropertyOp32
 70
     1
102
RTVSPropertyOp33
 70
     1
102
RTVSPropertyOp34
 70
     1
102
RTVSPropertyOp35
 70
     1
102
RTVSPropertyOp36
 70
     1
102
RTVSPropertyOp37
 70
     1
102
RTVSPropertyOp38
 70
     1
102
RTVSPropertyOp39
 70
     1
102
RTVSPropertyOp40
 70
     1
102
RTVSPropertyOp41
 70
     1
102
RTVSPropertyOp42
 70
     1
102
RTVSPropertyOp43
 70
     1
102
RTVSPropertyOp44
 70
     1
102
RTVSPropertyOp45
 70
     1
102
RTVSPropertyOp46
 70
     1
102
RTVSPropertyOp47
 70
     1
102
RTVSPropertyOp48
 70
     1
102
RTVSPropertyOp49
 70
     1
102
RTVSPropertyOp50
 70
     1
102
RTVSPropertyOp51
 70
     0
102
RTVSPropertyOp52
 70
     0
102
RTVSPropertyOp53
 70
     1
102
RTVSPropertyOp54
 70
     1
102
RTVSPropertyOp55
 70
     1
102
RTVSPropertyOp56
 70
     1
102
RTVSPropertyOp57
 70
     1
102
RTVSPropertyOp58
 70
     1
102
RTVSPropertyOp59
 70
     1
102
RTVSPropertyOp60
 70
     1
102
RTVSPropertyOp61
 70
     1
102
RTVSPropertyOp62
 70
     1
  0
ENDSEC
  0
EOF
